  0
SECTION
  2
HEADER
  9
$ACADVER
  1
AC1018
  9
$ACADMAINTVER
 70
    76
  9
$DWGCODEPAGE
  3
ANSI_1252
  9
$LASTSAVEDBY
  1
simone
  9
$INSBASE
 10
0.0
 20
0.0
 30
0.0
  9
$EXTMIN
 10
0.0149999999999999
 20
0.015
 30
0.0
  9
$EXTMAX
 10
3.143037779012381
 20
1.532575704742291
 30
0.0
  9
$LIMMIN
 10
0.0
 20
0.0
  9
$LIMMAX
 10
1.0
 20
0.5
  9
$ORTHOMODE
 70
     0
  9
$REGENMODE
 70
     1
  9
$FILLMODE
 70
     1
  9
$QTEXTMODE
 70
     0
  9
$MIRRTEXT
 70
     0
  9
$LTSCALE
 40
1.0
  9
$ATTMODE
 70
     1
  9
$TEXTSIZE
 40
0.005
  9
$TRACEWID
 40
1.0
  9
$TEXTSTYLE
  7
style1
  9
$CLAYER
  8
Dimensione
  9
$CELTYPE
  6
ByLayer
  9
$CECOLOR
 62
     2
  9
$CELTSCALE
 40
1.0
  9
$DISPSILH
 70
     0
  9
$DIMSCALE
 40
0.001
  9
$DIMASZ
 40
1.5
  9
$DIMEXO
 40
0.0625
  9
$DIMDLI
 40
0.38
  9
$DIMRND
 40
0.0
  9
$DIMDLE
 40
0.0
  9
$DIMEXE
 40
0.18
  9
$DIMTP
 40
0.0
  9
$DIMTM
 40
0.0
  9
$DIMTXT
 40
3.0
  9
$DIMCEN
 40
0.0
  9
$DIMTSZ
 40
0.0
  9
$DIMTOL
 70
     0
  9
$DIMLIM
 70
     0
  9
$DIMTIH
 70
     1
  9
$DIMTOH
 70
     1
  9
$DIMSE1
 70
     0
  9
$DIMSE2
 70
     0
  9
$DIMTAD
 70
     0
  9
$DIMZIN
 70
     0
  9
$DIMBLK
  1
ArchTick
  9
$DIMASO
 70
     1
  9
$DIMSHO
 70
     1
  9
$DIMPOST
  1

  9
$DIMAPOST
  1

  9
$DIMALT
 70
     0
  9
$DIMALTD
 70
     2
  9
$DIMALTF
 40
25.4
  9
$DIMLFAC
 40
1.0
  9
$DIMTOFL
 70
     0
  9
$DIMTVP
 40
0.0
  9
$DIMTIX
 70
     0
  9
$DIMSOXD
 70
     0
  9
$DIMSAH
 70
     0
  9
$DIMBLK1
  1

  9
$DIMBLK2
  1

  9
$DIMSTYLE
  2
Bovelacci
  9
$DIMCLRD
 70
     5
  9
$DIMCLRE
 70
     5
  9
$DIMCLRT
 70
     4
  9
$DIMTFAC
 40
1.0
  9
$DIMGAP
 40
2.0
  9
$DIMJUST
 70
     0
  9
$DIMSD1
 70
     0
  9
$DIMSD2
 70
     0
  9
$DIMTOLJ
 70
     1
  9
$DIMTZIN
 70
     0
  9
$DIMALTZ
 70
     0
  9
$DIMALTTZ
 70
     0
  9
$DIMUPT
 70
     0
  9
$DIMDEC
 70
     2
  9
$DIMTDEC
 70
     2
  9
$DIMALTU
 70
     2
  9
$DIMALTTD
 70
     2
  9
$DIMTXSTY
  7
ROMANS
  9
$DIMAUNIT
 70
     0
  9
$DIMADEC
 70
     0
  9
$DIMALTRND
 40
0.0
  9
$DIMAZIN
 70
     0
  9
$DIMDSEP
 70
    46
  9
$DIMATFIT
 70
     3
  9
$DIMFRAC
 70
     0
  9
$DIMLDRBLK
  1

  9
$DIMLUNIT
 70
     2
  9
$DIMLWD
 70
    -2
  9
$DIMLWE
 70
    -2
  9
$DIMTMOVE
 70
     2
  9
$LUNITS
 70
     2
  9
$LUPREC
 70
     2
  9
$SKETCHINC
 40
1.0
  9
$FILLETRAD
 40
0.0
  9
$AUNITS
 70
     0
  9
$AUPREC
 70
     0
  9
$MENU
  1
.
  9
$ELEVATION
 40
0.0
  9
$PELEVATION
 40
0.0
  9
$THICKNESS
 40
0.0
  9
$LIMCHECK
 70
     0
  9
$CHAMFERA
 40
0.0
  9
$CHAMFERB
 40
0.0
  9
$CHAMFERC
 40
0.0
  9
$CHAMFERD
 40
0.0
  9
$SKPOLY
 70
     0
  9
$TDCREATE
 40
2454297.625402373
  9
$TDUCREATE
 40
2454297.542069039
  9
$TDUPDATE
 40
2454364.737759965
  9
$TDUUPDATE
 40
2454364.654426632
  9
$TDINDWG
 40
1.3624900810
  9
$TDUSRTIMER
 40
1.3624895255
  9
$USRTIMER
 70
     1
  9
$ANGBASE
 50
0.0
  9
$ANGDIR
 70
     0
  9
$PDMODE
 70
     0
  9
$PDSIZE
 40
0.0
  9
$PLINEWID
 40
0.0
  9
$SPLFRAME
 70
     0
  9
$SPLINETYPE
 70
     6
  9
$SPLINESEGS
 70
     8
  9
$HANDSEED
  5
31D0
  9
$SURFTAB1
 70
     6
  9
$SURFTAB2
 70
     6
  9
$SURFTYPE
 70
     6
  9
$SURFU
 70
     6
  9
$SURFV
 70
     6
  9
$UCSBASE
  2

  9
$UCSNAME
  2

  9
$UCSORG
 10
0.0
 20
0.0
 30
0.0
  9
$UCSXDIR
 10
1.0
 20
0.0
 30
0.0
  9
$UCSYDIR
 10
0.0
 20
1.0
 30
0.0
  9
$UCSORTHOREF
  2

  9
$UCSORTHOVIEW
 70
     1
  9
$UCSORGTOP
 10
0.0
 20
0.0
 30
0.0
  9
$UCSORGBOTTOM
 10
0.0
 20
0.0
 30
0.0
  9
$UCSORGLEFT
 10
0.0
 20
0.0
 30
0.0
  9
$UCSORGRIGHT
 10
0.0
 20
0.0
 30
0.0
  9
$UCSORGFRONT
 10
0.0
 20
0.0
 30
0.0
  9
$UCSORGBACK
 10
0.0
 20
0.0
 30
0.0
  9
$PUCSBASE
  2

  9
$PUCSNAME
  2

  9
$PUCSORG
 10
0.0
 20
0.0
 30
0.0
  9
$PUCSXDIR
 10
1.0
 20
0.0
 30
0.0
  9
$PUCSYDIR
 10
0.0
 20
1.0
 30
0.0
  9
$PUCSORTHOREF
  2

  9
$PUCSORTHOVIEW
 70
     0
  9
$PUCSORGTOP
 10
0.0
 20
0.0
 30
0.0
  9
$PUCSORGBOTTOM
 10
0.0
 20
0.0
 30
0.0
  9
$PUCSORGLEFT
 10
0.0
 20
0.0
 30
0.0
  9
$PUCSORGRIGHT
 10
0.0
 20
0.0
 30
0.0
  9
$PUCSORGFRONT
 10
0.0
 20
0.0
 30
0.0
  9
$PUCSORGBACK
 10
0.0
 20
0.0
 30
0.0
  9
$USERI1
 70
     0
  9
$USERI2
 70
     0
  9
$USERI3
 70
     0
  9
$USERI4
 70
     0
  9
$USERI5
 70
     0
  9
$USERR1
 40
0.0
  9
$USERR2
 40
0.0
  9
$USERR3
 40
0.0
  9
$USERR4
 40
0.0
  9
$USERR5
 40
0.0
  9
$WORLDVIEW
 70
     1
  9
$SHADEDGE
 70
     3
  9
$SHADEDIF
 70
    70
  9
$TILEMODE
 70
     1
  9
$MAXACTVP
 70
    64
  9
$PINSBASE
 10
0.0
 20
0.0
 30
0.0
  9
$PLIMCHECK
 70
     0
  9
$PEXTMIN
 10
29.06606628894805
 20
20.36233246326446
 30
0.0
  9
$PEXTMAX
 10
261.5945966005325
 20
183.2609921693802
 30
0.0
  9
$PLIMMIN
 10
-3.17498779296875
 20
-3.174999952316281
  9
$PLIMMAX
 10
293.8356628417969
 20
206.7983276844024
  9
$UNITMODE
 70
     0
  9
$VISRETAIN
 70
     1
  9
$PLINEGEN
 70
     0
  9
$PSLTSCALE
 70
     1
  9
$TREEDEPTH
 70
  3020
  9
$CMLSTYLE
  2
Standard
  9
$CMLJUST
 70
     0
  9
$CMLSCALE
 40
20.0
  9
$PROXYGRAPHICS
 70
     1
  9
$MEASUREMENT
 70
     1
  9
$CELWEIGHT
370
    -1
  9
$ENDCAPS
280
     0
  9
$JOINSTYLE
280
     0
  9
$LWDISPLAY
290
     0
  9
$INSUNITS
 70
     4
  9
$HYPERLINKBASE
  1

  9
$STYLESHEET
  1

  9
$XEDIT
290
     1
  9
$CEPSNTYPE
380
     0
  9
$PSTYLEMODE
290
     1
  9
$FINGERPRINTGUID
  2
{4F38C4E7-9F37-4C76-96D9-79C94F9B03D9}
  9
$VERSIONGUID
  2
{48982B7D-7193-4A23-B210-031CAC44424B}
  9
$EXTNAMES
290
     1
  9
$PSVPSCALE
 40
0.0
  9
$OLESTARTUP
290
     0
  9
$SORTENTS
280
   127
  9
$INDEXCTL
280
     0
  9
$HIDETEXT
280
     1
  9
$XCLIPFRAME
290
     0
  9
$HALOGAP
280
     0
  9
$OBSCOLOR
 70
   257
  9
$OBSLTYPE
280
     0
  9
$INTERSECTIONDISPLAY
280
     0
  9
$INTERSECTIONCOLOR
 70
   257
  9
$DIMASSOC
280
     2
  9
$PROJECTNAME
  1

  0
ENDSEC
  0
SECTION
  2
CLASSES
  0
CLASS
  1
ACDBDICTIONARYWDFLT
  2
AcDbDictionaryWithDefault
  3
ObjectDBX Classes
 90
        0
 91
        1
280
     0
281
     0
  0
CLASS
  1
TABLESTYLE
  2
AcDbTableStyle
  3
ObjectDBX Classes
 90
     2047
 91
        1
280
     0
281
     0
  0
CLASS
  1
SORTENTSTABLE
  2
AcDbSortentsTable
  3
ObjectDBX Classes
 90
        0
 91
        6
280
     0
281
     0
  0
CLASS
  1
DICTIONARYVAR
  2
AcDbDictionaryVar
  3
ObjectDBX Classes
 90
        0
 91
        6
280
     0
281
     0
  0
CLASS
  1
DIMASSOC
  2
AcDbDimAssoc
  3
"AcDbDimAssoc|Product Desc:     AcDim ARX App For Dimension|Company:          Autodesk, Inc.|WEB Address:      www.autodesk.com"
 90
        0
 91
        2
280
     0
281
     0
  0
CLASS
  1
ACDBPLACEHOLDER
  2
AcDbPlaceHolder
  3
ObjectDBX Classes
 90
        0
 91
        1
280
     0
281
     0
  0
CLASS
  1
LAYOUT
  2
AcDbLayout
  3
ObjectDBX Classes
 90
        0
 91
        3
280
     0
281
     0
  0
CLASS
  1
MATERIAL
  2
AcDbMaterial
  3
ObjectDBX Classes
 90
        0
 91
        3
280
     0
281
     0
  0
CLASS
  1
VISUALSTYLE
  2
AcDbVisualStyle
  3
ObjectDBX Classes
 90
     4095
 91
       16
280
     0
281
     0
  0
CLASS
  1
IMAGEDEF
  2
AcDbRasterImageDef
  3
ISM
 90
        0
 91
        4
280
     0
281
     0
  0
CLASS
  1
RASTERVARIABLES
  2
AcDbRasterVariables
  3
ISM
 90
        0
 91
        1
280
     0
281
     0
  0
CLASS
  1
IMAGEDEF_REACTOR
  2
AcDbRasterImageDefReactor
  3
ISM
 90
        1
 91
        4
280
     0
281
     0
  0
CLASS
  1
IMAGE
  2
AcDbRasterImage
  3
ISM
 90
      127
 91
        4
280
     0
281
     1
  0
ENDSEC
  0
SECTION
  2
TABLES
  0
TABLE
  2
VPORT
  5
96
330
0
100
AcDbSymbolTable
 70
    27
  0
VPORT
  5
31CF
330
96
100
AcDbSymbolTableRecord
100
AcDbViewportTableRecord
  2
*Active
 70
     0
 10
0.0
 20
0.0
 11
1.0
 21
1.0
 12
0.2220538316703829
 22
0.1557062725545112
 13
0.0
 23
0.0
 14
10.0
 24
10.0
 15
10.0
 25
10.0
 16
0.0
 26
0.0
 36
1.0
 17
0.0
 27
0.0
 37
0.0
 40
0.4393002327610957
 41
1.320054945054945
 42
50.0
 43
0.0
 44
0.0
 50
0.0
 51
0.0
 71
     0
 72
  1000
 73
     1
 74
     3
 75
     0
 76
     0
 77
     0
 78
     0
281
     0
 65
     1
110
0.0
120
0.0
130
0.0
111
1.0
121
0.0
131
0.0
112
0.0
122
1.0
132
0.0
 79
     1
146
0.0
  0
ENDTAB
  0
TABLE
  2
LTYPE
  5
91
330
0
100
AcDbSymbolTable
 70
     5
  0
LTYPE
  5
92
330
91
100
AcDbSymbolTableRecord
100
AcDbLinetypeTableRecord
  2
ByBlock
 70
     0
  3

 72
    65
 73
     0
 40
0.0
  0
LTYPE
  5
93
330
91
100
AcDbSymbolTableRecord
100
AcDbLinetypeTableRecord
  2
ByLayer
 70
     0
  3

 72
    65
 73
     0
 40
0.0
  0
LTYPE
  5
C
330
91
100
AcDbSymbolTableRecord
100
AcDbLinetypeTableRecord
  2
Continuous
 70
     0
  3
Solid line
 72
    65
 73
     0
 40
0.0
  0
LTYPE
  5
105
330
91
100
AcDbSymbolTableRecord
100
AcDbLinetypeTableRecord
  2
ACAD_ISO10W100
 70
     0
  3
ISO dash dot __ . __ . __ . __ . __ . __ . __ .
 72
    65
 73
     4
 40
18.0
 49
12.0
 74
     0
 49
-3.0
 74
     0
 49
0.0
 74
     0
 49
-3.0
 74
     0
  0
LTYPE
  5
190
330
91
100
AcDbSymbolTableRecord
100
AcDbLinetypeTableRecord
  2
RAYITAX4
 70
     0
  3
RAYITAX4
 72
    65
 73
     2
 40
18.0
 49
12.0
 74
     0
 49
-6.0
 74
     0
  0
LTYPE
  5
73C
330
91
100
AcDbSymbolTableRecord
100
AcDbLinetypeTableRecord
  2
RAYITA
 70
     0
  3
rayita
 72
    65
 73
     2
 40
1.5
 49
1.0
 74
     0
 49
-0.5
 74
     0
  0
ENDTAB
  0
TABLE
  2
LAYER
  5
8A
102
{ACAD_XDICTIONARY
360
8B
102
}
330
0
100
AcDbSymbolTable
 70
    12
  0
LAYER
  5
6
330
8A
100
AcDbSymbolTableRecord
100
AcDbLayerTableRecord
  2
0
 70
     0
 62
     7
  6
Continuous
370
    -3
390
7
  0
LAYER
  5
3F
330
8A
100
AcDbSymbolTableRecord
100
AcDbLayerTableRecord
  2
Defpoints
 70
     0
 62
     7
  6
Continuous
290
     0
370
    -3
390
7
  0
LAYER
  5
2E
330
8A
100
AcDbSymbolTableRecord
100
AcDbLayerTableRecord
  2
Dimensione
 70
     0
 62
   150
  6
Continuous
370
    -3
390
7
1001
AcAecLayerStandard
1000

1000

  0
LAYER
  5
2A
330
8A
100
AcDbSymbolTableRecord
100
AcDbLayerTableRecord
  2
Profilo
 70
     0
 62
     1
  6
Continuous
370
    -3
390
7
1001
AcAecLayerStandard
1000

1000

  0
LAYER
  5
54
330
8A
100
AcDbSymbolTableRecord
100
AcDbLayerTableRecord
  2
Sezione
 70
     0
 62
     2
  6
Continuous
370
    -3
390
7
1001
AcAecLayerStandard
1000

1000

  0
LAYER
  5
E
330
8A
100
AcDbSymbolTableRecord
100
AcDbLayerTableRecord
  2
Table
 70
     0
 62
     3
  6
Continuous
370
    -3
390
7
1001
AcAecLayerStandard
1000

1000

  0
LAYER
  5
19
330
8A
100
AcDbSymbolTableRecord
100
AcDbLayerTableRecord
  2
Text
 70
     0
 62
     4
  6
Continuous
370
    -3
390
7
1001
AcAecLayerStandard
1000

1000

  0
LAYER
  5
5C
330
8A
100
AcDbSymbolTableRecord
100
AcDbLayerTableRecord
  2
Vista
 70
     0
 62
     2
  6
Continuous
370
    -3
390
7
1001
AcAecLayerStandard
1000

1000

  0
LAYER
  5
256
330
8A
100
AcDbSymbolTableRecord
100
AcDbLayerTableRecord
  2
CORTE
 70
     0
 62
     1
  6
Continuous
370
    -3
390
7
  0
LAYER
  5
40E
330
8A
100
AcDbSymbolTableRecord
100
AcDbLayerTableRecord
  2
COTAS
 70
     0
 62
     4
  6
Continuous
370
    -3
390
7
  0
LAYER
  5
594
330
8A
100
AcDbSymbolTableRecord
100
AcDbLayerTableRecord
  2
MARCO
 70
     0
 62
     4
  6
Continuous
370
    -3
390
7
  0
LAYER
  5
B5A
330
8A
100
AcDbSymbolTableRecord
100
AcDbLayerTableRecord
  2
TRAMA
 70
     0
 62
     4
  6
Continuous
370
    -3
390
7
  0
ENDTAB
  0
TABLE
  2
STYLE
  5
8F
330
0
100
AcDbSymbolTable
 70
     5
  0
STYLE
  5
1A
330
8F
100
AcDbSymbolTableRecord
100
AcDbTextStyleTableRecord
  2
Standard
 70
     0
 40
0.0
 41
1.0
 50
0.0
 71
     0
 42
2.5
  3
txt
  4

  0
STYLE
  5
20
330
8F
100
AcDbSymbolTableRecord
100
AcDbTextStyleTableRecord
  2
ROMANS
 70
     0
 40
0.0
 41
1.0
 50
0.0
 71
     0
 42
2.5
  3
romans
  4

  0
STYLE
  5
28
330
8F
100
AcDbSymbolTableRecord
100
AcDbTextStyleTableRecord
  2
Arial
 70
     0
 40
0.0
 41
1.0
 50
0.0
 71
     0
 42
0.25
  3
ARIAL.TTF
  4

1001
ACAD
1000
Arial
1071
       34
  0
STYLE
  5
26
330
8F
100
AcDbSymbolTableRecord
100
AcDbTextStyleTableRecord
  2
style1
 70
     0
 40
0.0
 41
1.0
 50
0.0
 71
     0
 42
0.005
  3
TIMES.TTF
  4

1001
ACAD
1000
Times New Roman
1071
       18
  0
STYLE
  5
595
330
8F
100
AcDbSymbolTableRecord
100
AcDbTextStyleTableRecord
  2
EUROROMANOBLIQUE
 70
     0
 40
0.0
 41
1.0
 50
0.0
 71
     0
 42
2.5
  3
euro____.pfb
  4

  0
ENDTAB
  0
TABLE
  2
VIEW
  5
94
330
0
100
AcDbSymbolTable
 70
     0
  0
ENDTAB
  0
TABLE
  2
UCS
  5
95
330
0
100
AcDbSymbolTable
 70
     0
  0
ENDTAB
  0
TABLE
  2
APPID
  5
98
330
0
100
AcDbSymbolTable
 70
     9
  0
APPID
  5
1B
330
98
100
AcDbSymbolTableRecord
100
AcDbRegAppTableRecord
  2
ACAD
 70
     0
  0
APPID
  5
34
330
98
100
AcDbSymbolTableRecord
100
AcDbRegAppTableRecord
  2
ACAD_DSTYLE_DIMJOGGED_JOGANGLE_SYMBOL
 70
     0
  0
APPID
  5
F
330
98
100
AcDbSymbolTableRecord
100
AcDbRegAppTableRecord
  2
AcAecLayerStandard
 70
     0
  0
APPID
  5
85
330
98
100
AcDbSymbolTableRecord
100
AcDbRegAppTableRecord
  2
ACAD_PSEXT
 70
     0
  0
APPID
  5
BA
330
98
100
AcDbSymbolTableRecord
100
AcDbRegAppTableRecord
  2
ACAD_DSTYLE_DIMEXT_LENGTH
 70
     0
  0
APPID
  5
101
330
98
100
AcDbSymbolTableRecord
100
AcDbRegAppTableRecord
  2
ACAD_EXEMPT_FROM_CAD_STANDARDS
 70
     0
  0
APPID
  5
102
330
98
100
AcDbSymbolTableRecord
100
AcDbRegAppTableRecord
  2
ACAD_DSTYLE_DIM_LINETYPE
 70
     0
  0
APPID
  5
103
330
98
100
AcDbSymbolTableRecord
100
AcDbRegAppTableRecord
  2
ACAD_DSTYLE_DIM_EXT1_LINETYPE
 70
     0
  0
APPID
  5
104
330
98
100
AcDbSymbolTableRecord
100
AcDbRegAppTableRecord
  2
ACAD_DSTYLE_DIM_EXT2_LINETYPE
 70
     0
  0
ENDTAB
  0
TABLE
  2
DIMSTYLE
  5
99
330
0
100
AcDbSymbolTable
 70
     8
100
AcDbDimStyleTable
 71
     2
340
2F
340
9A
  0
DIMSTYLE
105
9A
330
99
100
AcDbSymbolTableRecord
100
AcDbDimStyleTableRecord
  2
ISO-25
 70
     0
 41
2.5
 42
0.625
 43
3.75
 44
1.25
 73
     0
 74
     0
 77
     1
 78
     8
140
2.5
141
2.5
143
0.03937007874016
147
0.625
171
     3
172
     1
271
     2
272
     2
274
     3
278
    44
283
     0
284
     8
340
1A
  0
DIMSTYLE
105
2F
102
{ACAD_REACTORS
330
2DED
330
2E07
102
}
330
99
100
AcDbSymbolTableRecord
100
AcDbDimStyleTableRecord
  2
Bovelacci
 70
     0
 40
0.001
 41
1.5
140
3.0
141
0.0
147
2.0
176
     5
177
     5
178
     4
271
     2
272
     2
279
     2
340
20
342
30
1001
ACAD_DSTYLE_DIMJOGGED_JOGANGLE_SYMBOL
1070
   384
1040
0.7853981633974483
1001
ACAD_DSTYLE_DIMEXT_LENGTH
1070
   378
1040
0.18
  0
DIMSTYLE
105
194
330
99
100
AcDbSymbolTableRecord
100
AcDbDimStyleTableRecord
  2
STANDARD
 70
     0
340
1A
  0
DIMSTYLE
105
4EB
330
99
100
AcDbSymbolTableRecord
100
AcDbDimStyleTableRecord
  2
Dim 1-100
 70
     0
 40
0.1
 41
1.5
 42
0.0
 43
5.0
 44
1.25
 45
0.005
 46
1.25
 73
     0
 74
     0
 77
     1
 78
     9
140
2.0
141
2.5
147
1.0
172
     1
174
     1
179
     2
279
     2
289
     2
340
20
342
30
  0
DIMSTYLE
105
4EC
330
99
100
AcDbSymbolTableRecord
100
AcDbDimStyleTableRecord
  2
Dim 1-50
 70
     0
 40
0.05
 41
1.5
 42
0.0
 43
5.0
 44
1.25
 45
0.005
 46
1.25
 73
     0
 74
     0
 77
     1
 78
     9
140
2.0
141
2.5
147
1.0
172
     1
174
     1
179
     2
279
     2
289
     2
340
20
342
30
  0
DIMSTYLE
105
4ED
330
99
100
AcDbSymbolTableRecord
100
AcDbDimStyleTableRecord
  2
Dim 1-200
 70
     0
 40
0.2
 41
1.5
 42
0.0
 43
5.0
 44
1.25
 45
0.005
 46
1.25
 73
     0
 74
     0
 77
     1
 78
     9
140
2.0
141
2.5
147
1.0
172
     1
174
     1
179
     2
271
     2
272
     2
279
     2
289
     2
340
20
342
30
  0
DIMSTYLE
105
4EE
330
99
100
AcDbSymbolTableRecord
100
AcDbDimStyleTableRecord
  2
AEC Scale - Italiano
 70
     0
 41
1.0
 42
10.0
 43
10.0
 44
10.0
 73
     0
 74
     0
 75
     1
 76
     1
 77
     1
140
10.0
141
1.0
147
10.0
173
     1
271
     0
272
     0
279
     2
340
1A
343
4E6
344
4E0
  0
ENDTAB
  0
TABLE
  2
BLOCK_RECORD
  5
1
330
0
100
AcDbSymbolTable
 70
    28
  0
BLOCK_RECORD
  5
2
102
{ACAD_XDICTIONARY
360
3
102
}
330
1
100
AcDbSymbolTableRecord
100
AcDbBlockTableRecord
  2
*Model_Space
340
77
  0
BLOCK_RECORD
  5
79
330
1
100
AcDbSymbolTableRecord
100
AcDbBlockTableRecord
  2
*Paper_Space
340
82
  0
BLOCK_RECORD
  5
86
330
1
100
AcDbSymbolTableRecord
100
AcDbBlockTableRecord
  2
*Paper_Space0
340
89
  0
BLOCK_RECORD
  5
30
330
1
100
AcDbSymbolTableRecord
100
AcDbBlockTableRecord
  2
_ArchTick
340
0
310
2800000020000000200000000100080000000000000400000000000000000000000000000000000000000000000080000080000000808000800000008000800080800000C0C0C000C0DCC000F0CAA6000020400000206000002080000020A0000020C0000020E00000400000004020000040400000406000004080000040A0
310
000040C0000040E00000600000006020000060400000606000006080000060A0000060C0000060E00000800000008020000080400000806000008080000080A0000080C0000080E00000A0000000A0200000A0400000A0600000A0800000A0A00000A0C00000A0E00000C0000000C0200000C0400000C0600000C0800000C0
310
A00000C0C00000C0E00000E0000000E0200000E0400000E0600000E0800000E0A00000E0C00000E0E00040000000400020004000400040006000400080004000A0004000C0004000E00040200000402020004020400040206000402080004020A0004020C0004020E000404000004040200040404000404060004040800040
310
40A0004040C0004040E00040600000406020004060400040606000406080004060A0004060C0004060E00040800000408020004080400040806000408080004080A0004080C0004080E00040A0000040A0200040A0400040A0600040A0800040A0A00040A0C00040A0E00040C0000040C0200040C0400040C0600040C08000
310
40C0A00040C0C00040C0E00040E0000040E0200040E0400040E0600040E0800040E0A00040E0C00040E0E00080000000800020008000400080006000800080008000A0008000C0008000E00080200000802020008020400080206000802080008020A0008020C0008020E00080400000804020008040400080406000804080
310
008040A0008040C0008040E00080600000806020008060400080606000806080008060A0008060C0008060E00080800000808020008080400080806000808080008080A0008080C0008080E00080A0000080A0200080A0400080A0600080A0800080A0A00080A0C00080A0E00080C0000080C0200080C0400080C0600080C0
310
800080C0A00080C0C00080C0E00080E0000080E0200080E0400080E0600080E0800080E0A00080E0C00080E0E000C0000000C0002000C0004000C0006000C0008000C000A000C000C000C000E000C0200000C0202000C0204000C0206000C0208000C020A000C020C000C020E000C0400000C0402000C0404000C0406000C0
310
408000C040A000C040C000C040E000C0600000C0602000C0604000C0606000C0608000C060A000C060C000C060E000C0800000C0802000C0804000C0806000C0808000C080A000C080C000C080E000C0A00000C0A02000C0A04000C0A06000C0A08000C0A0A000C0A0C000C0A0E000C0C00000C0C02000C0C04000C0C06000
310
C0C08000C0C0A000F0FBFF00A4A0A000808080000000FF0000FF000000FFFF00FF000000FF00FF00FFFF0000FFFFFF00000000FF000000000000000000000000000000000000000000000000000000000000FF00FF00000000000000000000000000000000000000000000000000000000FF000000FF000000000000000000
310
0000000000000000000000000000000000FF0000000000FF0000000000000000000000000000000000000000000000000000FF0000000000FF0000000000000000000000000000000000000000000000000000FF0000000000FF0000000000000000000000000000000000000000000000000000FF0000000000FF00000000
310
00000000000000000000000000000000000000000000FF0000000000FF0000000000000000000000000000000000000000000000000000FF0000000000FF0000000000000000000000000000000000000000000000000000FF0000000000FF0000000000000000000000000000000000000000000000000000FF0000000000
310
FF0000000000000000000000000000000000000000000000000000FF0000000000FF0000000000000000000000000000000000000000000000000000FF0000000000FF0000000000000000000000000000000000000000000000000000FF0000000000FF0000000000000000000000000000000000000000000000000000FF
310
0000000000FF0000000000000000000000000000000000000000000000000000FF0000000000FF0000000000000000000000000000000000000000000000000000FF0000000000FF0000000000000000000000000000000000000000000000000000FF0000000000FF00000000000000000000000000000000000000000000
310
00000000FF0000000000FF0000000000000000000000000000000000000000000000000000FF0000000000FF0000000000000000000000000000000000000000000000000000FF0000000000FF0000000000000000000000000000000000000000000000000000FF0000000000FF0000000000000000000000000000000000
310
000000000000000000FF0000000000FF0000000000000000000000000000000000000000000000000000FF0000000000FF0000000000000000000000000000000000000000000000000000FF0000000000FF0000000000000000000000000000000000000000000000000000FF0000000000FF000000000000000000000000
310
0000000000000000000000000000FF0000000000FF0000000000000000000000000000000000000000000000000000FF0000000000FF0000000000000000000000000000000000000000000000000000FF0000000000FF0000000000000000000000000000000000000000000000000000FF000000FF000000000000000000
310
00000000000000000000000000000000000000FF00FF000000000000000000000000000000000000000000000000000000000000FF000000
102
{BLKREFS
331
23F6
331
23F7
331
242A
331
242B
331
26C7
331
26C8
331
26E1
331
26E2
331
26FB
331
26FC
331
290A
331
290B
331
2924
331
2925
331
2B71
331
2B72
331
2B8B
331
2B8C
331
3003
331
3004
331
307B
331
307C
102
}
  0
BLOCK_RECORD
  5
179
330
1
100
AcDbSymbolTableRecord
100
AcDbBlockTableRecord
  2
DOT
340
0
  0
BLOCK_RECORD
  5
213
330
1
100
AcDbSymbolTableRecord
100
AcDbBlockTableRecord
  2
ELEMENT
340
0
102
{BLKREFS
331
244
102
}
  0
BLOCK_RECORD
  5
235
330
1
100
AcDbSymbolTableRecord
100
AcDbBlockTableRecord
  2
NOM-J
340
0
  0
BLOCK_RECORD
  5
3FB
330
1
100
AcDbSymbolTableRecord
100
AcDbBlockTableRecord
  2
NOM-QR
340
0
  0
BLOCK_RECORD
  5
4E0
330
1
100
AcDbSymbolTableRecord
100
AcDbBlockTableRecord
  2
_Arrivo
340
0
310
2800000020000000200000000100080000000000000400000000000000000000000000000000000000000000000080000080000000808000800000008000800080800000C0C0C000C0DCC000F0CAA6000020400000206000002080000020A0000020C0000020E00000400000004020000040400000406000004080000040A0
310
000040C0000040E00000600000006020000060400000606000006080000060A0000060C0000060E00000800000008020000080400000806000008080000080A0000080C0000080E00000A0000000A0200000A0400000A0600000A0800000A0A00000A0C00000A0E00000C0000000C0200000C0400000C0600000C0800000C0
310
A00000C0C00000C0E00000E0000000E0200000E0400000E0600000E0800000E0A00000E0C00000E0E00040000000400020004000400040006000400080004000A0004000C0004000E00040200000402020004020400040206000402080004020A0004020C0004020E000404000004040200040404000404060004040800040
310
40A0004040C0004040E00040600000406020004060400040606000406080004060A0004060C0004060E00040800000408020004080400040806000408080004080A0004080C0004080E00040A0000040A0200040A0400040A0600040A0800040A0A00040A0C00040A0E00040C0000040C0200040C0400040C0600040C08000
310
40C0A00040C0C00040C0E00040E0000040E0200040E0400040E0600040E0800040E0A00040E0C00040E0E00080000000800020008000400080006000800080008000A0008000C0008000E00080200000802020008020400080206000802080008020A0008020C0008020E00080400000804020008040400080406000804080
310
008040A0008040C0008040E00080600000806020008060400080606000806080008060A0008060C0008060E00080800000808020008080400080806000808080008080A0008080C0008080E00080A0000080A0200080A0400080A0600080A0800080A0A00080A0C00080A0E00080C0000080C0200080C0400080C0600080C0
310
800080C0A00080C0C00080C0E00080E0000080E0200080E0400080E0600080E0800080E0A00080E0C00080E0E000C0000000C0002000C0004000C0006000C0008000C000A000C000C000C000E000C0200000C0202000C0204000C0206000C0208000C020A000C020C000C020E000C0400000C0402000C0404000C0406000C0
310
408000C040A000C040C000C040E000C0600000C0602000C0604000C0606000C0608000C060A000C060C000C060E000C0800000C0802000C0804000C0806000C0808000C080A000C080C000C080E000C0A00000C0A02000C0A04000C0A06000C0A08000C0A0A000C0A0C000C0A0E000C0C00000C0C02000C0C04000C0C06000
310
C0C08000C0C0A000F0FBFF00A4A0A000808080000000FF0000FF000000FFFF00FF000000FF00FF00FFFF0000FFFFFF00000000000000000000000000000000000000000000000000000000000000000000000000000000000000FF0000000000000000000000000000000000000000000000000000000000000000FF000000
310
00000000000000000000000000000000000000000000000000000000FF0000000000000000000000000000000000000000000000000000000000000000FF00000000000000000000000000000000000000000000000000000000000000FF0000000000000000000000000000000000000000000000000000000000000000FF
310
0000000000000000000000000000000000000000000000000000000000000000FF00000000000000000000000000000000000000000000000000000000000000FF0000000000000000000000000000000000000000000000000000000000000000FF0000000000000000000000000000000000000000000000000000000000
310
0000FF0000000000000000000000000000000000000000000000000000000000000000FF00000000000000000000000000000000000000000000000000000000000000FF0000000000000000000000000000000000000000000000000000000000000000FF0000FF0000000000000000000000000000000000000000000000
310
000000000000FFFF000000000000000000000000000000000000000000000000000000000000FFFF00000000000000000000000000000000000000000000000000000000FFFFFFFFFFFF00000000000000000000000000000000000000000000000000000000FFFF0000000000000000000000000000000000000000000000
310
000000000000FF0000FF000000000000000000000000000000000000000000000000000000FF00000000000000000000000000000000000000000000000000000000000000FF000000000000000000000000000000000000000000000000000000000000FF0000000000000000000000000000000000000000000000000000
310
0000000000FF000000000000000000000000000000000000000000000000000000000000FF00000000000000000000000000000000000000000000000000000000000000FF000000000000000000000000000000000000000000000000000000000000FF000000000000000000000000000000000000000000000000000000
310
000000FF00000000000000000000000000000000000000000000000000000000000000FF000000000000000000000000000000000000000000000000000000000000FF00000000000000000000000000000000000000000000000000000000000000FF00000000000000000000000000000000000000000000000000000000
310
0000FF0000000000000000000000000000000000000000000000000000000000000000000000000000000000000000000000000000000000
  0
BLOCK_RECORD
  5
4E6
330
1
100
AcDbSymbolTableRecord
100
AcDbBlockTableRecord
  2
_Partenza
340
0
310
2800000020000000200000000100080000000000000400000000000000000000000000000000000000000000000080000080000000808000800000008000800080800000C0C0C000C0DCC000F0CAA6000020400000206000002080000020A0000020C0000020E00000400000004020000040400000406000004080000040A0
310
000040C0000040E00000600000006020000060400000606000006080000060A0000060C0000060E00000800000008020000080400000806000008080000080A0000080C0000080E00000A0000000A0200000A0400000A0600000A0800000A0A00000A0C00000A0E00000C0000000C0200000C0400000C0600000C0800000C0
310
A00000C0C00000C0E00000E0000000E0200000E0400000E0600000E0800000E0A00000E0C00000E0E00040000000400020004000400040006000400080004000A0004000C0004000E00040200000402020004020400040206000402080004020A0004020C0004020E000404000004040200040404000404060004040800040
310
40A0004040C0004040E00040600000406020004060400040606000406080004060A0004060C0004060E00040800000408020004080400040806000408080004080A0004080C0004080E00040A0000040A0200040A0400040A0600040A0800040A0A00040A0C00040A0E00040C0000040C0200040C0400040C0600040C08000
310
40C0A00040C0C00040C0E00040E0000040E0200040E0400040E0600040E0800040E0A00040E0C00040E0E00080000000800020008000400080006000800080008000A0008000C0008000E00080200000802020008020400080206000802080008020A0008020C0008020E00080400000804020008040400080406000804080
310
008040A0008040C0008040E00080600000806020008060400080606000806080008060A0008060C0008060E00080800000808020008080400080806000808080008080A0008080C0008080E00080A0000080A0200080A0400080A0600080A0800080A0A00080A0C00080A0E00080C0000080C0200080C0400080C0600080C0
310
800080C0A00080C0C00080C0E00080E0000080E0200080E0400080E0600080E0800080E0A00080E0C00080E0E000C0000000C0002000C0004000C0006000C0008000C000A000C000C000C000E000C0200000C0202000C0204000C0206000C0208000C020A000C020C000C020E000C0400000C0402000C0404000C0406000C0
310
408000C040A000C040C000C040E000C0600000C0602000C0604000C0606000C0608000C060A000C060C000C060E000C0800000C0802000C0804000C0806000C0808000C080A000C080C000C080E000C0A00000C0A02000C0A04000C0A06000C0A08000C0A0A000C0A0C000C0A0E000C0C00000C0C02000C0C04000C0C06000
310
C0C08000C0C0A000F0FBFF00A4A0A000808080000000FF0000FF000000FFFF00FF000000FF00FF00FFFF0000FFFFFF0000000000000000000000000000000000000000000000000000000000000000000000000000000000000000000000000000000000000000000000000000000000000000000000000000000000000000
310
000000000000000000000000000000000000000000000000000000000000000000000000000000000000000000000000000000000000000000000000000000000000000000000000000000000000000000000000000000000000000000000000000000000000000000000000000000000000FFFFFFFFFFFFFFFFFFFFFFFFFF
310
FFFFFFFFFFFFFFFFFFFFFFFFFFFFFFFFFF0000000000000000000000000000000000000000000000000000000000000000000000000000000000000000000000000000000000000000000000000000000000000000000000000000000000000000000000000000000000000000000000000000000000000000000000000000
310
00000000000000000000000000000000000000000000000000000000000000000000000000000000000000000000000000000000000000000000000000000000000000000000000000000000000000000000000000000000000000000000000000000000000000000000000000000000000000000000000000000000000000
310
00000000000000000000000000000000000000000000000000000000000000000000000000000000000000000000000000000000000000000000000000000000000000000000000000000000000000000000000000000000000000000000000000000000000000000000000000000000000000000000000000000000000000
310
00000000000000000000000000000000000000000000000000000000000000000000000000000000000000000000000000000000000000000000000000000000000000000000000000000000000000000000000000000000000000000000000000000000000000000000000000000000000000000000000000000000000000
310
000000000000000000000000000000000000000000000000000000000000000000000000000000000000000000000000000000000000000000000000000000000000000000000000000000000000000000000000000000FFFFFFFFFFFFFFFFFFFFFFFFFFFFFFFFFFFFFFFFFFFFFFFFFFFFFFFFFFFF00000000000000000000
310
00000000000000000000000000000000000000000000000000000000000000000000000000000000000000000000000000000000000000000000000000000000000000000000000000000000000000000000000000000000000000000000000000000000000000000000000000000000000000000000000000000000000000
310
0000000000000000000000000000000000000000000000000000000000000000000000000000000000000000000000000000000000000000
  0
BLOCK_RECORD
  5
73D
330
1
100
AcDbSymbolTableRecord
100
AcDbBlockTableRecord
  2
A$C6CE44357
340
0
1001
ACAD
1000
DesignCenter Data
1002
{
1070
     1
1070
     0
1002
}
  0
BLOCK_RECORD
  5
B69
102
{ACAD_XDICTIONARY
360
B6D
102
}
330
1
100
AcDbSymbolTableRecord
100
AcDbBlockTableRecord
  2
A$C263D6B6A
340
0
1001
ACAD
1000
DesignCenter Data
1002
{
1070
     1
1070
     4
1002
}
  0
BLOCK_RECORD
  5
BFB
330
1
100
AcDbSymbolTableRecord
100
AcDbBlockTableRecord
  2
*X10
340
0
102
{BLKREFS
331
C22
102
}
  0
BLOCK_RECORD
  5
C1F
330
1
100
AcDbSymbolTableRecord
100
AcDbBlockTableRecord
  2
A$C6C65579B
340
0
1001
ACAD
1000
DesignCenter Data
1002
{
1070
     1
1070
     0
1002
}
  0
BLOCK_RECORD
  5
2DEE
330
1
100
AcDbSymbolTableRecord
100
AcDbBlockTableRecord
  2
*D21
340
0
  0
BLOCK_RECORD
  5
2E08
330
1
100
AcDbSymbolTableRecord
100
AcDbBlockTableRecord
  2
*D22
340
0
  0
ENDTAB
  0
ENDSEC
  0
SECTION
  2
BLOCKS
  0
BLOCK
  5
5
330
2
100
AcDbEntity
  8
0
100
AcDbBlockBegin
  2
*Model_Space
 70
     0
 10
0.0
 20
0.0
 30
0.0
  3
*Model_Space
  1

  0
ENDBLK
  5
76
330
2
100
AcDbEntity
  8
0
100
AcDbBlockEnd
  0
BLOCK
  5
7A
330
79
100
AcDbEntity
 67
     1
  8
0
100
AcDbBlockBegin
  2
*Paper_Space
 70
     0
 10
0.0
 20
0.0
 30
0.0
  3
*Paper_Space
  1

  0
ENDBLK
  5
81
330
79
100
AcDbEntity
 67
     1
  8
0
100
AcDbBlockEnd
  0
BLOCK
  5
87
330
86
100
AcDbEntity
 67
     1
  8
0
100
AcDbBlockBegin
  2
*Paper_Space0
 70
     0
 10
0.0
 20
0.0
 30
0.0
  3
*Paper_Space0
  1

  0
ENDBLK
  5
88
330
86
100
AcDbEntity
 67
     1
  8
0
100
AcDbBlockEnd
  0
BLOCK
  5
31
330
30
100
AcDbEntity
  8
0
 62
     1
100
AcDbBlockBegin
  2
_ArchTick
 70
     0
 10
0.0
 20
0.0
 30
0.0
  3
_ArchTick
  1

  0
LWPOLYLINE
  5
32
330
30
100
AcDbEntity
  8
0
  6
ByBlock
 62
     0
100
AcDbPolyline
 90
        2
 70
     0
 43
0.15
 10
-0.5
 20
-0.5
 10
0.5
 20
0.5
  0
ENDBLK
  5
33
330
30
100
AcDbEntity
  8
0
 62
     1
100
AcDbBlockEnd
  0
BLOCK
  5
17A
330
179
100
AcDbEntity
  8
0
100
AcDbBlockBegin
  2
DOT
 70
     0
 10
0.0
 20
0.0
 30
0.0
  3
DOT
  1

  0
LWPOLYLINE
  5
17B
330
179
100
AcDbEntity
  8
0
  6
ByBlock
 62
     0
100
AcDbPolyline
 90
        2
 70
     1
 43
0.5
 10
-0.25
 20
0.0
 42
1.0
 10
0.25
 20
0.0
 42
1.0
  0
LINE
  5
17C
330
179
100
AcDbEntity
  8
0
  6
ByBlock
 62
     0
100
AcDbLine
 10
-0.5
 20
0.0
 30
0.0
 11
-1.0
 21
0.0
 31
0.0
  0
ENDBLK
  5
17D
330
179
100
AcDbEntity
  8
0
100
AcDbBlockEnd
  0
BLOCK
  5
214
330
213
100
AcDbEntity
  8
0
100
AcDbBlockBegin
  2
ELEMENT
 70
     0
 10
0.0
 20
0.0
 30
0.0
  3
ELEMENT
  1

  0
LINE
  5
215
330
213
100
AcDbEntity
  8
CORTE
 62
     1
100
AcDbLine
 10
0.0287752548522349
 20
0.037775254852221
 30
0.0
 11
0.0062928932188697
 21
0.015292893218799
 31
0.0
  0
ARC
  5
216
330
213
100
AcDbEntity
  8
CORTE
 62
     1
100
AcDbCircle
 10
0.0148333333333994
 20
0.0291666666666402
 30
0.0
 40
0.0191847740553366
100
AcDbArc
 50
270.4730994291238
 51
359.5269005707907
  0
LINE
  5
217
330
213
100
AcDbEntity
  8
CORTE
100
AcDbLine
 10
0.0130000000000337
 20
-0.0000000000000568
 30
0.0
 11
0.0099999999999909
 21
0.0000000000000284
 31
0.0
  0
LINE
  5
218
330
213
100
AcDbEntity
  8
CORTE
100
AcDbLine
 10
-0.0009999999999764
 20
0.0010000000000048
 30
0.0
 11
-0.0009999999999764
 21
0.0140000000000384
 31
0.0
  0
ARC
  5
219
330
213
100
AcDbEntity
  8
CORTE
100
AcDbCircle
 10
0.0
 20
0.0010000000000048
 30
0.0
 40
0.001
100
AcDbArc
 50
180.0
 51
269.9999999991858
  0
LINE
  5
21A
330
213
100
AcDbEntity
  8
CORTE
100
AcDbLine
 10
0.0040000000000191
 20
-0.0039999999999623
 30
0.0
 11
0.0040000000000191
 21
-0.0010000000000332
 31
0.0
  0
LINE
  5
21B
330
213
100
AcDbEntity
  8
CORTE
100
AcDbLine
 10
0.0090000000000146
 20
-0.0039999999999907
 30
0.0
 11
0.0090000000000146
 21
-0.0009999999999764
 31
0.0
  0
ARC
  5
21C
330
213
100
AcDbEntity
  8
CORTE
100
AcDbCircle
 10
0.0049999999999955
 20
-0.0039999999999623
 30
0.0
 40
0.001
100
AcDbArc
 50
180.0
 51
269.9999999996743
  0
LINE
  5
21D
330
213
100
AcDbEntity
  8
CORTE
100
AcDbLine
 10
0.0080000000000382
 20
-0.0049999999999955
 30
0.0
 11
0.0049999999999955
 21
-0.004999999999967
 31
0.0
  0
ARC
  5
21E
330
213
100
AcDbEntity
  8
CORTE
100
AcDbCircle
 10
0.0080000000000382
 20
-0.0039999999999907
 30
0.0
 40
0.001
100
AcDbArc
 50
269.9999999995929
 51
0.000000000000007
  0
LINE
  5
21F
330
213
100
AcDbEntity
  8
CORTE
100
AcDbLine
 10
0.0030000000000427
 20
-0.0000000000000284
 30
0.0
 11
0.0
 21
0.0
 31
0.0
  0
ARC
  5
220
330
213
100
AcDbEntity
  8
CORTE
100
AcDbCircle
 10
0.0030000000000427
 20
-0.0010000000000332
 30
0.0
 40
0.001
100
AcDbArc
 50
0.000000000000007
 51
89.99999999967434
  0
ARC
  5
221
330
213
100
AcDbEntity
  8
CORTE
100
AcDbCircle
 10
0.0099999999999909
 20
-0.0009999999999764
 30
0.0
 40
0.001
100
AcDbArc
 50
89.99999999967434
 51
180.0
  0
ARC
  5
222
330
213
100
AcDbEntity
  8
CORTE
100
AcDbCircle
 10
0.0
 20
0.0140000000000384
 30
0.0
 40
0.001
100
AcDbArc
 50
89.99999999975274
 51
180.0
  0
LINE
  5
223
330
213
100
AcDbEntity
  8
CORTE
100
AcDbLine
 10
0.0055857864376776
 20
0.0149999999999864
 30
0.0
 11
0.0
 21
0.0150000000000432
 31
0.0
  0
ARC
  5
224
330
213
100
AcDbEntity
  8
CORTE
 62
     1
100
AcDbCircle
 10
0.0055857864376776
 20
0.0159999999999911
 30
0.0
 40
0.001
100
AcDbArc
 50
269.9999999997674
 51
315.0000000000357
  0
LINE
  5
225
330
213
100
AcDbEntity
  8
CORTE
100
AcDbLine
 10
0.01400000000001
 20
0.0009999999999479
 30
0.0
 11
0.01400000000001
 21
0.0089825806863075
 31
0.0
  0
ARC
  5
226
330
213
100
AcDbEntity
  8
CORTE
100
AcDbCircle
 10
0.0130000000000337
 20
0.0009999999999479
 30
0.0
 40
0.001
100
AcDbArc
 50
269.9999999991858
 51
0.000000000000007
  0
ARC
  5
227
330
213
100
AcDbEntity
  8
CORTE
 62
     1
100
AcDbCircle
 10
0.0149999999999864
 20
0.0089825806862791
 30
0.0
 40
0.001
100
AcDbArc
 50
90.47309942941524
 51
179.9999999983715
  0
LINE
  5
228
330
213
100
AcDbEntity
  8
CORTE
100
AcDbLine
 10
0.0440000000000964
 20
0.0339999999999918
 30
0.0
 11
0.0440000000000396
 21
0.0310000000000059
 31
0.0
  0
ARC
  5
229
330
213
100
AcDbEntity
  8
CORTE
100
AcDbCircle
 10
0.0430000000000632
 20
0.0310000000000059
 30
0.0
 40
0.001
100
AcDbArc
 50
270.0
 51
0.000000000000007
  0
ARC
  5
22A
330
213
100
AcDbEntity
  8
CORTE
 62
     1
100
AcDbCircle
 10
0.0350174193137605
 20
0.0290000000000248
 30
0.0
 40
0.001
100
AcDbArc
 50
90.00000000325689
 51
179.5269005705982
  0
LINE
  5
22B
330
213
100
AcDbEntity
  8
CORTE
100
AcDbLine
 10
0.0430000000000632
 20
0.0300000000000011
 30
0.0
 11
0.0350174193137036
 21
0.0300000000000296
 31
0.0
  0
LINE
  5
22C
330
213
100
AcDbEntity
  8
CORTE
100
AcDbLine
 10
0.047999999999945
 20
0.0400000000000205
 30
0.0
 11
0.0300000000000296
 21
0.0400000000000205
 31
0.0
  0
ARC
  5
22D
330
213
100
AcDbEntity
  8
CORTE
 62
     1
100
AcDbCircle
 10
0.0300000000000296
 20
0.0390000000000157
 30
0.0
 40
0.001
100
AcDbArc
 50
90.0
 51
195.0000055997392
  0
ARC
  5
22E
330
213
100
AcDbEntity
  8
CORTE
 62
     1
100
AcDbCircle
 10
0.0280681480710428
 20
0.0384823616334131
 30
0.0
 40
0.001
100
AcDbArc
 50
315.0
 51
15.00000559812761
  0
LINE
  5
22F
330
213
100
AcDbEntity
  8
CORTE
100
AcDbLine
 10
0.0489999999998645
 20
0.0360000000000582
 30
0.0
 11
0.0489999999999213
 21
0.0389999999999873
 31
0.0
  0
LINE
  5
230
330
213
100
AcDbEntity
  8
CORTE
100
AcDbLine
 10
0.0480000000000018
 20
0.0350000000000534
 30
0.0
 11
0.0450000000000728
 21
0.0349999999999966
 31
0.0
  0
ARC
  5
231
330
213
100
AcDbEntity
  8
CORTE
100
AcDbCircle
 10
0.0480000000000018
 20
0.0360000000000582
 30
0.0
 40
0.001
100
AcDbArc
 50
270.0000000004071
 51
0.000000000000007
  0
ARC
  5
232
330
213
100
AcDbEntity
  8
CORTE
100
AcDbCircle
 10
0.0450000000000728
 20
0.0339999999999918
 30
0.0
 40
0.001
100
AcDbArc
 50
90.0
 51
180.0
  0
ARC
  5
233
330
213
100
AcDbEntity
  8
CORTE
100
AcDbCircle
 10
0.047999999999945
 20
0.0390000000000157
 30
0.0
 40
0.001
100
AcDbArc
 50
359.9999999991858
 51
90.0
  0
ENDBLK
  5
234
330
213
100
AcDbEntity
  8
0
100
AcDbBlockEnd
  0
BLOCK
  5
236
330
235
100
AcDbEntity
  8
0
 62
     4
100
AcDbBlockBegin
  2
NOM-J
 70
     0
 10
0.0
 20
0.0
 30
0.0
  3
NOM-J
  1

  0
LINE
  5
237
330
235
100
AcDbEntity
  8
Vista
 62
     4
100
AcDbLine
 10
0.0211489998446837
 20
0.0224999999999795
 30
0.0
 11
0.093805067538824
 21
0.0379594292031982
 31
0.0
  0
LINE
  5
238
330
235
100
AcDbEntity
  8
Vista
 62
     4
100
AcDbLine
 10
0.0197074998707194
 20
0.0224999999999795
 30
0.0
 11
0.0923635675646324
 21
0.0379594292032266
 31
0.0
  0
LINE
  5
239
330
235
100
AcDbEntity
  8
Vista
 62
     4
100
AcDbLine
 10
0.0182659998964141
 20
0.0224999999999795
 30
0.0
 11
0.0909220675904408
 21
0.0379594292031982
 31
0.0
  0
LINE
  5
23A
330
235
100
AcDbEntity
  8
Vista
 62
     4
100
AcDbLine
 10
0.0168244999223362
 20
0.0224999999999795
 30
0.0
 11
0.0894805676163628
 21
0.0379594292032266
 31
0.0
  0
LINE
  5
23B
330
235
100
AcDbEntity
  8
Vista
 62
     4
100
AcDbLine
 10
0.0153829999481445
 20
0.0224999999999795
 30
0.0
 11
0.0880390676422849
 21
0.0379594292032266
 31
0.0
  0
LINE
  5
23C
330
235
100
AcDbEntity
  8
Vista
 62
     4
100
AcDbLine
 10
0.0139414999740666
 20
0.0224999999999795
 30
0.0
 11
0.0865975676682069
 21
0.0379594292032266
 31
0.0
  0
LINE
  5
23D
330
235
100
AcDbEntity
  8
Vista
 62
     2
100
AcDbLine
 10
0.0125000000000455
 20
0.022500000000008
 30
0.0
 11
0.0851560676940153
 21
0.0379594292032266
 31
0.0
  0
LINE
  5
23E
330
235
100
AcDbEntity
  8
Vista
 62
     2
100
AcDbLine
 10
0.0218535533905424
 20
0.0223535533905874
 30
0.0
 11
0.0945096210847396
 21
0.0378129825938061
 31
0.0
  0
LINE
  5
23F
330
235
100
AcDbEntity
  8
Vista
 62
     2
100
AcDbLine
 10
0.02150000000006
 20
0.0200000000000387
 30
0.0
 11
0.094359627334427
 21
0.0355027417029987
 31
0.0
  0
LINE
  5
240
330
235
100
AcDbEntity
  8
Vista
 62
     2
100
AcDbLine
 10
0.0190000000000055
 20
0.0175000000000125
 30
0.0
 11
0.0918596273343724
 21
0.0330027417029726
 31
0.0
  0
LINE
  5
241
330
235
100
AcDbEntity
  8
Vista
 62
     2
100
AcDbLine
 10
0.0075428343679391
 20
0.0078574386832884
 30
0.0
 11
0.0801989020703786
 21
0.0233168678888376
 31
0.0
  0
LINE
  5
242
330
235
100
AcDbEntity
  8
Vista
 62
     2
100
AcDbLine
 10
0.0040000000000191
 20
0.0024999999999693
 30
0.0
 11
0.0746560676942068
 21
0.0175338782567849
 31
0.0
  0
LINE
  5
243
330
235
100
AcDbEntity
  8
Vista
 62
     3
100
AcDbLine
 10
0.0018535533906174
 20
0.0001464466094205
 30
0.0
 11
0.074509621085781
 21
0.0156058758136055
 31
0.0
  0
INSERT
  5
244
330
235
100
AcDbEntity
  8
CORTE
 62
     4
100
AcDbBlockReference
  2
ELEMENT
 10
-0.0024999999999977
 20
0.0024999999999977
 30
0.0
 41
0.5
 42
0.5
 43
0.5
  0
LINE
  5
245
330
235
100
AcDbEntity
  8
Vista
 62
     2
100
AcDbLine
 10
-0.0024999999999977
 20
0.0100000000000193
 30
0.0
 11
0.0013108568762163
 21
0.0108108568761622
 31
0.0
  0
ARC
  5
246
330
235
100
AcDbEntity
  8
CORTE
 62
     3
100
AcDbCircle
 10
0.0775727343608992
 20
0.0325427625365364
 30
0.0
 40
0.0095923870276683
100
AcDbArc
 50
278.1349003175446
 51
356.7599311023579
  0
LINE
  5
247
330
235
100
AcDbEntity
  8
CORTE
 62
     3
100
AcDbLine
 10
0.0771560676942045
 20
0.0184594292032045
 30
0.0
 11
0.0771560676942045
 21
0.0224507195463559
 31
0.0
  0
ARC
  5
248
330
235
100
AcDbEntity
  8
CORTE
 62
     3
100
AcDbCircle
 10
0.0751560676941949
 20
0.0174594292032282
 30
0.0
 40
0.0005
100
AcDbArc
 50
89.99999999967434
 51
180.0
  0
LINE
  5
249
330
235
100
AcDbEntity
  8
Vista
 62
     3
100
AcDbLine
 10
0.074509621085781
 20
0.0156058758135771
 30
0.0
 11
0.0746560676941499
 21
0.0156370360599851
 31
0.0
  0
ARC
  5
24A
330
235
100
AcDbEntity
  8
CORTE
100
AcDbCircle
 10
0.0741560676942186
 20
0.0159594292032068
 30
0.0
 40
0.0005
100
AcDbArc
 50
315.0000001496929
 51
0.000000000000007
  0
LINE
  5
24B
330
235
100
AcDbEntity
  8
CORTE
 62
     3
100
AcDbLine
 10
0.0746560676942068
 20
0.0159594292032068
 30
0.0
 11
0.0746560676942068
 21
0.0174594292032282
 31
0.0
  0
ARC
  5
24C
330
235
100
AcDbEntity
  8
CORTE
 62
     3
100
AcDbCircle
 10
0.0766560676942163
 20
0.0184594292032045
 30
0.0
 40
0.0005
100
AcDbArc
 50
269.9999999991858
 51
0.000000000000007
  0
LINE
  5
24D
330
235
100
AcDbEntity
  8
CORTE
 62
     3
100
AcDbLine
 10
0.0766560676942163
 20
0.017959429203188
 30
0.0
 11
0.0751560676941949
 21
0.0179594292032164
 31
0.0
  0
ARC
  5
24E
330
235
100
AcDbEntity
  8
CORTE
 62
     3
100
AcDbCircle
 10
0.0776560676941927
 20
0.0224507195463559
 30
0.0
 40
0.0005
100
AcDbArc
 50
152.521182623883
 51
179.9999999983715
  0
LINE
  5
24F
330
235
100
AcDbEntity
  8
CORTE
 62
     3
100
AcDbLine
 10
0.0946560676941317
 20
0.0359594292032455
 30
0.0
 11
0.0946560676941317
 21
0.03745942920321
 31
0.0
  0
ARC
  5
250
330
235
100
AcDbEntity
  8
CORTE
 62
     3
100
AcDbCircle
 10
0.0916560676942027
 20
0.0334594292032193
 30
0.0
 40
0.0005
100
AcDbArc
 50
270.0
 51
0.000000000000007
  0
ARC
  5
251
330
235
100
AcDbEntity
  8
CORTE
 62
     3
100
AcDbCircle
 10
0.0941560676942004
 20
0.0359594292032455
 30
0.0
 40
0.0005
100
AcDbArc
 50
294.0240004981589
 51
0.000000000000007
  0
LINE
  5
252
330
235
100
AcDbEntity
  8
CORTE
 62
     3
100
AcDbLine
 10
0.0921560676942477
 20
0.0349594292032123
 30
0.0
 11
0.0921560676941908
 21
0.0334594292032193
 31
0.0
  0
LINE
  5
253
330
235
100
AcDbEntity
  8
CORTE
 62
     3
100
AcDbLine
 10
0.0941560676941436
 20
0.0379594292032266
 30
0.0
 11
0.0851560676942427
 21
0.0379594292032266
 31
0.0
  0
ARC
  5
254
330
235
100
AcDbEntity
  8
CORTE
 62
     3
100
AcDbCircle
 10
0.0941560676941436
 20
0.03745942920321
 30
0.0
 40
0.0005
100
AcDbArc
 50
359.9999999991858
 51
90.0
  0
ENDBLK
  5
255
330
235
100
AcDbEntity
  8
0
 62
     4
100
AcDbBlockEnd
  0
BLOCK
  5
3FC
330
3FB
100
AcDbEntity
  8
0
 62
     1
100
AcDbBlockBegin
  2
NOM-QR
 70
     0
 10
0.0
 20
0.0
 30
0.0
  3
NOM-QR
  1

  0
LINE
  5
3FD
330
3FB
100
AcDbEntity
  8
CORTE
 62
     4
100
AcDbLine
 10
0.0184292030348843
 20
0.0200000000000102
 30
0.0
 11
0.0860297709413658
 21
0.0343689442811126
 31
0.0
  0
LINE
  5
3FE
330
3FB
100
AcDbEntity
  8
CORTE
 62
     4
100
AcDbLine
 10
0.0155433624279908
 20
0.0200000000000102
 30
0.0
 11
0.0831439303344155
 21
0.0343689442811126
 31
0.0
  0
LINE
  5
3FF
330
3FB
100
AcDbEntity
  8
CORTE
 62
     4
100
AcDbLine
 10
0.0126575218209837
 20
0.0200000000000102
 30
0.0
 11
0.0802580897274084
 21
0.034368944281141
 31
0.0
  0
LINE
  5
400
330
3FB
100
AcDbEntity
  8
CORTE
 62
     4
100
AcDbLine
 10
0.0097716812139765
 20
0.0200000000000102
 30
0.0
 11
0.077372249120458
 21
0.0343689442811126
 31
0.0
  0
LINE
  5
401
330
3FB
100
AcDbEntity
  8
CORTE
 62
     4
100
AcDbLine
 10
0.0068858406069694
 20
0.0200000000000102
 30
0.0
 11
0.0744864085134509
 21
0.0343689442811126
 31
0.0
  0
LINE
  5
402
330
3FB
100
AcDbEntity
  8
CORTE
 62
     3
100
AcDbLine
 10
0.0081347328614925
 20
0.0017290908471352
 30
0.0
 11
0.0757353007679171
 21
0.0160980351282376
 31
0.0
  0
LINE
  5
403
330
3FB
100
AcDbEntity
  8
CORTE
 62
     3
100
AcDbLine
 10
0.0040000000000191
 20
0.0200000000000102
 30
0.0
 11
0.0716005679065006
 21
0.034368944281141
 31
0.0
  0
LINE
  5
404
330
3FB
100
AcDbEntity
  8
CORTE
 62
     3
100
AcDbLine
 10
0.0200000000000387
 20
0.0200000000000102
 30
0.0
 11
0.0876005679064633
 21
0.0343689442811126
 31
0.0
  0
ARC
  5
405
330
3FB
100
AcDbEntity
  8
CORTE
 62
     1
100
AcDbCircle
 10
0.0
 20
0.0200000000000102
 30
0.0
 40
0.0200000000000102
100
AcDbArc
 50
270.0
 51
0.0
  0
LINE
  5
406
330
3FB
100
AcDbEntity
  8
CORTE
 62
     1
100
AcDbLine
 10
0.0
 20
0.0160000000000196
 30
0.0
 11
0.0
 21
0.0
 31
0.0
  0
LINE
  5
407
330
3FB
100
AcDbEntity
  8
COTAS
 62
     1
100
AcDbLine
 10
0.0200000000000387
 20
0.0200000000000102
 30
0.0
 11
0.0040000000000191
 21
0.0200000000000102
 31
0.0
  0
ARC
  5
408
330
3FB
100
AcDbEntity
  8
CORTE
 62
     1
100
AcDbCircle
 10
0.0
 20
0.0200000000000102
 30
0.0
 40
0.004
100
AcDbArc
 50
270.0
 51
0.0
  0
ARC
  5
409
330
3FB
100
AcDbEntity
  8
CORTE
 62
     1
100
AcDbCircle
 10
0.0676005679064247
 20
0.0343689442811126
 30
0.0
 40
0.0200000000000102
100
AcDbArc
 50
270.0
 51
0.0
  0
LINE
  5
40A
330
3FB
100
AcDbEntity
  8
COTAS
 62
     1
100
AcDbLine
 10
0.0876005679064633
 20
0.0343689442811126
 30
0.0
 11
0.0716005679064438
 21
0.0343689442811126
 31
0.0
  0
ENDBLK
  5
40B
330
3FB
100
AcDbEntity
  8
0
 62
     1
100
AcDbBlockEnd
  0
BLOCK
  5
4E1
330
4E0
100
AcDbEntity
  8
0
100
AcDbBlockBegin
  2
_Arrivo
 70
     0
 10
0.0
 20
0.0
 30
0.0
  3
_Arrivo
  1

  0
LINE
  5
4E2
330
4E0
100
AcDbEntity
  8
0
  6
ByBlock
 62
     0
370
    -2
100
AcDbLine
 10
0.025
 20
-0.0433012701891858
 30
0.0
 11
-0.15
 21
0.2598076211353328
 31
0.0
  0
LINE
  5
4E3
330
4E0
100
AcDbEntity
  8
0
  6
ByBlock
 62
     0
370
    -2
100
AcDbLine
 10
0.025
 20
0.0433012701892585
 30
0.0
 11
-0.15
 21
-0.2598076211353328
 31
0.0
  0
LINE
  5
4E4
330
4E0
100
AcDbEntity
  8
0
  6
ByBlock
 62
     0
370
    -2
100
AcDbLine
 10
-0.05
 20
0.0
 30
0.0
 11
0.05
 21
0.0
 31
0.0
  0
ENDBLK
  5
4E5
330
4E0
100
AcDbEntity
  8
0
100
AcDbBlockEnd
  0
BLOCK
  5
4E7
330
4E6
100
AcDbEntity
  8
0
100
AcDbBlockBegin
  2
_Partenza
 70
     0
 10
0.0
 20
0.0
 30
0.0
  3
_Partenza
  1

  0
LINE
  5
4E8
330
4E6
100
AcDbEntity
  8
0
  6
ByBlock
 62
     0
370
    -2
100
AcDbLine
 10
-0.05
 20
0.05
 30
0.0
 11
0.1
 21
0.05
 31
0.0
  0
LINE
  5
4E9
330
4E6
100
AcDbEntity
  8
0
  6
ByBlock
 62
     0
370
    -2
100
AcDbLine
 10
-0.05
 20
-0.05
 30
0.0
 11
0.1
 21
-0.05
 31
0.0
  0
ENDBLK
  5
4EA
330
4E6
100
AcDbEntity
  8
0
100
AcDbBlockEnd
  0
BLOCK
  5
807
330
73D
100
AcDbEntity
  8
0
 62
     3
100
AcDbBlockBegin
  2
A$C6CE44357
 70
     0
 10
0.0
 20
0.0
 30
0.0
  3
A$C6CE44357
  1

  0
LINE
  5
73E
330
73D
100
AcDbEntity
  8
Vista
 62
     3
100
AcDbLine
 10
-265.2371225605411
 20
-42.42864078547465
 30
0.0
 11
-265.1113419531143
 21
-42.4023863117474
 31
0.0
  0
LINE
  5
73F
330
73D
100
AcDbEntity
  8
Vista
 62
     4
100
AcDbLine
 10
-265.2590480951634
 20
-42.54823976658282
 30
0.0
 11
-265.2510480951634
 21
-42.54823976658282
 31
0.0
  0
LINE
  5
740
330
73D
100
AcDbEntity
  8
Vista
 62
     3
100
AcDbLine
 10
-265.2678775571128
 20
-42.55723976658283
 30
0.0
 11
-265.2164242716711
 21
-42.55723976658283
 31
0.0
  0
LINE
  5
741
330
73D
100
AcDbEntity
  8
Vista
 62
     2
100
AcDbLine
 10
-265.240902830533
 20
-42.52873976658283
 30
0.0
 11
-265.2164242716711
 21
-42.52873976658283
 31
0.0
  0
LINE
  5
742
330
73D
100
AcDbEntity
  8
Vista
 62
     2
100
AcDbLine
 10
-265.245902830533
 20
-42.53973976658282
 30
0.0
 11
-265.2164242716711
 21
-42.53973976658282
 31
0.0
  0
LINE
  5
743
330
73D
100
AcDbEntity
  8
Vista
 62
     2
100
AcDbLine
 10
-265.2411287103258
 20
-42.53147306509318
 30
0.0
 11
-265.2164242716712
 21
-42.53147306509318
 31
0.0
  0
LINE
  5
744
330
73D
100
AcDbEntity
  8
Vista
 62
     2
100
AcDbLine
 10
-265.2649809809004
 20
-42.55319036467706
 30
0.0
 11
-265.2164242716712
 21
-42.55319036467706
 31
0.0
  0
LWPOLYLINE
  5
745
330
73D
100
AcDbEntity
  8
CORTE
  6
Continuous
 62
     1
100
AcDbPolyline
 90
       30
 70
     1
 43
0.0
 10
-265.2651647001392
 20
-42.55337345319399
 42
0.2685636005234304
 10
-265.2649137067366
 20
-42.55293986846818
 10
-265.2649137067366
 20
-42.54823976658282
 10
-265.2624028305331
 20
-42.54823976658282
 42
0.4142135623730693
 10
-265.261402830533
 20
-42.54723976658282
 10
-265.261402830533
 20
-42.53973976658282
 10
-265.258902830533
 20
-42.53973976658282
 42
-0.2526773759784102
 10
-265.2565834054943
 20
-42.53823976658283
 10
-265.2512222555718
 20
-42.53823976658283
 42
-0.2526773759784102
 10
-265.2489028305331
 20
-42.53973976658282
 10
-265.245902830533
 20
-42.53973976658282
 42
0.414213562373069
 10
-265.244902830533
 20
-42.53873976658282
 10
-265.244902830533
 20
-42.53523036708408
 42
-0.3189892314182299
 10
-265.2417043063426
 20
-42.53182012245305
 42
0.356818340496206
 10
-265.240902830533
 20
-42.53084002646501
 10
-265.240902830533
 20
-42.52873976658283
 42
0.364269306410865
 10
-265.234652830533
 20
-42.52348976658284
 42
-0.3260576707120786
 10
-265.2292666879074
 20
-42.51829884552306
 42
0.3747567555282292
 10
-265.228402830533
 20
-42.51730815627538
 10
-265.228402830533
 20
-42.51473976658282
 10
-265.240902830533
 20
-42.51473976658282
 10
-265.240902830533
 20
-42.52073976658282
 10
-265.254402830533
 20
-42.53323976658283
 10
-265.264402830533
 20
-42.53323976658283
 42
0.4142135623730704
 10
-265.269402830533
 20
-42.53823976658283
 10
-265.269402830533
 20
-42.54351258119139
 10
-265.270902830533
 20
-42.54473976658282
 10
-265.270902830533
 20
-42.55723976658283
 10
-265.2678775571128
 20
-42.55723976658283
 42
0.3849291685644514
 10
-265.2673801055846
 20
-42.55679018460604
 42
-0.2416670294637286
  0
LINE
  5
746
330
73D
100
AcDbEntity
  8
CORTE
  6
RAYITA
 62
     4
100
AcDbLine
 10
-265.2649137067366
 20
-42.54823976658282
 30
0.0
 11
-265.2649137067366
 21
-42.53973976658282
 31
0.0
  0
LINE
  5
747
330
73D
100
AcDbEntity
  8
CORTE
  6
RAYITA
 62
     4
100
AcDbLine
 10
-265.2631769303866
 20
-42.5441333561959
 30
0.0
 11
-265.2631769303866
 21
-42.53973976658282
 31
0.0
  0
LINE
  5
748
330
73D
100
AcDbEntity
  8
CORTE
  6
RAYITA
 62
     4
100
AcDbLine
 10
-265.2631769303866
 20
-42.5441333561959
 30
0.0
 11
-265.2649137067366
 21
-42.5441333561959
 31
0.0
  0
LINE
  5
749
330
73D
100
AcDbEntity
  8
CORTE
  6
RAYITA
 62
     4
100
AcDbLine
 10
-265.261402830533
 20
-42.53973976658282
 30
0.0
 11
-265.2649137067366
 21
-42.53973976658282
 31
0.0
  0
LINE
  5
74A
330
73D
100
AcDbEntity
  8
Vista
 62
     3
100
AcDbLine
 10
-265.228402830533
 20
-42.51473976658282
 30
0.0
 11
-265.2164242716711
 21
-42.51473976658279
 31
0.0
  0
LINE
  5
74B
330
73D
100
AcDbEntity
  8
Vista
 62
     2
100
AcDbLine
 10
-265.2286491254761
 20
-42.51796536909266
 30
0.0
 11
-265.2164242716712
 21
-42.51796536909266
 31
0.0
  0
LINE
  5
74C
330
73D
100
AcDbEntity
  8
Vista
 62
     4
100
AcDbLine
 10
-265.2590480951634
 20
-42.53973976658282
 30
0.0
 11
-265.2590480951634
 21
-42.54823976658282
 31
0.0
  0
LINE
  5
74D
330
73D
100
AcDbEntity
  8
Vista
 62
     4
100
AcDbLine
 10
-265.2510480951634
 20
-42.53973976658282
 30
0.0
 11
-265.2510480951634
 21
-42.54823976658282
 31
0.0
  0
LINE
  5
74E
330
73D
100
AcDbEntity
  8
Vista
 62
     4
100
AcDbLine
 10
-265.2470480951634
 20
-42.53973976658282
 30
0.0
 11
-265.2470480951635
 21
-42.54823976658282
 31
0.0
  0
LINE
  5
74F
330
73D
100
AcDbEntity
  8
Vista
 62
     4
100
AcDbLine
 10
-265.2390480951634
 20
-42.53973976658282
 30
0.0
 11
-265.2390480951634
 21
-42.54823976658282
 31
0.0
  0
LINE
  5
750
330
73D
100
AcDbEntity
  8
Vista
 62
     4
100
AcDbLine
 10
-265.2350480951635
 20
-42.53973976658282
 30
0.0
 11
-265.2350480951635
 21
-42.54823976658282
 31
0.0
  0
LINE
  5
751
330
73D
100
AcDbEntity
  8
Vista
 62
     4
100
AcDbLine
 10
-265.2510480951634
 20
-42.5441333561959
 30
0.0
 11
-265.2470480951635
 21
-42.5441333561959
 31
0.0
  0
LINE
  5
752
330
73D
100
AcDbEntity
  8
Vista
 62
     4
100
AcDbLine
 10
-265.2390480951634
 20
-42.5441333561959
 30
0.0
 11
-265.2350480951635
 21
-42.5441333561959
 31
0.0
  0
LINE
  5
753
330
73D
100
AcDbEntity
  8
Vista
 62
     4
100
AcDbLine
 10
-265.2470480951635
 20
-42.54823976658282
 30
0.0
 11
-265.2390480951634
 21
-42.54823976658282
 31
0.0
  0
LINE
  5
754
330
73D
100
AcDbEntity
  8
Vista
 62
     4
100
AcDbLine
 10
-265.2350480951635
 20
-42.54823976658282
 30
0.0
 11
-265.2270480951634
 21
-42.54823976658282
 31
0.0
  0
LINE
  5
755
330
73D
100
AcDbEntity
  8
Vista
 62
     4
100
AcDbLine
 10
-265.2230480951634
 20
-42.53973976658282
 30
0.0
 11
-265.2230480951634
 21
-42.54823976658282
 31
0.0
  0
LINE
  5
756
330
73D
100
AcDbEntity
  8
Vista
 62
     4
100
AcDbLine
 10
-265.2270480951634
 20
-42.53973976658282
 30
0.0
 11
-265.2270480951634
 21
-42.54823976658282
 31
0.0
  0
LINE
  5
757
330
73D
100
AcDbEntity
  8
Vista
 62
     4
100
AcDbLine
 10
-265.2230480951634
 20
-42.54823976658282
 30
0.0
 11
-265.2164242716711
 21
-42.54823976658282
 31
0.0
  0
LINE
  5
758
330
73D
100
AcDbEntity
  8
Vista
 62
     4
100
AcDbLine
 10
-265.2270480951634
 20
-42.5441333561959
 30
0.0
 11
-265.2230480951634
 21
-42.5441333561959
 31
0.0
  0
LINE
  5
759
330
73D
100
AcDbEntity
  8
Vista
 62
     4
100
AcDbLine
 10
-265.2079942150913
 20
-42.54823976658282
 30
0.0
 11
-265.2030480951634
 21
-42.54823976658282
 31
0.0
  0
LINE
  5
75A
330
73D
100
AcDbEntity
  8
Vista
 62
     4
100
AcDbLine
 10
-265.1870480951635
 20
-42.53973976658282
 30
0.0
 11
-265.1870480951635
 21
-42.54823976658282
 31
0.0
  0
LINE
  5
75B
330
73D
100
AcDbEntity
  8
Vista
 62
     4
100
AcDbLine
 10
-265.1910480951634
 20
-42.53973976658282
 30
0.0
 11
-265.1910480951634
 21
-42.54823976658282
 31
0.0
  0
LINE
  5
75C
330
73D
100
AcDbEntity
  8
Vista
 62
     4
100
AcDbLine
 10
-265.1990480951635
 20
-42.53973976658282
 30
0.0
 11
-265.1990480951635
 21
-42.54823976658282
 31
0.0
  0
LINE
  5
75D
330
73D
100
AcDbEntity
  8
Vista
 62
     4
100
AcDbLine
 10
-265.2030480951634
 20
-42.53973976658282
 30
0.0
 11
-265.2030480951634
 21
-42.54823976658282
 31
0.0
  0
LINE
  5
75E
330
73D
100
AcDbEntity
  8
Vista
 62
     4
100
AcDbLine
 10
-265.1990480951635
 20
-42.54823976658282
 30
0.0
 11
-265.1910480951634
 21
-42.54823976658282
 31
0.0
  0
LINE
  5
75F
330
73D
100
AcDbEntity
  8
Vista
 62
     4
100
AcDbLine
 10
-265.2030480951634
 20
-42.5441333561959
 30
0.0
 11
-265.1990480951635
 21
-42.5441333561959
 31
0.0
  0
LINE
  5
760
330
73D
100
AcDbEntity
  8
Vista
 62
     4
100
AcDbLine
 10
-265.1910480951634
 20
-42.5441333561959
 30
0.0
 11
-265.1870480951635
 21
-42.5441333561959
 31
0.0
  0
LINE
  5
761
330
73D
100
AcDbEntity
  8
Vista
 62
     4
100
AcDbLine
 10
-265.1870480951635
 20
-42.54823976658282
 30
0.0
 11
-265.1790480951634
 21
-42.54823976658282
 31
0.0
  0
LINE
  5
762
330
73D
100
AcDbEntity
  8
Vista
 62
     4
100
AcDbLine
 10
-265.1630480951634
 20
-42.53973976658282
 30
0.0
 11
-265.1630480951634
 21
-42.54823976658282
 31
0.0
  0
LINE
  5
763
330
73D
100
AcDbEntity
  8
Vista
 62
     4
100
AcDbLine
 10
-265.1670480951634
 20
-42.53973976658282
 30
0.0
 11
-265.1670480951634
 21
-42.54823976658282
 31
0.0
  0
LINE
  5
764
330
73D
100
AcDbEntity
  8
Vista
 62
     4
100
AcDbLine
 10
-265.1750480951634
 20
-42.53973976658282
 30
0.0
 11
-265.1750480951634
 21
-42.54823976658282
 31
0.0
  0
LINE
  5
765
330
73D
100
AcDbEntity
  8
Vista
 62
     4
100
AcDbLine
 10
-265.1790480951634
 20
-42.53973976658282
 30
0.0
 11
-265.1790480951634
 21
-42.54823976658282
 31
0.0
  0
LINE
  5
766
330
73D
100
AcDbEntity
  8
Vista
 62
     4
100
AcDbLine
 10
-265.1750480951634
 20
-42.54823976658282
 30
0.0
 11
-265.1670480951634
 21
-42.54823976658282
 31
0.0
  0
LINE
  5
767
330
73D
100
AcDbEntity
  8
Vista
 62
     4
100
AcDbLine
 10
-265.1790480951634
 20
-42.5441333561959
 30
0.0
 11
-265.1750480951634
 21
-42.5441333561959
 31
0.0
  0
LINE
  5
768
330
73D
100
AcDbEntity
  8
Vista
 62
     4
100
AcDbLine
 10
-265.1670480951634
 20
-42.5441333561959
 30
0.0
 11
-265.1630480951634
 21
-42.5441333561959
 31
0.0
  0
LINE
  5
769
330
73D
100
AcDbEntity
  8
Vista
 62
     4
100
AcDbLine
 10
-265.1630480951634
 20
-42.54823976658282
 30
0.0
 11
-265.1550480951634
 21
-42.54823976658282
 31
0.0
  0
LINE
  5
76A
330
73D
100
AcDbEntity
  8
Vista
 62
     4
100
AcDbLine
 10
-265.1390480951635
 20
-42.53973976658282
 30
0.0
 11
-265.1390480951635
 21
-42.54823976658282
 31
0.0
  0
LINE
  5
76B
330
73D
100
AcDbEntity
  8
Vista
 62
     4
100
AcDbLine
 10
-265.1430480951634
 20
-42.53973976658282
 30
0.0
 11
-265.1430480951634
 21
-42.54823976658282
 31
0.0
  0
LINE
  5
76C
330
73D
100
AcDbEntity
  8
Vista
 62
     4
100
AcDbLine
 10
-265.1510480951634
 20
-42.53973976658282
 30
0.0
 11
-265.1510480951634
 21
-42.54823976658282
 31
0.0
  0
LINE
  5
76D
330
73D
100
AcDbEntity
  8
Vista
 62
     4
100
AcDbLine
 10
-265.1550480951634
 20
-42.53973976658282
 30
0.0
 11
-265.1550480951634
 21
-42.54823976658282
 31
0.0
  0
LINE
  5
76E
330
73D
100
AcDbEntity
  8
Vista
 62
     4
100
AcDbLine
 10
-265.1510480951634
 20
-42.54823976658282
 30
0.0
 11
-265.1430480951634
 21
-42.54823976658282
 31
0.0
  0
LINE
  5
76F
330
73D
100
AcDbEntity
  8
Vista
 62
     4
100
AcDbLine
 10
-265.1550480951634
 20
-42.5441333561959
 30
0.0
 11
-265.1510480951634
 21
-42.5441333561959
 31
0.0
  0
LINE
  5
770
330
73D
100
AcDbEntity
  8
Vista
 62
     4
100
AcDbLine
 10
-265.1430480951634
 20
-42.5441333561959
 30
0.0
 11
-265.1390480951635
 21
-42.5441333561959
 31
0.0
  0
LINE
  5
771
330
73D
100
AcDbEntity
  8
Vista
 62
     4
100
AcDbLine
 10
-265.1390480951635
 20
-42.54823976658282
 30
0.0
 11
-265.1310480951634
 21
-42.54823976658282
 31
0.0
  0
LINE
  5
772
330
73D
100
AcDbEntity
  8
Vista
 62
     4
100
AcDbLine
 10
-265.1150480951634
 20
-42.53973976658282
 30
0.0
 11
-265.1150480951634
 21
-42.54823976658282
 31
0.0
  0
LINE
  5
773
330
73D
100
AcDbEntity
  8
Vista
 62
     4
100
AcDbLine
 10
-265.1190480951634
 20
-42.53973976658282
 30
0.0
 11
-265.1190480951634
 21
-42.54823976658282
 31
0.0
  0
LINE
  5
774
330
73D
100
AcDbEntity
  8
Vista
 62
     4
100
AcDbLine
 10
-265.1270480951634
 20
-42.53973976658282
 30
0.0
 11
-265.1270480951634
 21
-42.54823976658282
 31
0.0
  0
LINE
  5
775
330
73D
100
AcDbEntity
  8
Vista
 62
     4
100
AcDbLine
 10
-265.1310480951634
 20
-42.53973976658282
 30
0.0
 11
-265.1310480951634
 21
-42.54823976658282
 31
0.0
  0
LINE
  5
776
330
73D
100
AcDbEntity
  8
Vista
 62
     4
100
AcDbLine
 10
-265.1270480951634
 20
-42.54823976658282
 30
0.0
 11
-265.1190480951634
 21
-42.54823976658282
 31
0.0
  0
LINE
  5
777
330
73D
100
AcDbEntity
  8
Vista
 62
     4
100
AcDbLine
 10
-265.1310480951634
 20
-42.5441333561959
 30
0.0
 11
-265.1270480951634
 21
-42.5441333561959
 31
0.0
  0
LINE
  5
778
330
73D
100
AcDbEntity
  8
Vista
 62
     4
100
AcDbLine
 10
-265.1190480951634
 20
-42.5441333561959
 30
0.0
 11
-265.1150480951634
 21
-42.5441333561959
 31
0.0
  0
LINE
  5
779
330
73D
100
AcDbEntity
  8
Vista
 62
     4
100
AcDbLine
 10
-265.1150480951634
 20
-42.54823976658282
 30
0.0
 11
-265.1070480951634
 21
-42.54823976658282
 31
0.0
  0
LINE
  5
77A
330
73D
100
AcDbEntity
  8
Vista
 62
     4
100
AcDbLine
 10
-265.1030480951634
 20
-42.53973976658282
 30
0.0
 11
-265.1030480951634
 21
-42.54823976658282
 31
0.0
  0
LINE
  5
77B
330
73D
100
AcDbEntity
  8
Vista
 62
     4
100
AcDbLine
 10
-265.1070480951634
 20
-42.53973976658282
 30
0.0
 11
-265.1070480951634
 21
-42.54823976658282
 31
0.0
  0
LINE
  5
77C
330
73D
100
AcDbEntity
  8
Vista
 62
     4
100
AcDbLine
 10
-265.1030480951634
 20
-42.54823976658282
 30
0.0
 11
-265.0999942150913
 21
-42.54823976658285
 31
0.0
  0
LINE
  5
77D
330
73D
100
AcDbEntity
  8
Vista
 62
     4
100
AcDbLine
 10
-265.1070480951634
 20
-42.5441333561959
 30
0.0
 11
-265.1030480951634
 21
-42.5441333561959
 31
0.0
  0
LINE
  5
77E
330
73D
100
AcDbEntity
  8
CORTE
  6
RAYITA
 62
     4
100
AcDbLine
 10
-265.2611334367446
 20
-42.46214078547466
 30
0.0
 11
-265.2611334367446
 21
-42.45803437508773
 31
0.0
  0
LINE
  5
77F
330
73D
100
AcDbEntity
  8
CORTE
  6
RAYITA
 62
     4
100
AcDbLine
 10
-265.2576225605411
 20
-42.45364078547466
 30
0.0
 11
-265.2593966603947
 21
-42.45364078547466
 31
0.0
  0
LINE
  5
780
330
73D
100
AcDbEntity
  8
CORTE
  6
RAYITA
 62
     4
100
AcDbLine
 10
-265.2593966603947
 20
-42.45803437508773
 30
0.0
 11
-265.2611334367446
 21
-42.45803437508773
 31
0.0
  0
LINE
  5
781
330
73D
100
AcDbEntity
  8
CORTE
  6
RAYITA
 62
     4
100
AcDbLine
 10
-265.2593966603947
 20
-42.45803437508773
 30
0.0
 11
-265.2593966603947
 21
-42.45364078547466
 31
0.0
  0
LINE
  5
782
330
73D
100
AcDbEntity
  8
Vista
 62
     2
100
AcDbLine
 10
-265.2246225605411
 20
-42.42864078547465
 30
0.0
 11
-265.0988419531143
 21
-42.4023863117474
 31
0.0
  0
LINE
  5
783
330
73D
100
AcDbEntity
  8
Vista
 62
     2
100
AcDbLine
 10
-265.2253196169622
 20
-42.43216218366036
 30
0.0
 11
-265.1005238724924
 21
-42.40611328262953
 31
0.0
  0
LINE
  5
784
330
73D
100
AcDbEntity
  8
Vista
 62
     2
100
AcDbLine
 10
-265.2357843481861
 20
-42.4424980657533
 30
0.0
 11
-265.1113419531143
 21
-42.41652292015008
 31
0.0
  0
LINE
  5
785
330
73D
100
AcDbEntity
  8
Vista
 62
     2
100
AcDbLine
 10
-265.2377407371607
 20
-42.44566528066572
 30
0.0
 11
-265.1119601297339
 21
-42.41941080693844
 31
0.0
  0
LINE
  5
786
330
73D
100
AcDbEntity
  8
Vista
 62
     2
100
AcDbLine
 10
-265.2616957494533
 20
-42.44725731687553
 30
0.0
 11
-265.2475622982738
 21
-42.44430720930124
 31
0.0
  0
LINE
  5
787
330
73D
100
AcDbEntity
  8
Vista
 62
     2
100
AcDbLine
 10
-265.2419054000998
 20
-42.45361692139899
 30
0.0
 11
-265.1318419531143
 21
-42.43064312650061
 31
0.0
  0
LINE
  5
788
330
73D
100
AcDbEntity
  8
Vista
 62
     4
100
AcDbLine
 10
-265.2551225605411
 20
-42.45364078547466
 30
0.0
 11
-265.2479363219937
 21
-42.45214078547464
 31
0.0
  0
LINE
  5
789
330
73D
100
AcDbEntity
  8
Vista
 62
     4
100
AcDbLine
 10
-265.2543974497464
 20
-42.4613609643679
 30
0.0
 11
-265.2463974497463
 21
-42.4596911060796
 31
0.0
  0
LINE
  5
78A
330
73D
100
AcDbEntity
  8
Vista
 62
     4
100
AcDbLine
 10
-265.2593966603947
 20
-42.45803437508773
 30
0.0
 11
-265.2558974497463
 21
-42.45730397684979
 31
0.0
  0
LINE
  5
78B
330
73D
100
AcDbEntity
  8
Vista
 62
     2
100
AcDbLine
 10
-265.2611968867646
 20
-42.46708465797961
 30
0.0
 11
-265.1354162793379
 21
-42.44083018425236
 31
0.0
  0
LINE
  5
78C
330
73D
100
AcDbEntity
  8
Vista
 62
     3
100
AcDbLine
 10
-265.264002248065
 20
-42.47113166995989
 30
0.0
 11
-265.1382216406382
 21
-42.44487719623264
 31
0.0
  0
ARC
  5
78D
330
73D
100
AcDbEntity
  8
CORTE
  6
Continuous
 62
     1
100
AcDbCircle
 10
-265.2616334367446
 20
-42.46684088735999
 30
0.0
 40
0.0004999999999999
100
AcDbArc
 50
299.8686408419573
 51
359.9999999999935
  0
LINE
  5
78E
330
73D
100
AcDbEntity
  8
CORTE
  6
Continuous
 62
     1
100
AcDbLine
 10
-265.2611334367446
 20
-42.46684088735999
 30
0.0
 11
-265.2611334367446
 21
-42.46214078547466
 31
0.0
  0
LINE
  5
78F
330
73D
100
AcDbEntity
  8
CORTE
  6
Continuous
 62
     1
100
AcDbLine
 10
-265.2576225605411
 20
-42.45364078547466
 30
0.0
 11
-265.2551225605411
 21
-42.45364078547466
 31
0.0
  0
ARC
  5
790
330
73D
100
AcDbEntity
  8
CORTE
  6
Continuous
 62
     1
100
AcDbCircle
 10
-265.2525734960763
 20
-42.45503911726784
 30
0.0
 40
0.0029074149083751
100
AcDbArc
 50
94.53017172282182
 51
151.2522954919238
  0
LINE
  5
791
330
73D
100
AcDbEntity
  8
CORTE
  6
Continuous
 62
     1
100
AcDbLine
 10
-265.2528031355024
 20
-42.45214078547464
 30
0.0
 11
-265.2474419855798
 21
-42.45214078547464
 31
0.0
  0
ARC
  5
792
330
73D
100
AcDbEntity
  8
CORTE
  6
Continuous
 62
     1
100
AcDbCircle
 10
-265.2476716250059
 20
-42.45503911726784
 30
0.0
 40
0.0029074149083745
100
AcDbArc
 50
28.74770450807759
 51
85.46982827718144
  0
LINE
  5
793
330
73D
100
AcDbEntity
  8
CORTE
  6
Continuous
 62
     1
100
AcDbLine
 10
-265.245122560541
 20
-42.45364078547466
 30
0.0
 11
-265.2421225605411
 21
-42.45364078547466
 31
0.0
  0
ARC
  5
794
330
73D
100
AcDbEntity
  8
CORTE
  6
Continuous
 62
     1
100
AcDbCircle
 10
-265.2421225605411
 20
-42.45264078547466
 30
0.0
 40
0.001
100
AcDbArc
 50
270.0
 51
359.9999999999951
  0
LINE
  5
795
330
73D
100
AcDbEntity
  8
CORTE
  6
Continuous
 62
     1
100
AcDbLine
 10
-265.2411225605411
 20
-42.45264078547466
 30
0.0
 11
-265.2411225605411
 21
-42.44913138597588
 31
0.0
  0
ARC
  5
796
330
73D
100
AcDbEntity
  8
CORTE
  6
Continuous
 62
     1
100
AcDbCircle
 10
-265.2371225605411
 20
-42.44967795498879
 30
0.0
 40
0.0040371695141331
100
AcDbArc
 50
101.4506709648844
 51
172.21916242068
  0
ARC
  5
797
330
73D
100
AcDbEntity
  8
CORTE
  6
Continuous
 62
     1
100
AcDbCircle
 10
-265.238122560541
 20
-42.44474104535682
 30
0.0
 40
0.0010000000000001
100
AcDbArc
 50
281.4506709648813
 51
359.9999999999935
  0
LINE
  5
798
330
73D
100
AcDbEntity
  8
CORTE
  6
Continuous
 62
     1
100
AcDbLine
 10
-265.2371225605411
 20
-42.44474104535682
 30
0.0
 11
-265.2371225605411
 21
-42.44264078547463
 31
0.0
  0
ARC
  5
799
330
73D
100
AcDbEntity
  8
CORTE
  6
Continuous
 62
     1
100
AcDbCircle
 10
-265.2371225605411
 20
-42.4362955473794
 30
0.0
 40
0.0063452380952395
100
AcDbArc
 50
270.0
 51
350.0605185437708
  0
ARC
  5
79A
330
73D
100
AcDbEntity
  8
CORTE
  6
Continuous
 62
     1
100
AcDbCircle
 10
-265.224622560541
 20
-42.43848602356989
 30
0.0
 40
0.0063452380952396
100
AcDbArc
 50
97.82469757354439
 51
170.060518543773
  0
ARC
  5
79B
330
73D
100
AcDbEntity
  8
CORTE
  6
Continuous
 62
     1
100
AcDbCircle
 10
-265.2256225605411
 20
-42.43120917516718
 30
0.0
 40
0.001
100
AcDbArc
 50
277.8246975735409
 51
359.9999999999984
  0
LINE
  5
79C
330
73D
100
AcDbEntity
  8
CORTE
  6
Continuous
 62
     1
100
AcDbLine
 10
-265.2246225605411
 20
-42.43120917516718
 30
0.0
 11
-265.2246225605411
 21
-42.42864078547465
 31
0.0
  0
LINE
  5
79D
330
73D
100
AcDbEntity
  8
CORTE
  6
Continuous
 62
     1
100
AcDbLine
 10
-265.2246225605411
 20
-42.42864078547465
 30
0.0
 11
-265.2371225605411
 21
-42.42864078547465
 31
0.0
  0
LINE
  5
79E
330
73D
100
AcDbEntity
  8
CORTE
  6
Continuous
 62
     1
100
AcDbLine
 10
-265.2371225605411
 20
-42.42864078547465
 30
0.0
 11
-265.2371225605411
 21
-42.43464078547465
 31
0.0
  0
LINE
  5
79F
330
73D
100
AcDbEntity
  8
CORTE
  6
Continuous
 62
     1
100
AcDbLine
 10
-265.2371225605411
 20
-42.43464078547465
 30
0.0
 11
-265.2506225605411
 21
-42.44714078547464
 31
0.0
  0
LINE
  5
7A0
330
73D
100
AcDbEntity
  8
CORTE
  6
Continuous
 62
     1
100
AcDbLine
 10
-265.2506225605411
 20
-42.44714078547464
 30
0.0
 11
-265.2606225605411
 21
-42.44714078547464
 31
0.0
  0
ARC
  5
7A1
330
73D
100
AcDbEntity
  8
CORTE
  6
Continuous
 62
     1
100
AcDbCircle
 10
-265.2606225605411
 20
-42.45214078547464
 30
0.0
 40
0.005
100
AcDbArc
 50
90.00000000000325
 51
179.9999999999967
  0
LINE
  5
7A2
330
73D
100
AcDbEntity
  8
CORTE
  6
Continuous
 62
     1
100
AcDbLine
 10
-265.2656225605411
 20
-42.45214078547464
 30
0.0
 11
-265.2656225605411
 21
-42.45741360008323
 31
0.0
  0
LINE
  5
7A3
330
73D
100
AcDbEntity
  8
CORTE
  6
Continuous
 62
     1
100
AcDbLine
 10
-265.2656225605411
 20
-42.45741360008323
 30
0.0
 11
-265.2671225605411
 21
-42.45864078547465
 31
0.0
  0
LINE
  5
7A4
330
73D
100
AcDbEntity
  8
CORTE
  6
Continuous
 62
     1
100
AcDbLine
 10
-265.2671225605411
 20
-42.45864078547465
 30
0.0
 11
-265.2671225605411
 21
-42.47114078547464
 31
0.0
  0
LINE
  5
7A5
330
73D
100
AcDbEntity
  8
CORTE
  6
Continuous
 62
     1
100
AcDbLine
 10
-265.2671225605411
 20
-42.47114078547464
 30
0.0
 11
-265.2640972871209
 21
-42.47114078547464
 31
0.0
  0
ARC
  5
7A6
330
73D
100
AcDbEntity
  8
CORTE
  6
Continuous
 62
     1
100
AcDbCircle
 10
-265.2640972871209
 20
-42.47064078547466
 30
0.0
 40
0.0005
100
AcDbArc
 50
270.0
 51
354.2126842324164
  0
ARC
  5
7A7
330
73D
100
AcDbEntity
  8
CORTE
  6
Continuous
 62
     1
100
AcDbCircle
 10
-265.2591640162722
 20
-42.47114078547464
 30
0.0
 40
0.004458544268822
100
AcDbArc
 50
119.8686408419609
 51
174.2126842324128
  0
LINE
  5
7A8
330
73D
100
AcDbEntity
  8
CORTE
  6
Continuous
 62
     4
100
AcDbLine
 10
-265.2573974497463
 20
-42.4613609643679
 30
0.0
 11
-265.2573974497463
 21
-42.45761707527883
 31
0.0
  0
LINE
  5
7A9
330
73D
100
AcDbEntity
  8
Vista
 62
     4
100
AcDbLine
 10
-265.2611334367446
 20
-42.46214078547466
 30
0.0
 11
-265.2573974497463
 21
-42.4613609643679
 31
0.0
  0
LINE
  5
7AA
330
73D
100
AcDbEntity
  8
CORTE
  6
Continuous
 62
     1
100
AcDbLine
 10
-265.2593974497464
 20
-42.45803437508773
 30
0.0
 11
-265.2593974497464
 21
-42.45359456852866
 31
0.0
  0
LINE
  5
7AB
330
73D
100
AcDbEntity
  8
Vista
 62
     4
100
AcDbLine
 10
-265.2573974497463
 20
-42.4613609643679
 30
0.0
 11
-265.2543974497464
 21
-42.4613609643679
 31
0.0
  0
LINE
  5
7AC
330
73D
100
AcDbEntity
  8
Vista
 62
     4
100
AcDbLine
 10
-265.2463974497463
 20
-42.45532102013244
 30
0.0
 11
-265.2438974497463
 21
-42.45479918941735
 31
0.0
  0
LINE
  5
7AD
330
73D
100
AcDbEntity
  8
CORTE
  6
Continuous
 62
     4
100
AcDbLine
 10
-265.2543974497464
 20
-42.4613609643679
 30
0.0
 11
-265.2543974497464
 21
-42.45348943144084
 31
0.0
  0
LINE
  5
7AE
330
73D
100
AcDbEntity
  8
CORTE
  6
Continuous
 62
     4
100
AcDbLine
 10
-265.2558974497463
 20
-42.45730397684979
 30
0.0
 11
-265.2558974497463
 21
-42.45364078547466
 31
0.0
  0
LINE
  5
7AF
330
73D
100
AcDbEntity
  8
CORTE
  6
Continuous
 62
     4
100
AcDbLine
 10
-265.2463974497463
 20
-42.4596911060796
 30
0.0
 11
-265.2463974497463
 21
-42.45242577862588
 31
0.0
  0
LINE
  5
7B0
330
73D
100
AcDbEntity
  8
Vista
 62
     4
100
AcDbLine
 10
-265.2463974497463
 20
-42.45906490922148
 30
0.0
 11
-265.2453974497464
 21
-42.45885617693547
 31
0.0
  0
LINE
  5
7B1
330
73D
100
AcDbEntity
  8
CORTE
  6
Continuous
 62
     4
100
AcDbLine
 10
-265.2423974497464
 20
-42.45885617693547
 30
0.0
 11
-265.2423974497464
 21
-42.45364078547466
 31
0.0
  0
LINE
  5
7B2
330
73D
100
AcDbEntity
  8
CORTE
  6
Continuous
 62
     4
100
AcDbLine
 10
-265.2453974497464
 20
-42.45885617693547
 30
0.0
 11
-265.2453974497464
 21
-42.4551122878464
 31
0.0
  0
LINE
  5
7B3
330
73D
100
AcDbEntity
  8
CORTE
  6
Continuous
 62
     4
100
AcDbLine
 10
-265.2343974497463
 20
-42.45718631864717
 30
0.0
 11
-265.2343974497463
 21
-42.45204976975823
 31
0.0
  0
LINE
  5
7B4
330
73D
100
AcDbEntity
  8
Vista
 62
     4
100
AcDbLine
 10
-265.2423974497464
 20
-42.45885617693547
 30
0.0
 11
-265.2453974497464
 21
-42.45885617693547
 31
0.0
  0
LINE
  5
7B5
330
73D
100
AcDbEntity
  8
CORTE
  6
Continuous
 62
     4
100
AcDbLine
 10
-265.2438974497463
 20
-42.45479918941735
 30
0.0
 11
-265.2438974497463
 21
-42.45364078547466
 31
0.0
  0
LINE
  5
7B6
330
73D
100
AcDbEntity
  8
Vista
 62
     4
100
AcDbLine
 10
-265.2423974497464
 20
-42.45885617693547
 30
0.0
 11
-265.2343974497463
 21
-42.45718631864717
 31
0.0
  0
LINE
  5
7B7
330
73D
100
AcDbEntity
  8
CORTE
  6
Continuous
 62
     4
100
AcDbLine
 10
-265.2333974497464
 20
-42.45635698981327
 30
0.0
 11
-265.2333974497464
 21
-42.45261310072421
 31
0.0
  0
LINE
  5
7B8
330
73D
100
AcDbEntity
  8
CORTE
  6
Continuous
 62
     4
100
AcDbLine
 10
-265.2303974497463
 20
-42.45635698981327
 30
0.0
 11
-265.2303974497463
 21
-42.45121484061409
 31
0.0
  0
LINE
  5
7B9
330
73D
100
AcDbEntity
  8
Vista
 62
     4
100
AcDbLine
 10
-265.2303974497463
 20
-42.45635698981327
 30
0.0
 11
-265.2223974497463
 21
-42.45468713152497
 31
0.0
  0
LINE
  5
7BA
330
73D
100
AcDbEntity
  8
Vista
 62
     4
100
AcDbLine
 10
-265.2303974497463
 20
-42.45635698981327
 30
0.0
 11
-265.2333974497464
 21
-42.45635698981327
 31
0.0
  0
LINE
  5
7BB
330
73D
100
AcDbEntity
  8
Vista
 62
     4
100
AcDbLine
 10
-265.2343974497463
 20
-42.45656572209931
 30
0.0
 11
-265.2333974497464
 21
-42.45635698981327
 31
0.0
  0
LINE
  5
7BC
330
73D
100
AcDbEntity
  8
Vista
 62
     4
100
AcDbLine
 10
-265.2343974497463
 20
-42.45282183301024
 30
0.0
 11
-265.2318974497463
 21
-42.45230000229516
 31
0.0
  0
LINE
  5
7BD
330
73D
100
AcDbEntity
  8
CORTE
  6
Continuous
 62
     4
100
AcDbLine
 10
-265.2318974497463
 20
-42.45230000229516
 30
0.0
 11
-265.2318974497463
 21
-42.45152793904314
 31
0.0
  0
LINE
  5
7BE
330
73D
100
AcDbEntity
  8
CORTE
  6
Continuous
 62
     4
100
AcDbLine
 10
-265.2223974497463
 20
-42.45468713152497
 30
0.0
 11
-265.2223974497463
 21
-42.44955058263606
 31
0.0
  0
LINE
  5
7BF
330
73D
100
AcDbEntity
  8
Vista
 62
     4
100
AcDbLine
 10
-265.2183974497464
 20
-42.45381967473214
 30
0.0
 11
-265.2103974497463
 21
-42.45214981644385
 31
0.0
  0
LINE
  5
7C0
330
73D
100
AcDbEntity
  8
Vista
 62
     4
100
AcDbLine
 10
-265.2183974497464
 20
-42.45381967473214
 30
0.0
 11
-265.2213974497463
 21
-42.45381967473214
 31
0.0
  0
LINE
  5
7C1
330
73D
100
AcDbEntity
  8
CORTE
  6
Continuous
 62
     4
100
AcDbLine
 10
-265.2198974497463
 20
-42.44976268721403
 30
0.0
 11
-265.2198974497463
 21
-42.44902315161072
 31
0.0
  0
LINE
  5
7C2
330
73D
100
AcDbEntity
  8
Vista
 62
     4
100
AcDbLine
 10
-265.2223974497463
 20
-42.45028451792911
 30
0.0
 11
-265.2198974497463
 21
-42.44976268721403
 31
0.0
  0
LINE
  5
7C3
330
73D
100
AcDbEntity
  8
Vista
 62
     4
100
AcDbLine
 10
-265.2223974497463
 20
-42.45402840701818
 30
0.0
 11
-265.2213974497463
 21
-42.45381967473214
 31
0.0
  0
LINE
  5
7C4
330
73D
100
AcDbEntity
  8
CORTE
  6
Continuous
 62
     4
100
AcDbLine
 10
-265.2213974497463
 20
-42.45381967473214
 30
0.0
 11
-265.2213974497463
 21
-42.45007578564307
 31
0.0
  0
LINE
  5
7C5
330
73D
100
AcDbEntity
  8
CORTE
  6
Continuous
 62
     4
100
AcDbLine
 10
-265.2183974497464
 20
-42.45381967473214
 30
0.0
 11
-265.2183974497464
 21
-42.44867752553297
 31
0.0
  0
LINE
  5
7C6
330
73D
100
AcDbEntity
  8
CORTE
  6
Continuous
 62
     4
100
AcDbLine
 10
-265.2103974497463
 20
-42.45214981644385
 30
0.0
 11
-265.2103974497463
 21
-42.44704019489337
 31
0.0
  0
LINE
  5
7C7
330
73D
100
AcDbEntity
  8
Vista
 62
     4
100
AcDbLine
 10
-265.2063974497464
 20
-42.45136478851414
 30
0.0
 11
-265.1983974497463
 21
-42.44969493022584
 31
0.0
  0
LINE
  5
7C8
330
73D
100
AcDbEntity
  8
Vista
 62
     4
100
AcDbLine
 10
-265.2063974497464
 20
-42.45136478851414
 30
0.0
 11
-265.2093974497463
 21
-42.45136478851414
 31
0.0
  0
LINE
  5
7C9
330
73D
100
AcDbEntity
  8
CORTE
  6
Continuous
 62
     4
100
AcDbLine
 10
-265.2078974497463
 20
-42.44730780099603
 30
0.0
 11
-265.2078974497463
 21
-42.44653573774401
 31
0.0
  0
LINE
  5
7CA
330
73D
100
AcDbEntity
  8
Vista
 62
     4
100
AcDbLine
 10
-265.2103974497463
 20
-42.44782963171111
 30
0.0
 11
-265.2078974497463
 21
-42.44730780099603
 31
0.0
  0
LINE
  5
7CB
330
73D
100
AcDbEntity
  8
Vista
 62
     4
100
AcDbLine
 10
-265.2103974497463
 20
-42.45157352080018
 30
0.0
 11
-265.2093974497463
 21
-42.45136478851414
 31
0.0
  0
LINE
  5
7CC
330
73D
100
AcDbEntity
  8
CORTE
  6
Continuous
 62
     4
100
AcDbLine
 10
-265.2093974497463
 20
-42.45136478851414
 30
0.0
 11
-265.2093974497463
 21
-42.44762089942507
 31
0.0
  0
LINE
  5
7CD
330
73D
100
AcDbEntity
  8
CORTE
  6
Continuous
 62
     4
100
AcDbLine
 10
-265.2063974497464
 20
-42.45136478851414
 30
0.0
 11
-265.2063974497464
 21
-42.44622263931496
 31
0.0
  0
LINE
  5
7CE
330
73D
100
AcDbEntity
  8
CORTE
  6
Continuous
 62
     4
100
AcDbLine
 10
-265.1983974497463
 20
-42.44969493022584
 30
0.0
 11
-265.1983974497463
 21
-42.44455838133693
 31
0.0
  0
LINE
  5
7CF
330
73D
100
AcDbEntity
  8
Vista
 62
     4
100
AcDbLine
 10
-265.1943974497464
 20
-42.44883783223379
 30
0.0
 11
-265.1863974497463
 21
-42.44716797394549
 31
0.0
  0
LINE
  5
7D0
330
73D
100
AcDbEntity
  8
Vista
 62
     4
100
AcDbLine
 10
-265.1943974497464
 20
-42.44883783223379
 30
0.0
 11
-265.1973974497463
 21
-42.44883783223379
 31
0.0
  0
LINE
  5
7D1
330
73D
100
AcDbEntity
  8
CORTE
  6
Continuous
 62
     4
100
AcDbLine
 10
-265.1958974497463
 20
-42.44478084471568
 30
0.0
 11
-265.1958974497463
 21
-42.44400878146369
 31
0.0
  0
LINE
  5
7D2
330
73D
100
AcDbEntity
  8
Vista
 62
     4
100
AcDbLine
 10
-265.1983974497463
 20
-42.44530267543076
 30
0.0
 11
-265.1958974497463
 21
-42.44478084471568
 31
0.0
  0
LINE
  5
7D3
330
73D
100
AcDbEntity
  8
Vista
 62
     4
100
AcDbLine
 10
-265.1983974497463
 20
-42.44904656451983
 30
0.0
 11
-265.1973974497463
 21
-42.44883783223379
 31
0.0
  0
LINE
  5
7D4
330
73D
100
AcDbEntity
  8
CORTE
  6
Continuous
 62
     4
100
AcDbLine
 10
-265.1973974497463
 20
-42.44883783223379
 30
0.0
 11
-265.1973974497463
 21
-42.44509394314476
 31
0.0
  0
LINE
  5
7D5
330
73D
100
AcDbEntity
  8
CORTE
  6
Continuous
 62
     4
100
AcDbLine
 10
-265.1943974497464
 20
-42.44883783223379
 30
0.0
 11
-265.1943974497464
 21
-42.44369568303464
 31
0.0
  0
LINE
  5
7D6
330
73D
100
AcDbEntity
  8
CORTE
  6
Continuous
 62
     4
100
AcDbLine
 10
-265.1838974497463
 20
-42.44224352963455
 30
0.0
 11
-265.1838974497463
 21
-42.44150399403126
 31
0.0
  0
LINE
  5
7D7
330
73D
100
AcDbEntity
  8
CORTE
  6
Continuous
 62
     4
100
AcDbLine
 10
-265.1823974497464
 20
-42.44630051715266
 30
0.0
 11
-265.1823974497464
 21
-42.44115836795351
 31
0.0
  0
LINE
  5
7D8
330
73D
100
AcDbEntity
  8
Vista
 62
     4
100
AcDbLine
 10
-265.1823974497464
 20
-42.44630051715266
 30
0.0
 11
-265.1853974497464
 21
-42.44630051715266
 31
0.0
  0
LINE
  5
7D9
330
73D
100
AcDbEntity
  8
CORTE
  6
Continuous
 62
     4
100
AcDbLine
 10
-265.1853974497464
 20
-42.44630051715266
 30
0.0
 11
-265.1853974497464
 21
-42.44255662806362
 31
0.0
  0
LINE
  5
7DA
330
73D
100
AcDbEntity
  8
Vista
 62
     4
100
AcDbLine
 10
-265.1863974497463
 20
-42.4465092494387
 30
0.0
 11
-265.1853974497464
 21
-42.44630051715266
 31
0.0
  0
LINE
  5
7DB
330
73D
100
AcDbEntity
  8
Vista
 62
     4
100
AcDbLine
 10
-265.1863974497463
 20
-42.44276536034966
 30
0.0
 11
-265.1838974497463
 21
-42.44224352963455
 31
0.0
  0
LINE
  5
7DC
330
73D
100
AcDbEntity
  8
CORTE
  6
Continuous
 62
     4
100
AcDbLine
 10
-265.1863974497463
 20
-42.44716797394549
 30
0.0
 11
-265.1863974497463
 21
-42.44203142505658
 31
0.0
  0
LINE
  5
7DD
330
73D
100
AcDbEntity
  8
Vista
 62
     4
100
AcDbLine
 10
-265.1703974497463
 20
-42.44384563093466
 30
0.0
 11
-265.1623974497463
 21
-42.44217577264636
 31
0.0
  0
LINE
  5
7DE
330
73D
100
AcDbEntity
  8
Vista
 62
     4
100
AcDbLine
 10
-265.1823974497464
 20
-42.44630051715266
 30
0.0
 11
-265.1743974497463
 21
-42.44463065886439
 31
0.0
  0
LINE
  5
7DF
330
73D
100
AcDbEntity
  8
CORTE
  6
Continuous
 62
     4
100
AcDbLine
 10
-265.1743974497463
 20
-42.44463065886439
 30
0.0
 11
-265.1743974497463
 21
-42.43952103731389
 31
0.0
  0
LINE
  5
7E0
330
73D
100
AcDbEntity
  8
CORTE
  6
Continuous
 62
     4
100
AcDbLine
 10
-265.1733974497464
 20
-42.44384563093466
 30
0.0
 11
-265.1733974497464
 21
-42.44010174184562
 31
0.0
  0
LINE
  5
7E1
330
73D
100
AcDbEntity
  8
CORTE
  6
Continuous
 62
     4
100
AcDbLine
 10
-265.1703974497463
 20
-42.44384563093466
 30
0.0
 11
-265.1703974497463
 21
-42.43870348173551
 31
0.0
  0
LINE
  5
7E2
330
73D
100
AcDbEntity
  8
Vista
 62
     4
100
AcDbLine
 10
-265.1703974497463
 20
-42.44384563093466
 30
0.0
 11
-265.1733974497464
 21
-42.44384563093466
 31
0.0
  0
LINE
  5
7E3
330
73D
100
AcDbEntity
  8
Vista
 62
     4
100
AcDbLine
 10
-265.1743974497463
 20
-42.4440543632207
 30
0.0
 11
-265.1733974497464
 21
-42.44384563093466
 31
0.0
  0
LINE
  5
7E4
330
73D
100
AcDbEntity
  8
CORTE
  6
Continuous
 62
     4
100
AcDbLine
 10
-265.1718974497463
 20
-42.43978864341655
 30
0.0
 11
-265.1718974497463
 21
-42.43901658016456
 31
0.0
  0
LINE
  5
7E5
330
73D
100
AcDbEntity
  8
Vista
 62
     4
100
AcDbLine
 10
-265.1743974497463
 20
-42.44031047413163
 30
0.0
 11
-265.1718974497463
 21
-42.43978864341655
 31
0.0
  0
LINE
  5
7E6
330
73D
100
AcDbEntity
  8
CORTE
  6
Continuous
 62
     4
100
AcDbLine
 10
-265.1623974497463
 20
-42.44217577264636
 30
0.0
 11
-265.1623974497463
 21
-42.43703922375745
 31
0.0
  0
LINE
  5
7E7
330
73D
100
AcDbEntity
  8
Vista
 62
     4
100
AcDbLine
 10
-265.1583974497464
 20
-42.44133239831891
 30
0.0
 11
-265.1503974497463
 21
-42.43966254003062
 31
0.0
  0
LINE
  5
7E8
330
73D
100
AcDbEntity
  8
Vista
 62
     4
100
AcDbLine
 10
-265.1583974497464
 20
-42.44133239831891
 30
0.0
 11
-265.1613974497463
 21
-42.44133239831891
 31
0.0
  0
LINE
  5
7E9
330
73D
100
AcDbEntity
  8
CORTE
  6
Continuous
 62
     4
100
AcDbLine
 10
-265.1598974497463
 20
-42.4372754108008
 30
0.0
 11
-265.1598974497463
 21
-42.43650334754879
 31
0.0
  0
LINE
  5
7EA
330
73D
100
AcDbEntity
  8
Vista
 62
     4
100
AcDbLine
 10
-265.1623974497463
 20
-42.43779724151589
 30
0.0
 11
-265.1598974497463
 21
-42.4372754108008
 31
0.0
  0
LINE
  5
7EB
330
73D
100
AcDbEntity
  8
Vista
 62
     4
100
AcDbLine
 10
-265.1623974497463
 20
-42.44154113060496
 30
0.0
 11
-265.1613974497463
 21
-42.44133239831891
 31
0.0
  0
LINE
  5
7EC
330
73D
100
AcDbEntity
  8
CORTE
  6
Continuous
 62
     4
100
AcDbLine
 10
-265.1613974497463
 20
-42.44133239831891
 30
0.0
 11
-265.1613974497463
 21
-42.43758850922985
 31
0.0
  0
LINE
  5
7ED
330
73D
100
AcDbEntity
  8
CORTE
  6
Continuous
 62
     4
100
AcDbLine
 10
-265.1583974497464
 20
-42.44133239831891
 30
0.0
 11
-265.1583974497464
 21
-42.43619024911974
 31
0.0
  0
LINE
  5
7EE
330
73D
100
AcDbEntity
  8
CORTE
  6
Continuous
 62
     4
100
AcDbLine
 10
-265.1478974497463
 20
-42.43473809571968
 30
0.0
 11
-265.1478974497463
 21
-42.43399856011636
 31
0.0
  0
LINE
  5
7EF
330
73D
100
AcDbEntity
  8
CORTE
  6
Continuous
 62
     4
100
AcDbLine
 10
-265.1463974497464
 20
-42.43879508323779
 30
0.0
 11
-265.1463974497464
 21
-42.43365293403861
 31
0.0
  0
LINE
  5
7F0
330
73D
100
AcDbEntity
  8
Vista
 62
     4
100
AcDbLine
 10
-265.1463974497464
 20
-42.43879508323779
 30
0.0
 11
-265.1493974497463
 21
-42.43879508323779
 31
0.0
  0
LINE
  5
7F1
330
73D
100
AcDbEntity
  8
CORTE
  6
Continuous
 62
     4
100
AcDbLine
 10
-265.1493974497463
 20
-42.43879508323779
 30
0.0
 11
-265.1493974497463
 21
-42.43505119414872
 31
0.0
  0
LINE
  5
7F2
330
73D
100
AcDbEntity
  8
Vista
 62
     4
100
AcDbLine
 10
-265.1503974497463
 20
-42.43900381552383
 30
0.0
 11
-265.1493974497463
 21
-42.43879508323779
 31
0.0
  0
LINE
  5
7F3
330
73D
100
AcDbEntity
  8
Vista
 62
     4
100
AcDbLine
 10
-265.1503974497463
 20
-42.43525992643476
 30
0.0
 11
-265.1478974497463
 21
-42.43473809571968
 31
0.0
  0
LINE
  5
7F4
330
73D
100
AcDbEntity
  8
CORTE
  6
Continuous
 62
     4
100
AcDbLine
 10
-265.1503974497463
 20
-42.43966254003062
 30
0.0
 11
-265.1503974497463
 21
-42.43452599114171
 31
0.0
  0
LINE
  5
7F5
330
73D
100
AcDbEntity
  8
Vista
 62
     4
100
AcDbLine
 10
-265.1463974497464
 20
-42.43879508323779
 30
0.0
 11
-265.1383974497463
 21
-42.43712522494949
 31
0.0
  0
LINE
  5
7F6
330
73D
100
AcDbEntity
  8
CORTE
  6
Continuous
 62
     4
100
AcDbLine
 10
-265.1383974497463
 20
-42.43712522494949
 30
0.0
 11
-265.1383974497463
 21
-42.43201560339902
 31
0.0
  0
LINE
  5
7F7
330
73D
100
AcDbEntity
  8
CORTE
  6
Continuous
 62
     4
100
AcDbLine
 10
-265.1373974497464
 20
-42.43634019701978
 30
0.0
 11
-265.1373974497464
 21
-42.43259630793072
 31
0.0
  0
LINE
  5
7F8
330
73D
100
AcDbEntity
  8
CORTE
  6
Continuous
 62
     4
100
AcDbLine
 10
-265.1343974497464
 20
-42.43634019701978
 30
0.0
 11
-265.1343974497464
 21
-42.43119804782061
 31
0.0
  0
LINE
  5
7F9
330
73D
100
AcDbEntity
  8
Vista
 62
     4
100
AcDbLine
 10
-265.1383974497463
 20
-42.43654892930583
 30
0.0
 11
-265.1373974497464
 21
-42.43634019701978
 31
0.0
  0
LINE
  5
7FA
330
73D
100
AcDbEntity
  8
CORTE
  6
Continuous
 62
     4
100
AcDbLine
 10
-265.1358974497463
 20
-42.43228320950167
 30
0.0
 11
-265.1358974497463
 21
-42.43151114624966
 31
0.0
  0
LINE
  5
7FB
330
73D
100
AcDbEntity
  8
Vista
 62
     4
100
AcDbLine
 10
-265.1383974497463
 20
-42.43280504021676
 30
0.0
 11
-265.1358974497463
 21
-42.43228320950167
 31
0.0
  0
LINE
  5
7FC
330
73D
100
AcDbEntity
  8
Vista
 62
     4
100
AcDbLine
 10
-265.1353528293179
 20
-42.43634019701978
 30
0.0
 11
-265.1373974497464
 21
-42.43634019701978
 31
0.0
  0
LWPOLYLINE
  5
7FD
330
73D
100
AcDbEntity
  8
Vista
  6
Continuous
 62
     3
100
AcDbPolyline
 90
       21
 70
     0
 43
0.0
 10
-265.1383166796941
 20
-42.44488631174739
 42
0.384929168564455
 10
-265.1378192281659
 20
-42.4444367297706
 42
-0.2416670294637282
 10
-265.1356038227205
 20
-42.44101999835858
 42
0.2685636005234456
 10
-265.1353528293179
 20
-42.44058641363274
 10
-265.1353528293179
 20
-42.43634019701978
 10
-265.1343974497464
 20
-42.43634019701978
 10
-265.1318419531143
 20
-42.43580678236582
 10
-265.1318419531143
 20
-42.43064312650061
 10
-265.1161247926731
 20
-42.42736244767171
 42
0.3514578094911731
 10
-265.1153419531143
 20
-42.42638631174741
 10
-265.1153419531143
 20
-42.42287691224864
 42
-0.3189892314182308
 10
-265.1121434289239
 20
-42.41946666761764
 42
0.3568183404962087
 10
-265.1113419531143
 20
-42.41848657162957
 10
-265.1113419531143
 20
-42.41652292015008
 10
-265.1100037407593
 20
-42.41624359202602
 42
0.3051840064494136
 10
-265.1050919531143
 20
-42.4111363117474
 42
-0.2900042141350497
 10
-265.1005238724924
 20
-42.40611328262953
 10
-265.0995390095354
 20
-42.40590770993311
 42
0.3266838343405565
 10
-265.0988419531143
 20
-42.40495470143993
 10
-265.0988419531143
 20
-42.4023863117474
 10
-265.1113419531143
 20
-42.4023863117474
  0
LINE
  5
7FE
330
73D
100
AcDbEntity
  8
Vista
 62
     6
100
AcDbLine
 10
-265.0999942150913
 20
-42.55723976658283
 30
0.0
 11
-265.0999942150913
 21
-42.51473976658282
 31
0.0
  0
LINE
  5
7FF
330
73D
100
AcDbEntity
  8
Vista
 62
     6
100
AcDbLine
 10
-265.2079942150913
 20
-42.55723976658283
 30
0.0
 11
-265.2079942150913
 21
-42.51473976658282
 31
0.0
  0
LINE
  5
800
330
73D
100
AcDbEntity
  8
Vista
 62
     2
100
AcDbLine
 10
-265.2079942150914
 20
-42.51796536909266
 30
0.0
 11
-265.0999942150913
 21
-42.51796536909266
 31
0.0
  0
LINE
  5
801
330
73D
100
AcDbEntity
  8
Vista
 62
     3
100
AcDbLine
 10
-265.2079942150913
 20
-42.51473976658279
 30
0.0
 11
-265.0999942150913
 21
-42.51473976658284
 31
0.0
  0
LINE
  5
802
330
73D
100
AcDbEntity
  8
Vista
 62
     2
100
AcDbLine
 10
-265.2079942150913
 20
-42.52873976658283
 30
0.0
 11
-265.0999942150913
 21
-42.52873976658283
 31
0.0
  0
LINE
  5
803
330
73D
100
AcDbEntity
  8
Vista
 62
     2
100
AcDbLine
 10
-265.2079942150914
 20
-42.53147306509318
 30
0.0
 11
-265.0999942150913
 21
-42.53147306509318
 31
0.0
  0
LINE
  5
804
330
73D
100
AcDbEntity
  8
Vista
 62
     2
100
AcDbLine
 10
-265.2079942150913
 20
-42.53973976658282
 30
0.0
 11
-265.0999942150913
 21
-42.53973976658282
 31
0.0
  0
LINE
  5
805
330
73D
100
AcDbEntity
  8
Vista
 62
     2
100
AcDbLine
 10
-265.2079942150913
 20
-42.55319036467706
 30
0.0
 11
-265.0999942150913
 21
-42.55319036467709
 31
0.0
  0
LINE
  5
806
330
73D
100
AcDbEntity
  8
Vista
 62
     3
100
AcDbLine
 10
-265.2079942150913
 20
-42.55723976658283
 30
0.0
 11
-265.0999942150913
 21
-42.55723976658283
 31
0.0
  0
ENDBLK
  5
808
330
73D
100
AcDbEntity
  8
0
 62
     3
100
AcDbBlockEnd
  0
BLOCK
  5
B6F
330
B69
100
AcDbEntity
  8
0
 62
     3
100
AcDbBlockBegin
  2
A$C263D6B6A
 70
     0
 10
0.0
 20
0.0
 30
0.0
  3
A$C263D6B6A
  1

  0
HATCH
  5
B6A
330
B69
100
AcDbEntity
  8
Sezione
100
AcDbHatch
 10
0.0
 20
0.0
 30
0.0
210
0.0
220
0.0
230
1.0
  2
ANSI31
 70
     0
 71
     0
 91
        1
 92
        7
 72
     0
 73
     1
 93
        6
 10
0.0922667539244952
 20
0.0862807646728965
 10
-0.0000000665657739
 20
0.0862807646728965
 10
-0.0000000665657739
 20
0.0003091066906239
 10
0.0191316019951639
 20
0.0003091066906239
 10
0.0191316019951639
 20
0.0668219886661159
 10
0.0922667539244952
 20
0.0668219886661158
 97
        0
 75
     0
 76
     1
 52
0.0
 41
0.002
 77
     0
 78
     1
 53
45.0
 43
-0.0858288002254417
 44
-0.1359207187670848
 45
-0.0044901280605346
 46
0.0044901280605346
 79
     0
 47
0.0003507291251325
 98
        1
 10
0.0287510465309501
 20
0.0740124973428604
1001
ACAD
1010
0.0
1020
0.0
1030
0.0
  0
LINE
  5
B6B
330
B69
100
AcDbEntity
  8
Sezione
100
AcDbLine
 10
0.0191316019951639
 20
0.0000000122728271
 30
0.0
 11
0.0191316019951639
 21
0.0668219886661159
 31
0.0
  0
LINE
  5
B6C
330
B69
100
AcDbEntity
  8
Sezione
100
AcDbLine
 10
0.0191316019951639
 20
0.0668219886661159
 30
0.0
 11
0.0923266054750259
 21
0.0668219886661159
 31
0.0
  0
ENDBLK
  5
B70
330
B69
100
AcDbEntity
  8
0
 62
     3
100
AcDbBlockEnd
  0
BLOCK
  5
BFC
330
BFB
100
AcDbEntity
  8
0
100
AcDbBlockBegin
  2
*X10
 70
     1
 10
0.0
 20
0.0
 30
0.0
  3
*X10
  1

  0
LINE
  5
BFD
330
BFB
100
AcDbEntity
  8
0
 62
     0
100
AcDbLine
 10
486.460053877036
 20
124.0678285189305
 30
0.0
 11
503.5693156116774
 21
141.1770902535719
 31
0.0
  0
LINE
  5
BFE
330
BFB
100
AcDbEntity
  8
0
 62
     0
100
AcDbLine
 10
615.6341149734076
 20
253.2418896153022
 30
0.0
 11
629.3545087289434
 21
266.9622833708378
 31
0.0
  0
LINE
  5
BFF
330
BFB
100
AcDbEntity
  8
0
 62
     0
100
AcDbLine
 10
486.460053877036
 20
132.9066632837623
 30
0.0
 11
503.5693156116774
 21
150.0159250184037
 31
0.0
  0
LINE
  5
C00
330
BFB
100
AcDbEntity
  8
0
 62
     0
100
AcDbLine
 10
606.7952802085758
 20
253.2418896153022
 30
0.0
 11
620.5156739641116
 21
266.9622833708378
 31
0.0
  0
LINE
  5
C01
330
BFB
100
AcDbEntity
  8
0
 62
     0
100
AcDbLine
 10
486.460053877036
 20
141.7454980485942
 30
0.0
 11
503.5693156116774
 21
158.8547597832356
 31
0.0
  0
LINE
  5
C02
330
BFB
100
AcDbEntity
  8
0
 62
     0
100
AcDbLine
 10
597.9564454437441
 20
253.2418896153022
 30
0.0
 11
611.6768391992796
 21
266.9622833708378
 31
0.0
  0
LINE
  5
C03
330
BFB
100
AcDbEntity
  8
0
 62
     0
100
AcDbLine
 10
486.460053877036
 20
150.584332813426
 30
0.0
 11
503.5693156116774
 21
167.6935945480674
 31
0.0
  0
LINE
  5
C04
330
BFB
100
AcDbEntity
  8
0
 62
     0
100
AcDbLine
 10
589.1176106789122
 20
253.2418896153022
 30
0.0
 11
602.8380044344478
 21
266.9622833708378
 31
0.0
  0
LINE
  5
C05
330
BFB
100
AcDbEntity
  8
0
 62
     0
100
AcDbLine
 10
486.460053877036
 20
159.4231675782578
 30
0.0
 11
503.5693156116774
 21
176.5324293128992
 31
0.0
  0
LINE
  5
C06
330
BFB
100
AcDbEntity
  8
0
 62
     0
100
AcDbLine
 10
580.2787759140803
 20
253.2418896153022
 30
0.0
 11
593.999169669616
 21
266.9622833708378
 31
0.0
  0
LINE
  5
C07
330
BFB
100
AcDbEntity
  8
0
 62
     0
100
AcDbLine
 10
486.460053877036
 20
168.2620023430897
 30
0.0
 11
503.5693156116774
 21
185.3712640777311
 31
0.0
  0
LINE
  5
C08
330
BFB
100
AcDbEntity
  8
0
 62
     0
100
AcDbLine
 10
571.4399411492485
 20
253.2418896153022
 30
0.0
 11
585.1603349047841
 21
266.9622833708378
 31
0.0
  0
LINE
  5
C09
330
BFB
100
AcDbEntity
  8
0
 62
     0
100
AcDbLine
 10
486.460053877036
 20
177.1008371079215
 30
0.0
 11
503.5693156116773
 21
194.2100988425629
 31
0.0
  0
LINE
  5
C0A
330
BFB
100
AcDbEntity
  8
0
 62
     0
100
AcDbLine
 10
562.6011063844166
 20
253.2418896153022
 30
0.0
 11
576.3215001399522
 21
266.9622833708378
 31
0.0
  0
LINE
  5
C0B
330
BFB
100
AcDbEntity
  8
0
 62
     0
100
AcDbLine
 10
486.460053877036
 20
185.9396718727533
 30
0.0
 11
503.5693156116773
 21
203.0489336073947
 31
0.0
  0
LINE
  5
C0C
330
BFB
100
AcDbEntity
  8
0
 62
     0
100
AcDbLine
 10
553.7622716195848
 20
253.2418896153022
 30
0.0
 11
567.4826653751203
 21
266.9622833708378
 31
0.0
  0
LINE
  5
C0D
330
BFB
100
AcDbEntity
  8
0
 62
     0
100
AcDbLine
 10
486.4600538770359
 20
194.7785066375852
 30
0.0
 11
503.5693156116773
 21
211.8877683722266
 31
0.0
  0
LINE
  5
C0E
330
BFB
100
AcDbEntity
  8
0
 62
     0
100
AcDbLine
 10
544.9234368547529
 20
253.2418896153022
 30
0.0
 11
558.6438306102885
 21
266.9622833708378
 31
0.0
  0
LINE
  5
C0F
330
BFB
100
AcDbEntity
  8
0
 62
     0
100
AcDbLine
 10
486.4600538770359
 20
203.617341402417
 30
0.0
 11
503.5693156116773
 21
220.7266031370584
 31
0.0
  0
LINE
  5
C10
330
BFB
100
AcDbEntity
  8
0
 62
     0
100
AcDbLine
 10
536.084602089921
 20
253.2418896153022
 30
0.0
 11
549.8049958454567
 21
266.9622833708378
 31
0.0
  0
LINE
  5
C11
330
BFB
100
AcDbEntity
  8
0
 62
     0
100
AcDbLine
 10
486.4600538770359
 20
212.4561761672488
 30
0.0
 11
503.5693156116773
 21
229.5654379018902
 31
0.0
  0
LINE
  5
C12
330
BFB
100
AcDbEntity
  8
0
 62
     0
100
AcDbLine
 10
527.2457673250892
 20
253.2418896153022
 30
0.0
 11
540.9661610806248
 21
266.9622833708378
 31
0.0
  0
LINE
  5
C13
330
BFB
100
AcDbEntity
  8
0
 62
     0
100
AcDbLine
 10
486.4600538770359
 20
221.2950109320807
 30
0.0
 11
503.5693156116773
 21
238.4042726667221
 31
0.0
  0
LINE
  5
C14
330
BFB
100
AcDbEntity
  8
0
 62
     0
100
AcDbLine
 10
518.4069325602573
 20
253.2418896153022
 30
0.0
 11
532.1273263157929
 21
266.9622833708378
 31
0.0
  0
LINE
  5
C15
330
BFB
100
AcDbEntity
  8
0
 62
     0
100
AcDbLine
 10
486.4600538770359
 20
230.1338456969125
 30
0.0
 11
503.5693156116773
 21
247.2431074315539
 31
0.0
  0
LINE
  5
C16
330
BFB
100
AcDbEntity
  8
0
 62
     0
100
AcDbLine
 10
509.5680977954256
 20
253.2418896153021
 30
0.0
 11
523.2884915509611
 21
266.9622833708377
 31
0.0
  0
LINE
  5
C17
330
BFB
100
AcDbEntity
  8
0
 62
     0
100
AcDbLine
 10
486.4600538770359
 20
238.9726804617443
 30
0.0
 11
514.4496567861292
 21
266.9622833708377
 31
0.0
  0
LINE
  5
C18
330
BFB
100
AcDbEntity
  8
0
 62
     0
100
AcDbLine
 10
486.4600538770359
 20
247.8115152265762
 30
0.0
 11
505.6108220212975
 21
266.9622833708377
 31
0.0
  0
LINE
  5
C19
330
BFB
100
AcDbEntity
  8
0
 62
     0
100
AcDbLine
 10
486.4600538770359
 20
256.6503499914079
 30
0.0
 11
496.7719872564656
 21
266.9622833708377
 31
0.0
  0
LINE
  5
C1A
330
BFB
100
AcDbEntity
  8
0
 62
     0
100
AcDbLine
 10
486.4600538770358
 20
265.4891847562398
 30
0.0
 11
487.9331524916337
 21
266.9622833708377
 31
0.0
  0
LINE
  5
C1B
330
BFB
100
AcDbEntity
  8
0
 62
     0
100
AcDbLine
 10
494.0552738068973
 20
122.8242136839599
 30
0.0
 11
503.5693156116774
 21
132.3382554887401
 31
0.0
  0
LINE
  5
C1C
330
BFB
100
AcDbEntity
  8
0
 62
     0
100
AcDbLine
 10
624.4729497382395
 20
253.2418896153022
 30
0.0
 11
629.496054025455
 21
258.2649939025177
 31
0.0
  0
LINE
  5
C1D
330
BFB
100
AcDbEntity
  8
0
 62
     0
100
AcDbLine
 10
502.8941085717291
 20
122.8242136839599
 30
0.0
 11
503.5693156116775
 21
123.4994207239083
 31
0.0
  0
ENDBLK
  5
C1E
330
BFB
100
AcDbEntity
  8
0
100
AcDbBlockEnd
  0
BLOCK
  5
C24
330
C1F
100
AcDbEntity
  8
0
100
AcDbBlockBegin
  2
A$C6C65579B
 70
     0
 10
0.0
 20
0.0
 30
0.0
  3
A$C6C65579B
  1

  0
LINE
  5
C20
330
C1F
100
AcDbEntity
  8
CORTE
  6
RAYITAX4
 62
     4
100
AcDbLine
 10
-265.2537935691752
 20
-42.42682209115611
 30
0.0
 11
-265.2537935691752
 21
-42.55723976708748
 31
0.0
  0
LINE
  5
C21
330
C1F
100
AcDbEntity
  8
CORTE
  6
RAYITAX4
 62
     4
100
AcDbLine
 10
-265.2537935691752
 20
-42.42682209115611
 30
0.0
 11
-265.1278668307615
 21
-42.42682209115611
 31
0.0
  0
INSERT
  5
C22
330
C1F
100
AcDbEntity
  8
TRAMA
100
AcDbBlockReference
  2
*X10
 10
-265.7573628847869
 20
-42.68006398077142
 30
0.0
 41
0.0009999999999764
 42
0.0010000000000048
 43
0.001
1001
ACAD
1000
HATCH
1002
{
1070
    16
1000
ANSI31
1040
50.0
1040
0.0
1002
}
  0
LWPOLYLINE
  5
C23
330
C1F
100
AcDbEntity
  8
CORTE
  6
Continuous
 62
     1
100
AcDbPolyline
 90
       27
 70
     0
 43
0.0
 10
-265.2434935691752
 20
-42.52048009449487
 42
-0.1309515943895288
 10
-265.2396188804983
 20
-42.50227169263183
 42
-0.0391865213385924
 10
-265.2318861974755
 20
-42.48961463308666
 42
0.148047983309989
 10
-265.2273603786659
 20
-42.46536751056521
 42
-0.477131438324366
 10
-265.226266012113
 20
-42.46426334617865
 42
0.3174254686240992
 10
-265.2222487718652
 20
-42.46199398787246
 10
-265.2204935691752
 20
-42.45828353660647
 42
0.3390955557305459
 10
-265.2133594019252
 20
-42.45748275993213
 42
0.1067380655143518
 10
-265.2064935691752
 20
-42.44728353660645
 10
-265.2014935691752
 20
-42.44428353660646
 42
0.6316956553984646
 10
-265.1944935691752
 20
-42.44228353660645
 42
-0.4142135623730849
 10
-265.1884935691752
 20
-42.43628353660648
 10
-265.1804935691752
 20
-42.43628353660648
 42
0.4142135623730847
 10
-265.1784935691752
 20
-42.43428353660647
 10
-265.1784935691752
 20
-42.42728353660647
 10
-265.1984935691753
 20
-42.42728353660647
 10
-265.2184935691752
 20
-42.43928353660646
 10
-265.2222940706685
 20
-42.43961583728498
 42
0.2192482621402799
 10
-265.2266538493824
 20
-42.4421056036295
 10
-265.2379730166141
 20
-42.45795243775387
 42
0.1840335527349514
 10
-265.239055826335
 20
-42.46208505147598
 10
-265.2384935691752
 20
-42.46728353660649
 10
-265.2534935691752
 20
-42.5122835366065
 10
-265.2534935691752
 20
-42.53228353660648
 10
-265.2454935691752
 20
-42.53228353660648
 42
0.4142135623730847
 10
-265.2434935691752
 20
-42.53028353660647
 10
-265.2434935691752
 20
-42.51681234902133
  0
ENDBLK
  5
C25
330
C1F
100
AcDbEntity
  8
0
100
AcDbBlockEnd
  0
BLOCK
  5
2DF9
330
2DEE
100
AcDbEntity
  8
0
100
AcDbBlockBegin
  2
*D21
 70
     1
 10
0.0
 20
0.0
 30
0.0
  3
*D21
  1

  0
LINE
  5
3077
330
2DEE
100
AcDbEntity
  8
Dimensione
 62
     5
370
    -2
100
AcDbLine
 10
0.1277048408821532
 20
0.2095828075080135
 30
0.0
 11
0.151727153783099
 21
0.2095828075080135
 31
0.0
  0
LINE
  5
3078
330
2DEE
100
AcDbEntity
  8
Dimensione
 62
     5
370
    -2
100
AcDbLine
 10
0.067515834712164
 20
0.1491998629153388
 30
0.0
 11
0.151727153783099
 21
0.1491998629153388
 31
0.0
  0
LINE
  5
3079
330
2DEE
100
AcDbEntity
  8
Dimensione
 62
     5
370
    -2
100
AcDbLine
 10
0.151547153783099
 20
0.2095828075080135
 30
0.0
 11
0.151547153783099
 21
0.1828913352116762
 31
0.0
  0
LINE
  5
307A
330
2DEE
100
AcDbEntity
  8
Dimensione
 62
     5
370
    -2
100
AcDbLine
 10
0.151547153783099
 20
0.1491998629153388
 30
0.0
 11
0.151547153783099
 21
0.1758913352116762
 31
0.0
  0
INSERT
  5
307B
330
2DEE
100
AcDbEntity
  8
Dimensione
 62
     5
370
    -2
100
AcDbBlockReference
  2
_ArchTick
 10
0.151547153783099
 20
0.2095828075080135
 30
0.0
 41
0.0015
 42
0.0015
 43
0.0015
 50
90.0
  0
INSERT
  5
307C
330
2DEE
100
AcDbEntity
  8
Dimensione
 62
     5
370
    -2
100
AcDbBlockReference
  2
_ArchTick
 10
0.151547153783099
 20
0.1491998629153388
 30
0.0
 41
0.0015
 42
0.0015
 43
0.0015
 50
270.0
  0
MTEXT
  5
307D
330
2DEE
100
AcDbEntity
  8
Dimensione
 62
     4
100
AcDbMText
 10
0.151547153783099
 20
0.1793913352116762
 30
0.0
 40
0.003
 41
0.0
 71
     5
 72
     1
  1
\A1;125 mm
  7
ROMANS
 73
     1
 44
1.0
  0
POINT
  5
307E
330
2DEE
100
AcDbEntity
  8
Defpoints
 62
     0
100
AcDbPoint
 10
0.1276423408821532
 20
0.2095828075080135
 30
0.0
  0
POINT
  5
307F
330
2DEE
100
AcDbEntity
  8
Defpoints
 62
     0
100
AcDbPoint
 10
0.067453334712164
 20
0.1491998629153388
 30
0.0
  0
POINT
  5
3080
330
2DEE
100
AcDbEntity
  8
Defpoints
 62
     0
100
AcDbPoint
 10
0.151547153783099
 20
0.1491998629153388
 30
0.0
  0
ENDBLK
  5
2DFA
330
2DEE
100
AcDbEntity
  8
0
100
AcDbBlockEnd
  0
BLOCK
  5
2E12
330
2E08
100
AcDbEntity
  8
0
100
AcDbBlockBegin
  2
*D22
 70
     1
 10
0.0
 20
0.0
 30
0.0
  3
*D22
  1

  0
LINE
  5
2FFF
330
2E08
100
AcDbEntity
  8
Dimensione
 62
     5
370
    -2
100
AcDbLine
 10
0.0652460605984773
 20
0.1637863835545217
 30
0.0
 11
0.0652460605984773
 21
0.1360157724855074
 31
0.0
  0
LINE
  5
3000
330
2E08
100
AcDbEntity
  8
Dimensione
 62
     5
370
    -2
100
AcDbLine
 10
0.1277189884922707
 20
0.2057325854008084
 30
0.0
 11
0.1277189884922707
 21
0.1360157724855074
 31
0.0
  0
LINE
  5
3001
330
2E08
100
AcDbEntity
  8
Dimensione
 62
     5
370
    -2
100
AcDbLine
 10
0.0652460605984773
 20
0.1361957724855074
 30
0.0
 11
0.0851253816882312
 21
0.1361957724855074
 31
0.0
  0
LINE
  5
3002
330
2E08
100
AcDbEntity
  8
Dimensione
 62
     5
370
    -2
100
AcDbLine
 10
0.1277189884922707
 20
0.1361957724855074
 30
0.0
 11
0.1078396674025168
 21
0.1361957724855074
 31
0.0
  0
INSERT
  5
3003
330
2E08
100
AcDbEntity
  8
Dimensione
 62
     5
370
    -2
100
AcDbBlockReference
  2
_ArchTick
 10
0.0652460605984773
 20
0.1361957724855074
 30
0.0
 41
0.0015
 42
0.0015
 43
0.0015
 50
180.0
  0
INSERT
  5
3004
330
2E08
100
AcDbEntity
  8
Dimensione
 62
     5
370
    -2
100
AcDbBlockReference
  2
_ArchTick
 10
0.1277189884922707
 20
0.1361957724855074
 30
0.0
 41
0.0015
 42
0.0015
 43
0.0015
  0
MTEXT
  5
3005
330
2E08
100
AcDbEntity
  8
Dimensione
 62
     4
100
AcDbMText
 10
0.096482524545374
 20
0.1361957724855074
 30
0.0
 40
0.003
 41
0.0
 71
     5
 72
     1
  1
\A1;125 mm
  7
ROMANS
 73
     1
 44
1.0
  0
POINT
  5
3006
330
2E08
100
AcDbEntity
  8
Defpoints
 62
     0
100
AcDbPoint
 10
0.0652460605984773
 20
0.1638488835545217
 30
0.0
  0
POINT
  5
3007
330
2E08
100
AcDbEntity
  8
Defpoints
 62
     0
100
AcDbPoint
 10
0.1277189884922707
 20
0.2057950854008084
 30
0.0
  0
POINT
  5
3008
330
2E08
100
AcDbEntity
  8
Defpoints
 62
     0
100
AcDbPoint
 10
0.1277189884922707
 20
0.1361957724855074
 30
0.0
  0
ENDBLK
  5
2E13
330
2E08
100
AcDbEntity
  8
0
100
AcDbBlockEnd
  0
ENDSEC
  0
SECTION
  2
ENTITIES
  0
LINE
  5
D
330
2
100
AcDbEntity
  8
Table
100
AcDbLine
 10
0.02
 20
0.02
 30
0.0
 11
0.4
 21
0.02
 31
0.0
  0
LINE
  5
10
330
2
100
AcDbEntity
  8
Table
100
AcDbLine
 10
0.4
 20
0.02
 30
0.0
 11
0.4
 21
0.2769999999999999
 31
0.0
  0
LINE
  5
11
330
2
100
AcDbEntity
  8
Table
100
AcDbLine
 10
0.4
 20
0.2769999999999999
 30
0.0
 11
0.02
 21
0.277
 31
0.0
  0
LINE
  5
12
330
2
100
AcDbEntity
  8
Table
100
AcDbLine
 10
0.02
 20
0.277
 30
0.0
 11
0.02
 21
0.02
 31
0.0
  0
LINE
  5
13
330
2
100
AcDbEntity
  8
Table
 62
     2
100
AcDbLine
 10
0.015
 20
0.015
 30
0.0
 11
0.4050000000000001
 21
0.015
 31
0.0
  0
LINE
  5
14
330
2
100
AcDbEntity
  8
Table
 62
     2
100
AcDbLine
 10
0.4050000000000001
 20
0.015
 30
0.0
 11
0.4050000000000001
 21
0.2819999999999998
 31
0.0
  0
LINE
  5
15
330
2
100
AcDbEntity
  8
Table
 62
     2
100
AcDbLine
 10
0.4050000000000001
 20
0.2819999999999998
 30
0.0
 11
0.0149999999999999
 21
0.282
 31
0.0
  0
LINE
  5
16
330
2
100
AcDbEntity
  8
Table
 62
     2
100
AcDbLine
 10
0.0149999999999999
 20
0.282
 30
0.0
 11
0.015
 21
0.015
 31
0.0
  0
LINE
  5
17
330
2
100
AcDbEntity
  8
Table
100
AcDbLine
 10
0.21
 20
0.2769999999999999
 30
0.0
 11
0.21
 21
0.2532994226089223
 31
0.0
  0
LINE
  5
1D
330
2
100
AcDbEntity
  8
Table
100
AcDbLine
 10
0.02
 20
0.0528099428524846
 30
0.0
 11
0.4
 21
0.0528099428524846
 31
0.0
  0
MTEXT
  5
1E
330
2
100
AcDbEntity
  8
Text
100
AcDbMText
 10
0.1133313047219695
 20
0.2610796890771976
 30
0.0
 40
0.003
 41
0.1685521855507659
 71
     2
 72
     5
  1
{\fTimes New Roman|b0|i0|c0|p18;Le cornici per soffitti \fTimes New Roman|b0|i1|c0|p18;   Ceiling mouldings}
 73
     1
 44
1.0
1001
ACAD
1000
ACAD_MTEXT_DEFINED_HEIGHT_BEGIN
1070
    46
1040
0.0141952763113409
1000
ACAD_MTEXT_DEFINED_HEIGHT_END
  0
TEXT
  5
1F
330
2
100
AcDbEntity
  8
Text
100
AcDbText
 10
0.2180556919891047
 20
0.269976982173197
 30
0.0
 40
0.003
  1
Cornice - Moulding : H 125 x 125 mm
  7
ROMANS
100
AcDbText
  0
TEXT
  5
21
330
2
100
AcDbEntity
  8
Text
100
AcDbText
 10
0.2184542410678115
 20
0.2576348370183962
 30
0.0
 40
0.003
  1
File : 3006
  7
ROMANS
100
AcDbText
  0
LINE
  5
22
330
2
100
AcDbEntity
  8
Table
100
AcDbLine
 10
0.4
 20
0.2654452889427402
 30
0.0
 11
0.02
 21
0.2654452889427403
 31
0.0
  0
LINE
  5
23
330
2
100
AcDbEntity
  8
Table
100
AcDbLine
 10
0.4
 20
0.2532994226089223
 30
0.0
 11
0.02
 21
0.2532994226089225
 31
0.0
  0
LINE
  5
24
330
2
100
AcDbEntity
  8
Table
100
AcDbLine
 10
0.21
 20
0.0528099428524846
 30
0.0
 11
0.21
 21
0.02
 31
0.0
  0
TEXT
  5
25
330
2
100
AcDbEntity
  8
Text
100
AcDbText
 10
0.0896473531074035
 20
0.2687784133392506
 30
0.0
 40
0.005
  1
CLASSICSTYL
  7
style1
 72
     1
 11
0.1140561490699125
 21
0.2687784133392506
 31
0.0
100
AcDbText
  0
TEXT
  5
27
330
2
100
AcDbEntity
  8
Text
100
AcDbText
 10
0.348876191563227
 20
0.178483235572628
 30
0.0
 40
0.005
  1
scala 1:4
  7
Arial
100
AcDbText
  0
MTEXT
  5
10F
330
2
100
AcDbEntity
  8
Text
100
AcDbMText
 10
0.305
 20
0.0471738284815141
 30
0.0
 40
0.005
 41
0.1900000000000001
 71
     2
 72
     5
  3
\pt0.09;{\fTimes New Roman|b0|i0|c238|p18;\H1.6x;\C4;Bovelacci\P\H0.4375x;\T0.95;via del Commercio, 5  47100 Forli - Italy  \fTimes New Roman|b0|i0|c0|p18;\P\fTimes New Roman|b0|i0|c238|p18;tel.+39-0543721386  fax +39-0543721127\fTimes New Roman|b0|i
  1
0|c0|p18; \fTimes New Roman|b0|i0|c238|p18;www.bovelacci.it\fTimes New Roman|b0|i0|c0|p18; \fTimes New Roman|b0|i0|c238|p18;e-mail: bovelacci@bovelacci\fTimes New Roman|b0|i0|c0|p18;.it}
 73
     1
 44
1.0
1001
ACAD
1000
ACAD_MTEXT_DEFINED_HEIGHT_BEGIN
1070
    46
1040
0.0271738284815141
1000
ACAD_MTEXT_DEFINED_HEIGHT_END
  0
MTEXT
  5
110
330
2
100
AcDbEntity
  8
Text
100
AcDbMText
 10
0.0219676065851835
 20
0.0500313976452307
 30
0.0
 40
0.002
 41
0.1863544980601608
 71
     1
 72
     5
  3
{\fArial|b0|i0|c0|p34;\H1.25x;Le caratteristiche tecniche indicate vengono fornite a titolo indicativo e potranno essere modificate senza preavviso. Non devono quindi essere considerate a scopo di specifica.\P\fArial|b0|i1|c0|p34;The given values are
  3
 indicative and can be changed without notice. They cannot be considered like a state.\PThis lealfet and designs embodied within are protected by copyright law and international treaties. Unauthorized repro- duction of the leaflet or any portion of i
  1
t or reproduction of any of the designs embodied therein may result in severe civil penalties and will be prosecuted to the maximum.\PAll right reserved, Bovelacci Forlì Italy.}
 73
     1
 44
1.0
  0
TEXT
  5
1CA
330
2
100
AcDbEntity
  8
Text
100
AcDbText
 10
0.0451752281991134
 20
0.0908578547493827
 30
0.0
 40
0.005
  1
scala 1:2
  7
Arial
100
AcDbText
  0
HATCH
  5
1E63
330
2
100
AcDbEntity
  8
Sezione
100
AcDbHatch
 10
0.0
 20
0.0
 30
0.0
210
0.0
220
0.0
230
1.0
  2
ANSI31
 70
     0
 71
     0
 91
        1
 92
        2
 72
     0
 73
     1
 93
        6
 10
0.0652460605984773
 20
0.1520217689729293
 10
0.0652460605984773
 20
0.2095828075080135
 10
0.1190542650450794
 20
0.2095828075080135
 10
0.1190542650450794
 20
0.236897751576052
 10
0.0404451618597506
 20
0.236897751576052
 10
0.0404451618597506
 20
0.1513810196933605
 97
        0
 75
     0
 76
     1
 52
0.0
 41
0.003
 77
     0
 78
     1
 53
45.0
 43
-0.025042582059845
 44
-0.00679486282714
 45
-0.0067351920908019
 46
0.0067351920908019
 79
     0
 98
        1
 10
0.0476715480690844
 20
0.1298991453882176
1001
ACAD
1010
0.0
1020
0.0
1030
0.0
  0
LINE
  5
2DD5
330
2
100
AcDbEntity
  8
Vista
 62
     3
100
AcDbLine
 10
0.1499679028989931
 20
0.1254030937794113
 30
0.0
 11
0.1643388203265799
 21
0.1254030937794113
 31
0.0
  0
LINE
  5
2DE2
330
2
100
AcDbEntity
  8
Vista
 62
     6
100
AcDbLine
 10
0.1832322234568266
 20
0.0650201491867366
 30
0.0
 11
0.1832322234568266
 21
0.1254030937794113
 31
0.0
  0
LINE
  5
2DE3
330
2
100
AcDbEntity
  8
Vista
 62
     6
100
AcDbLine
 10
0.3820687779247009
 20
0.0650201491867366
 30
0.0
 11
0.3820687779247009
 21
0.1254030937794113
 31
0.0
  0
LINE
  5
2DE8
330
2
100
AcDbEntity
  8
Vista
 62
     3
100
AcDbLine
 10
0.2263082918713963
 20
0.2049370293166428
 30
0.0
 11
0.3660257053340672
 21
0.2346348823276969
 31
0.0
  0
DIMENSION
  5
2DED
330
2
100
AcDbEntity
  8
Dimensione
100
AcDbDimension
  2
*D21
 10
0.151547153783099
 20
0.1491998629153388
 30
0.0
 11
0.151547153783099
 21
0.1793913352116762
 31
0.0
 70
    32
  1
125 mm
 71
     5
 42
0.0603829445926747
  3
Bovelacci
100
AcDbAlignedDimension
 13
0.1276423408821532
 23
0.2095828075080135
 33
0.0
 14
0.067453334712164
 24
0.1491998629153388
 34
0.0
 50
90.0
100
AcDbRotatedDimension
  0
DIMENSION
  5
2E07
330
2
100
AcDbEntity
  8
Dimensione
100
AcDbDimension
  2
*D22
 10
0.1277189884922707
 20
0.1361957724855074
 30
0.0
 11
0.096482524545374
 21
0.1361957724855074
 31
0.0
 70
    32
  1
125 mm
 71
     5
 42
0.0624729278937935
  3
Bovelacci
100
AcDbAlignedDimension
 13
0.0652460605984773
 23
0.1638488835545217
 33
0.0
 14
0.1277189884922707
 24
0.2057950854008084
 34
0.0
100
AcDbRotatedDimension
  0
LWPOLYLINE
  5
2E5C
330
2
100
AcDbEntity
  8
Dimensione
 62
     2
100
AcDbPolyline
 90
        3
 70
     0
 43
0.0
 10
0.0652460605984773
 20
0.1362424545047105
 10
0.0652460605984773
 20
0.2095828075080135
 10
0.1296498393316035
 20
0.2095828075080135
  0
LINE
  5
2F30
330
2
100
AcDbEntity
  8
Vista
 62
     3
100
AcDbLine
 10
0.1832322234568266
 20
0.1254030937794113
 30
0.0
 11
0.3820687779247009
 21
0.1254030937794113
 31
0.0
  0
LINE
  5
301C
330
2
100
AcDbEntity
  8
Vista
 62
     3
100
AcDbLine
 10
0.0897788967290039
 20
0.0650201491867366
 30
0.0
 11
0.165108859461216
 21
0.0650201491867366
 31
0.0
  0
LINE
  5
301D
330
2
100
AcDbEntity
  8
Vista
 62
     3
100
AcDbLine
 10
0.1832322234568266
 20
0.0650201491867366
 30
0.0
 11
0.3820687779247009
 21
0.0650201491867366
 31
0.0
  0
LINE
  5
3024
330
2
100
AcDbEntity
  8
Dimensione
 62
     2
100
AcDbLine
 10
0.097780618914956
 20
0.0851477494778551
 30
0.0
 11
0.1643388203265799
 21
0.0851477494778551
 31
0.0
  0
LINE
  5
3025
330
2
100
AcDbEntity
  8
Dimensione
 62
     2
100
AcDbLine
 10
0.0936416907050015
 20
0.0730161160680752
 30
0.0
 11
0.1643388203265799
 21
0.0730161160680752
 31
0.0
  0
LINE
  5
3026
330
2
100
AcDbEntity
  8
Dimensione
 62
     2
100
AcDbLine
 10
0.1499291089159583
 20
0.1209914861981788
 30
0.0
 11
0.1643388203265799
 21
0.1209914861981788
 31
0.0
  0
LINE
  5
3027
330
2
100
AcDbEntity
  8
Dimensione
 62
     2
100
AcDbLine
 10
0.097780618914956
 20
0.0887321087779612
 30
0.0
 11
0.1643388203265799
 21
0.0887321087779612
 31
0.0
  0
LWPOLYLINE
  5
304E
330
2
100
AcDbEntity
  8
Profilo
100
AcDbPolyline
 90
       38
 70
     1
 43
0.0
 10
0.1276423408821532
 20
0.2095828075080135
 10
0.1146352651261766
 20
0.2095828075080136
 10
0.1143593880005173
 20
0.2084799056127054
 10
0.0928378868984313
 20
0.2087555592268873
 10
0.0900786014251852
 20
0.2082041082792331
 10
0.0685571003230992
 20
0.1916608672881923
 10
0.067453334712164
 20
0.1651916529587256
 10
0.0652460605984773
 20
0.1649159993445439
 10
0.0652460605984773
 20
0.1491998629153388
 10
0.067453334712164
 20
0.1491998629153388
 10
0.0680050889635398
 20
0.1527842222154449
 10
0.0693847317001913
 20
0.1541627777249347
 10
0.0699367430597507
 20
0.155817130567897
 10
0.0699367430597507
 20
0.1571958297966775
 10
0.0713161286881617
 20
0.1571958297966775
 10
0.0713161286881617
 20
0.1591258362538214
 10
0.0713161286881617
 20
0.1616072936586195
 10
0.0735236599100889
 20
0.1640887510634175
 10
0.0740754141614646
 20
0.1660189012398521
 10
0.0737995370358052
 20
0.1676731103634951
 10
0.0754550568981161
 20
0.1693274632064573
 10
0.0754550568981161
 20
0.1729118225065634
 10
0.0732477827844294
 20
0.1748419726829981
 10
0.0729716485505295
 20
0.1784263319831042
 10
0.0726957714248132
 20
0.1825621422308644
 10
0.0757309340237756
 20
0.1905579653928842
 10
0.0795937279998301
 20
0.1946937756406443
 10
0.086491684574847
 20
0.1993810368360586
 10
0.0969765580001452
 20
0.2024139451885106
 10
0.106633800048465
 20
0.2035168470838188
 10
0.1146352651261766
 20
0.2035168470838188
 10
0.1149113993600767
 20
0.2048955463125993
 10
0.1184983162104148
 20
0.2048955463125993
 10
0.1198777018388258
 20
0.2032411934696371
 10
0.1212573445754772
 20
0.2029653961361647
 10
0.1223611101864693
 20
0.2037926444172911
 10
0.1240166300487802
 20
0.205171199926781
 10
0.1276035468991184
 20
0.205171199926781
  0
LWPOLYLINE
  5
3083
330
2
100
AcDbEntity
  8
Profilo
100
AcDbPolyline
 90
       38
 70
     1
 43
0.0
 10
0.2450901615998803
 20
0.2056263789310329
 10
0.238586623721892
 20
0.205626378931033
 10
0.2384486851590624
 20
0.205074927983379
 10
0.2276879346080193
 20
0.2052127547904698
 10
0.2263082918713963
 20
0.2049370293166428
 10
0.2155475413203533
 20
0.1966654088211224
 10
0.2149956585148857
 20
0.183430801656389
 10
0.2138920214580424
 20
0.1832929748492982
 10
0.2138920214580424
 20
0.1754349066346956
 10
0.2149956585148857
 20
0.1754349066346956
 10
0.2152715356405736
 20
0.1772270862847487
 10
0.2159613570088994
 20
0.1779163640394936
 10
0.2162373626886791
 20
0.1787435404609747
 10
0.2162373626886791
 20
0.179432890075365
 10
0.2169270555028846
 20
0.179432890075365
 10
0.2169270555028846
 20
0.1803978933039369
 10
0.2169270555028846
 20
0.181638622006336
 10
0.2180308211138481
 20
0.182879350708735
 10
0.218306698239536
 20
0.1838444257969523
 10
0.2181687596767063
 20
0.1846715303587738
 10
0.2189965196078618
 20
0.1854987067802549
 10
0.2189965196078618
 20
0.1872908864303079
 10
0.2178928825510184
 20
0.1882559615185252
 10
0.2177548154340684
 20
0.1900481411685783
 10
0.2176168768712103
 20
0.1921160462924584
 10
0.2191344581706915
 20
0.1961139578734683
 10
0.2210658551587187
 20
0.1981818629973484
 10
0.2245148334462272
 20
0.2005254935950555
 10
0.2297572701588763
 20
0.2020419477712815
 10
0.2345858911830362
 20
0.2025933987189356
 10
0.238586623721892
 20
0.2025933987189356
 10
0.2387246908388421
 20
0.2032827483333259
 10
0.2405181492640112
 20
0.2032827483333259
 10
0.2412078420782167
 20
0.2024555719118448
 10
0.2418976634465424
 20
0.2023176732451086
 10
0.2424495462520384
 20
0.2027312973856718
 10
0.2432773061831939
 20
0.2034205751404167
 10
0.245070764608363
 20
0.2034205751404167
  0
LWPOLYLINE
  5
3084
330
2
100
AcDbEntity
  8
Profilo
100
AcDbPolyline
 90
       38
 70
     1
 43
0.0
 10
0.1499679028989931
 20
0.1254030937794113
 10
0.1369608271430165
 20
0.1254030937794114
 10
0.1366849500173571
 20
0.1243001918841032
 10
0.1151634489152711
 20
0.124575845498285
 10
0.1124041634420251
 20
0.1240243945506309
 10
0.0908826623399391
 20
0.1074811535595901
 10
0.0897788967290039
 20
0.0810119392301234
 10
0.0875716226153172
 20
0.0807362856159417
 10
0.0875716226153172
 20
0.0650201491867366
 10
0.0897788967290039
 20
0.0650201491867366
 10
0.0903306509803797
 20
0.0686045084868426
 10
0.0917102937170311
 20
0.0699830639963325
 10
0.0922623050765905
 20
0.0716374168392948
 10
0.0922623050765905
 20
0.0730161160680752
 10
0.0936416907050015
 20
0.0730161160680752
 10
0.0936416907050015
 20
0.0749461225252192
 10
0.0936416907050015
 20
0.0774275799300173
 10
0.0958492219269287
 20
0.0799090373348153
 10
0.0964009761783045
 20
0.0818391875112499
 10
0.096125099052645
 20
0.0834933966348929
 10
0.097780618914956
 20
0.0851477494778551
 10
0.097780618914956
 20
0.0887321087779612
 10
0.0955733448012693
 20
0.0906622589543959
 10
0.0952972105673693
 20
0.094246618254502
 10
0.095021333441653
 20
0.0983824285022622
 10
0.0980564960406154
 20
0.1063782516642819
 10
0.1019192900166699
 20
0.110514061912042
 10
0.1088172465916868
 20
0.1152013231074563
 10
0.1193021200169851
 20
0.1182342314599084
 10
0.1289593620653049
 20
0.1193371333552166
 10
0.1369608271430165
 20
0.1193371333552166
 10
0.1372369613769165
 20
0.1207158325839971
 10
0.1408238782272547
 20
0.1207158325839971
 10
0.1422032638556657
 20
0.1190614797410349
 10
0.1435829065923171
 20
0.1187856824075625
 10
0.1446866722033092
 20
0.1196129306886889
 10
0.1463421920656201
 20
0.1209914861981788
 10
0.1499291089159583
 20
0.1209914861981788
  0
LINE
  5
3085
330
2
100
AcDbEntity
  8
Dimensione
 62
     2
100
AcDbLine
 10
0.1832322234568266
 20
0.0851477494778551
 30
0.0
 11
0.3820687779247009
 21
0.0851477494778551
 31
0.0
  0
LINE
  5
3086
330
2
100
AcDbEntity
  8
Dimensione
 62
     2
100
AcDbLine
 10
0.1832322234568266
 20
0.0730161160680753
 30
0.0
 11
0.3820687779247009
 21
0.0730161160680752
 31
0.0
  0
LINE
  5
3087
330
2
100
AcDbEntity
  8
Dimensione
 62
     2
100
AcDbLine
 10
0.1832322234568266
 20
0.1209914861981788
 30
0.0
 11
0.3820687779247009
 21
0.1209914861981788
 31
0.0
  0
LINE
  5
3088
330
2
100
AcDbEntity
  8
Dimensione
 62
     2
100
AcDbLine
 10
0.1832322234568266
 20
0.0887321087779613
 30
0.0
 11
0.3820687779247009
 21
0.0887321087779612
 31
0.0
  0
LWPOLYLINE
  5
3089
330
2
100
AcDbEntity
  8
Profilo
100
AcDbPolyline
 90
        5
 70
     0
 43
0.0
 10
0.3848075750625512
 20
0.2353242319420871
 10
0.378304037184563
 20
0.2353242319420872
 10
0.3781660986217332
 20
0.2347727809944331
 10
0.3674053480706902
 20
0.234910607801524
 10
0.3660257053340674
 20
0.234634882327697
  0
LINE
  5
308A
330
2
100
AcDbEntity
  8
Dimensione
 62
     2
100
AcDbLine
 10
0.2450901615998803
 20
0.2056263789310329
 30
0.0
 11
0.3848075750625512
 21
0.2353242319420871
 31
0.0
  0
LINE
  5
308B
330
2
100
AcDbEntity
  8
Dimensione
 62
     2
100
AcDbLine
 10
0.245070764608363
 20
0.2034205751404167
 30
0.0
 11
0.3847881780710338
 21
0.2331184281514709
 31
0.0
  0
LINE
  5
308C
330
2
100
AcDbEntity
  8
Dimensione
 62
     2
100
AcDbLine
 10
0.2189965196078618
 20
0.1872908864303079
 30
0.0
 11
0.3587139330705327
 21
0.2169887394413621
 31
0.0
  0
LINE
  5
308D
330
2
100
AcDbEntity
  8
Dimensione
 62
     2
100
AcDbLine
 10
0.2189965196078618
 20
0.1854987067802549
 30
0.0
 11
0.3587139330705327
 21
0.215196559791309
 31
0.0
  0
LINE
  5
308E
330
2
100
AcDbEntity
  8
Dimensione
 62
     2
100
AcDbLine
 10
0.2169270555028846
 20
0.179432890075365
 30
0.0
 11
0.3566444689655555
 21
0.2091307430864191
 31
0.0
  0
LINE
  5
308F
330
2
100
AcDbEntity
  8
Dimensione
 62
     2
100
AcDbLine
 10
0.2149956585148857
 20
0.1754349066346956
 30
0.0
 11
0.3547130719775566
 21
0.2051327596457498
 31
0.0
  0
LINE
  5
3090
330
2
100
AcDbEntity
  8
Dimensione
 62
     2
100
AcDbLine
 10
0.2418976634465424
 20
0.2023176732451086
 30
0.0
 11
0.3816150769092132
 21
0.2320155262561627
 31
0.0
  0
LWPOLYLINE
  5
3092
330
2
100
AcDbEntity
  8
Profilo
100
AcDbPolyline
 90
        2
 70
     0
 43
0.0
 10
0.3847881780710338
 20
0.2331184281514709
 10
0.3848075750625512
 20
0.2353242319420871
  0
LWPOLYLINE
  5
3094
330
2
100
AcDbEntity
  8
Profilo
100
AcDbPolyline
 90
        3
 70
     0
 43
0.0
 10
0.3816150769092132
 20
0.2320155262561627
 10
0.3821669597147093
 20
0.232429150396726
 10
0.3823800073020156
 20
0.2326065556528941
  0
LWPOLYLINE
  5
3096
330
2
100
AcDbEntity
  8
Profilo
100
AcDbPolyline
 90
       13
 70
     0
 43
0.0
 10
0.3566444689655555
 20
0.2091307430864191
 10
0.3566444689655555
 20
0.2100957463149911
 10
0.3566444689655555
 20
0.2113364750173901
 10
0.357748234576519
 20
0.2125772037197891
 10
0.3580241117022069
 20
0.2135422788080064
 10
0.3578861731393772
 20
0.2143693833698279
 10
0.3587139330705327
 20
0.215196559791309
 10
0.3587139330705327
 20
0.2169887394413621
 10
0.3576102960136893
 20
0.2179538145295794
 10
0.3574722288967393
 20
0.2197459941796325
 10
0.3573342903338812
 20
0.2218138993035126
 10
0.3588518716333624
 20
0.2258118108845224
 10
0.3604428422776118
 20
0.2275152288599986
  0
LWPOLYLINE
  5
3098
330
2
100
AcDbEntity
  8
Profilo
100
AcDbPolyline
 90
        5
 70
     0
 43
0.0
 10
0.3547130719775566
 20
0.2051327596457498
 10
0.3549889491032445
 20
0.2069249392958028
 10
0.3556787704715703
 20
0.2076142170505477
 10
0.35595477615135
 20
0.2084413934720289
 10
0.35595477615135
 20
0.2089841443532231
  0
LWPOLYLINE
  5
309C
330
2
100
AcDbEntity
  8
Dimensione
 62
     2
100
AcDbPolyline
 90
       25
 70
     0
 43
0.0
 10
0.1875024325106599
 20
0.0792100065404883
 10
0.1872583532117656
 20
0.0798200024704996
 10
0.1870549528823174
 20
0.0804299984005109
 10
0.1871363126486155
 20
0.0811213278133609
 10
0.1872176733286166
 20
0.0816499909527041
 10
0.187543112393809
 20
0.0824226531562223
 10
0.1876651520432561
 20
0.0829919826908995
 10
0.1876651520432561
 20
0.0836426457084154
 10
0.1876651520432561
 20
0.0841713088477586
 10
0.1872583532117656
 20
0.0845373070979358
 10
0.1860786347730371
 20
0.0850659702372789
 10
0.1853870758458002
 20
0.0851066366326131
 10
0.1846955160048604
 20
0.0851066366326131
 10
0.184370076939668
 20
0.0849439710512768
 10
0.184410756822817
 20
0.0844559736150972
 10
0.1846141562385623
 20
0.0837239784990836
 10
0.1847361958880095
 20
0.0827886507142291
 10
0.1847361958880095
 20
0.0821379883888836
 10
0.1843293970565189
 20
0.0813246597900314
 10
0.1841259967270707
 20
0.0797386696798315
 10
0.1842887171733699
 20
0.0786406763136406
 10
0.1848582364511596
 20
0.0775426829474497
 10
0.1857938746772908
 20
0.0765666894594315
 10
0.186729513817125
 20
0.0757126944652452
 10
0.1878685523727044
 20
0.075184031325902
  0
LWPOLYLINE
  5
309D
330
2
100
AcDbEntity
  8
Dimensione
 62
     2
100
AcDbPolyline
 90
        4
 70
     0
 43
0.0
 10
0.1833937579166848
 20
0.0765666894594315
 10
0.1842073574070718
 20
0.0766886886454338
 10
0.1845734763554133
 20
0.0768920206221042
 10
0.185142995633203
 20
0.0770953525987747
  0
LWPOLYLINE
  5
309E
330
2
100
AcDbEntity
  8
Dimensione
 62
     2
100
AcDbPolyline
 90
        5
 70
     0
 43
0.0
 10
0.1833530780335357
 20
0.0753466969072384
 10
0.1840853168439217
 20
0.0755906952792429
 10
0.1846548361217114
 20
0.0758753600465816
 10
0.185102315750054
 20
0.0762413576045884
 10
0.1854684356120983
 20
0.0767293550407679
  0
LWPOLYLINE
  5
309F
330
2
100
AcDbEntity
  8
Dimensione
 62
     2
100
AcDbPolyline
 90
        8
 70
     0
 43
0.0
 10
0.1838005576618783
 20
0.0796980032844973
 10
0.1837598777787292
 20
0.0808773294413564
 10
0.1837598777787292
 20
0.0814466589760337
 10
0.1840039570776235
 20
0.0818126572262109
 10
0.1842887171733699
 20
0.0823413203655541
 10
0.184370076939668
 20
0.0830326490862337
 10
0.184370076939668
 20
0.0836019793130813
 10
0.1842887171733699
 20
0.0840899760570904
  0
LWPOLYLINE
  5
30A0
330
2
100
AcDbEntity
  8
Dimensione
 62
     2
100
AcDbPolyline
 90
        4
 70
     0
 43
0.0
 10
0.1842085424798099
 20
0.0848224176230119
 10
0.1839237823840635
 20
0.0850257502918528
 10
0.183598343318871
 20
0.0851477494778551
 10
0.1832322234568266
 20
0.0851477494778551
  0
LWPOLYLINE
  5
30A1
330
2
100
AcDbEntity
  8
Dimensione
 62
     2
100
AcDbPolyline
 90
        6
 70
     0
 43
0.0
 10
0.1878287606088317
 20
0.0760776302338586
 10
0.1867304019364013
 20
0.0764029613965313
 10
0.1859168033597173
 20
0.0770129580187131
 10
0.1850625248998841
 20
0.0779076187160631
 10
0.1847370849209888
 20
0.0787616137102494
 10
0.1846150452715416
 20
0.0799002734717743
  0
LWPOLYLINE
  5
30A2
330
2
100
AcDbEntity
  8
Dimensione
 62
     2
100
AcDbPolyline
 90
       10
 70
     0
 43
0.0
 10
0.1860980673880802
 20
0.1209914861981788
 10
0.186223383576339
 20
0.1202648948564771
 10
0.1866243940995831
 20
0.1196134683750102
 10
0.1872760379130477
 20
0.1190873164298778
 10
0.1882785655917124
 20
0.1188618225413438
 10
0.1889552722773476
 20
0.1188868770333085
 10
0.1897823580234122
 20
0.1191123709218425
 10
0.1903588113929593
 20
0.1194881938386756
 10
0.1907347590440327
 20
0.1202899493484417
 10
0.1907748604021208
 20
0.1209914861981788
  0
LWPOLYLINE
  5
30A3
330
2
100
AcDbEntity
  8
Dimensione
 62
     2
100
AcDbPolyline
 90
       25
 70
     0
 43
0.0
 10
0.1882346722347488
 20
0.0792100065404883
 10
0.1884787515336431
 20
0.0798200024704996
 10
0.1886821518630913
 20
0.0804299984005109
 10
0.1886007920967932
 20
0.0811213278133609
 10
0.1885194314167921
 20
0.0816499909527041
 10
0.1881939923515997
 20
0.0824226531562223
 10
0.1880719527021526
 20
0.0829919826908995
 10
0.1880719527021526
 20
0.0836426457084154
 10
0.1880719527021526
 20
0.0841713088477586
 10
0.1884787515336431
 20
0.0845373070979358
 10
0.1896584699723717
 20
0.0850659702372789
 10
0.1903500288996085
 20
0.0851066366326131
 10
0.1910415887405483
 20
0.0851066366326131
 10
0.1913670278057407
 20
0.0849439710512768
 10
0.1913263479225917
 20
0.0844559736150972
 10
0.1911229485068464
 20
0.0837239784990836
 10
0.1910009088573993
 20
0.0827886507142291
 10
0.1910009088573993
 20
0.0821379883888836
 10
0.1914077076888898
 20
0.0813246597900314
 10
0.191611108018338
 20
0.0797386696798315
 10
0.1914483875720388
 20
0.0786406763136406
 10
0.1908788682942491
 20
0.0775426829474497
 10
0.189943230068118
 20
0.0765666894594315
 10
0.1890075909282838
 20
0.0757126944652452
 10
0.1878685523727044
 20
0.075184031325902
  0
LWPOLYLINE
  5
30A4
330
2
100
AcDbEntity
  8
Dimensione
 62
     2
100
AcDbPolyline
 90
        4
 70
     0
 43
0.0
 10
0.192343346828724
 20
0.0765666894594315
 10
0.1915297473383369
 20
0.0766886886454338
 10
0.1911636283899954
 20
0.0768920206221042
 10
0.1905941091122057
 20
0.0770953525987747
  0
LWPOLYLINE
  5
30A5
330
2
100
AcDbEntity
  8
Dimensione
 62
     2
100
AcDbPolyline
 90
        5
 70
     0
 43
0.0
 10
0.192384026711873
 20
0.0753466969072384
 10
0.191651787901487
 20
0.0755906952792429
 10
0.1910822686236974
 20
0.0758753600465816
 10
0.1906347889953548
 20
0.0762413576045884
 10
0.1902686691333104
 20
0.0767293550407679
  0
LWPOLYLINE
  5
30A6
330
2
100
AcDbEntity
  8
Dimensione
 62
     2
100
AcDbPolyline
 90
        8
 70
     0
 43
0.0
 10
0.1919365470835304
 20
0.0796980032844973
 10
0.1919772269666795
 20
0.0808773294413564
 10
0.1919772269666795
 20
0.0814466589760337
 10
0.1917331476677852
 20
0.0818126572262109
 10
0.1914483875720388
 20
0.0823413203655541
 10
0.1913670278057407
 20
0.0830326490862337
 10
0.1913670278057407
 20
0.0836019793130813
 10
0.1914483875720388
 20
0.0840899760570904
  0
LWPOLYLINE
  5
30A7
330
2
100
AcDbEntity
  8
Dimensione
 62
     2
100
AcDbPolyline
 90
        4
 70
     0
 43
0.0
 10
0.1915285622655989
 20
0.0848224176230119
 10
0.1918133223613453
 20
0.0850257502918528
 10
0.1921387614265377
 20
0.0851477494778551
 10
0.1925048812885821
 20
0.0851477494778551
  0
LWPOLYLINE
  5
30A8
330
2
100
AcDbEntity
  8
Dimensione
 62
     2
100
AcDbPolyline
 90
        6
 70
     0
 43
0.0
 10
0.1879083441365771
 20
0.0760776302338586
 10
0.1890067028090074
 20
0.0764029613965313
 10
0.1898203013856915
 20
0.0770129580187131
 10
0.1906745798455246
 20
0.0779076187160631
 10
0.1910000198244199
 20
0.0787616137102494
 10
0.1911220594738671
 20
0.0799002734717743
  0
LWPOLYLINE
  5
30A9
330
2
100
AcDbEntity
  8
Dimensione
 62
     2
100
AcDbPolyline
 90
       25
 70
     0
 43
0.0
 10
0.1967750903424153
 20
0.0792100065404883
 10
0.1965310110435211
 20
0.0798200024704996
 10
0.1963276107140729
 20
0.0804299984005109
 10
0.196408970480371
 20
0.0811213278133609
 10
0.196490331160372
 20
0.0816499909527041
 10
0.1968157702255645
 20
0.0824226531562223
 10
0.1969378098750116
 20
0.0829919826908995
 10
0.1969378098750116
 20
0.0836426457084154
 10
0.1969378098750116
 20
0.0841713088477586
 10
0.1965310110435211
 20
0.0845373070979358
 10
0.1953512926047925
 20
0.0850659702372789
 10
0.1946597336775557
 20
0.0851066366326131
 10
0.1939681738366159
 20
0.0851066366326131
 10
0.1936427347714234
 20
0.0849439710512768
 10
0.1936834146545725
 20
0.0844559736150972
 10
0.1938868140703178
 20
0.0837239784990836
 10
0.1940088537197649
 20
0.0827886507142291
 10
0.1940088537197649
 20
0.0821379883888836
 10
0.1936020548882744
 20
0.0813246597900314
 10
0.1933986545588262
 20
0.0797386696798315
 10
0.1935613750051254
 20
0.0786406763136406
 10
0.1941308942829151
 20
0.0775426829474497
 10
0.1950665325090462
 20
0.0765666894594315
 10
0.1960021716488804
 20
0.0757126944652452
 10
0.1971412102044598
 20
0.075184031325902
  0
LWPOLYLINE
  5
30AA
330
2
100
AcDbEntity
  8
Dimensione
 62
     2
100
AcDbPolyline
 90
        4
 70
     0
 43
0.0
 10
0.1926664157484402
 20
0.0765666894594315
 10
0.1934800152388273
 20
0.0766886886454338
 10
0.1938461341871688
 20
0.0768920206221042
 10
0.1944156534649584
 20
0.0770953525987747
  0
LWPOLYLINE
  5
30AB
330
2
100
AcDbEntity
  8
Dimensione
 62
     2
100
AcDbPolyline
 90
        5
 70
     0
 43
0.0
 10
0.1926257358652912
 20
0.0753466969072384
 10
0.1933579746756771
 20
0.0755906952792429
 10
0.1939274939534668
 20
0.0758753600465816
 10
0.1943749735818094
 20
0.0762413576045884
 10
0.1947410934438538
 20
0.0767293550407679
  0
LWPOLYLINE
  5
30AC
330
2
100
AcDbEntity
  8
Dimensione
 62
     2
100
AcDbPolyline
 90
        8
 70
     0
 43
0.0
 10
0.1930732154936337
 20
0.0796980032844973
 10
0.1930325356104847
 20
0.0808773294413564
 10
0.1930325356104847
 20
0.0814466589760337
 10
0.1932766149093789
 20
0.0818126572262109
 10
0.1935613750051254
 20
0.0823413203655541
 10
0.1936427347714234
 20
0.0830326490862337
 10
0.1936427347714234
 20
0.0836019793130813
 10
0.1935613750051254
 20
0.0840899760570904
  0
LWPOLYLINE
  5
30AD
330
2
100
AcDbEntity
  8
Dimensione
 62
     2
100
AcDbPolyline
 90
        4
 70
     0
 43
0.0
 10
0.1934812003115653
 20
0.0848224176230119
 10
0.1931964402158189
 20
0.0850257502918528
 10
0.1928710011506265
 20
0.0851477494778551
 10
0.1925048812885821
 20
0.0851477494778551
  0
LWPOLYLINE
  5
30AE
330
2
100
AcDbEntity
  8
Dimensione
 62
     2
100
AcDbPolyline
 90
        6
 70
     0
 43
0.0
 10
0.1971014184405871
 20
0.0760776302338586
 10
0.1960030597681568
 20
0.0764029613965313
 10
0.1951894611914727
 20
0.0770129580187131
 10
0.1943351827316396
 20
0.0779076187160631
 10
0.1940097427527443
 20
0.0787616137102494
 10
0.193887703103297
 20
0.0799002734717743
  0
LWPOLYLINE
  5
30AF
330
2
100
AcDbEntity
  8
Dimensione
 62
     2
100
AcDbPolyline
 90
       25
 70
     0
 43
0.0
 10
0.1975073300665043
 20
0.0792100065404883
 10
0.1977514093653986
 20
0.0798200024704996
 10
0.1979548096948468
 20
0.0804299984005109
 10
0.1978734499285487
 20
0.0811213278133609
 10
0.1977920892485476
 20
0.0816499909527041
 10
0.1974666501833551
 20
0.0824226531562223
 10
0.197344610533908
 20
0.0829919826908995
 10
0.197344610533908
 20
0.0836426457084154
 10
0.197344610533908
 20
0.0841713088477586
 10
0.1977514093653986
 20
0.0845373070979358
 10
0.1989311278041271
 20
0.0850659702372789
 10
0.1996226867313639
 20
0.0851066366326131
 10
0.2003142465723037
 20
0.0851066366326131
 10
0.2006396856374962
 20
0.0849439710512768
 10
0.2005990057543471
 20
0.0844559736150972
 10
0.2003956063386018
 20
0.0837239784990836
 10
0.2002735666891547
 20
0.0827886507142291
 10
0.2002735666891547
 20
0.0821379883888836
 10
0.2006803655206452
 20
0.0813246597900314
 10
0.2008837658500934
 20
0.0797386696798315
 10
0.2007210454037943
 20
0.0786406763136406
 10
0.2001515261260046
 20
0.0775426829474497
 10
0.1992158878998734
 20
0.0765666894594315
 10
0.1982802487600392
 20
0.0757126944652452
 10
0.1971412102044598
 20
0.075184031325902
  0
LWPOLYLINE
  5
30B0
330
2
100
AcDbEntity
  8
Dimensione
 62
     2
100
AcDbPolyline
 90
        4
 70
     0
 43
0.0
 10
0.2016160046604794
 20
0.0765666894594315
 10
0.2008024051700924
 20
0.0766886886454338
 10
0.2004362862217509
 20
0.0768920206221042
 10
0.1998667669439612
 20
0.0770953525987747
  0
LWPOLYLINE
  5
30B1
330
2
100
AcDbEntity
  8
Dimensione
 62
     2
100
AcDbPolyline
 90
        5
 70
     0
 43
0.0
 10
0.2016566845436285
 20
0.0753466969072384
 10
0.2009244457332425
 20
0.0755906952792429
 10
0.2003549264554528
 20
0.0758753600465816
 10
0.1999074468271102
 20
0.0762413576045884
 10
0.1995413269650659
 20
0.0767293550407679
  0
LWPOLYLINE
  5
30B2
330
2
100
AcDbEntity
  8
Dimensione
 62
     2
100
AcDbPolyline
 90
        8
 70
     0
 43
0.0
 10
0.2012092049152859
 20
0.0796980032844973
 10
0.2012498847984349
 20
0.0808773294413564
 10
0.2012498847984349
 20
0.0814466589760337
 10
0.2010058054995407
 20
0.0818126572262109
 10
0.2007210454037943
 20
0.0823413203655541
 10
0.2006396856374962
 20
0.0830326490862337
 10
0.2006396856374962
 20
0.0836019793130813
 10
0.2007210454037943
 20
0.0840899760570904
  0
LWPOLYLINE
  5
30B3
330
2
100
AcDbEntity
  8
Dimensione
 62
     2
100
AcDbPolyline
 90
        4
 70
     0
 43
0.0
 10
0.2008012200973543
 20
0.0848224176230119
 10
0.2010859801931007
 20
0.0850257502918528
 10
0.2014114192582932
 20
0.0851477494778551
 10
0.2017775391203375
 20
0.0851477494778551
  0
LWPOLYLINE
  5
30B4
330
2
100
AcDbEntity
  8
Dimensione
 62
     2
100
AcDbPolyline
 90
        6
 70
     0
 43
0.0
 10
0.1971810019683325
 20
0.0760776302338586
 10
0.1982793606407629
 20
0.0764029613965313
 10
0.1990929592174469
 20
0.0770129580187131
 10
0.19994723767728
 20
0.0779076187160631
 10
0.2002726776561754
 20
0.0787616137102494
 10
0.2003947173056226
 20
0.0799002734717743
  0
LWPOLYLINE
  5
30B5
330
2
100
AcDbEntity
  8
Dimensione
 62
     2
100
AcDbPolyline
 90
       25
 70
     0
 43
0.0
 10
0.2056816283121264
 20
0.0792100065404883
 10
0.2054375490132322
 20
0.0798200024704996
 10
0.205234148683784
 20
0.0804299984005109
 10
0.205315508450082
 20
0.0811213278133609
 10
0.2053968691300831
 20
0.0816499909527041
 10
0.2057223081952756
 20
0.0824226531562223
 10
0.2058443478447227
 20
0.0829919826908995
 10
0.2058443478447227
 20
0.0836426457084154
 10
0.2058443478447227
 20
0.0841713088477586
 10
0.2054375490132322
 20
0.0845373070979358
 10
0.2042578305745036
 20
0.0850659702372789
 10
0.2035662716472668
 20
0.0851066366326131
 10
0.2028747118063269
 20
0.0851066366326131
 10
0.2025492727411345
 20
0.0849439710512768
 10
0.2025899526242835
 20
0.0844559736150972
 10
0.2027933520400289
 20
0.0837239784990836
 10
0.202915391689476
 20
0.0827886507142291
 10
0.202915391689476
 20
0.0821379883888836
 10
0.2025085928579855
 20
0.0813246597900314
 10
0.2023051925285372
 20
0.0797386696798315
 10
0.2024679129748364
 20
0.0786406763136406
 10
0.2030374322526261
 20
0.0775426829474497
 10
0.2039730704787573
 20
0.0765666894594315
 10
0.2049087096185915
 20
0.0757126944652452
 10
0.2060477481741709
 20
0.075184031325902
  0
LWPOLYLINE
  5
30B6
330
2
100
AcDbEntity
  8
Dimensione
 62
     2
100
AcDbPolyline
 90
        4
 70
     0
 43
0.0
 10
0.2015729537181513
 20
0.0765666894594315
 10
0.2023865532085384
 20
0.0766886886454338
 10
0.2027526721568798
 20
0.0768920206221042
 10
0.2033221914346695
 20
0.0770953525987747
  0
LWPOLYLINE
  5
30B7
330
2
100
AcDbEntity
  8
Dimensione
 62
     2
100
AcDbPolyline
 90
        5
 70
     0
 43
0.0
 10
0.2015322738350022
 20
0.0753466969072384
 10
0.2022645126453882
 20
0.0755906952792429
 10
0.2028340319231779
 20
0.0758753600465816
 10
0.2032815115515205
 20
0.0762413576045884
 10
0.2036476314135649
 20
0.0767293550407679
  0
LWPOLYLINE
  5
30B8
330
2
100
AcDbEntity
  8
Dimensione
 62
     2
100
AcDbPolyline
 90
        8
 70
     0
 43
0.0
 10
0.2019797534633448
 20
0.0796980032844973
 10
0.2019390735801958
 20
0.0808773294413564
 10
0.2019390735801958
 20
0.0814466589760337
 10
0.20218315287909
 20
0.0818126572262109
 10
0.2024679129748364
 20
0.0823413203655541
 10
0.2025492727411345
 20
0.0830326490862337
 10
0.2025492727411345
 20
0.0836019793130813
 10
0.2024679129748364
 20
0.0840899760570904
  0
LWPOLYLINE
  5
30B9
330
2
100
AcDbEntity
  8
Dimensione
 62
     2
100
AcDbPolyline
 90
        4
 70
     0
 43
0.0
 10
0.2023877382812764
 20
0.0848224176230119
 10
0.20210297818553
 20
0.0850257502918528
 10
0.2017775391203375
 20
0.0851477494778551
 10
0.2014114192582932
 20
0.0851477494778551
  0
LWPOLYLINE
  5
30BA
330
2
100
AcDbEntity
  8
Dimensione
 62
     2
100
AcDbPolyline
 90
        6
 70
     0
 43
0.0
 10
0.2060079564102982
 20
0.0760776302338586
 10
0.2049095977378678
 20
0.0764029613965313
 10
0.2040959991611838
 20
0.0770129580187131
 10
0.2032417207013507
 20
0.0779076187160631
 10
0.2029162807224553
 20
0.0787616137102494
 10
0.2027942410730081
 20
0.0799002734717743
  0
LWPOLYLINE
  5
30BB
330
2
100
AcDbEntity
  8
Dimensione
 62
     2
100
AcDbPolyline
 90
       25
 70
     0
 43
0.0
 10
0.2064138680362154
 20
0.0792100065404883
 10
0.2066579473351096
 20
0.0798200024704996
 10
0.2068613476645579
 20
0.0804299984005109
 10
0.2067799878982598
 20
0.0811213278133609
 10
0.2066986272182587
 20
0.0816499909527041
 10
0.2063731881530662
 20
0.0824226531562223
 10
0.2062511485036191
 20
0.0829919826908995
 10
0.2062511485036191
 20
0.0836426457084154
 10
0.2062511485036191
 20
0.0841713088477586
 10
0.2066579473351096
 20
0.0845373070979358
 10
0.2078376657738382
 20
0.0850659702372789
 10
0.208529224701075
 20
0.0851066366326131
 10
0.2092207845420148
 20
0.0851066366326131
 10
0.2095462236072073
 20
0.0849439710512768
 10
0.2095055437240582
 20
0.0844559736150972
 10
0.2093021443083129
 20
0.0837239784990836
 10
0.2091801046588658
 20
0.0827886507142291
 10
0.2091801046588658
 20
0.0821379883888836
 10
0.2095869034903563
 20
0.0813246597900314
 10
0.2097903038198045
 20
0.0797386696798315
 10
0.2096275833735054
 20
0.0786406763136406
 10
0.2090580640957157
 20
0.0775426829474497
 10
0.2081224258695845
 20
0.0765666894594315
 10
0.2071867867297503
 20
0.0757126944652452
 10
0.2060477481741709
 20
0.075184031325902
  0
LWPOLYLINE
  5
30BC
330
2
100
AcDbEntity
  8
Dimensione
 62
     2
100
AcDbPolyline
 90
        4
 70
     0
 43
0.0
 10
0.2105225426301905
 20
0.0765666894594315
 10
0.2097089431398035
 20
0.0766886886454338
 10
0.209342824191462
 20
0.0768920206221042
 10
0.2087733049136723
 20
0.0770953525987747
  0
LWPOLYLINE
  5
30BD
330
2
100
AcDbEntity
  8
Dimensione
 62
     2
100
AcDbPolyline
 90
        5
 70
     0
 43
0.0
 10
0.2105632225133395
 20
0.0753466969072384
 10
0.2098309837029536
 20
0.0755906952792429
 10
0.2092614644251639
 20
0.0758753600465816
 10
0.2088139847968213
 20
0.0762413576045884
 10
0.2084478649347769
 20
0.0767293550407679
  0
LWPOLYLINE
  5
30BE
330
2
100
AcDbEntity
  8
Dimensione
 62
     2
100
AcDbPolyline
 90
        8
 70
     0
 43
0.0
 10
0.210115742884997
 20
0.0796980032844973
 10
0.210156422768146
 20
0.0808773294413564
 10
0.210156422768146
 20
0.0814466589760337
 10
0.2099123434692518
 20
0.0818126572262109
 10
0.2096275833735054
 20
0.0823413203655541
 10
0.2095462236072073
 20
0.0830326490862337
 10
0.2095462236072073
 20
0.0836019793130813
 10
0.2096275833735054
 20
0.0840899760570904
  0
LWPOLYLINE
  5
30BF
330
2
100
AcDbEntity
  8
Dimensione
 62
     2
100
AcDbPolyline
 90
        4
 70
     0
 43
0.0
 10
0.2097077580670654
 20
0.0848224176230119
 10
0.2099925181628118
 20
0.0850257502918528
 10
0.2103179572280042
 20
0.0851477494778551
 10
0.2106840770900486
 20
0.0851477494778551
  0
LWPOLYLINE
  5
30C0
330
2
100
AcDbEntity
  8
Dimensione
 62
     2
100
AcDbPolyline
 90
        6
 70
     0
 43
0.0
 10
0.2060875399380436
 20
0.0760776302338586
 10
0.2071858986104739
 20
0.0764029613965313
 10
0.207999497187158
 20
0.0770129580187131
 10
0.2088537756469911
 20
0.0779076187160631
 10
0.2091792156258864
 20
0.0787616137102494
 10
0.2093012552753337
 20
0.0799002734717743
  0
LWPOLYLINE
  5
30C1
330
2
100
AcDbEntity
  8
Dimensione
 62
     2
100
AcDbPolyline
 90
       25
 70
     0
 43
0.0
 10
0.2145881662818375
 20
0.0792100065404883
 10
0.2143440869829432
 20
0.0798200024704996
 10
0.214140686653495
 20
0.0804299984005109
 10
0.2142220464197931
 20
0.0811213278133609
 10
0.2143034070997942
 20
0.0816499909527041
 10
0.2146288461649866
 20
0.0824226531562223
 10
0.2147508858144338
 20
0.0829919826908995
 10
0.2147508858144338
 20
0.0836426457084154
 10
0.2147508858144338
 20
0.0841713088477586
 10
0.2143440869829432
 20
0.0845373070979358
 10
0.2131643685442147
 20
0.0850659702372789
 10
0.2124728096169778
 20
0.0851066366326131
 10
0.211781249776038
 20
0.0851066366326131
 10
0.2114558107108456
 20
0.0849439710512768
 10
0.2114964905939946
 20
0.0844559736150972
 10
0.2116998900097399
 20
0.0837239784990836
 10
0.2118219296591871
 20
0.0827886507142291
 10
0.2118219296591871
 20
0.0821379883888836
 10
0.2114151308276965
 20
0.0813246597900314
 10
0.2112117304982483
 20
0.0797386696798315
 10
0.2113744509445475
 20
0.0786406763136406
 10
0.2119439702223372
 20
0.0775426829474497
 10
0.2128796084484684
 20
0.0765666894594315
 10
0.2138152475883026
 20
0.0757126944652452
 10
0.214954286143882
 20
0.075184031325902
  0
LWPOLYLINE
  5
30C2
330
2
100
AcDbEntity
  8
Dimensione
 62
     2
100
AcDbPolyline
 90
        4
 70
     0
 43
0.0
 10
0.2104794916878624
 20
0.0765666894594315
 10
0.2112930911782494
 20
0.0766886886454338
 10
0.2116592101265909
 20
0.0768920206221042
 10
0.2122287294043806
 20
0.0770953525987747
  0
LWPOLYLINE
  5
30C3
330
2
100
AcDbEntity
  8
Dimensione
 62
     2
100
AcDbPolyline
 90
        5
 70
     0
 43
0.0
 10
0.2104388118047133
 20
0.0753466969072384
 10
0.2111710506150993
 20
0.0755906952792429
 10
0.211740569892889
 20
0.0758753600465816
 10
0.2121880495212316
 20
0.0762413576045884
 10
0.2125541693832759
 20
0.0767293550407679
  0
LWPOLYLINE
  5
30C4
330
2
100
AcDbEntity
  8
Dimensione
 62
     2
100
AcDbPolyline
 90
        8
 70
     0
 43
0.0
 10
0.2108862914330559
 20
0.0796980032844973
 10
0.2108456115499068
 20
0.0808773294413564
 10
0.2108456115499068
 20
0.0814466589760337
 10
0.2110896908488011
 20
0.0818126572262109
 10
0.2113744509445475
 20
0.0823413203655541
 10
0.2114558107108456
 20
0.0830326490862337
 10
0.2114558107108456
 20
0.0836019793130813
 10
0.2113744509445475
 20
0.0840899760570904
  0
LWPOLYLINE
  5
30C5
330
2
100
AcDbEntity
  8
Dimensione
 62
     2
100
AcDbPolyline
 90
        4
 70
     0
 43
0.0
 10
0.2112942762509875
 20
0.0848224176230119
 10
0.2110095161552411
 20
0.0850257502918528
 10
0.2106840770900486
 20
0.0851477494778551
 10
0.2103179572280042
 20
0.0851477494778551
  0
LWPOLYLINE
  5
30C6
330
2
100
AcDbEntity
  8
Dimensione
 62
     2
100
AcDbPolyline
 90
        6
 70
     0
 43
0.0
 10
0.2149144943800093
 20
0.0760776302338586
 10
0.2138161357075789
 20
0.0764029613965313
 10
0.2130025371308949
 20
0.0770129580187131
 10
0.2121482586710618
 20
0.0779076187160631
 10
0.2118228186921664
 20
0.0787616137102494
 10
0.2117007790427192
 20
0.0799002734717743
  0
LWPOLYLINE
  5
30C7
330
2
100
AcDbEntity
  8
Dimensione
 62
     2
100
AcDbPolyline
 90
       25
 70
     0
 43
0.0
 10
0.2153204060059265
 20
0.0792100065404883
 10
0.2155644853048207
 20
0.0798200024704996
 10
0.2157678856342689
 20
0.0804299984005109
 10
0.2156865258679709
 20
0.0811213278133609
 10
0.2156051651879697
 20
0.0816499909527041
 10
0.2152797261227773
 20
0.0824226531562223
 10
0.2151576864733302
 20
0.0829919826908995
 10
0.2151576864733302
 20
0.0836426457084154
 10
0.2151576864733302
 20
0.0841713088477586
 10
0.2155644853048207
 20
0.0845373070979358
 10
0.2167442037435493
 20
0.0850659702372789
 10
0.2174357626707861
 20
0.0851066366326131
 10
0.2181273225117259
 20
0.0851066366326131
 10
0.2184527615769184
 20
0.0849439710512768
 10
0.2184120816937693
 20
0.0844559736150972
 10
0.218208682278024
 20
0.0837239784990836
 10
0.2180866426285769
 20
0.0827886507142291
 10
0.2180866426285769
 20
0.0821379883888836
 10
0.2184934414600674
 20
0.0813246597900314
 10
0.2186968417895156
 20
0.0797386696798315
 10
0.2185341213432165
 20
0.0786406763136406
 10
0.2179646020654268
 20
0.0775426829474497
 10
0.2170289638392956
 20
0.0765666894594315
 10
0.2160933246994614
 20
0.0757126944652452
 10
0.214954286143882
 20
0.075184031325902
  0
LWPOLYLINE
  5
30C8
330
2
100
AcDbEntity
  8
Dimensione
 62
     2
100
AcDbPolyline
 90
        4
 70
     0
 43
0.0
 10
0.2194290805999016
 20
0.0765666894594315
 10
0.2186154811095145
 20
0.0766886886454338
 10
0.218249362161173
 20
0.0768920206221042
 10
0.2176798428833834
 20
0.0770953525987747
  0
LWPOLYLINE
  5
30C9
330
2
100
AcDbEntity
  8
Dimensione
 62
     2
100
AcDbPolyline
 90
        5
 70
     0
 43
0.0
 10
0.2194697604830506
 20
0.0753466969072384
 10
0.2187375216726647
 20
0.0755906952792429
 10
0.218168002394875
 20
0.0758753600465816
 10
0.2177205227665324
 20
0.0762413576045884
 10
0.217354402904488
 20
0.0767293550407679
  0
LWPOLYLINE
  5
30CA
330
2
100
AcDbEntity
  8
Dimensione
 62
     2
100
AcDbPolyline
 90
        8
 70
     0
 43
0.0
 10
0.2190222808547081
 20
0.0796980032844973
 10
0.2190629607378571
 20
0.0808773294413564
 10
0.2190629607378571
 20
0.0814466589760337
 10
0.2188188814389628
 20
0.0818126572262109
 10
0.2185341213432165
 20
0.0823413203655541
 10
0.2184527615769184
 20
0.0830326490862337
 10
0.2184527615769184
 20
0.0836019793130813
 10
0.2185341213432165
 20
0.0840899760570904
  0
LWPOLYLINE
  5
30CB
330
2
100
AcDbEntity
  8
Dimensione
 62
     2
100
AcDbPolyline
 90
        4
 70
     0
 43
0.0
 10
0.2186142960367765
 20
0.0848224176230119
 10
0.2188990561325229
 20
0.0850257502918528
 10
0.2192244951977153
 20
0.0851477494778551
 10
0.2195906150597597
 20
0.0851477494778551
  0
LWPOLYLINE
  5
30CC
330
2
100
AcDbEntity
  8
Dimensione
 62
     2
100
AcDbPolyline
 90
        6
 70
     0
 43
0.0
 10
0.2149940779077547
 20
0.0760776302338586
 10
0.216092436580185
 20
0.0764029613965313
 10
0.2169060351568691
 20
0.0770129580187131
 10
0.2177603136167022
 20
0.0779076187160631
 10
0.2180857535955975
 20
0.0787616137102494
 10
0.2182077932450448
 20
0.0799002734717743
  0
LWPOLYLINE
  5
30CD
330
2
100
AcDbEntity
  8
Dimensione
 62
     2
100
AcDbPolyline
 90
       25
 70
     0
 43
0.0
 10
0.2234947042515486
 20
0.0792100065404883
 10
0.2232506249526543
 20
0.0798200024704996
 10
0.2230472246232061
 20
0.0804299984005109
 10
0.2231285843895042
 20
0.0811213278133609
 10
0.2232099450695053
 20
0.0816499909527041
 10
0.2235353841346977
 20
0.0824226531562223
 10
0.2236574237841448
 20
0.0829919826908995
 10
0.2236574237841448
 20
0.0836426457084154
 10
0.2236574237841448
 20
0.0841713088477586
 10
0.2232506249526543
 20
0.0845373070979358
 10
0.2220709065139258
 20
0.0850659702372789
 10
0.2213793475866889
 20
0.0851066366326131
 10
0.2206877877457491
 20
0.0851066366326131
 10
0.2203623486805567
 20
0.0849439710512768
 10
0.2204030285637057
 20
0.0844559736150972
 10
0.220606427979451
 20
0.0837239784990836
 10
0.2207284676288982
 20
0.0827886507142291
 10
0.2207284676288982
 20
0.0821379883888836
 10
0.2203216687974076
 20
0.0813246597900314
 10
0.2201182684679594
 20
0.0797386696798315
 10
0.2202809889142586
 20
0.0786406763136406
 10
0.2208505081920483
 20
0.0775426829474497
 10
0.2217861464181795
 20
0.0765666894594315
 10
0.2227217855580136
 20
0.0757126944652452
 10
0.223860824113593
 20
0.075184031325902
  0
LWPOLYLINE
  5
30CE
330
2
100
AcDbEntity
  8
Dimensione
 62
     2
100
AcDbPolyline
 90
        4
 70
     0
 43
0.0
 10
0.2193860296575735
 20
0.0765666894594315
 10
0.2201996291479605
 20
0.0766886886454338
 10
0.220565748096302
 20
0.0768920206221042
 10
0.2211352673740917
 20
0.0770953525987747
  0
LWPOLYLINE
  5
30CF
330
2
100
AcDbEntity
  8
Dimensione
 62
     2
100
AcDbPolyline
 90
        5
 70
     0
 43
0.0
 10
0.2193453497744244
 20
0.0753466969072384
 10
0.2200775885848104
 20
0.0755906952792429
 10
0.2206471078626001
 20
0.0758753600465816
 10
0.2210945874909426
 20
0.0762413576045884
 10
0.221460707352987
 20
0.0767293550407679
  0
LWPOLYLINE
  5
30D0
330
2
100
AcDbEntity
  8
Dimensione
 62
     2
100
AcDbPolyline
 90
        8
 70
     0
 43
0.0
 10
0.219792829402767
 20
0.0796980032844973
 10
0.2197521495196179
 20
0.0808773294413564
 10
0.2197521495196179
 20
0.0814466589760337
 10
0.2199962288185122
 20
0.0818126572262109
 10
0.2202809889142586
 20
0.0823413203655541
 10
0.2203623486805567
 20
0.0830326490862337
 10
0.2203623486805567
 20
0.0836019793130813
 10
0.2202809889142586
 20
0.0840899760570904
  0
LWPOLYLINE
  5
30D1
330
2
100
AcDbEntity
  8
Dimensione
 62
     2
100
AcDbPolyline
 90
        4
 70
     0
 43
0.0
 10
0.2202008142206985
 20
0.0848224176230119
 10
0.2199160541249522
 20
0.0850257502918528
 10
0.2195906150597597
 20
0.0851477494778551
 10
0.2192244951977153
 20
0.0851477494778551
  0
LWPOLYLINE
  5
30D2
330
2
100
AcDbEntity
  8
Dimensione
 62
     2
100
AcDbPolyline
 90
        6
 70
     0
 43
0.0
 10
0.2238210323497204
 20
0.0760776302338586
 10
0.22272267367729
 20
0.0764029613965313
 10
0.221909075100606
 20
0.0770129580187131
 10
0.2210547966407728
 20
0.0779076187160631
 10
0.2207293566618775
 20
0.0787616137102494
 10
0.2206073170124303
 20
0.0799002734717743
  0
LWPOLYLINE
  5
30D3
330
2
100
AcDbEntity
  8
Dimensione
 62
     2
100
AcDbPolyline
 90
       25
 70
     0
 43
0.0
 10
0.2242269439756376
 20
0.0792100065404883
 10
0.2244710232745318
 20
0.0798200024704996
 10
0.22467442360398
 20
0.0804299984005109
 10
0.2245930638376819
 20
0.0811213278133609
 10
0.2245117031576808
 20
0.0816499909527041
 10
0.2241862640924884
 20
0.0824226531562223
 10
0.2240642244430413
 20
0.0829919826908995
 10
0.2240642244430413
 20
0.0836426457084154
 10
0.2240642244430413
 20
0.0841713088477586
 10
0.2244710232745318
 20
0.0845373070979358
 10
0.2256507417132604
 20
0.0850659702372789
 10
0.2263423006404972
 20
0.0851066366326131
 10
0.227033860481437
 20
0.0851066366326131
 10
0.2273592995466295
 20
0.0849439710512768
 10
0.2273186196634804
 20
0.0844559736150972
 10
0.2271152202477351
 20
0.0837239784990836
 10
0.226993180598288
 20
0.0827886507142291
 10
0.226993180598288
 20
0.0821379883888836
 10
0.2273999794297785
 20
0.0813246597900314
 10
0.2276033797592267
 20
0.0797386696798315
 10
0.2274406593129275
 20
0.0786406763136406
 10
0.2268711400351378
 20
0.0775426829474497
 10
0.2259355018090067
 20
0.0765666894594315
 10
0.2249998626691724
 20
0.0757126944652452
 10
0.223860824113593
 20
0.075184031325902
  0
LWPOLYLINE
  5
30D4
330
2
100
AcDbEntity
  8
Dimensione
 62
     2
100
AcDbPolyline
 90
        4
 70
     0
 43
0.0
 10
0.2283356185696127
 20
0.0765666894594315
 10
0.2275220190792256
 20
0.0766886886454338
 10
0.2271559001308841
 20
0.0768920206221042
 10
0.2265863808530944
 20
0.0770953525987747
  0
LWPOLYLINE
  5
30D5
330
2
100
AcDbEntity
  8
Dimensione
 62
     2
100
AcDbPolyline
 90
        5
 70
     0
 43
0.0
 10
0.2283762984527617
 20
0.0753466969072384
 10
0.2276440596423757
 20
0.0755906952792429
 10
0.227074540364586
 20
0.0758753600465816
 10
0.2266270607362435
 20
0.0762413576045884
 10
0.2262609408741991
 20
0.0767293550407679
  0
LWPOLYLINE
  5
30D6
330
2
100
AcDbEntity
  8
Dimensione
 62
     2
100
AcDbPolyline
 90
        8
 70
     0
 43
0.0
 10
0.2279288188244191
 20
0.0796980032844973
 10
0.2279694987075682
 20
0.0808773294413564
 10
0.2279694987075682
 20
0.0814466589760337
 10
0.2277254194086739
 20
0.0818126572262109
 10
0.2274406593129275
 20
0.0823413203655541
 10
0.2273592995466295
 20
0.0830326490862337
 10
0.2273592995466295
 20
0.0836019793130813
 10
0.2274406593129275
 20
0.0840899760570904
  0
LWPOLYLINE
  5
30D7
330
2
100
AcDbEntity
  8
Dimensione
 62
     2
100
AcDbPolyline
 90
        4
 70
     0
 43
0.0
 10
0.2275208340064875
 20
0.0848224176230119
 10
0.227805594102234
 20
0.0850257502918528
 10
0.2281310331674264
 20
0.0851477494778551
 10
0.2284971530294708
 20
0.0851477494778551
  0
LWPOLYLINE
  5
30D8
330
2
100
AcDbEntity
  8
Dimensione
 62
     2
100
AcDbPolyline
 90
        6
 70
     0
 43
0.0
 10
0.2239006158774658
 20
0.0760776302338586
 10
0.2249989745498961
 20
0.0764029613965313
 10
0.2258125731265802
 20
0.0770129580187131
 10
0.2266668515864133
 20
0.0779076187160631
 10
0.2269922915653086
 20
0.0787616137102494
 10
0.2271143312147558
 20
0.0799002734717743
  0
LWPOLYLINE
  5
30D9
330
2
100
AcDbEntity
  8
Dimensione
 62
     2
100
AcDbPolyline
 90
       25
 70
     0
 43
0.0
 10
0.2325843021522818
 20
0.0792100065404883
 10
0.2323402228533876
 20
0.0798200024704996
 10
0.2321368225239394
 20
0.0804299984005109
 10
0.2322181822902375
 20
0.0811213278133609
 10
0.2322995429702385
 20
0.0816499909527041
 10
0.232624982035431
 20
0.0824226531562223
 10
0.2327470216848781
 20
0.0829919826908995
 10
0.2327470216848781
 20
0.0836426457084154
 10
0.2327470216848781
 20
0.0841713088477586
 10
0.2323402228533876
 20
0.0845373070979358
 10
0.231160504414659
 20
0.0850659702372789
 10
0.2304689454874222
 20
0.0851066366326131
 10
0.2297773856464824
 20
0.0851066366326131
 10
0.22945194658129
 20
0.0849439710512768
 10
0.229492626464439
 20
0.0844559736150972
 10
0.2296960258801843
 20
0.0837239784990836
 10
0.2298180655296314
 20
0.0827886507142291
 10
0.2298180655296314
 20
0.0821379883888836
 10
0.2294112666981409
 20
0.0813246597900314
 10
0.2292078663686927
 20
0.0797386696798315
 10
0.2293705868149919
 20
0.0786406763136406
 10
0.2299401060927816
 20
0.0775426829474497
 10
0.2308757443189128
 20
0.0765666894594315
 10
0.2318113834587469
 20
0.0757126944652452
 10
0.2329504220143263
 20
0.075184031325902
  0
LWPOLYLINE
  5
30DA
330
2
100
AcDbEntity
  8
Dimensione
 62
     2
100
AcDbPolyline
 90
        4
 70
     0
 43
0.0
 10
0.2284756275583067
 20
0.0765666894594315
 10
0.2292892270486938
 20
0.0766886886454338
 10
0.2296553459970353
 20
0.0768920206221042
 10
0.230224865274825
 20
0.0770953525987747
  0
LWPOLYLINE
  5
30DB
330
2
100
AcDbEntity
  8
Dimensione
 62
     2
100
AcDbPolyline
 90
        5
 70
     0
 43
0.0
 10
0.2284349476751577
 20
0.0753466969072384
 10
0.2291671864855437
 20
0.0755906952792429
 10
0.2297367057633334
 20
0.0758753600465816
 10
0.2301841853916759
 20
0.0762413576045884
 10
0.2305503052537203
 20
0.0767293550407679
  0
LWPOLYLINE
  5
30DC
330
2
100
AcDbEntity
  8
Dimensione
 62
     2
100
AcDbPolyline
 90
        8
 70
     0
 43
0.0
 10
0.2288824273035003
 20
0.0796980032844973
 10
0.2288417474203512
 20
0.0808773294413564
 10
0.2288417474203512
 20
0.0814466589760337
 10
0.2290858267192454
 20
0.0818126572262109
 10
0.2293705868149919
 20
0.0823413203655541
 10
0.22945194658129
 20
0.0830326490862337
 10
0.22945194658129
 20
0.0836019793130813
 10
0.2293705868149919
 20
0.0840899760570904
  0
LWPOLYLINE
  5
30DD
330
2
100
AcDbEntity
  8
Dimensione
 62
     2
100
AcDbPolyline
 90
        4
 70
     0
 43
0.0
 10
0.2292904121214318
 20
0.0848224176230119
 10
0.2290056520256854
 20
0.0850257502918528
 10
0.228680212960493
 20
0.0851477494778551
 10
0.2283140930984486
 20
0.0851477494778551
  0
LWPOLYLINE
  5
30DE
330
2
100
AcDbEntity
  8
Dimensione
 62
     2
100
AcDbPolyline
 90
        6
 70
     0
 43
0.0
 10
0.2329106302504536
 20
0.0760776302338586
 10
0.2318122715780233
 20
0.0764029613965313
 10
0.2309986730013392
 20
0.0770129580187131
 10
0.2301443945415061
 20
0.0779076187160631
 10
0.2298189545626108
 20
0.0787616137102494
 10
0.2296969149131635
 20
0.0799002734717743
  0
LWPOLYLINE
  5
30DF
330
2
100
AcDbEntity
  8
Dimensione
 62
     2
100
AcDbPolyline
 90
       25
 70
     0
 43
0.0
 10
0.2333165418763708
 20
0.0792100065404883
 10
0.2335606211752651
 20
0.0798200024704996
 10
0.2337640215047133
 20
0.0804299984005109
 10
0.2336826617384152
 20
0.0811213278133609
 10
0.2336013010584141
 20
0.0816499909527041
 10
0.2332758619932217
 20
0.0824226531562223
 10
0.2331538223437745
 20
0.0829919826908995
 10
0.2331538223437745
 20
0.0836426457084154
 10
0.2331538223437745
 20
0.0841713088477586
 10
0.2335606211752651
 20
0.0845373070979358
 10
0.2347403396139936
 20
0.0850659702372789
 10
0.2354318985412304
 20
0.0851066366326131
 10
0.2361234583821703
 20
0.0851066366326131
 10
0.2364488974473627
 20
0.0849439710512768
 10
0.2364082175642137
 20
0.0844559736150972
 10
0.2362048181484683
 20
0.0837239784990836
 10
0.2360827784990212
 20
0.0827886507142291
 10
0.2360827784990212
 20
0.0821379883888836
 10
0.2364895773305117
 20
0.0813246597900314
 10
0.23669297765996
 20
0.0797386696798315
 10
0.2365302572136608
 20
0.0786406763136406
 10
0.2359607379358711
 20
0.0775426829474497
 10
0.2350250997097399
 20
0.0765666894594315
 10
0.2340894605699057
 20
0.0757126944652452
 10
0.2329504220143263
 20
0.075184031325902
  0
LWPOLYLINE
  5
30E0
330
2
100
AcDbEntity
  8
Dimensione
 62
     2
100
AcDbPolyline
 90
        4
 70
     0
 43
0.0
 10
0.237425216470346
 20
0.0765666894594315
 10
0.2366116169799589
 20
0.0766886886454338
 10
0.2362454980316174
 20
0.0768920206221042
 10
0.2356759787538277
 20
0.0770953525987747
  0
LWPOLYLINE
  5
30E1
330
2
100
AcDbEntity
  8
Dimensione
 62
     2
100
AcDbPolyline
 90
        5
 70
     0
 43
0.0
 10
0.237465896353495
 20
0.0753466969072384
 10
0.236733657543109
 20
0.0755906952792429
 10
0.2361641382653193
 20
0.0758753600465816
 10
0.2357166586369767
 20
0.0762413576045884
 10
0.2353505387749323
 20
0.0767293550407679
  0
LWPOLYLINE
  5
30E2
330
2
100
AcDbEntity
  8
Dimensione
 62
     2
100
AcDbPolyline
 90
        8
 70
     0
 43
0.0
 10
0.2370184167251524
 20
0.0796980032844973
 10
0.2370590966083014
 20
0.0808773294413564
 10
0.2370590966083014
 20
0.0814466589760337
 10
0.2368150173094072
 20
0.0818126572262109
 10
0.2365302572136608
 20
0.0823413203655541
 10
0.2364488974473627
 20
0.0830326490862337
 10
0.2364488974473627
 20
0.0836019793130813
 10
0.2365302572136608
 20
0.0840899760570904
  0
LWPOLYLINE
  5
30E3
330
2
100
AcDbEntity
  8
Dimensione
 62
     2
100
AcDbPolyline
 90
        4
 70
     0
 43
0.0
 10
0.2366104319072208
 20
0.0848224176230119
 10
0.2368951920029672
 20
0.0850257502918528
 10
0.2372206310681597
 20
0.0851477494778551
 10
0.237586750930204
 20
0.0851477494778551
  0
LWPOLYLINE
  5
30E4
330
2
100
AcDbEntity
  8
Dimensione
 62
     2
100
AcDbPolyline
 90
        6
 70
     0
 43
0.0
 10
0.232990213778199
 20
0.0760776302338586
 10
0.2340885724506294
 20
0.0764029613965313
 10
0.2349021710273134
 20
0.0770129580187131
 10
0.2357564494871466
 20
0.0779076187160631
 10
0.2360818894660419
 20
0.0787616137102494
 10
0.2362039291154891
 20
0.0799002734717743
  0
LWPOLYLINE
  5
30E5
330
2
100
AcDbEntity
  8
Dimensione
 62
     2
100
AcDbPolyline
 90
       25
 70
     0
 43
0.0
 10
0.2414908401219929
 20
0.0792100065404883
 10
0.2412467608230987
 20
0.0798200024704996
 10
0.2410433604936505
 20
0.0804299984005109
 10
0.2411247202599485
 20
0.0811213278133609
 10
0.2412060809399496
 20
0.0816499909527041
 10
0.2415315200051421
 20
0.0824226531562223
 10
0.2416535596545892
 20
0.0829919826908995
 10
0.2416535596545892
 20
0.0836426457084154
 10
0.2416535596545892
 20
0.0841713088477586
 10
0.2412467608230987
 20
0.0845373070979358
 10
0.2400670423843701
 20
0.0850659702372789
 10
0.2393754834571333
 20
0.0851066366326131
 10
0.2386839236161935
 20
0.0851066366326131
 10
0.238358484551001
 20
0.0849439710512768
 10
0.2383991644341501
 20
0.0844559736150972
 10
0.2386025638498954
 20
0.0837239784990836
 10
0.2387246034993425
 20
0.0827886507142291
 10
0.2387246034993425
 20
0.0821379883888836
 10
0.238317804667852
 20
0.0813246597900314
 10
0.2381144043384038
 20
0.0797386696798315
 10
0.2382771247847029
 20
0.0786406763136406
 10
0.2388466440624926
 20
0.0775426829474497
 10
0.2397822822886238
 20
0.0765666894594315
 10
0.240717921428458
 20
0.0757126944652452
 10
0.2418569599840374
 20
0.075184031325902
  0
LWPOLYLINE
  5
30E6
330
2
100
AcDbEntity
  8
Dimensione
 62
     2
100
AcDbPolyline
 90
        4
 70
     0
 43
0.0
 10
0.2373821655280178
 20
0.0765666894594315
 10
0.2381957650184049
 20
0.0766886886454338
 10
0.2385618839667464
 20
0.0768920206221042
 10
0.2391314032445361
 20
0.0770953525987747
  0
LWPOLYLINE
  5
30E7
330
2
100
AcDbEntity
  8
Dimensione
 62
     2
100
AcDbPolyline
 90
        5
 70
     0
 43
0.0
 10
0.2373414856448687
 20
0.0753466969072384
 10
0.2380737244552547
 20
0.0755906952792429
 10
0.2386432437330444
 20
0.0758753600465816
 10
0.239090723361387
 20
0.0762413576045884
 10
0.2394568432234314
 20
0.0767293550407679
  0
LWPOLYLINE
  5
30E8
330
2
100
AcDbEntity
  8
Dimensione
 62
     2
100
AcDbPolyline
 90
        8
 70
     0
 43
0.0
 10
0.2377889652732113
 20
0.0796980032844973
 10
0.2377482853900623
 20
0.0808773294413564
 10
0.2377482853900623
 20
0.0814466589760337
 10
0.2379923646889565
 20
0.0818126572262109
 10
0.2382771247847029
 20
0.0823413203655541
 10
0.238358484551001
 20
0.0830326490862337
 10
0.238358484551001
 20
0.0836019793130813
 10
0.2382771247847029
 20
0.0840899760570904
  0
LWPOLYLINE
  5
30E9
330
2
100
AcDbEntity
  8
Dimensione
 62
     2
100
AcDbPolyline
 90
        4
 70
     0
 43
0.0
 10
0.2381969500911429
 20
0.0848224176230119
 10
0.2379121899953965
 20
0.0850257502918528
 10
0.237586750930204
 20
0.0851477494778551
 10
0.2372206310681597
 20
0.0851477494778551
  0
LWPOLYLINE
  5
30EA
330
2
100
AcDbEntity
  8
Dimensione
 62
     2
100
AcDbPolyline
 90
        6
 70
     0
 43
0.0
 10
0.2418171682201647
 20
0.0760776302338586
 10
0.2407188095477343
 20
0.0764029613965313
 10
0.2399052109710503
 20
0.0770129580187131
 10
0.2390509325112172
 20
0.0779076187160631
 10
0.2387254925323218
 20
0.0787616137102494
 10
0.2386034528828746
 20
0.0799002734717743
  0
LWPOLYLINE
  5
30EB
330
2
100
AcDbEntity
  8
Dimensione
 62
     2
100
AcDbPolyline
 90
       25
 70
     0
 43
0.0
 10
0.2422230798460819
 20
0.0792100065404883
 10
0.2424671591449762
 20
0.0798200024704996
 10
0.2426705594744244
 20
0.0804299984005109
 10
0.2425891997081263
 20
0.0811213278133609
 10
0.2425078390281252
 20
0.0816499909527041
 10
0.2421823999629328
 20
0.0824226531562223
 10
0.2420603603134856
 20
0.0829919826908995
 10
0.2420603603134856
 20
0.0836426457084154
 10
0.2420603603134856
 20
0.0841713088477586
 10
0.2424671591449762
 20
0.0845373070979358
 10
0.2436468775837047
 20
0.0850659702372789
 10
0.2443384365109415
 20
0.0851066366326131
 10
0.2450299963518813
 20
0.0851066366326131
 10
0.2453554354170738
 20
0.0849439710512768
 10
0.2453147555339247
 20
0.0844559736150972
 10
0.2451113561181794
 20
0.0837239784990836
 10
0.2449893164687323
 20
0.0827886507142291
 10
0.2449893164687323
 20
0.0821379883888836
 10
0.2453961153002228
 20
0.0813246597900314
 10
0.245599515629671
 20
0.0797386696798315
 10
0.2454367951833719
 20
0.0786406763136406
 10
0.2448672759055822
 20
0.0775426829474497
 10
0.243931637679451
 20
0.0765666894594315
 10
0.2429959985396168
 20
0.0757126944652452
 10
0.2418569599840374
 20
0.075184031325902
  0
LWPOLYLINE
  5
30EC
330
2
100
AcDbEntity
  8
Dimensione
 62
     2
100
AcDbPolyline
 90
        4
 70
     0
 43
0.0
 10
0.246331754440057
 20
0.0765666894594315
 10
0.24551815494967
 20
0.0766886886454338
 10
0.2451520360013285
 20
0.0768920206221042
 10
0.2445825167235388
 20
0.0770953525987747
  0
LWPOLYLINE
  5
30ED
330
2
100
AcDbEntity
  8
Dimensione
 62
     2
100
AcDbPolyline
 90
        5
 70
     0
 43
0.0
 10
0.2463724343232061
 20
0.0753466969072384
 10
0.2456401955128201
 20
0.0755906952792429
 10
0.2450706762350304
 20
0.0758753600465816
 10
0.2446231966066878
 20
0.0762413576045884
 10
0.2442570767446434
 20
0.0767293550407679
  0
LWPOLYLINE
  5
30EE
330
2
100
AcDbEntity
  8
Dimensione
 62
     2
100
AcDbPolyline
 90
        8
 70
     0
 43
0.0
 10
0.2459249546948635
 20
0.0796980032844973
 10
0.2459656345780125
 20
0.0808773294413564
 10
0.2459656345780125
 20
0.0814466589760337
 10
0.2457215552791183
 20
0.0818126572262109
 10
0.2454367951833719
 20
0.0823413203655541
 10
0.2453554354170738
 20
0.0830326490862337
 10
0.2453554354170738
 20
0.0836019793130813
 10
0.2454367951833719
 20
0.0840899760570904
  0
LWPOLYLINE
  5
30EF
330
2
100
AcDbEntity
  8
Dimensione
 62
     2
100
AcDbPolyline
 90
        4
 70
     0
 43
0.0
 10
0.2455169698769319
 20
0.0848224176230119
 10
0.2458017299726783
 20
0.0850257502918528
 10
0.2461271690378707
 20
0.0851477494778551
 10
0.2464932888999151
 20
0.0851477494778551
  0
LWPOLYLINE
  5
30F0
330
2
100
AcDbEntity
  8
Dimensione
 62
     2
100
AcDbPolyline
 90
        6
 70
     0
 43
0.0
 10
0.2418967517479101
 20
0.0760776302338586
 10
0.2429951104203404
 20
0.0764029613965313
 10
0.2438087089970245
 20
0.0770129580187131
 10
0.2446629874568576
 20
0.0779076187160631
 10
0.2449884274357529
 20
0.0787616137102494
 10
0.2451104670852002
 20
0.0799002734717743
  0
LWPOLYLINE
  5
30F1
330
2
100
AcDbEntity
  8
Dimensione
 62
     2
100
AcDbPolyline
 90
       25
 70
     0
 43
0.0
 10
0.2505804380227262
 20
0.0792100065404883
 10
0.2503363587238319
 20
0.0798200024704996
 10
0.2501329583943837
 20
0.0804299984005109
 10
0.2502143181606819
 20
0.0811213278133609
 10
0.2502956788406829
 20
0.0816499909527041
 10
0.2506211179058754
 20
0.0824226531562223
 10
0.2507431575553225
 20
0.0829919826908995
 10
0.2507431575553225
 20
0.0836426457084154
 10
0.2507431575553225
 20
0.0841713088477586
 10
0.2503363587238319
 20
0.0845373070979358
 10
0.2491566402851034
 20
0.0850659702372789
 10
0.2484650813578666
 20
0.0851066366326131
 10
0.2477735215169267
 20
0.0851066366326131
 10
0.2474480824517343
 20
0.0849439710512768
 10
0.2474887623348833
 20
0.0844559736150972
 10
0.2476921617506286
 20
0.0837239784990836
 10
0.2478142014000758
 20
0.0827886507142291
 10
0.2478142014000758
 20
0.0821379883888836
 10
0.2474074025685852
 20
0.0813246597900314
 10
0.247204002239137
 20
0.0797386696798315
 10
0.2473667226854362
 20
0.0786406763136406
 10
0.2479362419632259
 20
0.0775426829474497
 10
0.2488718801893571
 20
0.0765666894594315
 10
0.2498075193291913
 20
0.0757126944652452
 10
0.2509465578847707
 20
0.075184031325902
  0
LWPOLYLINE
  5
30F2
330
2
100
AcDbEntity
  8
Dimensione
 62
     2
100
AcDbPolyline
 90
        4
 70
     0
 43
0.0
 10
0.2464717634287511
 20
0.0765666894594315
 10
0.2472853629191381
 20
0.0766886886454338
 10
0.2476514818674796
 20
0.0768920206221042
 10
0.2482210011452693
 20
0.0770953525987747
  0
LWPOLYLINE
  5
30F3
330
2
100
AcDbEntity
  8
Dimensione
 62
     2
100
AcDbPolyline
 90
        5
 70
     0
 43
0.0
 10
0.246431083545602
 20
0.0753466969072384
 10
0.247163322355988
 20
0.0755906952792429
 10
0.2477328416337777
 20
0.0758753600465816
 10
0.2481803212621203
 20
0.0762413576045884
 10
0.2485464411241646
 20
0.0767293550407679
  0
LWPOLYLINE
  5
30F4
330
2
100
AcDbEntity
  8
Dimensione
 62
     2
100
AcDbPolyline
 90
        8
 70
     0
 43
0.0
 10
0.2468785631739446
 20
0.0796980032844973
 10
0.2468378832907955
 20
0.0808773294413564
 10
0.2468378832907955
 20
0.0814466589760337
 10
0.2470819625896898
 20
0.0818126572262109
 10
0.2473667226854362
 20
0.0823413203655541
 10
0.2474480824517343
 20
0.0830326490862337
 10
0.2474480824517343
 20
0.0836019793130813
 10
0.2473667226854362
 20
0.0840899760570904
  0
LWPOLYLINE
  5
30F5
330
2
100
AcDbEntity
  8
Dimensione
 62
     2
100
AcDbPolyline
 90
        4
 70
     0
 43
0.0
 10
0.2472865479918762
 20
0.0848224176230119
 10
0.2470017878961298
 20
0.0850257502918528
 10
0.2466763488309373
 20
0.0851477494778551
 10
0.2463102289688929
 20
0.0851477494778551
  0
LWPOLYLINE
  5
30F6
330
2
100
AcDbEntity
  8
Dimensione
 62
     2
100
AcDbPolyline
 90
        6
 70
     0
 43
0.0
 10
0.250906766120898
 20
0.0760776302338586
 10
0.2498084074484676
 20
0.0764029613965313
 10
0.2489948088717836
 20
0.0770129580187131
 10
0.2481405304119505
 20
0.0779076187160631
 10
0.2478150904330551
 20
0.0787616137102494
 10
0.2476930507836079
 20
0.0799002734717743
  0
LWPOLYLINE
  5
30F7
330
2
100
AcDbEntity
  8
Dimensione
 62
     2
100
AcDbPolyline
 90
       25
 70
     0
 43
0.0
 10
0.2513126777468152
 20
0.0792100065404883
 10
0.2515567570457095
 20
0.0798200024704996
 10
0.2517601573751577
 20
0.0804299984005109
 10
0.2516787976088596
 20
0.0811213278133609
 10
0.2515974369288585
 20
0.0816499909527041
 10
0.251271997863666
 20
0.0824226531562223
 10
0.2511499582142189
 20
0.0829919826908995
 10
0.2511499582142189
 20
0.0836426457084154
 10
0.2511499582142189
 20
0.0841713088477586
 10
0.2515567570457095
 20
0.0845373070979358
 10
0.252736475484438
 20
0.0850659702372789
 10
0.2534280344116748
 20
0.0851066366326131
 10
0.2541195942526147
 20
0.0851066366326131
 10
0.2544450333178071
 20
0.0849439710512768
 10
0.2544043534346581
 20
0.0844559736150972
 10
0.2542009540189127
 20
0.0837239784990836
 10
0.2540789143694656
 20
0.0827886507142291
 10
0.2540789143694656
 20
0.0821379883888836
 10
0.2544857132009561
 20
0.0813246597900314
 10
0.2546891135304043
 20
0.0797386696798315
 10
0.2545263930841052
 20
0.0786406763136406
 10
0.2539568738063155
 20
0.0775426829474497
 10
0.2530212355801843
 20
0.0765666894594315
 10
0.2520855964403501
 20
0.0757126944652452
 10
0.2509465578847707
 20
0.075184031325902
  0
LWPOLYLINE
  5
30F8
330
2
100
AcDbEntity
  8
Dimensione
 62
     2
100
AcDbPolyline
 90
        4
 70
     0
 43
0.0
 10
0.2554213523407903
 20
0.0765666894594315
 10
0.2546077528504033
 20
0.0766886886454338
 10
0.2542416339020618
 20
0.0768920206221042
 10
0.2536721146242721
 20
0.0770953525987747
  0
LWPOLYLINE
  5
30F9
330
2
100
AcDbEntity
  8
Dimensione
 62
     2
100
AcDbPolyline
 90
        5
 70
     0
 43
0.0
 10
0.2554620322239394
 20
0.0753466969072384
 10
0.2547297934135534
 20
0.0755906952792429
 10
0.2541602741357637
 20
0.0758753600465816
 10
0.2537127945074211
 20
0.0762413576045884
 10
0.2533466746453767
 20
0.0767293550407679
  0
LWPOLYLINE
  5
30FA
330
2
100
AcDbEntity
  8
Dimensione
 62
     2
100
AcDbPolyline
 90
        8
 70
     0
 43
0.0
 10
0.2550145525955968
 20
0.0796980032844973
 10
0.2550552324787458
 20
0.0808773294413564
 10
0.2550552324787458
 20
0.0814466589760337
 10
0.2548111531798516
 20
0.0818126572262109
 10
0.2545263930841052
 20
0.0823413203655541
 10
0.2544450333178071
 20
0.0830326490862337
 10
0.2544450333178071
 20
0.0836019793130813
 10
0.2545263930841052
 20
0.0840899760570904
  0
LWPOLYLINE
  5
30FB
330
2
100
AcDbEntity
  8
Dimensione
 62
     2
100
AcDbPolyline
 90
        4
 70
     0
 43
0.0
 10
0.2546065677776652
 20
0.0848224176230119
 10
0.2548913278734116
 20
0.0850257502918528
 10
0.2552167669386041
 20
0.0851477494778551
 10
0.2555828868006484
 20
0.0851477494778551
  0
LWPOLYLINE
  5
30FC
330
2
100
AcDbEntity
  8
Dimensione
 62
     2
100
AcDbPolyline
 90
        6
 70
     0
 43
0.0
 10
0.2509863496486434
 20
0.0760776302338586
 10
0.2520847083210738
 20
0.0764029613965313
 10
0.2528983068977578
 20
0.0770129580187131
 10
0.2537525853575909
 20
0.0779076187160631
 10
0.2540780253364863
 20
0.0787616137102494
 10
0.2542000649859335
 20
0.0799002734717743
  0
LWPOLYLINE
  5
30FD
330
2
100
AcDbEntity
  8
Dimensione
 62
     2
100
AcDbPolyline
 90
       25
 70
     0
 43
0.0
 10
0.2596700359234595
 20
0.0792100065404883
 10
0.2594259566245652
 20
0.0798200024704996
 10
0.259222556295117
 20
0.0804299984005109
 10
0.2593039160614151
 20
0.0811213278133609
 10
0.2593852767414162
 20
0.0816499909527041
 10
0.2597107158066087
 20
0.0824226531562223
 10
0.2598327554560558
 20
0.0829919826908995
 10
0.2598327554560558
 20
0.0836426457084154
 10
0.2598327554560558
 20
0.0841713088477586
 10
0.2594259566245652
 20
0.0845373070979358
 10
0.2582462381858367
 20
0.0850659702372789
 10
0.2575546792585999
 20
0.0851066366326131
 10
0.25686311941766
 20
0.0851066366326131
 10
0.2565376803524676
 20
0.0849439710512768
 10
0.2565783602356166
 20
0.0844559736150972
 10
0.256781759651362
 20
0.0837239784990836
 10
0.2569037993008091
 20
0.0827886507142291
 10
0.2569037993008091
 20
0.0821379883888836
 10
0.2564970004693186
 20
0.0813246597900314
 10
0.2562936001398703
 20
0.0797386696798315
 10
0.2564563205861695
 20
0.0786406763136406
 10
0.2570258398639592
 20
0.0775426829474497
 10
0.2579614780900904
 20
0.0765666894594315
 10
0.2588971172299246
 20
0.0757126944652452
 10
0.260036155785504
 20
0.075184031325902
  0
LWPOLYLINE
  5
30FE
330
2
100
AcDbEntity
  8
Dimensione
 62
     2
100
AcDbPolyline
 90
        4
 70
     0
 43
0.0
 10
0.2555613613294843
 20
0.0765666894594315
 10
0.2563749608198714
 20
0.0766886886454338
 10
0.2567410797682129
 20
0.0768920206221042
 10
0.2573105990460026
 20
0.0770953525987747
  0
LWPOLYLINE
  5
30FF
330
2
100
AcDbEntity
  8
Dimensione
 62
     2
100
AcDbPolyline
 90
        5
 70
     0
 43
0.0
 10
0.2555206814463353
 20
0.0753466969072384
 10
0.2562529202567213
 20
0.0755906952792429
 10
0.256822439534511
 20
0.0758753600465816
 10
0.2572699191628536
 20
0.0762413576045884
 10
0.257636039024898
 20
0.0767293550407679
  0
LWPOLYLINE
  5
3100
330
2
100
AcDbEntity
  8
Dimensione
 62
     2
100
AcDbPolyline
 90
        8
 70
     0
 43
0.0
 10
0.2559681610746779
 20
0.0796980032844973
 10
0.2559274811915289
 20
0.0808773294413564
 10
0.2559274811915289
 20
0.0814466589760337
 10
0.2561715604904231
 20
0.0818126572262109
 10
0.2564563205861695
 20
0.0823413203655541
 10
0.2565376803524676
 20
0.0830326490862337
 10
0.2565376803524676
 20
0.0836019793130813
 10
0.2564563205861695
 20
0.0840899760570904
  0
LWPOLYLINE
  5
3101
330
2
100
AcDbEntity
  8
Dimensione
 62
     2
100
AcDbPolyline
 90
        4
 70
     0
 43
0.0
 10
0.2563761458926095
 20
0.0848224176230119
 10
0.2560913857968631
 20
0.0850257502918528
 10
0.2557659467316706
 20
0.0851477494778551
 10
0.2553998268696263
 20
0.0851477494778551
  0
LWPOLYLINE
  5
3102
330
2
100
AcDbEntity
  8
Dimensione
 62
     2
100
AcDbPolyline
 90
        6
 70
     0
 43
0.0
 10
0.2599963640216313
 20
0.0760776302338586
 10
0.2588980053492009
 20
0.0764029613965313
 10
0.2580844067725168
 20
0.0770129580187131
 10
0.2572301283126838
 20
0.0779076187160631
 10
0.2569046883337884
 20
0.0787616137102494
 10
0.2567826486843412
 20
0.0799002734717743
  0
LWPOLYLINE
  5
3103
330
2
100
AcDbEntity
  8
Dimensione
 62
     2
100
AcDbPolyline
 90
       25
 70
     0
 43
0.0
 10
0.2604022756475484
 20
0.0792100065404883
 10
0.2606463549464427
 20
0.0798200024704996
 10
0.260849755275891
 20
0.0804299984005109
 10
0.2607683955095928
 20
0.0811213278133609
 10
0.2606870348295918
 20
0.0816499909527041
 10
0.2603615957643993
 20
0.0824226531562223
 10
0.2602395561149522
 20
0.0829919826908995
 10
0.2602395561149522
 20
0.0836426457084154
 10
0.2602395561149522
 20
0.0841713088477586
 10
0.2606463549464427
 20
0.0845373070979358
 10
0.2618260733851713
 20
0.0850659702372789
 10
0.2625176323124081
 20
0.0851066366326131
 10
0.2632091921533479
 20
0.0851066366326131
 10
0.2635346312185404
 20
0.0849439710512768
 10
0.2634939513353913
 20
0.0844559736150972
 10
0.263290551919646
 20
0.0837239784990836
 10
0.2631685122701989
 20
0.0827886507142291
 10
0.2631685122701989
 20
0.0821379883888836
 10
0.2635753111016894
 20
0.0813246597900314
 10
0.2637787114311376
 20
0.0797386696798315
 10
0.2636159909848384
 20
0.0786406763136406
 10
0.2630464717070487
 20
0.0775426829474497
 10
0.2621108334809175
 20
0.0765666894594315
 10
0.2611751943410834
 20
0.0757126944652452
 10
0.260036155785504
 20
0.075184031325902
  0
LWPOLYLINE
  5
3104
330
2
100
AcDbEntity
  8
Dimensione
 62
     2
100
AcDbPolyline
 90
        4
 70
     0
 43
0.0
 10
0.2645109502415236
 20
0.0765666894594315
 10
0.2636973507511366
 20
0.0766886886454338
 10
0.2633312318027951
 20
0.0768920206221042
 10
0.2627617125250054
 20
0.0770953525987747
  0
LWPOLYLINE
  5
3105
330
2
100
AcDbEntity
  8
Dimensione
 62
     2
100
AcDbPolyline
 90
        5
 70
     0
 43
0.0
 10
0.2645516301246726
 20
0.0753466969072384
 10
0.2638193913142866
 20
0.0755906952792429
 10
0.2632498720364969
 20
0.0758753600465816
 10
0.2628023924081544
 20
0.0762413576045884
 10
0.26243627254611
 20
0.0767293550407679
  0
LWPOLYLINE
  5
3106
330
2
100
AcDbEntity
  8
Dimensione
 62
     2
100
AcDbPolyline
 90
        8
 70
     0
 43
0.0
 10
0.2641041504963301
 20
0.0796980032844973
 10
0.2641448303794791
 20
0.0808773294413564
 10
0.2641448303794791
 20
0.0814466589760337
 10
0.2639007510805849
 20
0.0818126572262109
 10
0.2636159909848384
 20
0.0823413203655541
 10
0.2635346312185404
 20
0.0830326490862337
 10
0.2635346312185404
 20
0.0836019793130813
 10
0.2636159909848384
 20
0.0840899760570904
  0
LWPOLYLINE
  5
3107
330
2
100
AcDbEntity
  8
Dimensione
 62
     2
100
AcDbPolyline
 90
        4
 70
     0
 43
0.0
 10
0.2636961656783985
 20
0.0848224176230119
 10
0.2639809257741449
 20
0.0850257502918528
 10
0.2643063648393373
 20
0.0851477494778551
 10
0.2646724847013817
 20
0.0851477494778551
  0
LWPOLYLINE
  5
3108
330
2
100
AcDbEntity
  8
Dimensione
 62
     2
100
AcDbPolyline
 90
        6
 70
     0
 43
0.0
 10
0.2600759475493767
 20
0.0760776302338586
 10
0.261174306221807
 20
0.0764029613965313
 10
0.2619879047984911
 20
0.0770129580187131
 10
0.2628421832583242
 20
0.0779076187160631
 10
0.2631676232372195
 20
0.0787616137102494
 10
0.2632896628866668
 20
0.0799002734717743
  0
LWPOLYLINE
  5
3109
330
2
100
AcDbEntity
  8
Dimensione
 62
     2
100
AcDbPolyline
 90
       25
 70
     0
 43
0.0
 10
0.2685765738931706
 20
0.0792100065404883
 10
0.2683324945942763
 20
0.0798200024704996
 10
0.2681290942648281
 20
0.0804299984005109
 10
0.2682104540311262
 20
0.0811213278133609
 10
0.2682918147111273
 20
0.0816499909527041
 10
0.2686172537763197
 20
0.0824226531562223
 10
0.2687392934257669
 20
0.0829919826908995
 10
0.2687392934257669
 20
0.0836426457084154
 10
0.2687392934257669
 20
0.0841713088477586
 10
0.2683324945942763
 20
0.0845373070979358
 10
0.2671527761555477
 20
0.0850659702372789
 10
0.2664612172283109
 20
0.0851066366326131
 10
0.2657696573873711
 20
0.0851066366326131
 10
0.2654442183221787
 20
0.0849439710512768
 10
0.2654848982053277
 20
0.0844559736150972
 10
0.265688297621073
 20
0.0837239784990836
 10
0.2658103372705201
 20
0.0827886507142291
 10
0.2658103372705201
 20
0.0821379883888836
 10
0.2654035384390296
 20
0.0813246597900314
 10
0.2652001381095814
 20
0.0797386696798315
 10
0.2653628585558806
 20
0.0786406763136406
 10
0.2659323778336703
 20
0.0775426829474497
 10
0.2668680160598015
 20
0.0765666894594315
 10
0.2678036551996357
 20
0.0757126944652452
 10
0.2689426937552151
 20
0.075184031325902
  0
LWPOLYLINE
  5
310A
330
2
100
AcDbEntity
  8
Dimensione
 62
     2
100
AcDbPolyline
 90
        4
 70
     0
 43
0.0
 10
0.2644678992991954
 20
0.0765666894594315
 10
0.2652814987895825
 20
0.0766886886454338
 10
0.265647617737924
 20
0.0768920206221042
 10
0.2662171370157137
 20
0.0770953525987747
  0
LWPOLYLINE
  5
310B
330
2
100
AcDbEntity
  8
Dimensione
 62
     2
100
AcDbPolyline
 90
        5
 70
     0
 43
0.0
 10
0.2644272194160464
 20
0.0753466969072384
 10
0.2651594582264324
 20
0.0755906952792429
 10
0.2657289775042221
 20
0.0758753600465816
 10
0.2661764571325647
 20
0.0762413576045884
 10
0.266542576994609
 20
0.0767293550407679
  0
LWPOLYLINE
  5
310C
330
2
100
AcDbEntity
  8
Dimensione
 62
     2
100
AcDbPolyline
 90
        8
 70
     0
 43
0.0
 10
0.264874699044389
 20
0.0796980032844973
 10
0.2648340191612399
 20
0.0808773294413564
 10
0.2648340191612399
 20
0.0814466589760337
 10
0.2650780984601342
 20
0.0818126572262109
 10
0.2653628585558806
 20
0.0823413203655541
 10
0.2654442183221787
 20
0.0830326490862337
 10
0.2654442183221787
 20
0.0836019793130813
 10
0.2653628585558806
 20
0.0840899760570904
  0
LWPOLYLINE
  5
310D
330
2
100
AcDbEntity
  8
Dimensione
 62
     2
100
AcDbPolyline
 90
        4
 70
     0
 43
0.0
 10
0.2652826838623206
 20
0.0848224176230119
 10
0.2649979237665741
 20
0.0850257502918528
 10
0.2646724847013817
 20
0.0851477494778551
 10
0.2643063648393373
 20
0.0851477494778551
  0
LWPOLYLINE
  5
310E
330
2
100
AcDbEntity
  8
Dimensione
 62
     2
100
AcDbPolyline
 90
        6
 70
     0
 43
0.0
 10
0.2689029019913423
 20
0.0760776302338586
 10
0.267804543318912
 20
0.0764029613965313
 10
0.2669909447422279
 20
0.0770129580187131
 10
0.2661366662823949
 20
0.0779076187160631
 10
0.2658112263034995
 20
0.0787616137102494
 10
0.2656891866540523
 20
0.0799002734717743
  0
LWPOLYLINE
  5
310F
330
2
100
AcDbEntity
  8
Dimensione
 62
     2
100
AcDbPolyline
 90
       25
 70
     0
 43
0.0
 10
0.2693088136172595
 20
0.0792100065404883
 10
0.2695528929161538
 20
0.0798200024704996
 10
0.269756293245602
 20
0.0804299984005109
 10
0.2696749334793039
 20
0.0811213278133609
 10
0.2695935727993028
 20
0.0816499909527041
 10
0.2692681337341104
 20
0.0824226531562223
 10
0.2691460940846633
 20
0.0829919826908995
 10
0.2691460940846633
 20
0.0836426457084154
 10
0.2691460940846633
 20
0.0841713088477586
 10
0.2695528929161538
 20
0.0845373070979358
 10
0.2707326113548824
 20
0.0850659702372789
 10
0.2714241702821192
 20
0.0851066366326131
 10
0.272115730123059
 20
0.0851066366326131
 10
0.2724411691882515
 20
0.0849439710512768
 10
0.2724004893051024
 20
0.0844559736150972
 10
0.2721970898893571
 20
0.0837239784990836
 10
0.27207505023991
 20
0.0827886507142291
 10
0.27207505023991
 20
0.0821379883888836
 10
0.2724818490714005
 20
0.0813246597900314
 10
0.2726852494008487
 20
0.0797386696798315
 10
0.2725225289545495
 20
0.0786406763136406
 10
0.2719530096767598
 20
0.0775426829474497
 10
0.2710173714506286
 20
0.0765666894594315
 10
0.2700817323107945
 20
0.0757126944652452
 10
0.2689426937552151
 20
0.075184031325902
  0
LWPOLYLINE
  5
3110
330
2
100
AcDbEntity
  8
Dimensione
 62
     2
100
AcDbPolyline
 90
        4
 70
     0
 43
0.0
 10
0.2734174882112347
 20
0.0765666894594315
 10
0.2726038887208476
 20
0.0766886886454338
 10
0.2722377697725061
 20
0.0768920206221042
 10
0.2716682504947165
 20
0.0770953525987747
  0
LWPOLYLINE
  5
3111
330
2
100
AcDbEntity
  8
Dimensione
 62
     2
100
AcDbPolyline
 90
        5
 70
     0
 43
0.0
 10
0.2734581680943837
 20
0.0753466969072384
 10
0.2727259292839977
 20
0.0755906952792429
 10
0.272156410006208
 20
0.0758753600465816
 10
0.2717089303778655
 20
0.0762413576045884
 10
0.2713428105158211
 20
0.0767293550407679
  0
LWPOLYLINE
  5
3112
330
2
100
AcDbEntity
  8
Dimensione
 62
     2
100
AcDbPolyline
 90
        8
 70
     0
 43
0.0
 10
0.2730106884660412
 20
0.0796980032844973
 10
0.2730513683491902
 20
0.0808773294413564
 10
0.2730513683491902
 20
0.0814466589760337
 10
0.2728072890502959
 20
0.0818126572262109
 10
0.2725225289545495
 20
0.0823413203655541
 10
0.2724411691882515
 20
0.0830326490862337
 10
0.2724411691882515
 20
0.0836019793130813
 10
0.2725225289545495
 20
0.0840899760570904
  0
LWPOLYLINE
  5
3113
330
2
100
AcDbEntity
  8
Dimensione
 62
     2
100
AcDbPolyline
 90
        4
 70
     0
 43
0.0
 10
0.2726027036481096
 20
0.0848224176230119
 10
0.272887463743856
 20
0.0850257502918528
 10
0.2732129028090484
 20
0.0851477494778551
 10
0.2735790226710928
 20
0.0851477494778551
  0
LWPOLYLINE
  5
3114
330
2
100
AcDbEntity
  8
Dimensione
 62
     2
100
AcDbPolyline
 90
        6
 70
     0
 43
0.0
 10
0.2689824855190878
 20
0.0760776302338586
 10
0.2700808441915181
 20
0.0764029613965313
 10
0.2708944427682022
 20
0.0770129580187131
 10
0.2717487212280353
 20
0.0779076187160631
 10
0.2720741612069306
 20
0.0787616137102494
 10
0.2721962008563779
 20
0.0799002734717743
  0
LWPOLYLINE
  5
3115
330
2
100
AcDbEntity
  8
Dimensione
 62
     2
100
AcDbPolyline
 90
       25
 70
     0
 43
0.0
 10
0.2774831118628817
 20
0.0792100065404883
 10
0.2772390325639874
 20
0.0798200024704996
 10
0.2770356322345392
 20
0.0804299984005109
 10
0.2771169920008373
 20
0.0811213278133609
 10
0.2771983526808384
 20
0.0816499909527041
 10
0.2775237917460308
 20
0.0824226531562223
 10
0.2776458313954779
 20
0.0829919826908995
 10
0.2776458313954779
 20
0.0836426457084154
 10
0.2776458313954779
 20
0.0841713088477586
 10
0.2772390325639874
 20
0.0845373070979358
 10
0.2760593141252588
 20
0.0850659702372789
 10
0.275367755198022
 20
0.0851066366326131
 10
0.2746761953570822
 20
0.0851066366326131
 10
0.2743507562918897
 20
0.0849439710512768
 10
0.2743914361750388
 20
0.0844559736150972
 10
0.2745948355907841
 20
0.0837239784990836
 10
0.2747168752402312
 20
0.0827886507142291
 10
0.2747168752402312
 20
0.0821379883888836
 10
0.2743100764087407
 20
0.0813246597900314
 10
0.2741066760792925
 20
0.0797386696798315
 10
0.2742693965255917
 20
0.0786406763136406
 10
0.2748389158033814
 20
0.0775426829474497
 10
0.2757745540295126
 20
0.0765666894594315
 10
0.2767101931693467
 20
0.0757126944652452
 10
0.2778492317249261
 20
0.075184031325902
  0
LWPOLYLINE
  5
3116
330
2
100
AcDbEntity
  8
Dimensione
 62
     2
100
AcDbPolyline
 90
        4
 70
     0
 43
0.0
 10
0.2733744372689065
 20
0.0765666894594315
 10
0.2741880367592936
 20
0.0766886886454338
 10
0.2745541557076351
 20
0.0768920206221042
 10
0.2751236749854248
 20
0.0770953525987747
  0
LWPOLYLINE
  5
3117
330
2
100
AcDbEntity
  8
Dimensione
 62
     2
100
AcDbPolyline
 90
        5
 70
     0
 43
0.0
 10
0.2733337573857575
 20
0.0753466969072384
 10
0.2740659961961435
 20
0.0755906952792429
 10
0.2746355154739332
 20
0.0758753600465816
 10
0.2750829951022757
 20
0.0762413576045884
 10
0.2754491149643201
 20
0.0767293550407679
  0
LWPOLYLINE
  5
3118
330
2
100
AcDbEntity
  8
Dimensione
 62
     2
100
AcDbPolyline
 90
        8
 70
     0
 43
0.0
 10
0.2737812370141
 20
0.0796980032844973
 10
0.273740557130951
 20
0.0808773294413564
 10
0.273740557130951
 20
0.0814466589760337
 10
0.2739846364298453
 20
0.0818126572262109
 10
0.2742693965255917
 20
0.0823413203655541
 10
0.2743507562918897
 20
0.0830326490862337
 10
0.2743507562918897
 20
0.0836019793130813
 10
0.2742693965255917
 20
0.0840899760570904
  0
LWPOLYLINE
  5
3119
330
2
100
AcDbEntity
  8
Dimensione
 62
     2
100
AcDbPolyline
 90
        4
 70
     0
 43
0.0
 10
0.2741892218320316
 20
0.0848224176230119
 10
0.2739044617362852
 20
0.0850257502918528
 10
0.2735790226710928
 20
0.0851477494778551
 10
0.2732129028090484
 20
0.0851477494778551
  0
LWPOLYLINE
  5
311A
330
2
100
AcDbEntity
  8
Dimensione
 62
     2
100
AcDbPolyline
 90
        6
 70
     0
 43
0.0
 10
0.2778094399610534
 20
0.0760776302338586
 10
0.2767110812886231
 20
0.0764029613965313
 10
0.275897482711939
 20
0.0770129580187131
 10
0.2750432042521059
 20
0.0779076187160631
 10
0.2747177642732106
 20
0.0787616137102494
 10
0.2745957246237634
 20
0.0799002734717743
  0
LWPOLYLINE
  5
311B
330
2
100
AcDbEntity
  8
Dimensione
 62
     2
100
AcDbPolyline
 90
       25
 70
     0
 43
0.0
 10
0.2782153515869706
 20
0.0792100065404883
 10
0.2784594308858649
 20
0.0798200024704996
 10
0.2786628312153131
 20
0.0804299984005109
 10
0.278581471449015
 20
0.0811213278133609
 10
0.2785001107690139
 20
0.0816499909527041
 10
0.2781746717038215
 20
0.0824226531562223
 10
0.2780526320543744
 20
0.0829919826908995
 10
0.2780526320543744
 20
0.0836426457084154
 10
0.2780526320543744
 20
0.0841713088477586
 10
0.2784594308858649
 20
0.0845373070979358
 10
0.2796391493245935
 20
0.0850659702372789
 10
0.2803307082518303
 20
0.0851066366326131
 10
0.2810222680927701
 20
0.0851066366326131
 10
0.2813477071579626
 20
0.0849439710512768
 10
0.2813070272748135
 20
0.0844559736150972
 10
0.2811036278590682
 20
0.0837239784990836
 10
0.2809815882096211
 20
0.0827886507142291
 10
0.2809815882096211
 20
0.0821379883888836
 10
0.2813883870411116
 20
0.0813246597900314
 10
0.2815917873705598
 20
0.0797386696798315
 10
0.2814290669242606
 20
0.0786406763136406
 10
0.2808595476464709
 20
0.0775426829474497
 10
0.2799239094203397
 20
0.0765666894594315
 10
0.2789882702805055
 20
0.0757126944652452
 10
0.2778492317249261
 20
0.075184031325902
  0
LWPOLYLINE
  5
311C
330
2
100
AcDbEntity
  8
Dimensione
 62
     2
100
AcDbPolyline
 90
        4
 70
     0
 43
0.0
 10
0.2823240261809458
 20
0.0765666894594315
 10
0.2815104266905587
 20
0.0766886886454338
 10
0.2811443077422172
 20
0.0768920206221042
 10
0.2805747884644275
 20
0.0770953525987747
  0
LWPOLYLINE
  5
311D
330
2
100
AcDbEntity
  8
Dimensione
 62
     2
100
AcDbPolyline
 90
        5
 70
     0
 43
0.0
 10
0.2823647060640948
 20
0.0753466969072384
 10
0.2816324672537088
 20
0.0755906952792429
 10
0.2810629479759191
 20
0.0758753600465816
 10
0.2806154683475766
 20
0.0762413576045884
 10
0.2802493484855322
 20
0.0767293550407679
  0
LWPOLYLINE
  5
311E
330
2
100
AcDbEntity
  8
Dimensione
 62
     2
100
AcDbPolyline
 90
        8
 70
     0
 43
0.0
 10
0.2819172264357522
 20
0.0796980032844973
 10
0.2819579063189013
 20
0.0808773294413564
 10
0.2819579063189013
 20
0.0814466589760337
 10
0.281713827020007
 20
0.0818126572262109
 10
0.2814290669242606
 20
0.0823413203655541
 10
0.2813477071579626
 20
0.0830326490862337
 10
0.2813477071579626
 20
0.0836019793130813
 10
0.2814290669242606
 20
0.0840899760570904
  0
LWPOLYLINE
  5
311F
330
2
100
AcDbEntity
  8
Dimensione
 62
     2
100
AcDbPolyline
 90
        4
 70
     0
 43
0.0
 10
0.2815092416178206
 20
0.0848224176230119
 10
0.2817940017135671
 20
0.0850257502918528
 10
0.2821194407787595
 20
0.0851477494778551
 10
0.2824855606408039
 20
0.0851477494778551
  0
LWPOLYLINE
  5
3120
330
2
100
AcDbEntity
  8
Dimensione
 62
     2
100
AcDbPolyline
 90
        6
 70
     0
 43
0.0
 10
0.2778890234887989
 20
0.0760776302338586
 10
0.2789873821612292
 20
0.0764029613965313
 10
0.2798009807379133
 20
0.0770129580187131
 10
0.2806552591977463
 20
0.0779076187160631
 10
0.2809806991766417
 20
0.0787616137102494
 10
0.2811027388260889
 20
0.0799002734717743
  0
LWPOLYLINE
  5
3121
330
2
100
AcDbEntity
  8
Dimensione
 62
     2
100
AcDbPolyline
 90
       25
 70
     0
 43
0.0
 10
0.2863896498325928
 20
0.0792100065404883
 10
0.2861455705336985
 20
0.0798200024704996
 10
0.2859421702042503
 20
0.0804299984005109
 10
0.2860235299705484
 20
0.0811213278133609
 10
0.2861048906505494
 20
0.0816499909527041
 10
0.2864303297157419
 20
0.0824226531562223
 10
0.286552369365189
 20
0.0829919826908995
 10
0.286552369365189
 20
0.0836426457084154
 10
0.286552369365189
 20
0.0841713088477586
 10
0.2861455705336985
 20
0.0845373070979358
 10
0.2849658520949699
 20
0.0850659702372789
 10
0.2842742931677331
 20
0.0851066366326131
 10
0.2835827333267933
 20
0.0851066366326131
 10
0.2832572942616008
 20
0.0849439710512768
 10
0.2832979741447499
 20
0.0844559736150972
 10
0.2835013735604952
 20
0.0837239784990836
 10
0.2836234132099423
 20
0.0827886507142291
 10
0.2836234132099423
 20
0.0821379883888836
 10
0.2832166143784518
 20
0.0813246597900314
 10
0.2830132140490036
 20
0.0797386696798315
 10
0.2831759344953028
 20
0.0786406763136406
 10
0.2837454537730925
 20
0.0775426829474497
 10
0.2846810919992237
 20
0.0765666894594315
 10
0.2856167311390578
 20
0.0757126944652452
 10
0.2867557696946372
 20
0.075184031325902
  0
LWPOLYLINE
  5
3122
330
2
100
AcDbEntity
  8
Dimensione
 62
     2
100
AcDbPolyline
 90
        4
 70
     0
 43
0.0
 10
0.2822809752386176
 20
0.0765666894594315
 10
0.2830945747290046
 20
0.0766886886454338
 10
0.2834606936773461
 20
0.0768920206221042
 10
0.2840302129551358
 20
0.0770953525987747
  0
LWPOLYLINE
  5
3123
330
2
100
AcDbEntity
  8
Dimensione
 62
     2
100
AcDbPolyline
 90
        5
 70
     0
 43
0.0
 10
0.2822402953554686
 20
0.0753466969072384
 10
0.2829725341658546
 20
0.0755906952792429
 10
0.2835420534436443
 20
0.0758753600465816
 10
0.2839895330719868
 20
0.0762413576045884
 10
0.2843556529340312
 20
0.0767293550407679
  0
LWPOLYLINE
  5
3124
330
2
100
AcDbEntity
  8
Dimensione
 62
     2
100
AcDbPolyline
 90
        8
 70
     0
 43
0.0
 10
0.2826877749838111
 20
0.0796980032844973
 10
0.2826470951006621
 20
0.0808773294413564
 10
0.2826470951006621
 20
0.0814466589760337
 10
0.2828911743995563
 20
0.0818126572262109
 10
0.2831759344953028
 20
0.0823413203655541
 10
0.2832572942616008
 20
0.0830326490862337
 10
0.2832572942616008
 20
0.0836019793130813
 10
0.2831759344953028
 20
0.0840899760570904
  0
LWPOLYLINE
  5
3125
330
2
100
AcDbEntity
  8
Dimensione
 62
     2
100
AcDbPolyline
 90
        4
 70
     0
 43
0.0
 10
0.2830957598017427
 20
0.0848224176230119
 10
0.2828109997059963
 20
0.0850257502918528
 10
0.2824855606408039
 20
0.0851477494778551
 10
0.2821194407787595
 20
0.0851477494778551
  0
LWPOLYLINE
  5
3126
330
2
100
AcDbEntity
  8
Dimensione
 62
     2
100
AcDbPolyline
 90
        6
 70
     0
 43
0.0
 10
0.2867159779307645
 20
0.0760776302338586
 10
0.2856176192583342
 20
0.0764029613965313
 10
0.2848040206816501
 20
0.0770129580187131
 10
0.283949742221817
 20
0.0779076187160631
 10
0.2836243022429217
 20
0.0787616137102494
 10
0.2835022625934744
 20
0.0799002734717743
  0
LWPOLYLINE
  5
3127
330
2
100
AcDbEntity
  8
Dimensione
 62
     2
100
AcDbPolyline
 90
       25
 70
     0
 43
0.0
 10
0.2871218895566817
 20
0.0792100065404883
 10
0.287365968855576
 20
0.0798200024704996
 10
0.2875693691850242
 20
0.0804299984005109
 10
0.2874880094187261
 20
0.0811213278133609
 10
0.287406648738725
 20
0.0816499909527041
 10
0.2870812096735325
 20
0.0824226531562223
 10
0.2869591700240854
 20
0.0829919826908995
 10
0.2869591700240854
 20
0.0836426457084154
 10
0.2869591700240854
 20
0.0841713088477586
 10
0.287365968855576
 20
0.0845373070979358
 10
0.2885456872943045
 20
0.0850659702372789
 10
0.2892372462215413
 20
0.0851066366326131
 10
0.2899288060624812
 20
0.0851066366326131
 10
0.2902542451276736
 20
0.0849439710512768
 10
0.2902135652445246
 20
0.0844559736150972
 10
0.2900101658287793
 20
0.0837239784990836
 10
0.2898881261793322
 20
0.0827886507142291
 10
0.2898881261793322
 20
0.0821379883888836
 10
0.2902949250108227
 20
0.0813246597900314
 10
0.2904983253402709
 20
0.0797386696798315
 10
0.2903356048939717
 20
0.0786406763136406
 10
0.289766085616182
 20
0.0775426829474497
 10
0.2888304473900508
 20
0.0765666894594315
 10
0.2878948082502166
 20
0.0757126944652452
 10
0.2867557696946372
 20
0.075184031325902
  0
LWPOLYLINE
  5
3128
330
2
100
AcDbEntity
  8
Dimensione
 62
     2
100
AcDbPolyline
 90
        4
 70
     0
 43
0.0
 10
0.2912305641506569
 20
0.0765666894594315
 10
0.2904169646602698
 20
0.0766886886454338
 10
0.2900508457119283
 20
0.0768920206221042
 10
0.2894813264341386
 20
0.0770953525987747
  0
LWPOLYLINE
  5
3129
330
2
100
AcDbEntity
  8
Dimensione
 62
     2
100
AcDbPolyline
 90
        5
 70
     0
 43
0.0
 10
0.2912712440338059
 20
0.0753466969072384
 10
0.2905390052234199
 20
0.0755906952792429
 10
0.2899694859456302
 20
0.0758753600465816
 10
0.2895220063172876
 20
0.0762413576045884
 10
0.2891558864552433
 20
0.0767293550407679
  0
LWPOLYLINE
  5
312A
330
2
100
AcDbEntity
  8
Dimensione
 62
     2
100
AcDbPolyline
 90
        8
 70
     0
 43
0.0
 10
0.2908237644054633
 20
0.0796980032844973
 10
0.2908644442886124
 20
0.0808773294413564
 10
0.2908644442886124
 20
0.0814466589760337
 10
0.2906203649897181
 20
0.0818126572262109
 10
0.2903356048939717
 20
0.0823413203655541
 10
0.2902542451276736
 20
0.0830326490862337
 10
0.2902542451276736
 20
0.0836019793130813
 10
0.2903356048939717
 20
0.0840899760570904
  0
LWPOLYLINE
  5
312B
330
2
100
AcDbEntity
  8
Dimensione
 62
     2
100
AcDbPolyline
 90
        4
 70
     0
 43
0.0
 10
0.2904157795875317
 20
0.0848224176230119
 10
0.2907005396832781
 20
0.0850257502918528
 10
0.2910259787484706
 20
0.0851477494778551
 10
0.291392098610515
 20
0.0851477494778551
  0
LWPOLYLINE
  5
312C
330
2
100
AcDbEntity
  8
Dimensione
 62
     2
100
AcDbPolyline
 90
        6
 70
     0
 43
0.0
 10
0.2867955614585099
 20
0.0760776302338586
 10
0.2878939201309403
 20
0.0764029613965313
 10
0.2887075187076244
 20
0.0770129580187131
 10
0.2895617971674574
 20
0.0779076187160631
 10
0.2898872371463528
 20
0.0787616137102494
 10
0.2900092767958
 20
0.0799002734717743
  0
LWPOLYLINE
  5
312D
330
2
100
AcDbEntity
  8
Dimensione
 62
     2
100
AcDbPolyline
 90
       25
 70
     0
 43
0.0
 10
0.2952961878023038
 20
0.0792100065404883
 10
0.2950521085034095
 20
0.0798200024704996
 10
0.2948487081739613
 20
0.0804299984005109
 10
0.2949300679402595
 20
0.0811213278133609
 10
0.2950114286202605
 20
0.0816499909527041
 10
0.295336867685453
 20
0.0824226531562223
 10
0.2954589073349001
 20
0.0829919826908995
 10
0.2954589073349001
 20
0.0836426457084154
 10
0.2954589073349001
 20
0.0841713088477586
 10
0.2950521085034095
 20
0.0845373070979358
 10
0.293872390064681
 20
0.0850659702372789
 10
0.2931808311374442
 20
0.0851066366326131
 10
0.2924892712965044
 20
0.0851066366326131
 10
0.2921638322313119
 20
0.0849439710512768
 10
0.292204512114461
 20
0.0844559736150972
 10
0.2924079115302063
 20
0.0837239784990836
 10
0.2925299511796534
 20
0.0827886507142291
 10
0.2925299511796534
 20
0.0821379883888836
 10
0.2921231523481629
 20
0.0813246597900314
 10
0.2919197520187147
 20
0.0797386696798315
 10
0.2920824724650139
 20
0.0786406763136406
 10
0.2926519917428036
 20
0.0775426829474497
 10
0.2935876299689347
 20
0.0765666894594315
 10
0.2945232691087689
 20
0.0757126944652452
 10
0.2956623076643483
 20
0.075184031325902
  0
LWPOLYLINE
  5
312E
330
2
100
AcDbEntity
  8
Dimensione
 62
     2
100
AcDbPolyline
 90
        4
 70
     0
 43
0.0
 10
0.2911875132083287
 20
0.0765666894594315
 10
0.2920011126987157
 20
0.0766886886454338
 10
0.2923672316470572
 20
0.0768920206221042
 10
0.2929367509248469
 20
0.0770953525987747
  0
LWPOLYLINE
  5
312F
330
2
100
AcDbEntity
  8
Dimensione
 62
     2
100
AcDbPolyline
 90
        5
 70
     0
 43
0.0
 10
0.2911468333251796
 20
0.0753466969072384
 10
0.2918790721355657
 20
0.0755906952792429
 10
0.2924485914133553
 20
0.0758753600465816
 10
0.2928960710416979
 20
0.0762413576045884
 10
0.2932621909037423
 20
0.0767293550407679
  0
LWPOLYLINE
  5
3130
330
2
100
AcDbEntity
  8
Dimensione
 62
     2
100
AcDbPolyline
 90
        8
 70
     0
 43
0.0
 10
0.2915943129535222
 20
0.0796980032844973
 10
0.2915536330703732
 20
0.0808773294413564
 10
0.2915536330703732
 20
0.0814466589760337
 10
0.2917977123692674
 20
0.0818126572262109
 10
0.2920824724650139
 20
0.0823413203655541
 10
0.2921638322313119
 20
0.0830326490862337
 10
0.2921638322313119
 20
0.0836019793130813
 10
0.2920824724650139
 20
0.0840899760570904
  0
LWPOLYLINE
  5
3131
330
2
100
AcDbEntity
  8
Dimensione
 62
     2
100
AcDbPolyline
 90
        4
 70
     0
 43
0.0
 10
0.2920022977714538
 20
0.0848224176230119
 10
0.2917175376757074
 20
0.0850257502918528
 10
0.291392098610515
 20
0.0851477494778551
 10
0.2910259787484706
 20
0.0851477494778551
  0
LWPOLYLINE
  5
3132
330
2
100
AcDbEntity
  8
Dimensione
 62
     2
100
AcDbPolyline
 90
        6
 70
     0
 43
0.0
 10
0.2956225159004756
 20
0.0760776302338586
 10
0.2945241572280453
 20
0.0764029613965313
 10
0.2937105586513612
 20
0.0770129580187131
 10
0.2928562801915281
 20
0.0779076187160631
 10
0.2925308402126328
 20
0.0787616137102494
 10
0.2924088005631855
 20
0.0799002734717743
  0
LWPOLYLINE
  5
3133
330
2
100
AcDbEntity
  8
Dimensione
 62
     2
100
AcDbPolyline
 90
       25
 70
     0
 43
0.0
 10
0.2960284275263928
 20
0.0792100065404883
 10
0.2962725068252871
 20
0.0798200024704996
 10
0.2964759071547353
 20
0.0804299984005109
 10
0.2963945473884372
 20
0.0811213278133609
 10
0.2963131867084361
 20
0.0816499909527041
 10
0.2959877476432436
 20
0.0824226531562223
 10
0.2958657079937965
 20
0.0829919826908995
 10
0.2958657079937965
 20
0.0836426457084154
 10
0.2958657079937965
 20
0.0841713088477586
 10
0.2962725068252871
 20
0.0845373070979358
 10
0.2974522252640156
 20
0.0850659702372789
 10
0.2981437841912524
 20
0.0851066366326131
 10
0.2988353440321922
 20
0.0851066366326131
 10
0.2991607830973847
 20
0.0849439710512768
 10
0.2991201032142356
 20
0.0844559736150972
 10
0.2989167037984903
 20
0.0837239784990836
 10
0.2987946641490432
 20
0.0827886507142291
 10
0.2987946641490432
 20
0.0821379883888836
 10
0.2992014629805337
 20
0.0813246597900314
 10
0.2994048633099819
 20
0.0797386696798315
 10
0.2992421428636827
 20
0.0786406763136406
 10
0.2986726235858931
 20
0.0775426829474497
 10
0.2977369853597619
 20
0.0765666894594315
 10
0.2968013462199277
 20
0.0757126944652452
 10
0.2956623076643483
 20
0.075184031325902
  0
LWPOLYLINE
  5
3134
330
2
100
AcDbEntity
  8
Dimensione
 62
     2
100
AcDbPolyline
 90
        4
 70
     0
 43
0.0
 10
0.3001371021203679
 20
0.0765666894594315
 10
0.2993235026299809
 20
0.0766886886454338
 10
0.2989573836816394
 20
0.0768920206221042
 10
0.2983878644038497
 20
0.0770953525987747
  0
LWPOLYLINE
  5
3135
330
2
100
AcDbEntity
  8
Dimensione
 62
     2
100
AcDbPolyline
 90
        5
 70
     0
 43
0.0
 10
0.300177782003517
 20
0.0753466969072384
 10
0.299445543193131
 20
0.0755906952792429
 10
0.2988760239153413
 20
0.0758753600465816
 10
0.2984285442869987
 20
0.0762413576045884
 10
0.2980624244249543
 20
0.0767293550407679
  0
LWPOLYLINE
  5
3136
330
2
100
AcDbEntity
  8
Dimensione
 62
     2
100
AcDbPolyline
 90
        8
 70
     0
 43
0.0
 10
0.2997303023751744
 20
0.0796980032844973
 10
0.2997709822583234
 20
0.0808773294413564
 10
0.2997709822583234
 20
0.0814466589760337
 10
0.2995269029594292
 20
0.0818126572262109
 10
0.2992421428636827
 20
0.0823413203655541
 10
0.2991607830973847
 20
0.0830326490862337
 10
0.2991607830973847
 20
0.0836019793130813
 10
0.2992421428636827
 20
0.0840899760570904
  0
LWPOLYLINE
  5
3137
330
2
100
AcDbEntity
  8
Dimensione
 62
     2
100
AcDbPolyline
 90
        4
 70
     0
 43
0.0
 10
0.2993223175572428
 20
0.0848224176230119
 10
0.2996070776529892
 20
0.0850257502918528
 10
0.2999325167181817
 20
0.0851477494778551
 10
0.300298636580226
 20
0.0851477494778551
  0
LWPOLYLINE
  5
3138
330
2
100
AcDbEntity
  8
Dimensione
 62
     2
100
AcDbPolyline
 90
        6
 70
     0
 43
0.0
 10
0.295702099428221
 20
0.0760776302338586
 10
0.2968004581006514
 20
0.0764029613965313
 10
0.2976140566773354
 20
0.0770129580187131
 10
0.2984683351371685
 20
0.0779076187160631
 10
0.2987937751160639
 20
0.0787616137102494
 10
0.2989158147655111
 20
0.0799002734717743
  0
LWPOLYLINE
  5
3145
330
2
100
AcDbEntity
  8
Dimensione
 62
     2
100
AcDbPolyline
 90
       25
 70
     0
 43
0.0
 10
0.3042027257720149
 20
0.0792100065404883
 10
0.3039586464731206
 20
0.0798200024704996
 10
0.3037552461436724
 20
0.0804299984005109
 10
0.3038366059099705
 20
0.0811213278133609
 10
0.3039179665899716
 20
0.0816499909527041
 10
0.3042434056551641
 20
0.0824226531562223
 10
0.3043654453046112
 20
0.0829919826908995
 10
0.3043654453046112
 20
0.0836426457084154
 10
0.3043654453046112
 20
0.0841713088477586
 10
0.3039586464731206
 20
0.0845373070979358
 10
0.3027789280343921
 20
0.0850659702372789
 10
0.3020873691071553
 20
0.0851066366326131
 10
0.3013958092662154
 20
0.0851066366326131
 10
0.301070370201023
 20
0.0849439710512768
 10
0.301111050084172
 20
0.0844559736150972
 10
0.3013144494999174
 20
0.0837239784990836
 10
0.3014364891493645
 20
0.0827886507142291
 10
0.3014364891493645
 20
0.0821379883888836
 10
0.301029690317874
 20
0.0813246597900314
 10
0.3008262899884257
 20
0.0797386696798315
 10
0.3009890104347249
 20
0.0786406763136406
 10
0.3015585297125146
 20
0.0775426829474497
 10
0.3024941679386458
 20
0.0765666894594315
 10
0.30342980707848
 20
0.0757126944652452
 10
0.3045688456340594
 20
0.075184031325902
  0
LWPOLYLINE
  5
3146
330
2
100
AcDbEntity
  8
Dimensione
 62
     2
100
AcDbPolyline
 90
        4
 70
     0
 43
0.0
 10
0.3000940511780398
 20
0.0765666894594315
 10
0.3009076506684268
 20
0.0766886886454338
 10
0.3012737696167683
 20
0.0768920206221042
 10
0.301843288894558
 20
0.0770953525987747
  0
LWPOLYLINE
  5
3147
330
2
100
AcDbEntity
  8
Dimensione
 62
     2
100
AcDbPolyline
 90
        5
 70
     0
 43
0.0
 10
0.3000533712948907
 20
0.0753466969072384
 10
0.3007856101052767
 20
0.0755906952792429
 10
0.3013551293830664
 20
0.0758753600465816
 10
0.301802609011409
 20
0.0762413576045884
 10
0.3021687288734534
 20
0.0767293550407679
  0
LWPOLYLINE
  5
3148
330
2
100
AcDbEntity
  8
Dimensione
 62
     2
100
AcDbPolyline
 90
        8
 70
     0
 43
0.0
 10
0.3005008509232333
 20
0.0796980032844973
 10
0.3004601710400843
 20
0.0808773294413564
 10
0.3004601710400843
 20
0.0814466589760337
 10
0.3007042503389785
 20
0.0818126572262109
 10
0.3009890104347249
 20
0.0823413203655541
 10
0.301070370201023
 20
0.0830326490862337
 10
0.301070370201023
 20
0.0836019793130813
 10
0.3009890104347249
 20
0.0840899760570904
  0
LWPOLYLINE
  5
3149
330
2
100
AcDbEntity
  8
Dimensione
 62
     2
100
AcDbPolyline
 90
        4
 70
     0
 43
0.0
 10
0.3009088357411649
 20
0.0848224176230119
 10
0.3006240756454185
 20
0.0850257502918528
 10
0.300298636580226
 20
0.0851477494778551
 10
0.2999325167181817
 20
0.0851477494778551
  0
LWPOLYLINE
  5
314A
330
2
100
AcDbEntity
  8
Dimensione
 62
     2
100
AcDbPolyline
 90
        6
 70
     0
 43
0.0
 10
0.3045290538701867
 20
0.0760776302338586
 10
0.3034306951977563
 20
0.0764029613965313
 10
0.3026170966210723
 20
0.0770129580187131
 10
0.3017628181612392
 20
0.0779076187160631
 10
0.3014373781823438
 20
0.0787616137102494
 10
0.3013153385328966
 20
0.0799002734717743
  0
LWPOLYLINE
  5
314B
330
2
100
AcDbEntity
  8
Dimensione
 62
     2
100
AcDbPolyline
 90
       25
 70
     0
 43
0.0
 10
0.3049349654961039
 20
0.0792100065404883
 10
0.3051790447949981
 20
0.0798200024704996
 10
0.3053824451244464
 20
0.0804299984005109
 10
0.3053010853581482
 20
0.0811213278133609
 10
0.3052197246781472
 20
0.0816499909527041
 10
0.3048942856129547
 20
0.0824226531562223
 10
0.3047722459635076
 20
0.0829919826908995
 10
0.3047722459635076
 20
0.0836426457084154
 10
0.3047722459635076
 20
0.0841713088477586
 10
0.3051790447949981
 20
0.0845373070979358
 10
0.3063587632337267
 20
0.0850659702372789
 10
0.3070503221609635
 20
0.0851066366326131
 10
0.3077418820019033
 20
0.0851066366326131
 10
0.3080673210670958
 20
0.0849439710512768
 10
0.3080266411839467
 20
0.0844559736150972
 10
0.3078232417682014
 20
0.0837239784990836
 10
0.3077012021187543
 20
0.0827886507142291
 10
0.3077012021187543
 20
0.0821379883888836
 10
0.3081080009502448
 20
0.0813246597900314
 10
0.308311401279693
 20
0.0797386696798315
 10
0.3081486808333938
 20
0.0786406763136406
 10
0.3075791615556041
 20
0.0775426829474497
 10
0.306643523329473
 20
0.0765666894594315
 10
0.3057078841896388
 20
0.0757126944652452
 10
0.3045688456340594
 20
0.075184031325902
  0
LWPOLYLINE
  5
314C
330
2
100
AcDbEntity
  8
Dimensione
 62
     2
100
AcDbPolyline
 90
        4
 70
     0
 43
0.0
 10
0.309043640090079
 20
0.0765666894594315
 10
0.308230040599692
 20
0.0766886886454338
 10
0.3078639216513505
 20
0.0768920206221042
 10
0.3072944023735608
 20
0.0770953525987747
  0
LWPOLYLINE
  5
314D
330
2
100
AcDbEntity
  8
Dimensione
 62
     2
100
AcDbPolyline
 90
        5
 70
     0
 43
0.0
 10
0.309084319973228
 20
0.0753466969072384
 10
0.308352081162842
 20
0.0755906952792429
 10
0.3077825618850523
 20
0.0758753600465816
 10
0.3073350822567098
 20
0.0762413576045884
 10
0.3069689623946654
 20
0.0767293550407679
  0
LWPOLYLINE
  5
314E
330
2
100
AcDbEntity
  8
Dimensione
 62
     2
100
AcDbPolyline
 90
        8
 70
     0
 43
0.0
 10
0.3086368403448855
 20
0.0796980032844973
 10
0.3086775202280345
 20
0.0808773294413564
 10
0.3086775202280345
 20
0.0814466589760337
 10
0.3084334409291403
 20
0.0818126572262109
 10
0.3081486808333938
 20
0.0823413203655541
 10
0.3080673210670958
 20
0.0830326490862337
 10
0.3080673210670958
 20
0.0836019793130813
 10
0.3081486808333938
 20
0.0840899760570904
  0
LWPOLYLINE
  5
314F
330
2
100
AcDbEntity
  8
Dimensione
 62
     2
100
AcDbPolyline
 90
        4
 70
     0
 43
0.0
 10
0.3082288555269539
 20
0.0848224176230119
 10
0.3085136156227003
 20
0.0850257502918528
 10
0.3088390546878927
 20
0.0851477494778551
 10
0.3092051745499371
 20
0.0851477494778551
  0
LWPOLYLINE
  5
3150
330
2
100
AcDbEntity
  8
Dimensione
 62
     2
100
AcDbPolyline
 90
        6
 70
     0
 43
0.0
 10
0.3046086373979321
 20
0.0760776302338586
 10
0.3057069960703624
 20
0.0764029613965313
 10
0.3065205946470465
 20
0.0770129580187131
 10
0.3073748731068796
 20
0.0779076187160631
 10
0.3077003130857749
 20
0.0787616137102494
 10
0.3078223527352222
 20
0.0799002734717743
  0
LWPOLYLINE
  5
3151
330
2
100
AcDbEntity
  8
Dimensione
 62
     2
100
AcDbPolyline
 90
       25
 70
     0
 43
0.0
 10
0.3134753836037704
 20
0.0792100065404883
 10
0.3132313043048761
 20
0.0798200024704996
 10
0.3130279039754279
 20
0.0804299984005109
 10
0.313109263741726
 20
0.0811213278133609
 10
0.3131906244217271
 20
0.0816499909527041
 10
0.3135160634869195
 20
0.0824226531562223
 10
0.3136381031363666
 20
0.0829919826908995
 10
0.3136381031363666
 20
0.0836426457084154
 10
0.3136381031363666
 20
0.0841713088477586
 10
0.3132313043048761
 20
0.0845373070979358
 10
0.3120515858661475
 20
0.0850659702372789
 10
0.3113600269389107
 20
0.0851066366326131
 10
0.3106684670979709
 20
0.0851066366326131
 10
0.3103430280327784
 20
0.0849439710512768
 10
0.3103837079159275
 20
0.0844559736150972
 10
0.3105871073316728
 20
0.0837239784990836
 10
0.3107091469811199
 20
0.0827886507142291
 10
0.3107091469811199
 20
0.0821379883888836
 10
0.3103023481496294
 20
0.0813246597900314
 10
0.3100989478201812
 20
0.0797386696798315
 10
0.3102616682664804
 20
0.0786406763136406
 10
0.3108311875442701
 20
0.0775426829474497
 10
0.3117668257704013
 20
0.0765666894594315
 10
0.3127024649102355
 20
0.0757126944652452
 10
0.3138415034658148
 20
0.075184031325902
  0
LWPOLYLINE
  5
3152
330
2
100
AcDbEntity
  8
Dimensione
 62
     2
100
AcDbPolyline
 90
        4
 70
     0
 43
0.0
 10
0.3093667090097952
 20
0.0765666894594315
 10
0.3101803085001823
 20
0.0766886886454338
 10
0.3105464274485238
 20
0.0768920206221042
 10
0.3111159467263135
 20
0.0770953525987747
  0
LWPOLYLINE
  5
3153
330
2
100
AcDbEntity
  8
Dimensione
 62
     2
100
AcDbPolyline
 90
        5
 70
     0
 43
0.0
 10
0.3093260291266462
 20
0.0753466969072384
 10
0.3100582679370322
 20
0.0755906952792429
 10
0.3106277872148219
 20
0.0758753600465816
 10
0.3110752668431644
 20
0.0762413576045884
 10
0.3114413867052088
 20
0.0767293550407679
  0
LWPOLYLINE
  5
3154
330
2
100
AcDbEntity
  8
Dimensione
 62
     2
100
AcDbPolyline
 90
        8
 70
     0
 43
0.0
 10
0.3097735087549887
 20
0.0796980032844973
 10
0.3097328288718397
 20
0.0808773294413564
 10
0.3097328288718397
 20
0.0814466589760337
 10
0.309976908170734
 20
0.0818126572262109
 10
0.3102616682664804
 20
0.0823413203655541
 10
0.3103430280327784
 20
0.0830326490862337
 10
0.3103430280327784
 20
0.0836019793130813
 10
0.3102616682664804
 20
0.0840899760570904
  0
LWPOLYLINE
  5
3155
330
2
100
AcDbEntity
  8
Dimensione
 62
     2
100
AcDbPolyline
 90
        4
 70
     0
 43
0.0
 10
0.3101814935729203
 20
0.0848224176230119
 10
0.3098967334771739
 20
0.0850257502918528
 10
0.3095712944119815
 20
0.0851477494778551
 10
0.3092051745499371
 20
0.0851477494778551
  0
LWPOLYLINE
  5
3156
330
2
100
AcDbEntity
  8
Dimensione
 62
     2
100
AcDbPolyline
 90
        6
 70
     0
 43
0.0
 10
0.3138017117019421
 20
0.0760776302338586
 10
0.3127033530295118
 20
0.0764029613965313
 10
0.3118897544528277
 20
0.0770129580187131
 10
0.3110354759929947
 20
0.0779076187160631
 10
0.3107100360140993
 20
0.0787616137102494
 10
0.3105879963646521
 20
0.0799002734717743
  0
LWPOLYLINE
  5
3157
330
2
100
AcDbEntity
  8
Dimensione
 62
     2
100
AcDbPolyline
 90
       25
 70
     0
 43
0.0
 10
0.3142076233278593
 20
0.0792100065404883
 10
0.3144517026267536
 20
0.0798200024704996
 10
0.3146551029562018
 20
0.0804299984005109
 10
0.3145737431899037
 20
0.0811213278133609
 10
0.3144923825099026
 20
0.0816499909527041
 10
0.3141669434447102
 20
0.0824226531562223
 10
0.3140449037952631
 20
0.0829919826908995
 10
0.3140449037952631
 20
0.0836426457084154
 10
0.3140449037952631
 20
0.0841713088477586
 10
0.3144517026267536
 20
0.0845373070979358
 10
0.3156314210654822
 20
0.0850659702372789
 10
0.316322979992719
 20
0.0851066366326131
 10
0.3170145398336588
 20
0.0851066366326131
 10
0.3173399788988513
 20
0.0849439710512768
 10
0.3172992990157022
 20
0.0844559736150972
 10
0.3170958995999569
 20
0.0837239784990836
 10
0.3169738599505098
 20
0.0827886507142291
 10
0.3169738599505098
 20
0.0821379883888836
 10
0.3173806587820003
 20
0.0813246597900314
 10
0.3175840591114485
 20
0.0797386696798315
 10
0.3174213386651493
 20
0.0786406763136406
 10
0.3168518193873596
 20
0.0775426829474497
 10
0.3159161811612284
 20
0.0765666894594315
 10
0.3149805420213942
 20
0.0757126944652452
 10
0.3138415034658148
 20
0.075184031325902
  0
LWPOLYLINE
  5
3158
330
2
100
AcDbEntity
  8
Dimensione
 62
     2
100
AcDbPolyline
 90
        4
 70
     0
 43
0.0
 10
0.3183162979218345
 20
0.0765666894594315
 10
0.3175026984314474
 20
0.0766886886454338
 10
0.3171365794831059
 20
0.0768920206221042
 10
0.3165670602053162
 20
0.0770953525987747
  0
LWPOLYLINE
  5
3159
330
2
100
AcDbEntity
  8
Dimensione
 62
     2
100
AcDbPolyline
 90
        5
 70
     0
 43
0.0
 10
0.3183569778049835
 20
0.0753466969072384
 10
0.3176247389945975
 20
0.0755906952792429
 10
0.3170552197168078
 20
0.0758753600465816
 10
0.3166077400884653
 20
0.0762413576045884
 10
0.3162416202264209
 20
0.0767293550407679
  0
LWPOLYLINE
  5
315A
330
2
100
AcDbEntity
  8
Dimensione
 62
     2
100
AcDbPolyline
 90
        8
 70
     0
 43
0.0
 10
0.317909498176641
 20
0.0796980032844973
 10
0.31795017805979
 20
0.0808773294413564
 10
0.31795017805979
 20
0.0814466589760337
 10
0.3177060987608957
 20
0.0818126572262109
 10
0.3174213386651493
 20
0.0823413203655541
 10
0.3173399788988513
 20
0.0830326490862337
 10
0.3173399788988513
 20
0.0836019793130813
 10
0.3174213386651493
 20
0.0840899760570904
  0
LWPOLYLINE
  5
315B
330
2
100
AcDbEntity
  8
Dimensione
 62
     2
100
AcDbPolyline
 90
        4
 70
     0
 43
0.0
 10
0.3175015133587093
 20
0.0848224176230119
 10
0.3177862734544558
 20
0.0850257502918528
 10
0.3181117125196482
 20
0.0851477494778551
 10
0.3184778323816926
 20
0.0851477494778551
  0
LWPOLYLINE
  5
315C
330
2
100
AcDbEntity
  8
Dimensione
 62
     2
100
AcDbPolyline
 90
        6
 70
     0
 43
0.0
 10
0.3138812952296876
 20
0.0760776302338586
 10
0.3149796539021179
 20
0.0764029613965313
 10
0.315793252478802
 20
0.0770129580187131
 10
0.316647530938635
 20
0.0779076187160631
 10
0.3169729709175304
 20
0.0787616137102494
 10
0.3170950105669776
 20
0.0799002734717743
  0
LWPOLYLINE
  5
315D
330
2
100
AcDbEntity
  8
Dimensione
 62
     2
100
AcDbPolyline
 90
       25
 70
     0
 43
0.0
 10
0.3227480414355258
 20
0.0792100065404883
 10
0.3225039621366315
 20
0.0798200024704996
 10
0.3223005618071833
 20
0.0804299984005109
 10
0.3223819215734815
 20
0.0811213278133609
 10
0.3224632822534825
 20
0.0816499909527041
 10
0.322788721318675
 20
0.0824226531562223
 10
0.3229107609681221
 20
0.0829919826908995
 10
0.3229107609681221
 20
0.0836426457084154
 10
0.3229107609681221
 20
0.0841713088477586
 10
0.3225039621366315
 20
0.0845373070979358
 10
0.321324243697903
 20
0.0850659702372789
 10
0.3206326847706662
 20
0.0851066366326131
 10
0.3199411249297264
 20
0.0851066366326131
 10
0.3196156858645339
 20
0.0849439710512768
 10
0.319656365747683
 20
0.0844559736150972
 10
0.3198597651634283
 20
0.0837239784990836
 10
0.3199818048128754
 20
0.0827886507142291
 10
0.3199818048128754
 20
0.0821379883888836
 10
0.3195750059813849
 20
0.0813246597900314
 10
0.3193716056519367
 20
0.0797386696798315
 10
0.3195343260982359
 20
0.0786406763136406
 10
0.3201038453760256
 20
0.0775426829474497
 10
0.3210394836021567
 20
0.0765666894594315
 10
0.3219751227419909
 20
0.0757126944652452
 10
0.3231141612975703
 20
0.075184031325902
  0
LWPOLYLINE
  5
315E
330
2
100
AcDbEntity
  8
Dimensione
 62
     2
100
AcDbPolyline
 90
        4
 70
     0
 43
0.0
 10
0.3186393668415507
 20
0.0765666894594315
 10
0.3194529663319377
 20
0.0766886886454338
 10
0.3198190852802792
 20
0.0768920206221042
 10
0.3203886045580689
 20
0.0770953525987747
  0
LWPOLYLINE
  5
315F
330
2
100
AcDbEntity
  8
Dimensione
 62
     2
100
AcDbPolyline
 90
        5
 70
     0
 43
0.0
 10
0.3185986869584017
 20
0.0753466969072384
 10
0.3193309257687876
 20
0.0755906952792429
 10
0.3199004450465773
 20
0.0758753600465816
 10
0.3203479246749199
 20
0.0762413576045884
 10
0.3207140445369643
 20
0.0767293550407679
  0
LWPOLYLINE
  5
3160
330
2
100
AcDbEntity
  8
Dimensione
 62
     2
100
AcDbPolyline
 90
        8
 70
     0
 43
0.0
 10
0.3190461665867442
 20
0.0796980032844973
 10
0.3190054867035952
 20
0.0808773294413564
 10
0.3190054867035952
 20
0.0814466589760337
 10
0.3192495660024894
 20
0.0818126572262109
 10
0.3195343260982359
 20
0.0823413203655541
 10
0.3196156858645339
 20
0.0830326490862337
 10
0.3196156858645339
 20
0.0836019793130813
 10
0.3195343260982359
 20
0.0840899760570904
  0
LWPOLYLINE
  5
3161
330
2
100
AcDbEntity
  8
Dimensione
 62
     2
100
AcDbPolyline
 90
        4
 70
     0
 43
0.0
 10
0.3194541514046758
 20
0.0848224176230119
 10
0.3191693913089294
 20
0.0850257502918528
 10
0.318843952243737
 20
0.0851477494778551
 10
0.3184778323816926
 20
0.0851477494778551
  0
LWPOLYLINE
  5
3162
330
2
100
AcDbEntity
  8
Dimensione
 62
     2
100
AcDbPolyline
 90
        6
 70
     0
 43
0.0
 10
0.3230743695336976
 20
0.0760776302338586
 10
0.3219760108612673
 20
0.0764029613965313
 10
0.3211624122845832
 20
0.0770129580187131
 10
0.3203081338247501
 20
0.0779076187160631
 10
0.3199826938458548
 20
0.0787616137102494
 10
0.3198606541964075
 20
0.0799002734717743
  0
LWPOLYLINE
  5
3163
330
2
100
AcDbEntity
  8
Dimensione
 62
     2
100
AcDbPolyline
 90
       25
 70
     0
 43
0.0
 10
0.3234802811596148
 20
0.0792100065404883
 10
0.3237243604585091
 20
0.0798200024704996
 10
0.3239277607879573
 20
0.0804299984005109
 10
0.3238464010216592
 20
0.0811213278133609
 10
0.3237650403416581
 20
0.0816499909527041
 10
0.3234396012764656
 20
0.0824226531562223
 10
0.3233175616270185
 20
0.0829919826908995
 10
0.3233175616270185
 20
0.0836426457084154
 10
0.3233175616270185
 20
0.0841713088477586
 10
0.3237243604585091
 20
0.0845373070979358
 10
0.3249040788972376
 20
0.0850659702372789
 10
0.3255956378244744
 20
0.0851066366326131
 10
0.3262871976654142
 20
0.0851066366326131
 10
0.3266126367306067
 20
0.0849439710512768
 10
0.3265719568474577
 20
0.0844559736150972
 10
0.3263685574317123
 20
0.0837239784990836
 10
0.3262465177822652
 20
0.0827886507142291
 10
0.3262465177822652
 20
0.0821379883888836
 10
0.3266533166137557
 20
0.0813246597900314
 10
0.3268567169432039
 20
0.0797386696798315
 10
0.3266939964969048
 20
0.0786406763136406
 10
0.3261244772191151
 20
0.0775426829474497
 10
0.3251888389929839
 20
0.0765666894594315
 10
0.3242531998531497
 20
0.0757126944652452
 10
0.3231141612975703
 20
0.075184031325902
  0
LWPOLYLINE
  5
3164
330
2
100
AcDbEntity
  8
Dimensione
 62
     2
100
AcDbPolyline
 90
        4
 70
     0
 43
0.0
 10
0.3275889557535899
 20
0.0765666894594315
 10
0.3267753562632029
 20
0.0766886886454338
 10
0.3264092373148614
 20
0.0768920206221042
 10
0.3258397180370717
 20
0.0770953525987747
  0
LWPOLYLINE
  5
3165
330
2
100
AcDbEntity
  8
Dimensione
 62
     2
100
AcDbPolyline
 90
        5
 70
     0
 43
0.0
 10
0.327629635636739
 20
0.0753466969072384
 10
0.326897396826353
 20
0.0755906952792429
 10
0.3263278775485633
 20
0.0758753600465816
 10
0.3258803979202207
 20
0.0762413576045884
 10
0.3255142780581763
 20
0.0767293550407679
  0
LWPOLYLINE
  5
3166
330
2
100
AcDbEntity
  8
Dimensione
 62
     2
100
AcDbPolyline
 90
        8
 70
     0
 43
0.0
 10
0.3271821560083964
 20
0.0796980032844973
 10
0.3272228358915454
 20
0.0808773294413564
 10
0.3272228358915454
 20
0.0814466589760337
 10
0.3269787565926512
 20
0.0818126572262109
 10
0.3266939964969048
 20
0.0823413203655541
 10
0.3266126367306067
 20
0.0830326490862337
 10
0.3266126367306067
 20
0.0836019793130813
 10
0.3266939964969048
 20
0.0840899760570904
  0
LWPOLYLINE
  5
3167
330
2
100
AcDbEntity
  8
Dimensione
 62
     2
100
AcDbPolyline
 90
        4
 70
     0
 43
0.0
 10
0.3267741711904648
 20
0.0848224176230119
 10
0.3270589312862112
 20
0.0850257502918528
 10
0.3273843703514037
 20
0.0851477494778551
 10
0.327750490213448
 20
0.0851477494778551
  0
LWPOLYLINE
  5
3168
330
2
100
AcDbEntity
  8
Dimensione
 62
     2
100
AcDbPolyline
 90
        6
 70
     0
 43
0.0
 10
0.323153953061443
 20
0.0760776302338586
 10
0.3242523117338734
 20
0.0764029613965313
 10
0.3250659103105574
 20
0.0770129580187131
 10
0.3259201887703905
 20
0.0779076187160631
 10
0.3262456287492859
 20
0.0787616137102494
 10
0.3263676683987331
 20
0.0799002734717743
  0
LWPOLYLINE
  5
3169
330
2
100
AcDbEntity
  8
Dimensione
 62
     2
100
AcDbPolyline
 90
       25
 70
     0
 43
0.0
 10
0.3320206992672813
 20
0.0792100065404883
 10
0.331776619968387
 20
0.0798200024704996
 10
0.3315732196389388
 20
0.0804299984005109
 10
0.3316545794052369
 20
0.0811213278133609
 10
0.331735940085238
 20
0.0816499909527041
 10
0.3320613791504305
 20
0.0824226531562223
 10
0.3321834187998776
 20
0.0829919826908995
 10
0.3321834187998776
 20
0.0836426457084154
 10
0.3321834187998776
 20
0.0841713088477586
 10
0.331776619968387
 20
0.0845373070979358
 10
0.3305969015296585
 20
0.0850659702372789
 10
0.3299053426024217
 20
0.0851066366326131
 10
0.3292137827614818
 20
0.0851066366326131
 10
0.3288883436962894
 20
0.0849439710512768
 10
0.3289290235794384
 20
0.0844559736150972
 10
0.3291324229951837
 20
0.0837239784990836
 10
0.3292544626446308
 20
0.0827886507142291
 10
0.3292544626446308
 20
0.0821379883888836
 10
0.3288476638131403
 20
0.0813246597900314
 10
0.3286442634836921
 20
0.0797386696798315
 10
0.3288069839299913
 20
0.0786406763136406
 10
0.329376503207781
 20
0.0775426829474497
 10
0.3303121414339122
 20
0.0765666894594315
 10
0.3312477805737464
 20
0.0757126944652452
 10
0.3323868191293258
 20
0.075184031325902
  0
LWPOLYLINE
  5
316A
330
2
100
AcDbEntity
  8
Dimensione
 62
     2
100
AcDbPolyline
 90
        4
 70
     0
 43
0.0
 10
0.3279120246733061
 20
0.0765666894594315
 10
0.3287256241636932
 20
0.0766886886454338
 10
0.3290917431120347
 20
0.0768920206221042
 10
0.3296612623898244
 20
0.0770953525987747
  0
LWPOLYLINE
  5
316B
330
2
100
AcDbEntity
  8
Dimensione
 62
     2
100
AcDbPolyline
 90
        5
 70
     0
 43
0.0
 10
0.3278713447901571
 20
0.0753466969072384
 10
0.3286035836005431
 20
0.0755906952792429
 10
0.3291731028783328
 20
0.0758753600465816
 10
0.3296205825066754
 20
0.0762413576045884
 10
0.3299867023687197
 20
0.0767293550407679
  0
LWPOLYLINE
  5
316C
330
2
100
AcDbEntity
  8
Dimensione
 62
     2
100
AcDbPolyline
 90
        8
 70
     0
 43
0.0
 10
0.3283188244184997
 20
0.0796980032844973
 10
0.3282781445353506
 20
0.0808773294413564
 10
0.3282781445353506
 20
0.0814466589760337
 10
0.3285222238342449
 20
0.0818126572262109
 10
0.3288069839299913
 20
0.0823413203655541
 10
0.3288883436962894
 20
0.0830326490862337
 10
0.3288883436962894
 20
0.0836019793130813
 10
0.3288069839299913
 20
0.0840899760570904
  0
LWPOLYLINE
  5
316D
330
2
100
AcDbEntity
  8
Dimensione
 62
     2
100
AcDbPolyline
 90
        4
 70
     0
 43
0.0
 10
0.3287268092364313
 20
0.0848224176230119
 10
0.3284420491406848
 20
0.0850257502918528
 10
0.3281166100754924
 20
0.0851477494778551
 10
0.327750490213448
 20
0.0851477494778551
  0
LWPOLYLINE
  5
316E
330
2
100
AcDbEntity
  8
Dimensione
 62
     2
100
AcDbPolyline
 90
        6
 70
     0
 43
0.0
 10
0.332347027365453
 20
0.0760776302338586
 10
0.3312486686930227
 20
0.0764029613965313
 10
0.3304350701163386
 20
0.0770129580187131
 10
0.3295807916565056
 20
0.0779076187160631
 10
0.3292553516776102
 20
0.0787616137102494
 10
0.329133312028163
 20
0.0799002734717743
  0
LWPOLYLINE
  5
316F
330
2
100
AcDbEntity
  8
Dimensione
 62
     2
100
AcDbPolyline
 90
       25
 70
     0
 43
0.0
 10
0.3327529389913702
 20
0.0792100065404883
 10
0.3329970182902645
 20
0.0798200024704996
 10
0.3332004186197127
 20
0.0804299984005109
 10
0.3331190588534146
 20
0.0811213278133609
 10
0.3330376981734135
 20
0.0816499909527041
 10
0.3327122591082211
 20
0.0824226531562223
 10
0.332590219458774
 20
0.0829919826908995
 10
0.332590219458774
 20
0.0836426457084154
 10
0.332590219458774
 20
0.0841713088477586
 10
0.3329970182902645
 20
0.0845373070979358
 10
0.3341767367289931
 20
0.0850659702372789
 10
0.3348682956562299
 20
0.0851066366326131
 10
0.3355598554971697
 20
0.0851066366326131
 10
0.3358852945623622
 20
0.0849439710512768
 10
0.3358446146792131
 20
0.0844559736150972
 10
0.3356412152634678
 20
0.0837239784990836
 10
0.3355191756140207
 20
0.0827886507142291
 10
0.3355191756140207
 20
0.0821379883888836
 10
0.3359259744455112
 20
0.0813246597900314
 10
0.3361293747749594
 20
0.0797386696798315
 10
0.3359666543286602
 20
0.0786406763136406
 10
0.3353971350508705
 20
0.0775426829474497
 10
0.3344614968247393
 20
0.0765666894594315
 10
0.3335258576849052
 20
0.0757126944652452
 10
0.3323868191293258
 20
0.075184031325902
  0
LWPOLYLINE
  5
3170
330
2
100
AcDbEntity
  8
Dimensione
 62
     2
100
AcDbPolyline
 90
        4
 70
     0
 43
0.0
 10
0.3368616135853454
 20
0.0765666894594315
 10
0.3360480140949583
 20
0.0766886886454338
 10
0.3356818951466169
 20
0.0768920206221042
 10
0.3351123758688272
 20
0.0770953525987747
  0
LWPOLYLINE
  5
3171
330
2
100
AcDbEntity
  8
Dimensione
 62
     2
100
AcDbPolyline
 90
        5
 70
     0
 43
0.0
 10
0.3369022934684944
 20
0.0753466969072384
 10
0.3361700546581084
 20
0.0755906952792429
 10
0.3356005353803187
 20
0.0758753600465816
 10
0.3351530557519762
 20
0.0762413576045884
 10
0.3347869358899318
 20
0.0767293550407679
  0
LWPOLYLINE
  5
3172
330
2
100
AcDbEntity
  8
Dimensione
 62
     2
100
AcDbPolyline
 90
        8
 70
     0
 43
0.0
 10
0.3364548138401519
 20
0.0796980032844973
 10
0.3364954937233009
 20
0.0808773294413564
 10
0.3364954937233009
 20
0.0814466589760337
 10
0.3362514144244066
 20
0.0818126572262109
 10
0.3359666543286602
 20
0.0823413203655541
 10
0.3358852945623622
 20
0.0830326490862337
 10
0.3358852945623622
 20
0.0836019793130813
 10
0.3359666543286602
 20
0.0840899760570904
  0
LWPOLYLINE
  5
3173
330
2
100
AcDbEntity
  8
Dimensione
 62
     2
100
AcDbPolyline
 90
        4
 70
     0
 43
0.0
 10
0.3360468290222203
 20
0.0848224176230119
 10
0.3363315891179667
 20
0.0850257502918528
 10
0.3366570281831591
 20
0.0851477494778551
 10
0.3370231480452035
 20
0.0851477494778551
  0
LWPOLYLINE
  5
3174
330
2
100
AcDbEntity
  8
Dimensione
 62
     2
100
AcDbPolyline
 90
        6
 70
     0
 43
0.0
 10
0.3324266108931985
 20
0.0760776302338586
 10
0.3335249695656288
 20
0.0764029613965313
 10
0.3343385681423129
 20
0.0770129580187131
 10
0.335192846602146
 20
0.0779076187160631
 10
0.3355182865810413
 20
0.0787616137102494
 10
0.3356403262304886
 20
0.0799002734717743
  0
LWPOLYLINE
  5
3175
330
2
100
AcDbEntity
  8
Dimensione
 62
     2
100
AcDbPolyline
 90
       25
 70
     0
 43
0.0
 10
0.3412933570990368
 20
0.0792100065404883
 10
0.3410492778001425
 20
0.0798200024704996
 10
0.3408458774706943
 20
0.0804299984005109
 10
0.3409272372369924
 20
0.0811213278133609
 10
0.3410085979169934
 20
0.0816499909527041
 10
0.3413340369821859
 20
0.0824226531562223
 10
0.341456076631633
 20
0.0829919826908995
 10
0.341456076631633
 20
0.0836426457084154
 10
0.341456076631633
 20
0.0841713088477586
 10
0.3410492778001425
 20
0.0845373070979358
 10
0.3398695593614139
 20
0.0850659702372789
 10
0.3391780004341771
 20
0.0851066366326131
 10
0.3384864405932373
 20
0.0851066366326131
 10
0.3381610015280448
 20
0.0849439710512768
 10
0.3382016814111939
 20
0.0844559736150972
 10
0.3384050808269392
 20
0.0837239784990836
 10
0.3385271204763863
 20
0.0827886507142291
 10
0.3385271204763863
 20
0.0821379883888836
 10
0.3381203216448958
 20
0.0813246597900314
 10
0.3379169213154476
 20
0.0797386696798315
 10
0.3380796417617468
 20
0.0786406763136406
 10
0.3386491610395365
 20
0.0775426829474497
 10
0.3395847992656677
 20
0.0765666894594315
 10
0.3405204384055018
 20
0.0757126944652452
 10
0.3416594769610812
 20
0.075184031325902
  0
LWPOLYLINE
  5
3176
330
2
100
AcDbEntity
  8
Dimensione
 62
     2
100
AcDbPolyline
 90
        4
 70
     0
 43
0.0
 10
0.3371846825050616
 20
0.0765666894594315
 10
0.3379982819954487
 20
0.0766886886454338
 10
0.3383644009437901
 20
0.0768920206221042
 10
0.3389339202215798
 20
0.0770953525987747
  0
LWPOLYLINE
  5
3177
330
2
100
AcDbEntity
  8
Dimensione
 62
     2
100
AcDbPolyline
 90
        5
 70
     0
 43
0.0
 10
0.3371440026219126
 20
0.0753466969072384
 10
0.3378762414322986
 20
0.0755906952792429
 10
0.3384457607100883
 20
0.0758753600465816
 10
0.3388932403384308
 20
0.0762413576045884
 10
0.3392593602004752
 20
0.0767293550407679
  0
LWPOLYLINE
  5
3178
330
2
100
AcDbEntity
  8
Dimensione
 62
     2
100
AcDbPolyline
 90
        8
 70
     0
 43
0.0
 10
0.3375914822502551
 20
0.0796980032844973
 10
0.3375508023671061
 20
0.0808773294413564
 10
0.3375508023671061
 20
0.0814466589760337
 10
0.3377948816660004
 20
0.0818126572262109
 10
0.3380796417617468
 20
0.0823413203655541
 10
0.3381610015280448
 20
0.0830326490862337
 10
0.3381610015280448
 20
0.0836019793130813
 10
0.3380796417617468
 20
0.0840899760570904
  0
LWPOLYLINE
  5
3179
330
2
100
AcDbEntity
  8
Dimensione
 62
     2
100
AcDbPolyline
 90
        4
 70
     0
 43
0.0
 10
0.3379994670681867
 20
0.0848224176230119
 10
0.3377147069724403
 20
0.0850257502918528
 10
0.3373892679072479
 20
0.0851477494778551
 10
0.3370231480452035
 20
0.0851477494778551
  0
LWPOLYLINE
  5
317A
330
2
100
AcDbEntity
  8
Dimensione
 62
     2
100
AcDbPolyline
 90
        6
 70
     0
 43
0.0
 10
0.3416196851972085
 20
0.0760776302338586
 10
0.3405213265247782
 20
0.0764029613965313
 10
0.3397077279480941
 20
0.0770129580187131
 10
0.338853449488261
 20
0.0779076187160631
 10
0.3385280095093657
 20
0.0787616137102494
 10
0.3384059698599184
 20
0.0799002734717743
  0
LWPOLYLINE
  5
317B
330
2
100
AcDbEntity
  8
Dimensione
 62
     2
100
AcDbPolyline
 90
       25
 70
     0
 43
0.0
 10
0.3420255968231257
 20
0.0792100065404883
 10
0.34226967612202
 20
0.0798200024704996
 10
0.3424730764514682
 20
0.0804299984005109
 10
0.3423917166851701
 20
0.0811213278133609
 10
0.342310356005169
 20
0.0816499909527041
 10
0.3419849169399765
 20
0.0824226531562223
 10
0.3418628772905294
 20
0.0829919826908995
 10
0.3418628772905294
 20
0.0836426457084154
 10
0.3418628772905294
 20
0.0841713088477586
 10
0.34226967612202
 20
0.0845373070979358
 10
0.3434493945607485
 20
0.0850659702372789
 10
0.3441409534879853
 20
0.0851066366326131
 10
0.3448325133289252
 20
0.0851066366326131
 10
0.3451579523941176
 20
0.0849439710512768
 10
0.3451172725109686
 20
0.0844559736150972
 10
0.3449138730952233
 20
0.0837239784990836
 10
0.3447918334457761
 20
0.0827886507142291
 10
0.3447918334457761
 20
0.0821379883888836
 10
0.3451986322772667
 20
0.0813246597900314
 10
0.3454020326067149
 20
0.0797386696798315
 10
0.3452393121604157
 20
0.0786406763136406
 10
0.344669792882626
 20
0.0775426829474497
 10
0.3437341546564948
 20
0.0765666894594315
 10
0.3427985155166606
 20
0.0757126944652452
 10
0.3416594769610812
 20
0.075184031325902
  0
LWPOLYLINE
  5
317C
330
2
100
AcDbEntity
  8
Dimensione
 62
     2
100
AcDbPolyline
 90
        4
 70
     0
 43
0.0
 10
0.3461342714171009
 20
0.0765666894594315
 10
0.3453206719267138
 20
0.0766886886454338
 10
0.3449545529783723
 20
0.0768920206221042
 10
0.3443850337005826
 20
0.0770953525987747
  0
LWPOLYLINE
  5
317D
330
2
100
AcDbEntity
  8
Dimensione
 62
     2
100
AcDbPolyline
 90
        5
 70
     0
 43
0.0
 10
0.3461749513002499
 20
0.0753466969072384
 10
0.3454427124898639
 20
0.0755906952792429
 10
0.3448731932120742
 20
0.0758753600465816
 10
0.3444257135837316
 20
0.0762413576045884
 10
0.3440595937216873
 20
0.0767293550407679
  0
LWPOLYLINE
  5
317E
330
2
100
AcDbEntity
  8
Dimensione
 62
     2
100
AcDbPolyline
 90
        8
 70
     0
 43
0.0
 10
0.3457274716719073
 20
0.0796980032844973
 10
0.3457681515550564
 20
0.0808773294413564
 10
0.3457681515550564
 20
0.0814466589760337
 10
0.3455240722561621
 20
0.0818126572262109
 10
0.3452393121604157
 20
0.0823413203655541
 10
0.3451579523941176
 20
0.0830326490862337
 10
0.3451579523941176
 20
0.0836019793130813
 10
0.3452393121604157
 20
0.0840899760570904
  0
LWPOLYLINE
  5
317F
330
2
100
AcDbEntity
  8
Dimensione
 62
     2
100
AcDbPolyline
 90
        4
 70
     0
 43
0.0
 10
0.3453194868539757
 20
0.0848224176230119
 10
0.3456042469497222
 20
0.0850257502918528
 10
0.3459296860149146
 20
0.0851477494778551
 10
0.346295805876959
 20
0.0851477494778551
  0
LWPOLYLINE
  5
3180
330
2
100
AcDbEntity
  8
Dimensione
 62
     2
100
AcDbPolyline
 90
        6
 70
     0
 43
0.0
 10
0.3416992687249539
 20
0.0760776302338586
 10
0.3427976273973843
 20
0.0764029613965313
 10
0.3436112259740684
 20
0.0770129580187131
 10
0.3444655044339014
 20
0.0779076187160631
 10
0.3447909444127968
 20
0.0787616137102494
 10
0.344912984062244
 20
0.0799002734717743
  0
LWPOLYLINE
  5
3181
330
2
100
AcDbEntity
  8
Dimensione
 62
     2
100
AcDbPolyline
 90
       25
 70
     0
 43
0.0
 10
0.3505660149307922
 20
0.0792100065404883
 10
0.3503219356318979
 20
0.0798200024704996
 10
0.3501185353024497
 20
0.0804299984005109
 10
0.3501998950687478
 20
0.0811213278133609
 10
0.3502812557487489
 20
0.0816499909527041
 10
0.3506066948139414
 20
0.0824226531562223
 10
0.3507287344633885
 20
0.0829919826908995
 10
0.3507287344633885
 20
0.0836426457084154
 10
0.3507287344633885
 20
0.0841713088477586
 10
0.3503219356318979
 20
0.0845373070979358
 10
0.3491422171931694
 20
0.0850659702372789
 10
0.3484506582659326
 20
0.0851066366326131
 10
0.3477590984249927
 20
0.0851066366326131
 10
0.3474336593598003
 20
0.0849439710512768
 10
0.3474743392429493
 20
0.0844559736150972
 10
0.3476777386586947
 20
0.0837239784990836
 10
0.3477997783081418
 20
0.0827886507142291
 10
0.3477997783081418
 20
0.0821379883888836
 10
0.3473929794766513
 20
0.0813246597900314
 10
0.347189579147203
 20
0.0797386696798315
 10
0.3473522995935022
 20
0.0786406763136406
 10
0.3479218188712919
 20
0.0775426829474497
 10
0.3488574570974231
 20
0.0765666894594315
 10
0.3497930962372573
 20
0.0757126944652452
 10
0.3509321347928367
 20
0.075184031325902
  0
LWPOLYLINE
  5
3182
330
2
100
AcDbEntity
  8
Dimensione
 62
     2
100
AcDbPolyline
 90
        4
 70
     0
 43
0.0
 10
0.346457340336817
 20
0.0765666894594315
 10
0.3472709398272041
 20
0.0766886886454338
 10
0.3476370587755456
 20
0.0768920206221042
 10
0.3482065780533353
 20
0.0770953525987747
  0
LWPOLYLINE
  5
3183
330
2
100
AcDbEntity
  8
Dimensione
 62
     2
100
AcDbPolyline
 90
        5
 70
     0
 43
0.0
 10
0.346416660453668
 20
0.0753466969072384
 10
0.347148899264054
 20
0.0755906952792429
 10
0.3477184185418437
 20
0.0758753600465816
 10
0.3481658981701863
 20
0.0762413576045884
 10
0.3485320180322307
 20
0.0767293550407679
  0
LWPOLYLINE
  5
3184
330
2
100
AcDbEntity
  8
Dimensione
 62
     2
100
AcDbPolyline
 90
        8
 70
     0
 43
0.0
 10
0.3468641400820106
 20
0.0796980032844973
 10
0.3468234601988616
 20
0.0808773294413564
 10
0.3468234601988616
 20
0.0814466589760337
 10
0.3470675394977558
 20
0.0818126572262109
 10
0.3473522995935022
 20
0.0823413203655541
 10
0.3474336593598003
 20
0.0830326490862337
 10
0.3474336593598003
 20
0.0836019793130813
 10
0.3473522995935022
 20
0.0840899760570904
  0
LWPOLYLINE
  5
3185
330
2
100
AcDbEntity
  8
Dimensione
 62
     2
100
AcDbPolyline
 90
        4
 70
     0
 43
0.0
 10
0.3472721248999422
 20
0.0848224176230119
 10
0.3469873648041958
 20
0.0850257502918528
 10
0.3466619257390033
 20
0.0851477494778551
 10
0.346295805876959
 20
0.0851477494778551
  0
LWPOLYLINE
  5
3186
330
2
100
AcDbEntity
  8
Dimensione
 62
     2
100
AcDbPolyline
 90
        6
 70
     0
 43
0.0
 10
0.350892343028964
 20
0.0760776302338586
 10
0.3497939843565336
 20
0.0764029613965313
 10
0.3489803857798496
 20
0.0770129580187131
 10
0.3481261073200165
 20
0.0779076187160631
 10
0.3478006673411211
 20
0.0787616137102494
 10
0.3476786276916739
 20
0.0799002734717743
  0
LWPOLYLINE
  5
3187
330
2
100
AcDbEntity
  8
Dimensione
 62
     2
100
AcDbPolyline
 90
       25
 70
     0
 43
0.0
 10
0.3512982546548812
 20
0.0792100065404883
 10
0.3515423339537754
 20
0.0798200024704996
 10
0.3517457342832237
 20
0.0804299984005109
 10
0.3516643745169255
 20
0.0811213278133609
 10
0.3515830138369245
 20
0.0816499909527041
 10
0.351257574771732
 20
0.0824226531562223
 10
0.3511355351222849
 20
0.0829919826908995
 10
0.3511355351222849
 20
0.0836426457084154
 10
0.3511355351222849
 20
0.0841713088477586
 10
0.3515423339537754
 20
0.0845373070979358
 10
0.352722052392504
 20
0.0850659702372789
 10
0.3534136113197408
 20
0.0851066366326131
 10
0.3541051711606806
 20
0.0851066366326131
 10
0.3544306102258731
 20
0.0849439710512768
 10
0.354389930342724
 20
0.0844559736150972
 10
0.3541865309269787
 20
0.0837239784990836
 10
0.3540644912775316
 20
0.0827886507142291
 10
0.3540644912775316
 20
0.0821379883888836
 10
0.3544712901090221
 20
0.0813246597900314
 10
0.3546746904384703
 20
0.0797386696798315
 10
0.3545119699921711
 20
0.0786406763136406
 10
0.3539424507143814
 20
0.0775426829474497
 10
0.3530068124882502
 20
0.0765666894594315
 10
0.3520711733484161
 20
0.0757126944652452
 10
0.3509321347928367
 20
0.075184031325902
  0
LWPOLYLINE
  5
3188
330
2
100
AcDbEntity
  8
Dimensione
 62
     2
100
AcDbPolyline
 90
        4
 70
     0
 43
0.0
 10
0.3554069292488563
 20
0.0765666894594315
 10
0.3545933297584693
 20
0.0766886886454338
 10
0.3542272108101278
 20
0.0768920206221042
 10
0.3536576915323381
 20
0.0770953525987747
  0
LWPOLYLINE
  5
3189
330
2
100
AcDbEntity
  8
Dimensione
 62
     2
100
AcDbPolyline
 90
        5
 70
     0
 43
0.0
 10
0.3554476091320053
 20
0.0753466969072384
 10
0.3547153703216193
 20
0.0755906952792429
 10
0.3541458510438296
 20
0.0758753600465816
 10
0.3536983714154871
 20
0.0762413576045884
 10
0.3533322515534427
 20
0.0767293550407679
  0
LWPOLYLINE
  5
318A
330
2
100
AcDbEntity
  8
Dimensione
 62
     2
100
AcDbPolyline
 90
        8
 70
     0
 43
0.0
 10
0.3550001295036628
 20
0.0796980032844973
 10
0.3550408093868118
 20
0.0808773294413564
 10
0.3550408093868118
 20
0.0814466589760337
 10
0.3547967300879176
 20
0.0818126572262109
 10
0.3545119699921711
 20
0.0823413203655541
 10
0.3544306102258731
 20
0.0830326490862337
 10
0.3544306102258731
 20
0.0836019793130813
 10
0.3545119699921711
 20
0.0840899760570904
  0
LWPOLYLINE
  5
318B
330
2
100
AcDbEntity
  8
Dimensione
 62
     2
100
AcDbPolyline
 90
        4
 70
     0
 43
0.0
 10
0.3545921446857312
 20
0.0848224176230119
 10
0.3548769047814776
 20
0.0850257502918528
 10
0.35520234384667
 20
0.0851477494778551
 10
0.3555684637087144
 20
0.0851477494778551
  0
LWPOLYLINE
  5
318C
330
2
100
AcDbEntity
  8
Dimensione
 62
     2
100
AcDbPolyline
 90
        6
 70
     0
 43
0.0
 10
0.3509719265567094
 20
0.0760776302338586
 10
0.3520702852291397
 20
0.0764029613965313
 10
0.3528838838058238
 20
0.0770129580187131
 10
0.3537381622656569
 20
0.0779076187160631
 10
0.3540636022445522
 20
0.0787616137102494
 10
0.3541856418939995
 20
0.0799002734717743
  0
LWPOLYLINE
  5
318D
330
2
100
AcDbEntity
  8
Dimensione
 62
     2
100
AcDbPolyline
 90
       25
 70
     0
 43
0.0
 10
0.3598386727625477
 20
0.0792100065404883
 10
0.3595945934636534
 20
0.0798200024704996
 10
0.3593911931342052
 20
0.0804299984005109
 10
0.3594725529005033
 20
0.0811213278133609
 10
0.3595539135805044
 20
0.0816499909527041
 10
0.3598793526456968
 20
0.0824226531562223
 10
0.3600013922951439
 20
0.0829919826908995
 10
0.3600013922951439
 20
0.0836426457084154
 10
0.3600013922951439
 20
0.0841713088477586
 10
0.3595945934636534
 20
0.0845373070979358
 10
0.3584148750249248
 20
0.0850659702372789
 10
0.357723316097688
 20
0.0851066366326131
 10
0.3570317562567482
 20
0.0851066366326131
 10
0.3567063171915557
 20
0.0849439710512768
 10
0.3567469970747048
 20
0.0844559736150972
 10
0.3569503964904501
 20
0.0837239784990836
 10
0.3570724361398972
 20
0.0827886507142291
 10
0.3570724361398972
 20
0.0821379883888836
 10
0.3566656373084067
 20
0.0813246597900314
 10
0.3564622369789585
 20
0.0797386696798315
 10
0.3566249574252577
 20
0.0786406763136406
 10
0.3571944767030474
 20
0.0775426829474497
 10
0.3581301149291786
 20
0.0765666894594315
 10
0.3590657540690127
 20
0.0757126944652452
 10
0.3602047926245921
 20
0.075184031325902
  0
LWPOLYLINE
  5
318E
330
2
100
AcDbEntity
  8
Dimensione
 62
     2
100
AcDbPolyline
 90
        4
 70
     0
 43
0.0
 10
0.3557299981685725
 20
0.0765666894594315
 10
0.3565435976589596
 20
0.0766886886454338
 10
0.3569097166073011
 20
0.0768920206221042
 10
0.3574792358850908
 20
0.0770953525987747
  0
LWPOLYLINE
  5
318F
330
2
100
AcDbEntity
  8
Dimensione
 62
     2
100
AcDbPolyline
 90
        5
 70
     0
 43
0.0
 10
0.3556893182854235
 20
0.0753466969072384
 10
0.3564215570958095
 20
0.0755906952792429
 10
0.3569910763735992
 20
0.0758753600465816
 10
0.3574385560019417
 20
0.0762413576045884
 10
0.3578046758639861
 20
0.0767293550407679
  0
LWPOLYLINE
  5
3190
330
2
100
AcDbEntity
  8
Dimensione
 62
     2
100
AcDbPolyline
 90
        8
 70
     0
 43
0.0
 10
0.356136797913766
 20
0.0796980032844973
 10
0.356096118030617
 20
0.0808773294413564
 10
0.356096118030617
 20
0.0814466589760337
 10
0.3563401973295113
 20
0.0818126572262109
 10
0.3566249574252577
 20
0.0823413203655541
 10
0.3567063171915557
 20
0.0830326490862337
 10
0.3567063171915557
 20
0.0836019793130813
 10
0.3566249574252577
 20
0.0840899760570904
  0
LWPOLYLINE
  5
3191
330
2
100
AcDbEntity
  8
Dimensione
 62
     2
100
AcDbPolyline
 90
        4
 70
     0
 43
0.0
 10
0.3565447827316976
 20
0.0848224176230119
 10
0.3562600226359512
 20
0.0850257502918528
 10
0.3559345835707588
 20
0.0851477494778551
 10
0.3555684637087144
 20
0.0851477494778551
  0
LWPOLYLINE
  5
3192
330
2
100
AcDbEntity
  8
Dimensione
 62
     2
100
AcDbPolyline
 90
        6
 70
     0
 43
0.0
 10
0.3601650008607194
 20
0.0760776302338586
 10
0.3590666421882891
 20
0.0764029613965313
 10
0.358253043611605
 20
0.0770129580187131
 10
0.357398765151772
 20
0.0779076187160631
 10
0.3570733251728766
 20
0.0787616137102494
 10
0.3569512855234294
 20
0.0799002734717743
  0
LWPOLYLINE
  5
3193
330
2
100
AcDbEntity
  8
Dimensione
 62
     2
100
AcDbPolyline
 90
       25
 70
     0
 43
0.0
 10
0.3605709124866366
 20
0.0792100065404883
 10
0.3608149917855309
 20
0.0798200024704996
 10
0.3610183921149791
 20
0.0804299984005109
 10
0.360937032348681
 20
0.0811213278133609
 10
0.3608556716686799
 20
0.0816499909527041
 10
0.3605302326034875
 20
0.0824226531562223
 10
0.3604081929540404
 20
0.0829919826908995
 10
0.3604081929540404
 20
0.0836426457084154
 10
0.3604081929540404
 20
0.0841713088477586
 10
0.3608149917855309
 20
0.0845373070979358
 10
0.3619947102242595
 20
0.0850659702372789
 10
0.3626862691514963
 20
0.0851066366326131
 10
0.3633778289924361
 20
0.0851066366326131
 10
0.3637032680576286
 20
0.0849439710512768
 10
0.3636625881744795
 20
0.0844559736150972
 10
0.3634591887587342
 20
0.0837239784990836
 10
0.3633371491092871
 20
0.0827886507142291
 10
0.3633371491092871
 20
0.0821379883888836
 10
0.3637439479407776
 20
0.0813246597900314
 10
0.3639473482702258
 20
0.0797386696798315
 10
0.3637846278239266
 20
0.0786406763136406
 10
0.3632151085461369
 20
0.0775426829474497
 10
0.3622794703200057
 20
0.0765666894594315
 10
0.3613438311801715
 20
0.0757126944652452
 10
0.3602047926245921
 20
0.075184031325902
  0
LWPOLYLINE
  5
3194
330
2
100
AcDbEntity
  8
Dimensione
 62
     2
100
AcDbPolyline
 90
        4
 70
     0
 43
0.0
 10
0.3646795870806118
 20
0.0765666894594315
 10
0.3638659875902247
 20
0.0766886886454338
 10
0.3634998686418832
 20
0.0768920206221042
 10
0.3629303493640935
 20
0.0770953525987747
  0
LWPOLYLINE
  5
3195
330
2
100
AcDbEntity
  8
Dimensione
 62
     2
100
AcDbPolyline
 90
        5
 70
     0
 43
0.0
 10
0.3647202669637608
 20
0.0753466969072384
 10
0.3639880281533748
 20
0.0755906952792429
 10
0.3634185088755851
 20
0.0758753600465816
 10
0.3629710292472426
 20
0.0762413576045884
 10
0.3626049093851982
 20
0.0767293550407679
  0
LWPOLYLINE
  5
3196
330
2
100
AcDbEntity
  8
Dimensione
 62
     2
100
AcDbPolyline
 90
        8
 70
     0
 43
0.0
 10
0.3642727873354183
 20
0.0796980032844973
 10
0.3643134672185673
 20
0.0808773294413564
 10
0.3643134672185673
 20
0.0814466589760337
 10
0.364069387919673
 20
0.0818126572262109
 10
0.3637846278239266
 20
0.0823413203655541
 10
0.3637032680576286
 20
0.0830326490862337
 10
0.3637032680576286
 20
0.0836019793130813
 10
0.3637846278239266
 20
0.0840899760570904
  0
LWPOLYLINE
  5
3197
330
2
100
AcDbEntity
  8
Dimensione
 62
     2
100
AcDbPolyline
 90
        4
 70
     0
 43
0.0
 10
0.3638648025174866
 20
0.0848224176230119
 10
0.3641495626132331
 20
0.0850257502918528
 10
0.3644750016784255
 20
0.0851477494778551
 10
0.3648411215404699
 20
0.0851477494778551
  0
LWPOLYLINE
  5
3198
330
2
100
AcDbEntity
  8
Dimensione
 62
     2
100
AcDbPolyline
 90
        6
 70
     0
 43
0.0
 10
0.3602445843884649
 20
0.0760776302338586
 10
0.3613429430608952
 20
0.0764029613965313
 10
0.3621565416375793
 20
0.0770129580187131
 10
0.3630108200974123
 20
0.0779076187160631
 10
0.3633362600763077
 20
0.0787616137102494
 10
0.3634582997257549
 20
0.0799002734717743
  0
LWPOLYLINE
  5
3199
330
2
100
AcDbEntity
  8
Dimensione
 62
     2
100
AcDbPolyline
 90
       25
 70
     0
 43
0.0
 10
0.3691113305943031
 20
0.0792100065404883
 10
0.3688672512954088
 20
0.0798200024704996
 10
0.3686638509659606
 20
0.0804299984005109
 10
0.3687452107322588
 20
0.0811213278133609
 10
0.3688265714122598
 20
0.0816499909527041
 10
0.3691520104774523
 20
0.0824226531562223
 10
0.3692740501268994
 20
0.0829919826908995
 10
0.3692740501268994
 20
0.0836426457084154
 10
0.3692740501268994
 20
0.0841713088477586
 10
0.3688672512954088
 20
0.0845373070979358
 10
0.3676875328566803
 20
0.0850659702372789
 10
0.3669959739294435
 20
0.0851066366326131
 10
0.3663044140885037
 20
0.0851066366326131
 10
0.3659789750233112
 20
0.0849439710512768
 10
0.3660196549064603
 20
0.0844559736150972
 10
0.3662230543222056
 20
0.0837239784990836
 10
0.3663450939716527
 20
0.0827886507142291
 10
0.3663450939716527
 20
0.0821379883888836
 10
0.3659382951401622
 20
0.0813246597900314
 10
0.365734894810714
 20
0.0797386696798315
 10
0.3658976152570132
 20
0.0786406763136406
 10
0.3664671345348029
 20
0.0775426829474497
 10
0.367402772760934
 20
0.0765666894594315
 10
0.3683384119007682
 20
0.0757126944652452
 10
0.3694774504563476
 20
0.075184031325902
  0
LWPOLYLINE
  5
319A
330
2
100
AcDbEntity
  8
Dimensione
 62
     2
100
AcDbPolyline
 90
        4
 70
     0
 43
0.0
 10
0.365002656000328
 20
0.0765666894594315
 10
0.365816255490715
 20
0.0766886886454338
 10
0.3661823744390565
 20
0.0768920206221042
 10
0.3667518937168462
 20
0.0770953525987747
  0
LWPOLYLINE
  5
319B
330
2
100
AcDbEntity
  8
Dimensione
 62
     2
100
AcDbPolyline
 90
        5
 70
     0
 43
0.0
 10
0.3649619761171789
 20
0.0753466969072384
 10
0.3656942149275649
 20
0.0755906952792429
 10
0.3662637342053546
 20
0.0758753600465816
 10
0.3667112138336972
 20
0.0762413576045884
 10
0.3670773336957416
 20
0.0767293550407679
  0
LWPOLYLINE
  5
319C
330
2
100
AcDbEntity
  8
Dimensione
 62
     2
100
AcDbPolyline
 90
        8
 70
     0
 43
0.0
 10
0.3654094557455215
 20
0.0796980032844973
 10
0.3653687758623725
 20
0.0808773294413564
 10
0.3653687758623725
 20
0.0814466589760337
 10
0.3656128551612667
 20
0.0818126572262109
 10
0.3658976152570132
 20
0.0823413203655541
 10
0.3659789750233112
 20
0.0830326490862337
 10
0.3659789750233112
 20
0.0836019793130813
 10
0.3658976152570132
 20
0.0840899760570904
  0
LWPOLYLINE
  5
319D
330
2
100
AcDbEntity
  8
Dimensione
 62
     2
100
AcDbPolyline
 90
        4
 70
     0
 43
0.0
 10
0.3658174405634531
 20
0.0848224176230119
 10
0.3655326804677067
 20
0.0850257502918528
 10
0.3652072414025143
 20
0.0851477494778551
 10
0.3648411215404699
 20
0.0851477494778551
  0
LWPOLYLINE
  5
319E
330
2
100
AcDbEntity
  8
Dimensione
 62
     2
100
AcDbPolyline
 90
        6
 70
     0
 43
0.0
 10
0.3694376586924749
 20
0.0760776302338586
 10
0.3683393000200446
 20
0.0764029613965313
 10
0.3675257014433605
 20
0.0770129580187131
 10
0.3666714229835274
 20
0.0779076187160631
 10
0.3663459830046321
 20
0.0787616137102494
 10
0.3662239433551848
 20
0.0799002734717743
  0
LWPOLYLINE
  5
319F
330
2
100
AcDbEntity
  8
Dimensione
 62
     2
100
AcDbPolyline
 90
       25
 70
     0
 43
0.0
 10
0.3698435703183921
 20
0.0792100065404883
 10
0.3700876496172864
 20
0.0798200024704996
 10
0.3702910499467346
 20
0.0804299984005109
 10
0.3702096901804365
 20
0.0811213278133609
 10
0.3701283295004354
 20
0.0816499909527041
 10
0.3698028904352429
 20
0.0824226531562223
 10
0.3696808507857958
 20
0.0829919826908995
 10
0.3696808507857958
 20
0.0836426457084154
 10
0.3696808507857958
 20
0.0841713088477586
 10
0.3700876496172864
 20
0.0845373070979358
 10
0.3712673680560149
 20
0.0850659702372789
 10
0.3719589269832517
 20
0.0851066366326131
 10
0.3726504868241915
 20
0.0851066366326131
 10
0.372975925889384
 20
0.0849439710512768
 10
0.3729352460062349
 20
0.0844559736150972
 10
0.3727318465904896
 20
0.0837239784990836
 10
0.3726098069410425
 20
0.0827886507142291
 10
0.3726098069410425
 20
0.0821379883888836
 10
0.373016605772533
 20
0.0813246597900314
 10
0.3732200061019812
 20
0.0797386696798315
 10
0.3730572856556821
 20
0.0786406763136406
 10
0.3724877663778924
 20
0.0775426829474497
 10
0.3715521281517612
 20
0.0765666894594315
 10
0.370616489011927
 20
0.0757126944652452
 10
0.3694774504563476
 20
0.075184031325902
  0
LWPOLYLINE
  5
31A0
330
2
100
AcDbEntity
  8
Dimensione
 62
     2
100
AcDbPolyline
 90
        4
 70
     0
 43
0.0
 10
0.3739522449123672
 20
0.0765666894594315
 10
0.3731386454219802
 20
0.0766886886454338
 10
0.3727725264736387
 20
0.0768920206221042
 10
0.372203007195849
 20
0.0770953525987747
  0
LWPOLYLINE
  5
31A1
330
2
100
AcDbEntity
  8
Dimensione
 62
     2
100
AcDbPolyline
 90
        5
 70
     0
 43
0.0
 10
0.3739929247955163
 20
0.0753466969072384
 10
0.3732606859851303
 20
0.0755906952792429
 10
0.3726911667073406
 20
0.0758753600465816
 10
0.372243687078998
 20
0.0762413576045884
 10
0.3718775672169536
 20
0.0767293550407679
  0
LWPOLYLINE
  5
31A2
330
2
100
AcDbEntity
  8
Dimensione
 62
     2
100
AcDbPolyline
 90
        8
 70
     0
 43
0.0
 10
0.3735454451671737
 20
0.0796980032844973
 10
0.3735861250503227
 20
0.0808773294413564
 10
0.3735861250503227
 20
0.0814466589760337
 10
0.3733420457514285
 20
0.0818126572262109
 10
0.3730572856556821
 20
0.0823413203655541
 10
0.372975925889384
 20
0.0830326490862337
 10
0.372975925889384
 20
0.0836019793130813
 10
0.3730572856556821
 20
0.0840899760570904
  0
LWPOLYLINE
  5
31A3
330
2
100
AcDbEntity
  8
Dimensione
 62
     2
100
AcDbPolyline
 90
        4
 70
     0
 43
0.0
 10
0.3731374603492421
 20
0.0848224176230119
 10
0.3734222204449885
 20
0.0850257502918528
 10
0.373747659510181
 20
0.0851477494778551
 10
0.3741137793722253
 20
0.0851477494778551
  0
LWPOLYLINE
  5
31A4
330
2
100
AcDbEntity
  8
Dimensione
 62
     2
100
AcDbPolyline
 90
        6
 70
     0
 43
0.0
 10
0.3695172422202203
 20
0.0760776302338586
 10
0.3706156008926507
 20
0.0764029613965313
 10
0.3714291994693347
 20
0.0770129580187131
 10
0.3722834779291678
 20
0.0779076187160631
 10
0.3726089179080632
 20
0.0787616137102494
 10
0.3727309575575104
 20
0.0799002734717743
  0
LWPOLYLINE
  5
31A5
330
2
100
AcDbEntity
  8
Dimensione
 62
     2
100
AcDbPolyline
 90
       25
 70
     0
 43
0.0
 10
0.3783839884260586
 20
0.0792100065404883
 10
0.3781399091271643
 20
0.0798200024704996
 10
0.3779365087977161
 20
0.0804299984005109
 10
0.3780178685640142
 20
0.0811213278133609
 10
0.3780992292440153
 20
0.0816499909527041
 10
0.3784246683092078
 20
0.0824226531562223
 10
0.3785467079586549
 20
0.0829919826908995
 10
0.3785467079586549
 20
0.0836426457084154
 10
0.3785467079586549
 20
0.0841713088477586
 10
0.3781399091271643
 20
0.0845373070979358
 10
0.3769601906884358
 20
0.0850659702372789
 10
0.376268631761199
 20
0.0851066366326131
 10
0.3755770719202591
 20
0.0851066366326131
 10
0.3752516328550667
 20
0.0849439710512768
 10
0.3752923127382157
 20
0.0844559736150972
 10
0.375495712153961
 20
0.0837239784990836
 10
0.3756177518034081
 20
0.0827886507142291
 10
0.3756177518034081
 20
0.0821379883888836
 10
0.3752109529719176
 20
0.0813246597900314
 10
0.3750075526424694
 20
0.0797386696798315
 10
0.3751702730887686
 20
0.0786406763136406
 10
0.3757397923665583
 20
0.0775426829474497
 10
0.3766754305926895
 20
0.0765666894594315
 10
0.3776110697325237
 20
0.0757126944652452
 10
0.3787501082881031
 20
0.075184031325902
  0
LWPOLYLINE
  5
31A6
330
2
100
AcDbEntity
  8
Dimensione
 62
     2
100
AcDbPolyline
 90
        4
 70
     0
 43
0.0
 10
0.3742753138320834
 20
0.0765666894594315
 10
0.3750889133224705
 20
0.0766886886454338
 10
0.375455032270812
 20
0.0768920206221042
 10
0.3760245515486017
 20
0.0770953525987747
  0
LWPOLYLINE
  5
31A7
330
2
100
AcDbEntity
  8
Dimensione
 62
     2
100
AcDbPolyline
 90
        5
 70
     0
 43
0.0
 10
0.3742346339489344
 20
0.0753466969072384
 10
0.3749668727593204
 20
0.0755906952792429
 10
0.3755363920371101
 20
0.0758753600465816
 10
0.3759838716654527
 20
0.0762413576045884
 10
0.376349991527497
 20
0.0767293550407679
  0
LWPOLYLINE
  5
31A8
330
2
100
AcDbEntity
  8
Dimensione
 62
     2
100
AcDbPolyline
 90
        8
 70
     0
 43
0.0
 10
0.374682113577277
 20
0.0796980032844973
 10
0.3746414336941279
 20
0.0808773294413564
 10
0.3746414336941279
 20
0.0814466589760337
 10
0.3748855129930222
 20
0.0818126572262109
 10
0.3751702730887686
 20
0.0823413203655541
 10
0.3752516328550667
 20
0.0830326490862337
 10
0.3752516328550667
 20
0.0836019793130813
 10
0.3751702730887686
 20
0.0840899760570904
  0
LWPOLYLINE
  5
31A9
330
2
100
AcDbEntity
  8
Dimensione
 62
     2
100
AcDbPolyline
 90
        4
 70
     0
 43
0.0
 10
0.3750900983952086
 20
0.0848224176230119
 10
0.3748053382994621
 20
0.0850257502918528
 10
0.3744798992342697
 20
0.0851477494778551
 10
0.3741137793722253
 20
0.0851477494778551
  0
LWPOLYLINE
  5
31AA
330
2
100
AcDbEntity
  8
Dimensione
 62
     2
100
AcDbPolyline
 90
        6
 70
     0
 43
0.0
 10
0.3787103165242303
 20
0.0760776302338586
 10
0.3776119578518
 20
0.0764029613965313
 10
0.3767983592751159
 20
0.0770129580187131
 10
0.3759440808152829
 20
0.0779076187160631
 10
0.3756186408363875
 20
0.0787616137102494
 10
0.3754966011869403
 20
0.0799002734717743
  0
LWPOLYLINE
  5
31AB
330
2
100
AcDbEntity
  8
Dimensione
 62
     2
100
AcDbPolyline
 90
       14
 70
     0
 43
0.0
 10
0.3791162281501475
 20
0.0792100065404883
 10
0.3793603074490418
 20
0.0798200024704996
 10
0.37956370777849
 20
0.0804299984005109
 10
0.3794823480121919
 20
0.0811213278133609
 10
0.3794009873321908
 20
0.0816499909527041
 10
0.3790755482669984
 20
0.0824226531562223
 10
0.3789535086175513
 20
0.0829919826908995
 10
0.3789535086175513
 20
0.0836426457084154
 10
0.3789535086175513
 20
0.0841713088477586
 10
0.3793603074490418
 20
0.0845373070979358
 10
0.3805400258877704
 20
0.0850659702372789
 10
0.3812315848150072
 20
0.0851066366326131
 10
0.381923144655947
 20
0.0851066366326131
 10
0.3820687779247009
 20
0.0850338441413067
  0
LWPOLYLINE
  5
31B0
330
2
100
AcDbEntity
  8
Dimensione
 62
     2
100
AcDbPolyline
 90
        6
 70
     0
 43
0.0
 10
0.3787899000519758
 20
0.0760776302338586
 10
0.3798882587244061
 20
0.0764029613965313
 10
0.3807018573010902
 20
0.0770129580187131
 10
0.3815561357609233
 20
0.0779076187160631
 10
0.3818815757398186
 20
0.0787616137102494
 10
0.3820036153892658
 20
0.0799002734717743
  0
LWPOLYLINE
  5
31B1
330
2
100
AcDbEntity
  8
Dimensione
 62
     2
100
AcDbPolyline
 90
        5
 70
     0
 43
0.0
 10
0.3820687779247009
 20
0.0781371673604842
 10
0.3817604242096478
 20
0.0775426829474497
 10
0.3808247859835166
 20
0.0765666894594315
 10
0.3798891468436825
 20
0.0757126944652452
 10
0.3787501082881031
 20
0.075184031325902
  0
LWPOLYLINE
  5
31B4
330
2
100
AcDbEntity
  8
Dimensione
 62
     2
100
AcDbPolyline
 90
       10
 70
     0
 43
0.0
 10
0.1936407043333743
 20
0.1209914861981788
 10
0.1937660205216332
 20
0.1202648948564771
 10
0.1941670310448772
 20
0.1196134683750102
 10
0.1948186748583418
 20
0.1190873164298778
 10
0.1958212025370065
 20
0.1188618225413438
 10
0.1964979092226418
 20
0.1188868770333085
 10
0.1973249949687064
 20
0.1191123709218425
 10
0.1979014483382534
 20
0.1194881938386756
 10
0.1982773959893268
 20
0.1202899493484417
 10
0.1983174973474149
 20
0.1209914861981788
  0
LWPOLYLINE
  5
31B5
330
2
100
AcDbEntity
  8
Dimensione
 62
     2
100
AcDbPolyline
 90
       10
 70
     0
 43
0.0
 10
0.2011833412786685
 20
0.1209914861981788
 10
0.2013086574669273
 20
0.1202648948564771
 10
0.2017096679901714
 20
0.1196134683750102
 10
0.202361311803636
 20
0.1190873164298778
 10
0.2033638394823007
 20
0.1188618225413438
 10
0.2040405461679359
 20
0.1188868770333085
 10
0.2048676319140005
 20
0.1191123709218425
 10
0.2054440852835476
 20
0.1194881938386756
 10
0.205820032934621
 20
0.1202899493484417
 10
0.2058601342927091
 20
0.1209914861981788
  0
LWPOLYLINE
  5
31B6
330
2
100
AcDbEntity
  8
Dimensione
 62
     2
100
AcDbPolyline
 90
       10
 70
     0
 43
0.0
 10
0.2087259782239626
 20
0.1209914861981788
 10
0.2088512944122215
 20
0.1202648948564771
 10
0.2092523049354655
 20
0.1196134683750102
 10
0.2099039487489301
 20
0.1190873164298778
 10
0.2109064764275948
 20
0.1188618225413438
 10
0.2115831831132301
 20
0.1188868770333085
 10
0.2124102688592947
 20
0.1191123709218425
 10
0.2129867222288417
 20
0.1194881938386756
 10
0.2133626698799151
 20
0.1202899493484417
 10
0.2134027712380032
 20
0.1209914861981788
  0
LWPOLYLINE
  5
31B7
330
2
100
AcDbEntity
  8
Dimensione
 62
     2
100
AcDbPolyline
 90
       10
 70
     0
 43
0.0
 10
0.2165423135174723
 20
0.1211495060131978
 10
0.2166676297057312
 20
0.1204229146714961
 10
0.2170686402289752
 20
0.1197714881900292
 10
0.2177202840424398
 20
0.1192453362448968
 10
0.2187228117211045
 20
0.1190198423563628
 10
0.2193995184067398
 20
0.1190448968483275
 10
0.2202266041528044
 20
0.1192703907368615
 10
0.2208030575223514
 20
0.1196462136536946
 10
0.2211790051734248
 20
0.1204479691634607
 10
0.2212191065315129
 20
0.1211495060131978
  0
LWPOLYLINE
  5
31B8
330
2
100
AcDbEntity
  8
Dimensione
 62
     2
100
AcDbPolyline
 90
       10
 70
     0
 43
0.0
 10
0.2240759177096196
 20
0.1209914861981788
 10
0.2242012338978784
 20
0.1202648948564771
 10
0.2246022444211225
 20
0.1196134683750102
 10
0.2252538882345871
 20
0.1190873164298778
 10
0.2262564159132518
 20
0.1188618225413438
 10
0.226933122598887
 20
0.1188868770333085
 10
0.2277602083449516
 20
0.1191123709218425
 10
0.2283366617144987
 20
0.1194881938386756
 10
0.2287126093655721
 20
0.1202899493484417
 10
0.2287527107236602
 20
0.1209914861981788
  0
LWPOLYLINE
  5
31B9
330
2
100
AcDbEntity
  8
Dimensione
 62
     2
100
AcDbPolyline
 90
       10
 70
     0
 43
0.0
 10
0.2318010202203908
 20
0.1209914861981788
 10
0.2319263364086496
 20
0.1202648948564771
 10
0.2323273469318937
 20
0.1196134683750102
 10
0.2329789907453583
 20
0.1190873164298778
 10
0.233981518424023
 20
0.1188618225413438
 10
0.2346582251096582
 20
0.1188868770333085
 10
0.2354853108557228
 20
0.1191123709218425
 10
0.2360617642252699
 20
0.1194881938386756
 10
0.2364377118763433
 20
0.1202899493484417
 10
0.2364778132344313
 20
0.1209914861981788
  0
LWPOLYLINE
  5
31BA
330
2
100
AcDbEntity
  8
Dimensione
 62
     2
100
AcDbPolyline
 90
       10
 70
     0
 43
0.0
 10
0.2393436571656849
 20
0.1209914861981788
 10
0.2394689733539438
 20
0.1202648948564771
 10
0.2398699838771878
 20
0.1196134683750102
 10
0.2405216276906525
 20
0.1190873164298778
 10
0.2415241553693171
 20
0.1188618225413438
 10
0.2422008620549524
 20
0.1188868770333085
 10
0.243027947801017
 20
0.1191123709218425
 10
0.243604401170564
 20
0.1194881938386756
 10
0.2439803488216374
 20
0.1202899493484417
 10
0.2440204501797255
 20
0.1209914861981788
  0
LWPOLYLINE
  5
31BB
330
2
100
AcDbEntity
  8
Dimensione
 62
     2
100
AcDbPolyline
 90
       10
 70
     0
 43
0.0
 10
0.2468862941109791
 20
0.1209914861981788
 10
0.2470116102992379
 20
0.1202648948564771
 10
0.247412620822482
 20
0.1196134683750102
 10
0.2480642646359466
 20
0.1190873164298778
 10
0.2490667923146113
 20
0.1188618225413438
 10
0.2497434990002465
 20
0.1188868770333085
 10
0.2505705847463111
 20
0.1191123709218425
 10
0.2511470381158581
 20
0.1194881938386756
 10
0.2515229857669316
 20
0.1202899493484417
 10
0.2515630871250196
 20
0.1209914861981788
  0
LWPOLYLINE
  5
31BD
330
2
100
AcDbEntity
  8
Dimensione
 62
     2
100
AcDbPolyline
 90
       10
 70
     0
 43
0.0
 10
0.2544289310562732
 20
0.1209914861981788
 10
0.254554247244532
 20
0.1202648948564771
 10
0.2549552577677761
 20
0.1196134683750102
 10
0.2556069015812406
 20
0.1190873164298778
 10
0.2566094292599054
 20
0.1188618225413438
 10
0.2572861359455406
 20
0.1188868770333085
 10
0.2581132216916052
 20
0.1191123709218425
 10
0.2586896750611523
 20
0.1194881938386756
 10
0.2590656227122257
 20
0.1202899493484417
 10
0.2591057240703138
 20
0.1209914861981788
  0
LWPOLYLINE
  5
31BE
330
2
100
AcDbEntity
  8
Dimensione
 62
     2
100
AcDbPolyline
 90
       10
 70
     0
 43
0.0
 10
0.2619715680015673
 20
0.1209914861981788
 10
0.2620968841898262
 20
0.1202648948564771
 10
0.2624978947130702
 20
0.1196134683750102
 10
0.2631495385265348
 20
0.1190873164298778
 10
0.2641520662051995
 20
0.1188618225413438
 10
0.2648287728908348
 20
0.1188868770333085
 10
0.2656558586368994
 20
0.1191123709218425
 10
0.2662323120064464
 20
0.1194881938386756
 10
0.2666082596575198
 20
0.1202899493484417
 10
0.2666483610156079
 20
0.1209914861981788
  0
LWPOLYLINE
  5
31BF
330
2
100
AcDbEntity
  8
Dimensione
 62
     2
100
AcDbPolyline
 90
       10
 70
     0
 43
0.0
 10
0.2695142049468615
 20
0.1209914861981788
 10
0.2696395211351203
 20
0.1202648948564771
 10
0.2700405316583644
 20
0.1196134683750102
 10
0.270692175471829
 20
0.1190873164298778
 10
0.2716947031504937
 20
0.1188618225413438
 10
0.2723714098361289
 20
0.1188868770333085
 10
0.2731984955821936
 20
0.1191123709218425
 10
0.2737749489517406
 20
0.1194881938386756
 10
0.274150896602814
 20
0.1202899493484417
 10
0.2741909979609021
 20
0.1209914861981788
  0
LWPOLYLINE
  5
31C0
330
2
100
AcDbEntity
  8
Dimensione
 62
     2
100
AcDbPolyline
 90
       10
 70
     0
 43
0.0
 10
0.2770568418921556
 20
0.1209914861981788
 10
0.2771821580804144
 20
0.1202648948564771
 10
0.2775831686036585
 20
0.1196134683750102
 10
0.2782348124171231
 20
0.1190873164298778
 10
0.2792373400957878
 20
0.1188618225413438
 10
0.279914046781423
 20
0.1188868770333085
 10
0.2807411325274877
 20
0.1191123709218425
 10
0.2813175858970347
 20
0.1194881938386756
 10
0.2816935335481081
 20
0.1202899493484417
 10
0.2817336349061962
 20
0.1209914861981788
  0
LWPOLYLINE
  5
31C1
330
2
100
AcDbEntity
  8
Dimensione
 62
     2
100
AcDbPolyline
 90
       10
 70
     0
 43
0.0
 10
0.2848731771856653
 20
0.1211495060131978
 10
0.2849984933739241
 20
0.1204229146714961
 10
0.2853995038971682
 20
0.1197714881900292
 10
0.2860511477106328
 20
0.1192453362448968
 10
0.2870536753892975
 20
0.1190198423563628
 10
0.2877303820749327
 20
0.1190448968483275
 10
0.2885574678209973
 20
0.1192703907368615
 10
0.2891339211905444
 20
0.1196462136536946
 10
0.2895098688416178
 20
0.1204479691634607
 10
0.2895499701997059
 20
0.1211495060131978
  0
LWPOLYLINE
  5
31C2
330
2
100
AcDbEntity
  8
Dimensione
 62
     2
100
AcDbPolyline
 90
       10
 70
     0
 43
0.0
 10
0.2924067813778126
 20
0.1209914861981788
 10
0.2925320975660715
 20
0.120264894856477
 10
0.2929331080893155
 20
0.1196134683750102
 10
0.2935847519027801
 20
0.1190873164298778
 10
0.2945872795814448
 20
0.1188618225413438
 10
0.2952639862670801
 20
0.1188868770333084
 10
0.2960910720131447
 20
0.1191123709218424
 10
0.2966675253826917
 20
0.1194881938386756
 10
0.2970434730337651
 20
0.1202899493484417
 10
0.2970835743918532
 20
0.1209914861981788
  0
LWPOLYLINE
  5
31C3
330
2
100
AcDbEntity
  8
Dimensione
 62
     2
100
AcDbPolyline
 90
       10
 70
     0
 43
0.0
 10
0.3001318838885838
 20
0.1209914861981788
 10
0.3002572000768426
 20
0.1202648948564771
 10
0.3006582106000867
 20
0.1196134683750102
 10
0.3013098544135513
 20
0.1190873164298778
 10
0.302312382092216
 20
0.1188618225413438
 10
0.3029890887778512
 20
0.1188868770333085
 10
0.3038161745239158
 20
0.1191123709218425
 10
0.3043926278934629
 20
0.1194881938386756
 10
0.3047685755445363
 20
0.1202899493484417
 10
0.3048086769026244
 20
0.1209914861981788
  0
LWPOLYLINE
  5
31C4
330
2
100
AcDbEntity
  8
Dimensione
 62
     2
100
AcDbPolyline
 90
       10
 70
     0
 43
0.0
 10
0.3076745208338779
 20
0.1209914861981788
 10
0.3077998370221367
 20
0.1202648948564771
 10
0.3082008475453808
 20
0.1196134683750102
 10
0.3088524913588454
 20
0.1190873164298778
 10
0.3098550190375101
 20
0.1188618225413438
 10
0.3105317257231453
 20
0.1188868770333085
 10
0.3113588114692099
 20
0.1191123709218425
 10
0.311935264838757
 20
0.1194881938386756
 10
0.3123112124898304
 20
0.1202899493484417
 10
0.3123513138479184
 20
0.1209914861981788
  0
LWPOLYLINE
  5
31C5
330
2
100
AcDbEntity
  8
Dimensione
 62
     2
100
AcDbPolyline
 90
       10
 70
     0
 43
0.0
 10
0.3152171577791721
 20
0.1209914861981788
 10
0.3153424739674309
 20
0.120264894856477
 10
0.315743484490675
 20
0.1196134683750102
 10
0.3163951283041396
 20
0.1190873164298778
 10
0.3173976559828043
 20
0.1188618225413438
 10
0.3180743626684395
 20
0.1188868770333084
 10
0.3189014484145041
 20
0.1191123709218424
 10
0.3194779017840511
 20
0.1194881938386756
 10
0.3198538494351245
 20
0.1202899493484417
 10
0.3198939507932126
 20
0.1209914861981788
  0
LWPOLYLINE
  5
31C6
330
2
100
AcDbEntity
  8
Dimensione
 62
     2
100
AcDbPolyline
 90
       10
 70
     0
 43
0.0
 10
0.3227597947244662
 20
0.1209914861981788
 10
0.322885110912725
 20
0.1202648948564771
 10
0.323286121435969
 20
0.1196134683750102
 10
0.3239377652494336
 20
0.1190873164298778
 10
0.3249402929280984
 20
0.1188618225413438
 10
0.3256169996137336
 20
0.1188868770333085
 10
0.3264440853597982
 20
0.1191123709218425
 10
0.3270205387293452
 20
0.1194881938386756
 10
0.3273964863804186
 20
0.1202899493484417
 10
0.3274365877385067
 20
0.1209914861981788
  0
LWPOLYLINE
  5
31C7
330
2
100
AcDbEntity
  8
Dimensione
 62
     2
100
AcDbPolyline
 90
       10
 70
     0
 43
0.0
 10
0.3303024316697603
 20
0.1209914861981788
 10
0.3304277478580191
 20
0.1202648948564771
 10
0.3308287583812632
 20
0.1196134683750102
 10
0.3314804021947278
 20
0.1190873164298778
 10
0.3324829298733925
 20
0.1188618225413438
 10
0.3331596365590277
 20
0.1188868770333085
 10
0.3339867223050923
 20
0.1191123709218425
 10
0.3345631756746394
 20
0.1194881938386756
 10
0.3349391233257128
 20
0.1202899493484417
 10
0.3349792246838009
 20
0.1209914861981788
  0
LWPOLYLINE
  5
31C8
330
2
100
AcDbEntity
  8
Dimensione
 62
     2
100
AcDbPolyline
 90
       10
 70
     0
 43
0.0
 10
0.3378450686150545
 20
0.1209914861981788
 10
0.3379703848033133
 20
0.1202648948564771
 10
0.3383713953265573
 20
0.1196134683750102
 10
0.339023039140022
 20
0.1190873164298778
 10
0.3400255668186867
 20
0.1188618225413438
 10
0.3407022735043219
 20
0.1188868770333085
 10
0.3415293592503865
 20
0.1191123709218425
 10
0.3421058126199336
 20
0.1194881938386756
 10
0.3424817602710069
 20
0.1202899493484417
 10
0.342521861629095
 20
0.1209914861981788
  0
LWPOLYLINE
  5
31C9
330
2
100
AcDbEntity
  8
Dimensione
 62
     2
100
AcDbPolyline
 90
       10
 70
     0
 43
0.0
 10
0.3453877055603486
 20
0.1209914861981788
 10
0.3455130217486074
 20
0.1202648948564771
 10
0.3459140322718515
 20
0.1196134683750102
 10
0.3465656760853161
 20
0.1190873164298778
 10
0.3475682037639808
 20
0.1188618225413438
 10
0.348244910449616
 20
0.1188868770333085
 10
0.3490719961956806
 20
0.1191123709218425
 10
0.3496484495652277
 20
0.1194881938386756
 10
0.3500243972163011
 20
0.1202899493484417
 10
0.3500644985743891
 20
0.1209914861981788
  0
LWPOLYLINE
  5
31CA
330
2
100
AcDbEntity
  8
Dimensione
 62
     2
100
AcDbPolyline
 90
       10
 70
     0
 43
0.0
 10
0.3532040408538583
 20
0.1211495060131978
 10
0.3533293570421171
 20
0.1204229146714961
 10
0.3537303675653611
 20
0.1197714881900292
 10
0.3543820113788257
 20
0.1192453362448968
 10
0.3553845390574905
 20
0.1190198423563628
 10
0.3560612457431257
 20
0.1190448968483275
 10
0.3568883314891903
 20
0.1192703907368615
 10
0.3574647848587373
 20
0.1196462136536946
 10
0.3578407325098107
 20
0.1204479691634607
 10
0.3578808338678988
 20
0.1211495060131978
  0
LWPOLYLINE
  5
31CB
330
2
100
AcDbEntity
  8
Dimensione
 62
     2
100
AcDbPolyline
 90
       10
 70
     0
 43
0.0
 10
0.3607376450460056
 20
0.1209914861981788
 10
0.3608629612342644
 20
0.1202648948564771
 10
0.3612639717575084
 20
0.1196134683750102
 10
0.3619156155709731
 20
0.1190873164298778
 10
0.3629181432496378
 20
0.1188618225413438
 10
0.363594849935273
 20
0.1188868770333085
 10
0.3644219356813376
 20
0.1191123709218425
 10
0.3649983890508847
 20
0.1194881938386756
 10
0.365374336701958
 20
0.1202899493484417
 10
0.3654144380600461
 20
0.1209914861981788
  0
LWPOLYLINE
  5
31CC
330
2
100
AcDbEntity
  8
Dimensione
 62
     2
100
AcDbPolyline
 90
       10
 70
     0
 43
0.0
 10
0.3684627475567768
 20
0.1209914861981788
 10
0.3685880637450356
 20
0.1202648948564771
 10
0.3689890742682796
 20
0.1196134683750102
 10
0.3696407180817443
 20
0.1190873164298778
 10
0.370643245760409
 20
0.1188618225413438
 10
0.3713199524460442
 20
0.1188868770333085
 10
0.3721470381921088
 20
0.1191123709218425
 10
0.3727234915616559
 20
0.1194881938386756
 10
0.3730994392127292
 20
0.1202899493484417
 10
0.3731395405708173
 20
0.1209914861981788
  0
LWPOLYLINE
  5
31CD
330
2
100
AcDbEntity
  8
Dimensione
 62
     2
100
AcDbPolyline
 90
       10
 70
     0
 43
0.0
 10
0.3760053845020709
 20
0.1209914861981788
 10
0.3761307006903297
 20
0.1202648948564771
 10
0.3765317112135738
 20
0.1196134683750102
 10
0.3771833550270384
 20
0.1190873164298778
 10
0.3781858827057031
 20
0.1188618225413438
 10
0.3788625893913383
 20
0.1188868770333085
 10
0.3796896751374029
 20
0.1191123709218425
 10
0.38026612850695
 20
0.1194881938386756
 10
0.3806420761580234
 20
0.1202899493484417
 10
0.3806821775161114
 20
0.1209914861981788
  0
VIEWPORT
  5
7B
330
79
100
AcDbEntity
 67
     1
  8
0
100
AcDbViewport
 10
145.330337524414
 20
101.8116638660431
 30
0.0
 40
351.1337450215151
 41
222.1517806396485
 68
     1
 69
     1
 12
145.330337524414
 22
101.8116638660431
 13
0.0
 23
0.0
 14
10.0
 24
10.0
 15
10.0
 25
10.0
 16
0.0
 26
0.0
 36
1.0
 17
0.0
 27
0.0
 37
0.0
 42
50.0
 43
0.0
 44
0.0
 45
222.1517806396485
 50
0.0
 51
0.0
 72
  1000
 90
    32800
  1

281
     0
 71
     1
 74
     0
110
0.0
120
0.0
130
0.0
111
1.0
121
0.0
131
0.0
112
0.0
122
1.0
132
0.0
 79
     0
146
0.0
170
     0
  0
VIEWPORT
  5
80
330
79
100
AcDbEntity
 67
     1
  8
Sezione
100
AcDbViewport
 10
145.3303314447403
 20
101.8116623163223
 30
0.0
 40
232.5285303115845
 41
162.8986597061157
 68
     2
 69
     2
 12
0.2100067158578973
 22
0.1484909068076998
 13
0.0
 23
0.0
 14
10.0
 24
10.0
 15
10.0
 25
10.0
 16
0.0
 26
0.0
 36
1.0
 17
0.0
 27
0.0
 37
0.0
 42
50.0
 43
0.0
 44
0.0
 45
0.2752830087467564
 50
0.0
 51
0.0
 72
  1000
 90
    32864
  1

281
     0
 71
     1
 74
     0
110
0.0
120
0.0
130
0.0
111
1.0
121
0.0
131
0.0
112
0.0
122
1.0
132
0.0
 79
     0
146
0.0
170
     0
  0
ENDSEC
  0
SECTION
  2
OBJECTS
  0
DICTIONARY
  5
9
330
0
100
AcDbDictionary
281
     1
  3
ACAD_2007HEADERVARS_RT
350
14A
  3
ACAD_COLOR
350
A1
  3
ACAD_GROUP
350
9C
  3
ACAD_IMAGE_DICT
350
2EBE
  3
ACAD_IMAGE_VARS
350
2EC0
  3
ACAD_LAYOUT
350
78
  3
ACAD_MATERIAL
350
B
  3
ACAD_MLINESTYLE
350
9D
  3
ACAD_PLOTSETTINGS
350
9E
  3
ACAD_PLOTSTYLENAME
350
8
  3
ACAD_TABLESTYLE
350
A2
  3
ACAD_VISUALSTYLE
350
7F
  3
AcDbVariableDictionary
350
A9
  3
AEC_CLASSIFICATION_SYSTEM_DEFS
350
2E45
  3
AEC_PROPERTY_SET_DEFS
350
10D
  0
DICTIONARY
  5
8B
330
8A
100
AcDbDictionary
280
     1
281
     1
  3
ACAD_LAYERFILTERS
360
48D
  3
ACAD_LAYERSTATES
360
8D
  3
ACLYDICTIONARY
360
48C
  0
DICTIONARY
  5
3
330
2
100
AcDbDictionary
280
     1
281
     1
  3
ACAD_SORTENTS
360
A8
  0
DICTIONARY
  5
B6D
330
B69
100
AcDbDictionary
280
     1
281
     1
  3
ACAD_SORTENTS
360
B6E
  0
DICTIONARY
  5
14A
102
{ACAD_REACTORS
330
9
102
}
330
9
100
AcDbDictionary
281
     1
  3
DIMFXL
350
14B
  0
DICTIONARY
  5
A1
102
{ACAD_REACTORS
330
9
102
}
330
9
100
AcDbDictionary
281
     1
  0
DICTIONARY
  5
9C
102
{ACAD_REACTORS
330
9
102
}
330
9
100
AcDbDictionary
281
     1
  0
DICTIONARY
  5
2EBE
102
{ACAD_REACTORS
330
9
102
}
330
9
100
AcDbDictionary
281
     1
  3
3002-HQ
350
2EBF
  3
3004-HQ
350
2F46
  3
3005-HQ
350
301F
  3
3006-HQ
350
3099
  0
RASTERVARIABLES
  5
2EC0
102
{ACAD_REACTORS
330
9
102
}
330
9
100
AcDbRasterVariables
 90
        0
 70
     1
 71
     1
 72
     1
  0
DICTIONARY
  5
78
102
{ACAD_REACTORS
330
9
102
}
330
9
100
AcDbDictionary
281
     1
  3
Layout1
350
82
  3
Layout2
350
89
  3
Model
350
77
  0
DICTIONARY
  5
B
102
{ACAD_REACTORS
330
9
102
}
330
9
100
AcDbDictionary
281
     1
  3
ByBlock
350
A0
  3
ByLayer
350
9F
  3
Global
350
A
  0
DICTIONARY
  5
9D
102
{ACAD_REACTORS
330
9
102
}
330
9
100
AcDbDictionary
281
     1
  3
Standard
350
A3
  0
DICTIONARY
  5
9E
102
{ACAD_REACTORS
330
9
102
}
330
9
100
AcDbDictionary
281
     1
  0
ACDBDICTIONARYWDFLT
  5
8
102
{ACAD_REACTORS
330
9
102
}
330
9
100
AcDbDictionary
281
     1
  3
Normal
350
7
100
AcDbDictionaryWithDefault
340
7
  0
DICTIONARY
  5
A2
102
{ACAD_REACTORS
330
9
102
}
330
9
100
AcDbDictionary
281
     1
  3
Standard
350
A4
  0
DICTIONARY
  5
7F
102
{ACAD_REACTORS
330
9
102
}
330
9
100
AcDbDictionary
281
     1
  3
2dWireframe
350
7E
  3
3D Hidden
350
D8
  3
3dWireframe
350
A6
  3
Basic
350
D7
  3
Brighten
350
DB
  3
ColorChange
350
DF
  3
Conceptual
350
D9
  3
Dim
350
DA
  3
Facepattern
350
DE
  3
Flat
350
D3
  3
FlatWithEdges
350
D4
  3
Gouraud
350
D5
  3
GouraudWithEdges
350
D6
  3
Linepattern
350
DD
  3
Realistic
350
A5
  3
Thicken
350
DC
  0
DICTIONARY
  5
A9
102
{ACAD_REACTORS
330
9
102
}
330
9
100
AcDbDictionary
281
     1
  3
CTABLESTYLE
350
AA
  3
DIMASSOC
350
AE
  3
HIDETEXT
350
AD
  3
INDEXCTL
350
AC
  3
PROJECTNAME
350
16A
  3
SORTENTS
350
AB
  0
DICTIONARY
  5
2E45
102
{ACAD_REACTORS
330
9
102
}
330
9
100
AcDbDictionary
281
     1
  0
DICTIONARY
  5
10D
102
{ACAD_REACTORS
330
9
102
}
330
9
100
AcDbDictionary
281
     1
  0
DICTIONARY
  5
48D
102
{ACAD_REACTORS
330
8B
102
}
330
8B
100
AcDbDictionary
281
     1
  0
DICTIONARY
  5
8D
102
{ACAD_REACTORS
330
8B
102
}
330
8B
100
AcDbDictionary
281
     1
  0
DICTIONARY
  5
48C
102
{ACAD_REACTORS
330
8B
102
}
330
8B
100
AcDbDictionary
281
     1
1001
ACAD
1000
<All
  0
SORTENTSTABLE
  5
A8
102
{ACAD_REACTORS
330
3
102
}
330
3
100
AcDbSortentsTable
330
2
331
22
  5
23
331
3180
  5
3180
331
310A
  5
310A
331
30CB
  5
30CB
331
3094
  5
308F
331
3188
  5
3188
331
3149
  5
3149
331
3112
  5
3112
331
30D3
  5
30D3
331
309C
  5
309C
331
3026
  5
3026
331
3190
  5
3190
331
3151
  5
3151
331
311A
  5
311A
331
30DB
  5
30DB
331
30A4
  5
30A4
331
3198
  5
3198
331
3159
  5
3159
331
3122
  5
3122
331
30E3
  5
30E3
331
30AC
  5
30AC
331
110
  5
110
331
13
  5
D
331
31A0
  5
31A0
331
3161
  5
3161
331
312A
  5
312A
331
30EB
  5
30EB
331
30B4
  5
30B4
331
31A8
  5
31A8
331
3169
  5
3169
331
3132
  5
3132
331
30F3
  5
30F3
331
30BC
  5
30BC
331
31B0
  5
31B2
331
3171
  5
3171
331
30FB
  5
30FB
331
30C4
  5
30C4
331
3085
  5
3085
331
304E
  5
304E
331
3179
  5
3179
331
3103
  5
3103
331
308D
  5
3095
331
2DE2
  5
2DE2
331
23
  5
24
331
3181
  5
3181
331
310B
  5
310B
331
30CC
  5
30CC
331
3189
  5
3189
331
314A
  5
314A
331
3113
  5
3113
331
30D4
  5
30D4
331
309D
  5
309D
331
3027
  5
3027
331
3191
  5
3191
331
3152
  5
3152
331
311B
  5
311B
331
30DC
  5
30DC
331
30A5
  5
30A5
331
3199
  5
3199
331
315A
  5
315A
331
3123
  5
3123
331
30E4
  5
30E4
331
30AD
  5
30AD
331
14
  5
10
331
31A1
  5
31A1
331
3162
  5
3162
331
312B
  5
312B
331
30EC
  5
30EC
331
30B5
  5
30B5
331
31A9
  5
31A9
331
316A
  5
316A
331
3133
  5
3133
331
30F4
  5
30F4
331
30BD
  5
30BD
331
3172
  5
3172
331
30FC
  5
30FC
331
30C5
  5
30C5
331
3086
  5
3086
331
317A
  5
317A
331
3104
  5
3104
331
308E
  5
3096
331
2DE3
  5
2DE3
331
24
  5
18
331
3182
  5
3182
331
310C
  5
310C
331
30CD
  5
30CD
331
3096
  5
308D
331
318A
  5
318A
331
314B
  5
314B
331
3114
  5
3114
331
30D5
  5
30D5
331
309E
  5
309E
331
3192
  5
3192
331
3153
  5
3153
331
311C
  5
311C
331
30DD
  5
30DD
331
30A6
  5
30A6
331
319A
  5
319A
331
315B
  5
315B
331
3124
  5
3124
331
30E5
  5
30E5
331
30AE
  5
30AE
331
D
  5
13
331
15
  5
11
331
1D
  5
1E
331
31A2
  5
31A2
331
3163
  5
3163
331
312C
  5
312C
331
30ED
  5
30ED
331
30B6
  5
30B6
331
31AA
  5
31AA
331
316B
  5
316B
331
3134
  5
3134
331
30F5
  5
30F5
331
30BE
  5
30BE
331
3173
  5
3173
331
30FD
  5
30FD
331
30C6
  5
30C6
331
3087
  5
3087
331
317B
  5
317B
331
3105
  5
3105
331
308F
  5
3097
331
25
  5
25
331
3183
  5
3183
331
310D
  5
310D
331
30CE
  5
30CE
331
318B
  5
318B
331
314C
  5
314C
331
3115
  5
3115
331
30D6
  5
30D6
331
309F
  5
309F
331
3193
  5
3193
331
3154
  5
3154
331
311D
  5
311D
331
30DE
  5
30DE
331
30A7
  5
30A7
331
319B
  5
319B
331
315C
  5
315C
331
3125
  5
3125
331
30E6
  5
30E6
331
30AF
  5
30AF
331
1CA
  5
1CA
331
1E63
  5
1CE9
331
16
  5
12
331
1E
  5
1F
331
31A3
  5
31A3
331
3164
  5
3164
331
312D
  5
312D
331
30EE
  5
30EE
331
30B7
  5
30B7
331
31AB
  5
31AB
331
316C
  5
316C
331
3135
  5
3135
331
30F6
  5
30F6
331
30BF
  5
30BF
331
3174
  5
3174
331
30FE
  5
30FE
331
30C7
  5
30C7
331
3088
  5
3088
331
317C
  5
317C
331
3106
  5
3106
331
2DD5
  5
2DD5
331
3090
  5
3098
331
3184
  5
3184
331
3145
  5
3145
331
310E
  5
310E
331
30CF
  5
30CF
331
3098
  5
308B
331
318C
  5
318C
331
314D
  5
314D
331
3116
  5
3116
331
30D7
  5
30D7
331
30A0
  5
30A0
331
3194
  5
3194
331
3155
  5
3155
331
311E
  5
311E
331
30DF
  5
30DF
331
30A8
  5
30A8
331
319C
  5
319C
331
315D
  5
315D
331
3126
  5
3126
331
30E7
  5
30E7
331
2DED
  5
2DED
331
2F30
  5
2F3A
331
17
  5
17
331
1F
  5
21
331
30B0
  5
30B0
331
31A4
  5
31A4
331
3165
  5
3165
331
312E
  5
312E
331
30EF
  5
30EF
331
30B8
  5
30B8
331
316D
  5
316D
331
3136
  5
3136
331
30F7
  5
30F7
331
30C0
  5
30C0
331
3175
  5
3175
331
30FF
  5
30FF
331
3089
  5
3089
331
317D
  5
317D
331
3107
  5
3107
331
2E5C
  5
2E5C
331
27
  5
27
331
30C8
  5
30C8
331
3185
  5
3185
331
3146
  5
3146
331
310F
  5
310F
331
30D0
  5
30D0
331
318D
  5
318D
331
314E
  5
314E
331
3117
  5
3117
331
30D8
  5
30D8
331
30A1
  5
30A1
331
3195
  5
3195
331
3156
  5
3156
331
311F
  5
311F
331
30E0
  5
30E0
331
30A9
  5
30A9
331
319D
  5
319D
331
315E
  5
315E
331
3127
  5
3127
331
10
  5
14
331
30E8
  5
30E8
331
30B1
  5
30B1
331
31A5
  5
31A5
331
3166
  5
3166
331
312F
  5
312F
331
30F0
  5
30F0
331
30B9
  5
30B9
331
316E
  5
316E
331
3137
  5
3137
331
30F8
  5
30F8
331
30C1
  5
30C1
331
3176
  5
3176
331
3100
  5
3100
331
308A
  5
3092
331
317E
  5
317E
331
3108
  5
3108
331
30C9
  5
30C9
331
3092
  5
3091
331
301C
  5
301C
331
3186
  5
3186
331
3147
  5
3147
331
3110
  5
3110
331
30D1
  5
30D1
331
3024
  5
3024
331
318E
  5
318E
331
314F
  5
314F
331
3118
  5
3118
331
30D9
  5
30D9
331
30A2
  5
30A2
331
3196
  5
3196
331
3157
  5
3157
331
3120
  5
3120
331
30E1
  5
30E1
331
30AA
  5
30AA
331
319E
  5
319E
331
315F
  5
315F
331
2E07
  5
2E07
331
11
  5
15
331
3128
  5
3128
331
30E9
  5
30E9
331
30B2
  5
30B2
331
31A6
  5
31A6
331
3167
  5
3167
331
3130
  5
3130
331
30F1
  5
30F1
331
30BA
  5
30BA
331
316F
  5
316F
331
3138
  5
3138
331
30F9
  5
30F9
331
30C2
  5
30C2
331
3083
  5
3083
331
3177
  5
3177
331
3101
  5
3101
331
308B
  5
3093
331
317F
  5
317F
331
21
  5
22
331
3109
  5
3109
331
30CA
  5
30CA
331
301D
  5
301D
331
3187
  5
3187
331
3148
  5
3148
331
3111
  5
3111
331
30D2
  5
30D2
331
3025
  5
3025
331
318F
  5
318F
331
3150
  5
3150
331
3119
  5
3119
331
30DA
  5
30DA
331
30A3
  5
30A3
331
3197
  5
3197
331
3158
  5
3158
331
3121
  5
3121
331
30E2
  5
30E2
331
30AB
  5
30AB
331
319F
  5
319F
331
2DE8
  5
2DE8
331
10F
  5
10F
331
12
  5
16
331
3160
  5
3160
331
3129
  5
3129
331
30EA
  5
30EA
331
30B3
  5
30B3
331
31A7
  5
31A7
331
3168
  5
3168
331
3131
  5
3131
331
30F2
  5
30F2
331
30BB
  5
30BB
331
3170
  5
3170
331
30FA
  5
30FA
331
30C3
  5
30C3
331
3084
  5
3084
331
3178
  5
3178
331
3102
  5
3102
331
308C
  5
3094
  0
SORTENTSTABLE
  5
B6E
102
{ACAD_REACTORS
330
B6D
102
}
330
B6D
100
AcDbSortentsTable
330
B69
  0
XRECORD
  5
14B
102
{ACAD_REACTORS
330
14A
102
}
330
14A
100
AcDbXrecord
280
     1
 40
0.18
  0
IMAGEDEF
  5
2EBF
102
{ACAD_REACTORS
330
2EBE
330
2EC1
102
}
330
2EBE
100
AcDbRasterImageDef
 90
        0
  1
\\Commander\f\Lavori\BRIOMEDIA\Amadei\Originali\Website\Classicstyl\decori\3002-HQ.jpg
 10
713.0
 20
372.0
 11
0.01
 21
0.01
280
     1
281
     0
  0
IMAGEDEF
  5
2F46
102
{ACAD_REACTORS
330
2EBE
330
2F47
102
}
330
2EBE
100
AcDbRasterImageDef
 90
        0
  1
\\Commander\f\Lavori\BRIOMEDIA\Amadei\Originali\Website\Classicstyl\decori\3004-HQ.jpg
 10
741.0
 20
474.0
 11
0.01
 21
0.01
280
     1
281
     0
  0
IMAGEDEF
  5
301F
102
{ACAD_REACTORS
330
2EBE
330
3020
102
}
330
2EBE
100
AcDbRasterImageDef
 90
        0
  1
\\Commander\f\Lavori\BRIOMEDIA\Amadei\Originali\Website\Classicstyl\decori\3005-HQ.jpg
 10
815.0
 20
434.0
 11
0.3527777777777778
 21
0.3527777777777778
280
     1
281
     5
  0
IMAGEDEF
  5
3099
102
{ACAD_REACTORS
330
2EBE
330
309A
102
}
330
2EBE
100
AcDbRasterImageDef
 90
        0
  1
\\Commander\f\Lavori\BRIOMEDIA\Amadei\Originali\Website\Classicstyl\decori\3006-HQ.jpg
 10
839.0
 20
416.0
 11
0.3527777777777778
 21
0.3527777777777778
280
     1
281
     5
  0
LAYOUT
  5
82
102
{ACAD_XDICTIONARY
360
83
102
}
102
{ACAD_REACTORS
330
78
102
}
330
78
100
AcDbPlotSettings
  1

  2
C:\Documents and Settings\All Users\Dati applicazioni\Autodesk\ADT 2006\enu\Plotters\Default Windows System Printer.pc3
  4
A4
  6

 40
3.174999952316281
 41
3.174999952316281
 42
3.175003051757812
 43
3.17498779296875
 44
209.9733276367186
 45
297.0106506347656
 46
0.0
 47
0.0
 48
0.0
 49
0.0
140
0.0
141
0.0
142
1.0
143
1.0
 70
   688
 72
     1
 73
     1
 74
     5
  7

 75
    16
147
1.0
 76
     0
 77
     2
 78
   300
148
0.0
149
0.0
100
AcDbLayout
  1
Layout1
 70
     1
 71
     1
 10
-3.17498779296875
 20
-3.174999952316281
 11
293.8356628417969
 21
206.7983276844024
 12
0.0
 22
0.0
 32
0.0
 14
29.06606628894805
 24
20.36233246326446
 34
0.0
 15
261.5945966005325
 25
183.2609921693802
 35
0.0
146
0.0
 13
0.0
 23
0.0
 33
0.0
 16
1.0
 26
0.0
 36
0.0
 17
0.0
 27
1.0
 37
0.0
 76
     0
330
79
331
7B
1001
ACAD_PSEXT
1000
C:\Documents and Settings\All Users\Dati applicazioni\Autodesk\ADT 2006\enu\Plotters\Default Windows System Printer.pc3
1000
Microsoft Office Document Image Writer Driver
1000
Microsoft Document Imaging Writer Port:
1000

1070
     0
  0
LAYOUT
  5
89
102
{ACAD_REACTORS
330
78
102
}
330
78
100
AcDbPlotSettings
  1

  2
C:\Documents and Settings\All Users\Dati applicazioni\Autodesk\ADT 2006\enu\Plotters\Default Windows System Printer.pc3
  4

  6

 40
0.0
 41
0.0
 42
0.0
 43
0.0
 44
0.0
 45
0.0
 46
0.0
 47
0.0
 48
0.0
 49
0.0
140
0.0
141
0.0
142
1.0
143
1.0
 70
   688
 72
     0
 73
     0
 74
     5
  7

 75
    16
147
1.0
 76
     0
 77
     2
 78
   300
148
0.0
149
0.0
100
AcDbLayout
  1
Layout2
 70
     1
 71
     2
 10
0.0
 20
0.0
 11
12.0
 21
9.0
 12
0.0
 22
0.0
 32
0.0
 14
0.0
 24
0.0
 34
0.0
 15
0.0
 25
0.0
 35
0.0
146
0.0
 13
0.0
 23
0.0
 33
0.0
 16
1.0
 26
0.0
 36
0.0
 17
0.0
 27
1.0
 37
0.0
 76
     0
330
86
  0
LAYOUT
  5
77
102
{ACAD_REACTORS
330
78
102
}
330
78
100
AcDbPlotSettings
  1

  2
C:\Documents and Settings\All Users\Dati applicazioni\Autodesk\ADT 2006\enu\Plotters\Default Windows System Printer.pc3
  4

  6

 40
0.0
 41
0.0
 42
0.0
 43
0.0
 44
0.0
 45
0.0
 46
0.0
 47
0.0
 48
0.0
 49
0.0
140
0.0
141
0.0
142
1.0
143
1.0
 70
  1712
 72
     0
 73
     0
 74
     0
  7

 75
     0
147
1.0
 76
     0
 77
     2
 78
   300
148
0.0
149
0.0
100
AcDbLayout
  1
Model
 70
     1
 71
     0
 10
0.0
 20
0.0
 11
12.0
 21
9.0
 12
0.0
 22
0.0
 32
0.0
 14
0.0
 24
0.0
 34
0.0
 15
0.0
 25
0.0
 35
0.0
146
0.0
 13
0.0
 23
0.0
 33
0.0
 16
1.0
 26
0.0
 36
0.0
 17
0.0
 27
1.0
 37
0.0
 76
     0
330
2
  0
MATERIAL
  5
A0
102
{ACAD_XDICTIONARY
360
C7
102
}
102
{ACAD_REACTORS
330
B
102
}
330
B
100
AcDbMaterial
  1
ByBlock
  0
MATERIAL
  5
9F
102
{ACAD_XDICTIONARY
360
C5
102
}
102
{ACAD_REACTORS
330
B
102
}
330
B
100
AcDbMaterial
  1
ByLayer
  0
MATERIAL
  5
A
102
{ACAD_XDICTIONARY
360
B1
102
}
102
{ACAD_REACTORS
330
B
102
}
330
B
100
AcDbMaterial
  1
Global
  0
MLINESTYLE
  5
A3
102
{ACAD_REACTORS
330
9D
102
}
330
9D
100
AcDbMlineStyle
  2
STANDARD
 70
     0
  3

 62
   256
 51
90.0
 52
90.0
 71
     2
 49
0.5
 62
   256
  6
BYLAYER
 49
-0.5
 62
   256
  6
BYLAYER
  0
ACDBPLACEHOLDER
  5
7
102
{ACAD_REACTORS
330
8
102
}
330
8
  0
TABLESTYLE
  5
A4
102
{ACAD_XDICTIONARY
360
155
102
}
102
{ACAD_REACTORS
330
A2
102
}
330
A2
100
AcDbTableStyle
  3
Standard
 70
     0
 71
     0
 40
1.5
 41
1.5
280
     0
281
     0
  7
Standard
140
4.5
170
     2
 62
     0
 63
     7
283
     0
274
    -2
284
     1
 64
     0
275
    -2
285
     1
 65
     0
276
    -2
286
     1
 66
     0
277
    -2
287
     1
 67
     0
278
    -2
288
     1
 68
     0
279
    -2
289
     1
 69
     0
  7
Standard
140
6.0
170
     5
 62
     0
 63
     7
283
     0
274
    -2
284
     1
 64
     0
275
    -2
285
     1
 65
     0
276
    -2
286
     1
 66
     0
277
    -2
287
     1
 67
     0
278
    -2
288
     1
 68
     0
279
    -2
289
     1
 69
     0
  7
Standard
140
4.5
170
     5
 62
     0
 63
     7
283
     0
274
    -2
284
     1
 64
     0
275
    -2
285
     1
 65
     0
276
    -2
286
     1
 66
     0
277
    -2
287
     1
 67
     0
278
    -2
288
     1
 68
     0
279
    -2
289
     1
 69
     0
  0
ACAD_PROXY_OBJECT
  5
7E
102
{ACAD_REACTORS
330
7F
102
}
330
7F
100
AcDbProxyObject
 90
      499
 91
      508
 95
  1310743
 70
     1
100
AcDbVisualStyle
  2
2dWireframe
 70
     4
 71
     0
 72
     2
 73
     0
 90
        0
 40
-0.6
 41
-30.0
 62
     5
 63
     7
 74
     1
 91
        4
 64
     7
 65
   257
 75
     1
175
     1
 42
1.0
 92
        0
 66
   257
 43
1.0
 76
     1
 77
     6
 78
     2
 67
     7
 79
     5
170
     0
171
     0
290
     0
174
     0
 93
        1
 44
0.0
173
     0
291
     0
 45
0.0
1001
ACAD
1000
AcDbSavedByObjectVersion
1070
     0
1000
AcDbSavedByObjectVersion
1070
     0
1000
AcDbSavedByObjectVersion
1070
     0
  0
ACAD_PROXY_OBJECT
  5
D8
102
{ACAD_REACTORS
330
7F
102
}
330
7F
100
AcDbProxyObject
 90
      499
 91
      508
 95
  1310743
 70
     1
100
AcDbVisualStyle
  2
3D Hidden
 70
     6
 71
     1
 72
     2
 73
     2
 90
        0
 40
-0.6
 41
-30.0
 62
     5
 63
     7
 74
     2
 91
        2
 64
     7
 65
   257
 75
     2
175
     1
 42
40.0
 92
        0
 66
   257
 43
1.0
 76
     1
 77
     6
 78
     2
 67
     7
 79
     3
170
     0
171
     0
290
     0
174
     0
 93
        1
 44
0.0
173
     0
291
     0
 45
0.0
1001
ACAD
1000
AcDbSavedByObjectVersion
1070
     0
1000
AcDbSavedByObjectVersion
1070
     0
  0
ACAD_PROXY_OBJECT
  5
A6
102
{ACAD_REACTORS
330
7F
102
}
330
7F
100
AcDbProxyObject
 90
      499
 91
      508
 95
  1310743
 70
     1
100
AcDbVisualStyle
  2
3dWireframe
 70
     5
 71
     0
 72
     2
 73
     0
 90
        0
 40
-0.6
 41
-30.0
 62
     5
 63
     7
 74
     1
 91
        4
 64
     7
 65
   257
 75
     1
175
     1
 42
1.0
 92
        0
 66
   257
 43
1.0
 76
     1
 77
     6
 78
     2
 67
     7
 79
     5
170
     0
171
     0
290
     0
174
     0
 93
        1
 44
0.0
173
     0
291
     0
 45
0.0
1001
ACAD
1000
AcDbSavedByObjectVersion
1070
     0
1000
AcDbSavedByObjectVersion
1070
     0
1000
AcDbSavedByObjectVersion
1070
     0
  0
ACAD_PROXY_OBJECT
  5
D7
102
{ACAD_REACTORS
330
7F
102
}
330
7F
100
AcDbProxyObject
 90
      499
 91
      508
 95
  1310743
 70
     1
100
AcDbVisualStyle
  2
Basic
 70
     7
 71
     1
 72
     0
 73
     1
 90
        0
 40
-0.6
 41
-30.0
 62
     5
 63
     7
 74
     0
 91
        4
 64
     7
 65
   257
 75
     1
175
     1
 42
1.0
 92
        8
 66
     7
 43
1.0
 76
     1
 77
     6
 78
     2
 67
     7
 79
     5
170
     0
171
     0
290
     0
174
     0
 93
        1
 44
0.0
173
     0
291
     1
 45
0.0
1001
ACAD
1000
AcDbSavedByObjectVersion
1070
     0
1000
AcDbSavedByObjectVersion
1070
     0
  0
ACAD_PROXY_OBJECT
  5
DB
102
{ACAD_REACTORS
330
7F
102
}
330
7F
100
AcDbProxyObject
 90
      499
 91
      508
 95
  1310743
 70
     1
100
AcDbVisualStyle
  2
Brighten
 70
    12
 71
     2
 72
     2
 73
     0
 90
        0
 40
-0.6
 41
-30.0
 62
     5
 63
     7
 74
     1
 91
        4
 64
     7
 65
   257
 75
     1
175
     1
 42
1.0
 92
        8
 66
     7
 43
1.0
 76
     1
 77
     6
 78
     2
 67
     7
 79
     5
170
     0
171
     0
290
     0
174
     0
 93
        1
 44
50.0
173
     0
291
     1
 45
0.0
1001
ACAD
1000
AcDbSavedByObjectVersion
1070
     0
1000
AcDbSavedByObjectVersion
1070
     0
  0
ACAD_PROXY_OBJECT
  5
DF
102
{ACAD_REACTORS
330
7F
102
}
330
7F
100
AcDbProxyObject
 90
      499
 91
      508
 95
  1310743
 70
     1
100
AcDbVisualStyle
  2
ColorChange
 70
    16
 71
     2
 72
     2
 73
     3
 90
        0
 40
-0.6
 41
-30.0
 62
     5
 63
     8
 74
     1
 91
        4
 64
     7
 65
   257
 75
     1
175
     1
 42
1.0
 92
        8
 66
     8
 43
1.0
 76
     1
 77
     6
 78
     2
 67
     7
 79
     5
170
     0
171
     0
290
     0
174
     0
 93
        1
 44
0.0
173
     0
291
     1
 45
0.0
1001
ACAD
1000
AcDbSavedByObjectVersion
1070
     0
1000
AcDbSavedByObjectVersion
1070
     0
  0
ACAD_PROXY_OBJECT
  5
D9
102
{ACAD_REACTORS
330
7F
102
}
330
7F
100
AcDbProxyObject
 90
      499
 91
      508
 95
  1310743
 70
     1
100
AcDbVisualStyle
  2
Conceptual
 70
     9
 71
     3
 72
     2
 73
     0
 90
        0
 40
-0.6
 41
-30.0
 62
     5
 63
     7
 74
     2
 91
        2
 64
     7
 65
   257
 75
     1
175
     1
 42
40.0
 92
        8
 66
     7
 43
1.0
 76
     1
 77
     6
 78
     2
 67
     7
 79
     3
170
     0
171
     0
290
     0
174
     0
 93
        1
 44
0.0
173
     0
291
     0
 45
0.0
1001
ACAD
1000
AcDbSavedByObjectVersion
1070
     0
1000
AcDbSavedByObjectVersion
1070
     0
  0
ACAD_PROXY_OBJECT
  5
DA
102
{ACAD_REACTORS
330
7F
102
}
330
7F
100
AcDbProxyObject
 90
      499
 91
      508
 95
  1310743
 70
     1
100
AcDbVisualStyle
  2
Dim
 70
    11
 71
     2
 72
     2
 73
     0
 90
        0
 40
-0.6
 41
-30.0
 62
     5
 63
     7
 74
     1
 91
        4
 64
     7
 65
   257
 75
     1
175
     1
 42
1.0
 92
        8
 66
     7
 43
1.0
 76
     1
 77
     6
 78
     2
 67
     7
 79
     5
170
     0
171
     0
290
     0
174
     0
 93
        1
 44
-50.0
173
     0
291
     1
 45
0.0
1001
ACAD
1000
AcDbSavedByObjectVersion
1070
     0
1000
AcDbSavedByObjectVersion
1070
     0
  0
ACAD_PROXY_OBJECT
  5
DE
102
{ACAD_REACTORS
330
7F
102
}
330
7F
100
AcDbProxyObject
 90
      499
 91
      508
 95
  1310743
 70
     1
100
AcDbVisualStyle
  2
Facepattern
 70
    15
 71
     2
 72
     2
 73
     0
 90
        0
 40
-0.6
 41
-30.0
 62
     5
 63
     7
 74
     1
 91
        4
 64
     7
 65
   257
 75
     1
175
     1
 42
1.0
 92
        8
 66
     7
 43
1.0
 76
     1
 77
     6
 78
     2
 67
     7
 79
     5
170
     0
171
     0
290
     0
174
     0
 93
        1
 44
0.0
173
     0
291
     1
 45
0.0
1001
ACAD
1000
AcDbSavedByObjectVersion
1070
     0
1000
AcDbSavedByObjectVersion
1070
     0
  0
ACAD_PROXY_OBJECT
  5
D3
102
{ACAD_REACTORS
330
7F
102
}
330
7F
100
AcDbProxyObject
 90
      499
 91
      508
 95
  1310743
 70
     1
100
AcDbVisualStyle
  2
Flat
 70
     0
 71
     2
 72
     1
 73
     1
 90
        2
 40
-0.6
 41
30.0
 62
     5
 63
     7
 74
     0
 91
        4
 64
     7
 65
   257
 75
     1
175
     1
 42
1.0
 92
        8
 66
     7
 43
1.0
 76
     1
 77
     6
 78
     2
 67
     7
 79
     5
170
     0
171
     0
290
     0
174
     0
 93
       13
 44
0.0
173
     0
291
     1
 45
0.0
1001
ACAD
1000
AcDbSavedByObjectVersion
1070
     0
1000
AcDbSavedByObjectVersion
1070
     0
  0
ACAD_PROXY_OBJECT
  5
D4
102
{ACAD_REACTORS
330
7F
102
}
330
7F
100
AcDbProxyObject
 90
      499
 91
      508
 95
  1310743
 70
     1
100
AcDbVisualStyle
  2
FlatWithEdges
 70
     1
 71
     2
 72
     1
 73
     1
 90
        2
 40
-0.6
 41
30.0
 62
     5
 63
     7
 74
     1
 91
        4
 64
     7
 65
   257
 75
     1
175
     1
 42
1.0
 92
        0
 66
   257
 43
1.0
 76
     1
 77
     6
 78
     2
 67
     7
 79
     5
170
     0
171
     0
290
     0
174
     0
 93
       13
 44
0.0
173
     0
291
     1
 45
0.0
1001
ACAD
1000
AcDbSavedByObjectVersion
1070
     0
1000
AcDbSavedByObjectVersion
1070
     0
  0
ACAD_PROXY_OBJECT
  5
D5
102
{ACAD_REACTORS
330
7F
102
}
330
7F
100
AcDbProxyObject
 90
      499
 91
      508
 95
  1310743
 70
     1
100
AcDbVisualStyle
  2
Gouraud
 70
     2
 71
     2
 72
     2
 73
     1
 90
        2
 40
-0.6
 41
30.0
 62
     5
 63
     7
 74
     0
 91
        4
 64
     7
 65
   257
 75
     1
175
     1
 42
1.0
 92
        0
 66
     7
 43
1.0
 76
     1
 77
     6
 78
     2
 67
     7
 79
     5
170
     0
171
     0
290
     0
174
     0
 93
       13
 44
0.0
173
     0
291
     1
 45
0.0
1001
ACAD
1000
AcDbSavedByObjectVersion
1070
     0
1000
AcDbSavedByObjectVersion
1070
     0
  0
ACAD_PROXY_OBJECT
  5
D6
102
{ACAD_REACTORS
330
7F
102
}
330
7F
100
AcDbProxyObject
 90
      499
 91
      508
 95
  1310743
 70
     1
100
AcDbVisualStyle
  2
GouraudWithEdges
 70
     3
 71
     2
 72
     2
 73
     1
 90
        2
 40
-0.6
 41
30.0
 62
     5
 63
     7
 74
     1
 91
        4
 64
     7
 65
   257
 75
     1
175
     1
 42
1.0
 92
        0
 66
   257
 43
1.0
 76
     1
 77
     6
 78
     2
 67
     7
 79
     5
170
     0
171
     0
290
     0
174
     0
 93
       13
 44
0.0
173
     0
291
     1
 45
0.0
1001
ACAD
1000
AcDbSavedByObjectVersion
1070
     0
1000
AcDbSavedByObjectVersion
1070
     0
  0
ACAD_PROXY_OBJECT
  5
DD
102
{ACAD_REACTORS
330
7F
102
}
330
7F
100
AcDbProxyObject
 90
      499
 91
      508
 95
  1310743
 70
     1
100
AcDbVisualStyle
  2
Linepattern
 70
    14
 71
     2
 72
     2
 73
     0
 90
        0
 40
-0.6
 41
-30.0
 62
     5
 63
     7
 74
     1
 91
        4
 64
     7
 65
   257
 75
     7
175
     7
 42
1.0
 92
        8
 66
     7
 43
1.0
 76
     1
 77
     6
 78
     2
 67
     7
 79
     5
170
     0
171
     0
290
     0
174
     0
 93
        1
 44
0.0
173
     0
291
     1
 45
0.0
1001
ACAD
1000
AcDbSavedByObjectVersion
1070
     0
1000
AcDbSavedByObjectVersion
1070
     0
  0
ACAD_PROXY_OBJECT
  5
A5
102
{ACAD_REACTORS
330
7F
102
}
330
7F
100
AcDbProxyObject
 90
      499
 91
      508
 95
  1310743
 70
     1
100
AcDbVisualStyle
  2
Realistic
 70
     8
 71
     2
 72
     2
 73
     0
 90
        0
 40
-0.6
 41
-30.0
 62
     5
 63
     7
 74
     1
 91
        0
 64
     7
 65
   257
 75
     1
175
     1
 42
1.0
 92
        8
 66
     8
 43
1.0
 76
     1
 77
     6
 78
     2
 67
     7
 79
     5
170
     0
171
     0
290
     0
174
     0
 93
       13
 44
0.0
173
     0
291
     0
 45
0.0
1001
ACAD
1000
AcDbSavedByObjectVersion
1070
     0
1000
AcDbSavedByObjectVersion
1070
     0
1000
AcDbSavedByObjectVersion
1070
     0
  0
ACAD_PROXY_OBJECT
  5
DC
102
{ACAD_REACTORS
330
7F
102
}
330
7F
100
AcDbProxyObject
 90
      499
 91
      508
 95
  1310743
 70
     1
100
AcDbVisualStyle
  2
Thicken
 70
    13
 71
     2
 72
     2
 73
     0
 90
        0
 40
-0.6
 41
-30.0
 62
     5
 63
     7
 74
     1
 91
        4
 64
     7
 65
   257
 75
     1
175
     1
 42
1.0
 92
       12
 66
     7
 43
1.0
 76
     1
 77
     6
 78
     2
 67
     7
 79
     5
170
     0
171
     0
290
     0
174
     0
 93
        1
 44
0.0
173
     0
291
     1
 45
0.0
1001
ACAD
1000
AcDbSavedByObjectVersion
1070
     0
1000
AcDbSavedByObjectVersion
1070
     0
  0
DICTIONARYVAR
  5
AA
102
{ACAD_REACTORS
330
A9
102
}
330
A9
100
DictionaryVariables
280
     0
  1
STANDARD
  0
DICTIONARYVAR
  5
AE
102
{ACAD_REACTORS
330
A9
102
}
330
A9
100
DictionaryVariables
280
     0
  1
2
  0
DICTIONARYVAR
  5
AD
102
{ACAD_REACTORS
330
A9
102
}
330
A9
100
DictionaryVariables
280
     0
  1
1
  0
DICTIONARYVAR
  5
AC
102
{ACAD_REACTORS
330
A9
102
}
330
A9
100
DictionaryVariables
280
     0
  1
0
  0
DICTIONARYVAR
  5
16A
102
{ACAD_REACTORS
330
A9
102
}
330
A9
100
DictionaryVariables
280
     0
  1

  0
DICTIONARYVAR
  5
AB
102
{ACAD_REACTORS
330
A9
102
}
330
A9
100
DictionaryVariables
280
     0
  1
127
  0
DICTIONARY
  5
83
330
82
100
AcDbDictionary
280
     1
281
     1
  3
ADSK_XREC_LAYOUTTHUMBNAIL
360
84
  0
DICTIONARY
  5
C7
330
A0
100
AcDbDictionary
280
     1
281
     1
  3
ACAD_XREC_ROUNDTRIP
360
C8
  0
DICTIONARY
  5
C5
330
9F
100
AcDbDictionary
280
     1
281
     1
  3
ACAD_XREC_ROUNDTRIP
360
C6
  0
DICTIONARY
  5
B1
330
A
100
AcDbDictionary
280
     1
281
     1
  3
ACAD_XREC_ROUNDTRIP
360
B2
  0
DICTIONARY
  5
155
330
A4
100
AcDbDictionary
280
     1
281
     1
  3
ACAD_XREC_ROUNDTRIP
360
156
  0
XRECORD
  5
84
102
{ACAD_REACTORS
330
83
102
}
330
83
100
AcDbXrecord
280
     1
310
28000000B40000007F00000001000800000000004C59000000000000000000000001000000000000FFFFFF0000000000FFFFFF000000000000000000000000000000000000000000000000000000000000000000330000006600000099000000CC000000FF00000000330000333300006633000099330000CC330000FF3300
310
0000660000336600006666000099660000CC660000FF66000000990000339900006699000099990000CC990000FF99000000CC000033CC000066CC000099CC0000CCCC0000FFCC000000FF000033FF000066FF000099FF0000CCFF0000FFFF000000003300330033006600330099003300CC003300FF003300003333003333
310
33006633330099333300CC333300FF33330000663300336633006666330099663300CC663300FF66330000993300339933006699330099993300CC993300FF99330000CC330033CC330066CC330099CC3300CCCC3300FFCC330000FF330033FF330066FF330099FF3300CCFF3300FFFF330000006600330066006600660099
310
006600CC006600FF00660000336600333366006633660099336600CC336600FF33660000666600336666006666660099666600CC666600FF66660000996600339966006699660099996600CC996600FF99660000CC660033CC660066CC660099CC6600CCCC6600FFCC660000FF660033FF660066FF660099FF6600CCFF6600
310
FFFF660000009900330099006600990099009900CC009900FF00990000339900333399006633990099339900CC339900FF33990000669900336699006666990099669900CC669900FF66990000999900339999006699990099999900CC999900FF99990000CC990033CC990066CC990099CC9900CCCC9900FFCC990000FF99
310
0033FF990066FF990099FF9900CCFF9900FFFF99000000CC003300CC006600CC009900CC00CC00CC00FF00CC000033CC003333CC006633CC009933CC00CC33CC00FF33CC000066CC003366CC006666CC009966CC00CC66CC00FF66CC000099CC003399CC006699CC009999CC00CC99CC00FF99CC0000CCCC0033CCCC0066CC
310
CC0099CCCC00CCCCCC00FFCCCC0000FFCC0033FFCC0066FFCC0099FFCC00CCFFCC00FFFFCC000000FF003300FF006600FF009900FF00CC00FF00FF00FF000033FF003333FF006633FF009933FF00CC33FF00FF33FF000066FF003366FF006666FF009966FF00CC66FF00FF66FF000099FF003399FF006699FF009999FF00CC
310
99FF00FF99FF0000CCFF0033CCFF0066CCFF0099CCFF00CCCCFF00FFCCFF0000FFFF0033FFFF0066FFFF0099FFFF00CCFFFF00FFFFFF00000000000D0D0D001A1A1A00282828003535350043434300505050005D5D5D006B6B6B00787878008686860093939300A1A1A100AEAEAE00BBBBBB00C9C9C900D6D6D600E4E4E400
310
F1F1F100FFFFFF0000000000000000000000000000000000000000000000000000000000000000000000000000000000E2E2E2E2E2E2E2E2E2E2E2E2E2E2E2E2E2E2E2E2E2E2E2E2E2E2E2E2E2E2E2E2E2E2E2E2E2E2E2E2E2E2E2E2E2E2E2E2E2E2E2E2E2E2E2E2E2E2E2E2E2E2E2E2E2E2E2E2E2E2E2E2E2E2E2E2E2E2E2
310
E2E2E2E2E2E2E2E2E2E2E2E2E2E2E2E2E2E2E2E2E2E2E2E2E2E2E2E2E2E2E2E2E2E2E2E2E2E2E2E2E2E2E2E2E2E2E2E2E2E2E2E2E2E2E2E2E2E2E2E2E2E2E2E2E2E2E2E2E2E2E2E2E2E2E2E2E2E2E2E2E2E2E2E2E2E2E2E2E2E2E2E2E2E2E2E2E2E2E2E2E2E2F5F5F5F5F5F5F5F5F5F5F5F5F5F5F5F5F5F5F5F5F5F5F5F5F5
310
F5F5F5F5F5F5F5F5F5F5F5F5F5F5F5F5F5F5F5F5F5F5F5F5F5F5F5F5F5F5F5F5F5F5F5F5F5F5F5F5F5F5F5F5F5F5F5F5F5F5F5F5F5F5F5F5F5F5F5F5F5F5F5F5F5F5F5F5F5F5F5F5F5F5F5F5F5F5F5F5F5F5F5F5F5F5F5F5F5F5F5F5F5F5F5F5F5F5F5F5F5F5F5F5F5F5F5F5F5F5F5F5F5F5F5F5F5F5F5F5F5F5F5F5F5F5F5
310
F5F5F5F5F5F5F5F5F5F5F5F5F5F5F5F5F5F5F5F5F5F5F5F5F5F5E2E2F5E2E2E2E2E2E2E2E2E2F5F5F5F5F5F5F5F5F5E2E2E2E2E2E2E2E2E2E2E2E2E2E2E2E2F5F5F5F5F5F5F5F5F5E2E2E2E2E2E2E2E2E2E2E2E2E2E2E2E2F5F5F5F5F5F5F5F5F5E2E2E2E2E2E2E2E2E2E2E2E2E2E2E2E2F5F5F5F5F5F5F5F5F5E2E2E2E2E2
310
E2E2E2E2E2E2E2E2E2E2E2F5F5F5F5F5F5F5F5F5E2E2E2E2E2E2E2E2E2E2E2E2E2E2E2E2F5F5F5F5F5F5F5F5F5E2E2E2E2E2E2E2E2E2E2E2E2E2E2E2E2F5F5F5F5F5F5F5F5F5E2E2E2E2E2E2E2E2F5E2E2F5E2F5F5F5F5F5F5F5F5F5F5F5F5F5F5F5F5F5F5F5F5F5F5F5F5F5F5F5F5F5F5F5F5F5F5F5F5F5F5F5F5F5F5F5F5
310
F5F5F5F5F5F5F5F5F5F5F5F5F5F5F5F5F5F5F5F5F5F5F5F5F5F5F5F5F5F5F5F5F5F5F5F5F5F5F5F5F5F5F5F5F5F5F5F5F5F5F5F5F5F5F5F5F5F5F5F5F5F5F5F5F5F5F5F5F5F5F5F5F5F5F5F5F5F5F5F5F5F5F5F5F5F5F5F5F5F5F5F5F5F5F5F5F5F5F5F5F5F5F5F5F5F5F5F5F5F5F5F5F5F5F5F5F5F5F5F5F5F5F5F5F5F5F5
310
F5F5F5E2F5E2E2F5E2F5F5F5F5F5F5F5F5F5F5F5F5F5F5F5F5F5F5F5F5F5F5F5F5F5F5F5F5F5F5F5F5F5F5F5F5F5F5F5F5F5F5F5F5F5F5F5F5F5F5F5F5F5F5F5F5F5F5F5F5F5F5F5F5F5F5F5F5F5F5F5F5F5F5F5F5F5F5F5F5F5F5F5F5F5F5F5F5F5F5F5F5F5F5F5F5F5F5F5F5F5F5F5F5F5F5F5F5F5F5F5F5F5F5F5F5F5F5
310
F5F5F5F5F5F5F5F5F5F5F5F5F5F5F5F5F5F5F5F5F5F5F5F5F5F5F5F5F5F5F5F5F5F5F5F5F5F5F5F5F5F5F5F5F5F5F5F5F5F5F5F5F5F5F5F5E2F5E2E2F5E2F5F5F5F5F5F5F5F5F5F5F5F5F5F5F5F5F5F5F5F5F5F5F5F5F5F5F5F5F5F5F5F5F5F5F5F5F5F5F5F5F5F5F5F5F5F5F5F5F5F5F5F5F5F5F5F5F5F5F5F5F5F5F5F5F5
310
F5F5F5F5F5F5F5F5F5F5F5F5F5F5F5F5F5F5F5F5F5F5F5F5F5F5F5F5F5F5F5F5F5F5F5F5F5F5F5F5F5F5F5F5F5F5F5F5F5F5F5F5F5F5F5F5F5F5F5F5F5F5F5F5F5F5F5F5F5F5F5F5F5F5F5F5F5F5F5F5F5F5F5F5F5F5F5F5F5F5F5F5F5F5F5F5F5F5F5F5F5F5F5F5F5F5F5F5F5E2F5E2E2F5E2F5F5F5F5F5F5F5F5F5F5F5F5
310
F5F5F5F5F5F5F5F5F5F5F5F5F5F5F5F5F5F5F5F5F5F5F5F5F5F5F5F5F5F5F5F5F5F5F5F5F5F5F5F5F5F5F5F5F5F5F5F5F5F5F5F5F5F5F5F5F5F5F5F5F5F5F5F5F5F5F5F5F5F5F5F5F5F5F5F5F5F5F5F5F5F5F5F5F5F5F5F5F5F5F5F5F5F5F5F5F5F5F5F5F5F5F5F5F5F5F5F5F5F5F5F5F5F5F5F5F5F5F5F5F5F5F5F5F5F5F5
310
F5F5F5F5F5F5F5F5F5F5F5F5F5F5F5F5F5F5F5F5F5F5F5F5F5F5F5F5F5F5F5F5F5F5F5E2F5E2E2F5E2F5F5F5F5F5F5F5F5F5F5F5F5F5F5F5F5F5F5F5F5F5F5F5F5F5F5F5F5F5F5F5F5F5F5F5F5F5F5F5F5F5F5F5F5F5F5F5F5F5F5F5F5F5F5F5F5F5F5F5F5F5F5F5F5F5F5F5F5F5F5F5F5F5F5F5F5F5F5F5F5F5F5F5F5F5F5
310
F5F5F5F5F5F5F5F5F5F5F5F5F5F5F5F5F5F5F5F5F5F5F5F5F5F5F5F5F5F5F5F5F5F5F5F5F5F5F5F5F5F5F5F5F5F5F5F5F5F5F5F5F5F5F5F5F5F5F5F5F5F5F5F5F5F5F5F5F5F5F5F5F5F5F5F5F5F5F5F5F5F5F5F5F5F5F5F5E2F5E2E2F5E2F5F5F5F5F5F5F5F5F5F5F5F5F5F5F5F5F5F5F5F5F5F5F5F5F5F5F5F5F5F5F5F5F5
310
F5F5F5F5F5F5F5F5F5F5F5F5F5F5F5F5F5F5F5F5F5F5F5F5F5F5F5F5F5F5F5F5F5F5F5F5F5F5F5F5F5F5F5F5F5F5F5F5F5F5F5F5F5F5F5F5F5F5F5F5F5F5F5F5F5F5F5F5F5F5F5F5F5F5F5F5F5F5F5F5F5F5F5F5F5F5F5F5F5F5F5F5F5F5F5F5F5F5F5F5F5F5F5F5F5F5F5F5F5F5F5F5F5F5F5F5F5F5F5F5F5F5F5F5F5F5F5
310
F5F5F5F5F5F5F5F5F5F5F5F5F5F5E2F5E2E2F5E2F5F5F5F5F5F5F5F5F5F5F5F5F5F5F5F5F5F5F5F5F5F5F5F5F5F5F5F5F5F5F5F5F5F5F5F5F5F5F5F5F5F5F5F5F5F5F5F5F5F5F5F5F5F5F5F5F5F5F5F5F5F5F5F5F5F5F5F5F5F5F5F5F5F5F5F5F5F5F5F5F5F5F5F5F5F5F5F5F5F5F5F5F5F5F5F5F5F5F5F5F5F5F5F5F5F5F5
310
F5F5F5F5F5F5F5F5F5F5F5F5F5F5F5F5F5F5F5F5F5F5F5F5F5F5F5F5F5F5F5F5F5F5F5F5F5F5F5F5F5F5F5F5F5F5F5F5F5F5F5F5F5F5F5F5F5F5F5F5F5F5F5F5F5F5F5E2F5E2E2F5F5F5F5F5F5F5F5F5F5F5F5F5F5F5F5F5F5F5F5F5F5F5F5F5F5F5F5F5F5F5F5F5F5F5F5F5F5F5F5F5F5F5F5F5F5F5F5F5F5F5F5F5F5F5F5
310
F5F5F5F5F5F5F5F5F5F5F5F5F5F5F5F5F5F5F5F5F5F5F5F5F5F5F5F5F5F5F5F5F5F5F5F5F5F5F5F5F5F5F5F5F5F5F5F5F5F5F5F5F5F5F5F5F5F5F5F5F5F5F5F5F5F5F5F5F5F5F5F5F5F5F5F5F5F5F5F5F5F5F5F5F5F5F5F5F5F5F5F5F5F5F5F5F5F5F5F5F5F5F5F5F5F5F5F5F5F5F5F5F5F5F5F5F5F5F5F5F5F5E2E2F5F5F5
310
F5F5F5F5F5F5F5F5F5F5F5F5F5F5F5F5F5F5F5F5F5F5F5F5F5F5F5F5F5F5F5F5F5F5F5F5F5F5F5F5F5F5F5F5F5F5F5F5F5F5F5F5F5F5F5F5F5F5F5F5F5F5F5F5F5F5F5F5F5F5F5F5F5F5F5F5F5F5F5F5F5F5F5F5F5F5F5F5F5F5F5F5F5F5F5F5F5F5F5F5F5F5F5F5F5F5F5F5F5F5F5F5F5F5F5F5F5F5F5F5F5F5F5F5F5F5F5
310
F5F5F5F5F5F5F5F5F5F5F5F5F5F5F5F5F5F5F5F5F5F5F5F5F5F5F5F5F5F5F5F5F5F5F5F5F5F5F5F5F5F5F5F5F5F5F5F5E2E2F5F5F5F5F5F5F5F5F5F5F5F5F5F5F5F5F5F5F5F5F5F5F5F5F5F5F5F5F5F5F5F5F5F5F5F5F5F5F5F5F5F5F5F5F5F5F5F5F5F5F5F5F5F5F5F5F5F5F5F5F5F5F5F5F5F5F5F5F5F5F5F5F5F5F5F5F5
310
F5F5F5F5F5F5F5F5F5F5F5F5F5F5F5F5F5F5F5F5F5F5F5F5F5F5F5F5F5F5F5F5F5F5F5F5F5F5F5F5F5F5F5F5F5F5F5F5F5F5F5F5F5F5F5F5F5F5F5F5F5F5F5F5F5F5F5F5F5F5F5F5F5F5F5F5F5F5F5F5F5F5F5F5F5F5F5F5F5F5F5F5F5F5F5F5F5F5F5F5F5E2E2F5F5F5F5F5F5F5F5F5F5F5F5F5F5F5F5F5F5F5F5F5F5F5F5
310
F5F5F5F5F5F5F5F5F5F5F5F5F5F5F5F5F5F5F5F5F5F5F5F5F5F5F5F5F5F5F5F5F5F5F5F5F5F5F5F5F5F5F5F5F5F5F5F5F5F5F5F5F5F5F5F5F5F5F5F5F5F5F5F5F5F5F5F5F5F5F5F5F5F5F5F5F5F5F5F5F5F5F5F5F5F5F5F5F5F5F5F5F5F5F5F5F5F5F5F5F5F5F5F5F5F5F5F5F5F5F5F5F5F5F5F5F5F5F5F5F5F5F5F5F5F5F5
310
F5F5F5F5F5F5F5F5F5F5F5F5F5F5F5F5F5F5F5F5F5F5F5F5F5F5F5E2E2F5F5F5F5F5F5F5F5F5F5F5F5F5F5F5F5F5F5F5DCDCDCDCDCDCDCDCDCDCDCDCDCDCDCDCDCDCDCDCDCDCDCDCDCDCDCDCDCDCDCDCDCDCDCDCDCDCDCDCDCDCDCDCDCDCDCDCDCDCDCDCDCDCDCDCDCDCDCDCDCDCDCDCDCDCDCDCDCDCDCDCDCDCDCDCDCDCDC
310
DCDCDCDCDCDCDCDCDCDCDCDCDCDCDCDCDCDCDCDCDCDCDCDCDCDCDCDCDCDCDCDCDCDCDCDCDCDCDCDCDCDCDCDCDCDCDCDCDCDCDCDCDCDCDCDCDCDCDCDCDCF5F5F5F5F5F5F5F5F5F5F5F5F5F5F5F5F5F5F5E2E2F5F5F5F5F5F5F5F5F5F5F5F5F5F5F5F5F5F5F5DCDCDCDCDCDCDCDCDCDCDCDCDCDCDCDCDCDCDCDCDCDCDCDCDCDC
310
DCDCDCDCDCDCDCDCDCDCDCDCDCDCDCDCDCDCDCDCDCDCDCDCDCDCDCDCDCDCDCDCDCDCDCDCDCDCDCDCDCDCDCDCDCDCDCDCDCDCDCDCDCDCDCDCDCDCDCDCDCDCDCDCDCDCDCDCDCDCDCDCDCDCDCDCDCDCDCDCDCDCDCDCDCDCDCDCDCDCDCDCDCDCDCDCDCDCDCDCDCDCDCDCDCDCDCDCDCDCDCDCDCDCF5F5F5F5F5F5F5F5F5F5F5F5F5
310
F5F5F5F5F5F5E2E2F5F5F5F5F5F5F5F5F5F5F5F5F5F5F5F5F5F5F5DCF5F5F5F5F5F5F5F5F5F5F5F5F5F5F5F5F5F5F5F5F5F5F5F5F5F5F5F5F5F5F5F5F5F5F5F5F5F5F5F5F5F5F5F5F5F5F5F5F5F5F5F5F5F5F5F5F5F5F5F5F5F5F5F5F5F5F5F5F5F5F5F5F5F5F5F5F5F5F5F5F5F5F5F5F5F5F5F5F5F5F5F5F5F5F5F5F5F5F5
310
F5F5F5F5F5F5F5F5F5F5F5F5F5F5F5F5F5F5F5F5F5F5F5F5F5F5F5F5F5F5F5F5F5F5F5F5F5F5F5DCF5F5F5F5F5F5F5F5F5F5F5F5F5F5F5F5F5F5F5E2E2F5F5F5F5F5F5F5F5F5F5F5F5F5F5F5F5F5F5F5DCF5282828282828282828282828282828282828282828282828282828282828282828282828282828282828282828
310
28282828282828282828282828282828282828282828282828282828282828282828282828282828282828282828282828282828282828282828282828282828282828282828282828282828282828282828282828282828282828F5DCF5F5F5F5F5F5F5F5F5F5F5F5F5F5F5F5F5F5F5E2E2F5F5F5F5F5F5F5F5F5F5F5F5F5
310
F5F5F5F5F5F5DCF5282D2D2D2D2D2D2D2D2D2D2D2D2D2D2D2D2D2D2D2D2DF5F5F5F5F5F5F5F5F5F5F5F5F5F5F5F5F5F5F5F5F5F5F5F5F5F5F5F5F5F5F5F5F5F5F5F5F5F5F5F5F5F5F5F5F528F5F5F5F5F5F5F5F5F5F5F5F5F5F5F5F5F5F5F5F5F5F5F5F5F5F5F5F5F5F5F5F5F5F5F5F5F5F5F5F5F5F5F5F5F5F5F5F5F5F5F5
310
F5F5F5F5F5F5F5F5F5F5F5F5F5F5F5F528F5DCF5F5F5F5F5F5F5F5F5F5F5F5F5F5F5F5F5F5F5E2E2F5E2F5F5F5F5F5F5F5F5F5F5F5F5F5F5F5F5F5DCF5282D2D2D2D2D2D2D2D2D2D2D2D2D2D2D2D2D2D2D2D2D2D2D2D2D2D2D2D2DF5F5F5F5F5F5F5F5F5F5F5F5F5F5F5F5F5F5F5F5F5F5F5F5F5F5F5F5F5F5F5F5F5F5F5F5
310
F528F5F5F5F5F5F5F5F5F5F5F5F5F5F5F5F5F5F5F5F5F5F5F5F5F5F5F5F5F5F5F5F5F5F5F5F5F5F5F5F5F5F5F5F5F5F5F5F5F5F5F5F5F5F5F5F5F5F5F5F5F5F5F5F5F5F5F528F5DCF5F5F5F5F5F5F5F5F5F5F5F5F5F5F5F5F5E2F5E2E2F5E2F5F5F5F5F5F5F5F5F5F5F5F5F5F5F5F5F5DCF5282D2D2D2D2D2D2D2D2D2D2D2D
310
2D2D2D2D2D2D2D2D2D2D2D2D2D2D2D2D2DF5F5F5F5F5F5F5F5F5F5F5F5F5F5F5F5F5F5F5F5F5F5F5F5F5F5F5F5F5F5F5F5F5F5F5F5F528F5F5F5F5F5F5F5F52D2D2D2D2D2D2D2D2D2D2D2D2D2D2D2D2D2D2D2D2D2D2D2D2D2D2D2D2D2D2D2D2D2D2D2D2D2D2D2D2D2D2D2D2D2D2D2D2D2D2DF5F5F5F5F5F5F5F528F5DCF5F5
310
F5F5F5F5F5F5F5F5F5F5F5F5F5F5F5E2F5E2E2F5E2F5F5F5F5F5F5F5F5F5F5F5F5F5F5F5F5F5DCF5282D2D2D2D2D2D2D2D2D2D2D2D2D2D2D2D2D2D2D2D2D2D2D2D2D2D2D2D2D2D2D2D2D2D2D2D2D2D2D2D2D2D2D2D2D2D2D2D2D2D2D2D2D2D2D2D2D2D2D2D2D2D2D2D2D2D28F5F5F5F5F5F5F5F52D2D2D2D2D2D2D2D2D2D2D
310
2D2D2D2D2D2D2D2D2D2D2D2D2D2D2D2D2D2D2D2D2D2D2D2D2D2D2D2D2D2D2D2D2D2D2D2D2D2D2D2DF5F5F5F5F5F5F5F528F5DCF5F5F5F5F5F5F5F5F5F5F5F5F5F5F5F5F5E2F5E2E2F5E2F5F5F5F5F5F5F5F5F5F5F5F5F5F5F5F5F5DCF5282D2D2D2D2D2D2D2D2D2D2D2D2D2D2D2D2D2D2D2D2D2D2D2D2D2D2D2D2D2D2D2D2D
310
2D2D2D2D2D2D2D2D2D2D2D2D2D2D2D2D2D2D2D2D2D2D2D2D2D2D2D2D2DF5F5F5F528F5F5F5F5F5F5F5F5F5F5F5F52D2D2D2D2D2D2D2D2D2D2D2D2D2D2D2D2D2D2D2D2D2D2D2D2D2D2D2D2D2D2D2D2D2D2D2D2D2D2D2D2D2DF5F5F5F5F5F5F5F5F5F5F5F5F528F5DCF5F5F5F5F5F5F5F5F5F5F5F5F5F5F5F5F5E2F5E2E2F5E2
310
F5F5F5F5F5F5F5F5F5F5F5F5F5F5F5F5F5DCF5282D2D2D2D2D2D2D2D2D2D2D2D2D2D2D2D2D2D2D2D2D2D2D2D2D2D2D2D2D2D2D2D2D2D2D2D2D2D2D2D2D2D2D2D2D2D2D2D2D2D2D2D2D2D2D2D2D2D2D2D2D2DF5F5F5F528F5F5F5F5F5F5F5F5F5F5F5F52D2D2D2D2D2D2D2D2D2D2D2D2D2D2D2D2D2D2D2D2D2D2D2D2D2D2D2D
310
2D2D2D2D2D2D2D2D2D2D2D2D2D2DF5F5F5F5F5F5F5F5F5F5F5F5F528F5DCF5F5F5F5F5F5F5F5F5F5F5F5F5F5F5F5F5E2F5E2E2F5E2F5F5F5F5F5F5F5F5F5F5F5F5F5F5F5F5F5DCF5282D2D2D2D2D2D2D2D2D2D2D2D2D2D2D2D2D2D2D2D2D2D2D2D2D2D2D2D2D2D2D2D2D2D2D2D2D2D2D2D2D2D2D2D2D2D2D2D2D2D2D2D2D2D
310
2D2D2D2D2DF5F5F5F5F5F5F528F5F5F5F5F5F5F5F5F5F5F5F5F5F5F5F5F5F5F5F5F5F5F5F5F5F5F5F52D2D2D2D2D2D2D2D2D2DF5F5F5F5F5F5F5F5F5F5F5F5F5F5F5F5F5F5F5F5F5F5F5F5F5F5F5F5F528F5DCF5F5F5F5F5F5F5F5F5F5F5F5F5F5F5F5F5E2F5E2E2F5E2F5F5F5F5F5F5F5F5F5F5F5F5F5F5F5F5F5DCF5282D
310
2D2D2D2D2D2D2D2D2D2D2D2D2D2D2D2D2D2D2D2D2D2D2D2D2D2D2D2D2D2D2DF5F5F5F5F5F5F5F5F5F5F5F5F5F5F5F5F5F5F5F5F5F5F5F5F5F5F5F5F5F5F5F5F5F528F5F5F5F5F5F5F5F5F5F5F5F5F5F5F5F5F5F5F5F5F5F5F5F5F5F5F5F52D2D2D2D2D2D2D2D2D2DF5F5F5F5F5F5F5F5F5F5F5F5F5F5F5F5F5F5F5F5F5F5F5
310
F5F5F5F5F5F528F5DCF5F5F5F5F5F5F5F5F5F5F5F5F5F5F5F5F5E2F5E2E2F5E2F5F5F5F5F5F5F5F5F5F5F5F5F5F5F5F5F5DCF5282D2D2D2D2D2D2D2D2D2D2D2D2D2D2D2D2D2D2D2D2D2D2D2D2D2D2D2D2D2D2D2DF5F5F5F5F5F5F5F5F5F5F5F5F5F5F5F5F5F5F5F5F5F5F5F5F5F5F5F5F5F5F5F5F5F528F5F5F5F5F5F5F5F5
310
F5F5F5F5F5F5F5F5F5F5F5F5F5F5F5F5F5F5F5F52D2D2D2D2D2D2D2D2D2DF5F5F5F5F5F5F5F5F5F5F5F5F5F5F5F5F5F5F5F5F5F5F5F5F5F5F5F5F528F5DCF5F5F5F5F5F5F5F5F5F5F5F5F5F5F5F5F5E2F5E2E2F5E2F5F5F5F5F5F5F5F5F5F5F5F5F5F5F5F5F5DCF5282D2D2D2D2D2D2D2D2D2D2D2D2D2D2D2D2D2D2D2D2D2D
310
2D2D2D2D2D2D2D2D2D2D2D2D2D2D2D2D2D2D2D2D2D2D2D2D2D2D2D2D2D2D2D2D2D2D2D2D2D2D2D2D2D2DF5F528F5F5F5F5F5F5F5F5F5F5F5F5F5F5F5F5F5F5F5F5F5F5F5F5F5F5F5F5F5F5F5F5F5F5F5F5F5F5F5F5F5F5F5F5F5F5F5F5F5F5F5F5F5F5F5F5F5F5F5F5F5F5F5F5F5F5F528F5DCF5F5F5F5F5F5F5F5F5F5F5F5
310
F5F5F5F5F5E2F5E2E2F5E2F5F5F5F5F5F5F5F5F5F5F5F5F5F5F5F5F5DCF528F5F5F5F5F5F5F5F5F5F5F5F5F5F5F5F5F5F5F5F5F5F5F5F5F5F5F5F5F5F5F5F5F5F5F5F5F5F5F5F5F5F5F5F5F5F5F5F5F5F5F5F5F5F5F5F5F5F5F5F5F5F5F5F5F5F528F5F5F5F5F5F5F5F5F5F5F5F5F5F5F5F5F5F5F5F5F5F5F5F5F5F5F5F5F5
310
F5F5F5F5F5F5F5F5F5F5F5F5F5F5F5F5F5F5F5F5F5F5F5F5F5F5F5F5F5F5F5F5F5F5F5F5F5F528F5DCF5F5F5F5F5F5F5F5F5F5F5F5F5F5F5F5F5E2F5E2E2F5E2F5F5F5F5F5F5F5F5F5F5F5F5F5F5F5F5F5DCF52828282828282828282828282828282828282828282828282828282828282828282828282828282828282828
310
2828282828282828282828282828282828282828282828282828282828282828282828282828282828282828282828282828282828282828282828282828282828282828282828282828282828282828282828282828282828282828F5DCF5F5F5F5F5F5F5F5F5F5F5F5F5F5F5F5F5E2F5E2E2F5E2F5F5F5F5F5F5F5F5F5F5
310
F5F5F5F5F5F5F5DCF528F5F5F5F5F5F5F5F5F5F5F5F5F5F5F5F5F5F5F5F5F5F5F5F5F5F5F5F5F5F5F5F5F5F5F5F5F5F5F5F5F5F5F5F5F5F5F5F5F5F5F5F5F5F5F5F5F5F5F5F5F5F5F5F5F5F5F5F5F5F5F5F5F5F5F5F5F5F5F5F5F5F5F5F5F5F5F5F5F5F5F5F5F5F5F5F5F5F5F5F5F5F5F5F5F5F5F5F5F5F5F5F5F5F5F5F5F5
310
F5F5F5F5F5F5F5F5F5F5F5F5F5F5F5F5F528F5DCF5F5F5F5F5F5F5F5F5F5F5F5F5F5F5F5F5E2F5E2E2F5E2F5F5F5F5F5F5F5F5F5F5F5F5F5F5F5F5F5DCF528F5F5F5F5F5F5F5F5F5F5F5F5F5F5F5F5F5F5F5F5F5F5F5F5F5F5F5F5F5F5F5F5F5F5F5F5F5F5F5F5F5F5F5F5F5F5F5F5F5F5F5F5F5F5F5F5F5F5F5F5F5F5F5F5
310
F5F5F5F5F5F5F5F5F5F5F5F5F5F5F5F5F5F5F5F5F5F5F5F5F5F5F5F5F5F5F5F5F5F5F5F5F5F5F5F5F5F5F5F5F5F5F5F5F5F5F5F5F5F5F5F5F5F5F5F5F5F5F5F5F5F5F5F5F5F528F5DCF5F5F5F5F5F5F5F5F5F5F5F5F5F5F5F5F5E2F5E2E2F5E2F5F5F5F5F5F5F5F5F5F5F5F5F5F5F5F5F5DCF528F5F5F5F5F5F5F5F5F5F5F5
310
F5F5F5F5F5F5F5F5F5F5F5F5F5F5F5F5F5F5F5F5F5F5F5F5F5F5F5F5F5F5F5F5F5F5F5F5F5F5F5F5F5F5F5F5F5F5F5F5F5F5F5F5F5F5F5F5F5F5F5F5F5F5F5F5F5F5F5F5F5F5F5F5F5F5F5F5F5F5F5F5F5F5F5F5F5F5F5F5F5F5F5F5F5F5F5F5F5F5F5F5F5F5F5F5F5F5F5F5F5F5F5F5F5F5F5F5F5F5F5F5F5F5F528F5DCF5
310
F5F5F5F5F5F5F5F5F5F5F5F5F5F5F5F5E2F5E2E2F5E2F5F5F5F5F5F5F5F5F5F5F5F5F5F5F5F5F5DCF528F5F5F5F5F5F5F5F5F5F5F5F5F5F5F5F5F5F5F5F5F5F5F5F5F5F5F5F5F5F5F5F5F5F5F5F5F5F5F5F5F5F5F5F5F5F5F5F5F5F5F5F5F5F5F5F5F5F5F5F5F5F5F5F5F5F5F5F5F5F5F5F5F5F5F5F5F5F5F5F5F5F5F5F5F5
310
F5F5F5F5F5F5F5F5F5F5F5F5F5F5F5F5F5F5F5F5F5F5F5F5F5F5F5F5F5F5F5F5F5F5F5F5F5F5F5F5F5F5F5F5F5F5F5F5F528F5DCF5F5F5F5F5F5F5F5F5F5F5F5F5F5F5F5F5E2F5E2E2F5E2F5F5F5F5F5F5F5F5F5F5F5F5F5F5F5F5F5DCF528F5F5F5F5F5F5F5F5F5F5F5F5F5F5F5F5F5F5F5F5F5F5F5F5F5F5F5F5F5F5F5F5
310
F5F5F5F5F5F5F5F5F5F5F5F5F5F5F5F5F5F5F5F5F5F5F5F5F5F5F5F5F5F5F5F5F5F5F5F5F5F5F5F5F5F5F5F5F5F5F5F5F5F5F5F5F5F5F5F5F5F5F5F5F5F5F5F5F5F5F5F5F5F5F5F5F5F5F5F5F5F5F5F5F5F5F5F5F5F5F5F5F5F5F5F5F5F5F5F5F5F5F5F5F5F528F5DCF5F5F5F5F5F5F5F5F5F5F5F5F5F5F5F5F5E2F5E2E2F5
310
F5F5F5F5F5F5F5F5F5F5F5F5F5F5F5F5F5F5DCF528F5F5F5F5F5F5F5F5F5F5F5F5F5F5F5F5F5F5F5F5F5F5F5F5F5F5F5F5F5F5F5F5F5F5F5F5F5F5F5F5F5F5F5F5F5F5F5F5F5F5F5F5F5F5F5F5F5F5F5F5F5F5F5F5F5F5F5F5F5F5F5F5F5F5F5F5F5F5F5F5F5F5F5F5F5F5F5F5F5F5F5F5F5F5F5F5F5F5F5F5F5F5F5F5F5F5
310
F5F5F5F5F5F5F5F5F5F5F5F5F5F5F5F5F5F5F5F5F5F5F5F5F5F5F5F528F5DCF5F5F5F5F5F5F5F5F5F5F5F5F5F5F5F5F5F5F5E2E2F5F5F5F5F5F5F5F5F5F5F5F5F5F5F5F5F5F5F5DCF528F5F5F5F5F5F5F5F5F5F5F5F5F5F5F5F5F5F5F5F5F5F5F5F5F5F5F5F5F5F5F5F5F5F5F5F5F5F5F5F5F5F5F5F5F5F5F5F5F5F5F5F5F5
310
F5F5F5F5F5F5F5F5F5F5F5F5F5F5F5F5F5F5F5F5F5F5F5F5F5F5F5F5F5F5F5F5F5F5F5F5F5F5F5F5F5F5F5F5F5F5F5F5F5F5F5F5F5F5F5F5F5F5F5F5F5F5F5F5F5F5F5F5F5F5F5F5F5F5F5F5F5F5F5F5F528F5DCF5F5F5F5F5F5F5F5F5F5F5F5F5F5F5F5F5F5F5E2E2F5F5F5F5F5F5F5F5F5F5F5F5F5F5F5F5F5F5F5DCF528
310
F5F5F5F5F5F5F5F5F5F5F5F5F5F5F5F5F5F5F5F5F5F5F5F5F5F5F5F5F5F5F5F5F5F5F5F5F5F5F5F5F5F5F5F5F5F5F5F5F5F5F5F5F5F5F5F5F5F5F5F5F5F5F5F5F5F5F5F5F5F5F5F5F5F5F5F5F5F5F5F5F5F5F5F5F5F5F5F5F5F5F5F5F5F5F5F5F5F5F5F5F5F5F5F5F5F5F5F5F5F5F5F5F5F5F5F5F5F5F5F5F5F5F5F5F5F5F5
310
F5F5F5F5F5F5F528F5DCF5F5F5F5F5F5F5F5F5F5F5F5F5F5F5F5F5F5F5E2E2F5F5F5F5F5F5F5F5F5F5F5F5F5F5F5F5F5F5F5DCF528F5F5F5F5F5F5F5F5F5F5F5F5F5F5F5F5F5F5F5F5F5F5F5F5F5F5F5F5F5F5F5F5F5F5F5F5F5F5F5F5F5F5F5F5F5F5F5F5F5F5F5F5F5F5F5F5F5F5F5F5F5F5F5F5F5F5F5F5F5F5F5F5F5F5
310
F5F5F5F5F5F5F5F5F5F5F5F5F5F5F5F5F5F5F5F5F5F5F5F5F5F5F5F5F5F5F5F5F5F5F5F5F5F5F5F5F5F5F5F5F5F5F5F5F5F5F5F5F5F5F5F5F5F5F5F528F5DCF5F5F5F5F5F5F5F5F5F5F5F5F5F5F5F5F5F5F5E2E2F5F5F5F5F5F5F5F5F5F5F5F5F5F5F5F5F5F5F5DCF528F5F5F5F5F5F5F5F5F5F5F5F5F5F5F5F5F5F5F5F5F5
310
F5F5F5F5F5F5F5F5F5F5F5F5F5F5F5F5F5F5F5F5F5F5F5F5F5F5F5F5F5F5F5F5F5F5F5F5F5F5F5F5F5F5F5F5F5F5F5F5F5F5F5F5F5F5F5F5F5F5F5F5F5F5F5F5F5F5F5F5F5F5F5F5F5F5F5F5F5F5F5F5F5F5F5F5F5F5F5F5F5F5F5F5F5F5F5F5F5F5F5F5F5F5F5F5F5F5F5F5F5F5F5F5F528F5DCF5F5F5F5F5F5F5F5F5F5F5
310
F5F5F5F5F5F5F5F5E2E2F5F5F5F5F5F5F5F5F5F5F5F5F5F5F5F5F5F5F5DCF528F5F5F5F5F5F5F5F5F5F5F5F5F5F5F5F5F5F5F5F5F5F5F5F5F5F5F5F5F5F5F5F5F5F5F5F5F5F5F5F5F5F5F5F5F5F5F5F5F5F5F5F5F5F5F5F5F5F5F5F5F5F5F5F5F5F5F5F5F5F5F5F5F5F5F5F5F5F5F5F5F5F5F5F5F5F5F5F5F5F5F5F5F5F5F5
310
F5F5F5F5F5F5F5F5F5F5F5F5F5F5F5F5F5F5F5F5F5F5F5F5F5F5F5F5F5F5F5F5F5F5F5F5F5F5F528F5DCF5F5F5F5F5F5F5F5F5F5F5F5F5F5F5F5F5F5F5E2E2F5F5F5F5F5F5F5F5F5F5F5F5F5F5F5F5F5F5F5DCF528F5F5F5F5F5F5F5F5F5F5F5F5F5F5F5F5F5F5F5F5F5F5F5F5F5F5F5F5F5F5F5F5F5F5F5F5F5F5F5F5F5F5
310
F5F5F5F5F5F5F5F5F5F5F5F5F5F5F5F5F5F5F5F5F5F5F5F5F5F5F5F5F5F5F5F5F5F5F5F5F5F5F5F5F5F5F5F5F5F5F5F5F5F5F5F5F5F5F5F5F5F5F5F5F5F5F5F5F5F5F5F5F5F5F5F5F5F5F5F5F5F5F5F5F5F5F5F5F5F5F5F5F5F5F5F528F5DCF5F5F5F5F5F5F5F5F5F5F5F5F5F5F5F5F5F5F5E2E2F5F5F5F5F5F5F5F5F5F5F5
310
F5F5F5F5F5F5F5F5DCF528F5F5F5F5F5F5F5F5F5F5F5F5F5F5F52D2D2D2D2D2D2D2D2D2DF5F5F5F5F5F5F5F5F5F5F5F5F5F5F5F5F5F5F5F5F5F5F5F5F5F5F5F5F5F5F5F5F5F5F5F5F5F5F5F5F5F5F5F5F5F5F5F5F5F5F5F5F5F5F5F5F5F5F5F5F5F5F5F5F5F5F5F5F5F5F5F5F5F5F5F5F5F5F5F5F5F5F5F5F5F5F5F5F5F5F5
310
F5F5F5F5F5F5F5F5F5F5F5F5F5F5F5F5F5F528F5DCF5F5F5F5F5F5F5F5F5F5F5F5F5F5F5F5F5F5F5E2E2F5E2F5F5F5F5F5F5F5F5F5F5F5F5F5F5F5F5F5DCF528F5F5F5F5F5F5F5F5F5F5F5F5F5F5F52D2D2D2D2D2D2D2D2D2DF5F5F5F5F5F5F5F5F5F5F5F5F5F5F5F5F5F5F5F5F5F5F5F5F5F5F5F5F5F5F5F5F5F5F5F5F5F5
310
F5F5F5F5F5F5F5F5F5F5F5F5F5F5F5F5F5F5F5F5F5F5F5F5F5F5F5F5F5F5F5F5F5F5F5F5F5F5F5F5F5F5F5F5F5F5F5F5F5F5F5F5F5F5F5F5F5F5F5F5F5F5F5F5F5F5F5F5F5F5F528F5DCF5F5F5F5F5F5F5F5F5F5F5F5F5F5F5F5F5E2F5E2E2F5E2F5F5F5F5F5F5F5F5F5F5F5F5F5F5F5F5F5DCF528F5F5F5F5F5F5F5F5F5F5
310
F5F5F5F5F5F5F5F5F5F5F5F5F5F5F5F5F5F5F5F5F5F5F5F5F5F5F5F5F5F5F5F5F5F5F5F5F5F5F5F5F5F5F5F5F5F5F5F5F5F5F5F5F5F5F5F5F5F5F5F5F5F5F5F5F5F5F5F5F5F5F5F5F5F5F5F5F5F5F5F5F5F5F5F5F5F5F5F5F5F5F5F5F5F5F5F5F5F5F5F5F5F5F5F5F5F5F5F5F5F5F5F5F5F5F5F5F5F5F5F5F5F5F5F528F5DC
310
F5F5F5F5F5F5F5F5F5F5F5F5F5F5F5F5F5E2F5E2E2F5E2F5F5F5F5F5F5F5F5F5F5F5F5F5F5F5F5F5DCF528F5F5F5F5F5F5F5F5F5F5F5F5F5F5F5F5F5F5F5F5F5F5F5F5F5F5F5F5F5F5F5F5F5F5F5F5F5F5F5F5F5F5F5F5F5F5F5F5F5F5F5F5F5F5F5F5F5F5F5F5F5F5F5F5F5F5F5F5F5F5F5F5F5F5F5F5F5F5F5F5F5F5F5F5
310
F5F5F5F5F5F5F5F5F5F5F5F5F5F5F5F5F5F5F5F5F5F5F5F5F5F5F5F5F5F5F5F5F5F5F5F5F5F5F5F5F5F5F5F5F5F5F5F5F5F528F5DCF5F5F5F5F5F5F5F5F5F5F5F5F5F5F5F5F5E2F5E2E2F5E2F5F5F5F5F5F5F5F5F5F5F5F5F5F5F5F5F5DCF528F5F5F5F5F5F5F5F5F5F5F5F5F5F5F5F5F5F5F5F5F5F5F5F5F5F5F5F5F5F5F5
310
F5F5F5F5F5F5F5F5F5F5F5F5F5F5F5F5F5F5F5F5F5F5F5F5F5F5F5F5F5F5F5F5F5F5F5F5F5F5F5F5F5F5F5F5F5F5F5F5F5F5F5F5F5F5F5F5F5F5F5F5F5F5F5F5F5F5F5F5F5F5F5F5F5F5F5F5F5F5F5F5F5F5F5F5F5F5F5F5F5F5F5F5F5F5F5F5F5F5F5F5F5F5F528F5DCF5F5F5F5F5F5F5F5F5F5F5F5F5F5F5F5F5E2F5E2E2
310
F5E2F5F5F5F5F5F5F5F5F5F5F5F5F5F5F5F5F5DCF528F5F5F5F5F5F5F5F5F5F5F5F5F5F5F5F5F5F5F5F5F5F5F5F5F5F5F5F5F5F5F5F5F5F5F5F5F5F5F5F5F5F5F5F5F5F5F5F5F5F5F5F5F5F5F5F5F5F5F5F5F5F5F5F5F5F5F5F5F5F5F5F5F5F5F5F5F5F5F5F5F5F5F5F5F5F5F5F5F5F5F5F5F5F5F5F5F5F5F5F5F5F5F5F5F5
310
F5F5F5F5F5F5F5F5F5F5F5F5F5F5F5F5F5F5F5F5F5F5F5F5F5F5F5F5F528F5DCF5F5F5F5F5F5F5F5F5F5F5F5F5F5F5F5F5E2F5E2E2F5E2F5F5F5F5F5F5F5F5F5F5F5F5F5F5F5F5F5DCF528F5F5F5F5F5F5F5F5F5F5F5F5F5F5F5F5F5F5F5F5F5F5F5F5F5F5F5F5F5F5F5F5F5F5F5F5F5F5F5F5F5F5F5F5F5F5F5F5F5F5F5F5
310
F5F5F5F5F5F5F5F5F5F5F5F5F5F5F5F5F5F5F5F5F5F5F5F5F5F5F5F5F5F5F5F5F5F5F5F5F5F5F5F5F5F5F5F5F5F5F5F5F5F5F5F5F5F5F5F5F5F5F5F5F5F5F5F5F5F5F5F5F5F5F5F5F5F5F5F5F5F5F5F5F5F528F5DCF5F5F5F5F5F5F5F5F5F5F5F5F5F5F5F5F5E2F5E2E2F5E2F5F5F5F5F5F5F5F5F5F5F5F5F5F5F5F5F5DCF5
310
28F5F5F5F5F5F5F5F5F5F5F5F5F5F5F5F5F5F5F5F5F5F5F5F5F5F5F5F5F5F5F5F5F5F5F5F5F5F5F5F5F5F5F5F5F5F5F5F5F5F5F5F5F5F5F5F5F5F5F5F5F5F5F5F5F5F5F5F5F5F5F5F5F5F5F5F5F5F5F5F5F5F5F5F5F5F5F5F5F5F5F5F5F5F5F5F5F5F5F5F5F5F5F5F5F5F5F5F5F5F5F5F5F5F5F5F5F5F5F5F5F5F5F5F5F5F5
310
F5F5F5F5F5F5F5F528F5DCF5F5F5F5F5F5F5F5F5F5F5F5F5F5F5F5F5E2F5E2E2F5E2F5F5F5F5F5F5F5F5F5F5F5F5F5F5F5F5F5DCF528F5F5F5F5F5F5F5F5F5F5F5F5F5F5F5F5F5F5F5F5F5F5F5F5F5F5F5F5F5F5F5F5F5F5F5F5F5F5F5F5F5F5F5F5F5F5F5F5F5F5F5F5F5F5F5F5F5F5F5F5F5F5F5F5F5F5F5F5F5F5F5F5F5
310
F5F5F5F5F5F5F5F5F5F5F5F5F5F5F5F5F5F5F5F5F5F5F5F5F5F5F5F5F5F5F5F5F5F5F5F5F5F5F5F5F5F5F5F5F5F5F5F5F5F5F5F5F5F5F5F5F5F5F5F5F528F5DCF5F5F5F5F5F5F5F5F5F5F5F5F5F5F5F5F5E2F5E2E2F5E2F5F5F5F5F5F5F5F5F5F5F5F5F5F5F5F5F5DCF528F5F5F5F5F5F5F5F5F5F5F5F5F5F5F5F5F5F5F5F5
310
F5F5F5F5F5F5F5F5F5F5F5F5F5F5F5F5F5F5F5F5F5F5F5F5F5F5F5F5F5F5F5F5F5F5F5F5F5F5F5F5F5F5F5F5F5F5F5F5F5F5F5F5F5F5F5F5F5F5F5F5F5F5F5F5F5F5F5F5F5F5F5F5F5F5F5F5F5F5F5F5F5F5F5F5F5F5F5F5F5F5F5F5F5F5F5F5F5F5F5F5F5F5F5F5F5F5F5F5F5F5F5F5F5F528F5DCF5F5F5F5F5F5F5F5F5F5
310
F5F5F5F5F5F5F5E2F5E2E2F5E2F5F5F5F5F5F5F5F5F5F5F5F5F5F5F5F5F5DCF528F5F5F5F5F5F5F5F5F5DCF5F5F5F5F5F5F5F5F5F5F5F5F5F5F5F5F5F5F5F5F5F5F5F5F5F5F5F5F5F5F5F5F5F5F5F5F5F5F5F5F5F5F5F5F5F5F5F5F5F5F5F5F5F5F5F5F5F5F5F5F5F5F5F5F5F5F5F5F5F5F5F5F5F5F5F5F5F5F5F5F5F5F5F5
310
F5F5F5F5F5F5F5F5F5F5F5F5F5F5F5F5F5F5F5F5F5F5F5F5F5F5F5F5F5F5F5F5F5F5F5F5F5F5F5F528F5DCF5F5F5F5F5F5F5F5F5F5F5F5F5F5F5F5F5E2F5E2E2F5E2F5F5F5F5F5F5F5F5F5F5F5F5F5F5F5F5F5DCF528F5F5F5F5F5F5F5F50FDCF5F5F5F5F52D2D2D2D2D2D2D2DF5F5F5F5F50FF5F5F5F5F5F5F5F5F5F5F5F5
310
F5F5F5F5F5F5F5F5F5F5F5F5F5F5F5F5F5F5F5F5F5F5F5F5F5F5F5F5F5F5F5F5F5F5F5F5F5F5F5F5F5F5F5F5F5F5F5F5F5F5F5F5F5F5F5F5F5F5F5F5F5F5F5F5F5F5F5F5F5F5F5F5F5F5F5F5F5F5F5F5F5F5F5F5F5F5F5F5F5F5F5F5F528F5DCF5F5F5F5F5F5F5F5F5F5F5F5F5F5F5F5F5E2F5E2E2F5E2F5F5F5F5F5F5F5F5
310
F5F5F5F5F5F5F5F5F5DCF528F5F5F5F5DCF5F5DC0FDC0F0F0F0F0F2D2D2D2D2D2D2D2D0F0F0F0F0F0F0FF5F5F5F5F5F5F5F5F5F5F5F5F5F5F5F5F5F5F5F5F5F5F5F5F5F5F5F5F5F5F5F5F5F5F5F5F5F5F5F5F5F5F5F5F5F5F5F5F5F5F5F5F5F5F5F5F5F5F5F5F5F5F5F5F5F5F5F5F5F5F5F5F5F5F5F5F5F5F5F5F5F5F5F5F5
310
F5F5F5F5F5F5F5F5F5F5F5F5F5F5F5F5F5F5F528F5DCF5F5F5F5F5F5F5F5F5F5F5F5F5F5F5F5F5E2F5E2E2F5E2F5F5F5F5F5F5F5F5F5F5F5F5F5F5F5F5F5DCF528F5F5F5DCF5F5DCF5F5DCF5F5F5F5F5F5F5F5F5F5F5F5F5F5F5F5F5F50FF5F5F5F5F5F5F5F5F5F5F5F5F5F5F5F5F5F5F5F5F5F5F5F5F5F5F5F5F5F5F5F5F5
310
F5F5F5F5F5F5F5F5F5F5F5F5F5F5F5F5F5F5F5F5F5F5F5F5F5F5F5F5F5F5F5F5F5F5F5F5F5F5F5F5F5F5F5F5F5F5F5F5F5F5F5F5F5F5F5F5F5F5F5F5F5F5F5F5F5F5F5F5F5F5F5F528F5DCF5F5F5F5F5F5F5F5F5F5F5F5F5F5F5F5F5E2F5E2E2F5E2F5F5F5F5F5F5F5F5F5F5F5F5F5F5F5F5F5DCF528F5F5F5F5F5DCF5F5DC
310
DCF5F5F5F5F5F5F5F5F5F5F5F5F5F5F5F5F5F50FF5F5F5F5F5F5F5F5F5F5F5F5F5F5F5F5F5F5F5F5F5F5F5F5F5F5F5F5F5F5F5F5F5F5F5F5F5F5F5F5F5F5F5F5F5F5F5F5F5F5F5F5F5F5F5F5F5F5F5F5F5F5F5F5F5F5F5F5F5F5F5F5F5F5F5F5F5F5F5F5F5F5F5F5F5F5F5F5F5F5F5F5F5F5F5F5F5F5F5F5F5F5F5F5F528F5
310
DCF5F5F5F5F5F5F5F5F5F5F5F5F5F5F5F5F5E2F5E2E2F5E2F5F5F5F5F5F5F5F5F5F5F5F5F5F5F5F5F5DCF528F5F5F5F5DCF5F5DCF5DCF5F5F5F5F5F5F5F5F5F5F5F5F5F5F5F5F5F50FF5F5F5F5F5F5F5F5F5F5F5F5F5F5F5F5F5F5F5F5F5F5F5F5F5F5F5F5F5F5F5F5F5F5F5F5F5F5F5F5F5F5F5F5F5F5F5F5F5F5F5F5F5F5
310
F5F5F5F5F5F5F5F5F5F5F5F5F5F5F5F5F5F5F5F5F5F5F5F5F5F5F5F5F5F5F5F5F5F5F5F5F5F5F5F5F5F5F5F5F5F5F5F5F5F5F528F5DCF5F5F5F5F5F5F5F5F5F5F5F5F5F5F5F5F5E2F5E2E2F5E2F5F5F5F5F5F5F5F5F5F5F5F5F5F5F5F5F5DCF528F5F5F5DCF5F5DCF5F5DCF5F5F5F5F5F5F5F5F5F5F5F5F5F5F5F5F5F50FF5
310
F5F5F5F5F5F5F5F5F5F5F5F5F5F5F5F5F5F5F5F5F5F5F5F5F5F5F5F5F5F5F5F5F5F5F5F5F5F5F5F5F5F5F5F5F5F5F5F5F5F5F5F5F5F5F5F5F5F5F5F5F5F5F5F5F5F5F5F5F5F5F5F5F5F5F5F5F5F5F5F5F5F5F5F5F5F5F5F5F5F5F5F5F5F5F5F5F5F5F5F5F5F5F5F528F5DCF5F5F5F5F5F5F5F5F5F5F5F5F5F5F5F5F5E2F5E2
310
E2F5F5F5F5F5F5F5F5F5F5F5F5F5F5F5F5F5F5F5DCF528F5F5F5F5F5DCF5F5F5DC1B0F0F0F0F0F0F0F0F0F0F0F0F0F0F0F0F0F0F0F0F0F0F0F0F0FF5F5F5F5F5F5F5F5F5F5F5F5F5F5F5F5F5F5F5F5F5F5F5F5F5F5F5F5F5F5F5F5F5F5F5F5F5F5F5F5F5F5F5F5F5F5F5F5F5F5F5F5F5F5F5F5F5F5F5F5F5F5F5F5F5F5F5F5
310
F5F5F5F5F5F5F5F5F5F5F5F5F5F5F5F5F5F5F5F5F5F5F5F5F5F5F5F5F5F528F5DCF5F5F5F5F5F5F5F5F5F5F5F5F5F5F5F5F5F5F5E2E2F5F5F5F5F5F5F5F5F5F5F5F5F5F5F5F5F5F5F5DCF528F5F5F5F5DCF5F5F5DCDCBEF5F5F5F5F5F5F5F5F5F5F5F5F5F5F5F5F50FF5F5F5F5F50FF5F5F5F5F5F5F5F5F5F5F5F5F5F5F5F5
310
F5F5F5F5F5F5F5F5F5F5F5F5F5F5F5F5F5F5F5F5F5F5F5F5F5F5F5F5F5F5F5F5F5F5F5F5F5F5F5F5F5F5F5F5F5F5F5F5F5F5F5F5F5F5F5F5F5F5F5F5F5F5F5F5F5F5F5F5F5F5F5F5F5F5F5F5F5F5F5F5F5F5F528F5DCF5F5F5F5F5F5F5F5F5F5F5F5F5F5F5F5F5F5F5E2E2F5F5F5F5F5F5F5F5F5F5F5F5F5F5F5F5F5F5F5DC
310
F528F5F5F5DCF5F5F5DCF5DCF5BEBEF5F5F5F5F5F5F5F5F5F5F5F5F5F5F50FF5F5F5F5F50FF5F5F5F5F5F5F5F5F5F5F5F5F5F5F5F5F5F5F5F5F5F5F5F5F5F5F5F5F5F5F5F5F5F5F5F5F5F5F5F5F5F5F5F5F5F5F5F5F5F5F5F5F5F5F5F5F5F5F5F5F5F5F5F5F5F5F5F5F5F5F5F5F5F5F5F5F5F5F5F5F5F5F5F5F5F5F5F5F5F5
310
F5F5F5F5F5F5F5F5F528F5DCF5F5F5F5F5F5F5F5F5F5F5F5F5F5F5F5F5F5F5E2E2F5F5F5F5F5F5F5F5F5F5F5F5F5F5F5F5F5F5F5DCF528F5F5F5F5F5DCDCF5F5DCF5F5BEBEF5F5F5F5F5F5F5F5F5F5F5F5F5F50FF5F5F5F5F50FF5F5F5F5F5F5F5F5F5F5F5F5F5F5F5F5F5F5F5F5F5F5F5F5F5F5F5F5F5F5F5F5F5F5F5F5F5
310
F5F5F5F5F5F5F5F5F5F5F5F5F5F5F5F5F5F5F5F5F5F5F5F5F5F5F5F5F5F5F5F5F5F5F5F5F5F5F5F5F5F5F5F5F5F5F5F5F5F5F5F5F5F5F5F5F5F5F5F5F5F528F5DCF5F5F5F5F5F5F5F5F5F5F5F5F5F5F5F5F5F5F5E2E2F5F5F5F5F5F5F5F5F5F5F5F5F5F5F5F5F5F5F5DCF528F5F5F5F5DCF5F5F5DCDCF5F5F5BEF5F5F5F5F5
310
F5F5F5F5F5F5F5F5F50FF5F5F5F5F50FF5F5F5F5F5F5F5F5F5F5F5F5F5F5F5F5F5F5F5F5F5F5F5F5F5F5F5F5F5F5F5F5F5F5F5F5F5F5F5F5F5F5F5F5F5F5F5F5F5F5F5F5F5F5F5F5F5F5F5F5F5F5F5F5F5F5F5F5F5F5F5F5F5F5F5F5F5F5F5F5F5F5F5F5F5F5F5F5F5F5F5F5F5F5F5F5F5F5F528F5DCF5F5F5F5F5F5F5F5F5
310
F5F5F5F5F5F5F5F5F5F5E2E2F5F5F5F5F5F5F5F5F5F5F5F5F5F5F5F5F5F5F5DCF528F5F5F5DCF5F5F5DCF5DCF5F5F5BEBEBEF5F5F5F5F5F5F5F5F5F5F5F50FF5F5F5F5F50FF5F5F5F5F5F5F5F5F5F5F5F5F5F5F5F5F5F5F5F5F5F5F5F5F5F5F5F5F5F5F5F5F5F5F5F5F5F5F5F5F5F5F5F5F5F5F5F5F5F5F5F5F5F5F5F5F5F5
310
F5F5F5F5F5F5F5F5F5F5F5F5F5F5F5F5F5F5F5F5F5F5F5F5F5F5F5F5F5F5F5F5F5F5F5F5F5F5F5F5F528F5DCF5F5F5F5F5F5F5F5F5F5F5F5F5F5F5F5F5F5F5E2E2F5F5F5F5F5F5F5F5F5F5F5F5F5F5F5F5F5F5F5DCF528F5F5F5F5F5DCDCF5F5DCF5F5F5F5BEBEF5F5F5F5F5F5F5F5F5F5F5F50FF5F5F5F5F50FF5F5F5F5F5
310
F5F5F5F5F5F5F5F5F5F5F5F5F5F5F5F5F5F5F5F5F5F5F5F5F5F5F5F5F5F5F5F5F5F5F5F5F5F5F5F5F5F5F5F5F5F5F5F5F5F5F5F5F5F5F5F5F5F5F5F5F5F5F5F5F5F5F5F5F5F5F5F5F5F5F5F5F5F5F5F5F5F5F5F5F5F5F5F5F5F5F5F5F5F528F5DCF5F5F5F5F5F5F5F5F5F5F5F5F5F5F5F5F5F5F5E2E2F5F5F5F5F5F5F5F5F5
310
F5F5F5F5F5F5F5F5F5F5DCF528F5F5F5F5DCF5F5F5DCDCF5F5F5F5BEF5F5F5F5F5F5F5F5F5F5F5F5F50FF5F5F5F5F50FF5F5F5F5F5F5F5F5F5F5F5F5F5F5F5F5F5F5F5F5F5F5F5F5F5F5F5F5F5F5F5F5F5F5F5F5F5F5F5F5F5F5F5F5F5F5F5F5F5F5F5F5F5F5F5F5F5F5F5F5F5F5F5F5F5F5F5F5F5F5F5F5F5F5F5F5F5F5F5
310
F5F5F5F5F5F5F5F5F5F5F5F5F5F5F5F5F5F5F5F528F5DCF5F5F5F5F5F5F5F5F5F5F5F5F5F5F5F5F5F5F5E2E2F5F5F5F5F5F5F5F5F5F5F5F5F5F5F5F5F5F5F5DCF528F5F5F5DCF5F5F5DCF5DCF5F5F5F5BEF5F5F5F5F5F5F5F5F5F5F5F5F50FF5F5F5F5F50FF5F5F5F5F5F5F5F5F5F5F5F5F5F5F5F5F5F5F5F5F5F5F5F5F5F5
310
F5F5F5F5F5F5F5F5F5F5F5F5F5F5F5F5F5F5F5F5F5F5F5F5F5F5F5F5F5F5F5F5F5F5F5F5F5F5F5F5F5F5F5F5F5F5F5F5F5F5F5F5F5F5F5F5F5F5F5F5F5F5F5F5F5F5F5F5F5F5F5F5F528F5DCF5F5F5F5F5F5F5F5F5F5F5F5F5F5F5F5F5F5F5E2E2F5E2F5F5F5F5F5F5F5F5F5F5F5F5F5F5F5F5F5DCF528F5F5F5F5F5F5DCF5
310
F5DCBEBEF5F5BEF5F5F5F5F5F5F5F5F5F5F5F5F50FF5F52D2D2D2D2D2D2D2DF5F5F5F5F5F5F5F5F5F5F5F5F5F5F5F5F5F5F5F5F5F5F5F5F5F5F5F5F5F5F5F5F5F5F5F5F5F5F5F5F5F5F5F5F5F5F5F5F5F5F5F5F5F5F5F5F5F5F5F5F5F5F5F5F5F5F5F5F5F5F5F5F5F5F5F5F5F5F5F5F5F5F5F5F5F5F5F5F5F5F5F5F5F5F528
310
F5DCF5F5F5F5F5F5F5F5F5F5F5F5F5F5F5F5F5E2F5E2E2F5E2F5F5F5F5F5F5F5F5F5F5F5F5F5F5F5F5F5DCF528F5F5F5F5F5DCF5F5DCDCF5BEF5F5BEF5F5F5F5F5F5F5F5F5F5F5F5F50FF5F52D2D2D2D2D2D2D2DF5F5F5F5F5F5F5F5F5F5F5F5F5F5F5F5F5F5F5F5F5F5F5F5F5F5F5F5F5F5F5F5F5F5F5F5F5F5F5F5F5F5F5
310
F5F5F5F5F5F5F5F5F5F5F5F5F5F5F5F5F5F5F5F5F5F5F5F5F5F5F5F5F5F5F5F5F5F5F5F5F5F5F5F5F5F5F5F5F5F5F5F5F5F5F5F528F5DCF5F5F5F5F5F5F5F5F5F5F5F5F5F5F5F5F5E2F5E2E2F5E2F5F5F5F5F5F5F5F5F5F5F5F5F5F5F5F5F5DCF528F5F5F5F5DCF5F5DCF5DCF5BEF5F5BEBEF5F5F5F5F5F5F5F5F5F5F5F50F
310
F5F5F5F5F50FF5F5F5F5F5F5F5F5F5F5F5F5F5F5F5F5F5F5F5F5F5F5F5F5F5F5F5F5F5F5F5F5F5F5F5F5F5F5F5F5F5F5F5F5F5F5F5F5F5F5F5F5F5F5F5F5F5F5F5F5F5F5F5F5F5F5F5F5F5F5F5F5F5F5F5F5F5F5F5F5F5F5F5F5F5F5F5F5F5F5F5F5F5F5F5F5F5F5F528F5DCF5F5F5F5F5F5F5F5F5F5F5F5F5F5F5F5F5E2F5
310
E2E2F5E2F5F5F5F5F5F5F5F5F5F5F5F5F5F5F5F5F5DCF528F5F5F5DCF5F5DCF5F5DCF5F5BEF5F5BEF5F5F5F5F5F5F5F5F5F5F5F50FF5F5F5F5F50FF5F5F5F5F5F5F5F5F5F5F5F5F5F5F5F5F5F5F5F5F5F5F5F5F5F5F5F5F5F5F5F5F5F5F5F5F5F5F5F5F5F5F5F5F5F5F5F5F5F5F5F5F5F5F5F5F5F5F5F5F5F5F5F5F5F5F5F5
310
F5F5F5F5F5F5F5F5F5F5F5F5F5F5F5F5F5F5F5F5F5F5F5F5F5F5F5F5F5F5F528F5DCF5F5F5F5F5F5F5F5F5F5F5F5F5F5F5F5F5E2F5E2E2F5E2F5F5F5F5F5F5F5F5F5F5F5F5F5F5F5F5F5DCF528F5F5F5F5F5DCF5F5DCDCF5F5BEF5F5F5BEBEF5F5F5F5BEBEF5F5F5F50FF5F5F5F5F50FF5F5F5F5F5F5F5F5F5F5F5F5F5F5F5
310
F5F5F5F5F5F5F5F5F5F5F5F5F5F5F5F5F5F5F5F5F5F5F5F5F5F5F5F5F5F5F5F5F5F5F5F5F5F5F5F5F5F5F5F5F5F5F5F5F5F5F5F5F5F5F5F5F5F5F5F5F5F5F5F5F5F5F5F5F5F5F5F5F5F5F5F5F5F5F5F5F5F5F5F528F5DCF5F5F5F5F5F5F5F5F5F5F5F5F5F5F5F5F5E2F5E2E2F5E2F5F5F5F5F5F5F5F5F5F5F5F5F5F5F5F5F5
310
DCF528F5F5F5F5DCF5F5DCF5DCF5F5F5BEF5F5F5BEBEBEBEBEF5BEF5F5F5F50FF5F5F5F5F50FF5F5F5F5F5F5F5F5F5F5F5F5F5F5F5F5F5F5F5F5F5F5F5F5F5F5F5F5F5F5F5F5F5F5F5F5F5F5F5F5F5F5F5F5F5F5F5F5F5F5F5F5F5F5F5F5F5F5F5F5F5F5F5F5F5F5F5F5F5F5F5F5F5F5F5F5F5F5F5F5F5F5F5F5F5F5F5F5F5
310
F5F5F5F5F5F5F5F5F5F528F5DCF5F5F5F5F5F5F5F5F5F5F5F5F5F5F5F5F5E2F5E2E2F5E2F5F5F5F5F5F5F5F5F5F5F5F5F5F5F5F5F5DCF528F5F5F5DCF5F5DCF5F5DCF5F5F5F5BEF5F5F5F5F5F5F5F5BEBEF5F5F50FF5F5F5F5F50FF5F5F5F5F5F5F5F5F5F5F5F5F5F5F5F5F5F5F5F5F5F5F5F5F5F5F5F5F5F5F5F5F5F5F5F5
310
F5F5F5F5F5F5F5F5F5F5F5F5F5F5F5F5F5F5F5F5F5F5F5F5F5F5F5F5F5F5F5F5F5F5F5F5F5F5F5F5F5F5F5F5F5F5F5F5F5F5F5F5F5F5F5F5F5F5F5F5F5F5F528F5DCF5F5F5F5F5F5F5F5F5F5F5F5F5F5F5F5F5E2F5E2E2F5E2F5F5F5F5F5F5F5F5F5F5F5F5F5F5F5F5F5DCF528F5F5F5F5F5DCF5F5F5DCF5F5F5F5F5BEBEBE
310
F5F5F5F5F5F5F5BEBEF50FF5F5F5F5F50FF5F5F5F5F5F5F5F5F5F5F5F5F5F5F5F5F5F5F5F5F5F5F5F5F5F5F5F5F5F5F5F5F5F5F5F5F5F5F5F5F5F5F5F5F5F5F5F5F5F5F5F5F5F5F5F5F5F5F5F5F5F5F5F5F5F5F5F5F5F5F5F5F5F5F5F5F5F5F5F5F5F5F5F5F5F5F5F5F5F5F5F5F5F5F5F5F5F5F528F5DCF5F5F5F5F5F5F5F5
310
F5F5F5F5F5F5F5F5F5E2F5E2E2F5E2F5F5F5F5F5F5F5F5F5F5F5F5F5F5F5F5F5DCF528F5F5F5F5DCF5F5F5DCDCF5F5F5F5F5F5F5F5BEBEF5F5F5F5F5F5BEF50FF5F5F5F5F50FF5F5F5F5F5F5F5F5F5F5F5F5F5F5F5F5F5F5F5F5F5F5F5F5F5F5F5F5F5F5F5F5F5F5F5F5F5F5F5F5F5F5F5F5F5F5F5F5F5F5F5F5F5F5F5F5F5
310
F5F5F5F5F5F5F5F5F5F5F5F5F5F5F5F5F5F5F5F5F5F5F5F5F5F5F5F5F5F5F5F5F5F5F5F5F5F5F5F5F5F528F5DCF5F5F5F5F5F5F5F5F5F5F5F5F5F5F5F5F5E2F5E2E2F5E2F5F5F5F5F5F5F5F5F5F5F5F5F5F5F5F5F5DCF528F5F5F5DCF5F5F5DCF5DCF5F5F5F5F5F5F5F5F5BEBEF5F5F5F5F5F5BE1BF5F5F5F5F50FF5F5F5F5
310
F5F5F5F5F5F5F5F5F5F5F5F5F5F5F5F5F5F5F5F5F5F5F5F5F5F5F5F5F5F5F5F5F5F5F5F5F5F5F5F5F5F5F5F5F5F5F5F5F5F5F5F5F5F5F5F5F5F5F5F5F5F5F5F5F5F5F5F5F5F5F5F5F5F5F5F5F5F5F5F5F5F5F5F5F5F5F5F5F5F5F5F5F5F5F528F5DCF5F5F5F5F5F5F5F5F5F5F5F5F5F5F5F5F5E2F5E2E2F5E2F5F5F5F5F5F5
310
F5F5F5F5F5F5F5F5F5F5F5DCF528F5F5F5F5F5DCDCF5F5DCF5F5F5F5F5F5F5F5F5F5BEF5F5F5F5F5F5F5BEF5F5F5F5F50F0FF5F5F5F5F5F5F5F5F5F5F5F5F5F5F5F5F5F5F5F5F5F5F5F5F5F5F5F5F5F5F5F5F5F5F5F5F5F5F5F5F5F5F5F5F5F5F5F5F5F5F5F5F5F5F5F5F5F5F5F5F5F5F5F5F5F5F5F5F5F5F5F5F5F5F5F5F5
310
F5F5F5F5F5F5F5F5F5F5F5F5F5F5F5F5F5F5F5F5F528F5DCF5F5F5F5F5F5F5F5F5F5F5F5F5F5F5F5F5E2F5E2E2F5E2F5F5F5F5F5F5F5F5F5F5F5F5F5F5F5F5F5DCF528F5F5F5F5DCF5F5F5DCDCDCDCDCDCDCDCDCDCDCDCDCDCDCDCDCDCDCDCDCDCDCDCDCDCDCDCDCF5F5F5F5F5F5F5F5F5F5F5F5F5F5F5F5F5F5F5F5F5F5F5
310
F5F5F5F5F5F5F5F5F5F5F5F5F5F5F5F5F5F5F5F5F5F5F5F5F5F5F5F5F5F5F5F5F5F5F5F5F5F5F5F5F5F5F5F5F5F5F5F5F5F5F5F5F5F5F5F5F5F5F5F5F5F5F5F5F5F5F5F5F5F5F5F5F5F528F5DCF5F5F5F5F5F5F5F5F5F5F5F5F5F5F5F5F5E2F5E2E2F5E2F5F5F5F5F5F5F5F5F5F5F5F5F5F5F5F5F5DCF528F5F5F5DCF5F5F5
310
DCF5F5DCF5F5DCF5F5F5DCF5F5DCF5F5DCF5F5DCF5F5DCF5F5DCF5F5F5F5F5F5F5F5F5F5F5F5F5F5F5F5F5F5F5F5F5F5F5F5F5F5F5F5F5F5F5F5F5F5F5F5F5F5F5F5F5F5F5F5F5F5F5F5F5F5F5F5F5F5F5F5F5F5F5F5F5F5F5F5F5F5F5F5F5F5F5F5F5F5F5F5F5F5F5F5F5F5F5F5F5F5F5F5F5F5F5F5F5F5F5F5F5F5F5F5F5
310
28F5DCF5F5F5F5F5F5F5F5F5F5F5F5F5F5F5F5F5E2F5E2E2F5E2F5F5F5F5F5F5F5F5F5F5F5F5F5F5F5F5F5DCF528F5F5F5F5F5DCDCF5F5DCF5F5DCF5F5F5DCF5F5DCF5F5DCF5F5DCF5F5DCF5F5DCF5F5F5F5F5F5F5F5F5F5F5F5F5F5F5F5F5F5F5F5F5F5F5F5F5F5F5F5F5F5F5F5F5F5F5F5F5F5F5F5F5F5F5F5F5F5F5F5F5
310
F5F5F5F5F5F5F5F5F5F5F5F5F5F5F5F5F5F5F5F5F5F5F5F5F5F5F5F5F5F5F5F5F5F5F5F5F5F5F5F5F5F5F5F5F5F5F5F5F5F5F5F5F528F5DCF5F5F5F5F5F5F5F5F5F5F5F5F5F5F5F5F5E2F5E2E2F5E2F5F5F5F5F5F5F5F5F5F5F5F5F5F5F5F5F5DCF528F5F5F5F5DCF5F5F5DCF5F5DCF5F5DCDCF5DCDCF5DCDCF5F5DCF5F5DC
310
F5F5DCF5F5F5F5F5F5F5F5F5F5F5F5F5F5F5F5F5F5F5F5F5F5F5F5F5F5F5F5F5F5F5F5F5F5F5F5F5F5F5F5F5F5F5F5F5F5F5F5F5F5F5F5F5F5F5F5F5F5F5F5F5F5F5F5F5F5F5F5F5F5F5F5F5F5F5F5F5F5F5F5F5F5F5F5F5F5F5F5F5F5F5F5F5F5F5F5F5F5F5F5F5F5F528F5DCF5F5F5F5F5F5F5F5F5F5F5F5F5F5F5F5F5E2
310
F5E2E2F5E2F5F5F5F5F5F5F5F5F5F5F5F5F5F5F5F5F5DCF528F5F5F5DCF5F5F5DCF5F5DCF5F5DCF5F5DCF5F5DCF5F5F5DCF5F5DCF5F5DCF5F5F5DCF5F5F5F5F5F5F5F5F5F5F5F5F5F5F5F5F5F5F5F5F5F5F5F5F5F5F5F5F5F5F5F5F5F5F5F5F5F5F5F5F5F5F5F5F5F5F5F5F5F5F5F5F5F5F5F5F5F5F5F5F5F5F5F5F5F5F5F5
310
F5F5F5F5F5F5F5F5F5F5F5F5F5F5F5F5F5F5F5F5F5F5F5F5F5F5F5F5F5F5F5F528F5DCF5F5F5F5F5F5F5F5F5F5F5F5F5F5F5F5F5E2F5E2E2F5F5F5F5F5F5F5F5F5F5F5F5F5F5F5F5F5F5F5DCF528F5F5F5F5F5F5DCF5F5DCF5F5DCF5F5DCF5F5DCF5F5F5DCF5F5DCF5F5DCF5F5DCDCF5F5F5F5F5F5F5F5F5F5F5F5F5F5F5F5
310
F5F5F5F5F5F5F5F5F5F5F5F5F5F5F5F5F5F5F5F5F5F5F5F5F5F5F5F5F5F5F5F5F5F5F5F5F5F5F5F5F5F5F5F5F5F5F5F5F5F5F5F5F5F5F5F5F5F5F5F5F5F5F5F5F5F5F5F5F5F5F5F5F5F5F5F5F5F5F5F5F5F5F5F5F528F5DCF5F5F5F5F5F5F5F5F5F5F5F5F5F5F5F5F5F5F5E2E2F5F5F5F5F5F5F5F5F5F5F5F5F5F5F5F5F5F5
310
F5DCF528F5F5F5F5F5F5F5F5F5F5F5F5F5F5F5F5F5F5F5F5F5F5F5F5F5F5F5F5F5F5F5F5F5F5F5F5F5F5F5F5F5F5F5F5F5F5F5F5F5F5F5F5F5F5F5F5F5F5F5F5F5F5F5F5F5F5F5F5F5F5F5F5F5F5F5F5F5F5F5F5F5F5F5F5F5F5F5F5F5F5F5F5F5F5F5F5F5F5F5F5F5F5F5F5F5F5F5F5F5F5F5F5F5F5F5F5F5F5F5F5F5F5F5
310
F5F5F5F5F5F5F5F5F5F5F528F5DCF5F5F5F5F5F5F5F5F5F5F5F5F5F5F5F5F5F5F5E2E2F5F5F5F5F5F5F5F5F5F5F5F5F5F5F5F5F5F5F5DCF528F5F5F5F5F5F5F5F5F5F5F5F5F5F5F5F5F5F5F5F5F5F5F5F5F5F5F5F5F5F5F5F5F5F5F5F5F5F5F5F5F5F5F5F5F5F5F5F5F5F5F5F5F5F5F5F5F5F5F5F5F5F5F5F5F5F5F5F5F5F5
310
F5F5F5F5F5F5F5F5F5F5F5F5F5F5F5F5F5F5F5F5F5F5F5F5F5F5F5F5F5F5F5F5F5F5F5F5F5F5F5F5F5F5F5F5F5F5F5F5F5F5F5F5F5F5F5F5F5F5F5F5F5F5F5F528F5DCF5F5F5F5F5F5F5F5F5F5F5F5F5F5F5F5F5F5F5E2E2F5F5F5F5F5F5F5F5F5F5F5F5F5F5F5F5F5F5F5DCF528F5F5F5F5F5F5F5F5F5F5F5F5F5F5F5F5F5
310
F5F5F5F5F5F5F5F5F5F5F5F5F5F5F5F5F5F5F5F5F5F5F5F5F5F5F5F5F5F5F5F5F5F5F5F5F5F5F5F5F5F5F5F5F5F5F5F5F5F5F5F5F5F5F5F5F5F5F5F5F5F5F5F5F5F5F5F5F5F5F5F5F5F5F5F5F5F5F5F5F5F5F5F5F5F5F5F5F5F5F5F5F5F5F5F5F5F5F5F5F5F5F5F5F5F5F5F5F5F5F5F5F5F5F5F5F528F5DCF5F5F5F5F5F5F5
310
F5F5F5F5F5F5F5F5F5F5F5F5E2E2F5F5F5F5F5F5F5F5F5F5F5F5F5F5F5F5F5F5F5DCF528F5F5F5F5F5F5F5F5F5F5F5F5F5F5F5F5F5F5F5F5F5F5F5F5F5F5F5F5F5F5F5F5F5F5F5F5F5F5F5F5F5F5F5F5F5F5F5F5F5F5F5F5F5F5F5F5F5F5F5F5F5F5F5F5F5F5F5F5F5F5F5F5F5F5F5F5F5F5F5F5F5F5F5F5F5F5F5F5F5F5F5
310
F5F5F5F5F5F5F5F5F5F5F5F5F5F5F5F5F5F5F5F5F5F5F5F5F5F5F5F5F5F5F5F5F5F5F5F5F5F5F5F5F5F5F528F5DCF5F5F5F5F5F5F5F5F5F5F5F5F5F5F5F5F5F5F5E2E2F5F5F5F5F5F5F5F5F5F5F5F5F5F5F5F5F5F5F5DCF528F5F5F5F5F5F5F5F5F5F5F5F5F5F5F5F5F5F5F5F5F5F5F5F5F5F5F5F5F5F5F5F5F5F5F5F5F5F5
310
F5F5F5F5F5F5F5F5F5F5F5F5F5F5F5F5F5F5F5F5F5F5F5F5F5F5F5F5F5F5F5F5F5F5F5F5F5F5F5F5F5F5F5F5F5F5F5F5F5F5F5F5F5F5F5F5F5F5F5F5F5F5F5F5F5F5F5F5F5F5F5F5F5F5F5F5F5F5F5F5F5F5F5F5F5F5F5F5F5F5F5F5F5F5F5F528F5DCF5F5F5F5F5F5F5F5F5F5F5F5F5F5F5F5F5F5F5E2E2F5F5F5F5F5F5F5
310
F5F5F5F5F5F5F5F5F5F5F5F5DCF528F5F5F5F5F5F5F5F5F5F5F5F5F5F5F5F5F5F5F5F5F5F5F5F5F5F5F5F5F5F5F5F5F5F5F5F5F5F5F5F5F5F5F5F5F5F5F5F5F5F5F5F5F5F5F5F5F5F5F5F5F5F5F5F5F5F5F5F5F5F5F5F5F5F5F5F5F5F5F5F5F5F5F5F5F5F5F5F5F5F5F5F5F5F5F5F5F5F5F5F5F5F5F5F5F5F5F5F5F5F5F5F5
310
F5F5F5F5F5F5F5F5F5F5F5F5F5F5F5F5F5F5F5F5F5F528F5DCF5F5F5F5F5F5F5F5F5F5F5F5F5F5F5F5F5F5F5E2E2F5F5F5F5F5F5F5F5F5F5F5F5F5F5F5F5F5F5F5DCF528F5F5F5F5F5F5F5F5F5F5F5F5F5F5F5F5F5F5F5F5F5F5F5F5F5F5F5F5F5F5F5F5F5F5F5F5F5F5F5F5F5F5F5F5F5F5F5F5F5F5F5F5F5F5F5F5F5F5F5
310
F5F5F5F5F5F5F5F5F5F5F5F5F5F5F5F5F5F5F5F5F5F5F5F5F5F5F5F5F5F5F5F5F5F5F5F5F5F5F5F5F5F5F5F5F5F5F5F5F5F5F5F5F5F5F5F5F5F5F5F5F5F5F5F5F5F5F5F5F5F5F5F5F5F5F528F5DCF5F5F5F5F5F5F5F5F5F5F5F5F5F5F5F5F5F5F5E2E2F5E2F5F5F5F5F5F5F5F5F5F5F5F5F5F5F5F5F5DCF528F5F5F5F5F5F5
310
F5F5F5F5F5F5F5F5F5F5F5F5F5F5F5F5F5F5F5F5F5F5F5F5F5F5F5F5F5F5F5F5F5F5F5F5F5F5F5F5F5F5F5F5F5F5F5F5F5F5F5F5F5F5F5F5F5F5F5F5F5F5F5F5F5F5F5F5F5F5F5F5F5F5F5F5F5F5F5F5F5F5F5F5F5F5F5F5F5F5F5F5F5F5F5F5F5F5F5F5F5F5F5F5F5F5F5F5F5F5F5F5F5F5F5F5F5F5F5F5F5F5F5F5F5F5F5
310
F528F5DCF5F5F5F5F5F5F5F5F5F5F5F5F5F5F5F5F5E2F5E2E2F5E2F5F5F5F5F5F5F5F5F5F5F5F5F5F5F5F5F5DCF528F5F5F5F5F5F5F5F5F5F5F5F5F5F5F5F5F5F5F5F5F5F5F5F5F5F5F5F5F5F5F5F5F5F5F5F5F5F5F5F5F5F5F5F5F5F5F5F5F5F5F5F5F5F5F5F5F5F5F5F5F5F5F5F5F5F5F5F5F5F5F5F5F5F5F5F5F5F5F5F5
310
F5F5F5F5F5F5F5F5F5F5F5F5F5F5F5F5F5F5F5F5F5F5F5F5F5F5F5F5F5F5F5F5F5F5F5F5F5F5F5F5F5F5F5F5F5F5F5F5F5F5F5F5F5F528F5DCF5F5F5F5F5F5F5F5F5F5F5F5F5F5F5F5F5E2F5E2E2F5E2F5F5F5F5F5F5F5F5F5F5F5F5F5F5F5F5F5DCF528F5F5F5F5F5F5F5F5F5F5F5F5F5F5F5F5F5F5F5F5F5F5F5F5F5F5F5
310
F5F5F5F5F5F5F5F5F5F5F5F5F5F5F5F5F5F5F5F5F5F5F5F5F5F5F5F5F5F5F5F5F5F5F5F5F5F5F5F5F5F5F5F5F5F5F5F5F5F5F5F5F5F5F5F5F5F5F5F5F5F5F5F5F5F5F5F5F5F5F5F5F5F5F5F5F5F5F5F5F5F5F5F5F5F5F5F5F5F5F5F5F5F5F5F5F5F5F5F5F5F5F5F5F5F5F528F5DCF5F5F5F5F5F5F5F5F5F5F5F5F5F5F5F5F5
310
E2F5E2E2F5E2F5F5F5F5F5F5F5F5F5F5F5F5F5F5F5F5F5DCF528F5F5F5F5F5F5F5F5F5F5F5F5F5F5F5F5F5F5F5F5F5F5F5F5F5F5F5F5F5F5F5F5F5F5F5F5F5F5F5F5F5F5F5F5F5F5F5F5F5F5F5F5F5F5F5F5F5F5F5F5F5F5F5F5F5F5F5F5F5F5F5F5F5F5F5F5F5F5F5F5F5F5F5F5F5F5F5F5F5F5F5F5F5F5F5F5F5F5F5F5F5
310
F5F5F5F5F5F5F5F5F5F5F5F5F5F5F5F5F5F5F5F5F5F5F5F5F5F5F5F5F5F5F5F5F528F5DCF5F5F5F5F5F5F5F5F5F5F5F5F5F5F5F5F5E2F5E2E2F5E2F5F5F5F5F5F5F5F5F5F5F5F5F5F5F5F5F5DCF528F5F5F5F5F5F5F5F5F5F5F5F5F5F5F5F5F5F5F5F5F5F5F5F5F5F5F5F5F5F5F5F5F5F5F5F5F5F5F5F5F5F5F5F5F5F5F5F5
310
F5F5F5F5F5F5F5F5F5F5F5F5F5F5F5F5F5F5F5F5F5F5F5F5F5F5F5F5F5F5F5F5F5F5F5F5F5F5F5F5F5F5F5F5F5F5F5F5F5F5F5F5F5F5F5F5F5F5F5F5F5F5F5F5F5F5F5F5F5F5F5F5F5F5F5F5F5F5F5F5F5F5F5F5F5F528F5DCF5F5F5F5F5F5F5F5F5F5F5F5F5F5F5F5F5E2F5E2E2F5E2F5F5F5F5F5F5F5F5F5F5F5F5F5F5F5
310
F5F5DCF528F5F5F5F5F5F5F5F5F5F5F5F5F5F5F5F5F5F5F5F5F5F5F5F5F5F5F5F5F5F5F5F5F5F5F5F5F5F5F5F5F5F5F5F5F5F5F5F5F5F5F5F5F5F5F5F5F5F5F5F5F5F5F5F5F5F5F5F5F5F5F5F5F5F5F5F5F5F5F5F5F5F5F5F5F5F5F5F5F5F5F5F5F5F5F5F5F5F5F5F5F5F5F5F5F5F5F5F5F5F5F5F5F5F5F5F5F5F5F5F5F5F5
310
F5F5F5F5F5F5F5F5F5F5F5F528F5DCF5F5F5F5F5F5F5F5F5F5F5F5F5F5F5F5F5E2F5E2E2F5E2F5F5F5F5F5F5F5F5F5F5F5F5F5F5F5F5F5DCF528F5F5F5F5F5F5F5F5F5F5F5F5F5F5F5F5F5F5F5F5F5F5F5F5F5F5F5F5F5F5F5F5F5F5F5F5F5F5F5F5F5F5F5F5F5F5F5F5F5F5F5F5F5F5F5F5F5F5F5F5F5F5F5F5F5F5F5F5F5
310
F5F5F5F5F5F5F5F5F5F5F5F5F5F5F5F5F5F5F5F5F5F5F5F5F5F5F5F5F5F5F5F5F5F5F5F5F5F5F5F5F5F5F5F5F5F5F5F5F5F5F5F5F5F5F5F5F5F5F5F5F5F5F5F5F528F5DCF5F5F5F5F5F5F5F5F5F5F5F5F5F5F5F5F5E2F5E2E2F5E2F5F5F5F5F5F5F5F5F5F5F5F5F5F5F5F5F5DCF528F5F5F5F5F5F5F5F5F5F5F5F5F5F5F5F5
310
F5F5F5F5F5F5F5F5F5F5F5F5F5F5F5F5F5F5F5F5F5F5F5F5F5F5F5F5F5F5F5F5F5F5F5F5F5F5F5F5F5F5F5F5F5F5F5F5F5F5F5F5F5F5F5F5F5F5F5F5F5F5F5F5F5F5F5F5F5F5F5F5F5F5F5F5F5F5F5F5F5F5F5F5F5F5F5F5F5F5F5F5F5F5F5F5F5F5F5F5F5F5F5F5F5F5F5F5F5F5F5F5F5F5F5F5F5F528F5DCF5F5F5F5F5F5
310
F5F5F5F5F5F5F5F5F5F5F5E2F5E2E2F5E2F5F5F5F5F5F5F5F5F5F5F5F5F5F5F5F5F5DCF528282828282828282828282828282828282828282828282828282828282828282828282828282828282828282828282828282828282828282828282828282828282828282828282828282828282828282828282828282828282828
310
282828282828282828282828282828282828282828282828282828282828282828282828282828282828282828F5DCF5F5F5F5F5F5F5F5F5F5F5F5F5F5F5F5F5E2F5E2E2F5E2F5F5F5F5F5F5F5F5F5F5F5F5F5F5F5F5F5DCF528F5F5F5F5F5F5F5F5F5F5F5F5F5F5F5F5F5F5F5F5F5F5F5F5F5F5F5F5F5F5F5F5F5F5F5F5F5
310
F5F5F5F5F5F5F5F5F5F5F5F5F5F5F5F5F5F5F5F5F5F5F5F5F5F5F5F5F528F5F5F5F5F5F5F5F5F5F5F5F5F5F5F5F5F5F5F5F5F5F5F5F5F5F5F5F5F5F5F5F5F5F5F5F5F5F5F5F5F5F5F5F5F5F5F5F5F5F5F5F5F5F5F5F5F5F5F5F5F5F5F5F5F5F5F528F5DCF5F5F5F5F5F5F5F5F5F5F5F5F5F5F5F5F5E2F5E2E2F5E2F5F5F5F5
310
F5F5F5F5F5F5F5F5F5F5F5F5F5DCF528F5F5F5F5F5F5F5F5F5F5F5F5F52D2D2D2D2D2D2D2D2D2D2D2D2D2D2D2D2D2D2D2D2D2D2D2D2D2D2D2D2D2D2D2D2D2D2D2D2D2DF5F5F5F5F5F5F5F5F5F5F5F5F5F5F528F5F5F52D2D2D2DF52D2D2D2D2D2DF5F5F5F5F5F5F5F5F5F5F5F5F5F5F5F5F5F5F5F5F5F5F5F5F5F5F5F5F5F5
310
F5F5F5F5F5F5F5F5F5F5F5F5F5F5F5F5F5F5F5F5F5F5F528F5DCF5F5F5F5F5F5F5F5F5F5F5F5F5F5F5F5F5E2F5E2E2F5E2F5F5F5F5F5F5F5F5F5F5F5F5F5F5F5F5F5DCF528F5F5F5F5F5F5F5F5F5F5F5F5F52D2D2D2D2D2D2D2D2D2D2D2D2D2D2D2D2D2D2D2D2D2D2D2D2D2D2D2D2D2D2D2D2D2D2D2D2D2DF5F5F5F5F5F5F5
310
F5F5F5F5F5F5F5F528F5F5F52D2D2D2DF52D2D2D2DF52DF5F5F5F5F5F5F5F5F5F5F5F5F5F5F5F5F5F5F5F5F5F5F5F5F5F5F5F5F5F5F5F5F5F5F5F5F5F5F5F5F5F5F5F5F5F5F5F5F5F5F5F5F528F5DCF5F5F5F5F5F5F5F5F5F5F5F5F5F5F5F5F5E2F5E2E2F5E2F5F5F5F5F5F5F5F5F5F5F5F5F5F5F5F5F5DCF528F5F5F5F5F5
310
F5F5F5F5F5F5F5F5F5F5F5F5F5F5F5F5F5F5F5F5F5F5F5F5F5F5F5F5F5F5F5F5F5F5F5F5F5F5F5F5F5F5F5F5F5F5F5F5F5F5F5F5F5F5F5F5F5F5F5F5F528F5F5F5F5F5F5F5F5F5F5F5F5F5F5F5F5F5F5F5F5F5F5F5F5F5F5F5F5F5F5F5F5F5F5F5F5F5F5F5F5F5F5F5F5F5F5F5F5F5F5F5F5F5F5F5F5F5F5F5F5F5F5F5F5F5
310
F5F528F5DCF5F5F5F5F5F5F5F5F5F5F5F5F5F5F5F5F5E2F5E2E2F5E2F5F5F5F5F5F5F5F5F5F5F5F5F5F5F5F5F5DCF52828282828282828282828282828282828282828282828282828282D2D2D2D2D2D2D2D2D2D2D2D2D28282828282828282828282828282828282828282828282828282828282828282828282828282828
310
2828282828282828282828282828282828282828282828282828282828282828282828282828282828282828282828282828282828282828F5DCF5F5F5F5F5F5F5F5F5F5F5F5F5F5F5F5F5E2F5E2E2F5E2F5F5F5F5F5F5F5F5F5F5F5F5F5F5F5F5F5DCF528F5F5F5F5F5F5F5F5F5F5F5F5F5F5F5F5F5F5F5F5F5F5F5F5F5F5
310
2D2D2D2D2D2D2D2D2D2D2D2D2DF5F5F5F5F5F5F5F5F5F5F5F5F5F5F5F5F5F5F5F5F5F5F5F5F5F5F528F5F5F52D2D2D2D2D2D2D2D2D2D2DF5F52D2D2D2D2D2D2D2D2D2DF5F5F5F5F5F5F5F5F5F5F5F5F5F5F5F5F5F5F5F5F5F5F5F5F5F5F5F5F5F5F5F5F5F5F5F5F5F5F5F5F528F5DCF5F5F5F5F5F5F5F5F5F5F5F5F5F5F5F5
310
F5E2F5E2E2F5E2F5F5F5F5F5F5F5F5F5F5F5F5F5F5F5F5F5DCF528F5F5F5F5F5F5F5F5F5F5F5F5F5F5F5F5F5F5F5F5F5F5F5F5F5F52D2D2D2D2D2D2D2D2D2D2D2D2DF5F5F5F5F5F5F5F5F5F5F5F5F5F5F5F5F5F5F5F5F5F5F5F5F5F5F528F5F5F52D2D2D2D2D2D2D2D2D2D2DF52D2D2D2D2D2D2D2D2D2D2DF5F5F5F5F5F5F5
310
F5F5F5F5F5F5F5F5F5F5F5F5F5F5F5F5F5F5F5F5F5F5F5F5F5F5F5F5F5F5F5F5F5F528F5DCF5F5F5F5F5F5F5F5F5F5F5F5F5F5F5F5F5E2F5E2E2F5F5F5F5F5F5F5F5F5F5F5F5F5F5F5F5F5F5F5DCF528F5F5F5F5F5F5F5F5F5F5F5F5F5F5F5F5F5F5F5F5F5F5F5F5F5F5F5F5F5F5F5F5F5F5F5F5F5F5F5F5F5F5F5F5F5F5F5
310
F5F5F5F5F5F5F5F5F5F5F5F5F5F5F5F5F5F5F528F5F5F5F5F5F5F5F5F5F5F5F5F5F5F5F5F5F5F5F5F5F5F5F5F5F5F5F5F5F5F5F5F5F5F5F5F5F5F5F5F5F5F5F5F5F5F5F5F5F5F5F5F5F5F5F5F5F5F5F5F5F5F5F5F5F5F528F5DCF5F5F5F5F5F5F5F5F5F5F5F5F5F5F5F5F5F5F5E2E2F5F5F5F5F5F5F5F5F5F5F5F5F5F5F5F5
310
F5F5F5DCF52828282828282828282828282828282828282828282828282828282828282828282828282828282828282828282828282828282828282828282828282828282828282828282828282828282828282828282828282828282828282828282828282828282828282828282828282828282828282828282828282828
310
2828282828282828282828282828F5DCF5F5F5F5F5F5F5F5F5F5F5F5F5F5F5F5F5F5F5E2E2F5F5F5F5F5F5F5F5F5F5F5F5F5F5F5F5F5F5F5DCF5F5F5F5F5F5F5F5F5F5F5F5F5F5F5F5F5F5F5F5F5F5F5F5F5F5F5F5F5F5F5F5F5F5F5F5F5F5F5F5F5F5F5F5F5F5F5F5F5F5F5F5F5F5F5F5F5F5F5F5F5F5F5F5F5F5F5F5F5F5
310
F5F5F5F5F5F5F5F5F5F5F5F5F5F5F5F5F5F5F5F5F5F5F5F5F5F5F5F5F5F5F5F5F5F5F5F5F5F5F5F5F5F5F5F5F5F5F5F5F5F5F5F5F5F5F5F5F5F5F5F5F5F5F5F5F5F5F5F5DCF5F5F5F5F5F5F5F5F5F5F5F5F5F5F5F5F5F5F5E2E2F5F5F5F5F5F5F5F5F5F5F5F5F5F5F5F5F5F5F5DCDCDCDCDCDCDCDCDCDCDCDCDCDCDCDCDCDC
310
DCDCDCDCDCDCDCDCDCDCDCDCDCDCDCDCDCDCDCDCDCDCDCDCDCDCDCDCDCDCDCDCDCDCDCDCDCDCDCDCDCDCDCDCDCDCDCDCDCDCDCDCDCDCDCDCDCDCDCDCDCDCDCDCDCDCDCDCDCDCDCDCDCDCDCDCDCDCDCDCDCDCDCDCDCDCDCDCDCDCDCDCDCDCDCDCDCDCDCDCDCDCDCDCDCDCDCDCDCDCDCDCDCDCDCDCDCDCDCDCDCDCF5F5F5F5F5
310
F5F5F5F5F5F5F5F5F5F5F5F5F5F5E2E2F5F5F5F5F5F5F5F5F5F5F5F5F5F5F5F5F5F5F5DCDCDCDCDCDCDCDCDCDCDCDCDCDCDCDCDCDCDCDCDCDCDCDCDCDCDCDCDCDCDCDCDCDCDCDCDCDCDCDCDCDCDCDCDCDCDCDCDCDCDCDCDCDCDCDCDCDCDCDCDCDCDCDCDCDCDCDCDCDCDCDCDCDCDCDCDCDCDCDCDCDCDCDCDCDCDCDCDCDCDCDC
310
DCDCDCDCDCDCDCDCDCDCDCDCDCDCDCDCDCDCDCDCDCDCDCDCDCDCDCDCDCDCDCDCDCDCDCDCDCDCDCDCDCDCDCDCDCDCDCDCF5F5F5F5F5F5F5F5F5F5F5F5F5F5F5F5F5F5F5E2E2F5F5F5F5F5F5F5F5F5F5F5F5F5F5F5F5F5F5F5F5F5F5F5F5F5F5F5F5F5F5F5F5F5F5F5F5F5F5F5F5F5F5F5F5F5F5F5F5F5F5F5F5F5F5F5F5F5F5
310
F5F5F5F5F5F5F5F5F5F5F5F5F5F5F5F5F5F5F5F5F5F5F5F5F5F5F5F5F5F5F5F5F5F5F5F5F5F5F5F5F5F5F5F5F5F5F5F5F5F5F5F5F5F5F5F5F5F5F5F5F5F5F5F5F5F5F5F5F5F5F5F5F5F5F5F5F5F5F5F5F5F5F5F5F5F5F5F5F5F5F5F5F5F5F5F5F5F5F5F5F5F5F5F5F5F5F5F5F5F5F5F5F5F5F5F5F5F5F5F5E2E2F5F5F5F5F5
310
F5F5F5F5F5F5F5F5F5F5F5F5F5F5F5F5F5F5F5F5F5F5F5F5F5F5F5F5F5F5F5F5F5F5F5F5F5F5F5F5F5F5F5F5F5F5F5F5F5F5F5F5F5F5F5F5F5F5F5F5F5F5F5F5F5F5F5F5F5F5F5F5F5F5F5F5F5F5F5F5F5F5F5F5F5F5F5F5F5F5F5F5F5F5F5F5F5F5F5F5F5F5F5F5F5F5F5F5F5F5F5F5F5F5F5F5F5F5F5F5F5F5F5F5F5F5F5
310
F5F5F5F5F5F5F5F5F5F5F5F5F5F5F5F5F5F5F5F5F5F5F5F5F5F5F5F5F5F5F5F5F5F5F5F5F5F5F5F5F5F5F5F5F5F5E2E2F5F5F5F5F5F5F5F5F5F5F5F5F5F5F5F5F5F5F5F5F5F5F5F5F5F5F5F5F5F5F5F5F5F5F5F5F5F5F5F5F5F5F5F5F5F5F5F5F5F5F5F5F5F5F5F5F5F5F5F5F5F5F5F5F5F5F5F5F5F5F5F5F5F5F5F5F5F5F5
310
F5F5F5F5F5F5F5F5F5F5F5F5F5F5F5F5F5F5F5F5F5F5F5F5F5F5F5F5F5F5F5F5F5F5F5F5F5F5F5F5F5F5F5F5F5F5F5F5F5F5F5F5F5F5F5F5F5F5F5F5F5F5F5F5F5F5F5F5F5F5F5F5F5F5F5F5F5F5F5F5F5F5F5F5F5F5F5F5F5F5F5F5F5F5F5F5F5F5F5E2E2F5F5F5F5F5F5F5F5F5F5F5F5F5F5F5F5F5F5F5F5F5F5F5F5F5F5
310
F5F5F5F5F5F5F5F5F5F5F5F5F5F5F5F5F5F5F5F5F5F5F5F5F5F5F5F5F5F5F5F5F5F5F5F5F5F5F5F5F5F5F5F5F5F5F5F5F5F5F5F5F5F5F5F5F5F5F5F5F5F5F5F5F5F5F5F5F5F5F5F5F5F5F5F5F5F5F5F5F5F5F5F5F5F5F5F5F5F5F5F5F5F5F5F5F5F5F5F5F5F5F5F5F5F5F5F5F5F5F5F5F5F5F5F5F5F5F5F5F5F5F5F5F5F5F5
310
F5F5F5F5F5F5F5F5F5F5F5F5F5F5F5F5F5F5F5F5F5F5F5F5F5E2E2F5E2F5F5F5F5F5F5F5F5F5F5F5F5F5F5F5F5F5F5F5F5F5F5F5F5F5F5F5F5F5F5F5F5F5F5F5F5F5F5F5F5F5F5F5F5F5F5F5F5F5F5F5F5F5F5F5F5F5F5F5F5F5F5F5F5F5F5F5F5F5F5F5F5F5F5F5F5F5F5F5F5F5F5F5F5F5F5F5F5F5F5F5F5F5F5F5F5F5F5
310
F5F5F5F5F5F5F5F5F5F5F5F5F5F5F5F5F5F5F5F5F5F5F5F5F5F5F5F5F5F5F5F5F5F5F5F5F5F5F5F5F5F5F5F5F5F5F5F5F5F5F5F5F5F5F5F5F5F5F5F5F5F5F5F5F5F5F5F5F5F5F5F5F5F5F5F5E2F5E2E2F5E2F5F5F5F5F5F5F5F5F5F5F5F5F5F5F5F5F5F5F5F5F5F5F5F5F5F5F5F5F5F5F5F5F5F5F5F5F5F5F5F5F5F5F5F5F5
310
F5F5F5F5F5F5F5F5F5F5F5F5F5F5F5F5F5F5F5F5F5F5F5F5F5F5F5F5F5F5F5F5F5F5F5F5F5F5F5F5F5F5F5F5F5F5F5F5F5F5F5F5F5F5F5F5F5F5F5F5F5F5F5F5F5F5F5F5F5F5F5F5F5F5F5F5F5F5F5F5F5F5F5F5F5F5F5F5F5F5F5F5F5F5F5F5F5F5F5F5F5F5F5F5F5F5F5F5F5F5F5F5F5F5F5F5F5F5F5F5F5F5F5F5F5F5F5
310
F5F5E2F5E2E2F5E2F5F5F5F5F5F5F5F5F5F5F5F5F5F5F5F5F5F5F5F5F5F5F5F5F5F5F5F5F5F5F5F5F5F5F5F5F5F5F5F5F5F5F5F5F5F5F5F5F5F5F5F5F5F5F5F5F5F5F5F5F5F5F5F5F5F5F5F5F5F5F5F5F5F5F5F5F5F5F5F5F5F5F5F5F5F5F5F5F5F5F5F5F5F5F5F5F5F5F5F5F5F5F5F5F5F5F5F5F5F5F5F5F5F5F5F5F5F5F5
310
F5F5F5F5F5F5F5F5F5F5F5F5F5F5F5F5F5F5F5F5F5F5F5F5F5F5F5F5F5F5F5F5F5F5F5F5F5F5F5F5F5F5F5F5F5F5F5F5F5F5F5F5F5F5F5E2F5E2E2F5E2F5F5F5F5F5F5F5F5F5F5F5F5F5F5F5F5F5F5F5F5F5F5F5F5F5F5F5F5F5F5F5F5F5F5F5F5F5F5F5F5F5F5F5F5F5F5F5F5F5F5F5F5F5F5F5F5F5F5F5F5F5F5F5F5F5F5
310
F5F5F5F5F5F5F5F5F5F5F5F5F5F5F5F5F5F5F5F5F5F5F5F5F5F5F5F5F5F5F5F5F5F5F5F5F5F5F5F5F5F5F5F5F5F5F5F5F5F5F5F5F5F5F5F5F5F5F5F5F5F5F5F5F5F5F5F5F5F5F5F5F5F5F5F5F5F5F5F5F5F5F5F5F5F5F5F5F5F5F5F5F5F5F5F5F5F5F5F5F5F5F5F5F5F5F5F5E2F5E2E2F5E2F5F5F5F5F5F5F5F5F5F5F5F5F5
310
F5F5F5F5F5F5F5F5F5F5F5F5F5F5F5F5F5F5F5F5F5F5F5F5F5F5F5F5F5F5F5F5F5F5F5F5F5F5F5F5F5F5F5F5F5F5F5F5F5F5F5F5F5F5F5F5F5F5F5F5F5F5F5F5F5F5F5F5F5F5F5F5F5F5F5F5F5F5F5F5F5F5F5F5F5F5F5F5F5F5F5F5F5F5F5F5F5F5F5F5F5F5F5F5F5F5F5F5F5F5F5F5F5F5F5F5F5F5F5F5F5F5F5F5F5F5F5
310
F5F5F5F5F5F5F5F5F5F5F5F5F5F5F5F5F5F5F5F5F5F5F5F5F5F5F5F5F5F5F5F5F5F5E2F5E2E2F5E2F5F5F5F5F5F5F5F5F5F5F5F5F5F5F5F5F5F5F5F5F5F5F5F5F5F5F5F5F5F5F5F5F5F5F5F5F5F5F5F5F5F5F5F5F5F5F5F5F5F5F5F5F5F5F5F5F5F5F5F5F5F5F5F5F5F5F5F5F5F5F5F5F5F5F5F5F5F5F5F5F5F5F5F5F5F5F5
310
F5F5F5F5F5F5F5F5F5F5F5F5F5F5F5F5F5F5F5F5F5F5F5F5F5F5F5F5F5F5F5F5F5F5F5F5F5F5F5F5F5F5F5F5F5F5F5F5F5F5F5F5F5F5F5F5F5F5F5F5F5F5F5F5F5F5F5F5F5F5F5F5F5F5F5F5F5F5F5F5F5F5F5F5F5F5F5E2F5E2E2F5E2F5F5F5F5F5F5F5F5F5F5F5F5F5F5F5F5F5F5F5F5F5F5F5F5F5F5F5F5F5F5F5F5F5F5
310
F5F5F5F5F5F5F5F5F5F5F5F5F5F5F5F5F5F5F5F5F5F5F5F5F5F5F5F5F5F5F5F5F5F5F5F5F5F5F5F5F5F5F5F5F5F5F5F5F5F5F5F5F5F5F5F5F5F5F5F5F5F5F5F5F5F5F5F5F5F5F5F5F5F5F5F5F5F5F5F5F5F5F5F5F5F5F5F5F5F5F5F5F5F5F5F5F5F5F5F5F5F5F5F5F5F5F5F5F5F5F5F5F5F5F5F5F5F5F5F5F5F5F5F5F5F5F5
310
F5F5F5F5F5F5F5F5F5F5F5F5F5E2F5E2E2F5E2E2E2E2E2E2E2E2E2F5F5F5F5F5F5F5F5F5E2E2E2E2E2E2E2E2E2E2E2E2E2E2E2E2F5F5F5F5F5F5F5F5F5E2E2E2E2E2E2E2E2E2E2E2E2E2E2E2E2F5F5F5F5F5F5F5F5F5E2E2E2E2E2E2E2E2E2E2E2E2E2E2E2E2F5F5F5F5F5F5F5F5F5E2E2E2E2E2E2E2E2E2E2E2E2E2E2E2E2
310
F5F5F5F5F5F5F5F5F5E2E2E2E2E2E2E2E2E2E2E2E2E2E2E2E2F5F5F5F5F5F5F5F5F5E2E2E2E2E2E2E2E2E2E2E2E2E2E2E2E2F5F5F5F5F5F5F5F5F5E2E2E2E2E2E2E2E2F5E2E2F5F5F5F5F5F5F5F5F5F5F5F5F5F5F5F5F5F5F5F5F5F5F5F5F5F5F5F5F5F5F5F5F5F5F5F5F5F5F5F5F5F5F5F5F5F5F5F5F5F5F5F5F5F5F5F5F5
310
F5F5F5F5F5F5F5F5F5F5F5F5F5F5F5F5F5F5F5F5F5F5F5F5F5F5F5F5F5F5F5F5F5F5F5F5F5F5F5F5F5F5F5F5F5F5F5F5F5F5F5F5F5F5F5F5F5F5F5F5F5F5F5F5F5F5F5F5F5F5F5F5F5F5F5F5F5F5F5F5F5F5F5F5F5F5F5F5F5F5F5F5F5F5F5F5F5F5F5F5F5F5F5F5F5F5F5F5F5F5F5F5F5F5F5F5F5F5F5F5F5E2E2E2E2E2E2
310
E2E2E2E2E2E2E2E2E2E2E2E2E2E2E2E2E2E2E2E2E2E2E2E2E2E2E2E2E2E2E2E2E2E2E2E2E2E2E2E2E2E2E2E2E2E2E2E2E2E2E2E2E2E2E2E2E2E2E2E2E2E2E2E2E2E2E2E2E2E2E2E2E2E2E2E2E2E2E2E2E2E2E2E2E2E2E2E2E2E2E2E2E2E2E2E2E2E2E2E2E2E2E2E2E2E2E2E2E2E2E2E2E2E2E2E2E2E2E2E2E2E2E2E2E2E2E2
310
E2E2E2E2E2E2E2E2E2E2E2E2E2E2E2E2E2E2E2E2E2E2E2E2E2E2E2E2E2E2E2E2E2E2E2E2E2E2E2E2E2E2E2E2E2E2E2E2
  0
XRECORD
  5
C8
102
{ACAD_REACTORS
330
C7
102
}
330
C7
100
AcDbXrecord
280
     1
102
MATERIAL
148
0.0
149
0.0
149
0.0
 93
        0
 94
       63
282
     0
 72
     1
 77
     1
171
     1
175
     1
179
     1
273
     0
  0
XRECORD
  5
C6
102
{ACAD_REACTORS
330
C5
102
}
330
C5
100
AcDbXrecord
280
     1
102
MATERIAL
148
0.0
149
0.0
149
0.0
 93
        0
 94
       63
282
     0
 72
     1
 77
     1
171
     1
175
     1
179
     1
273
     0
  0
XRECORD
  5
B2
102
{ACAD_REACTORS
330
B1
102
}
330
B1
100
AcDbXrecord
280
     1
102
MATERIAL
148
0.0
149
0.0
149
0.0
 93
        0
 94
       63
282
     0
 72
     1
 77
     1
171
     1
175
     1
179
     1
273
     0
  0
XRECORD
  5
156
102
{ACAD_REACTORS
330
155
102
}
330
155
100
AcDbXrecord
280
     1
102
ACAD_ROUNDTRIP_PRE2007_TABLESTYLE
 90
        4
 91
        0
  1

 92
        4
 93
        0
  2

 94
        4
 95
        0
  3

  0
ENDSEC
  0
EOF
