  0
SECTION
  2
HEADER
  9
$ACADVER
  1
AC1018
  9
$ACADMAINTVER
 70
    76
  9
$DWGCODEPAGE
  3
ANSI_1252
  9
$LASTSAVEDBY
  1
simone
  9
$INSBASE
 10
0.0
 20
0.0
 30
0.0
  9
$EXTMIN
 10
0.0149999999999999
 20
0.015
 30
0.0
  9
$EXTMAX
 10
0.4050000000000001
 20
0.2833397433140241
 30
0.0
  9
$LIMMIN
 10
0.0
 20
0.0
  9
$LIMMAX
 10
1.0
 20
0.5
  9
$ORTHOMODE
 70
     0
  9
$REGENMODE
 70
     1
  9
$FILLMODE
 70
     1
  9
$QTEXTMODE
 70
     0
  9
$MIRRTEXT
 70
     0
  9
$LTSCALE
 40
1.0
  9
$ATTMODE
 70
     1
  9
$TEXTSIZE
 40
0.005
  9
$TRACEWID
 40
1.0
  9
$TEXTSTYLE
  7
style1
  9
$CLAYER
  8
Dimensione
  9
$CELTYPE
  6
ByLayer
  9
$CECOLOR
 62
   256
  9
$CELTSCALE
 40
1.0
  9
$DISPSILH
 70
     0
  9
$DIMSCALE
 40
0.001
  9
$DIMASZ
 40
1.5
  9
$DIMEXO
 40
0.0625
  9
$DIMDLI
 40
0.38
  9
$DIMRND
 40
0.0
  9
$DIMDLE
 40
0.0
  9
$DIMEXE
 40
0.18
  9
$DIMTP
 40
0.0
  9
$DIMTM
 40
0.0
  9
$DIMTXT
 40
3.0
  9
$DIMCEN
 40
0.0
  9
$DIMTSZ
 40
0.0
  9
$DIMTOL
 70
     0
  9
$DIMLIM
 70
     0
  9
$DIMTIH
 70
     1
  9
$DIMTOH
 70
     1
  9
$DIMSE1
 70
     0
  9
$DIMSE2
 70
     0
  9
$DIMTAD
 70
     0
  9
$DIMZIN
 70
     0
  9
$DIMBLK
  1
ArchTick
  9
$DIMASO
 70
     1
  9
$DIMSHO
 70
     1
  9
$DIMPOST
  1

  9
$DIMAPOST
  1

  9
$DIMALT
 70
     0
  9
$DIMALTD
 70
     2
  9
$DIMALTF
 40
25.4
  9
$DIMLFAC
 40
1.0
  9
$DIMTOFL
 70
     0
  9
$DIMTVP
 40
0.0
  9
$DIMTIX
 70
     0
  9
$DIMSOXD
 70
     0
  9
$DIMSAH
 70
     0
  9
$DIMBLK1
  1

  9
$DIMBLK2
  1

  9
$DIMSTYLE
  2
Bovelacci
  9
$DIMCLRD
 70
     5
  9
$DIMCLRE
 70
     5
  9
$DIMCLRT
 70
     4
  9
$DIMTFAC
 40
1.0
  9
$DIMGAP
 40
2.0
  9
$DIMJUST
 70
     0
  9
$DIMSD1
 70
     0
  9
$DIMSD2
 70
     0
  9
$DIMTOLJ
 70
     1
  9
$DIMTZIN
 70
     0
  9
$DIMALTZ
 70
     0
  9
$DIMALTTZ
 70
     0
  9
$DIMUPT
 70
     0
  9
$DIMDEC
 70
     2
  9
$DIMTDEC
 70
     2
  9
$DIMALTU
 70
     2
  9
$DIMALTTD
 70
     2
  9
$DIMTXSTY
  7
ROMANS
  9
$DIMAUNIT
 70
     0
  9
$DIMADEC
 70
     0
  9
$DIMALTRND
 40
0.0
  9
$DIMAZIN
 70
     0
  9
$DIMDSEP
 70
    46
  9
$DIMATFIT
 70
     3
  9
$DIMFRAC
 70
     0
  9
$DIMLDRBLK
  1

  9
$DIMLUNIT
 70
     2
  9
$DIMLWD
 70
    -2
  9
$DIMLWE
 70
    -2
  9
$DIMTMOVE
 70
     2
  9
$LUNITS
 70
     2
  9
$LUPREC
 70
     2
  9
$SKETCHINC
 40
1.0
  9
$FILLETRAD
 40
0.0
  9
$AUNITS
 70
     0
  9
$AUPREC
 70
     0
  9
$MENU
  1
.
  9
$ELEVATION
 40
0.0
  9
$PELEVATION
 40
0.0
  9
$THICKNESS
 40
0.0
  9
$LIMCHECK
 70
     0
  9
$CHAMFERA
 40
0.0
  9
$CHAMFERB
 40
0.0
  9
$CHAMFERC
 40
0.0
  9
$CHAMFERD
 40
0.0
  9
$SKPOLY
 70
     0
  9
$TDCREATE
 40
2454297.625402373
  9
$TDUCREATE
 40
2454297.542069039
  9
$TDUPDATE
 40
2454369.657247535
  9
$TDUUPDATE
 40
2454369.573914202
  9
$TDINDWG
 40
0.4741435301
  9
$TDUSRTIMER
 40
0.4741429745
  9
$USRTIMER
 70
     1
  9
$ANGBASE
 50
0.0
  9
$ANGDIR
 70
     0
  9
$PDMODE
 70
     0
  9
$PDSIZE
 40
0.0
  9
$PLINEWID
 40
0.0
  9
$SPLFRAME
 70
     0
  9
$SPLINETYPE
 70
     6
  9
$SPLINESEGS
 70
     8
  9
$HANDSEED
  5
3389
  9
$SURFTAB1
 70
     6
  9
$SURFTAB2
 70
     6
  9
$SURFTYPE
 70
     6
  9
$SURFU
 70
     6
  9
$SURFV
 70
     6
  9
$UCSBASE
  2

  9
$UCSNAME
  2

  9
$UCSORG
 10
0.0
 20
0.0
 30
0.0
  9
$UCSXDIR
 10
1.0
 20
0.0
 30
0.0
  9
$UCSYDIR
 10
0.0
 20
1.0
 30
0.0
  9
$UCSORTHOREF
  2

  9
$UCSORTHOVIEW
 70
     0
  9
$UCSORGTOP
 10
0.0
 20
0.0
 30
0.0
  9
$UCSORGBOTTOM
 10
0.0
 20
0.0
 30
0.0
  9
$UCSORGLEFT
 10
0.0
 20
0.0
 30
0.0
  9
$UCSORGRIGHT
 10
0.0
 20
0.0
 30
0.0
  9
$UCSORGFRONT
 10
0.0
 20
0.0
 30
0.0
  9
$UCSORGBACK
 10
0.0
 20
0.0
 30
0.0
  9
$PUCSBASE
  2

  9
$PUCSNAME
  2

  9
$PUCSORG
 10
0.0
 20
0.0
 30
0.0
  9
$PUCSXDIR
 10
1.0
 20
0.0
 30
0.0
  9
$PUCSYDIR
 10
0.0
 20
1.0
 30
0.0
  9
$PUCSORTHOREF
  2

  9
$PUCSORTHOVIEW
 70
     0
  9
$PUCSORGTOP
 10
0.0
 20
0.0
 30
0.0
  9
$PUCSORGBOTTOM
 10
0.0
 20
0.0
 30
0.0
  9
$PUCSORGLEFT
 10
0.0
 20
0.0
 30
0.0
  9
$PUCSORGRIGHT
 10
0.0
 20
0.0
 30
0.0
  9
$PUCSORGFRONT
 10
0.0
 20
0.0
 30
0.0
  9
$PUCSORGBACK
 10
0.0
 20
0.0
 30
0.0
  9
$USERI1
 70
     0
  9
$USERI2
 70
     0
  9
$USERI3
 70
     0
  9
$USERI4
 70
     0
  9
$USERI5
 70
     0
  9
$USERR1
 40
0.0
  9
$USERR2
 40
0.0
  9
$USERR3
 40
0.0
  9
$USERR4
 40
0.0
  9
$USERR5
 40
0.0
  9
$WORLDVIEW
 70
     1
  9
$SHADEDGE
 70
     3
  9
$SHADEDIF
 70
    70
  9
$TILEMODE
 70
     1
  9
$MAXACTVP
 70
    64
  9
$PINSBASE
 10
0.0
 20
0.0
 30
0.0
  9
$PLIMCHECK
 70
     0
  9
$PEXTMIN
 10
29.06606628894805
 20
20.36233246326446
 30
0.0
  9
$PEXTMAX
 10
261.5945966005325
 20
183.2609921693802
 30
0.0
  9
$PLIMMIN
 10
-3.17498779296875
 20
-3.174999952316281
  9
$PLIMMAX
 10
293.8356628417969
 20
206.7983276844024
  9
$UNITMODE
 70
     0
  9
$VISRETAIN
 70
     1
  9
$PLINEGEN
 70
     0
  9
$PSLTSCALE
 70
     1
  9
$TREEDEPTH
 70
  3020
  9
$CMLSTYLE
  2
Standard
  9
$CMLJUST
 70
     0
  9
$CMLSCALE
 40
20.0
  9
$PROXYGRAPHICS
 70
     1
  9
$MEASUREMENT
 70
     1
  9
$CELWEIGHT
370
    -1
  9
$ENDCAPS
280
     0
  9
$JOINSTYLE
280
     0
  9
$LWDISPLAY
290
     0
  9
$INSUNITS
 70
     4
  9
$HYPERLINKBASE
  1

  9
$STYLESHEET
  1

  9
$XEDIT
290
     1
  9
$CEPSNTYPE
380
     0
  9
$PSTYLEMODE
290
     1
  9
$FINGERPRINTGUID
  2
{4F38C4E7-9F37-4C76-96D9-79C94F9B03D9}
  9
$VERSIONGUID
  2
{2D766ABB-B77C-46B3-A15E-3503102C5E1E}
  9
$EXTNAMES
290
     1
  9
$PSVPSCALE
 40
0.0
  9
$OLESTARTUP
290
     0
  9
$SORTENTS
280
   127
  9
$INDEXCTL
280
     0
  9
$HIDETEXT
280
     1
  9
$XCLIPFRAME
290
     0
  9
$HALOGAP
280
     0
  9
$OBSCOLOR
 70
   257
  9
$OBSLTYPE
280
     0
  9
$INTERSECTIONDISPLAY
280
     0
  9
$INTERSECTIONCOLOR
 70
   257
  9
$DIMASSOC
280
     2
  9
$PROJECTNAME
  1

  0
ENDSEC
  0
SECTION
  2
CLASSES
  0
CLASS
  1
ACDBDICTIONARYWDFLT
  2
AcDbDictionaryWithDefault
  3
ObjectDBX Classes
 90
        0
 91
        1
280
     0
281
     0
  0
CLASS
  1
TABLESTYLE
  2
AcDbTableStyle
  3
ObjectDBX Classes
 90
     2047
 91
        1
280
     0
281
     0
  0
CLASS
  1
SORTENTSTABLE
  2
AcDbSortentsTable
  3
ObjectDBX Classes
 90
        0
 91
        1
280
     0
281
     0
  0
CLASS
  1
DICTIONARYVAR
  2
AcDbDictionaryVar
  3
ObjectDBX Classes
 90
        0
 91
        6
280
     0
281
     0
  0
CLASS
  1
DIMASSOC
  2
AcDbDimAssoc
  3
"AcDbDimAssoc|Product Desc:     AcDim ARX App For Dimension|Company:          Autodesk, Inc.|WEB Address:      www.autodesk.com"
 90
        0
 91
        2
280
     0
281
     0
  0
CLASS
  1
ACDBPLACEHOLDER
  2
AcDbPlaceHolder
  3
ObjectDBX Classes
 90
        0
 91
        1
280
     0
281
     0
  0
CLASS
  1
LAYOUT
  2
AcDbLayout
  3
ObjectDBX Classes
 90
        0
 91
        3
280
     0
281
     0
  0
CLASS
  1
MATERIAL
  2
AcDbMaterial
  3
ObjectDBX Classes
 90
        0
 91
        3
280
     0
281
     0
  0
CLASS
  1
VISUALSTYLE
  2
AcDbVisualStyle
  3
ObjectDBX Classes
 90
     4095
 91
       16
280
     0
281
     0
  0
CLASS
  1
ACAD_EVALUATION_GRAPH
  2
AcDbEvalGraph
  3
ObjectDBX Classes
 90
     1153
 91
        0
280
     0
281
     0
  0
CLASS
  1
ACAECUSTOBJ
  2
AcAeEditorObj
  3
AcAeEditorObj
 90
     1024
 91
        0
280
     0
281
     0
  0
CLASS
  1
ACDB_DYNAMICBLOCKPURGEPREVENTER_VERSION
  2
AcDbDynamicBlockPurgePreventer
  3
ObjectDBX Classes
 90
     1153
 91
        0
280
     0
281
     0
  0
ENDSEC
  0
SECTION
  2
TABLES
  0
TABLE
  2
VPORT
  5
96
330
0
100
AcDbSymbolTable
 70
     5
  0
VPORT
  5
3388
330
96
100
AcDbSymbolTableRecord
100
AcDbViewportTableRecord
  2
*Active
 70
     0
 10
0.0
 20
0.0
 11
1.0
 21
1.0
 12
0.2381436596718532
 22
0.1865768576734451
 13
0.0
 23
0.0
 14
10.0
 24
10.0
 15
10.0
 25
10.0
 16
0.0
 26
0.0
 36
1.0
 17
0.0
 27
0.0
 37
0.0
 40
0.2751349452093577
 41
1.375806451612903
 42
50.0
 43
0.0
 44
0.0
 50
0.0
 51
0.0
 71
     0
 72
  1000
 73
     1
 74
     3
 75
     0
 76
     0
 77
     0
 78
     0
281
     0
 65
     1
110
0.0
120
0.0
130
0.0
111
1.0
121
0.0
131
0.0
112
0.0
122
1.0
132
0.0
 79
     0
146
0.0
  0
ENDTAB
  0
TABLE
  2
LTYPE
  5
91
330
0
100
AcDbSymbolTable
 70
     1
  0
LTYPE
  5
92
330
91
100
AcDbSymbolTableRecord
100
AcDbLinetypeTableRecord
  2
ByBlock
 70
     0
  3

 72
    65
 73
     0
 40
0.0
  0
LTYPE
  5
93
330
91
100
AcDbSymbolTableRecord
100
AcDbLinetypeTableRecord
  2
ByLayer
 70
     0
  3

 72
    65
 73
     0
 40
0.0
  0
LTYPE
  5
C
330
91
100
AcDbSymbolTableRecord
100
AcDbLinetypeTableRecord
  2
Continuous
 70
     0
  3
Solid line
 72
    65
 73
     0
 40
0.0
  0
ENDTAB
  0
TABLE
  2
LAYER
  5
8A
102
{ACAD_XDICTIONARY
360
8B
102
}
330
0
100
AcDbSymbolTable
 70
     7
  0
LAYER
  5
6
330
8A
100
AcDbSymbolTableRecord
100
AcDbLayerTableRecord
  2
0
 70
     0
 62
     7
  6
Continuous
370
    -3
390
7
  0
LAYER
  5
3F
330
8A
100
AcDbSymbolTableRecord
100
AcDbLayerTableRecord
  2
Defpoints
 70
     0
 62
     7
  6
Continuous
290
     0
370
    -3
390
7
  0
LAYER
  5
2E
330
8A
100
AcDbSymbolTableRecord
100
AcDbLayerTableRecord
  2
Dimensione
 70
     0
 62
   150
  6
Continuous
370
    -3
390
7
1001
AcAecLayerStandard
1000

1000

  0
LAYER
  5
54
330
8A
100
AcDbSymbolTableRecord
100
AcDbLayerTableRecord
  2
Sezione
 70
     0
 62
     2
  6
Continuous
370
    -3
390
7
1001
AcAecLayerStandard
1000

1000

  0
LAYER
  5
E
330
8A
100
AcDbSymbolTableRecord
100
AcDbLayerTableRecord
  2
Table
 70
     0
 62
     3
  6
Continuous
370
    -3
390
7
1001
AcAecLayerStandard
1000

1000

  0
LAYER
  5
19
330
8A
100
AcDbSymbolTableRecord
100
AcDbLayerTableRecord
  2
Text
 70
     0
 62
     4
  6
Continuous
370
    -3
390
7
1001
AcAecLayerStandard
1000

1000

  0
LAYER
  5
25D5
330
8A
100
AcDbSymbolTableRecord
100
AcDbLayerTableRecord
  2
Profilo
 70
     0
 62
     1
  6
Continuous
370
    -3
390
7
1001
AcAecLayerStandard
1000

1000

  0
ENDTAB
  0
TABLE
  2
STYLE
  5
8F
330
0
100
AcDbSymbolTable
 70
     4
  0
STYLE
  5
1A
330
8F
100
AcDbSymbolTableRecord
100
AcDbTextStyleTableRecord
  2
Standard
 70
     0
 40
0.0
 41
1.0
 50
0.0
 71
     0
 42
2.5
  3
txt
  4

  0
STYLE
  5
20
330
8F
100
AcDbSymbolTableRecord
100
AcDbTextStyleTableRecord
  2
ROMANS
 70
     0
 40
0.0
 41
1.0
 50
0.0
 71
     0
 42
2.5
  3
romans
  4

  0
STYLE
  5
28
330
8F
100
AcDbSymbolTableRecord
100
AcDbTextStyleTableRecord
  2
Arial
 70
     0
 40
0.0
 41
1.0
 50
0.0
 71
     0
 42
0.25
  3
ARIAL.TTF
  4

1001
ACAD
1000
Arial
1071
       34
  0
STYLE
  5
26
330
8F
100
AcDbSymbolTableRecord
100
AcDbTextStyleTableRecord
  2
style1
 70
     0
 40
0.0
 41
1.0
 50
0.0
 71
     0
 42
0.005
  3
TIMES.TTF
  4

1001
ACAD
1000
Times New Roman
1071
       18
  0
ENDTAB
  0
TABLE
  2
VIEW
  5
94
330
0
100
AcDbSymbolTable
 70
     0
  0
ENDTAB
  0
TABLE
  2
UCS
  5
95
330
0
100
AcDbSymbolTable
 70
     0
  0
ENDTAB
  0
TABLE
  2
APPID
  5
98
330
0
100
AcDbSymbolTable
 70
    14
  0
APPID
  5
1B
330
98
100
AcDbSymbolTableRecord
100
AcDbRegAppTableRecord
  2
ACAD
 70
     0
  0
APPID
  5
34
330
98
100
AcDbSymbolTableRecord
100
AcDbRegAppTableRecord
  2
ACAD_DSTYLE_DIMJOGGED_JOGANGLE_SYMBOL
 70
     0
  0
APPID
  5
F
330
98
100
AcDbSymbolTableRecord
100
AcDbRegAppTableRecord
  2
AcAecLayerStandard
 70
     0
  0
APPID
  5
85
330
98
100
AcDbSymbolTableRecord
100
AcDbRegAppTableRecord
  2
ACAD_PSEXT
 70
     0
  0
APPID
  5
BA
330
98
100
AcDbSymbolTableRecord
100
AcDbRegAppTableRecord
  2
ACAD_DSTYLE_DIMEXT_LENGTH
 70
     0
  0
APPID
  5
101
330
98
100
AcDbSymbolTableRecord
100
AcDbRegAppTableRecord
  2
ACAD_EXEMPT_FROM_CAD_STANDARDS
 70
     0
  0
APPID
  5
102
330
98
100
AcDbSymbolTableRecord
100
AcDbRegAppTableRecord
  2
ACAD_DSTYLE_DIM_LINETYPE
 70
     0
  0
APPID
  5
103
330
98
100
AcDbSymbolTableRecord
100
AcDbRegAppTableRecord
  2
ACAD_DSTYLE_DIM_EXT1_LINETYPE
 70
     0
  0
APPID
  5
104
330
98
100
AcDbSymbolTableRecord
100
AcDbRegAppTableRecord
  2
ACAD_DSTYLE_DIM_EXT2_LINETYPE
 70
     0
  0
APPID
  5
10D5
330
98
100
AcDbSymbolTableRecord
100
AcDbRegAppTableRecord
  2
ACAUTHENVIRON
 70
     0
  0
APPID
  5
10D9
330
98
100
AcDbSymbolTableRecord
100
AcDbRegAppTableRecord
  2
AcDbDynamicBlockTrueName
 70
     0
  0
APPID
  5
10DA
330
98
100
AcDbSymbolTableRecord
100
AcDbRegAppTableRecord
  2
AcDbDynamicBlockGUID
 70
     0
  0
APPID
  5
10DC
330
98
100
AcDbSymbolTableRecord
100
AcDbRegAppTableRecord
  2
AcDbBlockRepETag
 70
     0
  0
APPID
  5
249F
330
98
100
AcDbSymbolTableRecord
100
AcDbRegAppTableRecord
  2
DCO15
 70
     0
  0
ENDTAB
  0
TABLE
  2
DIMSTYLE
  5
99
330
0
100
AcDbSymbolTable
 70
     2
100
AcDbDimStyleTable
 71
     1
340
2F
  0
DIMSTYLE
105
2F
102
{ACAD_REACTORS
330
3279
330
3311
330
3365
102
}
330
99
100
AcDbSymbolTableRecord
100
AcDbDimStyleTableRecord
  2
Bovelacci
 70
     0
 40
0.001
 41
1.5
140
3.0
141
0.0
147
2.0
176
     5
177
     5
178
     4
271
     2
272
     2
279
     2
340
20
342
30
1001
ACAD_DSTYLE_DIMJOGGED_JOGANGLE_SYMBOL
1070
   384
1040
0.7853981633974483
1001
ACAD_DSTYLE_DIMEXT_LENGTH
1070
   378
1040
0.18
  0
DIMSTYLE
105
194
330
99
100
AcDbSymbolTableRecord
100
AcDbDimStyleTableRecord
  2
STANDARD
 70
     0
340
1A
  0
ENDTAB
  0
TABLE
  2
BLOCK_RECORD
  5
1
330
0
100
AcDbSymbolTable
 70
    23
  0
BLOCK_RECORD
  5
2
102
{ACAD_XDICTIONARY
360
3
102
}
330
1
100
AcDbSymbolTableRecord
100
AcDbBlockTableRecord
  2
*Model_Space
340
77
  0
BLOCK_RECORD
  5
79
330
1
100
AcDbSymbolTableRecord
100
AcDbBlockTableRecord
  2
*Paper_Space
340
82
  0
BLOCK_RECORD
  5
86
330
1
100
AcDbSymbolTableRecord
100
AcDbBlockTableRecord
  2
*Paper_Space0
340
89
  0
BLOCK_RECORD
  5
30
330
1
100
AcDbSymbolTableRecord
100
AcDbBlockTableRecord
  2
_ArchTick
340
0
310
2800000020000000200000000100080000000000000400000000000000000000000000000000000000000000000080000080000000808000800000008000800080800000C0C0C000C0DCC000F0CAA6000020400000206000002080000020A0000020C0000020E00000400000004020000040400000406000004080000040A0
310
000040C0000040E00000600000006020000060400000606000006080000060A0000060C0000060E00000800000008020000080400000806000008080000080A0000080C0000080E00000A0000000A0200000A0400000A0600000A0800000A0A00000A0C00000A0E00000C0000000C0200000C0400000C0600000C0800000C0
310
A00000C0C00000C0E00000E0000000E0200000E0400000E0600000E0800000E0A00000E0C00000E0E00040000000400020004000400040006000400080004000A0004000C0004000E00040200000402020004020400040206000402080004020A0004020C0004020E000404000004040200040404000404060004040800040
310
40A0004040C0004040E00040600000406020004060400040606000406080004060A0004060C0004060E00040800000408020004080400040806000408080004080A0004080C0004080E00040A0000040A0200040A0400040A0600040A0800040A0A00040A0C00040A0E00040C0000040C0200040C0400040C0600040C08000
310
40C0A00040C0C00040C0E00040E0000040E0200040E0400040E0600040E0800040E0A00040E0C00040E0E00080000000800020008000400080006000800080008000A0008000C0008000E00080200000802020008020400080206000802080008020A0008020C0008020E00080400000804020008040400080406000804080
310
008040A0008040C0008040E00080600000806020008060400080606000806080008060A0008060C0008060E00080800000808020008080400080806000808080008080A0008080C0008080E00080A0000080A0200080A0400080A0600080A0800080A0A00080A0C00080A0E00080C0000080C0200080C0400080C0600080C0
310
800080C0A00080C0C00080C0E00080E0000080E0200080E0400080E0600080E0800080E0A00080E0C00080E0E000C0000000C0002000C0004000C0006000C0008000C000A000C000C000C000E000C0200000C0202000C0204000C0206000C0208000C020A000C020C000C020E000C0400000C0402000C0404000C0406000C0
310
408000C040A000C040C000C040E000C0600000C0602000C0604000C0606000C0608000C060A000C060C000C060E000C0800000C0802000C0804000C0806000C0808000C080A000C080C000C080E000C0A00000C0A02000C0A04000C0A06000C0A08000C0A0A000C0A0C000C0A0E000C0C00000C0C02000C0C04000C0C06000
310
C0C08000C0C0A000F0FBFF00A4A0A000808080000000FF0000FF000000FFFF00FF000000FF00FF00FFFF0000FFFFFF00000000FF000000000000000000000000000000000000000000000000000000000000FF00FF00000000000000000000000000000000000000000000000000000000FF000000FF000000000000000000
310
0000000000000000000000000000000000FF0000000000FF0000000000000000000000000000000000000000000000000000FF0000000000FF0000000000000000000000000000000000000000000000000000FF0000000000FF0000000000000000000000000000000000000000000000000000FF0000000000FF00000000
310
00000000000000000000000000000000000000000000FF0000000000FF0000000000000000000000000000000000000000000000000000FF0000000000FF0000000000000000000000000000000000000000000000000000FF0000000000FF0000000000000000000000000000000000000000000000000000FF0000000000
310
FF0000000000000000000000000000000000000000000000000000FF0000000000FF0000000000000000000000000000000000000000000000000000FF0000000000FF0000000000000000000000000000000000000000000000000000FF0000000000FF0000000000000000000000000000000000000000000000000000FF
310
0000000000FF0000000000000000000000000000000000000000000000000000FF0000000000FF0000000000000000000000000000000000000000000000000000FF0000000000FF0000000000000000000000000000000000000000000000000000FF0000000000FF00000000000000000000000000000000000000000000
310
00000000FF0000000000FF0000000000000000000000000000000000000000000000000000FF0000000000FF0000000000000000000000000000000000000000000000000000FF0000000000FF0000000000000000000000000000000000000000000000000000FF0000000000FF0000000000000000000000000000000000
310
000000000000000000FF0000000000FF0000000000000000000000000000000000000000000000000000FF0000000000FF0000000000000000000000000000000000000000000000000000FF0000000000FF0000000000000000000000000000000000000000000000000000FF0000000000FF000000000000000000000000
310
0000000000000000000000000000FF0000000000FF0000000000000000000000000000000000000000000000000000FF0000000000FF0000000000000000000000000000000000000000000000000000FF0000000000FF0000000000000000000000000000000000000000000000000000FF000000FF000000000000000000
310
00000000000000000000000000000000000000FF00FF000000000000000000000000000000000000000000000000000000000000FF000000
102
{BLKREFS
331
2B84
331
2B85
331
2B8E
331
2B8F
331
2D36
331
2D37
331
2D4F
331
2D50
331
2D82
331
2D83
331
2E0D
331
2E0E
331
2E73
331
2E74
331
2E8D
331
2E8E
331
3077
331
3078
331
3081
331
3082
331
3096
331
3097
331
30E5
331
30E6
331
30EF
331
30F0
331
30F9
331
30FA
331
32A0
331
32A1
331
32BA
331
32BB
331
3301
331
3302
331
335F
331
3360
331
3381
331
3382
102
}
  0
BLOCK_RECORD
  5
4E0
330
1
100
AcDbSymbolTableRecord
100
AcDbBlockTableRecord
  2
_Arrivo
340
0
310
2800000020000000200000000100080000000000000400000000000000000000000000000000000000000000000080000080000000808000800000008000800080800000C0C0C000C0DCC000F0CAA6000020400000206000002080000020A0000020C0000020E00000400000004020000040400000406000004080000040A0
310
000040C0000040E00000600000006020000060400000606000006080000060A0000060C0000060E00000800000008020000080400000806000008080000080A0000080C0000080E00000A0000000A0200000A0400000A0600000A0800000A0A00000A0C00000A0E00000C0000000C0200000C0400000C0600000C0800000C0
310
A00000C0C00000C0E00000E0000000E0200000E0400000E0600000E0800000E0A00000E0C00000E0E00040000000400020004000400040006000400080004000A0004000C0004000E00040200000402020004020400040206000402080004020A0004020C0004020E000404000004040200040404000404060004040800040
310
40A0004040C0004040E00040600000406020004060400040606000406080004060A0004060C0004060E00040800000408020004080400040806000408080004080A0004080C0004080E00040A0000040A0200040A0400040A0600040A0800040A0A00040A0C00040A0E00040C0000040C0200040C0400040C0600040C08000
310
40C0A00040C0C00040C0E00040E0000040E0200040E0400040E0600040E0800040E0A00040E0C00040E0E00080000000800020008000400080006000800080008000A0008000C0008000E00080200000802020008020400080206000802080008020A0008020C0008020E00080400000804020008040400080406000804080
310
008040A0008040C0008040E00080600000806020008060400080606000806080008060A0008060C0008060E00080800000808020008080400080806000808080008080A0008080C0008080E00080A0000080A0200080A0400080A0600080A0800080A0A00080A0C00080A0E00080C0000080C0200080C0400080C0600080C0
310
800080C0A00080C0C00080C0E00080E0000080E0200080E0400080E0600080E0800080E0A00080E0C00080E0E000C0000000C0002000C0004000C0006000C0008000C000A000C000C000C000E000C0200000C0202000C0204000C0206000C0208000C020A000C020C000C020E000C0400000C0402000C0404000C0406000C0
310
408000C040A000C040C000C040E000C0600000C0602000C0604000C0606000C0608000C060A000C060C000C060E000C0800000C0802000C0804000C0806000C0808000C080A000C080C000C080E000C0A00000C0A02000C0A04000C0A06000C0A08000C0A0A000C0A0C000C0A0E000C0C00000C0C02000C0C04000C0C06000
310
C0C08000C0C0A000F0FBFF00A4A0A000808080000000FF0000FF000000FFFF00FF000000FF00FF00FFFF0000FFFFFF00000000000000000000000000000000000000000000000000000000000000000000000000000000000000FF0000000000000000000000000000000000000000000000000000000000000000FF000000
310
00000000000000000000000000000000000000000000000000000000FF0000000000000000000000000000000000000000000000000000000000000000FF00000000000000000000000000000000000000000000000000000000000000FF0000000000000000000000000000000000000000000000000000000000000000FF
310
0000000000000000000000000000000000000000000000000000000000000000FF00000000000000000000000000000000000000000000000000000000000000FF0000000000000000000000000000000000000000000000000000000000000000FF0000000000000000000000000000000000000000000000000000000000
310
0000FF0000000000000000000000000000000000000000000000000000000000000000FF00000000000000000000000000000000000000000000000000000000000000FF0000000000000000000000000000000000000000000000000000000000000000FF0000FF0000000000000000000000000000000000000000000000
310
000000000000FFFF000000000000000000000000000000000000000000000000000000000000FFFF00000000000000000000000000000000000000000000000000000000FFFFFFFFFFFF00000000000000000000000000000000000000000000000000000000FFFF0000000000000000000000000000000000000000000000
310
000000000000FF0000FF000000000000000000000000000000000000000000000000000000FF00000000000000000000000000000000000000000000000000000000000000FF000000000000000000000000000000000000000000000000000000000000FF0000000000000000000000000000000000000000000000000000
310
0000000000FF000000000000000000000000000000000000000000000000000000000000FF00000000000000000000000000000000000000000000000000000000000000FF000000000000000000000000000000000000000000000000000000000000FF000000000000000000000000000000000000000000000000000000
310
000000FF00000000000000000000000000000000000000000000000000000000000000FF000000000000000000000000000000000000000000000000000000000000FF00000000000000000000000000000000000000000000000000000000000000FF00000000000000000000000000000000000000000000000000000000
310
0000FF0000000000000000000000000000000000000000000000000000000000000000000000000000000000000000000000000000000000
  0
BLOCK_RECORD
  5
4E6
330
1
100
AcDbSymbolTableRecord
100
AcDbBlockTableRecord
  2
_Partenza
340
0
310
2800000020000000200000000100080000000000000400000000000000000000000000000000000000000000000080000080000000808000800000008000800080800000C0C0C000C0DCC000F0CAA6000020400000206000002080000020A0000020C0000020E00000400000004020000040400000406000004080000040A0
310
000040C0000040E00000600000006020000060400000606000006080000060A0000060C0000060E00000800000008020000080400000806000008080000080A0000080C0000080E00000A0000000A0200000A0400000A0600000A0800000A0A00000A0C00000A0E00000C0000000C0200000C0400000C0600000C0800000C0
310
A00000C0C00000C0E00000E0000000E0200000E0400000E0600000E0800000E0A00000E0C00000E0E00040000000400020004000400040006000400080004000A0004000C0004000E00040200000402020004020400040206000402080004020A0004020C0004020E000404000004040200040404000404060004040800040
310
40A0004040C0004040E00040600000406020004060400040606000406080004060A0004060C0004060E00040800000408020004080400040806000408080004080A0004080C0004080E00040A0000040A0200040A0400040A0600040A0800040A0A00040A0C00040A0E00040C0000040C0200040C0400040C0600040C08000
310
40C0A00040C0C00040C0E00040E0000040E0200040E0400040E0600040E0800040E0A00040E0C00040E0E00080000000800020008000400080006000800080008000A0008000C0008000E00080200000802020008020400080206000802080008020A0008020C0008020E00080400000804020008040400080406000804080
310
008040A0008040C0008040E00080600000806020008060400080606000806080008060A0008060C0008060E00080800000808020008080400080806000808080008080A0008080C0008080E00080A0000080A0200080A0400080A0600080A0800080A0A00080A0C00080A0E00080C0000080C0200080C0400080C0600080C0
310
800080C0A00080C0C00080C0E00080E0000080E0200080E0400080E0600080E0800080E0A00080E0C00080E0E000C0000000C0002000C0004000C0006000C0008000C000A000C000C000C000E000C0200000C0202000C0204000C0206000C0208000C020A000C020C000C020E000C0400000C0402000C0404000C0406000C0
310
408000C040A000C040C000C040E000C0600000C0602000C0604000C0606000C0608000C060A000C060C000C060E000C0800000C0802000C0804000C0806000C0808000C080A000C080C000C080E000C0A00000C0A02000C0A04000C0A06000C0A08000C0A0A000C0A0C000C0A0E000C0C00000C0C02000C0C04000C0C06000
310
C0C08000C0C0A000F0FBFF00A4A0A000808080000000FF0000FF000000FFFF00FF000000FF00FF00FFFF0000FFFFFF0000000000000000000000000000000000000000000000000000000000000000000000000000000000000000000000000000000000000000000000000000000000000000000000000000000000000000
310
000000000000000000000000000000000000000000000000000000000000000000000000000000000000000000000000000000000000000000000000000000000000000000000000000000000000000000000000000000000000000000000000000000000000000000000000000000000000FFFFFFFFFFFFFFFFFFFFFFFFFF
310
FFFFFFFFFFFFFFFFFFFFFFFFFFFFFFFFFF0000000000000000000000000000000000000000000000000000000000000000000000000000000000000000000000000000000000000000000000000000000000000000000000000000000000000000000000000000000000000000000000000000000000000000000000000000
310
00000000000000000000000000000000000000000000000000000000000000000000000000000000000000000000000000000000000000000000000000000000000000000000000000000000000000000000000000000000000000000000000000000000000000000000000000000000000000000000000000000000000000
310
00000000000000000000000000000000000000000000000000000000000000000000000000000000000000000000000000000000000000000000000000000000000000000000000000000000000000000000000000000000000000000000000000000000000000000000000000000000000000000000000000000000000000
310
00000000000000000000000000000000000000000000000000000000000000000000000000000000000000000000000000000000000000000000000000000000000000000000000000000000000000000000000000000000000000000000000000000000000000000000000000000000000000000000000000000000000000
310
000000000000000000000000000000000000000000000000000000000000000000000000000000000000000000000000000000000000000000000000000000000000000000000000000000000000000000000000000000FFFFFFFFFFFFFFFFFFFFFFFFFFFFFFFFFFFFFFFFFFFFFFFFFFFFFFFFFFFF00000000000000000000
310
00000000000000000000000000000000000000000000000000000000000000000000000000000000000000000000000000000000000000000000000000000000000000000000000000000000000000000000000000000000000000000000000000000000000000000000000000000000000000000000000000000000000000
310
0000000000000000000000000000000000000000000000000000000000000000000000000000000000000000000000000000000000000000
  0
BLOCK_RECORD
  5
327A
330
1
100
AcDbSymbolTableRecord
100
AcDbBlockTableRecord
  2
*D18
340
0
  0
BLOCK_RECORD
  5
328E
330
1
100
AcDbSymbolTableRecord
100
AcDbBlockTableRecord
  2
*D19
340
0
  0
BLOCK_RECORD
  5
32A8
330
1
100
AcDbSymbolTableRecord
100
AcDbBlockTableRecord
  2
*D20
340
0
  0
BLOCK_RECORD
  5
3312
330
1
100
AcDbSymbolTableRecord
100
AcDbBlockTableRecord
  2
*D21
340
0
  0
BLOCK_RECORD
  5
3366
330
1
100
AcDbSymbolTableRecord
100
AcDbBlockTableRecord
  2
*D22
340
0
  0
ENDTAB
  0
ENDSEC
  0
SECTION
  2
BLOCKS
  0
BLOCK
  5
5
330
2
100
AcDbEntity
  8
0
100
AcDbBlockBegin
  2
*Model_Space
 70
     0
 10
0.0
 20
0.0
 30
0.0
  3
*Model_Space
  1

  0
ENDBLK
  5
76
330
2
100
AcDbEntity
  8
0
100
AcDbBlockEnd
  0
BLOCK
  5
7A
330
79
100
AcDbEntity
 67
     1
  8
0
100
AcDbBlockBegin
  2
*Paper_Space
 70
     0
 10
0.0
 20
0.0
 30
0.0
  3
*Paper_Space
  1

  0
ENDBLK
  5
81
330
79
100
AcDbEntity
 67
     1
  8
0
100
AcDbBlockEnd
  0
BLOCK
  5
87
330
86
100
AcDbEntity
 67
     1
  8
0
100
AcDbBlockBegin
  2
*Paper_Space0
 70
     0
 10
0.0
 20
0.0
 30
0.0
  3
*Paper_Space0
  1

  0
ENDBLK
  5
88
330
86
100
AcDbEntity
 67
     1
  8
0
100
AcDbBlockEnd
  0
BLOCK
  5
31
330
30
100
AcDbEntity
  8
0
 62
     1
100
AcDbBlockBegin
  2
_ArchTick
 70
     0
 10
0.0
 20
0.0
 30
0.0
  3
_ArchTick
  1

  0
LWPOLYLINE
  5
32
330
30
100
AcDbEntity
  8
0
  6
ByBlock
 62
     0
100
AcDbPolyline
 90
        2
 70
     0
 43
0.15
 10
-0.5
 20
-0.5
 10
0.5
 20
0.5
  0
ENDBLK
  5
33
330
30
100
AcDbEntity
  8
0
 62
     1
100
AcDbBlockEnd
  0
BLOCK
  5
4E1
330
4E0
100
AcDbEntity
  8
0
100
AcDbBlockBegin
  2
_Arrivo
 70
     0
 10
0.0
 20
0.0
 30
0.0
  3
_Arrivo
  1

  0
LINE
  5
4E2
330
4E0
100
AcDbEntity
  8
0
  6
ByBlock
 62
     0
370
    -2
100
AcDbLine
 10
0.025
 20
-0.0433012701891858
 30
0.0
 11
-0.15
 21
0.2598076211353328
 31
0.0
  0
LINE
  5
4E3
330
4E0
100
AcDbEntity
  8
0
  6
ByBlock
 62
     0
370
    -2
100
AcDbLine
 10
0.025
 20
0.0433012701892585
 30
0.0
 11
-0.15
 21
-0.2598076211353328
 31
0.0
  0
LINE
  5
4E4
330
4E0
100
AcDbEntity
  8
0
  6
ByBlock
 62
     0
370
    -2
100
AcDbLine
 10
-0.05
 20
0.0
 30
0.0
 11
0.05
 21
0.0
 31
0.0
  0
ENDBLK
  5
4E5
330
4E0
100
AcDbEntity
  8
0
100
AcDbBlockEnd
  0
BLOCK
  5
4E7
330
4E6
100
AcDbEntity
  8
0
100
AcDbBlockBegin
  2
_Partenza
 70
     0
 10
0.0
 20
0.0
 30
0.0
  3
_Partenza
  1

  0
LINE
  5
4E8
330
4E6
100
AcDbEntity
  8
0
  6
ByBlock
 62
     0
370
    -2
100
AcDbLine
 10
-0.05
 20
0.05
 30
0.0
 11
0.1
 21
0.05
 31
0.0
  0
LINE
  5
4E9
330
4E6
100
AcDbEntity
  8
0
  6
ByBlock
 62
     0
370
    -2
100
AcDbLine
 10
-0.05
 20
-0.05
 30
0.0
 11
0.1
 21
-0.05
 31
0.0
  0
ENDBLK
  5
4EA
330
4E6
100
AcDbEntity
  8
0
100
AcDbBlockEnd
  0
BLOCK
  5
3285
330
327A
100
AcDbEntity
  8
0
100
AcDbBlockBegin
  2
*D18
 70
     1
 10
0.0
 20
0.0
 30
0.0
  3
*D18
  1

  0
LINE
  5
32FD
330
327A
100
AcDbEntity
  8
Dimensione
 62
     5
370
    -2
100
AcDbLine
 10
0.1751883731936731
 20
0.1119394207671724
 30
0.0
 11
0.1008971929789031
 21
0.1119394207671724
 31
0.0
  0
LINE
  5
32FE
330
327A
100
AcDbEntity
  8
Dimensione
 62
     5
370
    -2
100
AcDbLine
 10
0.139387463120781
 20
0.2002404351960584
 30
0.0
 11
0.1008971929789031
 21
0.2002404351960584
 31
0.0
  0
LINE
  5
32FF
330
327A
100
AcDbEntity
  8
Dimensione
 62
     5
370
    -2
100
AcDbLine
 10
0.1010771929789031
 20
0.1119394207671724
 30
0.0
 11
0.1010771929789031
 21
0.1525899279816154
 31
0.0
  0
LINE
  5
3300
330
327A
100
AcDbEntity
  8
Dimensione
 62
     5
370
    -2
100
AcDbLine
 10
0.1010771929789031
 20
0.2002404351960584
 30
0.0
 11
0.1010771929789031
 21
0.1595899279816154
 31
0.0
  0
INSERT
  5
3301
330
327A
100
AcDbEntity
  8
Dimensione
 62
     5
370
    -2
100
AcDbBlockReference
  2
_ArchTick
 10
0.1010771929789031
 20
0.1119394207671724
 30
0.0
 41
0.0015
 42
0.0015
 43
0.0015
 50
270.0
  0
INSERT
  5
3302
330
327A
100
AcDbEntity
  8
Dimensione
 62
     5
370
    -2
100
AcDbBlockReference
  2
_ArchTick
 10
0.1010771929789031
 20
0.2002404351960584
 30
0.0
 41
0.0015
 42
0.0015
 43
0.0015
 50
90.0
  0
MTEXT
  5
3303
330
327A
100
AcDbEntity
  8
Dimensione
 62
     4
100
AcDbMText
 10
0.1010771929789031
 20
0.1560899279816154
 30
0.0
 40
0.003
 41
0.0
 71
     5
 72
     1
  1
\A1;300 mm
  7
ROMANS
 73
     1
 44
1.0
  0
POINT
  5
3304
330
327A
100
AcDbEntity
  8
Defpoints
 62
     0
100
AcDbPoint
 10
0.1752508731936731
 20
0.1119394207671724
 30
0.0
  0
POINT
  5
3305
330
327A
100
AcDbEntity
  8
Defpoints
 62
     0
100
AcDbPoint
 10
0.139449963120781
 20
0.2002404351960584
 30
0.0
  0
POINT
  5
3306
330
327A
100
AcDbEntity
  8
Defpoints
 62
     0
100
AcDbPoint
 10
0.1010771929789031
 20
0.2002404351960584
 30
0.0
  0
ENDBLK
  5
3286
330
327A
100
AcDbEntity
  8
0
100
AcDbBlockEnd
  0
BLOCK
  5
3299
330
328E
100
AcDbEntity
  8
0
100
AcDbBlockBegin
  2
*D19
 70
     1
 10
0.0
 20
0.0
 30
0.0
  3
*D19
  1

  0
LINE
  5
329C
330
328E
100
AcDbEntity
  8
Dimensione
 62
     5
370
    -2
100
AcDbLine
 10
0.2575662640297977
 20
0.0878438629143417
 30
0.0
 11
0.2576204839083216
 21
0.0877396206255484
 31
0.0
  0
LINE
  5
329D
330
328E
100
AcDbEntity
  8
Dimensione
 62
     5
370
    -2
100
AcDbLine
 10
0.2811229011501373
 20
0.1000964527018598
 30
0.0
 11
0.2811771210286611
 21
0.0999922104130665
 31
0.0
  0
LINE
  5
329E
330
328E
100
AcDbEntity
  8
Dimensione
 62
     5
370
    -2
100
AcDbLine
 10
0.2575374236688808
 20
0.0878993109402955
 30
0.0
 11
0.2625866970760675
 21
0.0905256058340546
 31
0.0
  0
LINE
  5
329F
330
328E
100
AcDbEntity
  8
Dimensione
 62
     5
370
    -2
100
AcDbLine
 10
0.2810940607892203
 20
0.1001519007278136
 30
0.0
 11
0.2760447873820335
 21
0.0975256058340546
 31
0.0
  0
INSERT
  5
32A0
330
328E
100
AcDbEntity
  8
Dimensione
 62
     5
370
    -2
100
AcDbBlockReference
  2
_ArchTick
 10
0.2575374236688808
 20
0.0878993109402955
 30
0.0
 41
0.0015
 42
0.0015
 43
0.0015
 50
207.4804401145771
  0
INSERT
  5
32A1
330
328E
100
AcDbEntity
  8
Dimensione
 62
     5
370
    -2
100
AcDbBlockReference
  2
_ArchTick
 10
0.2810940607892203
 20
0.1001519007278136
 30
0.0
 41
0.0015
 42
0.0015
 43
0.0015
 50
27.48044011457705
  0
MTEXT
  5
32A2
330
328E
100
AcDbEntity
  8
Dimensione
 62
     4
100
AcDbMText
 10
0.2693157422290505
 20
0.0940256058340546
 30
0.0
 40
0.003
 41
0.0
 71
     5
 72
     1
  1
\A1;350 mm
  7
ROMANS
 73
     1
 44
1.0
  0
POINT
  5
32A3
330
328E
100
AcDbEntity
  8
Defpoints
 62
     0
100
AcDbPoint
 10
0.2575374236688808
 20
0.0878993109402955
 30
0.0
  0
POINT
  5
32A4
330
328E
100
AcDbEntity
  8
Defpoints
 62
     0
100
AcDbPoint
 10
0.2810940607892203
 20
0.1001519007278136
 30
0.0
  0
POINT
  5
32A5
330
328E
100
AcDbEntity
  8
Defpoints
 62
     0
100
AcDbPoint
 10
0.2810940607892203
 20
0.1001519007278136
 30
0.0
  0
ENDBLK
  5
329A
330
328E
100
AcDbEntity
  8
0
100
AcDbBlockEnd
  0
BLOCK
  5
32B3
330
32A8
100
AcDbEntity
  8
0
100
AcDbBlockBegin
  2
*D20
 70
     1
 10
0.0
 20
0.0
 30
0.0
  3
*D20
  1

  0
LINE
  5
32B6
330
32A8
100
AcDbEntity
  8
Dimensione
 62
     5
370
    -2
100
AcDbLine
 10
0.138286024082801
 20
0.0843083481950725
 30
0.0
 11
0.1383040608263406
 21
0.0844244555845121
 31
0.0
  0
LINE
  5
32B7
330
32A8
100
AcDbEntity
  8
Dimensione
 62
     5
370
    -2
100
AcDbLine
 10
0.1883457301033724
 20
0.0765318054313761
 30
0.0
 11
0.1883637668469119
 21
0.0766479128208158
 31
0.0
  0
LINE
  5
32B8
330
32A8
100
AcDbEntity
  8
Dimensione
 62
     5
370
    -2
100
AcDbLine
 10
0.13827643007028
 20
0.0842465889453705
 30
0.0
 11
0.1517348545091371
 21
0.0821558852337319
 31
0.0
  0
LINE
  5
32B9
330
32A8
100
AcDbEntity
  8
Dimensione
 62
     5
370
    -2
100
AcDbLine
 10
0.1883361360908513
 20
0.0764700461816742
 30
0.0
 11
0.1748777116519942
 21
0.0785607498933128
 31
0.0
  0
INSERT
  5
32BA
330
32A8
100
AcDbEntity
  8
Dimensione
 62
     5
370
    -2
100
AcDbBlockReference
  2
_ArchTick
 10
0.13827643007028
 20
0.0842465889453705
 30
0.0
 41
0.0015
 42
0.0015
 43
0.0015
 50
171.1699449233109
  0
INSERT
  5
32BB
330
32A8
100
AcDbEntity
  8
Dimensione
 62
     5
370
    -2
100
AcDbBlockReference
  2
_ArchTick
 10
0.1883361360908513
 20
0.0764700461816742
 30
0.0
 41
0.0015
 42
0.0015
 43
0.0015
 50
351.1699449233109
  0
MTEXT
  5
32BC
330
32A8
100
AcDbEntity
  8
Dimensione
 62
     4
100
AcDbMText
 10
0.1633062830805656
 20
0.0803583175635223
 30
0.0
 40
0.003
 41
0.0
 71
     5
 72
     1
  1
\A1;350 mm
  7
ROMANS
 73
     1
 44
1.0
  0
POINT
  5
32BD
330
32A8
100
AcDbEntity
  8
Defpoints
 62
     0
100
AcDbPoint
 10
0.13827643007028
 20
0.0842465889453705
 30
0.0
  0
POINT
  5
32BE
330
32A8
100
AcDbEntity
  8
Defpoints
 62
     0
100
AcDbPoint
 10
0.1883361360908513
 20
0.0764700461816742
 30
0.0
  0
POINT
  5
32BF
330
32A8
100
AcDbEntity
  8
Defpoints
 62
     0
100
AcDbPoint
 10
0.1883361360908513
 20
0.0764700461816742
 30
0.0
  0
ENDBLK
  5
32B4
330
32A8
100
AcDbEntity
  8
0
100
AcDbBlockEnd
  0
BLOCK
  5
331D
330
3312
100
AcDbEntity
  8
0
100
AcDbBlockBegin
  2
*D21
 70
     1
 10
0.0
 20
0.0
 30
0.0
  3
*D21
  1

  0
LINE
  5
335B
330
3312
100
AcDbEntity
  8
Dimensione
 62
     5
370
    -2
100
AcDbLine
 10
0.1384997944972948
 20
0.2003018774137903
 30
0.0
 11
0.1353819286521146
 21
0.2170326707545774
 31
0.0
  0
LINE
  5
335C
330
3312
100
AcDbEntity
  8
Dimensione
 62
     5
370
    -2
100
AcDbLine
 10
0.2269460906763936
 20
0.2147769039774922
 30
0.0
 11
0.2234666954968168
 21
0.2334477014367289
 31
0.0
  0
LINE
  5
335D
330
3312
100
AcDbEntity
  8
Dimensione
 62
     5
370
    -2
100
AcDbLine
 10
0.1354149048256925
 20
0.2168557171675096
 30
0.0
 11
0.167885859676615
 21
0.2229068397310327
 31
0.0
  0
LINE
  5
335E
330
3312
100
AcDbEntity
  8
Dimensione
 62
     5
370
    -2
100
AcDbLine
 10
0.2234996716703947
 20
0.233270747849661
 30
0.0
 11
0.1910287168194722
 21
0.227219625286138
 31
0.0
  0
INSERT
  5
335F
330
3312
100
AcDbEntity
  8
Dimensione
 62
     5
370
    -2
100
AcDbBlockReference
  2
_ArchTick
 10
0.1354149048256925
 20
0.2168557171675096
 30
0.0
 41
0.0015
 42
0.0015
 43
0.0015
 50
190.5562627380345
  0
INSERT
  5
3360
330
3312
100
AcDbEntity
  8
Dimensione
 62
     5
370
    -2
100
AcDbBlockReference
  2
_ArchTick
 10
0.2234996716703947
 20
0.233270747849661
 30
0.0
 41
0.0015
 42
0.0015
 43
0.0015
 50
10.5562627380345
  0
MTEXT
  5
3361
330
3312
100
AcDbEntity
  8
Dimensione
 62
     4
100
AcDbMText
 10
0.1794572882480435
 20
0.2250632325085853
 30
0.0
 40
0.003
 41
0.0
 71
     5
 72
     1
  1
\A1;350 mm
  7
ROMANS
 73
     1
 44
1.0
  0
POINT
  5
3362
330
3312
100
AcDbEntity
  8
Defpoints
 62
     0
100
AcDbPoint
 10
0.1385112445575649
 20
0.2002404351960584
 30
0.0
  0
POINT
  5
3363
330
3312
100
AcDbEntity
  8
Defpoints
 62
     0
100
AcDbPoint
 10
0.2269575407366637
 20
0.2147154617597603
 30
0.0
  0
POINT
  5
3364
330
3312
100
AcDbEntity
  8
Defpoints
 62
     0
100
AcDbPoint
 10
0.2234996716703947
 20
0.233270747849661
 30
0.0
  0
ENDBLK
  5
331E
330
3312
100
AcDbEntity
  8
0
100
AcDbBlockEnd
  0
BLOCK
  5
3371
330
3366
100
AcDbEntity
  8
0
100
AcDbBlockBegin
  2
*D22
 70
     1
 10
0.0
 20
0.0
 30
0.0
  3
*D22
  1

  0
LINE
  5
337D
330
3366
100
AcDbEntity
  8
Dimensione
 62
     5
370
    -2
100
AcDbLine
 10
0.2792081589763633
 20
0.1930573508516901
 30
0.0
 11
0.2847357844887292
 21
0.2022787273033585
 31
0.0
  0
LINE
  5
337E
330
3366
100
AcDbEntity
  8
Dimensione
 62
     5
370
    -2
100
AcDbLine
 10
0.2269460906763936
 20
0.2147769039774922
 30
0.0
 11
0.2367107576696981
 21
0.2310666598715926
 31
0.0
  0
LINE
  5
337F
330
3366
100
AcDbEntity
  8
Dimensione
 62
     5
370
    -2
100
AcDbLine
 10
0.2846432392798403
 20
0.2021243401785335
 30
0.0
 11
0.266469547170472
 21
0.2130183064626506
 31
0.0
  0
LINE
  5
3380
330
3366
100
AcDbEntity
  8
Dimensione
 62
     5
370
    -2
100
AcDbLine
 10
0.2366182124608091
 20
0.2309122727467676
 30
0.0
 11
0.2547919045701774
 21
0.2200183064626505
 31
0.0
  0
INSERT
  5
3381
330
3366
100
AcDbEntity
  8
Dimensione
 62
     5
370
    -2
100
AcDbBlockReference
  2
_ArchTick
 10
0.2846432392798403
 20
0.2021243401785335
 30
0.0
 41
0.0015
 42
0.0015
 43
0.0015
 50
329.0600080022291
  0
INSERT
  5
3382
330
3366
100
AcDbEntity
  8
Dimensione
 62
     5
370
    -2
100
AcDbBlockReference
  2
_ArchTick
 10
0.2366182124608091
 20
0.2309122727467676
 30
0.0
 41
0.0015
 42
0.0015
 43
0.0015
 50
149.0600080022291
  0
MTEXT
  5
3383
330
3366
100
AcDbEntity
  8
Dimensione
 62
     4
100
AcDbMText
 10
0.2606307258703246
 20
0.2165183064626506
 30
0.0
 40
0.003
 41
0.0
 71
     5
 72
     1
  1
\A1;350 mm
  7
ROMANS
 73
     1
 44
1.0
  0
POINT
  5
3384
330
3366
100
AcDbEntity
  8
Defpoints
 62
     0
100
AcDbPoint
 10
0.2791760252232769
 20
0.1930037442111259
 30
0.0
  0
POINT
  5
3385
330
3366
100
AcDbEntity
  8
Defpoints
 62
     0
100
AcDbPoint
 10
0.2269139569233072
 20
0.214723297336928
 30
0.0
  0
POINT
  5
3386
330
3366
100
AcDbEntity
  8
Defpoints
 62
     0
100
AcDbPoint
 10
0.2366182124608091
 20
0.2309122727467676
 30
0.0
  0
ENDBLK
  5
3372
330
3366
100
AcDbEntity
  8
0
100
AcDbBlockEnd
  0
ENDSEC
  0
SECTION
  2
ENTITIES
  0
LINE
  5
D
330
2
100
AcDbEntity
  8
Table
100
AcDbLine
 10
0.02
 20
0.02
 30
0.0
 11
0.4
 21
0.02
 31
0.0
  0
LINE
  5
10
330
2
100
AcDbEntity
  8
Table
100
AcDbLine
 10
0.4
 20
0.02
 30
0.0
 11
0.4
 21
0.2769999999999999
 31
0.0
  0
LINE
  5
11
330
2
100
AcDbEntity
  8
Table
100
AcDbLine
 10
0.4
 20
0.2769999999999999
 30
0.0
 11
0.02
 21
0.277
 31
0.0
  0
LINE
  5
12
330
2
100
AcDbEntity
  8
Table
100
AcDbLine
 10
0.02
 20
0.277
 30
0.0
 11
0.02
 21
0.02
 31
0.0
  0
LINE
  5
13
330
2
100
AcDbEntity
  8
Table
 62
     2
100
AcDbLine
 10
0.015
 20
0.015
 30
0.0
 11
0.4050000000000001
 21
0.015
 31
0.0
  0
LINE
  5
14
330
2
100
AcDbEntity
  8
Table
 62
     2
100
AcDbLine
 10
0.4050000000000001
 20
0.015
 30
0.0
 11
0.4050000000000001
 21
0.2819999999999998
 31
0.0
  0
LINE
  5
15
330
2
100
AcDbEntity
  8
Table
 62
     2
100
AcDbLine
 10
0.4050000000000001
 20
0.2819999999999998
 30
0.0
 11
0.0149999999999999
 21
0.282
 31
0.0
  0
LINE
  5
16
330
2
100
AcDbEntity
  8
Table
 62
     2
100
AcDbLine
 10
0.0149999999999999
 20
0.282
 30
0.0
 11
0.015
 21
0.015
 31
0.0
  0
LINE
  5
17
330
2
100
AcDbEntity
  8
Table
100
AcDbLine
 10
0.21
 20
0.2769999999999999
 30
0.0
 11
0.21
 21
0.2532994226089223
 31
0.0
  0
LINE
  5
1D
330
2
100
AcDbEntity
  8
Table
100
AcDbLine
 10
0.02
 20
0.0528099428524846
 30
0.0
 11
0.4
 21
0.0528099428524846
 31
0.0
  0
MTEXT
  5
1E
330
2
100
AcDbEntity
  8
Text
100
AcDbMText
 10
0.1133313047219695
 20
0.2610796890771976
 30
0.0
 40
0.003
 41
0.1103605678262056
 71
     2
 72
     5
  1
{\fTimes New Roman|b0|i0|c0|p18;Le colonne \fTimes New Roman|b0|i1|c0|p18;      Columns}
 73
     1
 44
1.0
1001
ACAD
1000
ACAD_MTEXT_DEFINED_HEIGHT_BEGIN
1070
    46
1040
0.0141952763113409
1000
ACAD_MTEXT_DEFINED_HEIGHT_END
  0
TEXT
  5
1F
330
2
100
AcDbEntity
  8
Text
100
AcDbText
 10
0.2180556919891047
 20
0.269976982173197
 30
0.0
 40
0.003
  1
Colonna - Column : 350 x 350 x H 300 mm
  7
ROMANS
100
AcDbText
  0
TEXT
  5
21
330
2
100
AcDbEntity
  8
Text
100
AcDbText
 10
0.2184542410678115
 20
0.2576348370183962
 30
0.0
 40
0.003
  1
File : C3221 ( CAPITELLO CORINZIO )
  7
ROMANS
100
AcDbText
  0
LINE
  5
22
330
2
100
AcDbEntity
  8
Table
100
AcDbLine
 10
0.4
 20
0.2654452889427402
 30
0.0
 11
0.02
 21
0.2654452889427403
 31
0.0
  0
LINE
  5
23
330
2
100
AcDbEntity
  8
Table
100
AcDbLine
 10
0.4
 20
0.2532994226089223
 30
0.0
 11
0.02
 21
0.2532994226089225
 31
0.0
  0
LINE
  5
24
330
2
100
AcDbEntity
  8
Table
100
AcDbLine
 10
0.21
 20
0.0528099428524846
 30
0.0
 11
0.21
 21
0.02
 31
0.0
  0
TEXT
  5
25
330
2
100
AcDbEntity
  8
Text
100
AcDbText
 10
0.0896473531074035
 20
0.2687784133392506
 30
0.0
 40
0.005
  1
CLASSICSTYL
  7
style1
 72
     1
 11
0.1140561490699125
 21
0.2687784133392506
 31
0.0
100
AcDbText
  0
MTEXT
  5
10F
330
2
100
AcDbEntity
  8
Text
100
AcDbMText
 10
0.305
 20
0.0471738284815141
 30
0.0
 40
0.005
 41
0.1900000000000001
 71
     2
 72
     5
  3
\pt0.09;{\fTimes New Roman|b0|i0|c238|p18;\H1.6x;\C4;Bovelacci\P\H0.4375x;\T0.95;via del Commercio, 5  47100 Forli - Italy  \fTimes New Roman|b0|i0|c0|p18;\P\fTimes New Roman|b0|i0|c238|p18;tel.+39-0543721386  fax +39-0543721127\fTimes New Roman|b0|i
  1
0|c0|p18; \fTimes New Roman|b0|i0|c238|p18;www.bovelacci.it\fTimes New Roman|b0|i0|c0|p18; \fTimes New Roman|b0|i0|c238|p18;e-mail: bovelacci@bovelacci\fTimes New Roman|b0|i0|c0|p18;.it}
 73
     1
 44
1.0
1001
ACAD
1000
ACAD_MTEXT_DEFINED_HEIGHT_BEGIN
1070
    46
1040
0.0271738284815141
1000
ACAD_MTEXT_DEFINED_HEIGHT_END
  0
MTEXT
  5
110
330
2
100
AcDbEntity
  8
Text
100
AcDbMText
 10
0.0219676065851835
 20
0.0500313976452307
 30
0.0
 40
0.002
 41
0.1863544980601608
 71
     1
 72
     5
  3
{\fArial|b0|i0|c0|p34;\H1.25x;Le caratteristiche tecniche indicate vengono fornite a titolo indicativo e potranno essere modificate senza preavviso. Non devono quindi essere considerate a scopo di specifica.\P\fArial|b0|i1|c0|p34;The given values are
  3
 indicative and can be changed without notice. They cannot be considered like a state.\PThis lealfet and designs embodied within are protected by copyright law and international treaties. Unauthorized repro- duction of the leaflet or any portion of i
  1
t or reproduction of any of the designs embodied therein may result in severe civil penalties and will be prosecuted to the maximum.\PAll right reserved, Bovelacci Forlì Italy.}
 73
     1
 44
1.0
  0
TEXT
  5
1CA
330
2
100
AcDbEntity
  8
Text
100
AcDbText
 10
0.3020323407045702
 20
0.0905146669607496
 30
0.0
 40
0.005
  1
scala 1:3
  7
Arial
100
AcDbText
  0
ARC
  5
31C7
330
2
100
AcDbEntity
  8
0
  6
Continuous
 62
     1
370
     0
100
AcDbCircle
 10
0.2096342162392954
 20
-0.1081630921374206
 30
0.0
 40
0.2227719247702728
100
AcDbArc
 50
80.88932572748138
 51
98.87870894693833
  0
ARC
  5
31C8
330
2
100
AcDbEntity
  8
0
  6
Continuous
 62
     1
370
     0
100
AcDbCircle
 10
0.2106284527605783
 20
-0.1344081274909289
 30
0.0
 40
0.2564129665339633
100
AcDbArc
 50
82.75355102995925
 51
97.62083515459726
  0
LWPOLYLINE
  5
31CA
330
2
100
AcDbEntity
  8
0
  6
Continuous
 62
     1
370
     0
100
AcDbPolyline
 90
       39
 70
   129
 43
0.0
 10
0.1859910206402595
 20
0.1887731159259003
 10
0.1856507907602109
 20
0.186878421563661
 10
0.1839982400224877
 20
0.186149693579194
 10
0.1818110441007376
 20
0.1865869306369768
 10
0.1805959329604416
 20
0.1877528970147398
 10
0.1799154711349555
 20
0.1893075175162471
 10
0.1794780315375286
 20
0.1914451212066357
 10
0.1780199002345621
 20
0.1923195966577051
 10
0.1763187467035416
 20
0.1936313078310536
 10
0.1753952626499961
 20
0.1948944374058767
 10
0.1753466577913045
 20
0.1957689115214518
 10
0.1759299119648061
 20
0.1965948040384826
 10
0.1760757244754822
 20
0.1969348778992054
 10
0.1761243293341738
 20
0.1984409168021872
 10
0.1769506036703407
 20
0.1993153909177529
 10
0.1781171099519454
 20
0.1996554647784756
 10
0.1786517572013615
 20
0.1997526279755357
 10
0.1790891967987884
 20
0.2013558314110814
 10
0.1797210537655877
 20
0.2028132887155286
 10
0.1805959329604416
 20
0.2035905996340341
 10
0.1821026691220948
 20
0.2038335089621929
 10
0.1839496372291902
 20
0.2034934351014702
 10
0.1854563733908432
 20
0.2024246332562805
 10
0.1868172949764264
 20
0.2016473236732694
 10
0.1874005491499233
 20
0.2013072498125467
 10
0.1888100755941979
 20
0.2014529959436454
 10
0.190754251353278
 20
0.2012586682140213
 10
0.1927956368297412
 20
0.2000441202377331
 10
0.1943509757846919
 20
0.1980522613429297
 10
0.1943995806433836
 20
0.1962547315132638
 10
0.1936219111659034
 20
0.1942628726184699
 10
0.1935247014485248
 20
0.1931454891747455
 10
0.1937677236765842
 20
0.1913479580095756
 10
0.1933788889378489
 20
0.1890160265895535
 10
0.1925526146016818
 20
0.1875585692851063
 10
0.1909972735813372
 20
0.1873642415554824
 10
0.1888586804528849
 20
0.1874128231540171
 10
0.1876435693125886
 20
0.1877528970147398
 10
0.186622877607054
 20
0.1882872972695827
  0
LWPOLYLINE
  5
31CB
330
2
100
AcDbEntity
  8
0
  6
Continuous
 62
     1
370
     0
100
AcDbPolyline
 90
       12
 70
   129
 43
0.0
 10
0.1818110441007376
 20
0.1962061485792346
 10
0.1831719656863208
 20
0.1969348778992054
 10
0.1841440545985577
 20
0.1970320410962655
 10
0.1859910206402595
 20
0.1965462224399573
 10
0.1867686921831286
 20
0.1952830928651342
 10
0.1869145046938047
 20
0.1934855616999644
 10
0.1861368331509354
 20
0.192271013723676
 10
0.1847759115653571
 20
0.1917851950673585
 10
0.1832205705450125
 20
0.1920281043955172
 10
0.1821512739807862
 20
0.192756833715488
 10
0.1813736045033109
 20
0.1938256355606871
 10
0.1811791850685493
 20
0.1951859283325703
  0
LWPOLYLINE
  5
31CC
330
2
100
AcDbEntity
  8
0
  6
Continuous
 62
     1
370
     0
100
AcDbPolyline
 90
        2
 70
   128
 43
0.0
 10
0.1819568566114184
 20
0.1967405501695814
 10
0.1792350093094692
 20
0.199169646122158
  0
LWPOLYLINE
  5
31CD
330
2
100
AcDbEntity
  8
0
  6
Continuous
 62
     1
370
     0
100
AcDbPolyline
 90
        2
 70
   128
 43
0.0
 10
0.1955325139857938
 20
0.1778154139783988
 10
0.1945604261062538
 20
0.1791999982172965
  0
LWPOLYLINE
  5
31CE
330
2
100
AcDbEntity
  8
0
  6
Continuous
 62
     1
370
     0
100
AcDbPolyline
 90
        2
 70
   128
 43
0.0
 10
0.1961400695559419
 20
0.1780097417080227
 10
0.1956297226704776
 20
0.1795400720780192
  0
LWPOLYLINE
  5
31CF
330
2
100
AcDbEntity
  8
0
  6
Continuous
 62
     1
370
     0
100
AcDbPolyline
 90
        4
 70
   128
 43
0.0
 10
0.1967719265227389
 20
0.177766831712112
 10
0.1967476240933931
 20
0.1788842158235931
 10
0.197014948750798
 20
0.1793943259469253
 10
0.1974766897448762
 20
0.1795643628772866
  0
LWPOLYLINE
  5
31D0
330
2
100
AcDbEntity
  8
0
  6
Continuous
 62
     1
370
     0
100
AcDbPolyline
 90
        2
 70
   128
 43
0.0
 10
0.1869631095524964
 20
0.1920281043955172
 10
0.1890044929635657
 20
0.189501845245871
  0
LWPOLYLINE
  5
31D1
330
2
100
AcDbEntity
  8
0
  6
Continuous
 62
     1
370
     0
100
AcDbPolyline
 90
        2
 70
   128
 43
0.0
 10
0.1852619560214708
 20
0.1911050486814169
 10
0.1859910206402595
 20
0.1890160265895535
  0
LWPOLYLINE
  5
31D2
330
2
100
AcDbEntity
  8
0
  6
Continuous
 62
     1
370
     0
100
AcDbPolyline
 90
        2
 70
   128
 43
0.0
 10
0.1846300969892824
 20
0.1910078841488529
 10
0.1842412622505471
 20
0.188335878868108
  0
LWPOLYLINE
  5
31D3
330
2
100
AcDbEntity
  8
0
  6
Continuous
 62
     1
370
     0
100
AcDbPolyline
 90
        2
 70
   128
 43
0.0
 10
0.1831719656863208
 20
0.1915422857391997
 10
0.1821512739807862
 20
0.1892589359177122
  0
LWPOLYLINE
  5
31D4
330
2
100
AcDbEntity
  8
0
  6
Continuous
 62
     1
370
     0
100
AcDbPolyline
 90
        2
 70
   128
 43
0.0
 10
0.1817138343833593
 20
0.1927082507814588
 10
0.1803529107323822
 20
0.1911536302799421
  0
LWPOLYLINE
  5
31D5
330
2
100
AcDbEntity
  8
0
  6
Continuous
 62
     1
370
     0
100
AcDbPolyline
 90
        2
 70
   128
 43
0.0
 10
0.1813249996446193
 20
0.1931454891747455
 10
0.1799154711349555
 20
0.1921252689280812
  0
LWPOLYLINE
  5
31D6
330
2
100
AcDbEntity
  8
0
  6
Continuous
 62
     1
370
     0
100
AcDbPolyline
 90
        2
 70
   128
 43
0.0
 10
0.1804501204497655
 20
0.1951859283325703
 10
0.17665897658359
 20
0.1949916006029368
  0
LWPOLYLINE
  5
31D7
330
2
100
AcDbEntity
  8
0
  6
Continuous
 62
     1
370
     0
100
AcDbPolyline
 90
       55
 70
   128
 43
0.0
 10
0.1862608557810587
 20
0.1865742273308937
 10
0.1875051281842557
 20
0.1808221297391601
 10
0.1857164867337448
 20
0.1811330535723628
 10
0.184549982517534
 20
0.1805889361965087
 10
0.1849388172562693
 20
0.1798116266134975
 10
0.185794254920731
 20
0.1784124666930925
 10
0.1858720210423186
 20
0.1771687700247784
 10
0.1859497871639111
 20
0.1747591069787108
 10
0.1859497871639111
 20
0.1725049071847529
 10
0.1850943515648431
 20
0.1722717136421015
 10
0.1839981037066474
 20
0.17166268680605
 10
0.1835691569991588
 20
0.170698003458389
 10
0.1834887306532879
 20
0.169572538885028
 10
0.1835959678465049
 20
0.1680987176603338
 10
0.1839981037066474
 20
0.1673752048157098
 10
0.184882807968975
 20
0.1663837245970988
 10
0.1852045174832417
 20
0.1656602117524748
 10
0.1858277844866987
 20
0.1629288153106116
 10
0.1873719909813476
 20
0.1612995722344073
 10
0.1887017272203362
 20
0.1603563263835064
 10
0.1875864653677863
 20
0.1599275777838194
 10
0.185999362756619
 20
0.158298334707615
 10
0.1845409443642332
 20
0.1566262166379001
 10
0.1841119976567447
 20
0.1554685971549028
 10
0.1843693660943128
 20
0.154182352691355
 10
0.1855275219979966
 20
0.153796479085188
 10
0.1862567311941869
 20
0.154182352691355
 10
0.1873719909813476
 20
0.154139477697835
 10
0.1885730430015497
 20
0.1537536040916679
 10
0.1895167245187947
 20
0.1532391068404446
 10
0.189602514686447
 20
0.1528532332342776
 10
0.189602514686447
 20
0.1512668651516027
 10
0.1877151495865727
 20
0.1524244846345906
 10
0.185999362756619
 20
0.1523387359830638
 10
0.1848841009040645
 20
0.1513954901321534
 10
0.1845409443642332
 20
0.1502378693136523
 10
0.1847125226341488
 20
0.1484800025924011
 10
0.1857848904355694
 20
0.1479226290121635
 10
0.1873719909813476
 20
0.1477940053671072
 10
0.1881012001775381
 20
0.1481798776377704
 10
0.1876696386843845
 20
0.1473909932488613
 10
0.1877554267866479
 20
0.1460190001337771
 10
0.1869186995039882
 20
0.14503203391585
 10
0.1847224922790247
 20
0.1461296292092177
 10
0.1834047683571274
 20
0.1490931361006679
 10
0.1829655277382913
 20
0.1545811125675254
 10
0.1821968551062862
 20
0.1654473058383559
 10
0.18015134710835
 20
0.172829531944896
 10
0.1771484723089431
 20
0.1773702386898178
 10
0.1751465585298606
 20
0.1796021115419115
 10
0.1734526297383822
 20
0.1813722181496542
 10
0.1732216384159404
 20
0.1819109454347397
 10
0.1763015089458986
 20
0.1831423247573876
 10
0.1803823363653982
 20
0.1843737027445221
 10
0.1859261033193278
 20
0.185528119690941
  0
LWPOLYLINE
  5
31D8
330
2
100
AcDbEntity
  8
0
  6
Continuous
 62
     1
370
     0
100
AcDbPolyline
 90
      105
 70
   128
 43
0.0
 10
0.1882360041514039
 20
0.1862977300982114
 10
0.1894679523633873
 20
0.1809104505697806
 10
0.1907901932965459
 20
0.1821811791575953
 10
0.1920111990642477
 20
0.1825791484159069
 10
0.1929667710404814
 20
0.1823934293396568
 10
0.1937099918527585
 20
0.181570958381728
 10
0.1937630786110531
 20
0.180403579041616
 10
0.1932852936556284
 20
0.1783341340906182
 10
0.1927544219419139
 20
0.1769279734626239
 10
0.1933649248257649
 20
0.1776177888914577
 10
0.1943204947366095
 20
0.1776177888914577
 10
0.1946390173517567
 20
0.1766626597334168
 10
0.1945069500216581
 20
0.1750099972737664
 10
0.1942149718183528
 20
0.1740283383454084
 10
0.1940822538899218
 20
0.1730466780815465
 10
0.1950643661472144
 20
0.1739487436924418
 10
0.1960730248817428
 20
0.1742936520746154
 10
0.1971347683091717
 20
0.1742671196332908
 10
0.1978249023631588
 20
0.1734977108869942
 10
0.1979310779451324
 20
0.1723038004410708
 10
0.1974291320396897
 20
0.1705685197492939
 10
0.1967124535738607
 20
0.1684990761337999
 10
0.1958896015914471
 20
0.1671990399290891
 10
0.1951198363673232
 20
0.165288782948511
 10
0.1943766155550461
 20
0.1636969032442761
 10
0.1934741324024962
 20
0.1619723653399385
 10
0.1928105427603554
 20
0.1606723304707316
 10
0.1940050041162107
 20
0.1600886408006756
 10
0.1948809449223125
 20
0.1588947303547523
 10
0.1955710789762952
 20
0.1576212265913662
 10
0.1963408442004142
 20
0.1570110058154989
 10
0.1973495008695534
 20
0.1569844733741741
 10
0.1982785284339452
 20
0.1566926285391461
 10
0.1981990976067842
 20
0.1558871959305564
 10
0.1978009438215007
 20
0.1552504440488587
 10
0.1971373541793553
 20
0.1550381925312934
 10
0.1955712793192754
 20
0.1549851303196516
 10
0.1949607764354246
 20
0.1551443182900807
 10
0.1943237291397317
 20
0.1551177871842598
 10
0.1933947036407291
 20
0.1553035062605004
 10
0.1920940667028956
 20
0.1549320681080193
 10
0.1919348043626274
 20
0.1548524734550527
 10
0.1913773882370664
 20
0.1538708145266947
 10
0.1909792344517829
 20
0.1529422178099784
 10
0.1909526900399412
 20
0.1518544317873292
 10
0.1917489996759018
 20
0.1529156853686537
 10
0.1926249384166101
 20
0.1531544679920399
 10
0.1939255753544435
 20
0.1532340626450064
 10
0.1954916481491391
 20
0.1527299662924131
 10
0.1962614133732581
 20
0.1518279006815083
 10
0.196394131301689
 20
0.1503421454005569
 10
0.1958898039998165
 20
0.1493870175780197
 10
0.1947218829250152
 20
0.1490155794255291
 10
0.1937397706677228
 20
0.1492808918192324
 10
0.1931817018784447
 20
0.149484901946787
 10
0.1928631771979037
 20
0.149193057111759
 10
0.1930755262964665
 20
0.1489808069296975
 10
0.193447137735302
 20
0.1489277447180557
 10
0.1935002244935966
 20
0.1465664549320299
 10
0.1931551574666028
 20
0.1464603291732425
 10
0.1935798556637329
 20
0.1460623599149404
 10
0.1950928417001292
 20
0.1462480789911811
 10
0.196897808005229
 20
0.1474950516487461
 10
0.1982515317013571
 20
0.1500155294052011
 10
0.1990478413373229
 20
0.1524564125086897
 10
0.1997936253004793
 20
0.1564736313951089
 10
0.2003510414260356
 20
0.1600022991857429
 10
0.2011498667088729
 20
0.1676260430261446
 10
0.2018134584164077
 20
0.1721894332922728
 10
0.2027191553181646
 20
0.1767357504859811
 10
0.2046602123360476
 20
0.1829529490734849
 10
0.2067571589098469
 20
0.1866938683816842
 10
0.2088010166599574
 20
0.1892939394555925
 10
0.2110306811621875
 20
0.190355193036917
 10
0.2132072568407292
 20
0.1906205067661241
 10
0.2155961836832274
 20
0.1899572224431111
 10
0.217294974406349
 20
0.188391873844697
 10
0.2190203095413127
 20
0.1857918027707794
 10
0.2200845066538676
 20
0.1824675617846859
 10
0.2203764848571776
 20
0.1785674545060669
 10
0.219971699099712
 20
0.1735634096295561
 10
0.2188630113883769
 20
0.1705271325062992
 10
0.2175752562974639
 20
0.1683993794872382
 10
0.2159984145513751
 20
0.167795203198674
 10
0.2138696754058779
 20
0.1681366940282571
 10
0.2117672204328906
 20
0.1699492242294345
 10
0.2101903766214126
 20
0.1727599589076618
 10
0.2096631833699957
 20
0.1749746411630557
 10
0.2094529368400048
 20
0.1781268666708472
 10
0.209636903328269
 20
0.1804122317666068
 10
0.2101625165551674
 20
0.1821984926205904
 10
0.2109246563537883
 20
0.1829865489975431
 10
0.2117393583012563
 20
0.1833017718154173
 10
0.2126591845464191
 20
0.1829602809858436
 10
0.2133687621961926
 20
0.1815155096259298
 10
0.2138943774884849
 20
0.1792564152128773
 10
0.2139732196790591
 20
0.177233736911612
 10
0.2137892531907901
 20
0.1755788174516104
 10
0.213237359922165
 20
0.1745018076039868
 10
0.212501500165271
 20
0.1743967328861909
 10
0.2118182004918305
 20
0.174817030421861
 10
0.2110560606932097
 20
0.1759465776283873
 10
0.2109246563537883
 20
0.1778379132001667
 10
0.2112400251160846
 20
0.179571638030761
 10
0.2117393583012563
 20
0.1800970089487231
  0
LWPOLYLINE
  5
31D9
330
2
100
AcDbEntity
  8
0
  6
Continuous
 62
     1
370
     0
100
AcDbPolyline
 90
        2
 70
   128
 43
0.0
 10
0.212238691486428
 20
0.1834068451977093
 10
0.215366097002273
 20
0.1840372908334766
  0
LWPOLYLINE
  5
31DA
330
2
100
AcDbEntity
  8
0
  6
Continuous
 62
     1
370
     0
100
AcDbPolyline
 90
       11
 70
   128
 43
0.0
 10
0.2131059555827434
 20
0.1740289740449179
 10
0.2157340258480229
 20
0.1727418147616931
 10
0.2167852543672135
 20
0.173214648320762
 10
0.2175736762729503
 20
0.1740815100683073
 10
0.218073009458122
 20
0.1758152348989015
 10
0.2181781316904227
 20
0.1779955239413614
 10
0.2179941672675478
 20
0.1805698425077919
 10
0.2176262363564085
 20
0.1820408818794053
 10
0.2172320254035378
 20
0.183012817009233
 10
0.2166538500277921
 20
0.1836432626450004
 10
0.2155500614251479
 20
0.1840635601806705
  0
LWPOLYLINE
  5
31DB
330
2
100
AcDbEntity
  8
0
  6
Continuous
 62
     1
370
     0
100
AcDbPolyline
 90
       12
 70
   128
 43
0.0
 10
0.2169499466217919
 20
0.1837844947754059
 10
0.2157856110666771
 20
0.185424391160331
 10
0.2141449569841198
 20
0.1868526864177331
 10
0.2126630757440464
 20
0.1869055870334875
 10
0.2107577995688922
 20
0.1861649890969093
 10
0.2087995998013765
 20
0.1842605936397046
 10
0.2067355487183493
 20
0.1801873049885293
 10
0.2055182895708727
 20
0.1766959137621539
 10
0.2045079743923419
 20
0.1725001167349094
 10
0.2038728809570311
 20
0.168532627979739
 10
0.2032907131794712
 20
0.1641948389207805
 10
0.2022851504668403
 20
0.1572649584193068
  0
LWPOLYLINE
  5
31DC
330
2
100
AcDbEntity
  8
0
  6
Continuous
 62
     1
370
     0
100
AcDbPolyline
 90
        3
 70
   128
 43
0.0
 10
0.2041904266419896
 20
0.1584287546044198
 10
0.2060427792247818
 20
0.1687442277717679
 10
0.2092182402051683
 20
0.1759386086810248
  0
LWPOLYLINE
  5
31DD
330
2
100
AcDbEntity
  8
0
  6
Continuous
 62
     1
370
     0
100
AcDbPolyline
 90
       11
 70
   128
 43
0.0
 10
0.2019481611860862
 20
0.1547838152374861
 10
0.2011571410178121
 20
0.1511218375212036
 10
0.2001163262026774
 20
0.1484169681786498
 10
0.1986175500599496
 20
0.1460450050513457
 10
0.1973269385325655
 20
0.1447966047408989
 10
0.1959530607459625
 20
0.1440475637533362
 10
0.194371022474803
 20
0.1435898160379858
 10
0.1930804088820252
 20
0.1437978834241422
 10
0.1919979619699803
 20
0.1443804699685859
 10
0.1912485738986162
 20
0.1454208055638742
 10
0.190998777186367
 20
0.1462114594944743
  0
LWPOLYLINE
  5
31DE
330
2
100
AcDbEntity
  8
0
  6
Continuous
 62
     1
370
     0
100
AcDbPolyline
 90
        8
 70
   128
 43
0.0
 10
0.1952036747399923
 20
0.1435898160379858
 10
0.1965359183642914
 20
0.1436730432595453
 10
0.1982844891538748
 20
0.1443388570255485
 10
0.1993669381313137
 20
0.1451711252346898
 10
0.2004910192056625
 20
0.1465859799882652
 10
0.2016151002800115
 20
0.1484169681786498
 10
0.2024061204482905
 20
0.1501647304829785
 10
0.2027808134512756
 20
0.1514963580149848
  0
LWPOLYLINE
  5
31DF
330
2
100
AcDbEntity
  8
0
  6
Continuous
 62
     1
370
     0
100
AcDbPolyline
 90
       29
 70
   128
 43
0.0
 10
0.1866802025487517
 20
0.1779235389854171
 10
0.1875644544903381
 20
0.1786109718766061
 10
0.1880557057984822
 20
0.1786764422481272
 10
0.1879574551237755
 20
0.178185417800484
 10
0.187695454013016
 20
0.1753047441571631
 10
0.1870077034208477
 20
0.1736352623706877
 10
0.1866802025487517
 20
0.1723586001423212
 10
0.1874989547289967
 20
0.1729805639975026
 10
0.188514206193261
 20
0.1734388525916286
 10
0.1889399577400636
 20
0.1732097082945656
 10
0.1889399577400636
 20
0.1725550099213804
 10
0.188645207781333
 20
0.1715729610261035
 10
0.18821945623453
 20
0.170590913466321
 10
0.1877937046877273
 20
0.1700344199826607
 10
0.18821945623453
 20
0.1699689496111396
 10
0.1885469571066263
 20
0.1692160463484297
 10
0.188186705321165
 20
0.1685940824932484
 10
0.1876299542516746
 20
0.1679393841200631
 10
0.1874007040542853
 20
0.167153745003836
 10
0.1872369536182372
 20
0.1657461433679408
 10
0.1873352042929486
 20
0.1648950352156964
 10
0.187891955362434
 20
0.1643712762500494
 10
0.1884814573452849
 20
0.1643385417320361
 10
0.1889072068266986
 20
0.1646986254366373
 10
0.1891364590894817
 20
0.1650914449947556
 10
0.1892347076987945
 20
0.1662699023335878
 10
0.1891037081761117
 20
0.1674156251544161
 10
0.188645207781333
 20
0.1681030580456051
 10
0.1884159555185543
 20
0.1682994678246643
  0
LWPOLYLINE
  5
31E0
330
2
100
AcDbEntity
  8
0
  6
Continuous
 62
     1
370
     0
100
AcDbPolyline
 90
        4
 70
   128
 43
0.0
 10
0.1894312090482126
 20
0.1733079131840999
 10
0.1901517105537462
 20
0.1735043229631495
 10
0.1908067122979384
 20
0.1729478281439949
 10
0.1915272138034767
 20
0.171409287100552
  0
LWPOLYLINE
  5
31E1
330
2
100
AcDbEntity
  8
0
  6
Continuous
 62
     1
370
     0
100
AcDbPolyline
 90
        8
 70
   128
 43
0.0
 10
0.1900207110310634
 20
0.1737662017782259
 10
0.1893329583735012
 20
0.1755011539362222
 10
0.1888417070653572
 20
0.1767778161645888
 10
0.1884814573452849
 20
0.1780217425394381
 10
0.1888417070653572
 20
0.1788073816556653
 10
0.1891364590894817
 20
0.178774647137652
 10
0.1893002095255298
 20
0.1792002012137741
 10
0.1893657092868712
 20
0.1802149832915605
  0
LWPOLYLINE
  5
31E2
330
2
100
AcDbEntity
  8
0
  6
Continuous
 62
     1
370
     0
100
AcDbPolyline
 90
        5
 70
   128
 43
0.0
 10
0.1942287603721548
 20
0.1652404096884691
 10
0.1937047602160346
 20
0.1689067211125134
 10
0.1928663579008465
 20
0.1716302674667884
 10
0.1928139568525426
 20
0.173934806381447
 10
0.1926043567900917
 20
0.1760822180070598
  0
LWPOLYLINE
  5
31E3
330
2
100
AcDbEntity
  8
0
  6
Continuous
 62
     1
370
     0
100
AcDbPolyline
 90
        6
 70
   128
 43
0.0
 10
0.1892283855353458
 20
0.160237641552983
 10
0.1898353442073457
 20
0.1600354156576521
 10
0.1904423028793409
 20
0.1604398687838178
 10
0.1915406099328891
 20
0.1607287621568545
 10
0.1919452490475539
 20
0.1606998725524481
 10
0.1923498881622192
 20
0.1606998725524481
  0
LWPOLYLINE
  5
31E4
330
2
100
AcDbEntity
  8
0
  6
Continuous
 62
     1
370
     0
100
AcDbPolyline
 90
        4
 70
   128
 43
0.0
 10
0.1890549690669736
 20
0.1550086525368544
 10
0.188881550533212
 20
0.1565397935572718
 10
0.1889393567111326
 20
0.1580709345776797
 10
0.1894307050926807
 20
0.1593131795540529
  0
LWPOLYLINE
  5
31E5
330
2
100
AcDbEntity
  8
0
  6
Continuous
 62
     1
370
     0
100
AcDbPolyline
 90
        2
 70
   128
 43
0.0
 10
0.1875231198098024
 20
0.1574064763473893
 10
0.1878410496575891
 20
0.1589953965766099
  0
LWPOLYLINE
  5
31E6
330
2
100
AcDbEntity
  8
0
  6
Continuous
 62
     1
370
     0
100
AcDbPolyline
 90
        5
 70
   128
 43
0.0
 10
0.1925811108085118
 20
0.1561353417666099
 10
0.1920030552254745
 20
0.1573486984740805
 10
0.1915984161108095
 20
0.1579264865556575
 10
0.1914539006660058
 20
0.1585620538460473
 10
0.1914539006660058
 20
0.1593420691584592
  0
LWPOLYLINE
  5
31E7
330
2
100
AcDbEntity
  8
0
  6
Continuous
 62
     1
370
     0
100
AcDbPolyline
 90
        4
 70
   128
 43
0.0
 10
0.1895923261100696
 20
0.1492043501265008
 10
0.1890566688841957
 20
0.1501476907981356
 10
0.18818941511484
 20
0.1507595876304734
 10
0.187781295815459
 20
0.1509890497772863
  0
LWPOLYLINE
  5
31E8
330
2
100
AcDbEntity
  8
0
  6
Continuous
 62
     1
370
     0
100
AcDbPolyline
 90
        2
 70
   128
 43
0.0
 10
0.1897453716218591
 20
0.1492043501265008
 10
0.1896178336953662
 20
0.1507085967842361
  0
LWPOLYLINE
  5
31E9
330
2
100
AcDbEntity
  8
0
  6
Continuous
 62
     1
370
     0
100
AcDbPolyline
 90
        3
 70
   128
 43
0.0
 10
0.190408566774221
 20
0.1492808370636038
 10
0.1905871198713071
 20
0.1507340928751114
 10
0.19094422400009
 20
0.1514734674907895
  0
LWPOLYLINE
  5
31EA
330
2
100
AcDbEntity
  8
0
  6
Continuous
 62
     1
370
     0
100
AcDbPolyline
 90
        3
 70
   128
 43
0.0
 10
0.1882659378707347
 20
0.1486179493850288
 10
0.1887250723407139
 20
0.1489493932243163
 10
0.1924236598166036
 20
0.1490513762522947
  0
LWPOLYLINE
  5
31EB
330
2
100
AcDbEntity
  8
0
  6
Continuous
 62
     1
370
     0
100
AcDbPolyline
 90
        2
 70
   128
 43
0.0
 10
0.18818941511484
 20
0.146195858146534
 10
0.1927297487747932
 20
0.1463743281116154
  0
LWPOLYLINE
  5
31EC
330
2
100
AcDbEntity
  8
0
  6
Continuous
 62
     1
370
     0
100
AcDbPolyline
 90
       17
 70
   128
 43
0.0
 10
0.2191756393761232
 20
0.2143023673387176
 10
0.2190027537133751
 20
0.2114222879943065
 10
0.2195790371904846
 20
0.2087726149974411
 10
0.2206739735250649
 20
0.2057197308923635
 10
0.2210197427851767
 20
0.2046253007414859
 10
0.2210773713394262
 20
0.2031852597337813
 10
0.2216536548165357
 20
0.2023212359304495
 10
0.2224604483798644
 20
0.199268351825372
 10
0.2228638461942258
 20
0.1938538026578824
 10
0.2272435935979413
 20
0.1938538026578824
 10
0.2279927606724145
 20
0.1981739216744944
 10
0.2286266727037735
 20
0.2003627819762496
 10
0.2307589168186849
 20
0.2026668454517822
 10
0.2308165453729342
 20
0.2041068864594963
 10
0.2325453937388783
 20
0.205316519784142
 10
0.2338708422250672
 20
0.2069869658039075
 10
0.2346776378537898
 20
0.2089454197581074
  0
LWPOLYLINE
  5
31ED
330
2
100
AcDbEntity
  8
0
  6
Continuous
 62
     1
370
     0
100
AcDbPolyline
 90
       14
 70
   128
 43
0.0
 10
0.1504886339960058
 20
0.1778800496604393
 10
0.149842110684014
 20
0.1799479694668331
 10
0.1485490619946312
 20
0.1811111740240535
 10
0.1470620565181883
 20
0.1817573999651795
 10
0.1460276175666823
 20
0.1822097562542575
 10
0.1451224845168088
 20
0.1869918218081707
 10
0.1444759612048123
 20
0.1892536085956047
 10
0.142924302777553
 20
0.1905460591423431
 10
0.142924302777553
 20
0.1918385083535873
 10
0.1414372973011102
 20
0.1928724682567842
 10
0.1402735545133604
 20
0.1944234081115794
 10
0.1396916841521847
 20
0.1965559502449896
 10
0.1398209879884235
 20
0.1986884923783904
 10
0.1398209879884235
 20
0.1997870746086038
  0
LWPOLYLINE
  5
31EE
330
2
100
AcDbEntity
  8
0
  6
Continuous
 62
     1
370
     0
100
AcDbPolyline
 90
        5
 70
   128
 43
0.0
 10
0.1433326244853035
 20
0.1916868739890575
 10
0.1485391171344488
 20
0.1917581631478484
 10
0.1552077066382824
 20
0.1921146076063374
 10
0.1683808729051801
 20
0.1932556481530754
 10
0.1752990897591582
 20
0.1941111140521409
  0
LWPOLYLINE
  5
31EF
330
2
100
AcDbEntity
  8
0
  6
Continuous
 62
     1
370
     0
100
AcDbPolyline
 90
        5
 70
   128
 43
0.0
 10
0.1950618277810334
 20
0.1974615776428226
 10
0.2020996266733621
 20
0.1989689800945307
 10
0.2088501688474053
 20
0.2011941927923596
 10
0.2163405549185812
 20
0.2035391907753071
 10
0.2203404520366827
 20
0.2046396827750376
  0
LWPOLYLINE
  5
31F0
330
2
100
AcDbEntity
  8
0
  6
Continuous
 62
     1
370
     0
100
AcDbPolyline
 90
        4
 70
   128
 43
0.0
 10
0.1947745710627479
 20
0.1959541751911145
 10
0.2026741401099423
 20
0.1978204834336349
 10
0.2129435827628398
 20
0.2009070689610045
 10
0.2199095679919444
 20
0.2029169384514506
  0
LWPOLYLINE
  5
31F1
330
2
100
AcDbEntity
  8
0
  6
Continuous
 62
     1
370
     0
100
AcDbPolyline
 90
        2
 70
   128
 43
0.0
 10
0.2218259910851432
 20
0.2030826223092494
 10
0.2304057596531023
 20
0.20276499959219
  0
LWPOLYLINE
  5
31F2
330
2
100
AcDbEntity
  8
0
  6
Continuous
 62
     1
370
     0
100
AcDbPolyline
 90
        2
 70
   128
 43
0.0
 10
0.2215435302059678
 20
0.2046707332235576
 10
0.230123298773927
 20
0.2041413624736203
  0
LWPOLYLINE
  5
31F3
330
2
100
AcDbEntity
  8
0
  6
Continuous
 62
     1
370
     0
100
AcDbPolyline
 90
        5
 70
   128
 43
0.0
 10
0.1890212577465517
 20
0.1857125032640168
 10
0.1929745224548602
 20
0.1862769937406105
 10
0.1972415387239088
 20
0.1868414842172041
 10
0.2020105566639738
 20
0.1870296485997411
 10
0.2065285737685282
 20
0.1869669266937244
  0
LWPOLYLINE
  5
31F4
330
2
100
AcDbEntity
  8
0
  6
Continuous
 62
     1
370
     0
100
AcDbPolyline
 90
        5
 70
   128
 43
0.0
 10
0.1932255232903708
 20
0.1874686965998051
 10
0.2016968051032383
 20
0.1887858419355295
 10
0.2077208292862402
 20
0.1899148242242208
 10
0.2143096038000893
 20
0.1916710175600091
 10
0.2224671340522215
 20
0.1937408177548547
  0
LWPOLYLINE
  5
31F5
330
2
100
AcDbEntity
  8
0
  6
Continuous
 62
     1
370
     0
100
AcDbPolyline
 90
        6
 70
   128
 43
0.0
 10
0.1463881605723462
 20
0.1822634928950009
 10
0.1549221931104387
 20
0.1827025422305687
 10
0.1621384707457587
 20
0.1834551957541954
 10
0.1713627550651531
 20
0.1843332930898464
 10
0.1799595383284704
 20
0.1852113904254877
 10
0.1837245529264981
 20
0.1858386028080982
  0
LWPOLYLINE
  5
31F6
330
2
100
AcDbEntity
  8
0
  6
Continuous
 62
     1
370
     0
100
AcDbPolyline
 90
       18
 70
   128
 43
0.0
 10
0.1897897011200953
 20
0.1456011519108959
 42
-0.6969890211612863
 10
0.1827938296756672
 20
0.1446336172639835
 42
-0.0031023912712712
 10
0.1791385803100824
 20
0.1589421847886152
 42
0.2042074380527084
 10
0.1688812883555104
 20
0.1766315304902088
 42
0.2103675733677307
 10
0.1597734570063052
 20
0.1787425149315713
 42
0.4712843350415534
 10
0.1534815742621904
 20
0.1673080183226225
 42
0.3581351055493958
 10
0.1600814523208693
 20
0.1636577743371271
 42
0.2709800826645485
 10
0.1642613751602113
 20
0.1672640388679957
 42
0.4461401655355897
 10
0.1615334246263102
 20
0.1721456902217003
 42
0.7646613859064245
 10
0.1611374333059503
 20
0.1713980501769521
 42
-0.5302436139951089
 10
0.1606817686937318
 20
0.1667259179013354
 42
-1.282212929955851
 10
0.161313429448334
 20
0.1752242079744716
 42
-0.4412979024662583
 10
0.166109340851406
 20
0.1652410133358962
 42
-0.6699211494341299
 10
0.1502256353011473
 20
0.1680996364865126
 42
-0.1956855568393625
 10
0.1520296019567495
 20
0.1783467051818791
 42
-0.4124404183914951
 10
0.1701132675483643
 20
0.1794021974025604
 42
-0.1575891902831175
 10
0.180812264133863
 20
0.1613132371027633
 42
-0.018704303524191
 10
0.1830562232108115
 20
0.1492630361419579
 42
0.8630923180374331
  0
LWPOLYLINE
  5
31F7
330
2
100
AcDbEntity
  8
0
  6
Continuous
 62
     1
370
     0
100
AcDbPolyline
 90
       44
 70
   128
 43
0.0
 10
0.1839856122187224
 20
0.1208025142130127
 10
0.1850218191453687
 20
0.1223353900520405
 10
0.1856849895130323
 20
0.1235782627149002
 10
0.1853534032965058
 20
0.1253597117509885
 10
0.1849803708683064
 20
0.1261054353487006
 10
0.1841928536040527
 20
0.1264782971475613
 10
0.1826178190755452
 20
0.125566857639968
 10
0.1836954742792585
 20
0.126934017569105
 10
0.184441543266445
 20
0.1281768888964608
 10
0.1846902329288422
 20
0.1298340520017661
 10
0.184234301881115
 20
0.1302483424442212
 10
0.1831980949544687
 20
0.1302069138006269
 10
0.1823691314785418
 20
0.1299169106244586
 10
0.1839027156645885
 20
0.1309940660419332
 10
0.1841099570499187
 20
0.1321540800821003
 10
0.1841928536040527
 20
0.1336455272775338
 10
0.1835711294480622
 20
0.1344326795188401
 10
0.1821204418161446
 20
0.134266962273455
 10
0.1822447866473409
 20
0.134681254051414
 10
0.1831980949544687
 20
0.1356755508461959
 10
0.1837783708333924
 20
0.1373741425950955
 10
0.1831980949544687
 20
0.1381198661928076
 10
0.1822862349244078
 20
0.1381612961719056
 10
0.1814572693830871
 20
0.1378712916602431
 10
0.1828250604608754
 20
0.1390313057004008
 10
0.1835711294480622
 20
0.1403156070068547
 10
0.1831980949544687
 20
0.1409370433382798
 10
0.1832788848092479
 20
0.1422859028675951
 10
0.1827400572073914
 20
0.1435287741949509
 10
0.1818281971773305
 20
0.1441916391699703
 10
0.180253162648823
 20
0.144150210526376
 10
0.1792169577875659
 20
0.1437773487275247
 10
0.1785952336315752
 20
0.1429901964862089
 10
0.1794241991728962
 20
0.1447716468578105
 10
0.1797143371123555
 20
0.1454759404764243
 10
0.1807919902506796
 20
0.1463873799840176
 10
0.1813722661296031
 20
0.1475473940241847
 10
0.181455162683737
 20
0.1489145539533312
 10
0.1809577833589426
 20
0.1498259934609245
 10
0.1796728888352885
 20
0.1499917093708057
 10
0.1806261971424163
 20
0.1506960043249234
 10
0.1805847488653493
 20
0.1515660138534185
 10
0.1800044750518197
 20
0.1524774546965155
 10
0.1804604040341531
 20
0.1531817483151294
  0
LWPOLYLINE
  5
31F8
330
2
100
AcDbEntity
  8
0
  6
Continuous
 62
     1
370
     0
100
AcDbPolyline
 90
       34
 70
   128
 43
0.0
 10
0.1795899922811592
 20
0.1561232127268886
 10
0.1791340612334318
 20
0.1562474999931755
 10
0.1778906129214554
 20
0.1563303572803643
 10
0.1773517873849881
 20
0.1561232127268886
 10
0.178139302583848
 20
0.1571589395007688
 10
0.1784708888003792
 20
0.1582775235618377
 10
0.1780564060297187
 20
0.1593132503357178
 10
0.1773517873849881
 20
0.1596032548473898
 10
0.1771445459996579
 20
0.1600589739334393
 10
0.1771445459996579
 20
0.1610947007073195
 10
0.1766886149519304
 20
0.1622961447265753
 10
0.1754037183628871
 20
0.1630832969678911
 10
0.1746162031640272
 20
0.1627104351690304
 10
0.1735799962373763
 20
0.1615504211288633
 10
0.173165513466716
 20
0.161633278416052
 10
0.1728753755272565
 20
0.1620475701940109
 10
0.1720878603283919
 20
0.1611361306864082
 10
0.1720878603283919
 20
0.1606389816212701
 10
0.1714661361724012
 20
0.1610947007073195
 10
0.1707615154622814
 20
0.1617575656823389
 10
0.1695180692156943
 20
0.1622961447265753
 10
0.1680673795183829
 20
0.1621304274811997
 10
0.1671969656999998
 20
0.1614675625061708
 10
0.1665752436094032
 20
0.1608046975311513
 10
0.166326553947006
 20
0.1599761166462505
 10
0.166243657392872
 20
0.1608046975311513
 10
0.1654975884056853
 20
0.160763268887557
 10
0.165207450466226
 20
0.1603075484660037
 10
0.165166002189159
 20
0.1600175452898449
 10
0.1649173125267618
 20
0.1603489771095981
 10
0.1640054524967009
 20
0.1601832611997167
 10
0.1633837283407151
 20
0.1598518293799637
 10
0.1628449007388537
 20
0.1593132503357178
 10
0.1627205559076574
 20
0.1590232471595592
  0
LWPOLYLINE
  5
31F9
330
2
100
AcDbEntity
  8
0
  6
Continuous
 62
     1
370
     0
100
AcDbPolyline
 90
        4
 70
   128
 43
0.0
 10
0.1665337953323362
 20
0.1579046630984903
 10
0.1656219332368862
 20
0.1583603821845302
 10
0.165331795297422
 20
0.1591061057822517
 10
0.165083105635025
 20
0.1596446834909843
  0
LWPOLYLINE
  5
31FA
330
2
100
AcDbEntity
  8
0
  6
Continuous
 62
     1
370
     0
100
AcDbPolyline
 90
        4
 70
   128
 43
0.0
 10
0.1711345499558749
 20
0.1569517936117988
 10
0.1685233105661103
 20
0.1576146585868182
 10
0.1671555194883267
 20
0.1581946662746489
 10
0.1665337953323362
 20
0.1594789675811029
  0
LWPOLYLINE
  5
31FB
330
2
100
AcDbEntity
  8
0
  6
Continuous
 62
     1
370
     0
100
AcDbPolyline
 90
        3
 70
   128
 43
0.0
 10
0.1725437893107253
 20
0.1568689363246101
 10
0.1729168238043188
 20
0.1583603821845302
 10
0.172460892756596
 20
0.1604732643758849
  0
LWPOLYLINE
  5
31FC
330
2
100
AcDbEntity
  8
0
  6
Continuous
 62
     1
370
     0
100
AcDbPolyline
 90
        3
 70
   128
 43
0.0
 10
0.1761083390730069
 20
0.1575318012996295
 10
0.1765228218436674
 20
0.1587332439833909
 10
0.1770202011684616
 20
0.1592303930485291
  0
LWPOLYLINE
  5
31FD
330
2
100
AcDbEntity
  8
0
  6
Continuous
 62
     1
370
     0
100
AcDbPolyline
 90
        2
 70
   128
 43
0.0
 10
0.1749063411034866
 20
0.1579460917420846
 10
0.1748234445493526
 20
0.1603489771095981
  0
LWPOLYLINE
  5
31FE
330
2
100
AcDbEntity
  8
0
  6
Continuous
 62
     1
370
     0
100
AcDbPolyline
 90
        4
 70
   128
 43
0.0
 10
0.17685317708685
 20
0.1456750493073745
 10
0.1770604184721802
 20
0.1500251022918653
 10
0.177806487459367
 20
0.1533394285024852
 10
0.1784282116153575
 20
0.1544165839199597
  0
LWPOLYLINE
  5
31FF
330
2
100
AcDbEntity
  8
0
  6
Continuous
 62
     1
370
     0
100
AcDbPolyline
 90
        3
 70
   128
 43
0.0
 10
0.1755268342861287
 20
0.1516408367535855
 10
0.1758169722255929
 20
0.1541680093873858
 10
0.1762314529308593
 20
0.1552037361612661
  0
LWPOLYLINE
  5
3200
330
2
100
AcDbEntity
  8
0
  6
Continuous
 62
     1
370
     0
100
AcDbPolyline
 90
        4
 70
   128
 43
0.0
 10
0.1774749012428405
 20
0.1449293270451569
 10
0.1780966253988263
 20
0.1477465028551349
 10
0.1787597957664901
 20
0.1496108118494196
 10
0.1791742785371504
 20
0.1499836736482709
  0
LWPOLYLINE
  5
3201
330
2
100
AcDbEntity
  8
0
  6
Continuous
 62
     1
370
     0
100
AcDbPolyline
 90
        5
 70
   128
 43
0.0
 10
0.1782220215143109
 20
0.1326172900053881
 10
0.1787194008391004
 20
0.135973044859593
 10
0.1793825732721579
 20
0.1383759315626197
 10
0.1805431229646113
 20
0.1408202469092313
 10
0.1807089160728792
 20
0.1412759659952808
  0
LWPOLYLINE
  5
3202
330
2
100
AcDbEntity
  8
0
  6
Continuous
 62
     1
370
     0
100
AcDbPolyline
 90
        5
 70
   128
 43
0.0
 10
0.1802965048899152
 20
0.1209245191043945
 10
0.1800892635045852
 20
0.1245702771347771
 10
0.1802965048899152
 20
0.1285060383413182
 10
0.1810011256000352
 20
0.1316960772856514
 10
0.181747194587222
 20
0.1329803785920959
  0
LWPOLYLINE
  5
3203
330
2
100
AcDbEntity
  8
0
  6
Continuous
 62
     1
370
     0
100
AcDbPolyline
 90
        3
 70
   128
 43
0.0
 10
0.1808353324917719
 20
0.1261860102609841
 10
0.1814156083706954
 20
0.1287131842302978
 10
0.1819958842496192
 20
0.1295831950942966
  0
LWPOLYLINE
  5
3204
330
2
100
AcDbEntity
  8
0
  6
Continuous
 62
     1
370
     0
100
AcDbPolyline
 90
        3
 70
   128
 43
0.0
 10
0.1768132716572492
 20
0.1326148994547203
 10
0.1773106509820437
 20
0.1397407009410985
 10
0.177559340644436
 20
0.1430550258162145
  0
LWPOLYLINE
  5
3205
330
2
100
AcDbEntity
  8
0
  6
Continuous
 62
     1
370
     0
100
AcDbPolyline
 90
        2
 70
   128
 43
0.0
 10
0.1755700319498146
 20
0.1421127989542228
 10
0.1754042409069403
 20
0.1471257169137424
  0
LWPOLYLINE
  5
3206
330
2
100
AcDbEntity
  8
0
  6
Continuous
 62
     1
370
     0
100
AcDbPolyline
 90
        3
 70
   128
 43
0.0
 10
0.176233204382872
 20
0.1341584165829439
 10
0.1763575492140681
 20
0.1402070613163437
 10
0.1764818940452643
 20
0.1448056888334083
  0
LWPOLYLINE
  5
3207
330
2
100
AcDbEntity
  8
0
  6
Continuous
 62
     1
370
     0
100
AcDbPolyline
 90
       37
 70
   128
 43
0.0
 10
0.1947112358317193
 20
0.1428657997086649
 10
0.1968328266571626
 20
0.1419883060204506
 10
0.1980033604522349
 20
0.1416226839842318
 10
0.1985886263170766
 20
0.1407451902960175
 10
0.1984423098508638
 20
0.1397580090620782
 10
0.1981862550023003
 20
0.1389902015840756
 10
0.1987715229325359
 20
0.137783647929713
 10
0.1990275757157054
 20
0.1363942825894937
 10
0.1986252064663232
 20
0.1357361626572066
 10
0.1977838857529181
 20
0.1355167889012794
 10
0.1966499300417033
 20
0.1355167889012794
 10
0.1960646641768619
 20
0.1355167889012794
 10
0.1958086093282984
 20
0.1352608530752817
 10
0.1951136050811015
 20
0.1352608530752817
 10
0.1948941303817897
 20
0.1346392952130651
 10
0.1946380775986154
 20
0.1333961781531281
 10
0.1943454426008053
 20
0.1329939940468388
 10
0.1938699151183145
 20
0.1329939940468388
 10
0.1935407020366471
 20
0.1330305561169093
 10
0.1934309636542919
 20
0.1316411907766901
 10
0.1932114889549796
 20
0.1305443233325391
 10
0.1924067483908214
 20
0.1295937041686799
 10
0.1913459509127106
 20
0.1293743317482471
 10
0.1906509466655137
 20
0.1296302675742542
 10
0.1898096259521089
 20
0.130909945368758
 10
0.189297518320376
 20
0.1319702507428289
 10
0.1891877799380206
 20
0.1324455603247633
 10
0.1887488305393918
 20
0.1325552465349749
 10
0.1885293558400751
 20
0.1333230540129775
 10
0.1883464592246158
 20
0.1340177360153447
 10
0.1878709317421296
 20
0.1341274235610602
 10
0.1867735561801613
 20
0.1343102339114131
 10
0.1864809232477407
 20
0.1345296076673401
 10
0.1860053936998604
 20
0.1345661697374108
 10
0.1852738093034169
 20
0.1343833593870579
 10
0.1847251215224328
 20
0.1343833593870579
 10
0.1842130138907001
 20
0.1344564835271991
  0
LWPOLYLINE
  5
3208
330
2
100
AcDbEntity
  8
0
  6
Continuous
 62
     1
370
     0
100
AcDbPolyline
 90
        4
 70
   128
 43
0.0
 10
0.1903948938823443
 20
0.1449498483867457
 10
0.1896998896351474
 20
0.1399773828180149
 10
0.188821988772496
 20
0.1375642741737858
 10
0.187907509825987
 20
0.1345296076673401
  0
LWPOLYLINE
  5
3209
330
2
100
AcDbEntity
  8
0
  6
Continuous
 62
     1
370
     0
100
AcDbPolyline
 90
        3
 70
   128
 43
0.0
 10
0.1854567059188763
 20
0.1379298975455084
 10
0.1874685604273536
 20
0.1397214469920076
 10
0.1883464592246158
 20
0.1411839364723775
  0
LWPOLYLINE
  5
320A
330
2
100
AcDbEntity
  8
0
  6
Continuous
 62
     1
370
     0
100
AcDbPolyline
 90
        3
 70
   128
 43
0.0
 10
0.1850177565202475
 20
0.1397945711321582
 10
0.1870296089633307
 20
0.1405258165400903
 10
0.1875417186604622
 20
0.141220498542448
  0
LWPOLYLINE
  5
320B
330
2
100
AcDbEntity
  8
0
  6
Continuous
 62
     1
370
     0
100
AcDbPolyline
 90
        6
 70
   128
 43
0.0
 10
0.1947112358317193
 20
0.1352974151453523
 10
0.1933212273373303
 20
0.1363942825894937
 10
0.1925896429408869
 20
0.137637398313927
 10
0.1917849023767333
 20
0.1393558249557982
 10
0.1911996344464979
 20
0.1416226839842318
 10
0.1908704234302243
 20
0.1434142334307404
  0
LWPOLYLINE
  5
320C
330
2
100
AcDbEntity
  8
0
  6
Continuous
 62
     1
370
     0
100
AcDbPolyline
 90
        2
 70
   128
 43
0.0
 10
0.1928091176402036
 20
0.1424270535323144
 10
0.1966865101909498
 20
0.1395020732360804
  0
LWPOLYLINE
  5
320D
330
2
100
AcDbEntity
  8
0
  6
Continuous
 62
     1
370
     0
100
AcDbPolyline
 90
       13
 70
   128
 43
0.0
 10
0.1963207190254252
 20
0.1415861219141612
 10
0.1974180925220044
 20
0.1408183144361585
 10
0.1973083562050381
 20
0.1400139448880854
 10
0.1969791431233707
 20
0.1397945711321582
 10
0.1968694047410202
 20
0.1390267649896499
 10
0.19716203973883
 20
0.1386611416179367
 10
0.1972717760557916
 20
0.1378933341399341
 10
0.1971986178226874
 20
0.1372717762777175
 10
0.1966865101909498
 20
0.1366136563454303
 10
0.1960280840276151
 20
0.1365039687997054
 10
0.1952599215473143
 20
0.1368330301013575
 10
0.1947478139155769
 20
0.1369061542414987
 10
0.1946380775986154
 20
0.136138346763496
  0
LWPOLYLINE
  5
320E
330
2
100
AcDbEntity
  8
0
  6
Continuous
 62
     1
370
     0
100
AcDbPolyline
 90
        2
 70
   128
 43
0.0
 10
0.1931017526380183
 20
0.1330305561169093
 10
0.192223851775362
 20
0.1339446118751941
  0
LWPOLYLINE
  5
320F
330
2
100
AcDbEntity
  8
0
  6
Continuous
 62
     1
370
     0
100
AcDbPolyline
 90
       59
 70
   128
 43
0.0
 10
0.1990998933344612
 20
0.1221051720104304
 10
0.1977888963927514
 20
0.1240707588870228
 10
0.1976952536065284
 20
0.1253811492477486
 10
0.1979761819651928
 20
0.1266915396084743
 10
0.1985380386825264
 20
0.1273467347888372
 10
0.1986316814687447
 20
0.1284699276713142
 10
0.1985380386825264
 20
0.1297803180320399
 10
0.1992871789069075
 20
0.1302483157341541
 10
0.1991935361206842
 20
0.1311843084673844
 10
0.1992871789069075
 20
0.1329626965302337
 10
0.1998490356242361
 20
0.134647484518455
 10
0.2013473181383875
 20
0.1341794881518351
 10
0.2022837439352098
 20
0.135021882145941
 10
0.2007854614210586
 20
0.1368938689479053
 10
0.2005045330623942
 20
0.1384850568615078
 10
0.2018155300041042
 20
0.1391402533773651
 10
0.2028456006525387
 20
0.1391402533773651
 10
0.2018155300041042
 20
0.1403570449989759
 10
0.2007854614210586
 20
0.1407314412909582
 10
0.2008791042072817
 20
0.1420418329871877
 10
0.2013473181383875
 20
0.1426970281675506
 10
0.2009727469935
 20
0.1435394221616659
 10
0.2014409609246106
 20
0.1459730054048687
 10
0.2021901011489914
 20
0.1463474030323641
 10
0.2033138145836492
 20
0.1461602042186117
 10
0.2039693120218073
 20
0.1470025982127271
 10
0.2037820264493659
 20
0.147844992206833
 10
0.2042502403804717
 20
0.1486873862009388
 10
0.2056548801084046
 20
0.1489681837538157
 10
0.2062167368257334
 20
0.1492489826421869
 10
0.2056548801084046
 20
0.1500913766362928
 10
0.2030328862249848
 20
0.1507465718166556
 10
0.2027519578663203
 20
0.1521505622520001
 10
0.2035947408769198
 20
0.1527121586932481
 10
0.2043438831666948
 20
0.1531801550598584
 10
0.2040089344927669
 20
0.1537114943414624
 10
0.2037183958673516
 20
0.1541632336280845
 10
0.2025562413656816
 20
0.1550344464449223
 10
0.2018137537673931
 20
0.1558411250779677
 10
0.2020074461843381
 20
0.1566155366191122
 10
0.2026530875741565
 20
0.1572931468845444
 10
0.2040412165622584
 20
0.158067558425689
 10
0.2057521662452719
 20
0.1589710383344371
 10
0.208367013874027
 20
0.1587129015992204
 10
0.2081163290434173
 20
0.1596136357134719
 10
0.2076934339330904
 20
0.1602476845367577
 10
0.207423334422176
 20
0.1610640415612221
 10
0.207622764496766
 20
0.1618329094287336
 10
0.2079931305045148
 20
0.1626017772962547
 10
0.2080501105258256
 20
0.1632282631651333
 10
0.2078506825166246
 20
0.1642818977009183
 10
0.2077082324633454
 20
0.1656487745033859
 10
0.2081640685030625
 20
0.1665315487711118
 10
0.2089617826052601
 20
0.1669302218395806
 10
0.2108136188401712
 20
0.1670441282397854
 10
0.2124660270658766
 20
0.1668447910378038
 10
0.2132067611467634
 20
0.166730884637599
 10
0.2136056171651652
 20
0.167015651305863
 10
0.2135771271545121
 20
0.1679269025075113
  0
LWPOLYLINE
  5
3210
330
2
100
AcDbEntity
  8
0
  6
Continuous
 62
     1
370
     0
100
AcDbPolyline
 90
       10
 70
   128
 43
0.0
 10
0.217084690699306
 20
0.1674916593559489
 10
0.2187692715287548
 20
0.16713982104787
 10
0.2200515636590882
 20
0.1672152155433912
 10
0.221258425625646
 20
0.1665366690902397
 10
0.2227167200945403
 20
0.1662602239421687
 10
0.2242001545090399
 20
0.1662099609451577
 10
0.2258847353384887
 20
0.1664612745947185
 10
0.2267144526823241
 20
0.1665869307517469
 10
0.2277201723647157
 20
0.1666623252472587
 10
0.2281727471512138
 20
0.1667628512412902
  0
LWPOLYLINE
  5
3211
330
2
100
AcDbEntity
  8
0
  6
Continuous
 62
     1
370
     0
100
AcDbPolyline
 90
       71
 70
   128
 43
0.0
 10
0.2266652488600906
 20
0.1661870063168069
 10
0.2277728501754838
 20
0.1657758008866598
 10
0.2287538677752731
 20
0.1654594909692095
 10
0.2293551362936261
 20
0.1649850240897738
 10
0.2290386790699987
 20
0.1638779360399243
 10
0.2285323483383521
 20
0.1626126910280894
 10
0.2280893073991161
 20
0.1620117012500766
 10
0.2277412042465816
 20
0.1612209231176868
 10
0.2279943696124095
 20
0.1604934077700799
 10
0.2279627236835075
 20
0.1594812125619198
 10
0.2292654549283466
 20
0.1583905004518424
 10
0.2302148265992292
 20
0.1581690820405779
 10
0.2311325523412095
 20
0.1574731980853719
 10
0.2312274901279158
 20
0.1569354697566476
 10
0.2312907819857203
 20
0.1563028472507301
 10
0.2305312838228565
 20
0.1547845551062372
 10
0.2301831806703271
 20
0.154341719619193
 10
0.2305629297517588
 20
0.1540254083662389
 10
0.2307211573308756
 20
0.153519311429906
 10
0.2304996378939545
 20
0.1527601646899172
 10
0.2298983693756018
 20
0.1518744937158285
 10
0.2302464725281312
 20
0.1513367653871043
 10
0.2306578675384651
 20
0.1505459872547145
 10
0.2308477410464842
 20
0.1498501032995084
 10
0.2305312838228565
 20
0.1491542193443025
 10
0.2300565969547185
 20
0.1486481210724753
 10
0.2296135580808762
 20
0.1476042958074182
 10
0.2283160832574593
 20
0.1471298289279823
 10
0.2280945617551444
 20
0.1467818862826274
 10
0.2285692486232826
 20
0.1460543722705244
 10
0.2290241428444648
 20
0.1453758592049497
 10
0.2291572800473729
 20
0.1451984255903271
 10
0.2298229598657361
 20
0.1454867540455288
 10
0.2302889349124344
 20
0.1454867540455288
 10
0.2312874567053708
 20
0.1451097094507631
 10
0.2321084622277664
 20
0.1446661287529617
 10
0.2325078697057028
 20
0.1440672931415434
 10
0.2325966278409781
 20
0.1432688465500009
 10
0.2323525440016753
 20
0.1423373250813509
 10
0.2323969230693081
 20
0.1415610571908139
 10
0.2322194088641562
 20
0.1409622215794051
 10
0.2319753250248584
 20
0.1404299247420397
 10
0.2307779266822556
 20
0.139536308859648
 10
0.230467277339585
 20
0.1390261907232976
 10
0.2310885780903155
 20
0.1390261907232976
 10
0.2319539626803439
 20
0.138782219670126
 10
0.2325086958623125
 20
0.1377841620984309
 10
0.2322868025895232
 20
0.137030072908909
 10
0.2316211227711597
 20
0.1361650888788175
 10
0.2307779266822556
 20
0.1356106120049332
 10
0.2306447915447367
 20
0.1352557474466864
 10
0.2312217152932234
 20
0.1351892100081373
 10
0.2319095836127063
 20
0.1352113887091524
 10
0.2328193472703723
 20
0.1349008815529452
 10
0.2330856196107944
 20
0.1340802562603782
 10
0.2331304489337844
 20
0.1332510263209392
 10
0.2329085556609951
 20
0.1322751461147552
 10
0.2321763062084809
 20
0.1313436246461147
 10
0.2325091461176647
 20
0.1310331188254019
 10
0.2330638813650274
 20
0.1306782529316607
 10
0.2334189097753307
 20
0.1299241637421388
 10
0.2332635840712986
 20
0.1287930312933551
 10
0.2328419880922381
 20
0.1283272705590348
 10
0.2326866623882104
 20
0.1280167634028182
 10
0.2316323605664318
 20
0.1264419607775239
 10
0.2326520154454259
 20
0.1270789503787799
 10
0.2337991277006363
 20
0.1259323688294165
 10
0.2341177701084966
 20
0.1245309906382522
 10
0.2334167576373624
 20
0.1229385152996132
 10
0.2327794728216467
 20
0.1218556332445759
 10
0.2325882877900076
 20
0.1212186423078161
  0
LWPOLYLINE
  5
3212
330
2
100
AcDbEntity
  8
0
  6
Continuous
 62
     1
370
     0
100
AcDbPolyline
 90
        4
 70
   128
 43
0.0
 10
0.2019793114210275
 20
0.1221186873024335
 10
0.2014745317984085
 20
0.1247675469778656
 10
0.2002756835509604
 20
0.1264073164899935
 10
0.1990768373689016
 20
0.1271641327769678
  0
LWPOLYLINE
  5
3213
330
2
100
AcDbEntity
  8
0
  6
Continuous
 62
     1
370
     0
100
AcDbPolyline
 90
        5
 70
   128
 43
0.0
 10
0.2041246170719241
 20
0.1223078920419314
 10
0.2034305463816965
 20
0.1258397036070037
 10
0.2025471866892485
 20
0.1284254954811076
 10
0.2010959496631856
 20
0.1298760602537376
 10
0.2002756835509604
 20
0.1305067409380556
  0
LWPOLYLINE
  5
3214
330
2
100
AcDbEntity
  8
0
  6
Continuous
 62
     1
370
     0
100
AcDbPolyline
 90
       14
 70
   128
 43
0.0
 10
0.2090462034183342
 20
0.1228124371235835
 10
0.2084152304391073
 20
0.1269118615716456
 10
0.2086676192177221
 20
0.1283624263442756
 10
0.2074687709702693
 20
0.1291823117680915
 10
0.2079104528818871
 20
0.1306959456775535
 10
0.2079104528818871
 20
0.1326510555318355
 10
0.2065223135668252
 20
0.1339124169004715
 10
0.2055758540979824
 20
0.1339124169004715
 10
0.2046924923401454
 20
0.1331556006134877
 10
0.2043139081395335
 20
0.1319573070461895
 10
0.2040615193609232
 20
0.1325249199291697
 10
0.2038722282933094
 20
0.1339124169004715
 10
0.2034305463816965
 20
0.1346061653861177
 10
0.2026733800458615
 20
0.1349845735296096
  0
LWPOLYLINE
  5
3215
330
2
100
AcDbEntity
  8
0
  6
Continuous
 62
     1
370
     0
100
AcDbPolyline
 90
        6
 70
   128
 43
0.0
 10
0.2095509809755591
 20
0.1245783422383677
 10
0.2087938146397241
 20
0.1303175375340615
 10
0.2081628416604972
 20
0.1330925314766557
 10
0.2069008957020435
 20
0.1351107104677698
 10
0.2050079788297611
 20
0.1374442284655438
 10
0.2034305463816965
 20
0.1387055898341798
  0
LWPOLYLINE
  5
3216
330
2
100
AcDbEntity
  8
0
  6
Continuous
 62
     1
370
     0
100
AcDbPolyline
 90
        4
 70
   128
 43
0.0
 10
0.2074687709702693
 20
0.1354260508099335
 10
0.2063330204338222
 20
0.138201046088022
 10
0.2047555900511464
 20
0.1401561559423136
 10
0.2023578935562455
 20
0.1419851301939299
  0
LWPOLYLINE
  5
3217
330
2
100
AcDbEntity
  8
0
  6
Continuous
 62
     1
370
     0
100
AcDbPolyline
 90
        4
 70
   128
 43
0.0
 10
0.211759384337457
 20
0.1260289083465016
 10
0.2110022180016219
 20
0.1325249199291697
 10
0.2098664674651702
 20
0.1363720718364058
 10
0.2091093011293352
 20
0.1384533186288576
  0
LWPOLYLINE
  5
3218
330
2
100
AcDbEntity
  8
0
  6
Continuous
 62
     1
370
     0
100
AcDbPolyline
 90
        7
 70
   128
 43
0.0
 10
0.2126427460952939
 20
0.1269749293729738
 10
0.2123903573166838
 20
0.1370658203220519
 10
0.2116962886918452
 20
0.1419851301939299
 10
0.2102432320558518
 20
0.1457907052167224
 10
0.2092967725870138
 20
0.1477458150710045
 10
0.2071514669361167
 20
0.1511514910334204
 10
0.2053847434204427
 20
0.1527281927442107
  0
LWPOLYLINE
  5
3219
330
2
100
AcDbEntity
  8
0
  6
Continuous
 62
     1
370
     0
100
AcDbPolyline
 90
       10
 70
   128
 43
0.0
 10
0.2105587185454675
 20
0.1396731017775368
 10
0.2101801343448508
 20
0.1425111648569723
 10
0.2090443838084037
 20
0.1444662747112544
 10
0.2077193422043428
 20
0.1457276360798809
 10
0.2067097870898928
 20
0.1452861601350608
 10
0.2063943006002817
 20
0.1442770713072604
 10
0.2068359804465058
 20
0.1423219601174744
 10
0.2057633276210548
 20
0.1447816150534087
 10
0.2052585500638299
 20
0.1457907052167224
 10
0.2041227995273828
 20
0.1461691133602143
  0
LWPOLYLINE
  5
321A
330
2
100
AcDbEntity
  8
0
  6
Continuous
 62
     1
370
     0
100
AcDbPolyline
 90
        2
 70
   128
 43
0.0
 10
0.2082241197615677
 20
0.1464213859010404
 10
0.2065204939568898
 20
0.1485026313579789
  0
LWPOLYLINE
  5
321B
330
2
100
AcDbEntity
  8
0
  6
Continuous
 62
     1
370
     0
100
AcDbPolyline
 90
        3
 70
   128
 43
0.0
 10
0.214251128435315
 20
0.1256775788651252
 10
0.214251128435315
 20
0.1369494579315296
 10
0.2132187176982858
 20
0.1447286409849817
  0
LWPOLYLINE
  5
321C
330
2
100
AcDbEntity
  8
0
  6
Continuous
 62
     1
370
     0
100
AcDbPolyline
 90
        2
 70
   128
 43
0.0
 10
0.2141717120659019
 20
0.145601814320463
 10
0.2127422215471721
 20
0.1519521692507511
  0
LWPOLYLINE
  5
321D
330
2
100
AcDbEntity
  8
0
  6
Continuous
 62
     1
370
     0
100
AcDbPolyline
 90
        5
 70
   128
 43
0.0
 10
0.2108362328119446
 20
0.1510789959152602
 10
0.2094067422932197
 20
0.1540954141064954
 10
0.2082154988173547
 20
0.1554448639282089
 10
0.2079772517744948
 20
0.1575881087839532
 10
0.2081360845133259
 20
0.1580643852701759
  0
LWPOLYLINE
  5
321E
330
2
100
AcDbEntity
  8
0
  6
Continuous
 62
     1
370
     0
100
AcDbPolyline
 90
        8
 70
   128
 43
0.0
 10
0.2162365314745711
 20
0.1418709820676554
 10
0.2157600353234576
 20
0.1493326479087841
 10
0.2148864573252642
 20
0.1548892078050319
 10
0.2136157995453704
 20
0.1574293495100444
 10
0.2123451397000875
 20
0.1590963178795756
 10
0.2109950655507804
 20
0.1598107319411481
 10
0.2094861586626377
 20
0.1598901115781025
 10
0.2088508297726885
 20
0.1595725943657887
  0
LWPOLYLINE
  5
321F
330
2
100
AcDbEntity
  8
0
  6
Continuous
 62
     1
370
     0
100
AcDbPolyline
 90
        3
 70
   128
 43
0.0
 10
0.2129010522206187
 20
0.1590963178795756
 10
0.2113921453324711
 20
0.1613189410367705
 10
0.2091684931849659
 20
0.1628271501323833
  0
LWPOLYLINE
  5
3220
330
2
100
AcDbEntity
  8
0
  6
Continuous
 62
     1
370
     0
100
AcDbPolyline
 90
        3
 70
   128
 43
0.0
 10
0.2183807693180523
 20
0.1228992982492495
 10
0.2183807693180523
 20
0.1422678789169235
 10
0.218777849099748
 20
0.159969491215057
  0
LWPOLYLINE
  5
3221
330
2
100
AcDbEntity
  8
0
  6
Continuous
 62
     1
370
     0
100
AcDbPolyline
 90
        3
 70
   128
 43
0.0
 10
0.2198102598367772
 20
0.1260744757143935
 10
0.2196514270979414
 20
0.1430616726154505
 10
0.2200485068796371
 20
0.1518727896137967
  0
LWPOLYLINE
  5
3222
330
2
100
AcDbEntity
  8
0
  6
Continuous
 62
     1
370
     0
100
AcDbPolyline
 90
        4
 70
   128
 43
0.0
 10
0.2221133283537004
 20
0.1264713725636617
 10
0.2213985830943381
 20
0.1384576670271519
 10
0.2217162465066155
 20
0.1481419560254756
 10
0.2215574137677798
 20
0.1565561761745535
  0
LWPOLYLINE
  5
3223
330
2
100
AcDbEntity
  8
0
  6
Continuous
 62
     1
370
     0
100
AcDbPolyline
 90
        5
 70
   128
 43
0.0
 10
0.2141717120659019
 20
0.1603663880643251
 10
0.2141717120659019
 20
0.1618745971599476
 10
0.2144893754781747
 20
0.1629065297693377
 10
0.214251128435315
 20
0.1639384623787374
 10
0.2138540465882301
 20
0.1658435683236186
  0
LWPOLYLINE
  5
3224
330
2
100
AcDbEntity
  8
0
  6
Continuous
 62
     1
370
     0
100
AcDbPolyline
 90
        4
 70
   128
 43
0.0
 10
0.2167924460604917
 20
0.162589012557024
 10
0.2164747805828248
 20
0.163859082741783
 10
0.2166336133216559
 20
0.1651291542620364
 10
0.2167924460604917
 20
0.1661610868714362
  0
LWPOLYLINE
  5
3225
330
2
100
AcDbEntity
  8
0
  6
Continuous
 62
     1
370
     0
100
AcDbPolyline
 90
        7
 70
   128
 43
0.0
 10
0.2189366818385791
 20
0.1603663880643251
 10
0.2202073396184729
 20
0.161636459584588
 10
0.2217162465066155
 20
0.1617158392215425
 10
0.2229869063518987
 20
0.1621921157077557
 10
0.2242575641317878
 20
0.1631446686802009
 10
0.2251311421299859
 20
0.1645734981388689
 10
0.2252899748688217
 20
0.1654466714743503
  0
LWPOLYLINE
  5
3226
330
2
100
AcDbEntity
  8
0
  6
Continuous
 62
     1
370
     0
100
AcDbPolyline
 90
        3
 70
   128
 43
0.0
 10
0.2237810679806788
 20
0.1266301318375705
 10
0.2240987313929567
 20
0.1346474538018765
 10
0.224892893021737
 20
0.1394102199995877
  0
LWPOLYLINE
  5
3227
330
2
100
AcDbEntity
  8
0
  6
Continuous
 62
     1
370
     0
100
AcDbPolyline
 90
        4
 70
   128
 43
0.0
 10
0.2238604843500968
 20
0.1449667798958449
 10
0.2255282219116816
 20
0.1504439601551382
 10
0.2270371308652134
 20
0.1530634814971052
 10
0.2291019502738875
 20
0.1554448639282089
  0
LWPOLYLINE
  5
3228
330
2
100
AcDbEntity
  8
0
  6
Continuous
 62
     1
370
     0
100
AcDbPolyline
 90
        5
 70
   128
 43
0.0
 10
0.2253693912382397
 20
0.1531428597985558
 10
0.2264017999098797
 20
0.1562386576267454
 10
0.2264017999098797
 20
0.1575087291469988
 10
0.2254488076076575
 20
0.1583819024824897
 10
0.2247340602829013
 20
0.158778799331758
  0
LWPOLYLINE
  5
3229
330
2
100
AcDbEntity
  8
0
  6
Continuous
 62
     1
370
     0
100
AcDbPolyline
 90
        3
 70
   128
 43
0.0
 10
0.2237810679806788
 20
0.1594932147288344
 10
0.2259253037587662
 20
0.1624302532831151
 10
0.2273547942774911
 20
0.1634621858925148
  0
LWPOLYLINE
  5
322A
330
2
100
AcDbEntity
  8
0
  6
Continuous
 62
     1
370
     0
100
AcDbPolyline
 90
        2
 70
   128
 43
0.0
 10
0.2256870546505174
 20
0.1398864964858103
 10
0.226084136497602
 20
0.1441729848618046
  0
LWPOLYLINE
  5
322B
330
2
100
AcDbEntity
  8
0
  6
Continuous
 62
     1
370
     0
100
AcDbPolyline
 90
        4
 70
   128
 43
0.0
 10
0.226084136497602
 20
0.1341711773156538
 10
0.2277518761245806
 20
0.1381401484793343
 10
0.2294990300555832
 20
0.14091842909521
 10
0.2308491062702839
 20
0.1421884992799691
  0
LWPOLYLINE
  5
322C
330
2
100
AcDbEntity
  8
0
  6
Continuous
 62
     1
370
     0
100
AcDbPolyline
 90
        5
 70
   128
 43
0.0
 10
0.2271165451692422
 20
0.134409316226517
 10
0.2289431175350518
 20
0.1350443506511446
 10
0.2294196157515544
 20
0.13385366010334
 10
0.2296578627944143
 20
0.1313928980352819
 10
0.2292607830127233
 20
0.1294084111179425
  0
LWPOLYLINE
  5
322D
330
2
100
AcDbEntity
  8
0
  6
Continuous
 62
     1
370
     0
100
AcDbPolyline
 90
        3
 70
   128
 43
0.0
 10
0.228546037753361
 20
0.1220261249137681
 10
0.2302137753149458
 20
0.1283764785085428
 10
0.2313256024213929
 20
0.1317104152475956
  0
LWPOLYLINE
  5
322E
330
2
100
AcDbEntity
  8
0
  6
Continuous
 62
     1
370
     0
100
AcDbPolyline
 90
        2
 70
   128
 43
0.0
 10
0.2301343610109169
 20
0.1217879873384087
 10
0.2309285226396973
 20
0.1248044055296439
  0
LWPOLYLINE
  5
322F
330
2
100
AcDbEntity
  8
0
  6
Continuous
 62
     1
370
     0
100
AcDbPolyline
 90
       20
 70
   128
 43
0.0
 10
0.2308312241104808
 20
0.1724989962477568
 10
0.2298675289493938
 20
0.1691714111617454
 10
0.2289038358536914
 20
0.1671573455203656
 10
0.2282467707833688
 20
0.1669384258355125
 10
0.2278525329804106
 20
0.168689785985354
 10
0.227764925268217
 20
0.175520094042065
 10
0.2281591630711752
 20
0.1816936417087133
 10
0.229079053343473
 20
0.1855028519711066
 10
0.2299113338381879
 20
0.1882174611382271
 10
0.2306560066207041
 20
0.1891807101554968
 10
0.2314444842920144
 20
0.1889180059994622
 10
0.2321891570745355
 20
0.1866412362020572
 10
0.232451982276506
 20
0.1827444583328234
 10
0.2325833948774935
 20
0.1722362920917221
 10
0.2328926232307957
 20
0.1576757244689125
 10
0.2335496862357289
 20
0.1490940549268468
 10
0.2346009891090097
 20
0.1455913332916507
 10
0.2356084891588952
 20
0.1443215969826876
 10
0.236966422122945
 20
0.1441026772978345
 10
0.2374044648146971
 20
0.1445405166675406
  0
LWPOLYLINE
  5
3230
330
2
100
AcDbEntity
  8
0
  6
Continuous
 62
     1
370
     0
100
AcDbPolyline
 90
       10
 70
   128
 43
0.0
 10
0.238280550198201
 20
0.144058892826653
 10
0.2379739201074366
 20
0.1426578044396772
 10
0.2368788123453622
 20
0.1423075313413078
 10
0.2352580541793372
 20
0.1427015875753455
 10
0.2338563163264935
 20
0.1441464604335029
 10
0.2327174057410141
 20
0.1466421499157608
 10
0.2320165378472869
 20
0.1509329840190419
 10
0.2317099077565225
 20
0.157194099292521
 10
0.2317525229797983
 20
0.1663136854692561
 10
0.2315773054900216
 20
0.1729250725056104
  0
LWPOLYLINE
  5
3231
330
2
100
AcDbEntity
  8
0
  6
Continuous
 62
     1
370
     0
100
AcDbPolyline
 90
        6
 70
   128
 43
0.0
 10
0.2289052444507111
 20
0.1724434486647322
 10
0.2311392627982695
 20
0.1729688569767824
 10
0.2316211103788108
 20
0.1733629132108202
 10
0.231971545358369
 20
0.1769969869240383
 10
0.231971545358369
 20
0.1812002534204693
 10
0.2294746997434506
 20
0.1816380941256888
  0
LWPOLYLINE
  5
3232
330
2
100
AcDbEntity
  8
0
  6
Continuous
 62
     1
370
     0
100
AcDbPolyline
 90
       13
 70
   128
 43
0.0
 10
0.2301317648137779
 20
0.17239966419356
 10
0.2294308969200506
 20
0.1705169519656966
 10
0.2289490493395049
 20
0.1702542478096715
 10
0.2285986143599467
 20
0.1704293830233523
 10
0.228467201758959
 20
0.1735380497600144
 10
0.2287296551904598
 20
0.1793341227998728
 10
0.2292115027710057
 20
0.1828368444350688
 10
0.2297371552403406
 20
0.1847633424696081
 10
0.2302190007554973
 20
0.1855076704665211
 10
0.2305694357350556
 20
0.1855076704665211
 10
0.2307884581136261
 20
0.1847633424696081
 10
0.2310512833156015
 20
0.1831871175334477
 10
0.2311826959165843
 20
0.1816984602041183
  0
LWPOLYLINE
  5
3233
330
2
100
AcDbEntity
  8
0
  6
Continuous
 62
     1
370
     0
100
AcDbPolyline
 90
        6
 70
   128
 43
0.0
 10
0.2190480931880691
 20
0.1913640160995977
 10
0.2209404379469013
 20
0.1884217303533917
 10
0.2216413058406239
 20
0.1874409675476569
 10
0.2209404379469013
 20
0.1896126546142431
 10
0.2214310448528897
 20
0.1913640160995977
 10
0.2231131306893818
 20
0.1931854314033183
  0
LWPOLYLINE
  5
3234
330
2
100
AcDbEntity
  8
0
  6
Continuous
 62
     1
370
     0
100
AcDbPolyline
 90
        5
 70
   128
 43
0.0
 10
0.2262670393092336
 20
0.1931153775849429
 10
0.2268978202070464
 20
0.1917142878624634
 10
0.2271080811947852
 20
0.1902431456571122
 10
0.2268978202070464
 20
0.1880714572550222
 10
0.2266875592193124
 20
0.1867404226864124
  0
LWPOLYLINE
  5
3235
330
2
100
AcDbEntity
  8
0
  6
Continuous
 62
     1
370
     0
100
AcDbPolyline
 90
        4
 70
   128
 43
0.0
 10
0.2273183421825191
 20
0.1908736353644775
 10
0.2285098190476289
 20
0.1908035802105983
 10
0.2296312089168239
 20
0.1903832546293573
 10
0.2301919028187271
 20
0.1894725469775018
  0
LWPOLYLINE
  5
3236
330
2
100
AcDbEntity
  8
0
  6
Continuous
 62
     1
370
     0
100
AcDbPolyline
 90
        6
 70
   128
 43
0.0
 10
0.2275986881007736
 20
0.1934656493478179
 10
0.2291405999454416
 20
0.1912939622812224
 10
0.2306825097247156
 20
0.190173090503233
 10
0.233275724442669
 20
0.188141512408892
 10
0.2356586781728835
 20
0.186670368868037
 10
0.2391630197069043
 20
0.1852692804810613
  0
LWPOLYLINE
  5
3237
330
2
100
AcDbEntity
  8
0
  6
Continuous
 62
     1
370
     0
100
AcDbPolyline
 90
        5
 70
   128
 43
0.0
 10
0.2312277958058615
 20
0.2036102061559554
 10
0.2323380779994532
 20
0.2011132265776438
 10
0.2339341092981732
 20
0.1993792119428706
 10
0.2360158897020259
 20
0.1977839200280604
 10
0.2394161293071588
 20
0.1961886267777466
  0
LWPOLYLINE
  5
3238
330
2
100
AcDbEntity
  8
0
  6
Continuous
 62
     1
370
     0
100
AcDbPolyline
 90
        5
 70
   128
 43
0.0
 10
0.2306726536763712
 20
0.2020842735978807
 10
0.2317829358699627
 20
0.1998647354529843
 10
0.233101397136632
 20
0.1979920007692458
 10
0.2350443914917648
 20
0.1962579874699764
 10
0.2380976680404847
 20
0.194523972835203
  0
LWPOLYLINE
  5
3239
330
2
100
AcDbEntity
  8
0
  6
Continuous
 62
     1
370
     0
100
AcDbPolyline
 90
        5
 70
   128
 43
0.0
 10
0.2519879010668136
 20
0.1893181133983317
 10
0.2589965593501569
 20
0.186890493176746
 10
0.2644785793591375
 20
0.1855032820031308
 10
0.2689891011578622
 20
0.1847403157240887
 10
0.2742629420937608
 20
0.1838386293960815
  0
LWPOLYLINE
  5
323A
330
2
100
AcDbEntity
  8
0
  6
Continuous
 62
     1
370
     0
100
AcDbPolyline
 90
        5
 70
   128
 43
0.0
 10
0.2528900062527171
 20
0.1903585211107983
 10
0.2582332402129779
 20
0.1882777043503707
 10
0.2641316163027294
 20
0.1868211324845163
 10
0.2692666711899081
 20
0.1858500854642794
 10
0.2748874772476135
 20
0.1850177584930076
  0
LWPOLYLINE
  5
323B
330
2
100
AcDbEntity
  8
0
  6
Continuous
 62
     1
370
     0
100
AcDbPolyline
 90
        5
 70
   128
 43
0.0
 10
0.2447710657757822
 20
0.1832143845015083
 10
0.2524736501719464
 20
0.1807867642799226
 10
0.2584414172206664
 20
0.1791914723651126
 10
0.2650337194232388
 20
0.1776655398070284
 10
0.2712790585694031
 20
0.1764864107101023
  0
LWPOLYLINE
  5
323C
330
2
100
AcDbEntity
  8
0
  6
Continuous
 62
     1
370
     0
100
AcDbPolyline
 90
       40
 70
   129
 43
0.0
 10
0.2431750344770622
 20
0.1847403157240887
 10
0.2409544680244894
 20
0.1843935135984344
 10
0.2397747948719295
 20
0.1846709563673533
 10
0.2392890457668013
 20
0.186058167540978
 10
0.2388032966616684
 20
0.189248752706102
 10
0.2391502597180814
 20
0.1933410255347275
 10
0.2403299349360308
 20
0.19562992303635
 10
0.2415790031783424
 20
0.1965316106998609
 10
0.2430362484283423
 20
0.1979881825657059
 10
0.2448404567347506
 20
0.1984737060758196
 10
0.2457425619206541
 20
0.1981962646424046
 10
0.2455516391937406
 20
0.1992601745395166
 10
0.2458387058960058
 20
0.2000253310437376
 10
0.2469152065458593
 20
0.2003839977794878
 10
0.2480873926541511
 20
0.2004079086281056
 10
0.249642337119323
 20
0.200144886622321
 10
0.2510537472006631
 20
0.1995471073939096
 10
0.2515800358105924
 20
0.1985667505811301
 10
0.2518910238774683
 20
0.1974429273411589
 10
0.2520345582613002
 20
0.1968212372641296
 10
0.2519627900366896
 20
0.1961517254898648
 10
0.2521063244205168
 20
0.1953387472884082
 10
0.2528479135734944
 20
0.1943823013242465
 10
0.2535655792964675
 20
0.1937127895499912
 10
0.2537808777741268
 20
0.1927085218885938
 10
0.2535177345018618
 20
0.1918955423516334
 10
0.2528000687788838
 20
0.1907717191116622
 10
0.2516757253998136
 20
0.1897913622988827
 10
0.2500250913454203
 20
0.1890262057946617
 10
0.2499506897466188
 20
0.1878216233429639
 10
0.2495200907259107
 20
0.1866978001029926
 10
0.2490894917052075
 20
0.185454421284438
 10
0.248204368168398
 20
0.1845457970175025
 10
0.2471757143785444
 20
0.1839001960918649
 10
0.2457882256618149
 20
0.1836371740860803
 10
0.2447356484419613
 20
0.1836132632374625
 10
0.2442332832620368
 20
0.1836132632374625
 10
0.2436830712221078
 20
0.1836132632374625
 10
0.243946216559767
 20
0.1842588641631095
 10
0.2439701379243777
 20
0.1848805529046349
  0
LWPOLYLINE
  5
323D
330
2
100
AcDbEntity
  8
0
  6
Continuous
 62
     1
370
     0
100
AcDbPolyline
 90
        6
 70
   128
 43
0.0
 10
0.2442093598320322
 20
0.1848566420560171
 10
0.2449748703496206
 20
0.1852392209758891
 10
0.2454533162303282
 20
0.1857891771715705
 10
0.2455968485487662
 20
0.1864825997944437
 10
0.2457643042972041
 20
0.1877259786129983
 10
0.2457164595025935
 20
0.1889693587670568
  0
LWPOLYLINE
  5
323E
330
2
100
AcDbEntity
  8
0
  6
Continuous
 62
     1
370
     0
100
AcDbPolyline
 90
       17
 70
   128
 43
0.0
 10
0.244639960918134
 20
0.1901888267369935
 10
0.2451423260980585
 20
0.1894236702327726
 10
0.2461709819533013
 20
0.1892084699242236
 10
0.2478694587369114
 20
0.1894954041141204
 10
0.2488263463675484
 20
0.1899975372770624
 10
0.2497593126335699
 20
0.1913604730097043
 10
0.2500942241304507
 20
0.1923647406711015
 10
0.2497593126335699
 20
0.1929386077153914
 10
0.2487785015729377
 20
0.193536385608299
 10
0.2479412248961327
 20
0.1940385201067543
 10
0.2470561034247171
 20
0.1938711428309352
 10
0.2466015809740091
 20
0.1933690083324894
 10
0.2461949033179122
 20
0.1927473182554602
 10
0.2457882256618149
 20
0.1921495403625526
 10
0.2451662495280584
 20
0.1916713167127151
 10
0.24466388228274
 20
0.1910974496684252
 10
0.2444964265343021
 20
0.190308382315577
  0
LWPOLYLINE
  5
323F
330
2
100
AcDbEntity
  8
0
  6
Continuous
 62
     1
370
     0
100
AcDbPolyline
 90
        2
 70
   128
 43
0.0
 10
0.2466747660572055
 20
0.1850790861337195
 10
0.2464833889441568
 20
0.1888283523366845
  0
LWPOLYLINE
  5
3240
330
2
100
AcDbEntity
  8
0
  6
Continuous
 62
     1
370
     0
100
AcDbPolyline
 90
        3
 70
   128
 43
0.0
 10
0.2484737158767975
 20
0.1866093991421804
 10
0.2483206145994392
 20
0.1875658451063327
 10
0.2477082053592138
 20
0.1882927434514742
  0
LWPOLYLINE
  5
3241
330
2
100
AcDbEntity
  8
0
  6
Continuous
 62
     1
370
     0
100
AcDbPolyline
 90
        4
 70
   128
 43
0.0
 10
0.2491627077692744
 20
0.1938501046496208
 10
0.250157871235597
 20
0.1948448087728714
 10
0.2509616575888665
 20
0.1954186758171611
 10
0.2517654439421404
 20
0.1962603473040656
  0
LWPOLYLINE
  5
3242
330
2
100
AcDbEntity
  8
0
  6
Continuous
 62
     1
370
     0
100
AcDbPolyline
 90
        3
 70
   128
 43
0.0
 10
0.2485885743647344
 20
0.1944622298529994
 10
0.2502344229069684
 20
0.1956864802597663
 10
0.2511147588662295
 20
0.1972167932682177
  0
LWPOLYLINE
  5
3243
330
2
100
AcDbEntity
  8
0
  6
Continuous
 62
     1
370
     0
100
AcDbPolyline
 90
        7
 70
   128
 43
0.0
 10
0.2475168592270404
 20
0.1943091985521572
 10
0.247555135062726
 20
0.1949213237555358
 10
0.2479378913542171
 20
0.195801254737033
 10
0.247976167189903
 20
0.1969107306665332
 10
0.2476316867341021
 20
0.197714145329843
 10
0.2467513487094519
 20
0.1979436916133593
 10
0.2463685944833546
 20
0.198058466090626
  0
LWPOLYLINE
  5
3244
330
2
100
AcDbEntity
  8
0
  6
Continuous
 62
     1
370
     0
100
AcDbPolyline
 90
        5
 70
   128
 43
0.0
 10
0.2441103387662895
 20
0.1903303847301721
 10
0.2431917249059536
 20
0.1900625802875764
 10
0.2420051843265822
 20
0.1901008384466558
 10
0.2411248463019319
 20
0.1904451592074387
 10
0.2407420920758347
 20
0.190674705490955
  0
LWPOLYLINE
  5
3245
330
2
100
AcDbEntity
  8
0
  6
Continuous
 62
     1
370
     0
100
AcDbPolyline
 90
        4
 70
   128
 43
0.0
 10
0.239976581558251
 20
0.1872697600487729
 10
0.2405507128973969
 20
0.1882644628365102
 10
0.2414693267577328
 20
0.1887235567390466
 10
0.242426214388365
 20
0.1891443924825036
  0
LWPOLYLINE
  5
3246
330
2
100
AcDbEntity
  8
0
  6
Continuous
 62
     1
370
     0
100
AcDbPolyline
 90
        4
 70
   128
 43
0.0
 10
0.2455648081300854
 20
0.1959160278787864
 10
0.2446079204994482
 20
0.1959542847023715
 10
0.2436127549677364
 20
0.1959160278787864
 10
0.2424644902240555
 20
0.1961073160032139
  0
LWPOLYLINE
  5
3247
330
2
100
AcDbEntity
  8
0
  6
Continuous
 62
     1
370
     0
100
AcDbPolyline
 90
       10
 70
   128
 43
0.0
 10
0.2400703400063994
 20
0.1444063653748973
 10
0.2402361372454457
 20
0.1437671601738991
 10
0.2406624712326583
 20
0.1436487878511199
 10
0.241207232704357
 20
0.144264319923068
 10
0.2415388251170604
 20
0.1454717096024101
 10
0.2431731095321616
 20
0.1536156693185653
 10
0.2443520928439526
 20
0.1598662795241726
 42
-0.1877626103121123
 10
0.2548911083329282
 20
0.1768252398818732
 42
-0.2975275848848335
 10
0.2637704309602991
 20
0.1774048348992294
 42
-0.1126695967390892
 10
0.2684136624258837
 20
0.1731856692376466
 42
0.5218682246024878
  0
LWPOLYLINE
  5
3248
330
2
100
AcDbEntity
  8
0
  6
Continuous
 62
     1
370
     0
100
AcDbPolyline
 90
       20
 70
   128
 43
0.0
 10
0.2391571705181123
 20
0.1439832712956041
 10
0.2397770007100774
 20
0.1420361343951959
 10
0.2404558618571346
 20
0.1412985827413336
 10
0.241046177604246
 20
0.1412985827413336
 10
0.2416069768411144
 20
0.142006633130349
 10
0.2423153544984144
 20
0.1437177532344155
 10
0.2432893724863351
 20
0.1480545580275361
 10
0.2449752958202746
 20
0.1555901132521299
 10
0.2460968942940113
 20
0.1600449271111779
 42
-0.146957342712426
 10
0.2534887302087168
 20
0.1724666156380873
 42
-0.3428041273319609
 10
0.2647925725706837
 20
0.173391976430639
 42
-0.4500336093659536
 10
0.2646068257149208
 20
0.1602471676970415
 42
-0.4721297501046006
 10
0.2584760620980571
 20
0.161575204061045
 42
-0.2784131734806048
 10
0.2587130100096504
 20
0.1676057821076696
 42
-0.4993260735605439
 10
0.2641610316087901
 20
0.1678592739628844
 42
0.8536964465549932
 10
0.2601221894681489
 20
0.163018800178168
 42
0.2140394811897069
 10
0.2624016133829257
 20
0.1623761841020986
 42
0.6683126709382457
 10
0.2637152395680435
 20
0.1712754389671356
 42
0.3074607588483795
 10
0.2550594274150233
 20
0.1710526449876008
 42
0.138495124126138
 10
0.248148127557253
 20
0.1640035147377687
 42
1.173477404645987
  0
LWPOLYLINE
  5
3249
330
2
100
AcDbEntity
  8
0
  6
Continuous
 62
     1
370
     0
100
AcDbPolyline
 90
        8
 70
   128
 43
0.0
 10
0.2465706248858763
 20
0.1599825858235626
 10
0.2483704132544273
 20
0.1589032121353383
 10
0.2489360620305947
 20
0.158389225046331
 10
0.2505815821755737
 20
0.1590574093304445
 10
0.2524327925968555
 20
0.1591602056798467
 10
0.2541297368599544
 20
0.158389225046331
 10
0.2551067641233189
 20
0.1573098513580972
 10
0.2553638764523427
 20
0.1560762818102704
  0
LWPOLYLINE
  5
324A
330
2
100
AcDbEntity
  8
0
  6
Continuous
 62
     1
370
     0
100
AcDbPolyline
 90
        2
 70
   128
 43
0.0
 10
0.2466734710567222
 20
0.1540203321187183
 10
0.2481133009254081
 20
0.1577210420977118
  0
LWPOLYLINE
  5
324B
330
2
100
AcDbEntity
  8
0
  6
Continuous
 62
     1
370
     0
100
AcDbPolyline
 90
        2
 70
   128
 43
0.0
 10
0.2475990762673605
 20
0.1548941117726439
 10
0.2487303717542967
 20
0.1574126490430032
  0
LWPOLYLINE
  5
324C
330
2
100
AcDbEntity
  8
0
  6
Continuous
 62
     1
370
     0
100
AcDbPolyline
 90
        8
 70
   128
 43
0.0
 10
0.2488846399778685
 20
0.1554080988616513
 10
0.2504273139520066
 20
0.1566416684094875
 10
0.2519185679388078
 20
0.1571042573237984
 10
0.2535126660310658
 20
0.1567958642690899
 10
0.2541811589126803
 20
0.1562304776698729
 10
0.2526899049258793
 20
0.155922085950668
 10
0.2507872724518716
 20
0.1557164905808654
 10
0.2498102451885071
 20
0.1556650924061597
  0
LWPOLYLINE
  5
324D
330
2
100
AcDbEntity
  8
0
  6
Continuous
 62
     1
370
     0
100
AcDbPolyline
 90
       11
 70
   128
 43
0.0
 10
0.2391187108625785
 20
0.1446985427502079
 10
0.2382110745581824
 20
0.1447439031151202
 10
0.2374849675800567
 20
0.1447439031151202
 10
0.2367134777540125
 20
0.1447439031151202
 10
0.2363050424497306
 20
0.1451975107706598
 10
0.2362596616672061
 20
0.1465129720368907
 10
0.2365773333410499
 20
0.1472841049177671
 10
0.2365773333410499
 20
0.1475562684426972
 10
0.235669699102043
 20
0.1475109080777944
 10
0.2351251173194044
 20
0.1475109080777944
 10
0.2345351547542462
 20
0.1475109080777944
  0
LWPOLYLINE
  5
324E
330
2
100
AcDbEntity
  8
0
  6
Continuous
 62
     1
370
     0
100
AcDbPolyline
 90
        9
 70
   128
 43
0.0
 10
0.2388464199712592
 20
0.1475109080777944
 10
0.2379841665147768
 20
0.1475562684426972
 10
0.2382110745581824
 20
0.1482820409586708
 10
0.2384833654495017
 20
0.1492799769995745
 10
0.2383926018190636
 20
0.1500057481800442
 10
0.2376664948409332
 20
0.1507315206960177
 10
0.2364865697106117
 20
0.1512304887164695
 10
0.2355335526236912
 20
0.1510036842209383
 10
0.2341721022978779
 20
0.1504593558355838
  0
LWPOLYLINE
  5
324F
330
2
100
AcDbEntity
  8
0
  6
Continuous
 62
     1
370
     0
100
AcDbPolyline
 90
        7
 70
   128
 43
0.0
 10
0.238982564384222
 20
0.1479191540329368
 10
0.2388464199712592
 20
0.1495975022249018
 10
0.2393456189059841
 20
0.1505500779009027
 10
0.2401171087320235
 20
0.1508222414258233
 10
0.2412970338623496
 20
0.1506407986307082
 10
0.2419323772100372
 20
0.1502779130404687
 10
0.2421139044709137
 20
0.149733584655114
  0
LWPOLYLINE
  5
3250
330
2
100
AcDbEntity
  8
0
  6
Continuous
 62
     1
370
     0
100
AcDbPolyline
 90
        2
 70
   128
 43
0.0
 10
0.2422046681013565
 20
0.150504716200496
 10
0.2421592852534382
 20
0.1586696499938103
  0
LWPOLYLINE
  5
3251
330
2
100
AcDbEntity
  8
0
  6
Continuous
 62
     1
370
     0
100
AcDbPolyline
 90
       10
 70
   128
 43
0.0
 10
0.2398901986232289
 20
0.1474655477128917
 10
0.2400717258841098
 20
0.1482366792582641
 10
0.2404347804058672
 20
0.1488717297089283
 10
0.2411155066014687
 20
0.148735647278716
 10
0.2412062702319115
 20
0.1481459585284586
 10
0.2411608873839932
 20
0.1472387432173604
 10
0.240979360123112
 20
0.1468304972622275
 10
0.2407978328622357
 20
0.1466944148320153
 10
0.2398901986232289
 20
0.1471026607871482
 10
0.2392094724276276
 20
0.1472387432173604
  0
LWPOLYLINE
  5
3252
330
2
100
AcDbEntity
  8
0
  6
Continuous
 62
     1
370
     0
100
AcDbPolyline
 90
        3
 70
   128
 43
0.0
 10
0.2402986339275108
 20
0.1445624603199956
 10
0.2407978328622357
 20
0.1451067887053503
 10
0.2409339793405922
 20
0.1460593643813511
  0
LWPOLYLINE
  5
3253
330
2
100
AcDbEntity
  8
0
  6
Continuous
 62
     1
370
     0
100
AcDbPolyline
 90
        8
 70
   128
 43
0.0
 10
0.237514254831838
 20
0.1519508644641648
 10
0.2372739506590249
 20
0.1531117946594938
 10
0.2357920797459067
 20
0.1530317299094166
 10
0.2345905630126092
 20
0.1538724037754542
 10
0.233949752573564
 20
0.1549933009280068
 10
0.2339898046459605
 20
0.1562743262452003
 10
0.2348308651200334
 20
0.1555537488365217
 10
0.2360724339257274
 20
0.154793141056065
  0
LWPOLYLINE
  5
3254
330
2
100
AcDbEntity
  8
0
  6
Continuous
 62
     1
370
     0
100
AcDbPolyline
 90
       23
 70
   128
 43
0.0
 10
0.2351112192998541
 20
0.1557539100439673
 10
0.235271421393268
 20
0.1570749670684427
 10
0.2364328881195583
 20
0.1581958642209857
 10
0.2355918276454853
 20
0.1607178831480909
 10
0.2344704109261979
 20
0.1646009921424666
 10
0.2335492483727259
 20
0.1678435871427369
 10
0.233869652559554
 20
0.1705657672772781
 10
0.2347107150990159
 20
0.1716866644298213
 10
0.2359522818393207
 20
0.1715265362651803
 10
0.2359120273585548
 20
0.1741837601969185
 10
0.2365528377976
 20
0.1755048185568977
 10
0.2369132919914309
 20
0.1757049784288395
 10
0.2368331919774206
 20
0.1770660684961101
 10
0.2367130398910093
 20
0.1784271572278768
 10
0.2370334440778376
 20
0.1794279592585554
 10
0.238395162904549
 20
0.1797882472951474
 10
0.2395566296308391
 20
0.1799483754597978
 10
0.2402775400838945
 20
0.1810692726123409
 10
0.2406379963431191
 20
0.1820700733075251
 10
0.240878298450543
 20
0.1826705542588351
 10
0.2410785526163536
 20
0.1833110669174272
 10
0.2406379963431191
 20
0.1837914514113783
 10
0.2406780463501265
 20
0.1842718359053295
  0
LWPOLYLINE
  5
3255
330
2
100
AcDbEntity
  8
0
  6
Continuous
 62
     1
370
     0
100
AcDbPolyline
 90
       16
 70
   128
 43
0.0
 10
0.2434815860829486
 20
0.1835112267893689
 10
0.2426405235434867
 20
0.1809491761549724
 10
0.2423201193566586
 20
0.1799884071670797
 10
0.2421999672702519
 20
0.1791877663438374
 10
0.2431611818961207
 20
0.1790676698864688
 10
0.2439621923631907
 20
0.1786673501425948
 10
0.2443226486224154
 20
0.1779067410266438
 10
0.2442024965360041
 20
0.1767057791240141
 10
0.24368183818337
 20
0.1755048185568977
 10
0.2432813339825321
 20
0.1742638249469957
 10
0.2430810798167215
 20
0.170460780702697
 10
0.243201231903128
 20
0.1685792744341934
 10
0.2436840109752489
 20
0.1656350562149051
 10
0.243523808881835
 20
0.1627927809585088
 10
0.2434036567954283
 20
0.1606310500679864
 10
0.2425225442489589
 20
0.1589897367142102
  0
LWPOLYLINE
  5
3256
330
2
100
AcDbEntity
  8
0
  6
Continuous
 62
     1
370
     0
100
AcDbPolyline
 90
        8
 70
   128
 43
0.0
 10
0.2421220379827269
 20
0.161952108427975
 10
0.2416414317024895
 20
0.1631130372878096
 10
0.2416414317024895
 20
0.1646742872270124
 10
0.2420819879757243
 20
0.1658352160868469
 10
0.2425625942559663
 20
0.1654348963429728
 10
0.2426827463423728
 20
0.1644741273550802
 10
0.242762848421772
 20
0.1635133583671779
 10
0.2423623421555449
 20
0.1623123964645576
  0
LWPOLYLINE
  5
3257
330
2
100
AcDbEntity
  8
0
  6
Continuous
 62
     1
370
     0
100
AcDbPolyline
 90
       10
 70
   128
 43
0.0
 10
0.2411608254222474
 20
0.1586294486776276
 10
0.2397991045301466
 20
0.1587495437994827
 10
0.2383172336170285
 20
0.1595101529154432
 10
0.2373960710635518
 20
0.1617519472205389
 10
0.2369154647833096
 20
0.1634332936171008
 10
0.2369154647833096
 20
0.1666758899528845
 10
0.2376363752363699
 20
0.1693580370446305
 10
0.2376764252433725
 20
0.170518965904465
 10
0.2369154647833096
 20
0.1712395433131341
 10
0.236314706416661
 20
0.1714397031850758
  0
LWPOLYLINE
  5
3258
330
2
100
AcDbEntity
  8
0
  6
Continuous
 62
     1
370
     0
100
AcDbPolyline
 90
        4
 70
   128
 43
0.0
 10
0.2378796287882798
 20
0.1714126298649661
 10
0.2382400850474997
 20
0.17345426429812
 10
0.2386405913137317
 20
0.1748954177799639
 10
0.237439072515045
 20
0.1760563466397984
  0
LWPOLYLINE
  5
3259
330
2
100
AcDbEntity
  8
0
  6
Continuous
 62
     1
370
     0
100
AcDbPolyline
 90
       11
 70
   128
 43
0.0
 10
0.2424453956794347
 20
0.1707721172063741
 10
0.2412038268737406
 20
0.1709722770783063
 10
0.240763270600506
 20
0.1709322453710244
 10
0.2406030685070918
 20
0.1714126298649661
 10
0.2411637768667331
 20
0.1726135917675957
 10
0.2415642831329605
 20
0.17345426429812
 10
0.2417244852263746
 20
0.1746952579080316
 10
0.2417244852263746
 20
0.1757761233532928
 10
0.2412839289531398
 20
0.1775375331644374
 10
0.2406831705864911
 20
0.1788986218962042
 10
0.2397219559606225
 20
0.1796191993048734
  0
LWPOLYLINE
  5
325A
330
2
100
AcDbEntity
  8
0
  6
Continuous
 62
     1
370
     0
100
AcDbPolyline
 90
        2
 70
   128
 43
0.0
 10
0.2419647873337986
 20
0.1787785267743396
 10
0.2415642831329605
 20
0.1779778859510972
  0
LWPOLYLINE
  5
325B
330
2
100
AcDbEntity
  8
0
  6
Continuous
 62
     1
370
     0
100
AcDbPolyline
 90
        7
 70
   128
 43
0.0
 10
0.2421249894272128
 20
0.1765767641765352
 10
0.2424854456864373
 20
0.1761764430971668
 10
0.242765799866258
 20
0.1761364113898754
 10
0.24316630613249
 20
0.1768169557557588
 10
0.2432864561535075
 20
0.1775375331644374
 10
0.2430862040530861
 20
0.17789782120102
 10
0.2427257498592554
 20
0.1783381739876798
  0
LWPOLYLINE
  5
325C
330
2
100
AcDbEntity
  8
0
  6
Continuous
 62
     1
370
     0
100
AcDbPolyline
 90
        2
 70
   128
 43
0.0
 10
0.2423652936000306
 20
0.1711324052429567
 10
0.2421650414996092
 20
0.174855386072682
  0
LWPOLYLINE
  5
325D
330
2
100
AcDbEntity
  8
0
  6
Continuous
 62
     1
370
     0
100
AcDbPolyline
 90
        4
 70
   128
 43
0.0
 10
0.2378738601497547
 20
0.1543392516093505
 10
0.238835074775628
 20
0.1555402135119707
 10
0.2393156810558703
 20
0.1569013022437469
 10
0.2393557310628728
 20
0.157621879652416
  0
LWPOLYLINE
  5
325E
330
2
100
AcDbEntity
  8
0
  6
Continuous
 62
     1
370
     0
100
AcDbPolyline
 90
        4
 70
   128
 43
0.0
 10
0.2406373498755742
 20
0.1527780016701475
 10
0.2411980582352157
 20
0.1544593480667189
 10
0.2411980582352157
 20
0.1559405332558447
 10
0.2405972998685668
 20
0.1575818479451341
  0
LWPOLYLINE
  5
325F
330
2
100
AcDbEntity
  8
0
  6
Continuous
 62
     1
370
     0
100
AcDbPolyline
 90
       29
 70
   128
 43
0.0
 10
0.2372719472292463
 20
0.1418663051355803
 10
0.2368313909560115
 20
0.1405452481110955
 10
0.2359502784095421
 20
0.1400248319098625
 10
0.2350291158560653
 20
0.1399447671597853
 10
0.2346286095898382
 20
0.1397045755805617
 10
0.2349089637696588
 20
0.1389039347573193
 10
0.2349890658490627
 20
0.1381032939340675
 10
0.234067901230192
 20
0.136702172159515
 10
0.2340278512231894
 20
0.1348206658910114
 10
0.2349890658490627
 20
0.1342602166469832
 10
0.2363107346687669
 20
0.1345804729762838
 10
0.2360303804889463
 20
0.1334996075310226
 10
0.2358301263231357
 20
0.1321385187992559
 10
0.2362306325893628
 20
0.130697365317412
 10
0.2366711888625976
 20
0.1288558907561903
 10
0.2373119972362538
 20
0.1278951217682976
 10
0.2388739702287758
 20
0.1280952816402299
 10
0.2393545765090132
 20
0.1289359541707636
 10
0.2398752348616517
 20
0.130617300567335
 10
0.240355841141894
 20
0.1318582941772466
 10
0.2406762453287172
 20
0.1330592560798668
 10
0.2411969036813559
 20
0.1332994476590904
 10
0.2419178141344113
 20
0.1334195441164494
 10
0.2421180662348327
 20
0.134660537726361
 10
0.2420780162278253
 20
0.1357414031716128
 10
0.2417175620339946
 20
0.1369023320314473
 10
0.2417976620480046
 20
0.1390240298791745
 10
0.2409165495015352
 20
0.1396245108304845
 10
0.2407563474081213
 20
0.1406653445684639
  0
LWPOLYLINE
  5
3260
330
2
100
AcDbEntity
  8
0
  6
Continuous
 62
     1
370
     0
100
AcDbPolyline
 90
        4
 70
   128
 43
0.0
 10
0.2372318972222438
 20
0.1341401201896242
 10
0.2378727055958951
 20
0.1352610186776711
 10
0.2386336660559578
 20
0.1375828763973306
 10
0.2387137681353619
 20
0.1400648636171443
  0
LWPOLYLINE
  5
3261
330
2
100
AcDbEntity
  8
0
  6
Continuous
 62
     1
370
     0
100
AcDbPolyline
 90
        4
 70
   128
 43
0.0
 10
0.2364308846897842
 20
0.135301050384953
 10
0.2374321493226603
 20
0.1373026531108251
 10
0.2378727055958951
 20
0.1391441263365429
 10
0.2381130097687129
 20
0.1410656643123285
  0
LWPOLYLINE
  5
3262
330
2
100
AcDbEntity
  8
0
  6
Continuous
 62
     1
370
     0
100
AcDbPolyline
 90
        3
 70
   128
 43
0.0
 10
0.2404759932283007
 20
0.1334595758237408
 10
0.2398752348616517
 20
0.1365020109520694
 10
0.2392344264879957
 20
0.1395044157086295
  0
LWPOLYLINE
  5
3263
330
2
100
AcDbEntity
  8
0
  6
Continuous
 62
     1
370
     0
100
AcDbPolyline
 90
        3
 70
   128
 43
0.0
 10
0.2435326446267664
 20
0.1322012540603015
 10
0.2432181185442117
 20
0.1368271325193902
 10
0.2425890684444962
 20
0.1386685015758569
  0
LWPOLYLINE
  5
3264
330
2
100
AcDbEntity
  8
0
  6
Continuous
 62
     1
370
     0
100
AcDbPolyline
 90
        5
 70
   128
 43
0.0
 10
0.2425890684444962
 20
0.1423961513246436
 10
0.2439819664216207
 20
0.1423063280529556
 10
0.2440718316067482
 20
0.1430698231912483
 10
0.2438921033018872
 20
0.1441926087452663
 10
0.2434877120342051
 20
0.1446417237681739
  0
LWPOLYLINE
  5
3265
330
2
100
AcDbEntity
  8
0
  6
Continuous
 62
     1
370
     0
100
AcDbPolyline
 90
        3
 70
   128
 43
0.0
 10
0.2439370358944485
 20
0.1446866354040178
 10
0.2438921033018872
 20
0.1471567646912547
 10
0.2434877120342051
 20
0.1480549934015756
  0
LWPOLYLINE
  5
3266
330
2
100
AcDbEntity
  8
0
  6
Continuous
 62
     1
370
     0
100
AcDbPolyline
 90
       14
 70
   128
 43
0.0
 10
0.2400272084352426
 20
0.1205523557736947
 10
0.239892410657549
 20
0.1224835481018494
 10
0.2400272084352426
 20
0.1241901822507936
 10
0.2404765302300968
 20
0.1245045623661787
 10
0.2404765302300968
 20
0.1251782342327834
 10
0.2404765302300968
 20
0.1263908430584893
 10
0.2404765302300968
 20
0.1273339834046446
 10
0.2405214628226584
 20
0.1278280100633867
 10
0.2403866650449695
 20
0.1293999106403123
 10
0.240656258534958
 20
0.131016721517578
 10
0.2413302412272395
 20
0.1315556598121735
 10
0.2421839542897807
 20
0.1317353050200267
 10
0.2432623282497443
 20
0.1315107481763296
 10
0.244160971839453
 20
0.131016721517578
  0
LWPOLYLINE
  5
3267
330
2
100
AcDbEntity
  8
0
  6
Continuous
 62
     1
370
     0
100
AcDbPolyline
 90
        3
 70
   128
 43
0.0
 10
0.2428130064548901
 20
0.1218996995069137
 10
0.2430376673523171
 20
0.1259866410069201
 10
0.2429927347597511
 20
0.1283669470224785
  0
LWPOLYLINE
  5
3268
330
2
100
AcDbEntity
  8
0
  6
Continuous
 62
     1
370
     0
100
AcDbPolyline
 90
        3
 70
   128
 43
0.0
 10
0.2410157172100786
 20
0.1276034518841858
 10
0.2417795650874878
 20
0.1279627436354149
 10
0.2421839542897807
 20
0.1272441614684605
  0
LWPOLYLINE
  5
3269
330
2
100
AcDbEntity
  8
0
  6
Continuous
 62
     1
370
     0
100
AcDbPolyline
 90
        4
 70
   128
 43
0.0
 10
0.2408359868398237
 20
0.1246392972737011
 10
0.2415549041900606
 20
0.1247740308457198
 10
0.2421839542897807
 20
0.1242800055224721
 10
0.2422288868823421
 20
0.1241452706149496
  0
LWPOLYLINE
  5
326A
330
2
100
AcDbEntity
  8
0
  6
Continuous
 62
     1
370
     0
100
AcDbPolyline
 90
        2
 70
   128
 43
0.0
 10
0.2433521934348719
 20
0.1293100873686338
 10
0.2436217848594712
 20
0.1309268995814033
  0
LWPOLYLINE
  5
326B
330
2
100
AcDbEntity
  8
0
  6
Continuous
 62
     1
370
     0
100
AcDbPolyline
 90
        5
 70
   128
 43
0.0
 10
0.2232453632508024
 20
0.1676339305078114
 10
0.2242605031839244
 20
0.172402877414169
 10
0.2244635311705498
 20
0.1777806254565259
 10
0.2242605031839244
 20
0.183462776070143
 10
0.2240574751972992
 20
0.1872170530809695
  0
LWPOLYLINE
  5
326C
330
2
100
AcDbEntity
  8
0
  6
Continuous
 62
     1
370
     0
100
AcDbPolyline
 90
        2
 70
   128
 43
0.0
 10
0.1869352329631188
 20
0.1966900921891062
 10
0.1880628252030594
 20
0.1974790406821706
  0
LWPOLYLINE
  5
326D
330
2
100
AcDbEntity
  8
0
  6
Continuous
 62
     1
370
     0
100
AcDbPolyline
 90
        3
 70
   128
 43
0.0
 10
0.1884011032881196
 20
0.1944359524927828
 10
0.1904307676676895
 20
0.1939851253548204
 10
0.1925731900320233
 20
0.1940978324731846
  0
LWPOLYLINE
  5
326E
330
2
100
AcDbEntity
  8
0
  6
Continuous
 62
     1
370
     0
100
AcDbPolyline
 90
        2
 70
   128
 43
0.0
 10
0.1884011032881196
 20
0.1925199341515613
 10
0.1900924895826339
 20
0.1918436927768705
  0
DIMENSION
  5
3279
330
2
100
AcDbEntity
  8
Dimensione
100
AcDbDimension
  2
*D18
 10
0.1010771929789031
 20
0.2002404351960584
 30
0.0
 11
0.1010771929789031
 21
0.1560899279816154
 31
0.0
 70
    32
  1
300 mm
 71
     5
 42
0.088301014428886
  3
Bovelacci
100
AcDbAlignedDimension
 13
0.1752508731936731
 23
0.1119394207671724
 33
0.0
 14
0.139449963120781
 24
0.2002404351960584
 34
0.0
 50
90.0
100
AcDbRotatedDimension
  0
LWPOLYLINE
  5
32E7
330
2
100
AcDbEntity
  8
0
  6
Continuous
 62
     1
370
     0
100
AcDbPolyline
 90
       34
 70
   128
 43
0.0
 10
0.1752508731940731
 20
0.1119394207671064
 42
-0.8007191513799103
 10
0.1748643806093217
 20
0.1187242522701385
 42
0.1237552028959039
 10
0.1766237781848931
 20
0.1197400409340062
 10
0.1736812293374392
 20
0.1540221110089361
 10
0.1723769882738974
 20
0.1553263520724731
 10
0.1721079008223307
 20
0.1558622166794068
 10
0.1651702878765648
 20
0.1563161047906176
 10
0.1641107255025853
 20
0.1569212893840697
 10
0.1631016185780987
 20
0.1582829537177022
 10
0.1614618195676325
 20
0.1592663781812397
 42
-0.6553769846132642
 10
0.1494687891009962
 20
0.1761607162119236
 42
0.2110199460729311
 10
0.1450690817536135
 20
0.1811232269400945
 42
0.0898395180014138
 10
0.1414325324428707
 20
0.1898537944007109
 42
-0.3017670883996293
 10
0.1371895635273135
 20
0.198747648490958
 42
-0.4502469052324615
 10
0.139449963120781
 20
0.2002404351960584
 42
0.0983842267423906
 10
0.219242456857257
 20
0.2147527831416999
 42
-0.0961326970975885
 10
0.2345242226369199
 20
0.213209063017008
 42
0.0819904518326952
 10
0.2351006981954386
 20
0.2092405272273576
 42
0.1573962916908429
 10
0.2791760252232769
 20
0.1930037442111259
 42
-0.3005892628028119
 10
0.2752882809302204
 20
0.1841069720464641
 42
0.305244834580756
 10
0.2720143916514561
 20
0.1764373416529166
 42
0.2870890953247791
 10
0.268535884034593
 20
0.172858181158727
 42
-0.611374115231746
 10
0.2555185185117781
 20
0.1554337378513604
 42
-0.3776471162807607
 10
0.2499310210231542
 20
0.1530307776956704
 42
0.1237136383636191
 10
0.2464040489942276
 20
0.1532775506344709
 42
0.2497157929641012
 10
0.2459102737776408
 20
0.1528897632522752
 42
-0.3700516877096065
 10
0.246786039025461
 20
0.1498127839991464
 42
0.0842107467564301
 10
0.2444896830309823
 20
0.1413019308477628
 42
-0.1638339888494382
 10
0.2448071109886262
 20
0.1361549363837764
 42
0.0547063321655878
 10
0.2441017157566824
 20
0.1316072476283188
 42
0.1224485929576654
 10
0.2443825284534215
 20
0.1302155478285735
 42
-0.1067932883289089
 10
0.2447704957277214
 20
0.1285586384688629
 42
-0.1121516749707425
 10
0.2429717400549327
 20
0.1199568095065658
 42
-0.8573080321674435
 10
0.2449083730041987
 20
0.111798414336734
  0
LWPOLYLINE
  5
32E8
330
2
100
AcDbEntity
  8
Dimensione
 62
     1
100
AcDbPolyline
 90
        2
 70
     0
 43
0.0
 10
0.1752508731942644
 20
0.1119394207671344
 42
0.0310246077556336
 10
0.2449083730042011
 20
0.1117984143367281
 42
-1.612759963286634
  0
DIMENSION
  5
3311
330
2
100
AcDbEntity
  8
Dimensione
100
AcDbDimension
  2
*D21
 10
0.2234996716703947
 20
0.233270747849661
 30
0.0
 11
0.1794572882480435
 21
0.2250632325085853
 31
0.0
 70
    32
  1
350 mm
 71
     5
 42
0.0896012242236763
  3
Bovelacci
100
AcDbAlignedDimension
 13
0.1385112445575649
 23
0.2002404351960584
 33
0.0
 14
0.2269575407366637
 24
0.2147154617597603
 34
0.0
 50
10.5562627380345
100
AcDbRotatedDimension
  0
DIMENSION
  5
3365
330
2
100
AcDbEntity
  8
Dimensione
100
AcDbDimension
  2
*D22
 10
0.2366182124608091
 20
0.2309122727467676
 30
0.0
 11
0.2606307258703246
 21
0.2165183064626506
 31
0.0
 70
    32
  1
350 mm
 71
     5
 42
0.0559923946846521
  3
Bovelacci
100
AcDbAlignedDimension
 13
0.2791760252232769
 23
0.1930037442111258
 33
0.0
 14
0.2269139569233071
 24
0.214723297336928
 34
0.0
 50
149.0600080022291
100
AcDbRotatedDimension
  0
VIEWPORT
  5
7B
330
79
100
AcDbEntity
 67
     1
  8
0
100
AcDbViewport
 10
145.330337524414
 20
101.8116638660431
 30
0.0
 40
351.1337450215151
 41
222.1517806396485
 68
     1
 69
     1
 12
145.330337524414
 22
101.8116638660431
 13
0.0
 23
0.0
 14
10.0
 24
10.0
 15
10.0
 25
10.0
 16
0.0
 26
0.0
 36
1.0
 17
0.0
 27
0.0
 37
0.0
 42
50.0
 43
0.0
 44
0.0
 45
222.1517806396485
 50
0.0
 51
0.0
 72
  1000
 90
    32800
  1

281
     0
 71
     1
 74
     0
110
0.0
120
0.0
130
0.0
111
1.0
121
0.0
131
0.0
112
0.0
122
1.0
132
0.0
 79
     0
146
0.0
170
     0
  0
VIEWPORT
  5
80
330
79
100
AcDbEntity
 67
     1
  8
Sezione
100
AcDbViewport
 10
145.3303314447403
 20
101.8116623163223
 30
0.0
 40
232.5285303115845
 41
162.8986597061157
 68
     2
 69
     2
 12
0.2100067158578973
 22
0.1484909068076998
 13
0.0
 23
0.0
 14
10.0
 24
10.0
 15
10.0
 25
10.0
 16
0.0
 26
0.0
 36
1.0
 17
0.0
 27
0.0
 37
0.0
 42
50.0
 43
0.0
 44
0.0
 45
0.2752830087467564
 50
0.0
 51
0.0
 72
  1000
 90
    32864
  1

281
     0
 71
     1
 74
     0
110
0.0
120
0.0
130
0.0
111
1.0
121
0.0
131
0.0
112
0.0
122
1.0
132
0.0
 79
     0
146
0.0
170
     0
  0
ENDSEC
  0
SECTION
  2
OBJECTS
  0
DICTIONARY
  5
9
330
0
100
AcDbDictionary
281
     1
  3
ACAD_2007HEADERVARS_RT
350
14A
  3
ACAD_COLOR
350
A1
  3
ACAD_GROUP
350
9C
  3
ACAD_LAYOUT
350
78
  3
ACAD_MATERIAL
350
B
  3
ACAD_MLINESTYLE
350
9D
  3
ACAD_PLOTSETTINGS
350
9E
  3
ACAD_PLOTSTYLENAME
350
8
  3
ACAD_TABLESTYLE
350
A2
  3
ACAD_VISUALSTYLE
350
7F
  3
AcDbVariableDictionary
350
A9
  3
AEC_CLASSIFICATION_SYSTEM_DEFS
350
1217
  3
AEC_PROPERTY_SET_DEFS
350
10D
  3
ASE_INDEX_DICTIONARY
350
249E
  0
DICTIONARY
  5
8B
330
8A
100
AcDbDictionary
280
     1
281
     1
  3
ACAD_LAYERFILTERS
360
25D9
  3
ACAD_LAYERSTATES
360
8D
  3
ACLYDICTIONARY
360
25D8
  0
DICTIONARY
  5
3
330
2
100
AcDbDictionary
280
     1
281
     1
  3
ACAD_SORTENTS
360
A8
  0
DICTIONARY
  5
14A
102
{ACAD_REACTORS
330
9
102
}
330
9
100
AcDbDictionary
281
     1
  3
DIMFXL
350
14B
  0
DICTIONARY
  5
A1
102
{ACAD_REACTORS
330
9
102
}
330
9
100
AcDbDictionary
281
     1
  0
DICTIONARY
  5
9C
102
{ACAD_REACTORS
330
9
102
}
330
9
100
AcDbDictionary
281
     1
  0
DICTIONARY
  5
78
102
{ACAD_REACTORS
330
9
102
}
330
9
100
AcDbDictionary
281
     1
  3
Layout1
350
82
  3
Layout2
350
89
  3
Model
350
77
  0
DICTIONARY
  5
B
102
{ACAD_REACTORS
330
9
102
}
330
9
100
AcDbDictionary
281
     1
  3
ByBlock
350
A0
  3
ByLayer
350
9F
  3
Global
350
A
  0
DICTIONARY
  5
9D
102
{ACAD_REACTORS
330
9
102
}
330
9
100
AcDbDictionary
281
     1
  3
Standard
350
A3
  0
DICTIONARY
  5
9E
102
{ACAD_REACTORS
330
9
102
}
330
9
100
AcDbDictionary
281
     1
  0
ACDBDICTIONARYWDFLT
  5
8
102
{ACAD_REACTORS
330
9
102
}
330
9
100
AcDbDictionary
281
     1
  3
Normal
350
7
100
AcDbDictionaryWithDefault
340
7
  0
DICTIONARY
  5
A2
102
{ACAD_REACTORS
330
9
102
}
330
9
100
AcDbDictionary
281
     1
  3
Standard
350
A4
  0
DICTIONARY
  5
7F
102
{ACAD_REACTORS
330
9
102
}
330
9
100
AcDbDictionary
281
     1
  3
2dWireframe
350
7E
  3
3D Hidden
350
D8
  3
3dWireframe
350
A6
  3
Basic
350
D7
  3
Brighten
350
DB
  3
ColorChange
350
DF
  3
Conceptual
350
D9
  3
Dim
350
DA
  3
Facepattern
350
DE
  3
Flat
350
D3
  3
FlatWithEdges
350
D4
  3
Gouraud
350
D5
  3
GouraudWithEdges
350
D6
  3
Linepattern
350
DD
  3
Realistic
350
A5
  3
Thicken
350
DC
  0
DICTIONARY
  5
A9
102
{ACAD_REACTORS
330
9
102
}
330
9
100
AcDbDictionary
281
     1
  3
CTABLESTYLE
350
AA
  3
DIMASSOC
350
AE
  3
HIDETEXT
350
AD
  3
INDEXCTL
350
AC
  3
PROJECTNAME
350
16A
  3
SORTENTS
350
AB
  0
DICTIONARY
  5
1217
102
{ACAD_REACTORS
330
9
102
}
330
9
100
AcDbDictionary
281
     1
  0
DICTIONARY
  5
10D
102
{ACAD_REACTORS
330
9
102
}
330
9
100
AcDbDictionary
281
     1
  0
DICTIONARY
  5
249E
102
{ACAD_REACTORS
330
9
102
}
330
9
100
AcDbDictionary
281
     1
  3
ASEBlockHierarchyIndexRecord
350
24A0
1001
DCO15
1040
1602050354.187
  0
DICTIONARY
  5
25D9
102
{ACAD_REACTORS
330
8B
102
}
330
8B
100
AcDbDictionary
281
     1
  0
DICTIONARY
  5
8D
102
{ACAD_REACTORS
330
8B
102
}
330
8B
100
AcDbDictionary
281
     1
  0
DICTIONARY
  5
25D8
102
{ACAD_REACTORS
330
8B
102
}
330
8B
100
AcDbDictionary
281
     1
1001
ACAD
1000
<All
  0
SORTENTSTABLE
  5
A8
102
{ACAD_REACTORS
330
3
102
}
330
3
100
AcDbSortentsTable
330
2
331
3253
  5
3255
331
323D
  5
323F
331
321F
  5
3221
331
3201
  5
3203
331
31E3
  5
31E5
331
3262
  5
3264
331
31CD
  5
31CF
331
324C
  5
324E
331
322E
  5
3230
331
3210
  5
3212
331
31F2
  5
31F4
331
14
  5
10
331
23
  5
24
331
1CA
  5
1CA
331
3218
  5
321A
331
31FA
  5
31FC
331
31DC
  5
31DE
331
3279
  5
3289
331
325B
  5
325D
331
3245
  5
3247
331
3227
  5
3229
331
3209
  5
320B
331
31EB
  5
31ED
331
31D5
  5
31D7
331
326A
  5
326C
331
3236
  5
3238
331
D
  5
13
331
3254
  5
3256
331
323E
  5
3240
331
3220
  5
3222
331
3202
  5
3204
331
31E4
  5
31E6
331
31CE
  5
31D0
331
3263
  5
3265
331
324D
  5
324F
331
24
  5
18
331
322F
  5
3231
331
3211
  5
3213
331
31F3
  5
31F5
331
15
  5
11
331
3219
  5
321B
331
31FB
  5
31FD
331
31DD
  5
31DF
331
325C
  5
325E
331
31C7
  5
31C9
331
3246
  5
3248
331
3228
  5
322A
331
320A
  5
320C
331
31EC
  5
31EE
331
31D6
  5
31D8
331
326B
  5
326D
331
3237
  5
3239
331
1D
  5
1E
331
10F
  5
10F
331
3255
  5
3257
331
323F
  5
3241
331
3221
  5
3223
331
3203
  5
3205
331
31E5
  5
31E7
331
3264
  5
3266
331
31CF
  5
31D1
331
324E
  5
3250
331
25
  5
25
331
3230
  5
3232
331
3212
  5
3214
331
31F4
  5
31F6
331
16
  5
12
331
3238
  5
323A
331
321A
  5
321C
331
31FC
  5
31FE
331
31DE
  5
31E0
331
325D
  5
325F
331
31C8
  5
31CA
331
3247
  5
3249
331
3229
  5
322B
331
320B
  5
320D
331
31ED
  5
31EF
331
31D7
  5
31D9
331
326C
  5
326E
331
1E
  5
1F
331
110
  5
110
331
3256
  5
3258
331
3240
  5
3242
331
3222
  5
3224
331
3204
  5
3206
331
31E6
  5
31E8
331
3265
  5
3267
331
31D0
  5
31D2
331
324F
  5
3251
331
3231
  5
3233
331
3213
  5
3215
331
31F5
  5
31F7
331
17
  5
17
331
3239
  5
323B
331
321B
  5
321D
331
31FD
  5
31FF
331
31DF
  5
31E1
331
325E
  5
3260
331
3248
  5
324A
331
322A
  5
322C
331
320C
  5
320E
331
326D
  5
326F
331
31EE
  5
31F0
331
1F
  5
21
331
10
  5
14
331
31D8
  5
31DA
331
3257
  5
3259
331
3223
  5
3225
331
3205
  5
3207
331
31E7
  5
31E9
331
3266
  5
3268
331
31D1
  5
31D3
331
3232
  5
3234
331
31F6
  5
31F8
331
3214
  5
3216
331
3241
  5
3243
331
3250
  5
3252
331
323A
  5
323C
331
321C
  5
321E
331
31FE
  5
3200
331
31E0
  5
31E2
331
325F
  5
3261
331
31CA
  5
31CC
331
3249
  5
324B
331
322B
  5
322D
331
320D
  5
320F
331
31EF
  5
31F1
331
326E
  5
3270
331
11
  5
15
331
31D9
  5
31DB
331
3258
  5
325A
331
3242
  5
3244
331
3206
  5
3208
331
31E8
  5
31EA
331
3267
  5
3269
331
31D2
  5
31D4
331
3233
  5
3235
331
31F7
  5
31F9
331
3215
  5
3217
331
3224
  5
3226
331
3251
  5
3253
331
323B
  5
323D
331
321D
  5
321F
331
31FF
  5
3201
331
31E1
  5
31E3
331
3260
  5
3262
331
31CB
  5
31CD
331
324A
  5
324C
331
322C
  5
322E
331
320E
  5
3210
331
31F0
  5
31F2
331
32E7
  5
31C0
331
12
  5
16
331
21
  5
22
331
31F8
  5
31FA
331
31DA
  5
31DC
331
3259
  5
325B
331
3243
  5
3245
331
3207
  5
3209
331
31E9
  5
31EB
331
3268
  5
326A
331
31D3
  5
31D5
331
3234
  5
3236
331
3216
  5
3218
331
3225
  5
3227
331
3252
  5
3254
331
323C
  5
323E
331
321E
  5
3220
331
3200
  5
3202
331
31E2
  5
31E4
331
3261
  5
3263
331
31CC
  5
31CE
331
324B
  5
324D
331
322D
  5
322F
331
320F
  5
3211
331
31F1
  5
31F3
331
13
  5
D
331
22
  5
23
331
31F9
  5
31FB
331
31DB
  5
31DD
331
325A
  5
325C
331
3244
  5
3246
331
3208
  5
320A
331
31EA
  5
31EC
331
3269
  5
326B
331
31D4
  5
31D6
331
3235
  5
3237
331
3217
  5
3219
331
3226
  5
3228
  0
XRECORD
  5
14B
102
{ACAD_REACTORS
330
14A
102
}
330
14A
100
AcDbXrecord
280
     1
 40
0.18
  0
LAYOUT
  5
82
102
{ACAD_XDICTIONARY
360
83
102
}
102
{ACAD_REACTORS
330
78
102
}
330
78
100
AcDbPlotSettings
  1

  2
C:\Documents and Settings\All Users\Dati applicazioni\Autodesk\ADT 2006\enu\Plotters\Default Windows System Printer.pc3
  4
A4
  6

 40
3.174999952316281
 41
3.174999952316281
 42
3.175003051757812
 43
3.17498779296875
 44
209.9733276367186
 45
297.0106506347656
 46
0.0
 47
0.0
 48
0.0
 49
0.0
140
0.0
141
0.0
142
1.0
143
1.0
 70
   688
 72
     1
 73
     1
 74
     5
  7

 75
    16
147
1.0
 76
     0
 77
     2
 78
   300
148
0.0
149
0.0
100
AcDbLayout
  1
Layout1
 70
     1
 71
     1
 10
-3.17498779296875
 20
-3.174999952316281
 11
293.8356628417969
 21
206.7983276844024
 12
0.0
 22
0.0
 32
0.0
 14
29.06606628894805
 24
20.36233246326446
 34
0.0
 15
261.5945966005325
 25
183.2609921693802
 35
0.0
146
0.0
 13
0.0
 23
0.0
 33
0.0
 16
1.0
 26
0.0
 36
0.0
 17
0.0
 27
1.0
 37
0.0
 76
     0
330
79
331
7B
1001
ACAD_PSEXT
1000
C:\Documents and Settings\All Users\Dati applicazioni\Autodesk\ADT 2006\enu\Plotters\Default Windows System Printer.pc3
1000
Microsoft Office Document Image Writer Driver
1000
Microsoft Document Imaging Writer Port:
1000

1070
     0
  0
LAYOUT
  5
89
102
{ACAD_REACTORS
330
78
102
}
330
78
100
AcDbPlotSettings
  1

  2
C:\Documents and Settings\All Users\Dati applicazioni\Autodesk\ADT 2006\enu\Plotters\Default Windows System Printer.pc3
  4

  6

 40
0.0
 41
0.0
 42
0.0
 43
0.0
 44
0.0
 45
0.0
 46
0.0
 47
0.0
 48
0.0
 49
0.0
140
0.0
141
0.0
142
1.0
143
1.0
 70
   688
 72
     0
 73
     0
 74
     5
  7

 75
    16
147
1.0
 76
     0
 77
     2
 78
   300
148
0.0
149
0.0
100
AcDbLayout
  1
Layout2
 70
     1
 71
     2
 10
0.0
 20
0.0
 11
12.0
 21
9.0
 12
0.0
 22
0.0
 32
0.0
 14
0.0
 24
0.0
 34
0.0
 15
0.0
 25
0.0
 35
0.0
146
0.0
 13
0.0
 23
0.0
 33
0.0
 16
1.0
 26
0.0
 36
0.0
 17
0.0
 27
1.0
 37
0.0
 76
     0
330
86
  0
LAYOUT
  5
77
102
{ACAD_REACTORS
330
78
102
}
330
78
100
AcDbPlotSettings
  1

  2
C:\Documents and Settings\All Users\Dati applicazioni\Autodesk\ADT 2006\enu\Plotters\Default Windows System Printer.pc3
  4

  6

 40
0.0
 41
0.0
 42
0.0
 43
0.0
 44
0.0
 45
0.0
 46
0.0
 47
0.0
 48
0.0
 49
0.0
140
0.0
141
0.0
142
1.0
143
1.0
 70
  1712
 72
     0
 73
     0
 74
     0
  7

 75
     0
147
1.0
 76
     0
 77
     2
 78
   300
148
0.0
149
0.0
100
AcDbLayout
  1
Model
 70
     1
 71
     0
 10
0.0
 20
0.0
 11
12.0
 21
9.0
 12
0.0
 22
0.0
 32
0.0
 14
0.0
 24
0.0
 34
0.0
 15
0.0
 25
0.0
 35
0.0
146
0.0
 13
0.0
 23
0.0
 33
0.0
 16
1.0
 26
0.0
 36
0.0
 17
0.0
 27
1.0
 37
0.0
 76
     0
330
2
  0
MATERIAL
  5
A0
102
{ACAD_XDICTIONARY
360
C7
102
}
102
{ACAD_REACTORS
330
B
102
}
330
B
100
AcDbMaterial
  1
ByBlock
  0
MATERIAL
  5
9F
102
{ACAD_XDICTIONARY
360
C5
102
}
102
{ACAD_REACTORS
330
B
102
}
330
B
100
AcDbMaterial
  1
ByLayer
  0
MATERIAL
  5
A
102
{ACAD_XDICTIONARY
360
B1
102
}
102
{ACAD_REACTORS
330
B
102
}
330
B
100
AcDbMaterial
  1
Global
  0
MLINESTYLE
  5
A3
102
{ACAD_REACTORS
330
9D
102
}
330
9D
100
AcDbMlineStyle
  2
STANDARD
 70
     0
  3

 62
   256
 51
90.0
 52
90.0
 71
     2
 49
0.5
 62
   256
  6
BYLAYER
 49
-0.5
 62
   256
  6
BYLAYER
  0
ACDBPLACEHOLDER
  5
7
102
{ACAD_REACTORS
330
8
102
}
330
8
  0
TABLESTYLE
  5
A4
102
{ACAD_XDICTIONARY
360
155
102
}
102
{ACAD_REACTORS
330
A2
102
}
330
A2
100
AcDbTableStyle
  3
Standard
 70
     0
 71
     0
 40
1.5
 41
1.5
280
     0
281
     0
  7
Standard
140
4.5
170
     2
 62
     0
 63
     7
283
     0
274
    -2
284
     1
 64
     0
275
    -2
285
     1
 65
     0
276
    -2
286
     1
 66
     0
277
    -2
287
     1
 67
     0
278
    -2
288
     1
 68
     0
279
    -2
289
     1
 69
     0
  7
Standard
140
6.0
170
     5
 62
     0
 63
     7
283
     0
274
    -2
284
     1
 64
     0
275
    -2
285
     1
 65
     0
276
    -2
286
     1
 66
     0
277
    -2
287
     1
 67
     0
278
    -2
288
     1
 68
     0
279
    -2
289
     1
 69
     0
  7
Standard
140
4.5
170
     5
 62
     0
 63
     7
283
     0
274
    -2
284
     1
 64
     0
275
    -2
285
     1
 65
     0
276
    -2
286
     1
 66
     0
277
    -2
287
     1
 67
     0
278
    -2
288
     1
 68
     0
279
    -2
289
     1
 69
     0
  0
ACAD_PROXY_OBJECT
  5
7E
102
{ACAD_REACTORS
330
7F
102
}
330
7F
100
AcDbProxyObject
 90
      499
 91
      508
 95
  1310743
 70
     1
100
AcDbVisualStyle
  2
2dWireframe
 70
     4
 71
     0
 72
     2
 73
     0
 90
        0
 40
-0.6
 41
-30.0
 62
     5
 63
     7
 74
     1
 91
        4
 64
     7
 65
   257
 75
     1
175
     1
 42
1.0
 92
        0
 66
   257
 43
1.0
 76
     1
 77
     6
 78
     2
 67
     7
 79
     5
170
     0
171
     0
290
     0
174
     0
 93
        1
 44
0.0
173
     0
291
     0
 45
0.0
1001
ACAD
1000
AcDbSavedByObjectVersion
1070
     0
1000
AcDbSavedByObjectVersion
1070
     0
1000
AcDbSavedByObjectVersion
1070
     0
  0
ACAD_PROXY_OBJECT
  5
D8
102
{ACAD_REACTORS
330
7F
102
}
330
7F
100
AcDbProxyObject
 90
      499
 91
      508
 95
  1310743
 70
     1
100
AcDbVisualStyle
  2
3D Hidden
 70
     6
 71
     1
 72
     2
 73
     2
 90
        0
 40
-0.6
 41
-30.0
 62
     5
 63
     7
 74
     2
 91
        2
 64
     7
 65
   257
 75
     2
175
     1
 42
40.0
 92
        0
 66
   257
 43
1.0
 76
     1
 77
     6
 78
     2
 67
     7
 79
     3
170
     0
171
     0
290
     0
174
     0
 93
        1
 44
0.0
173
     0
291
     0
 45
0.0
1001
ACAD
1000
AcDbSavedByObjectVersion
1070
     0
1000
AcDbSavedByObjectVersion
1070
     0
  0
ACAD_PROXY_OBJECT
  5
A6
102
{ACAD_REACTORS
330
7F
102
}
330
7F
100
AcDbProxyObject
 90
      499
 91
      508
 95
  1310743
 70
     1
100
AcDbVisualStyle
  2
3dWireframe
 70
     5
 71
     0
 72
     2
 73
     0
 90
        0
 40
-0.6
 41
-30.0
 62
     5
 63
     7
 74
     1
 91
        4
 64
     7
 65
   257
 75
     1
175
     1
 42
1.0
 92
        0
 66
   257
 43
1.0
 76
     1
 77
     6
 78
     2
 67
     7
 79
     5
170
     0
171
     0
290
     0
174
     0
 93
        1
 44
0.0
173
     0
291
     0
 45
0.0
1001
ACAD
1000
AcDbSavedByObjectVersion
1070
     0
1000
AcDbSavedByObjectVersion
1070
     0
1000
AcDbSavedByObjectVersion
1070
     0
  0
ACAD_PROXY_OBJECT
  5
D7
102
{ACAD_REACTORS
330
7F
102
}
330
7F
100
AcDbProxyObject
 90
      499
 91
      508
 95
  1310743
 70
     1
100
AcDbVisualStyle
  2
Basic
 70
     7
 71
     1
 72
     0
 73
     1
 90
        0
 40
-0.6
 41
-30.0
 62
     5
 63
     7
 74
     0
 91
        4
 64
     7
 65
   257
 75
     1
175
     1
 42
1.0
 92
        8
 66
     7
 43
1.0
 76
     1
 77
     6
 78
     2
 67
     7
 79
     5
170
     0
171
     0
290
     0
174
     0
 93
        1
 44
0.0
173
     0
291
     1
 45
0.0
1001
ACAD
1000
AcDbSavedByObjectVersion
1070
     0
1000
AcDbSavedByObjectVersion
1070
     0
  0
ACAD_PROXY_OBJECT
  5
DB
102
{ACAD_REACTORS
330
7F
102
}
330
7F
100
AcDbProxyObject
 90
      499
 91
      508
 95
  1310743
 70
     1
100
AcDbVisualStyle
  2
Brighten
 70
    12
 71
     2
 72
     2
 73
     0
 90
        0
 40
-0.6
 41
-30.0
 62
     5
 63
     7
 74
     1
 91
        4
 64
     7
 65
   257
 75
     1
175
     1
 42
1.0
 92
        8
 66
     7
 43
1.0
 76
     1
 77
     6
 78
     2
 67
     7
 79
     5
170
     0
171
     0
290
     0
174
     0
 93
        1
 44
50.0
173
     0
291
     1
 45
0.0
1001
ACAD
1000
AcDbSavedByObjectVersion
1070
     0
1000
AcDbSavedByObjectVersion
1070
     0
  0
ACAD_PROXY_OBJECT
  5
DF
102
{ACAD_REACTORS
330
7F
102
}
330
7F
100
AcDbProxyObject
 90
      499
 91
      508
 95
  1310743
 70
     1
100
AcDbVisualStyle
  2
ColorChange
 70
    16
 71
     2
 72
     2
 73
     3
 90
        0
 40
-0.6
 41
-30.0
 62
     5
 63
     8
 74
     1
 91
        4
 64
     7
 65
   257
 75
     1
175
     1
 42
1.0
 92
        8
 66
     8
 43
1.0
 76
     1
 77
     6
 78
     2
 67
     7
 79
     5
170
     0
171
     0
290
     0
174
     0
 93
        1
 44
0.0
173
     0
291
     1
 45
0.0
1001
ACAD
1000
AcDbSavedByObjectVersion
1070
     0
1000
AcDbSavedByObjectVersion
1070
     0
  0
ACAD_PROXY_OBJECT
  5
D9
102
{ACAD_REACTORS
330
7F
102
}
330
7F
100
AcDbProxyObject
 90
      499
 91
      508
 95
  1310743
 70
     1
100
AcDbVisualStyle
  2
Conceptual
 70
     9
 71
     3
 72
     2
 73
     0
 90
        0
 40
-0.6
 41
-30.0
 62
     5
 63
     7
 74
     2
 91
        2
 64
     7
 65
   257
 75
     1
175
     1
 42
40.0
 92
        8
 66
     7
 43
1.0
 76
     1
 77
     6
 78
     2
 67
     7
 79
     3
170
     0
171
     0
290
     0
174
     0
 93
        1
 44
0.0
173
     0
291
     0
 45
0.0
1001
ACAD
1000
AcDbSavedByObjectVersion
1070
     0
1000
AcDbSavedByObjectVersion
1070
     0
  0
ACAD_PROXY_OBJECT
  5
DA
102
{ACAD_REACTORS
330
7F
102
}
330
7F
100
AcDbProxyObject
 90
      499
 91
      508
 95
  1310743
 70
     1
100
AcDbVisualStyle
  2
Dim
 70
    11
 71
     2
 72
     2
 73
     0
 90
        0
 40
-0.6
 41
-30.0
 62
     5
 63
     7
 74
     1
 91
        4
 64
     7
 65
   257
 75
     1
175
     1
 42
1.0
 92
        8
 66
     7
 43
1.0
 76
     1
 77
     6
 78
     2
 67
     7
 79
     5
170
     0
171
     0
290
     0
174
     0
 93
        1
 44
-50.0
173
     0
291
     1
 45
0.0
1001
ACAD
1000
AcDbSavedByObjectVersion
1070
     0
1000
AcDbSavedByObjectVersion
1070
     0
  0
ACAD_PROXY_OBJECT
  5
DE
102
{ACAD_REACTORS
330
7F
102
}
330
7F
100
AcDbProxyObject
 90
      499
 91
      508
 95
  1310743
 70
     1
100
AcDbVisualStyle
  2
Facepattern
 70
    15
 71
     2
 72
     2
 73
     0
 90
        0
 40
-0.6
 41
-30.0
 62
     5
 63
     7
 74
     1
 91
        4
 64
     7
 65
   257
 75
     1
175
     1
 42
1.0
 92
        8
 66
     7
 43
1.0
 76
     1
 77
     6
 78
     2
 67
     7
 79
     5
170
     0
171
     0
290
     0
174
     0
 93
        1
 44
0.0
173
     0
291
     1
 45
0.0
1001
ACAD
1000
AcDbSavedByObjectVersion
1070
     0
1000
AcDbSavedByObjectVersion
1070
     0
  0
ACAD_PROXY_OBJECT
  5
D3
102
{ACAD_REACTORS
330
7F
102
}
330
7F
100
AcDbProxyObject
 90
      499
 91
      508
 95
  1310743
 70
     1
100
AcDbVisualStyle
  2
Flat
 70
     0
 71
     2
 72
     1
 73
     1
 90
        2
 40
-0.6
 41
30.0
 62
     5
 63
     7
 74
     0
 91
        4
 64
     7
 65
   257
 75
     1
175
     1
 42
1.0
 92
        8
 66
     7
 43
1.0
 76
     1
 77
     6
 78
     2
 67
     7
 79
     5
170
     0
171
     0
290
     0
174
     0
 93
       13
 44
0.0
173
     0
291
     1
 45
0.0
1001
ACAD
1000
AcDbSavedByObjectVersion
1070
     0
1000
AcDbSavedByObjectVersion
1070
     0
  0
ACAD_PROXY_OBJECT
  5
D4
102
{ACAD_REACTORS
330
7F
102
}
330
7F
100
AcDbProxyObject
 90
      499
 91
      508
 95
  1310743
 70
     1
100
AcDbVisualStyle
  2
FlatWithEdges
 70
     1
 71
     2
 72
     1
 73
     1
 90
        2
 40
-0.6
 41
30.0
 62
     5
 63
     7
 74
     1
 91
        4
 64
     7
 65
   257
 75
     1
175
     1
 42
1.0
 92
        0
 66
   257
 43
1.0
 76
     1
 77
     6
 78
     2
 67
     7
 79
     5
170
     0
171
     0
290
     0
174
     0
 93
       13
 44
0.0
173
     0
291
     1
 45
0.0
1001
ACAD
1000
AcDbSavedByObjectVersion
1070
     0
1000
AcDbSavedByObjectVersion
1070
     0
  0
ACAD_PROXY_OBJECT
  5
D5
102
{ACAD_REACTORS
330
7F
102
}
330
7F
100
AcDbProxyObject
 90
      499
 91
      508
 95
  1310743
 70
     1
100
AcDbVisualStyle
  2
Gouraud
 70
     2
 71
     2
 72
     2
 73
     1
 90
        2
 40
-0.6
 41
30.0
 62
     5
 63
     7
 74
     0
 91
        4
 64
     7
 65
   257
 75
     1
175
     1
 42
1.0
 92
        0
 66
     7
 43
1.0
 76
     1
 77
     6
 78
     2
 67
     7
 79
     5
170
     0
171
     0
290
     0
174
     0
 93
       13
 44
0.0
173
     0
291
     1
 45
0.0
1001
ACAD
1000
AcDbSavedByObjectVersion
1070
     0
1000
AcDbSavedByObjectVersion
1070
     0
  0
ACAD_PROXY_OBJECT
  5
D6
102
{ACAD_REACTORS
330
7F
102
}
330
7F
100
AcDbProxyObject
 90
      499
 91
      508
 95
  1310743
 70
     1
100
AcDbVisualStyle
  2
GouraudWithEdges
 70
     3
 71
     2
 72
     2
 73
     1
 90
        2
 40
-0.6
 41
30.0
 62
     5
 63
     7
 74
     1
 91
        4
 64
     7
 65
   257
 75
     1
175
     1
 42
1.0
 92
        0
 66
   257
 43
1.0
 76
     1
 77
     6
 78
     2
 67
     7
 79
     5
170
     0
171
     0
290
     0
174
     0
 93
       13
 44
0.0
173
     0
291
     1
 45
0.0
1001
ACAD
1000
AcDbSavedByObjectVersion
1070
     0
1000
AcDbSavedByObjectVersion
1070
     0
  0
ACAD_PROXY_OBJECT
  5
DD
102
{ACAD_REACTORS
330
7F
102
}
330
7F
100
AcDbProxyObject
 90
      499
 91
      508
 95
  1310743
 70
     1
100
AcDbVisualStyle
  2
Linepattern
 70
    14
 71
     2
 72
     2
 73
     0
 90
        0
 40
-0.6
 41
-30.0
 62
     5
 63
     7
 74
     1
 91
        4
 64
     7
 65
   257
 75
     7
175
     7
 42
1.0
 92
        8
 66
     7
 43
1.0
 76
     1
 77
     6
 78
     2
 67
     7
 79
     5
170
     0
171
     0
290
     0
174
     0
 93
        1
 44
0.0
173
     0
291
     1
 45
0.0
1001
ACAD
1000
AcDbSavedByObjectVersion
1070
     0
1000
AcDbSavedByObjectVersion
1070
     0
  0
ACAD_PROXY_OBJECT
  5
A5
102
{ACAD_REACTORS
330
7F
102
}
330
7F
100
AcDbProxyObject
 90
      499
 91
      508
 95
  1310743
 70
     1
100
AcDbVisualStyle
  2
Realistic
 70
     8
 71
     2
 72
     2
 73
     0
 90
        0
 40
-0.6
 41
-30.0
 62
     5
 63
     7
 74
     1
 91
        0
 64
     7
 65
   257
 75
     1
175
     1
 42
1.0
 92
        8
 66
     8
 43
1.0
 76
     1
 77
     6
 78
     2
 67
     7
 79
     5
170
     0
171
     0
290
     0
174
     0
 93
       13
 44
0.0
173
     0
291
     0
 45
0.0
1001
ACAD
1000
AcDbSavedByObjectVersion
1070
     0
1000
AcDbSavedByObjectVersion
1070
     0
1000
AcDbSavedByObjectVersion
1070
     0
  0
ACAD_PROXY_OBJECT
  5
DC
102
{ACAD_REACTORS
330
7F
102
}
330
7F
100
AcDbProxyObject
 90
      499
 91
      508
 95
  1310743
 70
     1
100
AcDbVisualStyle
  2
Thicken
 70
    13
 71
     2
 72
     2
 73
     0
 90
        0
 40
-0.6
 41
-30.0
 62
     5
 63
     7
 74
     1
 91
        4
 64
     7
 65
   257
 75
     1
175
     1
 42
1.0
 92
       12
 66
     7
 43
1.0
 76
     1
 77
     6
 78
     2
 67
     7
 79
     5
170
     0
171
     0
290
     0
174
     0
 93
        1
 44
0.0
173
     0
291
     1
 45
0.0
1001
ACAD
1000
AcDbSavedByObjectVersion
1070
     0
1000
AcDbSavedByObjectVersion
1070
     0
  0
DICTIONARYVAR
  5
AA
102
{ACAD_REACTORS
330
A9
102
}
330
A9
100
DictionaryVariables
280
     0
  1
STANDARD
  0
DICTIONARYVAR
  5
AE
102
{ACAD_REACTORS
330
A9
102
}
330
A9
100
DictionaryVariables
280
     0
  1
2
  0
DICTIONARYVAR
  5
AD
102
{ACAD_REACTORS
330
A9
102
}
330
A9
100
DictionaryVariables
280
     0
  1
1
  0
DICTIONARYVAR
  5
AC
102
{ACAD_REACTORS
330
A9
102
}
330
A9
100
DictionaryVariables
280
     0
  1
0
  0
DICTIONARYVAR
  5
16A
102
{ACAD_REACTORS
330
A9
102
}
330
A9
100
DictionaryVariables
280
     0
  1

  0
DICTIONARYVAR
  5
AB
102
{ACAD_REACTORS
330
A9
102
}
330
A9
100
DictionaryVariables
280
     0
  1
127
  0
XRECORD
  5
24A0
102
{ACAD_REACTORS
330
249E
102
}
330
249E
100
AcDbXrecord
280
     1
330
0
330
0
330
0
330
0
330
0
330
0
330
0
330
0
330
0
330
0
330
0
330
0
330
0
330
0
330
0
330
0
330
0
330
0
330
0
330
0
330
0
330
0
330
2B84
330
2B85
330
2B8E
330
2B8F
  0
DICTIONARY
  5
83
330
82
100
AcDbDictionary
280
     1
281
     1
  3
ADSK_XREC_LAYOUTTHUMBNAIL
360
84
  0
DICTIONARY
  5
C7
330
A0
100
AcDbDictionary
280
     1
281
     1
  3
ACAD_XREC_ROUNDTRIP
360
C8
  0
DICTIONARY
  5
C5
330
9F
100
AcDbDictionary
280
     1
281
     1
  3
ACAD_XREC_ROUNDTRIP
360
C6
  0
DICTIONARY
  5
B1
330
A
100
AcDbDictionary
280
     1
281
     1
  3
ACAD_XREC_ROUNDTRIP
360
B2
  0
DICTIONARY
  5
155
330
A4
100
AcDbDictionary
280
     1
281
     1
  3
ACAD_XREC_ROUNDTRIP
360
156
  0
XRECORD
  5
84
102
{ACAD_REACTORS
330
83
102
}
330
83
100
AcDbXrecord
280
     1
310
28000000B40000007F00000001000800000000004C59000000000000000000000001000000000000FFFFFF0000000000FFFFFF000000000000000000000000000000000000000000000000000000000000000000330000006600000099000000CC000000FF00000000330000333300006633000099330000CC330000FF3300
310
0000660000336600006666000099660000CC660000FF66000000990000339900006699000099990000CC990000FF99000000CC000033CC000066CC000099CC0000CCCC0000FFCC000000FF000033FF000066FF000099FF0000CCFF0000FFFF000000003300330033006600330099003300CC003300FF003300003333003333
310
33006633330099333300CC333300FF33330000663300336633006666330099663300CC663300FF66330000993300339933006699330099993300CC993300FF99330000CC330033CC330066CC330099CC3300CCCC3300FFCC330000FF330033FF330066FF330099FF3300CCFF3300FFFF330000006600330066006600660099
310
006600CC006600FF00660000336600333366006633660099336600CC336600FF33660000666600336666006666660099666600CC666600FF66660000996600339966006699660099996600CC996600FF99660000CC660033CC660066CC660099CC6600CCCC6600FFCC660000FF660033FF660066FF660099FF6600CCFF6600
310
FFFF660000009900330099006600990099009900CC009900FF00990000339900333399006633990099339900CC339900FF33990000669900336699006666990099669900CC669900FF66990000999900339999006699990099999900CC999900FF99990000CC990033CC990066CC990099CC9900CCCC9900FFCC990000FF99
310
0033FF990066FF990099FF9900CCFF9900FFFF99000000CC003300CC006600CC009900CC00CC00CC00FF00CC000033CC003333CC006633CC009933CC00CC33CC00FF33CC000066CC003366CC006666CC009966CC00CC66CC00FF66CC000099CC003399CC006699CC009999CC00CC99CC00FF99CC0000CCCC0033CCCC0066CC
310
CC0099CCCC00CCCCCC00FFCCCC0000FFCC0033FFCC0066FFCC0099FFCC00CCFFCC00FFFFCC000000FF003300FF006600FF009900FF00CC00FF00FF00FF000033FF003333FF006633FF009933FF00CC33FF00FF33FF000066FF003366FF006666FF009966FF00CC66FF00FF66FF000099FF003399FF006699FF009999FF00CC
310
99FF00FF99FF0000CCFF0033CCFF0066CCFF0099CCFF00CCCCFF00FFCCFF0000FFFF0033FFFF0066FFFF0099FFFF00CCFFFF00FFFFFF00000000000D0D0D001A1A1A00282828003535350043434300505050005D5D5D006B6B6B00787878008686860093939300A1A1A100AEAEAE00BBBBBB00C9C9C900D6D6D600E4E4E400
310
F1F1F100FFFFFF0000000000000000000000000000000000000000000000000000000000000000000000000000000000E2E2E2E2E2E2E2E2E2E2E2E2E2E2E2E2E2E2E2E2E2E2E2E2E2E2E2E2E2E2E2E2E2E2E2E2E2E2E2E2E2E2E2E2E2E2E2E2E2E2E2E2E2E2E2E2E2E2E2E2E2E2E2E2E2E2E2E2E2E2E2E2E2E2E2E2E2E2E2
310
E2E2E2E2E2E2E2E2E2E2E2E2E2E2E2E2E2E2E2E2E2E2E2E2E2E2E2E2E2E2E2E2E2E2E2E2E2E2E2E2E2E2E2E2E2E2E2E2E2E2E2E2E2E2E2E2E2E2E2E2E2E2E2E2E2E2E2E2E2E2E2E2E2E2E2E2E2E2E2E2E2E2E2E2E2E2E2E2E2E2E2E2E2E2E2E2E2E2E2E2E2E2F5F5F5F5F5F5F5F5F5F5F5F5F5F5F5F5F5F5F5F5F5F5F5F5F5
310
F5F5F5F5F5F5F5F5F5F5F5F5F5F5F5F5F5F5F5F5F5F5F5F5F5F5F5F5F5F5F5F5F5F5F5F5F5F5F5F5F5F5F5F5F5F5F5F5F5F5F5F5F5F5F5F5F5F5F5F5F5F5F5F5F5F5F5F5F5F5F5F5F5F5F5F5F5F5F5F5F5F5F5F5F5F5F5F5F5F5F5F5F5F5F5F5F5F5F5F5F5F5F5F5F5F5F5F5F5F5F5F5F5F5F5F5F5F5F5F5F5F5F5F5F5F5F5
310
F5F5F5F5F5F5F5F5F5F5F5F5F5F5F5F5F5F5F5F5F5F5F5F5F5F5E2E2F5E2E2E2E2E2E2E2E2E2F5F5F5F5F5F5F5F5F5E2E2E2E2E2E2E2E2E2E2E2E2E2E2E2E2F5F5F5F5F5F5F5F5F5E2E2E2E2E2E2E2E2E2E2E2E2E2E2E2E2F5F5F5F5F5F5F5F5F5E2E2E2E2E2E2E2E2E2E2E2E2E2E2E2E2F5F5F5F5F5F5F5F5F5E2E2E2E2E2
310
E2E2E2E2E2E2E2E2E2E2E2F5F5F5F5F5F5F5F5F5E2E2E2E2E2E2E2E2E2E2E2E2E2E2E2E2F5F5F5F5F5F5F5F5F5E2E2E2E2E2E2E2E2E2E2E2E2E2E2E2E2F5F5F5F5F5F5F5F5F5E2E2E2E2E2E2E2E2F5E2E2F5E2F5F5F5F5F5F5F5F5F5F5F5F5F5F5F5F5F5F5F5F5F5F5F5F5F5F5F5F5F5F5F5F5F5F5F5F5F5F5F5F5F5F5F5F5
310
F5F5F5F5F5F5F5F5F5F5F5F5F5F5F5F5F5F5F5F5F5F5F5F5F5F5F5F5F5F5F5F5F5F5F5F5F5F5F5F5F5F5F5F5F5F5F5F5F5F5F5F5F5F5F5F5F5F5F5F5F5F5F5F5F5F5F5F5F5F5F5F5F5F5F5F5F5F5F5F5F5F5F5F5F5F5F5F5F5F5F5F5F5F5F5F5F5F5F5F5F5F5F5F5F5F5F5F5F5F5F5F5F5F5F5F5F5F5F5F5F5F5F5F5F5F5F5
310
F5F5F5E2F5E2E2F5E2F5F5F5F5F5F5F5F5F5F5F5F5F5F5F5F5F5F5F5F5F5F5F5F5F5F5F5F5F5F5F5F5F5F5F5F5F5F5F5F5F5F5F5F5F5F5F5F5F5F5F5F5F5F5F5F5F5F5F5F5F5F5F5F5F5F5F5F5F5F5F5F5F5F5F5F5F5F5F5F5F5F5F5F5F5F5F5F5F5F5F5F5F5F5F5F5F5F5F5F5F5F5F5F5F5F5F5F5F5F5F5F5F5F5F5F5F5F5
310
F5F5F5F5F5F5F5F5F5F5F5F5F5F5F5F5F5F5F5F5F5F5F5F5F5F5F5F5F5F5F5F5F5F5F5F5F5F5F5F5F5F5F5F5F5F5F5F5F5F5F5F5F5F5F5F5E2F5E2E2F5E2F5F5F5F5F5F5F5F5F5F5F5F5F5F5F5F5F5F5F5F5F5F5F5F5F5F5F5F5F5F5F5F5F5F5F5F5F5F5F5F5F5F5F5F5F5F5F5F5F5F5F5F5F5F5F5F5F5F5F5F5F5F5F5F5F5
310
F5F5F5F5F5F5F5F5F5F5F5F5F5F5F5F5F5F5F5F5F5F5F5F5F5F5F5F5F5F5F5F5F5F5F5F5F5F5F5F5F5F5F5F5F5F5F5F5F5F5F5F5F5F5F5F5F5F5F5F5F5F5F5F5F5F5F5F5F5F5F5F5F5F5F5F5F5F5F5F5F5F5F5F5F5F5F5F5F5F5F5F5F5F5F5F5F5F5F5F5F5F5F5F5F5F5F5F5F5E2F5E2E2F5E2F5F5F5F5F5F5F5F5F5F5F5F5
310
F5F5F5F5F5F5F5F5F5F5F5F5F5F5F5F5F5F5F5F5F5F5F5F5F5F5F5F5F5F5F5F5F5F5F5F5F5F5F5F5F5F5F5F5F5F5F5F5F5F5F5F5F5F5F5F5F5F5F5F5F5F5F5F5F5F5F5F5F5F5F5F5F5F5F5F5F5F5F5F5F5F5F5F5F5F5F5F5F5F5F5F5F5F5F5F5F5F5F5F5F5F5F5F5F5F5F5F5F5F5F5F5F5F5F5F5F5F5F5F5F5F5F5F5F5F5F5
310
F5F5F5F5F5F5F5F5F5F5F5F5F5F5F5F5F5F5F5F5F5F5F5F5F5F5F5F5F5F5F5F5F5F5F5E2F5E2E2F5E2F5F5F5F5F5F5F5F5F5F5F5F5F5F5F5F5F5F5F5F5F5F5F5F5F5F5F5F5F5F5F5F5F5F5F5F5F5F5F5F5F5F5F5F5F5F5F5F5F5F5F5F5F5F5F5F5F5F5F5F5F5F5F5F5F5F5F5F5F5F5F5F5F5F5F5F5F5F5F5F5F5F5F5F5F5F5
310
F5F5F5F5F5F5F5F5F5F5F5F5F5F5F5F5F5F5F5F5F5F5F5F5F5F5F5F5F5F5F5F5F5F5F5F5F5F5F5F5F5F5F5F5F5F5F5F5F5F5F5F5F5F5F5F5F5F5F5F5F5F5F5F5F5F5F5F5F5F5F5F5F5F5F5F5F5F5F5F5F5F5F5F5F5F5F5F5E2F5E2E2F5E2F5F5F5F5F5F5F5F5F5F5F5F5F5F5F5F5F5F5F5F5F5F5F5F5F5F5F5F5F5F5F5F5F5
310
F5F5F5F5F5F5F5F5F5F5F5F5F5F5F5F5F5F5F5F5F5F5F5F5F5F5F5F5F5F5F5F5F5F5F5F5F5F5F5F5F5F5F5F5F5F5F5F5F5F5F5F5F5F5F5F5F5F5F5F5F5F5F5F5F5F5F5F5F5F5F5F5F5F5F5F5F5F5F5F5F5F5F5F5F5F5F5F5F5F5F5F5F5F5F5F5F5F5F5F5F5F5F5F5F5F5F5F5F5F5F5F5F5F5F5F5F5F5F5F5F5F5F5F5F5F5F5
310
F5F5F5F5F5F5F5F5F5F5F5F5F5F5E2F5E2E2F5E2F5F5F5F5F5F5F5F5F5F5F5F5F5F5F5F5F5F5F5F5F5F5F5F5F5F5F5F5F5F5F5F5F5F5F5F5F5F5F5F5F5F5F5F5F5F5F5F5F5F5F5F5F5F5F5F5F5F5F5F5F5F5F5F5F5F5F5F5F5F5F5F5F5F5F5F5F5F5F5F5F5F5F5F5F5F5F5F5F5F5F5F5F5F5F5F5F5F5F5F5F5F5F5F5F5F5F5
310
F5F5F5F5F5F5F5F5F5F5F5F5F5F5F5F5F5F5F5F5F5F5F5F5F5F5F5F5F5F5F5F5F5F5F5F5F5F5F5F5F5F5F5F5F5F5F5F5F5F5F5F5F5F5F5F5F5F5F5F5F5F5F5F5F5F5F5E2F5E2E2F5F5F5F5F5F5F5F5F5F5F5F5F5F5F5F5F5F5F5F5F5F5F5F5F5F5F5F5F5F5F5F5F5F5F5F5F5F5F5F5F5F5F5F5F5F5F5F5F5F5F5F5F5F5F5F5
310
F5F5F5F5F5F5F5F5F5F5F5F5F5F5F5F5F5F5F5F5F5F5F5F5F5F5F5F5F5F5F5F5F5F5F5F5F5F5F5F5F5F5F5F5F5F5F5F5F5F5F5F5F5F5F5F5F5F5F5F5F5F5F5F5F5F5F5F5F5F5F5F5F5F5F5F5F5F5F5F5F5F5F5F5F5F5F5F5F5F5F5F5F5F5F5F5F5F5F5F5F5F5F5F5F5F5F5F5F5F5F5F5F5F5F5F5F5F5F5F5F5F5E2E2F5F5F5
310
F5F5F5F5F5F5F5F5F5F5F5F5F5F5F5F5F5F5F5F5F5F5F5F5F5F5F5F5F5F5F5F5F5F5F5F5F5F5F5F5F5F5F5F5F5F5F5F5F5F5F5F5F5F5F5F5F5F5F5F5F5F5F5F5F5F5F5F5F5F5F5F5F5F5F5F5F5F5F5F5F5F5F5F5F5F5F5F5F5F5F5F5F5F5F5F5F5F5F5F5F5F5F5F5F5F5F5F5F5F5F5F5F5F5F5F5F5F5F5F5F5F5F5F5F5F5F5
310
F5F5F5F5F5F5F5F5F5F5F5F5F5F5F5F5F5F5F5F5F5F5F5F5F5F5F5F5F5F5F5F5F5F5F5F5F5F5F5F5F5F5F5F5F5F5F5F5E2E2F5F5F5F5F5F5F5F5F5F5F5F5F5F5F5F5F5F5F5F5F5F5F5F5F5F5F5F5F5F5F5F5F5F5F5F5F5F5F5F5F5F5F5F5F5F5F5F5F5F5F5F5F5F5F5F5F5F5F5F5F5F5F5F5F5F5F5F5F5F5F5F5F5F5F5F5F5
310
F5F5F5F5F5F5F5F5F5F5F5F5F5F5F5F5F5F5F5F5F5F5F5F5F5F5F5F5F5F5F5F5F5F5F5F5F5F5F5F5F5F5F5F5F5F5F5F5F5F5F5F5F5F5F5F5F5F5F5F5F5F5F5F5F5F5F5F5F5F5F5F5F5F5F5F5F5F5F5F5F5F5F5F5F5F5F5F5F5F5F5F5F5F5F5F5F5F5F5F5F5E2E2F5F5F5F5F5F5F5F5F5F5F5F5F5F5F5F5F5F5F5F5F5F5F5F5
310
F5F5F5F5F5F5F5F5F5F5F5F5F5F5F5F5F5F5F5F5F5F5F5F5F5F5F5F5F5F5F5F5F5F5F5F5F5F5F5F5F5F5F5F5F5F5F5F5F5F5F5F5F5F5F5F5F5F5F5F5F5F5F5F5F5F5F5F5F5F5F5F5F5F5F5F5F5F5F5F5F5F5F5F5F5F5F5F5F5F5F5F5F5F5F5F5F5F5F5F5F5F5F5F5F5F5F5F5F5F5F5F5F5F5F5F5F5F5F5F5F5F5F5F5F5F5F5
310
F5F5F5F5F5F5F5F5F5F5F5F5F5F5F5F5F5F5F5F5F5F5F5F5F5F5F5E2E2F5F5F5F5F5F5F5F5F5F5F5F5F5F5F5F5F5F5F5DCDCDCDCDCDCDCDCDCDCDCDCDCDCDCDCDCDCDCDCDCDCDCDCDCDCDCDCDCDCDCDCDCDCDCDCDCDCDCDCDCDCDCDCDCDCDCDCDCDCDCDCDCDCDCDCDCDCDCDCDCDCDCDCDCDCDCDCDCDCDCDCDCDCDCDCDCDCDC
310
DCDCDCDCDCDCDCDCDCDCDCDCDCDCDCDCDCDCDCDCDCDCDCDCDCDCDCDCDCDCDCDCDCDCDCDCDCDCDCDCDCDCDCDCDCDCDCDCDCDCDCDCDCDCDCDCDCDCDCDCDCF5F5F5F5F5F5F5F5F5F5F5F5F5F5F5F5F5F5F5E2E2F5F5F5F5F5F5F5F5F5F5F5F5F5F5F5F5F5F5F5DCDCDCDCDCDCDCDCDCDCDCDCDCDCDCDCDCDCDCDCDCDCDCDCDCDC
310
DCDCDCDCDCDCDCDCDCDCDCDCDCDCDCDCDCDCDCDCDCDCDCDCDCDCDCDCDCDCDCDCDCDCDCDCDCDCDCDCDCDCDCDCDCDCDCDCDCDCDCDCDCDCDCDCDCDCDCDCDCDCDCDCDCDCDCDCDCDCDCDCDCDCDCDCDCDCDCDCDCDCDCDCDCDCDCDCDCDCDCDCDCDCDCDCDCDCDCDCDCDCDCDCDCDCDCDCDCDCDCDCDCDCF5F5F5F5F5F5F5F5F5F5F5F5F5
310
F5F5F5F5F5F5E2E2F5F5F5F5F5F5F5F5F5F5F5F5F5F5F5F5F5F5F5DCF5F5F5F5F5F5F5F5F5F5F5F5F5F5F5F5F5F5F5F5F5F5F5F5F5F5F5F5F5F5F5F5F5F5F5F5F5F5F5F5F5F5F5F5F5F5F5F5F5F5F5F5F5F5F5F5F5F5F5F5F5F5F5F5F5F5F5F5F5F5F5F5F5F5F5F5F5F5F5F5F5F5F5F5F5F5F5F5F5F5F5F5F5F5F5F5F5F5F5
310
F5F5F5F5F5F5F5F5F5F5F5F5F5F5F5F5F5F5F5F5F5F5F5F5F5F5F5F5F5F5F5F5F5F5F5F5F5F5F5DCF5F5F5F5F5F5F5F5F5F5F5F5F5F5F5F5F5F5F5E2E2F5F5F5F5F5F5F5F5F5F5F5F5F5F5F5F5F5F5F5DCF5282828282828282828282828282828282828282828282828282828282828282828282828282828282828282828
310
28282828282828282828282828282828282828282828282828282828282828282828282828282828282828282828282828282828282828282828282828282828282828282828282828282828282828282828282828282828282828F5DCF5F5F5F5F5F5F5F5F5F5F5F5F5F5F5F5F5F5F5E2E2F5F5F5F5F5F5F5F5F5F5F5F5F5
310
F5F5F5F5F5F5DCF5282D2D2D2D2D2D2D2D2D2D2D2D2D2D2D2D2D2D2D2D2DF5F5F5F5F5F5F5F5F5F5F5F5F5F5F5F5F5F5F5F5F5F5F5F5F5F5F5F5F5F5F5F5F5F5F5F5F5F5F5F5F5F5F5F5F528F5F5F5F5F5F5F5F5F5F5F5F5F5F5F5F5F5F5F5F5F5F5F5F5F5F5F5F5F5F5F5F5F5F5F5F5F5F5F5F5F5F5F5F5F5F5F5F5F5F5F5
310
F5F5F5F5F5F5F5F5F5F5F5F5F5F5F5F528F5DCF5F5F5F5F5F5F5F5F5F5F5F5F5F5F5F5F5F5F5E2E2F5E2F5F5F5F5F5F5F5F5F5F5F5F5F5F5F5F5F5DCF5282D2D2D2D2D2D2D2D2D2D2D2D2D2D2D2D2D2D2D2D2D2D2D2D2D2D2D2D2DF5F5F5F5F5F5F5F5F5F5F5F5F5F5F5F5F5F5F5F5F5F5F5F5F5F5F5F5F5F5F5F5F5F5F5F5
310
F528F5F5F5F5F5F5F5F5F5F5F5F5F5F5F5F5F5F5F5F5F5F5F5F5F5F5F5F5F5F5F5F5F5F5F5F5F5F5F5F5F5F5F5F5F5F5F5F5F5F5F5F5F5F5F5F5F5F5F5F5F5F5F5F5F5F5F528F5DCF5F5F5F5F5F5F5F5F5F5F5F5F5F5F5F5F5E2F5E2E2F5E2F5F5F5F5F5F5F5F5F5F5F5F5F5F5F5F5F5DCF5282D2D2D2D2D2D2D2D2D2D2D2D
310
2D2D2D2D2D2D2D2D2D2D2D2D2D2D2D2D2DF5F5F5F5F5F5F5F5F5F5F5F5F5F5F5F5F5F5F5F5F5F5F5F5F5F5F5F5F5F5F5F5F5F5F5F5F528F5F5F5F5F5F5F5F52D2D2D2D2D2D2D2D2D2D2D2D2D2D2D2D2D2D2D2D2D2D2D2D2D2D2D2D2D2D2D2D2D2D2D2D2D2D2D2D2D2D2D2D2D2D2D2D2D2D2DF5F5F5F5F5F5F5F528F5DCF5F5
310
F5F5F5F5F5F5F5F5F5F5F5F5F5F5F5E2F5E2E2F5E2F5F5F5F5F5F5F5F5F5F5F5F5F5F5F5F5F5DCF5282D2D2D2D2D2D2D2D2D2D2D2D2D2D2D2D2D2D2D2D2D2D2D2D2D2D2D2D2D2D2D2D2D2D2D2D2D2D2D2D2D2D2D2D2D2D2D2D2D2D2D2D2D2D2D2D2D2D2D2D2D2D2D2D2D2D28F5F5F5F5F5F5F5F52D2D2D2D2D2D2D2D2D2D2D
310
2D2D2D2D2D2D2D2D2D2D2D2D2D2D2D2D2D2D2D2D2D2D2D2D2D2D2D2D2D2D2D2D2D2D2D2D2D2D2D2DF5F5F5F5F5F5F5F528F5DCF5F5F5F5F5F5F5F5F5F5F5F5F5F5F5F5F5E2F5E2E2F5E2F5F5F5F5F5F5F5F5F5F5F5F5F5F5F5F5F5DCF5282D2D2D2D2D2D2D2D2D2D2D2D2D2D2D2D2D2D2D2D2D2D2D2D2D2D2D2D2D2D2D2D2D
310
2D2D2D2D2D2D2D2D2D2D2D2D2D2D2D2D2D2D2D2D2D2D2D2D2D2D2D2D2DF5F5F5F528F5F5F5F5F5F5F5F5F5F5F5F52D2D2D2D2D2D2D2D2D2D2D2D2D2D2D2D2D2D2D2D2D2D2D2D2D2D2D2D2D2D2D2D2D2D2D2D2D2D2D2D2D2DF5F5F5F5F5F5F5F5F5F5F5F5F528F5DCF5F5F5F5F5F5F5F5F5F5F5F5F5F5F5F5F5E2F5E2E2F5E2
310
F5F5F5F5F5F5F5F5F5F5F5F5F5F5F5F5F5DCF5282D2D2D2D2D2D2D2D2D2D2D2D2D2D2D2D2D2D2D2D2D2D2D2D2D2D2D2D2D2D2D2D2D2D2D2D2D2D2D2D2D2D2D2D2D2D2D2D2D2D2D2D2D2D2D2D2D2D2D2D2D2DF5F5F5F528F5F5F5F5F5F5F5F5F5F5F5F52D2D2D2D2D2D2D2D2D2D2D2D2D2D2D2D2D2D2D2D2D2D2D2D2D2D2D2D
310
2D2D2D2D2D2D2D2D2D2D2D2D2D2DF5F5F5F5F5F5F5F5F5F5F5F5F528F5DCF5F5F5F5F5F5F5F5F5F5F5F5F5F5F5F5F5E2F5E2E2F5E2F5F5F5F5F5F5F5F5F5F5F5F5F5F5F5F5F5DCF5282D2D2D2D2D2D2D2D2D2D2D2D2D2D2D2D2D2D2D2D2D2D2D2D2D2D2D2D2D2D2D2D2D2D2D2D2D2D2D2D2D2D2D2D2D2D2D2D2D2D2D2D2D2D
310
2D2D2D2D2DF5F5F5F5F5F5F528F5F5F5F5F5F5F5F5F5F5F5F5F5F5F5F5F5F5F5F5F5F5F5F5F5F5F5F52D2D2D2D2D2D2D2D2D2DF5F5F5F5F5F5F5F5F5F5F5F5F5F5F5F5F5F5F5F5F5F5F5F5F5F5F5F5F528F5DCF5F5F5F5F5F5F5F5F5F5F5F5F5F5F5F5F5E2F5E2E2F5E2F5F5F5F5F5F5F5F5F5F5F5F5F5F5F5F5F5DCF5282D
310
2D2D2D2D2D2D2D2D2D2D2D2D2D2D2D2D2D2D2D2D2D2D2D2D2D2D2D2D2D2D2DF5F5F5F5F5F5F5F5F5F5F5F5F5F5F5F5F5F5F5F5F5F5F5F5F5F5F5F5F5F5F5F5F5F528F5F5F5F5F5F5F5F5F5F5F5F5F5F5F5F5F5F5F5F5F5F5F5F5F5F5F5F52D2D2D2D2D2D2D2D2D2DF5F5F5F5F5F5F5F5F5F5F5F5F5F5F5F5F5F5F5F5F5F5F5
310
F5F5F5F5F5F528F5DCF5F5F5F5F5F5F5F5F5F5F5F5F5F5F5F5F5E2F5E2E2F5E2F5F5F5F5F5F5F5F5F5F5F5F5F5F5F5F5F5DCF5282D2D2D2D2D2D2D2D2D2D2D2D2D2D2D2D2D2D2D2D2D2D2D2D2D2D2D2D2D2D2D2DF5F5F5F5F5F5F5F5F5F5F5F5F5F5F5F5F5F5F5F5F5F5F5F5F5F5F5F5F5F5F5F5F5F528F5F5F5F5F5F5F5F5
310
F5F5F5F5F5F5F5F5F5F5F5F5F5F5F5F5F5F5F5F52D2D2D2D2D2D2D2D2D2DF5F5F5F5F5F5F5F5F5F5F5F5F5F5F5F5F5F5F5F5F5F5F5F5F5F5F5F5F528F5DCF5F5F5F5F5F5F5F5F5F5F5F5F5F5F5F5F5E2F5E2E2F5E2F5F5F5F5F5F5F5F5F5F5F5F5F5F5F5F5F5DCF5282D2D2D2D2D2D2D2D2D2D2D2D2D2D2D2D2D2D2D2D2D2D
310
2D2D2D2D2D2D2D2D2D2D2D2D2D2D2D2D2D2D2D2D2D2D2D2D2D2D2D2D2D2D2D2D2D2D2D2D2D2D2D2D2D2DF5F528F5F5F5F5F5F5F5F5F5F5F5F5F5F5F5F5F5F5F5F5F5F5F5F5F5F5F5F5F5F5F5F5F5F5F5F5F5F5F5F5F5F5F5F5F5F5F5F5F5F5F5F5F5F5F5F5F5F5F5F5F5F5F5F5F5F5F528F5DCF5F5F5F5F5F5F5F5F5F5F5F5
310
F5F5F5F5F5E2F5E2E2F5E2F5F5F5F5F5F5F5F5F5F5F5F5F5F5F5F5F5DCF528F5F5F5F5F5F5F5F5F5F5F5F5F5F5F5F5F5F5F5F5F5F5F5F5F5F5F5F5F5F5F5F5F5F5F5F5F5F5F5F5F5F5F5F5F5F5F5F5F5F5F5F5F5F5F5F5F5F5F5F5F5F5F5F5F5F528F5F5F5F5F5F5F5F5F5F5F5F5F5F5F5F5F5F5F5F5F5F5F5F5F5F5F5F5F5
310
F5F5F5F5F5F5F5F5F5F5F5F5F5F5F5F5F5F5F5F5F5F5F5F5F5F5F5F5F5F5F5F5F5F5F5F5F5F528F5DCF5F5F5F5F5F5F5F5F5F5F5F5F5F5F5F5F5E2F5E2E2F5E2F5F5F5F5F5F5F5F5F5F5F5F5F5F5F5F5F5DCF52828282828282828282828282828282828282828282828282828282828282828282828282828282828282828
310
2828282828282828282828282828282828282828282828282828282828282828282828282828282828282828282828282828282828282828282828282828282828282828282828282828282828282828282828282828282828282828F5DCF5F5F5F5F5F5F5F5F5F5F5F5F5F5F5F5F5E2F5E2E2F5E2F5F5F5F5F5F5F5F5F5F5
310
F5F5F5F5F5F5F5DCF528F5F5F5F5F5F5F5F5F5F5F5F5F5F5F5F5F5F5F5F5F5F5F5F5F5F5F5F5F5F5F5F5F5F5F5F5F5F5F5F5F5F5F5F5F5F5F5F5F5F5F5F5F5F5F5F5F5F5F5F5F5F5F5F5F5F5F5F5F5F5F5F5F5F5F5F5F5F5F5F5F5F5F5F5F5F5F5F5F5F5F5F5F5F5F5F5F5F5F5F5F5F5F5F5F5F5F5F5F5F5F5F5F5F5F5F5F5
310
F5F5F5F5F5F5F5F5F5F5F5F5F5F5F5F5F528F5DCF5F5F5F5F5F5F5F5F5F5F5F5F5F5F5F5F5E2F5E2E2F5E2F5F5F5F5F5F5F5F5F5F5F5F5F5F5F5F5F5DCF528F5F5F5F5F5F5F5F5F5F5F5F5F5F5F5F5F5F5F5F5F5F5F5F5F5F5F5F5F5F5F5F5F5F5F5F5F5F5F5F5F5F5F5F5F5F5F5F5F5F5F5F5F5F5F5F5F5F5F5F5F5F5F5F5
310
F5F5F5F5F5F5F5F5F5F5F5F5F5F5F5F5F5F5F5F5F5F5F5F5F5F5F5F5F5F5F5F5F5F5F5F5F5F5F5F5F5F5F5F5F5F5F5F5F5F5F5F5F5F5F5F5F5F5F5F5F5F5F5F5F5F5F5F5F5F528F5DCF5F5F5F5F5F5F5F5F5F5F5F5F5F5F5F5F5E2F5E2E2F5E2F5F5F5F5F5F5F5F5F5F5F5F5F5F5F5F5F5DCF528F5F5F5F5F5F5F5F5F5F5F5
310
F5F5F5F5F5F5F5F5F5F5F5F5F5F5F5F5F5F5F5F5F5F5F5F5F5F5F5F5F5F5F5F5F5F5F5F5F5F5F5F5F5F5F5F5F5F5F5F5F5F5F5F5F5F5F5F5F5F5F5F5F5F5F5F5F5F5F5F5F5F5F5F5F5F5F5F5F5F5F5F5F5F5F5F5F5F5F5F5F5F5F5F5F5F5F5F5F5F5F5F5F5F5F5F5F5F5F5F5F5F5F5F5F5F5F5F5F5F5F5F5F5F5F528F5DCF5
310
F5F5F5F5F5F5F5F5F5F5F5F5F5F5F5F5E2F5E2E2F5E2F5F5F5F5F5F5F5F5F5F5F5F5F5F5F5F5F5DCF528F5F5F5F5F5F5F5F5F5F5F5F5F5F5F5F5F5F5F5F5F5F5F5F5F5F5F5F5F5F5F5F5F5F5F5F5F5F5F5F5F5F5F5F5F5F5F5F5F5F5F5F5F5F5F5F5F5F5F5F5F5F5F5F5F5F5F5F5F5F5F5F5F5F5F5F5F5F5F5F5F5F5F5F5F5
310
F5F5F5F5F5F5F5F5F5F5F5F5F5F5F5F5F5F5F5F5F5F5F5F5F5F5F5F5F5F5F5F5F5F5F5F5F5F5F5F5F5F5F5F5F5F5F5F5F528F5DCF5F5F5F5F5F5F5F5F5F5F5F5F5F5F5F5F5E2F5E2E2F5E2F5F5F5F5F5F5F5F5F5F5F5F5F5F5F5F5F5DCF528F5F5F5F5F5F5F5F5F5F5F5F5F5F5F5F5F5F5F5F5F5F5F5F5F5F5F5F5F5F5F5F5
310
F5F5F5F5F5F5F5F5F5F5F5F5F5F5F5F5F5F5F5F5F5F5F5F5F5F5F5F5F5F5F5F5F5F5F5F5F5F5F5F5F5F5F5F5F5F5F5F5F5F5F5F5F5F5F5F5F5F5F5F5F5F5F5F5F5F5F5F5F5F5F5F5F5F5F5F5F5F5F5F5F5F5F5F5F5F5F5F5F5F5F5F5F5F5F5F5F5F5F5F5F5F528F5DCF5F5F5F5F5F5F5F5F5F5F5F5F5F5F5F5F5E2F5E2E2F5
310
F5F5F5F5F5F5F5F5F5F5F5F5F5F5F5F5F5F5DCF528F5F5F5F5F5F5F5F5F5F5F5F5F5F5F5F5F5F5F5F5F5F5F5F5F5F5F5F5F5F5F5F5F5F5F5F5F5F5F5F5F5F5F5F5F5F5F5F5F5F5F5F5F5F5F5F5F5F5F5F5F5F5F5F5F5F5F5F5F5F5F5F5F5F5F5F5F5F5F5F5F5F5F5F5F5F5F5F5F5F5F5F5F5F5F5F5F5F5F5F5F5F5F5F5F5F5
310
F5F5F5F5F5F5F5F5F5F5F5F5F5F5F5F5F5F5F5F5F5F5F5F5F5F5F5F528F5DCF5F5F5F5F5F5F5F5F5F5F5F5F5F5F5F5F5F5F5E2E2F5F5F5F5F5F5F5F5F5F5F5F5F5F5F5F5F5F5F5DCF528F5F5F5F5F5F5F5F5F5F5F5F5F5F5F5F5F5F5F5F5F5F5F5F5F5F5F5F5F5F5F5F5F5F5F5F5F5F5F5F5F5F5F5F5F5F5F5F5F5F5F5F5F5
310
F5F5F5F5F5F5F5F5F5F5F5F5F5F5F5F5F5F5F5F5F5F5F5F5F5F5F5F5F5F5F5F5F5F5F5F5F5F5F5F5F5F5F5F5F5F5F5F5F5F5F5F5F5F5F5F5F5F5F5F5F5F5F5F5F5F5F5F5F5F5F5F5F5F5F5F5F5F5F5F5F528F5DCF5F5F5F5F5F5F5F5F5F5F5F5F5F5F5F5F5F5F5E2E2F5F5F5F5F5F5F5F5F5F5F5F5F5F5F5F5F5F5F5DCF528
310
F5F5F5F5F5F5F5F5F5F5F5F5F5F5F5F5F5F5F5F5F5F5F5F5F5F5F5F5F5F5F5F5F5F5F5F5F5F5F5F5F5F5F5F5F5F5F5F5F5F5F5F5F5F5F5F5F5F5F5F5F5F5F5F5F5F5F5F5F5F5F5F5F5F5F5F5F5F5F5F5F5F5F5F5F5F5F5F5F5F5F5F5F5F5F5F5F5F5F5F5F5F5F5F5F5F5F5F5F5F5F5F5F5F5F5F5F5F5F5F5F5F5F5F5F5F5F5
310
F5F5F5F5F5F5F528F5DCF5F5F5F5F5F5F5F5F5F5F5F5F5F5F5F5F5F5F5E2E2F5F5F5F5F5F5F5F5F5F5F5F5F5F5F5F5F5F5F5DCF528F5F5F5F5F5F5F5F5F5F5F5F5F5F5F5F5F5F5F5F5F5F5F5F5F5F5F5F5F5F5F5F5F5F5F5F5F5F5F5F5F5F5F5F5F5F5F5F5F5F5F5F5F5F5F5F5F5F5F5F5F5F5F5F5F5F5F5F5F5F5F5F5F5F5
310
F5F5F5F5F5F5F5F5F5F5F5F5F5F5F5F5F5F5F5F5F5F5F5F5F5F5F5F5F5F5F5F5F5F5F5F5F5F5F5F5F5F5F5F5F5F5F5F5F5F5F5F5F5F5F5F5F5F5F5F528F5DCF5F5F5F5F5F5F5F5F5F5F5F5F5F5F5F5F5F5F5E2E2F5F5F5F5F5F5F5F5F5F5F5F5F5F5F5F5F5F5F5DCF528F5F5F5F5F5F5F5F5F5F5F5F5F5F5F5F5F5F5F5F5F5
310
F5F5F5F5F5F5F5F5F5F5F5F5F5F5F5F5F5F5F5F5F5F5F5F5F5F5F5F5F5F5F5F5F5F5F5F5F5F5F5F5F5F5F5F5F5F5F5F5F5F5F5F5F5F5F5F5F5F5F5F5F5F5F5F5F5F5F5F5F5F5F5F5F5F5F5F5F5F5F5F5F5F5F5F5F5F5F5F5F5F5F5F5F5F5F5F5F5F5F5F5F5F5F5F5F5F5F5F5F5F5F5F5F528F5DCF5F5F5F5F5F5F5F5F5F5F5
310
F5F5F5F5F5F5F5F5E2E2F5F5F5F5F5F5F5F5F5F5F5F5F5F5F5F5F5F5F5DCF528F5F5F5F5F5F5F5F5F5F5F5F5F5F5F5F5F5F5F5F5F5F5F5F5F5F5F5F5F5F5F5F5F5F5F5F5F5F5F5F5F5F5F5F5F5F5F5F5F5F5F5F5F5F5F5F5F5F5F5F5F5F5F5F5F5F5F5F5F5F5F5F5F5F5F5F5F5F5F5F5F5F5F5F5F5F5F5F5F5F5F5F5F5F5F5
310
F5F5F5F5F5F5F5F5F5F5F5F5F5F5F5F5F5F5F5F5F5F5F5F5F5F5F5F5F5F5F5F5F5F5F5F5F5F5F528F5DCF5F5F5F5F5F5F5F5F5F5F5F5F5F5F5F5F5F5F5E2E2F5F5F5F5F5F5F5F5F5F5F5F5F5F5F5F5F5F5F5DCF528F5F5F5F5F5F5F5F5F5F5F5F5F5F5F5F5F5F5F5F5F5F5F5F5F5F5F5F5F5F5F5F5F5F5F5F5F5F5F5F5F5F5
310
F5F5F5F5F5F5F5F5F5F5F5F5F5F5F5F5F5F5F5F5F5F5F5F5F5F5F5F5F5F5F5F5F5F5F5F5F5F5F5F5F5F5F5F5F5F5F5F5F5F5F5F5F5F5F5F5F5F5F5F5F5F5F5F5F5F5F5F5F5F5F5F5F5F5F5F5F5F5F5F5F5F5F5F5F5F5F5F5F5F5F5F528F5DCF5F5F5F5F5F5F5F5F5F5F5F5F5F5F5F5F5F5F5E2E2F5F5F5F5F5F5F5F5F5F5F5
310
F5F5F5F5F5F5F5F5DCF528F5F5F5F5F5F5F5F5F5F5F5F5F5F5F52D2D2D2D2D2D2D2D2D2DF5F5F5F5F5F5F5F5F5F5F5F5F5F5F5F5F5F5F5F5F5F5F5F5F5F5F5F5F5F5F5F5F5F5F5F5F5F5F5F5F5F5F5F5F5F5F5F5F5F5F5F5F5F5F5F5F5F5F5F5F5F5F5F5F5F5F5F5F5F5F5F5F5F5F5F5F5F5F5F5F5F5F5F5F5F5F5F5F5F5F5
310
F5F5F5F5F5F5F5F5F5F5F5F5F5F5F5F5F5F528F5DCF5F5F5F5F5F5F5F5F5F5F5F5F5F5F5F5F5F5F5E2E2F5E2F5F5F5F5F5F5F5F5F5F5F5F5F5F5F5F5F5DCF528F5F5F5F5F5F5F5F5F5F5F5F5F5F5F52D2D2D2D2D2D2D2D2D2DF5F5F5F5F5F5F5F5F5F5F5F5F5F5F5F5F5F5F5F5F5F5F5F5F5F5F5F5F5F5F5F5F5F5F5F5F5F5
310
F5F5F5F5F5F5F5F5F5F5F5F5F5F5F5F5F5F5F5F5F5F5F5F5F5F5F5F5F5F5F5F5F5F5F5F5F5F5F5F5F5F5F5F5F5F5F5F5F5F5F5F5F5F5F5F5F5F5F5F5F5F5F5F5F5F5F5F5F5F5F528F5DCF5F5F5F5F5F5F5F5F5F5F5F5F5F5F5F5F5E2F5E2E2F5E2F5F5F5F5F5F5F5F5F5F5F5F5F5F5F5F5F5DCF528F5F5F5F5F5F5F5F5F5F5
310
F5F5F5F5F5F5F5F5F5F5F5F5F5F5F5F5F5F5F5F5F5F5F5F5F5F5F5F5F5F5F5F5F5F5F5F5F5F5F5F5F5F5F5F5F5F5F5F5F5F5F5F5F5F5F5F5F5F5F5F5F5F5F5F5F5F5F5F5F5F5F5F5F5F5F5F5F5F5F5F5F5F5F5F5F5F5F5F5F5F5F5F5F5F5F5F5F5F5F5F5F5F5F5F5F5F5F5F5F5F5F5F5F5F5F5F5F5F5F5F5F5F5F5F528F5DC
310
F5F5F5F5F5F5F5F5F5F5F5F5F5F5F5F5F5E2F5E2E2F5E2F5F5F5F5F5F5F5F5F5F5F5F5F5F5F5F5F5DCF528F5F5F5F5F5F5F5F5F5F5F5F5F5F5F5F5F5F5F5F5F5F5F5F5F5F5F5F5F5F5F5F5F5F5F5F5F5F5F5F5F5F5F5F5F5F5F5F5F5F5F5F5F5F5F5F5F5F5F5F5F5F5F5F5F5F5F5F5F5F5F5F5F5F5F5F5F5F5F5F5F5F5F5F5
310
F5F5F5F5F5F5F5F5F5F5F5F5F5F5F5F5F5F5F5F5F5F5F5F5F5F5F5F5F5F5F5F5F5F5F5F5F5F5F5F5F5F5F5F5F5F5F5F5F5F528F5DCF5F5F5F5F5F5F5F5F5F5F5F5F5F5F5F5F5E2F5E2E2F5E2F5F5F5F5F5F5F5F5F5F5F5F5F5F5F5F5F5DCF528F5F5F5F5F5F5F5F5F5F5F5F5F5F5F5F5F5F5F5F5F5F5F5F5F5F5F5F5F5F5F5
310
F5F5F5F5F5F5F5F5F5F5F5F5F5F5F5F5F5F5F5F5F5F5F5F5F5F5F5F5F5F5F5F5F5F5F5F5F5F5F5F5F5F5F5F5F5F5F5F5F5F5F5F5F5F5F5F5F5F5F5F5F5F5F5F5F5F5F5F5F5F5F5F5F5F5F5F5F5F5F5F5F5F5F5F5F5F5F5F5F5F5F5F5F5F5F5F5F5F5F5F5F5F5F528F5DCF5F5F5F5F5F5F5F5F5F5F5F5F5F5F5F5F5E2F5E2E2
310
F5E2F5F5F5F5F5F5F5F5F5F5F5F5F5F5F5F5F5DCF528F5F5F5F5F5F5F5F5F5F5F5F5F5F5F5F5F5F5F5F5F5F5F5F5F5F5F5F5F5F5F5F5F5F5F5F5F5F5F5F5F5F5F5F5F5F5F5F5F5F5F5F5F5F5F5F5F5F5F5F5F5F5F5F5F5F5F5F5F5F5F5F5F5F5F5F5F5F5F5F5F5F5F5F5F5F5F5F5F5F5F5F5F5F5F5F5F5F5F5F5F5F5F5F5F5
310
F5F5F5F5F5F5F5F5F5F5F5F5F5F5F5F5F5F5F5F5F5F5F5F5F5F5F5F5F528F5DCF5F5F5F5F5F5F5F5F5F5F5F5F5F5F5F5F5E2F5E2E2F5E2F5F5F5F5F5F5F5F5F5F5F5F5F5F5F5F5F5DCF528F5F5F5F5F5F5F5F5F5F5F5F5F5F5F5F5F5F5F5F5F5F5F5F5F5F5F5F5F5F5F5F5F5F5F5F5F5F5F5F5F5F5F5F5F5F5F5F5F5F5F5F5
310
F5F5F5F5F5F5F5F5F5F5F5F5F5F5F5F5F5F5F5F5F5F5F5F5F5F5F5F5F5F5F5F5F5F5F5F5F5F5F5F5F5F5F5F5F5F5F5F5F5F5F5F5F5F5F5F5F5F5F5F5F5F5F5F5F5F5F5F5F5F5F5F5F5F5F5F5F5F5F5F5F5F528F5DCF5F5F5F5F5F5F5F5F5F5F5F5F5F5F5F5F5E2F5E2E2F5E2F5F5F5F5F5F5F5F5F5F5F5F5F5F5F5F5F5DCF5
310
28F5F5F5F5F5F5F5F5F5F5F5F5F5F5F5F5F5F5F5F5F5F5F5F5F5F5F5F5F5F5F5F5F5F5F5F5F5F5F5F5F5F5F5F5F5F5F5F5F5F5F5F5F5F5F5F5F5F5F5F5F5F5F5F5F5F5F5F5F5F5F5F5F5F5F5F5F5F5F5F5F5F5F5F5F5F5F5F5F5F5F5F5F5F5F5F5F5F5F5F5F5F5F5F5F5F5F5F5F5F5F5F5F5F5F5F5F5F5F5F5F5F5F5F5F5F5
310
F5F5F5F5F5F5F5F528F5DCF5F5F5F5F5F5F5F5F5F5F5F5F5F5F5F5F5E2F5E2E2F5E2F5F5F5F5F5F5F5F5F5F5F5F5F5F5F5F5F5DCF528F5F5F5F5F5F5F5F5F5F5F5F5F5F5F5F5F5F5F5F5F5F5F5F5F5F5F5F5F5F5F5F5F5F5F5F5F5F5F5F5F5F5F5F5F5F5F5F5F5F5F5F5F5F5F5F5F5F5F5F5F5F5F5F5F5F5F5F5F5F5F5F5F5
310
F5F5F5F5F5F5F5F5F5F5F5F5F5F5F5F5F5F5F5F5F5F5F5F5F5F5F5F5F5F5F5F5F5F5F5F5F5F5F5F5F5F5F5F5F5F5F5F5F5F5F5F5F5F5F5F5F5F5F5F5F528F5DCF5F5F5F5F5F5F5F5F5F5F5F5F5F5F5F5F5E2F5E2E2F5E2F5F5F5F5F5F5F5F5F5F5F5F5F5F5F5F5F5DCF528F5F5F5F5F5F5F5F5F5F5F5F5F5F5F5F5F5F5F5F5
310
F5F5F5F5F5F5F5F5F5F5F5F5F5F5F5F5F5F5F5F5F5F5F5F5F5F5F5F5F5F5F5F5F5F5F5F5F5F5F5F5F5F5F5F5F5F5F5F5F5F5F5F5F5F5F5F5F5F5F5F5F5F5F5F5F5F5F5F5F5F5F5F5F5F5F5F5F5F5F5F5F5F5F5F5F5F5F5F5F5F5F5F5F5F5F5F5F5F5F5F5F5F5F5F5F5F5F5F5F5F5F5F5F5F528F5DCF5F5F5F5F5F5F5F5F5F5
310
F5F5F5F5F5F5F5E2F5E2E2F5E2F5F5F5F5F5F5F5F5F5F5F5F5F5F5F5F5F5DCF528F5F5F5F5F5F5F5F5F5DCF5F5F5F5F5F5F5F5F5F5F5F5F5F5F5F5F5F5F5F5F5F5F5F5F5F5F5F5F5F5F5F5F5F5F5F5F5F5F5F5F5F5F5F5F5F5F5F5F5F5F5F5F5F5F5F5F5F5F5F5F5F5F5F5F5F5F5F5F5F5F5F5F5F5F5F5F5F5F5F5F5F5F5F5
310
F5F5F5F5F5F5F5F5F5F5F5F5F5F5F5F5F5F5F5F5F5F5F5F5F5F5F5F5F5F5F5F5F5F5F5F5F5F5F5F528F5DCF5F5F5F5F5F5F5F5F5F5F5F5F5F5F5F5F5E2F5E2E2F5E2F5F5F5F5F5F5F5F5F5F5F5F5F5F5F5F5F5DCF528F5F5F5F5F5F5F5F50FDCF5F5F5F5F52D2D2D2D2D2D2D2DF5F5F5F5F50FF5F5F5F5F5F5F5F5F5F5F5F5
310
F5F5F5F5F5F5F5F5F5F5F5F5F5F5F5F5F5F5F5F5F5F5F5F5F5F5F5F5F5F5F5F5F5F5F5F5F5F5F5F5F5F5F5F5F5F5F5F5F5F5F5F5F5F5F5F5F5F5F5F5F5F5F5F5F5F5F5F5F5F5F5F5F5F5F5F5F5F5F5F5F5F5F5F5F5F5F5F5F5F5F5F5F528F5DCF5F5F5F5F5F5F5F5F5F5F5F5F5F5F5F5F5E2F5E2E2F5E2F5F5F5F5F5F5F5F5
310
F5F5F5F5F5F5F5F5F5DCF528F5F5F5F5DCF5F5DC0FDC0F0F0F0F0F2D2D2D2D2D2D2D2D0F0F0F0F0F0F0FF5F5F5F5F5F5F5F5F5F5F5F5F5F5F5F5F5F5F5F5F5F5F5F5F5F5F5F5F5F5F5F5F5F5F5F5F5F5F5F5F5F5F5F5F5F5F5F5F5F5F5F5F5F5F5F5F5F5F5F5F5F5F5F5F5F5F5F5F5F5F5F5F5F5F5F5F5F5F5F5F5F5F5F5F5
310
F5F5F5F5F5F5F5F5F5F5F5F5F5F5F5F5F5F5F528F5DCF5F5F5F5F5F5F5F5F5F5F5F5F5F5F5F5F5E2F5E2E2F5E2F5F5F5F5F5F5F5F5F5F5F5F5F5F5F5F5F5DCF528F5F5F5DCF5F5DCF5F5DCF5F5F5F5F5F5F5F5F5F5F5F5F5F5F5F5F5F50FF5F5F5F5F5F5F5F5F5F5F5F5F5F5F5F5F5F5F5F5F5F5F5F5F5F5F5F5F5F5F5F5F5
310
F5F5F5F5F5F5F5F5F5F5F5F5F5F5F5F5F5F5F5F5F5F5F5F5F5F5F5F5F5F5F5F5F5F5F5F5F5F5F5F5F5F5F5F5F5F5F5F5F5F5F5F5F5F5F5F5F5F5F5F5F5F5F5F5F5F5F5F5F5F5F5F528F5DCF5F5F5F5F5F5F5F5F5F5F5F5F5F5F5F5F5E2F5E2E2F5E2F5F5F5F5F5F5F5F5F5F5F5F5F5F5F5F5F5DCF528F5F5F5F5F5DCF5F5DC
310
DCF5F5F5F5F5F5F5F5F5F5F5F5F5F5F5F5F5F50FF5F5F5F5F5F5F5F5F5F5F5F5F5F5F5F5F5F5F5F5F5F5F5F5F5F5F5F5F5F5F5F5F5F5F5F5F5F5F5F5F5F5F5F5F5F5F5F5F5F5F5F5F5F5F5F5F5F5F5F5F5F5F5F5F5F5F5F5F5F5F5F5F5F5F5F5F5F5F5F5F5F5F5F5F5F5F5F5F5F5F5F5F5F5F5F5F5F5F5F5F5F5F5F5F528F5
310
DCF5F5F5F5F5F5F5F5F5F5F5F5F5F5F5F5F5E2F5E2E2F5E2F5F5F5F5F5F5F5F5F5F5F5F5F5F5F5F5F5DCF528F5F5F5F5DCF5F5DCF5DCF5F5F5F5F5F5F5F5F5F5F5F5F5F5F5F5F5F50FF5F5F5F5F5F5F5F5F5F5F5F5F5F5F5F5F5F5F5F5F5F5F5F5F5F5F5F5F5F5F5F5F5F5F5F5F5F5F5F5F5F5F5F5F5F5F5F5F5F5F5F5F5F5
310
F5F5F5F5F5F5F5F5F5F5F5F5F5F5F5F5F5F5F5F5F5F5F5F5F5F5F5F5F5F5F5F5F5F5F5F5F5F5F5F5F5F5F5F5F5F5F5F5F5F5F528F5DCF5F5F5F5F5F5F5F5F5F5F5F5F5F5F5F5F5E2F5E2E2F5E2F5F5F5F5F5F5F5F5F5F5F5F5F5F5F5F5F5DCF528F5F5F5DCF5F5DCF5F5DCF5F5F5F5F5F5F5F5F5F5F5F5F5F5F5F5F5F50FF5
310
F5F5F5F5F5F5F5F5F5F5F5F5F5F5F5F5F5F5F5F5F5F5F5F5F5F5F5F5F5F5F5F5F5F5F5F5F5F5F5F5F5F5F5F5F5F5F5F5F5F5F5F5F5F5F5F5F5F5F5F5F5F5F5F5F5F5F5F5F5F5F5F5F5F5F5F5F5F5F5F5F5F5F5F5F5F5F5F5F5F5F5F5F5F5F5F5F5F5F5F5F5F5F5F528F5DCF5F5F5F5F5F5F5F5F5F5F5F5F5F5F5F5F5E2F5E2
310
E2F5F5F5F5F5F5F5F5F5F5F5F5F5F5F5F5F5F5F5DCF528F5F5F5F5F5DCF5F5F5DC1B0F0F0F0F0F0F0F0F0F0F0F0F0F0F0F0F0F0F0F0F0F0F0F0F0FF5F5F5F5F5F5F5F5F5F5F5F5F5F5F5F5F5F5F5F5F5F5F5F5F5F5F5F5F5F5F5F5F5F5F5F5F5F5F5F5F5F5F5F5F5F5F5F5F5F5F5F5F5F5F5F5F5F5F5F5F5F5F5F5F5F5F5F5
310
F5F5F5F5F5F5F5F5F5F5F5F5F5F5F5F5F5F5F5F5F5F5F5F5F5F5F5F5F5F528F5DCF5F5F5F5F5F5F5F5F5F5F5F5F5F5F5F5F5F5F5E2E2F5F5F5F5F5F5F5F5F5F5F5F5F5F5F5F5F5F5F5DCF528F5F5F5F5DCF5F5F5DCDCBEF5F5F5F5F5F5F5F5F5F5F5F5F5F5F5F5F50FF5F5F5F5F50FF5F5F5F5F5F5F5F5F5F5F5F5F5F5F5F5
310
F5F5F5F5F5F5F5F5F5F5F5F5F5F5F5F5F5F5F5F5F5F5F5F5F5F5F5F5F5F5F5F5F5F5F5F5F5F5F5F5F5F5F5F5F5F5F5F5F5F5F5F5F5F5F5F5F5F5F5F5F5F5F5F5F5F5F5F5F5F5F5F5F5F5F5F5F5F5F5F5F5F5F528F5DCF5F5F5F5F5F5F5F5F5F5F5F5F5F5F5F5F5F5F5E2E2F5F5F5F5F5F5F5F5F5F5F5F5F5F5F5F5F5F5F5DC
310
F528F5F5F5DCF5F5F5DCF5DCF5BEBEF5F5F5F5F5F5F5F5F5F5F5F5F5F5F50FF5F5F5F5F50FF5F5F5F5F5F5F5F5F5F5F5F5F5F5F5F5F5F5F5F5F5F5F5F5F5F5F5F5F5F5F5F5F5F5F5F5F5F5F5F5F5F5F5F5F5F5F5F5F5F5F5F5F5F5F5F5F5F5F5F5F5F5F5F5F5F5F5F5F5F5F5F5F5F5F5F5F5F5F5F5F5F5F5F5F5F5F5F5F5F5
310
F5F5F5F5F5F5F5F5F528F5DCF5F5F5F5F5F5F5F5F5F5F5F5F5F5F5F5F5F5F5E2E2F5F5F5F5F5F5F5F5F5F5F5F5F5F5F5F5F5F5F5DCF528F5F5F5F5F5DCDCF5F5DCF5F5BEBEF5F5F5F5F5F5F5F5F5F5F5F5F5F50FF5F5F5F5F50FF5F5F5F5F5F5F5F5F5F5F5F5F5F5F5F5F5F5F5F5F5F5F5F5F5F5F5F5F5F5F5F5F5F5F5F5F5
310
F5F5F5F5F5F5F5F5F5F5F5F5F5F5F5F5F5F5F5F5F5F5F5F5F5F5F5F5F5F5F5F5F5F5F5F5F5F5F5F5F5F5F5F5F5F5F5F5F5F5F5F5F5F5F5F5F5F5F5F5F5F528F5DCF5F5F5F5F5F5F5F5F5F5F5F5F5F5F5F5F5F5F5E2E2F5F5F5F5F5F5F5F5F5F5F5F5F5F5F5F5F5F5F5DCF528F5F5F5F5DCF5F5F5DCDCF5F5F5BEF5F5F5F5F5
310
F5F5F5F5F5F5F5F5F50FF5F5F5F5F50FF5F5F5F5F5F5F5F5F5F5F5F5F5F5F5F5F5F5F5F5F5F5F5F5F5F5F5F5F5F5F5F5F5F5F5F5F5F5F5F5F5F5F5F5F5F5F5F5F5F5F5F5F5F5F5F5F5F5F5F5F5F5F5F5F5F5F5F5F5F5F5F5F5F5F5F5F5F5F5F5F5F5F5F5F5F5F5F5F5F5F5F5F5F5F5F5F5F5F528F5DCF5F5F5F5F5F5F5F5F5
310
F5F5F5F5F5F5F5F5F5F5E2E2F5F5F5F5F5F5F5F5F5F5F5F5F5F5F5F5F5F5F5DCF528F5F5F5DCF5F5F5DCF5DCF5F5F5BEBEBEF5F5F5F5F5F5F5F5F5F5F5F50FF5F5F5F5F50FF5F5F5F5F5F5F5F5F5F5F5F5F5F5F5F5F5F5F5F5F5F5F5F5F5F5F5F5F5F5F5F5F5F5F5F5F5F5F5F5F5F5F5F5F5F5F5F5F5F5F5F5F5F5F5F5F5F5
310
F5F5F5F5F5F5F5F5F5F5F5F5F5F5F5F5F5F5F5F5F5F5F5F5F5F5F5F5F5F5F5F5F5F5F5F5F5F5F5F5F528F5DCF5F5F5F5F5F5F5F5F5F5F5F5F5F5F5F5F5F5F5E2E2F5F5F5F5F5F5F5F5F5F5F5F5F5F5F5F5F5F5F5DCF528F5F5F5F5F5DCDCF5F5DCF5F5F5F5BEBEF5F5F5F5F5F5F5F5F5F5F5F50FF5F5F5F5F50FF5F5F5F5F5
310
F5F5F5F5F5F5F5F5F5F5F5F5F5F5F5F5F5F5F5F5F5F5F5F5F5F5F5F5F5F5F5F5F5F5F5F5F5F5F5F5F5F5F5F5F5F5F5F5F5F5F5F5F5F5F5F5F5F5F5F5F5F5F5F5F5F5F5F5F5F5F5F5F5F5F5F5F5F5F5F5F5F5F5F5F5F5F5F5F5F5F5F5F5F528F5DCF5F5F5F5F5F5F5F5F5F5F5F5F5F5F5F5F5F5F5E2E2F5F5F5F5F5F5F5F5F5
310
F5F5F5F5F5F5F5F5F5F5DCF528F5F5F5F5DCF5F5F5DCDCF5F5F5F5BEF5F5F5F5F5F5F5F5F5F5F5F5F50FF5F5F5F5F50FF5F5F5F5F5F5F5F5F5F5F5F5F5F5F5F5F5F5F5F5F5F5F5F5F5F5F5F5F5F5F5F5F5F5F5F5F5F5F5F5F5F5F5F5F5F5F5F5F5F5F5F5F5F5F5F5F5F5F5F5F5F5F5F5F5F5F5F5F5F5F5F5F5F5F5F5F5F5F5
310
F5F5F5F5F5F5F5F5F5F5F5F5F5F5F5F5F5F5F5F528F5DCF5F5F5F5F5F5F5F5F5F5F5F5F5F5F5F5F5F5F5E2E2F5F5F5F5F5F5F5F5F5F5F5F5F5F5F5F5F5F5F5DCF528F5F5F5DCF5F5F5DCF5DCF5F5F5F5BEF5F5F5F5F5F5F5F5F5F5F5F5F50FF5F5F5F5F50FF5F5F5F5F5F5F5F5F5F5F5F5F5F5F5F5F5F5F5F5F5F5F5F5F5F5
310
F5F5F5F5F5F5F5F5F5F5F5F5F5F5F5F5F5F5F5F5F5F5F5F5F5F5F5F5F5F5F5F5F5F5F5F5F5F5F5F5F5F5F5F5F5F5F5F5F5F5F5F5F5F5F5F5F5F5F5F5F5F5F5F5F5F5F5F5F5F5F5F5F528F5DCF5F5F5F5F5F5F5F5F5F5F5F5F5F5F5F5F5F5F5E2E2F5E2F5F5F5F5F5F5F5F5F5F5F5F5F5F5F5F5F5DCF528F5F5F5F5F5F5DCF5
310
F5DCBEBEF5F5BEF5F5F5F5F5F5F5F5F5F5F5F5F50FF5F52D2D2D2D2D2D2D2DF5F5F5F5F5F5F5F5F5F5F5F5F5F5F5F5F5F5F5F5F5F5F5F5F5F5F5F5F5F5F5F5F5F5F5F5F5F5F5F5F5F5F5F5F5F5F5F5F5F5F5F5F5F5F5F5F5F5F5F5F5F5F5F5F5F5F5F5F5F5F5F5F5F5F5F5F5F5F5F5F5F5F5F5F5F5F5F5F5F5F5F5F5F5F528
310
F5DCF5F5F5F5F5F5F5F5F5F5F5F5F5F5F5F5F5E2F5E2E2F5E2F5F5F5F5F5F5F5F5F5F5F5F5F5F5F5F5F5DCF528F5F5F5F5F5DCF5F5DCDCF5BEF5F5BEF5F5F5F5F5F5F5F5F5F5F5F5F50FF5F52D2D2D2D2D2D2D2DF5F5F5F5F5F5F5F5F5F5F5F5F5F5F5F5F5F5F5F5F5F5F5F5F5F5F5F5F5F5F5F5F5F5F5F5F5F5F5F5F5F5F5
310
F5F5F5F5F5F5F5F5F5F5F5F5F5F5F5F5F5F5F5F5F5F5F5F5F5F5F5F5F5F5F5F5F5F5F5F5F5F5F5F5F5F5F5F5F5F5F5F5F5F5F5F528F5DCF5F5F5F5F5F5F5F5F5F5F5F5F5F5F5F5F5E2F5E2E2F5E2F5F5F5F5F5F5F5F5F5F5F5F5F5F5F5F5F5DCF528F5F5F5F5DCF5F5DCF5DCF5BEF5F5BEBEF5F5F5F5F5F5F5F5F5F5F5F50F
310
F5F5F5F5F50FF5F5F5F5F5F5F5F5F5F5F5F5F5F5F5F5F5F5F5F5F5F5F5F5F5F5F5F5F5F5F5F5F5F5F5F5F5F5F5F5F5F5F5F5F5F5F5F5F5F5F5F5F5F5F5F5F5F5F5F5F5F5F5F5F5F5F5F5F5F5F5F5F5F5F5F5F5F5F5F5F5F5F5F5F5F5F5F5F5F5F5F5F5F5F5F5F5F5F528F5DCF5F5F5F5F5F5F5F5F5F5F5F5F5F5F5F5F5E2F5
310
E2E2F5E2F5F5F5F5F5F5F5F5F5F5F5F5F5F5F5F5F5DCF528F5F5F5DCF5F5DCF5F5DCF5F5BEF5F5BEF5F5F5F5F5F5F5F5F5F5F5F50FF5F5F5F5F50FF5F5F5F5F5F5F5F5F5F5F5F5F5F5F5F5F5F5F5F5F5F5F5F5F5F5F5F5F5F5F5F5F5F5F5F5F5F5F5F5F5F5F5F5F5F5F5F5F5F5F5F5F5F5F5F5F5F5F5F5F5F5F5F5F5F5F5F5
310
F5F5F5F5F5F5F5F5F5F5F5F5F5F5F5F5F5F5F5F5F5F5F5F5F5F5F5F5F5F5F528F5DCF5F5F5F5F5F5F5F5F5F5F5F5F5F5F5F5F5E2F5E2E2F5E2F5F5F5F5F5F5F5F5F5F5F5F5F5F5F5F5F5DCF528F5F5F5F5F5DCF5F5DCDCF5F5BEF5F5F5BEBEF5F5F5F5BEBEF5F5F5F50FF5F5F5F5F50FF5F5F5F5F5F5F5F5F5F5F5F5F5F5F5
310
F5F5F5F5F5F5F5F5F5F5F5F5F5F5F5F5F5F5F5F5F5F5F5F5F5F5F5F5F5F5F5F5F5F5F5F5F5F5F5F5F5F5F5F5F5F5F5F5F5F5F5F5F5F5F5F5F5F5F5F5F5F5F5F5F5F5F5F5F5F5F5F5F5F5F5F5F5F5F5F5F5F5F5F528F5DCF5F5F5F5F5F5F5F5F5F5F5F5F5F5F5F5F5E2F5E2E2F5E2F5F5F5F5F5F5F5F5F5F5F5F5F5F5F5F5F5
310
DCF528F5F5F5F5DCF5F5DCF5DCF5F5F5BEF5F5F5BEBEBEBEBEF5BEF5F5F5F50FF5F5F5F5F50FF5F5F5F5F5F5F5F5F5F5F5F5F5F5F5F5F5F5F5F5F5F5F5F5F5F5F5F5F5F5F5F5F5F5F5F5F5F5F5F5F5F5F5F5F5F5F5F5F5F5F5F5F5F5F5F5F5F5F5F5F5F5F5F5F5F5F5F5F5F5F5F5F5F5F5F5F5F5F5F5F5F5F5F5F5F5F5F5F5
310
F5F5F5F5F5F5F5F5F5F528F5DCF5F5F5F5F5F5F5F5F5F5F5F5F5F5F5F5F5E2F5E2E2F5E2F5F5F5F5F5F5F5F5F5F5F5F5F5F5F5F5F5DCF528F5F5F5DCF5F5DCF5F5DCF5F5F5F5BEF5F5F5F5F5F5F5F5BEBEF5F5F50FF5F5F5F5F50FF5F5F5F5F5F5F5F5F5F5F5F5F5F5F5F5F5F5F5F5F5F5F5F5F5F5F5F5F5F5F5F5F5F5F5F5
310
F5F5F5F5F5F5F5F5F5F5F5F5F5F5F5F5F5F5F5F5F5F5F5F5F5F5F5F5F5F5F5F5F5F5F5F5F5F5F5F5F5F5F5F5F5F5F5F5F5F5F5F5F5F5F5F5F5F5F5F5F5F5F528F5DCF5F5F5F5F5F5F5F5F5F5F5F5F5F5F5F5F5E2F5E2E2F5E2F5F5F5F5F5F5F5F5F5F5F5F5F5F5F5F5F5DCF528F5F5F5F5F5DCF5F5F5DCF5F5F5F5F5BEBEBE
310
F5F5F5F5F5F5F5BEBEF50FF5F5F5F5F50FF5F5F5F5F5F5F5F5F5F5F5F5F5F5F5F5F5F5F5F5F5F5F5F5F5F5F5F5F5F5F5F5F5F5F5F5F5F5F5F5F5F5F5F5F5F5F5F5F5F5F5F5F5F5F5F5F5F5F5F5F5F5F5F5F5F5F5F5F5F5F5F5F5F5F5F5F5F5F5F5F5F5F5F5F5F5F5F5F5F5F5F5F5F5F5F5F5F5F528F5DCF5F5F5F5F5F5F5F5
310
F5F5F5F5F5F5F5F5F5E2F5E2E2F5E2F5F5F5F5F5F5F5F5F5F5F5F5F5F5F5F5F5DCF528F5F5F5F5DCF5F5F5DCDCF5F5F5F5F5F5F5F5BEBEF5F5F5F5F5F5BEF50FF5F5F5F5F50FF5F5F5F5F5F5F5F5F5F5F5F5F5F5F5F5F5F5F5F5F5F5F5F5F5F5F5F5F5F5F5F5F5F5F5F5F5F5F5F5F5F5F5F5F5F5F5F5F5F5F5F5F5F5F5F5F5
310
F5F5F5F5F5F5F5F5F5F5F5F5F5F5F5F5F5F5F5F5F5F5F5F5F5F5F5F5F5F5F5F5F5F5F5F5F5F5F5F5F5F528F5DCF5F5F5F5F5F5F5F5F5F5F5F5F5F5F5F5F5E2F5E2E2F5E2F5F5F5F5F5F5F5F5F5F5F5F5F5F5F5F5F5DCF528F5F5F5DCF5F5F5DCF5DCF5F5F5F5F5F5F5F5F5BEBEF5F5F5F5F5F5BE1BF5F5F5F5F50FF5F5F5F5
310
F5F5F5F5F5F5F5F5F5F5F5F5F5F5F5F5F5F5F5F5F5F5F5F5F5F5F5F5F5F5F5F5F5F5F5F5F5F5F5F5F5F5F5F5F5F5F5F5F5F5F5F5F5F5F5F5F5F5F5F5F5F5F5F5F5F5F5F5F5F5F5F5F5F5F5F5F5F5F5F5F5F5F5F5F5F5F5F5F5F5F5F5F5F5F528F5DCF5F5F5F5F5F5F5F5F5F5F5F5F5F5F5F5F5E2F5E2E2F5E2F5F5F5F5F5F5
310
F5F5F5F5F5F5F5F5F5F5F5DCF528F5F5F5F5F5DCDCF5F5DCF5F5F5F5F5F5F5F5F5F5BEF5F5F5F5F5F5F5BEF5F5F5F5F50F0FF5F5F5F5F5F5F5F5F5F5F5F5F5F5F5F5F5F5F5F5F5F5F5F5F5F5F5F5F5F5F5F5F5F5F5F5F5F5F5F5F5F5F5F5F5F5F5F5F5F5F5F5F5F5F5F5F5F5F5F5F5F5F5F5F5F5F5F5F5F5F5F5F5F5F5F5F5
310
F5F5F5F5F5F5F5F5F5F5F5F5F5F5F5F5F5F5F5F5F528F5DCF5F5F5F5F5F5F5F5F5F5F5F5F5F5F5F5F5E2F5E2E2F5E2F5F5F5F5F5F5F5F5F5F5F5F5F5F5F5F5F5DCF528F5F5F5F5DCF5F5F5DCDCDCDCDCDCDCDCDCDCDCDCDCDCDCDCDCDCDCDCDCDCDCDCDCDCDCDCDCF5F5F5F5F5F5F5F5F5F5F5F5F5F5F5F5F5F5F5F5F5F5F5
310
F5F5F5F5F5F5F5F5F5F5F5F5F5F5F5F5F5F5F5F5F5F5F5F5F5F5F5F5F5F5F5F5F5F5F5F5F5F5F5F5F5F5F5F5F5F5F5F5F5F5F5F5F5F5F5F5F5F5F5F5F5F5F5F5F5F5F5F5F5F5F5F5F5F528F5DCF5F5F5F5F5F5F5F5F5F5F5F5F5F5F5F5F5E2F5E2E2F5E2F5F5F5F5F5F5F5F5F5F5F5F5F5F5F5F5F5DCF528F5F5F5DCF5F5F5
310
DCF5F5DCF5F5DCF5F5F5DCF5F5DCF5F5DCF5F5DCF5F5DCF5F5DCF5F5F5F5F5F5F5F5F5F5F5F5F5F5F5F5F5F5F5F5F5F5F5F5F5F5F5F5F5F5F5F5F5F5F5F5F5F5F5F5F5F5F5F5F5F5F5F5F5F5F5F5F5F5F5F5F5F5F5F5F5F5F5F5F5F5F5F5F5F5F5F5F5F5F5F5F5F5F5F5F5F5F5F5F5F5F5F5F5F5F5F5F5F5F5F5F5F5F5F5F5
310
28F5DCF5F5F5F5F5F5F5F5F5F5F5F5F5F5F5F5F5E2F5E2E2F5E2F5F5F5F5F5F5F5F5F5F5F5F5F5F5F5F5F5DCF528F5F5F5F5F5DCDCF5F5DCF5F5DCF5F5F5DCF5F5DCF5F5DCF5F5DCF5F5DCF5F5DCF5F5F5F5F5F5F5F5F5F5F5F5F5F5F5F5F5F5F5F5F5F5F5F5F5F5F5F5F5F5F5F5F5F5F5F5F5F5F5F5F5F5F5F5F5F5F5F5F5
310
F5F5F5F5F5F5F5F5F5F5F5F5F5F5F5F5F5F5F5F5F5F5F5F5F5F5F5F5F5F5F5F5F5F5F5F5F5F5F5F5F5F5F5F5F5F5F5F5F5F5F5F5F528F5DCF5F5F5F5F5F5F5F5F5F5F5F5F5F5F5F5F5E2F5E2E2F5E2F5F5F5F5F5F5F5F5F5F5F5F5F5F5F5F5F5DCF528F5F5F5F5DCF5F5F5DCF5F5DCF5F5DCDCF5DCDCF5DCDCF5F5DCF5F5DC
310
F5F5DCF5F5F5F5F5F5F5F5F5F5F5F5F5F5F5F5F5F5F5F5F5F5F5F5F5F5F5F5F5F5F5F5F5F5F5F5F5F5F5F5F5F5F5F5F5F5F5F5F5F5F5F5F5F5F5F5F5F5F5F5F5F5F5F5F5F5F5F5F5F5F5F5F5F5F5F5F5F5F5F5F5F5F5F5F5F5F5F5F5F5F5F5F5F5F5F5F5F5F5F5F5F5F528F5DCF5F5F5F5F5F5F5F5F5F5F5F5F5F5F5F5F5E2
310
F5E2E2F5E2F5F5F5F5F5F5F5F5F5F5F5F5F5F5F5F5F5DCF528F5F5F5DCF5F5F5DCF5F5DCF5F5DCF5F5DCF5F5DCF5F5F5DCF5F5DCF5F5DCF5F5F5DCF5F5F5F5F5F5F5F5F5F5F5F5F5F5F5F5F5F5F5F5F5F5F5F5F5F5F5F5F5F5F5F5F5F5F5F5F5F5F5F5F5F5F5F5F5F5F5F5F5F5F5F5F5F5F5F5F5F5F5F5F5F5F5F5F5F5F5F5
310
F5F5F5F5F5F5F5F5F5F5F5F5F5F5F5F5F5F5F5F5F5F5F5F5F5F5F5F5F5F5F5F528F5DCF5F5F5F5F5F5F5F5F5F5F5F5F5F5F5F5F5E2F5E2E2F5F5F5F5F5F5F5F5F5F5F5F5F5F5F5F5F5F5F5DCF528F5F5F5F5F5F5DCF5F5DCF5F5DCF5F5DCF5F5DCF5F5F5DCF5F5DCF5F5DCF5F5DCDCF5F5F5F5F5F5F5F5F5F5F5F5F5F5F5F5
310
F5F5F5F5F5F5F5F5F5F5F5F5F5F5F5F5F5F5F5F5F5F5F5F5F5F5F5F5F5F5F5F5F5F5F5F5F5F5F5F5F5F5F5F5F5F5F5F5F5F5F5F5F5F5F5F5F5F5F5F5F5F5F5F5F5F5F5F5F5F5F5F5F5F5F5F5F5F5F5F5F5F5F5F5F528F5DCF5F5F5F5F5F5F5F5F5F5F5F5F5F5F5F5F5F5F5E2E2F5F5F5F5F5F5F5F5F5F5F5F5F5F5F5F5F5F5
310
F5DCF528F5F5F5F5F5F5F5F5F5F5F5F5F5F5F5F5F5F5F5F5F5F5F5F5F5F5F5F5F5F5F5F5F5F5F5F5F5F5F5F5F5F5F5F5F5F5F5F5F5F5F5F5F5F5F5F5F5F5F5F5F5F5F5F5F5F5F5F5F5F5F5F5F5F5F5F5F5F5F5F5F5F5F5F5F5F5F5F5F5F5F5F5F5F5F5F5F5F5F5F5F5F5F5F5F5F5F5F5F5F5F5F5F5F5F5F5F5F5F5F5F5F5F5
310
F5F5F5F5F5F5F5F5F5F5F528F5DCF5F5F5F5F5F5F5F5F5F5F5F5F5F5F5F5F5F5F5E2E2F5F5F5F5F5F5F5F5F5F5F5F5F5F5F5F5F5F5F5DCF528F5F5F5F5F5F5F5F5F5F5F5F5F5F5F5F5F5F5F5F5F5F5F5F5F5F5F5F5F5F5F5F5F5F5F5F5F5F5F5F5F5F5F5F5F5F5F5F5F5F5F5F5F5F5F5F5F5F5F5F5F5F5F5F5F5F5F5F5F5F5
310
F5F5F5F5F5F5F5F5F5F5F5F5F5F5F5F5F5F5F5F5F5F5F5F5F5F5F5F5F5F5F5F5F5F5F5F5F5F5F5F5F5F5F5F5F5F5F5F5F5F5F5F5F5F5F5F5F5F5F5F5F5F5F5F528F5DCF5F5F5F5F5F5F5F5F5F5F5F5F5F5F5F5F5F5F5E2E2F5F5F5F5F5F5F5F5F5F5F5F5F5F5F5F5F5F5F5DCF528F5F5F5F5F5F5F5F5F5F5F5F5F5F5F5F5F5
310
F5F5F5F5F5F5F5F5F5F5F5F5F5F5F5F5F5F5F5F5F5F5F5F5F5F5F5F5F5F5F5F5F5F5F5F5F5F5F5F5F5F5F5F5F5F5F5F5F5F5F5F5F5F5F5F5F5F5F5F5F5F5F5F5F5F5F5F5F5F5F5F5F5F5F5F5F5F5F5F5F5F5F5F5F5F5F5F5F5F5F5F5F5F5F5F5F5F5F5F5F5F5F5F5F5F5F5F5F5F5F5F5F5F5F5F5F528F5DCF5F5F5F5F5F5F5
310
F5F5F5F5F5F5F5F5F5F5F5F5E2E2F5F5F5F5F5F5F5F5F5F5F5F5F5F5F5F5F5F5F5DCF528F5F5F5F5F5F5F5F5F5F5F5F5F5F5F5F5F5F5F5F5F5F5F5F5F5F5F5F5F5F5F5F5F5F5F5F5F5F5F5F5F5F5F5F5F5F5F5F5F5F5F5F5F5F5F5F5F5F5F5F5F5F5F5F5F5F5F5F5F5F5F5F5F5F5F5F5F5F5F5F5F5F5F5F5F5F5F5F5F5F5F5
310
F5F5F5F5F5F5F5F5F5F5F5F5F5F5F5F5F5F5F5F5F5F5F5F5F5F5F5F5F5F5F5F5F5F5F5F5F5F5F5F5F5F5F528F5DCF5F5F5F5F5F5F5F5F5F5F5F5F5F5F5F5F5F5F5E2E2F5F5F5F5F5F5F5F5F5F5F5F5F5F5F5F5F5F5F5DCF528F5F5F5F5F5F5F5F5F5F5F5F5F5F5F5F5F5F5F5F5F5F5F5F5F5F5F5F5F5F5F5F5F5F5F5F5F5F5
310
F5F5F5F5F5F5F5F5F5F5F5F5F5F5F5F5F5F5F5F5F5F5F5F5F5F5F5F5F5F5F5F5F5F5F5F5F5F5F5F5F5F5F5F5F5F5F5F5F5F5F5F5F5F5F5F5F5F5F5F5F5F5F5F5F5F5F5F5F5F5F5F5F5F5F5F5F5F5F5F5F5F5F5F5F5F5F5F5F5F5F5F5F5F5F5F528F5DCF5F5F5F5F5F5F5F5F5F5F5F5F5F5F5F5F5F5F5E2E2F5F5F5F5F5F5F5
310
F5F5F5F5F5F5F5F5F5F5F5F5DCF528F5F5F5F5F5F5F5F5F5F5F5F5F5F5F5F5F5F5F5F5F5F5F5F5F5F5F5F5F5F5F5F5F5F5F5F5F5F5F5F5F5F5F5F5F5F5F5F5F5F5F5F5F5F5F5F5F5F5F5F5F5F5F5F5F5F5F5F5F5F5F5F5F5F5F5F5F5F5F5F5F5F5F5F5F5F5F5F5F5F5F5F5F5F5F5F5F5F5F5F5F5F5F5F5F5F5F5F5F5F5F5F5
310
F5F5F5F5F5F5F5F5F5F5F5F5F5F5F5F5F5F5F5F5F5F528F5DCF5F5F5F5F5F5F5F5F5F5F5F5F5F5F5F5F5F5F5E2E2F5F5F5F5F5F5F5F5F5F5F5F5F5F5F5F5F5F5F5DCF528F5F5F5F5F5F5F5F5F5F5F5F5F5F5F5F5F5F5F5F5F5F5F5F5F5F5F5F5F5F5F5F5F5F5F5F5F5F5F5F5F5F5F5F5F5F5F5F5F5F5F5F5F5F5F5F5F5F5F5
310
F5F5F5F5F5F5F5F5F5F5F5F5F5F5F5F5F5F5F5F5F5F5F5F5F5F5F5F5F5F5F5F5F5F5F5F5F5F5F5F5F5F5F5F5F5F5F5F5F5F5F5F5F5F5F5F5F5F5F5F5F5F5F5F5F5F5F5F5F5F5F5F5F5F5F528F5DCF5F5F5F5F5F5F5F5F5F5F5F5F5F5F5F5F5F5F5E2E2F5E2F5F5F5F5F5F5F5F5F5F5F5F5F5F5F5F5F5DCF528F5F5F5F5F5F5
310
F5F5F5F5F5F5F5F5F5F5F5F5F5F5F5F5F5F5F5F5F5F5F5F5F5F5F5F5F5F5F5F5F5F5F5F5F5F5F5F5F5F5F5F5F5F5F5F5F5F5F5F5F5F5F5F5F5F5F5F5F5F5F5F5F5F5F5F5F5F5F5F5F5F5F5F5F5F5F5F5F5F5F5F5F5F5F5F5F5F5F5F5F5F5F5F5F5F5F5F5F5F5F5F5F5F5F5F5F5F5F5F5F5F5F5F5F5F5F5F5F5F5F5F5F5F5F5
310
F528F5DCF5F5F5F5F5F5F5F5F5F5F5F5F5F5F5F5F5E2F5E2E2F5E2F5F5F5F5F5F5F5F5F5F5F5F5F5F5F5F5F5DCF528F5F5F5F5F5F5F5F5F5F5F5F5F5F5F5F5F5F5F5F5F5F5F5F5F5F5F5F5F5F5F5F5F5F5F5F5F5F5F5F5F5F5F5F5F5F5F5F5F5F5F5F5F5F5F5F5F5F5F5F5F5F5F5F5F5F5F5F5F5F5F5F5F5F5F5F5F5F5F5F5
310
F5F5F5F5F5F5F5F5F5F5F5F5F5F5F5F5F5F5F5F5F5F5F5F5F5F5F5F5F5F5F5F5F5F5F5F5F5F5F5F5F5F5F5F5F5F5F5F5F5F5F5F5F5F528F5DCF5F5F5F5F5F5F5F5F5F5F5F5F5F5F5F5F5E2F5E2E2F5E2F5F5F5F5F5F5F5F5F5F5F5F5F5F5F5F5F5DCF528F5F5F5F5F5F5F5F5F5F5F5F5F5F5F5F5F5F5F5F5F5F5F5F5F5F5F5
310
F5F5F5F5F5F5F5F5F5F5F5F5F5F5F5F5F5F5F5F5F5F5F5F5F5F5F5F5F5F5F5F5F5F5F5F5F5F5F5F5F5F5F5F5F5F5F5F5F5F5F5F5F5F5F5F5F5F5F5F5F5F5F5F5F5F5F5F5F5F5F5F5F5F5F5F5F5F5F5F5F5F5F5F5F5F5F5F5F5F5F5F5F5F5F5F5F5F5F5F5F5F5F5F5F5F5F528F5DCF5F5F5F5F5F5F5F5F5F5F5F5F5F5F5F5F5
310
E2F5E2E2F5E2F5F5F5F5F5F5F5F5F5F5F5F5F5F5F5F5F5DCF528F5F5F5F5F5F5F5F5F5F5F5F5F5F5F5F5F5F5F5F5F5F5F5F5F5F5F5F5F5F5F5F5F5F5F5F5F5F5F5F5F5F5F5F5F5F5F5F5F5F5F5F5F5F5F5F5F5F5F5F5F5F5F5F5F5F5F5F5F5F5F5F5F5F5F5F5F5F5F5F5F5F5F5F5F5F5F5F5F5F5F5F5F5F5F5F5F5F5F5F5F5
310
F5F5F5F5F5F5F5F5F5F5F5F5F5F5F5F5F5F5F5F5F5F5F5F5F5F5F5F5F5F5F5F5F528F5DCF5F5F5F5F5F5F5F5F5F5F5F5F5F5F5F5F5E2F5E2E2F5E2F5F5F5F5F5F5F5F5F5F5F5F5F5F5F5F5F5DCF528F5F5F5F5F5F5F5F5F5F5F5F5F5F5F5F5F5F5F5F5F5F5F5F5F5F5F5F5F5F5F5F5F5F5F5F5F5F5F5F5F5F5F5F5F5F5F5F5
310
F5F5F5F5F5F5F5F5F5F5F5F5F5F5F5F5F5F5F5F5F5F5F5F5F5F5F5F5F5F5F5F5F5F5F5F5F5F5F5F5F5F5F5F5F5F5F5F5F5F5F5F5F5F5F5F5F5F5F5F5F5F5F5F5F5F5F5F5F5F5F5F5F5F5F5F5F5F5F5F5F5F5F5F5F5F528F5DCF5F5F5F5F5F5F5F5F5F5F5F5F5F5F5F5F5E2F5E2E2F5E2F5F5F5F5F5F5F5F5F5F5F5F5F5F5F5
310
F5F5DCF528F5F5F5F5F5F5F5F5F5F5F5F5F5F5F5F5F5F5F5F5F5F5F5F5F5F5F5F5F5F5F5F5F5F5F5F5F5F5F5F5F5F5F5F5F5F5F5F5F5F5F5F5F5F5F5F5F5F5F5F5F5F5F5F5F5F5F5F5F5F5F5F5F5F5F5F5F5F5F5F5F5F5F5F5F5F5F5F5F5F5F5F5F5F5F5F5F5F5F5F5F5F5F5F5F5F5F5F5F5F5F5F5F5F5F5F5F5F5F5F5F5F5
310
F5F5F5F5F5F5F5F5F5F5F5F528F5DCF5F5F5F5F5F5F5F5F5F5F5F5F5F5F5F5F5E2F5E2E2F5E2F5F5F5F5F5F5F5F5F5F5F5F5F5F5F5F5F5DCF528F5F5F5F5F5F5F5F5F5F5F5F5F5F5F5F5F5F5F5F5F5F5F5F5F5F5F5F5F5F5F5F5F5F5F5F5F5F5F5F5F5F5F5F5F5F5F5F5F5F5F5F5F5F5F5F5F5F5F5F5F5F5F5F5F5F5F5F5F5
310
F5F5F5F5F5F5F5F5F5F5F5F5F5F5F5F5F5F5F5F5F5F5F5F5F5F5F5F5F5F5F5F5F5F5F5F5F5F5F5F5F5F5F5F5F5F5F5F5F5F5F5F5F5F5F5F5F5F5F5F5F5F5F5F5F528F5DCF5F5F5F5F5F5F5F5F5F5F5F5F5F5F5F5F5E2F5E2E2F5E2F5F5F5F5F5F5F5F5F5F5F5F5F5F5F5F5F5DCF528F5F5F5F5F5F5F5F5F5F5F5F5F5F5F5F5
310
F5F5F5F5F5F5F5F5F5F5F5F5F5F5F5F5F5F5F5F5F5F5F5F5F5F5F5F5F5F5F5F5F5F5F5F5F5F5F5F5F5F5F5F5F5F5F5F5F5F5F5F5F5F5F5F5F5F5F5F5F5F5F5F5F5F5F5F5F5F5F5F5F5F5F5F5F5F5F5F5F5F5F5F5F5F5F5F5F5F5F5F5F5F5F5F5F5F5F5F5F5F5F5F5F5F5F5F5F5F5F5F5F5F5F5F5F5F528F5DCF5F5F5F5F5F5
310
F5F5F5F5F5F5F5F5F5F5F5E2F5E2E2F5E2F5F5F5F5F5F5F5F5F5F5F5F5F5F5F5F5F5DCF528282828282828282828282828282828282828282828282828282828282828282828282828282828282828282828282828282828282828282828282828282828282828282828282828282828282828282828282828282828282828
310
282828282828282828282828282828282828282828282828282828282828282828282828282828282828282828F5DCF5F5F5F5F5F5F5F5F5F5F5F5F5F5F5F5F5E2F5E2E2F5E2F5F5F5F5F5F5F5F5F5F5F5F5F5F5F5F5F5DCF528F5F5F5F5F5F5F5F5F5F5F5F5F5F5F5F5F5F5F5F5F5F5F5F5F5F5F5F5F5F5F5F5F5F5F5F5F5
310
F5F5F5F5F5F5F5F5F5F5F5F5F5F5F5F5F5F5F5F5F5F5F5F5F5F5F5F5F528F5F5F5F5F5F5F5F5F5F5F5F5F5F5F5F5F5F5F5F5F5F5F5F5F5F5F5F5F5F5F5F5F5F5F5F5F5F5F5F5F5F5F5F5F5F5F5F5F5F5F5F5F5F5F5F5F5F5F5F5F5F5F5F5F5F5F528F5DCF5F5F5F5F5F5F5F5F5F5F5F5F5F5F5F5F5E2F5E2E2F5E2F5F5F5F5
310
F5F5F5F5F5F5F5F5F5F5F5F5F5DCF528F5F5F5F5F5F5F5F5F5F5F5F5F52D2D2D2D2D2D2D2D2D2D2D2D2D2D2D2D2D2D2D2D2D2D2D2D2D2D2D2D2D2D2D2D2D2D2D2D2D2DF5F5F5F5F5F5F5F5F5F5F5F5F5F5F528F5F5F52D2D2D2DF52D2D2D2D2D2DF5F5F5F5F5F5F5F5F5F5F5F5F5F5F5F5F5F5F5F5F5F5F5F5F5F5F5F5F5F5
310
F5F5F5F5F5F5F5F5F5F5F5F5F5F5F5F5F5F5F5F5F5F5F528F5DCF5F5F5F5F5F5F5F5F5F5F5F5F5F5F5F5F5E2F5E2E2F5E2F5F5F5F5F5F5F5F5F5F5F5F5F5F5F5F5F5DCF528F5F5F5F5F5F5F5F5F5F5F5F5F52D2D2D2D2D2D2D2D2D2D2D2D2D2D2D2D2D2D2D2D2D2D2D2D2D2D2D2D2D2D2D2D2D2D2D2D2D2DF5F5F5F5F5F5F5
310
F5F5F5F5F5F5F5F528F5F5F52D2D2D2DF52D2D2D2DF52DF5F5F5F5F5F5F5F5F5F5F5F5F5F5F5F5F5F5F5F5F5F5F5F5F5F5F5F5F5F5F5F5F5F5F5F5F5F5F5F5F5F5F5F5F5F5F5F5F5F5F5F5F528F5DCF5F5F5F5F5F5F5F5F5F5F5F5F5F5F5F5F5E2F5E2E2F5E2F5F5F5F5F5F5F5F5F5F5F5F5F5F5F5F5F5DCF528F5F5F5F5F5
310
F5F5F5F5F5F5F5F5F5F5F5F5F5F5F5F5F5F5F5F5F5F5F5F5F5F5F5F5F5F5F5F5F5F5F5F5F5F5F5F5F5F5F5F5F5F5F5F5F5F5F5F5F5F5F5F5F5F5F5F5F528F5F5F5F5F5F5F5F5F5F5F5F5F5F5F5F5F5F5F5F5F5F5F5F5F5F5F5F5F5F5F5F5F5F5F5F5F5F5F5F5F5F5F5F5F5F5F5F5F5F5F5F5F5F5F5F5F5F5F5F5F5F5F5F5F5
310
F5F528F5DCF5F5F5F5F5F5F5F5F5F5F5F5F5F5F5F5F5E2F5E2E2F5E2F5F5F5F5F5F5F5F5F5F5F5F5F5F5F5F5F5DCF52828282828282828282828282828282828282828282828282828282D2D2D2D2D2D2D2D2D2D2D2D2D28282828282828282828282828282828282828282828282828282828282828282828282828282828
310
2828282828282828282828282828282828282828282828282828282828282828282828282828282828282828282828282828282828282828F5DCF5F5F5F5F5F5F5F5F5F5F5F5F5F5F5F5F5E2F5E2E2F5E2F5F5F5F5F5F5F5F5F5F5F5F5F5F5F5F5F5DCF528F5F5F5F5F5F5F5F5F5F5F5F5F5F5F5F5F5F5F5F5F5F5F5F5F5F5
310
2D2D2D2D2D2D2D2D2D2D2D2D2DF5F5F5F5F5F5F5F5F5F5F5F5F5F5F5F5F5F5F5F5F5F5F5F5F5F5F528F5F5F52D2D2D2D2D2D2D2D2D2D2DF5F52D2D2D2D2D2D2D2D2D2DF5F5F5F5F5F5F5F5F5F5F5F5F5F5F5F5F5F5F5F5F5F5F5F5F5F5F5F5F5F5F5F5F5F5F5F5F5F5F5F5F528F5DCF5F5F5F5F5F5F5F5F5F5F5F5F5F5F5F5
310
F5E2F5E2E2F5E2F5F5F5F5F5F5F5F5F5F5F5F5F5F5F5F5F5DCF528F5F5F5F5F5F5F5F5F5F5F5F5F5F5F5F5F5F5F5F5F5F5F5F5F5F52D2D2D2D2D2D2D2D2D2D2D2D2DF5F5F5F5F5F5F5F5F5F5F5F5F5F5F5F5F5F5F5F5F5F5F5F5F5F5F528F5F5F52D2D2D2D2D2D2D2D2D2D2DF52D2D2D2D2D2D2D2D2D2D2DF5F5F5F5F5F5F5
310
F5F5F5F5F5F5F5F5F5F5F5F5F5F5F5F5F5F5F5F5F5F5F5F5F5F5F5F5F5F5F5F5F5F528F5DCF5F5F5F5F5F5F5F5F5F5F5F5F5F5F5F5F5E2F5E2E2F5F5F5F5F5F5F5F5F5F5F5F5F5F5F5F5F5F5F5DCF528F5F5F5F5F5F5F5F5F5F5F5F5F5F5F5F5F5F5F5F5F5F5F5F5F5F5F5F5F5F5F5F5F5F5F5F5F5F5F5F5F5F5F5F5F5F5F5
310
F5F5F5F5F5F5F5F5F5F5F5F5F5F5F5F5F5F5F528F5F5F5F5F5F5F5F5F5F5F5F5F5F5F5F5F5F5F5F5F5F5F5F5F5F5F5F5F5F5F5F5F5F5F5F5F5F5F5F5F5F5F5F5F5F5F5F5F5F5F5F5F5F5F5F5F5F5F5F5F5F5F5F5F5F5F528F5DCF5F5F5F5F5F5F5F5F5F5F5F5F5F5F5F5F5F5F5E2E2F5F5F5F5F5F5F5F5F5F5F5F5F5F5F5F5
310
F5F5F5DCF52828282828282828282828282828282828282828282828282828282828282828282828282828282828282828282828282828282828282828282828282828282828282828282828282828282828282828282828282828282828282828282828282828282828282828282828282828282828282828282828282828
310
2828282828282828282828282828F5DCF5F5F5F5F5F5F5F5F5F5F5F5F5F5F5F5F5F5F5E2E2F5F5F5F5F5F5F5F5F5F5F5F5F5F5F5F5F5F5F5DCF5F5F5F5F5F5F5F5F5F5F5F5F5F5F5F5F5F5F5F5F5F5F5F5F5F5F5F5F5F5F5F5F5F5F5F5F5F5F5F5F5F5F5F5F5F5F5F5F5F5F5F5F5F5F5F5F5F5F5F5F5F5F5F5F5F5F5F5F5F5
310
F5F5F5F5F5F5F5F5F5F5F5F5F5F5F5F5F5F5F5F5F5F5F5F5F5F5F5F5F5F5F5F5F5F5F5F5F5F5F5F5F5F5F5F5F5F5F5F5F5F5F5F5F5F5F5F5F5F5F5F5F5F5F5F5F5F5F5F5DCF5F5F5F5F5F5F5F5F5F5F5F5F5F5F5F5F5F5F5E2E2F5F5F5F5F5F5F5F5F5F5F5F5F5F5F5F5F5F5F5DCDCDCDCDCDCDCDCDCDCDCDCDCDCDCDCDCDC
310
DCDCDCDCDCDCDCDCDCDCDCDCDCDCDCDCDCDCDCDCDCDCDCDCDCDCDCDCDCDCDCDCDCDCDCDCDCDCDCDCDCDCDCDCDCDCDCDCDCDCDCDCDCDCDCDCDCDCDCDCDCDCDCDCDCDCDCDCDCDCDCDCDCDCDCDCDCDCDCDCDCDCDCDCDCDCDCDCDCDCDCDCDCDCDCDCDCDCDCDCDCDCDCDCDCDCDCDCDCDCDCDCDCDCDCDCDCDCDCDCDCDCF5F5F5F5F5
310
F5F5F5F5F5F5F5F5F5F5F5F5F5F5E2E2F5F5F5F5F5F5F5F5F5F5F5F5F5F5F5F5F5F5F5DCDCDCDCDCDCDCDCDCDCDCDCDCDCDCDCDCDCDCDCDCDCDCDCDCDCDCDCDCDCDCDCDCDCDCDCDCDCDCDCDCDCDCDCDCDCDCDCDCDCDCDCDCDCDCDCDCDCDCDCDCDCDCDCDCDCDCDCDCDCDCDCDCDCDCDCDCDCDCDCDCDCDCDCDCDCDCDCDCDCDCDC
310
DCDCDCDCDCDCDCDCDCDCDCDCDCDCDCDCDCDCDCDCDCDCDCDCDCDCDCDCDCDCDCDCDCDCDCDCDCDCDCDCDCDCDCDCDCDCDCDCF5F5F5F5F5F5F5F5F5F5F5F5F5F5F5F5F5F5F5E2E2F5F5F5F5F5F5F5F5F5F5F5F5F5F5F5F5F5F5F5F5F5F5F5F5F5F5F5F5F5F5F5F5F5F5F5F5F5F5F5F5F5F5F5F5F5F5F5F5F5F5F5F5F5F5F5F5F5F5
310
F5F5F5F5F5F5F5F5F5F5F5F5F5F5F5F5F5F5F5F5F5F5F5F5F5F5F5F5F5F5F5F5F5F5F5F5F5F5F5F5F5F5F5F5F5F5F5F5F5F5F5F5F5F5F5F5F5F5F5F5F5F5F5F5F5F5F5F5F5F5F5F5F5F5F5F5F5F5F5F5F5F5F5F5F5F5F5F5F5F5F5F5F5F5F5F5F5F5F5F5F5F5F5F5F5F5F5F5F5F5F5F5F5F5F5F5F5F5F5F5E2E2F5F5F5F5F5
310
F5F5F5F5F5F5F5F5F5F5F5F5F5F5F5F5F5F5F5F5F5F5F5F5F5F5F5F5F5F5F5F5F5F5F5F5F5F5F5F5F5F5F5F5F5F5F5F5F5F5F5F5F5F5F5F5F5F5F5F5F5F5F5F5F5F5F5F5F5F5F5F5F5F5F5F5F5F5F5F5F5F5F5F5F5F5F5F5F5F5F5F5F5F5F5F5F5F5F5F5F5F5F5F5F5F5F5F5F5F5F5F5F5F5F5F5F5F5F5F5F5F5F5F5F5F5F5
310
F5F5F5F5F5F5F5F5F5F5F5F5F5F5F5F5F5F5F5F5F5F5F5F5F5F5F5F5F5F5F5F5F5F5F5F5F5F5F5F5F5F5F5F5F5F5E2E2F5F5F5F5F5F5F5F5F5F5F5F5F5F5F5F5F5F5F5F5F5F5F5F5F5F5F5F5F5F5F5F5F5F5F5F5F5F5F5F5F5F5F5F5F5F5F5F5F5F5F5F5F5F5F5F5F5F5F5F5F5F5F5F5F5F5F5F5F5F5F5F5F5F5F5F5F5F5F5
310
F5F5F5F5F5F5F5F5F5F5F5F5F5F5F5F5F5F5F5F5F5F5F5F5F5F5F5F5F5F5F5F5F5F5F5F5F5F5F5F5F5F5F5F5F5F5F5F5F5F5F5F5F5F5F5F5F5F5F5F5F5F5F5F5F5F5F5F5F5F5F5F5F5F5F5F5F5F5F5F5F5F5F5F5F5F5F5F5F5F5F5F5F5F5F5F5F5F5F5E2E2F5F5F5F5F5F5F5F5F5F5F5F5F5F5F5F5F5F5F5F5F5F5F5F5F5F5
310
F5F5F5F5F5F5F5F5F5F5F5F5F5F5F5F5F5F5F5F5F5F5F5F5F5F5F5F5F5F5F5F5F5F5F5F5F5F5F5F5F5F5F5F5F5F5F5F5F5F5F5F5F5F5F5F5F5F5F5F5F5F5F5F5F5F5F5F5F5F5F5F5F5F5F5F5F5F5F5F5F5F5F5F5F5F5F5F5F5F5F5F5F5F5F5F5F5F5F5F5F5F5F5F5F5F5F5F5F5F5F5F5F5F5F5F5F5F5F5F5F5F5F5F5F5F5F5
310
F5F5F5F5F5F5F5F5F5F5F5F5F5F5F5F5F5F5F5F5F5F5F5F5F5E2E2F5E2F5F5F5F5F5F5F5F5F5F5F5F5F5F5F5F5F5F5F5F5F5F5F5F5F5F5F5F5F5F5F5F5F5F5F5F5F5F5F5F5F5F5F5F5F5F5F5F5F5F5F5F5F5F5F5F5F5F5F5F5F5F5F5F5F5F5F5F5F5F5F5F5F5F5F5F5F5F5F5F5F5F5F5F5F5F5F5F5F5F5F5F5F5F5F5F5F5F5
310
F5F5F5F5F5F5F5F5F5F5F5F5F5F5F5F5F5F5F5F5F5F5F5F5F5F5F5F5F5F5F5F5F5F5F5F5F5F5F5F5F5F5F5F5F5F5F5F5F5F5F5F5F5F5F5F5F5F5F5F5F5F5F5F5F5F5F5F5F5F5F5F5F5F5F5F5E2F5E2E2F5E2F5F5F5F5F5F5F5F5F5F5F5F5F5F5F5F5F5F5F5F5F5F5F5F5F5F5F5F5F5F5F5F5F5F5F5F5F5F5F5F5F5F5F5F5F5
310
F5F5F5F5F5F5F5F5F5F5F5F5F5F5F5F5F5F5F5F5F5F5F5F5F5F5F5F5F5F5F5F5F5F5F5F5F5F5F5F5F5F5F5F5F5F5F5F5F5F5F5F5F5F5F5F5F5F5F5F5F5F5F5F5F5F5F5F5F5F5F5F5F5F5F5F5F5F5F5F5F5F5F5F5F5F5F5F5F5F5F5F5F5F5F5F5F5F5F5F5F5F5F5F5F5F5F5F5F5F5F5F5F5F5F5F5F5F5F5F5F5F5F5F5F5F5F5
310
F5F5E2F5E2E2F5E2F5F5F5F5F5F5F5F5F5F5F5F5F5F5F5F5F5F5F5F5F5F5F5F5F5F5F5F5F5F5F5F5F5F5F5F5F5F5F5F5F5F5F5F5F5F5F5F5F5F5F5F5F5F5F5F5F5F5F5F5F5F5F5F5F5F5F5F5F5F5F5F5F5F5F5F5F5F5F5F5F5F5F5F5F5F5F5F5F5F5F5F5F5F5F5F5F5F5F5F5F5F5F5F5F5F5F5F5F5F5F5F5F5F5F5F5F5F5F5
310
F5F5F5F5F5F5F5F5F5F5F5F5F5F5F5F5F5F5F5F5F5F5F5F5F5F5F5F5F5F5F5F5F5F5F5F5F5F5F5F5F5F5F5F5F5F5F5F5F5F5F5F5F5F5F5E2F5E2E2F5E2F5F5F5F5F5F5F5F5F5F5F5F5F5F5F5F5F5F5F5F5F5F5F5F5F5F5F5F5F5F5F5F5F5F5F5F5F5F5F5F5F5F5F5F5F5F5F5F5F5F5F5F5F5F5F5F5F5F5F5F5F5F5F5F5F5F5
310
F5F5F5F5F5F5F5F5F5F5F5F5F5F5F5F5F5F5F5F5F5F5F5F5F5F5F5F5F5F5F5F5F5F5F5F5F5F5F5F5F5F5F5F5F5F5F5F5F5F5F5F5F5F5F5F5F5F5F5F5F5F5F5F5F5F5F5F5F5F5F5F5F5F5F5F5F5F5F5F5F5F5F5F5F5F5F5F5F5F5F5F5F5F5F5F5F5F5F5F5F5F5F5F5F5F5F5F5E2F5E2E2F5E2F5F5F5F5F5F5F5F5F5F5F5F5F5
310
F5F5F5F5F5F5F5F5F5F5F5F5F5F5F5F5F5F5F5F5F5F5F5F5F5F5F5F5F5F5F5F5F5F5F5F5F5F5F5F5F5F5F5F5F5F5F5F5F5F5F5F5F5F5F5F5F5F5F5F5F5F5F5F5F5F5F5F5F5F5F5F5F5F5F5F5F5F5F5F5F5F5F5F5F5F5F5F5F5F5F5F5F5F5F5F5F5F5F5F5F5F5F5F5F5F5F5F5F5F5F5F5F5F5F5F5F5F5F5F5F5F5F5F5F5F5F5
310
F5F5F5F5F5F5F5F5F5F5F5F5F5F5F5F5F5F5F5F5F5F5F5F5F5F5F5F5F5F5F5F5F5F5E2F5E2E2F5E2F5F5F5F5F5F5F5F5F5F5F5F5F5F5F5F5F5F5F5F5F5F5F5F5F5F5F5F5F5F5F5F5F5F5F5F5F5F5F5F5F5F5F5F5F5F5F5F5F5F5F5F5F5F5F5F5F5F5F5F5F5F5F5F5F5F5F5F5F5F5F5F5F5F5F5F5F5F5F5F5F5F5F5F5F5F5F5
310
F5F5F5F5F5F5F5F5F5F5F5F5F5F5F5F5F5F5F5F5F5F5F5F5F5F5F5F5F5F5F5F5F5F5F5F5F5F5F5F5F5F5F5F5F5F5F5F5F5F5F5F5F5F5F5F5F5F5F5F5F5F5F5F5F5F5F5F5F5F5F5F5F5F5F5F5F5F5F5F5F5F5F5F5F5F5F5E2F5E2E2F5E2F5F5F5F5F5F5F5F5F5F5F5F5F5F5F5F5F5F5F5F5F5F5F5F5F5F5F5F5F5F5F5F5F5F5
310
F5F5F5F5F5F5F5F5F5F5F5F5F5F5F5F5F5F5F5F5F5F5F5F5F5F5F5F5F5F5F5F5F5F5F5F5F5F5F5F5F5F5F5F5F5F5F5F5F5F5F5F5F5F5F5F5F5F5F5F5F5F5F5F5F5F5F5F5F5F5F5F5F5F5F5F5F5F5F5F5F5F5F5F5F5F5F5F5F5F5F5F5F5F5F5F5F5F5F5F5F5F5F5F5F5F5F5F5F5F5F5F5F5F5F5F5F5F5F5F5F5F5F5F5F5F5F5
310
F5F5F5F5F5F5F5F5F5F5F5F5F5E2F5E2E2F5E2E2E2E2E2E2E2E2E2F5F5F5F5F5F5F5F5F5E2E2E2E2E2E2E2E2E2E2E2E2E2E2E2E2F5F5F5F5F5F5F5F5F5E2E2E2E2E2E2E2E2E2E2E2E2E2E2E2E2F5F5F5F5F5F5F5F5F5E2E2E2E2E2E2E2E2E2E2E2E2E2E2E2E2F5F5F5F5F5F5F5F5F5E2E2E2E2E2E2E2E2E2E2E2E2E2E2E2E2
310
F5F5F5F5F5F5F5F5F5E2E2E2E2E2E2E2E2E2E2E2E2E2E2E2E2F5F5F5F5F5F5F5F5F5E2E2E2E2E2E2E2E2E2E2E2E2E2E2E2E2F5F5F5F5F5F5F5F5F5E2E2E2E2E2E2E2E2F5E2E2F5F5F5F5F5F5F5F5F5F5F5F5F5F5F5F5F5F5F5F5F5F5F5F5F5F5F5F5F5F5F5F5F5F5F5F5F5F5F5F5F5F5F5F5F5F5F5F5F5F5F5F5F5F5F5F5F5
310
F5F5F5F5F5F5F5F5F5F5F5F5F5F5F5F5F5F5F5F5F5F5F5F5F5F5F5F5F5F5F5F5F5F5F5F5F5F5F5F5F5F5F5F5F5F5F5F5F5F5F5F5F5F5F5F5F5F5F5F5F5F5F5F5F5F5F5F5F5F5F5F5F5F5F5F5F5F5F5F5F5F5F5F5F5F5F5F5F5F5F5F5F5F5F5F5F5F5F5F5F5F5F5F5F5F5F5F5F5F5F5F5F5F5F5F5F5F5F5F5F5E2E2E2E2E2E2
310
E2E2E2E2E2E2E2E2E2E2E2E2E2E2E2E2E2E2E2E2E2E2E2E2E2E2E2E2E2E2E2E2E2E2E2E2E2E2E2E2E2E2E2E2E2E2E2E2E2E2E2E2E2E2E2E2E2E2E2E2E2E2E2E2E2E2E2E2E2E2E2E2E2E2E2E2E2E2E2E2E2E2E2E2E2E2E2E2E2E2E2E2E2E2E2E2E2E2E2E2E2E2E2E2E2E2E2E2E2E2E2E2E2E2E2E2E2E2E2E2E2E2E2E2E2E2E2
310
E2E2E2E2E2E2E2E2E2E2E2E2E2E2E2E2E2E2E2E2E2E2E2E2E2E2E2E2E2E2E2E2E2E2E2E2E2E2E2E2E2E2E2E2E2E2E2E2
  0
XRECORD
  5
C8
102
{ACAD_REACTORS
330
C7
102
}
330
C7
100
AcDbXrecord
280
     1
102
MATERIAL
148
0.0
149
0.0
149
0.0
 93
        0
 94
       63
282
     0
 72
     1
 77
     1
171
     1
175
     1
179
     1
273
     0
  0
XRECORD
  5
C6
102
{ACAD_REACTORS
330
C5
102
}
330
C5
100
AcDbXrecord
280
     1
102
MATERIAL
148
0.0
149
0.0
149
0.0
 93
        0
 94
       63
282
     0
 72
     1
 77
     1
171
     1
175
     1
179
     1
273
     0
  0
XRECORD
  5
B2
102
{ACAD_REACTORS
330
B1
102
}
330
B1
100
AcDbXrecord
280
     1
102
MATERIAL
148
0.0
149
0.0
149
0.0
 93
        0
 94
       63
282
     0
 72
     1
 77
     1
171
     1
175
     1
179
     1
273
     0
  0
XRECORD
  5
156
102
{ACAD_REACTORS
330
155
102
}
330
155
100
AcDbXrecord
280
     1
102
ACAD_ROUNDTRIP_PRE2007_TABLESTYLE
 90
        4
 91
        0
  1

 92
        4
 93
        0
  2

 94
        4
 95
        0
  3

  0
ENDSEC
  0
EOF
