  0
SECTION
  2
HEADER
  9
$ACADVER
  1
AC1015
  9
$ACADMAINTVER
 70
    20
  9
$DWGCODEPAGE
  3
ANSI_1252
  9
$INSBASE
 10
0.0
 20
0.0
 30
0.0
  9
$EXTMIN
 10
0.0149999999999999
 20
0.015
 30
0.0
  9
$EXTMAX
 10
0.9145039253974081
 20
0.4676191606218766
 30
0.0
  9
$LIMMIN
 10
0.0
 20
0.0
  9
$LIMMAX
 10
1.0
 20
0.5
  9
$ORTHOMODE
 70
     0
  9
$REGENMODE
 70
     1
  9
$FILLMODE
 70
     1
  9
$QTEXTMODE
 70
     0
  9
$MIRRTEXT
 70
     0
  9
$LTSCALE
 40
1.0
  9
$ATTMODE
 70
     1
  9
$TEXTSIZE
 40
0.008
  9
$TRACEWID
 40
1.0
  9
$TEXTSTYLE
  7
style1
  9
$CLAYER
  8
Text
  9
$CELTYPE
  6
ACAD_ISO10W100
  9
$CECOLOR
 62
   256
  9
$CELTSCALE
 40
1.0
  9
$DISPSILH
 70
     0
  9
$DIMSCALE
 40
0.001
  9
$DIMASZ
 40
1.5
  9
$DIMEXO
 40
0.0625
  9
$DIMDLI
 40
0.38
  9
$DIMRND
 40
0.0
  9
$DIMDLE
 40
0.0
  9
$DIMEXE
 40
0.18
  9
$DIMTP
 40
0.0
  9
$DIMTM
 40
0.0
  9
$DIMTXT
 40
3.0
  9
$DIMCEN
 40
0.0
  9
$DIMTSZ
 40
0.0
  9
$DIMTOL
 70
     0
  9
$DIMLIM
 70
     0
  9
$DIMTIH
 70
     1
  9
$DIMTOH
 70
     1
  9
$DIMSE1
 70
     0
  9
$DIMSE2
 70
     0
  9
$DIMTAD
 70
     0
  9
$DIMZIN
 70
     0
  9
$DIMBLK
  1
ArchTick
  9
$DIMASO
 70
     1
  9
$DIMSHO
 70
     1
  9
$DIMPOST
  1

  9
$DIMAPOST
  1

  9
$DIMALT
 70
     0
  9
$DIMALTD
 70
     2
  9
$DIMALTF
 40
25.4
  9
$DIMLFAC
 40
1.0
  9
$DIMTOFL
 70
     0
  9
$DIMTVP
 40
0.0
  9
$DIMTIX
 70
     0
  9
$DIMSOXD
 70
     0
  9
$DIMSAH
 70
     0
  9
$DIMBLK1
  1

  9
$DIMBLK2
  1

  9
$DIMSTYLE
  2
Bovelacci
  9
$DIMCLRD
 70
     5
  9
$DIMCLRE
 70
     5
  9
$DIMCLRT
 70
     4
  9
$DIMTFAC
 40
1.0
  9
$DIMGAP
 40
2.0
  9
$DIMJUST
 70
     0
  9
$DIMSD1
 70
     0
  9
$DIMSD2
 70
     0
  9
$DIMTOLJ
 70
     1
  9
$DIMTZIN
 70
     0
  9
$DIMALTZ
 70
     0
  9
$DIMALTTZ
 70
     0
  9
$DIMUPT
 70
     0
  9
$DIMDEC
 70
     2
  9
$DIMTDEC
 70
     2
  9
$DIMALTU
 70
     2
  9
$DIMALTTD
 70
     2
  9
$DIMTXSTY
  7
ROMANS
  9
$DIMAUNIT
 70
     0
  9
$DIMADEC
 70
     0
  9
$DIMALTRND
 40
0.0
  9
$DIMAZIN
 70
     0
  9
$DIMDSEP
 70
    46
  9
$DIMATFIT
 70
     3
  9
$DIMFRAC
 70
     0
  9
$DIMLDRBLK
  1

  9
$DIMLUNIT
 70
     2
  9
$DIMLWD
 70
    -2
  9
$DIMLWE
 70
    -2
  9
$DIMTMOVE
 70
     2
  9
$LUNITS
 70
     2
  9
$LUPREC
 70
     2
  9
$SKETCHINC
 40
1.0
  9
$FILLETRAD
 40
0.0
  9
$AUNITS
 70
     0
  9
$AUPREC
 70
     0
  9
$MENU
  1
.
  9
$ELEVATION
 40
0.0
  9
$PELEVATION
 40
0.0
  9
$THICKNESS
 40
0.0
  9
$LIMCHECK
 70
     0
  9
$CHAMFERA
 40
0.0
  9
$CHAMFERB
 40
0.0
  9
$CHAMFERC
 40
0.0
  9
$CHAMFERD
 40
0.0
  9
$SKPOLY
 70
     0
  9
$TDCREATE
 40
2454297.625402373
  9
$TDUCREATE
 40
2454297.542069039
  9
$TDUPDATE
 40
2454311.560978183
  9
$TDUUPDATE
 40
2454311.477644850
  9
$TDINDWG
 40
0.1409939236
  9
$TDUSRTIMER
 40
0.1409919213
  9
$USRTIMER
 70
     1
  9
$ANGBASE
 50
0.0
  9
$ANGDIR
 70
     0
  9
$PDMODE
 70
     0
  9
$PDSIZE
 40
0.0
  9
$PLINEWID
 40
0.0
  9
$SPLFRAME
 70
     0
  9
$SPLINETYPE
 70
     6
  9
$SPLINESEGS
 70
     8
  9
$HANDSEED
  5
1162
  9
$SURFTAB1
 70
     6
  9
$SURFTAB2
 70
     6
  9
$SURFTYPE
 70
     6
  9
$SURFU
 70
     6
  9
$SURFV
 70
     6
  9
$UCSBASE
  2

  9
$UCSNAME
  2

  9
$UCSORG
 10
0.0
 20
0.0
 30
0.0
  9
$UCSXDIR
 10
1.0
 20
0.0
 30
0.0
  9
$UCSYDIR
 10
0.0
 20
1.0
 30
0.0
  9
$UCSORTHOREF
  2

  9
$UCSORTHOVIEW
 70
     0
  9
$UCSORGTOP
 10
0.0
 20
0.0
 30
0.0
  9
$UCSORGBOTTOM
 10
0.0
 20
0.0
 30
0.0
  9
$UCSORGLEFT
 10
0.0
 20
0.0
 30
0.0
  9
$UCSORGRIGHT
 10
0.0
 20
0.0
 30
0.0
  9
$UCSORGFRONT
 10
0.0
 20
0.0
 30
0.0
  9
$UCSORGBACK
 10
0.0
 20
0.0
 30
0.0
  9
$PUCSBASE
  2

  9
$PUCSNAME
  2

  9
$PUCSORG
 10
0.0
 20
0.0
 30
0.0
  9
$PUCSXDIR
 10
1.0
 20
0.0
 30
0.0
  9
$PUCSYDIR
 10
0.0
 20
1.0
 30
0.0
  9
$PUCSORTHOREF
  2

  9
$PUCSORTHOVIEW
 70
     0
  9
$PUCSORGTOP
 10
0.0
 20
0.0
 30
0.0
  9
$PUCSORGBOTTOM
 10
0.0
 20
0.0
 30
0.0
  9
$PUCSORGLEFT
 10
0.0
 20
0.0
 30
0.0
  9
$PUCSORGRIGHT
 10
0.0
 20
0.0
 30
0.0
  9
$PUCSORGFRONT
 10
0.0
 20
0.0
 30
0.0
  9
$PUCSORGBACK
 10
0.0
 20
0.0
 30
0.0
  9
$USERI1
 70
     0
  9
$USERI2
 70
     0
  9
$USERI3
 70
     0
  9
$USERI4
 70
     0
  9
$USERI5
 70
     0
  9
$USERR1
 40
0.0
  9
$USERR2
 40
0.0
  9
$USERR3
 40
0.0
  9
$USERR4
 40
0.0
  9
$USERR5
 40
0.0
  9
$WORLDVIEW
 70
     1
  9
$SHADEDGE
 70
     3
  9
$SHADEDIF
 70
    70
  9
$TILEMODE
 70
     1
  9
$MAXACTVP
 70
    64
  9
$PINSBASE
 10
0.0
 20
0.0
 30
0.0
  9
$PLIMCHECK
 70
     0
  9
$PEXTMIN
 10
1.000000000000000E+20
 20
1.000000000000000E+20
 30
1.000000000000000E+20
  9
$PEXTMAX
 10
-1.000000000000000E+20
 20
-1.000000000000000E+20
 30
-1.000000000000000E+20
  9
$PLIMMIN
 10
0.0
 20
0.0
  9
$PLIMMAX
 10
420.0
 20
297.0
  9
$UNITMODE
 70
     0
  9
$VISRETAIN
 70
     1
  9
$PLINEGEN
 70
     0
  9
$PSLTSCALE
 70
     1
  9
$TREEDEPTH
 70
  3020
  9
$CMLSTYLE
  2
Standard
  9
$CMLJUST
 70
     0
  9
$CMLSCALE
 40
20.0
  9
$PROXYGRAPHICS
 70
     1
  9
$MEASUREMENT
 70
     1
  9
$CELWEIGHT
370
    -1
  9
$ENDCAPS
280
     0
  9
$JOINSTYLE
280
     0
  9
$LWDISPLAY
290
     0
  9
$INSUNITS
 70
     4
  9
$HYPERLINKBASE
  1

  9
$STYLESHEET
  1

  9
$XEDIT
290
     1
  9
$CEPSNTYPE
380
     0
  9
$PSTYLEMODE
290
     1
  9
$FINGERPRINTGUID
  2
{904A8C64-524F-4709-A9C6-320D2C273A6D}
  9
$VERSIONGUID
  2
{95649CCD-B726-4258-90D6-F232422937C2}
  9
$EXTNAMES
290
     1
  9
$PSVPSCALE
 40
0.0
  9
$OLESTARTUP
290
     0
  0
ENDSEC
  0
SECTION
  2
CLASSES
  0
CLASS
  1
ACDBDICTIONARYWDFLT
  2
AcDbDictionaryWithDefault
  3
ObjectDBX Classes
 90
        0
280
     0
281
     0
  0
CLASS
  1
TABLESTYLE
  2
AcDbTableStyle
  3
ObjectDBX Classes
 90
     2047
280
     0
281
     0
  0
CLASS
  1
SORTENTSTABLE
  2
AcDbSortentsTable
  3
ObjectDBX Classes
 90
        0
280
     0
281
     0
  0
CLASS
  1
DICTIONARYVAR
  2
AcDbDictionaryVar
  3
ObjectDBX Classes
 90
        0
280
     0
281
     0
  0
CLASS
  1
ACDBPLACEHOLDER
  2
AcDbPlaceHolder
  3
ObjectDBX Classes
 90
        0
280
     0
281
     0
  0
CLASS
  1
LAYOUT
  2
AcDbLayout
  3
ObjectDBX Classes
 90
        0
280
     0
281
     0
  0
CLASS
  1
DIMASSOC
  2
AcDbDimAssoc
  3
"AcDbDimAssoc|Product Desc:     AcDim ARX App For Dimension|Company:          Autodesk, Inc.|WEB Address:      www.autodesk.com"
 90
        0
280
     0
281
     0
  0
CLASS
  1
MATERIAL
  2
AcDbMaterial
  3
ObjectDBX Classes
 90
        0
280
     0
281
     0
  0
CLASS
  1
VISUALSTYLE
  2
AcDbVisualStyle
  3
ObjectDBX Classes
 90
     4095
280
     0
281
     0
  0
ENDSEC
  0
SECTION
  2
TABLES
  0
TABLE
  2
VPORT
  5
177
330
0
100
AcDbSymbolTable
 70
     4
  0
VPORT
  5
1157
330
177
100
AcDbSymbolTableRecord
100
AcDbViewportTableRecord
  2
*Active
 70
     0
 10
0.0
 20
0.0
 11
1.0
 21
1.0
 12
0.21284863553141
 22
0.149364852298628
 13
0.0
 23
0.0
 14
10.0
 24
10.0
 15
10.0
 25
10.0
 16
0.0
 26
0.0
 36
1.0
 17
0.0
 27
0.0
 37
0.0
 40
0.2724349346110366
 41
1.546526867627784
 42
50.0
 43
0.0
 44
0.0
 50
0.0
 51
0.0
 71
     0
 72
  1000
 73
     1
 74
     3
 75
     0
 76
     0
 77
     0
 78
     0
281
     0
 65
     1
110
0.0
120
0.0
130
0.0
111
1.0
121
0.0
131
0.0
112
0.0
122
1.0
132
0.0
 79
     0
146
0.0
  0
ENDTAB
  0
TABLE
  2
LTYPE
  5
172
330
0
100
AcDbSymbolTable
 70
     2
  0
LTYPE
  5
173
330
172
100
AcDbSymbolTableRecord
100
AcDbLinetypeTableRecord
  2
ByBlock
 70
     0
  3

 72
    65
 73
     0
 40
0.0
  0
LTYPE
  5
174
330
172
100
AcDbSymbolTableRecord
100
AcDbLinetypeTableRecord
  2
ByLayer
 70
     0
  3

 72
    65
 73
     0
 40
0.0
  0
LTYPE
  5
C
330
172
100
AcDbSymbolTableRecord
100
AcDbLinetypeTableRecord
  2
Continuous
 70
     0
  3
Solid line
 72
    65
 73
     0
 40
0.0
  0
LTYPE
  5
14E
330
172
100
AcDbSymbolTableRecord
100
AcDbLinetypeTableRecord
  2
ACAD_ISO10W100
 70
     0
  3
ISO dash dot __ . __ . __ . __ . __ . __ . __ .
 72
    65
 73
     4
 40
18.0
 49
12.0
 74
     0
 49
-3.0
 74
     0
 49
0.0
 74
     0
 49
-3.0
 74
     0
  0
ENDTAB
  0
TABLE
  2
LAYER
  5
16D
102
{ACAD_XDICTIONARY
360
16E
102
}
330
0
100
AcDbSymbolTable
 70
     7
  0
LAYER
  5
6
330
16D
100
AcDbSymbolTableRecord
100
AcDbLayerTableRecord
  2
0
 70
     0
 62
     7
  6
Continuous
370
    -3
390
7
  0
LAYER
  5
15F
330
16D
100
AcDbSymbolTableRecord
100
AcDbLayerTableRecord
  2
Defpoints
 70
     0
 62
     7
  6
Continuous
290
     0
370
    -3
390
7
  0
LAYER
  5
28
330
16D
100
AcDbSymbolTableRecord
100
AcDbLayerTableRecord
  2
Profilo
 70
     0
 62
     1
  6
Continuous
370
    -3
390
7
1001
AcAecLayerStandard
1000

1000

  0
LAYER
  5
14D
330
16D
100
AcDbSymbolTableRecord
100
AcDbLayerTableRecord
  2
Sezione
 70
     0
 62
     2
  6
Continuous
370
    -3
390
7
1001
AcAecLayerStandard
1000

1000

  0
LAYER
  5
E
330
16D
100
AcDbSymbolTableRecord
100
AcDbLayerTableRecord
  2
Table
 70
     0
 62
     3
  6
Continuous
370
    -3
390
7
1001
AcAecLayerStandard
1000

1000

  0
LAYER
  5
19
330
16D
100
AcDbSymbolTableRecord
100
AcDbLayerTableRecord
  2
Text
 70
     0
 62
     4
  6
Continuous
370
    -3
390
7
1001
AcAecLayerStandard
1000

1000

  0
LAYER
  5
23D
330
16D
100
AcDbSymbolTableRecord
100
AcDbLayerTableRecord
  2
Bovelacci
 70
     0
 62
     9
  6
Continuous
370
    -3
390
7
1001
AcAecLayerStandard
1000

1000

  0
ENDTAB
  0
TABLE
  2
STYLE
  5
170
330
0
100
AcDbSymbolTable
 70
     3
  0
STYLE
  5
1A
330
170
100
AcDbSymbolTableRecord
100
AcDbTextStyleTableRecord
  2
Standard
 70
     0
 40
0.0
 41
1.0
 50
0.0
 71
     0
 42
2.5
  3
txt
  4

  0
STYLE
  5
20
330
170
100
AcDbSymbolTableRecord
100
AcDbTextStyleTableRecord
  2
ROMANS
 70
     0
 40
0.0
 41
1.0
 50
0.0
 71
     0
 42
2.5
  3
romans
  4

  0
STYLE
  5
26
330
170
100
AcDbSymbolTableRecord
100
AcDbTextStyleTableRecord
  2
style1
 70
     0
 40
0.0
 41
1.0
 50
0.0
 71
     0
 42
0.008
  3
TIMES.TTF
  4

1001
ACAD
1000
Times New Roman
1071
       18
  0
ENDTAB
  0
TABLE
  2
VIEW
  5
175
330
0
100
AcDbSymbolTable
 70
     2
  0
ENDTAB
  0
TABLE
  2
UCS
  5
176
330
0
100
AcDbSymbolTable
 70
     0
  0
ENDTAB
  0
TABLE
  2
APPID
  5
17B
330
0
100
AcDbSymbolTable
 70
    10
  0
APPID
  5
1B
330
17B
100
AcDbSymbolTableRecord
100
AcDbRegAppTableRecord
  2
ACAD
 70
     0
  0
APPID
  5
157
330
17B
100
AcDbSymbolTableRecord
100
AcDbRegAppTableRecord
  2
ACAD_DSTYLE_DIMJOGGED_JOGANGLE_SYMBOL
 70
     0
  0
APPID
  5
F
330
17B
100
AcDbSymbolTableRecord
100
AcDbRegAppTableRecord
  2
AcAecLayerStandard
 70
     0
  0
APPID
  5
19C
330
17B
100
AcDbSymbolTableRecord
100
AcDbRegAppTableRecord
  2
ACAD_DSTYLE_DIMFLIPARROW_WHICH_SYMBOL
 70
     0
  0
APPID
  5
1A7
330
17B
100
AcDbSymbolTableRecord
100
AcDbRegAppTableRecord
  2
ACAD_DSTYLE_DIMEXT_LENGTH
 70
     0
  0
APPID
  5
1D2
330
17B
100
AcDbSymbolTableRecord
100
AcDbRegAppTableRecord
  2
ACAD_EXEMPT_FROM_CAD_STANDARDS
 70
     0
  0
APPID
  5
1D3
330
17B
100
AcDbSymbolTableRecord
100
AcDbRegAppTableRecord
  2
ACAD_DSTYLE_DIM_LINETYPE
 70
     0
  0
APPID
  5
1D4
330
17B
100
AcDbSymbolTableRecord
100
AcDbRegAppTableRecord
  2
ACAD_DSTYLE_DIM_EXT1_LINETYPE
 70
     0
  0
APPID
  5
1D5
330
17B
100
AcDbSymbolTableRecord
100
AcDbRegAppTableRecord
  2
ACAD_DSTYLE_DIM_EXT2_LINETYPE
 70
     0
  0
APPID
  5
243
330
17B
100
AcDbSymbolTableRecord
100
AcDbRegAppTableRecord
  2
ACAD_PSEXT
 70
     0
  0
ENDTAB
  0
TABLE
  2
DIMSTYLE
  5
17C
330
0
100
AcDbSymbolTable
 70
     7
100
AcDbDimStyleTable
 71
     2
340
156
340
17D
  0
DIMSTYLE
105
17D
330
17C
100
AcDbSymbolTableRecord
100
AcDbDimStyleTableRecord
  2
ISO-25
 70
     0
 41
2.5
 42
0.625
 43
3.75
 44
1.25
 73
     0
 74
     0
 77
     1
 78
     8
140
2.5
141
2.5
143
0.03937007874016
147
0.625
171
     3
172
     1
271
     2
272
     2
274
     3
278
    44
283
     0
284
     8
340
1A
  0
DIMSTYLE
105
156
102
{ACAD_REACTORS
330
1138
102
}
330
17C
100
AcDbSymbolTableRecord
100
AcDbDimStyleTableRecord
  2
Bovelacci
 70
     0
 40
0.001
 41
1.5
140
3.0
141
0.0
147
2.0
176
     5
177
     5
178
     4
271
     2
272
     2
279
     2
340
20
342
152
1001
ACAD_DSTYLE_DIMJOGGED_JOGANGLE_SYMBOL
1070
   384
1040
0.7853981633974483
1001
ACAD_DSTYLE_DIMEXT_LENGTH
1070
   378
1040
0.18
  0
DIMSTYLE
105
23E
330
17C
100
AcDbSymbolTableRecord
100
AcDbDimStyleTableRecord
  2
Dim 1-100
 70
     0
 40
0.1
 41
1.5
 42
0.0
 43
5.0
 44
1.25
 45
0.005
 46
1.25
 73
     0
 74
     0
 77
     1
 78
     9
140
2.0
141
2.5
147
1.0
172
     1
174
     1
179
     2
279
     2
289
     2
340
20
342
152
  0
DIMSTYLE
105
23F
330
17C
100
AcDbSymbolTableRecord
100
AcDbDimStyleTableRecord
  2
Standard
 70
     0
 42
0.0
 73
     0
 74
     0
 77
     1
271
     2
272
     2
340
20
  0
DIMSTYLE
105
240
330
17C
100
AcDbSymbolTableRecord
100
AcDbDimStyleTableRecord
  2
Dim 1-50
 70
     0
 40
0.05
 41
1.5
 42
0.0
 43
5.0
 44
1.25
 45
0.005
 46
1.25
 73
     0
 74
     0
 77
     1
 78
     9
140
2.0
141
2.5
147
1.0
172
     1
174
     1
179
     2
279
     2
289
     2
340
20
342
152
  0
DIMSTYLE
105
241
330
17C
100
AcDbSymbolTableRecord
100
AcDbDimStyleTableRecord
  2
Dim 1-200
 70
     0
 40
0.2
 41
1.5
 42
0.0
 43
5.0
 44
1.25
 45
0.005
 46
1.25
 73
     0
 74
     0
 77
     1
 78
     9
140
2.0
141
2.5
147
1.0
172
     1
174
     1
179
     2
271
     2
272
     2
279
     2
289
     2
340
20
342
152
  0
DIMSTYLE
105
242
330
17C
100
AcDbSymbolTableRecord
100
AcDbDimStyleTableRecord
  2
AEC Scale - Italiano
 70
     0
 41
1.0
 42
10.0
 43
10.0
 44
10.0
 73
     0
 74
     0
 75
     1
 76
     1
 77
     1
140
10.0
141
1.0
147
10.0
173
     1
271
     0
272
     0
279
     2
340
1A
343
238
344
232
  0
ENDTAB
  0
TABLE
  2
BLOCK_RECORD
  5
1
330
0
100
AcDbSymbolTable
 70
    13
  0
BLOCK_RECORD
  5
2
102
{ACAD_XDICTIONARY
360
3
102
}
330
1
100
AcDbSymbolTableRecord
100
AcDbBlockTableRecord
  2
*Model_Space
340
163
  0
BLOCK_RECORD
  5
165
330
1
100
AcDbSymbolTableRecord
100
AcDbBlockTableRecord
  2
*Paper_Space
340
168
  0
BLOCK_RECORD
  5
169
330
1
100
AcDbSymbolTableRecord
100
AcDbBlockTableRecord
  2
*Paper_Space0
340
16C
  0
BLOCK_RECORD
  5
152
330
1
100
AcDbSymbolTableRecord
100
AcDbBlockTableRecord
  2
_ArchTick
340
0
310
2800000020000000200000000100080000000000000400000000000000000000000000000000000000000000000080000080000000808000800000008000800080800000C0C0C000C0DCC000F0CAA6000020400000206000002080000020A0000020C0000020E00000400000004020000040400000406000004080000040A0
310
000040C0000040E00000600000006020000060400000606000006080000060A0000060C0000060E00000800000008020000080400000806000008080000080A0000080C0000080E00000A0000000A0200000A0400000A0600000A0800000A0A00000A0C00000A0E00000C0000000C0200000C0400000C0600000C0800000C0
310
A00000C0C00000C0E00000E0000000E0200000E0400000E0600000E0800000E0A00000E0C00000E0E00040000000400020004000400040006000400080004000A0004000C0004000E00040200000402020004020400040206000402080004020A0004020C0004020E000404000004040200040404000404060004040800040
310
40A0004040C0004040E00040600000406020004060400040606000406080004060A0004060C0004060E00040800000408020004080400040806000408080004080A0004080C0004080E00040A0000040A0200040A0400040A0600040A0800040A0A00040A0C00040A0E00040C0000040C0200040C0400040C0600040C08000
310
40C0A00040C0C00040C0E00040E0000040E0200040E0400040E0600040E0800040E0A00040E0C00040E0E00080000000800020008000400080006000800080008000A0008000C0008000E00080200000802020008020400080206000802080008020A0008020C0008020E00080400000804020008040400080406000804080
310
008040A0008040C0008040E00080600000806020008060400080606000806080008060A0008060C0008060E00080800000808020008080400080806000808080008080A0008080C0008080E00080A0000080A0200080A0400080A0600080A0800080A0A00080A0C00080A0E00080C0000080C0200080C0400080C0600080C0
310
800080C0A00080C0C00080C0E00080E0000080E0200080E0400080E0600080E0800080E0A00080E0C00080E0E000C0000000C0002000C0004000C0006000C0008000C000A000C000C000C000E000C0200000C0202000C0204000C0206000C0208000C020A000C020C000C020E000C0400000C0402000C0404000C0406000C0
310
408000C040A000C040C000C040E000C0600000C0602000C0604000C0606000C0608000C060A000C060C000C060E000C0800000C0802000C0804000C0806000C0808000C080A000C080C000C080E000C0A00000C0A02000C0A04000C0A06000C0A08000C0A0A000C0A0C000C0A0E000C0C00000C0C02000C0C04000C0C06000
310
C0C08000C0C0A000F0FBFF00A4A0A000808080000000FF0000FF000000FFFF00FF000000FF00FF00FFFF0000FFFFFF00000000FF000000000000000000000000000000000000000000000000000000000000FF00FF00000000000000000000000000000000000000000000000000000000FF000000FF000000000000000000
310
0000000000000000000000000000000000FF0000000000FF0000000000000000000000000000000000000000000000000000FF0000000000FF0000000000000000000000000000000000000000000000000000FF0000000000FF0000000000000000000000000000000000000000000000000000FF0000000000FF00000000
310
00000000000000000000000000000000000000000000FF0000000000FF0000000000000000000000000000000000000000000000000000FF0000000000FF0000000000000000000000000000000000000000000000000000FF0000000000FF0000000000000000000000000000000000000000000000000000FF0000000000
310
FF0000000000000000000000000000000000000000000000000000FF0000000000FF0000000000000000000000000000000000000000000000000000FF0000000000FF0000000000000000000000000000000000000000000000000000FF0000000000FF0000000000000000000000000000000000000000000000000000FF
310
0000000000FF0000000000000000000000000000000000000000000000000000FF0000000000FF0000000000000000000000000000000000000000000000000000FF0000000000FF0000000000000000000000000000000000000000000000000000FF0000000000FF00000000000000000000000000000000000000000000
310
00000000FF0000000000FF0000000000000000000000000000000000000000000000000000FF0000000000FF0000000000000000000000000000000000000000000000000000FF0000000000FF0000000000000000000000000000000000000000000000000000FF0000000000FF0000000000000000000000000000000000
310
000000000000000000FF0000000000FF0000000000000000000000000000000000000000000000000000FF0000000000FF0000000000000000000000000000000000000000000000000000FF0000000000FF0000000000000000000000000000000000000000000000000000FF0000000000FF000000000000000000000000
310
0000000000000000000000000000FF0000000000FF0000000000000000000000000000000000000000000000000000FF0000000000FF0000000000000000000000000000000000000000000000000000FF0000000000FF0000000000000000000000000000000000000000000000000000FF000000FF000000000000000000
310
00000000000000000000000000000000000000FF00FF000000000000000000000000000000000000000000000000000000000000FF000000
102
{BLKREFS
331
8C4
331
8D8
331
B3A
331
F28
331
F3D
331
1135
331
1153
102
}
  0
BLOCK_RECORD
  5
232
330
1
100
AcDbSymbolTableRecord
100
AcDbBlockTableRecord
  2
_Arrivo
340
0
310
2800000020000000200000000100080000000000000400000000000000000000000000000000000000000000000080000080000000808000800000008000800080800000C0C0C000C0DCC000F0CAA6000020400000206000002080000020A0000020C0000020E00000400000004020000040400000406000004080000040A0
310
000040C0000040E00000600000006020000060400000606000006080000060A0000060C0000060E00000800000008020000080400000806000008080000080A0000080C0000080E00000A0000000A0200000A0400000A0600000A0800000A0A00000A0C00000A0E00000C0000000C0200000C0400000C0600000C0800000C0
310
A00000C0C00000C0E00000E0000000E0200000E0400000E0600000E0800000E0A00000E0C00000E0E00040000000400020004000400040006000400080004000A0004000C0004000E00040200000402020004020400040206000402080004020A0004020C0004020E000404000004040200040404000404060004040800040
310
40A0004040C0004040E00040600000406020004060400040606000406080004060A0004060C0004060E00040800000408020004080400040806000408080004080A0004080C0004080E00040A0000040A0200040A0400040A0600040A0800040A0A00040A0C00040A0E00040C0000040C0200040C0400040C0600040C08000
310
40C0A00040C0C00040C0E00040E0000040E0200040E0400040E0600040E0800040E0A00040E0C00040E0E00080000000800020008000400080006000800080008000A0008000C0008000E00080200000802020008020400080206000802080008020A0008020C0008020E00080400000804020008040400080406000804080
310
008040A0008040C0008040E00080600000806020008060400080606000806080008060A0008060C0008060E00080800000808020008080400080806000808080008080A0008080C0008080E00080A0000080A0200080A0400080A0600080A0800080A0A00080A0C00080A0E00080C0000080C0200080C0400080C0600080C0
310
800080C0A00080C0C00080C0E00080E0000080E0200080E0400080E0600080E0800080E0A00080E0C00080E0E000C0000000C0002000C0004000C0006000C0008000C000A000C000C000C000E000C0200000C0202000C0204000C0206000C0208000C020A000C020C000C020E000C0400000C0402000C0404000C0406000C0
310
408000C040A000C040C000C040E000C0600000C0602000C0604000C0606000C0608000C060A000C060C000C060E000C0800000C0802000C0804000C0806000C0808000C080A000C080C000C080E000C0A00000C0A02000C0A04000C0A06000C0A08000C0A0A000C0A0C000C0A0E000C0C00000C0C02000C0C04000C0C06000
310
C0C08000C0C0A000F0FBFF00A4A0A000808080000000FF0000FF000000FFFF00FF000000FF00FF00FFFF0000FFFFFF00000000000000000000000000000000000000000000000000000000000000000000000000000000000000FF0000000000000000000000000000000000000000000000000000000000000000FF000000
310
00000000000000000000000000000000000000000000000000000000FF0000000000000000000000000000000000000000000000000000000000000000FF00000000000000000000000000000000000000000000000000000000000000FF0000000000000000000000000000000000000000000000000000000000000000FF
310
0000000000000000000000000000000000000000000000000000000000000000FF00000000000000000000000000000000000000000000000000000000000000FF0000000000000000000000000000000000000000000000000000000000000000FF0000000000000000000000000000000000000000000000000000000000
310
0000FF0000000000000000000000000000000000000000000000000000000000000000FF00000000000000000000000000000000000000000000000000000000000000FF0000000000000000000000000000000000000000000000000000000000000000FF0000FF0000000000000000000000000000000000000000000000
310
000000000000FFFF000000000000000000000000000000000000000000000000000000000000FFFF00000000000000000000000000000000000000000000000000000000FFFFFFFFFFFF00000000000000000000000000000000000000000000000000000000FFFF0000000000000000000000000000000000000000000000
310
000000000000FF0000FF000000000000000000000000000000000000000000000000000000FF00000000000000000000000000000000000000000000000000000000000000FF000000000000000000000000000000000000000000000000000000000000FF0000000000000000000000000000000000000000000000000000
310
0000000000FF000000000000000000000000000000000000000000000000000000000000FF00000000000000000000000000000000000000000000000000000000000000FF000000000000000000000000000000000000000000000000000000000000FF000000000000000000000000000000000000000000000000000000
310
000000FF00000000000000000000000000000000000000000000000000000000000000FF000000000000000000000000000000000000000000000000000000000000FF00000000000000000000000000000000000000000000000000000000000000FF00000000000000000000000000000000000000000000000000000000
310
0000FF0000000000000000000000000000000000000000000000000000000000000000000000000000000000000000000000000000000000
  0
BLOCK_RECORD
  5
238
330
1
100
AcDbSymbolTableRecord
100
AcDbBlockTableRecord
  2
_Partenza
340
0
310
2800000020000000200000000100080000000000000400000000000000000000000000000000000000000000000080000080000000808000800000008000800080800000C0C0C000C0DCC000F0CAA6000020400000206000002080000020A0000020C0000020E00000400000004020000040400000406000004080000040A0
310
000040C0000040E00000600000006020000060400000606000006080000060A0000060C0000060E00000800000008020000080400000806000008080000080A0000080C0000080E00000A0000000A0200000A0400000A0600000A0800000A0A00000A0C00000A0E00000C0000000C0200000C0400000C0600000C0800000C0
310
A00000C0C00000C0E00000E0000000E0200000E0400000E0600000E0800000E0A00000E0C00000E0E00040000000400020004000400040006000400080004000A0004000C0004000E00040200000402020004020400040206000402080004020A0004020C0004020E000404000004040200040404000404060004040800040
310
40A0004040C0004040E00040600000406020004060400040606000406080004060A0004060C0004060E00040800000408020004080400040806000408080004080A0004080C0004080E00040A0000040A0200040A0400040A0600040A0800040A0A00040A0C00040A0E00040C0000040C0200040C0400040C0600040C08000
310
40C0A00040C0C00040C0E00040E0000040E0200040E0400040E0600040E0800040E0A00040E0C00040E0E00080000000800020008000400080006000800080008000A0008000C0008000E00080200000802020008020400080206000802080008020A0008020C0008020E00080400000804020008040400080406000804080
310
008040A0008040C0008040E00080600000806020008060400080606000806080008060A0008060C0008060E00080800000808020008080400080806000808080008080A0008080C0008080E00080A0000080A0200080A0400080A0600080A0800080A0A00080A0C00080A0E00080C0000080C0200080C0400080C0600080C0
310
800080C0A00080C0C00080C0E00080E0000080E0200080E0400080E0600080E0800080E0A00080E0C00080E0E000C0000000C0002000C0004000C0006000C0008000C000A000C000C000C000E000C0200000C0202000C0204000C0206000C0208000C020A000C020C000C020E000C0400000C0402000C0404000C0406000C0
310
408000C040A000C040C000C040E000C0600000C0602000C0604000C0606000C0608000C060A000C060C000C060E000C0800000C0802000C0804000C0806000C0808000C080A000C080C000C080E000C0A00000C0A02000C0A04000C0A06000C0A08000C0A0A000C0A0C000C0A0E000C0C00000C0C02000C0C04000C0C06000
310
C0C08000C0C0A000F0FBFF00A4A0A000808080000000FF0000FF000000FFFF00FF000000FF00FF00FFFF0000FFFFFF0000000000000000000000000000000000000000000000000000000000000000000000000000000000000000000000000000000000000000000000000000000000000000000000000000000000000000
310
000000000000000000000000000000000000000000000000000000000000000000000000000000000000000000000000000000000000000000000000000000000000000000000000000000000000000000000000000000000000000000000000000000000000000000000000000000000000FFFFFFFFFFFFFFFFFFFFFFFFFF
310
FFFFFFFFFFFFFFFFFFFFFFFFFFFFFFFFFF0000000000000000000000000000000000000000000000000000000000000000000000000000000000000000000000000000000000000000000000000000000000000000000000000000000000000000000000000000000000000000000000000000000000000000000000000000
310
00000000000000000000000000000000000000000000000000000000000000000000000000000000000000000000000000000000000000000000000000000000000000000000000000000000000000000000000000000000000000000000000000000000000000000000000000000000000000000000000000000000000000
310
00000000000000000000000000000000000000000000000000000000000000000000000000000000000000000000000000000000000000000000000000000000000000000000000000000000000000000000000000000000000000000000000000000000000000000000000000000000000000000000000000000000000000
310
00000000000000000000000000000000000000000000000000000000000000000000000000000000000000000000000000000000000000000000000000000000000000000000000000000000000000000000000000000000000000000000000000000000000000000000000000000000000000000000000000000000000000
310
000000000000000000000000000000000000000000000000000000000000000000000000000000000000000000000000000000000000000000000000000000000000000000000000000000000000000000000000000000FFFFFFFFFFFFFFFFFFFFFFFFFFFFFFFFFFFFFFFFFFFFFFFFFFFFFFFFFFFF00000000000000000000
310
00000000000000000000000000000000000000000000000000000000000000000000000000000000000000000000000000000000000000000000000000000000000000000000000000000000000000000000000000000000000000000000000000000000000000000000000000000000000000000000000000000000000000
310
0000000000000000000000000000000000000000000000000000000000000000000000000000000000000000000000000000000000000000
  0
BLOCK_RECORD
  5
B2E
330
1
100
AcDbSymbolTableRecord
100
AcDbBlockTableRecord
  2
*D6
340
0
  0
BLOCK_RECORD
  5
F0E
330
1
100
AcDbSymbolTableRecord
100
AcDbBlockTableRecord
  2
*D8
340
0
  0
BLOCK_RECORD
  5
F38
330
1
100
AcDbSymbolTableRecord
100
AcDbBlockTableRecord
  2
*D9
340
0
  0
BLOCK_RECORD
  5
1129
330
1
100
AcDbSymbolTableRecord
100
AcDbBlockTableRecord
  2
*D11
340
0
  0
BLOCK_RECORD
  5
1139
330
1
100
AcDbSymbolTableRecord
100
AcDbBlockTableRecord
  2
*D12
340
0
  0
ENDTAB
  0
ENDSEC
  0
SECTION
  2
BLOCKS
  0
BLOCK
  5
5
330
2
100
AcDbEntity
  8
0
100
AcDbBlockBegin
  2
*Model_Space
 70
     0
 10
0.0
 20
0.0
 30
0.0
  3
*Model_Space
  1

  0
ENDBLK
  5
162
330
2
100
AcDbEntity
  8
0
100
AcDbBlockEnd
  0
BLOCK
  5
166
330
165
100
AcDbEntity
 67
     1
  8
0
100
AcDbBlockBegin
  2
*Paper_Space
 70
     0
 10
0.0
 20
0.0
 30
0.0
  3
*Paper_Space
  1

  0
ENDBLK
  5
167
330
165
100
AcDbEntity
 67
     1
  8
0
100
AcDbBlockEnd
  0
BLOCK
  5
16A
330
169
100
AcDbEntity
 67
     1
  8
0
100
AcDbBlockBegin
  2
*Paper_Space0
 70
     0
 10
0.0
 20
0.0
 30
0.0
  3
*Paper_Space0
  1

  0
ENDBLK
  5
16B
330
169
100
AcDbEntity
 67
     1
  8
0
100
AcDbBlockEnd
  0
BLOCK
  5
153
330
152
100
AcDbEntity
  8
0
 62
     1
100
AcDbBlockBegin
  2
_ArchTick
 70
     0
 10
0.0
 20
0.0
 30
0.0
  3
_ArchTick
  1

  0
LWPOLYLINE
  5
154
330
152
100
AcDbEntity
  8
0
  6
ByBlock
 62
     0
100
AcDbPolyline
 90
        2
 70
     0
 43
0.15
 10
-0.5
 20
-0.5
 10
0.5
 20
0.5
  0
ENDBLK
  5
155
330
152
100
AcDbEntity
  8
0
 62
     1
100
AcDbBlockEnd
  0
BLOCK
  5
233
330
232
100
AcDbEntity
  8
0
100
AcDbBlockBegin
  2
_Arrivo
 70
     0
 10
0.0
 20
0.0
 30
0.0
  3
_Arrivo
  1

  0
LINE
  5
234
330
232
100
AcDbEntity
  8
0
  6
ByBlock
 62
     0
370
    -2
100
AcDbLine
 10
0.025
 20
-0.0433012701891858
 30
0.0
 11
-0.15
 21
0.2598076211353328
 31
0.0
  0
LINE
  5
235
330
232
100
AcDbEntity
  8
0
  6
ByBlock
 62
     0
370
    -2
100
AcDbLine
 10
0.025
 20
0.0433012701892585
 30
0.0
 11
-0.15
 21
-0.2598076211353328
 31
0.0
  0
LINE
  5
236
330
232
100
AcDbEntity
  8
0
  6
ByBlock
 62
     0
370
    -2
100
AcDbLine
 10
-0.05
 20
0.0
 30
0.0
 11
0.05
 21
0.0
 31
0.0
  0
ENDBLK
  5
237
330
232
100
AcDbEntity
  8
0
100
AcDbBlockEnd
  0
BLOCK
  5
239
330
238
100
AcDbEntity
  8
0
100
AcDbBlockBegin
  2
_Partenza
 70
     0
 10
0.0
 20
0.0
 30
0.0
  3
_Partenza
  1

  0
LINE
  5
23A
330
238
100
AcDbEntity
  8
0
  6
ByBlock
 62
     0
370
    -2
100
AcDbLine
 10
-0.05
 20
0.05
 30
0.0
 11
0.1
 21
0.05
 31
0.0
  0
LINE
  5
23B
330
238
100
AcDbEntity
  8
0
  6
ByBlock
 62
     0
370
    -2
100
AcDbLine
 10
-0.05
 20
-0.05
 30
0.0
 11
0.1
 21
-0.05
 31
0.0
  0
ENDBLK
  5
23C
330
238
100
AcDbEntity
  8
0
100
AcDbBlockEnd
  0
BLOCK
  5
B35
330
B2E
100
AcDbEntity
  8
0
100
AcDbBlockBegin
  2
*D6
 70
     1
 10
0.0
 20
0.0
 30
0.0
  3
*D6
  1

  0
LINE
  5
B37
330
B2E
100
AcDbEntity
  8
Sezione
  6
ACAD_ISO10W100
 62
     5
370
    -2
100
AcDbLine
 10
0.2490382717523074
 20
0.2002746873852521
 30
0.0
 11
0.2475382717523074
 21
0.2002746873852521
 31
0.0
  0
LINE
  5
B38
330
B2E
100
AcDbEntity
  8
Sezione
  6
ACAD_ISO10W100
 62
     5
370
    -2
100
AcDbLine
 10
0.2475382717523074
 20
0.2002746873852521
 30
0.0
 11
0.2453598399951405
 21
0.1982120591881776
 31
0.0
  0
MTEXT
  5
B39
330
B2E
100
AcDbEntity
  8
Sezione
  6
ACAD_ISO10W100
 62
     4
100
AcDbMText
 10
0.2634668431808787
 20
0.2002746873852521
 30
0.0
 40
0.003
 41
0.0
 71
     5
 72
     1
  1
\A1;d 400 mm
  7
ROMANS
 73
     1
 44
1.0
1001
ACAD
1000
MTEXTBEGIN
1070
    73
1070
     1
1070
    44
1040
1.0
1070
    74
1070
     0
1000
MTEXTEND
  0
INSERT
  5
B3A
330
B2E
100
AcDbEntity
  8
Sezione
  6
ACAD_ISO10W100
 62
     5
370
    -2
100
AcDbBlockReference
  2
_ArchTick
 10
0.2453598399951405
 20
0.1982120591881776
 30
0.0
 41
0.0015
 42
0.0015
 43
0.0015
 50
223.4359082248928
  0
POINT
  5
B3B
330
B2E
100
AcDbEntity
  8
Defpoints
  6
ACAD_ISO10W100
 62
     0
100
AcDbPoint
 10
0.2453598399951405
 20
0.1982120591881776
 30
0.0
  0
POINT
  5
B3C
330
B2E
100
AcDbEntity
  8
Defpoints
  6
ACAD_ISO10W100
 62
     0
100
AcDbPoint
 10
0.1727454480895762
 20
0.1294577859523623
 30
0.0
  0
ENDBLK
  5
B36
330
B2E
100
AcDbEntity
  8
0
100
AcDbBlockEnd
  0
BLOCK
  5
F15
330
F0E
100
AcDbEntity
  8
0
100
AcDbBlockBegin
  2
*D8
 70
     1
 10
0.0
 20
0.0
 30
0.0
  3
*D8
  1

  0
LINE
  5
F25
330
F0E
100
AcDbEntity
  8
Text
  6
ACAD_ISO10W100
 62
     5
370
    -2
100
AcDbLine
 10
0.2547820556108338
 20
0.1949596782512033
 30
0.0
 11
0.2532820556108338
 21
0.1949596782512033
 31
0.0
  0
LINE
  5
F26
330
F0E
100
AcDbEntity
  8
Text
  6
ACAD_ISO10W100
 62
     5
370
    -2
100
AcDbLine
 10
0.2532820556108338
 20
0.1949596782512033
 30
0.0
 11
0.2509836868545414
 21
0.1930315960278271
 31
0.0
  0
MTEXT
  5
F27
330
F0E
100
AcDbEntity
  8
Text
  6
ACAD_ISO10W100
 62
     4
100
AcDbMText
 10
0.2692106270394052
 20
0.1949596782512033
 30
0.0
 40
0.003
 41
0.0
 71
     5
 72
     1
  1
\A1;d 435 mm
  7
ROMANS
 73
     1
 44
1.0
1001
ACAD
1000
MTEXTBEGIN
1070
    73
1070
     1
1070
    44
1040
1.0
1070
    74
1070
     0
1000
MTEXTEND
  0
INSERT
  5
F28
330
F0E
100
AcDbEntity
  8
Text
  6
ACAD_ISO10W100
 62
     5
370
    -2
100
AcDbBlockReference
  2
_ArchTick
 10
0.2509836868545414
 20
0.1930315960278271
 30
0.0
 41
0.0015
 42
0.0015
 43
0.0015
 50
219.9930044538004
  0
POINT
  5
F29
330
F0E
100
AcDbEntity
  8
Defpoints
  6
ACAD_ISO10W100
 62
     0
100
AcDbPoint
 10
0.2509836868545414
 20
0.1930315960278271
 30
0.0
  0
POINT
  5
F2A
330
F0E
100
AcDbEntity
  8
Defpoints
  6
ACAD_ISO10W100
 62
     0
100
AcDbPoint
 10
0.1676678194389444
 20
0.1231386154304406
 30
0.0
  0
ENDBLK
  5
F16
330
F0E
100
AcDbEntity
  8
0
100
AcDbBlockEnd
  0
BLOCK
  5
F39
330
F38
100
AcDbEntity
  8
0
100
AcDbBlockBegin
  2
*D9
 70
     1
 10
0.0
 20
0.0
 30
0.0
  3
*D9
  1

  0
LINE
  5
F3A
330
F38
100
AcDbEntity
  8
Sezione
  6
ACAD_ISO10W100
 62
     5
370
    -2
100
AcDbLine
 10
0.2558514754556142
 20
0.211046886970545
 30
0.0
 11
0.2543514754556142
 21
0.211046886970545
 31
0.0
  0
LINE
  5
F3B
330
F38
100
AcDbEntity
  8
Sezione
  6
ACAD_ISO10W100
 62
     5
370
    -2
100
AcDbLine
 10
0.2543514754556142
 20
0.211046886970545
 30
0.0
 11
0.252220121576662
 21
0.2089356478456055
 31
0.0
  0
MTEXT
  5
F3C
330
F38
100
AcDbEntity
  8
Sezione
  6
ACAD_ISO10W100
 62
     4
100
AcDbMText
 10
0.2702800468841856
 20
0.211046886970545
 30
0.0
 40
0.003
 41
0.0
 71
     5
 72
     1
  1
\A1;d 500 mm
  7
ROMANS
 73
     1
 44
1.0
1001
ACAD
1000
MTEXTBEGIN
1070
    73
1070
     1
1070
    44
1040
1.0
1070
    74
1070
     0
1000
MTEXTEND
  0
INSERT
  5
F3D
330
F38
100
AcDbEntity
  8
Sezione
  6
ACAD_ISO10W100
 62
     5
370
    -2
100
AcDbBlockReference
  2
_ArchTick
 10
0.252220121576662
 20
0.2089356478456055
 30
0.0
 41
0.0015
 42
0.0015
 43
0.0015
 50
224.7283543638229
  0
POINT
  5
F3E
330
F38
100
AcDbEntity
  8
Defpoints
  6
ACAD_ISO10W100
 62
     0
100
AcDbPoint
 10
0.252220121576662
 20
0.2089356478456055
 30
0.0
  0
POINT
  5
F3F
330
F38
100
AcDbEntity
  8
Defpoints
  6
ACAD_ISO10W100
 62
     0
100
AcDbPoint
 10
0.1634137099536523
 20
0.1209673509731266
 30
0.0
  0
ENDBLK
  5
F40
330
F38
100
AcDbEntity
  8
0
100
AcDbBlockEnd
  0
BLOCK
  5
1130
330
1129
100
AcDbEntity
  8
0
100
AcDbBlockBegin
  2
*D11
 70
     1
 10
0.0
 20
0.0
 30
0.0
  3
*D11
  1

  0
LINE
  5
1132
330
1129
100
AcDbEntity
  8
Sezione
  6
ACAD_ISO10W100
 62
     5
370
    -2
100
AcDbLine
 10
0.2569794242119316
 20
0.2103688405289794
 30
0.0
 11
0.2554794242119315
 21
0.2103688405289794
 31
0.0
  0
LINE
  5
1133
330
1129
100
AcDbEntity
  8
Sezione
  6
ACAD_ISO10W100
 62
     5
370
    -2
100
AcDbLine
 10
0.2554794242119315
 20
0.2103688405289794
 30
0.0
 11
0.2533480703329793
 21
0.2082576014040399
 31
0.0
  0
MTEXT
  5
1134
330
1129
100
AcDbEntity
  8
Sezione
  6
ACAD_ISO10W100
 62
     4
100
AcDbMText
 10
0.271407995640503
 20
0.2103688405289795
 30
0.0
 40
0.003
 41
0.0
 71
     5
 72
     1
  1
\A1;d 500 mm
  7
ROMANS
 73
     1
 44
1.0
1001
ACAD
1000
MTEXTBEGIN
1070
    73
1070
     1
1070
    44
1040
1.0
1070
    74
1070
     0
1000
MTEXTEND
  0
INSERT
  5
1135
330
1129
100
AcDbEntity
  8
Sezione
  6
ACAD_ISO10W100
 62
     5
370
    -2
100
AcDbBlockReference
  2
_ArchTick
 10
0.2533480703329793
 20
0.2082576014040399
 30
0.0
 41
0.0015
 42
0.0015
 43
0.0015
 50
224.7283543638228
  0
POINT
  5
1136
330
1129
100
AcDbEntity
  8
Defpoints
  6
ACAD_ISO10W100
 62
     0
100
AcDbPoint
 10
0.2533480703329793
 20
0.2082576014040399
 30
0.0
  0
POINT
  5
1137
330
1129
100
AcDbEntity
  8
Defpoints
  6
ACAD_ISO10W100
 62
     0
100
AcDbPoint
 10
0.1645416587099697
 20
0.120289304531561
 30
0.0
  0
ENDBLK
  5
1131
330
1129
100
AcDbEntity
  8
0
100
AcDbBlockEnd
  0
BLOCK
  5
1140
330
1139
100
AcDbEntity
  8
0
100
AcDbBlockBegin
  2
*D12
 70
     1
 10
0.0
 20
0.0
 30
0.0
  3
*D12
  1

  0
LINE
  5
1150
330
1139
100
AcDbEntity
  8
Text
  6
ACAD_ISO10W100
 62
     5
370
    -2
100
AcDbLine
 10
0.2562544646025093
 20
0.2110893748364945
 30
0.0
 11
0.2547544646025093
 21
0.2110893748364945
 31
0.0
  0
LINE
  5
1151
330
1139
100
AcDbEntity
  8
Text
  6
ACAD_ISO10W100
 62
     5
370
    -2
100
AcDbLine
 10
0.2547544646025093
 20
0.2110893748364945
 30
0.0
 11
0.2526563149804772
 21
0.2089451341402184
 31
0.0
  0
MTEXT
  5
1152
330
1139
100
AcDbEntity
  8
Text
  6
ACAD_ISO10W100
 62
     4
100
AcDbMText
 10
0.2706830360310807
 20
0.2110893748364945
 30
0.0
 40
0.003
 41
0.0
 71
     5
 72
     1
  1
\A1;d 495 mm
  7
ROMANS
 73
     1
 44
1.0
1001
ACAD
1000
MTEXTBEGIN
1070
    73
1070
     1
1070
    44
1040
1.0
1070
    74
1070
     0
1000
MTEXTEND
  0
INSERT
  5
1153
330
1139
100
AcDbEntity
  8
Text
  6
ACAD_ISO10W100
 62
     5
370
    -2
100
AcDbBlockReference
  2
_ArchTick
 10
0.2526563149804772
 20
0.2089451341402184
 30
0.0
 41
0.0015
 42
0.0015
 43
0.0015
 50
225.6224604369279
  0
POINT
  5
1154
330
1139
100
AcDbEntity
  8
Defpoints
  6
ACAD_ISO10W100
 62
     0
100
AcDbPoint
 10
0.2526563149804772
 20
0.2089451341402184
 30
0.0
  0
POINT
  5
1155
330
1139
100
AcDbEntity
  8
Defpoints
  6
ACAD_ISO10W100
 62
     0
100
AcDbPoint
 10
0.1652334140624719
 20
0.1196017717953826
 30
0.0
  0
ENDBLK
  5
1141
330
1139
100
AcDbEntity
  8
0
100
AcDbBlockEnd
  0
ENDSEC
  0
SECTION
  2
ENTITIES
  0
LINE
  5
D
330
2
100
AcDbEntity
  8
Table
100
AcDbLine
 10
0.02
 20
0.02
 30
0.0
 11
0.4
 21
0.02
 31
0.0
  0
LINE
  5
10
330
2
100
AcDbEntity
  8
Table
100
AcDbLine
 10
0.4
 20
0.02
 30
0.0
 11
0.4
 21
0.2769999999999999
 31
0.0
  0
LINE
  5
11
330
2
100
AcDbEntity
  8
Table
100
AcDbLine
 10
0.4
 20
0.2769999999999999
 30
0.0
 11
0.02
 21
0.277
 31
0.0
  0
LINE
  5
12
330
2
100
AcDbEntity
  8
Table
100
AcDbLine
 10
0.02
 20
0.277
 30
0.0
 11
0.02
 21
0.02
 31
0.0
  0
LINE
  5
13
330
2
100
AcDbEntity
  8
Table
 62
     2
100
AcDbLine
 10
0.015
 20
0.015
 30
0.0
 11
0.4050000000000001
 21
0.015
 31
0.0
  0
LINE
  5
14
330
2
100
AcDbEntity
  8
Table
 62
     2
100
AcDbLine
 10
0.4050000000000001
 20
0.015
 30
0.0
 11
0.4050000000000001
 21
0.2819999999999998
 31
0.0
  0
LINE
  5
15
330
2
100
AcDbEntity
  8
Table
 62
     2
100
AcDbLine
 10
0.4050000000000001
 20
0.2819999999999998
 30
0.0
 11
0.0149999999999999
 21
0.282
 31
0.0
  0
LINE
  5
16
330
2
100
AcDbEntity
  8
Table
 62
     2
100
AcDbLine
 10
0.0149999999999999
 20
0.282
 30
0.0
 11
0.015
 21
0.015
 31
0.0
  0
LINE
  5
17
330
2
100
AcDbEntity
  8
Table
100
AcDbLine
 10
0.21
 20
0.2769999999999999
 30
0.0
 11
0.21
 21
0.2532994226089223
 31
0.0
  0
MTEXT
  5
18
102
{ACAD_XDICTIONARY
360
115A
102
}
330
2
100
AcDbEntity
  8
Text
100
AcDbMText
 10
0.305
 20
0.0471738284815141
 30
0.0
 40
0.005
 41
0.1900000000000001
 71
     2
 72
     5
  3
{\fTimes New Roman|b0|i0|c238|p18;\H1.6x;\C4;Bovelacci\P\H0.4375x;\T0.95;via del Commercio, 5  47100 Forli - Italy  \fTimes New Roman|b0|i0|c0|p18;\P\fTimes New Roman|b0|i0|c238|p18;tel.+39-0543721386  fax +39-0543721127\fTimes New Roman|b0|i0|c0|p18
  1
; \fTimes New Roman|b0|i0|c238|p18;www.bovelacci.it\fTimes New Roman|b0|i0|c0|p18; \fTimes New Roman|b0|i0|c238|p18;e-mail: bovelacci@bovelacci\fTimes New Roman|b0|i0|c0|p18;.it}
 73
     1
 44
1.0
1001
ACAD
1000
ACAD_MTEXT_DEFINED_HEIGHT_BEGIN
1070
    46
1040
0.0271738284815141
1000
ACAD_MTEXT_DEFINED_HEIGHT_END
1000
MTEXTBEGIN
1070
    73
1070
     1
1070
    44
1040
1.0
1070
    74
1070
     0
1000
MTEXTEND
  0
MTEXT
  5
1C
330
2
100
AcDbEntity
  8
Text
100
AcDbMText
 10
0.0219676065851835
 20
0.0500313976452307
 30
0.0
 40
0.002
 41
0.1863544980601608
 71
     1
 72
     5
  3
{\fArial|b0|i0|c0|p34;\H1.25x;Le caratteristiche tecniche indicate vengono fornite a titolo indicativo e potranno essere modificate senza preavviso. Non devono quindi essere considerate a scopo di specifica.\P\fArial|b0|i1|c0|p34;The given values are
  3
 indicative and can be changed without notice. They cannot be considered like a state.\PThis lealfet and designs embodied within are protected by copyright law and international treaties. Unauthorized repro- duction of the leaflet or any portion of i
  1
t or reproduction of any of the designs embodied therein may result in severe civil penalties and will be prosecuted to the maximum.\PAll right reserved, Bovelacci Forlì Italy.}
 73
     1
 44
1.0
1001
ACAD
1000
MTEXTBEGIN
1070
    73
1070
     1
1070
    44
1040
1.0
1070
    74
1070
     0
1000
MTEXTEND
  0
LINE
  5
1D
330
2
100
AcDbEntity
  8
Table
100
AcDbLine
 10
0.02
 20
0.0528099428524846
 30
0.0
 11
0.4
 21
0.0528099428524846
 31
0.0
  0
MTEXT
  5
1E
330
2
100
AcDbEntity
  8
Text
100
AcDbMText
 10
0.1133313047219695
 20
0.2610796890771976
 30
0.0
 40
0.003
 41
0.1103605678262056
 71
     2
 72
     5
  1
{\fTimes New Roman|b0|i0|c0|p18;Rosoni\fTimes New Roman|b0|i1|c0|p18;   Ceiling centres}
 73
     1
 44
1.0
1001
ACAD
1000
ACAD_MTEXT_DEFINED_HEIGHT_BEGIN
1070
    46
1040
0.0141952763113409
1000
ACAD_MTEXT_DEFINED_HEIGHT_END
1000
MTEXTBEGIN
1070
    73
1070
     1
1070
    44
1040
1.0
1070
    74
1070
     0
1000
MTEXTEND
  0
TEXT
  5
1F
330
2
100
AcDbEntity
  8
Text
100
AcDbText
 10
0.2180556919891047
 20
0.269976982173197
 30
0.0
 40
0.003
  1
Rosone - Ceiling centre : D 495 mm
  7
ROMANS
100
AcDbText
  0
TEXT
  5
21
330
2
100
AcDbEntity
  8
Text
100
AcDbText
 10
0.2184542410678115
 20
0.2576348370183962
 30
0.0
 40
0.003
  1
File : C - R3308
  7
ROMANS
100
AcDbText
  0
LINE
  5
22
330
2
100
AcDbEntity
  8
Table
100
AcDbLine
 10
0.4
 20
0.2654452889427402
 30
0.0
 11
0.02
 21
0.2654452889427403
 31
0.0
  0
LINE
  5
23
330
2
100
AcDbEntity
  8
Table
100
AcDbLine
 10
0.4
 20
0.2532994226089223
 30
0.0
 11
0.02
 21
0.2532994226089225
 31
0.0
  0
LINE
  5
24
330
2
100
AcDbEntity
  8
Table
100
AcDbLine
 10
0.21
 20
0.0528099428524846
 30
0.0
 11
0.21
 21
0.02
 31
0.0
  0
TEXT
  5
25
330
2
100
AcDbEntity
  8
Text
100
AcDbText
 10
0.0896473531074035
 20
0.2687784133392506
 30
0.0
 40
0.005
  1
CLASSICSTYL
  7
style1
 72
     1
 11
0.1140561490699125
 21
0.2687784133392506
 31
0.0
100
AcDbText
  0
TEXT
  5
252
330
2
100
AcDbEntity
  8
Text
  6
ACAD_ISO10W100
100
AcDbText
 10
0.2619444701437109
 20
0.0817475304515419
 30
0.0
 40
0.005
  1
scala 1 : 4
  7
style1
100
AcDbText
  0
CIRCLE
  5
1038
102
{ACAD_REACTORS
330
1149
102
}
330
2
100
AcDbEntity
  8
Profilo
  6
Continuous
370
     0
100
AcDbCircle
 10
0.2089448645214746
 20
0.1642734529678005
 30
0.0
 40
0.0625
  0
CIRCLE
  5
1039
330
2
100
AcDbEntity
  8
Profilo
  6
Continuous
370
     0
100
AcDbCircle
 10
0.2089448645214746
 20
0.1642734529678005
 30
0.0
 40
0.0203490246009585
  0
CIRCLE
  5
103A
330
2
100
AcDbEntity
  8
Profilo
  6
Continuous
370
     0
100
AcDbCircle
 10
0.2089448645214746
 20
0.1642734529678005
 30
0.0
 40
0.010553454711771
  0
CIRCLE
  5
103B
330
2
100
AcDbEntity
  8
Profilo
  6
Continuous
370
     0
100
AcDbCircle
 10
0.2089448645214746
 20
0.1642734529678005
 30
0.0
 40
0.0226630051917664
  0
ARC
  5
103C
330
2
100
AcDbEntity
  8
Profilo
  6
Continuous
370
     0
100
AcDbCircle
 10
0.2089448645214746
 20
0.1642734529678005
 30
0.0
 40
0.0494009056964024
100
AcDbArc
 50
23.71105512232901
 51
27.6577689167163
  0
ARC
  5
103D
330
2
100
AcDbEntity
  8
Profilo
  6
Continuous
370
     0
100
AcDbCircle
 10
0.2089448645214746
 20
0.1642734529678005
 30
0.0
 40
0.0494009056964024
100
AcDbArc
 50
42.69570837611385
 51
83.71105512232364
  0
CIRCLE
  5
103E
330
2
100
AcDbEntity
  8
Profilo
  6
Continuous
370
     0
100
AcDbCircle
 10
0.2089448645214746
 20
0.1642734529678005
 30
0.0
 40
0.05734617786091
  0
ELLIPSE
  5
103F
330
2
100
AcDbEntity
  8
Profilo
  6
Continuous
370
     0
100
AcDbEllipse
 10
0.2328902129983231
 20
0.2114056952917014
 30
0.0
 11
-0.0009644433632832
 21
0.0003981658342419
 31
0.0
210
0.0
220
0.0
230
1.0
 40
0.6508041496962198
 41
0.0
 42
6.283185307179585
  0
LWPOLYLINE
  5
1040
330
2
100
AcDbEntity
  8
Profilo
  6
Continuous
370
     0
100
AcDbPolyline
 90
        2
 70
   128
 43
0.0
 10
0.229461426651551
 20
0.209937386609419
 10
0.2318076916147306
 20
0.2113444674380427
  0
LWPOLYLINE
  5
1041
330
2
100
AcDbEntity
  8
Profilo
  6
Continuous
370
     0
100
AcDbPolyline
 90
        2
 70
   128
 43
0.0
 10
0.2322482122173061
 20
0.212115337883968
 10
0.2317622548350301
 20
0.2150296736983839
  0
LWPOLYLINE
  5
1042
330
2
100
AcDbEntity
  8
Profilo
  6
Continuous
370
     0
100
AcDbPolyline
 90
        3
 70
   128
 43
0.0
 10
0.2338680674663188
 20
0.2114908379605549
 10
0.2358813133256693
 20
0.2122541160231914
 10
0.2368995074383261
 20
0.2124391535421559
  0
LWPOLYLINE
  5
1043
330
2
100
AcDbEntity
  8
Profilo
  6
Continuous
370
     0
100
AcDbPolyline
 90
        2
 70
   128
 43
0.0
 10
0.2335440958781349
 20
0.2107044285049555
 10
0.2338217854263051
 20
0.207859481760152
  0
LWPOLYLINE
  5
1044
330
2
100
AcDbEntity
  8
Profilo
  6
Continuous
370
     0
100
AcDbPolyline
 90
        5
 70
   128
 43
0.0
 10
0.2315661355989914
 20
0.2157710125323253
 10
0.2333788690222044
 20
0.2138851977052074
 10
0.2346366836659976
 20
0.2142549661866109
 10
0.2347846607509511
 20
0.2128868265522208
 10
0.2377072290410912
 20
0.2127758956671817
  0
LWPOLYLINE
  5
1045
330
2
100
AcDbEntity
  8
Profilo
  6
Continuous
370
     0
100
AcDbPolyline
 90
        5
 70
   128
 43
0.0
 10
0.2291984860882711
 20
0.2095958945613356
 10
0.2313071736813893
 20
0.2095958945613356
 10
0.2315291406547758
 20
0.2085235683495952
 10
0.2326759731578311
 20
0.2087084525902967
 10
0.2334898511629405
 20
0.2071554287152051
  0
LWPOLYLINE
  5
1046
330
2
100
AcDbEntity
  8
Profilo
  6
Continuous
370
     0
100
AcDbPolyline
 90
        2
 70
   128
 43
0.0
 10
0.2333854319032341
 20
0.2121856364046064
 10
0.2339768556989189
 20
0.2132496838870594
  0
LWPOLYLINE
  5
1047
330
2
100
AcDbEntity
  8
Profilo
  6
Continuous
370
     0
100
AcDbPolyline
 90
        2
 70
   128
 43
0.0
 10
0.231906877797848
 20
0.2091708352043236
 10
0.2324983015935328
 20
0.2104122239338519
  0
ELLIPSE
  5
1048
330
2
100
AcDbEntity
  8
Profilo
  6
Continuous
370
     0
100
AcDbEllipse
 10
0.2130210509521583
 20
0.2170066933046926
 30
0.0
 11
-0.0029648214298379
 21
0.0001076883826428
 31
0.0
210
0.0
220
0.0
230
1.0
 40
0.8246019661597951
 41
0.0
 42
6.283185307179585
  0
ELLIPSE
  5
1049
330
2
100
AcDbEntity
  8
Profilo
  6
Continuous
370
     0
100
AcDbEllipse
 10
0.2132367517109984
 20
0.2172295759129759
 30
0.0
 11
-0.0043557165301719
 21
0.0003864776436075
 31
0.0
210
0.0
220
0.0
230
1.0
 40
0.7893281930750149
 41
1.887603617210134
 42
6.765935049911796
  0
ELLIPSE
  5
104A
330
2
100
AcDbEntity
  8
Profilo
  6
Continuous
370
     0
100
AcDbEllipse
 10
0.2132367517109984
 20
0.2172295759129759
 30
0.0
 11
-0.0043557165301719
 21
0.0003864776436075
 31
0.0
210
0.0
220
0.0
230
1.0
 40
0.7893281930750149
 41
7.413241629267653
 42
7.659928309566637
  0
ELLIPSE
  5
104B
330
2
100
AcDbEntity
  8
Profilo
  6
Continuous
370
     0
100
AcDbEllipse
 10
0.2061160234429459
 20
0.2170638463960464
 30
0.0
 11
-0.0010343153702355
 21
-0.0001373999542692
 31
0.0
210
0.0
220
0.0
230
1.0
 40
0.65080414969622
 41
0.0
 42
6.283185307179585
  0
LWPOLYLINE
  5
104C
330
2
100
AcDbEntity
  8
Profilo
  6
Continuous
370
     0
100
AcDbPolyline
 90
        2
 70
   128
 43
0.0
 10
0.2052052131612027
 20
0.2173574145180488
 10
0.2033271938157871
 20
0.2196383246773534
  0
LWPOLYLINE
  5
104D
330
2
100
AcDbEntity
  8
Profilo
  6
Continuous
370
     0
100
AcDbPolyline
 90
        3
 70
   128
 43
0.0
 10
0.2069202989190079
 20
0.2176265093442178
 10
0.2082821819459512
 20
0.2192941504662877
 10
0.209071445154012
 20
0.2199634947146924
  0
LWPOLYLINE
  5
104E
330
2
100
AcDbEntity
  8
Profilo
  6
Continuous
370
     0
100
AcDbPolyline
 90
        5
 70
   128
 43
0.0
 10
0.202786680158236
 20
0.220182283322339
 10
0.2052994607665867
 20
0.2194554864868283
 10
0.2062038759606616
 20
0.2204046227071388
 10
0.2070160976926044
 20
0.2192937675703093
 10
0.2096025815186796
 20
0.2206589827508714
  0
LWPOLYLINE
  5
104F
330
2
100
AcDbEntity
  8
Profilo
  6
Continuous
370
     0
100
AcDbPolyline
 90
        2
 70
   128
 43
0.0
 10
0.2061549250385814
 20
0.2179869046657339
 10
0.2061350893288186
 20
0.2192041087142129
  0
ELLIPSE
  5
1050
330
2
100
AcDbEntity
  8
Profilo
  6
Continuous
370
     0
100
AcDbEllipse
 10
0.1992337913584848
 20
0.2162648463927621
 30
0.0
 11
-0.00289166939378
 21
-0.0006633332613842
 31
0.0
210
0.0
220
0.0
230
1.0
 40
0.8246019661597951
 41
0.0
 42
6.283185307179585
  0
ELLIPSE
  5
1051
330
2
100
AcDbEntity
  8
Profilo
  6
Continuous
370
     0
100
AcDbEllipse
 10
0.1993844560283539
 20
0.2165359619247649
 30
0.0
 11
-0.0043073268631593
 21
-0.0007540336558325
 31
0.0
210
0.0
220
0.0
230
1.0
 40
0.7893281930750149
 41
2.702219286795263
 42
7.44100580417628
  0
ELLIPSE
  5
1052
330
2
100
AcDbEntity
  8
Profilo
  6
Continuous
370
     0
100
AcDbEllipse
 10
0.1800998195700768
 20
0.2085768542131714
 30
0.0
 11
-0.0008270434090141
 21
-0.0006361495359937
 31
0.0
210
0.0
220
0.0
230
1.0
 40
0.6508041496962198
 41
0.0
 42
6.283185307179585
  0
LWPOLYLINE
  5
1053
330
2
100
AcDbEntity
  8
Profilo
  6
Continuous
370
     0
100
AcDbPolyline
 90
        2
 70
   128
 43
0.0
 10
0.1796570190161447
 20
0.2048732837915763
 10
0.1796115837549682
 20
0.2076087492680114
  0
LWPOLYLINE
  5
1054
330
2
100
AcDbEntity
  8
Profilo
  6
Continuous
370
     0
100
AcDbPolyline
 90
        2
 70
   128
 43
0.0
 10
0.1791642506670578
 20
0.2083756865236961
 10
0.1763973831254767
 20
0.2094120029926951
  0
LWPOLYLINE
  5
1055
330
2
100
AcDbEntity
  8
Profilo
  6
Continuous
370
     0
100
AcDbPolyline
 90
        3
 70
   128
 43
0.0
 10
0.1805150110899011
 20
0.2094662723580873
 10
0.1808606158271829
 20
0.2115914334476672
 10
0.1812094656914337
 20
0.2125657341746934
  0
LWPOLYLINE
  5
1056
330
2
100
AcDbEntity
  8
Profilo
  6
Continuous
370
     0
100
AcDbPolyline
 90
        2
 70
   128
 43
0.0
 10
0.1810340758621355
 20
0.2087925000048159
 10
0.1836367167896345
 20
0.2076105128354955
  0
LWPOLYLINE
  5
1057
330
2
100
AcDbEntity
  8
Profilo
  6
Continuous
370
     0
100
AcDbPolyline
 90
        5
 70
   128
 43
0.0
 10
0.175657305244452
 20
0.2096128281690859
 10
0.1781968355031765
 20
0.2102397939503187
 10
0.1785055139266579
 20
0.2115139776257966
 10
0.1797643461484409
 20
0.2109580597233494
 10
0.1813216992580199
 20
0.2134336126643863
  0
LWPOLYLINE
  5
1058
330
2
100
AcDbEntity
  8
Profilo
  6
Continuous
370
     0
100
AcDbPolyline
 90
        5
 70
   128
 43
0.0
 10
0.1798212895233345
 20
0.2044748245600487
 10
0.1808756333198936
 20
0.2063010015843349
 10
0.1819152785470991
 20
0.2059570675162179
 10
0.1823285803494191
 20
0.2070426957181011
 10
0.1840804774804877
 20
0.2069710228085617
  0
LWPOLYLINE
  5
1059
330
2
100
AcDbEntity
  8
Profilo
  6
Continuous
370
     0
100
AcDbPolyline
 90
        2
 70
   128
 43
0.0
 10
0.1796719802053016
 20
0.2093956969217123
 10
0.1790461999525065
 20
0.2104399086944035
  0
LWPOLYLINE
  5
105A
330
2
100
AcDbEntity
  8
Profilo
  6
Continuous
370
     0
100
AcDbPolyline
 90
        2
 70
   128
 43
0.0
 10
0.1815435975794121
 20
0.2066078309054367
 10
0.1807642353015123
 20
0.2077407133016653
  0
LWPOLYLINE
  5
105B
330
2
100
AcDbEntity
  8
Profilo
  6
Continuous
370
     0
100
AcDbPolyline
 90
        5
 70
   128
 43
0.0
 10
0.1636224229279407
 20
0.1845270745345953
 10
0.1636224229279407
 20
0.1866357621277144
 10
0.1646947491396798
 20
0.1868577291011004
 10
0.1645098648989788
 20
0.1880045616041561
 10
0.1660628887740704
 20
0.188818439609266
  0
ELLIPSE
  5
105C
330
2
100
AcDbEntity
  8
Profilo
  6
Continuous
370
     0
100
AcDbEllipse
 10
0.15615447109323
 20
0.1614446118892701
 30
0.0
 11
0.0001373999542692
 21
-0.0010343153702355
 31
0.0
210
0.0
220
0.0
230
1.0
 40
0.65080414969622
 41
0.0
 42
6.283185307179585
  0
LWPOLYLINE
  5
105D
330
2
100
AcDbEntity
  8
Profilo
  6
Continuous
370
     0
100
AcDbPolyline
 90
        2
 70
   128
 43
0.0
 10
0.15914045688607
 20
0.1592093501499574
 10
0.1567487566617139
 20
0.1605377347977692
  0
LWPOLYLINE
  5
105E
330
2
100
AcDbEntity
  8
Profilo
  6
Continuous
370
     0
100
AcDbPolyline
 90
        2
 70
   128
 43
0.0
 10
0.1558609029712262
 20
0.1605338016075282
 10
0.1535799928119229
 20
0.1586557822621117
  0
LWPOLYLINE
  5
105F
330
2
100
AcDbEntity
  8
Profilo
  6
Continuous
370
     0
100
AcDbPolyline
 90
        3
 70
   128
 43
0.0
 10
0.1555918081450586
 20
0.1622488873653329
 10
0.1539241670229882
 20
0.1636107703922758
 10
0.1532548227745839
 20
0.1644000336003375
  0
LWPOLYLINE
  5
1060
330
2
100
AcDbEntity
  8
Profilo
  6
Continuous
370
     0
100
AcDbPolyline
 90
        2
 70
   128
 43
0.0
 10
0.1564348445054752
 20
0.1623615244676604
 10
0.158759795884804
 20
0.164024484043144
  0
LWPOLYLINE
  5
1061
330
2
100
AcDbEntity
  8
Profilo
  6
Continuous
370
     0
100
AcDbPolyline
 90
        5
 70
   128
 43
0.0
 10
0.1530360341669369
 20
0.158115268604561
 10
0.1537628310024467
 20
0.1606280492129113
 10
0.1528136947821367
 20
0.1615324644069862
 10
0.1539245499189662
 20
0.162344686138929
 10
0.152559334738405
 20
0.1649311699650051
  0
LWPOLYLINE
  5
1062
330
2
100
AcDbEntity
  8
Profilo
  6
Continuous
370
     0
100
AcDbPolyline
 90
        5
 70
   128
 43
0.0
 10
0.1595676679565398
 20
0.1591523829665136
 10
0.1585133241599806
 20
0.1609785599907998
 10
0.1593310024137978
 20
0.1617069521344232
 10
0.1585974717130644
 20
0.1626076960956049
 10
0.1595354908390217
 20
0.1640890470611571
  0
LWPOLYLINE
  5
1063
330
2
100
AcDbEntity
  8
Profilo
  6
Continuous
370
     0
100
AcDbPolyline
 90
        2
 70
   128
 43
0.0
 10
0.155231412823542
 20
0.161483513484906
 10
0.1540142087750621
 20
0.1614636777751441
  0
LWPOLYLINE
  5
1064
330
2
100
AcDbEntity
  8
Profilo
  6
Continuous
370
     0
100
AcDbPolyline
 90
        2
 70
   128
 43
0.0
 10
0.1585815843030386
 20
0.1617104486689136
 10
0.157210798229454
 20
0.1616019423356139
  0
ELLIPSE
  5
1065
330
2
100
AcDbEntity
  8
Profilo
  6
Continuous
370
     0
100
AcDbEllipse
 10
0.1849995160446277
 20
0.1171412106438991
 30
0.0
 11
0.0009644433632832
 21
-0.0003981658342419
 31
0.0
210
0.0
220
0.0
230
1.0
 40
0.6508041496962198
 41
0.0
 42
6.283185307179585
  0
LWPOLYLINE
  5
1066
330
2
100
AcDbEntity
  8
Profilo
  6
Continuous
370
     0
100
AcDbPolyline
 90
        2
 70
   128
 43
0.0
 10
0.1884283023913998
 20
0.1186095193261816
 10
0.1860820374282203
 20
0.1172024384975578
  0
LWPOLYLINE
  5
1067
330
2
100
AcDbEntity
  8
Profilo
  6
Continuous
370
     0
100
AcDbPolyline
 90
        2
 70
   128
 43
0.0
 10
0.1856415168256448
 20
0.1164315680516326
 10
0.1861274742079207
 20
0.1135172322372167
  0
LWPOLYLINE
  5
1068
330
2
100
AcDbEntity
  8
Profilo
  6
Continuous
370
     0
100
AcDbPolyline
 90
        3
 70
   128
 43
0.0
 10
0.184021661576632
 20
0.1170560679750461
 10
0.1820084157172815
 20
0.1162927899124091
 10
0.1809902216046247
 20
0.1161077523934446
  0
LWPOLYLINE
  5
1069
330
2
100
AcDbEntity
  8
Profilo
  6
Continuous
370
     0
100
AcDbPolyline
 90
        2
 70
   128
 43
0.0
 10
0.184345633164816
 20
0.117842477430645
 10
0.1840679436166458
 20
0.120687424175449
  0
LWPOLYLINE
  5
106A
330
2
100
AcDbEntity
  8
Profilo
  6
Continuous
370
     0
100
AcDbPolyline
 90
        5
 70
   128
 43
0.0
 10
0.1863235934439594
 20
0.1127758934032756
 10
0.1845108600207464
 20
0.1146617082303931
 10
0.1832530453769533
 20
0.1142919397489901
 10
0.1831050682919998
 20
0.1156600793833802
 10
0.1801825000018596
 20
0.1157710102684193
  0
LWPOLYLINE
  5
106B
330
2
100
AcDbEntity
  8
Profilo
  6
Continuous
370
     0
100
AcDbPolyline
 90
        5
 70
   128
 43
0.0
 10
0.1886912429546798
 20
0.1189510113742649
 10
0.1865825553615615
 20
0.1189510113742649
 10
0.186360588388175
 20
0.1200233375860058
 10
0.1852137558851198
 20
0.1198384533453038
 10
0.1843998778800103
 20
0.1213914772203959
  0
LWPOLYLINE
  5
106C
330
2
100
AcDbEntity
  8
Profilo
  6
Continuous
370
     0
100
AcDbPolyline
 90
        2
 70
   128
 43
0.0
 10
0.1845042971397167
 20
0.1163612695309941
 10
0.1839128733440319
 20
0.1152972220485415
  0
LWPOLYLINE
  5
106D
330
2
100
AcDbEntity
  8
Profilo
  6
Continuous
370
     0
100
AcDbPolyline
 90
        2
 70
   128
 43
0.0
 10
0.1859828512451028
 20
0.119376070731277
 10
0.185391427449418
 20
0.118134682001749
  0
ELLIPSE
  5
106E
330
2
100
AcDbEntity
  8
Profilo
  6
Continuous
370
     0
100
AcDbEllipse
 10
0.2377899094728741
 20
0.1199700517224296
 30
0.0
 11
0.0008270434090141
 21
0.0006361495359937
 31
0.0
210
0.0
220
0.0
230
1.0
 40
0.6508041496962198
 41
0.0
 42
6.283185307179585
  0
LWPOLYLINE
  5
106F
330
2
100
AcDbEntity
  8
Profilo
  6
Continuous
370
     0
100
AcDbPolyline
 90
        2
 70
   128
 43
0.0
 10
0.2382327100268061
 20
0.1236736221440247
 10
0.2382781452879827
 20
0.1209381566675891
  0
LWPOLYLINE
  5
1070
330
2
100
AcDbEntity
  8
Profilo
  6
Continuous
370
     0
100
AcDbPolyline
 90
        2
 70
   128
 43
0.0
 10
0.2387254783758931
 20
0.1201712194119049
 10
0.2414923459174742
 20
0.1191349029429054
  0
LWPOLYLINE
  5
1071
330
2
100
AcDbEntity
  8
Profilo
  6
Continuous
370
     0
100
AcDbPolyline
 90
        3
 70
   128
 43
0.0
 10
0.2373747179530498
 20
0.1190806335775136
 10
0.2370291132157679
 20
0.1169554724879338
 10
0.2366802633515172
 20
0.1159811717609072
  0
LWPOLYLINE
  5
1072
330
2
100
AcDbEntity
  8
Profilo
  6
Continuous
370
     0
100
AcDbPolyline
 90
        2
 70
   128
 43
0.0
 10
0.2368556531808154
 20
0.1197544059307851
 10
0.2342530122533163
 20
0.1209363931001055
  0
LWPOLYLINE
  5
1073
330
2
100
AcDbEntity
  8
Profilo
  6
Continuous
370
     0
100
AcDbPolyline
 90
        5
 70
   128
 43
0.0
 10
0.2422324237984989
 20
0.1189340777665151
 10
0.2396928935397743
 20
0.1183071119852823
 10
0.2393842151162929
 20
0.1170329283098039
 10
0.2381253828945099
 20
0.1175888462122512
 10
0.236568029784931
 20
0.1151132932712147
  0
LWPOLYLINE
  5
1074
330
2
100
AcDbEntity
  8
Profilo
  6
Continuous
370
     0
100
AcDbPolyline
 90
        5
 70
   128
 43
0.0
 10
0.2380684395196163
 20
0.1240720813755518
 10
0.2370140957230572
 20
0.1222459043512656
 10
0.2359744504958518
 20
0.1225898384193826
 10
0.2355611486935317
 20
0.1215042102174995
 10
0.2338092515624631
 20
0.1215758831270388
  0
LWPOLYLINE
  5
1075
330
2
100
AcDbEntity
  8
Profilo
  6
Continuous
370
     0
100
AcDbPolyline
 90
        2
 70
   128
 43
0.0
 10
0.2382177488376493
 20
0.1191512090138886
 10
0.2388435290904444
 20
0.1181069972411974
  0
LWPOLYLINE
  5
1076
330
2
100
AcDbEntity
  8
Profilo
  6
Continuous
370
     0
100
AcDbPolyline
 90
        2
 70
   128
 43
0.0
 10
0.2363461314635388
 20
0.1219390750301639
 10
0.2371254937414386
 20
0.1208061926339352
  0
ELLIPSE
  5
1077
330
2
100
AcDbEntity
  8
Profilo
  6
Continuous
370
     0
100
AcDbEllipse
 10
0.2617352579497209
 20
0.1671022940463305
 30
0.0
 11
-0.0001373999542692
 21
0.0010343153702356
 31
0.0
210
0.0
220
0.0
230
1.0
 40
0.6508041496962198
 41
0.0
 42
6.283185307179585
  0
LWPOLYLINE
  5
1078
330
2
100
AcDbEntity
  8
Profilo
  6
Continuous
370
     0
100
AcDbPolyline
 90
        2
 70
   128
 43
0.0
 10
0.2587492721568808
 20
0.1693375557856431
 10
0.2611409723812369
 20
0.1680091711378318
  0
LWPOLYLINE
  5
1079
330
2
100
AcDbEntity
  8
Profilo
  6
Continuous
370
     0
100
AcDbPolyline
 90
        2
 70
   128
 43
0.0
 10
0.2620288260717246
 20
0.1680131043280728
 10
0.264309736231028
 20
0.1698911236734892
  0
LWPOLYLINE
  5
107A
330
2
100
AcDbEntity
  8
Profilo
  6
Continuous
370
     0
100
AcDbPolyline
 90
        3
 70
   128
 43
0.0
 10
0.2622979208978923
 20
0.166298018570268
 10
0.2639655620199627
 20
0.1649361355433248
 10
0.264634906268367
 20
0.164146872335263
  0
LWPOLYLINE
  5
107B
330
2
100
AcDbEntity
  8
Profilo
  6
Continuous
370
     0
100
AcDbPolyline
 90
        2
 70
   128
 43
0.0
 10
0.2614548845374757
 20
0.1661853814679401
 10
0.2591299331581468
 20
0.164522421892457
  0
LWPOLYLINE
  5
107C
330
2
100
AcDbEntity
  8
Profilo
  6
Continuous
370
     0
100
AcDbPolyline
 90
        5
 70
   128
 43
0.0
 10
0.264853694876014
 20
0.1704316373310399
 10
0.2641268980405042
 20
0.1679188567226892
 10
0.2650760342608142
 20
0.1670144415286143
 10
0.2639651791239847
 20
0.1662022197966715
 10
0.2653303943045459
 20
0.1636157359705954
  0
LWPOLYLINE
  5
107D
330
2
100
AcDbEntity
  8
Profilo
  6
Continuous
370
     0
100
AcDbPolyline
 90
        5
 70
   128
 43
0.0
 10
0.2583220610864111
 20
0.1693945229690874
 10
0.2593764048829702
 20
0.1675683459448007
 10
0.258558726629153
 20
0.1668399538011773
 10
0.2592922573298865
 20
0.1659392098399961
 10
0.2583542382039291
 20
0.1644578588744434
  0
LWPOLYLINE
  5
107E
330
2
100
AcDbEntity
  8
Profilo
  6
Continuous
370
     0
100
AcDbPolyline
 90
        2
 70
   128
 43
0.0
 10
0.2626583162194088
 20
0.1670633924506946
 10
0.2638755202678888
 20
0.1670832281604564
  0
LWPOLYLINE
  5
107F
330
2
100
AcDbEntity
  8
Profilo
  6
Continuous
370
     0
100
AcDbPolyline
 90
        2
 70
   128
 43
0.0
 10
0.2593081447399123
 20
0.1668364572666869
 10
0.2606789308134968
 20
0.1669449635999867
  0
LWPOLYLINE
  5
1080
330
2
100
AcDbEntity
  8
Profilo
  6
Continuous
370
     0
100
AcDbPolyline
 90
        9
 70
   129
 43
0.0
 10
0.208975358520667
 20
0.191229057621668
 10
0.2068400210004765
 20
0.1913081066280255
 10
0.2044674264477323
 20
0.1911500103184023
 10
0.2058118964250956
 20
0.1940748048196228
 10
0.2063655015515459
 20
0.1985805692294436
 10
0.2064445899209745
 20
0.2026910920136602
 10
0.2069191066779944
 20
0.1973157936431817
 10
0.2076308858513912
 20
0.194153852122888
 10
0.2085008390717363
 20
0.1920985915823261
  0
LWPOLYLINE
  5
1081
330
2
100
AcDbEntity
  8
Profilo
  6
Continuous
370
     0
100
AcDbPolyline
 90
       13
 70
   128
 43
0.0
 10
0.2212337704396238
 20
0.1969995993208429
 10
0.2216292042110383
 20
0.1955767257218655
 10
0.2206801653131753
 20
0.1933633671685879
 10
0.2188611731949689
 20
0.1919404952727024
 10
0.2161722332402406
 20
0.1909919123056871
 10
0.2131669451916175
 20
0.1913081066280255
 10
0.2111897817183753
 20
0.1922566878919489
 10
0.20992439741853
 20
0.1939167068069072
 10
0.2088171844737187
 20
0.1969995993208429
 10
0.2085799247492543
 20
0.1997662975124401
 10
0.2092917039226511
 20
0.2019006070593601
 10
0.2110316076714271
 20
0.2039558675999225
 10
0.2145905008465005
 20
0.2062482751595576
  0
LWPOLYLINE
  5
1082
330
2
100
AcDbEntity
  8
Profilo
  6
Continuous
370
     0
100
AcDbPolyline
 90
       27
 70
   128
 43
0.0
 10
0.2243972325351952
 20
0.1974738899528046
 10
0.2230527598659195
 20
0.197394840946447
 10
0.2225782404169888
 20
0.1972367446368237
 10
0.2212337704396238
 20
0.1975529389591626
 10
0.2207592509906932
 20
0.1974738899528046
 10
0.2195729523683657
 20
0.197394840946447
 10
0.2181493967134828
 20
0.1981062785974819
 10
0.2172794434931395
 20
0.1977110352687854
 10
0.2164094929647068
 20
0.1981853259007475
 10
0.2170421837686733
 20
0.1989758125581396
 10
0.2185448277929848
 20
0.1992129578741204
 10
0.2192566069663816
 20
0.1996081994997245
 10
0.2193356926438995
 20
0.2004777334603827
 10
0.2182284823910007
 20
0.2015053637306641
 10
0.21569771379131
 20
0.2017425090466449
 10
0.2142741554445164
 20
0.2015844127370212
 10
0.2122969919712742
 20
0.2000824901316867
 10
0.2115061271203594
 20
0.1984224729198203
 10
0.2108734336244805
 20
0.1957348237345806
 10
0.2109525219939091
 20
0.1939167068069072
 10
0.2124551660182207
 20
0.1924938349110217
 10
0.2141159813975681
 20
0.1920985915823261
 10
0.2153813656974152
 20
0.1932843198653222
 10
0.2157767994688279
 20
0.1947071917612078
 10
0.2157767994688279
 20
0.1960510163538272
 10
0.2154604540668438
 20
0.1971576956304661
 10
0.2145114151689825
 20
0.1981853259007475
  0
LWPOLYLINE
  5
1083
330
2
100
AcDbEntity
  8
Profilo
  6
Continuous
370
     0
100
AcDbPolyline
 90
       11
 70
   128
 43
0.0
 10
0.2160140591932923
 20
0.198501520223086
 10
0.2148277605709649
 20
0.1992129578741204
 10
0.2134042049160837
 20
0.1992920051773861
 10
0.2127715114202048
 20
0.1988177145454244
 10
0.2129296854671531
 20
0.1982643749071051
 10
0.2131669451916175
 20
0.1972367446368237
 10
0.2134832905936016
 20
0.1969995993208429
 10
0.2126133373732565
 20
0.196367210676166
 10
0.2125342516957386
 20
0.1953395804058846
 10
0.2128505970977227
 20
0.1942329011292461
 10
0.2129296854671531
 20
0.194153852122888
  0
LWPOLYLINE
  5
1084
330
2
100
AcDbEntity
  8
Profilo
  6
Continuous
370
     0
100
AcDbPolyline
 90
       77
 70
   128
 43
0.0
 10
0.2157405959466886
 20
0.2017558084905884
 10
0.2157405959466886
 20
0.2030111302142139
 10
0.2161592366899478
 20
0.2038480107956
 10
0.2160894623354349
 20
0.2048941110965601
 10
0.2167872004967489
 20
0.2058007315844705
 10
0.217624481983269
 20
0.2071257932146204
 10
0.2169965208683803
 20
0.2080324137025313
 10
0.2152521808489149
 20
0.2082416334221049
 10
0.2139264815727086
 20
0.2082416334221049
 10
0.2135078408294494
 20
0.2088692942839179
 10
0.213856707218194
 20
0.2097759147718283
 10
0.2142055762988527
 20
0.21054305544669
 10
0.2136473868465644
 20
0.2113799360280766
 10
0.213856707218194
 20
0.2125655178451768
 10
0.2144148966704823
 20
0.2134721383330878
 10
0.2142055762988527
 20
0.2141695391014251
 10
0.213717161201079
 20
0.214448498727523
 10
0.2128101026681336
 20
0.214448498727523
 10
0.2121821415532431
 20
0.2140997991949003
 10
0.2119030468270989
 20
0.2135418782396121
 10
0.210995990986066
 20
0.2133326585200386
 10
0.2104378015337777
 20
0.2128444774712752
 10
0.211135537003181
 20
0.2138905777722353
 10
0.2110657626486682
 20
0.2147274583536214
 10
0.2104378015337777
 20
0.2154945990284831
 10
0.2097400660643744
 20
0.2159130401707221
 10
0.2086236871597994
 20
0.2160525199837708
 10
0.2078561773358815
 20
0.2160525199837708
 10
0.2077166313187647
 20
0.2150064196828112
 10
0.2075073109471352
 20
0.2159130401707221
 10
0.2066700267687044
 20
0.2160525199837708
 10
0.2055536478641277
 20
0.2160525199837708
 10
0.2047163663776076
 20
0.2160525199837708
 10
0.2040884025708064
 20
0.2156340805446237
 10
0.2029720263581439
 20
0.2159130401707221
 10
0.202344062551341
 20
0.2154945990284831
 10
0.2019254218080818
 20
0.2150761595893356
 10
0.2012276863386785
 20
0.2143787588209987
 10
0.2010881376296493
 20
0.2138208378657105
 10
0.2008788172580197
 20
0.2132629186135142
 10
0.1999717614169868
 20
0.2137510979591857
 10
0.1991344772385543
 20
0.2137510979591857
 10
0.1982971930601235
 20
0.2134721383330878
 10
0.1980878726884939
 20
0.212704997658226
 10
0.1980878726884939
 20
0.2118681170768399
 10
0.1984367417691509
 20
0.21054305544669
 10
0.1982274213975214
 20
0.2100548743979267
 10
0.19801810102589
 20
0.2092877354261564
 10
0.1987158364952951
 20
0.2085903346578195
 10
0.1997624410453554
 20
0.2078231939829578
 10
0.2000415357714997
 20
0.2072652730276696
 10
0.199483346319213
 20
0.2068468318854306
 10
0.1994135719646984
 20
0.2064283924462835
 10
0.1975994575907202
 20
0.2067770919789058
 10
0.1966226273951727
 20
0.2067073520723814
 10
0.1958551175712547
 20
0.2060796912105689
 10
0.1954364768279938
 20
0.2053125522387991
 10
0.195715571554138
 20
0.2043361901412719
 10
0.1966924017496855
 20
0.2036387893729346
 10
0.1975994575907202
 20
0.2032900898403118
 10
0.1970412708303425
 20
0.2021045080232111
 10
0.1974599115736034
 20
0.201686068584064
 10
0.1973901372190888
 20
0.2006399682831044
 10
0.1971808168474592
 20
0.1995938662790524
 10
0.1974599115736034
 20
0.1984082861650436
 10
0.1963435326690285
 20
0.1977108853967062
 10
0.1954364768279938
 20
0.1976411454901819
 10
0.1951573821018496
 20
0.1968740048153201
 10
0.19494806173022
 20
0.1958279045143605
 10
0.1943200979234189
 20
0.1954094633721211
 10
0.1941107775517893
 20
0.1958279045143605
 10
0.1939712315346725
 20
0.196525303579606
 10
0.1930641730017272
 20
0.1968042649087958
 10
0.1922966658697217
 20
0.196316083860032
 10
0.1916687020629187
 20
0.1961766040469828
 10
0.1909709665935154
 20
0.1957581646078357
 10
0.1907616462218858
 20
0.1937357022093489
  0
LWPOLYLINE
  5
1085
330
2
100
AcDbEntity
  8
Profilo
  6
Continuous
370
     0
100
AcDbPolyline
 90
       14
 70
   128
 43
0.0
 10
0.1918082480800355
 20
0.1953397234655967
 10
0.1920873428061797
 20
0.1929685615344872
 10
0.1932734960652692
 20
0.1919922011400519
 10
0.1951573821018496
 20
0.1907368794164264
 10
0.1978785523168626
 20
0.1903881798838036
 10
0.2004601765147606
 20
0.1908066193229512
 10
0.2026231572774852
 20
0.1916434999043373
 10
0.2038093078446622
 20
0.1935962223962997
 10
0.204297722942436
 20
0.196525303579606
 10
0.2044372716514652
 20
0.1993149066529545
 10
0.2037395361820601
 20
0.201267627441825
 10
0.2019254218080818
 20
0.2032900898403118
 10
0.200250856143131
 20
0.2046151514704617
 10
0.1985065161236655
 20
0.2053125522387991
  0
LWPOLYLINE
  5
1086
330
2
100
AcDbEntity
  8
Profilo
  6
Continuous
370
     0
100
AcDbPolyline
 90
        7
 70
   128
 43
0.0
 10
0.200250856143131
 20
0.2071955331211452
 10
0.2016463270819377
 20
0.2068468318854306
 10
0.2017858757909651
 20
0.2061494328201852
 10
0.2024836112603702
 20
0.2062889126332343
 10
0.2034604414559177
 20
0.2058007315844705
 10
0.2035999874730327
 20
0.205173070722658
 10
0.2038093078446622
 20
0.2041967103282227
  0
LWPOLYLINE
  5
1087
330
2
100
AcDbEntity
  8
Profilo
  6
Continuous
370
     0
100
AcDbPolyline
 90
        4
 70
   128
 43
0.0
 10
0.205274555829896
 20
0.2038480107956
 10
0.2038093078446622
 20
0.2069165734950469
 10
0.2026231572774852
 20
0.2092877354261564
 10
0.2006694968863901
 20
0.2117286372637908
  0
LWPOLYLINE
  5
1088
330
2
100
AcDbEntity
  8
Profilo
  6
Continuous
370
     0
100
AcDbPolyline
 90
        3
 70
   128
 43
0.0
 10
0.2058327425902719
 20
0.2052428106291824
 10
0.2055536478641277
 20
0.2095666950522548
 10
0.2054838762015255
 20
0.2108220150727884
  0
LWPOLYLINE
  5
1089
330
2
100
AcDbEntity
  8
Profilo
  6
Continuous
370
     0
100
AcDbPolyline
 90
        4
 70
   128
 43
0.0
 10
0.2070886675119635
 20
0.2057309916779462
 10
0.2067398011232172
 20
0.2093574753326812
 10
0.2073677622381077
 20
0.210961496588929
 10
0.2084841411426827
 20
0.2126352577517017
  0
LWPOLYLINE
  5
108A
330
2
100
AcDbEntity
  8
Profilo
  6
Continuous
370
     0
100
AcDbPolyline
 90
        2
 70
   128
 43
0.0
 10
0.208833007531429
 20
0.2104733155401657
 10
0.2086934615143122
 20
0.2126352577517017
  0
LWPOLYLINE
  5
108B
330
2
100
AcDbEntity
  8
Profilo
  6
Continuous
370
     0
100
AcDbPolyline
 90
        2
 70
   128
 43
0.0
 10
0.2079259516903961
 20
0.2090785140034914
 10
0.2076468569642519
 20
0.2106127953532149
  0
LWPOLYLINE
  5
108C
330
2
100
AcDbEntity
  8
Profilo
  6
Continuous
370
     0
100
AcDbPolyline
 90
        4
 70
   128
 43
0.0
 10
0.2076468569642519
 20
0.2032203499337875
 10
0.208833007531429
 20
0.2078929338894822
 10
0.2104378015337777
 20
0.2108220150727884
 10
0.2121123671987303
 20
0.2124260363290362
  0
LWPOLYLINE
  5
108D
330
2
100
AcDbEntity
  8
Profilo
  6
Continuous
370
     0
100
AcDbPolyline
 90
        2
 70
   128
 43
0.0
 10
0.1956457971996234
 20
0.1937357022093489
 10
0.194599192649563
 20
0.1949212823233577
  0
LWPOLYLINE
  5
108E
330
2
100
AcDbEntity
  8
Profilo
  6
Continuous
370
     0
100
AcDbPolyline
 90
       12
 70
   128
 43
0.0
 10
0.1985065161236655
 20
0.1972227043479429
 10
0.197320362864576
 20
0.1964555636730811
 10
0.197320362864576
 20
0.1956186830916951
 10
0.1973901372190888
 20
0.1940844017419716
 10
0.1982971930601235
 20
0.1923409006726746
 10
0.2000415357714997
 20
0.1917132398108616
 10
0.2021347421797114
 20
0.1924803804857234
 10
0.2025533829229706
 20
0.1946423226972593
 10
0.202204516534226
 20
0.1970134846283693
 10
0.2011579119841639
 20
0.1985477659780928
 10
0.1999717614169868
 20
0.199524126372528
 10
0.1979483266713772
 20
0.2001517872343406
  0
LWPOLYLINE
  5
108F
330
2
100
AcDbEntity
  8
Profilo
  6
Continuous
370
     0
100
AcDbPolyline
 90
        2
 70
   128
 43
0.0
 10
0.200250856143131
 20
0.1936659623028241
 10
0.2005299508692734
 20
0.1953397234655967
  0
LWPOLYLINE
  5
1090
330
2
100
AcDbEntity
  8
Profilo
  6
Continuous
370
     0
100
AcDbPolyline
 90
        3
 70
   128
 43
0.0
 10
0.2185315405162144
 20
0.1937357022093489
 10
0.2194385963572491
 20
0.1958976444208849
 10
0.2180431227265299
 20
0.1970134846283693
  0
LWPOLYLINE
  5
1091
330
2
100
AcDbEntity
  8
Profilo
  6
Continuous
370
     0
100
AcDbPolyline
 90
       15
 70
   129
 43
0.0
 10
0.2292766753591512
 20
0.1958976444208849
 10
0.2250902571589045
 20
0.1983385462585192
 10
0.2209736160050849
 20
0.2001517872343406
 10
0.2206247469244261
 20
0.2046151514704617
 10
0.2197874654379061
 20
0.2076837141699086
 10
0.2192990476482216
 20
0.2100548743979267
 10
0.2202758805356798
 20
0.2104035756336409
 10
0.2212527107312273
 20
0.2099851344914019
 10
0.2280905221000617
 20
0.2074744927472432
 10
0.2347190157891771
 20
0.2039177507021248
 10
0.2377890523929364
 20
0.2011978875353002
 10
0.2386961109258817
 20
0.1997333477951935
 10
0.2379983754564766
 20
0.1991754268399053
 10
0.2359051663563542
 20
0.1986872457911415
 10
0.2305326002808429
 20
0.1965950451892222
  0
LWPOLYLINE
  5
1092
330
2
100
AcDbEntity
  8
Profilo
  6
Continuous
370
     0
100
AcDbPolyline
 90
       11
 70
   129
 43
0.0
 10
0.2292945184882956
 20
0.1975993215470413
 10
0.2257629874762003
 20
0.1996583897348726
 10
0.2223792362979855
 20
0.2011488175033047
 10
0.2220884018870984
 20
0.204869697283581
 10
0.2212266555723919
 20
0.2080279214175989
 10
0.2211394836679386
 20
0.208451121712932
 10
0.2274829760077714
 20
0.2061219792705527
 10
0.2338675049028164
 20
0.2026961447711448
 10
0.2365171658802376
 20
0.2003487084935982
 10
0.235466632070122
 20
0.2001037015818883
 10
0.2299023435140914
 20
0.1979368398434644
  0
ELLIPSE
  5
1093
330
2
100
AcDbEntity
  8
Profilo
  6
Continuous
370
     0
100
AcDbEllipse
 10
0.1653146319811974
 20
0.1941701541357783
 30
0.0
 11
-0.00157567158998
 21
-0.0025137664846028
 31
0.0
210
0.0
220
0.0
230
1.0
 40
0.8246019661597955
 41
0.0
 42
6.283185307179585
  0
ELLIPSE
  5
1094
330
2
100
AcDbEntity
  8
Profilo
  6
Continuous
370
     0
100
AcDbEllipse
 10
0.1652294603597831
 20
0.1944683977766923
 30
0.0
 11
-0.0025125577224448
 21
-0.003578922345009
 31
0.0
210
0.0
220
0.0
230
1.0
 40
0.7893281930750149
 41
1.887603617210134
 42
6.765935049911796
  0
ELLIPSE
  5
1095
330
2
100
AcDbEntity
  8
Profilo
  6
Continuous
370
     0
100
AcDbEllipse
 10
0.1618126221975736
 20
0.1882188014446473
 30
0.0
 11
-0.0003981658342419
 21
-0.0009644433632832
 31
0.0
210
0.0
220
0.0
230
1.0
 40
0.6508041496962198
 41
0.0
 42
6.283185307179585
  0
LWPOLYLINE
  5
1096
330
2
100
AcDbEntity
  8
Profilo
  6
Continuous
370
     0
100
AcDbPolyline
 90
        2
 70
   128
 43
0.0
 10
0.1611029796053075
 20
0.187576800663632
 10
0.1581886437908925
 20
0.1870908432813547
  0
LWPOLYLINE
  5
1097
330
2
100
AcDbEntity
  8
Profilo
  6
Continuous
370
     0
100
AcDbPolyline
 90
        3
 70
   128
 43
0.0
 10
0.1617274795287206
 20
0.1891966559126439
 10
0.1609642014660836
 20
0.1912099017719944
 10
0.1607791639471195
 20
0.1922280958846507
  0
LWPOLYLINE
  5
1098
330
2
100
AcDbEntity
  8
Profilo
  6
Continuous
370
     0
100
AcDbPolyline
 90
        5
 70
   128
 43
0.0
 10
0.1574473049569506
 20
0.1868947240453165
 10
0.159333119784068
 20
0.188707457468529
 10
0.1589633513026659
 20
0.1899652721123222
 10
0.1603314909370547
 20
0.1901132491972757
 10
0.1604424218220942
 20
0.1930358174874158
  0
LWPOLYLINE
  5
1099
330
2
100
AcDbEntity
  8
Profilo
  6
Continuous
370
     0
100
AcDbPolyline
 90
        2
 70
   128
 43
0.0
 10
0.1610326810846691
 20
0.1887140203495596
 10
0.159968633602216
 20
0.1893054441452431
  0
ELLIPSE
  5
109A
330
2
100
AcDbEntity
  8
Profilo
  6
Continuous
370
     0
100
AcDbEllipse
 10
0.1590634604558126
 20
0.1818591136231216
 30
0.0
 11
-0.0008713712413561
 21
-0.0028359257850515
 31
0.0
210
0.0
220
0.0
230
1.0
 40
0.8246019661597955
 41
0.0
 42
6.283185307179585
  0
ELLIPSE
  5
109B
330
2
100
AcDbEntity
  8
Profilo
  6
Continuous
370
     0
100
AcDbEllipse
 10
0.1589039998526712
 20
0.1821251508206825
 30
0.0
 11
-0.0015006511303202
 21
-0.0041072713138153
 31
0.0
210
0.0
220
0.0
230
1.0
 40
0.789328193075015
 41
2.702219286795263
 42
7.44100580417628
  0
LWPOLYLINE
  5
109C
330
2
100
AcDbEntity
  8
Profilo
  6
Continuous
370
     0
100
AcDbPolyline
 90
        9
 70
   129
 43
0.0
 10
0.1856158731164513
 20
0.1777776638726969
 10
0.1844797459087076
 20
0.175967931837737
 10
0.1834303640527136
 20
0.1738341565273684
 10
0.1815696527024898
 20
0.1764608989330008
 10
0.1779443488233409
 20
0.1791932172410819
 10
0.1744240758540901
 20
0.1813169711702602
 10
0.1793164791743543
 20
0.1790402655511205
 10
0.182410690442908
 20
0.1780757136370206
 10
0.1846255748926023
 20
0.1778014849556622
  0
LWPOLYLINE
  5
109D
330
2
100
AcDbEntity
  8
Profilo
  6
Continuous
370
     0
100
AcDbPolyline
 90
       13
 70
   128
 43
0.0
 10
0.1867476433708476
 20
0.1912790308541556
 10
0.1881776049396419
 20
0.1909100497462253
 10
0.1896199102255335
 20
0.1889814786748578
 10
0.1899426573745985
 20
0.1866947493432642
 10
0.1894196843442665
 20
0.1838917675497116
 10
0.1876432080042772
 20
0.1814472089150836
 10
0.1858331307955446
 20
0.1802092257517824
 10
0.1837628200945048
 20
0.1799433802600452
 10
0.180539350387895
 20
0.1805259519794082
 10
0.1780246896071355
 20
0.1817038281265251
 10
0.1765322129066601
 20
0.1833874017460311
 10
0.1756222569415272
 20
0.1859218328628931
 10
0.1754164203465905
 20
0.190150128541678
  0
LWPOLYLINE
  5
109E
330
2
100
AcDbEntity
  8
Profilo
  6
Continuous
370
     0
100
AcDbPolyline
 90
       27
 70
   128
 43
0.0
 10
0.1879186266825766
 20
0.19425581470881
 10
0.1873148487955881
 20
0.1930519427193447
 10
0.1872145044915009
 20
0.1925619486671686
 10
0.1862684371871425
 20
0.1915557006733153
 10
0.1860996359103265
 20
0.1911052302727725
 10
0.1855749450468121
 20
0.1900383410261834
 10
0.184247044140366
 20
0.1891612244908718
 10
0.1841543582935213
 20
0.1882102012376012
 10
0.1833086352932484
 20
0.187693947295924
 10
0.1829403991685784
 20
0.1886371169335963
 10
0.1834863473127058
 20
0.1900570174894856
 10
0.1834999476109978
 20
0.1908710571483334
 10
0.1827864519503731
 20
0.1913743143344686
 10
0.1813428929041628
 20
0.1909292572632688
 10
0.17987213473629
 20
0.1888561200228265
 10
0.1792972709832704
 20
0.1875442341759219
 10
0.1796093923773875
 20
0.1850809990779918
 10
0.1806515770281266
 20
0.1835660814202062
 10
0.1826628027510652
 20
0.1816743281873461
 10
0.1842768823821953
 20
0.1808337622605796
 10
0.1862604476025184
 20
0.1814236542105354
 10
0.1874331460555191
 20
0.1826643408556985
 10
0.1870389673903813
 20
0.1843530599464127
 10
0.1860044410679212
 20
0.1854069515859138
 10
0.1848406548324818
 20
0.1860788638822235
 10
0.1837240697640795
 20
0.1863582403660551
 10
0.1823595963953871
 20
0.1860501637064671
  0
LWPOLYLINE
  5
109F
330
2
100
AcDbEntity
  8
Profilo
  6
Continuous
370
     0
100
AcDbPolyline
 90
       11
 70
   128
 43
0.0
 10
0.1828370860918643
 20
0.1875095887655347
 10
0.1816278137016959
 20
0.1868379428476417
 10
0.1808475789015266
 20
0.1856446311384461
 10
0.1809419798896429
 20
0.1848595571822253
 10
0.1815002730968221
 20
0.1847198701059416
 10
0.1825088568788161
 20
0.1844115279194829
 10
0.1828724034478356
 20
0.1845669184159806
 10
0.1829850914690184
 20
0.1834973225047192
 10
0.1838355025500203
 20
0.1829150171637728
 10
0.1849520876184244
 20
0.1826356406799416
 10
0.1850600902507889
 20
0.1826646087138328
  0
LWPOLYLINE
  5
10A0
330
2
100
AcDbEntity
  8
Profilo
  6
Continuous
370
     0
100
AcDbPolyline
 90
       77
 70
   128
 43
0.0
 10
0.1798820581576671
 20
0.1888999067807251
 10
0.178794917655085
 20
0.1895275676425376
 10
0.1782794781832998
 20
0.1903085614519526
 10
0.1773386415705066
 20
0.1907711852388914
 10
0.1769023542770424
 20
0.1918287544557355
 10
0.1761734579870112
 20
0.1932163923082546
 10
0.1750743210554447
 20
0.1931258722741271
 10
0.1740209614535882
 20
0.1917198393642192
 10
0.173358111815486
 20
0.1905717501132462
 10
0.1726052211925645
 20
0.1905230270254303
 10
0.1719944980128155
 20
0.1912784644245662
 10
0.1715045692404374
 20
0.1919641642484422
 10
0.1705007146708802
 20
0.1918991982933293
 10
0.1695786308848203
 20
0.1926732659612405
 10
0.1690725692368432
 20
0.193609982451002
 10
0.1683639422690292
 20
0.1937774060758095
 10
0.1678781485973112
 20
0.1934939060065941
 10
0.1674246193308385
 20
0.1927083702743439
 10
0.1674126214269326
 20
0.1919901902299499
 10
0.1677562477844433
 20
0.1914695266294026
 10
0.1674839094560497
 20
0.1905793833686291
 10
0.167627591919781
 20
0.189851886598442
 10
0.1670705102189459
 20
0.1909791933905469
 10
0.1663108631982738
 20
0.1913372073176982
 10
0.165332519328122
 20
0.1911769473770459
 10
0.1646212709342522
 20
0.1907819113065401
 10
0.1639422884205491
 20
0.1898848387214531
 10
0.1635585335085911
 20
0.1892201557162865
 10
0.1643947099355704
 20
0.1885762551699874
 10
0.1635048933756334
 20
0.1888482886545815
 10
0.1629654582250016
 20
0.1881929191923974
 10
0.162407268772715
 20
0.1872261067007861
 10
0.1619886280294541
 20
0.1865009996633413
 10
0.1620370253103002
 20
0.1857479473344206
 10
0.1612372510811369
 20
0.1849206169871225
 10
0.1612856498369045
 20
0.1841675638066553
 10
0.1614387086495207
 20
0.1835957905683594
 10
0.1616938076968183
 20
0.1826428335425658
 10
0.1621072070628874
 20
0.182243020337838
 10
0.1624857191227339
 20
0.1817827839523789
 10
0.1616094154872635
 20
0.1812413402242285
 10
0.1611907733980481
 20
0.1805162308555201
 10
0.161013717431662
 20
0.1796516416737621
 10
0.1615734205585547
 20
0.1790867945769705
 10
0.1622981804019695
 20
0.1786683542862775
 10
0.1636201519755865
 20
0.178307952957647
 10
0.1639382689796481
 20
0.1778825856739041
 10
0.1644979706316175
 20
0.1773177394286576
 10
0.1654508051483184
 20
0.1775732956861142
 10
0.1666384707360561
 20
0.1780961114767534
 10
0.167261191819711
 20
0.1780588541220121
 10
0.1673444777527359
 20
0.1773662273050867
 10
0.1676719697597243
 20
0.1770965812219714
 10
0.1664629299191959
 20
0.1756998618550465
 10
0.1660349113521303
 20
0.1748190321372565
 10
0.1661947266914624
 20
0.1738405187011829
 10
0.1666497681576179
 20
0.1730943956965756
 10
0.1676348699004418
 20
0.1728479177707147
 10
0.168727251780214
 20
0.1733451771510748
 10
0.1694827623542697
 20
0.1739563607857495
 10
0.1702304129459556
 20
0.1728801659626573
 10
0.1708021125018327
 20
0.1730334997618061
 10
0.1716731747601131
 20
0.1724500232477844
 10
0.1724744654847566
 20
0.1717456954863972
 10
0.173640755344782
 20
0.1713946085522957
 10
0.1736865326744937
 20
0.1700790956765157
 10
0.1732934012846837
 20
0.169258692322267
 10
0.1738182172343191
 20
0.1686334188619336
 10
0.1746195064840411
 20
0.1679290919520924
 10
0.1746679052398087
 20
0.1671760387716252
 10
0.1742008643948257
 20
0.167203982583384
 10
0.1735271260791905
 20
0.1674318317201873
 10
0.1728320092149652
 20
0.1667857766525318
 10
0.1728710328388371
 20
0.1658770054542471
 10
0.172677843996852
 20
0.1652634329383751
 10
0.172691355446397
 20
0.1644499565771766
 10
0.1743381990758718
 20
0.163257448618572
  0
LWPOLYLINE
  5
10A1
330
2
100
AcDbEntity
  8
Profilo
  6
Continuous
370
     0
100
AcDbPolyline
 90
       14
 70
   128
 43
0.0
 10
0.1734723768488252
 20
0.1649658430435015
 10
0.1756654106807244
 20
0.1640219652008497
 10
0.1771040402150995
 20
0.1645610238587849
 10
0.1791331237359718
 20
0.1655648561624867
 10
0.1807956914970167
 20
0.1677471089303981
 10
0.1817241244117181
 20
0.1701920807883754
 10
0.1820808549496665
 20
0.1724837173674854
 10
0.1809828229486755
 20
0.1744873151373556
 10
0.1786903717830722
 20
0.1763748356112729
 10
0.1763442790095916
 20
0.1778904898750306
 10
0.1743043054652283
 20
0.1782625936278406
 10
0.1716457444629505
 20
0.1777027556938473
 10
0.1696609245971857
 20
0.1769150701027693
 10
0.1681847878054538
 20
0.175753127717243
  0
LWPOLYLINE
  5
10A2
330
2
100
AcDbEntity
  8
Profilo
  6
Continuous
370
     0
100
AcDbPolyline
 90
        7
 70
   128
 43
0.0
 10
0.1674262485362349
 20
0.1782052609281111
 10
0.1684259681340973
 20
0.179239423593504
 10
0.1690997077956905
 20
0.1790115767879643
 10
0.1693277824689766
 20
0.1796855733361145
 10
0.1702389747566259
 20
0.1802874425762606
 10
0.1708523180164744
 20
0.1800944625411736
 10
0.1718025311071195
 20
0.1797875591033169
  0
LWPOLYLINE
  5
10A3
330
2
100
AcDbEntity
  8
Profilo
  6
Continuous
370
     0
100
AcDbPolyline
 90
        4
 70
   128
 43
0.0
 10
0.1728371377532757
 20
0.180882151315062
 10
0.1694470605098325
 20
0.181147490686729
 10
0.1668004987574151
 20
0.1813058351283947
 10
0.1637097855623332
 20
0.180834366518156
  0
LWPOLYLINE
  5
10A4
330
2
100
AcDbEntity
  8
Profilo
  6
Continuous
370
     0
100
AcDbPolyline
 90
        3
 70
   128
 43
0.0
 10
0.1719082990443866
 20
0.1820629551463948
 10
0.1680241579279052
 20
0.1839831942350278
 10
0.1669021330689436
 20
0.1845504302130172
  0
LWPOLYLINE
  5
10A5
330
2
100
AcDbEntity
  8
Profilo
  6
Continuous
370
     0
100
AcDbPolyline
 90
        4
 70
   128
 43
0.0
 10
0.1721134843153561
 20
0.1833947085582077
 10
0.1687984241495738
 20
0.1849058232303944
 10
0.1677232815508977
 20
0.1862516641366014
 10
0.1668319513163564
 20
0.1880553572095989
  0
LWPOLYLINE
  5
10A6
330
2
100
AcDbEntity
  8
Profilo
  6
Continuous
370
     0
100
AcDbPolyline
 90
        4
 70
   128
 43
0.0
 10
0.1745668585717429
 20
0.1826227939319336
 10
0.1711133574483846
 20
0.18598632243367
 10
0.1693790957350697
 20
0.1888406553991986
 10
0.1688272554114246
 20
0.1910928824334757
  0
LWPOLYLINE
  5
10A7
330
2
100
AcDbEntity
  8
Profilo
  6
Continuous
370
     0
100
AcDbPolyline
 90
        2
 70
   128
 43
0.0
 10
0.1767802745647405
 20
0.1674872474412117
 10
0.1752302297927554
 20
0.1671736513701465
  0
LWPOLYLINE
  5
10A8
330
2
100
AcDbEntity
  8
Profilo
  6
Continuous
370
     0
100
AcDbPolyline
 90
       12
 70
   128
 43
0.0
 10
0.1751908015916869
 20
0.1717082037718149
 10
0.1752620882748496
 20
0.170297394579231
 10
0.1759868481182626
 20
0.1698789542885379
 10
0.1773504619209331
 20
0.169172239977218
 10
0.1793139060589873
 20
0.1690860228435558
 10
0.1807296476659673
 20
0.1702828375136083
 10
0.1811118875573648
 20
0.1724791777759143
 10
0.1794489110522911
 20
0.1739227024004044
 10
0.1772209913890909
 20
0.174806156210779
 10
0.1753689624886466
 20
0.1746669107575711
 10
0.1739303343002277
 20
0.1741278544308995
 10
0.1723750466761328
 20
0.1726893389692086
  0
LWPOLYLINE
  5
10A9
330
2
100
AcDbEntity
  8
Profilo
  6
Continuous
370
     0
100
AcDbPolyline
 90
        2
 70
   128
 43
0.0
 10
0.1791432005672008
 20
0.1714404755189507
 10
0.1778332282434442
 20
0.1725190592232393
  0
LWPOLYLINE
  5
10AA
330
2
100
AcDbEntity
  8
Profilo
  6
Continuous
370
     0
100
AcDbPolyline
 90
        3
 70
   128
 43
0.0
 10
0.1882231462230351
 20
0.1873068825378692
 10
0.1868043772668483
 20
0.1891733870446239
 10
0.1851402944852428
 20
0.1885227915338514
  0
LWPOLYLINE
  5
10AB
330
2
100
AcDbEntity
  8
Profilo
  6
Continuous
370
     0
100
AcDbPolyline
 90
       15
 70
   129
 43
0.0
 10
0.1917234167677993
 20
0.197693413384709
 10
0.1875163246681407
 20
0.1952883197912476
 10
0.1838876913429858
 20
0.1926298244616855
 10
0.1798478699878342
 20
0.1945593770933012
 10
0.1767717759937469
 20
0.1953685514055803
 10
0.1744740821049974
 20
0.1961311493060609
 10
0.1746605144202683
 20
0.1971514620197101
 10
0.1755113101772093
 20
0.1977882012131185
 10
0.1811044953918682
 20
0.2024545986927351
 10
0.1874989712022071
 20
0.2064166715937745
 10
0.1913894601013738
 20
0.2077154696997658
 10
0.1931113179876317
 20
0.2077687355619624
 10
0.1932456239735128
 20
0.2068855184426932
 10
0.1926217966133262
 20
0.2048286556621723
 10
0.1917474124466459
 20
0.1991297766563085
  0
ELLIPSE
  5
10AC
330
2
100
AcDbEntity
  8
Profilo
  6
Continuous
370
     0
100
AcDbEllipse
 10
0.1612384455505155
 20
0.1414369137988862
 30
0.0
 11
0.0013891498398579
 21
-0.0026214548672455
 31
0.0
210
0.0
220
0.0
230
1.0
 40
0.8246019661597953
 41
0.0
 42
6.283185307179585
  0
ELLIPSE
  5
10AD
330
2
100
AcDbEntity
  8
Profilo
  6
Continuous
370
     0
100
AcDbEllipse
 10
0.1609375731702592
 20
0.141512274831517
 30
0.0
 11
0.0018431588077271
 21
-0.0039653999886165
 31
0.0
210
0.0
220
0.0
230
1.0
 40
0.789328193075015
 41
1.887603617210134
 42
6.765935049911796
  0
ELLIPSE
  5
10AE
330
2
100
AcDbEntity
  8
Profilo
  6
Continuous
370
     0
100
AcDbEllipse
 10
0.1646414632761041
 20
0.1354284080164014
 30
0.0
 11
0.0006361495359937
 21
-0.0008270434090141
 31
0.0
210
0.0
220
0.0
230
1.0
 40
0.6508041496962195
 41
0.0
 42
6.283185307179585
  0
LWPOLYLINE
  5
10AF
330
2
100
AcDbEntity
  8
Profilo
  6
Continuous
370
     0
100
AcDbPolyline
 90
        2
 70
   128
 43
0.0
 10
0.1648426309655794
 20
0.1344928391133833
 10
0.1638063144965799
 20
0.1317259715718018
  0
LWPOLYLINE
  5
10B0
330
2
100
AcDbEntity
  8
Profilo
  6
Continuous
370
     0
100
AcDbPolyline
 90
        3
 70
   128
 43
0.0
 10
0.163752045131189
 20
0.1358435995362266
 10
0.1616268840416087
 20
0.1361892042735071
 10
0.1606525833145821
 20
0.1365380541377588
  0
LWPOLYLINE
  5
10B1
330
2
100
AcDbEntity
  8
Profilo
  6
Continuous
370
     0
100
AcDbPolyline
 90
        5
 70
   128
 43
0.0
 10
0.1636054893201891
 20
0.1309858936907775
 10
0.1629785235389577
 20
0.1335254239495012
 10
0.1617043398634789
 20
0.1338341023729839
 10
0.1622602577659266
 20
0.1350929345947665
 10
0.1597847048248891
 20
0.1366502877043449
  0
LWPOLYLINE
  5
10B2
330
2
100
AcDbEntity
  8
Profilo
  6
Continuous
370
     0
100
AcDbPolyline
 90
        2
 70
   128
 43
0.0
 10
0.163822620567564
 20
0.1350005686516258
 10
0.1627784087948719
 20
0.1343747883988307
  0
ELLIPSE
  5
10B3
330
2
100
AcDbEntity
  8
Profilo
  6
Continuous
370
     0
100
AcDbEllipse
 10
0.1687745336188023
 20
0.1298677201981599
 30
0.0
 11
0.0020202981524239
 21
-0.0021725925236673
 31
0.0
210
0.0
220
0.0
230
1.0
 40
0.8246019661597955
 41
0.0
 42
6.283185307179585
  0
ELLIPSE
  5
10B4
330
2
100
AcDbEntity
  8
Profilo
  6
Continuous
370
     0
100
AcDbEllipse
 10
0.1684644083457937
 20
0.1298626418637181
 30
0.0
 11
0.0028066757328391
 21
-0.0033532376579828
 31
0.0
210
0.0
220
0.0
230
1.0
 40
0.789328193075015
 41
2.702219286795263
 42
7.44100580417628
  0
LWPOLYLINE
  5
10B5
330
2
100
AcDbEntity
  8
Profilo
  6
Continuous
370
     0
100
AcDbPolyline
 90
        9
 70
   129
 43
0.0
 10
0.1855853791172607
 20
0.1508220592188294
 10
0.1865845894297057
 20
0.1489332781775114
 10
0.1879078021264558
 20
0.1469575991767662
 10
0.1847026207988688
 20
0.1466595470811784
 10
0.1805237117932713
 20
0.1448861009794384
 10
0.1769243504545902
 20
0.1428993321244001
 10
0.1813422370178362
 20
0.1459979248757397
 10
0.1837246691129913
 20
0.1481953144819326
 10
0.1850696003423423
 20
0.1499763463411365
  0
LWPOLYLINE
  5
10B6
330
2
100
AcDbEntity
  8
Profilo
  6
Continuous
370
     0
100
AcDbPolyline
 90
       13
 70
   128
 43
0.0
 10
0.1744587374526983
 20
0.1585528845011133
 10
0.1754932652500799
 20
0.1596067769921599
 10
0.1778846094338328
 20
0.1598915644740699
 10
0.1800263487011041
 20
0.1590277070383623
 10
0.1821923156255022
 20
0.1571733082118245
 10
0.1834211273341343
 20
0.1544125552548585
 10
0.1835882135986438
 20
0.1522259908276335
 10
0.1827832871974512
 20
0.150300126420938
 10
0.1806670304356509
 20
0.1477998056263658
 10
0.1783896293793558
 20
0.1462109835818854
 10
0.1761853735054853
 20
0.1457602476544715
 10
0.1735355137915747
 20
0.1462394182307711
 10
0.1697707840215664
 20
0.1481753063499209
  0
LWPOLYLINE
  5
10B7
330
2
100
AcDbEntity
  8
Profilo
  6
Continuous
370
     0
100
AcDbPolyline
 90
       27
 70
   128
 43
0.0
 10
0.1724662586688578
 20
0.1610553777238055
 10
0.173206953451145
 20
0.1599305547406977
 10
0.1735811285959884
 20
0.1595986569981449
 10
0.1739795312689932
 20
0.1582762146819532
 10
0.1742852494411079
 20
0.157904793287768
 10
0.174946857199921
 20
0.1569169530475365
 10
0.1750425119483577
 20
0.1553283988611904
 10
0.1758197793218582
 20
0.1547726189366159
 10
0.1758440068500179
 20
0.153782074362977
 10
0.1748430799213797
 20
0.1539347573432568
 10
0.1738863840411956
 20
0.1551175125831652
 10
0.1731882051660926
 20
0.1555363106164094
 10
0.1723956238279499
 20
0.155170033841886
 10
0.1720592750346367
 20
0.1536973465004052
 10
0.1731192854664546
 20
0.1513870639439816
 10
0.1739679800602304
 20
0.1502332744067012
 10
0.1762572649275896
 20
0.1492719619141056
 10
0.1780903144292435
 20
0.149417061468186
 10
0.180734233648061
 20
0.1502129574205659
 10
0.1822692249097607
 20
0.1511905084214724
 10
0.182750146105774
 20
0.1532032722673138
 10
0.1822620291794256
 20
0.1548392022411729
 10
0.1806024662144424
 20
0.155342193048891
 10
0.1791725061205679
 20
0.1549732127925061
 10
0.1780087198851302
 20
0.1543013004961964
 10
0.1772084802187103
 20
0.153473997703389
 10
0.1767930457478809
 20
0.15213829077352
  0
LWPOLYLINE
  5
10B8
330
2
100
AcDbEntity
  8
Profilo
  6
Continuous
370
     0
100
AcDbPolyline
 90
       11
 70
   128
 43
0.0
 10
0.1757678914200466
 20
0.1532815215102492
 10
0.1757449176522056
 20
0.1518984379413213
 10
0.1763882385069192
 20
0.15062607892886
 10
0.1771153329909126
 20
0.150315295604601
 10
0.1775154521511454
 20
0.1507289481666365
 10
0.1782867762086732
 20
0.1514482362504592
 10
0.1783339773757103
 20
0.1518407720629378
 10
0.1793166186172382
 20
0.1514035647963536
 10
0.1802461153757581
 20
0.1518488897256882
 10
0.1810463550421762
 20
0.1526761925184961
 10
0.1810752693051122
 20
0.1527842095587453
  0
LWPOLYLINE
  5
10B9
330
2
100
AcDbEntity
  8
Profilo
  6
Continuous
370
     0
100
AcDbPolyline
 90
       77
 70
   128
 43
0.0
 10
0.1730863267324548
 20
0.1514175512579368
 10
0.1719991862298727
 20
0.1507898903961242
 10
0.1710651060148284
 20
0.1507340036241527
 10
0.170194043756548
 20
0.1501505271101318
 10
0.169060018301768
 20
0.1503014758390655
 10
0.1674938405252185
 20
0.1503640520614347
 10
0.1670226647085408
 20
0.1493669115393963
 10
0.1677136451261497
 20
0.1477516589099144
 10
0.168376494764252
 20
0.1466035696589418
 10
0.1680422448845914
 20
0.145927185709313
 10
0.1670826553160961
 20
0.1457760026205384
 10
0.166243857463061
 20
0.1456945617695522
 10
0.1657981923457904
 20
0.1447927152330533
 10
0.1646667881881009
 20
0.1443812010838641
 10
0.1636025370878354
 20
0.1444112970857148
 10
0.163103230491651
 20
0.1438813199421849
 10
0.1631058519177068
 20
0.1433188602468716
 10
0.1635593811841794
 20
0.1425333245146214
 10
0.164175344395164
 20
0.1421638440028496
 10
0.1647980654788189
 20
0.1422011013575906
 10
0.16543278299146
 20
0.141520177816391
 10
0.1661346549074779
 20
0.1412808620949673
 10
0.1648798377372395
 20
0.1413620685861121
 10
0.164189965071082
 20
0.1408832019318773
 10
0.1638395823158188
 20
0.1399558013163633
 10
0.1638260693913541
 20
0.1391423241036185
 10
0.164263465782226
 20
0.1381057717054828
 10
0.1646472206941841
 20
0.1374410887003161
 10
0.1656229431382802
 20
0.1378432884549763
 10
0.1649424469499728
 20
0.1372087014516599
 10
0.1652402959777736
 20
0.1364138521764271
 10
0.1657984854300619
 20
0.1354470396848153
 10
0.1662171261733211
 20
0.1347219326473705
 10
0.1668934872609683
 20
0.1343873197575969
 10
0.1672100892444693
 20
0.1332810297842009
 10
0.1678864518070381
 20
0.1329464177459723
 10
0.1684581513629152
 20
0.1327930839468239
 10
0.1694109858796161
 20
0.1325375276893677
 10
0.1699639339547126
 20
0.132695635439928
 10
0.1705517663861905
 20
0.1327933183066647
 10
0.170582518591753
 20
0.1317636952328429
 10
0.1710011606809684
 20
0.1310385858641345
 10
0.1716613888930148
 20
0.1304529563084749
 10
0.1724304123915371
 20
0.130655249886545
 10
0.1731551722349501
 20
0.131073690177238
 10
0.1741282747279119
 20
0.132038350478757
 10
0.1746557121036013
 20
0.1321011642437779
 10
0.1754247341272038
 20
0.1323034569703017
 10
0.1756798331744996
 20
0.1332564139960957
 10
0.1758208942121752
 20
0.1345463704615961
 10
0.1761645205696859
 20
0.1350670340621429
 10
0.1768059959549991
 20
0.1347928483874565
 10
0.1772032623165022
 20
0.1349416417434883
 10
0.177808336849952
 20
0.1331962228439407
 10
0.178357148478434
 20
0.1323851330326751
 10
0.179284473641684
 20
0.1320342804584145
 10
0.1801581558511004
 20
0.132055296425577
 10
0.1808641628677784
 20
0.1327851805972433
 10
0.180979714552003
 20
0.1339798407459403
 10
0.1808281692850259
 20
0.1349397239132377
 10
0.1821340066370877
 20
0.1350491109072462
 10
0.1822870654497038
 20
0.1356208841455422
 10
0.1832279020624988
 20
0.1360835079324805
 10
0.1842385131587737
 20
0.1364252821751453
 10
0.1851257082926548
 20
0.1372597753550526
 10
0.1862878645269416
 20
0.13664166324761
 10
0.1868017889781662
 20
0.1358909997998856
 10
0.187605699653944
 20
0.136032867014414
 10
0.1886163092752974
 20
0.1363746404055324
 10
0.1892926718378661
 20
0.1360400283673042
 10
0.1890349513645127
 20
0.135649531036824
 10
0.1885007590659925
 20
0.1351799811083818
 10
0.1887127007347143
 20
0.1342549647115365
 10
0.1895192314905917
 20
0.1338343745620156
 10
0.1899540064554078
 20
0.1333602818591923
 10
0.1906652533743561
 20
0.132965244937141
 10
0.1925214173754605
 20
0.1337951993770237
  0
LWPOLYLINE
  5
10BA
330
2
100
AcDbEntity
  8
Profilo
  6
Continuous
370
     0
100
AcDbPolyline
 90
       14
 70
   128
 43
0.0
 10
0.1906089932902643
 20
0.1338995725457053
 10
0.192522932396021
 20
0.135326856634163
 10
0.1927754086713048
 20
0.1368422756865335
 10
0.1929206061555967
 20
0.1391014297138609
 10
0.1918620037016286
 20
0.141632382014395
 10
0.1902088124184339
 20
0.1436589144332248
 10
0.1884025621936577
 20
0.1451136704309481
 10
0.1861183796254878
 20
0.1451645457088564
 10
0.1833375133621108
 20
0.1441229849994674
 10
0.1808518718796009
 20
0.1428490361898766
 10
0.1795096338046428
 20
0.141268419153816
 10
0.178665187176345
 20
0.1386861188213355
 10
0.1783549329755311
 20
0.1365733716001081
 10
0.1786231362032645
 20
0.1347140284462445
  0
LWPOLYLINE
  5
10BB
330
2
100
AcDbEntity
  8
Profilo
  6
Continuous
370
     0
100
AcDbPolyline
 90
        7
 70
   128
 43
0.0
 10
0.1761202569145802
 20
0.1352831807747663
 10
0.1757245055736359
 20
0.1366660446758738
 10
0.1762586965262
 20
0.1371355969355796
 10
0.1757890357300827
 20
0.1376701136706806
 10
0.1757233978221845
 20
0.1387601639595901
 10
0.1761971950649163
 20
0.1391948447863156
 10
0.1769380877839318
 20
0.1398643017428947
  0
LWPOLYLINE
  5
10BC
330
2
100
AcDbEntity
  8
Profilo
  6
Continuous
370
     0
100
AcDbPolyline
 90
        4
 70
   128
 43
0.0
 10
0.1765074464448543
 20
0.1413075934872621
 10
0.1745826171866448
 20
0.1385043701594826
 10
0.1731222060014063
 20
0.1362915526700388
 10
0.1719851531974176
 20
0.1333791822221653
  0
LWPOLYLINE
  5
10BD
330
2
100
AcDbEntity
  8
Profilo
  6
Continuous
370
     0
100
AcDbPolyline
 90
        3
 70
   128
 43
0.0
 10
0.1750204209755893
 20
0.1410935974850129
 10
0.1714153745852539
 20
0.1386899521505736
 10
0.1703631213888926
 20
0.1380018681080293
  0
LWPOLYLINE
  5
10BE
330
2
100
AcDbEntity
  8
Profilo
  6
Continuous
370
     0
100
AcDbPolyline
 90
        4
 70
   128
 43
0.0
 10
0.1739696813248689
 20
0.1419371698480616
 10
0.1710034875478311
 20
0.1398218008655137
 10
0.1693003838342663
 20
0.1395636205154729
 10
0.1672926746951501
 20
0.1396935524256977
  0
LWPOLYLINE
  5
10BF
330
2
100
AcDbEntity
  8
Profilo
  6
Continuous
370
     0
100
AcDbPolyline
 90
        4
 70
   128
 43
0.0
 10
0.1758648661289673
 20
0.1436758969659466
 10
0.171225214438432
 20
0.1423668415119883
 10
0.1678861587227666
 20
0.1422920932942107
 10
0.1656597527341707
 20
0.1429402990722399
  0
LWPOLYLINE
  5
10C0
330
2
100
AcDbEntity
  8
Profilo
  6
Continuous
370
     0
100
AcDbPolyline
 90
        2
 70
   128
 43
0.0
 10
0.1900793418865917
 20
0.1380249981996633
 10
0.1895759016646686
 20
0.1365258220145893
  0
LWPOLYLINE
  5
10C1
330
2
100
AcDbEntity
  8
Profilo
  6
Continuous
370
     0
100
AcDbPolyline
 90
       12
 70
   128
 43
0.0
 10
0.1856291499894976
 20
0.1387589523916726
 10
0.1868865899317499
 20
0.1381152838739503
 10
0.1876113497751629
 20
0.1385337241646434
 10
0.1889051892233188
 20
0.1393612912030468
 10
0.1899615775203401
 20
0.1410185751386812
 10
0.1896329764159422
 20
0.1428430506705467
 10
0.1879220098991298
 20
0.1442722502579909
 10
0.1858403926507951
 20
0.1435538326709456
 10
0.1839613393763412
 20
0.1420661245502102
 10
0.1831559150259591
 20
0.1403925977472789
 10
0.1829034374047173
 20
0.138877181026172
 10
0.1833715845262301
 20
0.136811004702668
  0
LWPOLYLINE
  5
10C2
330
2
100
AcDbEntity
  8
Profilo
  6
Continuous
370
     0
100
AcDbPolyline
 90
        2
 70
   128
 43
0.0
 10
0.1878372089455461
 20
0.1420479661839267
 10
0.1862481418956453
 20
0.1414527887254431
  0
LWPOLYLINE
  5
10C3
330
2
100
AcDbEntity
  8
Profilo
  6
Continuous
370
     0
100
AcDbPolyline
 90
        3
 70
   128
 43
0.0
 10
0.1786364702282953
 20
0.1578446332963208
 10
0.1763106454310755
 20
0.1575491955915391
 10
0.1760420362801892
 20
0.1557827598732826
  0
LWPOLYLINE
  5
10C4
330
2
100
AcDbEntity
  8
Profilo
  6
Continuous
370
     0
100
AcDbPolyline
 90
       15
 70
   129
 43
0.0
 10
0.1713916059301245
 20
0.1660692219316246
 10
0.1713709320307107
 20
0.1612232265005289
 10
0.1718589398593772
 20
0.156751490195145
 10
0.1681679875848826
 20
0.1542176785906399
 10
0.1659291750773154
 20
0.1519582902034722
 10
0.1641198989782521
 20
0.1503497278759351
 10
0.163329498406063
 20
0.1510213393538697
 10
0.1632034639674565
 20
0.1520765196895171
 10
0.1619588378132829
 20
0.1592535589132924
 10
0.1617248199345064
 20
0.1667723738594502
 10
0.1625452722299138
 20
0.1707910351322657
 10
0.1633600715832263
 20
0.1723088407345694
 10
0.1641921130385108
 20
0.1719835445705884
 10
0.1656614947784484
 20
0.1704148628388309
 10
0.1701596766872794
 20
0.1668081844348868
  0
ELLIPSE
  5
10C5
330
2
100
AcDbEntity
  8
Profilo
  6
Continuous
370
     0
100
AcDbEllipse
 10
0.2048686780907926
 20
0.111540212630908
 30
0.0
 11
0.0029648214298379
 21
-0.0001076883826428
 31
0.0
210
0.0
220
0.0
230
1.0
 40
0.8246019661597951
 41
0.0
 42
6.283185307179585
  0
ELLIPSE
  5
10C6
330
2
100
AcDbEntity
  8
Profilo
  6
Continuous
370
     0
100
AcDbEllipse
 10
0.2046529773319524
 20
0.1113173300226251
 30
0.0
 11
0.0043557165301719
 21
-0.0003864776436075
 31
0.0
210
0.0
220
0.0
230
1.0
 40
0.7893281930750149
 41
1.887603617210134
 42
6.765935049911796
  0
ELLIPSE
  5
10C7
330
2
100
AcDbEntity
  8
Profilo
  6
Continuous
370
     0
100
AcDbEllipse
 10
0.211773705600005
 20
0.1114830595395546
 30
0.0
 11
0.0010343153702355
 21
0.0001373999542692
 31
0.0
210
0.0
220
0.0
230
1.0
 40
0.65080414969622
 41
0.0
 42
6.283185307179585
  0
LWPOLYLINE
  5
10C8
330
2
100
AcDbEntity
  8
Profilo
  6
Continuous
370
     0
100
AcDbPolyline
 90
        2
 70
   128
 43
0.0
 10
0.2126845158817482
 20
0.1111894914175517
 10
0.2145625352271637
 20
0.1089085812582475
  0
LWPOLYLINE
  5
10C9
330
2
100
AcDbEntity
  8
Profilo
  6
Continuous
370
     0
100
AcDbPolyline
 90
        3
 70
   128
 43
0.0
 10
0.210969430123943
 20
0.1109203965913832
 10
0.2096075470969997
 20
0.1092527554693128
 10
0.2088182838889389
 20
0.1085834112209085
  0
LWPOLYLINE
  5
10CA
330
2
100
AcDbEntity
  8
Profilo
  6
Continuous
370
     0
100
AcDbPolyline
 90
        5
 70
   128
 43
0.0
 10
0.2151030488847149
 20
0.1083646226132615
 10
0.2125902682763642
 20
0.1090914194487722
 10
0.2116858530822893
 20
0.1081422832284622
 10
0.2108736313503464
 20
0.1092531383652913
 10
0.2082871475242713
 20
0.1078879231847292
  0
LWPOLYLINE
  5
10CB
330
2
100
AcDbEntity
  8
Profilo
  6
Continuous
370
     0
100
AcDbPolyline
 90
        2
 70
   128
 43
0.0
 10
0.2117348040043695
 20
0.1105600012698666
 10
0.2117546397141322
 20
0.1093427972213876
  0
ELLIPSE
  5
10CC
330
2
100
AcDbEntity
  8
Profilo
  6
Continuous
370
     0
100
AcDbEllipse
 10
0.218655937684466
 20
0.1122820595428389
 30
0.0
 11
0.00289166939378
 21
0.0006633332613842
 31
0.0
210
0.0
220
0.0
230
1.0
 40
0.8246019661597951
 41
0.0
 42
6.283185307179585
  0
ELLIPSE
  5
10CD
330
2
100
AcDbEntity
  8
Profilo
  6
Continuous
370
     0
100
AcDbEllipse
 10
0.218505273014597
 20
0.1120109440108361
 30
0.0
 11
0.0043073268631593
 21
0.0007540336558325
 31
0.0
210
0.0
220
0.0
230
1.0
 40
0.7893281930750149
 41
2.702219286795263
 42
7.44100580417628
  0
LWPOLYLINE
  5
10CE
330
2
100
AcDbEntity
  8
Profilo
  6
Continuous
370
     0
100
AcDbPolyline
 90
        9
 70
   129
 43
0.0
 10
0.2089143705222839
 20
0.137317848313933
 10
0.2110497080424744
 20
0.137238799307575
 10
0.2134223025952186
 20
0.1373968956171983
 10
0.2120778326178553
 20
0.1344721011159782
 10
0.211524227491405
 20
0.129966336706157
 10
0.2114451391219764
 20
0.1258558139219403
 10
0.2109706223649565
 20
0.1312311122924192
 10
0.2102588431915596
 20
0.1343930538127125
 10
0.2093888899712145
 20
0.1364483143532749
  0
LWPOLYLINE
  5
10CF
330
2
100
AcDbEntity
  8
Profilo
  6
Continuous
370
     0
100
AcDbPolyline
 90
       13
 70
   128
 43
0.0
 10
0.1966559586033271
 20
0.1315473066147577
 10
0.1962605248319126
 20
0.1329701802137351
 10
0.1972095637297756
 20
0.1351835387670126
 10
0.1990285558479819
 20
0.1366064106628981
 10
0.2017174958027103
 20
0.1375549936299139
 10
0.2047227838513334
 20
0.137238799307575
 10
0.2066999473245755
 20
0.1362902180436516
 10
0.2079653316244209
 20
0.1346301991286933
 10
0.2090725445692322
 20
0.1315473066147577
 10
0.2093098042936966
 20
0.1287806084231609
 10
0.2085980251202998
 20
0.1266462988762409
 10
0.2068581213715238
 20
0.1245910383356781
 10
0.2032992281964504
 20
0.122298630776043
  0
LWPOLYLINE
  5
10D0
330
2
100
AcDbEntity
  8
Profilo
  6
Continuous
370
     0
100
AcDbPolyline
 90
       27
 70
   128
 43
0.0
 10
0.1934924965077557
 20
0.131073015982796
 10
0.1948369691770314
 20
0.1311520649891535
 10
0.195311488625962
 20
0.1313101612987768
 10
0.1966559586033271
 20
0.1309939669764384
 10
0.1971304780522577
 20
0.131073015982796
 10
0.1983167766745851
 20
0.1311520649891535
 10
0.1997403323294681
 20
0.1304406273381191
 10
0.2006102855498114
 20
0.1308358706668151
 10
0.2014802360782441
 20
0.130361580034853
 10
0.2008475452742776
 20
0.129571093377461
 10
0.1993449012499661
 20
0.1293339480614801
 10
0.1986331220765692
 20
0.128938706435876
 10
0.1985540363990513
 20
0.1280691724752179
 10
0.1996612466519502
 20
0.1270415422049365
 10
0.2021920152516409
 20
0.1268043968889556
 10
0.2036155735984345
 20
0.1269624931985793
 10
0.2055927370716767
 20
0.1284644158039139
 10
0.2063836019225914
 20
0.1301244330157807
 10
0.2070162954184703
 20
0.1328120822010199
 10
0.2069372070490417
 20
0.1346301991286933
 10
0.2054345630247302
 20
0.1360530710245789
 10
0.2037737476453828
 20
0.1364483143532749
 10
0.2025083633455357
 20
0.1352625860702783
 10
0.202112929574123
 20
0.1338397141743928
 10
0.202112929574123
 20
0.1324958895817734
 10
0.2024292749761071
 20
0.1313892103051344
 10
0.2033783138739683
 20
0.130361580034853
  0
LWPOLYLINE
  5
10D1
330
2
100
AcDbEntity
  8
Profilo
  6
Continuous
370
     0
100
AcDbPolyline
 90
       11
 70
   128
 43
0.0
 10
0.2018756698496586
 20
0.1300453857125146
 10
0.203061968471986
 20
0.1293339480614801
 10
0.2044855241268672
 20
0.1292549007582144
 10
0.2051182176227461
 20
0.1297291913901761
 10
0.2049600435757978
 20
0.1302825310284954
 10
0.2047227838513334
 20
0.1313101612987768
 10
0.2044064384493493
 20
0.1315473066147577
 10
0.2052763916696944
 20
0.132179695259435
 10
0.2053554773472123
 20
0.1332073255297159
 10
0.2050391319452282
 20
0.1343140048063549
 10
0.2049600435757978
 20
0.1343930538127125
  0
LWPOLYLINE
  5
10D2
330
2
100
AcDbEntity
  8
Profilo
  6
Continuous
370
     0
100
AcDbPolyline
 90
       77
 70
   128
 43
0.0
 10
0.2021491330962623
 20
0.1267910974450122
 10
0.2021491330962623
 20
0.1255357757213866
 10
0.2017304923530031
 20
0.1246988951400005
 10
0.201800266707516
 20
0.1236527948390409
 10
0.2011025285462019
 20
0.12274617435113
 10
0.2002652470596819
 20
0.1214211127209801
 10
0.2008932081745706
 20
0.1205144922330692
 10
0.202637548194036
 20
0.1203052725134956
 10
0.2039632474702423
 20
0.1203052725134956
 10
0.2043818882135015
 20
0.1196776116516831
 10
0.2040330218247569
 20
0.1187709911637722
 10
0.2036841527440981
 20
0.1180038504889105
 10
0.2042423421963865
 20
0.1171669699075244
 10
0.2040330218247569
 20
0.1159813880904237
 10
0.2034748323724686
 20
0.1150747676025128
 10
0.2036841527440981
 20
0.1143773668341759
 10
0.2041725678418719
 20
0.1140984072080775
 10
0.2050796263748173
 20
0.1140984072080775
 10
0.2057075874897078
 20
0.1144471067407002
 10
0.2059866822158502
 20
0.1150050276959884
 10
0.2068937380568848
 20
0.115214247415562
 10
0.2074519275091732
 20
0.1157024284643258
 10
0.2067541920397699
 20
0.1146563281633657
 10
0.2068239663942827
 20
0.1138194475819791
 10
0.2074519275091732
 20
0.1130523069071174
 10
0.2081496629785765
 20
0.1126338657648789
 10
0.2092660418831515
 20
0.1124943859518297
 10
0.2100335517070694
 20
0.1124943859518297
 10
0.2101730977241861
 20
0.1135404862527893
 10
0.2103824180958157
 20
0.1126338657648789
 10
0.2112197022742465
 20
0.1124943859518297
 10
0.2123360811788232
 20
0.1124943859518297
 10
0.2131733626653433
 20
0.1124943859518297
 10
0.2138013264721445
 20
0.1129128253909768
 10
0.2149177026848069
 20
0.1126338657648789
 10
0.2155456664916099
 20
0.1130523069071174
 10
0.2159643072348691
 20
0.113470746346265
 10
0.2166620427042724
 20
0.1141681471146023
 10
0.2168015914133016
 20
0.11472606806989
 10
0.2170109117849312
 20
0.1152839873220863
 10
0.2179179676259641
 20
0.1147958079764149
 10
0.2187552518043966
 20
0.1147958079764149
 10
0.2195925359828274
 20
0.1150747676025128
 10
0.2198018563544569
 20
0.1158419082773745
 10
0.2198018563544569
 20
0.116678788858761
 10
0.2194529872737999
 20
0.1180038504889105
 10
0.2196623076454295
 20
0.1184920315376743
 10
0.2198716280170609
 20
0.1192591705094441
 10
0.2191738925476558
 20
0.1199565712777815
 10
0.2181272879975936
 20
0.1207237119526432
 10
0.2178481932714512
 20
0.1212816329079309
 10
0.2184063827237378
 20
0.1217000740501699
 10
0.2184761570782524
 20
0.122118513489317
 10
0.2202902714522307
 20
0.1217698139566947
 10
0.2212671016477782
 20
0.1218395538632191
 10
0.2220346114716961
 20
0.1224672147250321
 10
0.2224532522149571
 20
0.1232343536968019
 10
0.2221741574888129
 20
0.1242107157943291
 10
0.2211973272932654
 20
0.124908116562666
 10
0.2202902714522307
 20
0.1252568160952887
 10
0.2208484582126084
 20
0.1264423979123894
 10
0.2204298174693474
 20
0.1268608373515365
 10
0.220499591823862
 20
0.1279069376524966
 10
0.2207089121954916
 20
0.1289530396565481
 10
0.2204298174693474
 20
0.130138619770557
 10
0.2215461963739224
 20
0.1308360205388943
 10
0.2224532522149571
 20
0.1309057604454187
 10
0.2227323469411012
 20
0.1316729011202804
 10
0.2229416673127308
 20
0.1327190014212405
 10
0.223569631119532
 20
0.1331374425634795
 10
0.2237789514911616
 20
0.1327190014212405
 10
0.2239184975082783
 20
0.132021602355995
 10
0.2248255560412237
 20
0.1317426410268052
 10
0.2255930631732292
 20
0.1322308220755686
 10
0.2262210269800321
 20
0.1323703018886178
 10
0.2269187624494354
 20
0.1327887413277649
 10
0.227128082821065
 20
0.1348112037262521
  0
LWPOLYLINE
  5
10D3
330
2
100
AcDbEntity
  8
Profilo
  6
Continuous
370
     0
100
AcDbPolyline
 90
       14
 70
   128
 43
0.0
 10
0.2260814809629154
 20
0.1332071824700038
 10
0.2258023862367712
 20
0.1355783444011138
 10
0.2246162329776816
 20
0.1365547047955491
 10
0.2227323469411012
 20
0.1378100265191742
 10
0.2200111767260883
 20
0.1381587260517969
 10
0.2174295525281903
 20
0.1377402866126498
 10
0.2152665717654657
 20
0.1369034060312633
 10
0.2140804211982886
 20
0.1349506835393008
 10
0.2135920061005131
 20
0.132021602355995
 10
0.2134524573914857
 20
0.1292319992826465
 10
0.2141501928608908
 20
0.127279278493776
 10
0.2159643072348691
 20
0.1252568160952887
 10
0.2176388728998199
 20
0.1239317544651388
 10
0.2193832129192853
 20
0.1232343536968019
  0
LWPOLYLINE
  5
10D4
330
2
100
AcDbEntity
  8
Profilo
  6
Continuous
370
     0
100
AcDbPolyline
 90
        7
 70
   128
 43
0.0
 10
0.2176388728998199
 20
0.1213513728144553
 10
0.2162434019610132
 20
0.1217000740501699
 10
0.2161038532519858
 20
0.1223974731154154
 10
0.2154061177825807
 20
0.1222579933023666
 10
0.2144292875870332
 20
0.12274617435113
 10
0.2142897415699182
 20
0.1233738352129425
 10
0.2140804211982886
 20
0.1243501956073778
  0
LWPOLYLINE
  5
10D5
330
2
100
AcDbEntity
  8
Profilo
  6
Continuous
370
     0
100
AcDbPolyline
 90
        4
 70
   128
 43
0.0
 10
0.2126151732130549
 20
0.1246988951400005
 10
0.2140804211982886
 20
0.1216303324405537
 10
0.2152665717654657
 20
0.1192591705094441
 10
0.2172202321565607
 20
0.1168182686718098
  0
LWPOLYLINE
  5
10D6
330
2
100
AcDbEntity
  8
Profilo
  6
Continuous
370
     0
100
AcDbPolyline
 90
        3
 70
   128
 43
0.0
 10
0.212056986452679
 20
0.1233040953064182
 10
0.2123360811788232
 20
0.1189802108833462
 10
0.2124058528414253
 20
0.1177248908628126
  0
LWPOLYLINE
  5
10D7
330
2
100
AcDbEntity
  8
Profilo
  6
Continuous
370
     0
100
AcDbPolyline
 90
        4
 70
   128
 43
0.0
 10
0.2108010615309873
 20
0.1228159142576544
 10
0.2111499279197337
 20
0.1191894306029197
 10
0.2105219668048432
 20
0.1175854093466715
 10
0.2094055879002682
 20
0.1159116481838993
  0
LWPOLYLINE
  5
10D8
330
2
100
AcDbEntity
  8
Profilo
  6
Continuous
370
     0
100
AcDbPolyline
 90
        4
 70
   128
 43
0.0
 10
0.210242872078699
 20
0.1253265560018131
 10
0.2090567215115219
 20
0.1206539720461184
 10
0.2074519275091732
 20
0.1177248908628126
 10
0.2057773618442206
 20
0.1161208696065643
  0
LWPOLYLINE
  5
10D9
330
2
100
AcDbEntity
  8
Profilo
  6
Continuous
370
     0
100
AcDbPolyline
 90
        2
 70
   128
 43
0.0
 10
0.2222439318433275
 20
0.1348112037262521
 10
0.2232905363933878
 20
0.1336256236122428
  0
LWPOLYLINE
  5
10DA
330
2
100
AcDbEntity
  8
Profilo
  6
Continuous
370
     0
100
AcDbPolyline
 90
       12
 70
   128
 43
0.0
 10
0.2193832129192853
 20
0.1313242015876581
 10
0.2205693661783749
 20
0.1320913422625194
 10
0.2205693661783749
 20
0.1329282228439055
 10
0.220499591823862
 20
0.1344625041936289
 10
0.2195925359828274
 20
0.1362060052629259
 10
0.2178481932714512
 20
0.1368336661247389
 10
0.2157549868632395
 20
0.1360665254498772
 10
0.2153363461199803
 20
0.1339045832383412
 10
0.2156852125087249
 20
0.1315334213072317
 10
0.216731817058787
 20
0.1299991399575082
 10
0.2179179676259641
 20
0.1290227795630729
 10
0.2199414023715737
 20
0.12839511870126
  0
LWPOLYLINE
  5
10DB
330
2
100
AcDbEntity
  8
Profilo
  6
Continuous
370
     0
100
AcDbPolyline
 90
        2
 70
   128
 43
0.0
 10
0.2176388728998199
 20
0.1348809436327765
 10
0.2173597781736775
 20
0.1332071824700038
  0
LWPOLYLINE
  5
10DC
330
2
100
AcDbEntity
  8
Profilo
  6
Continuous
370
     0
100
AcDbPolyline
 90
        3
 70
   128
 43
0.0
 10
0.1993581885267365
 20
0.1348112037262521
 10
0.1984511326857018
 20
0.1326492615147157
 10
0.1998466063164209
 20
0.1315334213072317
  0
LWPOLYLINE
  5
10DD
330
2
100
AcDbEntity
  8
Profilo
  6
Continuous
370
     0
100
AcDbPolyline
 90
       15
 70
   129
 43
0.0
 10
0.1886130536837996
 20
0.1326492615147157
 10
0.1927994718840463
 20
0.1302083596770818
 10
0.1969161130378659
 20
0.12839511870126
 10
0.1972649821185247
 20
0.1239317544651388
 10
0.1981022636050448
 20
0.1208631917656919
 10
0.1985906813947292
 20
0.1184920315376743
 10
0.197613848507271
 20
0.1181433303019597
 10
0.1966370183117235
 20
0.1185617714441987
 10
0.1897992069428892
 20
0.1210724131883574
 10
0.1831707132537738
 20
0.1246291552334762
 10
0.1801006766500145
 20
0.1273490184003003
 10
0.1791936181170691
 20
0.1288135581404071
 10
0.1798913535864742
 20
0.1293714790956952
 10
0.1819845626865967
 20
0.129859660144459
 10
0.187357128762108
 20
0.1319518607463788
  0
ELLIPSE
  5
10DE
330
2
100
AcDbEntity
  8
Profilo
  6
Continuous
370
     0
100
AcDbEllipse
 10
0.2525750970617534
 20
0.1343767517998222
 30
0.0
 11
0.0015756715899801
 21
0.0025137664846028
 31
0.0
210
0.0
220
0.0
230
1.0
 40
0.8246019661597955
 41
0.0
 42
6.283185307179585
  0
ELLIPSE
  5
10DF
330
2
100
AcDbEntity
  8
Profilo
  6
Continuous
370
     0
100
AcDbEllipse
 10
0.2526602686831677
 20
0.1340785081589082
 30
0.0
 11
0.0025125577224448
 21
0.003578922345009
 31
0.0
210
0.0
220
0.0
230
1.0
 40
0.7893281930750148
 41
1.887603617210134
 42
6.765935049911796
  0
ELLIPSE
  5
10E0
330
2
100
AcDbEntity
  8
Profilo
  6
Continuous
370
     0
100
AcDbEllipse
 10
0.2560771068453772
 20
0.1403281044909532
 30
0.0
 11
0.0003981658342419
 21
0.0009644433632832
 31
0.0
210
0.0
220
0.0
230
1.0
 40
0.6508041496962198
 41
0.0
 42
6.283185307179585
  0
LWPOLYLINE
  5
10E1
330
2
100
AcDbEntity
  8
Profilo
  6
Continuous
370
     0
100
AcDbPolyline
 90
        2
 70
   128
 43
0.0
 10
0.2567867494376434
 20
0.140970105271969
 10
0.2597010852520584
 20
0.1414560626542458
  0
LWPOLYLINE
  5
10E2
330
2
100
AcDbEntity
  8
Profilo
  6
Continuous
370
     0
100
AcDbPolyline
 90
        3
 70
   128
 43
0.0
 10
0.2561622495142303
 20
0.1393502500229566
 10
0.2569255275768673
 20
0.1373370041636062
 10
0.2571105650958313
 20
0.1363188100509498
  0
LWPOLYLINE
  5
10E3
330
2
100
AcDbEntity
  8
Profilo
  6
Continuous
370
     0
100
AcDbPolyline
 90
        5
 70
   128
 43
0.0
 10
0.2604424240860003
 20
0.1416521818902845
 10
0.2585566092588828
 20
0.1398394484670715
 10
0.2589263777402849
 20
0.1385816338232784
 10
0.2575582381058962
 20
0.1384336567383249
 10
0.2574473072208566
 20
0.1355110884481847
  0
LWPOLYLINE
  5
10E4
330
2
100
AcDbEntity
  8
Profilo
  6
Continuous
370
     0
100
AcDbPolyline
 90
        2
 70
   128
 43
0.0
 10
0.2568570479582818
 20
0.1398328855860409
 10
0.2579210954407348
 20
0.1392414617903575
  0
ELLIPSE
  5
10E5
330
2
100
AcDbEntity
  8
Profilo
  6
Continuous
370
     0
100
AcDbEllipse
 10
0.2588262685871382
 20
0.1466877923124794
 30
0.0
 11
0.0008713712413561
 21
0.0028359257850515
 31
0.0
210
0.0
220
0.0
230
1.0
 40
0.8246019661597953
 41
0.0
 42
6.283185307179585
  0
ELLIPSE
  5
10E6
330
2
100
AcDbEntity
  8
Profilo
  6
Continuous
370
     0
100
AcDbEllipse
 10
0.2589857291902796
 20
0.1464217551149181
 30
0.0
 11
0.0015006511303202
 21
0.0041072713138153
 31
0.0
210
0.0
220
0.0
230
1.0
 40
0.789328193075015
 41
2.702219286795263
 42
7.44100580417628
  0
LWPOLYLINE
  5
10E7
330
2
100
AcDbEntity
  8
Profilo
  6
Continuous
370
     0
100
AcDbPolyline
 90
        9
 70
   129
 43
0.0
 10
0.2322738559264995
 20
0.1507692420629036
 10
0.2334099831342432
 20
0.152578974097864
 10
0.2344593649902372
 20
0.1547127494082325
 10
0.2363200763404611
 20
0.1520860070025998
 10
0.23994538021961
 20
0.149353688694519
 10
0.2434656531888607
 20
0.1472299347653403
 10
0.2385732498685965
 20
0.14950664038448
 10
0.2354790386000428
 20
0.15047119229858
 10
0.2332641541503485
 20
0.1507454209799388
  0
LWPOLYLINE
  5
10E8
330
2
100
AcDbEntity
  8
Profilo
  6
Continuous
370
     0
100
AcDbPolyline
 90
       13
 70
   128
 43
0.0
 10
0.2311420856721033
 20
0.1372678750814449
 10
0.229712124103309
 20
0.1376368561893757
 10
0.2282698188174174
 20
0.1395654272607427
 10
0.2279470716683524
 20
0.1418521565923363
 10
0.2284700446986844
 20
0.1446551383858894
 10
0.2302465210386736
 20
0.1470996970205169
 10
0.2320565982474062
 20
0.1483376801838181
 10
0.234126908948446
 20
0.1486035256755553
 10
0.2373503786550558
 20
0.1480209539561923
 10
0.2398650394358154
 20
0.1468430778090759
 10
0.2413575161362908
 20
0.1451595041895699
 10
0.2422674721014236
 20
0.1426250730727074
 10
0.2424733086963603
 20
0.1383967773939225
  0
LWPOLYLINE
  5
10E9
330
2
100
AcDbEntity
  8
Profilo
  6
Continuous
370
     0
100
AcDbPolyline
 90
       27
 70
   128
 43
0.0
 10
0.2299711023603742
 20
0.1342910912267905
 10
0.2305748802473627
 20
0.1354949632162559
 10
0.23067522455145
 20
0.135984957268432
 10
0.2316212918558084
 20
0.1369912052622852
 10
0.2317900931326243
 20
0.1374416756628281
 10
0.2323147839961387
 20
0.1385085649094175
 10
0.2336426849025849
 20
0.1393856814447287
 10
0.2337353707494295
 20
0.1403367046979997
 10
0.2345810937497025
 20
0.1408529586396765
 10
0.2349493298743725
 20
0.1399097890020042
 10
0.234403381730245
 20
0.138489888446115
 10
0.234389781431953
 20
0.1376758487872671
 10
0.2351032770925777
 20
0.1371725916011319
 10
0.236546836138788
 20
0.1376176486723317
 10
0.2380175943066608
 20
0.1396907859127745
 10
0.2385924580596805
 20
0.1410026717596786
 10
0.2382803366655634
 20
0.1434659068576087
 10
0.2372381520148242
 20
0.1449808245153947
 10
0.2352269262918857
 20
0.1468725777482545
 10
0.2336128466607556
 20
0.147713143675021
 10
0.2316292814404325
 20
0.1471232517250651
 10
0.2304565829874318
 20
0.1458825650799025
 10
0.2308507616525696
 20
0.1441938459891878
 10
0.2318852879750296
 20
0.1431399543496867
 10
0.2330490742104691
 20
0.142468042053377
 10
0.2341656592788714
 20
0.1421886655695455
 10
0.2355301326475637
 20
0.1424967422291334
  0
LWPOLYLINE
  5
10EA
330
2
100
AcDbEntity
  8
Profilo
  6
Continuous
370
     0
100
AcDbPolyline
 90
       11
 70
   128
 43
0.0
 10
0.2350526429510865
 20
0.1410373171700658
 10
0.236261915341255
 20
0.1417089630879589
 10
0.2370421501414243
 20
0.1429022747971544
 10
0.236947749153308
 20
0.1436873487533756
 10
0.2363894559461287
 20
0.1438270358296589
 10
0.2353808721641347
 20
0.1441353780161176
 10
0.2350173255951153
 20
0.1439799875196204
 10
0.2349046375739324
 20
0.1450495834308814
 10
0.2340542264929305
 20
0.1456318887718277
 10
0.2329376414245265
 20
0.1459112652556589
 10
0.2328296387921619
 20
0.1458822972217677
  0
LWPOLYLINE
  5
10EB
330
2
100
AcDbEntity
  8
Profilo
  6
Continuous
370
     0
100
AcDbPolyline
 90
       77
 70
   128
 43
0.0
 10
0.2380076708852838
 20
0.1396469991548754
 10
0.2390948113878658
 20
0.1390193382930629
 10
0.2396102508596511
 20
0.1382383444836479
 10
0.2405510874724443
 20
0.1377757206967092
 10
0.2409873747659085
 20
0.136718151479865
 10
0.2417162710559396
 20
0.1353305136273459
 10
0.2428154079875061
 20
0.1354210336614734
 10
0.2438687675893626
 20
0.1368270665713818
 10
0.2445316172274649
 20
0.1379751558223543
 10
0.2452845078503864
 20
0.1380238789101702
 10
0.2458952310301353
 20
0.1372684415110343
 10
0.2463851598025134
 20
0.1365827416871588
 10
0.2473890143720706
 20
0.1366477076422716
 10
0.2483110981581306
 20
0.1358736399743601
 10
0.2488171598061077
 20
0.1349369234845985
 10
0.2495257867739217
 20
0.134769499859791
 10
0.2500115804456397
 20
0.1350529999290064
 10
0.2504651097121123
 20
0.1358385356612566
 10
0.2504771076160183
 20
0.1365567157056511
 10
0.2501334812585076
 20
0.1370773793061979
 10
0.2504058195869011
 20
0.1379675225669714
 10
0.2502621371231698
 20
0.1386950193371585
 10
0.2508192188240049
 20
0.1375677125450536
 10
0.2515788658446771
 20
0.1372096986179023
 10
0.2525572097148289
 20
0.1373699585585546
 10
0.2532684581086987
 20
0.1377649946290604
 10
0.2539474406224017
 20
0.1386620672141474
 10
0.2543311955343598
 20
0.1393267502193141
 10
0.2534950191073805
 20
0.1399706507656131
 10
0.2543848356673174
 20
0.1396986172810191
 10
0.2549242708179492
 20
0.1403539867432031
 10
0.2554824602702358
 20
0.1413207992348144
 10
0.2559011010134967
 20
0.1420459062722592
 10
0.2558527037326507
 20
0.14279895860118
 10
0.2566524779618139
 20
0.1436262889484781
 10
0.2566040792060463
 20
0.1443793421289452
 10
0.2564510203934302
 20
0.1449511153672416
 10
0.2561959213461326
 20
0.1459040723930347
 10
0.2557825219800635
 20
0.1463038855977625
 10
0.255404009920217
 20
0.1467641219832216
 10
0.2562803135556874
 20
0.147305565711372
 10
0.2566989556449028
 20
0.1480306750800804
 10
0.2568760116112888
 20
0.1488952642618384
 10
0.2563163084843961
 20
0.14946011135863
 10
0.2555915486409813
 20
0.1498785516493231
 10
0.2542695770673643
 20
0.1502389529779535
 10
0.2539514600633027
 20
0.1506643202616968
 10
0.2533917584113316
 20
0.151229166506943
 10
0.2524389238946324
 20
0.1509736102494863
 10
0.2512512583068948
 20
0.1504507944588476
 10
0.2506285372232399
 20
0.1504880518135885
 10
0.250545251290215
 20
0.1511806786305139
 10
0.2502177592832266
 20
0.1514503247136292
 10
0.251426799123755
 20
0.152847044080554
 10
0.2518548176908205
 20
0.1537278737983441
 10
0.2516950023514885
 20
0.1547063872344176
 10
0.251239960885333
 20
0.1554525102390249
 10
0.250254859142509
 20
0.1556989881648858
 10
0.2491624772627369
 20
0.1552017287845258
 10
0.2484069666886811
 20
0.154590545149851
 10
0.2476593160969952
 20
0.1556667399729432
 10
0.2470876165411181
 20
0.1555134061737944
 10
0.2462165542828377
 20
0.1560968826878162
 10
0.2454152635581942
 20
0.1568012104492034
 10
0.2442489736981689
 20
0.1571522973833048
 10
0.2442031963684571
 20
0.1584678102590848
 10
0.2445963277582671
 20
0.1592882136133336
 10
0.2440715118086318
 20
0.1599134870736669
 10
0.2432702225589097
 20
0.1606178139835082
 10
0.2432218238031422
 20
0.1613708671639753
 10
0.2436888646481251
 20
0.1613429233522166
 10
0.2443626029637604
 20
0.1611150742154133
 10
0.2450577198279856
 20
0.1617611292830692
 10
0.2450186962041138
 20
0.1626699004813534
 10
0.2452118850460988
 20
0.1632834729972254
 10
0.2451983735965538
 20
0.1640969493584239
 10
0.2435515299670791
 20
0.1652894573170289
  0
LWPOLYLINE
  5
10EC
330
2
100
AcDbEntity
  8
Profilo
  6
Continuous
370
     0
100
AcDbPolyline
 90
       14
 70
   128
 43
0.0
 10
0.2444173521941257
 20
0.1635810628920991
 10
0.2422243183622265
 20
0.1645249407347513
 10
0.2407856888278514
 20
0.1639858820768156
 10
0.2387566053069791
 20
0.1629820497731138
 10
0.2370940375459342
 20
0.1607997970052024
 10
0.2361656046312327
 20
0.1583548251472251
 10
0.2358088740932843
 20
0.1560631885681152
 10
0.2369069060942754
 20
0.1540595907982449
 10
0.2391993572598786
 20
0.1521720703243277
 10
0.2415454500333593
 20
0.1506564160605699
 10
0.2435854235777225
 20
0.15028431230776
 10
0.2462439845800003
 20
0.1508441502417532
 10
0.2482288044457651
 20
0.1516318358328312
 10
0.2497049412374971
 20
0.1527937782183575
  0
LWPOLYLINE
  5
10ED
330
2
100
AcDbEntity
  8
Profilo
  6
Continuous
370
     0
100
AcDbPolyline
 90
        7
 70
   128
 43
0.0
 10
0.250463480506716
 20
0.1503416450074895
 10
0.2494637609088536
 20
0.1493074823420966
 10
0.2487900212472604
 20
0.1495353291476362
 10
0.2485619465739743
 20
0.1488613325994861
 10
0.247650754286325
 20
0.1482594633593404
 10
0.2470374110264765
 20
0.148452443394427
 10
0.2460871979358314
 20
0.1487593468322836
  0
LWPOLYLINE
  5
10EE
330
2
100
AcDbEntity
  8
Profilo
  6
Continuous
370
     0
100
AcDbPolyline
 90
        4
 70
   128
 43
0.0
 10
0.2450525912896752
 20
0.1476647546205385
 10
0.2484426685331184
 20
0.1473994152488716
 10
0.2510892302855358
 20
0.1472410708072058
 10
0.2541799434806177
 20
0.1477125394174445
  0
LWPOLYLINE
  5
10EF
330
2
100
AcDbEntity
  8
Profilo
  6
Continuous
370
     0
100
AcDbPolyline
 90
        3
 70
   128
 43
0.0
 10
0.2459814299985642
 20
0.1464839507892057
 10
0.2498655711150456
 20
0.1445637117005727
 10
0.2509875959740072
 20
0.1439964757225833
  0
LWPOLYLINE
  5
10F0
330
2
100
AcDbEntity
  8
Profilo
  6
Continuous
370
     0
100
AcDbPolyline
 90
        4
 70
   128
 43
0.0
 10
0.2457762447275948
 20
0.1451521973773928
 10
0.2490913048933771
 20
0.1436410827052061
 10
0.2501664474920532
 20
0.1422952417989991
 10
0.2510577777265944
 20
0.1404915487260017
  0
LWPOLYLINE
  5
10F1
330
2
100
AcDbEntity
  8
Profilo
  6
Continuous
370
     0
100
AcDbPolyline
 90
        4
 70
   128
 43
0.0
 10
0.2433228704712079
 20
0.1459241120036669
 10
0.2467763715945662
 20
0.1425605835019306
 10
0.2485106333078812
 20
0.1397062505364019
 10
0.2490624736315262
 20
0.1374540235021249
  0
LWPOLYLINE
  5
10F2
330
2
100
AcDbEntity
  8
Profilo
  6
Continuous
370
     0
100
AcDbPolyline
 90
        2
 70
   128
 43
0.0
 10
0.2411094544782103
 20
0.1610596584943889
 10
0.2426594992501955
 20
0.161373254565454
  0
LWPOLYLINE
  5
10F3
330
2
100
AcDbEntity
  8
Profilo
  6
Continuous
370
     0
100
AcDbPolyline
 90
       12
 70
   128
 43
0.0
 10
0.242698927451264
 20
0.1568387021637856
 10
0.2426276407681013
 20
0.1582495113563695
 10
0.2419028809246883
 20
0.1586679516470626
 10
0.2405392671220178
 20
0.1593746659583826
 10
0.2385758229839635
 20
0.1594608830920452
 10
0.2371600813769835
 20
0.1582640684219922
 10
0.236777841485586
 20
0.1560677281596863
 10
0.2384408179906598
 20
0.1546242035351961
 10
0.24066873765386
 20
0.153740749724822
 10
0.2425207665543042
 20
0.1538799951780299
 10
0.2439593947427231
 20
0.154419051504701
 10
0.2455146823668181
 20
0.155857566966392
  0
LWPOLYLINE
  5
10F4
330
2
100
AcDbEntity
  8
Profilo
  6
Continuous
370
     0
100
AcDbPolyline
 90
        2
 70
   128
 43
0.0
 10
0.2387465284757501
 20
0.1571064304166498
 10
0.2400565007995067
 20
0.1560278467123612
  0
LWPOLYLINE
  5
10F5
330
2
100
AcDbEntity
  8
Profilo
  6
Continuous
370
     0
100
AcDbPolyline
 90
        3
 70
   128
 43
0.0
 10
0.2296665828199157
 20
0.1412400233977313
 10
0.2310853517761026
 20
0.139373518890977
 10
0.232749434557708
 20
0.1400241144017491
  0
LWPOLYLINE
  5
10F6
330
2
100
AcDbEntity
  8
Profilo
  6
Continuous
370
     0
100
AcDbPolyline
 90
       15
 70
   129
 43
0.0
 10
0.2261663122751515
 20
0.1308534925508915
 10
0.2303734043748101
 20
0.1332585861443529
 10
0.2340020376999651
 20
0.135917081473915
 10
0.2380418590551167
 20
0.1339875288422994
 10
0.2411179530492039
 20
0.1331783545300202
 10
0.2434156469379535
 20
0.1324157566295396
 10
0.2432292146226826
 20
0.1313954439158904
 10
0.2423784188657415
 20
0.1307587047224821
 10
0.2367852336510826
 20
0.1260923072428655
 10
0.2303907578407437
 20
0.122130234341826
 10
0.2265002689415771
 20
0.1208314362358347
 10
0.2247784110553192
 20
0.1207781703736381
 10
0.224644105069438
 20
0.1216613874929073
 10
0.2252679324296246
 20
0.1237182502734286
 10
0.2261423165963049
 20
0.129417129279292
  0
ELLIPSE
  5
10F7
330
2
100
AcDbEntity
  8
Profilo
  6
Continuous
370
     0
100
AcDbEllipse
 10
0.2566512834924354
 20
0.1871099921367143
 30
0.0
 11
-0.0013891498398579
 21
0.0026214548672455
 31
0.0
210
0.0
220
0.0
230
1.0
 40
0.8246019661597953
 41
0.0
 42
6.283185307179585
  0
ELLIPSE
  5
10F8
330
2
100
AcDbEntity
  8
Profilo
  6
Continuous
370
     0
100
AcDbEllipse
 10
0.2569521558726916
 20
0.1870346311040836
 30
0.0
 11
-0.0018431588077271
 21
0.0039653999886165
 31
0.0
210
0.0
220
0.0
230
1.0
 40
0.789328193075015
 41
1.887603617210134
 42
6.765935049911796
  0
ELLIPSE
  5
10F9
330
2
100
AcDbEntity
  8
Profilo
  6
Continuous
370
     0
100
AcDbEllipse
 10
0.2532482657668468
 20
0.1931184979191995
 30
0.0
 11
-0.0006361495359937
 21
0.0008270434090141
 31
0.0
210
0.0
220
0.0
230
1.0
 40
0.6508041496962198
 41
0.0
 42
6.283185307179585
  0
LWPOLYLINE
  5
10FA
330
2
100
AcDbEntity
  8
Profilo
  6
Continuous
370
     0
100
AcDbPolyline
 90
        2
 70
   128
 43
0.0
 10
0.2530470980773715
 20
0.1940540668222177
 10
0.254083414546371
 20
0.1968209343637988
  0
LWPOLYLINE
  5
10FB
330
2
100
AcDbEntity
  8
Profilo
  6
Continuous
370
     0
100
AcDbPolyline
 90
        3
 70
   128
 43
0.0
 10
0.2541376839117619
 20
0.1927033063993739
 10
0.2562628450013421
 20
0.1923577016620934
 10
0.2572371457283688
 20
0.1920088517978418
  0
LWPOLYLINE
  5
10FC
330
2
100
AcDbEntity
  8
Profilo
  6
Continuous
370
     0
100
AcDbPolyline
 90
        5
 70
   128
 43
0.0
 10
0.2542842397227617
 20
0.1975610122448235
 10
0.2549112055039932
 20
0.1950214819860994
 10
0.256185389179472
 20
0.1947128035626171
 10
0.2556294712770243
 20
0.1934539713408341
 10
0.2581050242180617
 20
0.1918966182312556
  0
LWPOLYLINE
  5
10FD
330
2
100
AcDbEntity
  8
Profilo
  6
Continuous
370
     0
100
AcDbPolyline
 90
        2
 70
   128
 43
0.0
 10
0.2540671084753868
 20
0.1935463372839747
 10
0.2551113202480789
 20
0.1941721175367699
  0
ELLIPSE
  5
10FE
330
2
100
AcDbEntity
  8
Profilo
  6
Continuous
370
     0
100
AcDbEllipse
 10
0.2491151954241485
 20
0.198679185737441
 30
0.0
 11
-0.0020202981524239
 21
0.0021725925236673
 31
0.0
210
0.0
220
0.0
230
1.0
 40
0.8246019661597953
 41
0.0
 42
6.283185307179585
  0
ELLIPSE
  5
10FF
330
2
100
AcDbEntity
  8
Profilo
  6
Continuous
370
     0
100
AcDbEllipse
 10
0.2494253206971572
 20
0.1986842640718824
 30
0.0
 11
-0.0028066757328391
 21
0.0033532376579828
 31
0.0
210
0.0
220
0.0
230
1.0
 40
0.7893281930750149
 41
2.702219286795263
 42
7.44100580417628
  0
LWPOLYLINE
  5
1100
330
2
100
AcDbEntity
  8
Profilo
  6
Continuous
370
     0
100
AcDbPolyline
 90
        9
 70
   129
 43
0.0
 10
0.2323043499256902
 20
0.1777248467167711
 10
0.2313051396132452
 20
0.1796136277580891
 10
0.229981926916495
 20
0.1815893067588343
 10
0.2331871082440821
 20
0.1818873588544221
 10
0.2373660172496796
 20
0.1836608049561621
 10
0.2409653785883607
 20
0.1856475738112004
 10
0.2365474920251146
 20
0.1825489810598613
 10
0.2341650599299577
 20
0.180351591453668
 10
0.2328201287006085
 20
0.1785705595944644
  0
LWPOLYLINE
  5
1101
330
2
100
AcDbEntity
  8
Profilo
  6
Continuous
370
     0
100
AcDbPolyline
 90
       13
 70
   128
 43
0.0
 10
0.2434309915902525
 20
0.1699940214344877
 10
0.242396463792871
 20
0.1689401289434411
 10
0.2400051196091163
 20
0.1686553414615306
 10
0.2378633803418467
 20
0.1695191988972382
 10
0.2356974134174487
 20
0.171373597723776
 10
0.2344686017088166
 20
0.174134350680742
 10
0.2343015154443052
 20
0.176320915107967
 10
0.2351064418454997
 20
0.1782467795146625
 10
0.2372226986073
 20
0.1807471003092351
 10
0.2395000996635951
 20
0.1823359223537155
 10
0.2417043555374655
 20
0.1827866582811295
 10
0.2443542152513761
 20
0.1823074877048298
 10
0.2481189450213844
 20
0.18037159958568
  0
LWPOLYLINE
  5
1102
330
2
100
AcDbEntity
  8
Profilo
  6
Continuous
370
     0
100
AcDbPolyline
 90
       27
 70
   128
 43
0.0
 10
0.2454234703740931
 20
0.167491528211795
 10
0.2446827755918059
 20
0.1686163511949028
 10
0.2443086004469625
 20
0.1689482489374556
 10
0.2439101977739576
 20
0.1702706912536473
 10
0.243604479601843
 20
0.1706421126478326
 10
0.2429428718430299
 20
0.171629952888064
 10
0.2428472170945931
 20
0.1732185070744105
 10
0.2420699497210927
 20
0.1737742869989847
 10
0.242045722192933
 20
0.1747648315726236
 10
0.2430466491215712
 20
0.1746121485923437
 10
0.2440033450017553
 20
0.1734293933524353
 10
0.2447015238768583
 20
0.1730105953191916
 10
0.2454941052150009
 20
0.1733768720937145
 10
0.2458304540083142
 20
0.1748495594351958
 10
0.2447704435764963
 20
0.1771598419916189
 10
0.2439217489827205
 20
0.1783136315288998
 10
0.2416324641153612
 20
0.1792749440214953
 10
0.2397994146137074
 20
0.1791298444674145
 10
0.2371554953948899
 20
0.1783339485150346
 10
0.2356205041331902
 20
0.1773563975141281
 10
0.2351395829371769
 20
0.1753436336682868
 10
0.2356276998635253
 20
0.1737077036944281
 10
0.2372872628285084
 20
0.1732047128867096
 10
0.238717222922383
 20
0.1735736931430944
 10
0.2398810091578206
 20
0.1742456054394041
 10
0.2406812488242406
 20
0.1750729082322115
 10
0.24109668329507
 20
0.1764086151620809
  0
LWPOLYLINE
  5
1103
330
2
100
AcDbEntity
  8
Profilo
  6
Continuous
370
     0
100
AcDbPolyline
 90
       11
 70
   128
 43
0.0
 10
0.2421218376229043
 20
0.1752653844253513
 10
0.2421448113907453
 20
0.1766484679942792
 10
0.2415014905360317
 20
0.1779208270067405
 10
0.2407743960520382
 20
0.1782316103309995
 10
0.2403742768918055
 20
0.177817957768964
 10
0.2396029528342777
 20
0.1770986696851413
 10
0.2395557516672405
 20
0.1767061338726628
 10
0.2385731104257126
 20
0.1771433411392469
 10
0.2376436136671928
 20
0.1766980162099123
 10
0.2368433740007746
 20
0.1758707134171045
 10
0.2368144597378387
 20
0.1757626963768557
  0
LWPOLYLINE
  5
1104
330
2
100
AcDbEntity
  8
Profilo
  6
Continuous
370
     0
100
AcDbPolyline
 90
       77
 70
   128
 43
0.0
 10
0.244803402310496
 20
0.1771293546776638
 10
0.2458905428130781
 20
0.1777570155394768
 10
0.2468246230281225
 20
0.1778129023114479
 10
0.2476956852864029
 20
0.1783963788254692
 10
0.2488297107411829
 20
0.1782454300965355
 10
0.2503958885177323
 20
0.1781828538741659
 10
0.2508670643344101
 20
0.1791799943962047
 10
0.2501760839168011
 20
0.1807952470256862
 10
0.2495132342786989
 20
0.1819433362766587
 10
0.2498474841583595
 20
0.1826197202262876
 10
0.2508070737268548
 20
0.1827709033150622
 10
0.2516458715798898
 20
0.1828523441660483
 10
0.2520915366971605
 20
0.1837541907025477
 10
0.25322294085485
 20
0.1841657048517364
 10
0.2542871919551154
 20
0.1841356088498862
 10
0.2547864985512999
 20
0.1846655859934161
 10
0.2547838771252441
 20
0.185228045688729
 10
0.2543303478587714
 20
0.1860135814209791
 10
0.2537143846477869
 20
0.1863830619327509
 10
0.2530916635641319
 20
0.18634580457801
 10
0.2524569460514908
 20
0.1870267281192099
 10
0.251755074135473
 20
0.1872660438406333
 10
0.2530098913057114
 20
0.1871848373494884
 10
0.2536997639718689
 20
0.1876637040037232
 10
0.254050146727132
 20
0.1885911046192372
 10
0.2540636596515967
 20
0.189404581831982
 10
0.2536262632607248
 20
0.1904411342301182
 10
0.2532425083487667
 20
0.1911058172352849
 10
0.2522667859046707
 20
0.1907036174806242
 10
0.252947282092978
 20
0.1913382044839407
 10
0.2526494330651773
 20
0.1921330537591739
 10
0.2520912436128889
 20
0.1930998662507852
 10
0.2516726028696298
 20
0.19382497328823
 10
0.2509962417819826
 20
0.1941595861780037
 10
0.2506796397984815
 20
0.1952658761514001
 10
0.2500032772359128
 20
0.1956004881896283
 10
0.2494315776800357
 20
0.1957538219887771
 10
0.2484787431633348
 20
0.1960093782462333
 10
0.2479257950882382
 20
0.195851270495673
 10
0.2473379626567604
 20
0.1957535876289358
 10
0.2473072104511979
 20
0.1967832107027576
 10
0.2468885683619825
 20
0.197508320071466
 10
0.246228340149936
 20
0.1980939496271261
 10
0.2454593166514138
 20
0.1978916560490556
 10
0.2447345568080007
 20
0.1974732157583625
 10
0.2437614543150389
 20
0.1965085554568435
 10
0.2432340169393496
 20
0.196445741691823
 10
0.242464994915747
 20
0.1962434489652993
 10
0.2422098958684512
 20
0.1952904919395053
 10
0.2420688348307757
 20
0.1940005354740049
 10
0.241725208473265
 20
0.1934798718734576
 10
0.2410837330879517
 20
0.193754057548144
 10
0.2406864667264487
 20
0.1936052641921122
 10
0.2400813921929989
 20
0.1953506830916598
 10
0.2395325805645169
 20
0.1961617729029255
 10
0.2386052554012669
 20
0.1965126254771865
 10
0.2377315731918505
 20
0.1964916095100235
 10
0.2370255661751725
 20
0.1957617253383572
 10
0.2369100144909479
 20
0.1945670651896603
 10
0.237061559757925
 20
0.1936071820223628
 10
0.2357557224058632
 20
0.1934977950283543
 10
0.235602663593247
 20
0.1929260217900583
 10
0.234661826980452
 20
0.1924633980031201
 10
0.2336512158841772
 20
0.1921216237604557
 10
0.232764020750296
 20
0.1912871305805479
 10
0.2316018645160093
 20
0.191905242687991
 10
0.2310879400647846
 20
0.1926559061357154
 10
0.2302840293890068
 20
0.192514038921187
 10
0.2292734197676535
 20
0.1921722655300682
 10
0.2285970572050847
 20
0.1925068775682963
 10
0.2288547776784381
 20
0.1928973748987766
 10
0.2293889699769584
 20
0.1933669248272187
 10
0.2291770283082365
 20
0.1942919412240645
 10
0.2283704975523592
 20
0.1947125313735849
 10
0.227935722587543
 20
0.1951866240764082
 10
0.2272244756685947
 20
0.1955816609984595
 10
0.2253683116674904
 20
0.1947517065585773
  0
LWPOLYLINE
  5
1105
330
2
100
AcDbEntity
  8
Profilo
  6
Continuous
370
     0
100
AcDbPolyline
 90
       14
 70
   128
 43
0.0
 10
0.2272807357526866
 20
0.1946473333898957
 10
0.2253667966469298
 20
0.193220049301438
 10
0.225114320371646
 20
0.191704630249067
 10
0.2249691228873542
 20
0.1894454762217401
 10
0.2260277253413222
 20
0.186914523921206
 10
0.227680916624517
 20
0.1848879915023762
 10
0.2294871668492932
 20
0.1834332355046524
 10
0.231771349417463
 20
0.1833823602267446
 10
0.2345522156808401
 20
0.1844239209361336
 10
0.2370378571633499
 20
0.1856978697457239
 10
0.2383800952383081
 20
0.1872784867817849
 10
0.2392245418666058
 20
0.189860787114265
 10
0.2395347960674198
 20
0.1919735343354925
 10
0.2392665928396863
 20
0.1938328774893561
  0
LWPOLYLINE
  5
1106
330
2
100
AcDbEntity
  8
Profilo
  6
Continuous
370
     0
100
AcDbPolyline
 90
        7
 70
   128
 43
0.0
 10
0.2417694721283706
 20
0.1932637251608342
 10
0.2421652234693149
 20
0.1918808612597267
 10
0.2416310325167509
 20
0.1914113090000209
 10
0.2421006933128681
 20
0.1908767922649204
 10
0.2421663312207664
 20
0.1897867419760109
 10
0.2416925339780346
 20
0.1893520611492849
 10
0.240951641259019
 20
0.1886826041927059
  0
LWPOLYLINE
  5
1107
330
2
100
AcDbEntity
  8
Profilo
  6
Continuous
370
     0
100
AcDbPolyline
 90
        4
 70
   128
 43
0.0
 10
0.2413822825980966
 20
0.1872393124483385
 10
0.2433071118563061
 20
0.190042535776118
 10
0.2447675230415446
 20
0.1922553532655618
 10
0.2459045758455333
 20
0.1951677237134353
  0
LWPOLYLINE
  5
1108
330
2
100
AcDbEntity
  8
Profilo
  6
Continuous
370
     0
100
AcDbPolyline
 90
        3
 70
   128
 43
0.0
 10
0.2428693080673615
 20
0.187453308450588
 10
0.246474354457697
 20
0.189856953785027
 10
0.2475266076540582
 20
0.1905450378275713
  0
LWPOLYLINE
  5
1109
330
2
100
AcDbEntity
  8
Profilo
  6
Continuous
370
     0
100
AcDbPolyline
 90
        4
 70
   128
 43
0.0
 10
0.243920047718082
 20
0.1866097360875389
 10
0.2468862414951197
 20
0.1887251050700869
 10
0.2485893452086846
 20
0.1889832854201281
 10
0.2505970543478008
 20
0.1888533535099028
  0
LWPOLYLINE
  5
110A
330
2
100
AcDbEntity
  8
Profilo
  6
Continuous
370
     0
100
AcDbPolyline
 90
        4
 70
   128
 43
0.0
 10
0.2420248629139835
 20
0.1848710089696544
 10
0.2466645146045189
 20
0.1861800644236122
 10
0.2500035703201843
 20
0.1862548126413899
 10
0.2522299763087802
 20
0.1856066068633606
  0
LWPOLYLINE
  5
110B
330
2
100
AcDbEntity
  8
Profilo
  6
Continuous
370
     0
100
AcDbPolyline
 90
        2
 70
   128
 43
0.0
 10
0.2278103871563592
 20
0.1905219077359372
 10
0.2283138273782822
 20
0.1920210839210117
  0
LWPOLYLINE
  5
110C
330
2
100
AcDbEntity
  8
Profilo
  6
Continuous
370
     0
100
AcDbPolyline
 90
       12
 70
   128
 43
0.0
 10
0.2322605790534532
 20
0.189787953543928
 10
0.231003139111201
 20
0.1904316220616506
 10
0.230278379267788
 20
0.1900131817709576
 10
0.2289845398196321
 20
0.1891856147325537
 10
0.2279281515226107
 20
0.1875283307969193
 10
0.2282567526270086
 20
0.1857038552650538
 10
0.2299677191438211
 20
0.1842746556776096
 10
0.2320493363921558
 20
0.184993073264655
 10
0.2339283896666097
 20
0.1864807813853908
 10
0.2347338140169918
 20
0.1881543081883221
 10
0.2349862916382336
 20
0.1896697249094286
 10
0.2345181445167207
 20
0.1917359012329325
  0
LWPOLYLINE
  5
110D
330
2
100
AcDbEntity
  8
Profilo
  6
Continuous
370
     0
100
AcDbPolyline
 90
        2
 70
   128
 43
0.0
 10
0.2300525200974048
 20
0.1864989397516739
 10
0.2316415871473056
 20
0.1870941172101574
  0
LWPOLYLINE
  5
110E
330
2
100
AcDbEntity
  8
Profilo
  6
Continuous
370
     0
100
AcDbPolyline
 90
        3
 70
   128
 43
0.0
 10
0.2392532588146556
 20
0.1707022726392797
 10
0.2415790836118753
 20
0.1709977103440614
 10
0.2418476927627617
 20
0.1727641460623179
  0
LWPOLYLINE
  5
110F
330
2
100
AcDbEntity
  8
Profilo
  6
Continuous
370
     0
100
AcDbPolyline
 90
       15
 70
   129
 43
0.0
 10
0.2464981231128264
 20
0.1624776840039763
 10
0.2465187970122401
 20
0.1673236794350716
 10
0.2460307891835737
 20
0.1717954157404555
 10
0.2497217414580683
 20
0.1743292273449606
 10
0.2519605539656355
 20
0.1765886157321284
 10
0.2537698300646988
 20
0.1781971780596658
 10
0.2545602306368878
 20
0.1775255665817308
 10
0.2546862650754943
 20
0.1764703862460839
 10
0.255930891229668
 20
0.1692933470223086
 10
0.2561649091084445
 20
0.1617745320761503
 10
0.2553444568130371
 20
0.1577558708033349
 10
0.2545296574597246
 20
0.1562380652010311
 10
0.2536976160044401
 20
0.1565633613650126
 10
0.2522282342645025
 20
0.1581320430967696
 10
0.2477300523556715
 20
0.1617387215007138
  0
ARC
  5
1110
330
2
100
AcDbEntity
  8
Profilo
  6
Continuous
370
     0
100
AcDbCircle
 10
0.2089448645214746
 20
0.1642734529678005
 30
0.0
 40
0.0494009056964024
100
AcDbArc
 50
102.6957083761296
 51
143.7110551223396
  0
ARC
  5
1111
330
2
100
AcDbEntity
  8
Profilo
  6
Continuous
370
     0
100
AcDbCircle
 10
0.2089448645214746
 20
0.1642734529678005
 30
0.0
 40
0.0494009056964024
100
AcDbArc
 50
162.6957083761339
 51
203.711055122329
  0
ARC
  5
1112
330
2
100
AcDbEntity
  8
Profilo
  6
Continuous
370
     0
100
AcDbCircle
 10
0.2089448645214746
 20
0.1642734529678005
 30
0.0
 40
0.0494009056964024
100
AcDbArc
 50
222.695708376114
 51
263.7110551223237
  0
ARC
  5
1113
330
2
100
AcDbEntity
  8
Profilo
  6
Continuous
370
     0
100
AcDbCircle
 10
0.2089448645214763
 20
0.1642734529678
 30
0.0
 40
0.0494009056964024
100
AcDbArc
 50
282.6957083761296
 51
323.7110551223395
  0
ARC
  5
1114
330
2
100
AcDbEntity
  8
Profilo
  6
Continuous
370
     0
100
AcDbCircle
 10
0.2089448645214763
 20
0.1642734529678005
 30
0.0
 40
0.0494009056964024
100
AcDbArc
 50
342.695708376134
 51
23.71105512232901
  0
ARC
  5
1118
330
2
100
AcDbEntity
  8
Profilo
  6
ACAD_ISO10W100
100
AcDbCircle
 10
0.2270664642850583
 20
0.21445199300867
 30
0.0
 40
0.0039933759702439
100
AcDbArc
 50
250.6689715618718
 51
70.66897156187181
  0
ARC
  5
1119
330
2
100
AcDbEntity
  8
Profilo
  6
ACAD_ISO10W100
100
AcDbCircle
 10
0.2390354906365762
 20
0.2084014925700112
 30
0.0
 40
0.0039933759702438
100
AcDbArc
 50
65.8575328505388
 51
234.5324966225426
  0
ARC
  5
111A
330
2
100
AcDbEntity
  8
Profilo
  6
ACAD_ISO10W100
100
AcDbCircle
 10
0.1745497740030588
 20
0.2050564887407129
 30
0.0
 40
0.0039933759702439
100
AcDbArc
 50
310.6689715618718
 51
130.6689715618718
  0
ARC
  5
111B
330
2
100
AcDbEntity
  8
Profilo
  6
ACAD_ISO10W100
100
AcDbCircle
 10
0.1857741742643052
 20
0.2123967194003633
 30
0.0
 40
0.0039933759702438
100
AcDbArc
 50
125.8575328505388
 51
294.5324966225426
  0
ARC
  5
111C
330
2
100
AcDbEntity
  8
Profilo
  6
ACAD_ISO10W100
100
AcDbCircle
 10
0.1564281742394751
 20
0.1548779486998434
 30
0.0
 40
0.0039933759702439
100
AcDbArc
 50
10.66897156187178
 51
190.6689715618718
  0
ARC
  5
111D
330
2
100
AcDbEntity
  8
Profilo
  6
ACAD_ISO10W100
100
AcDbCircle
 10
0.1556835481492035
 20
0.1682686797981527
 30
0.0
 40
0.0039933759702438
100
AcDbArc
 50
185.8575328505388
 51
354.5324966225426
  0
ARC
  5
111E
330
2
100
AcDbEntity
  8
Profilo
  6
ACAD_ISO10W100
100
AcDbCircle
 10
0.1908232647578909
 20
0.1140949129269311
 30
0.0
 40
0.0039933759702439
100
AcDbArc
 50
70.6689715618718
 51
250.6689715618718
  0
ARC
  5
111F
330
2
100
AcDbEntity
  8
Profilo
  6
ACAD_ISO10W100
100
AcDbCircle
 10
0.1788542384063729
 20
0.1201454133655899
 30
0.0
 40
0.0039933759702438
100
AcDbArc
 50
245.8575328505388
 51
54.53249662254258
  0
ARC
  5
1120
330
2
100
AcDbEntity
  8
Profilo
  6
ACAD_ISO10W100
100
AcDbCircle
 10
0.2433399550398903
 20
0.1234904171948882
 30
0.0
 40
0.0039933759702439
100
AcDbArc
 50
130.6689715618717
 51
310.6689715618718
  0
ARC
  5
1121
330
2
100
AcDbEntity
  8
Profilo
  6
ACAD_ISO10W100
100
AcDbCircle
 10
0.2321155547786438
 20
0.1161501865352377
 30
0.0
 40
0.0039933759702438
100
AcDbArc
 50
305.8575328505388
 51
114.5324966225425
  0
ARC
  5
1122
330
2
100
AcDbEntity
  8
Profilo
  6
ACAD_ISO10W100
100
AcDbCircle
 10
0.261461554803474
 20
0.1736689572357577
 30
0.0
 40
0.0039933759702439
100
AcDbArc
 50
190.6689715618717
 51
10.66897156187176
  0
ARC
  5
1123
330
2
100
AcDbEntity
  8
Profilo
  6
ACAD_ISO10W100
100
AcDbCircle
 10
0.2622061808937456
 20
0.1602782261374484
 30
0.0
 40
0.0039933759702438
100
AcDbArc
 50
5.857532850538761
 51
174.5324966225425
  0
LWPOLYLINE
  5
1124
330
2
100
AcDbEntity
  8
Profilo
  6
Continuous
370
     0
100
AcDbPolyline
 90
       11
 70
   129
 43
0.0
 10
0.1902586427120809
 20
0.1985597045509107
 10
0.186709671847247
 20
0.1965308430740993
 10
0.1837270479481717
 20
0.1943456424778958
 10
0.180359254328581
 20
0.195954212379911
 10
0.1771932788403232
 20
0.1967870302467665
 10
0.1767831906814489
 20
0.1969231373106802
 10
0.1819720333754983
 20
0.2012521916044978
 10
0.1881311575286692
 20
0.2050684385690986
 10
0.1914889274675003
 20
0.2061893941481883
 10
0.1911758427720861
 20
0.2051571017252388
 10
0.1902702558060344
 20
0.1992548556125173
  0
LWPOLYLINE
  5
1125
330
2
100
AcDbEntity
  8
Profilo
  6
Continuous
370
     0
100
AcDbPolyline
 90
       11
 70
   129
 43
0.0
 10
0.1699089887452599
 20
0.1652338359716699
 10
0.1698915488925212
 20
0.1611459063070272
 10
0.1702926761716608
 20
0.1574702779423916
 10
0.1672157169629572
 20
0.1553579680641306
 10
0.1649114877894058
 20
0.1530325617969682
 10
0.164588571534985
 20
0.1527454685655488
 10
0.1634339218892015
 20
0.1594036653017457
 10
0.1632085171473274
 20
0.1666457467657543
 10
0.1639166261087374
 20
0.1701141386223907
 10
0.1646540752234387
 20
0.1693268531111511
 10
0.1693127768134176
 20
0.1655914687368535
  0
LWPOLYLINE
  5
1126
330
2
100
AcDbEntity
  8
Profilo
  6
Continuous
370
     0
100
AcDbPolyline
 90
       11
 70
   129
 43
0.0
 10
0.1885952105546536
 20
0.1309475843885598
 10
0.1921267415667489
 20
0.1288885162007285
 10
0.1955104927449637
 20
0.1273980884322965
 10
0.1958013271558508
 20
0.1236772086520201
 10
0.1966630734705572
 20
0.1205189845180022
 10
0.1967502453750106
 20
0.1200957842226691
 10
0.1904067530351777
 20
0.1224249266650484
 10
0.1840222241401328
 20
0.1258507611644563
 10
0.1813725631627116
 20
0.1281981974420029
 10
0.1824230969728272
 20
0.1284432043537128
 10
0.1879873855288578
 20
0.1306100660921367
  0
LWPOLYLINE
  5
1127
330
2
100
AcDbEntity
  8
Profilo
  6
Continuous
370
     0
100
AcDbPolyline
 90
       11
 70
   129
 43
0.0
 10
0.2276310863308682
 20
0.1299872013846904
 10
0.2311800571957021
 20
0.1320160628615019
 10
0.2341626810947774
 20
0.1342012634577053
 10
0.2375304747143681
 20
0.1325926935556901
 10
0.240696450202626
 20
0.1317598756888345
 10
0.2411065383615002
 20
0.1316237686249209
 10
0.2359176956674508
 20
0.1272947143311032
 10
0.2297585715142799
 20
0.1234784673665025
 10
0.2264008015754487
 20
0.1223575117874128
 10
0.226713886270863
 20
0.1233898042103623
 10
0.2276194732369147
 20
0.1292920503230838
  0
LWPOLYLINE
  5
1128
330
2
100
AcDbEntity
  8
Profilo
  6
Continuous
370
     0
100
AcDbPolyline
 90
       11
 70
   129
 43
0.0
 10
0.2479807402976892
 20
0.1633130699639312
 10
0.2479981801504279
 20
0.1674009996285739
 10
0.2475970528712884
 20
0.1710766279932095
 10
0.250674012079992
 20
0.1731889378714706
 10
0.2529782412535434
 20
0.1755143441386329
 10
0.2533011575079642
 20
0.1758014373700523
 10
0.2544558071537477
 20
0.1691432406338554
 10
0.2546812118956217
 20
0.1619011591698468
 10
0.2539731029342118
 20
0.1584327673132104
 10
0.2532356538195104
 20
0.1592200528244501
 10
0.2485769522295315
 20
0.1629554371987476
  0
DIMENSION
  5
1138
102
{ACAD_XDICTIONARY
360
1142
102
}
102
{ACAD_REACTORS
330
1149
102
}
330
2
100
AcDbEntity
  8
Text
  6
ACAD_ISO10W100
100
AcDbDimension
  2
*D12
 10
0.1652334140624719
 20
0.1196017717953826
 30
0.0
 11
0.2706830360310807
 21
0.2110893748364945
 31
0.0
 70
    35
  1
d 495 mm
 71
     5
 42
0.125
  3
Bovelacci
100
AcDbDiametricDimension
 15
0.2526563149804772
 25
0.2089451341402184
 35
0.0
 40
0.0
1001
ACAD
1000
DSTYLE
1002
{
1070
   288
1070
     1
1002
}
  0
ENDSEC
  0
SECTION
  2
OBJECTS
  0
DICTIONARY
  5
9
330
0
100
AcDbDictionary
281
     1
  3
ACAD_2007HEADERVARS_RT
350
208
  3
ACAD_COLOR
350
184
  3
ACAD_GROUP
350
17F
  3
ACAD_LAYOUT
350
164
  3
ACAD_MATERIAL
350
B
  3
ACAD_MLINESTYLE
350
180
  3
ACAD_PLOTSETTINGS
350
181
  3
ACAD_PLOTSTYLENAME
350
8
  3
ACAD_TABLESTYLE
350
185
  3
ACAD_VISUALSTYLE
350
17A
  3
ACDBHEADERROUNDTRIPXREC
350
1159
  3
AcDbVariableDictionary
350
18B
  3
DWGPROPS
350
1158
  0
DICTIONARY
  5
16E
330
16D
100
AcDbDictionary
280
     1
281
     1
  3
ACAD_LAYERSTATES
360
16F
  0
DICTIONARY
  5
3
330
2
100
AcDbDictionary
280
     1
281
     1
  3
ACAD_SORTENTS
360
18A
  0
DICTIONARY
  5
115A
330
18
100
AcDbDictionary
280
     1
281
     1
  3
ACAD_MTEXT_RT
360
115B
  0
DICTIONARY
  5
1142
330
1138
100
AcDbDictionary
280
     1
281
     1
  3
ACAD_DIMASSOC
360
1149
  0
DICTIONARY
  5
208
102
{ACAD_REACTORS
330
9
102
}
330
9
100
AcDbDictionary
281
     1
  3
DIMFXL
350
209
  0
DICTIONARY
  5
184
102
{ACAD_REACTORS
330
9
102
}
330
9
100
AcDbDictionary
281
     1
  0
DICTIONARY
  5
17F
102
{ACAD_REACTORS
330
9
102
}
330
9
100
AcDbDictionary
281
     1
  0
DICTIONARY
  5
164
102
{ACAD_REACTORS
330
9
102
}
330
9
100
AcDbDictionary
281
     1
  3
Layout1
350
168
  3
Layout2
350
16C
  3
Model
350
163
  0
DICTIONARY
  5
B
102
{ACAD_REACTORS
330
9
102
}
330
9
100
AcDbDictionary
281
     1
  3
ByBlock
350
183
  3
ByLayer
350
182
  3
Global
350
A
  0
DICTIONARY
  5
180
102
{ACAD_REACTORS
330
9
102
}
330
9
100
AcDbDictionary
281
     1
  3
Standard
350
186
  0
DICTIONARY
  5
181
102
{ACAD_REACTORS
330
9
102
}
330
9
100
AcDbDictionary
281
     1
  0
ACDBDICTIONARYWDFLT
  5
8
102
{ACAD_REACTORS
330
9
102
}
330
9
100
AcDbDictionary
281
     1
  3
Normal
350
7
100
AcDbDictionaryWithDefault
340
7
  0
DICTIONARY
  5
185
102
{ACAD_REACTORS
330
9
102
}
330
9
100
AcDbDictionary
281
     1
  3
Standard
350
187
  0
DICTIONARY
  5
17A
102
{ACAD_REACTORS
330
9
102
}
330
9
100
AcDbDictionary
281
     1
  3
2dWireframe
350
179
  3
3D Hidden
350
1BD
  3
3dWireframe
350
189
  3
Basic
350
1BC
  3
Brighten
350
1C0
  3
ColorChange
350
1C4
  3
Conceptual
350
1BE
  3
Dim
350
1BF
  3
Facepattern
350
1C3
  3
Flat
350
1B8
  3
FlatWithEdges
350
1B9
  3
Gouraud
350
1BA
  3
GouraudWithEdges
350
1BB
  3
Linepattern
350
1C2
  3
Realistic
350
188
  3
Thicken
350
1C1
  0
DICTIONARY
  5
1159
102
{ACAD_REACTORS
330
9
102
}
330
9
100
AcDbDictionary
281
     1
  0
DICTIONARY
  5
18B
102
{ACAD_REACTORS
330
9
102
}
330
9
100
AcDbDictionary
281
     1
  3
CTABLESTYLE
350
18C
  3
DIMASSOC
350
190
  3
HIDETEXT
350
18F
  3
INDEXCTL
350
18E
  3
PROJECTNAME
350
2F9
  3
SORTENTS
350
18D
  0
XRECORD
  5
1158
102
{ACAD_REACTORS
330
9
102
}
330
9
100
AcDbXrecord
280
     1
  1
DWGPROPS COOKIE
  2

  3

  4

  6

  7

  8
Mario
  9

300
=
301
=
302
=
303
=
304
=
305
=
306
=
307
=
308
=
309
=
 40
0.140992662037037
 41
2454297.625402373
 42
2454311.560978183
  1

 90
        0
  0
DICTIONARY
  5
16F
102
{ACAD_REACTORS
330
16E
102
}
330
16E
100
AcDbDictionary
281
     1
  0
SORTENTSTABLE
  5
18A
102
{ACAD_REACTORS
330
3
102
}
330
3
100
AcDbSortentsTable
330
2
331
18
  5
1C
331
16
  5
12
331
14
  5
10
331
23
  5
24
331
12
  5
16
331
10
  5
14
331
21
  5
22
331
1F
  5
21
331
1D
  5
1E
331
15
  5
11
331
24
  5
18
331
13
  5
D
331
22
  5
23
331
11
  5
15
331
1E
  5
1F
331
D
  5
13
331
1C
  5
1D
  0
XRECORD
  5
115B
102
{ACAD_REACTORS
330
115A
102
}
330
115A
100
AcDbXrecord
280
     1
 40
7955300.0
  1
{\fTimes New Roman|b0|i0|c238|p18;\H1.6x;\C4;Bovelacci\P\pt0.09;\H0.4375x;\T0.95;via del Commercio, 5  47100 Forli - Italy  \fTimes New Roman|b0|i0|c0|p18;\P\fTimes New Roman|b0|i0|c238|p18;tel.+39-0543721386  fax +39-0543721127\fTimes New Roman|b0|i
  1
0|c0|p18; \fTimes New Roman|b0|i0|c238|p18;www.bovelacci.it\fTimes New Roman|b0|i0|c0|p18; \fTimes New Roman|b0|i0|c238|p18;e-mail: bovelacci@bovelacci\fTimes New Roman|b0|i0|c0|p18;.it}
  0
DIMASSOC
  5
1149
102
{ACAD_REACTORS
330
1142
102
}
330
1142
100
AcDbDimAssoc
330
1138
 90
        2
 70
     0
 71
     0
  1
AcDbOsnapPointRef
 72
     3
331
1038
 73
     2
 91
        0
 40
0.0
 10
0.0
 20
0.0
 30
0.0
 75
     0
  0
XRECORD
  5
209
102
{ACAD_REACTORS
330
208
102
}
330
208
100
AcDbXrecord
280
     1
 40
0.18
  0
LAYOUT
  5
168
102
{ACAD_XDICTIONARY
360
115E
102
}
102
{ACAD_REACTORS
330
164
102
}
330
164
100
AcDbPlotSettings
  1

  2
C:\Documents and Settings\All Users\Dati applicazioni\Autodesk\ADT 2006\enu\Plotters\Default Windows System Printer.pc3
  4

  6

 40
0.0
 41
0.0
 42
0.0
 43
0.0
 44
0.0
 45
0.0
 46
0.0
 47
0.0
 48
0.0
 49
0.0
140
0.0
141
0.0
142
1.0
143
1.0
 70
   688
 72
     0
 73
     0
 74
     5
  7

 75
    16
147
1.0
148
0.0
149
0.0
100
AcDbLayout
  1
Layout1
 70
     1
 71
     1
 10
0.0
 20
0.0
 11
420.0
 21
297.0
 12
0.0
 22
0.0
 32
0.0
 14
1.000000000000000E+20
 24
1.000000000000000E+20
 34
1.000000000000000E+20
 15
-1.000000000000000E+20
 25
-1.000000000000000E+20
 35
-1.000000000000000E+20
146
0.0
 13
0.0
 23
0.0
 33
0.0
 16
1.0
 26
0.0
 36
0.0
 17
0.0
 27
1.0
 37
0.0
 76
     0
330
165
  0
LAYOUT
  5
16C
102
{ACAD_XDICTIONARY
360
1160
102
}
102
{ACAD_REACTORS
330
164
102
}
330
164
100
AcDbPlotSettings
  1

  2
C:\Documents and Settings\All Users\Dati applicazioni\Autodesk\ADT 2006\enu\Plotters\Default Windows System Printer.pc3
  4

  6

 40
0.0
 41
0.0
 42
0.0
 43
0.0
 44
0.0
 45
0.0
 46
0.0
 47
0.0
 48
0.0
 49
0.0
140
0.0
141
0.0
142
1.0
143
1.0
 70
   688
 72
     0
 73
     0
 74
     5
  7

 75
    16
147
1.0
148
0.0
149
0.0
100
AcDbLayout
  1
Layout2
 70
     1
 71
     2
 10
0.0
 20
0.0
 11
12.0
 21
9.0
 12
0.0
 22
0.0
 32
0.0
 14
0.0
 24
0.0
 34
0.0
 15
0.0
 25
0.0
 35
0.0
146
0.0
 13
0.0
 23
0.0
 33
0.0
 16
1.0
 26
0.0
 36
0.0
 17
0.0
 27
1.0
 37
0.0
 76
     0
330
169
  0
LAYOUT
  5
163
102
{ACAD_XDICTIONARY
360
115C
102
}
102
{ACAD_REACTORS
330
164
102
}
330
164
100
AcDbPlotSettings
  1

  2
C:\Documents and Settings\All Users\Dati applicazioni\Autodesk\ADT 2006\enu\Plotters\Default Windows System Printer.pc3
  4

  6

 40
0.0
 41
0.0
 42
0.0
 43
0.0
 44
0.0
 45
0.0
 46
0.0
 47
0.0
 48
0.0
 49
0.0
140
0.0
141
0.0
142
1.0
143
1.0
 70
  1712
 72
     0
 73
     0
 74
     0
  7

 75
     0
147
1.0
148
0.0
149
0.0
100
AcDbLayout
  1
Model
 70
     1
 71
     0
 10
0.0
 20
0.0
 11
12.0
 21
9.0
 12
0.0
 22
0.0
 32
0.0
 14
0.0
 24
0.0
 34
0.0
 15
0.0
 25
0.0
 35
0.0
146
0.0
 13
0.0
 23
0.0
 33
0.0
 16
1.0
 26
0.0
 36
0.0
 17
0.0
 27
1.0
 37
0.0
 76
     0
330
2
  0
MATERIAL
  5
183
102
{ACAD_XDICTIONARY
360
1B0
102
}
102
{ACAD_REACTORS
330
B
102
}
330
B
100
AcDbMaterial
  1
ByBlock
  0
MATERIAL
  5
182
102
{ACAD_XDICTIONARY
360
1AE
102
}
102
{ACAD_REACTORS
330
B
102
}
330
B
100
AcDbMaterial
  1
ByLayer
  0
MATERIAL
  5
A
102
{ACAD_XDICTIONARY
360
193
102
}
102
{ACAD_REACTORS
330
B
102
}
330
B
100
AcDbMaterial
  1
Global
  0
MLINESTYLE
  5
186
102
{ACAD_REACTORS
330
180
102
}
330
180
100
AcDbMlineStyle
  2
STANDARD
 70
     0
  3

 62
   256
 51
90.0
 52
90.0
 71
     2
 49
0.5
 62
   256
  6
BYLAYER
 49
-0.5
 62
   256
  6
BYLAYER
  0
ACDBPLACEHOLDER
  5
7
102
{ACAD_REACTORS
330
8
102
}
330
8
  0
TABLESTYLE
  5
187
102
{ACAD_XDICTIONARY
360
21A
102
}
102
{ACAD_REACTORS
330
185
102
}
330
185
100
AcDbTableStyle
  3
Standard
 70
     0
 71
     0
 40
1.5
 41
1.5
280
     0
281
     0
  7
Standard
140
4.5
170
     2
 62
     0
 63
     7
283
     0
274
    -2
284
     1
 64
     0
275
    -2
285
     1
 65
     0
276
    -2
286
     1
 66
     0
277
    -2
287
     1
 67
     0
278
    -2
288
     1
 68
     0
279
    -2
289
     1
 69
     0
  7
Standard
140
6.0
170
     5
 62
     0
 63
     7
283
     0
274
    -2
284
     1
 64
     0
275
    -2
285
     1
 65
     0
276
    -2
286
     1
 66
     0
277
    -2
287
     1
 67
     0
278
    -2
288
     1
 68
     0
279
    -2
289
     1
 69
     0
  7
Standard
140
4.5
170
     5
 62
     0
 63
     7
283
     0
274
    -2
284
     1
 64
     0
275
    -2
285
     1
 65
     0
276
    -2
286
     1
 66
     0
277
    -2
287
     1
 67
     0
278
    -2
288
     1
 68
     0
279
    -2
289
     1
 69
     0
  0
VISUALSTYLE
  5
179
102
{ACAD_REACTORS
330
17A
102
}
330
17A
100
AcDbVisualStyle
  2
2dWireframe
 70
     4
 71
     0
 72
     2
 73
     0
 90
        0
 40
-0.6
 41
-30.0
 62
     5
 63
     7
 74
     1
 91
        4
 64
     7
 65
   257
 75
     1
175
     1
 42
1.0
 92
        0
 66
   257
 43
1.0
 76
     1
 77
     6
 78
     2
 67
     7
 79
     5
170
     0
171
     0
290
     0
174
     0
 93
        1
 44
0.0
173
     0
291
     0
 45
0.0
1001
ACAD
1000
AcDbSavedByObjectVersion
1070
     0
1000
AcDbSavedByObjectVersion
1070
     0
1000
AcDbSavedByObjectVersion
1070
     0
1001
ACAD
1000
AcRTDxfName
1000
VISUALSTYLE
  0
VISUALSTYLE
  5
1BD
102
{ACAD_REACTORS
330
17A
102
}
330
17A
100
AcDbVisualStyle
  2
3D Hidden
 70
     6
 71
     1
 72
     2
 73
     2
 90
        0
 40
-0.6
 41
-30.0
 62
     5
 63
     7
 74
     2
 91
        2
 64
     7
 65
   257
 75
     2
175
     1
 42
40.0
 92
        0
 66
   257
 43
1.0
 76
     1
 77
     6
 78
     2
 67
     7
 79
     3
170
     0
171
     0
290
     0
174
     0
 93
        1
 44
0.0
173
     0
291
     0
 45
0.0
1001
ACAD
1000
AcDbSavedByObjectVersion
1070
     0
1000
AcDbSavedByObjectVersion
1070
     0
1001
ACAD
1000
AcRTDxfName
1000
VISUALSTYLE
  0
VISUALSTYLE
  5
189
102
{ACAD_REACTORS
330
17A
102
}
330
17A
100
AcDbVisualStyle
  2
3dWireframe
 70
     5
 71
     0
 72
     2
 73
     0
 90
        0
 40
-0.6
 41
-30.0
 62
     5
 63
     7
 74
     1
 91
        4
 64
     7
 65
   257
 75
     1
175
     1
 42
1.0
 92
        0
 66
   257
 43
1.0
 76
     1
 77
     6
 78
     2
 67
     7
 79
     5
170
     0
171
     0
290
     0
174
     0
 93
        1
 44
0.0
173
     0
291
     0
 45
0.0
1001
ACAD
1000
AcDbSavedByObjectVersion
1070
     0
1000
AcDbSavedByObjectVersion
1070
     0
1000
AcDbSavedByObjectVersion
1070
     0
1001
ACAD
1000
AcRTDxfName
1000
VISUALSTYLE
  0
VISUALSTYLE
  5
1BC
102
{ACAD_REACTORS
330
17A
102
}
330
17A
100
AcDbVisualStyle
  2
Basic
 70
     7
 71
     1
 72
     0
 73
     1
 90
        0
 40
-0.6
 41
-30.0
 62
     5
 63
     7
 74
     0
 91
        4
 64
     7
 65
   257
 75
     1
175
     1
 42
1.0
 92
        8
 66
     7
 43
1.0
 76
     1
 77
     6
 78
     2
 67
     7
 79
     5
170
     0
171
     0
290
     0
174
     0
 93
        1
 44
0.0
173
     0
291
     1
 45
0.0
1001
ACAD
1000
AcDbSavedByObjectVersion
1070
     0
1000
AcDbSavedByObjectVersion
1070
     0
1001
ACAD
1000
AcRTDxfName
1000
VISUALSTYLE
  0
VISUALSTYLE
  5
1C0
102
{ACAD_REACTORS
330
17A
102
}
330
17A
100
AcDbVisualStyle
  2
Brighten
 70
    12
 71
     2
 72
     2
 73
     0
 90
        0
 40
-0.6
 41
-30.0
 62
     5
 63
     7
 74
     1
 91
        4
 64
     7
 65
   257
 75
     1
175
     1
 42
1.0
 92
        8
 66
     7
 43
1.0
 76
     1
 77
     6
 78
     2
 67
     7
 79
     5
170
     0
171
     0
290
     0
174
     0
 93
        1
 44
50.0
173
     0
291
     1
 45
0.0
1001
ACAD
1000
AcDbSavedByObjectVersion
1070
     0
1000
AcDbSavedByObjectVersion
1070
     0
1001
ACAD
1000
AcRTDxfName
1000
VISUALSTYLE
  0
VISUALSTYLE
  5
1C4
102
{ACAD_REACTORS
330
17A
102
}
330
17A
100
AcDbVisualStyle
  2
ColorChange
 70
    16
 71
     2
 72
     2
 73
     3
 90
        0
 40
-0.6
 41
-30.0
 62
     5
 63
     8
 74
     1
 91
        4
 64
     7
 65
   257
 75
     1
175
     1
 42
1.0
 92
        8
 66
     8
 43
1.0
 76
     1
 77
     6
 78
     2
 67
     7
 79
     5
170
     0
171
     0
290
     0
174
     0
 93
        1
 44
0.0
173
     0
291
     1
 45
0.0
1001
ACAD
1000
AcDbSavedByObjectVersion
1070
     0
1000
AcDbSavedByObjectVersion
1070
     0
1001
ACAD
1000
AcRTDxfName
1000
VISUALSTYLE
  0
VISUALSTYLE
  5
1BE
102
{ACAD_REACTORS
330
17A
102
}
330
17A
100
AcDbVisualStyle
  2
Conceptual
 70
     9
 71
     3
 72
     2
 73
     0
 90
        0
 40
-0.6
 41
-30.0
 62
     5
 63
     7
 74
     2
 91
        2
 64
     7
 65
   257
 75
     1
175
     1
 42
40.0
 92
        8
 66
     7
 43
1.0
 76
     1
 77
     6
 78
     2
 67
     7
 79
     3
170
     0
171
     0
290
     0
174
     0
 93
        1
 44
0.0
173
     0
291
     0
 45
0.0
1001
ACAD
1000
AcDbSavedByObjectVersion
1070
     0
1000
AcDbSavedByObjectVersion
1070
     0
1001
ACAD
1000
AcRTDxfName
1000
VISUALSTYLE
  0
VISUALSTYLE
  5
1BF
102
{ACAD_REACTORS
330
17A
102
}
330
17A
100
AcDbVisualStyle
  2
Dim
 70
    11
 71
     2
 72
     2
 73
     0
 90
        0
 40
-0.6
 41
-30.0
 62
     5
 63
     7
 74
     1
 91
        4
 64
     7
 65
   257
 75
     1
175
     1
 42
1.0
 92
        8
 66
     7
 43
1.0
 76
     1
 77
     6
 78
     2
 67
     7
 79
     5
170
     0
171
     0
290
     0
174
     0
 93
        1
 44
-50.0
173
     0
291
     1
 45
0.0
1001
ACAD
1000
AcDbSavedByObjectVersion
1070
     0
1000
AcDbSavedByObjectVersion
1070
     0
1001
ACAD
1000
AcRTDxfName
1000
VISUALSTYLE
  0
VISUALSTYLE
  5
1C3
102
{ACAD_REACTORS
330
17A
102
}
330
17A
100
AcDbVisualStyle
  2
Facepattern
 70
    15
 71
     2
 72
     2
 73
     0
 90
        0
 40
-0.6
 41
-30.0
 62
     5
 63
     7
 74
     1
 91
        4
 64
     7
 65
   257
 75
     1
175
     1
 42
1.0
 92
        8
 66
     7
 43
1.0
 76
     1
 77
     6
 78
     2
 67
     7
 79
     5
170
     0
171
     0
290
     0
174
     0
 93
        1
 44
0.0
173
     0
291
     1
 45
0.0
1001
ACAD
1000
AcDbSavedByObjectVersion
1070
     0
1000
AcDbSavedByObjectVersion
1070
     0
1001
ACAD
1000
AcRTDxfName
1000
VISUALSTYLE
  0
VISUALSTYLE
  5
1B8
102
{ACAD_REACTORS
330
17A
102
}
330
17A
100
AcDbVisualStyle
  2
Flat
 70
     0
 71
     2
 72
     1
 73
     1
 90
        2
 40
-0.6
 41
30.0
 62
     5
 63
     7
 74
     0
 91
        4
 64
     7
 65
   257
 75
     1
175
     1
 42
1.0
 92
        8
 66
     7
 43
1.0
 76
     1
 77
     6
 78
     2
 67
     7
 79
     5
170
     0
171
     0
290
     0
174
     0
 93
       13
 44
0.0
173
     0
291
     1
 45
0.0
1001
ACAD
1000
AcDbSavedByObjectVersion
1070
     0
1000
AcDbSavedByObjectVersion
1070
     0
1001
ACAD
1000
AcRTDxfName
1000
VISUALSTYLE
  0
VISUALSTYLE
  5
1B9
102
{ACAD_REACTORS
330
17A
102
}
330
17A
100
AcDbVisualStyle
  2
FlatWithEdges
 70
     1
 71
     2
 72
     1
 73
     1
 90
        2
 40
-0.6
 41
30.0
 62
     5
 63
     7
 74
     1
 91
        4
 64
     7
 65
   257
 75
     1
175
     1
 42
1.0
 92
        0
 66
   257
 43
1.0
 76
     1
 77
     6
 78
     2
 67
     7
 79
     5
170
     0
171
     0
290
     0
174
     0
 93
       13
 44
0.0
173
     0
291
     1
 45
0.0
1001
ACAD
1000
AcDbSavedByObjectVersion
1070
     0
1000
AcDbSavedByObjectVersion
1070
     0
1001
ACAD
1000
AcRTDxfName
1000
VISUALSTYLE
  0
VISUALSTYLE
  5
1BA
102
{ACAD_REACTORS
330
17A
102
}
330
17A
100
AcDbVisualStyle
  2
Gouraud
 70
     2
 71
     2
 72
     2
 73
     1
 90
        2
 40
-0.6
 41
30.0
 62
     5
 63
     7
 74
     0
 91
        4
 64
     7
 65
   257
 75
     1
175
     1
 42
1.0
 92
        0
 66
     7
 43
1.0
 76
     1
 77
     6
 78
     2
 67
     7
 79
     5
170
     0
171
     0
290
     0
174
     0
 93
       13
 44
0.0
173
     0
291
     1
 45
0.0
1001
ACAD
1000
AcDbSavedByObjectVersion
1070
     0
1000
AcDbSavedByObjectVersion
1070
     0
1001
ACAD
1000
AcRTDxfName
1000
VISUALSTYLE
  0
VISUALSTYLE
  5
1BB
102
{ACAD_REACTORS
330
17A
102
}
330
17A
100
AcDbVisualStyle
  2
GouraudWithEdges
 70
     3
 71
     2
 72
     2
 73
     1
 90
        2
 40
-0.6
 41
30.0
 62
     5
 63
     7
 74
     1
 91
        4
 64
     7
 65
   257
 75
     1
175
     1
 42
1.0
 92
        0
 66
   257
 43
1.0
 76
     1
 77
     6
 78
     2
 67
     7
 79
     5
170
     0
171
     0
290
     0
174
     0
 93
       13
 44
0.0
173
     0
291
     1
 45
0.0
1001
ACAD
1000
AcDbSavedByObjectVersion
1070
     0
1000
AcDbSavedByObjectVersion
1070
     0
1001
ACAD
1000
AcRTDxfName
1000
VISUALSTYLE
  0
VISUALSTYLE
  5
1C2
102
{ACAD_REACTORS
330
17A
102
}
330
17A
100
AcDbVisualStyle
  2
Linepattern
 70
    14
 71
     2
 72
     2
 73
     0
 90
        0
 40
-0.6
 41
-30.0
 62
     5
 63
     7
 74
     1
 91
        4
 64
     7
 65
   257
 75
     7
175
     7
 42
1.0
 92
        8
 66
     7
 43
1.0
 76
     1
 77
     6
 78
     2
 67
     7
 79
     5
170
     0
171
     0
290
     0
174
     0
 93
        1
 44
0.0
173
     0
291
     1
 45
0.0
1001
ACAD
1000
AcDbSavedByObjectVersion
1070
     0
1000
AcDbSavedByObjectVersion
1070
     0
1001
ACAD
1000
AcRTDxfName
1000
VISUALSTYLE
  0
VISUALSTYLE
  5
188
102
{ACAD_REACTORS
330
17A
102
}
330
17A
100
AcDbVisualStyle
  2
Realistic
 70
     8
 71
     2
 72
     2
 73
     0
 90
        0
 40
-0.6
 41
-30.0
 62
     5
 63
     7
 74
     1
 91
        0
 64
     7
 65
   257
 75
     1
175
     1
 42
1.0
 92
        8
 66
     8
 43
1.0
 76
     1
 77
     6
 78
     2
 67
     7
 79
     5
170
     0
171
     0
290
     0
174
     0
 93
       13
 44
0.0
173
     0
291
     0
 45
0.0
1001
ACAD
1000
AcDbSavedByObjectVersion
1070
     0
1000
AcDbSavedByObjectVersion
1070
     0
1000
AcDbSavedByObjectVersion
1070
     0
1001
ACAD
1000
AcRTDxfName
1000
VISUALSTYLE
  0
VISUALSTYLE
  5
1C1
102
{ACAD_REACTORS
330
17A
102
}
330
17A
100
AcDbVisualStyle
  2
Thicken
 70
    13
 71
     2
 72
     2
 73
     0
 90
        0
 40
-0.6
 41
-30.0
 62
     5
 63
     7
 74
     1
 91
        4
 64
     7
 65
   257
 75
     1
175
     1
 42
1.0
 92
       12
 66
     7
 43
1.0
 76
     1
 77
     6
 78
     2
 67
     7
 79
     5
170
     0
171
     0
290
     0
174
     0
 93
        1
 44
0.0
173
     0
291
     1
 45
0.0
1001
ACAD
1000
AcDbSavedByObjectVersion
1070
     0
1000
AcDbSavedByObjectVersion
1070
     0
1001
ACAD
1000
AcRTDxfName
1000
VISUALSTYLE
  0
DICTIONARYVAR
  5
18C
102
{ACAD_REACTORS
330
18B
102
}
330
18B
100
DictionaryVariables
280
     0
  1
STANDARD
  0
DICTIONARYVAR
  5
190
102
{ACAD_REACTORS
330
18B
102
}
330
18B
100
DictionaryVariables
280
     0
  1
2
  0
DICTIONARYVAR
  5
18F
102
{ACAD_REACTORS
330
18B
102
}
330
18B
100
DictionaryVariables
280
     0
  1
1
  0
DICTIONARYVAR
  5
18E
102
{ACAD_REACTORS
330
18B
102
}
330
18B
100
DictionaryVariables
280
     0
  1
0
  0
DICTIONARYVAR
  5
2F9
102
{ACAD_REACTORS
330
18B
102
}
330
18B
100
DictionaryVariables
280
     0
  1

  0
DICTIONARYVAR
  5
18D
102
{ACAD_REACTORS
330
18B
102
}
330
18B
100
DictionaryVariables
280
     0
  1
127
  0
DICTIONARY
  5
115E
330
168
100
AcDbDictionary
280
     1
281
     1
  3
ACAD_XREC_ROUNDTRIP
360
115F
  0
DICTIONARY
  5
1160
330
16C
100
AcDbDictionary
280
     1
281
     1
  3
ACAD_XREC_ROUNDTRIP
360
1161
  0
DICTIONARY
  5
115C
330
163
100
AcDbDictionary
280
     1
281
     1
  3
ACAD_XREC_ROUNDTRIP
360
115D
  0
DICTIONARY
  5
1B0
330
183
100
AcDbDictionary
280
     1
281
     1
  3
ACAD_XREC_ROUNDTRIP
360
1B1
  0
DICTIONARY
  5
1AE
330
182
100
AcDbDictionary
280
     1
281
     1
  3
ACAD_XREC_ROUNDTRIP
360
1AF
  0
DICTIONARY
  5
193
330
A
100
AcDbDictionary
280
     1
281
     1
  3
ACAD_XREC_ROUNDTRIP
360
194
  0
DICTIONARY
  5
21A
330
187
100
AcDbDictionary
280
     1
281
     1
  3
ACAD_XREC_ROUNDTRIP
360
21B
  0
XRECORD
  5
115F
102
{ACAD_REACTORS
330
115E
102
}
330
115E
100
AcDbXrecord
280
     1
102
SHADEPLOT
 70
     0
102
SHADEPLOTRESLEVEL
 70
     2
102
SHADEPLOTCUSTOMDPI
 70
   300
  0
XRECORD
  5
1161
102
{ACAD_REACTORS
330
1160
102
}
330
1160
100
AcDbXrecord
280
     1
102
SHADEPLOT
 70
     0
102
SHADEPLOTRESLEVEL
 70
     2
102
SHADEPLOTCUSTOMDPI
 70
   300
  0
XRECORD
  5
115D
102
{ACAD_REACTORS
330
115C
102
}
330
115C
100
AcDbXrecord
280
     1
102
SHADEPLOT
 70
     0
102
SHADEPLOTRESLEVEL
 70
     2
102
SHADEPLOTCUSTOMDPI
 70
   300
  0
XRECORD
  5
1B1
102
{ACAD_REACTORS
330
1B0
102
}
330
1B0
100
AcDbXrecord
280
     1
102
MATERIAL
148
0.0
149
0.0
149
0.0
 93
        0
 94
       63
282
     0
 72
     1
 77
     1
171
     1
175
     1
179
     1
273
     0
  0
XRECORD
  5
1AF
102
{ACAD_REACTORS
330
1AE
102
}
330
1AE
100
AcDbXrecord
280
     1
102
MATERIAL
148
0.0
149
0.0
149
0.0
 93
        0
 94
       63
282
     0
 72
     1
 77
     1
171
     1
175
     1
179
     1
273
     0
  0
XRECORD
  5
194
102
{ACAD_REACTORS
330
193
102
}
330
193
100
AcDbXrecord
280
     1
102
MATERIAL
148
0.0
149
0.0
149
0.0
 93
        0
 94
       63
282
     0
 72
     1
 77
     1
171
     1
175
     1
179
     1
273
     0
  0
XRECORD
  5
21B
102
{ACAD_REACTORS
330
21A
102
}
330
21A
100
AcDbXrecord
280
     1
102
ACAD_ROUNDTRIP_PRE2007_TABLESTYLE
 90
        4
 91
        0
  1

 92
        4
 93
        0
  2

 94
        4
 95
        0
  3

  0
ENDSEC
  0
EOF
