  0
SECTION
  2
HEADER
  9
$ACADVER
  1
AC1015
  9
$ACADMAINTVER
 70
    20
  9
$DWGCODEPAGE
  3
ANSI_1252
  9
$INSBASE
 10
0.0
 20
0.0
 30
0.0
  9
$EXTMIN
 10
0.0149993919942055
 20
-0.0504455555351982
 30
-0.0015258207003583
  9
$EXTMAX
 10
1.241348269210835
 20
0.7095947279706536
 30
0.0000000349246037
  9
$LIMMIN
 10
0.0
 20
0.0
  9
$LIMMAX
 10
1.0
 20
0.5
  9
$ORTHOMODE
 70
     0
  9
$REGENMODE
 70
     1
  9
$FILLMODE
 70
     1
  9
$QTEXTMODE
 70
     0
  9
$MIRRTEXT
 70
     0
  9
$LTSCALE
 40
1.0
  9
$ATTMODE
 70
     1
  9
$TEXTSIZE
 40
0.008
  9
$TRACEWID
 40
1.0
  9
$TEXTSTYLE
  7
style1
  9
$CLAYER
  8
Text
  9
$CELTYPE
  6
ACAD_ISO10W100
  9
$CECOLOR
 62
   256
  9
$CELTSCALE
 40
1.0
  9
$DISPSILH
 70
     0
  9
$DIMSCALE
 40
0.001
  9
$DIMASZ
 40
1.5
  9
$DIMEXO
 40
0.0625
  9
$DIMDLI
 40
0.38
  9
$DIMRND
 40
0.0
  9
$DIMDLE
 40
0.0
  9
$DIMEXE
 40
0.18
  9
$DIMTP
 40
0.0
  9
$DIMTM
 40
0.0
  9
$DIMTXT
 40
3.0
  9
$DIMCEN
 40
0.0
  9
$DIMTSZ
 40
0.0
  9
$DIMTOL
 70
     0
  9
$DIMLIM
 70
     0
  9
$DIMTIH
 70
     1
  9
$DIMTOH
 70
     1
  9
$DIMSE1
 70
     0
  9
$DIMSE2
 70
     0
  9
$DIMTAD
 70
     0
  9
$DIMZIN
 70
     0
  9
$DIMBLK
  1
ArchTick
  9
$DIMASO
 70
     1
  9
$DIMSHO
 70
     1
  9
$DIMPOST
  1

  9
$DIMAPOST
  1

  9
$DIMALT
 70
     0
  9
$DIMALTD
 70
     2
  9
$DIMALTF
 40
25.4
  9
$DIMLFAC
 40
1.0
  9
$DIMTOFL
 70
     0
  9
$DIMTVP
 40
0.0
  9
$DIMTIX
 70
     0
  9
$DIMSOXD
 70
     0
  9
$DIMSAH
 70
     0
  9
$DIMBLK1
  1

  9
$DIMBLK2
  1

  9
$DIMSTYLE
  2
Bovelacci
  9
$DIMCLRD
 70
     5
  9
$DIMCLRE
 70
     5
  9
$DIMCLRT
 70
     4
  9
$DIMTFAC
 40
1.0
  9
$DIMGAP
 40
2.0
  9
$DIMJUST
 70
     0
  9
$DIMSD1
 70
     0
  9
$DIMSD2
 70
     0
  9
$DIMTOLJ
 70
     1
  9
$DIMTZIN
 70
     0
  9
$DIMALTZ
 70
     0
  9
$DIMALTTZ
 70
     0
  9
$DIMUPT
 70
     0
  9
$DIMDEC
 70
     2
  9
$DIMTDEC
 70
     2
  9
$DIMALTU
 70
     2
  9
$DIMALTTD
 70
     2
  9
$DIMTXSTY
  7
ROMANS
  9
$DIMAUNIT
 70
     0
  9
$DIMADEC
 70
     0
  9
$DIMALTRND
 40
0.0
  9
$DIMAZIN
 70
     0
  9
$DIMDSEP
 70
    46
  9
$DIMATFIT
 70
     3
  9
$DIMFRAC
 70
     0
  9
$DIMLDRBLK
  1

  9
$DIMLUNIT
 70
     2
  9
$DIMLWD
 70
    -2
  9
$DIMLWE
 70
    -2
  9
$DIMTMOVE
 70
     2
  9
$LUNITS
 70
     2
  9
$LUPREC
 70
     2
  9
$SKETCHINC
 40
1.0
  9
$FILLETRAD
 40
0.0
  9
$AUNITS
 70
     0
  9
$AUPREC
 70
     0
  9
$MENU
  1
.
  9
$ELEVATION
 40
0.0
  9
$PELEVATION
 40
0.0
  9
$THICKNESS
 40
0.0
  9
$LIMCHECK
 70
     0
  9
$CHAMFERA
 40
0.0
  9
$CHAMFERB
 40
0.0
  9
$CHAMFERC
 40
0.0
  9
$CHAMFERD
 40
0.0
  9
$SKPOLY
 70
     0
  9
$TDCREATE
 40
2454297.625402373
  9
$TDUCREATE
 40
2454297.542069039
  9
$TDUPDATE
 40
2454311.601043114
  9
$TDUUPDATE
 40
2454311.517709780
  9
$TDINDWG
 40
0.1785946644
  9
$TDUSRTIMER
 40
0.1785926620
  9
$USRTIMER
 70
     1
  9
$ANGBASE
 50
0.0
  9
$ANGDIR
 70
     0
  9
$PDMODE
 70
     0
  9
$PDSIZE
 40
0.0
  9
$PLINEWID
 40
0.0
  9
$SPLFRAME
 70
     0
  9
$SPLINETYPE
 70
     6
  9
$SPLINESEGS
 70
     8
  9
$HANDSEED
  5
236D
  9
$SURFTAB1
 70
     6
  9
$SURFTAB2
 70
     6
  9
$SURFTYPE
 70
     6
  9
$SURFU
 70
     6
  9
$SURFV
 70
     6
  9
$UCSBASE
  2

  9
$UCSNAME
  2

  9
$UCSORG
 10
0.0
 20
0.0
 30
0.0
  9
$UCSXDIR
 10
1.0
 20
0.0
 30
0.0
  9
$UCSYDIR
 10
0.0
 20
1.0
 30
0.0
  9
$UCSORTHOREF
  2

  9
$UCSORTHOVIEW
 70
     0
  9
$UCSORGTOP
 10
0.0
 20
0.0
 30
0.0
  9
$UCSORGBOTTOM
 10
0.0
 20
0.0
 30
0.0
  9
$UCSORGLEFT
 10
0.0
 20
0.0
 30
0.0
  9
$UCSORGRIGHT
 10
0.0
 20
0.0
 30
0.0
  9
$UCSORGFRONT
 10
0.0
 20
0.0
 30
0.0
  9
$UCSORGBACK
 10
0.0
 20
0.0
 30
0.0
  9
$PUCSBASE
  2

  9
$PUCSNAME
  2

  9
$PUCSORG
 10
0.0
 20
0.0
 30
0.0
  9
$PUCSXDIR
 10
1.0
 20
0.0
 30
0.0
  9
$PUCSYDIR
 10
0.0
 20
1.0
 30
0.0
  9
$PUCSORTHOREF
  2

  9
$PUCSORTHOVIEW
 70
     0
  9
$PUCSORGTOP
 10
0.0
 20
0.0
 30
0.0
  9
$PUCSORGBOTTOM
 10
0.0
 20
0.0
 30
0.0
  9
$PUCSORGLEFT
 10
0.0
 20
0.0
 30
0.0
  9
$PUCSORGRIGHT
 10
0.0
 20
0.0
 30
0.0
  9
$PUCSORGFRONT
 10
0.0
 20
0.0
 30
0.0
  9
$PUCSORGBACK
 10
0.0
 20
0.0
 30
0.0
  9
$USERI1
 70
     0
  9
$USERI2
 70
     0
  9
$USERI3
 70
     0
  9
$USERI4
 70
     0
  9
$USERI5
 70
     0
  9
$USERR1
 40
0.0
  9
$USERR2
 40
0.0
  9
$USERR3
 40
0.0
  9
$USERR4
 40
0.0
  9
$USERR5
 40
0.0
  9
$WORLDVIEW
 70
     1
  9
$SHADEDGE
 70
     3
  9
$SHADEDIF
 70
    70
  9
$TILEMODE
 70
     1
  9
$MAXACTVP
 70
    64
  9
$PINSBASE
 10
0.0
 20
0.0
 30
0.0
  9
$PLIMCHECK
 70
     0
  9
$PEXTMIN
 10
1.000000000000000E+20
 20
1.000000000000000E+20
 30
1.000000000000000E+20
  9
$PEXTMAX
 10
-1.000000000000000E+20
 20
-1.000000000000000E+20
 30
-1.000000000000000E+20
  9
$PLIMMIN
 10
0.0
 20
0.0
  9
$PLIMMAX
 10
420.0
 20
297.0
  9
$UNITMODE
 70
     0
  9
$VISRETAIN
 70
     1
  9
$PLINEGEN
 70
     0
  9
$PSLTSCALE
 70
     1
  9
$TREEDEPTH
 70
  3020
  9
$CMLSTYLE
  2
Standard
  9
$CMLJUST
 70
     0
  9
$CMLSCALE
 40
20.0
  9
$PROXYGRAPHICS
 70
     1
  9
$MEASUREMENT
 70
     1
  9
$CELWEIGHT
370
    -1
  9
$ENDCAPS
280
     0
  9
$JOINSTYLE
280
     0
  9
$LWDISPLAY
290
     0
  9
$INSUNITS
 70
     4
  9
$HYPERLINKBASE
  1

  9
$STYLESHEET
  1

  9
$XEDIT
290
     1
  9
$CEPSNTYPE
380
     0
  9
$PSTYLEMODE
290
     1
  9
$FINGERPRINTGUID
  2
{904A8C64-524F-4709-A9C6-320D2C273A6D}
  9
$VERSIONGUID
  2
{69907931-DC25-46E4-833E-9862BEB0F6B0}
  9
$EXTNAMES
290
     1
  9
$PSVPSCALE
 40
0.0
  9
$OLESTARTUP
290
     0
  0
ENDSEC
  0
SECTION
  2
CLASSES
  0
CLASS
  1
ACDBDICTIONARYWDFLT
  2
AcDbDictionaryWithDefault
  3
ObjectDBX Classes
 90
        0
280
     0
281
     0
  0
CLASS
  1
TABLESTYLE
  2
AcDbTableStyle
  3
ObjectDBX Classes
 90
     2047
280
     0
281
     0
  0
CLASS
  1
SORTENTSTABLE
  2
AcDbSortentsTable
  3
ObjectDBX Classes
 90
        0
280
     0
281
     0
  0
CLASS
  1
DICTIONARYVAR
  2
AcDbDictionaryVar
  3
ObjectDBX Classes
 90
        0
280
     0
281
     0
  0
CLASS
  1
ACDBPLACEHOLDER
  2
AcDbPlaceHolder
  3
ObjectDBX Classes
 90
        0
280
     0
281
     0
  0
CLASS
  1
LAYOUT
  2
AcDbLayout
  3
ObjectDBX Classes
 90
        0
280
     0
281
     0
  0
CLASS
  1
DIMASSOC
  2
AcDbDimAssoc
  3
"AcDbDimAssoc|Product Desc:     AcDim ARX App For Dimension|Company:          Autodesk, Inc.|WEB Address:      www.autodesk.com"
 90
        0
280
     0
281
     0
  0
CLASS
  1
MATERIAL
  2
AcDbMaterial
  3
ObjectDBX Classes
 90
        0
280
     0
281
     0
  0
CLASS
  1
VISUALSTYLE
  2
AcDbVisualStyle
  3
ObjectDBX Classes
 90
     4095
280
     0
281
     0
  0
ENDSEC
  0
SECTION
  2
TABLES
  0
TABLE
  2
VPORT
  5
177
330
0
100
AcDbSymbolTable
 70
     7
  0
VPORT
  5
2362
330
177
100
AcDbSymbolTableRecord
100
AcDbViewportTableRecord
  2
*Active
 70
     0
 10
0.0
 20
0.0
 11
1.0
 21
1.0
 12
0.2122033123779703
 22
0.1500513461928082
 13
0.0
 23
0.0
 14
10.0
 24
10.0
 15
10.0
 25
10.0
 16
0.0
 26
0.0
 36
1.0
 17
0.0
 27
0.0
 37
0.0
 40
0.2757877118844009
 41
1.546526867627784
 42
50.0
 43
0.0
 44
0.0
 50
0.0
 51
0.0
 71
     0
 72
  1000
 73
     1
 74
     3
 75
     0
 76
     0
 77
     0
 78
     0
281
     0
 65
     1
110
0.0
120
0.0
130
0.0
111
1.0
121
0.0
131
0.0
112
0.0
122
1.0
132
0.0
 79
     0
146
0.0
  0
ENDTAB
  0
TABLE
  2
LTYPE
  5
172
330
0
100
AcDbSymbolTable
 70
     2
  0
LTYPE
  5
173
330
172
100
AcDbSymbolTableRecord
100
AcDbLinetypeTableRecord
  2
ByBlock
 70
     0
  3

 72
    65
 73
     0
 40
0.0
  0
LTYPE
  5
174
330
172
100
AcDbSymbolTableRecord
100
AcDbLinetypeTableRecord
  2
ByLayer
 70
     0
  3

 72
    65
 73
     0
 40
0.0
  0
LTYPE
  5
C
330
172
100
AcDbSymbolTableRecord
100
AcDbLinetypeTableRecord
  2
Continuous
 70
     0
  3
Solid line
 72
    65
 73
     0
 40
0.0
  0
LTYPE
  5
14E
330
172
100
AcDbSymbolTableRecord
100
AcDbLinetypeTableRecord
  2
ACAD_ISO10W100
 70
     0
  3
ISO dash dot __ . __ . __ . __ . __ . __ . __ .
 72
    65
 73
     4
 40
18.0
 49
12.0
 74
     0
 49
-3.0
 74
     0
 49
0.0
 74
     0
 49
-3.0
 74
     0
  0
ENDTAB
  0
TABLE
  2
LAYER
  5
16D
102
{ACAD_XDICTIONARY
360
16E
102
}
330
0
100
AcDbSymbolTable
 70
     8
  0
LAYER
  5
6
330
16D
100
AcDbSymbolTableRecord
100
AcDbLayerTableRecord
  2
0
 70
     0
 62
     7
  6
Continuous
370
    -3
390
7
  0
LAYER
  5
15F
330
16D
100
AcDbSymbolTableRecord
100
AcDbLayerTableRecord
  2
Defpoints
 70
     0
 62
     7
  6
Continuous
290
     0
370
    -3
390
7
  0
LAYER
  5
28
330
16D
100
AcDbSymbolTableRecord
100
AcDbLayerTableRecord
  2
Profilo
 70
     0
 62
     1
  6
Continuous
370
    -3
390
7
1001
AcAecLayerStandard
1000

1000

  0
LAYER
  5
14D
330
16D
100
AcDbSymbolTableRecord
100
AcDbLayerTableRecord
  2
Sezione
 70
     0
 62
     2
  6
Continuous
370
    -3
390
7
1001
AcAecLayerStandard
1000

1000

  0
LAYER
  5
E
330
16D
100
AcDbSymbolTableRecord
100
AcDbLayerTableRecord
  2
Table
 70
     0
 62
     3
  6
Continuous
370
    -3
390
7
1001
AcAecLayerStandard
1000

1000

  0
LAYER
  5
19
330
16D
100
AcDbSymbolTableRecord
100
AcDbLayerTableRecord
  2
Text
 70
     0
 62
     4
  6
Continuous
370
    -3
390
7
1001
AcAecLayerStandard
1000

1000

  0
LAYER
  5
23D
330
16D
100
AcDbSymbolTableRecord
100
AcDbLayerTableRecord
  2
Bovelacci
 70
     0
 62
     9
  6
Continuous
370
    -3
390
7
1001
AcAecLayerStandard
1000

1000

  0
LAYER
  5
1826
330
16D
100
AcDbSymbolTableRecord
100
AcDbLayerTableRecord
  2
Layer1
 70
     0
 62
     7
  6
Continuous
370
    -3
390
7
1001
AcAecLayerStandard
1000

1000

  0
ENDTAB
  0
TABLE
  2
STYLE
  5
170
330
0
100
AcDbSymbolTable
 70
     3
  0
STYLE
  5
1A
330
170
100
AcDbSymbolTableRecord
100
AcDbTextStyleTableRecord
  2
Standard
 70
     0
 40
0.0
 41
1.0
 50
0.0
 71
     0
 42
2.5
  3
txt
  4

  0
STYLE
  5
20
330
170
100
AcDbSymbolTableRecord
100
AcDbTextStyleTableRecord
  2
ROMANS
 70
     0
 40
0.0
 41
1.0
 50
0.0
 71
     0
 42
2.5
  3
romans
  4

  0
STYLE
  5
26
330
170
100
AcDbSymbolTableRecord
100
AcDbTextStyleTableRecord
  2
style1
 70
     0
 40
0.0
 41
1.0
 50
0.0
 71
     0
 42
0.008
  3
TIMES.TTF
  4

1001
ACAD
1000
Times New Roman
1071
       18
  0
ENDTAB
  0
TABLE
  2
VIEW
  5
175
330
0
100
AcDbSymbolTable
 70
     2
  0
ENDTAB
  0
TABLE
  2
UCS
  5
176
330
0
100
AcDbSymbolTable
 70
     0
  0
ENDTAB
  0
TABLE
  2
APPID
  5
17B
330
0
100
AcDbSymbolTable
 70
    10
  0
APPID
  5
1B
330
17B
100
AcDbSymbolTableRecord
100
AcDbRegAppTableRecord
  2
ACAD
 70
     0
  0
APPID
  5
157
330
17B
100
AcDbSymbolTableRecord
100
AcDbRegAppTableRecord
  2
ACAD_DSTYLE_DIMJOGGED_JOGANGLE_SYMBOL
 70
     0
  0
APPID
  5
F
330
17B
100
AcDbSymbolTableRecord
100
AcDbRegAppTableRecord
  2
AcAecLayerStandard
 70
     0
  0
APPID
  5
19C
330
17B
100
AcDbSymbolTableRecord
100
AcDbRegAppTableRecord
  2
ACAD_DSTYLE_DIMFLIPARROW_WHICH_SYMBOL
 70
     0
  0
APPID
  5
1A7
330
17B
100
AcDbSymbolTableRecord
100
AcDbRegAppTableRecord
  2
ACAD_DSTYLE_DIMEXT_LENGTH
 70
     0
  0
APPID
  5
1D2
330
17B
100
AcDbSymbolTableRecord
100
AcDbRegAppTableRecord
  2
ACAD_EXEMPT_FROM_CAD_STANDARDS
 70
     0
  0
APPID
  5
1D3
330
17B
100
AcDbSymbolTableRecord
100
AcDbRegAppTableRecord
  2
ACAD_DSTYLE_DIM_LINETYPE
 70
     0
  0
APPID
  5
1D4
330
17B
100
AcDbSymbolTableRecord
100
AcDbRegAppTableRecord
  2
ACAD_DSTYLE_DIM_EXT1_LINETYPE
 70
     0
  0
APPID
  5
1D5
330
17B
100
AcDbSymbolTableRecord
100
AcDbRegAppTableRecord
  2
ACAD_DSTYLE_DIM_EXT2_LINETYPE
 70
     0
  0
APPID
  5
243
330
17B
100
AcDbSymbolTableRecord
100
AcDbRegAppTableRecord
  2
ACAD_PSEXT
 70
     0
  0
ENDTAB
  0
TABLE
  2
DIMSTYLE
  5
17C
330
0
100
AcDbSymbolTable
 70
     7
100
AcDbDimStyleTable
 71
     2
340
156
340
17D
  0
DIMSTYLE
105
17D
330
17C
100
AcDbSymbolTableRecord
100
AcDbDimStyleTableRecord
  2
ISO-25
 70
     0
 41
2.5
 42
0.625
 43
3.75
 44
1.25
 73
     0
 74
     0
 77
     1
 78
     8
140
2.5
141
2.5
143
0.03937007874016
147
0.625
171
     3
172
     1
271
     2
272
     2
274
     3
278
    44
283
     0
284
     8
340
1A
  0
DIMSTYLE
105
156
102
{ACAD_REACTORS
330
2343
102
}
330
17C
100
AcDbSymbolTableRecord
100
AcDbDimStyleTableRecord
  2
Bovelacci
 70
     0
 40
0.001
 41
1.5
140
3.0
141
0.0
147
2.0
176
     5
177
     5
178
     4
271
     2
272
     2
279
     2
340
20
342
152
1001
ACAD_DSTYLE_DIMJOGGED_JOGANGLE_SYMBOL
1070
   384
1040
0.7853981633974483
1001
ACAD_DSTYLE_DIMEXT_LENGTH
1070
   378
1040
0.18
  0
DIMSTYLE
105
23E
330
17C
100
AcDbSymbolTableRecord
100
AcDbDimStyleTableRecord
  2
Dim 1-100
 70
     0
 40
0.1
 41
1.5
 42
0.0
 43
5.0
 44
1.25
 45
0.005
 46
1.25
 73
     0
 74
     0
 77
     1
 78
     9
140
2.0
141
2.5
147
1.0
172
     1
174
     1
179
     2
279
     2
289
     2
340
20
342
152
  0
DIMSTYLE
105
23F
330
17C
100
AcDbSymbolTableRecord
100
AcDbDimStyleTableRecord
  2
Standard
 70
     0
 42
0.0
 73
     0
 74
     0
 77
     1
271
     2
272
     2
340
20
  0
DIMSTYLE
105
240
330
17C
100
AcDbSymbolTableRecord
100
AcDbDimStyleTableRecord
  2
Dim 1-50
 70
     0
 40
0.05
 41
1.5
 42
0.0
 43
5.0
 44
1.25
 45
0.005
 46
1.25
 73
     0
 74
     0
 77
     1
 78
     9
140
2.0
141
2.5
147
1.0
172
     1
174
     1
179
     2
279
     2
289
     2
340
20
342
152
  0
DIMSTYLE
105
241
330
17C
100
AcDbSymbolTableRecord
100
AcDbDimStyleTableRecord
  2
Dim 1-200
 70
     0
 40
0.2
 41
1.5
 42
0.0
 43
5.0
 44
1.25
 45
0.005
 46
1.25
 73
     0
 74
     0
 77
     1
 78
     9
140
2.0
141
2.5
147
1.0
172
     1
174
     1
179
     2
271
     2
272
     2
279
     2
289
     2
340
20
342
152
  0
DIMSTYLE
105
242
330
17C
100
AcDbSymbolTableRecord
100
AcDbDimStyleTableRecord
  2
AEC Scale - Italiano
 70
     0
 41
1.0
 42
10.0
 43
10.0
 44
10.0
 73
     0
 74
     0
 75
     1
 76
     1
 77
     1
140
10.0
141
1.0
147
10.0
173
     1
271
     0
272
     0
279
     2
340
1A
343
238
344
232
  0
ENDTAB
  0
TABLE
  2
BLOCK_RECORD
  5
1
330
0
100
AcDbSymbolTable
 70
    12
  0
BLOCK_RECORD
  5
2
102
{ACAD_XDICTIONARY
360
3
102
}
330
1
100
AcDbSymbolTableRecord
100
AcDbBlockTableRecord
  2
*Model_Space
340
163
  0
BLOCK_RECORD
  5
165
330
1
100
AcDbSymbolTableRecord
100
AcDbBlockTableRecord
  2
*Paper_Space
340
168
  0
BLOCK_RECORD
  5
169
330
1
100
AcDbSymbolTableRecord
100
AcDbBlockTableRecord
  2
*Paper_Space0
340
16C
  0
BLOCK_RECORD
  5
152
330
1
100
AcDbSymbolTableRecord
100
AcDbBlockTableRecord
  2
_ArchTick
340
0
310
2800000020000000200000000100080000000000000400000000000000000000000000000000000000000000000080000080000000808000800000008000800080800000C0C0C000C0DCC000F0CAA6000020400000206000002080000020A0000020C0000020E00000400000004020000040400000406000004080000040A0
310
000040C0000040E00000600000006020000060400000606000006080000060A0000060C0000060E00000800000008020000080400000806000008080000080A0000080C0000080E00000A0000000A0200000A0400000A0600000A0800000A0A00000A0C00000A0E00000C0000000C0200000C0400000C0600000C0800000C0
310
A00000C0C00000C0E00000E0000000E0200000E0400000E0600000E0800000E0A00000E0C00000E0E00040000000400020004000400040006000400080004000A0004000C0004000E00040200000402020004020400040206000402080004020A0004020C0004020E000404000004040200040404000404060004040800040
310
40A0004040C0004040E00040600000406020004060400040606000406080004060A0004060C0004060E00040800000408020004080400040806000408080004080A0004080C0004080E00040A0000040A0200040A0400040A0600040A0800040A0A00040A0C00040A0E00040C0000040C0200040C0400040C0600040C08000
310
40C0A00040C0C00040C0E00040E0000040E0200040E0400040E0600040E0800040E0A00040E0C00040E0E00080000000800020008000400080006000800080008000A0008000C0008000E00080200000802020008020400080206000802080008020A0008020C0008020E00080400000804020008040400080406000804080
310
008040A0008040C0008040E00080600000806020008060400080606000806080008060A0008060C0008060E00080800000808020008080400080806000808080008080A0008080C0008080E00080A0000080A0200080A0400080A0600080A0800080A0A00080A0C00080A0E00080C0000080C0200080C0400080C0600080C0
310
800080C0A00080C0C00080C0E00080E0000080E0200080E0400080E0600080E0800080E0A00080E0C00080E0E000C0000000C0002000C0004000C0006000C0008000C000A000C000C000C000E000C0200000C0202000C0204000C0206000C0208000C020A000C020C000C020E000C0400000C0402000C0404000C0406000C0
310
408000C040A000C040C000C040E000C0600000C0602000C0604000C0606000C0608000C060A000C060C000C060E000C0800000C0802000C0804000C0806000C0808000C080A000C080C000C080E000C0A00000C0A02000C0A04000C0A06000C0A08000C0A0A000C0A0C000C0A0E000C0C00000C0C02000C0C04000C0C06000
310
C0C08000C0C0A000F0FBFF00A4A0A000808080000000FF0000FF000000FFFF00FF000000FF00FF00FFFF0000FFFFFF00000000FF000000000000000000000000000000000000000000000000000000000000FF00FF00000000000000000000000000000000000000000000000000000000FF000000FF000000000000000000
310
0000000000000000000000000000000000FF0000000000FF0000000000000000000000000000000000000000000000000000FF0000000000FF0000000000000000000000000000000000000000000000000000FF0000000000FF0000000000000000000000000000000000000000000000000000FF0000000000FF00000000
310
00000000000000000000000000000000000000000000FF0000000000FF0000000000000000000000000000000000000000000000000000FF0000000000FF0000000000000000000000000000000000000000000000000000FF0000000000FF0000000000000000000000000000000000000000000000000000FF0000000000
310
FF0000000000000000000000000000000000000000000000000000FF0000000000FF0000000000000000000000000000000000000000000000000000FF0000000000FF0000000000000000000000000000000000000000000000000000FF0000000000FF0000000000000000000000000000000000000000000000000000FF
310
0000000000FF0000000000000000000000000000000000000000000000000000FF0000000000FF0000000000000000000000000000000000000000000000000000FF0000000000FF0000000000000000000000000000000000000000000000000000FF0000000000FF00000000000000000000000000000000000000000000
310
00000000FF0000000000FF0000000000000000000000000000000000000000000000000000FF0000000000FF0000000000000000000000000000000000000000000000000000FF0000000000FF0000000000000000000000000000000000000000000000000000FF0000000000FF0000000000000000000000000000000000
310
000000000000000000FF0000000000FF0000000000000000000000000000000000000000000000000000FF0000000000FF0000000000000000000000000000000000000000000000000000FF0000000000FF0000000000000000000000000000000000000000000000000000FF0000000000FF000000000000000000000000
310
0000000000000000000000000000FF0000000000FF0000000000000000000000000000000000000000000000000000FF0000000000FF0000000000000000000000000000000000000000000000000000FF0000000000FF0000000000000000000000000000000000000000000000000000FF000000FF000000000000000000
310
00000000000000000000000000000000000000FF00FF000000000000000000000000000000000000000000000000000000000000FF000000
102
{BLKREFS
331
180C
331
1CC2
331
1CD6
331
1DAE
331
235E
102
}
  0
BLOCK_RECORD
  5
232
330
1
100
AcDbSymbolTableRecord
100
AcDbBlockTableRecord
  2
_Arrivo
340
0
310
2800000020000000200000000100080000000000000400000000000000000000000000000000000000000000000080000080000000808000800000008000800080800000C0C0C000C0DCC000F0CAA6000020400000206000002080000020A0000020C0000020E00000400000004020000040400000406000004080000040A0
310
000040C0000040E00000600000006020000060400000606000006080000060A0000060C0000060E00000800000008020000080400000806000008080000080A0000080C0000080E00000A0000000A0200000A0400000A0600000A0800000A0A00000A0C00000A0E00000C0000000C0200000C0400000C0600000C0800000C0
310
A00000C0C00000C0E00000E0000000E0200000E0400000E0600000E0800000E0A00000E0C00000E0E00040000000400020004000400040006000400080004000A0004000C0004000E00040200000402020004020400040206000402080004020A0004020C0004020E000404000004040200040404000404060004040800040
310
40A0004040C0004040E00040600000406020004060400040606000406080004060A0004060C0004060E00040800000408020004080400040806000408080004080A0004080C0004080E00040A0000040A0200040A0400040A0600040A0800040A0A00040A0C00040A0E00040C0000040C0200040C0400040C0600040C08000
310
40C0A00040C0C00040C0E00040E0000040E0200040E0400040E0600040E0800040E0A00040E0C00040E0E00080000000800020008000400080006000800080008000A0008000C0008000E00080200000802020008020400080206000802080008020A0008020C0008020E00080400000804020008040400080406000804080
310
008040A0008040C0008040E00080600000806020008060400080606000806080008060A0008060C0008060E00080800000808020008080400080806000808080008080A0008080C0008080E00080A0000080A0200080A0400080A0600080A0800080A0A00080A0C00080A0E00080C0000080C0200080C0400080C0600080C0
310
800080C0A00080C0C00080C0E00080E0000080E0200080E0400080E0600080E0800080E0A00080E0C00080E0E000C0000000C0002000C0004000C0006000C0008000C000A000C000C000C000E000C0200000C0202000C0204000C0206000C0208000C020A000C020C000C020E000C0400000C0402000C0404000C0406000C0
310
408000C040A000C040C000C040E000C0600000C0602000C0604000C0606000C0608000C060A000C060C000C060E000C0800000C0802000C0804000C0806000C0808000C080A000C080C000C080E000C0A00000C0A02000C0A04000C0A06000C0A08000C0A0A000C0A0C000C0A0E000C0C00000C0C02000C0C04000C0C06000
310
C0C08000C0C0A000F0FBFF00A4A0A000808080000000FF0000FF000000FFFF00FF000000FF00FF00FFFF0000FFFFFF00000000000000000000000000000000000000000000000000000000000000000000000000000000000000FF0000000000000000000000000000000000000000000000000000000000000000FF000000
310
00000000000000000000000000000000000000000000000000000000FF0000000000000000000000000000000000000000000000000000000000000000FF00000000000000000000000000000000000000000000000000000000000000FF0000000000000000000000000000000000000000000000000000000000000000FF
310
0000000000000000000000000000000000000000000000000000000000000000FF00000000000000000000000000000000000000000000000000000000000000FF0000000000000000000000000000000000000000000000000000000000000000FF0000000000000000000000000000000000000000000000000000000000
310
0000FF0000000000000000000000000000000000000000000000000000000000000000FF00000000000000000000000000000000000000000000000000000000000000FF0000000000000000000000000000000000000000000000000000000000000000FF0000FF0000000000000000000000000000000000000000000000
310
000000000000FFFF000000000000000000000000000000000000000000000000000000000000FFFF00000000000000000000000000000000000000000000000000000000FFFFFFFFFFFF00000000000000000000000000000000000000000000000000000000FFFF0000000000000000000000000000000000000000000000
310
000000000000FF0000FF000000000000000000000000000000000000000000000000000000FF00000000000000000000000000000000000000000000000000000000000000FF000000000000000000000000000000000000000000000000000000000000FF0000000000000000000000000000000000000000000000000000
310
0000000000FF000000000000000000000000000000000000000000000000000000000000FF00000000000000000000000000000000000000000000000000000000000000FF000000000000000000000000000000000000000000000000000000000000FF000000000000000000000000000000000000000000000000000000
310
000000FF00000000000000000000000000000000000000000000000000000000000000FF000000000000000000000000000000000000000000000000000000000000FF00000000000000000000000000000000000000000000000000000000000000FF00000000000000000000000000000000000000000000000000000000
310
0000FF0000000000000000000000000000000000000000000000000000000000000000000000000000000000000000000000000000000000
  0
BLOCK_RECORD
  5
238
330
1
100
AcDbSymbolTableRecord
100
AcDbBlockTableRecord
  2
_Partenza
340
0
310
2800000020000000200000000100080000000000000400000000000000000000000000000000000000000000000080000080000000808000800000008000800080800000C0C0C000C0DCC000F0CAA6000020400000206000002080000020A0000020C0000020E00000400000004020000040400000406000004080000040A0
310
000040C0000040E00000600000006020000060400000606000006080000060A0000060C0000060E00000800000008020000080400000806000008080000080A0000080C0000080E00000A0000000A0200000A0400000A0600000A0800000A0A00000A0C00000A0E00000C0000000C0200000C0400000C0600000C0800000C0
310
A00000C0C00000C0E00000E0000000E0200000E0400000E0600000E0800000E0A00000E0C00000E0E00040000000400020004000400040006000400080004000A0004000C0004000E00040200000402020004020400040206000402080004020A0004020C0004020E000404000004040200040404000404060004040800040
310
40A0004040C0004040E00040600000406020004060400040606000406080004060A0004060C0004060E00040800000408020004080400040806000408080004080A0004080C0004080E00040A0000040A0200040A0400040A0600040A0800040A0A00040A0C00040A0E00040C0000040C0200040C0400040C0600040C08000
310
40C0A00040C0C00040C0E00040E0000040E0200040E0400040E0600040E0800040E0A00040E0C00040E0E00080000000800020008000400080006000800080008000A0008000C0008000E00080200000802020008020400080206000802080008020A0008020C0008020E00080400000804020008040400080406000804080
310
008040A0008040C0008040E00080600000806020008060400080606000806080008060A0008060C0008060E00080800000808020008080400080806000808080008080A0008080C0008080E00080A0000080A0200080A0400080A0600080A0800080A0A00080A0C00080A0E00080C0000080C0200080C0400080C0600080C0
310
800080C0A00080C0C00080C0E00080E0000080E0200080E0400080E0600080E0800080E0A00080E0C00080E0E000C0000000C0002000C0004000C0006000C0008000C000A000C000C000C000E000C0200000C0202000C0204000C0206000C0208000C020A000C020C000C020E000C0400000C0402000C0404000C0406000C0
310
408000C040A000C040C000C040E000C0600000C0602000C0604000C0606000C0608000C060A000C060C000C060E000C0800000C0802000C0804000C0806000C0808000C080A000C080C000C080E000C0A00000C0A02000C0A04000C0A06000C0A08000C0A0A000C0A0C000C0A0E000C0C00000C0C02000C0C04000C0C06000
310
C0C08000C0C0A000F0FBFF00A4A0A000808080000000FF0000FF000000FFFF00FF000000FF00FF00FFFF0000FFFFFF0000000000000000000000000000000000000000000000000000000000000000000000000000000000000000000000000000000000000000000000000000000000000000000000000000000000000000
310
000000000000000000000000000000000000000000000000000000000000000000000000000000000000000000000000000000000000000000000000000000000000000000000000000000000000000000000000000000000000000000000000000000000000000000000000000000000000FFFFFFFFFFFFFFFFFFFFFFFFFF
310
FFFFFFFFFFFFFFFFFFFFFFFFFFFFFFFFFF0000000000000000000000000000000000000000000000000000000000000000000000000000000000000000000000000000000000000000000000000000000000000000000000000000000000000000000000000000000000000000000000000000000000000000000000000000
310
00000000000000000000000000000000000000000000000000000000000000000000000000000000000000000000000000000000000000000000000000000000000000000000000000000000000000000000000000000000000000000000000000000000000000000000000000000000000000000000000000000000000000
310
00000000000000000000000000000000000000000000000000000000000000000000000000000000000000000000000000000000000000000000000000000000000000000000000000000000000000000000000000000000000000000000000000000000000000000000000000000000000000000000000000000000000000
310
00000000000000000000000000000000000000000000000000000000000000000000000000000000000000000000000000000000000000000000000000000000000000000000000000000000000000000000000000000000000000000000000000000000000000000000000000000000000000000000000000000000000000
310
000000000000000000000000000000000000000000000000000000000000000000000000000000000000000000000000000000000000000000000000000000000000000000000000000000000000000000000000000000FFFFFFFFFFFFFFFFFFFFFFFFFFFFFFFFFFFFFFFFFFFFFFFFFFFFFFFFFFFF00000000000000000000
310
00000000000000000000000000000000000000000000000000000000000000000000000000000000000000000000000000000000000000000000000000000000000000000000000000000000000000000000000000000000000000000000000000000000000000000000000000000000000000000000000000000000000000
310
0000000000000000000000000000000000000000000000000000000000000000000000000000000000000000000000000000000000000000
  0
BLOCK_RECORD
  5
17F2
330
1
100
AcDbSymbolTableRecord
100
AcDbBlockTableRecord
  2
*D4
340
0
  0
BLOCK_RECORD
  5
1CA8
330
1
100
AcDbSymbolTableRecord
100
AcDbBlockTableRecord
  2
*D6
340
0
  0
BLOCK_RECORD
  5
1CD1
330
1
100
AcDbSymbolTableRecord
100
AcDbBlockTableRecord
  2
*D7
340
0
  0
BLOCK_RECORD
  5
1DA2
330
1
100
AcDbSymbolTableRecord
100
AcDbBlockTableRecord
  2
*D9
340
0
  0
BLOCK_RECORD
  5
2344
330
1
100
AcDbSymbolTableRecord
100
AcDbBlockTableRecord
  2
*D11
340
0
  0
ENDTAB
  0
ENDSEC
  0
SECTION
  2
BLOCKS
  0
BLOCK
  5
5
330
2
100
AcDbEntity
  8
0
100
AcDbBlockBegin
  2
*Model_Space
 70
     0
 10
0.0
 20
0.0
 30
0.0
  3
*Model_Space
  1

  0
ENDBLK
  5
162
330
2
100
AcDbEntity
  8
0
100
AcDbBlockEnd
  0
BLOCK
  5
166
330
165
100
AcDbEntity
 67
     1
  8
0
100
AcDbBlockBegin
  2
*Paper_Space
 70
     0
 10
0.0
 20
0.0
 30
0.0
  3
*Paper_Space
  1

  0
ENDBLK
  5
167
330
165
100
AcDbEntity
 67
     1
  8
0
100
AcDbBlockEnd
  0
BLOCK
  5
16A
330
169
100
AcDbEntity
 67
     1
  8
0
100
AcDbBlockBegin
  2
*Paper_Space0
 70
     0
 10
0.0
 20
0.0
 30
0.0
  3
*Paper_Space0
  1

  0
ENDBLK
  5
16B
330
169
100
AcDbEntity
 67
     1
  8
0
100
AcDbBlockEnd
  0
BLOCK
  5
153
330
152
100
AcDbEntity
  8
0
 62
     1
100
AcDbBlockBegin
  2
_ArchTick
 70
     0
 10
0.0
 20
0.0
 30
0.0
  3
_ArchTick
  1

  0
LWPOLYLINE
  5
154
330
152
100
AcDbEntity
  8
0
  6
ByBlock
 62
     0
100
AcDbPolyline
 90
        2
 70
     0
 43
0.15
 10
-0.5
 20
-0.5
 10
0.5
 20
0.5
  0
ENDBLK
  5
155
330
152
100
AcDbEntity
  8
0
 62
     1
100
AcDbBlockEnd
  0
BLOCK
  5
233
330
232
100
AcDbEntity
  8
0
100
AcDbBlockBegin
  2
_Arrivo
 70
     0
 10
0.0
 20
0.0
 30
0.0
  3
_Arrivo
  1

  0
LINE
  5
234
330
232
100
AcDbEntity
  8
0
  6
ByBlock
 62
     0
370
    -2
100
AcDbLine
 10
0.025
 20
-0.0433012701891858
 30
0.0
 11
-0.15
 21
0.2598076211353328
 31
0.0
  0
LINE
  5
235
330
232
100
AcDbEntity
  8
0
  6
ByBlock
 62
     0
370
    -2
100
AcDbLine
 10
0.025
 20
0.0433012701892585
 30
0.0
 11
-0.15
 21
-0.2598076211353328
 31
0.0
  0
LINE
  5
236
330
232
100
AcDbEntity
  8
0
  6
ByBlock
 62
     0
370
    -2
100
AcDbLine
 10
-0.05
 20
0.0
 30
0.0
 11
0.05
 21
0.0
 31
0.0
  0
ENDBLK
  5
237
330
232
100
AcDbEntity
  8
0
100
AcDbBlockEnd
  0
BLOCK
  5
239
330
238
100
AcDbEntity
  8
0
100
AcDbBlockBegin
  2
_Partenza
 70
     0
 10
0.0
 20
0.0
 30
0.0
  3
_Partenza
  1

  0
LINE
  5
23A
330
238
100
AcDbEntity
  8
0
  6
ByBlock
 62
     0
370
    -2
100
AcDbLine
 10
-0.05
 20
0.05
 30
0.0
 11
0.1
 21
0.05
 31
0.0
  0
LINE
  5
23B
330
238
100
AcDbEntity
  8
0
  6
ByBlock
 62
     0
370
    -2
100
AcDbLine
 10
-0.05
 20
-0.05
 30
0.0
 11
0.1
 21
-0.05
 31
0.0
  0
ENDBLK
  5
23C
330
238
100
AcDbEntity
  8
0
100
AcDbBlockEnd
  0
BLOCK
  5
17F9
330
17F2
100
AcDbEntity
  8
0
100
AcDbBlockBegin
  2
*D4
 70
     1
 10
0.0
 20
0.0
 30
0.0
  3
*D4
  1

  0
LINE
  5
1809
330
17F2
100
AcDbEntity
  8
Text
  6
ACAD_ISO10W100
 62
     5
370
    -2
100
AcDbLine
 10
0.2752844982296152
 20
0.2095478102390275
 30
0.0
 11
0.2737844982296151
 21
0.2095478102390275
 31
0.0
  0
LINE
  5
180A
330
17F2
100
AcDbEntity
  8
Text
  6
ACAD_ISO10W100
 62
     5
370
    -2
100
AcDbLine
 10
0.2737844982296151
 20
0.2095478102390275
 30
0.0
 11
0.2714845230051905
 21
0.2076216446264612
 31
0.0
  0
MTEXT
  5
180B
330
17F2
100
AcDbEntity
  8
Text
  6
ACAD_ISO10W100
 62
     4
100
AcDbMText
 10
0.2897130696581866
 20
0.2095478102390275
 30
0.0
 40
0.003
 41
0.0
 71
     5
 72
     1
  1
\A1;d 335 mm
  7
ROMANS
 73
     1
 44
1.0
1001
ACAD
1000
MTEXTBEGIN
1070
    73
1070
     1
1070
    44
1040
1.0
1070
    74
1070
     0
1000
MTEXTEND
  0
INSERT
  5
180C
330
17F2
100
AcDbEntity
  8
Text
  6
ACAD_ISO10W100
 62
     5
370
    -2
100
AcDbBlockReference
  2
_ArchTick
 10
0.2714845230051905
 20
0.2076216446264612
 30
0.0
 41
0.0015
 42
0.0015
 43
0.0015
 50
219.9452421704756
  0
POINT
  5
180D
330
17F2
100
AcDbEntity
  8
Defpoints
  6
ACAD_ISO10W100
 62
     0
100
AcDbPoint
 10
0.2714845230051905
 20
0.2076216446264612
 30
0.0
  0
POINT
  5
180E
330
17F2
100
AcDbEntity
  8
Defpoints
  6
ACAD_ISO10W100
 62
     0
100
AcDbPoint
 10
0.1430692396414827
 20
0.1000773979248426
 30
0.0
  0
ENDBLK
  5
17FA
330
17F2
100
AcDbEntity
  8
0
100
AcDbBlockEnd
  0
BLOCK
  5
1CAF
330
1CA8
100
AcDbEntity
  8
0
100
AcDbBlockBegin
  2
*D6
 70
     1
 10
0.0
 20
0.0
 30
0.0
  3
*D6
  1

  0
LINE
  5
1CBF
330
1CA8
100
AcDbEntity
  8
Text
  6
ACAD_ISO10W100
 62
     5
370
    -2
100
AcDbLine
 10
0.2691906163671416
 20
0.2054122756710057
 30
0.0
 11
0.2676906163671416
 21
0.2054122756710057
 31
0.0
  0
LINE
  5
1CC0
330
1CA8
100
AcDbEntity
  8
Text
  6
ACAD_ISO10W100
 62
     5
370
    -2
100
AcDbLine
 10
0.2676906163671416
 20
0.2054122756710057
 30
0.0
 11
0.2653415959966366
 21
0.2035462362022504
 31
0.0
  0
MTEXT
  5
1CC1
330
1CA8
100
AcDbEntity
  8
Text
  6
ACAD_ISO10W100
 62
     4
100
AcDbMText
 10
0.283619187795713
 20
0.2054122756710057
 30
0.0
 40
0.003
 41
0.0
 71
     5
 72
     1
  1
\A1;d 575 mm
  7
ROMANS
 73
     1
 44
1.0
1001
ACAD
1000
MTEXTBEGIN
1070
    73
1070
     1
1070
    44
1040
1.0
1070
    74
1070
     0
1000
MTEXTEND
  0
INSERT
  5
1CC2
330
1CA8
100
AcDbEntity
  8
Text
  6
ACAD_ISO10W100
 62
     5
370
    -2
100
AcDbBlockReference
  2
_ArchTick
 10
0.2653415959966366
 20
0.2035462362022504
 30
0.0
 41
0.0015
 42
0.0015
 43
0.0015
 50
218.4632953061788
  0
POINT
  5
1CC3
330
1CA8
100
AcDbEntity
  8
Defpoints
  6
ACAD_ISO10W100
 62
     0
100
AcDbPoint
 10
0.2653415959966366
 20
0.2035462362022504
 30
0.0
  0
POINT
  5
1CC4
330
1CA8
100
AcDbEntity
  8
Defpoints
  6
ACAD_ISO10W100
 62
     0
100
AcDbPoint
 10
0.152784369909937
 20
0.1141318449910611
 30
0.0
  0
ENDBLK
  5
1CB0
330
1CA8
100
AcDbEntity
  8
0
100
AcDbBlockEnd
  0
BLOCK
  5
1CD2
330
1CD1
100
AcDbEntity
  8
0
100
AcDbBlockBegin
  2
*D7
 70
     1
 10
0.0
 20
0.0
 30
0.0
  3
*D7
  1

  0
LINE
  5
1CD3
330
1CD1
100
AcDbEntity
  8
Sezione
  6
ACAD_ISO10W100
 62
     5
370
    -2
100
AcDbLine
 10
0.2562973870742004
 20
0.2029310940913176
 30
0.0
 11
0.2547973870742004
 21
0.2029310940913175
 31
0.0
  0
LINE
  5
1CD4
330
1CD1
100
AcDbEntity
  8
Sezione
  6
ACAD_ISO10W100
 62
     5
370
    -2
100
AcDbLine
 10
0.2547973870742004
 20
0.2029310940913175
 30
0.0
 11
0.2526178576673925
 21
0.2008696257881754
 31
0.0
  0
MTEXT
  5
1CD5
330
1CD1
100
AcDbEntity
  8
Sezione
  6
ACAD_ISO10W100
 62
     4
100
AcDbMText
 10
0.2707259585027718
 20
0.2029310940913175
 30
0.0
 40
0.003
 41
0.0
 71
     5
 72
     1
  1
\A1;d 480 mm
  7
ROMANS
 73
     1
 44
1.0
1001
ACAD
1000
MTEXTBEGIN
1070
    73
1070
     1
1070
    44
1040
1.0
1070
    74
1070
     0
1000
MTEXTEND
  0
INSERT
  5
1CD6
330
1CD1
100
AcDbEntity
  8
Sezione
  6
ACAD_ISO10W100
 62
     5
370
    -2
100
AcDbBlockReference
  2
_ArchTick
 10
0.2526178576673925
 20
0.2008696257881754
 30
0.0
 41
0.0015
 42
0.0015
 43
0.0015
 50
223.4054090887448
  0
POINT
  5
1CD7
330
1CD1
100
AcDbEntity
  8
Defpoints
  6
ACAD_ISO10W100
 62
     0
100
AcDbPoint
 10
0.2526178576673925
 20
0.2008696257881754
 30
0.0
  0
POINT
  5
1CD8
330
1CD1
100
AcDbEntity
  8
Defpoints
  6
ACAD_ISO10W100
 62
     0
100
AcDbPoint
 10
0.1663436619896651
 20
0.1192687447846005
 30
0.0
  0
ENDBLK
  5
1CD9
330
1CD1
100
AcDbEntity
  8
0
100
AcDbBlockEnd
  0
BLOCK
  5
1DA9
330
1DA2
100
AcDbEntity
  8
0
100
AcDbBlockBegin
  2
*D9
 70
     1
 10
0.0
 20
0.0
 30
0.0
  3
*D9
  1

  0
LINE
  5
1DAB
330
1DA2
100
AcDbEntity
  8
Sezione
  6
ACAD_ISO10W100
 62
     5
370
    -2
100
AcDbLine
 10
0.2549649902511389
 20
0.2069811191221192
 30
0.0
 11
0.2534649902511389
 21
0.2069811191221192
 31
0.0
  0
LINE
  5
1DAC
330
1DA2
100
AcDbEntity
  8
Sezione
  6
ACAD_ISO10W100
 62
     5
370
    -2
100
AcDbLine
 10
0.2534649902511389
 20
0.2069811191221192
 30
0.0
 11
0.251285460844331
 21
0.204919650818977
 31
0.0
  0
MTEXT
  5
1DAD
330
1DA2
100
AcDbEntity
  8
Sezione
  6
ACAD_ISO10W100
 62
     4
100
AcDbMText
 10
0.2693935616797103
 20
0.2069811191221191
 30
0.0
 40
0.003
 41
0.0
 71
     5
 72
     1
  1
\A1;d 480 mm
  7
ROMANS
 73
     1
 44
1.0
1001
ACAD
1000
MTEXTBEGIN
1070
    73
1070
     1
1070
    44
1040
1.0
1070
    74
1070
     0
1000
MTEXTEND
  0
INSERT
  5
1DAE
330
1DA2
100
AcDbEntity
  8
Sezione
  6
ACAD_ISO10W100
 62
     5
370
    -2
100
AcDbBlockReference
  2
_ArchTick
 10
0.251285460844331
 20
0.204919650818977
 30
0.0
 41
0.0015
 42
0.0015
 43
0.0015
 50
223.4054090887448
  0
POINT
  5
1DAF
330
1DA2
100
AcDbEntity
  8
Defpoints
  6
ACAD_ISO10W100
 62
     0
100
AcDbPoint
 10
0.251285460844331
 20
0.204919650818977
 30
0.0
  0
POINT
  5
1DB0
330
1DA2
100
AcDbEntity
  8
Defpoints
  6
ACAD_ISO10W100
 62
     0
100
AcDbPoint
 10
0.1650112651666035
 20
0.123318769815402
 30
0.0
  0
ENDBLK
  5
1DAA
330
1DA2
100
AcDbEntity
  8
0
100
AcDbBlockEnd
  0
BLOCK
  5
234B
330
2344
100
AcDbEntity
  8
0
100
AcDbBlockBegin
  2
*D11
 70
     1
 10
0.0
 20
0.0
 30
0.0
  3
*D11
  1

  0
LINE
  5
235B
330
2344
100
AcDbEntity
  8
Text
  6
ACAD_ISO10W100
 62
     5
370
    -2
100
AcDbLine
 10
0.2539622836031374
 20
0.185536727195532
 30
0.0
 11
0.2524622836031375
 21
0.185536727195532
 31
0.0
  0
LINE
  5
235C
330
2344
100
AcDbEntity
  8
Text
  6
ACAD_ISO10W100
 62
     5
370
    -2
100
AcDbLine
 10
0.2524622836031375
 20
0.185536727195532
 30
0.0
 11
0.2499364145109395
 21
0.183918090321777
 31
0.0
  0
MTEXT
  5
235D
330
2344
100
AcDbEntity
  8
Text
  6
ACAD_ISO10W100
 62
     4
100
AcDbMText
 10
0.2683908550317089
 20
0.185536727195532
 30
0.0
 40
0.003
 41
0.0
 71
     5
 72
     1
  1
\A1;d 760 mm
  7
ROMANS
 73
     1
 44
1.0
1001
ACAD
1000
MTEXTBEGIN
1070
    73
1070
     1
1070
    44
1040
1.0
1070
    74
1070
     0
1000
MTEXTEND
  0
INSERT
  5
235E
330
2344
100
AcDbEntity
  8
Text
  6
ACAD_ISO10W100
 62
     5
370
    -2
100
AcDbBlockReference
  2
_ArchTick
 10
0.2499364145109395
 20
0.183918090321777
 30
0.0
 41
0.0015
 42
0.0015
 43
0.0015
 50
212.6527128990553
  0
POINT
  5
235F
330
2344
100
AcDbEntity
  8
Defpoints
  6
ACAD_ISO10W100
 62
     0
100
AcDbPoint
 10
0.2499364145109395
 20
0.183918090321777
 30
0.0
  0
POINT
  5
2360
330
2344
100
AcDbEntity
  8
Defpoints
  6
ACAD_ISO10W100
 62
     0
100
AcDbPoint
 10
0.1699505599246723
 20
0.1326612559862026
 30
0.0
  0
ENDBLK
  5
234C
330
2344
100
AcDbEntity
  8
0
100
AcDbBlockEnd
  0
ENDSEC
  0
SECTION
  2
ENTITIES
  0
LINE
  5
D
330
2
100
AcDbEntity
  8
Table
100
AcDbLine
 10
0.02
 20
0.02
 30
0.0
 11
0.4
 21
0.02
 31
0.0
  0
LINE
  5
10
330
2
100
AcDbEntity
  8
Table
100
AcDbLine
 10
0.4
 20
0.02
 30
0.0
 11
0.4
 21
0.2769999999999999
 31
0.0
  0
LINE
  5
11
330
2
100
AcDbEntity
  8
Table
100
AcDbLine
 10
0.4
 20
0.2769999999999999
 30
0.0
 11
0.02
 21
0.277
 31
0.0
  0
LINE
  5
12
330
2
100
AcDbEntity
  8
Table
100
AcDbLine
 10
0.02
 20
0.277
 30
0.0
 11
0.02
 21
0.02
 31
0.0
  0
LINE
  5
13
330
2
100
AcDbEntity
  8
Table
 62
     2
100
AcDbLine
 10
0.015
 20
0.015
 30
0.0
 11
0.4050000000000001
 21
0.015
 31
0.0
  0
LINE
  5
14
330
2
100
AcDbEntity
  8
Table
 62
     2
100
AcDbLine
 10
0.4050000000000001
 20
0.015
 30
0.0
 11
0.4050000000000001
 21
0.2819999999999998
 31
0.0
  0
LINE
  5
15
330
2
100
AcDbEntity
  8
Table
 62
     2
100
AcDbLine
 10
0.4050000000000001
 20
0.2819999999999998
 30
0.0
 11
0.0149999999999999
 21
0.282
 31
0.0
  0
LINE
  5
16
330
2
100
AcDbEntity
  8
Table
 62
     2
100
AcDbLine
 10
0.0149999999999999
 20
0.282
 30
0.0
 11
0.015
 21
0.015
 31
0.0
  0
LINE
  5
17
330
2
100
AcDbEntity
  8
Table
100
AcDbLine
 10
0.21
 20
0.2769999999999999
 30
0.0
 11
0.21
 21
0.2532994226089223
 31
0.0
  0
MTEXT
  5
18
102
{ACAD_XDICTIONARY
360
2365
102
}
330
2
100
AcDbEntity
  8
Text
100
AcDbMText
 10
0.305
 20
0.0471738284815141
 30
0.0
 40
0.005
 41
0.1900000000000001
 71
     2
 72
     5
  3
{\fTimes New Roman|b0|i0|c238|p18;\H1.6x;\C4;Bovelacci\P\H0.4375x;\T0.95;via del Commercio, 5  47100 Forli - Italy  \fTimes New Roman|b0|i0|c0|p18;\P\fTimes New Roman|b0|i0|c238|p18;tel.+39-0543721386  fax +39-0543721127\fTimes New Roman|b0|i0|c0|p18
  1
; \fTimes New Roman|b0|i0|c238|p18;www.bovelacci.it\fTimes New Roman|b0|i0|c0|p18; \fTimes New Roman|b0|i0|c238|p18;e-mail: bovelacci@bovelacci\fTimes New Roman|b0|i0|c0|p18;.it}
 73
     1
 44
1.0
1001
ACAD
1000
ACAD_MTEXT_DEFINED_HEIGHT_BEGIN
1070
    46
1040
0.0271738284815141
1000
ACAD_MTEXT_DEFINED_HEIGHT_END
1000
MTEXTBEGIN
1070
    73
1070
     1
1070
    44
1040
1.0
1070
    74
1070
     0
1000
MTEXTEND
  0
MTEXT
  5
1C
330
2
100
AcDbEntity
  8
Text
100
AcDbMText
 10
0.0219676065851835
 20
0.0500313976452307
 30
0.0
 40
0.002
 41
0.1863544980601608
 71
     1
 72
     5
  3
{\fArial|b0|i0|c0|p34;\H1.25x;Le caratteristiche tecniche indicate vengono fornite a titolo indicativo e potranno essere modificate senza preavviso. Non devono quindi essere considerate a scopo di specifica.\P\fArial|b0|i1|c0|p34;The given values are
  3
 indicative and can be changed without notice. They cannot be considered like a state.\PThis lealfet and designs embodied within are protected by copyright law and international treaties. Unauthorized repro- duction of the leaflet or any portion of i
  1
t or reproduction of any of the designs embodied therein may result in severe civil penalties and will be prosecuted to the maximum.\PAll right reserved, Bovelacci Forlì Italy.}
 73
     1
 44
1.0
1001
ACAD
1000
MTEXTBEGIN
1070
    73
1070
     1
1070
    44
1040
1.0
1070
    74
1070
     0
1000
MTEXTEND
  0
LINE
  5
1D
330
2
100
AcDbEntity
  8
Table
100
AcDbLine
 10
0.02
 20
0.0528099428524846
 30
0.0
 11
0.4
 21
0.0528099428524846
 31
0.0
  0
MTEXT
  5
1E
330
2
100
AcDbEntity
  8
Text
100
AcDbMText
 10
0.1133313047219695
 20
0.2610796890771976
 30
0.0
 40
0.003
 41
0.1103605678262056
 71
     2
 72
     5
  1
{\fTimes New Roman|b0|i0|c0|p18;Rosoni\fTimes New Roman|b0|i1|c0|p18;   Ceiling centres}
 73
     1
 44
1.0
1001
ACAD
1000
ACAD_MTEXT_DEFINED_HEIGHT_BEGIN
1070
    46
1040
0.0141952763113409
1000
ACAD_MTEXT_DEFINED_HEIGHT_END
1000
MTEXTBEGIN
1070
    73
1070
     1
1070
    44
1040
1.0
1070
    74
1070
     0
1000
MTEXTEND
  0
TEXT
  5
1F
330
2
100
AcDbEntity
  8
Text
100
AcDbText
 10
0.2180556919891047
 20
0.269976982173197
 30
0.0
 40
0.003
  1
Rosone - Ceiling centre : D 760 mm
  7
ROMANS
100
AcDbText
  0
TEXT
  5
21
330
2
100
AcDbEntity
  8
Text
100
AcDbText
 10
0.2184542410678115
 20
0.2576348370183962
 30
0.0
 40
0.003
  1
File : C - R3320
  7
ROMANS
100
AcDbText
  0
LINE
  5
22
330
2
100
AcDbEntity
  8
Table
100
AcDbLine
 10
0.4
 20
0.2654452889427402
 30
0.0
 11
0.02
 21
0.2654452889427403
 31
0.0
  0
LINE
  5
23
330
2
100
AcDbEntity
  8
Table
100
AcDbLine
 10
0.4
 20
0.2532994226089223
 30
0.0
 11
0.02
 21
0.2532994226089225
 31
0.0
  0
LINE
  5
24
330
2
100
AcDbEntity
  8
Table
100
AcDbLine
 10
0.21
 20
0.0528099428524846
 30
0.0
 11
0.21
 21
0.02
 31
0.0
  0
TEXT
  5
25
330
2
100
AcDbEntity
  8
Text
100
AcDbText
 10
0.0896473531074035
 20
0.2687784133392506
 30
0.0
 40
0.005
  1
CLASSICSTYL
  7
style1
 72
     1
 11
0.1140561490699125
 21
0.2687784133392506
 31
0.0
100
AcDbText
  0
TEXT
  5
252
330
2
100
AcDbEntity
  8
Text
  6
ACAD_ISO10W100
100
AcDbText
 10
0.2951589460841571
 20
0.0876218606849342
 30
0.0
 40
0.005
  1
scala 1 : 8
  7
style1
100
AcDbText
  0
CIRCLE
  5
2083
330
2
100
AcDbEntity
  8
Profilo
  6
Continuous
370
     0
100
AcDbCircle
 10
0.209943487217806
 20
0.1582896731539898
 30
0.0
 40
0.0035101251011676
  0
CIRCLE
  5
2084
330
2
100
AcDbEntity
  8
Profilo
  6
Continuous
370
     0
100
AcDbCircle
 10
0.209943487217806
 20
0.1582896731539898
 30
0.0
 40
0.0246616480290218
  0
CIRCLE
  5
2085
330
2
100
AcDbEntity
  8
Profilo
  6
Continuous
370
     0
100
AcDbCircle
 10
0.209943487217806
 20
0.1582896731539898
 30
0.0
 40
0.0262640718613771
  0
CIRCLE
  5
2086
330
2
100
AcDbEntity
  8
Profilo
  6
Continuous
370
     0
100
AcDbCircle
 10
0.209943487217806
 20
0.1582896731539898
 30
0.0
 40
0.0327921725127419
  0
CIRCLE
  5
2087
330
2
100
AcDbEntity
  8
Profilo
  6
Continuous
370
     0
100
AcDbCircle
 10
0.209943487217806
 20
0.1582896731539898
 30
0.0
 40
0.0426198306561793
  0
CIRCLE
  5
2088
330
2
100
AcDbEntity
  8
Profilo
  6
Continuous
370
     0
100
AcDbCircle
 10
0.209943487217806
 20
0.1582896731539898
 30
0.0
 40
0.0437874547937565
  0
CIRCLE
  5
2089
330
2
100
AcDbEntity
  8
Profilo
  6
Continuous
370
     0
100
AcDbCircle
 10
0.209943487217806
 20
0.1582896731539898
 30
0.0
 40
0.0468017450575292
  0
CIRCLE
  5
208A
102
{ACAD_REACTORS
330
2354
102
}
330
2
100
AcDbEntity
  8
Profilo
  6
Continuous
370
     0
100
AcDbCircle
 10
0.209943487217806
 20
0.1582896731539898
 30
0.0
 40
0.0475
  0
LWPOLYLINE
  5
208B
330
2
100
AcDbEntity
  8
Profilo
  6
Continuous
370
     0
100
AcDbPolyline
 90
       15
 70
   128
 43
0.0
 10
0.2063183721547326
 20
0.1611436214248703
 10
0.2060108416183362
 20
0.1615148891192324
 10
0.205631748833164
 20
0.1617904652171185
 10
0.2051492681341955
 20
0.1623071699438356
 10
0.2047012496963696
 20
0.1629961098230948
 10
0.2043910836942289
 20
0.1638917315930422
 10
0.2043910836942289
 20
0.1645806714723013
 10
0.2046323240437122
 20
0.1650629290954186
 10
0.2050114162636973
 20
0.1650973761990184
 10
0.2055972860068362
 20
0.1650629290954186
 10
0.2062176191414917
 20
0.1649595881500745
 10
0.206734562666788
 20
0.1646151182104458
 10
0.2072515067572713
 20
0.1640639663801289
 10
0.2076305989772564
 20
0.163375026866325
 10
0.2080786174150824
 20
0.1626860869870659
  0
LWPOLYLINE
  5
208C
330
2
100
AcDbEntity
  8
Profilo
  6
Continuous
370
     0
100
AcDbPolyline
 90
        2
 70
   128
 43
0.0
 10
0.2069413407551306
 20
0.1621004880531491
 10
0.2053215828310233
 20
0.1640984134837287
  0
LWPOLYLINE
  5
208D
330
2
100
AcDbEntity
  8
Profilo
  6
Continuous
370
     0
100
AcDbPolyline
 90
        2
 70
   128
 43
0.0
 10
0.2058729897478362
 20
0.1635817087570115
 10
0.205907452574164
 20
0.1643739895816147
  0
LWPOLYLINE
  5
208E
330
2
100
AcDbEntity
  8
Profilo
  6
Continuous
370
     0
100
AcDbPolyline
 90
        2
 70
   128
 43
0.0
 10
0.2063554704468047
 20
0.1629961098230948
 10
0.2064933223173047
 20
0.163788390647698
  0
LWPOLYLINE
  5
208F
330
2
100
AcDbEntity
  8
Profilo
  6
Continuous
370
     0
100
AcDbPolyline
 90
        2
 70
   128
 43
0.0
 10
0.2057351378773362
 20
0.1631683446101833
 10
0.2052871200046955
 20
0.163202791713783
  0
LWPOLYLINE
  5
2090
330
2
100
AcDbEntity
  8
Profilo
  6
Continuous
370
     0
100
AcDbPolyline
 90
        2
 70
   128
 43
0.0
 10
0.2063554704468047
 20
0.1623760641510352
 10
0.2058385269215084
 20
0.1623760641510352
  0
CIRCLE
  5
2091
330
2
100
AcDbEntity
  8
Profilo
  6
Continuous
370
     0
100
AcDbCircle
 10
0.2045978612173844
 20
0.1660274450725638
 30
0.0
 40
0.00075861692249
  0
LWPOLYLINE
  5
2092
330
2
100
AcDbEntity
  8
Profilo
  6
Continuous
370
     0
100
AcDbPolyline
 90
        4
 70
   128
 43
0.0
 10
0.2098571475966697
 20
0.1616808483046417
 10
0.2099997153852826
 20
0.1600895783544574
 10
0.2113065859331222
 20
0.159519571213576
 10
0.2125587984022339
 20
0.1603092445132561
  0
LWPOLYLINE
  5
2093
330
2
100
AcDbEntity
  8
Profilo
  6
Continuous
370
     0
100
AcDbPolyline
 90
        4
 70
   128
 43
0.0
 10
0.2069634735780916
 20
0.159910488424059
 10
0.2084128376735361
 20
0.1592383207756662
 10
0.2095599136117976
 20
0.1600851002991139
 10
0.2095021427081403
 20
0.1615643847581389
  0
LWPOLYLINE
  5
2094
330
2
100
AcDbEntity
  8
Profilo
  6
Continuous
370
     0
100
AcDbPolyline
 90
        4
 70
   128
 43
0.0
 10
0.2070498131992278
 20
0.156519313273407
 10
0.2083566095060594
 20
0.1574384155752004
 10
0.2081968148964812
 20
0.1588552022395278
 10
0.2068868315237122
 20
0.1595448133988726
  0
LWPOLYLINE
  5
2095
330
2
100
AcDbEntity
  8
Profilo
  6
Continuous
370
     0
100
AcDbPolyline
 90
        4
 70
   128
 43
0.0
 10
0.210029826838942
 20
0.1548984980033379
 10
0.2098872590503291
 20
0.156489767953524
 10
0.2085803885024895
 20
0.1570597750944036
 10
0.2073281760333796
 20
0.1562701017947234
  0
LWPOLYLINE
  5
2096
330
2
100
AcDbEntity
  8
Profilo
  6
Continuous
370
     0
100
AcDbPolyline
 90
        4
 70
   128
 43
0.0
 10
0.2129235008575201
 20
0.1566688578839206
 10
0.2114741367620756
 20
0.1573410255323133
 10
0.2103270608238159
 20
0.1564942460088674
 10
0.2103848317274732
 20
0.1550149615498406
  0
LWPOLYLINE
  5
2097
330
2
100
AcDbEntity
  8
Profilo
  6
Continuous
370
     0
100
AcDbPolyline
 90
        4
 70
   128
 43
0.0
 10
0.2128371612363857
 20
0.1600600330345725
 10
0.2115303649295523
 20
0.1591409307327809
 10
0.2116901595391323
 20
0.1577241440684536
 10
0.2130001429118995
 20
0.157034532909107
  0
CIRCLE
  5
2098
330
2
100
AcDbEntity
  8
Profilo
  6
Continuous
370
     0
100
AcDbCircle
 10
0.2033354232950242
 20
0.1649816327169788
 30
0.0
 40
0.00075861692249
  0
CIRCLE
  5
2099
330
2
100
AcDbEntity
  8
Profilo
  6
Continuous
370
     0
100
AcDbCircle
 10
0.2022737680511171
 20
0.1637324885563687
 30
0.0
 40
0.00075861692249
  0
CIRCLE
  5
209A
330
2
100
AcDbEntity
  8
Profilo
  6
Continuous
370
     0
100
AcDbCircle
 10
0.2014451533430226
 20
0.1623179672039545
 30
0.0
 40
0.00075861692249
  0
CIRCLE
  5
209B
330
2
100
AcDbEntity
  8
Profilo
  6
Continuous
370
     0
100
AcDbCircle
 10
0.2008747562093511
 20
0.1607810481752456
 30
0.0
 40
0.00075861692249
  0
CIRCLE
  5
209C
330
2
100
AcDbEntity
  8
Profilo
  6
Continuous
370
     0
100
AcDbCircle
 10
0.2005799078783721
 20
0.1591684299772145
 30
0.0
 40
0.00075861692249
  0
CIRCLE
  5
209D
330
2
100
AcDbEntity
  8
Profilo
  6
Continuous
370
     0
100
AcDbCircle
 10
0.2005695671674197
 20
0.1575291111977806
 30
0.0
 40
0.00075861692249
  0
CIRCLE
  5
209E
330
2
100
AcDbEntity
  8
Profilo
  6
Continuous
370
     0
100
AcDbCircle
 10
0.2008440482737683
 20
0.1559129017085241
 30
0.0
 40
0.00075861692249
  0
CIRCLE
  5
209F
330
2
100
AcDbEntity
  8
Profilo
  6
Continuous
370
     0
100
AcDbCircle
 10
0.2013950112278924
 20
0.1543689092169331
 30
0.0
 40
0.00075861692249
  0
CIRCLE
  5
20A0
330
2
100
AcDbEntity
  8
Profilo
  6
Continuous
370
     0
100
AcDbCircle
 10
0.2022057152992318
 20
0.1529440471535683
 30
0.0
 40
0.00075861692249
  0
CIRCLE
  5
20A1
330
2
100
AcDbEntity
  8
Profilo
  6
Continuous
370
     0
100
AcDbCircle
 10
0.2032515276548168
 20
0.1516816092312081
 30
0.0
 40
0.00075861692249
  0
CIRCLE
  5
20A2
330
2
100
AcDbEntity
  8
Profilo
  6
Continuous
370
     0
100
AcDbCircle
 10
0.204500671815427
 20
0.150619953987301
 30
0.0
 40
0.00075861692249
  0
CIRCLE
  5
20A3
330
2
100
AcDbEntity
  8
Profilo
  6
Continuous
370
     0
100
AcDbCircle
 10
0.2059151931678429
 20
0.1497913392792065
 30
0.0
 40
0.00075861692249
  0
CIRCLE
  5
20A4
330
2
100
AcDbEntity
  8
Profilo
  6
Continuous
370
     0
100
AcDbCircle
 10
0.20745211219655
 20
0.149220942145535
 30
0.0
 40
0.00075861692249
  0
CIRCLE
  5
20A5
330
2
100
AcDbEntity
  8
Profilo
  6
Continuous
370
     0
100
AcDbCircle
 10
0.2090647303945812
 20
0.148926093814556
 30
0.0
 40
0.00075861692249
  0
CIRCLE
  5
20A6
330
2
100
AcDbEntity
  8
Profilo
  6
Continuous
370
     0
100
AcDbCircle
 10
0.2107040491740151
 20
0.1489157531036054
 30
0.0
 40
0.00075861692249
  0
CIRCLE
  5
20A7
330
2
100
AcDbEntity
  8
Profilo
  6
Continuous
370
     0
100
AcDbCircle
 10
0.2123202586632715
 20
0.1491902342099522
 30
0.0
 40
0.00075861692249
  0
CIRCLE
  5
20A8
330
2
100
AcDbEntity
  8
Profilo
  6
Continuous
370
     0
100
AcDbCircle
 10
0.2138642511548625
 20
0.1497411971640763
 30
0.0
 40
0.00075861692249
  0
CIRCLE
  5
20A9
330
2
100
AcDbEntity
  8
Profilo
  6
Continuous
370
     0
100
AcDbCircle
 10
0.2152891132182273
 20
0.1505519012354157
 30
0.0
 40
0.00075861692249
  0
CIRCLE
  5
20AA
330
2
100
AcDbEntity
  8
Profilo
  6
Continuous
370
     0
100
AcDbCircle
 10
0.2165515511405875
 20
0.1515977135910007
 30
0.0
 40
0.00075861692249
  0
CIRCLE
  5
20AB
330
2
100
AcDbEntity
  8
Profilo
  6
Continuous
370
     0
100
AcDbCircle
 10
0.2176132063844964
 20
0.1528468577516109
 30
0.0
 40
0.00075861692249
  0
CIRCLE
  5
20AC
330
2
100
AcDbEntity
  8
Profilo
  6
Continuous
370
     0
100
AcDbCircle
 10
0.2184418210925891
 20
0.1542613791040268
 30
0.0
 40
0.00075861692249
  0
CIRCLE
  5
20AD
330
2
100
AcDbEntity
  8
Profilo
  6
Continuous
370
     0
100
AcDbCircle
 10
0.2190122182262606
 20
0.1557982981327339
 30
0.0
 40
0.00075861692249
  0
CIRCLE
  5
20AE
330
2
100
AcDbEntity
  8
Profilo
  6
Continuous
370
     0
100
AcDbCircle
 10
0.2193070665572414
 20
0.1574109163307669
 30
0.0
 40
0.00075861692249
  0
CIRCLE
  5
20AF
330
2
100
AcDbEntity
  8
Profilo
  6
Continuous
370
     0
100
AcDbCircle
 10
0.219317407268192
 20
0.159050235110199
 30
0.0
 40
0.00075861692249
  0
CIRCLE
  5
20B0
330
2
100
AcDbEntity
  8
Profilo
  6
Continuous
370
     0
100
AcDbCircle
 10
0.2190429261618434
 20
0.1606664445994554
 30
0.0
 40
0.00075861692249
  0
CIRCLE
  5
20B1
330
2
100
AcDbEntity
  8
Profilo
  6
Continuous
370
     0
100
AcDbCircle
 10
0.2184919632077193
 20
0.1622104370910464
 30
0.0
 40
0.00075861692249
  0
CIRCLE
  5
20B2
330
2
100
AcDbEntity
  8
Profilo
  6
Continuous
370
     0
100
AcDbCircle
 10
0.2176812591363799
 20
0.1636352991544112
 30
0.0
 40
0.00075861692249
  0
CIRCLE
  5
20B3
330
2
100
AcDbEntity
  8
Profilo
  6
Continuous
370
     0
100
AcDbCircle
 10
0.2166354467807949
 20
0.1648977370767715
 30
0.0
 40
0.00075861692249
  0
CIRCLE
  5
20B4
330
2
100
AcDbEntity
  8
Profilo
  6
Continuous
370
     0
100
AcDbCircle
 10
0.2153863026201848
 20
0.1659593923206803
 30
0.0
 40
0.00075861692249
  0
CIRCLE
  5
20B5
330
2
100
AcDbEntity
  8
Profilo
  6
Continuous
370
     0
100
AcDbCircle
 10
0.2139717812677706
 20
0.166788007028773
 30
0.0
 40
0.00075861692249
  0
CIRCLE
  5
20B6
330
2
100
AcDbEntity
  8
Profilo
  6
Continuous
370
     0
100
AcDbCircle
 10
0.2124348622390617
 20
0.1673584041624445
 30
0.0
 40
0.00075861692249
  0
CIRCLE
  5
20B7
330
2
100
AcDbEntity
  8
Profilo
  6
Continuous
370
     0
100
AcDbCircle
 10
0.2108222440410306
 20
0.1676532524934253
 30
0.0
 40
0.00075861692249
  0
CIRCLE
  5
20B8
330
2
100
AcDbEntity
  8
Profilo
  6
Continuous
370
     0
100
AcDbCircle
 10
0.2091829252615966
 20
0.167663593204376
 30
0.0
 40
0.00075861692249
  0
CIRCLE
  5
20B9
330
2
100
AcDbEntity
  8
Profilo
  6
Continuous
370
     0
100
AcDbCircle
 10
0.2075667157723402
 20
0.1673891120980273
 30
0.0
 40
0.00075861692249
  0
CIRCLE
  5
20BA
330
2
100
AcDbEntity
  8
Profilo
  6
Continuous
370
     0
100
AcDbCircle
 10
0.2060227232807492
 20
0.1668381491439033
 30
0.0
 40
0.00075861692249
  0
LWPOLYLINE
  5
20BB
330
2
100
AcDbEntity
  8
Profilo
  6
Continuous
370
     0
100
AcDbPolyline
 90
       15
 70
   128
 43
0.0
 10
0.2053770713461038
 20
0.1589487073261222
 10
0.2049251082419616
 20
0.1591164693128459
 10
0.2044590162106694
 20
0.1591655788217055
 10
0.2037828233051695
 20
0.1593718178918135
 10
0.2030503580170173
 20
0.1597444481100187
 10
0.2023339354948004
 20
0.1603649963139042
 10
0.2019894655551699
 20
0.1609616357510242
 10
0.2019572570146828
 20
0.1614999032785538
 10
0.2022683369557658
 20
0.1617192814553499
 10
0.2027929385884335
 20
0.1619823842601158
 10
0.2033818333145263
 20
0.1622030549435256
 10
0.2040017545095687
 20
0.1621632069876147
 10
0.2047250171394233
 20
0.1619443675464596
 10
0.2053977903892072
 20
0.1615372745358266
 10
0.2061302556773594
 20
0.1611646443176213
  0
LWPOLYLINE
  5
20BC
330
2
100
AcDbEntity
  8
Profilo
  6
Continuous
370
     0
100
AcDbPolyline
 90
        2
 70
   128
 43
0.0
 10
0.2054381446656681
 20
0.1600888624344443
 10
0.2030364304401211
 20
0.16100923765014
  0
LWPOLYLINE
  5
20BD
330
2
100
AcDbEntity
  8
Profilo
  6
Continuous
370
     0
100
AcDbPolyline
 90
        2
 70
   128
 43
0.0
 10
0.2037723152012607
 20
0.1608374616889532
 10
0.2034060204720458
 20
0.161540828423155
  0
LWPOLYLINE
  5
20BE
330
2
100
AcDbEntity
  8
Profilo
  6
Continuous
370
     0
100
AcDbPolyline
 90
        2
 70
   128
 43
0.0
 10
0.2044829552103622
 20
0.1605715584852363
 10
0.204206198019871
 20
0.1613266197415233
  0
LWPOLYLINE
  5
20BF
330
2
100
AcDbEntity
  8
Profilo
  6
Continuous
370
     0
100
AcDbPolyline
 90
        2
 70
   128
 43
0.0
 10
0.2038596140528626
 20
0.1604105519015353
 10
0.2034543956420081
 20
0.1602163750320202
  0
LWPOLYLINE
  5
20C0
330
2
100
AcDbEntity
  8
Profilo
  6
Continuous
370
     0
100
AcDbPolyline
 90
        2
 70
   128
 43
0.0
 10
0.2047929780463911
 20
0.1600345831817269
 10
0.2043452918211621
 20
0.1597761114190779
  0
LWPOLYLINE
  5
20C1
330
2
100
AcDbEntity
  8
Profilo
  6
Continuous
370
     0
100
AcDbPolyline
 90
       15
 70
   128
 43
0.0
 10
0.2056593379826002
 20
0.1565772055531664
 10
0.2051840454594801
 20
0.1564965101433881
 10
0.2047558431654484
 20
0.156305994209982
 10
0.2040671233963718
 20
0.1561465060311993
 10
0.2032464747403406
 20
0.1561029806223062
 10
0.2023157605343144
 20
0.1562821798700349
 10
0.2017191210971945
 20
0.1566266498096653
 10
0.2014220939191482
 20
0.1570766988922956
 10
0.2015818079623373
 20
0.1574222259369784
 10
0.2019045749007102
 20
0.1579123804660463
 10
0.2023042373519559
 20
0.1583979342467949
 10
0.2028610288331649
 20
0.1586733855022087
 10
0.2035968123648033
 20
0.1588454963017463
 10
0.2043829975954197
 20
0.1588293300377264
 10
0.2052036462514526
 20
0.1588728554466194
  0
LWPOLYLINE
  5
20C2
330
2
100
AcDbEntity
  8
Profilo
  6
Continuous
370
     0
100
AcDbPolyline
 90
        2
 70
   128
 43
0.0
 10
0.2051421514746761
 20
0.1575951455010114
 10
0.2026020183348749
 20
0.1571913567060439
  0
LWPOLYLINE
  5
20C3
330
2
100
AcDbEntity
  8
Profilo
  6
Continuous
370
     0
100
AcDbPolyline
 90
        2
 70
   128
 43
0.0
 10
0.2033252012128728
 20
0.1574105367404663
 10
0.2026562973049988
 20
0.1578365228358547
  0
LWPOLYLINE
  5
20C4
330
2
100
AcDbEntity
  8
Profilo
  6
Continuous
370
     0
100
AcDbPolyline
 90
        2
 70
   128
 43
0.0
 10
0.2040735851155582
 20
0.1575355778156511
 10
0.2034563757297694
 20
0.1580511014497632
  0
LWPOLYLINE
  5
20C5
330
2
100
AcDbEntity
  8
Profilo
  6
Continuous
370
     0
100
AcDbPolyline
 90
        2
 70
   128
 43
0.0
 10
0.2036142591297907
 20
0.15708447144524
 10
0.2033604181266668
 20
0.1567137001379835
  0
LWPOLYLINE
  5
20C6
330
2
100
AcDbEntity
  8
Profilo
  6
Continuous
370
     0
100
AcDbPolyline
 90
        2
 70
   128
 43
0.0
 10
0.2046105604190675
 20
0.1572255549796204
 10
0.2043520886564203
 20
0.1567778687543915
  0
LWPOLYLINE
  5
20C7
330
2
100
AcDbEntity
  8
Profilo
  6
Continuous
370
     0
100
AcDbPolyline
 90
       15
 70
   128
 43
0.0
 10
0.2070895389469272
 20
0.1546645580909165
 10
0.2067182712525634
 20
0.1543570275545201
 10
0.2064426951546772
 20
0.153977934769348
 10
0.20592599042796
 20
0.1534954540703795
 10
0.2052370505487009
 20
0.1530474356325535
 10
0.2043414287787553
 20
0.1527372696304128
 10
0.2036524888994944
 20
0.1527372696304128
 10
0.2031702312763788
 20
0.1529785099798961
 10
0.203135784172779
 20
0.1533576021998813
 10
0.2031702312763788
 20
0.1539434719430202
 10
0.2032735722217211
 20
0.1545638050776756
 10
0.2036180421613516
 20
0.1550807486029719
 10
0.2041691939916668
 20
0.1555976926934552
 10
0.2048581335054707
 20
0.1559767849134404
 10
0.2055470733847315
 20
0.1564248033512663
  0
LWPOLYLINE
  5
20C8
330
2
100
AcDbEntity
  8
Profilo
  6
Continuous
370
     0
100
AcDbPolyline
 90
        2
 70
   128
 43
0.0
 10
0.2061326723186465
 20
0.1552875266913145
 10
0.2041347468880688
 20
0.1536677687672072
  0
LWPOLYLINE
  5
20C9
330
2
100
AcDbEntity
  8
Profilo
  6
Continuous
370
     0
100
AcDbPolyline
 90
        2
 70
   128
 43
0.0
 10
0.2046514516147841
 20
0.1542191756840201
 10
0.2038591707901827
 20
0.1542536385103479
  0
LWPOLYLINE
  5
20CA
330
2
100
AcDbEntity
  8
Profilo
  6
Continuous
370
     0
100
AcDbPolyline
 90
        2
 70
   128
 43
0.0
 10
0.2052370505487009
 20
0.1547016563829886
 10
0.2044447697240976
 20
0.1548395082534886
  0
LWPOLYLINE
  5
20CB
330
2
100
AcDbEntity
  8
Profilo
  6
Continuous
370
     0
100
AcDbPolyline
 90
        2
 70
   128
 43
0.0
 10
0.2050648157616142
 20
0.1540813238135201
 10
0.2050303686580144
 20
0.1536333059408794
  0
LWPOLYLINE
  5
20CC
330
2
100
AcDbEntity
  8
Profilo
  6
Continuous
370
     0
100
AcDbPolyline
 90
        2
 70
   128
 43
0.0
 10
0.2058570962207604
 20
0.1547016563829886
 10
0.2058570962207604
 20
0.1541847128576923
  0
LWPOLYLINE
  5
20CD
330
2
100
AcDbEntity
  8
Profilo
  6
Continuous
370
     0
100
AcDbPolyline
 90
       15
 70
   128
 43
0.0
 10
0.2092844530456734
 20
0.1537232572822877
 10
0.2091166910589497
 20
0.1532712941781456
 10
0.2090675815500902
 20
0.1528052021468533
 10
0.2088613424799821
 20
0.1521290092413534
 10
0.2084887122617769
 20
0.1513965439532012
 10
0.2078681640578914
 20
0.1506801214309843
 10
0.2072715246207734
 20
0.1503356514913539
 10
0.2067332570932419
 20
0.1503034429508667
 10
0.2065138789164458
 20
0.1506145228919497
 10
0.2062507761116799
 20
0.1511391245246174
 10
0.2060301054282718
 20
0.1517280192507102
 10
0.2060699533841828
 20
0.1523479404457526
 10
0.2062887928253361
 20
0.1530712030756072
 10
0.2066958858359709
 20
0.1537439763253912
 10
0.2070685160541761
 20
0.1544764416135433
  0
LWPOLYLINE
  5
20CE
330
2
100
AcDbEntity
  8
Profilo
  6
Continuous
370
     0
100
AcDbPolyline
 90
        2
 70
   128
 43
0.0
 10
0.2081442979373513
 20
0.153784330601852
 10
0.2072239227216575
 20
0.151382616376305
  0
LWPOLYLINE
  5
20CF
330
2
100
AcDbEntity
  8
Profilo
  6
Continuous
370
     0
100
AcDbPolyline
 90
        2
 70
   128
 43
0.0
 10
0.2073956986828425
 20
0.1521185011374446
 10
0.2066923319486424
 20
0.1517522064082297
  0
LWPOLYLINE
  5
20D0
330
2
100
AcDbEntity
  8
Profilo
  6
Continuous
370
     0
100
AcDbPolyline
 90
        2
 70
   128
 43
0.0
 10
0.2076616018865593
 20
0.1528291411465461
 10
0.2069065406302724
 20
0.152552383956055
  0
LWPOLYLINE
  5
20D1
330
2
100
AcDbEntity
  8
Profilo
  6
Continuous
370
     0
100
AcDbPolyline
 90
        2
 70
   128
 43
0.0
 10
0.2078226084702603
 20
0.1522057999890483
 10
0.2080167853397772
 20
0.151800581578192
  0
LWPOLYLINE
  5
20D2
330
2
100
AcDbEntity
  8
Profilo
  6
Continuous
370
     0
100
AcDbPolyline
 90
        2
 70
   128
 43
0.0
 10
0.2081985771900705
 20
0.153139163982575
 10
0.2084570489527178
 20
0.152691477757346
  0
LWPOLYLINE
  5
20D3
330
2
100
AcDbEntity
  8
Profilo
  6
Continuous
370
     0
100
AcDbPolyline
 90
       15
 70
   128
 43
0.0
 10
0.2116559548186292
 20
0.1540055239187841
 10
0.2117366502284075
 20
0.1535302313956639
 10
0.2119271661618136
 20
0.1531020291016323
 10
0.2120866543405981
 20
0.1524133093325557
 10
0.2121301797494894
 20
0.1515926606765245
 10
0.2119509805017607
 20
0.1506619464704983
 10
0.2116065105621321
 20
0.1500653070333784
 10
0.2111564614795018
 20
0.1497682798553321
 10
0.210810934434819
 20
0.1499279938985212
 10
0.2103207799057511
 20
0.1502507608368941
 10
0.2098352261250025
 20
0.1506504232881398
 10
0.209559774869587
 20
0.1512072147693488
 10
0.2093876640700512
 20
0.1519429983009872
 10
0.2094038303340693
 20
0.1527291835316036
 10
0.209360304925178
 20
0.1535498321876365
  0
LWPOLYLINE
  5
20D4
330
2
100
AcDbEntity
  8
Profilo
  6
Continuous
370
     0
100
AcDbPolyline
 90
        2
 70
   128
 43
0.0
 10
0.2106380148707843
 20
0.15348833741086
 10
0.2110418036657535
 20
0.1509482042710588
  0
LWPOLYLINE
  5
20D5
330
2
100
AcDbEntity
  8
Profilo
  6
Continuous
370
     0
100
AcDbPolyline
 90
        2
 70
   128
 43
0.0
 10
0.2108226236313293
 20
0.1516713871490567
 10
0.2103966375359427
 20
0.1510024832411827
  0
LWPOLYLINE
  5
20D6
330
2
100
AcDbEntity
  8
Profilo
  6
Continuous
370
     0
100
AcDbPolyline
 90
        2
 70
   128
 43
0.0
 10
0.2106975825561463
 20
0.1524197710517421
 10
0.2101820589220324
 20
0.1518025616659533
  0
LWPOLYLINE
  5
20D7
330
2
100
AcDbEntity
  8
Profilo
  6
Continuous
370
     0
100
AcDbPolyline
 90
        2
 70
   128
 43
0.0
 10
0.2111486889265557
 20
0.1519604450659746
 10
0.2115194602338122
 20
0.1517066040628507
  0
LWPOLYLINE
  5
20D8
330
2
100
AcDbEntity
  8
Profilo
  6
Continuous
370
     0
100
AcDbPolyline
 90
        2
 70
   128
 43
0.0
 10
0.2110076053921752
 20
0.1529567463552515
 10
0.2114552916174042
 20
0.1526982745926042
  0
LWPOLYLINE
  5
20D9
330
2
100
AcDbEntity
  8
Profilo
  6
Continuous
370
     0
100
AcDbPolyline
 90
       15
 70
   128
 43
0.0
 10
0.2135686022808791
 20
0.1554357248831111
 10
0.2138761328172773
 20
0.1550644571887472
 10
0.2142552256024477
 20
0.1547888810908611
 10
0.2147377063014162
 20
0.1542721763641439
 10
0.2151857247392439
 20
0.1535832364848848
 10
0.2154958907413846
 20
0.1526876147149392
 10
0.2154958907413846
 20
0.1519986748356783
 10
0.2152546503918995
 20
0.1515164172125627
 10
0.2148755581719162
 20
0.1514819701089629
 10
0.2142896884287755
 20
0.1515164172125627
 10
0.2136693552941218
 20
0.1516197581579051
 10
0.2131524117688237
 20
0.1519642280975355
 10
0.2126354676783404
 20
0.1525153799278507
 10
0.2122563754583571
 20
0.1532043194416564
 10
0.2118083570205294
 20
0.1538932593209154
  0
LWPOLYLINE
  5
20DA
330
2
100
AcDbEntity
  8
Profilo
  6
Continuous
370
     0
100
AcDbPolyline
 90
        2
 70
   128
 43
0.0
 10
0.2129456336804811
 20
0.1544788582548304
 10
0.2145653916045884
 20
0.1524809328242527
  0
LWPOLYLINE
  5
20DB
330
2
100
AcDbEntity
  8
Profilo
  6
Continuous
370
     0
100
AcDbPolyline
 90
        2
 70
   128
 43
0.0
 10
0.2140139846877773
 20
0.152997637550968
 10
0.2139795218614477
 20
0.1522053567263666
  0
LWPOLYLINE
  5
20DC
330
2
100
AcDbEntity
  8
Profilo
  6
Continuous
370
     0
100
AcDbPolyline
 90
        2
 70
   128
 43
0.0
 10
0.2135315039888088
 20
0.1535832364848848
 10
0.2133936521183088
 20
0.1527909556602816
  0
LWPOLYLINE
  5
20DD
330
2
100
AcDbEntity
  8
Profilo
  6
Continuous
370
     0
100
AcDbPolyline
 90
        2
 70
   128
 43
0.0
 10
0.2141518365582755
 20
0.1534110016977981
 10
0.2145998544309162
 20
0.1533765545941983
  0
LWPOLYLINE
  5
20DE
330
2
100
AcDbEntity
  8
Profilo
  6
Continuous
370
     0
100
AcDbPolyline
 90
        2
 70
   128
 43
0.0
 10
0.2135315039888088
 20
0.1542032821569443
 10
0.2140484475141051
 20
0.1542032821569443
  0
LWPOLYLINE
  5
20DF
330
2
100
AcDbEntity
  8
Profilo
  6
Continuous
370
     0
100
AcDbPolyline
 90
       15
 70
   128
 43
0.0
 10
0.2145099030895097
 20
0.1576306389818574
 10
0.2149618661936501
 20
0.1574628769951336
 10
0.2154279582249423
 20
0.1574137674862741
 10
0.216104151130444
 20
0.157207528416166
 10
0.2168366164185962
 20
0.1568348981979608
 10
0.2175530389408131
 20
0.1562143499940753
 10
0.2178975088804418
 20
0.1556177105569571
 10
0.2179297174209289
 20
0.1550794430294258
 10
0.2176186374798459
 20
0.1548600648526297
 10
0.2170940358471782
 20
0.1545969620478638
 10
0.2165051411210872
 20
0.1543762913644557
 10
0.215885219926043
 20
0.1544161393203667
 10
0.2151619572961902
 20
0.15463497876152
 10
0.2144891840464045
 20
0.1550420717721548
 10
0.2137567187582523
 20
0.15541470199036
  0
LWPOLYLINE
  5
20E0
330
2
100
AcDbEntity
  8
Profilo
  6
Continuous
370
     0
100
AcDbPolyline
 90
        2
 70
   128
 43
0.0
 10
0.2144488297699436
 20
0.1564904838735353
 10
0.2168505439954906
 20
0.1555701086578414
  0
LWPOLYLINE
  5
20E1
330
2
100
AcDbEntity
  8
Profilo
  6
Continuous
370
     0
100
AcDbPolyline
 90
        2
 70
   128
 43
0.0
 10
0.216114659234351
 20
0.1557418846190264
 10
0.2164809539635659
 20
0.1550385178848263
  0
LWPOLYLINE
  5
20E2
330
2
100
AcDbEntity
  8
Profilo
  6
Continuous
370
     0
100
AcDbPolyline
 90
        2
 70
   128
 43
0.0
 10
0.2154040192252513
 20
0.1560077878227433
 10
0.2156807764157407
 20
0.1552527265664563
  0
LWPOLYLINE
  5
20E3
330
2
100
AcDbEntity
  8
Profilo
  6
Continuous
370
     0
100
AcDbPolyline
 90
        2
 70
   128
 43
0.0
 10
0.2160273603827492
 20
0.1561687944064442
 10
0.2164325787936054
 20
0.1563629712759611
  0
LWPOLYLINE
  5
20E4
330
2
100
AcDbEntity
  8
Profilo
  6
Continuous
370
     0
100
AcDbPolyline
 90
        2
 70
   128
 43
0.0
 10
0.2150939963892207
 20
0.1565447631262544
 10
0.2155416826144496
 20
0.1568032348889017
  0
LWPOLYLINE
  5
20E5
330
2
100
AcDbEntity
  8
Profilo
  6
Continuous
370
     0
100
AcDbPolyline
 90
       15
 70
   128
 43
0.0
 10
0.2142276364530116
 20
0.1600021407548131
 10
0.2147029289761335
 20
0.1600828361645914
 10
0.2151311312701634
 20
0.1602733520979975
 10
0.2158198510392399
 20
0.1604328402767821
 10
0.2166404996952729
 20
0.1604763656856734
 10
0.2175712139012991
 20
0.1602971664379447
 10
0.2181678533384173
 20
0.159952696498316
 10
0.2184648805164635
 20
0.1595026474156858
 10
0.2183051664732762
 20
0.1591571203710029
 10
0.2179823995349015
 20
0.1586669658419351
 10
0.2175827370836558
 20
0.1581814120611864
 10
0.2170259456024486
 20
0.1579059608057709
 10
0.2162901620708102
 20
0.1577338500062351
 10
0.2155039768401921
 20
0.1577500162702532
 10
0.2146833281841609
 20
0.1577064908613619
  0
LWPOLYLINE
  5
20E6
330
2
100
AcDbEntity
  8
Profilo
  6
Continuous
370
     0
100
AcDbPolyline
 90
        2
 70
   128
 43
0.0
 10
0.2147448229609357
 20
0.1589842008069682
 10
0.2172849561007386
 20
0.1593879896019374
  0
LWPOLYLINE
  5
20E7
330
2
100
AcDbEntity
  8
Profilo
  6
Continuous
370
     0
100
AcDbPolyline
 90
        2
 70
   128
 43
0.0
 10
0.2165617732227389
 20
0.159168809567515
 10
0.2172306771306129
 20
0.1587428234721266
  0
LWPOLYLINE
  5
20E8
330
2
100
AcDbEntity
  8
Profilo
  6
Continuous
370
     0
100
AcDbPolyline
 90
        2
 70
   128
 43
0.0
 10
0.2158133893200553
 20
0.1590437684923303
 10
0.2164305987058424
 20
0.1585282448582164
  0
LWPOLYLINE
  5
20E9
330
2
100
AcDbEntity
  8
Profilo
  6
Continuous
370
     0
100
AcDbPolyline
 90
        2
 70
   128
 43
0.0
 10
0.216272715305821
 20
0.1594948748627414
 10
0.2165265563089467
 20
0.1598656461699961
  0
LWPOLYLINE
  5
20EA
330
2
100
AcDbEntity
  8
Profilo
  6
Continuous
370
     0
100
AcDbPolyline
 90
        2
 70
   128
 43
0.0
 10
0.2152764140165442
 20
0.1593537913283591
 10
0.2155348857791932
 20
0.1598014775535881
  0
LWPOLYLINE
  5
20EB
330
2
100
AcDbEntity
  8
Profilo
  6
Continuous
370
     0
100
AcDbPolyline
 90
       15
 70
   128
 43
0.0
 10
0.2127974354886863
 20
0.1619147882170631
 10
0.2131687031830485
 20
0.1622223187534613
 10
0.2134442792809346
 20
0.1626014115386316
 10
0.2139609840076517
 20
0.1630838922376001
 10
0.2146499238869108
 20
0.1635319106754278
 10
0.2155455456568582
 20
0.1638420766775686
 10
0.2162344855361173
 20
0.1638420766775686
 10
0.2167167431592347
 20
0.1636008363280834
 10
0.2167511902628345
 20
0.1632217441081001
 10
0.2167167431592347
 20
0.1626358743649594
 10
0.2166134022138906
 20
0.1620155412303057
 10
0.2162689322742619
 20
0.1614985977050076
 10
0.215717780443945
 20
0.1609816536145243
 10
0.2150288409301411
 20
0.160602561394541
 10
0.214339901050882
 20
0.1601545429567133
  0
LWPOLYLINE
  5
20EC
330
2
100
AcDbEntity
  8
Profilo
  6
Continuous
370
     0
100
AcDbPolyline
 90
        2
 70
   128
 43
0.0
 10
0.2137543021169652
 20
0.161291819616665
 10
0.2157522275475447
 20
0.1629115775407723
  0
LWPOLYLINE
  5
20ED
330
2
100
AcDbEntity
  8
Profilo
  6
Continuous
370
     0
100
AcDbPolyline
 90
        2
 70
   128
 43
0.0
 10
0.2152355228208276
 20
0.1623601706239612
 10
0.2160278036454308
 20
0.1623257077976317
  0
LWPOLYLINE
  5
20EE
330
2
100
AcDbEntity
  8
Profilo
  6
Continuous
370
     0
100
AcDbPolyline
 90
        2
 70
   128
 43
0.0
 10
0.2146499238869108
 20
0.1618776899249927
 10
0.2154422047115141
 20
0.1617398380544928
  0
LWPOLYLINE
  5
20EF
330
2
100
AcDbEntity
  8
Profilo
  6
Continuous
370
     0
100
AcDbPolyline
 90
        2
 70
   128
 43
0.0
 10
0.2148221586739993
 20
0.1624980224944594
 10
0.2148566057775973
 20
0.1629460403671001
  0
LWPOLYLINE
  5
20F0
330
2
100
AcDbEntity
  8
Profilo
  6
Continuous
370
     0
100
AcDbPolyline
 90
        2
 70
   128
 43
0.0
 10
0.2140298782148513
 20
0.1618776899249927
 10
0.2140298782148513
 20
0.162394633450289
  0
LWPOLYLINE
  5
20F1
330
2
100
AcDbEntity
  8
Profilo
  6
Continuous
370
     0
100
AcDbPolyline
 90
       15
 70
   128
 43
0.0
 10
0.2106025213899383
 20
0.1628560890256936
 10
0.210770283376662
 20
0.163308052129834
 10
0.2108193928855215
 20
0.1637741441611262
 10
0.2110256319556296
 20
0.1644503370666279
 10
0.2113982621738348
 20
0.1651828023547801
 10
0.2120188103777203
 20
0.165899224876997
 10
0.2126154498148403
 20
0.1662436948166257
 10
0.2131537173423699
 20
0.1662759033571146
 10
0.2133730955191659
 20
0.1659648234160298
 10
0.2136361983239319
 20
0.1654402217833621
 10
0.2138568690073417
 20
0.1648513270572711
 10
0.2138170210514307
 20
0.1642314058622269
 10
0.2135981816102757
 20
0.1635081432323742
 10
0.2131910885996426
 20
0.1628353699825884
 10
0.2128184583814374
 20
0.1621029046944362
  0
LWPOLYLINE
  5
20F2
330
2
100
AcDbEntity
  8
Profilo
  6
Continuous
370
     0
100
AcDbPolyline
 90
        2
 70
   128
 43
0.0
 10
0.2117426764982604
 20
0.1627950157061275
 10
0.212663051713956
 20
0.1651967299316763
  0
LWPOLYLINE
  5
20F3
330
2
100
AcDbEntity
  8
Profilo
  6
Continuous
370
     0
100
AcDbPolyline
 90
        2
 70
   128
 43
0.0
 10
0.2124912757527693
 20
0.1644608451705349
 10
0.2131946424869711
 20
0.1648271398997498
  0
LWPOLYLINE
  5
20F4
330
2
100
AcDbEntity
  8
Profilo
  6
Continuous
370
     0
100
AcDbPolyline
 90
        2
 70
   128
 43
0.0
 10
0.2122253725490524
 20
0.1637502051614352
 10
0.2129804338053394
 20
0.1640269623519246
  0
LWPOLYLINE
  5
20F5
330
2
100
AcDbEntity
  8
Profilo
  6
Continuous
370
     0
100
AcDbPolyline
 90
        2
 70
   128
 43
0.0
 10
0.2120643659653514
 20
0.1643735463189331
 10
0.2118701890958363
 20
0.1647787647297894
  0
LWPOLYLINE
  5
20F6
330
2
100
AcDbEntity
  8
Profilo
  6
Continuous
370
     0
100
AcDbPolyline
 90
        2
 70
   128
 43
0.0
 10
0.211688397245543
 20
0.1634401823254046
 10
0.211429925482894
 20
0.1638878685506335
  0
LWPOLYLINE
  5
20F7
330
2
100
AcDbEntity
  8
Profilo
  6
Continuous
370
     0
100
AcDbPolyline
 90
       15
 70
   128
 43
0.0
 10
0.2082310196169825
 20
0.1625738223891955
 10
0.2081503242072042
 20
0.1630491149123174
 10
0.2079598082737982
 20
0.1634773172063473
 10
0.2078003200950154
 20
0.1641660369754239
 10
0.2077567946861223
 20
0.1649866856314568
 10
0.207935993933851
 20
0.165917399837483
 10
0.2082804638734814
 20
0.1665140392746012
 10
0.2087305129561117
 20
0.1668110664526474
 10
0.2090760400007946
 20
0.1666513524094602
 10
0.2095661945298624
 20
0.1663285854710854
 10
0.210051748310611
 20
0.1659289230198397
 10
0.2103271995660247
 20
0.1653721315386325
 10
0.2104993103655606
 20
0.1646363480069941
 10
0.2104831441015424
 20
0.163850162776376
 10
0.2105266695104355
 20
0.1630295141203448
  0
LWPOLYLINE
  5
20F8
330
2
100
AcDbEntity
  8
Profilo
  6
Continuous
370
     0
100
AcDbPolyline
 90
        2
 70
   128
 43
0.0
 10
0.2092489595648275
 20
0.1630910088971196
 10
0.20884517076986
 20
0.1656311420369225
  0
LWPOLYLINE
  5
20F9
330
2
100
AcDbEntity
  8
Profilo
  6
Continuous
370
     0
100
AcDbPolyline
 90
        2
 70
   128
 43
0.0
 10
0.2090643508042824
 20
0.1649079591589229
 10
0.2094903368996708
 20
0.1655768630667969
  0
LWPOLYLINE
  5
20FA
330
2
100
AcDbEntity
  8
Profilo
  6
Continuous
370
     0
100
AcDbPolyline
 90
        2
 70
   128
 43
0.0
 10
0.2091893918794672
 20
0.1641595752562392
 10
0.2097049155135793
 20
0.1647767846420263
  0
LWPOLYLINE
  5
20FB
330
2
100
AcDbEntity
  8
Profilo
  6
Continuous
370
     0
100
AcDbPolyline
 90
        2
 70
   128
 43
0.0
 10
0.208738285509056
 20
0.164618901242005
 10
0.2083675142017995
 20
0.1648727422451306
  0
LWPOLYLINE
  5
20FC
330
2
100
AcDbEntity
  8
Profilo
  6
Continuous
370
     0
100
AcDbPolyline
 90
        2
 70
   128
 43
0.0
 10
0.2088793690434365
 20
0.1636225999527281
 10
0.2084316828182076
 20
0.1638810717153771
  0
CIRCLE
  5
20FD
330
2
100
AcDbEntity
  8
Profilo
  6
Continuous
370
     0
100
AcDbCircle
 10
0.1947144458763284
 20
0.1819357923649769
 30
0.0
 40
0.0003278964751915
  0
CIRCLE
  5
20FE
330
2
100
AcDbEntity
  8
Profilo
  6
Continuous
370
     0
100
AcDbCircle
 10
0.209943487217806
 20
0.1582896731539898
 30
0.0
 40
0.0292659761217037
  0
CIRCLE
  5
20FF
330
2
100
AcDbEntity
  8
Profilo
  6
Continuous
370
     0
100
AcDbCircle
 10
0.209943487217806
 20
0.1582896731539898
 30
0.0
 40
0.0297057269365833
  0
LWPOLYLINE
  5
2100
330
2
100
AcDbEntity
  8
Profilo
  6
Continuous
370
     0
100
AcDbPolyline
 90
       10
 70
   128
 43
0.0
 10
0.1977100915611836
 20
0.1823029757287817
 10
0.1970563315874838
 20
0.1818237736790178
 10
0.1964810234888532
 20
0.1816146673566093
 10
0.1958795647652007
 20
0.1816582311128685
 10
0.1954001405960917
 20
0.1818411993277036
 10
0.195121203421784
 20
0.1821200078794019
 10
0.1949120001171629
 20
0.1824685182949311
 10
0.1948771331823196
 20
0.1829128690473234
 10
0.1949468676171933
 20
0.1833397945164834
 10
0.1950340352368951
 20
0.1834443476776877
  0
CIRCLE
  5
2101
330
2
100
AcDbEntity
  8
Profilo
  6
Continuous
370
     0
100
AcDbCircle
 10
0.1929899526630632
 20
0.1807316053351049
 30
0.0
 40
0.0003278964751915
  0
LWPOLYLINE
  5
2102
330
2
100
AcDbEntity
  8
Profilo
  6
Continuous
370
     0
100
AcDbPolyline
 90
       10
 70
   128
 43
0.0
 10
0.1959497822678682
 20
0.1813216268621329
 10
0.1953336611536767
 20
0.1807949092144754
 10
0.1947755882682156
 20
0.1805433947677018
 10
0.1941725558215588
 20
0.180541889644156
 10
0.1936807989878464
 20
0.1806885188297298
 10
0.1933818063892894
 20
0.1809457027750274
 10
0.1931471438435708
 20
0.1812776049022191
 10
0.1930791680304378
 20
0.1817181075504792
 10
0.1931168032934221
 20
0.1821490505102852
 10
0.1931959139072596
 20
0.1822598253640231
  0
CIRCLE
  5
2103
330
2
100
AcDbEntity
  8
Profilo
  6
Continuous
370
     0
100
AcDbCircle
 10
0.1913602704920188
 20
0.1794019139171845
 30
0.0
 40
0.0003278964751915
  0
LWPOLYLINE
  5
2104
330
2
100
AcDbEntity
  8
Profilo
  6
Continuous
370
     0
100
AcDbPolyline
 90
       10
 70
   128
 43
0.0
 10
0.1942677314490073
 20
0.1802114739677223
 10
0.1936926947935149
 20
0.1796401863409102
 10
0.1931549780911752
 20
0.1793476703405852
 10
0.1925537443235694
 20
0.1793011047544959
 10
0.1920524049289398
 20
0.1794105749009209
 10
0.1917350289940309
 20
0.179644695962875
 10
0.1914762195353561
 20
0.1799581336703988
 10
0.1913755149922534
 20
0.1803923247450361
 10
0.1913808406116939
 20
0.1808248751876467
 10
0.1914514518010215
 20
0.1809412522360038
  0
CIRCLE
  5
2105
330
2
100
AcDbEntity
  8
Profilo
  6
Continuous
370
     0
100
AcDbCircle
 10
0.1898345132069583
 20
0.1779541542849956
 30
0.0
 40
0.0003278964751915
  0
LWPOLYLINE
  5
2106
330
2
100
AcDbEntity
  8
Profilo
  6
Continuous
370
     0
100
AcDbPolyline
 90
       10
 70
   128
 43
0.0
 10
0.1926733458150818
 20
0.1789787254708526
 10
0.1921426094565224
 20
0.1783660627370343
 10
0.1916282560672216
 20
0.1780341810512831
 10
0.1910321833217783
 20
0.1779428154162965
 10
0.1905240650594895
 20
0.1780145143221099
 10
0.190190080683194
 20
0.1782242632007738
 10
0.1899085716790403
 20
0.1785174836178282
 10
0.1897757015866237
 20
0.1789429349462286
 10
0.1897486877794947
 20
0.1793746738741117
 10
0.1898104046579008
 20
0.1794960022894227
  0
CIRCLE
  5
2107
330
2
100
AcDbEntity
  8
Profilo
  6
Continuous
370
     0
100
AcDbCircle
 10
0.1884212134615215
 20
0.1763964228976698
 30
0.0
 40
0.0003278964751915
  0
LWPOLYLINE
  5
2108
330
2
100
AcDbEntity
  8
Profilo
  6
Continuous
370
     0
100
AcDbPolyline
 90
       10
 70
   128
 43
0.0
 10
0.1911755418173009
 20
0.1776302754011696
 10
0.1906920738486779
 20
0.1769796638188681
 10
0.190203960245211
 20
0.1766102724647038
 10
0.1896163820025098
 20
0.1764746177345118
 10
0.1891043264759979
 20
0.1765081444303509
 10
0.1887556014344238
 20
0.1766923481249099
 10
0.1884529671973347
 20
0.1769637114439821
 10
0.1882886746190551
 20
0.1773780437297376
 10
0.1882294724575246
 20
0.1778065566836795
 10
0.1882819498791914
 20
0.1779321579482329
  0
CIRCLE
  5
2109
330
2
100
AcDbEntity
  8
Profilo
  6
Continuous
370
     0
100
AcDbCircle
 10
0.1871282750011762
 20
0.1747374312209957
 30
0.0
 40
0.0003278964751915
  0
LWPOLYLINE
  5
210A
330
2
100
AcDbEntity
  8
Profilo
  6
Continuous
370
     0
100
AcDbPolyline
 90
       10
 70
   128
 43
0.0
 10
0.1897826957831825
 20
0.1761736648384428
 10
0.1893491999534913
 20
0.1754887428915421
 10
0.1888900558651241
 20
0.1750839076552552
 10
0.1883142581010457
 20
0.1749047224661351
 10
0.187801128932523
 20
0.1748998894571145
 10
0.1874396134375591
 20
0.1750575178257922
 10
0.1871175464209458
 20
0.1753055064731268
 10
0.1869227501475479
 20
0.1757064026020267
 10
0.1868316907141161
 20
0.1761292931637652
 10
0.1868746352040145
 20
0.1762584648643419
  0
CIRCLE
  5
210B
330
2
100
AcDbEntity
  8
Profilo
  6
Continuous
370
     0
100
AcDbCircle
 10
0.1859629284622539
 20
0.1729864570093835
 30
0.0
 40
0.0003278964751915
  0
LWPOLYLINE
  5
210C
330
2
100
AcDbEntity
  8
Profilo
  6
Continuous
370
     0
100
AcDbPolyline
 90
       10
 70
   128
 43
0.0
 10
0.1885025970727441
 20
0.1746170397397972
 10
0.1881214976665053
 20
0.1739016377896516
 10
0.1876938908132264
 20
0.1734636226741011
 10
0.1871330936224311
 20
0.1732419091023165
 10
0.1866217604383522
 20
0.1731987434165831
 10
0.1862494762312921
 20
0.1733289149375996
 10
0.1859097775645548
 20
0.1735521420600876
 10
0.1856855669758144
 20
0.1739373600583591
 10
0.1855631595117722
 20
0.1743522632523367
 10
0.1855963309068926
 20
0.1744842830083884
  0
CIRCLE
  5
210D
330
2
100
AcDbEntity
  8
Profilo
  6
Continuous
370
     0
100
AcDbCircle
 10
0.1849316909353089
 20
0.1711532924208812
 30
0.0
 40
0.0003278964751915
  0
LWPOLYLINE
  5
210E
330
2
100
AcDbEntity
  8
Profilo
  6
Continuous
370
     0
100
AcDbPolyline
 90
       10
 70
   128
 43
0.0
 10
0.1873424045172289
 20
0.1729691053842104
 10
0.1870158327969087
 20
0.1722272242487208
 10
0.1866221545296967
 20
0.1717584788121074
 10
0.1860794941175563
 20
0.1714954767698846
 10
0.1855728165005026
 20
0.1714142198074637
 10
0.1851918455456432
 20
0.1715162065088713
 10
0.1848364149615211
 20
0.1717134237298929
 10
0.1845840439339981
 20
0.1720808093022339
 10
0.1844309729915363
 20
0.172485404821487
 10
0.1844541857839836
 20
0.1726195343249874
  0
CIRCLE
  5
210F
330
2
100
AcDbEntity
  8
Profilo
  6
Continuous
370
     0
100
AcDbCircle
 10
0.1840403295189035
 20
0.1692481892554718
 30
0.0
 40
0.0003278964751915
  0
LWPOLYLINE
  5
2110
330
2
100
AcDbEntity
  8
Profilo
  6
Continuous
370
     0
100
AcDbPolyline
 90
       10
 70
   128
 43
0.0
 10
0.1863086063840236
 20
0.1712390776890609
 10
0.186038388671155
 20
0.1704748662684712
 10
0.1856808405985693
 20
0.1699780119254162
 10
0.1851593517422316
 20
0.1696751922268622
 10
0.1846601632389639
 20
0.1695562984096477
 10
0.1842726360804232
 20
0.1696295299404427
 10
0.1839034612909185
 20
0.1697996343413011
 10
0.1836243411857705
 20
0.170147132918562
 10
0.1834414627996914
 20
0.1705391581008286
 10
0.1834545871741142
 20
0.1706746472451841
  0
CIRCLE
  5
2111
330
2
100
AcDbEntity
  8
Profilo
  6
Continuous
370
     0
100
AcDbCircle
 10
0.1832938290676449
 20
0.1672818016228352
 30
0.0
 40
0.0003278964751915
  0
LWPOLYLINE
  5
2112
330
2
100
AcDbEntity
  8
Profilo
  6
Continuous
370
     0
100
AcDbPolyline
 90
       10
 70
   128
 43
0.0
 10
0.1854069840916399
 20
0.1694366316709854
 10
0.1851946315532811
 20
0.1686543637455515
 10
0.1848752132291793
 20
0.1681321791070869
 10
0.1843778123058641
 20
0.1677912352427886
 10
0.1838889045809851
 20
0.1676353694732335
 10
0.1834969884278259
 20
0.1676794362929912
 10
0.1831161340081124
 20
0.1678214765808748
 10
0.182811825778191
 20
0.1681471448100553
 10
0.182600162678612
 20
0.1685244072914966
 10
0.1826031252381839
 20
0.1686604983664535
  0
CIRCLE
  5
2113
330
2
100
AcDbEntity
  8
Profilo
  6
Continuous
370
     0
100
AcDbCircle
 10
0.1826963643148673
 20
0.1652651263602558
 30
0.0
 40
0.0003278964751915
  0
LWPOLYLINE
  5
2114
330
2
100
AcDbEntity
  8
Profilo
  6
Continuous
370
     0
100
AcDbPolyline
 90
       10
 70
   128
 43
0.0
 10
0.1846425798776654
 20
0.1675718473392558
 10
0.1844892800753517
 20
0.1667758976685367
 10
0.1842097778165705
 20
0.1662313030029758
 10
0.1837392464940042
 20
0.1658541416693233
 10
0.1832633537178296
 20
0.1656621756120384
 10
0.1828692403241583
 20
0.1656768312812269
 10
0.1824788361666407
 20
0.1657900131092274
 10
0.1821510416270045
 20
0.166092029721487
 10
0.1819117775198358
 20
0.1664524196972725
 10
0.1819045616967216
 20
0.1665883516263364
  0
CIRCLE
  5
2115
330
2
100
AcDbEntity
  8
Profilo
  6
Continuous
370
     0
100
AcDbCircle
 10
0.1822512765258211
 20
0.1632094415338412
 30
0.0
 40
0.0003278964751915
  0
LWPOLYLINE
  5
2116
330
2
100
AcDbEntity
  8
Profilo
  6
Continuous
370
     0
100
AcDbPolyline
 90
       10
 70
   128
 43
0.0
 10
0.184019668600539
 20
0.1656551533242845
 10
0.1839262788489464
 20
0.1648499731817048
 10
0.1836882557454935
 20
0.1642860140833258
 10
0.1832472254257003
 20
0.1638747445194864
 10
0.1827870089836729
 20
0.1636477517265313
 10
0.1823929023914534
 20
0.1636329142847033
 10
0.1819951317945432
 20
0.1637166046941307
 10
0.181645684105223
 20
0.1639932806900632
 10
0.1813801570524085
 20
0.164334782713262
 10
0.1813628032004193
 20
0.1644697953099468
  0
CIRCLE
  5
2117
330
2
100
AcDbEntity
  8
Profilo
  6
Continuous
370
     0
100
AcDbCircle
 10
0.1819610548119688
 20
0.1611262433670029
 30
0.0
 40
0.0003278964751915
  0
LWPOLYLINE
  5
2118
330
2
100
AcDbEntity
  8
Profilo
  6
Continuous
370
     0
100
AcDbPolyline
 90
       10
 70
   128
 43
0.0
 10
0.1835417338327965
 20
0.163697268556485
 10
0.1835087764053001
 20
0.1628873608360117
 10
0.1833135635789198
 20
0.1623071911928577
 10
0.1829045006823435
 20
0.1618641133850596
 10
0.1824625342914914
 20
0.1616033632922087
 10
0.1820706385046524
 20
0.1615591157163583
 10
0.1816677259628776
 20
0.1616128466764946
 10
0.181298579377102
 20
0.1618626347716998
 10
0.1810082743136274
 20
0.1621833390244718
 10
0.1809808794825412
 20
0.1623166772435707
  0
CIRCLE
  5
2119
330
2
100
AcDbEntity
  8
Profilo
  6
Continuous
370
     0
100
AcDbCircle
 10
0.1818273222108548
 20
0.1590271819489133
 30
0.0
 40
0.0003278964751915
  0
LWPOLYLINE
  5
211A
330
2
100
AcDbEntity
  8
Profilo
  6
Continuous
370
     0
100
AcDbPolyline
 90
       10
 70
   128
 43
0.0
 10
0.1832114483795266
 20
0.1617091423216697
 10
0.1832391075874302
 20
0.1608990363558065
 10
0.183087796747434
 20
0.1603059007118603
 10
0.1827129889197263
 20
0.1598334925309328
 10
0.1822917442353813
 20
0.1595404433584755
 10
0.1819042508941326
 20
0.1594670330989953
 10
0.1814984496578618
 20
0.1594905041245149
 10
0.1811116685930785
 20
0.1597120074026432
 10
0.1807982090226166
 20
0.1600101203767168
 10
0.1807609264154444
 20
0.1601410385368198
  0
CIRCLE
  5
211B
330
2
100
AcDbEntity
  8
Profilo
  6
Continuous
370
     0
100
AcDbCircle
 10
0.181850826609437
 20
0.1569239960824817
 30
0.0
 40
0.0003278964751915
  0
LWPOLYLINE
  5
211C
330
2
100
AcDbEntity
  8
Profilo
  6
Continuous
370
     0
100
AcDbPolyline
 90
       10
 70
   128
 43
0.0
 10
0.183030659330963
 20
0.159701893028203
 10
0.1831187804927545
 20
0.1588961192581224
 10
0.1830122178307374
 20
0.1582933346685
 10
0.1826737611493059
 20
0.1577942380126172
 10
0.1822755939426177
 20
0.1574705286104003
 10
0.1818946700669024
 20
0.1573683662072374
 10
0.1814882495412597
 20
0.1573614460386463
 10
0.1810859970340755
 20
0.1575534257635156
 10
0.1807511359496978
 20
0.1578272802902138
 10
0.1807041740658992
 20
0.1579550462438655
  0
CIRCLE
  5
211D
330
2
100
AcDbEntity
  8
Profilo
  6
Continuous
370
     0
100
AcDbCircle
 10
0.1820314365615812
 20
0.1548284476362025
 30
0.0
 40
0.0003278964751915
  0
LWPOLYLINE
  5
211E
330
2
100
AcDbEntity
  8
Profilo
  6
Continuous
370
     0
100
AcDbPolyline
 90
       10
 70
   128
 43
0.0
 10
0.1830003777327971
 20
0.1576867460283524
 10
0.1831484680391953
 20
0.1568898106678245
 10
0.1830872494967892
 20
0.1562807481484651
 10
0.1827870367486881
 20
0.1557577541685817
 10
0.1824141737321885
 20
0.1554051948508879
 10
0.1820419496028365
 20
0.1552748516376448
 10
0.1816371826562595
 20
0.15523757897533
 10
0.1812217082658656
 20
0.1553989615184439
 10
0.180867318346585
 20
0.1556470260921707
 10
0.1808109398160653
 20
0.1557709253203314
  0
CIRCLE
  5
211F
330
2
100
AcDbEntity
  8
Profilo
  6
Continuous
370
     0
100
AcDbCircle
 10
0.1823681420231733
 20
0.1527522557670236
 30
0.0
 40
0.0003278964751915
  0
LWPOLYLINE
  5
2120
330
2
100
AcDbEntity
  8
Profilo
  6
Continuous
370
     0
100
AcDbPolyline
 90
       10
 70
   128
 43
0.0
 10
0.1831207729320117
 20
0.1556749708415563
 10
0.1833280042019532
 20
0.1548913306763873
 10
0.1833124721380781
 20
0.1542793963519586
 10
0.1830521822347706
 20
0.1537354298425524
 10
0.1827067086096961
 20
0.1533559922641001
 10
0.1823452658550277
 20
0.153198197172895
 10
0.1819444161084712
 20
0.1531307804607054
 10
0.1815180433361878
 20
0.1532606633054212
 10
0.1811461064741888
 20
0.1534815506484528
 10
0.1810806265885596
 20
0.1536008902563801
  0
CIRCLE
  5
2121
330
2
100
AcDbEntity
  8
Profilo
  6
Continuous
370
     0
100
AcDbCircle
 10
0.1828590600006905
 20
0.1507070313820571
 30
0.0
 40
0.0003278964751915
  0
LWPOLYLINE
  5
2122
330
2
100
AcDbEntity
  8
Profilo
  6
Continuous
370
     0
100
AcDbPolyline
 90
       10
 70
   128
 43
0.0
 10
0.1833911716298158
 20
0.1536778181307121
 10
0.1836563849419754
 20
0.1529118555945783
 10
0.1836866262182355
 20
0.152300471650046
 10
0.1834677148064447
 20
0.1517385746924948
 10
0.1831515626014426
 20
0.1513343808221337
 10
0.1828029225559569
 20
0.1511500163071262
 10
0.1824082317238027
 20
0.1510528325666631
 10
0.1819733450191265
 20
0.1511504893554254
 10
0.181585941236212
 20
0.1513429641761417
 10
0.1815117261855541
 20
0.1514570767683403
  0
CIRCLE
  5
2123
330
2
100
AcDbEntity
  8
Profilo
  6
Continuous
370
     0
100
AcDbCircle
 10
0.1835014450816701
 20
0.148704212205685
 30
0.0
 40
0.0003278964751915
  0
LWPOLYLINE
  5
2124
330
2
100
AcDbEntity
  8
Profilo
  6
Continuous
370
     0
100
AcDbPolyline
 90
       10
 70
   128
 43
0.0
 10
0.1838100616470062
 20
0.1517064567839026
 10
0.1841317738209629
 20
0.1509624554500086
 10
0.1842076193158733
 20
0.1503550409923915
 10
0.1840313106370133
 20
0.1497783559424062
 10
0.1837462479034582
 20
0.149351666196218
 10
0.1834123603037103
 20
0.1491417632985574
 10
0.1830260356571938
 20
0.1490153560207195
 10
0.1825850670829816
 20
0.1490802406171547
 10
0.1821843628982525
 20
0.1492432265182804
 10
0.1821018277232345
 20
0.1493514739308464
  0
CIRCLE
  5
2125
330
2
100
AcDbEntity
  8
Profilo
  6
Continuous
370
     0
100
AcDbCircle
 10
0.1842917047881631
 20
0.1467549988151586
 30
0.0
 40
0.0003278964751915
  0
LWPOLYLINE
  5
2126
330
2
100
AcDbEntity
  8
Profilo
  6
Continuous
370
     0
100
AcDbPolyline
 90
       10
 70
   128
 43
0.0
 10
0.184375100380689
 20
0.1497719114534335
 10
0.1847515122714693
 20
0.1490540320790346
 10
0.1848725378262561
 20
0.1484539840163674
 10
0.1847398178699759
 20
0.1478657359306745
 10
0.1844874387943041
 20
0.1474189365308001
 10
0.1841701708751906
 20
0.1471846691126388
 10
0.1837943728984428
 20
0.1470297452181968
 10
0.1833497885298378
 20
0.1470614947613211
 10
0.1829380248436341
 20
0.1471940802595868
 10
0.1828476311144336
 20
0.147295857129079
  0
CIRCLE
  5
2127
330
2
100
AcDbEntity
  8
Profilo
  6
Continuous
370
     0
100
AcDbCircle
 10
0.1852254196673304
 20
0.1448702920024325
 30
0.0
 40
0.0003278964751915
  0
LWPOLYLINE
  5
2128
330
2
100
AcDbEntity
  8
Profilo
  6
Continuous
370
     0
100
AcDbPolyline
 90
       10
 70
   128
 43
0.0
 10
0.1850831279050642
 20
0.147885000901518
 10
0.1855121344646868
 20
0.147197258159276
 10
0.1856776632553577
 20
0.1466079322037292
 10
0.1855892742454881
 20
0.146011410804237
 10
0.1853709902338665
 20
0.1455470004341586
 10
0.1850721162862865
 20
0.1452896786139264
 10
0.1847089465940297
 20
0.1451071045001435
 10
0.1842632327271609
 20
0.1451055414336317
 10
0.1838427122890451
 20
0.1452069850571474
 10
0.1837449655240626
 20
0.1453017222060269
  0
CIRCLE
  5
2129
330
2
100
AcDbEntity
  8
Profilo
  6
Continuous
370
     0
100
AcDbCircle
 10
0.1862973680068187
 20
0.1430606318125123
 30
0.0
 40
0.0003278964751915
  0
LWPOLYLINE
  5
212A
330
2
100
AcDbEntity
  8
Profilo
  6
Continuous
370
     0
100
AcDbPolyline
 90
       10
 70
   128
 43
0.0
 10
0.1859301846430139
 20
0.1460562774973675
 10
0.1864093866927778
 20
0.1454025175236678
 10
0.1866184930151864
 20
0.1448272094250371
 10
0.1865749292589272
 20
0.1442257507013848
 10
0.1863919610440921
 20
0.1437463265322756
 10
0.1861131524923956
 20
0.1434673893579679
 10
0.1857646420768646
 20
0.1432581860533469
 10
0.185320291324474
 20
0.1432233191185035
 10
0.1848933658553122
 20
0.1432930535533773
 10
0.184788812694108
 20
0.143380221173079
  0
CIRCLE
  5
212B
330
2
100
AcDbEntity
  8
Profilo
  6
Continuous
370
     0
100
AcDbCircle
 10
0.1875015550366908
 20
0.1413361385992471
 30
0.0
 40
0.0003278964751915
  0
LWPOLYLINE
  5
212C
330
2
100
AcDbEntity
  8
Profilo
  6
Continuous
370
     0
100
AcDbPolyline
 90
       10
 70
   128
 43
0.0
 10
0.1869115335096627
 20
0.1442959682040521
 10
0.187438251157322
 20
0.1436798470898606
 10
0.1876897656040939
 20
0.1431217742043996
 10
0.1876912707276397
 20
0.1425187417577427
 10
0.1875446415420676
 20
0.1420269849240304
 10
0.1872874575967682
 20
0.1417279923254734
 10
0.1869555554695783
 20
0.1414933297797547
 10
0.1865150528213164
 20
0.1414253539666217
 10
0.1860841098615122
 20
0.141462989229606
 10
0.1859733350077726
 20
0.1415420998434436
  0
CIRCLE
  5
212D
330
2
100
AcDbEntity
  8
Profilo
  6
Continuous
370
     0
100
AcDbCircle
 10
0.1888312464546129
 20
0.1397064564282028
 30
0.0
 40
0.0003278964751915
  0
LWPOLYLINE
  5
212E
330
2
100
AcDbEntity
  8
Profilo
  6
Continuous
370
     0
100
AcDbPolyline
 90
       10
 70
   128
 43
0.0
 10
0.1880216864040733
 20
0.1426139173851912
 10
0.1885929740308854
 20
0.1420388807296989
 10
0.1888854900312122
 20
0.1415011640273592
 10
0.1889320556173015
 20
0.1408999302597534
 10
0.1888225854708766
 20
0.1403985908651237
 10
0.1885884644089224
 20
0.1400812149302149
 10
0.1882750267013968
 20
0.13982240547154
 10
0.1878408356267596
 20
0.1397217009284373
 10
0.187408285184149
 20
0.1397270265478779
 10
0.1872919081357935
 20
0.1397976377372055
  0
CIRCLE
  5
212F
330
2
100
AcDbEntity
  8
Profilo
  6
Continuous
370
     0
100
AcDbCircle
 10
0.1902790060868
 20
0.1381806991431423
 30
0.0
 40
0.0003278964751915
  0
LWPOLYLINE
  5
2130
330
2
100
AcDbEntity
  8
Profilo
  6
Continuous
370
     0
100
AcDbPolyline
 90
       10
 70
   128
 43
0.0
 10
0.1892544349009431
 20
0.1410195317512657
 10
0.1898670976347632
 20
0.1404887953927064
 10
0.1901989793205125
 20
0.1399744420034055
 10
0.1902903449555009
 20
0.1393783692579622
 10
0.1902186460496858
 20
0.1388702509956734
 10
0.1900088971710236
 20
0.1385362666193779
 10
0.1897156767539674
 20
0.1382547576152242
 10
0.1892902254255688
 20
0.1381218875228076
 10
0.1888584864976857
 20
0.1380948737156786
 10
0.1887371580823729
 20
0.1381565905940847
  0
CIRCLE
  5
2131
330
2
100
AcDbEntity
  8
Profilo
  6
Continuous
370
     0
100
AcDbCircle
 10
0.1918367374741277
 20
0.1367673993977055
 30
0.0
 40
0.0003278964751915
  0
LWPOLYLINE
  5
2132
330
2
100
AcDbEntity
  8
Profilo
  6
Continuous
370
     0
100
AcDbPolyline
 90
       10
 70
   128
 43
0.0
 10
0.190602884970626
 20
0.1395217277534849
 10
0.1912534965529276
 20
0.1390382597848619
 10
0.1916228879070918
 20
0.138550146181395
 10
0.1917585426372839
 20
0.1379625679386938
 10
0.1917250159414465
 20
0.1374505124121819
 10
0.1915408122468858
 20
0.1371017873706077
 10
0.1912694489278135
 20
0.1367991531335186
 10
0.1908551166420581
 20
0.136634860555239
 10
0.1904266036881179
 20
0.1365756583937087
 10
0.1903010024235627
 20
0.1366281358153754
  0
CIRCLE
  5
2133
330
2
100
AcDbEntity
  8
Profilo
  6
Continuous
370
     0
100
AcDbCircle
 10
0.1934957291507999
 20
0.1354744609373601
 30
0.0
 40
0.0003278964751915
  0
LWPOLYLINE
  5
2134
330
2
100
AcDbEntity
  8
Profilo
  6
Continuous
370
     0
100
AcDbPolyline
 90
       10
 70
   128
 43
0.0
 10
0.1920594955333528
 20
0.1381288817193665
 10
0.1927444174802553
 20
0.1376953858896753
 10
0.1931492527165404
 20
0.137236241801308
 10
0.1933284379056606
 20
0.1366604440372297
 10
0.1933332709146811
 20
0.1361473148687069
 10
0.1931756425460052
 20
0.135785799373743
 10
0.1929276538986706
 20
0.1354637323571298
 10
0.1925267577697707
 20
0.1352689360837318
 10
0.1921038672080304
 20
0.1351778766503
 10
0.1919746955074537
 20
0.1352208211401984
  0
CIRCLE
  5
2135
330
2
100
AcDbEntity
  8
Profilo
  6
Continuous
370
     0
100
AcDbCircle
 10
0.1952467033624139
 20
0.1343091143984379
 30
0.0
 40
0.0003278964751915
  0
LWPOLYLINE
  5
2136
330
2
100
AcDbEntity
  8
Profilo
  6
Continuous
370
     0
100
AcDbPolyline
 90
       10
 70
   128
 43
0.0
 10
0.1936161206319984
 20
0.136848783008928
 10
0.194331522582144
 20
0.1364676836026892
 10
0.1947695376976946
 20
0.1360400767494104
 10
0.1949912512694791
 20
0.1354792795586152
 10
0.1950344169552125
 20
0.1349679463745361
 10
0.194904245434196
 20
0.134595662167476
 10
0.194681018311708
 20
0.1342559635007388
 10
0.1942958003134365
 20
0.1340317529119984
 10
0.193880897119459
 20
0.1339093454479561
 10
0.1937488773634073
 20
0.1339425168430767
  0
CIRCLE
  5
2137
330
2
100
AcDbEntity
  8
Profilo
  6
Continuous
370
     0
100
AcDbCircle
 10
0.1970798679509145
 20
0.1332778768714929
 30
0.0
 40
0.0003278964751915
  0
LWPOLYLINE
  5
2138
330
2
100
AcDbEntity
  8
Profilo
  6
Continuous
370
     0
100
AcDbPolyline
 90
       10
 70
   128
 43
0.0
 10
0.195264054987587
 20
0.1356885904534129
 10
0.1960059361230766
 20
0.1353620187330927
 10
0.1964746815596901
 20
0.1349683404658806
 10
0.196737683601911
 20
0.1344256800537403
 10
0.1968189405643337
 20
0.1339190024366865
 10
0.1967169538629243
 20
0.1335380314818271
 10
0.1965197366419027
 20
0.1331826008977051
 10
0.1961523510695635
 20
0.132930229870182
 10
0.1957477555503104
 20
0.1327771589277203
 10
0.19561362604681
 20
0.1328003717201676
  0
CIRCLE
  5
2139
330
2
100
AcDbEntity
  8
Profilo
  6
Continuous
370
     0
100
AcDbCircle
 10
0.1989849711163238
 20
0.1323865154550874
 30
0.0
 40
0.0003278964751915
  0
LWPOLYLINE
  5
213A
330
2
100
AcDbEntity
  8
Profilo
  6
Continuous
370
     0
100
AcDbPolyline
 90
       10
 70
   128
 43
0.0
 10
0.1969940826827365
 20
0.1346547923202075
 10
0.1977582941033262
 20
0.1343845746073389
 10
0.1982551484463795
 20
0.1340270265347532
 10
0.1985579681449352
 20
0.1335055376784157
 10
0.1986768619621497
 20
0.1330063491751496
 10
0.198603630431353
 20
0.1326188220166071
 10
0.1984335260304963
 20
0.1322496472271025
 10
0.1980860274532337
 20
0.1319705271219545
 10
0.197694002270967
 20
0.1317876487358754
 10
0.1975585131266115
 20
0.1318007731102981
  0
CIRCLE
  5
213B
330
2
100
AcDbEntity
  8
Profilo
  6
Continuous
370
     0
100
AcDbCircle
 10
0.2009513587489604
 20
0.1316400150038289
 30
0.0
 40
0.0003278964751915
  0
LWPOLYLINE
  5
213C
330
2
100
AcDbEntity
  8
Profilo
  6
Continuous
370
     0
100
AcDbPolyline
 90
       10
 70
   128
 43
0.0
 10
0.1987965287008121
 20
0.1337531700278239
 10
0.1995787966262441
 20
0.133540817489465
 10
0.2001009812647088
 20
0.1332213991653632
 10
0.2004419251290088
 20
0.1327239982420482
 10
0.2005977908985621
 20
0.132235090517169
 10
0.2005537240788044
 20
0.1318431743640099
 10
0.2004116837909209
 20
0.1314623199442964
 10
0.2000860155617403
 20
0.131158011714375
 10
0.1997087530803008
 20
0.130946348614796
 10
0.1995726620053422
 20
0.1309493111743679
  0
CIRCLE
  5
213D
330
2
100
AcDbEntity
  8
Profilo
  6
Continuous
370
     0
100
AcDbCircle
 10
0.2029680340115398
 20
0.1310425502510513
 30
0.0
 40
0.0003278964751915
  0
LWPOLYLINE
  5
213E
330
2
100
AcDbEntity
  8
Profilo
  6
Continuous
370
     0
100
AcDbPolyline
 90
       10
 70
   128
 43
0.0
 10
0.2006613130325399
 20
0.1329887658138494
 10
0.2014572627032589
 20
0.1328354660115357
 10
0.2020018573688198
 20
0.1325559637527545
 10
0.2023790187024741
 20
0.1320854324301881
 10
0.202570984759759
 20
0.1316095396540136
 10
0.2025563290905705
 20
0.1312154262603423
 10
0.2024431472625683
 20
0.1308250221028246
 10
0.2021411306503087
 20
0.1304972275631884
 10
0.2017807406745231
 20
0.1302579634560197
 10
0.2016448087454592
 20
0.1302507476329057
  0
CIRCLE
  5
213F
330
2
100
AcDbEntity
  8
Profilo
  6
Continuous
370
     0
100
AcDbCircle
 10
0.2050237188379544
 20
0.130597462462005
 30
0.0
 40
0.0003278964751915
  0
LWPOLYLINE
  5
2140
330
2
100
AcDbEntity
  8
Profilo
  6
Continuous
370
     0
100
AcDbPolyline
 90
       10
 70
   128
 43
0.0
 10
0.2025780070475112
 20
0.1323658545367229
 10
0.2033831871900908
 20
0.1322724647851304
 10
0.2039471462884699
 20
0.1320344416816775
 10
0.2043584158523093
 20
0.1315934113618842
 10
0.2045854086452661
 20
0.1311331949198569
 10
0.2046002460870924
 20
0.1307390883276374
 10
0.2045165556776649
 20
0.1303413177307271
 10
0.2042398796817324
 20
0.1299918700414069
 10
0.2038983776585337
 20
0.1297263429885925
 10
0.2037633650618489
 20
0.1297089891366033
  0
CIRCLE
  5
2141
330
2
100
AcDbEntity
  8
Profilo
  6
Continuous
370
     0
100
AcDbCircle
 10
0.2071069170047945
 20
0.1303072407481528
 30
0.0
 40
0.0003278964751915
  0
LWPOLYLINE
  5
2142
330
2
100
AcDbEntity
  8
Profilo
  6
Continuous
370
     0
100
AcDbPolyline
 90
       10
 70
   128
 43
0.0
 10
0.2045358918153106
 20
0.1318879197689804
 10
0.2053457995357839
 20
0.131854962341484
 10
0.2059259691789379
 20
0.1316597495151038
 10
0.2063690469867379
 20
0.1312506866185275
 10
0.2066297970795869
 20
0.1308087202276754
 10
0.2066740446554374
 20
0.1304168244408363
 10
0.2066203136953029
 20
0.1300139118990615
 10
0.2063705256000958
 20
0.129644765313286
 10
0.2060498213473239
 20
0.1293544602498114
 10
0.2059164831282267
 20
0.1293270654187269
  0
CIRCLE
  5
2143
330
2
100
AcDbEntity
  8
Profilo
  6
Continuous
370
     0
100
AcDbCircle
 10
0.2092059784228841
 20
0.1301735081470406
 30
0.0
 40
0.0003278964751915
  0
LWPOLYLINE
  5
2144
330
2
100
AcDbEntity
  8
Profilo
  6
Continuous
370
     0
100
AcDbPolyline
 90
       10
 70
   128
 43
0.0
 10
0.206524018050126
 20
0.1315576343157107
 10
0.2073341240159892
 20
0.1315852935236141
 10
0.2079272596599371
 20
0.131433982683618
 10
0.2083996678408646
 20
0.1310591748559103
 10
0.2086927170133201
 20
0.1306379301715653
 10
0.2087661272728003
 20
0.1302504368303166
 10
0.2087426562472825
 20
0.1298446355940457
 10
0.2085211529691524
 20
0.1294578545292624
 10
0.2082230399950788
 20
0.1291443949588005
 10
0.2080921218349758
 20
0.1291071123516284
  0
CIRCLE
  5
2145
330
2
100
AcDbEntity
  8
Profilo
  6
Continuous
370
     0
100
AcDbCircle
 10
0.2113091642893157
 20
0.1301970125456209
 30
0.0
 40
0.0003278964751915
  0
LWPOLYLINE
  5
2146
330
2
100
AcDbEntity
  8
Profilo
  6
Continuous
370
     0
100
AcDbPolyline
 90
       10
 70
   128
 43
0.0
 10
0.2085312673435927
 20
0.1313768452671469
 10
0.209337041113675
 20
0.1314649664289385
 10
0.2099398257032956
 20
0.1313584037669214
 10
0.2104389223591786
 20
0.1310199470854898
 10
0.2107626317613971
 20
0.1306217798788016
 10
0.2108647941645583
 20
0.1302408560030864
 10
0.2108717143331511
 20
0.1298344354774438
 10
0.2106797346082818
 20
0.1294321829702594
 10
0.2104058800815818
 20
0.1290973218858817
 10
0.2102781141279302
 20
0.1290503600020831
  0
CIRCLE
  5
2147
330
2
100
AcDbEntity
  8
Profilo
  6
Continuous
370
     0
100
AcDbCircle
 10
0.2134047127355931
 20
0.1303776224977651
 30
0.0
 40
0.0003278964751915
  0
LWPOLYLINE
  5
2148
330
2
100
AcDbEntity
  8
Profilo
  6
Continuous
370
     0
100
AcDbPolyline
 90
       10
 70
   128
 43
0.0
 10
0.210546414343445
 20
0.131346563668981
 10
0.2113433497039729
 20
0.1314946539753792
 10
0.2119524122233305
 20
0.1314334354329731
 10
0.2124754062032139
 20
0.1311332226848721
 10
0.2128279655209078
 20
0.1307603596683724
 10
0.2129583087341527
 20
0.1303881355390204
 10
0.2129955813964657
 20
0.1299833685924435
 10
0.2128341988533517
 20
0.1295678942020495
 10
0.2125861342796267
 20
0.1292135042827689
 10
0.212462235051466
 20
0.1291571257522492
  0
CIRCLE
  5
2149
330
2
100
AcDbEntity
  8
Profilo
  6
Continuous
370
     0
100
AcDbCircle
 10
0.2154809046047721
 20
0.1307143279593573
 30
0.0
 40
0.0003278964751915
  0
LWPOLYLINE
  5
214A
330
2
100
AcDbEntity
  8
Profilo
  6
Continuous
370
     0
100
AcDbPolyline
 90
       10
 70
   128
 43
0.0
 10
0.2125581895302411
 20
0.1314669588681956
 10
0.2133418296954102
 20
0.1316741901381371
 10
0.2139537640198388
 20
0.131658658074262
 10
0.2144977305292433
 20
0.1313983681709545
 10
0.2148771681076973
 20
0.13105289454588
 10
0.2150349631989024
 20
0.1306914517912117
 10
0.2151023799110903
 20
0.1302906020446551
 10
0.2149724970663762
 20
0.1298642292723717
 10
0.2147516097233446
 20
0.1294922924103728
 10
0.2146322701154155
 20
0.1294268125247435
  0
CIRCLE
  5
214B
330
2
100
AcDbEntity
  8
Profilo
  6
Continuous
370
     0
100
AcDbCircle
 10
0.2175261289897385
 20
0.1312052459368745
 30
0.0
 40
0.0003278964751915
  0
LWPOLYLINE
  5
214C
330
2
100
AcDbEntity
  8
Profilo
  6
Continuous
370
     0
100
AcDbPolyline
 90
       10
 70
   128
 43
0.0
 10
0.2145553422410835
 20
0.1317373575659997
 10
0.2153213047772173
 20
0.1320025708781594
 10
0.2159326887217496
 20
0.1320328121544195
 10
0.2164945856793008
 20
0.1318139007426288
 10
0.216898779549662
 20
0.1314977485376265
 10
0.2170831440646712
 20
0.1311491084921409
 10
0.2171803278051343
 20
0.1307544176599866
 10
0.2170826710163702
 20
0.1303195309553105
 10
0.2168901961956557
 20
0.1299321271723959
 10
0.2167760836034571
 20
0.129857912121738
  0
CIRCLE
  5
214D
330
2
100
AcDbEntity
  8
Profilo
  6
Continuous
370
     0
100
AcDbCircle
 10
0.2195289481661125
 20
0.131847631017854
 30
0.0
 40
0.0003278964751915
  0
LWPOLYLINE
  5
214E
330
2
100
AcDbEntity
  8
Profilo
  6
Continuous
370
     0
100
AcDbPolyline
 90
       10
 70
   128
 43
0.0
 10
0.2165267035878948
 20
0.1321562475831901
 10
0.217270704921787
 20
0.1324779597571469
 10
0.2178781193794059
 20
0.1325538052520573
 10
0.2184548044293912
 20
0.1323774965731973
 10
0.2188814941755794
 20
0.1320924338396421
 10
0.2190913970732382
 20
0.1317585462398943
 10
0.2192178043510762
 20
0.1313722215933777
 10
0.2191529197546409
 20
0.1309312530191655
 10
0.2189899338535153
 20
0.1305305488344364
 10
0.2188816864409511
 20
0.1304480136594184
  0
CIRCLE
  5
214F
330
2
100
AcDbEntity
  8
Profilo
  6
Continuous
370
     0
100
AcDbCircle
 10
0.2214781615566388
 20
0.1326378907243472
 30
0.0
 40
0.0003278964751915
  0
LWPOLYLINE
  5
2150
330
2
100
AcDbEntity
  8
Profilo
  6
Continuous
370
     0
100
AcDbPolyline
 90
       10
 70
   128
 43
0.0
 10
0.2184612489183622
 20
0.132721286316873
 10
0.2191791282927611
 20
0.1330976982076533
 10
0.2197791763554282
 20
0.1332187237624401
 10
0.2203674244411229
 20
0.1330860038061599
 10
0.2208142238409974
 20
0.132833624730488
 10
0.2210484912591586
 20
0.1325163568113745
 10
0.2212034151535989
 20
0.1321405588346268
 10
0.2211716656104745
 20
0.1316959744660217
 10
0.2210390801122106
 20
0.131284210779818
 10
0.2209373032427184
 20
0.1311938170506175
  0
CIRCLE
  5
2151
330
2
100
AcDbEntity
  8
Profilo
  6
Continuous
370
     0
100
AcDbCircle
 10
0.2233628683693631
 20
0.1335716056035144
 30
0.0
 40
0.0003278964751915
  0
LWPOLYLINE
  5
2152
330
2
100
AcDbEntity
  8
Profilo
  6
Continuous
370
     0
100
AcDbPolyline
 90
       10
 70
   128
 43
0.0
 10
0.2203481594702776
 20
0.1334293138412481
 10
0.2210359022125197
 20
0.1338583204008726
 10
0.2216252281680682
 20
0.1340238491915416
 10
0.2222217495675605
 20
0.133935460181672
 10
0.2226861599376371
 20
0.1337171761700505
 10
0.222943481757871
 20
0.1334183022224705
 10
0.2231260558716539
 20
0.1330551325302136
 10
0.2231276189381639
 20
0.1326094186633449
 10
0.2230261753146483
 20
0.1321888982252292
 10
0.2229314381657688
 20
0.1320911514602465
  0
CIRCLE
  5
2153
330
2
100
AcDbEntity
  8
Profilo
  6
Continuous
370
     0
100
AcDbCircle
 10
0.2251725285592834
 20
0.1346435539430026
 30
0.0
 40
0.0003278964751915
  0
LWPOLYLINE
  5
2154
330
2
100
AcDbEntity
  8
Profilo
  6
Continuous
370
     0
100
AcDbPolyline
 90
       10
 70
   128
 43
0.0
 10
0.2221768828744299
 20
0.1342763705791979
 10
0.2228306428481279
 20
0.1347555726289618
 10
0.2234059509467585
 20
0.1349646789513704
 10
0.2240074096704128
 20
0.1349211151951111
 10
0.2244868338395201
 20
0.134738146980276
 10
0.2247657710138278
 20
0.1344593384285795
 10
0.2249749743184488
 20
0.1341108280130485
 10
0.2250098412532921
 20
0.133666477260658
 10
0.2249401068184185
 20
0.1332395517914963
 10
0.2248529391987166
 20
0.1331349986302919
  0
CIRCLE
  5
2155
330
2
100
AcDbEntity
  8
Profilo
  6
Continuous
370
     0
100
AcDbCircle
 10
0.2268970217725486
 20
0.1358477409728748
 30
0.0
 40
0.0003278964751915
  0
LWPOLYLINE
  5
2156
330
2
100
AcDbEntity
  8
Profilo
  6
Continuous
370
     0
100
AcDbPolyline
 90
       10
 70
   128
 43
0.0
 10
0.2239371921677435
 20
0.1352577194458466
 10
0.2245533132819351
 20
0.135784437093506
 10
0.2251113861673961
 20
0.1360359515402778
 10
0.2257144186140529
 20
0.1360374566638236
 10
0.2262061754477671
 20
0.1358908274782516
 10
0.2265051680463224
 20
0.1356336435329521
 10
0.2267398305920409
 20
0.1353017414057623
 10
0.2268078064051757
 20
0.1348612387575004
 10
0.2267701711421897
 20
0.1344302957976963
 10
0.2266910605283521
 20
0.1343195209439565
  0
CIRCLE
  5
2157
330
2
100
AcDbEntity
  8
Profilo
  6
Continuous
370
     0
100
AcDbCircle
 10
0.228526703943593
 20
0.1371774323907969
 30
0.0
 40
0.0003278964751915
  0
LWPOLYLINE
  5
2158
330
2
100
AcDbEntity
  8
Profilo
  6
Continuous
370
     0
100
AcDbPolyline
 90
       10
 70
   128
 43
0.0
 10
0.2256192429866044
 20
0.1363678723402573
 10
0.2261942796420968
 20
0.1369391599670694
 10
0.2267319963444365
 20
0.1372316759673963
 10
0.2273332301120441
 20
0.1372782415534855
 10
0.2278345695066719
 20
0.1371687714070605
 10
0.2281519454415826
 20
0.1369346503451064
 10
0.2284107549002556
 20
0.1366212126375808
 10
0.2285114594433584
 20
0.1361870215629435
 10
0.2285061338239178
 20
0.1357544711203329
 10
0.2284355226345902
 20
0.1356380940719775
  0
CIRCLE
  5
2159
330
2
100
AcDbEntity
  8
Profilo
  6
Continuous
370
     0
100
AcDbCircle
 10
0.2300524612286552
 20
0.138625192022984
 30
0.0
 40
0.0003278964751915
  0
LWPOLYLINE
  5
215A
330
2
100
AcDbEntity
  8
Profilo
  6
Continuous
370
     0
100
AcDbPolyline
 90
       10
 70
   128
 43
0.0
 10
0.22721362862053
 20
0.137600620837127
 10
0.2277443649790893
 20
0.1382132835709471
 10
0.2282587183683902
 20
0.1385451652566965
 10
0.2288547911138352
 20
0.1386365308916849
 10
0.2293629093761222
 20
0.1385648319858698
 10
0.2296968937524177
 20
0.1383550831072076
 10
0.2299784027565714
 20
0.1380618626901513
 10
0.230111272848988
 20
0.1376364113617527
 10
0.230138286656117
 20
0.1372046724338696
 10
0.230076569777711
 20
0.1370833440185569
  0
CIRCLE
  5
215B
330
2
100
AcDbEntity
  8
Profilo
  6
Continuous
370
     0
100
AcDbCircle
 10
0.2314657609740902
 20
0.1401829234103116
 30
0.0
 40
0.0003278964751915
  0
LWPOLYLINE
  5
215C
330
2
100
AcDbEntity
  8
Profilo
  6
Continuous
370
     0
100
AcDbPolyline
 90
       10
 70
   128
 43
0.0
 10
0.2287114326183126
 20
0.13894907090681
 10
0.2291949005869338
 20
0.1395996824891115
 10
0.2296830141904025
 20
0.1399690738432758
 10
0.2302705924331019
 20
0.1401047285734679
 10
0.2307826479596138
 20
0.1400712018776305
 10
0.2311313730011879
 20
0.1398869981830697
 10
0.2314340072382788
 20
0.1396156348639975
 10
0.2315982998165567
 20
0.139201302578242
 10
0.2316575019780871
 20
0.1387727896243019
 10
0.2316050245564203
 20
0.1386471883597466
  0
CIRCLE
  5
215D
330
2
100
AcDbEntity
  8
Profilo
  6
Continuous
370
     0
100
AcDbCircle
 10
0.2327586994344373
 20
0.1418419150869839
 30
0.0
 40
0.0003278964751915
  0
LWPOLYLINE
  5
215E
330
2
100
AcDbEntity
  8
Profilo
  6
Continuous
370
     0
100
AcDbPolyline
 90
       10
 70
   128
 43
0.0
 10
0.2301042786524292
 20
0.1404056814695367
 10
0.2305377744821204
 20
0.1410906034164392
 10
0.2309969185704876
 20
0.1414954386527244
 10
0.2315727163345678
 20
0.1416746238418445
 10
0.2320858455030905
 20
0.141679456850865
 10
0.2324473609980526
 20
0.1415218284821891
 10
0.2327694280146659
 20
0.1412738398348545
 10
0.2329642242880656
 20
0.1408729437059546
 10
0.2330552837214956
 20
0.1404500531442144
 10
0.233012339231599
 20
0.1403208814436376
  0
CIRCLE
  5
215F
330
2
100
AcDbEntity
  8
Profilo
  6
Continuous
370
     0
100
AcDbCircle
 10
0.2339240459733596
 20
0.1435928892985979
 30
0.0
 40
0.0003278964751915
  0
LWPOLYLINE
  5
2160
330
2
100
AcDbEntity
  8
Profilo
  6
Continuous
370
     0
100
AcDbPolyline
 90
       10
 70
   128
 43
0.0
 10
0.2313843773628676
 20
0.1419623065681824
 10
0.2317654767691082
 20
0.142677708518328
 10
0.2321930836223853
 20
0.1431157236338785
 10
0.2327538808131824
 20
0.1433374372056632
 10
0.2332652139972613
 20
0.1433806028913965
 10
0.2336374982043214
 20
0.14325043137038
 10
0.2339771968710587
 20
0.143027204247892
 10
0.2342014074597991
 20
0.1426419862496205
 10
0.2343238149238414
 20
0.142227083055643
 10
0.2342906435287209
 20
0.1420950632995912
  0
CIRCLE
  5
2161
330
2
100
AcDbEntity
  8
Profilo
  6
Continuous
370
     0
100
AcDbCircle
 10
0.2349552835003028
 20
0.1454260538870984
 30
0.0
 40
0.0003278964751915
  0
LWPOLYLINE
  5
2162
330
2
100
AcDbEntity
  8
Profilo
  6
Continuous
370
     0
100
AcDbPolyline
 90
       10
 70
   128
 43
0.0
 10
0.2325445699183846
 20
0.143610240923771
 10
0.232871141638703
 20
0.1443521220592605
 10
0.2332648199059151
 20
0.144820867495874
 10
0.2338074803180572
 20
0.145083869538095
 10
0.2343141579351109
 20
0.1451651265005176
 10
0.2346951288899686
 20
0.1450631397991083
 10
0.2350505594740924
 20
0.1448659225780866
 10
0.2353029305016137
 20
0.1444985370057475
 10
0.2354560014440754
 20
0.1440939414864944
 10
0.2354327886516281
 20
0.1439598119829939
  0
CIRCLE
  5
2163
330
2
100
AcDbEntity
  8
Profilo
  6
Continuous
370
     0
100
AcDbCircle
 10
0.2358466449167083
 20
0.1473311570525077
 30
0.0
 40
0.0003278964751915
  0
LWPOLYLINE
  5
2164
330
2
100
AcDbEntity
  8
Profilo
  6
Continuous
370
     0
100
AcDbPolyline
 90
       10
 70
   128
 43
0.0
 10
0.2335783680515882
 20
0.1453402686189205
 10
0.2338485857644568
 20
0.1461044800395101
 10
0.2342061338370425
 20
0.1466013343825634
 10
0.2347276226933819
 20
0.1469041540811191
 10
0.2352268111966478
 20
0.1470230478983336
 10
0.2356143383551903
 20
0.1469498163675369
 10
0.235983513144695
 20
0.1467797119666803
 10
0.2362626332498412
 20
0.1464322133894176
 10
0.2364455116359203
 20
0.1460401882071509
 10
0.2364323872614975
 20
0.1459046990627955
  0
CIRCLE
  5
2165
330
2
100
AcDbEntity
  8
Profilo
  6
Continuous
370
     0
100
AcDbCircle
 10
0.2365931453679668
 20
0.1492975446851443
 30
0.0
 40
0.0003278964751915
  0
LWPOLYLINE
  5
2166
330
2
100
AcDbEntity
  8
Profilo
  6
Continuous
370
     0
100
AcDbPolyline
 90
       10
 70
   128
 43
0.0
 10
0.2344799903439718
 20
0.1471427146369959
 10
0.2346923428823306
 20
0.147924982562428
 10
0.2350117612064324
 20
0.1484471672008927
 10
0.2355091621297476
 20
0.1487881110651927
 10
0.2359980698546267
 20
0.148943976834746
 10
0.2363899860077858
 20
0.1488999100149883
 10
0.2367708404274993
 20
0.1487578697271048
 10
0.2370751486574207
 20
0.1484322014979242
 10
0.2372868117570015
 20
0.1480549390164847
 10
0.2372838491974296
 20
0.1479188479415261
  0
CIRCLE
  5
2167
330
2
100
AcDbEntity
  8
Profilo
  6
Continuous
370
     0
100
AcDbCircle
 10
0.2371906101207444
 20
0.1513142199477238
 30
0.0
 40
0.0003278964751915
  0
LWPOLYLINE
  5
2168
330
2
100
AcDbEntity
  8
Profilo
  6
Continuous
370
     0
100
AcDbPolyline
 90
       10
 70
   128
 43
0.0
 10
0.2352443945579463
 20
0.1490074989687238
 10
0.23539769436026
 20
0.1498034486394428
 10
0.235677196619043
 20
0.1503480433050037
 10
0.2361477279416075
 20
0.150725204638658
 10
0.2366236207177821
 20
0.1509171706959429
 10
0.2370177341114534
 20
0.1509025150267544
 10
0.237408138268971
 20
0.1507893331987522
 10
0.2377359328086073
 20
0.1504873165864926
 10
0.2379751969157759
 20
0.150126926610707
 10
0.2379824127388901
 20
0.1499909946816431
  0
CIRCLE
  5
2169
330
2
100
AcDbEntity
  8
Profilo
  6
Continuous
370
     0
100
AcDbCircle
 10
0.2376356979097907
 20
0.1533699047741383
 30
0.0
 40
0.0003278964751915
  0
LWPOLYLINE
  5
216A
330
2
100
AcDbEntity
  8
Profilo
  6
Continuous
370
     0
100
AcDbPolyline
 90
       10
 70
   128
 43
0.0
 10
0.2358673058350729
 20
0.1509241929836951
 10
0.2359606955866653
 20
0.1517293731262748
 10
0.23619871869012
 20
0.1522933322246538
 10
0.2366397490099132
 20
0.1527046017884932
 10
0.2370999654519388
 20
0.15293159458145
 10
0.2374940720441583
 20
0.1529464320232763
 10
0.2378918426410685
 20
0.1528627416138488
 10
0.2382412903303888
 20
0.1525860656179163
 10
0.238506817383205
 20
0.1522445635947176
 10
0.2385241712351942
 20
0.1521095509980328
  0
CIRCLE
  5
216B
330
2
100
AcDbEntity
  8
Profilo
  6
Continuous
370
     0
100
AcDbCircle
 10
0.2379259196236447
 20
0.1554531029409785
 30
0.0
 40
0.0003278964751915
  0
LWPOLYLINE
  5
216C
330
2
100
AcDbEntity
  8
Profilo
  6
Continuous
370
     0
100
AcDbPolyline
 90
       10
 70
   128
 43
0.0
 10
0.236345240602817
 20
0.1528820777514945
 10
0.2363781980303135
 20
0.1536919854719678
 10
0.2365734108566937
 20
0.1542721551151218
 10
0.2369824737532682
 20
0.1547152329229217
 10
0.2374244401441203
 20
0.1549759830157708
 10
0.2378163359309593
 20
0.1550202305916213
 10
0.2382192484727359
 20
0.1549664996314868
 10
0.2385883950585097
 20
0.1547167115362797
 10
0.2388787001219861
 20
0.1543960072835078
 10
0.2389060949530706
 20
0.1542626690644107
  0
CIRCLE
  5
216D
330
2
100
AcDbEntity
  8
Profilo
  6
Continuous
370
     0
100
AcDbCircle
 10
0.2380596522247569
 20
0.157552164359068
 30
0.0
 40
0.0003278964751915
  0
LWPOLYLINE
  5
216E
330
2
100
AcDbEntity
  8
Profilo
  6
Continuous
370
     0
100
AcDbPolyline
 90
       10
 70
   128
 43
0.0
 10
0.2366755260560851
 20
0.1548702039863099
 10
0.2366478668481833
 20
0.1556803099521731
 10
0.2367991776881795
 20
0.156273445596121
 10
0.2371739855158872
 20
0.1567458537770485
 10
0.2375952302002304
 20
0.157038902949504
 10
0.2379827235414809
 20
0.1571123132089842
 10
0.23838852477775
 20
0.1570888421834664
 10
0.2387753058425333
 20
0.1568673389053363
 10
0.2390887654129952
 20
0.1565692259312627
 10
0.2391260480201673
 20
0.1564383077711597
  0
CIRCLE
  5
216F
330
2
100
AcDbEntity
  8
Profilo
  6
Continuous
370
     0
100
AcDbCircle
 10
0.2380361478261748
 20
0.1596553502254996
 30
0.0
 40
0.0003278964751915
  0
LWPOLYLINE
  5
2170
330
2
100
AcDbEntity
  8
Profilo
  6
Continuous
370
     0
100
AcDbPolyline
 90
       10
 70
   128
 43
0.0
 10
0.2368563151046488
 20
0.1568774532797765
 10
0.236768193942859
 20
0.1576832270498589
 10
0.2368747566048761
 20
0.1582860116394795
 10
0.2372132132863076
 20
0.1587851082953624
 10
0.237611380492994
 20
0.159108817697581
 10
0.2379923043687093
 20
0.1592109801007422
 10
0.238398724894352
 20
0.159217900269335
 10
0.2388009774015363
 20
0.1590259205444657
 10
0.2391358384859157
 20
0.1587520660177657
 10
0.2391828003697143
 20
0.1586243000641141
  0
CIRCLE
  5
2171
330
2
100
AcDbEntity
  8
Profilo
  6
Continuous
370
     0
100
AcDbCircle
 10
0.2378555378740306
 20
0.161750898671777
 30
0.0
 40
0.0003278964751915
  0
LWPOLYLINE
  5
2172
330
2
100
AcDbEntity
  8
Profilo
  6
Continuous
370
     0
100
AcDbPolyline
 90
       10
 70
   128
 43
0.0
 10
0.2368865967028146
 20
0.1588926002796289
 10
0.2367385063964165
 20
0.1596895356401569
 10
0.2367997249388225
 20
0.1602985981595144
 10
0.2370999376869254
 20
0.1608215921393978
 10
0.2374728007034232
 20
0.1611741514570917
 10
0.2378450248327752
 20
0.1613044946703366
 10
0.2382497917793522
 20
0.1613417673326496
 10
0.2386652661697479
 20
0.1611803847895357
 10
0.2390196560890285
 20
0.1609323202158106
 10
0.2390760346195482
 20
0.1608084209876499
  0
CIRCLE
  5
2173
330
2
100
AcDbEntity
  8
Profilo
  6
Continuous
370
     0
100
AcDbCircle
 10
0.2375188324124402
 20
0.163827090540956
 30
0.0
 40
0.0003278964751915
  0
LWPOLYLINE
  5
2174
330
2
100
AcDbEntity
  8
Profilo
  6
Continuous
370
     0
100
AcDbPolyline
 90
       10
 70
   128
 43
0.0
 10
0.2367662015036001
 20
0.160904375466425
 10
0.2365589702336603
 20
0.1616880156315941
 10
0.2365745022975336
 20
0.1622999499560227
 10
0.2368347922008411
 20
0.1628439164654272
 10
0.2371802658259157
 20
0.1632233540438812
 10
0.237541708580584
 20
0.1633811491350863
 10
0.2379425583271406
 20
0.1634485658472742
 10
0.2383689310994239
 20
0.1633186830025601
 10
0.2387408679614247
 20
0.1630977956595285
 10
0.2388063478470539
 20
0.1629784560515994
  0
CIRCLE
  5
2175
330
2
100
AcDbEntity
  8
Profilo
  6
Continuous
370
     0
100
AcDbCircle
 10
0.2370279144349212
 20
0.1658723149259225
 30
0.0
 40
0.0003278964751915
  0
LWPOLYLINE
  5
2176
330
2
100
AcDbEntity
  8
Profilo
  6
Continuous
370
     0
100
AcDbPolyline
 90
       10
 70
   128
 43
0.0
 10
0.2364958028057977
 20
0.1629015281772674
 10
0.2362305894936363
 20
0.1636674907134012
 10
0.2362003482173762
 20
0.1642788746579336
 10
0.236419259629167
 20
0.1648407716154847
 10
0.2367354118341691
 20
0.1652449654858459
 10
0.2370840518796549
 20
0.1654293300008551
 10
0.237478742711809
 20
0.1655265137413164
 10
0.237913629416487
 20
0.1654288569525542
 10
0.2383010331993998
 20
0.1652363821318397
 10
0.2383752482500576
 20
0.165122269539641
  0
CIRCLE
  5
2177
330
2
100
AcDbEntity
  8
Profilo
  6
Continuous
370
     0
100
AcDbCircle
 10
0.2363855293539416
 20
0.1678751341022964
 30
0.0
 40
0.0003278964751915
  0
LWPOLYLINE
  5
2178
330
2
100
AcDbEntity
  8
Profilo
  6
Continuous
370
     0
100
AcDbPolyline
 90
       10
 70
   128
 43
0.0
 10
0.2360769127886073
 20
0.1648728895240787
 10
0.2357552006146488
 20
0.1656168908579709
 10
0.2356793551197385
 20
0.1662243053155898
 10
0.2358556637985985
 20
0.1668009903655752
 10
0.2361407265321553
 20
0.1672276801117634
 10
0.2364746141319014
 20
0.1674375830094221
 10
0.2368609387784197
 20
0.1675639902872601
 10
0.23730190735263
 20
0.1674991056908248
 10
0.2377026115373593
 20
0.1673361197896992
 10
0.2377851467123773
 20
0.167227872377135
  0
CIRCLE
  5
2179
330
2
100
AcDbEntity
  8
Profilo
  6
Continuous
370
     0
100
AcDbCircle
 10
0.2355952696474486
 20
0.1698243474928227
 30
0.0
 40
0.0003278964751915
  0
LWPOLYLINE
  5
217A
330
2
100
AcDbEntity
  8
Profilo
  6
Continuous
370
     0
100
AcDbPolyline
 90
       10
 70
   128
 43
0.0
 10
0.2355118740549245
 20
0.1668074348545461
 10
0.2351354621641442
 20
0.167525314228945
 10
0.2350144366093556
 20
0.1681253622916121
 10
0.2351471565656358
 20
0.1687136103773068
 10
0.2353995356413077
 20
0.1691604097771813
 10
0.2357168035604211
 20
0.1693946771953425
 10
0.2360926015371707
 20
0.1695496010897828
 10
0.2365371859057757
 20
0.1695178515466584
 10
0.2369489495919776
 20
0.1693852660483945
 10
0.2370393433211781
 20
0.1692834891789023
  0
CIRCLE
  5
217B
330
2
100
AcDbEntity
  8
Profilo
  6
Continuous
370
     0
100
AcDbCircle
 10
0.2346615547682813
 20
0.1717090543055471
 30
0.0
 40
0.0003278964751915
  0
LWPOLYLINE
  5
217C
330
2
100
AcDbEntity
  8
Profilo
  6
Continuous
370
     0
100
AcDbPolyline
 90
       10
 70
   128
 43
0.0
 10
0.2348038465305475
 20
0.1686943454064615
 10
0.2343748399709249
 20
0.1693820881487054
 10
0.2342093111802559
 20
0.1699714141042521
 10
0.2342977001901236
 20
0.1705679355037444
 10
0.234515984201747
 20
0.171032345873821
 10
0.234814858149327
 20
0.171289667694055
 10
0.235178027841582
 20
0.1714722418078378
 10
0.2356237417084508
 20
0.1714738048743478
 10
0.2360442621465684
 20
0.1713723612508322
 10
0.2361420089115509
 20
0.1712776241019527
  0
CIRCLE
  5
217D
330
2
100
AcDbEntity
  8
Profilo
  6
Continuous
370
     0
100
AcDbCircle
 10
0.233589606428793
 20
0.1735187144954673
 30
0.0
 40
0.0003278964751915
  0
LWPOLYLINE
  5
217E
330
2
100
AcDbEntity
  8
Profilo
  6
Continuous
370
     0
100
AcDbPolyline
 90
       10
 70
   128
 43
0.0
 10
0.2339567897925978
 20
0.1705230688106138
 10
0.2334775877428339
 20
0.1711768287843118
 10
0.2332684814204253
 20
0.1717521368829424
 10
0.2333120451766846
 20
0.1723535956065967
 10
0.2334950133915197
 20
0.1728330197757039
 10
0.2337738219432179
 20
0.1731119569500117
 10
0.2341223323587471
 20
0.1733211602546327
 10
0.2345666831111395
 20
0.1733560271894761
 10
0.2349936085802995
 20
0.1732862927546024
 10
0.2350981617415038
 20
0.1731991251349005
  0
CIRCLE
  5
217F
330
2
100
AcDbEntity
  8
Profilo
  6
Continuous
370
     0
100
AcDbCircle
 10
0.232385419398921
 20
0.1752432077087342
 30
0.0
 40
0.0003278964751915
  0
LWPOLYLINE
  5
2180
330
2
100
AcDbEntity
  8
Profilo
  6
Continuous
370
     0
100
AcDbPolyline
 90
       10
 70
   128
 43
0.0
 10
0.232975440925949
 20
0.1722833781039274
 10
0.2324487232782915
 20
0.1728994992181208
 10
0.2321972088315178
 20
0.17345757210358
 10
0.232195703707972
 20
0.1740606045502368
 10
0.2323423328935459
 20
0.174552361383951
 10
0.2325995168388435
 20
0.1748513539825063
 10
0.2329314189660352
 20
0.1750860165282248
 10
0.2333719216142953
 20
0.1751539923413596
 10
0.2338028645741013
 20
0.1751163570783736
 10
0.2339136394278392
 20
0.1750372464645377
  0
CIRCLE
  5
2181
330
2
100
AcDbEntity
  8
Profilo
  6
Continuous
370
     0
100
AcDbCircle
 10
0.2310557279810006
 20
0.1768728898797769
 30
0.0
 40
0.0003278964751915
  0
LWPOLYLINE
  5
2182
330
2
100
AcDbEntity
  8
Profilo
  6
Continuous
370
     0
100
AcDbPolyline
 90
       10
 70
   128
 43
0.0
 10
0.2318652880315384
 20
0.1739654289227883
 10
0.2312940004047264
 20
0.1745404655782807
 10
0.2310014844044013
 20
0.1750781822806204
 10
0.230954918818312
 20
0.175679416048228
 10
0.231064388964737
 20
0.1761807554428558
 10
0.2312985100266911
 20
0.1764981313777665
 10
0.2316119477342149
 20
0.1767569408364396
 10
0.2320461388088522
 20
0.1768576453795423
 10
0.2324786892514628
 20
0.1768523197601017
 10
0.23259506629982
 20
0.1767817085707741
  0
CIRCLE
  5
2183
330
2
100
AcDbEntity
  8
Profilo
  6
Continuous
370
     0
100
AcDbCircle
 10
0.2296079683488117
 20
0.1783986471648391
 30
0.0
 40
0.0003278964751915
  0
LWPOLYLINE
  5
2184
330
2
100
AcDbEntity
  8
Profilo
  6
Continuous
370
     0
100
AcDbPolyline
 90
       10
 70
   128
 43
0.0
 10
0.2306325395346687
 20
0.1755598145567138
 10
0.2300198768008486
 20
0.1760905509152733
 10
0.2296879951150992
 20
0.1766049043045741
 10
0.2295966294801126
 20
0.1772009770500191
 10
0.229668328385926
 20
0.1777090953123061
 10
0.2298780772645899
 20
0.1780430796886034
 10
0.2301712976816443
 20
0.1783245886927554
 10
0.2305967490100447
 20
0.1784574587851737
 10
0.2310284879379278
 20
0.1784844725923009
 10
0.2311498163532388
 20
0.1784227557138948
  0
CIRCLE
  5
2185
330
2
100
AcDbEntity
  8
Profilo
  6
Continuous
370
     0
100
AcDbCircle
 10
0.2280502369614841
 20
0.1798119469102741
 30
0.0
 40
0.0003278964751915
  0
LWPOLYLINE
  5
2186
330
2
100
AcDbEntity
  8
Profilo
  6
Continuous
370
     0
100
AcDbPolyline
 90
       10
 70
   128
 43
0.0
 10
0.2292840894649857
 20
0.1770576185544965
 10
0.2286334778826842
 20
0.1775410865231177
 10
0.2282640865285199
 20
0.1780292001265864
 10
0.2281284317983279
 20
0.1786167783692858
 10
0.228161958494167
 20
0.1791288338957977
 10
0.2283461621887259
 20
0.1794775589373718
 10
0.2286175255077982
 20
0.1797801931744627
 10
0.2290318577935537
 20
0.1799444857527405
 10
0.2294603707474956
 20
0.180003687914271
 10
0.229585972012049
 20
0.1799512104926042
  0
CIRCLE
  5
2187
330
2
100
AcDbEntity
  8
Profilo
  6
Continuous
370
     0
100
AcDbCircle
 10
0.2263912452848118
 20
0.1811048853706212
 30
0.0
 40
0.0003278964751915
  0
LWPOLYLINE
  5
2188
330
2
100
AcDbEntity
  8
Profilo
  6
Continuous
370
     0
100
AcDbPolyline
 90
       10
 70
   128
 43
0.0
 10
0.227827478902259
 20
0.1784504645886131
 10
0.2271425569553582
 20
0.1788839604183043
 10
0.2267377217190714
 20
0.1793431045066716
 10
0.2265585365299512
 20
0.1799189022707517
 10
0.2265537035209306
 20
0.1804320314392744
 10
0.2267113318896083
 20
0.1807935469342366
 10
0.2269593205369429
 20
0.1811156139508498
 10
0.227360216665841
 20
0.1813104102242495
 10
0.2277831072275813
 20
0.1814014696576796
 10
0.227912278928158
 20
0.181358525167783
  0
CIRCLE
  5
2189
330
2
100
AcDbEntity
  8
Profilo
  6
Continuous
370
     0
100
AcDbCircle
 10
0.2246402710731996
 20
0.1822702319095435
 30
0.0
 40
0.0003278964751915
  0
LWPOLYLINE
  5
218A
330
2
100
AcDbEntity
  8
Profilo
  6
Continuous
370
     0
100
AcDbPolyline
 90
       10
 70
   128
 43
0.0
 10
0.2262708538036133
 20
0.1797305632990516
 10
0.2255554518534677
 20
0.1801116627052921
 10
0.2251174367379172
 20
0.1805392695585693
 10
0.2248957231661326
 20
0.1811000667493663
 10
0.2248525574803992
 20
0.1816113999334452
 10
0.2249827290014157
 20
0.1819836841405053
 10
0.2252059561239037
 20
0.1823233828072426
 10
0.2255911741221752
 20
0.182547593395983
 10
0.2260060773161527
 20
0.1826700008600253
 10
0.2261380970722044
 20
0.1826368294649048
  0
CIRCLE
  5
218B
330
2
100
AcDbEntity
  8
Profilo
  6
Continuous
370
     0
100
AcDbCircle
 10
0.2228071064846973
 20
0.1833014694364867
 30
0.0
 40
0.0003278964751915
  0
LWPOLYLINE
  5
218C
330
2
100
AcDbEntity
  8
Profilo
  6
Continuous
370
     0
100
AcDbPolyline
 90
       10
 70
   128
 43
0.0
 10
0.2246229194480265
 20
0.1808907558545685
 10
0.2238810383125369
 20
0.1812173275748869
 10
0.2234122928759235
 20
0.181611005842099
 10
0.2231492908337007
 20
0.1821536662542411
 10
0.2230680338712798
 20
0.1826603438712948
 10
0.2231700205726874
 20
0.1830413148261542
 10
0.223367237793709
 20
0.1833967454102763
 10
0.22373462336605
 20
0.1836491164377975
 10
0.2241392188853031
 20
0.1838021873802593
 10
0.2242733483888017
 20
0.183778974587812
  0
CIRCLE
  5
218D
330
2
100
AcDbEntity
  8
Profilo
  6
Continuous
370
     0
100
AcDbCircle
 10
0.2209020033192879
 20
0.1841928308528922
 30
0.0
 40
0.0003278964751915
  0
LWPOLYLINE
  5
218E
330
2
100
AcDbEntity
  8
Profilo
  6
Continuous
370
     0
100
AcDbPolyline
 90
       10
 70
   128
 43
0.0
 10
0.222892891752877
 20
0.1819245539877721
 10
0.2221286803322873
 20
0.1821947717006407
 10
0.2216318259892323
 20
0.1825523197732264
 10
0.2213290062906783
 20
0.1830738086295658
 10
0.2212101124734638
 20
0.1835729971328317
 10
0.2212833440042587
 20
0.1839605242913742
 10
0.2214534484051172
 20
0.1843296990808789
 10
0.2218009469823781
 20
0.1846088191860251
 10
0.2221929721646447
 20
0.1847916975721042
 10
0.2223284613090002
 20
0.1847785731976814
  0
CIRCLE
  5
218F
330
2
100
AcDbEntity
  8
Profilo
  6
Continuous
370
     0
100
AcDbCircle
 10
0.2189356156866513
 20
0.1849393313041507
 30
0.0
 40
0.0003278964751915
  0
LWPOLYLINE
  5
2190
330
2
100
AcDbEntity
  8
Profilo
  6
Continuous
370
     0
100
AcDbPolyline
 90
       10
 70
   128
 43
0.0
 10
0.2210904457348015
 20
0.1828261762801575
 10
0.2203081778093676
 20
0.1830385288185146
 10
0.219785993170903
 20
0.1833579471426163
 10
0.2194450493066047
 20
0.1838553480659315
 10
0.2192891835370496
 20
0.1843442557908106
 10
0.2193332503568073
 20
0.1847361719439697
 10
0.2194752906446908
 20
0.1851170263636832
 10
0.2198009588738714
 20
0.1854213345936047
 10
0.2201782213553109
 20
0.1856329976931854
 10
0.2203143124302695
 20
0.1856300351336135
  0
CIRCLE
  5
2191
330
2
100
AcDbEntity
  8
Profilo
  6
Continuous
370
     0
100
AcDbCircle
 10
0.2169189404240719
 20
0.1855367960569283
 30
0.0
 40
0.0003278964751915
  0
LWPOLYLINE
  5
2192
330
2
100
AcDbEntity
  8
Profilo
  6
Continuous
370
     0
100
AcDbPolyline
 90
       10
 70
   128
 43
0.0
 10
0.2192256614030719
 20
0.1835905804941302
 10
0.2184297117323528
 20
0.1837438802964439
 10
0.2178851170667919
 20
0.1840233825552268
 10
0.2175079557331394
 20
0.1844939138777915
 10
0.2173159896758527
 20
0.184969806653966
 10
0.217330645345043
 20
0.1853639200476373
 10
0.2174438271730434
 20
0.1857543242051549
 10
0.217745843785303
 20
0.186082118744793
 10
0.2181062337610886
 20
0.1863213828519599
 10
0.2182421656901525
 20
0.186328598675074
  0
CIRCLE
  5
2193
330
2
100
AcDbEntity
  8
Profilo
  6
Continuous
370
     0
100
AcDbCircle
 10
0.2148632555976573
 20
0.1859818838459746
 30
0.0
 40
0.0003278964751915
  0
LWPOLYLINE
  5
2194
330
2
100
AcDbEntity
  8
Profilo
  6
Continuous
370
     0
100
AcDbPolyline
 90
       10
 70
   128
 43
0.0
 10
0.2173089673881006
 20
0.1842134917712568
 10
0.2165037872455209
 20
0.1843068815228492
 10
0.2159398281471418
 20
0.1845449046263039
 10
0.2155285585833024
 20
0.1849859349460971
 10
0.2153015657903474
 20
0.1854461513881227
 10
0.2152867283485194
 20
0.1858402579803422
 10
0.2153704187579468
 20
0.1862380285772525
 10
0.2156470947538793
 20
0.1865874762665727
 10
0.215988596777078
 20
0.1868530033193889
 10
0.2161236093737628
 20
0.1868703571713781
  0
CIRCLE
  5
2195
330
2
100
AcDbEntity
  8
Profilo
  6
Continuous
370
     0
100
AcDbCircle
 10
0.212780057430819
 20
0.1862721055598287
 30
0.0
 40
0.0003278964751915
  0
LWPOLYLINE
  5
2196
330
2
100
AcDbEntity
  8
Profilo
  6
Continuous
370
     0
100
AcDbPolyline
 90
       10
 70
   128
 43
0.0
 10
0.2153510826203011
 20
0.184691426539001
 10
0.2145411748998278
 20
0.1847243839664974
 10
0.2139610052566738
 20
0.1849195967928776
 10
0.2135179274488756
 20
0.1853286596894521
 10
0.2132571773560248
 20
0.185770626080306
 10
0.2132129297801744
 20
0.1861625218671432
 10
0.2132666607403106
 20
0.1865654344089198
 10
0.2135164488355159
 20
0.1869345809946936
 10
0.2138371530882879
 20
0.18722488605817
 10
0.2139704913073868
 20
0.1872522808892545
  0
CIRCLE
  5
2197
330
2
100
AcDbEntity
  8
Profilo
  6
Continuous
370
     0
100
AcDbCircle
 10
0.2106809960127294
 20
0.1864058381609408
 30
0.0
 40
0.0003278964751915
  0
LWPOLYLINE
  5
2198
330
2
100
AcDbEntity
  8
Profilo
  6
Continuous
370
     0
100
AcDbPolyline
 90
       10
 70
   128
 43
0.0
 10
0.2133629563854857
 20
0.185021711992269
 10
0.2125528504196226
 20
0.1849940527843672
 10
0.2119597147756764
 20
0.1851453636243634
 10
0.2114873065947471
 20
0.1855201714520711
 10
0.2111942574222916
 20
0.1859414161364144
 10
0.2111208471628114
 20
0.1863289094776648
 10
0.211144318188331
 20
0.1867347107139339
 10
0.2113658214664593
 20
0.1871214917787172
 10
0.2116639344405329
 20
0.1874349513491791
 10
0.2117948526006359
 20
0.1874722339563512
  0
CIRCLE
  5
2199
330
2
100
AcDbEntity
  8
Profilo
  6
Continuous
370
     0
100
AcDbCircle
 10
0.2085778101462961
 20
0.1863823337623587
 30
0.0
 40
0.0003278964751915
  0
LWPOLYLINE
  5
219A
330
2
100
AcDbEntity
  8
Profilo
  6
Continuous
370
     0
100
AcDbPolyline
 90
       10
 70
   128
 43
0.0
 10
0.2113557070920191
 20
0.1852025010408344
 10
0.2105499333219367
 20
0.1851143798790429
 10
0.2099471487323163
 20
0.18522094254106
 10
0.2094480520764334
 20
0.1855593992224915
 10
0.2091243426742164
 20
0.1859575664291779
 10
0.2090221802710535
 20
0.1863384903048932
 10
0.2090152601024624
 20
0.1867449108305359
 10
0.2092072398273317
 20
0.1871471633377202
 10
0.2094810943540299
 20
0.1874820244220996
 10
0.2096088603076815
 20
0.1875289863058982
  0
CIRCLE
  5
219B
330
2
100
AcDbEntity
  8
Profilo
  6
Continuous
370
     0
100
AcDbCircle
 10
0.2064822617000186
 20
0.1862017238102145
 30
0.0
 40
0.0003278964751915
  0
LWPOLYLINE
  5
219C
330
2
100
AcDbEntity
  8
Profilo
  6
Continuous
370
     0
100
AcDbPolyline
 90
       10
 70
   128
 43
0.0
 10
0.2093405600921667
 20
0.1852327826389986
 10
0.2085436247316406
 20
0.1850846923326004
 10
0.2079345622122812
 20
0.1851459108750064
 10
0.2074115682323978
 20
0.1854461236231093
 10
0.207059008914704
 20
0.1858189866396071
 10
0.2069286657014608
 20
0.1861912107689592
 10
0.206891393039146
 20
0.1865959777155361
 10
0.20705277558226
 20
0.1870114521059318
 10
0.2073008401559868
 20
0.1873658420252125
 10
0.2074247393841475
 20
0.1874222205557321
  0
CIRCLE
  5
219D
330
2
100
AcDbEntity
  8
Profilo
  6
Continuous
370
     0
100
AcDbCircle
 10
0.2044060698308396
 20
0.1858650183486241
 30
0.0
 40
0.0003278964751915
  0
LWPOLYLINE
  5
219E
330
2
100
AcDbEntity
  8
Profilo
  6
Continuous
370
     0
100
AcDbPolyline
 90
       10
 70
   128
 43
0.0
 10
0.2073287849053724
 20
0.1851123874397839
 10
0.2065451447402016
 20
0.1849051561698442
 10
0.2059332104157747
 20
0.1849206882337175
 10
0.2053892439063685
 20
0.185180978137025
 10
0.2050098063279162
 20
0.1855264517620996
 10
0.2048520112367111
 20
0.1858878945167679
 10
0.2047845945245215
 20
0.1862887442633245
 10
0.2049144773692373
 20
0.1867151170356078
 10
0.2051353647122689
 20
0.1870870538976086
 10
0.2052547043201962
 20
0.1871525337832378
  0
CIRCLE
  5
219F
330
2
100
AcDbEntity
  8
Profilo
  6
Continuous
370
     0
100
AcDbCircle
 10
0.2023608454458732
 20
0.1853741003711051
 30
0.0
 40
0.0003278964751915
  0
LWPOLYLINE
  5
21A0
330
2
100
AcDbEntity
  8
Profilo
  6
Continuous
370
     0
100
AcDbPolyline
 90
       10
 70
   128
 43
0.0
 10
0.2053316321945282
 20
0.1848419887419817
 10
0.2045656696583944
 20
0.1845767754298202
 10
0.2039542857138621
 20
0.1845465341535602
 10
0.2033923887563109
 20
0.1847654455653509
 10
0.2029881948859498
 20
0.185081597770353
 10
0.2028038303709423
 20
0.1854302378158388
 10
0.2027066466304792
 20
0.1858249286479929
 10
0.2028043034192416
 20
0.1862598153526709
 10
0.2029967782399578
 20
0.1866472191355837
 10
0.2031108908321564
 20
0.1867214341862415
  0
CIRCLE
  5
21A1
330
2
100
AcDbEntity
  8
Profilo
  6
Continuous
370
     0
100
AcDbCircle
 10
0.2003580262694993
 20
0.1847317152901255
 30
0.0
 40
0.0003278964751915
  0
LWPOLYLINE
  5
21A2
330
2
100
AcDbEntity
  8
Profilo
  6
Continuous
370
     0
100
AcDbPolyline
 90
       10
 70
   128
 43
0.0
 10
0.2033602708477187
 20
0.1844230987247912
 10
0.2026162695138247
 20
0.1841013865508327
 10
0.2020088550562076
 20
0.1840255410559224
 10
0.2014321700062223
 20
0.1842018497347824
 10
0.2010054802600323
 20
0.1844869124683393
 10
0.2007955773623735
 20
0.1848208000680853
 10
0.2006691700845355
 20
0.1852071247146036
 10
0.2007340546809708
 20
0.185648093288814
 10
0.2008970405820964
 20
0.1860487974735432
 10
0.2010052879946624
 20
0.1861313326485612
  0
CIRCLE
  5
21A3
330
2
100
AcDbEntity
  8
Profilo
  6
Continuous
370
     0
100
AcDbCircle
 10
0.1984088128789747
 20
0.1839414555836325
 30
0.0
 40
0.0003278964751915
  0
LWPOLYLINE
  5
21A4
330
2
100
AcDbEntity
  8
Profilo
  6
Continuous
370
     0
100
AcDbPolyline
 90
       10
 70
   128
 43
0.0
 10
0.2014257255172496
 20
0.1838580599911084
 10
0.2007078461428506
 20
0.183481648100328
 10
0.2001077980801835
 20
0.1833606225455395
 10
0.1995195499944906
 20
0.1834933425018197
 10
0.1990727505946161
 20
0.1837457215774916
 10
0.1988384831764549
 20
0.184062989496605
 10
0.1986835592820129
 20
0.1844387874733546
 10
0.1987153088251372
 20
0.1848833718419595
 10
0.1988478943234029
 20
0.1852951355281616
 10
0.1989496711928933
 20
0.1853855292573621
  0
CIRCLE
  5
21A5
330
2
100
AcDbEntity
  8
Profilo
  6
Continuous
370
     0
100
AcDbCircle
 10
0.1965241060662486
 20
0.1830077407044652
 30
0.0
 40
0.0003278964751915
  0
LWPOLYLINE
  5
21A6
330
2
100
AcDbEntity
  8
Profilo
  6
Continuous
370
     0
100
AcDbPolyline
 90
       10
 70
   128
 43
0.0
 10
0.1995388149653341
 20
0.1831500324667315
 10
0.1988510722230921
 20
0.1827210259071088
 10
0.1982617462675453
 20
0.1825554971164398
 10
0.197665224868053
 20
0.1826438861263075
 10
0.1972008144979747
 20
0.1828621701379309
 10
0.1969434926777407
 20
0.1831610440855092
 10
0.1967609185639596
 20
0.1835242137777659
 10
0.1967593554974478
 20
0.1839699276446347
 10
0.1968607991209634
 20
0.1843904480827523
 10
0.196955536269843
 20
0.1844881948477348
  0
LWPOLYLINE
  5
21A7
330
2
100
AcDbEntity
  8
Profilo
  6
Continuous
370
     0
100
AcDbPolyline
 90
       23
 70
   128
 43
0.0
 10
0.2024094977441326
 20
0.1702783805768147
 10
0.2027006531252689
 20
0.1694328485018172
 10
0.2029243568607513
 20
0.1689684484957756
 10
0.2032340995380288
 20
0.1686932488170449
 10
0.20361267461215
 20
0.168607248734713
 10
0.2038707936982764
 20
0.1688652486162518
 10
0.2038191701071252
 20
0.1693984485419766
 10
0.2034578032735113
 20
0.1698284482227206
 10
0.2029931886924097
 20
0.1701208480641001
 10
0.2025629894619503
 20
0.1703272478231477
 10
0.2022016226283381
 20
0.1706196476645272
 10
0.2014272648047719
 20
0.1718236469898877
 10
0.2004707450359036
 20
0.1740970988164059
 10
0.2000381268062194
 20
0.1759446495455017
 10
0.1999298342019398
 20
0.1774600407031586
 10
0.1999948097645074
 20
0.1785208143673355
 10
0.2001247603244576
 20
0.1789970799822353
 10
0.2003846620095449
 20
0.1790403769559856
 10
0.2007745142545823
 20
0.1789537833739385
 10
0.201879095427125
 20
0.1780661972393127
 10
0.2032435788499403
 20
0.1766374000291582
 10
0.2044131355850525
 20
0.1750570634108759
 10
0.2050845480360313
 20
0.1739529931384038
  0
LWPOLYLINE
  5
21A8
330
2
100
AcDbEntity
  8
Profilo
  6
Continuous
370
     0
100
AcDbPolyline
 90
        2
 70
   128
 43
0.0
 10
0.2049545969108941
 20
0.168302749392963
 10
0.2011210494579061
 20
0.1769837750882588
  0
LWPOLYLINE
  5
21A9
330
2
100
AcDbEntity
  8
Profilo
  6
Continuous
370
     0
100
AcDbPolyline
 90
        2
 70
   128
 43
0.0
 10
0.2056693264035865
 20
0.168779015373318
 10
0.2013159755804257
 20
0.1770054232096787
  0
LWPOLYLINE
  5
21AA
330
2
100
AcDbEntity
  8
Profilo
  6
Continuous
370
     0
100
AcDbPolyline
 90
        2
 70
   128
 43
0.0
 10
0.2010777324161943
 20
0.177200259226105
 10
0.200666221650301
 20
0.1782826813771572
  0
LWPOLYLINE
  5
21AB
330
2
100
AcDbEntity
  8
Profilo
  6
Continuous
370
     0
100
AcDbPolyline
 90
        2
 70
   128
 43
0.0
 10
0.2014242681847052
 20
0.1770920171571828
 10
0.2015975357863688
 20
0.177633228232708
  0
LWPOLYLINE
  5
21AC
330
2
100
AcDbEntity
  8
Profilo
  6
Continuous
370
     0
100
AcDbPolyline
 90
        2
 70
   128
 43
0.0
 10
0.2021606556330682
 20
0.1757065169207803
 10
0.2023988987972978
 20
0.176723993611207
  0
LWPOLYLINE
  5
21AD
330
2
100
AcDbEntity
  8
Profilo
  6
Continuous
370
     0
100
AcDbPolyline
 90
        2
 70
   128
 43
0.0
 10
0.2027887510423352
 20
0.1746890402303553
 10
0.2033518708890345
 20
0.175511680904354
  0
LWPOLYLINE
  5
21AE
330
2
100
AcDbEntity
  8
Profilo
  6
Continuous
370
     0
100
AcDbPolyline
 90
        2
 70
   128
 43
0.0
 10
0.2035251384906964
 20
0.1732602430202026
 10
0.2039799662983033
 20
0.174017938233574
  0
LWPOLYLINE
  5
21AF
330
2
100
AcDbEntity
  8
Profilo
  6
Continuous
370
     0
100
AcDbPolyline
 90
        2
 70
   128
 43
0.0
 10
0.2042398679833888
 20
0.1720479299478961
 10
0.2048029878300881
 20
0.1728705709873499
  0
LWPOLYLINE
  5
21B0
330
2
100
AcDbEntity
  8
Profilo
  6
Continuous
370
     0
100
AcDbPolyline
 90
        2
 70
   128
 43
0.0
 10
0.2033735294098904
 20
0.1712469377607708
 10
0.2023122647138742
 20
0.1711603438132685
  0
LWPOLYLINE
  5
21B1
330
2
100
AcDbEntity
  8
Profilo
  6
Continuous
370
     0
100
AcDbPolyline
 90
        2
 70
   128
 43
0.0
 10
0.2027021169589098
 20
0.1726540864840484
 10
0.201727486346319
 20
0.1726973834578005
  0
LWPOLYLINE
  5
21B2
330
2
100
AcDbEntity
  8
Profilo
  6
Continuous
370
     0
100
AcDbPolyline
 90
        2
 70
   128
 43
0.0
 10
0.2020740215496428
 20
0.1739313446515269
 10
0.2010993909370502
 20
0.1740828836942012
  0
LWPOLYLINE
  5
21B3
330
2
100
AcDbEntity
  8
Profilo
  6
Continuous
370
     0
100
AcDbPolyline
 90
        2
 70
   128
 43
0.0
 10
0.2014892431820876
 20
0.1754467354437286
 10
0.200666221650301
 20
0.175511680904354
  0
LWPOLYLINE
  5
21B4
330
2
100
AcDbEntity
  8
Profilo
  6
Continuous
370
     0
100
AcDbPolyline
 90
        2
 70
   128
 43
0.0
 10
0.2009694403771001
 20
0.1768538841670044
 10
0.2006445636946321
 20
0.1768755326538813
  0
LWPOLYLINE
  5
21B5
330
2
100
AcDbEntity
  8
Profilo
  6
Continuous
370
     0
100
AcDbPolyline
 90
       23
 70
   128
 43
0.0
 10
0.1995633064030049
 20
0.167919935316132
 10
0.2000633807093621
 20
0.1671785706056572
 10
0.200399657491013
 20
0.1667878934332969
 10
0.2007700728605599
 20
0.1666022382601846
 10
0.2011580067610315
 20
0.1666171509987806
 10
0.2013405553696022
 20
0.1669331658829312
 10
0.2011526885140384
 20
0.1674348362931988
 10
0.2006923428499221
 20
0.1677566554713192
 10
0.2001678809790317
 20
0.1679188409274883
 10
0.1996989202433348
 20
0.1680068640312613
 10
0.19927418803825
 20
0.1681957719708458
 10
0.1982145978619851
 20
0.1691583274615813
 10
0.1967022580830531
 20
0.1711067477624391
 10
0.1958061996465947
 20
0.1727793748899526
 10
0.1953093849309433
 20
0.1742151021576306
 10
0.195097598078074
 20
0.1752565477487651
 10
0.1950998540684072
 20
0.1757502186862063
 10
0.1953396937369256
 20
0.1758593078573089
 10
0.1957386741570606
 20
0.1758765660658104
 10
0.1970353418346626
 20
0.1753051103396328
 10
0.1987231315418818
 20
0.1742781525103685
 10
0.2002618578121205
 20
0.1730543681139136
 10
0.2011961468522607
 20
0.1721616924531255
  0
LWPOLYLINE
  5
21B6
330
2
100
AcDbEntity
  8
Profilo
  6
Continuous
370
     0
100
AcDbPolyline
 90
        2
 70
   128
 43
0.0
 10
0.2025330143951269
 20
0.1666703422684592
 10
0.196583277123014
 20
0.1740633740950881
  0
LWPOLYLINE
  5
21B7
330
2
100
AcDbEntity
  8
Profilo
  6
Continuous
370
     0
100
AcDbPolyline
 90
        2
 70
   128
 43
0.0
 10
0.2031001233646805
 20
0.1673153654838715
 10
0.1967659583528587
 20
0.1741347351675544
  0
LWPOLYLINE
  5
21B8
330
2
100
AcDbEntity
  8
Profilo
  6
Continuous
370
     0
100
AcDbPolyline
 90
        2
 70
   128
 43
0.0
 10
0.1979180383160284
 20
0.1730987073218189
 10
0.1978848211958665
 20
0.1741431762030161
  0
LWPOLYLINE
  5
21B9
330
2
100
AcDbEntity
  8
Profilo
  6
Continuous
370
     0
100
AcDbPolyline
 90
        2
 70
   128
 43
0.0
 10
0.1987880742386434
 20
0.1722784633629506
 10
0.19911909116816
 20
0.1732188193767236
  0
LWPOLYLINE
  5
21BA
330
2
100
AcDbEntity
  8
Profilo
  6
Continuous
370
     0
100
AcDbPolyline
 90
        2
 70
   128
 43
0.0
 10
0.1998691698227486
 20
0.1710889423333435
 10
0.2001123937970253
 20
0.1719385378072471
  0
LWPOLYLINE
  5
21BB
330
2
100
AcDbEntity
  8
Profilo
  6
Continuous
370
     0
100
AcDbPolyline
 90
        2
 70
   128
 43
0.0
 10
0.2008733152102906
 20
0.1701029234320601
 10
0.2012043320452197
 20
0.1710432797988362
  0
LWPOLYLINE
  5
21BC
330
2
100
AcDbEntity
  8
Profilo
  6
Continuous
370
     0
100
AcDbPolyline
 90
        2
 70
   128
 43
0.0
 10
0.2002438084408429
 20
0.1691049994695324
 10
0.1992411176252358
 20
0.168746680624015
  0
LWPOLYLINE
  5
21BD
330
2
100
AcDbEntity
  8
Profilo
  6
Continuous
370
     0
100
AcDbPolyline
 90
        2
 70
   128
 43
0.0
 10
0.1992310769254744
 20
0.1702904264333438
 10
0.1982784499642769
 20
0.1700799951340106
  0
LWPOLYLINE
  5
21BE
330
2
100
AcDbEntity
  8
Profilo
  6
Continuous
370
     0
100
AcDbPolyline
 90
        2
 70
   128
 43
0.0
 10
0.1982938046090326
 20
0.1713616000300892
 10
0.1973131625389162
 20
0.1712557225406219
  0
LWPOLYLINE
  5
21BF
330
2
100
AcDbEntity
  8
Profilo
  6
Continuous
370
     0
100
AcDbPolyline
 90
        2
 70
   128
 43
0.0
 10
0.197336740083361
 20
0.1726740033545089
 10
0.1965249532081128
 20
0.1725237222052738
  0
LWPOLYLINE
  5
21C0
330
2
100
AcDbEntity
  8
Profilo
  6
Continuous
370
     0
100
AcDbPolyline
 90
       23
 70
   128
 43
0.0
 10
0.1974245072303475
 20
0.1649052036038587
 10
0.1980994212243587
 20
0.1643185290377631
 10
0.1985253543452299
 20
0.1640281987027561
 10
0.1989311992117522
 20
0.1639447401285001
 10
0.1993020548843483
 20
0.1640595494095334
 10
0.1993965926293655
 20
0.1644120434041825
 10
0.1990852853251319
 20
0.164847996289581
 10
0.1985573326267656
 20
0.1650397035199185
 10
0.1980087646758719
 20
0.1650606219200648
 10
0.1975330013340824
 20
0.1650242697395066
 10
0.1970738485553973
 20
0.1650968120133958
 10
0.1958012353458927
 20
0.1657523271035139
 10
0.193836139013569
 20
0.1672429342551251
 10
0.192537705271975
 20
0.1686266510064613
 10
0.191686225546799
 20
0.169884871943522
 10
0.1912121092025203
 20
0.1708360166656484
 10
0.1910865168812237
 20
0.1713134500670752
 10
0.1912899498561196
 20
0.1714808971887937
 10
0.1916708685950674
 20
0.1716008310694552
 10
0.1930712570183435
 20
0.171384449515092
 10
0.194967332930623
 20
0.1708293165456518
 10
0.196770367083537
 20
0.1700454832552443
 10
0.1979038624587404
 20
0.1694250365772096
  0
LWPOLYLINE
  5
21C1
330
2
100
AcDbEntity
  8
Profilo
  6
Continuous
370
     0
100
AcDbPolyline
 90
        2
 70
   128
 43
0.0
 10
0.2006164433558404
 20
0.1644668063935151
 10
0.1929559810272921
 20
0.1700680214500534
  0
LWPOLYLINE
  5
21C2
330
2
100
AcDbEntity
  8
Profilo
  6
Continuous
370
     0
100
AcDbPolyline
 90
        2
 70
   128
 43
0.0
 10
0.2009972842631698
 20
0.1652366295778074
 10
0.1931139679405434
 20
0.1701842323344072
  0
LWPOLYLINE
  5
21C3
330
2
100
AcDbEntity
  8
Profilo
  6
Continuous
370
     0
100
AcDbPolyline
 90
        2
 70
   128
 43
0.0
 10
0.1944949354686518
 20
0.1694816865174062
 10
0.1941925217559401
 20
0.1704819687611878
  0
LWPOLYLINE
  5
21C4
330
2
100
AcDbEntity
  8
Profilo
  6
Continuous
370
     0
100
AcDbPolyline
 90
        2
 70
   128
 43
0.0
 10
0.1955476203942912
 20
0.1689145735603721
 10
0.1956239761499081
 20
0.1699085612055922
  0
LWPOLYLINE
  5
21C5
330
2
100
AcDbEntity
  8
Profilo
  6
Continuous
370
     0
100
AcDbPolyline
 90
        2
 70
   128
 43
0.0
 10
0.1968997492366757
 20
0.1680453926037058
 10
0.1969147940657241
 20
0.1689289898106137
  0
LWPOLYLINE
  5
21C6
330
2
100
AcDbEntity
  8
Profilo
  6
Continuous
370
     0
100
AcDbPolyline
 90
        2
 70
   128
 43
0.0
 10
0.198124879670336
 20
0.1673528634320935
 10
0.1982012352432243
 20
0.1683468513938071
  0
LWPOLYLINE
  5
21C7
330
2
100
AcDbEntity
  8
Profilo
  6
Continuous
370
     0
100
AcDbPolyline
 90
        2
 70
   128
 43
0.0
 10
0.1977751045509681
 20
0.1662260145630623
 10
0.1968993193378303
 20
0.1656203896567026
  0
LWPOLYLINE
  5
21C8
330
2
100
AcDbEntity
  8
Profilo
  6
Continuous
370
     0
100
AcDbPolyline
 90
        2
 70
   128
 43
0.0
 10
0.1964900699503638
 20
0.1671089348788333
 10
0.1956243665936779
 20
0.1666591158517119
  0
LWPOLYLINE
  5
21C9
330
2
100
AcDbEntity
  8
Profilo
  6
Continuous
370
     0
100
AcDbPolyline
 90
        2
 70
   128
 43
0.0
 10
0.1953074942861985
 20
0.1679010251944271
 10
0.1943876698950497
 20
0.1675449465487522
  0
LWPOLYLINE
  5
21CA
330
2
100
AcDbEntity
  8
Profilo
  6
Continuous
370
     0
100
AcDbPolyline
 90
        2
 70
   128
 43
0.0
 10
0.1940433659682121
 20
0.1689210029333563
 10
0.1932981356835104
 20
0.1685657365862263
  0
LWPOLYLINE
  5
21CB
330
2
100
AcDbEntity
  8
Profilo
  6
Continuous
370
     0
100
AcDbPolyline
 90
       23
 70
   128
 43
0.0
 10
0.1961388558552415
 20
0.161439634424108
 10
0.1969426152635638
 20
0.1610476309045468
 10
0.197429178085357
 20
0.160877432939428
 10
0.1978427947918935
 20
0.1609018585279434
 10
0.1981712990353917
 20
0.1611087402886437
 10
0.1981713833257637
 20
0.1614736915105781
 10
0.1977578506511837
 20
0.1618142174024144
 10
0.1971982700224768
 20
0.1618627481540327
 10
0.1966629799908841
 20
0.1617409739437545
 10
0.1962128365285072
 20
0.1615827238198944
 10
0.1957505536793065
 20
0.1615339567920082
 10
0.1943516439236934
 20
0.1618377592114055
 10
0.1920677091055538
 20
0.1627689707997306
 10
0.1904553861725493
 20
0.1637694791649875
 10
0.1893072683739815
 20
0.164764448093877
 10
0.1886031327836417
 20
0.1655604730060234
 10
0.1883582510598611
 20
0.1659891325741243
 10
0.1885114137200834
 20
0.1662035264018358
 10
0.1888483117952824
 20
0.1664179626588891
 10
0.1902569868074402
 20
0.1665714013216832
 10
0.1922321344847699
 20
0.166525924606534
 10
0.194176602722494
 20
0.1662354593655686
 10
0.1954320585961267
 20
0.165929524086057
  0
LWPOLYLINE
  5
21CC
330
2
100
AcDbEntity
  8
Profilo
  6
Continuous
370
     0
100
AcDbPolyline
 90
        2
 70
   128
 43
0.0
 10
0.1993354949420774
 20
0.1618423090964929
 10
0.1904863554052707
 20
0.1652699938332831
  0
LWPOLYLINE
  5
21CD
330
2
100
AcDbEntity
  8
Profilo
  6
Continuous
370
     0
100
AcDbPolyline
 90
        2
 70
   128
 43
0.0
 10
0.1995041141087175
 20
0.1626844700718473
 10
0.1906088814548774
 20
0.1654231349498016
  0
LWPOLYLINE
  5
21CE
330
2
100
AcDbEntity
  8
Profilo
  6
Continuous
370
     0
100
AcDbPolyline
 90
        2
 70
   128
 43
0.0
 10
0.1921246258930396
 20
0.1651019484979526
 10
0.1915736245825397
 20
0.1659898765224512
  0
LWPOLYLINE
  5
21CF
330
2
100
AcDbEntity
  8
Profilo
  6
Continuous
370
     0
100
AcDbPolyline
 90
        2
 70
   128
 43
0.0
 10
0.1932882210836653
 20
0.1648266143535797
 10
0.1931047121468226
 20
0.1658064950148668
  0
LWPOLYLINE
  5
21D0
330
2
100
AcDbEntity
  8
Profilo
  6
Continuous
370
     0
100
AcDbPolyline
 90
        2
 70
   128
 43
0.0
 10
0.1948192378382221
 20
0.1643370067156575
 10
0.1946050782418027
 20
0.1651943899661341
  0
LWPOLYLINE
  5
21D1
330
2
100
AcDbEntity
  8
Profilo
  6
Continuous
370
     0
100
AcDbPolyline
 90
        2
 70
   128
 43
0.0
 10
0.1961818627035676
 20
0.1639851619923047
 10
0.1959983535083094
 20
0.1649650429120073
  0
LWPOLYLINE
  5
21D2
330
2
100
AcDbEntity
  8
Profilo
  6
Continuous
370
     0
100
AcDbPolyline
 90
        2
 70
   128
 43
0.0
 10
0.1961356558306353
 20
0.1628061811049872
 10
0.1954464595349379
 20
0.1619945224743113
  0
LWPOLYLINE
  5
21D3
330
2
100
AcDbEntity
  8
Profilo
  6
Continuous
370
     0
100
AcDbPolyline
 90
        2
 70
   128
 43
0.0
 10
0.1946658911292077
 20
0.1633264252122939
 10
0.1939461076301463
 20
0.1626678728807218
  0
LWPOLYLINE
  5
21D4
330
2
100
AcDbEntity
  8
Profilo
  6
Continuous
370
     0
100
AcDbPolyline
 90
        2
 70
   128
 43
0.0
 10
0.1933186026945315
 20
0.1637854526007172
 10
0.1925222804945268
 20
0.163203438970092
  0
LWPOLYLINE
  5
21D5
330
2
100
AcDbEntity
  8
Profilo
  6
Continuous
370
     0
100
AcDbPolyline
 90
        2
 70
   128
 43
0.0
 10
0.1918335588400304
 20
0.1644434949568407
 10
0.1912056713582253
 20
0.1639074542262695
  0
LWPOLYLINE
  5
21D6
330
2
100
AcDbEntity
  8
Profilo
  6
Continuous
370
     0
100
AcDbPolyline
 90
       23
 70
   128
 43
0.0
 10
0.1957939672942637
 20
0.1577594005893563
 10
0.1966717972414937
 20
0.1575887825083702
 10
0.1971858313119868
 20
0.1575503156231996
 10
0.1975790325635185
 20
0.1576809608109912
 10
0.1978427983566064
 20
0.1579658164012554
 10
0.1977484234480837
 20
0.1583183540278097
 10
0.1972608469715358
 20
0.1585402466493009
 10
0.1967077729075843
 20
0.1584422936316803
 10
0.1962222399263365
 20
0.1581861255221661
 10
0.1958283928764353
 20
0.1579167619394241
 10
0.1953944837689321
 20
0.1577500090021204
 10
0.1939646108552477
 20
0.1576813951179727
 10
0.1915174839347682
 20
0.157989750612169
 10
0.1897011489537494
 20
0.1585388675996726
 10
0.1883346354124076
 20
0.1592027790321517
 10
0.1874484662528506
 20
0.1597894363520482
 10
0.1871009834113739
 20
0.1601401096456514
 10
0.1871934379747409
 20
0.1603868395942993
 10
0.1874633563391168
 20
0.1606811647512001
 10
0.188784319066021
 20
0.1611939670398503
 10
0.1907039354582782
 20
0.1616612457419753
 10
0.1926573254837981
 20
0.161883943276607
 10
0.1939491846128132
 20
0.1619133683793366
  0
LWPOLYLINE
  5
21D7
330
2
100
AcDbEntity
  8
Profilo
  6
Continuous
370
     0
100
AcDbPolyline
 90
        2
 70
   128
 43
0.0
 10
0.1987774636713706
 20
0.1589757055309975
 10
0.1893427011618443
 20
0.159996268897745
  0
LWPOLYLINE
  5
21D8
330
2
100
AcDbEntity
  8
Profilo
  6
Continuous
370
     0
100
AcDbPolyline
 90
        2
 70
   128
 43
0.0
 10
0.1987223699797707
 20
0.1598328124186801
 10
0.1894214164000083
 20
0.1601759039324162
  0
LWPOLYLINE
  5
21D9
330
2
100
AcDbEntity
  8
Profilo
  6
Continuous
370
     0
100
AcDbPolyline
 90
        2
 70
   128
 43
0.0
 10
0.1909686422696517
 20
0.1602579651716263
 10
0.1902066031900997
 20
0.1609730281493396
  0
LWPOLYLINE
  5
21DA
330
2
100
AcDbEntity
  8
Profilo
  6
Continuous
370
     0
100
AcDbPolyline
 90
        2
 70
   128
 43
0.0
 10
0.1921638506359529
 20
0.1602931734068389
 10
0.1917329828374322
 20
0.1611921698364562
  0
LWPOLYLINE
  5
21DB
330
2
100
AcDbEntity
  8
Profilo
  6
Continuous
370
     0
100
AcDbPolyline
 90
        2
 70
   128
 43
0.0
 10
0.1937694190409822
 20
0.1602165050390725
 10
0.1933406496416776
 20
0.1609892450814923
  0
LWPOLYLINE
  5
21DC
330
2
100
AcDbEntity
  8
Profilo
  6
Continuous
370
     0
100
AcDbPolyline
 90
        2
 70
   128
 43
0.0
 10
0.1951766777052868
 20
0.1602293224004243
 10
0.1947458095902725
 20
0.1611283190127684
  0
LWPOLYLINE
  5
21DD
330
2
100
AcDbEntity
  8
Profilo
  6
Continuous
370
     0
100
AcDbPolyline
 90
        2
 70
   128
 43
0.0
 10
0.1954371880008197
 20
0.1590785550939349
 10
0.1949815482111614
 20
0.158116175933293
  0
LWPOLYLINE
  5
21DE
330
2
100
AcDbEntity
  8
Profilo
  6
Continuous
370
     0
100
AcDbPolyline
 90
        2
 70
   128
 43
0.0
 10
0.1938828552340681
 20
0.1592006692166064
 10
0.1933580436485951
 20
0.1583782628336707
  0
LWPOLYLINE
  5
21DF
330
2
100
AcDbEntity
  8
Profilo
  6
Continuous
370
     0
100
AcDbPolyline
 90
        2
 70
   128
 43
0.0
 10
0.1924626695092055
 20
0.1592953517199196
 10
0.1918441175422896
 20
0.1585270663714469
  0
LWPOLYLINE
  5
21E0
330
2
100
AcDbEntity
  8
Profilo
  6
Continuous
370
     0
100
AcDbPolyline
 90
        2
 70
   128
 43
0.0
 10
0.1908579134027228
 20
0.1595466141941331
 10
0.1903901582180645
 20
0.1588663293700585
  0
LWPOLYLINE
  5
21E1
330
2
100
AcDbEntity
  8
Profilo
  6
Continuous
370
     0
100
AcDbPolyline
 90
       23
 70
   128
 43
0.0
 10
0.1964133451328884
 20
0.1541153039535676
 10
0.1973054229588051
 20
0.1541776986514152
 10
0.1978118977055747
 20
0.1542735843008463
 10
0.1981578874866063
 20
0.1545015458342704
 10
0.1983389396263775
 20
0.1548449628163664
 10
0.1981565370130138
 20
0.155161061990889
 10
0.1976281442656156
 20
0.1552491997265766
 10
0.1971192678498792
 20
0.1550114382759902
 10
0.196716580189267
 20
0.1546383337005665
 10
0.196405869577432
 20
0.1542762133419626
 10
0.1960299044002316
 20
0.1540028384323446
 10
0.1946665118045712
 20
0.1535664841674689
 10
0.1922229604373122
 20
0.153230969650187
 10
0.1903263936355971
 20
0.1532912738446961
 10
0.1888346099910561
 20
0.1535788833138078
 10
0.1878267982260386
 20
0.1539161933146009
 10
0.187400394648271
 20
0.1541649825282616
 10
0.1874258404890797
 20
0.1544272343595847
 10
0.1876103846521613
 20
0.1547813906432851
 10
0.1887536136669692
 20
0.1556186099292671
 10
0.1904868800893376
 20
0.1565667997773308
 10
0.1923160716005416
 20
0.1572874836186018
 10
0.1935562959201935
 20
0.1576502638314481
  0
LWPOLYLINE
  5
21E2
330
2
100
AcDbEntity
  8
Profilo
  6
Continuous
370
     0
100
AcDbPolyline
 90
        2
 70
   128
 43
0.0
 10
0.1989803784526256
 20
0.1560623499927307
 10
0.1896029564437207
 20
0.1546062422825511
  0
LWPOLYLINE
  5
21E3
330
2
100
AcDbEntity
  8
Profilo
  6
Continuous
370
     0
100
AcDbPolyline
 90
        2
 70
   128
 43
0.0
 10
0.198705326446823
 20
0.1568759923747831
 10
0.1896324965570468
 20
0.1548001294046259
  0
LWPOLYLINE
  5
21E4
330
2
100
AcDbEntity
  8
Profilo
  6
Continuous
370
     0
100
AcDbPolyline
 90
        2
 70
   128
 43
0.0
 10
0.1911057629720656
 20
0.1552798459970526
 10
0.1901846178274049
 20
0.1557733135677499
  0
LWPOLYLINE
  5
21E5
330
2
100
AcDbEntity
  8
Profilo
  6
Continuous
370
     0
100
AcDbPolyline
 90
        2
 70
   128
 43
0.0
 10
0.1922511330390553
 20
0.1556231972288082
 10
0.191602269307283
 20
0.1563800443057386
  0
LWPOLYLINE
  5
21E6
330
2
100
AcDbEntity
  8
Profilo
  6
Continuous
370
     0
100
AcDbPolyline
 90
        2
 70
   128
 43
0.0
 10
0.1938218362610827
 20
0.1559646929537597
 10
0.1932076769848809
 20
0.1566001288312439
  0
LWPOLYLINE
  5
21E7
330
2
100
AcDbEntity
  8
Profilo
  6
Continuous
370
     0
100
AcDbPolyline
 90
        2
 70
   128
 43
0.0
 10
0.1951778263719757
 20
0.1563412989178219
 10
0.1945289622872022
 20
0.1570981460893379
  0
LWPOLYLINE
  5
21E8
330
2
100
AcDbEntity
  8
Profilo
  6
Continuous
370
     0
100
AcDbPolyline
 90
        2
 70
   128
 43
0.0
 10
0.1957273004898472
 20
0.1552971680823636
 10
0.195536268304916
 20
0.154249652941147
  0
LWPOLYLINE
  5
21E9
330
2
100
AcDbEntity
  8
Profilo
  6
Continuous
370
     0
100
AcDbPolyline
 90
        2
 70
   128
 43
0.0
 10
0.1941943248671702
 20
0.1550128303447456
 10
0.193900250237545
 20
0.1540826155463528
  0
LWPOLYLINE
  5
21EA
330
2
100
AcDbEntity
  8
Profilo
  6
Continuous
370
     0
100
AcDbPolyline
 90
        2
 70
   128
 43
0.0
 10
0.1927980251623051
 20
0.1547367155068166
 10
0.1923993967228157
 20
0.1538345158173411
  0
LWPOLYLINE
  5
21EB
330
2
100
AcDbEntity
  8
Profilo
  6
Continuous
370
     0
100
AcDbPolyline
 90
        2
 70
   128
 43
0.0
 10
0.19118291828051
 20
0.1545640749767334
 10
0.1909071721358349
 20
0.1537859063456914
  0
LWPOLYLINE
  5
21EC
330
2
100
AcDbEntity
  8
Profilo
  6
Continuous
370
     0
100
AcDbPolyline
 90
       23
 70
   128
 43
0.0
 10
0.197954779794981
 20
0.1507556836803165
 10
0.1988003118699784
 20
0.1510468390614528
 10
0.1992647118760218
 20
0.1512705427969352
 10
0.1995399115547525
 20
0.1515802854742128
 10
0.1996259116370826
 20
0.151958860548334
 10
0.1993679117555456
 20
0.1522169796344603
 10
0.1988347118298208
 20
0.1521653560433091
 10
0.1984047121490751
 20
0.1518039892096952
 10
0.1981123123076955
 20
0.1513393746285936
 10
0.197905912548648
 20
0.1509091753981342
 10
0.1976135127072685
 20
0.150547808564522
 10
0.1964095133819097
 20
0.1497734507409558
 10
0.1941360615553898
 20
0.1488169309720875
 10
0.1922885108262939
 20
0.1483843127424049
 10
0.1907731196686371
 20
0.1482760201381237
 10
0.1897123460044618
 20
0.1483409957006914
 10
0.1892360803895621
 20
0.1484709462606415
 10
0.18919278341581
 20
0.1487308479457288
 10
0.1892793769978571
 20
0.1491207001907662
 10
0.1901669631324847
 20
0.1502252813633089
 10
0.1915957603426375
 20
0.1515897647861242
 10
0.1931760969609197
 20
0.1527593215212364
 10
0.1942801672333936
 20
0.1534307339722152
  0
LWPOLYLINE
  5
21ED
330
2
100
AcDbEntity
  8
Profilo
  6
Continuous
370
     0
100
AcDbPolyline
 90
        2
 70
   128
 43
0.0
 10
0.1999304109788345
 20
0.153300782847078
 10
0.1912493852835368
 20
0.14946723539409
  0
LWPOLYLINE
  5
21EE
330
2
100
AcDbEntity
  8
Profilo
  6
Continuous
370
     0
100
AcDbPolyline
 90
        2
 70
   128
 43
0.0
 10
0.1994541449984795
 20
0.1540155123397704
 10
0.1912277371621169
 20
0.1496621615166096
  0
LWPOLYLINE
  5
21EF
330
2
100
AcDbEntity
  8
Profilo
  6
Continuous
370
     0
100
AcDbPolyline
 90
        2
 70
   128
 43
0.0
 10
0.1925266434510153
 20
0.1505068415692521
 10
0.1915091667605904
 20
0.1507450847334817
  0
LWPOLYLINE
  5
21F0
330
2
100
AcDbEntity
  8
Profilo
  6
Continuous
370
     0
100
AcDbPolyline
 90
        2
 70
   128
 43
0.0
 10
0.1935441201414403
 20
0.1511349369785191
 10
0.1927214794674417
 20
0.1516980568252184
  0
LWPOLYLINE
  5
21F1
330
2
100
AcDbEntity
  8
Profilo
  6
Continuous
370
     0
100
AcDbPolyline
 90
        2
 70
   128
 43
0.0
 10
0.1949729173515948
 20
0.1518713244268803
 10
0.1942152221382216
 20
0.1523261522344872
  0
LWPOLYLINE
  5
21F2
330
2
100
AcDbEntity
  8
Profilo
  6
Continuous
370
     0
100
AcDbPolyline
 90
        2
 70
   128
 43
0.0
 10
0.1961852304239013
 20
0.1525860539195727
 10
0.1953625893844457
 20
0.153149173766272
  0
LWPOLYLINE
  5
21F3
330
2
100
AcDbEntity
  8
Profilo
  6
Continuous
370
     0
100
AcDbPolyline
 90
        2
 70
   128
 43
0.0
 10
0.1969862226110248
 20
0.1517197153460743
 10
0.1970728165585271
 20
0.1506584506500581
  0
LWPOLYLINE
  5
21F4
330
2
100
AcDbEntity
  8
Profilo
  6
Continuous
370
     0
100
AcDbPolyline
 90
        2
 70
   128
 43
0.0
 10
0.1955790738877472
 20
0.1510483028950955
 10
0.1955357769139969
 20
0.1500736722825029
  0
LWPOLYLINE
  5
21F5
330
2
100
AcDbEntity
  8
Profilo
  6
Continuous
370
     0
100
AcDbPolyline
 90
        2
 70
   128
 43
0.0
 10
0.1943018157202687
 20
0.1504202074858267
 10
0.1941502766775944
 20
0.1494455768732341
  0
LWPOLYLINE
  5
21F6
330
2
100
AcDbEntity
  8
Profilo
  6
Continuous
370
     0
100
AcDbPolyline
 90
        2
 70
   128
 43
0.0
 10
0.1927864249280689
 20
0.1498354291182715
 10
0.1927214794674417
 20
0.1490124075864849
  0
LWPOLYLINE
  5
21F7
330
2
100
AcDbEntity
  8
Profilo
  6
Continuous
370
     0
100
AcDbPolyline
 90
       23
 70
   128
 43
0.0
 10
0.2003132250556654
 20
0.1479094923391888
 10
0.2010545897661384
 20
0.148409566645546
 10
0.2014452669385005
 20
0.1487458434271969
 10
0.2016309221116128
 20
0.1491162587967438
 10
0.201616009373015
 20
0.1495041926972154
 10
0.2012999944888645
 20
0.1496867413057861
 10
0.2007983240785987
 20
0.1494988744502224
 10
0.2004765049004782
 20
0.149038528786106
 10
0.2003143194443073
 20
0.1485140669152156
 10
0.2002262963405343
 20
0.1480451061795187
 10
0.2000373884009516
 20
0.1476203739744339
 10
0.1990748329102143
 20
0.1465607837981691
 10
0.1971264126093566
 20
0.145048444019237
 10
0.195453785481843
 20
0.1441523855827786
 10
0.1940180582141651
 20
0.1436555708671273
 10
0.1929766126230306
 20
0.143443784014258
 10
0.1924829416855893
 20
0.1434460400045913
 10
0.1923738525144885
 20
0.1436858796731095
 10
0.1923565943059871
 20
0.1440848600932445
 10
0.1929280500321628
 20
0.1453815277708466
 10
0.1939550078614289
 20
0.1470693174780657
 10
0.1951787922578838
 20
0.1486080437483044
 10
0.1960714679186701
 20
0.1495423327884446
  0
LWPOLYLINE
  5
21F8
330
2
100
AcDbEntity
  8
Profilo
  6
Continuous
370
     0
100
AcDbPolyline
 90
        2
 70
   128
 43
0.0
 10
0.2015628181033382
 20
0.1508792003313126
 10
0.1941697862767093
 20
0.144929463059198
  0
LWPOLYLINE
  5
21F9
330
2
100
AcDbEntity
  8
Profilo
  6
Continuous
370
     0
100
AcDbPolyline
 90
        2
 70
   128
 43
0.0
 10
0.2009177948879242
 20
0.1514463093008644
 10
0.194098425204243
 20
0.1451121442890426
  0
LWPOLYLINE
  5
21FA
330
2
100
AcDbEntity
  8
Profilo
  6
Continuous
370
     0
100
AcDbPolyline
 90
        2
 70
   128
 43
0.0
 10
0.1951344530499768
 20
0.1462642242522123
 10
0.1940899841687795
 20
0.1462310071320503
  0
LWPOLYLINE
  5
21FB
330
2
100
AcDbEntity
  8
Profilo
  6
Continuous
370
     0
100
AcDbPolyline
 90
        2
 70
   128
 43
0.0
 10
0.1959546970088468
 20
0.1471342601748273
 10
0.1950143409950737
 20
0.1474652771043439
  0
LWPOLYLINE
  5
21FC
330
2
100
AcDbEntity
  8
Profilo
  6
Continuous
370
     0
100
AcDbPolyline
 90
        2
 70
   128
 43
0.0
 10
0.1971442180384522
 20
0.1482153557589325
 10
0.1962946225645503
 20
0.1484585797332092
  0
LWPOLYLINE
  5
21FD
330
2
100
AcDbEntity
  8
Profilo
  6
Continuous
370
     0
100
AcDbPolyline
 90
        2
 70
   128
 43
0.0
 10
0.1981302369397355
 20
0.1492195011464745
 10
0.1971898805729595
 20
0.1495505179814036
  0
LWPOLYLINE
  5
21FE
330
2
100
AcDbEntity
  8
Profilo
  6
Continuous
370
     0
100
AcDbPolyline
 90
        2
 70
   128
 43
0.0
 10
0.1991281609022633
 20
0.1485899943770268
 10
0.1994864797477807
 20
0.1475873035614197
  0
LWPOLYLINE
  5
21FF
330
2
100
AcDbEntity
  8
Profilo
  6
Continuous
370
     0
100
AcDbPolyline
 90
        2
 70
   128
 43
0.0
 10
0.1979427339384536
 20
0.1475772628616583
 10
0.198153165237785
 20
0.1466246359004608
  0
LWPOLYLINE
  5
2200
330
2
100
AcDbEntity
  8
Profilo
  6
Continuous
370
     0
100
AcDbPolyline
 90
        2
 70
   128
 43
0.0
 10
0.1968715603417065
 20
0.1466399905452165
 10
0.1969774378311756
 20
0.1456593484751001
  0
LWPOLYLINE
  5
2201
330
2
100
AcDbEntity
  8
Profilo
  6
Continuous
370
     0
100
AcDbPolyline
 90
        2
 70
   128
 43
0.0
 10
0.1955591570172868
 20
0.1456829260195449
 10
0.195709438166522
 20
0.1448711391442967
  0
LWPOLYLINE
  5
2202
330
2
100
AcDbEntity
  8
Profilo
  6
Continuous
370
     0
100
AcDbPolyline
 90
       23
 70
   128
 43
0.0
 10
0.2033279567679387
 20
0.1457706931665315
 10
0.2039146313340325
 20
0.1464456071605426
 10
0.2042049616690413
 20
0.1468715402814138
 10
0.2042884202432973
 20
0.1472773851479361
 10
0.2041736109622623
 20
0.1476482408205322
 10
0.2038211169676132
 20
0.1477427785655494
 10
0.2033851640822164
 20
0.1474314712613158
 10
0.2031934568518789
 20
0.1469035185629495
 10
0.2031725384517327
 20
0.1463549506120558
 10
0.2032088906322909
 20
0.1458791872702663
 10
0.2031363483583999
 20
0.1454200344915812
 10
0.2024808332682817
 20
0.1441474212820766
 10
0.2009902261166723
 20
0.142182324949753
 10
0.1996065093653343
 20
0.140883891208159
 10
0.1983482884282754
 20
0.140032411482983
 10
0.197397143706149
 20
0.1395582951387043
 10
0.1969197103047222
 20
0.1394327028174076
 10
0.1967522631830019
 20
0.1396361357923035
 10
0.1966323293023422
 20
0.1400170545312514
 10
0.1968487108567036
 20
0.1414174429545274
 10
0.1974038438261438
 20
0.1433135188668069
 10
0.1981876771165532
 20
0.145116553019721
 10
0.1988081237945878
 20
0.1462500483949242
  0
LWPOLYLINE
  5
2203
330
2
100
AcDbEntity
  8
Profilo
  6
Continuous
370
     0
100
AcDbPolyline
 90
        2
 70
   128
 43
0.0
 10
0.2037663539782806
 20
0.1489626292920243
 10
0.198165138921744
 20
0.141302166963476
  0
LWPOLYLINE
  5
2204
330
2
100
AcDbEntity
  8
Profilo
  6
Continuous
370
     0
100
AcDbPolyline
 90
        2
 70
   128
 43
0.0
 10
0.20299653079399
 20
0.1493434701993537
 10
0.1980489280373903
 20
0.1414601538767273
  0
LWPOLYLINE
  5
2205
330
2
100
AcDbEntity
  8
Profilo
  6
Continuous
370
     0
100
AcDbPolyline
 90
        2
 70
   128
 43
0.0
 10
0.1987514738543894
 20
0.1428411214048358
 10
0.1977511916106078
 20
0.1425387076921241
  0
LWPOLYLINE
  5
2206
330
2
100
AcDbEntity
  8
Profilo
  6
Continuous
370
     0
100
AcDbPolyline
 90
        2
 70
   128
 43
0.0
 10
0.1993185868114236
 20
0.1438938063304751
 10
0.1983245991662035
 20
0.1439701620860921
  0
LWPOLYLINE
  5
2207
330
2
100
AcDbEntity
  8
Profilo
  6
Continuous
370
     0
100
AcDbPolyline
 90
        2
 70
   128
 43
0.0
 10
0.2001877677680917
 20
0.1452459351728598
 10
0.1993041705611821
 20
0.145260980001908
  0
LWPOLYLINE
  5
2208
330
2
100
AcDbEntity
  8
Profilo
  6
Continuous
370
     0
100
AcDbPolyline
 90
        2
 70
   128
 43
0.0
 10
0.2008802969397021
 20
0.1464710656065198
 10
0.1998863089779903
 20
0.1465474211794082
  0
LWPOLYLINE
  5
2209
330
2
100
AcDbEntity
  8
Profilo
  6
Continuous
370
     0
100
AcDbPolyline
 90
        2
 70
   128
 43
0.0
 10
0.2020071458087351
 20
0.1461212904871521
 10
0.2026127707150949
 20
0.1452455052740142
  0
LWPOLYLINE
  5
220A
330
2
100
AcDbEntity
  8
Profilo
  6
Continuous
370
     0
100
AcDbPolyline
 90
        2
 70
   128
 43
0.0
 10
0.2011242254929642
 20
0.1448362558865477
 10
0.2015740445200838
 20
0.1439705525298619
  0
LWPOLYLINE
  5
220B
330
2
100
AcDbEntity
  8
Profilo
  6
Continuous
370
     0
100
AcDbPolyline
 90
        2
 70
   128
 43
0.0
 10
0.2003321351773704
 20
0.1436536802223825
 10
0.2006882138230452
 20
0.1427338558312338
  0
LWPOLYLINE
  5
220C
330
2
100
AcDbEntity
  8
Profilo
  6
Continuous
370
     0
100
AcDbPolyline
 90
        2
 70
   128
 43
0.0
 10
0.1993121574384411
 20
0.1423895519043961
 10
0.1996674237855711
 20
0.1416443216196944
  0
LWPOLYLINE
  5
220D
330
2
100
AcDbEntity
  8
Profilo
  6
Continuous
370
     0
100
AcDbPolyline
 90
       23
 70
   128
 43
0.0
 10
0.2067935259476878
 20
0.1444850417914254
 10
0.2071855294672489
 20
0.1452888011997478
 10
0.2073557274323676
 20
0.1457753640215409
 10
0.2073313018438541
 20
0.1461889807280774
 10
0.2071244200831537
 20
0.1465174849715756
 10
0.2067594688612193
 20
0.1465175692619476
 10
0.206418942969383
 20
0.1461040365873676
 10
0.206370412217763
 20
0.1455444559586608
 10
0.2064921864280411
 20
0.145009165927068
 10
0.2066504365519013
 20
0.1445590224646911
 10
0.2066992035797892
 20
0.1440967396154905
 10
0.2063954011603901
 20
0.1426978298598774
 10
0.205464189572065
 20
0.1404138950417378
 10
0.2044636812068081
 20
0.1388015721087333
 10
0.2034687122779186
 20
0.1376534543101671
 10
0.2026726873657723
 20
0.1369493187198256
 10
0.2022440277976715
 20
0.1367044369960451
 10
0.2020296339699599
 20
0.1368575996562674
 10
0.2018151977129066
 20
0.1371944977314664
 10
0.2016617590501124
 20
0.1386031727436241
 10
0.2017072357652616
 20
0.1405783204209539
 10
0.201997701006227
 20
0.142522788658678
 10
0.2023036362857387
 20
0.1437782445323106
  0
LWPOLYLINE
  5
220E
330
2
100
AcDbEntity
  8
Profilo
  6
Continuous
370
     0
100
AcDbPolyline
 90
        2
 70
   128
 43
0.0
 10
0.2063908512753045
 20
0.1476816808782613
 10
0.2029631665385125
 20
0.1388325413414547
  0
LWPOLYLINE
  5
220F
330
2
100
AcDbEntity
  8
Profilo
  6
Continuous
370
     0
100
AcDbPolyline
 90
        2
 70
   128
 43
0.0
 10
0.2055486902999501
 20
0.1478503000449014
 10
0.202810025421994
 20
0.1389550673910614
  0
LWPOLYLINE
  5
2210
330
2
100
AcDbEntity
  8
Profilo
  6
Continuous
370
     0
100
AcDbPolyline
 90
        2
 70
   128
 43
0.0
 10
0.2031312118738431
 20
0.1404708118292235
 10
0.2022432838493462
 20
0.1399198105187236
  0
LWPOLYLINE
  5
2211
330
2
100
AcDbEntity
  8
Profilo
  6
Continuous
370
     0
100
AcDbPolyline
 90
        2
 70
   128
 43
0.0
 10
0.2034065460182177
 20
0.1416344070198492
 10
0.2024266653569307
 20
0.1414508980830065
  0
LWPOLYLINE
  5
2212
330
2
100
AcDbEntity
  8
Profilo
  6
Continuous
370
     0
100
AcDbPolyline
 90
        2
 70
   128
 43
0.0
 10
0.2038961536561399
 20
0.143165423774406
 10
0.2030387704056615
 20
0.1429512641779866
  0
LWPOLYLINE
  5
2213
330
2
100
AcDbEntity
  8
Profilo
  6
Continuous
370
     0
100
AcDbPolyline
 90
        2
 70
   128
 43
0.0
 10
0.2042479983794927
 20
0.1445280486397517
 10
0.2032681174597883
 20
0.1443445394444934
  0
LWPOLYLINE
  5
2214
330
2
100
AcDbEntity
  8
Profilo
  6
Continuous
370
     0
100
AcDbPolyline
 90
        2
 70
   128
 43
0.0
 10
0.2054269792668084
 20
0.144481841766821
 10
0.2062386378974861
 20
0.1437926454711219
  0
LWPOLYLINE
  5
2215
330
2
100
AcDbEntity
  8
Profilo
  6
Continuous
370
     0
100
AcDbPolyline
 90
        2
 70
   128
 43
0.0
 10
0.2049067351595035
 20
0.1430120770653917
 10
0.2055652874910738
 20
0.1422922935663303
  0
LWPOLYLINE
  5
2216
330
2
100
AcDbEntity
  8
Profilo
  6
Continuous
370
     0
100
AcDbPolyline
 90
        2
 70
   128
 43
0.0
 10
0.2044477077710785
 20
0.1416647886307173
 10
0.2050297214017054
 20
0.1408684664307108
  0
LWPOLYLINE
  5
2217
330
2
100
AcDbEntity
  8
Profilo
  6
Continuous
370
     0
100
AcDbPolyline
 90
        2
 70
   128
 43
0.0
 10
0.2037896654149549
 20
0.1401797447762144
 10
0.2043257061455279
 20
0.1395518572944093
  0
LWPOLYLINE
  5
2218
330
2
100
AcDbEntity
  8
Profilo
  6
Continuous
370
     0
100
AcDbPolyline
 90
       23
 70
   128
 43
0.0
 10
0.2104737597824411
 20
0.1441401532304476
 10
0.2106443778634273
 20
0.1450179831776778
 10
0.2106828447485978
 20
0.1455320172481708
 10
0.2105521995608044
 20
0.1459252184997024
 10
0.210267343970542
 20
0.1461889842927904
 10
0.209914806343986
 20
0.1460946093842677
 10
0.2096929137224948
 20
0.1456070329077197
 10
0.2097908667401171
 20
0.1450539588437683
 10
0.2100470348496295
 20
0.1445684258625204
 10
0.2103163984323715
 20
0.1441745788126192
 10
0.2104831513696771
 20
0.143740669705116
 10
0.2105517652538229
 20
0.1423107967914318
 10
0.2102434097596266
 20
0.1398636698709522
 10
0.2096942927721248
 20
0.1380473348899334
 10
0.2090303813396457
 20
0.1366808213485915
 10
0.2084437240197474
 20
0.1357946521890345
 10
0.2080930507261443
 20
0.1354471693475579
 10
0.2078463207774981
 20
0.1355396239109248
 10
0.2075519956205973
 20
0.1358095422753007
 10
0.2070391933319471
 20
0.1371305050022067
 10
0.2065719146298222
 20
0.1390501213944622
 10
0.2063492170951904
 20
0.141003511419982
 10
0.2063197919924609
 20
0.1422953705489971
  0
LWPOLYLINE
  5
2219
330
2
100
AcDbEntity
  8
Profilo
  6
Continuous
370
     0
100
AcDbPolyline
 90
        2
 70
   128
 43
0.0
 10
0.2092574548407999
 20
0.1471236496075545
 10
0.2082368914740524
 20
0.1376888870980282
  0
LWPOLYLINE
  5
221A
330
2
100
AcDbEntity
  8
Profilo
  6
Continuous
370
     0
100
AcDbPolyline
 90
        2
 70
   128
 43
0.0
 10
0.2084003479531156
 20
0.1470685559159546
 10
0.2080572564393794
 20
0.1377676023361923
  0
LWPOLYLINE
  5
221B
330
2
100
AcDbEntity
  8
Profilo
  6
Continuous
370
     0
100
AcDbPolyline
 90
        2
 70
   128
 43
0.0
 10
0.2079751952001712
 20
0.1393148282058357
 10
0.2072601322224561
 20
0.1385527891262838
  0
LWPOLYLINE
  5
221C
330
2
100
AcDbEntity
  8
Profilo
  6
Continuous
370
     0
100
AcDbPolyline
 90
        2
 70
   128
 43
0.0
 10
0.2079399869649569
 20
0.1405100365721369
 10
0.2070409905353412
 20
0.1400791687736161
  0
LWPOLYLINE
  5
221D
330
2
100
AcDbEntity
  8
Profilo
  6
Continuous
370
     0
100
AcDbPolyline
 90
        2
 70
   128
 43
0.0
 10
0.2080166553327249
 20
0.1421156049771661
 10
0.2072439152903034
 20
0.1416868355778634
  0
LWPOLYLINE
  5
221E
330
2
100
AcDbEntity
  8
Profilo
  6
Continuous
370
     0
100
AcDbPolyline
 90
        2
 70
   128
 43
0.0
 10
0.2080038379713713
 20
0.1435228636414707
 10
0.2071048413590273
 20
0.1430919955264565
  0
LWPOLYLINE
  5
221F
330
2
100
AcDbEntity
  8
Profilo
  6
Continuous
370
     0
100
AcDbPolyline
 90
        2
 70
   128
 43
0.0
 10
0.2091546052778626
 20
0.1437833739370036
 10
0.2101169844385045
 20
0.1433277341473454
  0
LWPOLYLINE
  5
2220
330
2
100
AcDbEntity
  8
Profilo
  6
Continuous
370
     0
100
AcDbPolyline
 90
        2
 70
   128
 43
0.0
 10
0.2090324911551893
 20
0.1422290411702521
 10
0.2098548975381249
 20
0.141704229584779
  0
LWPOLYLINE
  5
2221
330
2
100
AcDbEntity
  8
Profilo
  6
Continuous
370
     0
100
AcDbPolyline
 90
        2
 70
   128
 43
0.0
 10
0.2089378086518761
 20
0.1408088554453913
 10
0.2097060940003506
 20
0.1401903034784735
  0
LWPOLYLINE
  5
2222
330
2
100
AcDbEntity
  8
Profilo
  6
Continuous
370
     0
100
AcDbPolyline
 90
        2
 70
   128
 43
0.0
 10
0.2086865461776626
 20
0.1392040993389068
 10
0.2093668310017371
 20
0.1387363441542503
  0
LWPOLYLINE
  5
2223
330
2
100
AcDbEntity
  8
Profilo
  6
Continuous
370
     0
100
AcDbPolyline
 90
       23
 70
   128
 43
0.0
 10
0.2141178564182298
 20
0.1447595310690724
 10
0.2140554617203805
 20
0.1456516088949891
 10
0.2139595760709494
 20
0.1461580836417586
 10
0.2137316145375252
 20
0.1465040734227903
 10
0.213388197555431
 20
0.1466851255625614
 10
0.2130720983809067
 20
0.1465027229491977
 10
0.2129839606452191
 20
0.1459743302017995
 10
0.2132217220958072
 20
0.1454654537860631
 10
0.2135948266712291
 20
0.1450627661254509
 10
0.213956947029833
 20
0.144752055513616
 10
0.214230321939451
 20
0.1443760903364155
 10
0.2146666762043285
 20
0.1430126977407551
 10
0.2150021907216086
 20
0.1405691463734963
 10
0.2149418865270996
 20
0.138672579571781
 10
0.2146542770579896
 20
0.13718079592724
 10
0.2143169670571947
 20
0.1361729841622226
 10
0.214068177843534
 20
0.1357465805844549
 10
0.2138059260122109
 20
0.1357720264252636
 10
0.2134517697285105
 20
0.1359565705883452
 10
0.2126145504425285
 20
0.1370997996031531
 10
0.2116663605944649
 20
0.1388330660255215
 10
0.2109456767531956
 20
0.1406622575367257
 10
0.2105828965403493
 20
0.1419024818563775
  0
LWPOLYLINE
  5
2224
330
2
100
AcDbEntity
  8
Profilo
  6
Continuous
370
     0
100
AcDbPolyline
 90
        2
 70
   128
 43
0.0
 10
0.2121708103790649
 20
0.1473265643888095
 10
0.2136269180892445
 20
0.1379491423799046
  0
LWPOLYLINE
  5
2225
330
2
100
AcDbEntity
  8
Profilo
  6
Continuous
370
     0
100
AcDbPolyline
 90
        2
 70
   128
 43
0.0
 10
0.2113571679970125
 20
0.1470515123830069
 10
0.2134330309671715
 20
0.1379786824932307
  0
LWPOLYLINE
  5
2226
330
2
100
AcDbEntity
  8
Profilo
  6
Continuous
370
     0
100
AcDbPolyline
 90
        2
 70
   128
 43
0.0
 10
0.2129533143747431
 20
0.1394519489082495
 10
0.2124598468040457
 20
0.1385308037635889
  0
LWPOLYLINE
  5
2227
330
2
100
AcDbEntity
  8
Profilo
  6
Continuous
370
     0
100
AcDbPolyline
 90
        2
 70
   128
 43
0.0
 10
0.2126099631429874
 20
0.1405973189752392
 10
0.2118531160660571
 20
0.1399484552434669
  0
LWPOLYLINE
  5
2228
330
2
100
AcDbEntity
  8
Profilo
  6
Continuous
370
     0
100
AcDbPolyline
 90
        2
 70
   128
 43
0.0
 10
0.2122684674180377
 20
0.1421680221972667
 10
0.2116330315405535
 20
0.1415538629210649
  0
LWPOLYLINE
  5
2229
330
2
100
AcDbEntity
  8
Profilo
  6
Continuous
370
     0
100
AcDbPolyline
 90
        2
 70
   128
 43
0.0
 10
0.2118918614539755
 20
0.1435240123081596
 10
0.2111350142824577
 20
0.1428751482233861
  0
LWPOLYLINE
  5
222A
330
2
100
AcDbEntity
  8
Profilo
  6
Continuous
370
     0
100
AcDbPolyline
 90
        2
 70
   128
 43
0.0
 10
0.2129359922894338
 20
0.1440734864260311
 10
0.2139835074306486
 20
0.1438824542411
  0
LWPOLYLINE
  5
222B
330
2
100
AcDbEntity
  8
Profilo
  6
Continuous
370
     0
100
AcDbPolyline
 90
        2
 70
   128
 43
0.0
 10
0.2132203300270519
 20
0.1425405108033543
 10
0.2141505448254446
 20
0.1422464361737289
  0
LWPOLYLINE
  5
222C
330
2
100
AcDbEntity
  8
Profilo
  6
Continuous
370
     0
100
AcDbPolyline
 90
        2
 70
   128
 43
0.0
 10
0.2134964448649808
 20
0.1411442110984891
 10
0.2143986445544546
 20
0.1407455826589997
  0
LWPOLYLINE
  5
222D
330
2
100
AcDbEntity
  8
Profilo
  6
Continuous
370
     0
100
AcDbPolyline
 90
        2
 70
   128
 43
0.0
 10
0.2136690853950622
 20
0.139529104216694
 10
0.2144472540261042
 20
0.1392533580720188
  0
LWPOLYLINE
  5
222E
330
2
100
AcDbEntity
  8
Profilo
  6
Continuous
370
     0
100
AcDbPolyline
 90
       23
 70
   128
 43
0.0
 10
0.2174774766914809
 20
0.1463009657311649
 10
0.2171863213103446
 20
0.1471464978061623
 10
0.2169626175748605
 20
0.1476108978122057
 10
0.2166528748975847
 20
0.1478860974909364
 10
0.2162742998234617
 20
0.1479720975732666
 10
0.2160161807373371
 20
0.1477140976917295
 10
0.2160678043284865
 20
0.1471808977660047
 10
0.2164291711621005
 20
0.146750898085259
 10
0.2168937857432021
 20
0.1464584982438794
 10
0.2173239849736614
 20
0.1462520984848319
 10
0.2176853518072754
 20
0.1459596986434524
 10
0.2184597096308398
 20
0.1447556993180936
 10
0.2194162293997099
 20
0.1424822474915738
 10
0.2198488476293925
 20
0.1406346967624779
 10
0.2199571402336737
 20
0.1391193056048228
 10
0.2198921646711043
 20
0.1380585319406458
 10
0.2197622141111541
 20
0.137582266325746
 10
0.2195023124260669
 20
0.1375389693519941
 10
0.2191124601810312
 20
0.1376255629340412
 10
0.2180078790084885
 20
0.1385131490686686
 10
0.2166433955856715
 20
0.1399419462788214
 10
0.215473838850561
 20
0.1415222828971038
 10
0.2148024263995805
 20
0.1426263531695775
  0
LWPOLYLINE
  5
222F
330
2
100
AcDbEntity
  8
Profilo
  6
Continuous
370
     0
100
AcDbPolyline
 90
        2
 70
   128
 43
0.0
 10
0.2149323775247176
 20
0.1482765969150184
 10
0.2187659249777056
 20
0.1395955712197208
  0
LWPOLYLINE
  5
2230
330
2
100
AcDbEntity
  8
Profilo
  6
Continuous
370
     0
100
AcDbPolyline
 90
        2
 70
   128
 43
0.0
 10
0.2142176480320252
 20
0.1478003309346634
 10
0.2185709988551878
 20
0.1395739230983009
  0
LWPOLYLINE
  5
2231
330
2
100
AcDbEntity
  8
Profilo
  6
Continuous
370
     0
100
AcDbPolyline
 90
        2
 70
   128
 43
0.0
 10
0.2177263188025453
 20
0.1408728293871992
 10
0.217488075638314
 20
0.1398553526967744
  0
LWPOLYLINE
  5
2232
330
2
100
AcDbEntity
  8
Profilo
  6
Continuous
370
     0
100
AcDbPolyline
 90
        2
 70
   128
 43
0.0
 10
0.2170982233932766
 20
0.141890306077626
 10
0.2165351035465772
 20
0.1410676654036256
  0
LWPOLYLINE
  5
2233
330
2
100
AcDbEntity
  8
Profilo
  6
Continuous
370
     0
100
AcDbPolyline
 90
        2
 70
   128
 43
0.0
 10
0.2163618359449153
 20
0.1433191032877787
 10
0.2159070081373102
 20
0.1425614080744056
  0
LWPOLYLINE
  5
2234
330
2
100
AcDbEntity
  8
Profilo
  6
Continuous
370
     0
100
AcDbPolyline
 90
        2
 70
   128
 43
0.0
 10
0.215647106452223
 20
0.1445314163600853
 10
0.2150839866055236
 20
0.1437087753206296
  0
LWPOLYLINE
  5
2235
330
2
100
AcDbEntity
  8
Profilo
  6
Continuous
370
     0
100
AcDbPolyline
 90
        2
 70
   128
 43
0.0
 10
0.2165134450257213
 20
0.1453324085472088
 10
0.2175747097217393
 20
0.1454190024947111
  0
LWPOLYLINE
  5
2236
330
2
100
AcDbEntity
  8
Profilo
  6
Continuous
370
     0
100
AcDbPolyline
 90
        2
 70
   128
 43
0.0
 10
0.2171848574767019
 20
0.1439252598239311
 10
0.2181594880892945
 20
0.1438819628501809
  0
LWPOLYLINE
  5
2237
330
2
100
AcDbEntity
  8
Profilo
  6
Continuous
370
     0
100
AcDbPolyline
 90
        2
 70
   128
 43
0.0
 10
0.2178129528859689
 20
0.1426480016564526
 10
0.2187875834985615
 20
0.1424964626137784
  0
LWPOLYLINE
  5
2238
330
2
100
AcDbEntity
  8
Profilo
  6
Continuous
370
     0
100
AcDbPolyline
 90
        2
 70
   128
 43
0.0
 10
0.2183977312535241
 20
0.1411326108642528
 10
0.2192207527853107
 20
0.1410676654036256
  0
LWPOLYLINE
  5
2239
330
2
100
AcDbEntity
  8
Profilo
  6
Continuous
370
     0
100
AcDbPolyline
 90
       23
 70
   128
 43
0.0
 10
0.2203236680326068
 20
0.1486594109918493
 10
0.2198235937262496
 20
0.1494007757023223
 10
0.2194873169446005
 20
0.1497914528746844
 10
0.2191169015750536
 20
0.1499771080477967
 10
0.218728967674582
 20
0.1499621953091989
 10
0.2185464190660113
 20
0.1496461804250484
 10
0.2187342859215733
 20
0.1491445100147826
 10
0.2191946315856896
 20
0.1488226908366621
 10
0.21971909345658
 20
0.1486605053804912
 10
0.2201880541922769
 20
0.1485724822767182
 10
0.2206127863973635
 20
0.1483835743371356
 10
0.2216723765736266
 20
0.1474210188463982
 10
0.2231847163525604
 20
0.1454725985455405
 10
0.224080774789017
 20
0.143799971418027
 10
0.2245775895046702
 20
0.142364244150349
 10
0.2247893763575395
 20
0.1413227985592145
 10
0.2247871203672063
 20
0.1408291276217732
 10
0.2245472806986861
 20
0.1407200384506724
 10
0.2241483002785511
 20
0.140702780242171
 10
0.2228516326009491
 20
0.1412742359683468
 10
0.2211638428937299
 20
0.1423011937976129
 10
0.219625116623493
 20
0.1435249781940678
 10
0.218690827583351
 20
0.1444176538548542
  0
LWPOLYLINE
  5
223A
330
2
100
AcDbEntity
  8
Profilo
  6
Continuous
370
     0
100
AcDbPolyline
 90
        2
 70
   128
 43
0.0
 10
0.2173539600404848
 20
0.1499090040395221
 10
0.2233036973125977
 20
0.1425159722128932
  0
LWPOLYLINE
  5
223B
330
2
100
AcDbEntity
  8
Profilo
  6
Continuous
370
     0
100
AcDbPolyline
 90
        2
 70
   128
 43
0.0
 10
0.216786851070933
 20
0.1492639808241081
 10
0.223121016082753
 20
0.142444611140427
  0
LWPOLYLINE
  5
223C
330
2
100
AcDbEntity
  8
Profilo
  6
Continuous
370
     0
100
AcDbPolyline
 90
        2
 70
   128
 43
0.0
 10
0.2219689361195833
 20
0.1434806389861607
 10
0.2220021532397471
 20
0.1424361701049635
  0
LWPOLYLINE
  5
223D
330
2
100
AcDbEntity
  8
Profilo
  6
Continuous
370
     0
100
AcDbPolyline
 90
        2
 70
   128
 43
0.0
 10
0.2210989001969683
 20
0.1443008829450307
 10
0.2207678832674536
 20
0.1433605269312578
  0
LWPOLYLINE
  5
223E
330
2
100
AcDbEntity
  8
Profilo
  6
Continuous
370
     0
100
AcDbPolyline
 90
        2
 70
   128
 43
0.0
 10
0.2200178046128649
 20
0.1454904039746361
 10
0.2197745806385882
 20
0.1446408085007342
  0
LWPOLYLINE
  5
223F
330
2
100
AcDbEntity
  8
Profilo
  6
Continuous
370
     0
100
AcDbPolyline
 90
        2
 70
   128
 43
0.0
 10
0.2190136592253229
 20
0.1464764228759194
 10
0.2186826423903938
 20
0.1455360665091435
  0
LWPOLYLINE
  5
2240
330
2
100
AcDbEntity
  8
Profilo
  6
Continuous
370
     0
100
AcDbPolyline
 90
        2
 70
   128
 43
0.0
 10
0.2196431659947688
 20
0.1474743468384472
 10
0.220645856810376
 20
0.1478326656839646
  0
LWPOLYLINE
  5
2241
330
2
100
AcDbEntity
  8
Profilo
  6
Continuous
370
     0
100
AcDbPolyline
 90
        2
 70
   128
 43
0.0
 10
0.2206558975101391
 20
0.1462889198746375
 10
0.2216085244713366
 20
0.1464993511739689
  0
LWPOLYLINE
  5
2242
330
2
100
AcDbEntity
  8
Profilo
  6
Continuous
370
     0
100
AcDbPolyline
 90
        2
 70
   128
 43
0.0
 10
0.2215931698265809
 20
0.1452177462778904
 10
0.2225738118966956
 20
0.1453236237673595
  0
LWPOLYLINE
  5
2243
330
2
100
AcDbEntity
  8
Profilo
  6
Continuous
370
     0
100
AcDbPolyline
 90
        2
 70
   128
 43
0.0
 10
0.2225502343522507
 20
0.1439053429534707
 10
0.2233620212274989
 20
0.1440556241027059
  0
LWPOLYLINE
  5
2244
330
2
100
AcDbEntity
  8
Profilo
  6
Continuous
370
     0
100
AcDbPolyline
 90
       23
 70
   128
 43
0.0
 10
0.2224624672052642
 20
0.1516741427041226
 10
0.221787553211253
 20
0.1522608172702164
 10
0.2213616200903818
 20
0.1525511476052253
 10
0.2209557752238596
 20
0.1526346061794812
 10
0.2205849195512652
 20
0.1525197968984462
 10
0.2204903818062462
 20
0.1521673029037971
 10
0.2208016891104798
 20
0.1517313500184003
 10
0.2213296418088479
 20
0.1515396427880628
 10
0.2218782097597398
 20
0.1515187243879166
 10
0.2223539731015294
 20
0.1515550765684747
 10
0.2228131258802144
 20
0.1514825342945838
 10
0.2240857390897208
 20
0.1508270192044656
 10
0.2260508354220427
 20
0.1493364120528562
 10
0.2273492691636367
 20
0.1479526953015182
 10
0.2282007488888145
 20
0.1466944743644594
 10
0.2286748652330932
 20
0.1457433296423329
 10
0.2288004575543898
 20
0.1452658962409061
 10
0.2285970245794939
 20
0.1450984491191859
 10
0.2282161058405461
 20
0.1449785152385261
 10
0.2268157174172682
 20
0.1451948967928877
 10
0.2249196415049905
 20
0.1457500297623278
 10
0.2231166073520747
 20
0.1465338630527371
 10
0.2219831119768731
 20
0.1471543097307717
  0
LWPOLYLINE
  5
2245
330
2
100
AcDbEntity
  8
Profilo
  6
Continuous
370
     0
100
AcDbPolyline
 90
        2
 70
   128
 43
0.0
 10
0.2192705310797713
 20
0.1521125399144645
 10
0.2269309934083215
 20
0.1465113248579279
  0
LWPOLYLINE
  5
2246
330
2
100
AcDbEntity
  8
Profilo
  6
Continuous
370
     0
100
AcDbPolyline
 90
        2
 70
   128
 43
0.0
 10
0.2188896901724437
 20
0.1513427167301739
 10
0.2267730064950684
 20
0.1463951139735742
  0
LWPOLYLINE
  5
2247
330
2
100
AcDbEntity
  8
Profilo
  6
Continuous
370
     0
100
AcDbPolyline
 90
        2
 70
   128
 43
0.0
 10
0.2253920389669617
 20
0.1470976597905751
 10
0.2256944526796716
 20
0.1460973775467917
  0
LWPOLYLINE
  5
2248
330
2
100
AcDbEntity
  8
Profilo
  6
Continuous
370
     0
100
AcDbPolyline
 90
        2
 70
   128
 43
0.0
 10
0.2243393540413223
 20
0.1476647727476075
 10
0.2242629982857054
 20
0.1466707851023874
  0
LWPOLYLINE
  5
2249
330
2
100
AcDbEntity
  8
Profilo
  6
Continuous
370
     0
100
AcDbPolyline
 90
        2
 70
   128
 43
0.0
 10
0.222987225198936
 20
0.1485339537042756
 10
0.2229721803698894
 20
0.1476503564973659
  0
LWPOLYLINE
  5
224A
330
2
100
AcDbEntity
  8
Profilo
  6
Continuous
370
     0
100
AcDbPolyline
 90
        2
 70
   128
 43
0.0
 10
0.2217620947652776
 20
0.1492264828758878
 10
0.2216857391923874
 20
0.1482324949141742
  0
LWPOLYLINE
  5
224B
330
2
100
AcDbEntity
  8
Profilo
  6
Continuous
370
     0
100
AcDbPolyline
 90
        2
 70
   128
 43
0.0
 10
0.2221118698846436
 20
0.150353331744919
 10
0.2229876550977832
 20
0.1509589566512788
  0
LWPOLYLINE
  5
224C
330
2
100
AcDbEntity
  8
Profilo
  6
Continuous
370
     0
100
AcDbPolyline
 90
        2
 70
   128
 43
0.0
 10
0.223396904485248
 20
0.1494704114291481
 10
0.2242626078419356
 20
0.1499202304562677
  0
LWPOLYLINE
  5
224D
330
2
100
AcDbEntity
  8
Profilo
  6
Continuous
370
     0
100
AcDbPolyline
 90
        2
 70
   128
 43
0.0
 10
0.2245794801494132
 20
0.1486783211135543
 10
0.225499304540562
 20
0.1490343997592291
  0
LWPOLYLINE
  5
224E
330
2
100
AcDbEntity
  8
Profilo
  6
Continuous
370
     0
100
AcDbPolyline
 90
        2
 70
   128
 43
0.0
 10
0.2258436084674014
 20
0.147658343374625
 10
0.2265888387521031
 20
0.148013609721755
  0
LWPOLYLINE
  5
224F
330
2
100
AcDbEntity
  8
Profilo
  6
Continuous
370
     0
100
AcDbPolyline
 90
       23
 70
   128
 43
0.0
 10
0.2237481185803702
 20
0.1551397118838733
 10
0.2229443591720479
 20
0.1555317154034328
 10
0.2224577963502565
 20
0.1557019133685515
 10
0.22204417964372
 20
0.155677487780038
 10
0.2217156754002201
 20
0.1554706060193376
 10
0.2217155911098481
 20
0.1551056547974032
 10
0.2221291237844281
 20
0.1547651289055669
 10
0.2226887044131349
 20
0.1547165981539487
 10
0.2232239944447276
 20
0.154838372364225
 10
0.2236741379071045
 20
0.154996622488087
 10
0.224136420756307
 20
0.1550453895159731
 10
0.2255353305119201
 20
0.1547415870965758
 10
0.2278192653300579
 20
0.1538103755082489
 10
0.2294315882630624
 20
0.152809867142992
 10
0.2305797060616304
 20
0.1518148982141025
 10
0.23128384165197
 20
0.1510188733019562
 10
0.2315287233757524
 20
0.1505902137338553
 10
0.2313755607155301
 20
0.1503758199061438
 10
0.2310386626403293
 20
0.1501613836490905
 10
0.2296299876281733
 20
0.1500079449862963
 10
0.2276548399508436
 20
0.1500534217014455
 10
0.2257103717131177
 20
0.1503438869424127
 10
0.2244549158394851
 20
0.1506498222219226
  0
LWPOLYLINE
  5
2250
330
2
100
AcDbEntity
  8
Profilo
  6
Continuous
370
     0
100
AcDbPolyline
 90
        2
 70
   128
 43
0.0
 10
0.2205514794935344
 20
0.1547370372114885
 10
0.229400619030341
 20
0.1513093524746965
  0
LWPOLYLINE
  5
2251
330
2
100
AcDbEntity
  8
Profilo
  6
Continuous
370
     0
100
AcDbPolyline
 90
        2
 70
   128
 43
0.0
 10
0.2203828603268942
 20
0.1538948762361341
 10
0.2292780929807343
 20
0.1511562113581779
  0
LWPOLYLINE
  5
2252
330
2
100
AcDbEntity
  8
Profilo
  6
Continuous
370
     0
100
AcDbPolyline
 90
        2
 70
   128
 43
0.0
 10
0.2277623485425722
 20
0.151477397810027
 10
0.2283133498530721
 20
0.1505894697855301
  0
LWPOLYLINE
  5
2253
330
2
100
AcDbEntity
  8
Profilo
  6
Continuous
370
     0
100
AcDbPolyline
 90
        2
 70
   128
 43
0.0
 10
0.2265987533519482
 20
0.1517527319544016
 10
0.2267822622887909
 20
0.1507728512931146
  0
LWPOLYLINE
  5
2254
330
2
100
AcDbEntity
  8
Profilo
  6
Continuous
370
     0
100
AcDbPolyline
 90
        2
 70
   128
 43
0.0
 10
0.2250677365973914
 20
0.1522423395923238
 10
0.225281896193809
 20
0.1513849563418455
  0
LWPOLYLINE
  5
2255
330
2
100
AcDbEntity
  8
Profilo
  6
Continuous
370
     0
100
AcDbPolyline
 90
        2
 70
   128
 43
0.0
 10
0.2237051117320441
 20
0.1525941843156766
 10
0.2238886209273041
 20
0.151614303395974
  0
LWPOLYLINE
  5
2256
330
2
100
AcDbEntity
  8
Profilo
  6
Continuous
370
     0
100
AcDbPolyline
 90
        2
 70
   128
 43
0.0
 10
0.2237513186049764
 20
0.1537731652029923
 10
0.2244405149006738
 20
0.15458482383367
  0
LWPOLYLINE
  5
2257
330
2
100
AcDbEntity
  8
Profilo
  6
Continuous
370
     0
100
AcDbPolyline
 90
        2
 70
   128
 43
0.0
 10
0.2252210833064041
 20
0.1532529210956874
 10
0.2259408668054654
 20
0.1539114734272577
  0
LWPOLYLINE
  5
2258
330
2
100
AcDbEntity
  8
Profilo
  6
Continuous
370
     0
100
AcDbPolyline
 90
        2
 70
   128
 43
0.0
 10
0.2265683717410802
 20
0.1527938937072624
 10
0.2273646939410867
 20
0.1533759073378893
  0
LWPOLYLINE
  5
2259
330
2
100
AcDbEntity
  8
Profilo
  6
Continuous
370
     0
100
AcDbPolyline
 90
        2
 70
   128
 43
0.0
 10
0.2280534155955831
 20
0.1521358513511388
 10
0.2286813030773882
 20
0.1526718920817118
  0
LWPOLYLINE
  5
225A
330
2
100
AcDbEntity
  8
Profilo
  6
Continuous
370
     0
100
AcDbPolyline
 90
       23
 70
   128
 43
0.0
 10
0.224093007141348
 20
0.158819945718625
 10
0.223215177194118
 20
0.1589905637996112
 10
0.2227011431236268
 20
0.1590290306847817
 10
0.2223079418720932
 20
0.1588983854969901
 10
0.2220441760790071
 20
0.1586135299067259
 10
0.222138550987528
 20
0.1582609922801699
 10
0.2226261274640777
 20
0.1580390996586787
 10
0.2231792015280292
 20
0.1581370526763011
 10
0.223664734509277
 20
0.1583932207858134
 10
0.2240585815591765
 20
0.1586625843685554
 10
0.2244924906666814
 20
0.1588293373058609
 10
0.225922363580364
 20
0.1588979511900068
 10
0.2283694905008435
 20
0.1585895956958105
 10
0.2301858254818641
 20
0.1580404787083087
 10
0.2315523390232042
 20
0.1573765672758296
 10
0.2324385081827629
 20
0.1567899099559313
 10
0.2327859910242396
 20
0.1564392366623282
 10
0.2326935364608709
 20
0.156192506713682
 10
0.2324236180964949
 20
0.1558981815567813
 10
0.2311026553695907
 20
0.155385379268131
 10
0.2291830389773335
 20
0.1549181005660061
 10
0.2272296489518137
 20
0.1546954030313743
 10
0.2259377898227985
 20
0.1546659779286448
  0
LWPOLYLINE
  5
225B
330
2
100
AcDbEntity
  8
Profilo
  6
Continuous
370
     0
100
AcDbPolyline
 90
        2
 70
   128
 43
0.0
 10
0.2211095107642429
 20
0.1576036407769838
 10
0.2305442732737692
 20
0.1565830774102364
  0
LWPOLYLINE
  5
225C
330
2
100
AcDbEntity
  8
Profilo
  6
Continuous
370
     0
100
AcDbPolyline
 90
        2
 70
   128
 43
0.0
 10
0.2211646044558411
 20
0.1567465338892995
 10
0.2304655580356034
 20
0.1564034423755634
  0
LWPOLYLINE
  5
225D
330
2
100
AcDbEntity
  8
Profilo
  6
Continuous
370
     0
100
AcDbPolyline
 90
        2
 70
   128
 43
0.0
 10
0.22891833216596
 20
0.1563213811363551
 10
0.229680371245512
 20
0.15560631815864
  0
LWPOLYLINE
  5
225E
330
2
100
AcDbEntity
  8
Profilo
  6
Continuous
370
     0
100
AcDbPolyline
 90
        2
 70
   128
 43
0.0
 10
0.2277231237996606
 20
0.1562861729011407
 10
0.2281539915981796
 20
0.1553871764715251
  0
LWPOLYLINE
  5
225F
330
2
100
AcDbEntity
  8
Profilo
  6
Continuous
370
     0
100
AcDbPolyline
 90
        2
 70
   128
 43
0.0
 10
0.2261175553946295
 20
0.1563628412689089
 10
0.2265463247939341
 20
0.1555901012264873
  0
LWPOLYLINE
  5
2260
330
2
100
AcDbEntity
  8
Profilo
  6
Continuous
370
     0
100
AcDbPolyline
 90
        2
 70
   128
 43
0.0
 10
0.2247102967303267
 20
0.156350023907557
 10
0.225141164845341
 20
0.1554510272952112
  0
LWPOLYLINE
  5
2261
330
2
100
AcDbEntity
  8
Profilo
  6
Continuous
370
     0
100
AcDbPolyline
 90
        2
 70
   128
 43
0.0
 10
0.2244497864347938
 20
0.1575007912140465
 10
0.2249054262244503
 20
0.1584631703746884
  0
LWPOLYLINE
  5
2262
330
2
100
AcDbEntity
  8
Profilo
  6
Continuous
370
     0
100
AcDbPolyline
 90
        2
 70
   128
 43
0.0
 10
0.2260041192015436
 20
0.1573786770913732
 10
0.2265289307870166
 20
0.1582010834743088
  0
LWPOLYLINE
  5
2263
330
2
100
AcDbEntity
  8
Profilo
  6
Continuous
370
     0
100
AcDbPolyline
 90
        2
 70
   128
 43
0.0
 10
0.2274243049264062
 20
0.15728399458806
 10
0.2280428568933239
 20
0.1580522799365345
  0
LWPOLYLINE
  5
2264
330
2
100
AcDbEntity
  8
Profilo
  6
Continuous
370
     0
100
AcDbPolyline
 90
        2
 70
   128
 43
0.0
 10
0.2290290610328907
 20
0.1570327321138465
 10
0.2294968162175472
 20
0.1577130169379211
  0
LWPOLYLINE
  5
2265
330
2
100
AcDbEntity
  8
Profilo
  6
Continuous
370
     0
100
AcDbPolyline
 90
       23
 70
   128
 43
0.0
 10
0.2234736293027251
 20
0.1624640423544137
 10
0.2225815514768066
 20
0.1624016476565644
 10
0.2220750767300388
 20
0.1623057620071333
 10
0.2217290869490054
 20
0.1620778004737091
 10
0.2215480348092342
 20
0.1617343834916149
 10
0.2217304374225979
 20
0.1614182843170906
 10
0.2222588301699979
 20
0.161330146581403
 10
0.2227677065857325
 20
0.1615679080319912
 10
0.2231703942463448
 20
0.161941012607413
 10
0.2234811048581815
 20
0.1623031329660169
 10
0.2238570700353801
 20
0.1625765078756349
 10
0.2252204626310423
 20
0.1630128621405125
 10
0.2276640139983013
 20
0.1633483766577926
 10
0.2295605808000147
 20
0.1632880724632835
 10
0.2310523644445557
 20
0.1630004629941735
 10
0.2320601762095731
 20
0.1626631529933786
 10
0.2324865797873408
 20
0.162414363779718
 10
0.2324611339465321
 20
0.1621521119483948
 10
0.2322765897834504
 20
0.1617979556646945
 10
0.2311333607686425
 20
0.1609607363787124
 10
0.2294000943462742
 20
0.1600125465306488
 10
0.2275709028350701
 20
0.1592918626893796
 10
0.2263306785154182
 20
0.1589290824765333
  0
LWPOLYLINE
  5
2266
330
2
100
AcDbEntity
  8
Profilo
  6
Continuous
370
     0
100
AcDbPolyline
 90
        2
 70
   128
 43
0.0
 10
0.2209065959829879
 20
0.1605169963152488
 10
0.230284017991891
 20
0.1619731040254284
  0
LWPOLYLINE
  5
2267
330
2
100
AcDbEntity
  8
Profilo
  6
Continuous
370
     0
100
AcDbPolyline
 90
        2
 70
   128
 43
0.0
 10
0.2211816479887887
 20
0.1597033539331965
 10
0.2302544778785649
 20
0.1617792169033554
  0
LWPOLYLINE
  5
2268
330
2
100
AcDbEntity
  8
Profilo
  6
Continuous
370
     0
100
AcDbPolyline
 90
        2
 70
   128
 43
0.0
 10
0.2287812114635461
 20
0.161299500310927
 10
0.2297023566082068
 20
0.1608060327402296
  0
LWPOLYLINE
  5
2269
330
2
100
AcDbEntity
  8
Profilo
  6
Continuous
370
     0
100
AcDbPolyline
 90
        2
 70
   128
 43
0.0
 10
0.2276358413965582
 20
0.1609561490791713
 10
0.2282847051283288
 20
0.160199302002241
  0
LWPOLYLINE
  5
226A
330
2
100
AcDbEntity
  8
Profilo
  6
Continuous
370
     0
100
AcDbPolyline
 90
        2
 70
   128
 43
0.0
 10
0.2260651381745309
 20
0.1606146533542216
 10
0.2266792974507326
 20
0.1599792174767374
  0
LWPOLYLINE
  5
226B
330
2
100
AcDbEntity
  8
Profilo
  6
Continuous
370
     0
100
AcDbPolyline
 90
        2
 70
   128
 43
0.0
 10
0.2247091480636361
 20
0.1602380473901594
 10
0.2253580121484096
 20
0.1594812002186416
  0
LWPOLYLINE
  5
226C
330
2
100
AcDbEntity
  8
Profilo
  6
Continuous
370
     0
100
AcDbPolyline
 90
        2
 70
   128
 43
0.0
 10
0.2241596739457663
 20
0.1612821782256177
 10
0.2243507061306975
 20
0.1623296933668326
  0
LWPOLYLINE
  5
226D
330
2
100
AcDbEntity
  8
Profilo
  6
Continuous
370
     0
100
AcDbPolyline
 90
        2
 70
   128
 43
0.0
 10
0.2256926495684415
 20
0.1615665159632358
 10
0.2259867241980669
 20
0.1624967307616285
  0
LWPOLYLINE
  5
226E
330
2
100
AcDbEntity
  8
Profilo
  6
Continuous
370
     0
100
AcDbPolyline
 90
        2
 70
   128
 43
0.0
 10
0.2270889492733084
 20
0.1618426308011647
 10
0.2274875777127978
 20
0.1627448304906385
  0
LWPOLYLINE
  5
226F
330
2
100
AcDbEntity
  8
Profilo
  6
Continuous
370
     0
100
AcDbPolyline
 90
        2
 70
   128
 43
0.0
 10
0.2287040561551017
 20
0.1620152713312462
 10
0.2289798022997787
 20
0.1627934399622881
  0
LWPOLYLINE
  5
2270
330
2
100
AcDbEntity
  8
Profilo
  6
Continuous
370
     0
100
AcDbPolyline
 90
       23
 70
   128
 43
0.0
 10
0.2219321946406307
 20
0.1658236626276648
 10
0.2210866625656334
 20
0.1655325072465286
 10
0.2206222625595917
 20
0.1653088035110444
 10
0.220347062880861
 20
0.1649990608337686
 10
0.2202610627985291
 20
0.1646204857596456
 10
0.2205190626800679
 20
0.164362366673521
 10
0.2210522626057927
 20
0.1644139902646704
 10
0.2214822622865367
 20
0.1647753570982844
 10
0.2217746621279162
 20
0.165239971679386
 10
0.2219810618869638
 20
0.1656701709098454
 10
0.2222734617283433
 20
0.1660315377434594
 10
0.2234774610537038
 20
0.1668058955670237
 10
0.225750912880222
 20
0.1677624153358939
 10
0.2275984636093178
 20
0.1681950335655764
 10
0.2291138547669747
 20
0.1683033261698577
 10
0.2301746284311517
 20
0.1682383506072882
 10
0.2306508940460514
 20
0.1681084000473381
 10
0.2306941910198017
 20
0.1678484983622508
 10
0.2306075974377546
 20
0.1674586461172152
 10
0.229720011303127
 20
0.1663540649446724
 10
0.2282912140929743
 20
0.1649895815218554
 10
0.226710877474692
 20
0.1638200247867449
 10
0.2256068072022181
 20
0.1631486123357644
  0
LWPOLYLINE
  5
2271
330
2
100
AcDbEntity
  8
Profilo
  6
Continuous
370
     0
100
AcDbPolyline
 90
        2
 70
   128
 43
0.0
 10
0.219956563456779
 20
0.1632785634609015
 10
0.2286375891520749
 20
0.1671121109138895
  0
LWPOLYLINE
  5
2272
330
2
100
AcDbEntity
  8
Profilo
  6
Continuous
370
     0
100
AcDbPolyline
 90
        2
 70
   128
 43
0.0
 10
0.220432829437134
 20
0.1625638339682092
 10
0.2286592372734948
 20
0.1669171847913717
  0
LWPOLYLINE
  5
2273
330
2
100
AcDbEntity
  8
Profilo
  6
Continuous
370
     0
100
AcDbPolyline
 90
        2
 70
   128
 43
0.0
 10
0.2273603309845964
 20
0.1660725047387292
 10
0.2283778076750231
 20
0.1658342615744979
  0
LWPOLYLINE
  5
2274
330
2
100
AcDbEntity
  8
Profilo
  6
Continuous
370
     0
100
AcDbPolyline
 90
        2
 70
   128
 43
0.0
 10
0.2263428542941714
 20
0.1654444093294605
 10
0.2271654949681701
 20
0.1648812894827611
  0
LWPOLYLINE
  5
2275
330
2
100
AcDbEntity
  8
Profilo
  6
Continuous
370
     0
100
AcDbPolyline
 90
        2
 70
   128
 43
0.0
 10
0.2249140570840187
 20
0.1647080218810992
 10
0.2256717522973901
 20
0.1642531940734941
  0
LWPOLYLINE
  5
2276
330
2
100
AcDbEntity
  8
Profilo
  6
Continuous
370
     0
100
AcDbPolyline
 90
        2
 70
   128
 43
0.0
 10
0.2237017440117122
 20
0.1639932923884069
 10
0.224524385051166
 20
0.1634301725417075
  0
LWPOLYLINE
  5
2277
330
2
100
AcDbEntity
  8
Profilo
  6
Continuous
370
     0
100
AcDbPolyline
 90
        2
 70
   128
 43
0.0
 10
0.2229007518245869
 20
0.1648596309619053
 10
0.2228141578770846
 20
0.1659208956579232
  0
LWPOLYLINE
  5
2278
330
2
100
AcDbEntity
  8
Profilo
  6
Continuous
370
     0
100
AcDbPolyline
 90
        2
 70
   128
 43
0.0
 10
0.2243079005478645
 20
0.1655310434128858
 10
0.2243511975216166
 20
0.1665056740254784
  0
LWPOLYLINE
  5
2279
330
2
100
AcDbEntity
  8
Profilo
  6
Continuous
370
     0
100
AcDbPolyline
 90
        2
 70
   128
 43
0.0
 10
0.225585158715343
 20
0.1661591388221528
 10
0.2257366977580173
 20
0.1671337694347454
  0
LWPOLYLINE
  5
227A
330
2
100
AcDbEntity
  8
Profilo
  6
Continuous
370
     0
100
AcDbPolyline
 90
        2
 70
   128
 43
0.0
 10
0.2271005495075429
 20
0.1667439171897098
 10
0.2271654949681701
 20
0.1675669387214946
  0
LWPOLYLINE
  5
227B
330
2
100
AcDbEntity
  8
Profilo
  6
Continuous
370
     0
100
AcDbPolyline
 90
       23
 70
   128
 43
0.0
 10
0.2195737493799463
 20
0.1686698539687907
 10
0.2188323846694733
 20
0.1681697796624335
 10
0.218441707497113
 20
0.1678335028807845
 10
0.2182560523240007
 20
0.1674630875112375
 10
0.2182709650625967
 20
0.167075153610766
 10
0.2185869799467472
 20
0.1668926050021953
 10
0.2190886503570149
 20
0.1670804718577572
 10
0.2194104695351353
 20
0.1675408175218735
 10
0.2195726549913044
 20
0.1680652793927639
 10
0.2196606780950774
 20
0.1685342401284608
 10
0.2198495860346619
 20
0.1689589723335474
 10
0.2208121415253974
 20
0.1700185625098105
 10
0.2227605618262551
 20
0.1715309022887443
 10
0.2244331889537687
 20
0.1724269607252009
 10
0.2258689162214467
 20
0.1729237754408541
 10
0.2269103618125812
 20
0.1731355622937234
 10
0.2274040327500224
 20
0.1731333063033902
 10
0.227513121921125
 20
0.17289346663487
 10
0.2275303801296264
 20
0.172494486214735
 10
0.2269589244034489
 20
0.171197818537133
 10
0.2259319665741846
 20
0.1695100288299138
 10
0.2247081821777297
 20
0.167971302559677
 10
0.2238155065169416
 20
0.1670370135195349
  0
LWPOLYLINE
  5
227C
330
2
100
AcDbEntity
  8
Profilo
  6
Continuous
370
     0
100
AcDbPolyline
 90
        2
 70
   128
 43
0.0
 10
0.2183241563322753
 20
0.1657001459766687
 10
0.2257171881589042
 20
0.1716498832487816
  0
LWPOLYLINE
  5
227D
330
2
100
AcDbEntity
  8
Profilo
  6
Continuous
370
     0
100
AcDbPolyline
 90
        2
 70
   128
 43
0.0
 10
0.2189691795476876
 20
0.1651330370071169
 10
0.2257885492313705
 20
0.1714672020189369
  0
LWPOLYLINE
  5
227E
330
2
100
AcDbEntity
  8
Profilo
  6
Continuous
370
     0
100
AcDbPolyline
 90
        2
 70
   128
 43
0.0
 10
0.2247525213856349
 20
0.1703151220557673
 10
0.2257969902668322
 20
0.1703483391759311
  0
LWPOLYLINE
  5
227F
330
2
100
AcDbEntity
  8
Profilo
  6
Continuous
370
     0
100
AcDbPolyline
 90
        2
 70
   128
 43
0.0
 10
0.2239322774267667
 20
0.1694450861331522
 10
0.2248726334405398
 20
0.1691140692036375
  0
LWPOLYLINE
  5
2280
330
2
100
AcDbEntity
  8
Profilo
  6
Continuous
370
     0
100
AcDbPolyline
 90
        2
 70
   128
 43
0.0
 10
0.2227427563971596
 20
0.1683639905490488
 10
0.2235923518710632
 20
0.1681207665747721
  0
LWPOLYLINE
  5
2281
330
2
100
AcDbEntity
  8
Profilo
  6
Continuous
370
     0
100
AcDbPolyline
 90
        2
 70
   128
 43
0.0
 10
0.2217567374958762
 20
0.1673598451615068
 10
0.2226970938626522
 20
0.1670288283265777
  0
LWPOLYLINE
  5
2282
330
2
100
AcDbEntity
  8
Profilo
  6
Continuous
370
     0
100
AcDbPolyline
 90
        2
 70
   128
 43
0.0
 10
0.2207588135333485
 20
0.1679893519309528
 10
0.2204004946878311
 20
0.1689920427465599
  0
LWPOLYLINE
  5
2283
330
2
100
AcDbEntity
  8
Profilo
  6
Continuous
370
     0
100
AcDbPolyline
 90
        2
 70
   128
 43
0.0
 10
0.2219442404971599
 20
0.1690020834463231
 10
0.2217338091978267
 20
0.1699547104075205
  0
LWPOLYLINE
  5
2284
330
2
100
AcDbEntity
  8
Profilo
  6
Continuous
370
     0
100
AcDbPolyline
 90
        2
 70
   128
 43
0.0
 10
0.2230154140939053
 20
0.1699393557627649
 10
0.222909536604438
 20
0.1709199978328794
  0
LWPOLYLINE
  5
2285
330
2
100
AcDbEntity
  8
Profilo
  6
Continuous
370
     0
100
AcDbPolyline
 90
        2
 70
   128
 43
0.0
 10
0.224327817418325
 20
0.1708964202884364
 10
0.2241775362690899
 20
0.1717082071636828
  0
LWPOLYLINE
  5
2286
330
2
100
AcDbEntity
  8
Profilo
  6
Continuous
370
     0
100
AcDbPolyline
 90
       23
 70
   128
 43
0.0
 10
0.2165590176676748
 20
0.1708086531414481
 10
0.2159723431015792
 20
0.1701337391474369
 10
0.2156820127665722
 20
0.1697078060265658
 10
0.2155985541923162
 20
0.1693019611600435
 10
0.2157133634733495
 20
0.1689311054874492
 10
0.2160658574679986
 20
0.1688365677424302
 10
0.2165018103533971
 20
0.1691478750466637
 10
0.2166935175837346
 20
0.1696758277450319
 10
0.2167144359838808
 20
0.1702243956959237
 10
0.2166780838033226
 20
0.1707001590377133
 10
0.2167506260772118
 20
0.1711593118163983
 10
0.21740614116733
 20
0.1724319250259047
 10
0.2188967483189412
 20
0.1743970213582267
 10
0.2202804650702774
 20
0.1756954550998206
 10
0.2215386860073381
 20
0.1765469348249984
 10
0.2224898307294645
 20
0.1770210511692771
 10
0.2229672641308913
 20
0.1771466434905737
 10
0.2231347112526099
 20
0.1769432105156778
 10
0.2232546451332713
 20
0.17656229177673
 10
0.2230382635789081
 20
0.1751619033534522
 10
0.2224831306094679
 20
0.1732658274411745
 10
0.2216992973190603
 20
0.1714627932882586
 10
0.2210788506410257
 20
0.1703292979130571
  0
LWPOLYLINE
  5
2287
330
2
100
AcDbEntity
  8
Profilo
  6
Continuous
370
     0
100
AcDbPolyline
 90
        2
 70
   128
 43
0.0
 10
0.2161206204573312
 20
0.1676167170159553
 10
0.2217218355138695
 20
0.1752771793445054
  0
LWPOLYLINE
  5
2288
330
2
100
AcDbEntity
  8
Profilo
  6
Continuous
370
     0
100
AcDbPolyline
 90
        2
 70
   128
 43
0.0
 10
0.2168904436416235
 20
0.1672358761086277
 10
0.2218380463982232
 20
0.1751191924312523
  0
LWPOLYLINE
  5
2289
330
2
100
AcDbEntity
  8
Profilo
  6
Continuous
370
     0
100
AcDbPolyline
 90
        2
 70
   128
 43
0.0
 10
0.2211355005812223
 20
0.1737382249031456
 10
0.2221357828250039
 20
0.1740406386158555
  0
LWPOLYLINE
  5
228A
330
2
100
AcDbEntity
  8
Profilo
  6
Continuous
370
     0
100
AcDbPolyline
 90
        2
 70
   128
 43
0.0
 10
0.2205683876241882
 20
0.1726855399775062
 10
0.2215623752694082
 20
0.1726091842218893
  0
LWPOLYLINE
  5
228B
330
2
100
AcDbEntity
  8
Profilo
  6
Continuous
370
     0
100
AcDbPolyline
 90
        2
 70
   128
 43
0.0
 10
0.2196992066675218
 20
0.1713334111351199
 10
0.2205828038744297
 20
0.1713183663060733
  0
LWPOLYLINE
  5
228C
330
2
100
AcDbEntity
  8
Profilo
  6
Continuous
370
     0
100
AcDbPolyline
 90
        2
 70
   128
 43
0.0
 10
0.2190066774959096
 20
0.1701082807014616
 10
0.2200006654576232
 20
0.1700319251285713
  0
LWPOLYLINE
  5
228D
330
2
100
AcDbEntity
  8
Profilo
  6
Continuous
370
     0
100
AcDbPolyline
 90
        2
 70
   128
 43
0.0
 10
0.2178798286268784
 20
0.1704580558208275
 10
0.2172742037205186
 20
0.1713338410339671
  0
LWPOLYLINE
  5
228E
330
2
100
AcDbEntity
  8
Profilo
  6
Continuous
370
     0
100
AcDbPolyline
 90
        2
 70
   128
 43
0.0
 10
0.2187627489426493
 20
0.1717430904214318
 10
0.218312929915528
 20
0.1726087937781195
  0
LWPOLYLINE
  5
228F
330
2
100
AcDbEntity
  8
Profilo
  6
Continuous
370
     0
100
AcDbPolyline
 90
        2
 70
   128
 43
0.0
 10
0.2195548392582431
 20
0.1729256660855971
 10
0.2191987606125683
 20
0.1738454904767459
  0
LWPOLYLINE
  5
2290
330
2
100
AcDbEntity
  8
Profilo
  6
Continuous
370
     0
100
AcDbPolyline
 90
        2
 70
   128
 43
0.0
 10
0.2205748169971724
 20
0.1741897944035853
 10
0.2202195506500424
 20
0.174935024688287
  0
LWPOLYLINE
  5
2291
330
2
100
AcDbEntity
  8
Profilo
  6
Continuous
370
     0
100
AcDbPolyline
 90
       23
 70
   128
 43
0.0
 10
0.2130934484879241
 20
0.1720943045165542
 10
0.2127014449683628
 20
0.1712905451082318
 10
0.2125312470032441
 20
0.1708039822864404
 10
0.2125556725917594
 20
0.1703903655799039
 10
0.2127625543524598
 20
0.1700618613364058
 10
0.2131275055743942
 20
0.170061777046032
 10
0.2134680314662305
 20
0.170475309720612
 10
0.2135165622178488
 20
0.1710348903493188
 10
0.2133947880075706
 20
0.1715701803809115
 10
0.2132365378837104
 20
0.1720203238432885
 10
0.2131877708558225
 20
0.1724826066924909
 10
0.2134915732752216
 20
0.173881516448104
 10
0.2144227848635467
 20
0.1761654512662418
 10
0.2154232932288036
 20
0.1777777741992463
 10
0.2164182621576931
 20
0.1789258919978142
 10
0.2172142870698395
 20
0.1796300275881539
 10
0.2176429466379404
 20
0.1798749093119363
 10
0.2178573404656519
 20
0.179721746651714
 10
0.2180717767227052
 20
0.1793848485765132
 10
0.2182252153854993
 20
0.1779761735643572
 10
0.2181797386703501
 20
0.1760010258870275
 10
0.2178892734293847
 20
0.1740565576493016
 10
0.2175833381498731
 20
0.172801101775669
  0
LWPOLYLINE
  5
2292
330
2
100
AcDbEntity
  8
Profilo
  6
Continuous
370
     0
100
AcDbPolyline
 90
        2
 70
   128
 43
0.0
 10
0.213496123160309
 20
0.1688976654297183
 10
0.2169238078970992
 20
0.1777468049665249
  0
LWPOLYLINE
  5
2293
330
2
100
AcDbEntity
  8
Profilo
  6
Continuous
370
     0
100
AcDbPolyline
 90
        2
 70
   128
 43
0.0
 10
0.2143382841356634
 20
0.1687290462630782
 10
0.2170769490136177
 20
0.1776242789169182
  0
LWPOLYLINE
  5
2294
330
2
100
AcDbEntity
  8
Profilo
  6
Continuous
370
     0
100
AcDbPolyline
 90
        2
 70
   128
 43
0.0
 10
0.2167557625617686
 20
0.1761085344787561
 10
0.2176436905862673
 20
0.176659535789256
  0
LWPOLYLINE
  5
2295
330
2
100
AcDbEntity
  8
Profilo
  6
Continuous
370
     0
100
AcDbPolyline
 90
        2
 70
   128
 43
0.0
 10
0.2164804284173958
 20
0.1749449392881321
 10
0.2174603090786829
 20
0.1751284482249748
  0
LWPOLYLINE
  5
2296
330
2
100
AcDbEntity
  8
Profilo
  6
Continuous
370
     0
100
AcDbPolyline
 90
        2
 70
   128
 43
0.0
 10
0.2159908207794736
 20
0.1734139225335753
 10
0.2168482040299502
 20
0.1736280821299929
  0
LWPOLYLINE
  5
2297
330
2
100
AcDbEntity
  8
Profilo
  6
Continuous
370
     0
100
AcDbPolyline
 90
        2
 70
   128
 43
0.0
 10
0.2156389760561208
 20
0.172051297668228
 10
0.2166188569758234
 20
0.172234806863488
  0
LWPOLYLINE
  5
2298
330
2
100
AcDbEntity
  8
Profilo
  6
Continuous
370
     0
100
AcDbPolyline
 90
        2
 70
   128
 43
0.0
 10
0.2144599951688033
 20
0.1720975045411603
 10
0.2136483365381274
 20
0.1727867008368595
  0
LWPOLYLINE
  5
2299
330
2
100
AcDbEntity
  8
Profilo
  6
Continuous
370
     0
100
AcDbPolyline
 90
        2
 70
   128
 43
0.0
 10
0.21498023927611
 20
0.173567269242588
 10
0.2143216869445379
 20
0.1742870527416493
  0
LWPOLYLINE
  5
229A
330
2
100
AcDbEntity
  8
Profilo
  6
Continuous
370
     0
100
AcDbPolyline
 90
        2
 70
   128
 43
0.0
 10
0.2154392666645333
 20
0.1749145576772642
 10
0.2148572530339081
 20
0.1757108798772706
  0
LWPOLYLINE
  5
229B
330
2
100
AcDbEntity
  8
Profilo
  6
Continuous
370
     0
100
AcDbPolyline
 90
        2
 70
   128
 43
0.0
 10
0.2160973090206568
 20
0.176399601531767
 10
0.2155612682900856
 20
0.1770274890135721
  0
LWPOLYLINE
  5
229C
330
2
100
AcDbEntity
  8
Profilo
  6
Continuous
370
     0
100
AcDbPolyline
 90
       23
 70
   128
 43
0.0
 10
0.2094132146531724
 20
0.172439193077532
 10
0.2092425965721862
 20
0.1715613631303019
 10
0.2092041296870157
 20
0.1710473290598107
 10
0.2093347748748073
 20
0.1706541278082772
 10
0.2096196304650697
 20
0.170390362015191
 10
0.2099721680916258
 20
0.1704847369237119
 10
0.210194060713117
 20
0.1709723134002616
 10
0.2100961076954964
 20
0.1715253874642131
 10
0.2098399395859822
 20
0.172010920445461
 10
0.2095705760032402
 20
0.1724047674953603
 10
0.2094038230659365
 20
0.1728386766028653
 10
0.2093352091817888
 20
0.1742685495165479
 10
0.2096435646759851
 20
0.1767156764370275
 10
0.2101926816634887
 20
0.178532011418048
 10
0.2108565930959678
 20
0.1798985249593881
 10
0.2114432504158643
 20
0.1807846941189468
 10
0.2117939237094675
 20
0.1811321769604235
 10
0.2120406536581154
 20
0.1810397223970547
 10
0.2123349788150162
 20
0.1807698040326788
 10
0.2128477811036664
 20
0.1794488413057746
 10
0.2133150598057913
 20
0.1775292249135174
 10
0.2135377573404231
 20
0.1755758348879977
 10
0.2135671824431526
 20
0.1742839757589842
  0
LWPOLYLINE
  5
229D
330
2
100
AcDbEntity
  8
Profilo
  6
Continuous
370
     0
100
AcDbPolyline
 90
        2
 70
   128
 43
0.0
 10
0.2106295195948136
 20
0.1694556967004268
 10
0.2116500829615611
 20
0.1788904592099532
  0
LWPOLYLINE
  5
229E
330
2
100
AcDbEntity
  8
Profilo
  6
Continuous
370
     0
100
AcDbPolyline
 90
        2
 70
   128
 43
0.0
 10
0.2114866264824962
 20
0.169510790392025
 10
0.2118297179962323
 20
0.1788117439717873
  0
LWPOLYLINE
  5
229F
330
2
100
AcDbEntity
  8
Profilo
  6
Continuous
370
     0
100
AcDbPolyline
 90
        2
 70
   128
 43
0.0
 10
0.2119117792354423
 20
0.1772645181021439
 10
0.2126268422131556
 20
0.1780265571816959
  0
LWPOLYLINE
  5
22A0
330
2
100
AcDbEntity
  8
Profilo
  6
Continuous
370
     0
100
AcDbPolyline
 90
        2
 70
   128
 43
0.0
 10
0.211946987470655
 20
0.1760693097358446
 10
0.2128459839002723
 20
0.1765001775343635
  0
LWPOLYLINE
  5
22A1
330
2
100
AcDbEntity
  8
Profilo
  6
Continuous
370
     0
100
AcDbPolyline
 90
        2
 70
   128
 43
0.0
 10
0.2118703191028886
 20
0.1744637413308134
 10
0.2126430591453083
 20
0.174892510730118
  0
LWPOLYLINE
  5
22A2
330
2
100
AcDbEntity
  8
Profilo
  6
Continuous
370
     0
100
AcDbPolyline
 90
        2
 70
   128
 43
0.0
 10
0.2118831364642404
 20
0.1730564826665106
 10
0.2127821330765844
 20
0.1734873507815249
  0
LWPOLYLINE
  5
22A3
330
2
100
AcDbEntity
  8
Profilo
  6
Continuous
370
     0
100
AcDbPolyline
 90
        2
 70
   128
 43
0.0
 10
0.2107323691577509
 20
0.1727959723709778
 10
0.209769989997109
 20
0.1732516121606342
  0
LWPOLYLINE
  5
22A4
330
2
100
AcDbEntity
  8
Profilo
  6
Continuous
370
     0
100
AcDbPolyline
 90
        2
 70
   128
 43
0.0
 10
0.2108544832804224
 20
0.1743503051377293
 10
0.2100320768974868
 20
0.1748751167232005
  0
LWPOLYLINE
  5
22A5
330
2
100
AcDbEntity
  8
Profilo
  6
Continuous
370
     0
100
AcDbPolyline
 90
        2
 70
   128
 43
0.0
 10
0.2109491657837357
 20
0.1757704908625901
 10
0.2101808804352629
 20
0.1763890428295078
  0
LWPOLYLINE
  5
22A6
330
2
100
AcDbEntity
  8
Profilo
  6
Continuous
370
     0
100
AcDbPolyline
 90
        2
 70
   128
 43
0.0
 10
0.2112004282579492
 20
0.1773752469690746
 10
0.2105201434338746
 20
0.1778430021537311
  0
LWPOLYLINE
  5
22A7
330
2
100
AcDbEntity
  8
Profilo
  6
Continuous
370
     0
100
AcDbPolyline
 90
       23
 70
   128
 43
0.0
 10
0.2057691180173837
 20
0.171819815238909
 10
0.2058315127152313
 20
0.1709277374129905
 10
0.2059273983646623
 20
0.1704212626662227
 10
0.2061553598980865
 20
0.1700752728851893
 10
0.2064987768801825
 20
0.1698942207454182
 10
0.206814876054705
 20
0.1700766233587818
 10
0.2069030137903927
 20
0.1706050161061818
 10
0.2066652523398063
 20
0.1711138925219164
 10
0.2062921477643826
 20
0.1715165801825287
 10
0.2059300274057787
 20
0.1718272907943654
 10
0.2056566524961607
 20
0.172203255971564
 10
0.205220298231285
 20
0.1735666485672263
 10
0.2048847837140031
 20
0.1760101999344852
 10
0.2049450879085122
 20
0.1779067667361986
 10
0.2052326973776239
 20
0.1793985503807396
 10
0.205570007378417
 20
0.180406362145757
 10
0.2058187965920777
 20
0.1808327657235247
 10
0.2060810484234008
 20
0.180807319882716
 10
0.2064352047071012
 20
0.1806227757196343
 10
0.2072724239930832
 20
0.1794795467048264
 10
0.2082206138411469
 20
0.1777462802824598
 10
0.2089412976824179
 20
0.175917088771254
 10
0.2093040778952642
 20
0.1746768644516021
  0
LWPOLYLINE
  5
22A8
330
2
100
AcDbEntity
  8
Profilo
  6
Continuous
370
     0
100
AcDbPolyline
 90
        2
 70
   128
 43
0.0
 10
0.2077161640565468
 20
0.1692527819191718
 10
0.2062600563463672
 20
0.1786302039280749
  0
LWPOLYLINE
  5
22A9
330
2
100
AcDbEntity
  8
Profilo
  6
Continuous
370
     0
100
AcDbPolyline
 90
        2
 70
   128
 43
0.0
 10
0.2085298064385992
 20
0.1695278339249726
 10
0.206453943468442
 20
0.1786006638147488
  0
LWPOLYLINE
  5
22AA
330
2
100
AcDbEntity
  8
Profilo
  6
Continuous
370
     0
100
AcDbPolyline
 90
        2
 70
   128
 43
0.0
 10
0.2069336600608687
 20
0.17712739739973
 10
0.207427127631566
 20
0.1780485425443907
  0
LWPOLYLINE
  5
22AB
330
2
100
AcDbEntity
  8
Profilo
  6
Continuous
370
     0
100
AcDbPolyline
 90
        2
 70
   128
 43
0.0
 10
0.2072770112926243
 20
0.1759820273327421
 10
0.2080338583695547
 20
0.1766308910645127
  0
LWPOLYLINE
  5
22AC
330
2
100
AcDbEntity
  8
Profilo
  6
Continuous
370
     0
100
AcDbPolyline
 90
        2
 70
   128
 43
0.0
 10
0.2076185070175758
 20
0.1744113241107148
 10
0.20825394289506
 20
0.1750254833869165
  0
LWPOLYLINE
  5
22AD
330
2
100
AcDbEntity
  8
Profilo
  6
Continuous
370
     0
100
AcDbPolyline
 90
        2
 70
   128
 43
0.0
 10
0.207995112981638
 20
0.17305533399982
 10
0.208751960153154
 20
0.1737041980845935
  0
LWPOLYLINE
  5
22AE
330
2
100
AcDbEntity
  8
Profilo
  6
Continuous
370
     0
100
AcDbPolyline
 90
        2
 70
   128
 43
0.0
 10
0.2069509821461797
 20
0.1725058598819502
 10
0.2059034670049631
 20
0.1726968920668814
  0
LWPOLYLINE
  5
22AF
330
2
100
AcDbEntity
  8
Profilo
  6
Continuous
370
     0
100
AcDbPolyline
 90
        2
 70
   128
 43
0.0
 10
0.2066666444085616
 20
0.1740388355046254
 10
0.2057364296101689
 20
0.1743329101342508
  0
LWPOLYLINE
  5
22B0
330
2
100
AcDbEntity
  8
Profilo
  6
Continuous
370
     0
100
AcDbPolyline
 90
        2
 70
   128
 43
0.0
 10
0.2063905295706327
 20
0.1754351352094922
 10
0.2054883298811572
 20
0.1758337636489817
  0
LWPOLYLINE
  5
22B1
330
2
100
AcDbEntity
  8
Profilo
  6
Continuous
370
     0
100
AcDbPolyline
 90
        2
 70
   128
 43
0.0
 10
0.2062178890405495
 20
0.1770502420912856
 10
0.2054397204095075
 20
0.1773259882359626
  0
LWPOLYLINE
  5
22B2
330
2
100
AcDbEntity
  8
Profilo
  6
Continuous
370
     0
100
AcDbPolyline
 90
       10
 70
   128
 43
0.0
 10
0.1974867314592334
 20
0.1750755057567361
 10
0.197319680346465
 20
0.1763809383497787
 10
0.1972741206437896
 20
0.1770184747216033
 10
0.1974107991866287
 20
0.1775497556405488
 10
0.1975474771642809
 20
0.1777167293303976
 10
0.1977297148446067
 20
0.1777167293303976
 10
0.1979878847975389
 20
0.1777015497711542
 10
0.1984282924307987
 20
0.1774434994567593
 10
0.1992635485598282
 20
0.1768970393440257
 10
0.1999773127135775
 20
0.1763202204782623
  0
LWPOLYLINE
  5
22B3
330
2
100
AcDbEntity
  8
Profilo
  6
Continuous
370
     0
100
AcDbPolyline
 90
        3
 70
   128
 43
0.0
 10
0.2002506692340689
 20
0.1734816640962653
 10
0.1990813108795024
 20
0.1752121210590105
 10
0.1978967659573769
 20
0.1770488338400882
  0
LWPOLYLINE
  5
22B4
330
2
100
AcDbEntity
  8
Profilo
  6
Continuous
370
     0
100
AcDbPolyline
 90
        2
 70
   128
 43
0.0
 10
0.1986105301111263
 20
0.175667504181741
 10
0.198003071365098
 20
0.1758800165493199
  0
LWPOLYLINE
  5
22B5
330
2
100
AcDbEntity
  8
Profilo
  6
Continuous
370
     0
100
AcDbPolyline
 90
        2
 70
   128
 43
0.0
 10
0.1988079543590111
 20
0.1758648369900766
 10
0.1988231409265702
 20
0.1767148860949334
  0
LWPOLYLINE
  5
22B6
330
2
100
AcDbEntity
  8
Profilo
  6
Continuous
370
     0
100
AcDbPolyline
 90
        2
 70
   128
 43
0.0
 10
0.1996583964904127
 20
0.1745138664502162
 10
0.1998102616008091
 20
0.1752880181243133
  0
LWPOLYLINE
  5
22B7
330
2
100
AcDbEntity
  8
Profilo
  6
Continuous
370
     0
100
AcDbPolyline
 90
        2
 70
   128
 43
0.0
 10
0.1994305996725967
 20
0.1743317132011239
 10
0.1988535140616865
 20
0.17442278982567
  0
LWPOLYLINE
  5
22B8
330
2
100
AcDbEntity
  8
Profilo
  6
Continuous
370
     0
100
AcDbPolyline
 90
       10
 70
   128
 43
0.0
 10
0.1935666919533319
 20
0.171279496750238
 10
0.1930674621520219
 20
0.1724972117968488
 10
0.1928584483035973
 20
0.1731012329248505
 10
0.1928529640179015
 20
0.1736497858954178
 10
0.1929417688354367
 20
0.1738464449584165
 10
0.1931177969173874
 20
0.1738936115408198
 10
0.1933710987015236
 20
0.1739457685132071
 10
0.1938632881445443
 20
0.1738104969331471
 10
0.1948115178957039
 20
0.173498837190952
 10
0.1956502528337254
 20
0.1731264087081237
  0
LWPOLYLINE
  5
22B9
330
2
100
AcDbEntity
  8
Profilo
  6
Continuous
370
     0
100
AcDbPolyline
 90
        3
 70
   128
 43
0.0
 10
0.1966489674089094
 20
0.17045532366298
 10
0.1950715787553581
 20
0.1718241645218659
 10
0.19345201997455
 20
0.1732917100469575
  0
LWPOLYLINE
  5
22BA
330
2
100
AcDbEntity
  8
Profilo
  6
Continuous
370
     0
100
AcDbPolyline
 90
        2
 70
   128
 43
0.0
 10
0.1944989776276824
 20
0.1721421838120443
 10
0.1938572152884401
 20
0.172190233103708
  0
LWPOLYLINE
  5
22BB
330
2
100
AcDbEntity
  8
Profilo
  6
Continuous
370
     0
100
AcDbPolyline
 90
        2
 70
   128
 43
0.0
 10
0.1946386013184302
 20
0.172383889823307
 10
0.1944332615186373
 20
0.1732089047802163
  0
LWPOLYLINE
  5
22BC
330
2
100
AcDbEntity
  8
Profilo
  6
Continuous
370
     0
100
AcDbPolyline
 90
        2
 70
   128
 43
0.0
 10
0.195809722242003
 20
0.171299063108663
 10
0.1957560474771924
 20
0.172086141786997
  0
LWPOLYLINE
  5
22BD
330
2
100
AcDbEntity
  8
Profilo
  6
Continuous
370
     0
100
AcDbPolyline
 90
        2
 70
   128
 43
0.0
 10
0.1956368321425217
 20
0.1710641584261574
 10
0.1950558378819658
 20
0.1710027709432205
  0
LWPOLYLINE
  5
22BE
330
2
100
AcDbEntity
  8
Profilo
  6
Continuous
370
     0
100
AcDbPolyline
 90
       10
 70
   128
 43
0.0
 10
0.1907627039807711
 20
0.1665982527323551
 10
0.1899653171768609
 20
0.1676452649644742
 10
0.1896070931310441
 20
0.1681746078069719
 10
0.1894598197618216
 20
0.1687030498507434
 10
0.189494699517682
 20
0.1689159922967431
 10
0.1896525219783716
 20
0.1690071111369069
 10
0.189883693495726
 20
0.1691230502294503
 10
0.1903941228513476
 20
0.1691197759183596
 10
0.1913907059341195
 20
0.1690641556430923
 10
0.1922972532564604
 20
0.1689214979288338
  0
LWPOLYLINE
  5
22BF
330
2
100
AcDbEntity
  8
Profilo
  6
Continuous
370
     0
100
AcDbPolyline
 90
        3
 70
   128
 43
0.0
 10
0.1939532651384923
 20
0.1665999142521959
 10
0.1920753426159376
 20
0.1675138547648047
 10
0.1901311402309151
 20
0.1685122222316111
  0
LWPOLYLINE
  5
22C0
330
2
100
AcDbEntity
  8
Profilo
  6
Continuous
370
     0
100
AcDbPolyline
 90
        2
 70
   128
 43
0.0
 10
0.1914399429495461
 20
0.1676728377333565
 10
0.1908076120599464
 20
0.1675531494692835
  0
LWPOLYLINE
  5
22C1
330
2
100
AcDbEntity
  8
Profilo
  6
Continuous
370
     0
100
AcDbPolyline
 90
        2
 70
   128
 43
0.0
 10
0.1915122509593694
 20
0.1679424450823164
 10
0.1911003783602443
 20
0.1686862024853668
  0
LWPOLYLINE
  5
22C2
330
2
100
AcDbEntity
  8
Profilo
  6
Continuous
370
     0
100
AcDbPolyline
 90
        2
 70
   128
 43
0.0
 10
0.1929242407195428
 20
0.1671976913407343
 10
0.192668683926047
 20
0.1679440589120831
  0
LWPOLYLINE
  5
22C3
330
2
100
AcDbEntity
  8
Profilo
  6
Continuous
370
     0
100
AcDbPolyline
 90
        2
 70
   128
 43
0.0
 10
0.1928180395129602
 20
0.1669260435907298
 10
0.19227273040148
 20
0.1667163754558225
  0
LWPOLYLINE
  5
22C4
330
2
100
AcDbEntity
  8
Profilo
  6
Continuous
370
     0
100
AcDbPolyline
 90
       10
 70
   128
 43
0.0
 10
0.1892658546880714
 20
0.161350792746783
 10
0.1882246514745056
 20
0.162155750011062
 10
0.1877416296080245
 20
0.162574340728121
 10
0.1874626035920077
 20
0.1630466593931072
 10
0.1874411812884713
 20
0.1632613735463146
 10
0.1875700427880187
 20
0.163390235045862
 10
0.1877633300817127
 20
0.1635620552010022
 10
0.1882572144328727
 20
0.1636910012977695
 10
0.1892342353570976
 20
0.1638952109192737
 10
0.190146815361879
 20
0.1639920458610615
  0
LWPOLYLINE
  5
22C5
330
2
100
AcDbEntity
  8
Profilo
  6
Continuous
370
     0
100
AcDbPolyline
 90
        3
 70
   128
 43
0.0
 10
0.1923472700776909
 20
0.16217817564389
 10
0.1902967910026316
 20
0.1625749322746466
 10
0.1881604391929834
 20
0.1630360845901841
  0
LWPOLYLINE
  5
22C6
330
2
100
AcDbEntity
  8
Profilo
  6
Continuous
370
     0
100
AcDbPolyline
 90
        2
 70
   128
 43
0.0
 10
0.189641894234739
 20
0.1625640444949981
 10
0.1890620870999318
 20
0.1622847752325911
  0
LWPOLYLINE
  5
22C7
330
2
100
AcDbEntity
  8
Profilo
  6
Continuous
370
     0
100
AcDbPolyline
 90
        2
 70
   128
 43
0.0
 10
0.1896419588922644
 20
0.1628431798863716
 10
0.1890516219307827
 20
0.1634549938976613
  0
LWPOLYLINE
  5
22C8
330
2
100
AcDbEntity
  8
Profilo
  6
Continuous
370
     0
100
AcDbPolyline
 90
        2
 70
   128
 43
0.0
 10
0.1911985927203059
 20
0.162489252854574
 10
0.1907585696712702
 20
0.1631440456023836
  0
LWPOLYLINE
  5
22C9
330
2
100
AcDbEntity
  8
Profilo
  6
Continuous
370
     0
100
AcDbPolyline
 90
        2
 70
   128
 43
0.0
 10
0.1911663178433429
 20
0.1621993743823151
 10
0.1906938557957194
 20
0.1618557141323387
  0
LWPOLYLINE
  5
22CA
330
2
100
AcDbEntity
  8
Profilo
  6
Continuous
370
     0
100
AcDbPolyline
 90
       10
 70
   128
 43
0.0
 10
0.1891781518808699
 20
0.1558947225197014
 10
0.1879640885359806
 20
0.1564027683088356
 10
0.1873891859908074
 20
0.1566820806348415
 10
0.1869974224898752
 20
0.1570660881845644
 10
0.1869211580215275
 20
0.1572679416302738
 10
0.1870122768616913
 20
0.1574257640909633
 10
0.1871545077220802
 20
0.1576417560490744
 10
0.1875981896664307
 20
0.1578941350902991
 10
0.1884890660707275
 20
0.1583442580603394
 10
0.1893454879387335
 20
0.1586739865169169
  0
LWPOLYLINE
  5
22CB
330
2
100
AcDbEntity
  8
Profilo
  6
Continuous
370
     0
100
AcDbPolyline
 90
        3
 70
   128
 43
0.0
 10
0.1919404281358629
 20
0.1574914420169535
 10
0.1898571292686875
 20
0.1573439764571422
 10
0.1876742168797556
 20
0.1572364868531974
  0
LWPOLYLINE
  5
22CC
330
2
100
AcDbEntity
  8
Profilo
  6
Continuous
370
     0
100
AcDbPolyline
 90
        2
 70
   128
 43
0.0
 10
0.1892273655317596
 20
0.1571639599134813
 10
0.1887395950498043
 20
0.1567441413914588
  0
LWPOLYLINE
  5
22CD
330
2
100
AcDbEntity
  8
Profilo
  6
Continuous
370
     0
100
AcDbPolyline
 90
        2
 70
   128
 43
0.0
 10
0.1891551824306845
 20
0.1574336007316401
 10
0.1884266115951931
 20
0.1578717772373719
  0
LWPOLYLINE
  5
22CE
330
2
100
AcDbEntity
  8
Profilo
  6
Continuous
370
     0
100
AcDbPolyline
 90
        2
 70
   128
 43
0.0
 10
0.1907503783036699
 20
0.1574946199519531
 10
0.1901558758427158
 20
0.1580132148325544
  0
LWPOLYLINE
  5
22CF
330
2
100
AcDbEntity
  8
Profilo
  6
Continuous
370
     0
100
AcDbPolyline
 90
        2
 70
   128
 43
0.0
 10
0.1907942292358566
 20
0.1572062654962765
 10
0.1904268117598538
 20
0.1567520330093424
  0
LWPOLYLINE
  5
22D0
330
2
100
AcDbEntity
  8
Profilo
  6
Continuous
370
     0
100
AcDbPolyline
 90
       10
 70
   128
 43
0.0
 10
0.1905055723605404
 20
0.1506018642205036
 10
0.1892013852949497
 20
0.1507783760535468
 10
0.1885737807294661
 20
0.1508993753150691
 10
0.1880959777787858
 20
0.1511689022696179
 10
0.1879700684431118
 20
0.1513441390290819
 10
0.1880172350255151
 20
0.1515201671110326
 10
0.1880987166545112
 20
0.151765611377114
 10
0.1884619600007646
 20
0.1521242241482121
 10
0.1892059801304218
 20
0.1527895853302454
 10
0.1899478801266536
 20
0.1533297368521969
  0
LWPOLYLINE
  5
22D1
330
2
100
AcDbEntity
  8
Profilo
  6
Continuous
370
     0
100
AcDbPolyline
 90
        3
 70
   128
 43
0.0
 10
0.1927604649190091
 20
0.152859106522865
 10
0.1907863196347013
 20
0.1521774683066899
 10
0.1887056085383574
 20
0.1515086620221351
  0
LWPOLYLINE
  5
22D2
330
2
100
AcDbEntity
  8
Profilo
  6
Continuous
370
     0
100
AcDbPolyline
 90
        2
 70
   128
 43
0.0
 10
0.1902246062866741
 20
0.1518405908289773
 10
0.1898621132098388
 20
0.1513088329858321
  0
LWPOLYLINE
  5
22D3
330
2
100
AcDbEntity
  8
Profilo
  6
Continuous
370
     0
100
AcDbPolyline
 90
        2
 70
   128
 43
0.0
 10
0.1900850945860484
 20
0.1520823614977655
 10
0.1892679407749658
 20
0.1523170394931932
  0
LWPOLYLINE
  5
22D4
330
2
100
AcDbEntity
  8
Profilo
  6
Continuous
370
     0
100
AcDbPolyline
 90
        2
 70
   128
 43
0.0
 10
0.1916101425414187
 20
0.1525541686111631
 10
0.1909016750288004
 20
0.1529012242404612
  0
LWPOLYLINE
  5
22D5
330
2
100
AcDbEntity
  8
Profilo
  6
Continuous
370
     0
100
AcDbPolyline
 90
        2
 70
   128
 43
0.0
 10
0.1917271309141963
 20
0.1522869890516962
 10
0.1914897969036169
 20
0.1517531395211322
  0
LWPOLYLINE
  5
22D6
330
2
100
AcDbEntity
  8
Profilo
  6
Continuous
370
     0
100
AcDbPolyline
 90
       10
 70
   128
 43
0.0
 10
0.1931576546150613
 20
0.1458329173954174
 10
0.1918522220220169
 20
0.1456658662826489
 10
0.1912146856501942
 20
0.1456203065799735
 10
0.1906834047312487
 20
0.1457569851228126
 10
0.190516431041398
 20
0.1458936631004648
 10
0.190516431041398
 20
0.1460759007807924
 10
0.1905316106006414
 20
0.1463340707337228
 10
0.1907896609150381
 20
0.1467744783669826
 10
0.19133612102777
 20
0.1476097344960121
 10
0.1919129398935333
 20
0.1483234986497632
  0
LWPOLYLINE
  5
22D7
330
2
100
AcDbEntity
  8
Profilo
  6
Continuous
370
     0
100
AcDbPolyline
 90
        3
 70
   128
 43
0.0
 10
0.1947514962755303
 20
0.1485968551702528
 10
0.1930210393127851
 20
0.1474274968156863
 10
0.1911843265317075
 20
0.1462429518935608
  0
LWPOLYLINE
  5
22D8
330
2
100
AcDbEntity
  8
Profilo
  6
Continuous
370
     0
100
AcDbPolyline
 90
        2
 70
   128
 43
0.0
 10
0.1925656561900546
 20
0.1469567160473102
 10
0.1923531438224775
 20
0.1463492573012819
  0
LWPOLYLINE
  5
22D9
330
2
100
AcDbEntity
  8
Profilo
  6
Continuous
370
     0
100
AcDbPolyline
 90
        2
 70
   128
 43
0.0
 10
0.192368323381719
 20
0.147154140295195
 10
0.1915182742768622
 20
0.1471693268627541
  0
LWPOLYLINE
  5
22DA
330
2
100
AcDbEntity
  8
Profilo
  6
Continuous
370
     0
100
AcDbPolyline
 90
        2
 70
   128
 43
0.0
 10
0.1937192939215813
 20
0.1480045824265965
 10
0.1929451422474825
 20
0.148156447536993
  0
LWPOLYLINE
  5
22DB
330
2
100
AcDbEntity
  8
Profilo
  6
Continuous
370
     0
100
AcDbPolyline
 90
        2
 70
   128
 43
0.0
 10
0.1939014471706735
 20
0.1477767856087806
 10
0.1938103705461274
 20
0.1471996999978704
  0
LWPOLYLINE
  5
22DC
330
2
100
AcDbEntity
  8
Profilo
  6
Continuous
370
     0
100
AcDbPolyline
 90
       10
 70
   128
 43
0.0
 10
0.1969536636215576
 20
0.1419128778895176
 10
0.1957359485749486
 20
0.1414136480882058
 10
0.195131927446947
 20
0.1412046342397812
 10
0.1945833744763796
 20
0.1411991499540855
 10
0.1943867154133809
 20
0.1412879547716206
 10
0.1943395488309758
 20
0.1414639828535714
 10
0.1942873918585886
 20
0.1417172846377075
 10
0.1944226634386503
 20
0.1422094740807283
 10
0.1947343231808436
 20
0.1431577038318879
 10
0.1951067516636737
 20
0.1439964387699094
  0
LWPOLYLINE
  5
22DD
330
2
100
AcDbEntity
  8
Profilo
  6
Continuous
370
     0
100
AcDbPolyline
 90
        3
 70
   128
 43
0.0
 10
0.1977778367088157
 20
0.1449951533450933
 10
0.1964089958499315
 20
0.143417764691542
 10
0.1949414503248381
 20
0.1417982059107339
  0
LWPOLYLINE
  5
22DE
330
2
100
AcDbEntity
  8
Profilo
  6
Continuous
370
     0
100
AcDbPolyline
 90
        2
 70
   128
 43
0.0
 10
0.1960909765597532
 20
0.1428451635638664
 10
0.1960429272680895
 20
0.1422034012246242
  0
LWPOLYLINE
  5
22DF
330
2
100
AcDbEntity
  8
Profilo
  6
Continuous
370
     0
100
AcDbPolyline
 90
        2
 70
   128
 43
0.0
 10
0.1958492705484904
 20
0.1429847872546143
 10
0.1950242555915811
 20
0.1427794474548213
  0
LWPOLYLINE
  5
22E0
330
2
100
AcDbEntity
  8
Profilo
  6
Continuous
370
     0
100
AcDbPolyline
 90
        2
 70
   128
 43
0.0
 10
0.1969340972631326
 20
0.144155908178187
 10
0.1961470185847987
 20
0.1441022334133764
  0
LWPOLYLINE
  5
22E1
330
2
100
AcDbEntity
  8
Profilo
  6
Continuous
370
     0
100
AcDbPolyline
 90
        2
 70
   128
 43
0.0
 10
0.1971690019456382
 20
0.1439830180787056
 10
0.197230389428577
 20
0.1434020238181497
  0
LWPOLYLINE
  5
22E2
330
2
100
AcDbEntity
  8
Profilo
  6
Continuous
370
     0
100
AcDbPolyline
 90
       10
 70
   128
 43
0.0
 10
0.2016349076394424
 20
0.139108889916955
 10
0.2005878954073215
 20
0.1383115031130466
 10
0.2000585525648237
 20
0.137953279067228
 10
0.1995301105210523
 20
0.1378060056980055
 10
0.1993171680750525
 20
0.137840885453866
 10
0.1992260492348887
 20
0.1379987079145555
 10
0.1991101101423454
 20
0.1382298794319099
 10
0.1991133844534378
 20
0.1387403087875315
 10
0.1991690047287034
 20
0.1397368918703035
 10
0.1993116624429618
 20
0.1406434391926444
  0
LWPOLYLINE
  5
22E3
330
2
100
AcDbEntity
  8
Profilo
  6
Continuous
370
     0
100
AcDbPolyline
 90
        3
 70
   128
 43
0.0
 10
0.2016332461196015
 20
0.1422994510746763
 10
0.2007193056069927
 20
0.1404215285521216
 10
0.1997209381401863
 20
0.1384773261670991
  0
LWPOLYLINE
  5
22E4
330
2
100
AcDbEntity
  8
Profilo
  6
Continuous
370
     0
100
AcDbPolyline
 90
        2
 70
   128
 43
0.0
 10
0.2005603226384409
 20
0.1397861288857302
 10
0.200680010902514
 20
0.1391537979961304
  0
LWPOLYLINE
  5
22E5
330
2
100
AcDbEntity
  8
Profilo
  6
Continuous
370
     0
100
AcDbPolyline
 90
        2
 70
   128
 43
0.0
 10
0.2002907152894793
 20
0.1398584368955534
 10
0.1995469578864288
 20
0.1394465642964282
  0
LWPOLYLINE
  5
22E6
330
2
100
AcDbEntity
  8
Profilo
  6
Continuous
370
     0
100
AcDbPolyline
 90
        2
 70
   128
 43
0.0
 10
0.2010354690310632
 20
0.1412704266557267
 10
0.2002891014597126
 20
0.1410148698622309
  0
LWPOLYLINE
  5
22E7
330
2
100
AcDbEntity
  8
Profilo
  6
Continuous
370
     0
100
AcDbPolyline
 90
        2
 70
   128
 43
0.0
 10
0.2013071167810658
 20
0.1411642254491441
 10
0.2015167849159731
 20
0.1406189163376639
  0
LWPOLYLINE
  5
22E8
330
2
100
AcDbEntity
  8
Profilo
  6
Continuous
370
     0
100
AcDbPolyline
 90
       10
 70
   128
 43
0.0
 10
0.2068823676250144
 20
0.1376120406242554
 10
0.2060774103607337
 20
0.1365708374106896
 10
0.2056588196436746
 20
0.1360878155442085
 10
0.2051865009786902
 20
0.1358087895281916
 10
0.204971786825481
 20
0.1357873672246553
 10
0.2048429253259338
 20
0.1359162287242026
 10
0.2046711051707934
 20
0.1361095160178968
 10
0.2045421590740262
 20
0.1366034003690566
 10
0.2043379494525219
 20
0.1375804212932815
 10
0.2042411145107359
 20
0.138493001298063
  0
LWPOLYLINE
  5
22E9
330
2
100
AcDbEntity
  8
Profilo
  6
Continuous
370
     0
100
AcDbPolyline
 90
        3
 70
   128
 43
0.0
 10
0.2060549847279056
 20
0.1406934560138749
 10
0.2056582280971491
 20
0.1386429769388157
 10
0.2051970757816115
 20
0.1365066251291674
  0
LWPOLYLINE
  5
22EA
330
2
100
AcDbEntity
  8
Profilo
  6
Continuous
370
     0
100
AcDbPolyline
 90
        2
 70
   128
 43
0.0
 10
0.2056691158767994
 20
0.1379880801709229
 10
0.2059483851392063
 20
0.1374082730361157
  0
LWPOLYLINE
  5
22EB
330
2
100
AcDbEntity
  8
Profilo
  6
Continuous
370
     0
100
AcDbPolyline
 90
        2
 70
   128
 43
0.0
 10
0.205389980485424
 20
0.1379881448284501
 10
0.2047781664741344
 20
0.1373978078669666
  0
LWPOLYLINE
  5
22EC
330
2
100
AcDbEntity
  8
Profilo
  6
Continuous
370
     0
100
AcDbPolyline
 90
        2
 70
   128
 43
0.0
 10
0.2057439075172234
 20
0.1395447786564899
 10
0.2050891147694138
 20
0.1391047556074542
  0
LWPOLYLINE
  5
22ED
330
2
100
AcDbEntity
  8
Profilo
  6
Continuous
370
     0
100
AcDbPolyline
 90
        2
 70
   128
 43
0.0
 10
0.2060337859894805
 20
0.1395125037795269
 10
0.206377446239457
 20
0.1390400417319034
  0
LWPOLYLINE
  5
22EE
330
2
100
AcDbEntity
  8
Profilo
  6
Continuous
370
     0
100
AcDbPolyline
 90
       10
 70
   128
 43
0.0
 10
0.212338437852096
 20
0.1375243378170539
 10
0.2118303920629618
 20
0.1363102744721645
 10
0.211551079736956
 20
0.1357353719269914
 10
0.211167072187233
 20
0.1353436084260591
 10
0.2109652187415236
 20
0.1352673439577115
 10
0.2108073962808323
 20
0.1353584627978753
 10
0.2105914043227213
 20
0.1355006936582642
 10
0.2103390252814965
 20
0.1359443756026147
 10
0.2098889023114563
 20
0.1368352520069114
 10
0.2095591738548805
 20
0.1376916738749175
  0
LWPOLYLINE
  5
22EF
330
2
100
AcDbEntity
  8
Profilo
  6
Continuous
370
     0
100
AcDbPolyline
 90
        3
 70
   128
 43
0.0
 10
0.2107417183548439
 20
0.1402866140720467
 10
0.2108891839146534
 20
0.1382033152048714
 10
0.2109966735186
 20
0.1360204028159395
  0
LWPOLYLINE
  5
22F0
330
2
100
AcDbEntity
  8
Profilo
  6
Continuous
370
     0
100
AcDbPolyline
 90
        2
 70
   128
 43
0.0
 10
0.2110692004583143
 20
0.1375735514679435
 10
0.2114890189803369
 20
0.1370857809859883
  0
LWPOLYLINE
  5
22F1
330
2
100
AcDbEntity
  8
Profilo
  6
Continuous
370
     0
100
AcDbPolyline
 90
        2
 70
   128
 43
0.0
 10
0.2107995596401555
 20
0.1375013683668685
 10
0.2103613831344255
 20
0.1367727975313772
  0
LWPOLYLINE
  5
22F2
330
2
100
AcDbEntity
  8
Profilo
  6
Continuous
370
     0
100
AcDbPolyline
 90
        2
 70
   128
 43
0.0
 10
0.2107385404198443
 20
0.1390965642398539
 10
0.2102199455392431
 20
0.1385020617788998
  0
LWPOLYLINE
  5
22F3
330
2
100
AcDbEntity
  8
Profilo
  6
Continuous
370
     0
100
AcDbPolyline
 90
        2
 70
   128
 43
0.0
 10
0.2110268948755192
 20
0.1391404151720407
 10
0.2114811273624533
 20
0.1387729976960378
  0
LWPOLYLINE
  5
22F4
330
2
100
AcDbEntity
  8
Profilo
  6
Continuous
370
     0
100
AcDbPolyline
 90
       10
 70
   128
 43
0.0
 10
0.2176312961512938
 20
0.1388517582967244
 10
0.2174547843182488
 20
0.1375475712311336
 10
0.2173337850567283
 20
0.13691996666565
 10
0.2170642581021778
 20
0.1364421637149697
 10
0.2168890213427155
 20
0.1363162543792958
 10
0.2167129932607648
 20
0.1363634209616991
 10
0.2164675489946835
 20
0.1364449025906951
 10
0.2161089362235835
 20
0.1368081459369486
 10
0.215443575041552
 20
0.1375521660666057
 10
0.2149034235195988
 20
0.1382940660628376
  0
LWPOLYLINE
  5
22F5
330
2
100
AcDbEntity
  8
Profilo
  6
Continuous
370
     0
100
AcDbPolyline
 90
        3
 70
   128
 43
0.0
 10
0.2153740538489306
 20
0.141106650855193
 10
0.2160556920651058
 20
0.1391325055708852
 10
0.2167244983496606
 20
0.1370517944745414
  0
LWPOLYLINE
  5
22F6
330
2
100
AcDbEntity
  8
Profilo
  6
Continuous
370
     0
100
AcDbPolyline
 90
        2
 70
   128
 43
0.0
 10
0.2163925695428202
 20
0.1385707922228581
 10
0.2169243273859636
 20
0.1382082991460228
  0
LWPOLYLINE
  5
22F7
330
2
100
AcDbEntity
  8
Profilo
  6
Continuous
370
     0
100
AcDbPolyline
 90
        2
 70
   128
 43
0.0
 10
0.2161507988740301
 20
0.1384312805222323
 10
0.2159161208786042
 20
0.1376141267111497
  0
LWPOLYLINE
  5
22F8
330
2
100
AcDbEntity
  8
Profilo
  6
Continuous
370
     0
100
AcDbPolyline
 90
        2
 70
   128
 43
0.0
 10
0.2156789917606343
 20
0.1399563284776026
 10
0.2153319361313344
 20
0.1392478609649844
  0
LWPOLYLINE
  5
22F9
330
2
100
AcDbEntity
  8
Profilo
  6
Continuous
370
     0
100
AcDbPolyline
 90
        2
 70
   128
 43
0.0
 10
0.2159461713201012
 20
0.1400733168503803
 10
0.2164800208506634
 20
0.1398359828398009
  0
LWPOLYLINE
  5
22FA
330
2
100
AcDbEntity
  8
Profilo
  6
Continuous
370
     0
100
AcDbPolyline
 90
       10
 70
   128
 43
0.0
 10
0.2224002429763783
 20
0.1415038405512452
 10
0.2225672940891468
 20
0.1401984079582009
 10
0.2226128537918222
 20
0.1395608715863781
 10
0.222476175248983
 20
0.1390295906674326
 10
0.2223394972713326
 20
0.138862616977582
 10
0.2221572595910051
 20
0.138862616977582
 10
0.2218990896380728
 20
0.1388777965368254
 10
0.221458682004813
 20
0.1391358468512222
 10
0.2206234258757835
 20
0.1396823069639539
 10
0.2199096617220342
 20
0.1402591258297173
  0
LWPOLYLINE
  5
22FB
330
2
100
AcDbEntity
  8
Profilo
  6
Continuous
370
     0
100
AcDbPolyline
 90
        3
 70
   128
 43
0.0
 10
0.2196363052015429
 20
0.1430976822117143
 10
0.2208056635561111
 20
0.1413672252489692
 10
0.2219902084782366
 20
0.1395305124678914
  0
LWPOLYLINE
  5
22FC
330
2
100
AcDbEntity
  8
Profilo
  6
Continuous
370
     0
100
AcDbPolyline
 90
        2
 70
   128
 43
0.0
 10
0.2212764443244872
 20
0.1409118421262385
 10
0.2218839030705137
 20
0.1406993297586614
  0
LWPOLYLINE
  5
22FD
330
2
100
AcDbEntity
  8
Profilo
  6
Continuous
370
     0
100
AcDbPolyline
 90
        2
 70
   128
 43
0.0
 10
0.2210790200766006
 20
0.140714509317903
 10
0.2210638335090433
 20
0.1398644602130461
  0
LWPOLYLINE
  5
22FE
330
2
100
AcDbEntity
  8
Profilo
  6
Continuous
370
     0
100
AcDbPolyline
 90
        2
 70
   128
 43
0.0
 10
0.2202285779451991
 20
0.1420654798577653
 10
0.2200767128348027
 20
0.1412913281836663
  0
LWPOLYLINE
  5
22FF
330
2
100
AcDbEntity
  8
Profilo
  6
Continuous
370
     0
100
AcDbPolyline
 90
        2
 70
   128
 43
0.0
 10
0.220456374763015
 20
0.1422476331068574
 10
0.2210334603739252
 20
0.1421565564823114
  0
LWPOLYLINE
  5
2300
330
2
100
AcDbEntity
  8
Profilo
  6
Continuous
370
     0
100
AcDbPolyline
 90
       10
 70
   128
 43
0.0
 10
0.2263202824822799
 20
0.1452998495577417
 10
0.2268195122835899
 20
0.1440821345111325
 10
0.2270285261320162
 20
0.1434781133831309
 10
0.227034010417712
 20
0.1429295604125636
 10
0.2269452056001768
 20
0.1427329013495649
 10
0.2267691775182261
 20
0.1426857347671598
 10
0.2265158757340882
 20
0.1426335777947725
 10
0.2260236862910674
 20
0.1427688493748342
 10
0.2250754565399078
 20
0.1430805091170275
 10
0.2242367216018881
 20
0.1434529375998578
  0
LWPOLYLINE
  5
2301
330
2
100
AcDbEntity
  8
Profilo
  6
Continuous
370
     0
100
AcDbPolyline
 90
        3
 70
   128
 43
0.0
 10
0.2232380070267024
 20
0.1461240226449996
 10
0.2248153956802554
 20
0.1447551817861155
 10
0.2264349544610618
 20
0.1432876362610221
  0
LWPOLYLINE
  5
2302
330
2
100
AcDbEntity
  8
Profilo
  6
Continuous
370
     0
100
AcDbPolyline
 90
        2
 70
   128
 43
0.0
 10
0.2253879968079311
 20
0.1444371624959371
 10
0.2260297591471734
 20
0.1443891132042734
  0
LWPOLYLINE
  5
2303
330
2
100
AcDbEntity
  8
Profilo
  6
Continuous
370
     0
100
AcDbPolyline
 90
        2
 70
   128
 43
0.0
 10
0.2252483731171833
 20
0.1441954564846744
 10
0.2254537129169745
 20
0.143370441527765
  0
LWPOLYLINE
  5
2304
330
2
100
AcDbEntity
  8
Profilo
  6
Continuous
370
     0
100
AcDbPolyline
 90
        2
 70
   128
 43
0.0
 10
0.2240772521936087
 20
0.1452802831993165
 10
0.2241309269584193
 20
0.1444932045209826
  0
LWPOLYLINE
  5
2305
330
2
100
AcDbEntity
  8
Profilo
  6
Continuous
370
     0
100
AcDbPolyline
 90
        2
 70
   128
 43
0.0
 10
0.2242501422930918
 20
0.1455151878818223
 10
0.2248311365536459
 20
0.1455765753647609
  0
LWPOLYLINE
  5
2306
330
2
100
AcDbEntity
  8
Profilo
  6
Continuous
370
     0
100
AcDbPolyline
 90
       10
 70
   128
 43
0.0
 10
0.2291242704548406
 20
0.1499810935756263
 10
0.2299216572587508
 20
0.1489340813435054
 10
0.2302798813045677
 20
0.1484047385010077
 10
0.2304271546737902
 20
0.1478762964572362
 10
0.2303922749179297
 20
0.1476633540112364
 10
0.2302344524572402
 20
0.1475722351710726
 10
0.2300032809398858
 20
0.1474562960785292
 10
0.2294928515842642
 20
0.1474595703896217
 10
0.2284962685014922
 20
0.1475151906648873
 10
0.2275897211791531
 20
0.1476578483791457
  0
LWPOLYLINE
  5
2307
330
2
100
AcDbEntity
  8
Profilo
  6
Continuous
370
     0
100
AcDbPolyline
 90
        3
 70
   128
 43
0.0
 10
0.2259337092971194
 20
0.1499794320557854
 10
0.2278116318196741
 20
0.1490654915431766
 10
0.2297558342046984
 20
0.1480671240763702
  0
LWPOLYLINE
  5
2308
330
2
100
AcDbEntity
  8
Profilo
  6
Continuous
370
     0
100
AcDbPolyline
 90
        2
 70
   128
 43
0.0
 10
0.2284470314860656
 20
0.1489065085746248
 10
0.2290793623756671
 20
0.1490261968386979
  0
LWPOLYLINE
  5
2309
330
2
100
AcDbEntity
  8
Profilo
  6
Continuous
370
     0
100
AcDbPolyline
 90
        2
 70
   128
 43
0.0
 10
0.2283747234762423
 20
0.1486369012256632
 10
0.2287865960753692
 20
0.1478931438226128
  0
LWPOLYLINE
  5
230A
330
2
100
AcDbEntity
  8
Profilo
  6
Continuous
370
     0
100
AcDbPolyline
 90
        2
 70
   128
 43
0.0
 10
0.2269627337160689
 20
0.1493816549672471
 10
0.2272182905095665
 20
0.1486352873958965
  0
LWPOLYLINE
  5
230B
330
2
100
AcDbEntity
  8
Profilo
  6
Continuous
370
     0
100
AcDbPolyline
 90
        2
 70
   128
 43
0.0
 10
0.2270689349226533
 20
0.1496533027172497
 10
0.2276142440341335
 20
0.149862970852157
  0
LWPOLYLINE
  5
230C
330
2
100
AcDbEntity
  8
Profilo
  6
Continuous
370
     0
100
AcDbPolyline
 90
       10
 70
   128
 43
0.0
 10
0.2306211197475403
 20
0.1552285535611984
 10
0.2316623229611079
 20
0.1544235962969176
 10
0.2321453448275872
 20
0.1540050055798585
 10
0.232424370843604
 20
0.1535326869148741
 10
0.2324457931471404
 20
0.1533179727616649
 10
0.232316931647593
 20
0.1531891112621175
 10
0.2321236443539008
 20
0.1530172911069774
 10
0.2316297600027408
 20
0.1528883450102101
 10
0.2306527390785142
 20
0.1526841353887058
 10
0.2297401590737327
 20
0.1525873004469198
  0
LWPOLYLINE
  5
230D
330
2
100
AcDbEntity
  8
Profilo
  6
Continuous
370
     0
100
AcDbPolyline
 90
        3
 70
   128
 43
0.0
 10
0.2275397043579208
 20
0.1544011706640895
 10
0.2295901834329819
 20
0.154004414033333
 10
0.2317265352426283
 20
0.1535432617177954
  0
LWPOLYLINE
  5
230E
330
2
100
AcDbEntity
  8
Profilo
  6
Continuous
370
     0
100
AcDbPolyline
 90
        2
 70
   128
 43
0.0
 10
0.2302450802008729
 20
0.1540153018129833
 10
0.2308248873356817
 20
0.1542945710753902
  0
LWPOLYLINE
  5
230F
330
2
100
AcDbEntity
  8
Profilo
  6
Continuous
370
     0
100
AcDbPolyline
 90
        2
 70
   128
 43
0.0
 10
0.2302450155433473
 20
0.1537361664216079
 10
0.230835352504829
 20
0.1531243524103183
  0
LWPOLYLINE
  5
2310
330
2
100
AcDbEntity
  8
Profilo
  6
Continuous
370
     0
100
AcDbPolyline
 90
        2
 70
   128
 43
0.0
 10
0.2286883817153076
 20
0.1540900934534073
 10
0.2291284047643416
 20
0.1534353007055977
  0
LWPOLYLINE
  5
2311
330
2
100
AcDbEntity
  8
Profilo
  6
Continuous
370
     0
100
AcDbPolyline
 90
        2
 70
   128
 43
0.0
 10
0.2287206565922688
 20
0.1543799719256644
 10
0.2291931186398941
 20
0.1547236321756409
  0
LWPOLYLINE
  5
2312
330
2
100
AcDbEntity
  8
Profilo
  6
Continuous
370
     0
100
AcDbPolyline
 90
       10
 70
   128
 43
0.0
 10
0.2307088225547436
 20
0.16068462378828
 10
0.2319228858996312
 20
0.1601765779991457
 10
0.2324977884448043
 20
0.1598972656731399
 10
0.2328895519457383
 20
0.1595132581234169
 10
0.232965816414086
 20
0.1593114046777075
 10
0.2328746975739222
 20
0.1591535822170162
 10
0.2327324667135333
 20
0.1589375902589052
 10
0.2322887847691828
 20
0.1586852112176804
 10
0.231397908364886
 20
0.1582350882476402
 10
0.2305414864968782
 20
0.1579053597910645
  0
LWPOLYLINE
  5
2313
330
2
100
AcDbEntity
  8
Profilo
  6
Continuous
370
     0
100
AcDbPolyline
 90
        3
 70
   128
 43
0.0
 10
0.227946546299749
 20
0.1590879042910278
 10
0.2300298451669243
 20
0.1592353698508373
 10
0.2322127575558561
 20
0.1593428594547839
  0
LWPOLYLINE
  5
2314
330
2
100
AcDbEntity
  8
Profilo
  6
Continuous
370
     0
100
AcDbPolyline
 90
        2
 70
   128
 43
0.0
 10
0.2306596089038522
 20
0.1594153863944983
 10
0.2311473793858074
 20
0.1598352049165208
  0
LWPOLYLINE
  5
2315
330
2
100
AcDbEntity
  8
Profilo
  6
Continuous
370
     0
100
AcDbPolyline
 90
        2
 70
   128
 43
0.0
 10
0.230731792004929
 20
0.1591457455763394
 10
0.2314603628404186
 20
0.1587075690706094
  0
LWPOLYLINE
  5
2316
330
2
100
AcDbEntity
  8
Profilo
  6
Continuous
370
     0
100
AcDbPolyline
 90
        2
 70
   128
 43
0.0
 10
0.2291365961319436
 20
0.1590847263560282
 10
0.229731098592896
 20
0.158566131475427
  0
LWPOLYLINE
  5
2317
330
2
100
AcDbEntity
  8
Profilo
  6
Continuous
370
     0
100
AcDbPolyline
 90
        2
 70
   128
 43
0.0
 10
0.2290927451997551
 20
0.1593730808117031
 10
0.229460162675758
 20
0.1598273132986372
  0
LWPOLYLINE
  5
2318
330
2
100
AcDbEntity
  8
Profilo
  6
Continuous
370
     0
100
AcDbPolyline
 90
       10
 70
   128
 43
0.0
 10
0.2293814020750713
 20
0.1659774820874778
 10
0.2306855891406621
 20
0.1658009702544327
 10
0.2313131937061474
 20
0.1656799709929122
 10
0.2317909966568277
 20
0.1654104440383617
 10
0.2319169059925017
 20
0.1652352072788994
 10
0.2318697394100966
 20
0.1650591791969487
 10
0.2317882577811006
 20
0.1648137349308674
 10
0.2314250144348489
 20
0.1644551221597674
 10
0.2306809943051917
 20
0.1637897609777359
 10
0.2299390943089581
 20
0.1632496094557827
  0
LWPOLYLINE
  5
2319
330
2
100
AcDbEntity
  8
Profilo
  6
Continuous
370
     0
100
AcDbPolyline
 90
        3
 70
   128
 43
0.0
 10
0.2271265095166044
 20
0.1637202397851145
 10
0.2291006548009122
 20
0.1644018780012897
 10
0.2311813658972561
 20
0.1650706842858445
  0
LWPOLYLINE
  5
231A
330
2
100
AcDbEntity
  8
Profilo
  6
Continuous
370
     0
100
AcDbPolyline
 90
        2
 70
   128
 43
0.0
 10
0.2296623681489376
 20
0.1647387554790041
 10
0.2300248612257729
 20
0.1652705133221475
  0
LWPOLYLINE
  5
231B
330
2
100
AcDbEntity
  8
Profilo
  6
Continuous
370
     0
100
AcDbPolyline
 90
        2
 70
   128
 43
0.0
 10
0.2298018798495651
 20
0.164496984810214
 10
0.230619033660646
 20
0.1642623068147881
  0
LWPOLYLINE
  5
231C
330
2
100
AcDbEntity
  8
Profilo
  6
Continuous
370
     0
100
AcDbPolyline
 90
        2
 70
   128
 43
0.0
 10
0.228276831894193
 20
0.1640251776968182
 10
0.2289852994068113
 20
0.1636781220675183
  0
LWPOLYLINE
  5
231D
330
2
100
AcDbEntity
  8
Profilo
  6
Continuous
370
     0
100
AcDbPolyline
 90
        2
 70
   128
 43
0.0
 10
0.2281598435214172
 20
0.1642923572562851
 10
0.2283971775319948
 20
0.1648262067868473
  0
LWPOLYLINE
  5
231E
330
2
100
AcDbEntity
  8
Profilo
  6
Continuous
370
     0
100
AcDbPolyline
 90
       10
 70
   128
 43
0.0
 10
0.2267293198205522
 20
0.1707464289125622
 10
0.2280347524135948
 20
0.1709134800253307
 10
0.2286722887854193
 20
0.170959039728006
 10
0.2292035697043648
 20
0.1708223611851669
 10
0.2293705433942137
 20
0.1706856832075165
 10
0.2293705433942137
 20
0.170503445527189
 10
0.2293553638349703
 20
0.1702452755742567
 10
0.2290973135205754
 20
0.1698048679409969
 10
0.2285508534078418
 20
0.1689696118119675
 10
0.2279740345420784
 20
0.1682558476582181
  0
LWPOLYLINE
  5
231F
330
2
100
AcDbEntity
  8
Profilo
  6
Continuous
370
     0
100
AcDbPolyline
 90
        3
 70
   128
 43
0.0
 10
0.2251354781600814
 20
0.1679824911377268
 10
0.2268659351228266
 20
0.169151849492295
 10
0.2287026479039043
 20
0.1703363944144205
  0
LWPOLYLINE
  5
2320
330
2
100
AcDbEntity
  8
Profilo
  6
Continuous
370
     0
100
AcDbPolyline
 90
        2
 70
   128
 43
0.0
 10
0.2273213182455571
 20
0.1696226302606711
 10
0.227533830613136
 20
0.1702300890066977
  0
LWPOLYLINE
  5
2321
330
2
100
AcDbEntity
  8
Profilo
  6
Continuous
370
     0
100
AcDbPolyline
 90
        2
 70
   128
 43
0.0
 10
0.2275186510538927
 20
0.1694252060127845
 10
0.2283687001587495
 20
0.1694100194452273
  0
LWPOLYLINE
  5
2322
330
2
100
AcDbEntity
  8
Profilo
  6
Continuous
370
     0
100
AcDbPolyline
 90
        2
 70
   128
 43
0.0
 10
0.2261676805140322
 20
0.168574763881383
 10
0.2269418321881293
 20
0.1684228987709866
  0
LWPOLYLINE
  5
2323
330
2
100
AcDbEntity
  8
Profilo
  6
Continuous
370
     0
100
AcDbPolyline
 90
        2
 70
   128
 43
0.0
 10
0.22598552726494
 20
0.168802560699199
 10
0.2260766038894861
 20
0.1693796463101091
  0
LWPOLYLINE
  5
2324
330
2
100
AcDbEntity
  8
Profilo
  6
Continuous
370
     0
100
AcDbPolyline
 90
       10
 70
   128
 43
0.0
 10
0.2229333108140541
 20
0.1746664684184638
 10
0.2241510258606649
 20
0.1751656982197738
 10
0.2247550469886648
 20
0.1753747120682001
 10
0.2253035999592339
 20
0.1753801963538959
 10
0.2255002590222326
 20
0.1752913915363607
 10
0.2255474256046359
 20
0.17511536345441
 10
0.2255995825770232
 20
0.1748620616702721
 10
0.2254643109969632
 20
0.1743698722272513
 10
0.2251526512547681
 20
0.1734216424760917
 10
0.2247802227719398
 20
0.172582907538072
  0
LWPOLYLINE
  5
2325
330
2
100
AcDbEntity
  8
Profilo
  6
Continuous
370
     0
100
AcDbPolyline
 90
        3
 70
   128
 43
0.0
 10
0.2221091377267961
 20
0.1715841929628863
 10
0.223477978585682
 20
0.1731615816164393
 10
0.2249455241107736
 20
0.1747811403972457
  0
LWPOLYLINE
  5
2326
330
2
100
AcDbEntity
  8
Profilo
  6
Continuous
370
     0
100
AcDbPolyline
 90
        2
 70
   128
 43
0.0
 10
0.2237959978758603
 20
0.173734182744115
 10
0.223844047167524
 20
0.1743759450833573
  0
LWPOLYLINE
  5
2327
330
2
100
AcDbEntity
  8
Profilo
  6
Continuous
370
     0
100
AcDbPolyline
 90
        2
 70
   128
 43
0.0
 10
0.2240377038871231
 20
0.1735945590533672
 10
0.2248627188440324
 20
0.1737998988531584
  0
LWPOLYLINE
  5
2328
330
2
100
AcDbEntity
  8
Profilo
  6
Continuous
370
     0
100
AcDbPolyline
 90
        2
 70
   128
 43
0.0
 10
0.2229528771724791
 20
0.1724234381297926
 10
0.2237399558508131
 20
0.1724771128946032
  0
LWPOLYLINE
  5
2329
330
2
100
AcDbEntity
  8
Profilo
  6
Continuous
370
     0
100
AcDbPolyline
 90
        2
 70
   128
 43
0.0
 10
0.2227179724899735
 20
0.1725963282292757
 10
0.2226565850070366
 20
0.1731773224898298
  0
LWPOLYLINE
  5
232A
330
2
100
AcDbEntity
  8
Profilo
  6
Continuous
370
     0
100
AcDbPolyline
 90
       10
 70
   128
 43
0.0
 10
0.2182520667961711
 20
0.1774704563910245
 10
0.2192990790282903
 20
0.1782678431949347
 10
0.219828421870788
 20
0.1786260672407516
 10
0.2203568639145594
 20
0.1787733406099741
 10
0.2205698063605592
 20
0.1787384608541136
 10
0.220660925200723
 20
0.1785806383934241
 10
0.2207768642932664
 20
0.1783494668760697
 10
0.2207735899821757
 20
0.1778390375204482
 10
0.2207179697069084
 20
0.1768424544376761
 10
0.2205753119926499
 20
0.175935907115337
  0
LWPOLYLINE
  5
232B
330
2
100
AcDbEntity
  8
Profilo
  6
Continuous
370
     0
100
AcDbPolyline
 90
        3
 70
   128
 43
0.0
 10
0.218253728316012
 20
0.1742798952333033
 10
0.2191676688286208
 20
0.176157817755858
 10
0.2201660362954272
 20
0.1781020201408822
  0
LWPOLYLINE
  5
232C
330
2
100
AcDbEntity
  8
Profilo
  6
Continuous
370
     0
100
AcDbPolyline
 90
        2
 70
   128
 43
0.0
 10
0.2193266517971726
 20
0.1767932174222495
 10
0.2192069635330995
 20
0.1774255483118509
  0
LWPOLYLINE
  5
232D
330
2
100
AcDbEntity
  8
Profilo
  6
Continuous
370
     0
100
AcDbPolyline
 90
        2
 70
   128
 43
0.0
 10
0.2195962591461324
 20
0.1767209094124262
 10
0.2203400165491829
 20
0.1771327820115531
  0
LWPOLYLINE
  5
232E
330
2
100
AcDbEntity
  8
Profilo
  6
Continuous
370
     0
100
AcDbPolyline
 90
        2
 70
   128
 43
0.0
 10
0.2188515054045503
 20
0.1753089196522528
 10
0.2195978729758992
 20
0.1755644764457505
  0
LWPOLYLINE
  5
232F
330
2
100
AcDbEntity
  8
Profilo
  6
Continuous
370
     0
100
AcDbPolyline
 90
        2
 70
   128
 43
0.0
 10
0.2185798576545459
 20
0.1754151208588373
 10
0.2183701895196386
 20
0.1759604299703174
  0
LWPOLYLINE
  5
2330
330
2
100
AcDbEntity
  8
Profilo
  6
Continuous
370
     0
100
AcDbPolyline
 90
       10
 70
   128
 43
0.0
 10
0.2130046068105991
 20
0.1789673056837242
 10
0.2138095640748781
 20
0.1800085088972918
 10
0.2142281547919371
 20
0.1804915307637711
 10
0.2147004734569216
 20
0.1807705567797879
 10
0.2149151876101307
 20
0.1807919790833243
 10
0.2150440491096781
 20
0.180663117583777
 10
0.2152158692648183
 20
0.1804698302900846
 10
0.2153448153615856
 20
0.1799759459389247
 10
0.2155490249830898
 20
0.1789989250146982
 10
0.2156458599248776
 20
0.1780863450099166
  0
LWPOLYLINE
  5
2331
330
2
100
AcDbEntity
  8
Profilo
  6
Continuous
370
     0
100
AcDbPolyline
 90
        3
 70
   128
 43
0.0
 10
0.2138319897077061
 20
0.1758858902941065
 10
0.2142287463384627
 20
0.1779363693691657
 10
0.2146898986540002
 20
0.1800727211788122
  0
LWPOLYLINE
  5
2332
330
2
100
AcDbEntity
  8
Profilo
  6
Continuous
370
     0
100
AcDbPolyline
 90
        2
 70
   128
 43
0.0
 10
0.2142178585588124
 20
0.1785912661370568
 10
0.2139385892964072
 20
0.1791710732718656
  0
LWPOLYLINE
  5
2333
330
2
100
AcDbEntity
  8
Profilo
  6
Continuous
370
     0
100
AcDbPolyline
 90
        2
 70
   128
 43
0.0
 10
0.2144969939501877
 20
0.1785912014795312
 10
0.2151088079614773
 20
0.1791815384410129
  0
LWPOLYLINE
  5
2334
330
2
100
AcDbEntity
  8
Profilo
  6
Continuous
370
     0
100
AcDbPolyline
 90
        2
 70
   128
 43
0.0
 10
0.2141430669183901
 20
0.1770345676514915
 10
0.2147978596661997
 20
0.1774745907005255
  0
LWPOLYLINE
  5
2335
330
2
100
AcDbEntity
  8
Profilo
  6
Continuous
370
     0
100
AcDbPolyline
 90
        2
 70
   128
 43
0.0
 10
0.2138531884461312
 20
0.1770668425284527
 10
0.2135095281961548
 20
0.177539304576078
  0
LWPOLYLINE
  5
2336
330
2
100
AcDbEntity
  8
Profilo
  6
Continuous
370
     0
100
AcDbPolyline
 90
       10
 70
   128
 43
0.0
 10
0.2075485365835175
 20
0.1790550084909275
 10
0.2080565823726517
 20
0.1802690718358151
 10
0.2083358946986575
 20
0.1808439743809882
 10
0.2087199022483805
 20
0.1812357378819222
 10
0.2089217556940899
 20
0.1813120023502699
 10
0.2090795781547794
 20
0.1812208835101061
 10
0.2092955701128905
 20
0.1810786526497172
 10
0.2095479491541152
 20
0.1806349707053667
 10
0.2099980721241554
 20
0.17974409430107
 10
0.210327800580733
 20
0.1788876724330621
  0
LWPOLYLINE
  5
2337
330
2
100
AcDbEntity
  8
Profilo
  6
Continuous
370
     0
100
AcDbPolyline
 90
        3
 70
   128
 43
0.0
 10
0.2091452560807696
 20
0.1762927322359329
 10
0.2089977905209583
 20
0.1783760311031081
 10
0.2088903009170135
 20
0.1805589434920401
  0
LWPOLYLINE
  5
2338
330
2
100
AcDbEntity
  8
Profilo
  6
Continuous
370
     0
100
AcDbPolyline
 90
        2
 70
   128
 43
0.0
 10
0.2088177739772974
 20
0.1790057948400361
 10
0.2083979554552748
 20
0.1794935653219913
  0
LWPOLYLINE
  5
2339
330
2
100
AcDbEntity
  8
Profilo
  6
Continuous
370
     0
100
AcDbPolyline
 90
        2
 70
   128
 43
0.0
 10
0.2090874147954562
 20
0.1790779779411129
 10
0.209525591301188
 20
0.1798065487766025
  0
LWPOLYLINE
  5
233A
330
2
100
AcDbEntity
  8
Profilo
  6
Continuous
370
     0
100
AcDbPolyline
 90
        2
 70
   128
 43
0.0
 10
0.2091484340157692
 20
0.1774827820681275
 10
0.2096670288963704
 20
0.1780772845290799
  0
LWPOLYLINE
  5
233B
330
2
100
AcDbEntity
  8
Profilo
  6
Continuous
370
     0
100
AcDbPolyline
 90
        2
 70
   128
 43
0.0
 10
0.2088600795600926
 20
0.177438931135939
 10
0.2084058470731585
 20
0.1778063486119419
  0
LWPOLYLINE
  5
233C
330
2
100
AcDbEntity
  8
Profilo
  6
Continuous
370
     0
100
AcDbPolyline
 90
       10
 70
   128
 43
0.0
 10
0.2022556782843197
 20
0.177727588011257
 10
0.2024321901173629
 20
0.1790317750768459
 10
0.2025531893788852
 20
0.1796593796423314
 10
0.202822716333434
 20
0.1801371825930116
 10
0.202997953092898
 20
0.1802630919286856
 10
0.2031739811748487
 20
0.1802159253462822
 10
0.2034194254409301
 20
0.1801344437172845
 10
0.2037780382120282
 20
0.1797712003710327
 10
0.2044433993940615
 20
0.1790271802413756
 10
0.2049835509160129
 20
0.178285280245142
  0
LWPOLYLINE
  5
233D
330
2
100
AcDbEntity
  8
Profilo
  6
Continuous
370
     0
100
AcDbPolyline
 90
        3
 70
   128
 43
0.0
 10
0.2045129205866811
 20
0.1754726954527883
 10
0.203831282370506
 20
0.1774468407370961
 10
0.2031624760859512
 20
0.17952755183344
  0
LWPOLYLINE
  5
233E
330
2
100
AcDbEntity
  8
Profilo
  6
Continuous
370
     0
100
AcDbPolyline
 90
        2
 70
   128
 43
0.0
 10
0.2034944048927934
 20
0.1780085540851215
 10
0.2029626470496482
 20
0.1783710471619568
  0
LWPOLYLINE
  5
233F
330
2
100
AcDbEntity
  8
Profilo
  6
Continuous
370
     0
100
AcDbPolyline
 90
        2
 70
   128
 43
0.0
 10
0.2037361755615816
 20
0.178148065785749
 10
0.2039708535570093
 20
0.1789652195968299
  0
LWPOLYLINE
  5
2340
330
2
100
AcDbEntity
  8
Profilo
  6
Continuous
370
     0
100
AcDbPolyline
 90
        2
 70
   128
 43
0.0
 10
0.2042079826749792
 20
0.1766230178303769
 10
0.2045550383042773
 20
0.1773314853429952
  0
LWPOLYLINE
  5
2341
330
2
100
AcDbEntity
  8
Profilo
  6
Continuous
370
     0
100
AcDbPolyline
 90
        2
 70
   128
 43
0.0
 10
0.2039408031155123
 20
0.176506029457601
 10
0.2034069535849483
 20
0.1767433634681788
  0
DIMENSION
  5
2343
102
{ACAD_XDICTIONARY
360
234D
102
}
102
{ACAD_REACTORS
330
2354
102
}
330
2
100
AcDbEntity
  8
Text
  6
ACAD_ISO10W100
100
AcDbDimension
  2
*D11
 10
0.1699505599246723
 20
0.1326612559862026
 30
0.0
 11
0.2683908550317089
 21
0.185536727195532
 31
0.0
 70
    35
  1
d 760 mm
 71
     5
 42
0.095
  3
Bovelacci
100
AcDbDiametricDimension
 15
0.2499364145109395
 25
0.183918090321777
 35
0.0
 40
0.0
1001
ACAD
1000
DSTYLE
1002
{
1070
   288
1070
     1
1002
}
  0
ENDSEC
  0
SECTION
  2
OBJECTS
  0
DICTIONARY
  5
9
330
0
100
AcDbDictionary
281
     1
  3
ACAD_2007HEADERVARS_RT
350
208
  3
ACAD_COLOR
350
184
  3
ACAD_GROUP
350
17F
  3
ACAD_LAYOUT
350
164
  3
ACAD_MATERIAL
350
B
  3
ACAD_MLINESTYLE
350
180
  3
ACAD_PLOTSETTINGS
350
181
  3
ACAD_PLOTSTYLENAME
350
8
  3
ACAD_TABLESTYLE
350
185
  3
ACAD_VISUALSTYLE
350
17A
  3
ACDBHEADERROUNDTRIPXREC
350
2364
  3
AcDbVariableDictionary
350
18B
  3
DWGPROPS
350
2363
  0
DICTIONARY
  5
16E
330
16D
100
AcDbDictionary
280
     1
281
     1
  3
ACAD_LAYERSTATES
360
16F
  0
DICTIONARY
  5
3
330
2
100
AcDbDictionary
280
     1
281
     1
  3
ACAD_SORTENTS
360
18A
  0
DICTIONARY
  5
2365
330
18
100
AcDbDictionary
280
     1
281
     1
  3
ACAD_MTEXT_RT
360
2366
  0
DICTIONARY
  5
234D
330
2343
100
AcDbDictionary
280
     1
281
     1
  3
ACAD_DIMASSOC
360
2354
  0
DICTIONARY
  5
208
102
{ACAD_REACTORS
330
9
102
}
330
9
100
AcDbDictionary
281
     1
  3
DIMFXL
350
209
  0
DICTIONARY
  5
184
102
{ACAD_REACTORS
330
9
102
}
330
9
100
AcDbDictionary
281
     1
  0
DICTIONARY
  5
17F
102
{ACAD_REACTORS
330
9
102
}
330
9
100
AcDbDictionary
281
     1
  0
DICTIONARY
  5
164
102
{ACAD_REACTORS
330
9
102
}
330
9
100
AcDbDictionary
281
     1
  3
Layout1
350
168
  3
Layout2
350
16C
  3
Model
350
163
  0
DICTIONARY
  5
B
102
{ACAD_REACTORS
330
9
102
}
330
9
100
AcDbDictionary
281
     1
  3
ByBlock
350
183
  3
ByLayer
350
182
  3
Global
350
A
  0
DICTIONARY
  5
180
102
{ACAD_REACTORS
330
9
102
}
330
9
100
AcDbDictionary
281
     1
  3
Standard
350
186
  0
DICTIONARY
  5
181
102
{ACAD_REACTORS
330
9
102
}
330
9
100
AcDbDictionary
281
     1
  0
ACDBDICTIONARYWDFLT
  5
8
102
{ACAD_REACTORS
330
9
102
}
330
9
100
AcDbDictionary
281
     1
  3
Normal
350
7
100
AcDbDictionaryWithDefault
340
7
  0
DICTIONARY
  5
185
102
{ACAD_REACTORS
330
9
102
}
330
9
100
AcDbDictionary
281
     1
  3
Standard
350
187
  0
DICTIONARY
  5
17A
102
{ACAD_REACTORS
330
9
102
}
330
9
100
AcDbDictionary
281
     1
  3
2dWireframe
350
179
  3
3D Hidden
350
1BD
  3
3dWireframe
350
189
  3
Basic
350
1BC
  3
Brighten
350
1C0
  3
ColorChange
350
1C4
  3
Conceptual
350
1BE
  3
Dim
350
1BF
  3
Facepattern
350
1C3
  3
Flat
350
1B8
  3
FlatWithEdges
350
1B9
  3
Gouraud
350
1BA
  3
GouraudWithEdges
350
1BB
  3
Linepattern
350
1C2
  3
Realistic
350
188
  3
Thicken
350
1C1
  0
DICTIONARY
  5
2364
102
{ACAD_REACTORS
330
9
102
}
330
9
100
AcDbDictionary
281
     1
  0
DICTIONARY
  5
18B
102
{ACAD_REACTORS
330
9
102
}
330
9
100
AcDbDictionary
281
     1
  3
CTABLESTYLE
350
18C
  3
DIMASSOC
350
190
  3
HIDETEXT
350
18F
  3
INDEXCTL
350
18E
  3
PROJECTNAME
350
2F9
  3
SORTENTS
350
18D
  0
XRECORD
  5
2363
102
{ACAD_REACTORS
330
9
102
}
330
9
100
AcDbXrecord
280
     1
  1
DWGPROPS COOKIE
  2

  3

  4

  6

  7

  8
Mario
  9

300
=
301
=
302
=
303
=
304
=
305
=
306
=
307
=
308
=
309
=
 40
0.1785932175925926
 41
2454297.625402373
 42
2454311.601043114
  1

 90
        0
  0
DICTIONARY
  5
16F
102
{ACAD_REACTORS
330
16E
102
}
330
16E
100
AcDbDictionary
281
     1
  0
SORTENTSTABLE
  5
18A
102
{ACAD_REACTORS
330
3
102
}
330
3
100
AcDbSortentsTable
330
2
331
18
  5
1C
331
16
  5
12
331
14
  5
10
331
23
  5
24
331
12
  5
16
331
10
  5
14
331
21
  5
22
331
1F
  5
21
331
1D
  5
1E
331
15
  5
11
331
24
  5
18
331
13
  5
D
331
22
  5
23
331
11
  5
15
331
1E
  5
1F
331
D
  5
13
331
1C
  5
1D
  0
XRECORD
  5
2366
102
{ACAD_REACTORS
330
2365
102
}
330
2365
100
AcDbXrecord
280
     1
 40
7955300.0
  1
{\fTimes New Roman|b0|i0|c238|p18;\H1.6x;\C4;Bovelacci\P\pt0.09;\H0.4375x;\T0.95;via del Commercio, 5  47100 Forli - Italy  \fTimes New Roman|b0|i0|c0|p18;\P\fTimes New Roman|b0|i0|c238|p18;tel.+39-0543721386  fax +39-0543721127\fTimes New Roman|b0|i
  1
0|c0|p18; \fTimes New Roman|b0|i0|c238|p18;www.bovelacci.it\fTimes New Roman|b0|i0|c0|p18; \fTimes New Roman|b0|i0|c238|p18;e-mail: bovelacci@bovelacci\fTimes New Roman|b0|i0|c0|p18;.it}
  0
DIMASSOC
  5
2354
102
{ACAD_REACTORS
330
234D
102
}
330
234D
100
AcDbDimAssoc
330
2343
 90
        2
 70
     0
 71
     0
  1
AcDbOsnapPointRef
 72
     3
331
208A
 73
     2
 91
        0
 40
0.0
 10
0.0
 20
0.0
 30
0.0
 75
     0
  0
XRECORD
  5
209
102
{ACAD_REACTORS
330
208
102
}
330
208
100
AcDbXrecord
280
     1
 40
0.18
  0
LAYOUT
  5
168
102
{ACAD_XDICTIONARY
360
2369
102
}
102
{ACAD_REACTORS
330
164
102
}
330
164
100
AcDbPlotSettings
  1

  2
C:\Documents and Settings\All Users\Dati applicazioni\Autodesk\ADT 2006\enu\Plotters\Default Windows System Printer.pc3
  4

  6

 40
0.0
 41
0.0
 42
0.0
 43
0.0
 44
0.0
 45
0.0
 46
0.0
 47
0.0
 48
0.0
 49
0.0
140
0.0
141
0.0
142
1.0
143
1.0
 70
   688
 72
     0
 73
     0
 74
     5
  7

 75
    16
147
1.0
148
0.0
149
0.0
100
AcDbLayout
  1
Layout1
 70
     1
 71
     1
 10
0.0
 20
0.0
 11
420.0
 21
297.0
 12
0.0
 22
0.0
 32
0.0
 14
1.000000000000000E+20
 24
1.000000000000000E+20
 34
1.000000000000000E+20
 15
-1.000000000000000E+20
 25
-1.000000000000000E+20
 35
-1.000000000000000E+20
146
0.0
 13
0.0
 23
0.0
 33
0.0
 16
1.0
 26
0.0
 36
0.0
 17
0.0
 27
1.0
 37
0.0
 76
     0
330
165
  0
LAYOUT
  5
16C
102
{ACAD_XDICTIONARY
360
236B
102
}
102
{ACAD_REACTORS
330
164
102
}
330
164
100
AcDbPlotSettings
  1

  2
C:\Documents and Settings\All Users\Dati applicazioni\Autodesk\ADT 2006\enu\Plotters\Default Windows System Printer.pc3
  4

  6

 40
0.0
 41
0.0
 42
0.0
 43
0.0
 44
0.0
 45
0.0
 46
0.0
 47
0.0
 48
0.0
 49
0.0
140
0.0
141
0.0
142
1.0
143
1.0
 70
   688
 72
     0
 73
     0
 74
     5
  7

 75
    16
147
1.0
148
0.0
149
0.0
100
AcDbLayout
  1
Layout2
 70
     1
 71
     2
 10
0.0
 20
0.0
 11
12.0
 21
9.0
 12
0.0
 22
0.0
 32
0.0
 14
0.0
 24
0.0
 34
0.0
 15
0.0
 25
0.0
 35
0.0
146
0.0
 13
0.0
 23
0.0
 33
0.0
 16
1.0
 26
0.0
 36
0.0
 17
0.0
 27
1.0
 37
0.0
 76
     0
330
169
  0
LAYOUT
  5
163
102
{ACAD_XDICTIONARY
360
2367
102
}
102
{ACAD_REACTORS
330
164
102
}
330
164
100
AcDbPlotSettings
  1

  2
C:\Documents and Settings\All Users\Dati applicazioni\Autodesk\ADT 2006\enu\Plotters\Default Windows System Printer.pc3
  4

  6

 40
0.0
 41
0.0
 42
0.0
 43
0.0
 44
0.0
 45
0.0
 46
0.0
 47
0.0
 48
0.0
 49
0.0
140
0.0
141
0.0
142
1.0
143
1.0
 70
  1712
 72
     0
 73
     0
 74
     0
  7

 75
     0
147
1.0
148
0.0
149
0.0
100
AcDbLayout
  1
Model
 70
     1
 71
     0
 10
0.0
 20
0.0
 11
12.0
 21
9.0
 12
0.0
 22
0.0
 32
0.0
 14
0.0
 24
0.0
 34
0.0
 15
0.0
 25
0.0
 35
0.0
146
0.0
 13
0.0
 23
0.0
 33
0.0
 16
1.0
 26
0.0
 36
0.0
 17
0.0
 27
1.0
 37
0.0
 76
     0
330
2
  0
MATERIAL
  5
183
102
{ACAD_XDICTIONARY
360
1B0
102
}
102
{ACAD_REACTORS
330
B
102
}
330
B
100
AcDbMaterial
  1
ByBlock
  0
MATERIAL
  5
182
102
{ACAD_XDICTIONARY
360
1AE
102
}
102
{ACAD_REACTORS
330
B
102
}
330
B
100
AcDbMaterial
  1
ByLayer
  0
MATERIAL
  5
A
102
{ACAD_XDICTIONARY
360
193
102
}
102
{ACAD_REACTORS
330
B
102
}
330
B
100
AcDbMaterial
  1
Global
  0
MLINESTYLE
  5
186
102
{ACAD_REACTORS
330
180
102
}
330
180
100
AcDbMlineStyle
  2
STANDARD
 70
     0
  3

 62
   256
 51
90.0
 52
90.0
 71
     2
 49
0.5
 62
   256
  6
BYLAYER
 49
-0.5
 62
   256
  6
BYLAYER
  0
ACDBPLACEHOLDER
  5
7
102
{ACAD_REACTORS
330
8
102
}
330
8
  0
TABLESTYLE
  5
187
102
{ACAD_XDICTIONARY
360
21A
102
}
102
{ACAD_REACTORS
330
185
102
}
330
185
100
AcDbTableStyle
  3
Standard
 70
     0
 71
     0
 40
1.5
 41
1.5
280
     0
281
     0
  7
Standard
140
4.5
170
     2
 62
     0
 63
     7
283
     0
274
    -2
284
     1
 64
     0
275
    -2
285
     1
 65
     0
276
    -2
286
     1
 66
     0
277
    -2
287
     1
 67
     0
278
    -2
288
     1
 68
     0
279
    -2
289
     1
 69
     0
  7
Standard
140
6.0
170
     5
 62
     0
 63
     7
283
     0
274
    -2
284
     1
 64
     0
275
    -2
285
     1
 65
     0
276
    -2
286
     1
 66
     0
277
    -2
287
     1
 67
     0
278
    -2
288
     1
 68
     0
279
    -2
289
     1
 69
     0
  7
Standard
140
4.5
170
     5
 62
     0
 63
     7
283
     0
274
    -2
284
     1
 64
     0
275
    -2
285
     1
 65
     0
276
    -2
286
     1
 66
     0
277
    -2
287
     1
 67
     0
278
    -2
288
     1
 68
     0
279
    -2
289
     1
 69
     0
  0
VISUALSTYLE
  5
179
102
{ACAD_REACTORS
330
17A
102
}
330
17A
100
AcDbVisualStyle
  2
2dWireframe
 70
     4
 71
     0
 72
     2
 73
     0
 90
        0
 40
-0.6
 41
-30.0
 62
     5
 63
     7
 74
     1
 91
        4
 64
     7
 65
   257
 75
     1
175
     1
 42
1.0
 92
        0
 66
   257
 43
1.0
 76
     1
 77
     6
 78
     2
 67
     7
 79
     5
170
     0
171
     0
290
     0
174
     0
 93
        1
 44
0.0
173
     0
291
     0
 45
0.0
1001
ACAD
1000
AcDbSavedByObjectVersion
1070
     0
1000
AcDbSavedByObjectVersion
1070
     0
1000
AcDbSavedByObjectVersion
1070
     0
1001
ACAD
1000
AcRTDxfName
1000
VISUALSTYLE
  0
VISUALSTYLE
  5
1BD
102
{ACAD_REACTORS
330
17A
102
}
330
17A
100
AcDbVisualStyle
  2
3D Hidden
 70
     6
 71
     1
 72
     2
 73
     2
 90
        0
 40
-0.6
 41
-30.0
 62
     5
 63
     7
 74
     2
 91
        2
 64
     7
 65
   257
 75
     2
175
     1
 42
40.0
 92
        0
 66
   257
 43
1.0
 76
     1
 77
     6
 78
     2
 67
     7
 79
     3
170
     0
171
     0
290
     0
174
     0
 93
        1
 44
0.0
173
     0
291
     0
 45
0.0
1001
ACAD
1000
AcDbSavedByObjectVersion
1070
     0
1000
AcDbSavedByObjectVersion
1070
     0
1001
ACAD
1000
AcRTDxfName
1000
VISUALSTYLE
  0
VISUALSTYLE
  5
189
102
{ACAD_REACTORS
330
17A
102
}
330
17A
100
AcDbVisualStyle
  2
3dWireframe
 70
     5
 71
     0
 72
     2
 73
     0
 90
        0
 40
-0.6
 41
-30.0
 62
     5
 63
     7
 74
     1
 91
        4
 64
     7
 65
   257
 75
     1
175
     1
 42
1.0
 92
        0
 66
   257
 43
1.0
 76
     1
 77
     6
 78
     2
 67
     7
 79
     5
170
     0
171
     0
290
     0
174
     0
 93
        1
 44
0.0
173
     0
291
     0
 45
0.0
1001
ACAD
1000
AcDbSavedByObjectVersion
1070
     0
1000
AcDbSavedByObjectVersion
1070
     0
1000
AcDbSavedByObjectVersion
1070
     0
1001
ACAD
1000
AcRTDxfName
1000
VISUALSTYLE
  0
VISUALSTYLE
  5
1BC
102
{ACAD_REACTORS
330
17A
102
}
330
17A
100
AcDbVisualStyle
  2
Basic
 70
     7
 71
     1
 72
     0
 73
     1
 90
        0
 40
-0.6
 41
-30.0
 62
     5
 63
     7
 74
     0
 91
        4
 64
     7
 65
   257
 75
     1
175
     1
 42
1.0
 92
        8
 66
     7
 43
1.0
 76
     1
 77
     6
 78
     2
 67
     7
 79
     5
170
     0
171
     0
290
     0
174
     0
 93
        1
 44
0.0
173
     0
291
     1
 45
0.0
1001
ACAD
1000
AcDbSavedByObjectVersion
1070
     0
1000
AcDbSavedByObjectVersion
1070
     0
1001
ACAD
1000
AcRTDxfName
1000
VISUALSTYLE
  0
VISUALSTYLE
  5
1C0
102
{ACAD_REACTORS
330
17A
102
}
330
17A
100
AcDbVisualStyle
  2
Brighten
 70
    12
 71
     2
 72
     2
 73
     0
 90
        0
 40
-0.6
 41
-30.0
 62
     5
 63
     7
 74
     1
 91
        4
 64
     7
 65
   257
 75
     1
175
     1
 42
1.0
 92
        8
 66
     7
 43
1.0
 76
     1
 77
     6
 78
     2
 67
     7
 79
     5
170
     0
171
     0
290
     0
174
     0
 93
        1
 44
50.0
173
     0
291
     1
 45
0.0
1001
ACAD
1000
AcDbSavedByObjectVersion
1070
     0
1000
AcDbSavedByObjectVersion
1070
     0
1001
ACAD
1000
AcRTDxfName
1000
VISUALSTYLE
  0
VISUALSTYLE
  5
1C4
102
{ACAD_REACTORS
330
17A
102
}
330
17A
100
AcDbVisualStyle
  2
ColorChange
 70
    16
 71
     2
 72
     2
 73
     3
 90
        0
 40
-0.6
 41
-30.0
 62
     5
 63
     8
 74
     1
 91
        4
 64
     7
 65
   257
 75
     1
175
     1
 42
1.0
 92
        8
 66
     8
 43
1.0
 76
     1
 77
     6
 78
     2
 67
     7
 79
     5
170
     0
171
     0
290
     0
174
     0
 93
        1
 44
0.0
173
     0
291
     1
 45
0.0
1001
ACAD
1000
AcDbSavedByObjectVersion
1070
     0
1000
AcDbSavedByObjectVersion
1070
     0
1001
ACAD
1000
AcRTDxfName
1000
VISUALSTYLE
  0
VISUALSTYLE
  5
1BE
102
{ACAD_REACTORS
330
17A
102
}
330
17A
100
AcDbVisualStyle
  2
Conceptual
 70
     9
 71
     3
 72
     2
 73
     0
 90
        0
 40
-0.6
 41
-30.0
 62
     5
 63
     7
 74
     2
 91
        2
 64
     7
 65
   257
 75
     1
175
     1
 42
40.0
 92
        8
 66
     7
 43
1.0
 76
     1
 77
     6
 78
     2
 67
     7
 79
     3
170
     0
171
     0
290
     0
174
     0
 93
        1
 44
0.0
173
     0
291
     0
 45
0.0
1001
ACAD
1000
AcDbSavedByObjectVersion
1070
     0
1000
AcDbSavedByObjectVersion
1070
     0
1001
ACAD
1000
AcRTDxfName
1000
VISUALSTYLE
  0
VISUALSTYLE
  5
1BF
102
{ACAD_REACTORS
330
17A
102
}
330
17A
100
AcDbVisualStyle
  2
Dim
 70
    11
 71
     2
 72
     2
 73
     0
 90
        0
 40
-0.6
 41
-30.0
 62
     5
 63
     7
 74
     1
 91
        4
 64
     7
 65
   257
 75
     1
175
     1
 42
1.0
 92
        8
 66
     7
 43
1.0
 76
     1
 77
     6
 78
     2
 67
     7
 79
     5
170
     0
171
     0
290
     0
174
     0
 93
        1
 44
-50.0
173
     0
291
     1
 45
0.0
1001
ACAD
1000
AcDbSavedByObjectVersion
1070
     0
1000
AcDbSavedByObjectVersion
1070
     0
1001
ACAD
1000
AcRTDxfName
1000
VISUALSTYLE
  0
VISUALSTYLE
  5
1C3
102
{ACAD_REACTORS
330
17A
102
}
330
17A
100
AcDbVisualStyle
  2
Facepattern
 70
    15
 71
     2
 72
     2
 73
     0
 90
        0
 40
-0.6
 41
-30.0
 62
     5
 63
     7
 74
     1
 91
        4
 64
     7
 65
   257
 75
     1
175
     1
 42
1.0
 92
        8
 66
     7
 43
1.0
 76
     1
 77
     6
 78
     2
 67
     7
 79
     5
170
     0
171
     0
290
     0
174
     0
 93
        1
 44
0.0
173
     0
291
     1
 45
0.0
1001
ACAD
1000
AcDbSavedByObjectVersion
1070
     0
1000
AcDbSavedByObjectVersion
1070
     0
1001
ACAD
1000
AcRTDxfName
1000
VISUALSTYLE
  0
VISUALSTYLE
  5
1B8
102
{ACAD_REACTORS
330
17A
102
}
330
17A
100
AcDbVisualStyle
  2
Flat
 70
     0
 71
     2
 72
     1
 73
     1
 90
        2
 40
-0.6
 41
30.0
 62
     5
 63
     7
 74
     0
 91
        4
 64
     7
 65
   257
 75
     1
175
     1
 42
1.0
 92
        8
 66
     7
 43
1.0
 76
     1
 77
     6
 78
     2
 67
     7
 79
     5
170
     0
171
     0
290
     0
174
     0
 93
       13
 44
0.0
173
     0
291
     1
 45
0.0
1001
ACAD
1000
AcDbSavedByObjectVersion
1070
     0
1000
AcDbSavedByObjectVersion
1070
     0
1001
ACAD
1000
AcRTDxfName
1000
VISUALSTYLE
  0
VISUALSTYLE
  5
1B9
102
{ACAD_REACTORS
330
17A
102
}
330
17A
100
AcDbVisualStyle
  2
FlatWithEdges
 70
     1
 71
     2
 72
     1
 73
     1
 90
        2
 40
-0.6
 41
30.0
 62
     5
 63
     7
 74
     1
 91
        4
 64
     7
 65
   257
 75
     1
175
     1
 42
1.0
 92
        0
 66
   257
 43
1.0
 76
     1
 77
     6
 78
     2
 67
     7
 79
     5
170
     0
171
     0
290
     0
174
     0
 93
       13
 44
0.0
173
     0
291
     1
 45
0.0
1001
ACAD
1000
AcDbSavedByObjectVersion
1070
     0
1000
AcDbSavedByObjectVersion
1070
     0
1001
ACAD
1000
AcRTDxfName
1000
VISUALSTYLE
  0
VISUALSTYLE
  5
1BA
102
{ACAD_REACTORS
330
17A
102
}
330
17A
100
AcDbVisualStyle
  2
Gouraud
 70
     2
 71
     2
 72
     2
 73
     1
 90
        2
 40
-0.6
 41
30.0
 62
     5
 63
     7
 74
     0
 91
        4
 64
     7
 65
   257
 75
     1
175
     1
 42
1.0
 92
        0
 66
     7
 43
1.0
 76
     1
 77
     6
 78
     2
 67
     7
 79
     5
170
     0
171
     0
290
     0
174
     0
 93
       13
 44
0.0
173
     0
291
     1
 45
0.0
1001
ACAD
1000
AcDbSavedByObjectVersion
1070
     0
1000
AcDbSavedByObjectVersion
1070
     0
1001
ACAD
1000
AcRTDxfName
1000
VISUALSTYLE
  0
VISUALSTYLE
  5
1BB
102
{ACAD_REACTORS
330
17A
102
}
330
17A
100
AcDbVisualStyle
  2
GouraudWithEdges
 70
     3
 71
     2
 72
     2
 73
     1
 90
        2
 40
-0.6
 41
30.0
 62
     5
 63
     7
 74
     1
 91
        4
 64
     7
 65
   257
 75
     1
175
     1
 42
1.0
 92
        0
 66
   257
 43
1.0
 76
     1
 77
     6
 78
     2
 67
     7
 79
     5
170
     0
171
     0
290
     0
174
     0
 93
       13
 44
0.0
173
     0
291
     1
 45
0.0
1001
ACAD
1000
AcDbSavedByObjectVersion
1070
     0
1000
AcDbSavedByObjectVersion
1070
     0
1001
ACAD
1000
AcRTDxfName
1000
VISUALSTYLE
  0
VISUALSTYLE
  5
1C2
102
{ACAD_REACTORS
330
17A
102
}
330
17A
100
AcDbVisualStyle
  2
Linepattern
 70
    14
 71
     2
 72
     2
 73
     0
 90
        0
 40
-0.6
 41
-30.0
 62
     5
 63
     7
 74
     1
 91
        4
 64
     7
 65
   257
 75
     7
175
     7
 42
1.0
 92
        8
 66
     7
 43
1.0
 76
     1
 77
     6
 78
     2
 67
     7
 79
     5
170
     0
171
     0
290
     0
174
     0
 93
        1
 44
0.0
173
     0
291
     1
 45
0.0
1001
ACAD
1000
AcDbSavedByObjectVersion
1070
     0
1000
AcDbSavedByObjectVersion
1070
     0
1001
ACAD
1000
AcRTDxfName
1000
VISUALSTYLE
  0
VISUALSTYLE
  5
188
102
{ACAD_REACTORS
330
17A
102
}
330
17A
100
AcDbVisualStyle
  2
Realistic
 70
     8
 71
     2
 72
     2
 73
     0
 90
        0
 40
-0.6
 41
-30.0
 62
     5
 63
     7
 74
     1
 91
        0
 64
     7
 65
   257
 75
     1
175
     1
 42
1.0
 92
        8
 66
     8
 43
1.0
 76
     1
 77
     6
 78
     2
 67
     7
 79
     5
170
     0
171
     0
290
     0
174
     0
 93
       13
 44
0.0
173
     0
291
     0
 45
0.0
1001
ACAD
1000
AcDbSavedByObjectVersion
1070
     0
1000
AcDbSavedByObjectVersion
1070
     0
1000
AcDbSavedByObjectVersion
1070
     0
1001
ACAD
1000
AcRTDxfName
1000
VISUALSTYLE
  0
VISUALSTYLE
  5
1C1
102
{ACAD_REACTORS
330
17A
102
}
330
17A
100
AcDbVisualStyle
  2
Thicken
 70
    13
 71
     2
 72
     2
 73
     0
 90
        0
 40
-0.6
 41
-30.0
 62
     5
 63
     7
 74
     1
 91
        4
 64
     7
 65
   257
 75
     1
175
     1
 42
1.0
 92
       12
 66
     7
 43
1.0
 76
     1
 77
     6
 78
     2
 67
     7
 79
     5
170
     0
171
     0
290
     0
174
     0
 93
        1
 44
0.0
173
     0
291
     1
 45
0.0
1001
ACAD
1000
AcDbSavedByObjectVersion
1070
     0
1000
AcDbSavedByObjectVersion
1070
     0
1001
ACAD
1000
AcRTDxfName
1000
VISUALSTYLE
  0
DICTIONARYVAR
  5
18C
102
{ACAD_REACTORS
330
18B
102
}
330
18B
100
DictionaryVariables
280
     0
  1
STANDARD
  0
DICTIONARYVAR
  5
190
102
{ACAD_REACTORS
330
18B
102
}
330
18B
100
DictionaryVariables
280
     0
  1
2
  0
DICTIONARYVAR
  5
18F
102
{ACAD_REACTORS
330
18B
102
}
330
18B
100
DictionaryVariables
280
     0
  1
1
  0
DICTIONARYVAR
  5
18E
102
{ACAD_REACTORS
330
18B
102
}
330
18B
100
DictionaryVariables
280
     0
  1
0
  0
DICTIONARYVAR
  5
2F9
102
{ACAD_REACTORS
330
18B
102
}
330
18B
100
DictionaryVariables
280
     0
  1

  0
DICTIONARYVAR
  5
18D
102
{ACAD_REACTORS
330
18B
102
}
330
18B
100
DictionaryVariables
280
     0
  1
127
  0
DICTIONARY
  5
2369
330
168
100
AcDbDictionary
280
     1
281
     1
  3
ACAD_XREC_ROUNDTRIP
360
236A
  0
DICTIONARY
  5
236B
330
16C
100
AcDbDictionary
280
     1
281
     1
  3
ACAD_XREC_ROUNDTRIP
360
236C
  0
DICTIONARY
  5
2367
330
163
100
AcDbDictionary
280
     1
281
     1
  3
ACAD_XREC_ROUNDTRIP
360
2368
  0
DICTIONARY
  5
1B0
330
183
100
AcDbDictionary
280
     1
281
     1
  3
ACAD_XREC_ROUNDTRIP
360
1B1
  0
DICTIONARY
  5
1AE
330
182
100
AcDbDictionary
280
     1
281
     1
  3
ACAD_XREC_ROUNDTRIP
360
1AF
  0
DICTIONARY
  5
193
330
A
100
AcDbDictionary
280
     1
281
     1
  3
ACAD_XREC_ROUNDTRIP
360
194
  0
DICTIONARY
  5
21A
330
187
100
AcDbDictionary
280
     1
281
     1
  3
ACAD_XREC_ROUNDTRIP
360
21B
  0
XRECORD
  5
236A
102
{ACAD_REACTORS
330
2369
102
}
330
2369
100
AcDbXrecord
280
     1
102
SHADEPLOT
 70
     0
102
SHADEPLOTRESLEVEL
 70
     2
102
SHADEPLOTCUSTOMDPI
 70
   300
  0
XRECORD
  5
236C
102
{ACAD_REACTORS
330
236B
102
}
330
236B
100
AcDbXrecord
280
     1
102
SHADEPLOT
 70
     0
102
SHADEPLOTRESLEVEL
 70
     2
102
SHADEPLOTCUSTOMDPI
 70
   300
  0
XRECORD
  5
2368
102
{ACAD_REACTORS
330
2367
102
}
330
2367
100
AcDbXrecord
280
     1
102
SHADEPLOT
 70
     0
102
SHADEPLOTRESLEVEL
 70
     2
102
SHADEPLOTCUSTOMDPI
 70
   300
  0
XRECORD
  5
1B1
102
{ACAD_REACTORS
330
1B0
102
}
330
1B0
100
AcDbXrecord
280
     1
102
MATERIAL
148
0.0
149
0.0
149
0.0
 93
        0
 94
       63
282
     0
 72
     1
 77
     1
171
     1
175
     1
179
     1
273
     0
  0
XRECORD
  5
1AF
102
{ACAD_REACTORS
330
1AE
102
}
330
1AE
100
AcDbXrecord
280
     1
102
MATERIAL
148
0.0
149
0.0
149
0.0
 93
        0
 94
       63
282
     0
 72
     1
 77
     1
171
     1
175
     1
179
     1
273
     0
  0
XRECORD
  5
194
102
{ACAD_REACTORS
330
193
102
}
330
193
100
AcDbXrecord
280
     1
102
MATERIAL
148
0.0
149
0.0
149
0.0
 93
        0
 94
       63
282
     0
 72
     1
 77
     1
171
     1
175
     1
179
     1
273
     0
  0
XRECORD
  5
21B
102
{ACAD_REACTORS
330
21A
102
}
330
21A
100
AcDbXrecord
280
     1
102
ACAD_ROUNDTRIP_PRE2007_TABLESTYLE
 90
        4
 91
        0
  1

 92
        4
 93
        0
  2

 94
        4
 95
        0
  3

  0
ENDSEC
  0
EOF
