  0
SECTION
  2
HEADER
  9
$ACADVER
  1
AC1015
  9
$ACADMAINTVER
 70
    20
  9
$DWGCODEPAGE
  3
ANSI_1252
  9
$INSBASE
 10
0.0
 20
0.0
 30
0.0
  9
$EXTMIN
 10
0.0149999999999999
 20
0.015
 30
0.0
  9
$EXTMAX
 10
0.9872120565633446
 20
0.5432017721386944
 30
0.0
  9
$LIMMIN
 10
0.0
 20
0.0
  9
$LIMMAX
 10
1.0
 20
0.5
  9
$ORTHOMODE
 70
     0
  9
$REGENMODE
 70
     1
  9
$FILLMODE
 70
     1
  9
$QTEXTMODE
 70
     0
  9
$MIRRTEXT
 70
     0
  9
$LTSCALE
 40
1.0
  9
$ATTMODE
 70
     1
  9
$TEXTSIZE
 40
0.008
  9
$TRACEWID
 40
1.0
  9
$TEXTSTYLE
  7
style1
  9
$CLAYER
  8
Text
  9
$CELTYPE
  6
ACAD_ISO10W100
  9
$CECOLOR
 62
   256
  9
$CELTSCALE
 40
1.0
  9
$DISPSILH
 70
     0
  9
$DIMSCALE
 40
0.001
  9
$DIMASZ
 40
1.5
  9
$DIMEXO
 40
0.0625
  9
$DIMDLI
 40
0.38
  9
$DIMRND
 40
0.0
  9
$DIMDLE
 40
0.0
  9
$DIMEXE
 40
0.18
  9
$DIMTP
 40
0.0
  9
$DIMTM
 40
0.0
  9
$DIMTXT
 40
3.0
  9
$DIMCEN
 40
0.0
  9
$DIMTSZ
 40
0.0
  9
$DIMTOL
 70
     0
  9
$DIMLIM
 70
     0
  9
$DIMTIH
 70
     1
  9
$DIMTOH
 70
     1
  9
$DIMSE1
 70
     0
  9
$DIMSE2
 70
     0
  9
$DIMTAD
 70
     0
  9
$DIMZIN
 70
     0
  9
$DIMBLK
  1
ArchTick
  9
$DIMASO
 70
     1
  9
$DIMSHO
 70
     1
  9
$DIMPOST
  1

  9
$DIMAPOST
  1

  9
$DIMALT
 70
     0
  9
$DIMALTD
 70
     2
  9
$DIMALTF
 40
25.4
  9
$DIMLFAC
 40
1.0
  9
$DIMTOFL
 70
     0
  9
$DIMTVP
 40
0.0
  9
$DIMTIX
 70
     0
  9
$DIMSOXD
 70
     0
  9
$DIMSAH
 70
     0
  9
$DIMBLK1
  1

  9
$DIMBLK2
  1

  9
$DIMSTYLE
  2
Bovelacci
  9
$DIMCLRD
 70
     5
  9
$DIMCLRE
 70
     5
  9
$DIMCLRT
 70
     4
  9
$DIMTFAC
 40
1.0
  9
$DIMGAP
 40
2.0
  9
$DIMJUST
 70
     0
  9
$DIMSD1
 70
     0
  9
$DIMSD2
 70
     0
  9
$DIMTOLJ
 70
     1
  9
$DIMTZIN
 70
     0
  9
$DIMALTZ
 70
     0
  9
$DIMALTTZ
 70
     0
  9
$DIMUPT
 70
     0
  9
$DIMDEC
 70
     2
  9
$DIMTDEC
 70
     2
  9
$DIMALTU
 70
     2
  9
$DIMALTTD
 70
     2
  9
$DIMTXSTY
  7
ROMANS
  9
$DIMAUNIT
 70
     0
  9
$DIMADEC
 70
     0
  9
$DIMALTRND
 40
0.0
  9
$DIMAZIN
 70
     0
  9
$DIMDSEP
 70
    46
  9
$DIMATFIT
 70
     3
  9
$DIMFRAC
 70
     0
  9
$DIMLDRBLK
  1

  9
$DIMLUNIT
 70
     2
  9
$DIMLWD
 70
    -2
  9
$DIMLWE
 70
    -2
  9
$DIMTMOVE
 70
     2
  9
$LUNITS
 70
     2
  9
$LUPREC
 70
     2
  9
$SKETCHINC
 40
1.0
  9
$FILLETRAD
 40
0.0
  9
$AUNITS
 70
     0
  9
$AUPREC
 70
     0
  9
$MENU
  1
.
  9
$ELEVATION
 40
0.0
  9
$PELEVATION
 40
0.0
  9
$THICKNESS
 40
0.0
  9
$LIMCHECK
 70
     0
  9
$CHAMFERA
 40
0.0
  9
$CHAMFERB
 40
0.0
  9
$CHAMFERC
 40
0.0
  9
$CHAMFERD
 40
0.0
  9
$SKPOLY
 70
     0
  9
$TDCREATE
 40
2454297.625402373
  9
$TDUCREATE
 40
2454297.542069039
  9
$TDUPDATE
 40
2454311.726014537
  9
$TDUUPDATE
 40
2454311.642681204
  9
$TDINDWG
 40
0.1816717361
  9
$TDUSRTIMER
 40
0.1816697338
  9
$USRTIMER
 70
     1
  9
$ANGBASE
 50
0.0
  9
$ANGDIR
 70
     0
  9
$PDMODE
 70
     0
  9
$PDSIZE
 40
0.0
  9
$PLINEWID
 40
0.0
  9
$SPLFRAME
 70
     0
  9
$SPLINETYPE
 70
     6
  9
$SPLINESEGS
 70
     8
  9
$HANDSEED
  5
2107
  9
$SURFTAB1
 70
     6
  9
$SURFTAB2
 70
     6
  9
$SURFTYPE
 70
     6
  9
$SURFU
 70
     6
  9
$SURFV
 70
     6
  9
$UCSBASE
  2

  9
$UCSNAME
  2

  9
$UCSORG
 10
0.0
 20
0.0
 30
0.0
  9
$UCSXDIR
 10
1.0
 20
0.0
 30
0.0
  9
$UCSYDIR
 10
0.0
 20
1.0
 30
0.0
  9
$UCSORTHOREF
  2

  9
$UCSORTHOVIEW
 70
     0
  9
$UCSORGTOP
 10
0.0
 20
0.0
 30
0.0
  9
$UCSORGBOTTOM
 10
0.0
 20
0.0
 30
0.0
  9
$UCSORGLEFT
 10
0.0
 20
0.0
 30
0.0
  9
$UCSORGRIGHT
 10
0.0
 20
0.0
 30
0.0
  9
$UCSORGFRONT
 10
0.0
 20
0.0
 30
0.0
  9
$UCSORGBACK
 10
0.0
 20
0.0
 30
0.0
  9
$PUCSBASE
  2

  9
$PUCSNAME
  2

  9
$PUCSORG
 10
0.0
 20
0.0
 30
0.0
  9
$PUCSXDIR
 10
1.0
 20
0.0
 30
0.0
  9
$PUCSYDIR
 10
0.0
 20
1.0
 30
0.0
  9
$PUCSORTHOREF
  2

  9
$PUCSORTHOVIEW
 70
     0
  9
$PUCSORGTOP
 10
0.0
 20
0.0
 30
0.0
  9
$PUCSORGBOTTOM
 10
0.0
 20
0.0
 30
0.0
  9
$PUCSORGLEFT
 10
0.0
 20
0.0
 30
0.0
  9
$PUCSORGRIGHT
 10
0.0
 20
0.0
 30
0.0
  9
$PUCSORGFRONT
 10
0.0
 20
0.0
 30
0.0
  9
$PUCSORGBACK
 10
0.0
 20
0.0
 30
0.0
  9
$USERI1
 70
     0
  9
$USERI2
 70
     0
  9
$USERI3
 70
     0
  9
$USERI4
 70
     0
  9
$USERI5
 70
     0
  9
$USERR1
 40
0.0
  9
$USERR2
 40
0.0
  9
$USERR3
 40
0.0
  9
$USERR4
 40
0.0
  9
$USERR5
 40
0.0
  9
$WORLDVIEW
 70
     1
  9
$SHADEDGE
 70
     3
  9
$SHADEDIF
 70
    70
  9
$TILEMODE
 70
     1
  9
$MAXACTVP
 70
    64
  9
$PINSBASE
 10
0.0
 20
0.0
 30
0.0
  9
$PLIMCHECK
 70
     0
  9
$PEXTMIN
 10
1.000000000000000E+20
 20
1.000000000000000E+20
 30
1.000000000000000E+20
  9
$PEXTMAX
 10
-1.000000000000000E+20
 20
-1.000000000000000E+20
 30
-1.000000000000000E+20
  9
$PLIMMIN
 10
0.0
 20
0.0
  9
$PLIMMAX
 10
420.0
 20
297.0
  9
$UNITMODE
 70
     0
  9
$VISRETAIN
 70
     1
  9
$PLINEGEN
 70
     0
  9
$PSLTSCALE
 70
     1
  9
$TREEDEPTH
 70
  3020
  9
$CMLSTYLE
  2
Standard
  9
$CMLJUST
 70
     0
  9
$CMLSCALE
 40
20.0
  9
$PROXYGRAPHICS
 70
     1
  9
$MEASUREMENT
 70
     1
  9
$CELWEIGHT
370
    -1
  9
$ENDCAPS
280
     0
  9
$JOINSTYLE
280
     0
  9
$LWDISPLAY
290
     0
  9
$INSUNITS
 70
     4
  9
$HYPERLINKBASE
  1

  9
$STYLESHEET
  1

  9
$XEDIT
290
     1
  9
$CEPSNTYPE
380
     0
  9
$PSTYLEMODE
290
     1
  9
$FINGERPRINTGUID
  2
{904A8C64-524F-4709-A9C6-320D2C273A6D}
  9
$VERSIONGUID
  2
{4205C7E6-1FBD-43E0-8A34-0D7C4825E02F}
  9
$EXTNAMES
290
     1
  9
$PSVPSCALE
 40
0.0
  9
$OLESTARTUP
290
     0
  0
ENDSEC
  0
SECTION
  2
CLASSES
  0
CLASS
  1
ACDBDICTIONARYWDFLT
  2
AcDbDictionaryWithDefault
  3
ObjectDBX Classes
 90
        0
280
     0
281
     0
  0
CLASS
  1
TABLESTYLE
  2
AcDbTableStyle
  3
ObjectDBX Classes
 90
     2047
280
     0
281
     0
  0
CLASS
  1
SORTENTSTABLE
  2
AcDbSortentsTable
  3
ObjectDBX Classes
 90
        0
280
     0
281
     0
  0
CLASS
  1
DICTIONARYVAR
  2
AcDbDictionaryVar
  3
ObjectDBX Classes
 90
        0
280
     0
281
     0
  0
CLASS
  1
ACDBPLACEHOLDER
  2
AcDbPlaceHolder
  3
ObjectDBX Classes
 90
        0
280
     0
281
     0
  0
CLASS
  1
LAYOUT
  2
AcDbLayout
  3
ObjectDBX Classes
 90
        0
280
     0
281
     0
  0
CLASS
  1
DIMASSOC
  2
AcDbDimAssoc
  3
"AcDbDimAssoc|Product Desc:     AcDim ARX App For Dimension|Company:          Autodesk, Inc.|WEB Address:      www.autodesk.com"
 90
        0
280
     0
281
     0
  0
CLASS
  1
MATERIAL
  2
AcDbMaterial
  3
ObjectDBX Classes
 90
        0
280
     0
281
     0
  0
CLASS
  1
VISUALSTYLE
  2
AcDbVisualStyle
  3
ObjectDBX Classes
 90
     4095
280
     0
281
     0
  0
ENDSEC
  0
SECTION
  2
TABLES
  0
TABLE
  2
VPORT
  5
177
330
0
100
AcDbSymbolTable
 70
     4
  0
VPORT
  5
20FC
330
177
100
AcDbSymbolTableRecord
100
AcDbViewportTableRecord
  2
*Active
 70
     0
 10
0.0
 20
0.0
 11
1.0
 21
1.0
 12
0.2101713201934647
 22
0.1487658234016279
 13
0.0
 23
0.0
 14
10.0
 24
10.0
 15
10.0
 25
10.0
 16
0.0
 26
0.0
 36
1.0
 17
0.0
 27
0.0
 37
0.0
 40
0.2777841261359571
 41
1.546526867627784
 42
50.0
 43
0.0
 44
0.0
 50
0.0
 51
0.0
 71
     0
 72
  1000
 73
     1
 74
     3
 75
     0
 76
     0
 77
     0
 78
     0
281
     0
 65
     1
110
0.0
120
0.0
130
0.0
111
1.0
121
0.0
131
0.0
112
0.0
122
1.0
132
0.0
 79
     0
146
0.0
  0
ENDTAB
  0
TABLE
  2
LTYPE
  5
172
330
0
100
AcDbSymbolTable
 70
     2
  0
LTYPE
  5
173
330
172
100
AcDbSymbolTableRecord
100
AcDbLinetypeTableRecord
  2
ByBlock
 70
     0
  3

 72
    65
 73
     0
 40
0.0
  0
LTYPE
  5
174
330
172
100
AcDbSymbolTableRecord
100
AcDbLinetypeTableRecord
  2
ByLayer
 70
     0
  3

 72
    65
 73
     0
 40
0.0
  0
LTYPE
  5
C
330
172
100
AcDbSymbolTableRecord
100
AcDbLinetypeTableRecord
  2
Continuous
 70
     0
  3
Solid line
 72
    65
 73
     0
 40
0.0
  0
LTYPE
  5
14E
330
172
100
AcDbSymbolTableRecord
100
AcDbLinetypeTableRecord
  2
ACAD_ISO10W100
 70
     0
  3
ISO dash dot __ . __ . __ . __ . __ . __ . __ .
 72
    65
 73
     4
 40
18.0
 49
12.0
 74
     0
 49
-3.0
 74
     0
 49
0.0
 74
     0
 49
-3.0
 74
     0
  0
ENDTAB
  0
TABLE
  2
LAYER
  5
16D
102
{ACAD_XDICTIONARY
360
16E
102
}
330
0
100
AcDbSymbolTable
 70
     8
  0
LAYER
  5
6
330
16D
100
AcDbSymbolTableRecord
100
AcDbLayerTableRecord
  2
0
 70
     0
 62
     7
  6
Continuous
370
    -3
390
7
  0
LAYER
  5
15F
330
16D
100
AcDbSymbolTableRecord
100
AcDbLayerTableRecord
  2
Defpoints
 70
     0
 62
     7
  6
Continuous
290
     0
370
    -3
390
7
  0
LAYER
  5
28
330
16D
100
AcDbSymbolTableRecord
100
AcDbLayerTableRecord
  2
Profilo
 70
     0
 62
     1
  6
Continuous
370
    -3
390
7
1001
AcAecLayerStandard
1000

1000

  0
LAYER
  5
14D
330
16D
100
AcDbSymbolTableRecord
100
AcDbLayerTableRecord
  2
Sezione
 70
     0
 62
     2
  6
Continuous
370
    -3
390
7
1001
AcAecLayerStandard
1000

1000

  0
LAYER
  5
E
330
16D
100
AcDbSymbolTableRecord
100
AcDbLayerTableRecord
  2
Table
 70
     0
 62
     3
  6
Continuous
370
    -3
390
7
1001
AcAecLayerStandard
1000

1000

  0
LAYER
  5
19
330
16D
100
AcDbSymbolTableRecord
100
AcDbLayerTableRecord
  2
Text
 70
     0
 62
     4
  6
Continuous
370
    -3
390
7
1001
AcAecLayerStandard
1000

1000

  0
LAYER
  5
23D
330
16D
100
AcDbSymbolTableRecord
100
AcDbLayerTableRecord
  2
Bovelacci
 70
     0
 62
     9
  6
Continuous
370
    -3
390
7
1001
AcAecLayerStandard
1000

1000

  0
LAYER
  5
1826
330
16D
100
AcDbSymbolTableRecord
100
AcDbLayerTableRecord
  2
Layer1
 70
     0
 62
     7
  6
Continuous
370
    -3
390
7
1001
AcAecLayerStandard
1000

1000

  0
ENDTAB
  0
TABLE
  2
STYLE
  5
170
330
0
100
AcDbSymbolTable
 70
     3
  0
STYLE
  5
1A
330
170
100
AcDbSymbolTableRecord
100
AcDbTextStyleTableRecord
  2
Standard
 70
     0
 40
0.0
 41
1.0
 50
0.0
 71
     0
 42
2.5
  3
txt
  4

  0
STYLE
  5
20
330
170
100
AcDbSymbolTableRecord
100
AcDbTextStyleTableRecord
  2
ROMANS
 70
     0
 40
0.0
 41
1.0
 50
0.0
 71
     0
 42
2.5
  3
romans
  4

  0
STYLE
  5
26
330
170
100
AcDbSymbolTableRecord
100
AcDbTextStyleTableRecord
  2
style1
 70
     0
 40
0.0
 41
1.0
 50
0.0
 71
     0
 42
0.008
  3
TIMES.TTF
  4

1001
ACAD
1000
Times New Roman
1071
       18
  0
ENDTAB
  0
TABLE
  2
VIEW
  5
175
330
0
100
AcDbSymbolTable
 70
     1
  0
ENDTAB
  0
TABLE
  2
UCS
  5
176
330
0
100
AcDbSymbolTable
 70
     0
  0
ENDTAB
  0
TABLE
  2
APPID
  5
17B
330
0
100
AcDbSymbolTable
 70
    10
  0
APPID
  5
1B
330
17B
100
AcDbSymbolTableRecord
100
AcDbRegAppTableRecord
  2
ACAD
 70
     0
  0
APPID
  5
157
330
17B
100
AcDbSymbolTableRecord
100
AcDbRegAppTableRecord
  2
ACAD_DSTYLE_DIMJOGGED_JOGANGLE_SYMBOL
 70
     0
  0
APPID
  5
F
330
17B
100
AcDbSymbolTableRecord
100
AcDbRegAppTableRecord
  2
AcAecLayerStandard
 70
     0
  0
APPID
  5
19C
330
17B
100
AcDbSymbolTableRecord
100
AcDbRegAppTableRecord
  2
ACAD_DSTYLE_DIMFLIPARROW_WHICH_SYMBOL
 70
     0
  0
APPID
  5
1A7
330
17B
100
AcDbSymbolTableRecord
100
AcDbRegAppTableRecord
  2
ACAD_DSTYLE_DIMEXT_LENGTH
 70
     0
  0
APPID
  5
1D2
330
17B
100
AcDbSymbolTableRecord
100
AcDbRegAppTableRecord
  2
ACAD_EXEMPT_FROM_CAD_STANDARDS
 70
     0
  0
APPID
  5
1D3
330
17B
100
AcDbSymbolTableRecord
100
AcDbRegAppTableRecord
  2
ACAD_DSTYLE_DIM_LINETYPE
 70
     0
  0
APPID
  5
1D4
330
17B
100
AcDbSymbolTableRecord
100
AcDbRegAppTableRecord
  2
ACAD_DSTYLE_DIM_EXT1_LINETYPE
 70
     0
  0
APPID
  5
1D5
330
17B
100
AcDbSymbolTableRecord
100
AcDbRegAppTableRecord
  2
ACAD_DSTYLE_DIM_EXT2_LINETYPE
 70
     0
  0
APPID
  5
243
330
17B
100
AcDbSymbolTableRecord
100
AcDbRegAppTableRecord
  2
ACAD_PSEXT
 70
     0
  0
ENDTAB
  0
TABLE
  2
DIMSTYLE
  5
17C
330
0
100
AcDbSymbolTable
 70
     7
100
AcDbDimStyleTable
 71
     2
340
156
340
17D
  0
DIMSTYLE
105
17D
330
17C
100
AcDbSymbolTableRecord
100
AcDbDimStyleTableRecord
  2
ISO-25
 70
     0
 41
2.5
 42
0.625
 43
3.75
 44
1.25
 73
     0
 74
     0
 77
     1
 78
     8
140
2.5
141
2.5
143
0.03937007874016
147
0.625
171
     3
172
     1
271
     2
272
     2
274
     3
278
    44
283
     0
284
     8
340
1A
  0
DIMSTYLE
105
156
102
{ACAD_REACTORS
330
20DC
102
}
330
17C
100
AcDbSymbolTableRecord
100
AcDbDimStyleTableRecord
  2
Bovelacci
 70
     0
 40
0.001
 41
1.5
140
3.0
141
0.0
147
2.0
176
     5
177
     5
178
     4
271
     2
272
     2
279
     2
340
20
342
152
1001
ACAD_DSTYLE_DIMJOGGED_JOGANGLE_SYMBOL
1070
   384
1040
0.7853981633974483
1001
ACAD_DSTYLE_DIMEXT_LENGTH
1070
   378
1040
0.18
  0
DIMSTYLE
105
23E
330
17C
100
AcDbSymbolTableRecord
100
AcDbDimStyleTableRecord
  2
Dim 1-100
 70
     0
 40
0.1
 41
1.5
 42
0.0
 43
5.0
 44
1.25
 45
0.005
 46
1.25
 73
     0
 74
     0
 77
     1
 78
     9
140
2.0
141
2.5
147
1.0
172
     1
174
     1
179
     2
279
     2
289
     2
340
20
342
152
  0
DIMSTYLE
105
23F
330
17C
100
AcDbSymbolTableRecord
100
AcDbDimStyleTableRecord
  2
Standard
 70
     0
 42
0.0
 73
     0
 74
     0
 77
     1
271
     2
272
     2
340
20
  0
DIMSTYLE
105
240
330
17C
100
AcDbSymbolTableRecord
100
AcDbDimStyleTableRecord
  2
Dim 1-50
 70
     0
 40
0.05
 41
1.5
 42
0.0
 43
5.0
 44
1.25
 45
0.005
 46
1.25
 73
     0
 74
     0
 77
     1
 78
     9
140
2.0
141
2.5
147
1.0
172
     1
174
     1
179
     2
279
     2
289
     2
340
20
342
152
  0
DIMSTYLE
105
241
330
17C
100
AcDbSymbolTableRecord
100
AcDbDimStyleTableRecord
  2
Dim 1-200
 70
     0
 40
0.2
 41
1.5
 42
0.0
 43
5.0
 44
1.25
 45
0.005
 46
1.25
 73
     0
 74
     0
 77
     1
 78
     9
140
2.0
141
2.5
147
1.0
172
     1
174
     1
179
     2
271
     2
272
     2
279
     2
289
     2
340
20
342
152
  0
DIMSTYLE
105
242
330
17C
100
AcDbSymbolTableRecord
100
AcDbDimStyleTableRecord
  2
AEC Scale - Italiano
 70
     0
 41
1.0
 42
10.0
 43
10.0
 44
10.0
 73
     0
 74
     0
 75
     1
 76
     1
 77
     1
140
10.0
141
1.0
147
10.0
173
     1
271
     0
272
     0
279
     2
340
1A
343
238
344
232
  0
ENDTAB
  0
TABLE
  2
BLOCK_RECORD
  5
1
330
0
100
AcDbSymbolTable
 70
     8
  0
BLOCK_RECORD
  5
2
102
{ACAD_XDICTIONARY
360
3
102
}
330
1
100
AcDbSymbolTableRecord
100
AcDbBlockTableRecord
  2
*Model_Space
340
163
  0
BLOCK_RECORD
  5
165
330
1
100
AcDbSymbolTableRecord
100
AcDbBlockTableRecord
  2
*Paper_Space
340
168
  0
BLOCK_RECORD
  5
169
330
1
100
AcDbSymbolTableRecord
100
AcDbBlockTableRecord
  2
*Paper_Space0
340
16C
  0
BLOCK_RECORD
  5
152
330
1
100
AcDbSymbolTableRecord
100
AcDbBlockTableRecord
  2
_ArchTick
340
0
310
2800000020000000200000000100080000000000000400000000000000000000000000000000000000000000000080000080000000808000800000008000800080800000C0C0C000C0DCC000F0CAA6000020400000206000002080000020A0000020C0000020E00000400000004020000040400000406000004080000040A0
310
000040C0000040E00000600000006020000060400000606000006080000060A0000060C0000060E00000800000008020000080400000806000008080000080A0000080C0000080E00000A0000000A0200000A0400000A0600000A0800000A0A00000A0C00000A0E00000C0000000C0200000C0400000C0600000C0800000C0
310
A00000C0C00000C0E00000E0000000E0200000E0400000E0600000E0800000E0A00000E0C00000E0E00040000000400020004000400040006000400080004000A0004000C0004000E00040200000402020004020400040206000402080004020A0004020C0004020E000404000004040200040404000404060004040800040
310
40A0004040C0004040E00040600000406020004060400040606000406080004060A0004060C0004060E00040800000408020004080400040806000408080004080A0004080C0004080E00040A0000040A0200040A0400040A0600040A0800040A0A00040A0C00040A0E00040C0000040C0200040C0400040C0600040C08000
310
40C0A00040C0C00040C0E00040E0000040E0200040E0400040E0600040E0800040E0A00040E0C00040E0E00080000000800020008000400080006000800080008000A0008000C0008000E00080200000802020008020400080206000802080008020A0008020C0008020E00080400000804020008040400080406000804080
310
008040A0008040C0008040E00080600000806020008060400080606000806080008060A0008060C0008060E00080800000808020008080400080806000808080008080A0008080C0008080E00080A0000080A0200080A0400080A0600080A0800080A0A00080A0C00080A0E00080C0000080C0200080C0400080C0600080C0
310
800080C0A00080C0C00080C0E00080E0000080E0200080E0400080E0600080E0800080E0A00080E0C00080E0E000C0000000C0002000C0004000C0006000C0008000C000A000C000C000C000E000C0200000C0202000C0204000C0206000C0208000C020A000C020C000C020E000C0400000C0402000C0404000C0406000C0
310
408000C040A000C040C000C040E000C0600000C0602000C0604000C0606000C0608000C060A000C060C000C060E000C0800000C0802000C0804000C0806000C0808000C080A000C080C000C080E000C0A00000C0A02000C0A04000C0A06000C0A08000C0A0A000C0A0C000C0A0E000C0C00000C0C02000C0C04000C0C06000
310
C0C08000C0C0A000F0FBFF00A4A0A000808080000000FF0000FF000000FFFF00FF000000FF00FF00FFFF0000FFFFFF00000000FF000000000000000000000000000000000000000000000000000000000000FF00FF00000000000000000000000000000000000000000000000000000000FF000000FF000000000000000000
310
0000000000000000000000000000000000FF0000000000FF0000000000000000000000000000000000000000000000000000FF0000000000FF0000000000000000000000000000000000000000000000000000FF0000000000FF0000000000000000000000000000000000000000000000000000FF0000000000FF00000000
310
00000000000000000000000000000000000000000000FF0000000000FF0000000000000000000000000000000000000000000000000000FF0000000000FF0000000000000000000000000000000000000000000000000000FF0000000000FF0000000000000000000000000000000000000000000000000000FF0000000000
310
FF0000000000000000000000000000000000000000000000000000FF0000000000FF0000000000000000000000000000000000000000000000000000FF0000000000FF0000000000000000000000000000000000000000000000000000FF0000000000FF0000000000000000000000000000000000000000000000000000FF
310
0000000000FF0000000000000000000000000000000000000000000000000000FF0000000000FF0000000000000000000000000000000000000000000000000000FF0000000000FF0000000000000000000000000000000000000000000000000000FF0000000000FF00000000000000000000000000000000000000000000
310
00000000FF0000000000FF0000000000000000000000000000000000000000000000000000FF0000000000FF0000000000000000000000000000000000000000000000000000FF0000000000FF0000000000000000000000000000000000000000000000000000FF0000000000FF0000000000000000000000000000000000
310
000000000000000000FF0000000000FF0000000000000000000000000000000000000000000000000000FF0000000000FF0000000000000000000000000000000000000000000000000000FF0000000000FF0000000000000000000000000000000000000000000000000000FF0000000000FF000000000000000000000000
310
0000000000000000000000000000FF0000000000FF0000000000000000000000000000000000000000000000000000FF0000000000FF0000000000000000000000000000000000000000000000000000FF0000000000FF0000000000000000000000000000000000000000000000000000FF000000FF000000000000000000
310
00000000000000000000000000000000000000FF00FF000000000000000000000000000000000000000000000000000000000000FF000000
102
{BLKREFS
331
180C
331
1CC2
331
20F7
102
}
  0
BLOCK_RECORD
  5
232
330
1
100
AcDbSymbolTableRecord
100
AcDbBlockTableRecord
  2
_Arrivo
340
0
310
2800000020000000200000000100080000000000000400000000000000000000000000000000000000000000000080000080000000808000800000008000800080800000C0C0C000C0DCC000F0CAA6000020400000206000002080000020A0000020C0000020E00000400000004020000040400000406000004080000040A0
310
000040C0000040E00000600000006020000060400000606000006080000060A0000060C0000060E00000800000008020000080400000806000008080000080A0000080C0000080E00000A0000000A0200000A0400000A0600000A0800000A0A00000A0C00000A0E00000C0000000C0200000C0400000C0600000C0800000C0
310
A00000C0C00000C0E00000E0000000E0200000E0400000E0600000E0800000E0A00000E0C00000E0E00040000000400020004000400040006000400080004000A0004000C0004000E00040200000402020004020400040206000402080004020A0004020C0004020E000404000004040200040404000404060004040800040
310
40A0004040C0004040E00040600000406020004060400040606000406080004060A0004060C0004060E00040800000408020004080400040806000408080004080A0004080C0004080E00040A0000040A0200040A0400040A0600040A0800040A0A00040A0C00040A0E00040C0000040C0200040C0400040C0600040C08000
310
40C0A00040C0C00040C0E00040E0000040E0200040E0400040E0600040E0800040E0A00040E0C00040E0E00080000000800020008000400080006000800080008000A0008000C0008000E00080200000802020008020400080206000802080008020A0008020C0008020E00080400000804020008040400080406000804080
310
008040A0008040C0008040E00080600000806020008060400080606000806080008060A0008060C0008060E00080800000808020008080400080806000808080008080A0008080C0008080E00080A0000080A0200080A0400080A0600080A0800080A0A00080A0C00080A0E00080C0000080C0200080C0400080C0600080C0
310
800080C0A00080C0C00080C0E00080E0000080E0200080E0400080E0600080E0800080E0A00080E0C00080E0E000C0000000C0002000C0004000C0006000C0008000C000A000C000C000C000E000C0200000C0202000C0204000C0206000C0208000C020A000C020C000C020E000C0400000C0402000C0404000C0406000C0
310
408000C040A000C040C000C040E000C0600000C0602000C0604000C0606000C0608000C060A000C060C000C060E000C0800000C0802000C0804000C0806000C0808000C080A000C080C000C080E000C0A00000C0A02000C0A04000C0A06000C0A08000C0A0A000C0A0C000C0A0E000C0C00000C0C02000C0C04000C0C06000
310
C0C08000C0C0A000F0FBFF00A4A0A000808080000000FF0000FF000000FFFF00FF000000FF00FF00FFFF0000FFFFFF00000000000000000000000000000000000000000000000000000000000000000000000000000000000000FF0000000000000000000000000000000000000000000000000000000000000000FF000000
310
00000000000000000000000000000000000000000000000000000000FF0000000000000000000000000000000000000000000000000000000000000000FF00000000000000000000000000000000000000000000000000000000000000FF0000000000000000000000000000000000000000000000000000000000000000FF
310
0000000000000000000000000000000000000000000000000000000000000000FF00000000000000000000000000000000000000000000000000000000000000FF0000000000000000000000000000000000000000000000000000000000000000FF0000000000000000000000000000000000000000000000000000000000
310
0000FF0000000000000000000000000000000000000000000000000000000000000000FF00000000000000000000000000000000000000000000000000000000000000FF0000000000000000000000000000000000000000000000000000000000000000FF0000FF0000000000000000000000000000000000000000000000
310
000000000000FFFF000000000000000000000000000000000000000000000000000000000000FFFF00000000000000000000000000000000000000000000000000000000FFFFFFFFFFFF00000000000000000000000000000000000000000000000000000000FFFF0000000000000000000000000000000000000000000000
310
000000000000FF0000FF000000000000000000000000000000000000000000000000000000FF00000000000000000000000000000000000000000000000000000000000000FF000000000000000000000000000000000000000000000000000000000000FF0000000000000000000000000000000000000000000000000000
310
0000000000FF000000000000000000000000000000000000000000000000000000000000FF00000000000000000000000000000000000000000000000000000000000000FF000000000000000000000000000000000000000000000000000000000000FF000000000000000000000000000000000000000000000000000000
310
000000FF00000000000000000000000000000000000000000000000000000000000000FF000000000000000000000000000000000000000000000000000000000000FF00000000000000000000000000000000000000000000000000000000000000FF00000000000000000000000000000000000000000000000000000000
310
0000FF0000000000000000000000000000000000000000000000000000000000000000000000000000000000000000000000000000000000
  0
BLOCK_RECORD
  5
238
330
1
100
AcDbSymbolTableRecord
100
AcDbBlockTableRecord
  2
_Partenza
340
0
310
2800000020000000200000000100080000000000000400000000000000000000000000000000000000000000000080000080000000808000800000008000800080800000C0C0C000C0DCC000F0CAA6000020400000206000002080000020A0000020C0000020E00000400000004020000040400000406000004080000040A0
310
000040C0000040E00000600000006020000060400000606000006080000060A0000060C0000060E00000800000008020000080400000806000008080000080A0000080C0000080E00000A0000000A0200000A0400000A0600000A0800000A0A00000A0C00000A0E00000C0000000C0200000C0400000C0600000C0800000C0
310
A00000C0C00000C0E00000E0000000E0200000E0400000E0600000E0800000E0A00000E0C00000E0E00040000000400020004000400040006000400080004000A0004000C0004000E00040200000402020004020400040206000402080004020A0004020C0004020E000404000004040200040404000404060004040800040
310
40A0004040C0004040E00040600000406020004060400040606000406080004060A0004060C0004060E00040800000408020004080400040806000408080004080A0004080C0004080E00040A0000040A0200040A0400040A0600040A0800040A0A00040A0C00040A0E00040C0000040C0200040C0400040C0600040C08000
310
40C0A00040C0C00040C0E00040E0000040E0200040E0400040E0600040E0800040E0A00040E0C00040E0E00080000000800020008000400080006000800080008000A0008000C0008000E00080200000802020008020400080206000802080008020A0008020C0008020E00080400000804020008040400080406000804080
310
008040A0008040C0008040E00080600000806020008060400080606000806080008060A0008060C0008060E00080800000808020008080400080806000808080008080A0008080C0008080E00080A0000080A0200080A0400080A0600080A0800080A0A00080A0C00080A0E00080C0000080C0200080C0400080C0600080C0
310
800080C0A00080C0C00080C0E00080E0000080E0200080E0400080E0600080E0800080E0A00080E0C00080E0E000C0000000C0002000C0004000C0006000C0008000C000A000C000C000C000E000C0200000C0202000C0204000C0206000C0208000C020A000C020C000C020E000C0400000C0402000C0404000C0406000C0
310
408000C040A000C040C000C040E000C0600000C0602000C0604000C0606000C0608000C060A000C060C000C060E000C0800000C0802000C0804000C0806000C0808000C080A000C080C000C080E000C0A00000C0A02000C0A04000C0A06000C0A08000C0A0A000C0A0C000C0A0E000C0C00000C0C02000C0C04000C0C06000
310
C0C08000C0C0A000F0FBFF00A4A0A000808080000000FF0000FF000000FFFF00FF000000FF00FF00FFFF0000FFFFFF0000000000000000000000000000000000000000000000000000000000000000000000000000000000000000000000000000000000000000000000000000000000000000000000000000000000000000
310
000000000000000000000000000000000000000000000000000000000000000000000000000000000000000000000000000000000000000000000000000000000000000000000000000000000000000000000000000000000000000000000000000000000000000000000000000000000000FFFFFFFFFFFFFFFFFFFFFFFFFF
310
FFFFFFFFFFFFFFFFFFFFFFFFFFFFFFFFFF0000000000000000000000000000000000000000000000000000000000000000000000000000000000000000000000000000000000000000000000000000000000000000000000000000000000000000000000000000000000000000000000000000000000000000000000000000
310
00000000000000000000000000000000000000000000000000000000000000000000000000000000000000000000000000000000000000000000000000000000000000000000000000000000000000000000000000000000000000000000000000000000000000000000000000000000000000000000000000000000000000
310
00000000000000000000000000000000000000000000000000000000000000000000000000000000000000000000000000000000000000000000000000000000000000000000000000000000000000000000000000000000000000000000000000000000000000000000000000000000000000000000000000000000000000
310
00000000000000000000000000000000000000000000000000000000000000000000000000000000000000000000000000000000000000000000000000000000000000000000000000000000000000000000000000000000000000000000000000000000000000000000000000000000000000000000000000000000000000
310
000000000000000000000000000000000000000000000000000000000000000000000000000000000000000000000000000000000000000000000000000000000000000000000000000000000000000000000000000000FFFFFFFFFFFFFFFFFFFFFFFFFFFFFFFFFFFFFFFFFFFFFFFFFFFFFFFFFFFF00000000000000000000
310
00000000000000000000000000000000000000000000000000000000000000000000000000000000000000000000000000000000000000000000000000000000000000000000000000000000000000000000000000000000000000000000000000000000000000000000000000000000000000000000000000000000000000
310
0000000000000000000000000000000000000000000000000000000000000000000000000000000000000000000000000000000000000000
  0
BLOCK_RECORD
  5
1CA8
330
1
100
AcDbSymbolTableRecord
100
AcDbBlockTableRecord
  2
*D5
340
0
  0
BLOCK_RECORD
  5
20DD
330
1
100
AcDbSymbolTableRecord
100
AcDbBlockTableRecord
  2
*D7
340
0
  0
ENDTAB
  0
ENDSEC
  0
SECTION
  2
BLOCKS
  0
BLOCK
  5
5
330
2
100
AcDbEntity
  8
0
100
AcDbBlockBegin
  2
*Model_Space
 70
     0
 10
0.0
 20
0.0
 30
0.0
  3
*Model_Space
  1

  0
ENDBLK
  5
162
330
2
100
AcDbEntity
  8
0
100
AcDbBlockEnd
  0
BLOCK
  5
166
330
165
100
AcDbEntity
 67
     1
  8
0
100
AcDbBlockBegin
  2
*Paper_Space
 70
     0
 10
0.0
 20
0.0
 30
0.0
  3
*Paper_Space
  1

  0
ENDBLK
  5
167
330
165
100
AcDbEntity
 67
     1
  8
0
100
AcDbBlockEnd
  0
BLOCK
  5
16A
330
169
100
AcDbEntity
 67
     1
  8
0
100
AcDbBlockBegin
  2
*Paper_Space0
 70
     0
 10
0.0
 20
0.0
 30
0.0
  3
*Paper_Space0
  1

  0
ENDBLK
  5
16B
330
169
100
AcDbEntity
 67
     1
  8
0
100
AcDbBlockEnd
  0
BLOCK
  5
153
330
152
100
AcDbEntity
  8
0
 62
     1
100
AcDbBlockBegin
  2
_ArchTick
 70
     0
 10
0.0
 20
0.0
 30
0.0
  3
_ArchTick
  1

  0
LWPOLYLINE
  5
154
330
152
100
AcDbEntity
  8
0
  6
ByBlock
 62
     0
100
AcDbPolyline
 90
        2
 70
     0
 43
0.15
 10
-0.5
 20
-0.5
 10
0.5
 20
0.5
  0
ENDBLK
  5
155
330
152
100
AcDbEntity
  8
0
 62
     1
100
AcDbBlockEnd
  0
BLOCK
  5
233
330
232
100
AcDbEntity
  8
0
100
AcDbBlockBegin
  2
_Arrivo
 70
     0
 10
0.0
 20
0.0
 30
0.0
  3
_Arrivo
  1

  0
LINE
  5
234
330
232
100
AcDbEntity
  8
0
  6
ByBlock
 62
     0
370
    -2
100
AcDbLine
 10
0.025
 20
-0.0433012701891858
 30
0.0
 11
-0.15
 21
0.2598076211353328
 31
0.0
  0
LINE
  5
235
330
232
100
AcDbEntity
  8
0
  6
ByBlock
 62
     0
370
    -2
100
AcDbLine
 10
0.025
 20
0.0433012701892585
 30
0.0
 11
-0.15
 21
-0.2598076211353328
 31
0.0
  0
LINE
  5
236
330
232
100
AcDbEntity
  8
0
  6
ByBlock
 62
     0
370
    -2
100
AcDbLine
 10
-0.05
 20
0.0
 30
0.0
 11
0.05
 21
0.0
 31
0.0
  0
ENDBLK
  5
237
330
232
100
AcDbEntity
  8
0
100
AcDbBlockEnd
  0
BLOCK
  5
239
330
238
100
AcDbEntity
  8
0
100
AcDbBlockBegin
  2
_Partenza
 70
     0
 10
0.0
 20
0.0
 30
0.0
  3
_Partenza
  1

  0
LINE
  5
23A
330
238
100
AcDbEntity
  8
0
  6
ByBlock
 62
     0
370
    -2
100
AcDbLine
 10
-0.05
 20
0.05
 30
0.0
 11
0.1
 21
0.05
 31
0.0
  0
LINE
  5
23B
330
238
100
AcDbEntity
  8
0
  6
ByBlock
 62
     0
370
    -2
100
AcDbLine
 10
-0.05
 20
-0.05
 30
0.0
 11
0.1
 21
-0.05
 31
0.0
  0
ENDBLK
  5
23C
330
238
100
AcDbEntity
  8
0
100
AcDbBlockEnd
  0
BLOCK
  5
1CAF
330
1CA8
100
AcDbEntity
  8
0
100
AcDbBlockBegin
  2
*D5
 70
     1
 10
0.0
 20
0.0
 30
0.0
  3
*D5
  1

  0
LINE
  5
1CBF
330
1CA8
100
AcDbEntity
  8
Text
  6
ACAD_ISO10W100
 62
     5
370
    -2
100
AcDbLine
 10
0.2691906163671416
 20
0.2054122756710057
 30
0.0
 11
0.2676906163671416
 21
0.2054122756710057
 31
0.0
  0
LINE
  5
1CC0
330
1CA8
100
AcDbEntity
  8
Text
  6
ACAD_ISO10W100
 62
     5
370
    -2
100
AcDbLine
 10
0.2676906163671416
 20
0.2054122756710057
 30
0.0
 11
0.2653415959966366
 21
0.2035462362022504
 31
0.0
  0
MTEXT
  5
1CC1
330
1CA8
100
AcDbEntity
  8
Text
  6
ACAD_ISO10W100
 62
     4
100
AcDbMText
 10
0.283619187795713
 20
0.2054122756710057
 30
0.0
 40
0.003
 41
0.0
 71
     5
 72
     1
  1
\A1;d 575 mm
  7
ROMANS
 73
     1
 44
1.0
1001
ACAD
1000
MTEXTBEGIN
1070
    73
1070
     1
1070
    44
1040
1.0
1070
    74
1070
     0
1000
MTEXTEND
  0
INSERT
  5
1CC2
330
1CA8
100
AcDbEntity
  8
Text
  6
ACAD_ISO10W100
 62
     5
370
    -2
100
AcDbBlockReference
  2
_ArchTick
 10
0.2653415959966366
 20
0.2035462362022504
 30
0.0
 41
0.0015
 42
0.0015
 43
0.0015
 50
218.4632953061788
  0
POINT
  5
1CC3
330
1CA8
100
AcDbEntity
  8
Defpoints
  6
ACAD_ISO10W100
 62
     0
100
AcDbPoint
 10
0.2653415959966366
 20
0.2035462362022504
 30
0.0
  0
POINT
  5
1CC4
330
1CA8
100
AcDbEntity
  8
Defpoints
  6
ACAD_ISO10W100
 62
     0
100
AcDbPoint
 10
0.152784369909937
 20
0.1141318449910611
 30
0.0
  0
ENDBLK
  5
1CB0
330
1CA8
100
AcDbEntity
  8
0
100
AcDbBlockEnd
  0
BLOCK
  5
20E4
330
20DD
100
AcDbEntity
  8
0
100
AcDbBlockBegin
  2
*D7
 70
     1
 10
0.0
 20
0.0
 30
0.0
  3
*D7
  1

  0
LINE
  5
20F4
330
20DD
100
AcDbEntity
  8
Text
  6
ACAD_ISO10W100
 62
     5
370
    -2
100
AcDbLine
 10
0.2576625582371847
 20
0.19359400421819
 30
0.0
 11
0.2561625582371847
 21
0.19359400421819
 31
0.0
  0
LINE
  5
20F5
330
20DD
100
AcDbEntity
  8
Text
  6
ACAD_ISO10W100
 62
     5
370
    -2
100
AcDbLine
 10
0.2561625582371847
 20
0.19359400421819
 30
0.0
 11
0.2537669396148421
 21
0.1917881771455483
 31
0.0
  0
MTEXT
  5
20F6
330
20DD
100
AcDbEntity
  8
Text
  6
ACAD_ISO10W100
 62
     4
100
AcDbMText
 10
0.272091129665756
 20
0.19359400421819
 30
0.0
 40
0.003
 41
0.0
 71
     5
 72
     1
  1
\A1;d 460 mm
  7
ROMANS
 73
     1
 44
1.0
1001
ACAD
1000
MTEXTBEGIN
1070
    73
1070
     1
1070
    44
1040
1.0
1070
    74
1070
     0
1000
MTEXTEND
  0
INSERT
  5
20F7
330
20DD
100
AcDbEntity
  8
Text
  6
ACAD_ISO10W100
 62
     5
370
    -2
100
AcDbBlockReference
  2
_ArchTick
 10
0.2537669396148421
 20
0.1917881771455483
 30
0.0
 41
0.0015
 42
0.0015
 43
0.0015
 50
217.0091357843495
  0
POINT
  5
20F8
330
20DD
100
AcDbEntity
  8
Defpoints
  6
ACAD_ISO10W100
 62
     0
100
AcDbPoint
 10
0.2537669396148421
 20
0.1917881771455483
 30
0.0
  0
POINT
  5
20F9
330
20DD
100
AcDbEntity
  8
Defpoints
  6
ACAD_ISO10W100
 62
     0
100
AcDbPoint
 10
0.1619348924250465
 20
0.1225648060276147
 30
0.0
  0
ENDBLK
  5
20E5
330
20DD
100
AcDbEntity
  8
0
100
AcDbBlockEnd
  0
ENDSEC
  0
SECTION
  2
ENTITIES
  0
LINE
  5
D
330
2
100
AcDbEntity
  8
Table
100
AcDbLine
 10
0.02
 20
0.02
 30
0.0
 11
0.4
 21
0.02
 31
0.0
  0
LINE
  5
10
330
2
100
AcDbEntity
  8
Table
100
AcDbLine
 10
0.4
 20
0.02
 30
0.0
 11
0.4
 21
0.2769999999999999
 31
0.0
  0
LINE
  5
11
330
2
100
AcDbEntity
  8
Table
100
AcDbLine
 10
0.4
 20
0.2769999999999999
 30
0.0
 11
0.02
 21
0.277
 31
0.0
  0
LINE
  5
12
330
2
100
AcDbEntity
  8
Table
100
AcDbLine
 10
0.02
 20
0.277
 30
0.0
 11
0.02
 21
0.02
 31
0.0
  0
LINE
  5
13
330
2
100
AcDbEntity
  8
Table
 62
     2
100
AcDbLine
 10
0.015
 20
0.015
 30
0.0
 11
0.4050000000000001
 21
0.015
 31
0.0
  0
LINE
  5
14
330
2
100
AcDbEntity
  8
Table
 62
     2
100
AcDbLine
 10
0.4050000000000001
 20
0.015
 30
0.0
 11
0.4050000000000001
 21
0.2819999999999998
 31
0.0
  0
LINE
  5
15
330
2
100
AcDbEntity
  8
Table
 62
     2
100
AcDbLine
 10
0.4050000000000001
 20
0.2819999999999998
 30
0.0
 11
0.0149999999999999
 21
0.282
 31
0.0
  0
LINE
  5
16
330
2
100
AcDbEntity
  8
Table
 62
     2
100
AcDbLine
 10
0.0149999999999999
 20
0.282
 30
0.0
 11
0.015
 21
0.015
 31
0.0
  0
LINE
  5
17
330
2
100
AcDbEntity
  8
Table
100
AcDbLine
 10
0.21
 20
0.2769999999999999
 30
0.0
 11
0.21
 21
0.2532994226089223
 31
0.0
  0
MTEXT
  5
18
102
{ACAD_XDICTIONARY
360
20FF
102
}
330
2
100
AcDbEntity
  8
Text
100
AcDbMText
 10
0.305
 20
0.0471738284815141
 30
0.0
 40
0.005
 41
0.1900000000000001
 71
     2
 72
     5
  3
{\fTimes New Roman|b0|i0|c238|p18;\H1.6x;\C4;Bovelacci\P\H0.4375x;\T0.95;via del Commercio, 5  47100 Forli - Italy  \fTimes New Roman|b0|i0|c0|p18;\P\fTimes New Roman|b0|i0|c238|p18;tel.+39-0543721386  fax +39-0543721127\fTimes New Roman|b0|i0|c0|p18
  1
; \fTimes New Roman|b0|i0|c238|p18;www.bovelacci.it\fTimes New Roman|b0|i0|c0|p18; \fTimes New Roman|b0|i0|c238|p18;e-mail: bovelacci@bovelacci\fTimes New Roman|b0|i0|c0|p18;.it}
 73
     1
 44
1.0
1001
ACAD
1000
ACAD_MTEXT_DEFINED_HEIGHT_BEGIN
1070
    46
1040
0.0271738284815141
1000
ACAD_MTEXT_DEFINED_HEIGHT_END
1000
MTEXTBEGIN
1070
    73
1070
     1
1070
    44
1040
1.0
1070
    74
1070
     0
1000
MTEXTEND
  0
MTEXT
  5
1C
330
2
100
AcDbEntity
  8
Text
100
AcDbMText
 10
0.0219676065851835
 20
0.0500313976452307
 30
0.0
 40
0.002
 41
0.1863544980601608
 71
     1
 72
     5
  3
{\fArial|b0|i0|c0|p34;\H1.25x;Le caratteristiche tecniche indicate vengono fornite a titolo indicativo e potranno essere modificate senza preavviso. Non devono quindi essere considerate a scopo di specifica.\P\fArial|b0|i1|c0|p34;The given values are
  3
 indicative and can be changed without notice. They cannot be considered like a state.\PThis lealfet and designs embodied within are protected by copyright law and international treaties. Unauthorized repro- duction of the leaflet or any portion of i
  1
t or reproduction of any of the designs embodied therein may result in severe civil penalties and will be prosecuted to the maximum.\PAll right reserved, Bovelacci Forlì Italy.}
 73
     1
 44
1.0
1001
ACAD
1000
MTEXTBEGIN
1070
    73
1070
     1
1070
    44
1040
1.0
1070
    74
1070
     0
1000
MTEXTEND
  0
LINE
  5
1D
330
2
100
AcDbEntity
  8
Table
100
AcDbLine
 10
0.02
 20
0.0528099428524846
 30
0.0
 11
0.4
 21
0.0528099428524846
 31
0.0
  0
MTEXT
  5
1E
330
2
100
AcDbEntity
  8
Text
100
AcDbMText
 10
0.1133313047219695
 20
0.2610796890771976
 30
0.0
 40
0.003
 41
0.1103605678262056
 71
     2
 72
     5
  1
{\fTimes New Roman|b0|i0|c0|p18;Rosoni\fTimes New Roman|b0|i1|c0|p18;   Ceiling centres}
 73
     1
 44
1.0
1001
ACAD
1000
ACAD_MTEXT_DEFINED_HEIGHT_BEGIN
1070
    46
1040
0.0141952763113409
1000
ACAD_MTEXT_DEFINED_HEIGHT_END
1000
MTEXTBEGIN
1070
    73
1070
     1
1070
    44
1040
1.0
1070
    74
1070
     0
1000
MTEXTEND
  0
TEXT
  5
1F
330
2
100
AcDbEntity
  8
Text
100
AcDbText
 10
0.2180556919891047
 20
0.269976982173197
 30
0.0
 40
0.003
  1
Rosone - Ceiling centre : D 460 mm
  7
ROMANS
100
AcDbText
  0
TEXT
  5
21
330
2
100
AcDbEntity
  8
Text
100
AcDbText
 10
0.2184542410678115
 20
0.2576348370183962
 30
0.0
 40
0.003
  1
File : C - R3323
  7
ROMANS
100
AcDbText
  0
LINE
  5
22
330
2
100
AcDbEntity
  8
Table
100
AcDbLine
 10
0.4
 20
0.2654452889427402
 30
0.0
 11
0.02
 21
0.2654452889427403
 31
0.0
  0
LINE
  5
23
330
2
100
AcDbEntity
  8
Table
100
AcDbLine
 10
0.4
 20
0.2532994226089223
 30
0.0
 11
0.02
 21
0.2532994226089225
 31
0.0
  0
LINE
  5
24
330
2
100
AcDbEntity
  8
Table
100
AcDbLine
 10
0.21
 20
0.0528099428524846
 30
0.0
 11
0.21
 21
0.02
 31
0.0
  0
TEXT
  5
25
330
2
100
AcDbEntity
  8
Text
100
AcDbText
 10
0.0896473531074035
 20
0.2687784133392506
 30
0.0
 40
0.005
  1
CLASSICSTYL
  7
style1
 72
     1
 11
0.1140561490699125
 21
0.2687784133392506
 31
0.0
100
AcDbText
  0
TEXT
  5
252
330
2
100
AcDbEntity
  8
Text
  6
ACAD_ISO10W100
100
AcDbText
 10
0.2890323501622905
 20
0.0965291513781357
 30
0.0
 40
0.005
  1
scala 1 : 4
  7
style1
100
AcDbText
  0
CIRCLE
  5
1EDE
102
{ACAD_REACTORS
330
20ED
102
}
330
2
100
AcDbEntity
  8
Profilo
  6
Continuous
370
     0
100
AcDbCircle
 10
0.2078509160199443
 20
0.1571764915865815
 30
0.0
 40
0.0575
  0
CIRCLE
  5
1EDF
330
2
100
AcDbEntity
  8
Profilo
  6
Continuous
370
     0
100
AcDbCircle
 10
0.2078509160199443
 20
0.1571764915865815
 30
0.0
 40
0.0194324758604843
  0
CIRCLE
  5
1EE0
330
2
100
AcDbEntity
  8
Profilo
  6
Continuous
370
     0
100
AcDbCircle
 10
0.2078509160199443
 20
0.1571764915865815
 30
0.0
 40
0.0538258806139057
  0
CIRCLE
  5
1EE1
330
2
100
AcDbEntity
  8
Profilo
  6
Continuous
370
     0
100
AcDbCircle
 10
0.2078509160199443
 20
0.1571764915865815
 30
0.0
 40
0.054878592123667
  0
CIRCLE
  5
1EE2
330
2
100
AcDbEntity
  8
Profilo
  6
Continuous
370
     0
100
AcDbCircle
 10
0.1917703165201269
 20
0.2049870224333277
 30
0.0
 40
0.0019397263614981
  0
CIRCLE
  5
1EE3
330
2
100
AcDbEntity
  8
Profilo
  6
Continuous
370
     0
100
AcDbCircle
 10
0.187826031336097
 20
0.2034737542866574
 30
0.0
 40
0.0019397263614981
  0
CIRCLE
  5
1EE4
330
2
100
AcDbEntity
  8
Profilo
  6
Continuous
370
     0
100
AcDbCircle
 10
0.1840222063302631
 20
0.2016357441066821
 30
0.0
 40
0.0019397263614981
  0
CIRCLE
  5
1EE5
330
2
100
AcDbEntity
  8
Profilo
  6
Continuous
370
     0
100
AcDbCircle
 10
0.1803855226019996
 20
0.1994858842142074
 30
0.0
 40
0.0019397263614981
  0
CIRCLE
  5
1EE6
330
2
100
AcDbEntity
  8
Profilo
  6
Continuous
370
     0
100
AcDbCircle
 10
0.1769414888747031
 20
0.1970392543317066
 30
0.0
 40
0.0019397263614981
  0
CIRCLE
  5
1EE7
330
2
100
AcDbEntity
  8
Profilo
  6
Continuous
370
     0
100
AcDbCircle
 10
0.1737142625704399
 20
0.194313015809906
 30
0.0
 40
0.0019397263614981
  0
CIRCLE
  5
1EE8
330
2
100
AcDbEntity
  8
Profilo
  6
Continuous
370
     0
100
AcDbCircle
 10
0.1707264803629721
 20
0.1913262912532337
 30
0.0
 40
0.0019397263614981
  0
CIRCLE
  5
1EE9
330
2
100
AcDbEntity
  8
Profilo
  6
Continuous
370
     0
100
AcDbCircle
 10
0.1679990993977677
 20
0.1881000303884961
 30
0.0
 40
0.0019397263614981
  0
CIRCLE
  5
1EEA
330
2
100
AcDbEntity
  8
Profilo
  6
Continuous
370
     0
100
AcDbCircle
 10
0.1655512502926774
 20
0.184656863117596
 30
0.0
 40
0.0019397263614981
  0
CIRCLE
  5
1EEB
330
2
100
AcDbEntity
  8
Profilo
  6
Continuous
370
     0
100
AcDbCircle
 10
0.1634001029503954
 20
0.1810209407850239
 30
0.0
 40
0.0019397263614981
  0
CIRCLE
  5
1EEC
330
2
100
AcDbEntity
  8
Profilo
  6
Continuous
370
     0
100
AcDbCircle
 10
0.1615607461239316
 20
0.17721776677354
 30
0.0
 40
0.0019397263614981
  0
CIRCLE
  5
1EED
330
2
100
AcDbEntity
  8
Profilo
  6
Continuous
370
     0
100
AcDbCircle
 10
0.1600460815798476
 20
0.1732740176162549
 30
0.0
 40
0.0019397263614981
  0
CIRCLE
  5
1EEE
330
2
100
AcDbEntity
  8
Profilo
  6
Continuous
370
     0
100
AcDbCircle
 10
0.1588667336016337
 20
0.1692173558799284
 30
0.0
 40
0.0019397263614981
  0
CIRCLE
  5
1EEF
330
2
100
AcDbEntity
  8
Profilo
  6
Continuous
370
     0
100
AcDbCircle
 10
0.1580309744679992
 20
0.1650762361319332
 30
0.0
 40
0.0019397263614981
  0
CIRCLE
  5
1EF0
330
2
100
AcDbEntity
  8
Profilo
  6
Continuous
370
     0
100
AcDbCircle
 10
0.1575446664287708
 20
0.1608797053519102
 30
0.0
 40
0.0019397263614981
  0
CIRCLE
  5
1EF1
330
2
100
AcDbEntity
  8
Profilo
  6
Continuous
370
     0
100
AcDbCircle
 10
0.1574112205854353
 20
0.156657199188079
 30
0.0
 40
0.0019397263614981
  0
CIRCLE
  5
1EF2
330
2
100
AcDbEntity
  8
Profilo
  6
Continuous
370
     0
100
AcDbCircle
 10
0.157631572964703
 20
0.1524383354873132
 30
0.0
 40
0.0019397263614981
  0
CIRCLE
  5
1EF3
330
2
100
AcDbEntity
  8
Profilo
  6
Continuous
370
     0
100
AcDbCircle
 10
0.1582041779529527
 20
0.1482527065472224
 30
0.0
 40
0.0019397263614981
  0
CIRCLE
  5
1EF4
330
2
100
AcDbEntity
  8
Profilo
  6
Continuous
370
     0
100
AcDbCircle
 10
0.1591250191376113
 20
0.1441296715474523
 30
0.0
 40
0.0019397263614981
  0
CIRCLE
  5
1EF5
330
2
100
AcDbEntity
  8
Profilo
  6
Continuous
370
     0
100
AcDbCircle
 10
0.1603876374793914
 20
0.1400981506161299
 30
0.0
 40
0.0019397263614981
  0
CIRCLE
  5
1EF6
330
2
100
AcDbEntity
  8
Profilo
  6
Continuous
370
     0
100
AcDbCircle
 10
0.1619831766178142
 20
0.1361864219759448
 30
0.0
 40
0.0019397263614981
  0
CIRCLE
  5
1EF7
330
2
100
AcDbEntity
  8
Profilo
  6
Continuous
370
     0
100
AcDbCircle
 10
0.1639004449922184
 20
0.1324219235927325
 30
0.0
 40
0.0019397263614981
  0
CIRCLE
  5
1EF8
330
2
100
AcDbEntity
  8
Profilo
  6
Continuous
370
     0
100
AcDbCircle
 10
0.166125994342511
 20
0.1288310607178649
 30
0.0
 40
0.0019397263614981
  0
CIRCLE
  5
1EF9
330
2
100
AcDbEntity
  8
Profilo
  6
Continuous
370
     0
100
AcDbCircle
 10
0.1686442140390566
 20
0.1254390206743783
 30
0.0
 40
0.0019397263614981
  0
CIRCLE
  5
1EFA
330
2
100
AcDbEntity
  8
Profilo
  6
Continuous
370
     0
100
AcDbCircle
 10
0.1714374405800226
 20
0.1222695961859981
 30
0.0
 40
0.0019397263614981
  0
CIRCLE
  5
1EFB
330
2
100
AcDbEntity
  8
Profilo
  6
Continuous
370
     0
100
AcDbCircle
 10
0.1744860814881525
 20
0.1193450184882843
 30
0.0
 40
0.0019397263614981
  0
CIRCLE
  5
1EFC
330
2
100
AcDbEntity
  8
Profilo
  6
Continuous
370
     0
100
AcDbCircle
 10
0.1777687527379234
 20
0.1166858013924786
 30
0.0
 40
0.0019397263614981
  0
CIRCLE
  5
1EFD
330
2
100
AcDbEntity
  8
Profilo
  6
Continuous
370
     0
100
AcDbCircle
 10
0.1812624287491123
 20
0.1143105973958645
 30
0.0
 40
0.0019397263614981
  0
CIRCLE
  5
1EFE
330
2
100
AcDbEntity
  8
Profilo
  6
Continuous
370
     0
100
AcDbCircle
 10
0.1849426038947038
 20
0.1122360668478942
 30
0.0
 40
0.0019397263614981
  0
CIRCLE
  5
1EFF
330
2
100
AcDbEntity
  8
Profilo
  6
Continuous
370
     0
100
AcDbCircle
 10
0.1887834643902545
 20
0.1104767610898159
 30
0.0
 40
0.0019397263614981
  0
CIRCLE
  5
1F00
330
2
100
AcDbEntity
  8
Profilo
  6
Continuous
370
     0
100
AcDbCircle
 10
0.1927580693590437
 20
0.1090450203874629
 30
0.0
 40
0.0019397263614981
  0
CIRCLE
  5
1F01
330
2
100
AcDbEntity
  8
Profilo
  6
Continuous
370
     0
100
AcDbCircle
 10
0.1968385398029623
 20
0.1079508873731574
 30
0.0
 40
0.0019397263614981
  0
CIRCLE
  5
1F02
330
2
100
AcDbEntity
  8
Profilo
  6
Continuous
370
     0
100
AcDbCircle
 10
0.2009962541536629
 20
0.1072020366038609
 30
0.0
 40
0.0019397263614981
  0
CIRCLE
  5
1F03
330
2
100
AcDbEntity
  8
Profilo
  6
Continuous
370
     0
100
AcDbCircle
 10
0.2052020490322869
 20
0.1068037207296713
 30
0.0
 40
0.0019397263614981
  0
CIRCLE
  5
1F04
330
2
100
AcDbEntity
  8
Profilo
  6
Continuous
370
     0
100
AcDbCircle
 10
0.2094264238096203
 20
0.1067587336502585
 30
0.0
 40
0.0019397263614981
  0
CIRCLE
  5
1F05
330
2
100
AcDbEntity
  8
Profilo
  6
Continuous
370
     0
100
AcDbCircle
 10
0.2136397475318107
 20
0.1070673909176585
 30
0.0
 40
0.0019397263614981
  0
CIRCLE
  5
1F06
330
2
100
AcDbEntity
  8
Profilo
  6
Continuous
370
     0
100
AcDbCircle
 10
0.2178124667602161
 20
0.1077275275229117
 30
0.0
 40
0.0019397263614981
  0
CIRCLE
  5
1F07
330
2
100
AcDbEntity
  8
Profilo
  6
Continuous
370
     0
100
AcDbCircle
 10
0.2219153128675421
 20
0.1087345130820414
 30
0.0
 40
0.0019397263614981
  0
CIRCLE
  5
1F08
330
2
100
AcDbEntity
  8
Profilo
  6
Continuous
370
     0
100
AcDbCircle
 10
0.2259195073362358
 20
0.1100812843148647
 30
0.0
 40
0.0019397263614981
  0
CIRCLE
  5
1F09
330
2
100
AcDbEntity
  8
Profilo
  6
Continuous
370
     0
100
AcDbCircle
 10
0.2297969636191132
 20
0.1117583945888421
 30
0.0
 40
0.0019397263614981
  0
CIRCLE
  5
1F0A
330
2
100
AcDbEntity
  8
Profilo
  6
Continuous
370
     0
100
AcDbCircle
 10
0.2335204841462945
 20
0.1137540801803998
 30
0.0
 40
0.0019397263614981
  0
CIRCLE
  5
1F0B
330
2
100
AcDbEntity
  8
Profilo
  6
Continuous
370
     0
100
AcDbCircle
 10
0.2370639510966276
 20
0.116054342789012
 30
0.0
 40
0.0019397263614981
  0
CIRCLE
  5
1F0C
330
2
100
AcDbEntity
  8
Profilo
  6
Continuous
370
     0
100
AcDbCircle
 10
0.2404025095954369
 20
0.118643047725215
 30
0.0
 40
0.0019397263614981
  0
CIRCLE
  5
1F0D
330
2
100
AcDbEntity
  8
Profilo
  6
Continuous
370
     0
100
AcDbCircle
 10
0.2435127420536011
 20
0.1215020370838667
 30
0.0
 40
0.0019397263614981
  0
CIRCLE
  5
1F0E
330
2
100
AcDbEntity
  8
Profilo
  6
Continuous
370
     0
100
AcDbCircle
 10
0.2463728324251248
 20
0.1246112571087932
 30
0.0
 40
0.0019397263614981
  0
CIRCLE
  5
1F0F
330
2
100
AcDbEntity
  8
Profilo
  6
Continuous
370
     0
100
AcDbCircle
 10
0.248962719231025
 20
0.1279488988554918
 30
0.0
 40
0.0019397263614981
  0
CIRCLE
  5
1F10
330
2
100
AcDbEntity
  8
Profilo
  6
Continuous
370
     0
100
AcDbCircle
 10
0.25126423627619
 20
0.1314915511652051
 30
0.0
 40
0.0019397263614981
  0
CIRCLE
  5
1F11
330
2
100
AcDbEntity
  8
Profilo
  6
Continuous
370
     0
100
AcDbCircle
 10
0.2532612400721858
 20
0.1352143648773674
 30
0.0
 40
0.0019397263614981
  0
CIRCLE
  5
1F12
330
2
100
AcDbEntity
  8
Profilo
  6
Continuous
370
     0
100
AcDbCircle
 10
0.2549397230722276
 20
0.1390912271286298
 30
0.0
 40
0.0019397263614981
  0
CIRCLE
  5
1F13
330
2
100
AcDbEntity
  8
Profilo
  6
Continuous
370
     0
100
AcDbCircle
 10
0.2562879119240579
 20
0.1430949445158203
 30
0.0
 40
0.0019397263614981
  0
CIRCLE
  5
1F14
330
2
100
AcDbEntity
  8
Profilo
  6
Continuous
370
     0
100
AcDbCircle
 10
0.2572963500515554
 20
0.1471974338381359
 30
0.0
 40
0.0019397263614981
  0
CIRCLE
  5
1F15
330
2
100
AcDbEntity
  8
Profilo
  6
Continuous
370
     0
100
AcDbCircle
 10
0.2579579639858144
 20
0.151369919080612
 30
0.0
 40
0.0019397263614981
  0
CIRCLE
  5
1F16
330
2
100
AcDbEntity
  8
Profilo
  6
Continuous
370
     0
100
AcDbCircle
 10
0.2582681129804593
 20
0.1555831332572013
 30
0.0
 40
0.0019397263614981
  0
CIRCLE
  5
1F17
330
2
100
AcDbEntity
  8
Profilo
  6
Continuous
370
     0
100
AcDbCircle
 10
0.2582246215631313
 20
0.1598075236976447
 30
0.0
 40
0.0019397263614981
  0
CIRCLE
  5
1F18
330
2
100
AcDbEntity
  8
Profilo
  6
Continuous
370
     0
100
AcDbCircle
 10
0.2578277947948754
 20
0.1640134593382237
 30
0.0
 40
0.0019397263614981
  0
CIRCLE
  5
1F19
330
2
100
AcDbEntity
  8
Profilo
  6
Continuous
370
     0
100
AcDbCircle
 10
0.2570804161303512
 20
0.168171438562379
 30
0.0
 40
0.0019397263614981
  0
CIRCLE
  5
1F1A
330
2
100
AcDbEntity
  8
Profilo
  6
Continuous
370
     0
100
AcDbCircle
 10
0.2559877278939004
 20
0.1722522961333568
 30
0.0
 40
0.0019397263614981
  0
CIRCLE
  5
1F1B
330
2
100
AcDbEntity
  8
Profilo
  6
Continuous
370
     0
100
AcDbCircle
 10
0.2545573945084042
 20
0.1762274077673909
 30
0.0
 40
0.0019397263614981
  0
CIRCLE
  5
1F1C
330
2
100
AcDbEntity
  8
Profilo
  6
Continuous
370
     0
100
AcDbCircle
 10
0.2527994487348705
 20
0.1800688909124788
 30
0.0
 40
0.0019397263614981
  0
CIRCLE
  5
1F1D
330
2
100
AcDbEntity
  8
Profilo
  6
Continuous
370
     0
100
AcDbCircle
 10
0.2507262212998173
 20
0.1837498003244638
 30
0.0
 40
0.0019397263614981
  0
CIRCLE
  5
1F1E
330
2
100
AcDbEntity
  8
Profilo
  6
Continuous
370
     0
100
AcDbCircle
 10
0.2483522544040907
 20
0.1872443170685476
 30
0.0
 40
0.0019397263614981
  0
CIRCLE
  5
1F1F
330
2
100
AcDbEntity
  8
Profilo
  6
Continuous
370
     0
100
AcDbCircle
 10
0.2456941997197712
 20
0.1905279296205796
 30
0.0
 40
0.0019397263614981
  0
CIRCLE
  5
1F20
330
2
100
AcDbEntity
  8
Profilo
  6
Continuous
370
     0
100
AcDbCircle
 10
0.242770701590659
 20
0.1935776057977781
 30
0.0
 40
0.0019397263614981
  0
CIRCLE
  5
1F21
330
2
100
AcDbEntity
  8
Profilo
  6
Continuous
370
     0
100
AcDbCircle
 10
0.239602266255598
 20
0.1963719543129483
 30
0.0
 40
0.0019397263614981
  0
CIRCLE
  5
1F22
330
2
100
AcDbEntity
  8
Profilo
  6
Continuous
370
     0
100
AcDbCircle
 10
0.236211118011949
 20
0.1988913748189938
 30
0.0
 40
0.0019397263614981
  0
CIRCLE
  5
1F23
330
2
100
AcDbEntity
  8
Profilo
  6
Continuous
370
     0
100
AcDbCircle
 10
0.2326210433281032
 20
0.2011181953912673
 30
0.0
 40
0.0019397263614981
  0
CIRCLE
  5
1F24
330
2
100
AcDbEntity
  8
Profilo
  6
Continuous
370
     0
100
AcDbCircle
 10
0.2288572239985024
 20
0.203036796483421
 30
0.0
 40
0.0019397263614981
  0
CIRCLE
  5
1F25
330
2
100
AcDbEntity
  8
Profilo
  6
Continuous
370
     0
100
AcDbCircle
 10
0.2249460605114434
 20
0.2046337204873088
 30
0.0
 40
0.0019397263614981
  0
CIRCLE
  5
1F26
330
2
100
AcDbEntity
  8
Profilo
  6
Continuous
370
     0
100
AcDbCircle
 10
0.2209149868686206
 20
0.2058977661284272
 30
0.0
 40
0.0019397263614981
  0
CIRCLE
  5
1F27
330
2
100
AcDbEntity
  8
Profilo
  6
Continuous
370
     0
100
AcDbCircle
 10
0.2167922781553168
 20
0.2068200670348231
 30
0.0
 40
0.0019397263614981
  0
CIRCLE
  5
1F28
330
2
100
AcDbEntity
  8
Profilo
  6
Continuous
370
     0
100
AcDbCircle
 10
0.2126068522109938
 20
0.2073941539283095
 30
0.0
 40
0.0019397263614981
  0
CIRCLE
  5
1F29
330
2
100
AcDbEntity
  8
Profilo
  6
Continuous
370
     0
100
AcDbCircle
 10
0.2083880667914245
 20
0.2076160000018104
 30
0.0
 40
0.0019397263614981
  0
CIRCLE
  5
1F2A
330
2
100
AcDbEntity
  8
Profilo
  6
Continuous
370
     0
100
AcDbCircle
 10
0.2041655136451363
 20
0.2074840491645138
 30
0.0
 40
0.0019397263614981
  0
CIRCLE
  5
1F2B
330
2
100
AcDbEntity
  8
Profilo
  6
Continuous
370
     0
100
AcDbCircle
 10
0.1999688109485488
 20
0.206999226956738
 30
0.0
 40
0.0019397263614981
  0
CIRCLE
  5
1F2C
330
2
100
AcDbEntity
  8
Profilo
  6
Continuous
370
     0
100
AcDbCircle
 10
0.1958273955557542
 20
0.2061649340579277
 30
0.0
 40
0.0019397263614981
  0
LWPOLYLINE
  5
1F2D
330
2
100
AcDbEntity
  8
Profilo
  6
Continuous
370
     0
100
AcDbPolyline
 90
       17
 70
   128
 43
0.0
 10
0.2016573722879466
 20
0.1760085847700972
 10
0.1999368834695255
 20
0.1818432573067175
 10
0.1984007324485931
 20
0.186142490255183
 10
0.1978477180404313
 20
0.1878621838286248
 10
0.1975404880393826
 20
0.1919157458913081
 10
0.197724825836873
 20
0.1958464728394778
 10
0.1983392868546628
 20
0.1984874304285183
 10
0.199076639060315
 20
0.2005756293454941
 10
0.1997525456720369
 20
0.20180398114737
 10
0.2003055600802005
 20
0.2024181573766879
 10
0.2013501422868996
 20
0.2017425635901149
 10
0.2034393077159939
 20
0.1993472768868583
 10
0.2047911199237399
 20
0.1967677368550765
 10
0.2057128109425767
 20
0.1943724501518198
 10
0.2065730553517872
 20
0.1911173169902232
 10
0.2070646231503227
 20
0.1889062829587336
 10
0.207494745354928
 20
0.1867566664845009
  0
LWPOLYLINE
  5
1F2E
330
2
100
AcDbEntity
  8
Profilo
  6
Continuous
370
     0
100
AcDbPolyline
 90
        4
 70
   128
 43
0.0
 10
0.2036850911074127
 20
0.1767455961139271
 10
0.2031320777149469
 20
0.1834401157656474
 10
0.202394724493597
 20
0.1891519531877575
 10
0.2014115878808299
 20
0.1946181210376019
  0
LWPOLYLINE
  5
1F2F
330
2
100
AcDbEntity
  8
Profilo
  6
Continuous
370
     0
100
AcDbPolyline
 90
        5
 70
   128
 43
0.0
 10
0.2057742565365087
 20
0.177052683900206
 10
0.2043609977191346
 20
0.1828259395363295
 10
0.2035621999195522
 20
0.1870023367135248
 10
0.202456171103225
 20
0.1920385810058201
 10
0.2017802644915031
 20
0.1946795385948588
  0
LWPOLYLINE
  5
1F30
330
2
100
AcDbEntity
  8
Profilo
  6
Continuous
370
     0
100
AcDbPolyline
 90
        2
 70
   128
 43
0.0
 10
0.2019646022889935
 20
0.1957850552822227
 10
0.2025176166971553
 20
0.1989173533293092
  0
LWPOLYLINE
  5
1F31
330
2
100
AcDbEntity
  8
Profilo
  6
Continuous
370
     0
100
AcDbPolyline
 90
        3
 70
   128
 43
0.0
 10
0.2005513434716194
 20
0.1958464728394778
 10
0.1993224234674317
 20
0.1976890015274333
 10
0.1988923012628264
 20
0.1980575068709674
  0
LWPOLYLINE
  5
1F32
330
2
100
AcDbEntity
  8
Profilo
  6
Continuous
370
     0
100
AcDbPolyline
 90
        2
 70
   128
 43
0.0
 10
0.2033164155124355
 20
0.1909944818757113
 10
0.2043609977191346
 20
0.194311032594563
  0
LWPOLYLINE
  5
1F33
330
2
100
AcDbEntity
  8
Profilo
  6
Continuous
370
     0
100
AcDbPolyline
 90
        3
 70
   128
 43
0.0
 10
0.2046067821262513
 20
0.1844227973385011
 10
0.2055899187390183
 20
0.1868795015990128
 10
0.2063887165386026
 20
0.1877393480573546
  0
LWPOLYLINE
  5
1F34
330
2
100
AcDbEntity
  8
Profilo
  6
Continuous
370
     0
100
AcDbPolyline
 90
        3
 70
   128
 43
0.0
 10
0.2020260488986198
 20
0.1844227973385011
 10
0.1997525456720369
 20
0.18632674292695
 10
0.1988923012628264
 20
0.1865724138127339
  0
LWPOLYLINE
  5
1F35
330
2
100
AcDbEntity
  8
Profilo
  6
Continuous
370
     0
100
AcDbPolyline
 90
        3
 70
   128
 43
0.0
 10
0.2007971278787361
 20
0.1909330643184544
 10
0.1990151934663847
 20
0.192837009906905
 10
0.1982778402450348
 20
0.1932055159071991
  0
LWPOLYLINE
  5
1F36
330
2
100
AcDbEntity
  8
Profilo
  6
Continuous
370
     0
100
AcDbPolyline
 90
        2
 70
   128
 43
0.0
 10
0.2026405089007136
 20
0.178526706587864
 10
0.2014730344904562
 20
0.1794479706034609
  0
LWPOLYLINE
  5
1F37
330
2
100
AcDbEntity
  8
Profilo
  6
Continuous
370
     0
100
AcDbPolyline
 90
        2
 70
   128
 43
0.0
 10
0.205835703146135
 20
0.1782810363588419
 10
0.2065730553517872
 20
0.1795093881607177
  0
LWPOLYLINE
  5
1F38
330
2
100
AcDbEntity
  8
Profilo
  6
Continuous
370
     0
100
AcDbPolyline
 90
        2
 70
   128
 43
0.0
 10
0.1970153910736089
 20
0.1893108503307066
 10
0.1949904105727297
 20
0.1955552425205842
  0
LWPOLYLINE
  5
1F39
330
2
100
AcDbEntity
  8
Profilo
  6
Continuous
370
     0
100
AcDbPolyline
 90
       12
 70
   128
 43
0.0
 10
0.1922329897759466
 20
0.1949523356341066
 10
0.1921899049331651
 20
0.196717991234467
 10
0.1922760736030321
 20
0.1978807406051116
 10
0.1926207513295915
 20
0.1991726838394574
 10
0.1928361755435025
 20
0.2001631736305627
 10
0.1931377684272805
 20
0.200507691476116
 10
0.1936978693520531
 20
0.2005507565351903
 10
0.1943441399623905
 20
0.2001631736305627
 10
0.1957228498529341
 20
0.1991296187803831
 10
0.1964122053060547
 20
0.1983975180302005
 10
0.1972738991146053
 20
0.1973639631800208
 10
0.1976616616839463
 20
0.1966749268321526
  0
LWPOLYLINE
  5
1F3A
330
2
100
AcDbEntity
  8
Profilo
  6
Continuous
370
     0
100
AcDbPolyline
 90
        8
 70
   128
 43
0.0
 10
0.1951196640853782
 20
0.1998186551282495
 10
0.1955505114975023
 20
0.2008952743807453
 10
0.1961106124222768
 20
0.2014551168649086
 10
0.1967568830326142
 20
0.2017996347104618
 10
0.1974031536429516
 20
0.2017996347104618
 10
0.1981355939388537
 20
0.2015412463262974
 10
0.1986664570153914
 20
0.2010885680090664
 10
0.1989932208973956
 20
0.2004798816356144
  0
LWPOLYLINE
  5
1F3B
330
2
100
AcDbEntity
  8
Profilo
  6
Continuous
370
     0
100
AcDbPolyline
 90
        8
 70
   128
 43
0.0
 10
0.1890878064098226
 20
0.1974070275823352
 10
0.1892170599224728
 20
0.1982252584506648
 10
0.189518652806249
 20
0.1988281653371425
 10
0.1899495002183732
 20
0.1991296187803831
 10
0.1906819394985794
 20
0.1993018777031588
 10
0.1914416085944358
 20
0.1993172340627525
 10
0.1920396640774283
 20
0.1990388164724242
 10
0.1923345950058598
 20
0.1985229256731765
  0
LWPOLYLINE
  5
1F3C
330
2
100
AcDbEntity
  8
Profilo
  6
Continuous
370
     0
100
AcDbPolyline
 90
       17
 70
   128
 43
0.0
 10
0.1961410690613098
 20
0.1731729662556494
 10
0.1927017739889093
 20
0.1781904093085261
 10
0.189912271506587
 20
0.1818045260478418
 10
0.188854909010787
 20
0.183269160976638
 10
0.1873100963511666
 20
0.1870293882990528
 10
0.1862707505874356
 20
0.1908246952890189
 10
0.1860390369659791
 20
0.1935262741102109
 10
0.1860950116329872
 20
0.1957401236599084
 10
0.186358255438621
 20
0.1971172222750189
 10
0.1866944125027098
 20
0.1978722294303208
 10
0.1878966391785409
 20
0.1975524952111241
 10
0.1906237378712076
 20
0.1959200298052477
 10
0.1927065093876828
 20
0.1938844743943738
 10
0.194323273934866
 20
0.1918912395552295
 10
0.1961473064517379
 20
0.189061254092247
 10
0.1972980623006085
 20
0.1871103385724831
 10
0.1983714008480278
 20
0.1851988468880106
  0
LWPOLYLINE
  5
1F3D
330
2
100
AcDbEntity
  8
Profilo
  6
Continuous
370
     0
100
AcDbPolyline
 90
        4
 70
   128
 43
0.0
 10
0.1978417952274872
 20
0.1745005052718108
 10
0.1952471278954254
 20
0.1806964812736572
 10
0.1927808084769124
 20
0.1859009067977185
 10
0.1901566512352216
 20
0.1907957354293406
  0
LWPOLYLINE
  5
1F3E
330
2
100
AcDbEntity
  8
Profilo
  6
Continuous
370
     0
100
AcDbPolyline
 90
        5
 70
   128
 43
0.0
 10
0.1997338142777222
 20
0.1754381507336765
 10
0.1966056911658137
 20
0.1804921221346328
 10
0.1945554116103055
 20
0.1842172697895
 10
0.1919472306231847
 20
0.1886652410408272
 10
0.1904883044592646
 20
0.1909680743355105
  0
LWPOLYLINE
  5
1F3F
330
2
100
AcDbEntity
  8
Profilo
  6
Continuous
370
     0
100
AcDbPolyline
 90
        2
 70
   128
 43
0.0
 10
0.1903219966788038
 20
0.1920764466970302
 10
0.1898800113072964
 20
0.1952263300159474
  0
LWPOLYLINE
  5
1F40
330
2
100
AcDbEntity
  8
Profilo
  6
Continuous
370
     0
100
AcDbPolyline
 90
        3
 70
   128
 43
0.0
 10
0.188958928602385
 20
0.1916981372730562
 10
0.1872207835471945
 20
0.1930707290221734
 10
0.1866978386080328
 20
0.1932882833595504
  0
LWPOLYLINE
  5
1F41
330
2
100
AcDbEntity
  8
Profilo
  6
Continuous
370
     0
100
AcDbPolyline
 90
        2
 70
   128
 43
0.0
 10
0.1930880160491876
 20
0.187938073901242
 10
0.1930566022288426
 20
0.191415094727923
  0
LWPOLYLINE
  5
1F42
330
2
100
AcDbEntity
  8
Profilo
  6
Continuous
370
     0
100
AcDbPolyline
 90
        3
 70
   128
 43
0.0
 10
0.1963459898293335
 20
0.1820867757117353
 10
0.1965218449446654
 20
0.1847270462284425
 10
0.1970158396289795
 20
0.1857916509008022
  0
LWPOLYLINE
  5
1F43
330
2
100
AcDbEntity
  8
Profilo
  6
Continuous
370
     0
100
AcDbPolyline
 90
        3
 70
   128
 43
0.0
 10
0.1938915666763771
 20
0.1812892852864488
 10
0.1911409850747206
 20
0.1823974940112359
 10
0.1902469275450039
 20
0.182365310766262
  0
LWPOLYLINE
  5
1F44
330
2
100
AcDbEntity
  8
Profilo
  6
Continuous
370
     0
100
AcDbPolyline
 90
        3
 70
   128
 43
0.0
 10
0.1907110101976789
 20
0.1871011596406676
 10
0.1884279383200068
 20
0.1883612714829562
 10
0.1876127991174113
 20
0.1884838868395762
  0
LWPOLYLINE
  5
1F45
330
2
100
AcDbEntity
  8
Profilo
  6
Continuous
370
     0
100
AcDbPolyline
 90
        2
 70
   128
 43
0.0
 10
0.1876156564569781
 20
0.1843897215157555
 10
0.183760162250031
 20
0.1897027380101926
  0
LWPOLYLINE
  5
1F46
330
2
100
AcDbEntity
  8
Profilo
  6
Continuous
370
     0
100
AcDbPolyline
 90
       12
 70
   128
 43
0.0
 10
0.1813240077070309
 20
0.188277249600239
 10
0.1807374139998247
 20
0.1899431739158773
 10
0.1804600559590751
 20
0.1910756418650164
 10
0.1803886315417612
 20
0.1924108641718143
 10
0.1802874339659611
 20
0.1934194456850685
 10
0.1804678039742041
 20
0.1938402989535324
 10
0.1809871837733764
 20
0.1940543369629091
 10
0.1817215933528876
 20
0.1938854323174178
 10
0.1833522103916921
 20
0.1933285080286944
 10
0.1842340579608267
 20
0.1928452613898295
 10
0.1853729634858249
 20
0.1921285703454072
 10
0.185954671545406
 20
0.1915930830605129
  0
LWPOLYLINE
  5
1F47
330
2
100
AcDbEntity
  8
Profilo
  6
Continuous
370
     0
100
AcDbPolyline
 90
        8
 70
   128
 43
0.0
 10
0.1825656226956885
 20
0.1937974258843594
 10
0.1826426892890266
 20
0.1949544908123415
 10
0.1830023760815352
 20
0.195660013359325
 10
0.1835105540876464
 20
0.1961873779028776
 10
0.1841251939628966
 20
0.1963870865044375
 10
0.1849016324809683
 20
0.1963676810467417
 10
0.1855463985621787
 20
0.1961012040956889
 10
0.1860452639150919
 20
0.1956232845465249
  0
LWPOLYLINE
  5
1F48
330
2
100
AcDbEntity
  8
Profilo
  6
Continuous
370
     0
100
AcDbPolyline
 90
        8
 70
   128
 43
0.0
 10
0.177574219043778
 20
0.1896398852625425
 10
0.1774442991956006
 20
0.1904580105936913
 10
0.1775448225990382
 20
0.1911246064432662
 10
0.1778614286008929
 20
0.1915444448771475
 10
0.1785047888165531
 20
0.1919346090330749
 10
0.1792225316843096
 20
0.1921839644596557
 10
0.1798773520154592
 20
0.1921039829039449
 10
0.1803172670210115
 20
0.1917044802666763
  0
LWPOLYLINE
  5
1F49
330
2
100
AcDbEntity
  8
Profilo
  6
Continuous
370
     0
100
AcDbPolyline
 90
       17
 70
   128
 43
0.0
 10
0.1917710072422855
 20
0.1687715013465998
 10
0.1869495680805689
 20
0.1724805726311378
 10
0.1831797700754313
 20
0.1750557982338248
 10
0.1817215615001627
 20
0.1761220058464344
 10
0.1790903832084355
 20
0.1792208211792202
 10
0.1769290922883874
 20
0.1825091971193431
 10
0.1758738857713927
 20
0.1850069478146641
 10
0.1752430037093541
 20
0.1871297409783624
 10
0.1750678165710772
 20
0.1885207863994478
 10
0.175154210895513
 20
0.1893427191199302
 10
0.1763963997170433
 20
0.1894101422812029
 10
0.1794944842524279
 20
0.18870029526069
 10
0.182104338890077
 20
0.1874079788168879
 10
0.1842579167870658
 20
0.186011907555598
 10
0.1868671884000678
 20
0.1838840884860127
 10
0.1885644882989966
 20
0.1823842606818791
 10
0.1901759773338204
 20
0.1808980039113864
  0
LWPOLYLINE
  5
1F4A
330
2
100
AcDbEntity
  8
Profilo
  6
Continuous
370
     0
100
AcDbPolyline
 90
        4
 70
   128
 43
0.0
 10
0.1929782618283736
 20
0.1705596192666854
 10
0.1885959246732861
 20
0.175650546317693
 10
0.1846420595861508
 20
0.1798381145120467
 10
0.180633752509935
 20
0.1836824639947037
  0
LWPOLYLINE
  5
1F4B
330
2
100
AcDbEntity
  8
Profilo
  6
Continuous
370
     0
100
AcDbPolyline
 90
        5
 70
   128
 43
0.0
 10
0.1944879304926376
 20
0.1720360391333711
 10
0.1899511455713044
 20
0.1758760083653415
 10
0.1868500799079017
 20
0.1787852630907936
 10
0.1829950536772719
 20
0.182209562884236
 10
0.1808959178190109
 20
0.1839488545168959
  0
LWPOLYLINE
  5
1F4C
330
2
100
AcDbEntity
  8
Profilo
  6
Continuous
370
     0
100
AcDbPolyline
 90
        2
 70
   128
 43
0.0
 10
0.1803952438248894
 20
0.1849515873433423
 10
0.1790015232813656
 20
0.1878107234083069
  0
LWPOLYLINE
  5
1F4D
330
2
100
AcDbEntity
  8
Profilo
  6
Continuous
370
     0
100
AcDbPolyline
 90
        3
 70
   128
 43
0.0
 10
0.1792157930897969
 20
0.1841705825003915
 10
0.1771385647319773
 20
0.1849388784668613
 10
0.1765739865524724
 20
0.184984186063748
  0
LWPOLYLINE
  5
1F4E
330
2
100
AcDbEntity
  8
Profilo
  6
Continuous
370
     0
100
AcDbPolyline
 90
        2
 70
   128
 43
0.0
 10
0.1843047120942488
 20
0.1818705079212682
 10
0.1832003772504679
 20
0.1851676438314312
  0
LWPOLYLINE
  5
1F4F
330
2
100
AcDbEntity
  8
Profilo
  6
Continuous
370
     0
100
AcDbPolyline
 90
        3
 70
   128
 43
0.0
 10
0.1892113798674883
 20
0.1773123619146451
 10
0.1885627395614383
 20
0.1798777506135268
 10
0.1887035754889202
 20
0.1810429025770355
  0
LWPOLYLINE
  5
1F50
330
2
100
AcDbEntity
  8
Profilo
  6
Continuous
370
     0
100
AcDbPolyline
 90
        3
 70
   128
 43
0.0
 10
0.1871235228283877
 20
0.1757954449833421
 10
0.1841651089432575
 20
0.1759994376531382
 10
0.1833247548733089
 20
0.1756925505976584
  0
LWPOLYLINE
  5
1F51
330
2
100
AcDbEntity
  8
Profilo
  6
Continuous
370
     0
100
AcDbPolyline
 90
        3
 70
   128
 43
0.0
 10
0.1823026659192534
 20
0.1803400199563226
 10
0.1797419395587413
 20
0.1808329495256112
 10
0.1789288058794577
 20
0.1806976717931393
  0
LWPOLYLINE
  5
1F52
330
2
100
AcDbEntity
  8
Profilo
  6
Continuous
370
     0
100
AcDbPolyline
 90
        2
 70
   128
 43
0.0
 10
0.1801966900337136
 20
0.1768047721496165
 10
0.1748880847564832
 20
0.1806663378761724
  0
LWPOLYLINE
  5
1F53
330
2
100
AcDbEntity
  8
Profilo
  6
Continuous
370
     0
100
AcDbPolyline
 90
       12
 70
   128
 43
0.0
 10
0.1730116642476206
 20
0.1785578046802728
 10
0.1719389815550899
 20
0.1799609254319941
 10
0.1713252465412184
 20
0.1809522581064003
 10
0.1708447114996415
 20
0.1822000586232205
 10
0.1704367980579361
 20
0.1831280048729043
 10
0.1704782893175268
 20
0.1835839975141025
 10
0.1709061074776214
 20
0.1839480569421342
 10
0.1716567668997294
 20
0.1840143641193089
 10
0.1733796749298632
 20
0.1839885860217448
 10
0.1743676932307506
 20
0.1838014970421847
 10
0.1756723264641889
 20
0.183471824516428
 10
0.1763910383761379
 20
0.1831423035209104
  0
LWPOLYLINE
  5
1F54
330
2
100
AcDbEntity
  8
Profilo
  6
Continuous
370
     0
100
AcDbPolyline
 90
        8
 70
   128
 43
0.0
 10
0.1724866819895764
 20
0.1841914844383497
 10
0.1722024239490162
 20
0.1853157334649241
 10
0.1723264879599243
 20
0.1860978746121629
 10
0.1726468293578852
 20
0.1867564637378281
 10
0.173169673264613
 20
0.1871363320715749
 10
0.1739141067929383
 20
0.1873578090817519
 10
0.1746096616824436
 20
0.1873036181175026
 10
0.1752317960897217
 20
0.1870032474879584
  0
LWPOLYLINE
  5
1F55
330
2
100
AcDbEntity
  8
Profilo
  6
Continuous
370
     0
100
AcDbPolyline
 90
        8
 70
   128
 43
0.0
 10
0.1690243257279119
 20
0.1786949997839824
 10
0.1686479499788523
 20
0.179432935770326
 10
0.1685375639708327
 20
0.1800979695367926
 10
0.1687089369610349
 20
0.180595096250221
 10
0.1692002415316848
 20
0.1811649736532855
 10
0.1698058004986377
 20
0.1816239195003342
 10
0.1704532873015315
 20
0.1817502031311809
 10
0.170995124438391
 20
0.181506194757525
  0
LWPOLYLINE
  5
1F56
330
2
100
AcDbEntity
  8
Profilo
  6
Continuous
370
     0
100
AcDbPolyline
 90
       17
 70
   128
 43
0.0
 10
0.1889749589297315
 20
0.1632350360950583
 10
0.1832433317367913
 20
0.1652726658713051
 10
0.1788622523033071
 20
0.1665569193127241
 10
0.1771459372638512
 20
0.1671203317793162
 10
0.1736859514037116
 20
0.169254401486985
 10
0.1706142775411971
 20
0.1717139572287825
 10
0.1688388690946064
 20
0.1737633825573224
 10
0.1675828854353648
 20
0.1755873255497869
 10
0.1669864158908728
 20
0.1768561525590511
 10
0.1668145905972368
 20
0.17766455434329
 10
0.1679751474677745
 20
0.1781125350362421
 10
0.1711409557459292
 20
0.1783947911732544
 10
0.1740224227488957
 20
0.1779722146341443
 10
0.1765020067862734
 20
0.1773099641327609
 10
0.1796411038100588
 20
0.1760925972124939
 10
0.1817188042191565
 20
0.1751906707193709
 10
0.1837106999667485
 20
0.1742751340309146
  0
LWPOLYLINE
  5
1F57
330
2
100
AcDbEntity
  8
Profilo
  6
Continuous
370
     0
100
AcDbPolyline
 90
        4
 70
   128
 43
0.0
 10
0.1895705674454054
 20
0.1653086994784965
 10
0.1838295341615724
 20
0.1687962421683378
 10
0.1787751552687412
 20
0.1715570446816171
 10
0.1737750593821351
 20
0.1739746033027907
  0
LWPOLYLINE
  5
1F58
330
2
100
AcDbEntity
  8
Profilo
  6
Continuous
370
     0
100
AcDbPolyline
 90
        5
 70
   128
 43
0.0
 10
0.1905501088363616
 20
0.1671793714866295
 10
0.1850487542233411
 20
0.1694294556065512
 10
0.1812004563655728
 20
0.1712380392800914
 10
0.1764759417184359
 20
0.1733034732933665
 10
0.1739420742091825
 20
0.1743089692806419
  0
LWPOLYLINE
  5
1F59
330
2
100
AcDbEntity
  8
Profilo
  6
Continuous
370
     0
100
AcDbPolyline
 90
        2
 70
   128
 43
0.0
 10
0.1731560434603428
 20
0.175107908096511
 10
0.1709470148222264
 20
0.1773964247487112
  0
LWPOLYLINE
  5
1F5A
330
2
100
AcDbEntity
  8
Profilo
  6
Continuous
370
     0
100
AcDbPolyline
 90
        3
 70
   128
 43
0.0
 10
0.1722756629222454
 20
0.1740006580301939
 10
0.1700626848463583
 20
0.1740894520517835
 10
0.1695117382723706
 20
0.1739580778849193
  0
LWPOLYLINE
  5
1F5B
330
2
100
AcDbEntity
  8
Profilo
  6
Continuous
370
     0
100
AcDbPolyline
 90
        2
 70
   128
 43
0.0
 10
0.1778262746356057
 20
0.1733857195691244
 10
0.1757571187572532
 20
0.1761802239273878
  0
LWPOLYLINE
  5
1F5C
330
2
100
AcDbEntity
  8
Profilo
  6
Continuous
370
     0
100
AcDbPolyline
 90
        3
 70
   128
 43
0.0
 10
0.1839013375735318
 20
0.1705669088349855
 10
0.1824916952785974
 20
0.1728062975960794
 10
0.1822655864474049
 20
0.17395794365846
  0
LWPOLYLINE
  5
1F5D
330
2
100
AcDbEntity
  8
Profilo
  6
Continuous
370
     0
100
AcDbPolyline
 90
        3
 70
   128
 43
0.0
 10
0.1823844206422288
 20
0.1684790517958832
 10
0.1795077646371824
 20
0.167758860186869
 10
0.1788033737384603
 20
0.1672073095640827
  0
LWPOLYLINE
  5
1F5E
330
2
100
AcDbEntity
  8
Profilo
  6
Continuous
370
     0
100
AcDbPolyline
 90
        3
 70
   128
 43
0.0
 10
0.1763951623658068
 20
0.1713114727253573
 10
0.1738074432602546
 20
0.1709889686409612
 10
0.1730759102942473
 20
0.1706090397463869
  0
LWPOLYLINE
  5
1F5F
330
2
100
AcDbEntity
  8
Profilo
  6
Continuous
370
     0
100
AcDbPolyline
 90
        2
 70
   128
 43
0.0
 10
0.1754847119283033
 20
0.1672984699236957
 10
0.1692426388525531
 20
0.1693305879239451
  0
LWPOLYLINE
  5
1F60
330
2
100
AcDbEntity
  8
Profilo
  6
Continuous
370
     0
100
AcDbPolyline
 90
       12
 70
   128
 43
0.0
 10
0.168109629491027
 20
0.1667454078623281
 10
0.1666558594689368
 20
0.1677483778148372
 10
0.165765824141244
 20
0.1685015366653198
 10
0.1649232165933577
 20
0.1695397719836369
 10
0.1642485166955202
 20
0.1702962491254483
 10
0.1641470677528834
 20
0.1707427454025763
 10
0.1644414464516058
 20
0.171221189575896
 10
0.1651348759419248
 20
0.1715162179672434
 10
0.1667814247211913
 20
0.1720241094006334
 10
0.1677788996386121
 20
0.172151491653223
 10
0.1691215539896861
 20
0.1722411082899176
 10
0.169906917224503
 20
0.1721498093947269
  0
LWPOLYLINE
  5
1F61
330
2
100
AcDbEntity
  8
Profilo
  6
Continuous
370
     0
100
AcDbPolyline
 90
        8
 70
   128
 43
0.0
 10
0.1658694389074616
 20
0.1719411272674845
 10
0.1652516813905572
 20
0.1729225110648263
 10
0.1651279783700724
 20
0.1737047093873323
 10
0.1652291259119009
 20
0.1744300558028287
 10
0.1656089942456477
 20
0.1749528997095564
 10
0.1662485524437022
 20
0.1753935794747297
 10
0.166926810382701
 20
0.175556979086434
 10
0.1676113149938944
 20
0.1754635597465382
  0
LWPOLYLINE
  5
1F62
330
2
100
AcDbEntity
  8
Profilo
  6
Continuous
370
     0
100
AcDbPolyline
 90
        8
 70
   128
 43
0.0
 10
0.1642750495905906
 20
0.1656437327947989
 10
0.1636890602213329
 20
0.1662292451204892
 10
0.1633785701534259
 20
0.1668276186652258
 10
0.1633879349496675
 20
0.1673533714318052
 10
0.1636790915608136
 20
0.1680471785112237
 10
0.1641131902960969
 20
0.168670789961571
 10
0.164689963051161
 20
0.1689909772573164
 10
0.1652806835251729
 20
0.1689263483869934
  0
LWPOLYLINE
  5
1F63
330
2
100
AcDbEntity
  8
Profilo
  6
Continuous
370
     0
100
AcDbPolyline
 90
       17
 70
   128
 43
0.0
 10
0.1880266208136939
 20
0.1571055182946642
 10
0.1819458571937685
 20
0.1572722491631216
 10
0.1773823469116648
 20
0.1571398187685032
 10
0.1755759302823557
 20
0.1571452853513251
 10
0.1716258243769294
 20
0.1581057118219503
 10
0.167944444411224
 20
0.1594956889126853
 10
0.1656226233837875
 20
0.1608961768441
 10
0.1638644825588619
 20
0.1622427294170721
 10
0.1629051172030168
 20
0.1632651363864075
 10
0.1624918917482277
 20
0.1639808752352967
 10
0.1634572132752078
 20
0.1647655619884377
 10
0.1663808539243851
 20
0.1660122920856897
 10
0.1692518752260538
 20
0.1665008201871836
 10
0.1718147464419649
 20
0.1666372161389523
 10
0.1751763921884718
 20
0.1664494657240519
 10
0.1774311133155061
 20
0.166233727391179
 10
0.1796084351417407
 20
0.1659785298947463
  0
LWPOLYLINE
  5
1F64
330
2
100
AcDbEntity
  8
Profilo
  6
Continuous
370
     0
100
AcDbPolyline
 90
        4
 70
   128
 43
0.0
 10
0.187952280947591
 20
0.1592617425214234
 10
0.181414523872966
 20
0.1608045158724783
 10
0.1757543889963967
 20
0.1618683061190418
 10
0.1702519485224995
 20
0.162622426396768
  0
LWPOLYLINE
  5
1F65
330
2
100
AcDbEntity
  8
Profilo
  6
Continuous
370
     0
100
AcDbPolyline
 90
        5
 70
   128
 43
0.0
 10
0.1883058107290262
 20
0.1613435522611071
 10
0.1823783973440326
 20
0.1617834973580661
 10
0.1781595654988853
 20
0.162314373208583
 10
0.1730280308465305
 20
0.1628187623697497
 10
0.1703074642925836
 20
0.1629920377587007
  0
LWPOLYLINE
  5
1F66
330
2
100
AcDbEntity
  8
Profilo
  6
Continuous
370
     0
100
AcDbPolyline
 90
        2
 70
   128
 43
0.0
 10
0.1693130189553228
 20
0.1635089768661638
 10
0.1665049173369203
 20
0.1650028581506491
  0
LWPOLYLINE
  5
1F67
330
2
100
AcDbEntity
  8
Profilo
  6
Continuous
370
     0
100
AcDbPolyline
 90
        3
 70
   128
 43
0.0
 10
0.1688178863952613
 20
0.162183866927633
 10
0.1666857803141001
 20
0.1615844672268456
 10
0.1662023958349609
 20
0.1612892711150243
  0
LWPOLYLINE
  5
1F68
330
2
100
AcDbEntity
  8
Profilo
  6
Continuous
370
     0
100
AcDbPolyline
 90
        2
 70
   128
 43
0.0
 10
0.1742868582696401
 20
0.1633142590457202
 10
0.1714554247507441
 20
0.165332586295039
  0
LWPOLYLINE
  5
1F69
330
2
100
AcDbEntity
  8
Profilo
  6
Continuous
370
     0
100
AcDbPolyline
 90
        3
 70
   128
 43
0.0
 10
0.1809356468844333
 20
0.1625107084185289
 10
0.1789029882100012
 20
0.1642048902671634
 10
0.1783320677279233
 20
0.1652302992878388
  0
LWPOLYLINE
  5
1F6A
330
2
100
AcDbEntity
  8
Profilo
  6
Continuous
370
     0
100
AcDbPolyline
 90
        3
 70
   128
 43
0.0
 10
0.1801381564591468
 20
0.1600562852655725
 10
0.1776248454667998
 20
0.1584824067503079
 10
0.1771253684282493
 20
0.1577401821780513
  0
LWPOLYLINE
  5
1F6B
330
2
100
AcDbEntity
  8
Profilo
  6
Continuous
370
     0
100
AcDbPolyline
 90
        3
 70
   128
 43
0.0
 10
0.1735667671451514
 20
0.1608992950563218
 10
0.1712053592703077
 20
0.1597929262650415
 10
0.1706270345611797
 20
0.1592055362956875
  0
LWPOLYLINE
  5
1F6C
330
2
100
AcDbEntity
  8
Profilo
  6
Continuous
370
     0
100
AcDbPolyline
 90
        2
 70
   128
 43
0.0
 10
0.1739409633879875
 20
0.1568013579341661
 10
0.1673764401174521
 20
0.1568051103396493
  0
LWPOLYLINE
  5
1F6D
330
2
100
AcDbEntity
  8
Profilo
  6
Continuous
370
     0
100
AcDbPolyline
 90
       12
 70
   128
 43
0.0
 10
0.1670977487537074
 20
0.1539963388487533
 10
0.1654051965408308
 20
0.1545009803149964
 10
0.164325983758434
 20
0.1549422409057031
 10
0.1632037840018169
 20
0.1556692813187497
 10
0.1623283419747578
 20
0.156180240099364
 10
0.1620938833592346
 20
0.1565735338458905
 10
0.1622260067584976
 20
0.1571195293152959
 10
0.1627943286071088
 20
0.1576143994862887
 10
0.1642033424688106
 20
0.1586062444984458
 10
0.1651126342080354
 20
0.1590356289207784
 10
0.1663618813140383
 20
0.1595357624191274
 10
0.16713701904635
 20
0.1596916225962422
  0
LWPOLYLINE
  5
1F6E
330
2
100
AcDbEntity
  8
Profilo
  6
Continuous
370
     0
100
AcDbPolyline
 90
        8
 70
   128
 43
0.0
 10
0.1633616353072677
 20
0.1582455046849085
 10
0.1624708487239429
 20
0.1589879585692314
 10
0.1621114875855992
 20
0.1596936470452986
 10
0.1619835402451647
 20
0.1604147487896932
 10
0.1621832488467246
 20
0.1610293886649435
 10
0.1626553273020187
 20
0.1616461343793021
 10
0.1632498956777434
 20
0.1620111298744953
 10
0.163929766412282
 20
0.1621338063601248
  0
LWPOLYLINE
  5
1F6F
330
2
100
AcDbEntity
  8
Profilo
  6
Continuous
370
     0
100
AcDbPolyline
 90
        8
 70
   128
 43
0.0
 10
0.16379128287029
 20
0.1517636332414161
 10
0.1630530406031217
 20
0.1521394078805103
 10
0.1625728394064877
 20
0.1526125482318439
 10
0.1624192793172637
 20
0.1531154627076466
 10
0.1624817875311985
 20
0.1538652847924476
 10
0.1627019334260614
 20
0.1545925184123776
 10
0.1631515335974191
 20
0.1550752672096381
 10
0.1637333135727926
 20
0.1551963441667703
  0
LWPOLYLINE
  5
1F70
330
2
100
AcDbEntity
  8
Profilo
  6
Continuous
370
     0
100
AcDbPolyline
 90
       17
 70
   128
 43
0.0
 10
0.1890188228364303
 20
0.1509829478545837
 10
0.18318415029981
 20
0.1492624590361627
 10
0.1788849173513446
 20
0.1477263080152303
 10
0.177165223777901
 20
0.1471732936070685
 10
0.1731116617152194
 20
0.1468660636060215
 10
0.169180934767048
 20
0.1470504014035102
 10
0.1665399771780093
 20
0.1476648624213
 10
0.1644517782610316
 20
0.1484022146269522
 10
0.1632234264591558
 20
0.1490781212386741
 10
0.1626092502298378
 20
0.1496311356468376
 10
0.1632848440164126
 20
0.1506757178535368
 10
0.1656801307196675
 20
0.152764883282631
 10
0.1682596707514511
 20
0.154116695490377
 10
0.1706549574547077
 20
0.1550383865092156
 10
0.1739100906163043
 20
0.1558986309184243
 10
0.1761211246477922
 20
0.1563901987169616
 10
0.1782707411220267
 20
0.1568203209215651
  0
LWPOLYLINE
  5
1F71
330
2
100
AcDbEntity
  8
Profilo
  6
Continuous
370
     0
100
AcDbPolyline
 90
        4
 70
   128
 43
0.0
 10
0.1882818114926005
 20
0.1530106666740499
 10
0.1815872918408784
 20
0.152457653281584
 10
0.1758754544187701
 20
0.1517203000602359
 10
0.1704092865689238
 20
0.1507371634474671
  0
LWPOLYLINE
  5
1F72
330
2
100
AcDbEntity
  8
Profilo
  6
Continuous
370
     0
100
AcDbPolyline
 90
        5
 70
   128
 43
0.0
 10
0.1879747237063215
 20
0.1550998321031459
 10
0.1822014680701963
 20
0.1536865732857718
 10
0.1780250708930028
 20
0.1528877754861893
 10
0.1729888266007075
 20
0.1517817466698621
 10
0.1703478690116688
 20
0.151105840058142
  0
LWPOLYLINE
  5
1F73
330
2
100
AcDbEntity
  8
Profilo
  6
Continuous
370
     0
100
AcDbPolyline
 90
        2
 70
   128
 43
0.0
 10
0.1692423523243048
 20
0.1512901778556306
 10
0.1661100542772184
 20
0.1518431922637942
  0
LWPOLYLINE
  5
1F74
330
2
100
AcDbEntity
  8
Profilo
  6
Continuous
370
     0
100
AcDbPolyline
 90
        3
 70
   128
 43
0.0
 10
0.169180934767048
 20
0.1498769190382565
 10
0.1673384060790942
 20
0.1486479990340688
 10
0.1669699007355602
 20
0.1482178768294636
  0
LWPOLYLINE
  5
1F75
330
2
100
AcDbEntity
  8
Profilo
  6
Continuous
370
     0
100
AcDbPolyline
 90
        2
 70
   128
 43
0.0
 10
0.1740329257308163
 20
0.1526419910790727
 10
0.1707163750119628
 20
0.1536865732857718
  0
LWPOLYLINE
  5
1F76
330
2
100
AcDbEntity
  8
Profilo
  6
Continuous
370
     0
100
AcDbPolyline
 90
        3
 70
   128
 43
0.0
 10
0.1806046102680264
 20
0.1539323576928884
 10
0.1781479060075147
 20
0.1549154943056572
 10
0.1772880595491729
 20
0.1557142921052397
  0
LWPOLYLINE
  5
1F77
330
2
100
AcDbEntity
  8
Profilo
  6
Continuous
370
     0
100
AcDbPolyline
 90
        3
 70
   128
 43
0.0
 10
0.1806046102680264
 20
0.1513516244652569
 10
0.1787006646795758
 20
0.1490781212386741
 10
0.1784549937937937
 20
0.1482178768294636
  0
LWPOLYLINE
  5
1F78
330
2
100
AcDbEntity
  8
Profilo
  6
Continuous
370
     0
100
AcDbPolyline
 90
        3
 70
   128
 43
0.0
 10
0.1740943432880714
 20
0.1501227034453732
 10
0.1721903976996225
 20
0.1483407690330219
 10
0.1718218916993267
 20
0.1476034158116737
  0
LWPOLYLINE
  5
1F79
330
2
100
AcDbEntity
  8
Profilo
  6
Continuous
370
     0
100
AcDbPolyline
 90
        2
 70
   128
 43
0.0
 10
0.1757165572758209
 20
0.1463409666402478
 10
0.1694721650859433
 20
0.1443159861393668
  0
LWPOLYLINE
  5
1F7A
330
2
100
AcDbEntity
  8
Profilo
  6
Continuous
370
     0
100
AcDbPolyline
 90
       12
 70
   128
 43
0.0
 10
0.170075071972421
 20
0.1415585653425837
 10
0.1683094163720588
 20
0.1415154804998023
 10
0.167146667001416
 20
0.1416016491696693
 10
0.1658547237670701
 20
0.1419463268962287
 10
0.164864233975963
 20
0.1421617511101397
 10
0.1645197161304098
 20
0.1424633439939176
 10
0.1644766510713355
 20
0.1430234449186903
 10
0.164864233975963
 20
0.1436697155290294
 10
0.1658977888261445
 20
0.1450484254195712
 10
0.1666298895763253
 20
0.1457377808726919
 10
0.1676634444265067
 20
0.1465994746812425
 10
0.1683524807743731
 20
0.1469872372505852
  0
LWPOLYLINE
  5
1F7B
330
2
100
AcDbEntity
  8
Profilo
  6
Continuous
370
     0
100
AcDbPolyline
 90
        8
 70
   128
 43
0.0
 10
0.165208752478278
 20
0.1444452396520153
 10
0.1641321332257822
 20
0.1448760870641395
 10
0.1635722907416172
 20
0.1454361879889139
 10
0.1632277728960639
 20
0.1460824585992513
 10
0.1632277728960639
 20
0.1467287292095887
 10
0.1634861612802302
 20
0.1474611695054909
 10
0.1639388395974594
 20
0.1479920325820286
 10
0.1645475259709131
 20
0.1483187964640345
  0
LWPOLYLINE
  5
1F7C
330
2
100
AcDbEntity
  8
Profilo
  6
Continuous
370
     0
100
AcDbPolyline
 90
        8
 70
   128
 43
0.0
 10
0.1676203800241923
 20
0.1384133819764597
 10
0.1668021491558628
 20
0.13854263548911
 10
0.1661992422693833
 20
0.1388442283728879
 10
0.1658977888261445
 20
0.1392750757850121
 10
0.165725529903367
 20
0.1400075150652165
 10
0.1657101735437733
 20
0.140767184161073
 10
0.1659885911341033
 20
0.1413652396440655
 10
0.1665044819333511
 20
0.141660170572497
  0
LWPOLYLINE
  5
1F7D
330
2
100
AcDbEntity
  8
Profilo
  6
Continuous
370
     0
100
AcDbPolyline
 90
       17
 70
   128
 43
0.0
 10
0.1918544413508781
 20
0.1454666446279469
 10
0.1868369982979997
 20
0.1420273495555465
 10
0.1832228815586857
 20
0.1392378470732241
 10
0.1817582466298896
 20
0.1381804845774242
 10
0.1779980193074729
 20
0.1366356719178037
 10
0.1742027123175086
 20
0.1355963261540727
 10
0.1715011334963149
 20
0.1353646125326163
 10
0.1692872839466174
 20
0.1354205871996244
 10
0.1679101853315087
 20
0.1356838310052582
 10
0.1671551781762049
 20
0.1360199880693469
 10
0.1674749123954035
 20
0.1372222147451799
 10
0.1691073778012798
 20
0.1399493134378447
 10
0.1711429332121538
 20
0.14203208495432
 10
0.1731361680512963
 20
0.1436488495015032
 10
0.1759661535142806
 20
0.1454728820183769
 10
0.1779170690340427
 20
0.1466236378672457
 10
0.1798285607185169
 20
0.147696976414665
  0
LWPOLYLINE
  5
1F7E
330
2
100
AcDbEntity
  8
Profilo
  6
Continuous
370
     0
100
AcDbPolyline
 90
        4
 70
   128
 43
0.0
 10
0.190526902334715
 20
0.1471673707941244
 10
0.1843309263328686
 20
0.1445727034620626
 10
0.1791265008088073
 20
0.1421063840435495
 10
0.1742316721771869
 20
0.1394822268018588
  0
LWPOLYLINE
  5
1F7F
330
2
100
AcDbEntity
  8
Profilo
  6
Continuous
370
     0
100
AcDbPolyline
 90
        5
 70
   128
 43
0.0
 10
0.1895892568728493
 20
0.1490593898443593
 10
0.1845352854718948
 20
0.1459312667324509
 10
0.1808101378170276
 20
0.1438809871769427
 10
0.1763621665656986
 20
0.1412728061898219
 10
0.1740593332710171
 20
0.1398138800259017
  0
LWPOLYLINE
  5
1F80
330
2
100
AcDbEntity
  8
Profilo
  6
Continuous
370
     0
100
AcDbPolyline
 90
        2
 70
   128
 43
0.0
 10
0.1729509609094956
 20
0.1396475722454427
 10
0.1698010775905802
 20
0.1392055868739335
  0
LWPOLYLINE
  5
1F81
330
2
100
AcDbEntity
  8
Profilo
  6
Continuous
370
     0
100
AcDbPolyline
 90
        3
 70
   128
 43
0.0
 10
0.1733292703334713
 20
0.1382845041690222
 10
0.1719566785843541
 20
0.1365463591138334
 10
0.1717391242469753
 20
0.1360234141746699
  0
LWPOLYLINE
  5
1F82
330
2
100
AcDbEntity
  8
Profilo
  6
Continuous
370
     0
100
AcDbPolyline
 90
        2
 70
   128
 43
0.0
 10
0.1770893337052856
 20
0.1424135916158247
 10
0.1736123128786046
 20
0.1423821777954797
  0
LWPOLYLINE
  5
1F83
330
2
100
AcDbEntity
  8
Profilo
  6
Continuous
370
     0
100
AcDbPolyline
 90
        3
 70
   128
 43
0.0
 10
0.1829406318947923
 20
0.1456715653959724
 10
0.1803003613780832
 20
0.1458474205113025
 10
0.1792357567057253
 20
0.1463414151956166
  0
LWPOLYLINE
  5
1F84
330
2
100
AcDbEntity
  8
Profilo
  6
Continuous
370
     0
100
AcDbPolyline
 90
        3
 70
   128
 43
0.0
 10
0.183738122320077
 20
0.1432171422430142
 10
0.1826299135952917
 20
0.1404665606413578
 10
0.1826620968402656
 20
0.1395725031116411
  0
LWPOLYLINE
  5
1F85
330
2
100
AcDbEntity
  8
Profilo
  6
Continuous
370
     0
100
AcDbPolyline
 90
        3
 70
   128
 43
0.0
 10
0.17792624796586
 20
0.1400365857643178
 10
0.1766661361235714
 20
0.137753513886644
 10
0.1765435207669513
 20
0.1369383746840485
  0
LWPOLYLINE
  5
1F86
330
2
100
AcDbEntity
  8
Profilo
  6
Continuous
370
     0
100
AcDbPolyline
 90
        2
 70
   128
 43
0.0
 10
0.1806376860907702
 20
0.1369412320236152
 10
0.175324669596335
 20
0.1330857378166681
  0
LWPOLYLINE
  5
1F87
330
2
100
AcDbEntity
  8
Profilo
  6
Continuous
370
     0
100
AcDbPolyline
 90
       12
 70
   128
 43
0.0
 10
0.1767501580062886
 20
0.1306495832736681
 10
0.1750842336906503
 20
0.1300629895664618
 10
0.1739517657415094
 20
0.1297856315257122
 10
0.1726165434347132
 20
0.1297142071083984
 10
0.1716079619214591
 20
0.1296130095325983
 10
0.1711871086529951
 20
0.1297933795408431
 10
0.1709730706436184
 20
0.1303127593400136
 10
0.1711419752891098
 20
0.1310471689195248
 10
0.1716988995778313
 20
0.1326777859583293
 10
0.1721821462166962
 20
0.1335596335274638
 10
0.1728988372611203
 20
0.134698539052462
 10
0.1734343245460147
 20
0.1352802471120432
  0
LWPOLYLINE
  5
1F88
330
2
100
AcDbEntity
  8
Profilo
  6
Continuous
370
     0
100
AcDbPolyline
 90
        8
 70
   128
 43
0.0
 10
0.1712299817221682
 20
0.1318911982623275
 10
0.170072916794186
 20
0.1319682648556637
 10
0.1693673942472008
 20
0.1323279516481724
 10
0.1688400297036482
 20
0.1328361296542835
 10
0.1686403211020883
 20
0.1334507695295355
 10
0.1686597265597859
 20
0.1342272080476055
 10
0.1689262035108369
 20
0.1348719741288158
 10
0.1694041230600008
 20
0.135370839481729
  0
LWPOLYLINE
  5
1F89
330
2
100
AcDbEntity
  8
Profilo
  6
Continuous
370
     0
100
AcDbPolyline
 90
        8
 70
   128
 43
0.0
 10
0.175387522343985
 20
0.1268997946104152
 10
0.1745693970128345
 20
0.1267698747622377
 10
0.1739028011632596
 20
0.1268703981656754
 10
0.1734829627293782
 20
0.1271870041675319
 10
0.1730927985734508
 20
0.1278303643831902
 10
0.1728434431468718
 20
0.1285481072509467
 10
0.1729234247025809
 20
0.1292029275820981
 10
0.1733229273398512
 20
0.1296428425876486
  0
LWPOLYLINE
  5
1F8A
330
2
100
AcDbEntity
  8
Profilo
  6
Continuous
370
     0
100
AcDbPolyline
 90
       17
 70
   128
 43
0.0
 10
0.1962559062599259
 20
0.1410965828089226
 10
0.1925468349753897
 20
0.1362751436472079
 10
0.189971609372701
 20
0.1325053456420684
 10
0.1889054017600932
 20
0.1310471370667999
 10
0.1858065864273056
 20
0.1284159587750744
 10
0.1825182104871844
 20
0.1262546678550245
 10
0.1800204597918616
 20
0.1251994613380317
 10
0.1778976666281652
 20
0.1245685792759912
 10
0.1765066212070797
 20
0.1243933921377143
 10
0.1756846884865956
 20
0.1244797864621501
 10
0.1756172653253228
 20
0.1257219752836805
 10
0.1763271123458375
 20
0.128820059819065
 10
0.1776194287896379
 20
0.131429914456716
 10
0.1790155000509296
 20
0.1335834923537047
 10
0.1811433191205148
 20
0.1361927639667067
 10
0.1826431469246484
 20
0.1378900638656356
 10
0.1841294036951412
 20
0.1395015529004576
  0
LWPOLYLINE
  5
1F8B
330
2
100
AcDbEntity
  8
Profilo
  6
Continuous
370
     0
100
AcDbPolyline
 90
        4
 70
   128
 43
0.0
 10
0.1944677883398421
 20
0.1423038373950108
 10
0.1893768612888346
 20
0.137921500239925
 10
0.1851892930944808
 20
0.1339676351527879
 10
0.1813449436118238
 20
0.1299593280765721
  0
LWPOLYLINE
  5
1F8C
330
2
100
AcDbEntity
  8
Profilo
  6
Continuous
370
     0
100
AcDbPolyline
 90
        5
 70
   128
 43
0.0
 10
0.1929913684731564
 20
0.1438135060592747
 10
0.1891513992411843
 20
0.1392767211379416
 10
0.1862421445157339
 20
0.1361756554745388
 10
0.1828178447222898
 20
0.132320629243909
 10
0.1810785530896298
 20
0.1302214933856499
  0
LWPOLYLINE
  5
1F8D
330
2
100
AcDbEntity
  8
Profilo
  6
Continuous
370
     0
100
AcDbPolyline
 90
        2
 70
   128
 43
0.0
 10
0.1800758202631835
 20
0.1297208193915265
 10
0.1772166841982207
 20
0.1283270988480046
  0
LWPOLYLINE
  5
1F8E
330
2
100
AcDbEntity
  8
Profilo
  6
Continuous
370
     0
100
AcDbPolyline
 90
        3
 70
   128
 43
0.0
 10
0.1808568251061361
 20
0.1285413686564359
 10
0.1800885291396662
 20
0.1264641402986145
 10
0.1800432215427795
 20
0.1258995621191095
  0
LWPOLYLINE
  5
1F8F
330
2
100
AcDbEntity
  8
Profilo
  6
Continuous
370
     0
100
AcDbPolyline
 90
        2
 70
   128
 43
0.0
 10
0.1831568996852594
 20
0.133630287660886
 10
0.1798597637750964
 20
0.132525952817105
  0
LWPOLYLINE
  5
1F90
330
2
100
AcDbEntity
  8
Profilo
  6
Continuous
370
     0
100
AcDbPolyline
 90
        3
 70
   128
 43
0.0
 10
0.1877150456918825
 20
0.1385369554341272
 10
0.1851496569930008
 20
0.1378883151280755
 10
0.1839845050294903
 20
0.1380291510555592
  0
LWPOLYLINE
  5
1F91
330
2
100
AcDbEntity
  8
Profilo
  6
Continuous
370
     0
100
AcDbPolyline
 90
        3
 70
   128
 43
0.0
 10
0.1892319626231836
 20
0.1364490983950249
 10
0.1890279699533893
 20
0.1334906845098947
 10
0.1893348570088674
 20
0.132650330439946
  0
LWPOLYLINE
  5
1F92
330
2
100
AcDbEntity
  8
Profilo
  6
Continuous
370
     0
100
AcDbPolyline
 90
        3
 70
   128
 43
0.0
 10
0.1846873876502032
 20
0.1316282414858905
 10
0.1841944580809146
 20
0.1290675151253784
 10
0.1843297358133865
 20
0.1282543814460966
  0
LWPOLYLINE
  5
1F93
330
2
100
AcDbEntity
  8
Profilo
  6
Continuous
370
     0
100
AcDbPolyline
 90
        2
 70
   128
 43
0.0
 10
0.1882226354569093
 20
0.1295222656003508
 10
0.1843610697303534
 20
0.1242136603231204
  0
LWPOLYLINE
  5
1F94
330
2
100
AcDbEntity
  8
Profilo
  6
Continuous
370
     0
100
AcDbPolyline
 90
       12
 70
   128
 43
0.0
 10
0.1864696029262548
 20
0.1223372398142577
 10
0.1850664821745317
 20
0.1212645571217271
 10
0.1840751495001255
 20
0.1206508221078573
 10
0.1828273489833071
 20
0.1201702870662787
 10
0.1818994027336233
 20
0.1197623736245732
 10
0.1814434100924233
 20
0.119803864884164
 10
0.1810793506643916
 20
0.1202316830442585
 10
0.1810130434872187
 20
0.1209823424663666
 10
0.1810388215847828
 20
0.1227052504965003
 10
0.1812259105643429
 20
0.1236932687973878
 10
0.1815555830900995
 20
0.1249979020308261
 10
0.1818851040856154
 20
0.125716613942775
  0
LWPOLYLINE
  5
1F95
330
2
100
AcDbEntity
  8
Profilo
  6
Continuous
370
     0
100
AcDbPolyline
 90
        8
 70
   128
 43
0.0
 10
0.1808359231681779
 20
0.1218122575562135
 10
0.1797116741416035
 20
0.1215279995156533
 10
0.1789295329943646
 20
0.1216520635265615
 10
0.1782709438686995
 20
0.1219724049245224
 10
0.1778910755349526
 20
0.1224952488312501
 10
0.1776695985247757
 20
0.1232396823595754
 10
0.177723789489025
 20
0.1239352372490808
 10
0.1780241601185674
 20
0.1245573716563589
  0
LWPOLYLINE
  5
1F96
330
2
100
AcDbEntity
  8
Profilo
  6
Continuous
370
     0
100
AcDbPolyline
 90
        8
 70
   128
 43
0.0
 10
0.1863324078225451
 20
0.1183499012945491
 10
0.1855944718362016
 20
0.1179735255454895
 10
0.1849294380697332
 20
0.1178631395374717
 10
0.1844323113563048
 20
0.1180345125276739
 10
0.1838624339532421
 20
0.1185258170983219
 10
0.1834034881061915
 20
0.1191313760652748
 10
0.1832772044753449
 20
0.1197788628681687
 10
0.1835212128490008
 20
0.1203207000050282
  0
LWPOLYLINE
  5
1F97
330
2
100
AcDbEntity
  8
Profilo
  6
Continuous
370
     0
100
AcDbPolyline
 90
       17
 70
   128
 43
0.0
 10
0.2017923715114692
 20
0.1383005344963686
 10
0.1997547417352207
 20
0.1325689073034284
 10
0.1984704882938034
 20
0.128187827869946
 10
0.1979070758272096
 20
0.1264715128304901
 10
0.1957730061195425
 20
0.1230115269703487
 10
0.193313450377745
 20
0.1199398531078342
 10
0.1912640250492034
 20
0.1181644446612454
 10
0.1894400820567389
 20
0.116908461002002
 10
0.1881712550474764
 20
0.11631199145751
 10
0.1873628532632375
 20
0.1161401661638739
 10
0.1869148725702837
 20
0.1173007230344117
 10
0.1866326164332713
 20
0.1204665313125682
 10
0.1870551929723815
 20
0.1233479983155328
 10
0.1877174434737666
 20
0.1258275823529105
 10
0.1889348103940337
 20
0.1289666793766977
 10
0.1898367368871566
 20
0.1310443797857937
 10
0.1907522735756112
 20
0.1330362755333874
  0
LWPOLYLINE
  5
1F98
330
2
100
AcDbEntity
  8
Profilo
  6
Continuous
370
     0
100
AcDbPolyline
 90
        4
 70
   128
 43
0.0
 10
0.199718708128031
 20
0.1388961430120426
 10
0.196231165438188
 20
0.1331551097282096
 10
0.1934703629249087
 20
0.1281007308353784
 10
0.1910528043037368
 20
0.1231006349487723
  0
LWPOLYLINE
  5
1F99
330
2
100
AcDbEntity
  8
Profilo
  6
Continuous
370
     0
100
AcDbPolyline
 90
        5
 70
   128
 43
0.0
 10
0.1978480361198981
 20
0.1398756844029987
 10
0.1955979519999745
 20
0.1343743297899782
 10
0.1937893683264361
 20
0.1305260319322099
 10
0.1917239343131593
 20
0.1258015172850731
 10
0.1907184383258856
 20
0.1232676497758196
  0
LWPOLYLINE
  5
1F9A
330
2
100
AcDbEntity
  8
Profilo
  6
Continuous
370
     0
100
AcDbPolyline
 90
        2
 70
   128
 43
0.0
 10
0.1899194995100147
 20
0.1224816190269818
 10
0.1876309828578163
 20
0.1202725903888653
  0
LWPOLYLINE
  5
1F9B
330
2
100
AcDbEntity
  8
Profilo
  6
Continuous
370
     0
100
AcDbPolyline
 90
        3
 70
   128
 43
0.0
 10
0.1910267495763337
 20
0.1216012384888843
 10
0.190937955554744
 20
0.1193882604129973
 10
0.1910693297216065
 20
0.1188373138390078
  0
LWPOLYLINE
  5
1F9C
330
2
100
AcDbEntity
  8
Profilo
  6
Continuous
370
     0
100
AcDbPolyline
 90
        2
 70
   128
 43
0.0
 10
0.1916416880374013
 20
0.1271518502022429
 10
0.188847183679138
 20
0.1250826943238903
  0
LWPOLYLINE
  5
1F9D
330
2
100
AcDbEntity
  8
Profilo
  6
Continuous
370
     0
100
AcDbPolyline
 90
        3
 70
   128
 43
0.0
 10
0.194460498771542
 20
0.1332269131401689
 10
0.1922211100104464
 20
0.1318172708452346
 10
0.1910694639480658
 20
0.131591162014042
  0
LWPOLYLINE
  5
1F9E
330
2
100
AcDbEntity
  8
Profilo
  6
Continuous
370
     0
100
AcDbPolyline
 90
        3
 70
   128
 43
0.0
 10
0.1965483558106426
 20
0.131709996208866
 10
0.1972685474196568
 20
0.1288333402038196
 10
0.197820098042443
 20
0.1281289493050975
  0
LWPOLYLINE
  5
1F9F
330
2
100
AcDbEntity
  8
Profilo
  6
Continuous
370
     0
100
AcDbPolyline
 90
        3
 70
   128
 43
0.0
 10
0.1937159348811702
 20
0.1257207379324457
 10
0.1940384389655664
 20
0.1231330188268918
 10
0.1944183678601389
 20
0.1224014858608844
  0
LWPOLYLINE
  5
1FA0
330
2
100
AcDbEntity
  8
Profilo
  6
Continuous
370
     0
100
AcDbPolyline
 90
        2
 70
   128
 43
0.0
 10
0.1977289376828318
 20
0.1248102874949422
 10
0.1956968196825807
 20
0.1185682144191902
  0
LWPOLYLINE
  5
1FA1
330
2
100
AcDbEntity
  8
Profilo
  6
Continuous
370
     0
100
AcDbPolyline
 90
       12
 70
   128
 43
0.0
 10
0.1982819997441995
 20
0.1174352050576642
 10
0.1972790297916885
 20
0.1159814350355739
 10
0.1965258709412078
 20
0.1150913997078829
 10
0.1954876356228906
 20
0.1142487921599949
 10
0.1947311584810775
 20
0.1135740922621574
 10
0.1942846622039512
 20
0.1134726433195206
 10
0.1938062180306316
 20
0.113767022018243
 10
0.1935111896392841
 20
0.1144604515085619
 10
0.1930032982058941
 20
0.1161070002878284
 10
0.1928759159533045
 20
0.1171044752052511
 10
0.1927862993166099
 20
0.1184471295563232
 10
0.1928775982117988
 20
0.1192324927911402
  0
LWPOLYLINE
  5
1FA2
330
2
100
AcDbEntity
  8
Profilo
  6
Continuous
370
     0
100
AcDbPolyline
 90
        8
 70
   128
 43
0.0
 10
0.1930862803390413
 20
0.1151950144740988
 10
0.1921048965416995
 20
0.1145772569571944
 10
0.1913226982191952
 20
0.1144535539367096
 10
0.1905973518036988
 20
0.114554701478538
 10
0.1900745078969711
 20
0.1149345698122848
 10
0.1896338281317961
 20
0.1155741280103393
 10
0.1894704285200918
 20
0.1162523859493399
 10
0.1895638478599894
 20
0.1169368905605315
  0
LWPOLYLINE
  5
1FA3
330
2
100
AcDbEntity
  8
Profilo
  6
Continuous
370
     0
100
AcDbPolyline
 90
        8
 70
   128
 43
0.0
 10
0.1993836748117287
 20
0.1136006251572277
 10
0.1987981624860383
 20
0.11301463578797
 10
0.1981997889413017
 20
0.1127041457200631
 10
0.1976740361747223
 20
0.1127135105163047
 10
0.1969802290953039
 20
0.1130046671274508
 10
0.1963566176449566
 20
0.1134387658627341
 10
0.1960364303492111
 20
0.1140155386177999
 10
0.1961010592195341
 20
0.11460625909181
  0
LWPOLYLINE
  5
1FA4
330
2
100
AcDbEntity
  8
Profilo
  6
Continuous
370
     0
100
AcDbPolyline
 90
       17
 70
   128
 43
0.0
 10
0.2079218893118634
 20
0.1373521963803311
 10
0.207755158443406
 20
0.1312714327604057
 10
0.2078875888380244
 20
0.1267079224783019
 10
0.2078821222552007
 20
0.1249015058489929
 10
0.2069216957845755
 20
0.1209513999435666
 10
0.2055317186938423
 20
0.1172700199778612
 10
0.2041312307624258
 20
0.1149481989504247
 10
0.2027846781894555
 20
0.113190058125499
 10
0.20176227122012
 20
0.112230692769654
 10
0.2010465323712308
 20
0.1118174673148649
 10
0.2002618456180899
 20
0.1127827888418449
 10
0.1990151155208361
 20
0.115706429491024
 10
0.1985265874193439
 20
0.1185774507926927
 10
0.1983901914675735
 20
0.1211403220086021
 10
0.1985779418824757
 20
0.1245019677551107
 10
0.1987936802153486
 20
0.1267566888821432
 10
0.1990488777117812
 20
0.1289340107083779
  0
LWPOLYLINE
  5
1FA5
330
2
100
AcDbEntity
  8
Profilo
  6
Continuous
370
     0
100
AcDbPolyline
 90
        4
 70
   128
 43
0.0
 10
0.2057656650851042
 20
0.1372778565142281
 10
0.2042228917340475
 20
0.1307400994396031
 10
0.203159101487484
 20
0.1250799645630339
 10
0.2024049812097578
 20
0.1195775240891366
  0
LWPOLYLINE
  5
1FA6
330
2
100
AcDbEntity
  8
Profilo
  6
Continuous
370
     0
100
AcDbPolyline
 90
        5
 70
   128
 43
0.0
 10
0.2036838553454187
 20
0.1376313862956633
 10
0.2032439102484597
 20
0.1317039729106697
 10
0.2027130343979428
 20
0.1274851410655225
 10
0.2022086452367779
 20
0.1223536064131677
 10
0.2020353698478251
 20
0.1196330398592207
  0
LWPOLYLINE
  5
1FA7
330
2
100
AcDbEntity
  8
Profilo
  6
Continuous
370
     0
100
AcDbPolyline
 90
        2
 70
   128
 43
0.0
 10
0.2015184307403638
 20
0.1186385945219599
 10
0.2000245494558785
 20
0.1158304929035574
  0
LWPOLYLINE
  5
1FA8
330
2
100
AcDbEntity
  8
Profilo
  6
Continuous
370
     0
100
AcDbPolyline
 90
        3
 70
   128
 43
0.0
 10
0.2028435406788928
 20
0.1181434619618984
 10
0.2034429403796802
 20
0.1160113558807372
 10
0.2037381364915033
 20
0.115527971401598
  0
LWPOLYLINE
  5
1FA9
330
2
100
AcDbEntity
  8
Profilo
  6
Continuous
370
     0
100
AcDbPolyline
 90
        2
 70
   128
 43
0.0
 10
0.2017131485608074
 20
0.1236124338362772
 10
0.1996948213114885
 20
0.1207810003173813
  0
LWPOLYLINE
  5
1FAA
330
2
100
AcDbEntity
  8
Profilo
  6
Continuous
370
     0
100
AcDbPolyline
 90
        3
 70
   128
 43
0.0
 10
0.2025166991879969
 20
0.1302612224510705
 10
0.2008225173393642
 20
0.1282285637766383
 10
0.1997971083186888
 20
0.1276576432945605
  0
LWPOLYLINE
  5
1FAB
330
2
100
AcDbEntity
  8
Profilo
  6
Continuous
370
     0
100
AcDbPolyline
 90
        3
 70
   128
 43
0.0
 10
0.2049711223409551
 20
0.1294637320257839
 10
0.2065450008562196
 20
0.1269504210334369
 10
0.2072872254284745
 20
0.1264509439948882
  0
LWPOLYLINE
  5
1FAC
330
2
100
AcDbEntity
  8
Profilo
  6
Continuous
370
     0
100
AcDbPolyline
 90
        3
 70
   128
 43
0.0
 10
0.204128112550204
 20
0.1228923427117885
 10
0.205234481341486
 20
0.1205309348369448
 10
0.2058218713108401
 20
0.1199526101278168
  0
LWPOLYLINE
  5
1FAD
330
2
100
AcDbEntity
  8
Profilo
  6
Continuous
370
     0
100
AcDbPolyline
 90
        2
 70
   128
 43
0.0
 10
0.2082260496723597
 20
0.1232665389546264
 10
0.2082222972668783
 20
0.1167020156840893
  0
LWPOLYLINE
  5
1FAE
330
2
100
AcDbEntity
  8
Profilo
  6
Continuous
370
     0
100
AcDbPolyline
 90
       12
 70
   128
 43
0.0
 10
0.2110310687577742
 20
0.1164233243203463
 10
0.2105264272915294
 20
0.114730772107468
 10
0.2100851667008245
 20
0.1136515593250729
 10
0.2093581262877779
 20
0.112529359568454
 10
0.2088471675071636
 20
0.1116539175413967
 10
0.2084538737606371
 20
0.1114194589258717
 10
0.2079078782912299
 20
0.1115515823251348
 10
0.2074130081202371
 20
0.112119904173746
 10
0.20642116310808
 20
0.1135289180354495
 10
0.2059917786857474
 20
0.1144382097746726
 10
0.2054916451873984
 20
0.1156874568806754
 10
0.2053357850102836
 20
0.1164625946129872
  0
LWPOLYLINE
  5
1FAF
330
2
100
AcDbEntity
  8
Profilo
  6
Continuous
370
     0
100
AcDbPolyline
 90
        8
 70
   128
 43
0.0
 10
0.2067819029216173
 20
0.1126872108739066
 10
0.2060394490372962
 20
0.11179642429058
 10
0.2053337605612272
 20
0.1114370631522364
 10
0.2046126588168343
 20
0.1113091158118036
 10
0.2039980189415823
 20
0.1115088244133618
 10
0.2033812732272237
 20
0.1119809028686558
 10
0.2030162777320323
 20
0.1125754712443805
 10
0.2028936012464028
 20
0.1132553419789209
  0
LWPOLYLINE
  5
1FB0
330
2
100
AcDbEntity
  8
Profilo
  6
Continuous
370
     0
100
AcDbPolyline
 90
        8
 70
   128
 43
0.0
 10
0.2132637743651115
 20
0.1131168584369271
 10
0.2128879997260155
 20
0.1123786161697607
 10
0.2124148593746836
 20
0.1118984149731248
 10
0.2119119448988792
 20
0.1117448548839009
 10
0.21116212281408
 20
0.1118073630978356
 10
0.21043488919415
 20
0.1120275089926986
 10
0.2099521403968895
 20
0.1124771091640562
 10
0.2098310634397555
 20
0.1130588891394298
  0
LWPOLYLINE
  5
1FB1
330
2
100
AcDbEntity
  8
Profilo
  6
Continuous
370
     0
100
AcDbPolyline
 90
       17
 70
   128
 43
0.0
 10
0.2140444597519439
 20
0.1383443984030675
 10
0.2157649485703649
 20
0.1325097258664472
 10
0.2173010995912955
 20
0.1282104929179817
 10
0.2178541139994591
 20
0.1264907993445399
 10
0.218161344000506
 20
0.1224372372818566
 10
0.2179770062030174
 20
0.1185065103336851
 10
0.2173625451852258
 20
0.1158655527446464
 10
0.2166251929795736
 20
0.1137773538276688
 10
0.2159492863678535
 20
0.1125490020257929
 10
0.2153962719596899
 20
0.111934825796475
 10
0.2143516897529908
 20
0.1126104195830498
 10
0.2122625243238966
 20
0.1150057062863046
 10
0.2109107121161506
 20
0.1175852463180882
 10
0.209989021097312
 20
0.1199805330213449
 10
0.2091287766881015
 20
0.1232356661829415
 10
0.208637208889566
 20
0.1254467002144311
 10
0.2082070866849607
 20
0.1275963166886638
  0
LWPOLYLINE
  5
1FB2
330
2
100
AcDbEntity
  8
Profilo
  6
Continuous
370
     0
100
AcDbPolyline
 90
        4
 70
   128
 43
0.0
 10
0.2120167409324759
 20
0.1376073870592376
 10
0.2125697543249435
 20
0.1309128674075155
 10
0.2133071075462917
 20
0.1252010299854072
 10
0.2142902441590605
 20
0.119734862135561
  0
LWPOLYLINE
  5
1FB3
330
2
100
AcDbEntity
  8
Profilo
  6
Continuous
370
     0
100
AcDbPolyline
 90
        5
 70
   128
 43
0.0
 10
0.2099275755033817
 20
0.1373002992729587
 10
0.211340834320754
 20
0.1315270436368335
 10
0.2121396321203383
 20
0.1273506464596399
 10
0.2132456609366637
 20
0.1223144021673446
 10
0.2139215675483856
 20
0.1196734445783059
  0
LWPOLYLINE
  5
1FB4
330
2
100
AcDbEntity
  8
Profilo
  6
Continuous
370
     0
100
AcDbPolyline
 90
        2
 70
   128
 43
0.0
 10
0.2137372297508969
 20
0.118567927890942
 10
0.2131842153427334
 20
0.1154356298438555
  0
LWPOLYLINE
  5
1FB5
330
2
100
AcDbEntity
  8
Profilo
  6
Continuous
370
     0
100
AcDbPolyline
 90
        3
 70
   128
 43
0.0
 10
0.215150488568271
 20
0.1185065103336851
 10
0.2163794085724588
 20
0.1166639816457314
 10
0.2168095307770622
 20
0.1162954763021973
  0
LWPOLYLINE
  5
1FB6
330
2
100
AcDbEntity
  8
Profilo
  6
Continuous
370
     0
100
AcDbPolyline
 90
        2
 70
   128
 43
0.0
 10
0.2123854165274531
 20
0.1233585012974534
 10
0.211340834320754
 20
0.1200419505785999
  0
LWPOLYLINE
  5
1FB7
330
2
100
AcDbEntity
  8
Profilo
  6
Continuous
370
     0
100
AcDbPolyline
 90
        3
 70
   128
 43
0.0
 10
0.2110950499136392
 20
0.1299301858346636
 10
0.2101119133008703
 20
0.1274734815741519
 10
0.2093131155012879
 20
0.1266136351158101
  0
LWPOLYLINE
  5
1FB8
330
2
100
AcDbEntity
  8
Profilo
  6
Continuous
370
     0
100
AcDbPolyline
 90
        3
 70
   128
 43
0.0
 10
0.2136757831412689
 20
0.1299301858346636
 10
0.2159492863678535
 20
0.1280262402462129
 10
0.2168095307770622
 20
0.1277805693604308
  0
LWPOLYLINE
  5
1FB9
330
2
100
AcDbEntity
  8
Profilo
  6
Continuous
370
     0
100
AcDbPolyline
 90
        3
 70
   128
 43
0.0
 10
0.2149047041611544
 20
0.1234199188547085
 10
0.2166866385735057
 20
0.1215159732662597
 10
0.2174239917948538
 20
0.1211474672659656
  0
LWPOLYLINE
  5
1FBA
330
2
100
AcDbEntity
  8
Profilo
  6
Continuous
370
     0
100
AcDbPolyline
 90
        2
 70
   128
 43
0.0
 10
0.2186864409662798
 20
0.1250421328424581
 10
0.2207114214671607
 20
0.1187977406525805
  0
LWPOLYLINE
  5
1FBB
330
2
100
AcDbEntity
  8
Profilo
  6
Continuous
370
     0
100
AcDbPolyline
 90
       12
 70
   128
 43
0.0
 10
0.2234688422639421
 20
0.1194006475390581
 10
0.2235119271067253
 20
0.1176349919386959
 10
0.2234257584368565
 20
0.1164722425680531
 10
0.2230810807102971
 20
0.1151802993337073
 10
0.2228656564963861
 20
0.114189809542602
 10
0.22256406361261
 20
0.113845291697047
 10
0.2220039626878355
 20
0.1138022266379726
 10
0.2213576920774981
 20
0.114189809542602
 10
0.2199789821869546
 20
0.1152233643927816
 10
0.2192896267338357
 20
0.1159554651429624
 10
0.2184279329252851
 20
0.1169890199931439
 10
0.2180401703559424
 20
0.1176780563410103
  0
LWPOLYLINE
  5
1FBC
330
2
100
AcDbEntity
  8
Profilo
  6
Continuous
370
     0
100
AcDbPolyline
 90
        8
 70
   128
 43
0.0
 10
0.2205821679545105
 20
0.1145343280449152
 10
0.2201513205423863
 20
0.1134577087924194
 10
0.2195912196176136
 20
0.1128978663082561
 10
0.2189449490072763
 20
0.1125533484627011
 10
0.2182986783969371
 20
0.1125533484627011
 10
0.2175662381010367
 20
0.1128117368468673
 10
0.217035375024499
 20
0.1132644151640983
 10
0.2167086111424931
 20
0.1138731015375503
  0
LWPOLYLINE
  5
1FBD
330
2
100
AcDbEntity
  8
Profilo
  6
Continuous
370
     0
100
AcDbPolyline
 90
        8
 70
   128
 43
0.0
 10
0.2266140256300661
 20
0.1169459555908295
 10
0.2264847721174176
 20
0.1161277247224999
 10
0.2261831792336396
 20
0.1155248178360205
 10
0.2257523318215155
 20
0.1152233643927816
 10
0.2250198925413111
 20
0.1150511054700059
 10
0.2242602234454528
 20
0.1150357491104122
 10
0.2236621679624603
 20
0.1153141667007405
 10
0.2233672370340288
 20
0.1158300574999882
  0
LWPOLYLINE
  5
1FBE
330
2
100
AcDbEntity
  8
Profilo
  6
Continuous
370
     0
100
AcDbPolyline
 90
       17
 70
   128
 43
0.0
 10
0.2195607629785806
 20
0.1411800169175153
 10
0.2230000580509793
 20
0.1361625738646386
 10
0.2257895605333035
 20
0.1325484571253229
 10
0.2268469230291034
 20
0.1310838221965267
 10
0.2283917356887221
 20
0.1273235948741101
 10
0.2294310814524531
 20
0.1235282878841458
 10
0.2296627950739113
 20
0.1208267090629538
 10
0.2296068204069014
 20
0.1186128595132545
 10
0.2293435766012676
 20
0.1172357608981458
 10
0.2290074195371806
 20
0.1164807537428421
 10
0.2278051928613477
 20
0.1168004879620406
 10
0.2250780941686811
 20
0.118432953367917
 10
0.2229953226522058
 20
0.1204685087787909
 10
0.2213785581050226
 20
0.1224617436179352
 10
0.2195545255881507
 20
0.1252917290809177
 10
0.2184037697392801
 20
0.1272426446006798
 10
0.2173304311918626
 20
0.1291541362851541
  0
LWPOLYLINE
  5
1FBF
330
2
100
AcDbEntity
  8
Profilo
  6
Continuous
370
     0
100
AcDbPolyline
 90
        4
 70
   128
 43
0.0
 10
0.2178600368124014
 20
0.1398524779013539
 10
0.220454704144465
 20
0.1336565018995058
 10
0.2229210235629781
 20
0.1284520763754445
 10
0.225545180804667
 20
0.1235572477438241
  0
LWPOLYLINE
  5
1FC0
330
2
100
AcDbEntity
  8
Profilo
  6
Continuous
370
     0
100
AcDbPolyline
 90
        5
 70
   128
 43
0.0
 10
0.2159680177621682
 20
0.1389148324394865
 10
0.2190961408740749
 20
0.1338608610385319
 10
0.2211464204295831
 20
0.1301357133836647
 10
0.2237546014167039
 20
0.1256877421323357
 10
0.2252135275806259
 20
0.1233849088376542
  0
LWPOLYLINE
  5
1FC1
330
2
100
AcDbEntity
  8
Profilo
  6
Continuous
370
     0
100
AcDbPolyline
 90
        2
 70
   128
 43
0.0
 10
0.2253798353610849
 20
0.1222765364761327
 10
0.2258218207325923
 20
0.1191266531572173
  0
LWPOLYLINE
  5
1FC2
330
2
100
AcDbEntity
  8
Profilo
  6
Continuous
370
     0
100
AcDbPolyline
 90
        3
 70
   128
 43
0.0
 10
0.2267429034375036
 20
0.1226548459001085
 10
0.2284810484926941
 20
0.1212822541509913
 10
0.2290039934318576
 20
0.1210646998136143
  0
LWPOLYLINE
  5
1FC3
330
2
100
AcDbEntity
  8
Profilo
  6
Continuous
370
     0
100
AcDbPolyline
 90
        2
 70
   128
 43
0.0
 10
0.2226138159907029
 20
0.1264149092719227
 10
0.2226452298110479
 20
0.1229378884452417
  0
LWPOLYLINE
  5
1FC4
330
2
100
AcDbEntity
  8
Profilo
  6
Continuous
370
     0
100
AcDbPolyline
 90
        3
 70
   128
 43
0.0
 10
0.2193558422105552
 20
0.1322662074614294
 10
0.219179987095225
 20
0.1296259369447222
 10
0.2186859924109092
 20
0.1285613322723625
  0
LWPOLYLINE
  5
1FC5
330
2
100
AcDbEntity
  8
Profilo
  6
Continuous
370
     0
100
AcDbPolyline
 90
        3
 70
   128
 43
0.0
 10
0.2218102653635134
 20
0.1330636978867142
 10
0.2245608469651698
 20
0.1319554891619288
 10
0.2254549044948847
 20
0.1319876724069027
  0
LWPOLYLINE
  5
1FC6
330
2
100
AcDbEntity
  8
Profilo
  6
Continuous
370
     0
100
AcDbPolyline
 90
        3
 70
   128
 43
0.0
 10
0.2249908218422098
 20
0.1272518235324971
 10
0.2272738937198836
 20
0.1259917116902085
 10
0.2280890329224791
 20
0.1258690963335885
  0
LWPOLYLINE
  5
1FC7
330
2
100
AcDbEntity
  8
Profilo
  6
Continuous
370
     0
100
AcDbPolyline
 90
        2
 70
   128
 43
0.0
 10
0.2280861755829106
 20
0.1299632616574074
 10
0.2319416697898577
 20
0.1246502451629721
  0
LWPOLYLINE
  5
1FC8
330
2
100
AcDbEntity
  8
Profilo
  6
Continuous
370
     0
100
AcDbPolyline
 90
       12
 70
   128
 43
0.0
 10
0.2343778243328577
 20
0.1260757335729257
 10
0.2349644180400658
 20
0.1244098092572874
 10
0.2352417760808153
 20
0.1232773413081483
 10
0.2353132004981292
 20
0.1219421190013504
 10
0.2354143980739275
 20
0.1209335374880962
 10
0.2352340280656845
 20
0.1205126842196323
 10
0.234714648266514
 20
0.1202986462102556
 10
0.2339802386870028
 20
0.1204675508557469
 10
0.2323496216481965
 20
0.1210244751444685
 10
0.2314677740790637
 20
0.1215077217833352
 10
0.2303288685540656
 20
0.1222244128277575
 10
0.2297471604944844
 20
0.1227599001126518
  0
LWPOLYLINE
  5
1FC9
330
2
100
AcDbEntity
  8
Profilo
  6
Continuous
370
     0
100
AcDbPolyline
 90
        8
 70
   128
 43
0.0
 10
0.2331362093442001
 20
0.1205555572888053
 10
0.2330591427508621
 20
0.1193984923608232
 10
0.2326994559583534
 20
0.1186929698138397
 10
0.2321912779522441
 20
0.1181656052702853
 10
0.231576638076992
 20
0.1179658966687272
 10
0.2308001995589221
 20
0.117985302126423
 10
0.23015543347771
 20
0.118251779077474
 10
0.2296565681247985
 20
0.1187296986266398
  0
LWPOLYLINE
  5
1FCA
330
2
100
AcDbEntity
  8
Profilo
  6
Continuous
370
     0
100
AcDbPolyline
 90
        8
 70
   128
 43
0.0
 10
0.2381276129961124
 20
0.1247130979106222
 10
0.2382575328442881
 20
0.1238949725794734
 10
0.2381570094408504
 20
0.1232283767298985
 10
0.2378404034389957
 20
0.1228085382960172
 10
0.2371970432233374
 20
0.122418374140088
 10
0.2364793003555809
 20
0.122169018713509
 10
0.2358244800244295
 20
0.1222490002692198
 10
0.235384565018879
 20
0.1226485029064884
  0
LWPOLYLINE
  5
1FCB
330
2
100
AcDbEntity
  8
Profilo
  6
Continuous
370
     0
100
AcDbPolyline
 90
       17
 70
   128
 43
0.0
 10
0.2239308247976032
 20
0.1455814818265631
 10
0.2287522639593197
 20
0.1418724105420269
 10
0.2325220619644574
 20
0.1392971849393381
 10
0.2339802705397277
 20
0.1382309773267303
 10
0.2366114488314531
 20
0.1351321619939428
 10
0.2387727397515031
 20
0.1318437860538216
 10
0.2398279462684959
 20
0.1293460353584988
 10
0.2404588283305364
 20
0.1272232421948023
 10
0.2406340154688115
 20
0.1258321967737169
 10
0.2405476211443757
 20
0.1250102640532345
 10
0.2393054323228453
 20
0.1249428408919618
 10
0.2362073477874626
 20
0.1256526879124747
 10
0.2335974931498116
 20
0.126945004356275
 10
0.2314439152528228
 20
0.1283410756175667
 10
0.2288346436398209
 20
0.130468894687152
 10
0.227137343740892
 20
0.1319687224912856
 10
0.22552585470607
 20
0.1334549792617783
  0
LWPOLYLINE
  5
1FCC
330
2
100
AcDbEntity
  8
Profilo
  6
Continuous
370
     0
100
AcDbPolyline
 90
        4
 70
   128
 43
0.0
 10
0.2227235702115168
 20
0.1437933639064793
 10
0.2271059073666025
 20
0.1387024368554717
 10
0.2310597724537379
 20
0.134514868661118
 10
0.2350680795299555
 20
0.130670519178461
  0
LWPOLYLINE
  5
1FCD
330
2
100
AcDbEntity
  8
Profilo
  6
Continuous
370
     0
100
AcDbPolyline
 90
        5
 70
   128
 43
0.0
 10
0.2212139015472511
 20
0.1423169440397936
 10
0.225750686468586
 20
0.1384769748078214
 10
0.2288517521319887
 20
0.1355677200823711
 10
0.2327067783626168
 20
0.1321434202889269
 10
0.2348059142208777
 20
0.1304041286562688
  0
LWPOLYLINE
  5
1FCE
330
2
100
AcDbEntity
  8
Profilo
  6
Continuous
370
     0
100
AcDbPolyline
 90
        2
 70
   128
 43
0.0
 10
0.2353065882149993
 20
0.1294013958298206
 10
0.236700308758523
 20
0.1265422597648578
  0
LWPOLYLINE
  5
1FCF
330
2
100
AcDbEntity
  8
Profilo
  6
Continuous
370
     0
100
AcDbPolyline
 90
        3
 70
   128
 43
0.0
 10
0.2364860389500917
 20
0.1301824006727732
 10
0.2385632673079113
 20
0.1294141047063034
 10
0.2391278454874163
 20
0.1293687971094167
  0
LWPOLYLINE
  5
1FD0
330
2
100
AcDbEntity
  8
Profilo
  6
Continuous
370
     0
100
AcDbPolyline
 90
        2
 70
   128
 43
0.0
 10
0.2313971199456416
 20
0.1324824752518965
 10
0.2325014547894225
 20
0.1291853393417335
  0
LWPOLYLINE
  5
1FD1
330
2
100
AcDbEntity
  8
Profilo
  6
Continuous
370
     0
100
AcDbPolyline
 90
        3
 70
   128
 43
0.0
 10
0.2264904521724004
 20
0.1370406212585196
 10
0.2271390924784521
 20
0.1344752325596379
 10
0.2269982565509684
 20
0.1333100805961292
  0
LWPOLYLINE
  5
1FD2
330
2
100
AcDbEntity
  8
Profilo
  6
Continuous
370
     0
100
AcDbPolyline
 90
        3
 70
   128
 43
0.0
 10
0.2285783092115009
 20
0.1385575381898226
 10
0.2315367230966311
 20
0.1383535455200265
 10
0.2323770771665798
 20
0.1386604325755046
  0
LWPOLYLINE
  5
1FD3
330
2
100
AcDbEntity
  8
Profilo
  6
Continuous
370
     0
100
AcDbPolyline
 90
        3
 70
   128
 43
0.0
 10
0.2333991661206371
 20
0.1340129632168421
 10
0.2359598924811474
 20
0.1335200336475535
 10
0.236773026160431
 20
0.1336553113800237
  0
LWPOLYLINE
  5
1FD4
330
2
100
AcDbEntity
  8
Profilo
  6
Continuous
370
     0
100
AcDbPolyline
 90
        2
 70
   128
 43
0.0
 10
0.235505142006175
 20
0.1375482110235482
 10
0.2408137472834054
 20
0.1336866452969905
  0
LWPOLYLINE
  5
1FD5
330
2
100
AcDbEntity
  8
Profilo
  6
Continuous
370
     0
100
AcDbPolyline
 90
       12
 70
   128
 43
0.0
 10
0.2426901677922681
 20
0.1357951784928919
 10
0.2437628504847987
 20
0.1343920577411706
 10
0.2443765854986703
 20
0.1334007250667626
 10
0.2448571205402489
 20
0.1321529245499442
 10
0.2452650339819543
 20
0.1312249783002604
 10
0.2452235427223636
 20
0.1307689856590622
 10
0.2447957245622691
 20
0.1304049262310288
 10
0.2440450651401592
 20
0.1303386190538558
 10
0.2423221571100255
 20
0.1303643971514199
 10
0.241334138809138
 20
0.13055148613098
 10
0.2400295055757015
 20
0.1308811586567367
 10
0.2393107936637508
 20
0.1312106796522526
  0
LWPOLYLINE
  5
1FD6
330
2
100
AcDbEntity
  8
Profilo
  6
Continuous
370
     0
100
AcDbPolyline
 90
        8
 70
   128
 43
0.0
 10
0.243215150050314
 20
0.130161498734815
 10
0.2434994080908725
 20
0.1290372497082406
 10
0.2433753440799643
 20
0.1282551085610018
 10
0.2430550026820052
 20
0.1275965194353366
 10
0.2425321587752775
 20
0.1272166511015898
 10
0.2417877252469504
 20
0.1269951740914128
 10
0.241092170357445
 20
0.1270493650556622
 10
0.2404700359501687
 20
0.1273497356852045
  0
LWPOLYLINE
  5
1FD7
330
2
100
AcDbEntity
  8
Profilo
  6
Continuous
370
     0
100
AcDbPolyline
 90
        8
 70
   128
 43
0.0
 10
0.2466775063119785
 20
0.1356579833891823
 10
0.2470538820610363
 20
0.1349200474028387
 10
0.2471642680690559
 20
0.1342550136363703
 10
0.2469928950788537
 20
0.1337578869229419
 10
0.2465015905082039
 20
0.1331880095198792
 10
0.2458960315412527
 20
0.1327290636728287
 10
0.2452485447383589
 20
0.132602780041982
 10
0.2447067076014994
 20
0.1328467884156379
  0
LWPOLYLINE
  5
1FD8
330
2
100
AcDbEntity
  8
Profilo
  6
Continuous
370
     0
100
AcDbPolyline
 90
       17
 70
   128
 43
0.0
 10
0.2267268731101589
 20
0.1511179470781064
 10
0.2324585003030991
 20
0.1490803173018596
 10
0.2368395797365816
 20
0.1477960638604406
 10
0.2385558947760375
 20
0.1472326513938485
 10
0.2420158806361789
 20
0.1450985816861797
 10
0.2450875544986916
 20
0.1426390259443822
 10
0.2468629629452822
 20
0.1405896006158405
 10
0.2481189466045238
 20
0.138765657623376
 10
0.2487154161490158
 20
0.1374968306141136
 10
0.2488872414426519
 20
0.1366884288298747
 10
0.2477266845721159
 20
0.1362404481369209
 10
0.2445608762939594
 20
0.1359581919999085
 10
0.2416794092909948
 20
0.1363807685390186
 10
0.2391998252536171
 20
0.1370430190404038
 10
0.2360607282298298
 20
0.1382603859606708
 10
0.2339830278207339
 20
0.1391623124537938
 10
0.2319911320731402
 20
0.1400778491422501
  0
LWPOLYLINE
  5
1FD9
330
2
100
AcDbEntity
  8
Profilo
  6
Continuous
370
     0
100
AcDbPolyline
 90
        4
 70
   128
 43
0.0
 10
0.226131264594485
 20
0.1490442836946682
 10
0.2318722978783162
 20
0.1455567410048269
 10
0.2369266767711492
 20
0.1427959384915459
 10
0.2419267726577535
 20
0.140378379870374
  0
LWPOLYLINE
  5
1FDA
330
2
100
AcDbEntity
  8
Profilo
  6
Continuous
370
     0
100
AcDbPolyline
 90
        5
 70
   128
 43
0.0
 10
0.2251517232035271
 20
0.1471736116865352
 10
0.2306530778165476
 20
0.1449235275666117
 10
0.2345013756743159
 20
0.1431149438930733
 10
0.2392258903214545
 20
0.1410495098797964
 10
0.2417597578307079
 20
0.1400440138925228
  0
LWPOLYLINE
  5
1FDB
330
2
100
AcDbEntity
  8
Profilo
  6
Continuous
370
     0
100
AcDbPolyline
 90
        2
 70
   128
 43
0.0
 10
0.2425457885795458
 20
0.1392450750766519
 10
0.2447548172176623
 20
0.1369565584244535
  0
LWPOLYLINE
  5
1FDC
330
2
100
AcDbEntity
  8
Profilo
  6
Continuous
370
     0
100
AcDbPolyline
 90
        3
 70
   128
 43
0.0
 10
0.2434261691176433
 20
0.1403523251429708
 10
0.2456391471935303
 20
0.1402635311213812
 10
0.246190093767518
 20
0.1403949052882436
  0
LWPOLYLINE
  5
1FDD
330
2
100
AcDbEntity
  8
Profilo
  6
Continuous
370
     0
100
AcDbPolyline
 90
        2
 70
   128
 43
0.0
 10
0.2378755574042829
 20
0.1409672636040385
 10
0.2399447132826372
 20
0.1381727592457769
  0
LWPOLYLINE
  5
1FDE
330
2
100
AcDbEntity
  8
Profilo
  6
Continuous
370
     0
100
AcDbPolyline
 90
        3
 70
   128
 43
0.0
 10
0.2318004944663587
 20
0.1437860743381792
 10
0.2332101367612912
 20
0.1415466855770835
 10
0.2334362455924838
 20
0.1403950395147029
  0
LWPOLYLINE
  5
1FDF
330
2
100
AcDbEntity
  8
Profilo
  6
Continuous
370
     0
100
AcDbPolyline
 90
        3
 70
   128
 43
0.0
 10
0.2333174113976598
 20
0.1458739313772797
 10
0.2361940674027062
 20
0.146594122986294
 10
0.2368984583014301
 20
0.1471456736090802
  0
LWPOLYLINE
  5
1FE0
330
2
100
AcDbEntity
  8
Profilo
  6
Continuous
370
     0
100
AcDbPolyline
 90
        3
 70
   128
 43
0.0
 10
0.2393066696740819
 20
0.1430415104478074
 10
0.2418943887796358
 20
0.1433640145322035
 10
0.2426259217456414
 20
0.1437439434267778
  0
LWPOLYLINE
  5
1FE1
330
2
100
AcDbEntity
  8
Profilo
  6
Continuous
370
     0
100
AcDbPolyline
 90
        2
 70
   128
 43
0.0
 10
0.2402171201115854
 20
0.147054513249469
 10
0.2464591931873356
 20
0.1450223952492196
  0
LWPOLYLINE
  5
1FE2
330
2
100
AcDbEntity
  8
Profilo
  6
Continuous
370
     0
100
AcDbPolyline
 90
       12
 70
   128
 43
0.0
 10
0.2475922025488616
 20
0.1476075753108366
 10
0.2490459725709536
 20
0.1466046053583257
 10
0.2499360078986447
 20
0.1458514465078449
 10
0.2507786154465327
 20
0.1448132111895278
 10
0.2514533153443702
 20
0.1440567340477164
 10
0.251554764287007
 20
0.1436102377705884
 10
0.2512603855882846
 20
0.1431317935972687
 10
0.2505669560979639
 20
0.1428367652059213
 10
0.2489204073186991
 20
0.1423288737725313
 10
0.2479229324012765
 20
0.1422014915199417
 10
0.2465802780502043
 20
0.1421118748832471
 10
0.2457949148153874
 20
0.142203173778436
  0
LWPOLYLINE
  5
1FE3
330
2
100
AcDbEntity
  8
Profilo
  6
Continuous
370
     0
100
AcDbPolyline
 90
        8
 70
   128
 43
0.0
 10
0.249832393132427
 20
0.1424118559056784
 10
0.2504501506493314
 20
0.1414304721083384
 10
0.2505738536698162
 20
0.1406482737858324
 10
0.2504727061279896
 20
0.139922927370336
 10
0.2500928377942428
 20
0.1394000834636083
 10
0.2494532795961883
 20
0.1389594036984332
 10
0.2487750216571877
 20
0.1387960040867307
 10
0.2480905170459961
 20
0.1388894234266265
  0
LWPOLYLINE
  5
1FE4
330
2
100
AcDbEntity
  8
Profilo
  6
Continuous
370
     0
100
AcDbPolyline
 90
        8
 70
   128
 43
0.0
 10
0.2514267824492981
 20
0.1487092503783658
 10
0.2520127718185575
 20
0.1481237380526755
 10
0.2523232618864627
 20
0.1475253645079389
 10
0.2523138970902211
 20
0.1469996117413595
 10
0.2520227404790768
 20
0.146305804661941
 10
0.2515886417437917
 20
0.1456821932115937
 10
0.2510118689887276
 20
0.1453620059158483
 10
0.2504211485147175
 20
0.1454266347861713
  0
LWPOLYLINE
  5
1FE5
330
2
100
AcDbEntity
  8
Profilo
  6
Continuous
370
     0
100
AcDbPolyline
 90
       17
 70
   128
 43
0.0
 10
0.2276752112261965
 20
0.1572474648785005
 10
0.2337559748461219
 20
0.1570807340100431
 10
0.2383194851282239
 20
0.1572131644046615
 10
0.2401259017575347
 20
0.1572076978218396
 10
0.244076007662961
 20
0.1562472713512127
 10
0.2477573876286664
 20
0.1548572942604794
 10
0.2500792086561029
 20
0.1534568063290647
 10
0.2518373494810286
 20
0.1521102537560926
 10
0.2527967148368718
 20
0.1510878467867572
 10
0.2532099402916627
 20
0.150372107937868
 10
0.2522446187646809
 20
0.149587421184727
 10
0.2493209781155036
 20
0.1483406910874732
 10
0.2464499568138349
 20
0.1478521629859811
 10
0.2438870855979237
 20
0.1477157670342107
 10
0.2405254398514169
 20
0.1479035174491128
 10
0.2382707187243843
 20
0.1481192557819857
 10
0.2360933968981479
 20
0.1483744532784184
  0
LWPOLYLINE
  5
1FE6
330
2
100
AcDbEntity
  8
Profilo
  6
Continuous
370
     0
100
AcDbPolyline
 90
        4
 70
   128
 43
0.0
 10
0.2277495510922995
 20
0.1550912406517413
 10
0.2342873081669245
 20
0.1535484673006864
 10
0.2399474430434937
 20
0.1524846770541229
 10
0.2454498835173892
 20
0.1517305567763949
  0
LWPOLYLINE
  5
1FE7
330
2
100
AcDbEntity
  8
Profilo
  6
Continuous
370
     0
100
AcDbPolyline
 90
        5
 70
   128
 43
0.0
 10
0.2273960213108642
 20
0.1530094309120558
 10
0.2333234346958561
 20
0.1525694858150968
 10
0.2375422665410033
 20
0.1520386099645799
 10
0.2426738011933581
 20
0.151534220803415
 10
0.2453943677473051
 20
0.1513609454144623
  0
LWPOLYLINE
  5
1FE8
330
2
100
AcDbEntity
  8
Profilo
  6
Continuous
370
     0
100
AcDbPolyline
 90
        2
 70
   128
 43
0.0
 10
0.2463888130845676
 20
0.1508440063070009
 10
0.2491969147029701
 20
0.1493501250225156
  0
LWPOLYLINE
  5
1FE9
330
2
100
AcDbEntity
  8
Profilo
  6
Continuous
370
     0
100
AcDbPolyline
 90
        3
 70
   128
 43
0.0
 10
0.2468839456446291
 20
0.1521691162455299
 10
0.2490160517257886
 20
0.1527685159463173
 10
0.2494994362049296
 20
0.1530637120581404
  0
LWPOLYLINE
  5
1FEA
330
2
100
AcDbEntity
  8
Profilo
  6
Continuous
370
     0
100
AcDbPolyline
 90
        2
 70
   128
 43
0.0
 10
0.2414149737702486
 20
0.1510387241274445
 10
0.2442464072891463
 20
0.1490203968781257
  0
LWPOLYLINE
  5
1FEB
330
2
100
AcDbEntity
  8
Profilo
  6
Continuous
370
     0
100
AcDbPolyline
 90
        3
 70
   128
 43
0.0
 10
0.2347661851554553
 20
0.1518422747546358
 10
0.2367988438298893
 20
0.1501480929060013
 10
0.2373697643119671
 20
0.1491226838853259
  0
LWPOLYLINE
  5
1FEC
330
2
100
AcDbEntity
  8
Profilo
  6
Continuous
370
     0
100
AcDbPolyline
 90
        3
 70
   128
 43
0.0
 10
0.2355636755807419
 20
0.1542966979075922
 10
0.2380769865730889
 20
0.1558705764228568
 10
0.2385764636116393
 20
0.1566128009951134
  0
LWPOLYLINE
  5
1FED
330
2
100
AcDbEntity
  8
Profilo
  6
Continuous
370
     0
100
AcDbPolyline
 90
        3
 70
   128
 43
0.0
 10
0.2421350648947373
 20
0.1534536881168412
 10
0.2444964727695828
 20
0.1545600569081232
 10
0.2450747974787108
 20
0.1551474468774772
  0
LWPOLYLINE
  5
1FEE
330
2
100
AcDbEntity
  8
Profilo
  6
Continuous
370
     0
100
AcDbPolyline
 90
        2
 70
   128
 43
0.0
 10
0.2417608686519012
 20
0.1575516252389968
 10
0.2483253919224365
 20
0.1575478728335154
  0
LWPOLYLINE
  5
1FEF
330
2
100
AcDbEntity
  8
Profilo
  6
Continuous
370
     0
100
AcDbPolyline
 90
       12
 70
   128
 43
0.0
 10
0.2486040832861812
 20
0.1603566443244114
 10
0.2502966354990578
 20
0.1598520028581665
 10
0.2513758482814547
 20
0.1594107422674616
 10
0.2524980480380735
 20
0.158683701854415
 10
0.2533734900651309
 20
0.1581727430738007
 10
0.2536079486806541
 20
0.1577794493272742
 10
0.253475825281391
 20
0.1572334538578671
 10
0.2529075034327816
 20
0.1567385836868742
 10
0.251498489571078
 20
0.1557467386747189
 10
0.250589197831855
 20
0.1553173542523863
 10
0.2493399507258521
 20
0.1548172207540373
 10
0.2485648129935386
 20
0.1546613605769207
  0
LWPOLYLINE
  5
1FF0
330
2
100
AcDbEntity
  8
Profilo
  6
Continuous
370
     0
100
AcDbPolyline
 90
        8
 70
   128
 43
0.0
 10
0.252340196732621
 20
0.1561074784882562
 10
0.2532309833159458
 20
0.1553650246039333
 10
0.2535903444542894
 20
0.1546593361278643
 10
0.253718291794724
 20
0.1539382343834715
 10
0.253518583193164
 20
0.1533235945082195
 10
0.25304650473787
 20
0.1527068487938626
 10
0.252451936362147
 20
0.1523418532986694
 10
0.2517720656276067
 20
0.1522191768130399
  0
LWPOLYLINE
  5
1FF1
330
2
100
AcDbEntity
  8
Profilo
  6
Continuous
370
     0
100
AcDbPolyline
 90
        8
 70
   128
 43
0.0
 10
0.2519105491695987
 20
0.1625893499317486
 10
0.2526487914367669
 20
0.1622135752926526
 10
0.253128992633401
 20
0.1617404349413208
 10
0.2532825527226249
 20
0.1612375204655164
 10
0.253220044508692
 20
0.1604876983807171
 10
0.2529998986138272
 20
0.1597604647607871
 10
0.2525502984424696
 20
0.1592777159635266
 10
0.2519685184670978
 20
0.1591566390063926
  0
LWPOLYLINE
  5
1FF2
330
2
100
AcDbEntity
  8
Profilo
  6
Continuous
370
     0
100
AcDbPolyline
 90
       17
 70
   128
 43
0.0
 10
0.2266830092034601
 20
0.163370035318581
 10
0.2325176817400804
 20
0.165090524137002
 10
0.2368169146885458
 20
0.1666266751579327
 10
0.2385366082619877
 20
0.1671796895660962
 10
0.242590170324671
 20
0.1674869195671432
 10
0.2465208972728407
 20
0.1673025817696546
 10
0.2491618548618812
 20
0.1666881207518647
 10
0.251250053778857
 20
0.1659507685462125
 10
0.2524784055807329
 20
0.1652748619344906
 10
0.2530925818100508
 20
0.1647218475263271
 10
0.2524169880234778
 20
0.1636772653196279
 10
0.2500217013202212
 20
0.1615880998905337
 10
0.2474421612884376
 20
0.1602362876827877
 10
0.2450468745851827
 20
0.1593145966639491
 10
0.2417917414235843
 20
0.1584543522547386
 10
0.2395807073920965
 20
0.1579627844562031
 10
0.2374310909178638
 20
0.1575326622515978
  0
LWPOLYLINE
  5
1FF3
330
2
100
AcDbEntity
  8
Profilo
  6
Continuous
370
     0
100
AcDbPolyline
 90
        4
 70
   128
 43
0.0
 10
0.2274200205472882
 20
0.1613423164991131
 10
0.2341145401990103
 20
0.1618953298915807
 10
0.2398263776211204
 20
0.1626326831129288
 10
0.2452925454709648
 20
0.1636158197256976
  0
LWPOLYLINE
  5
1FF4
330
2
100
AcDbEntity
  8
Profilo
  6
Continuous
370
     0
100
AcDbPolyline
 90
        5
 70
   128
 43
0.0
 10
0.2277271083335671
 20
0.1592531510700188
 10
0.2335003639696923
 20
0.1606664098873929
 10
0.2376767611468876
 20
0.1614652076869754
 10
0.2427130054391812
 20
0.1625712365033008
 10
0.2453539630282217
 20
0.1632471431150227
  0
LWPOLYLINE
  5
1FF5
330
2
100
AcDbEntity
  8
Profilo
  6
Continuous
370
     0
100
AcDbPolyline
 90
        2
 70
   128
 43
0.0
 10
0.2464594797155856
 20
0.1630628053175341
 10
0.2495917777626703
 20
0.1625097909093705
  0
LWPOLYLINE
  5
1FF6
330
2
100
AcDbEntity
  8
Profilo
  6
Continuous
370
     0
100
AcDbPolyline
 90
        3
 70
   128
 43
0.0
 10
0.2465208972728407
 20
0.1644760641349082
 10
0.2483634259607944
 20
0.1657049841390959
 10
0.2487319313043303
 20
0.1661351063437011
  0
LWPOLYLINE
  5
1FF7
330
2
100
AcDbEntity
  8
Profilo
  6
Continuous
370
     0
100
AcDbPolyline
 90
        2
 70
   128
 43
0.0
 10
0.2416689063090741
 20
0.161710992094092
 10
0.2449854570279259
 20
0.1606664098873929
  0
LWPOLYLINE
  5
1FF8
330
2
100
AcDbEntity
  8
Profilo
  6
Continuous
370
     0
100
AcDbPolyline
 90
        3
 70
   128
 43
0.0
 10
0.235097221771864
 20
0.1604206254802763
 10
0.2375539260323757
 20
0.1594374888675075
 10
0.2384137724907157
 20
0.158638691067925
  0
LWPOLYLINE
  5
1FF9
330
2
100
AcDbEntity
  8
Profilo
  6
Continuous
370
     0
100
AcDbPolyline
 90
        3
 70
   128
 43
0.0
 10
0.235097221771864
 20
0.163001358707906
 10
0.2370011673603129
 20
0.1652748619344906
 10
0.2372468382460967
 20
0.1661351063437011
  0
LWPOLYLINE
  5
1FFA
330
2
100
AcDbEntity
  8
Profilo
  6
Continuous
370
     0
100
AcDbPolyline
 90
        3
 70
   128
 43
0.0
 10
0.2416074887518173
 20
0.1642302797277915
 10
0.2435114343402679
 20
0.1660122141401428
 10
0.2438799403405619
 20
0.166749567361491
  0
LWPOLYLINE
  5
1FFB
330
2
100
AcDbEntity
  8
Profilo
  6
Continuous
370
     0
100
AcDbPolyline
 90
        2
 70
   128
 43
0.0
 10
0.2399852747640695
 20
0.1680120165329169
 10
0.2462296669539471
 20
0.1700369970337979
  0
LWPOLYLINE
  5
1FFC
330
2
100
AcDbEntity
  8
Profilo
  6
Continuous
370
     0
100
AcDbPolyline
 90
       12
 70
   128
 43
0.0
 10
0.2456267600674677
 20
0.172794417830581
 10
0.2473924156678299
 20
0.1728375026733624
 10
0.2485551650384727
 20
0.1727513340034954
 10
0.2498471082728185
 20
0.1724066562769342
 10
0.2508375980639256
 20
0.172191232063025
 10
0.2511821159094788
 20
0.1718896391792471
 10
0.2512251809685532
 20
0.1713295382544727
 10
0.2508375980639256
 20
0.1706832676441353
 10
0.2498040432137442
 20
0.1693045577535935
 10
0.2490719424635634
 20
0.1686152023004728
 10
0.2480383876133837
 20
0.1677535084919222
 10
0.2473493512655155
 20
0.1673657459225795
  0
LWPOLYLINE
  5
1FFD
330
2
100
AcDbEntity
  8
Profilo
  6
Continuous
370
     0
100
AcDbPolyline
 90
        8
 70
   128
 43
0.0
 10
0.2504930795616124
 20
0.1699077435211476
 10
0.2515696988141064
 20
0.1694768961090234
 10
0.2521295412982715
 20
0.1689167951842508
 10
0.2524740591438247
 20
0.1682705245739134
 10
0.2524740591438247
 20
0.167624253963576
 10
0.2522156707596602
 20
0.1668918136676738
 10
0.2517629924424293
 20
0.1663609505911361
 10
0.2511543060689773
 20
0.1660341867091302
  0
LWPOLYLINE
  5
1FFE
330
2
100
AcDbEntity
  8
Profilo
  6
Continuous
370
     0
100
AcDbPolyline
 90
        8
 70
   128
 43
0.0
 10
0.2480814520156981
 20
0.175939601196705
 10
0.2488996828840277
 20
0.1758103476840547
 10
0.2495025897705053
 20
0.1755087548002768
 10
0.2498040432137442
 20
0.1750779073881526
 10
0.2499763021365217
 20
0.1743454681079482
 10
0.2499916584961154
 20
0.17358579901209
 10
0.2497132409057853
 20
0.1729877435290992
 10
0.2491973501065393
 20
0.172692812600666
  0
LWPOLYLINE
  5
1FFF
330
2
100
AcDbEntity
  8
Profilo
  6
Continuous
370
     0
100
AcDbPolyline
 90
       17
 70
   128
 43
0.0
 10
0.2238473906890123
 20
0.1688863385452178
 10
0.2288648337418889
 20
0.1723256336176183
 10
0.2324789504812047
 20
0.1751151360999406
 10
0.2339435854100008
 20
0.1761724985957405
 10
0.2377038127324157
 20
0.1777173112553592
 10
0.24149911972238
 20
0.178756657019092
 10
0.2442006985435738
 20
0.1789883706405484
 10
0.2464145480932713
 20
0.1789323959735403
 10
0.2477916467083817
 20
0.1786691521679065
 10
0.2485466538636837
 20
0.1783329951038178
 10
0.248226919644487
 20
0.1771307684279848
 10
0.2465944542386106
 20
0.17440366973532
 10
0.2445588988277366
 20
0.1723208982188429
 10
0.2425656639885924
 20
0.1707041336716615
 10
0.2397356785256081
 20
0.1688801011547878
 10
0.237784763005846
 20
0.167729345305919
 10
0.2358732713213735
 20
0.1666560067584997
  0
LWPOLYLINE
  5
2000
330
2
100
AcDbEntity
  8
Profilo
  6
Continuous
370
     0
100
AcDbPolyline
 90
        4
 70
   128
 43
0.0
 10
0.2251749297051736
 20
0.1671856123790385
 10
0.23137090570702
 20
0.1697802797111021
 10
0.2365753312310813
 20
0.1722465991296152
 10
0.2414701598627035
 20
0.1748707563713059
  0
LWPOLYLINE
  5
2001
330
2
100
AcDbEntity
  8
Profilo
  6
Continuous
370
     0
100
AcDbPolyline
 90
        5
 70
   128
 43
0.0
 10
0.2261125751670393
 20
0.1652935933288054
 10
0.2311665465679956
 20
0.1684217164407138
 10
0.2348916942228628
 20
0.1704719959962202
 10
0.2393396654741901
 20
0.173080176983341
 10
0.2416424987688734
 20
0.174539103147263
  0
LWPOLYLINE
  5
2002
330
2
100
AcDbEntity
  8
Profilo
  6
Continuous
370
     0
100
AcDbPolyline
 90
        2
 70
   128
 43
0.0
 10
0.2427508711303931
 20
0.174705410927722
 10
0.2459007544493103
 20
0.1751473962992312
  0
LWPOLYLINE
  5
2003
330
2
100
AcDbEntity
  8
Profilo
  6
Continuous
370
     0
100
AcDbPolyline
 90
        3
 70
   128
 43
0.0
 10
0.2423725617064173
 20
0.1760684790041425
 10
0.2437451534555363
 20
0.1778066240593313
 10
0.2439627077929133
 20
0.1783295689984948
  0
LWPOLYLINE
  5
2004
330
2
100
AcDbEntity
  8
Profilo
  6
Continuous
370
     0
100
AcDbPolyline
 90
        2
 70
   128
 43
0.0
 10
0.2386124983346049
 20
0.17193939155734
 10
0.2420895191612841
 20
0.171970805377685
  0
LWPOLYLINE
  5
2005
330
2
100
AcDbEntity
  8
Profilo
  6
Continuous
370
     0
100
AcDbPolyline
 90
        3
 70
   128
 43
0.0
 10
0.2327612001450982
 20
0.1686814177771923
 10
0.2354014706618054
 20
0.1685055626618622
 10
0.2364660753341651
 20
0.1680115679775481
  0
LWPOLYLINE
  5
2006
330
2
100
AcDbEntity
  8
Profilo
  6
Continuous
370
     0
100
AcDbPolyline
 90
        3
 70
   128
 43
0.0
 10
0.2319637097198116
 20
0.1711358409301505
 10
0.233071918444597
 20
0.1738864225318069
 10
0.2330397351996231
 20
0.1747804800615218
  0
LWPOLYLINE
  5
2007
330
2
100
AcDbEntity
  8
Profilo
  6
Continuous
370
     0
100
AcDbPolyline
 90
        3
 70
   128
 43
0.0
 10
0.2377755840740304
 20
0.1743163974088469
 10
0.2390356959163173
 20
0.1765994692865207
 10
0.2391583112729391
 20
0.1774146084891162
  0
LWPOLYLINE
  5
2008
330
2
100
AcDbEntity
  8
Profilo
  6
Continuous
370
     0
100
AcDbPolyline
 90
        2
 70
   128
 43
0.0
 10
0.2350641459491184
 20
0.1774117511495477
 10
0.2403771624435555
 20
0.1812672453564966
  0
LWPOLYLINE
  5
2009
330
2
100
AcDbEntity
  8
Profilo
  6
Continuous
370
     0
100
AcDbPolyline
 90
       12
 70
   128
 43
0.0
 10
0.2389516740336019
 20
0.1837033998994966
 10
0.2406175983492401
 20
0.1842899936067029
 10
0.2417500662983793
 20
0.1845673516474525
 10
0.2430852886051772
 20
0.1846387760647663
 10
0.2440938701184313
 20
0.1847399736405664
 10
0.2445147233868935
 20
0.1845596036323216
 10
0.244728761396272
 20
0.1840402238331511
 10
0.2445598567507806
 20
0.1833058142536399
 10
0.2440029324620573
 20
0.1816751972148336
 10
0.2435196858231924
 20
0.1807933496457009
 10
0.2428029947787701
 20
0.1796544441207027
 10
0.2422675074938757
 20
0.1790727360611215
  0
LWPOLYLINE
  5
200A
330
2
100
AcDbEntity
  8
Profilo
  6
Continuous
370
     0
100
AcDbPolyline
 90
        8
 70
   128
 43
0.0
 10
0.2444718503177222
 20
0.1824617849108372
 10
0.2456289152457044
 20
0.182384718317501
 10
0.2463344377926878
 20
0.1820250315249905
 10
0.2468618023362405
 20
0.1815168535188812
 10
0.2470615109378004
 20
0.1809022136436292
 10
0.2470421054801045
 20
0.1801257751255592
 10
0.2467756285290518
 20
0.1794810090443471
 10
0.2462977089798878
 20
0.1789821436914357
  0
LWPOLYLINE
  5
200B
330
2
100
AcDbEntity
  8
Profilo
  6
Continuous
370
     0
100
AcDbPolyline
 90
        8
 70
   128
 43
0.0
 10
0.2403143096959036
 20
0.1874531885627495
 10
0.2411324350270542
 20
0.187583108410927
 10
0.241799030876629
 20
0.1874825850074893
 10
0.2422188693105104
 20
0.1871659790056328
 10
0.2426090334664378
 20
0.1865226187899745
 10
0.2428583888930168
 20
0.185804875922218
 10
0.2427784073373077
 20
0.1851500555910666
 10
0.2423789047000392
 20
0.1847101405855161
  0
LWPOLYLINE
  5
200C
330
2
100
AcDbEntity
  8
Profilo
  6
Continuous
370
     0
100
AcDbPolyline
 90
       17
 70
   128
 43
0.0
 10
0.2194459257799627
 20
0.1732564003642421
 10
0.2231549970645007
 20
0.1780778395259568
 10
0.2257302226671877
 20
0.1818476375310945
 10
0.2267964302797973
 20
0.1833058461063648
 10
0.229895245612583
 20
0.1859370243980903
 10
0.2331836215527042
 20
0.1880983153181402
 10
0.235681372248027
 20
0.189153521835133
 10
0.2378041654117252
 20
0.1897844038971735
 10
0.2391952108328107
 20
0.1899595910354504
 10
0.2400171435532931
 20
0.1898731967110128
 10
0.2400845667145658
 20
0.1886310078894842
 10
0.2393747196940529
 20
0.1855329233540997
 10
0.2380824032502508
 20
0.1829230687164487
 10
0.2366863319889608
 20
0.18076949081946
 10
0.2345585129193756
 20
0.178160219206458
 10
0.2330586851152402
 20
0.1764629193075291
 10
0.2315724283447492
 20
0.1748514302727071
  0
LWPOLYLINE
  5
200D
330
2
100
AcDbEntity
  8
Profilo
  6
Continuous
370
     0
100
AcDbPolyline
 90
        4
 70
   128
 43
0.0
 10
0.2212340437000465
 20
0.1720491457781539
 10
0.2263249707510559
 20
0.1764314829332397
 10
0.2305125389454096
 20
0.1803853480203768
 10
0.2343568884280666
 20
0.1843936550965926
  0
LWPOLYLINE
  5
200E
330
2
100
AcDbEntity
  8
Profilo
  6
Continuous
370
     0
100
AcDbPolyline
 90
        5
 70
   128
 43
0.0
 10
0.222710463566734
 20
0.17053947711389
 10
0.2265504327987044
 20
0.1750762620352231
 10
0.2294596875241565
 20
0.1781773276986259
 10
0.2328839873175989
 20
0.1820323539292557
 10
0.2346232789502588
 20
0.1841314897875149
  0
LWPOLYLINE
  5
200F
330
2
100
AcDbEntity
  8
Profilo
  6
Continuous
370
     0
100
AcDbPolyline
 90
        2
 70
   128
 43
0.0
 10
0.2356260117767052
 20
0.1846321637816364
 10
0.238485147841668
 20
0.1860258843251601
  0
LWPOLYLINE
  5
2010
330
2
100
AcDbEntity
  8
Profilo
  6
Continuous
370
     0
100
AcDbPolyline
 90
        3
 70
   128
 43
0.0
 10
0.2348450069337543
 20
0.1858116145167288
 10
0.2356133029002224
 20
0.1878888428745502
 10
0.2356586104971109
 20
0.1884534210540534
  0
LWPOLYLINE
  5
2011
330
2
100
AcDbEntity
  8
Profilo
  6
Continuous
370
     0
100
AcDbPolyline
 90
        2
 70
   128
 43
0.0
 10
0.2325449323546293
 20
0.1807226955122787
 10
0.2358420682647941
 20
0.1818270303560597
  0
LWPOLYLINE
  5
2012
330
2
100
AcDbEntity
  8
Profilo
  6
Continuous
370
     0
100
AcDbPolyline
 90
        3
 70
   128
 43
0.0
 10
0.227986786348008
 20
0.1758160277390375
 10
0.2305521750468879
 20
0.1764646680450892
 10
0.2317173270103984
 20
0.1763238321176055
  0
LWPOLYLINE
  5
2013
330
2
100
AcDbEntity
  8
Profilo
  6
Continuous
370
     0
100
AcDbPolyline
 90
        3
 70
   128
 43
0.0
 10
0.226469869416705
 20
0.1779038847781398
 10
0.2266738620865011
 20
0.18086229866327
 10
0.2263669750310212
 20
0.1817026527332169
  0
LWPOLYLINE
  5
2014
330
2
100
AcDbEntity
  8
Profilo
  6
Continuous
370
     0
100
AcDbPolyline
 90
        3
 70
   128
 43
0.0
 10
0.2310144443896855
 20
0.1827247416872742
 10
0.231507373958974
 20
0.1852854680477863
 10
0.2313720962265021
 20
0.1860986017270681
  0
LWPOLYLINE
  5
2015
330
2
100
AcDbEntity
  8
Profilo
  6
Continuous
370
     0
100
AcDbPolyline
 90
        2
 70
   128
 43
0.0
 10
0.2274791965829793
 20
0.1848307175728121
 10
0.2313407623095353
 20
0.1901393228500444
  0
LWPOLYLINE
  5
2016
330
2
100
AcDbEntity
  8
Profilo
  6
Continuous
370
     0
100
AcDbPolyline
 90
       12
 70
   128
 43
0.0
 10
0.2292322291136356
 20
0.1920157433589052
 10
0.230635349865357
 20
0.1930884260514359
 10
0.2316266825397632
 20
0.1937021610653074
 10
0.2328744830565833
 20
0.194182696106886
 10
0.2338024293062654
 20
0.1945906095485915
 10
0.2342584219474654
 20
0.1945491182890007
 10
0.234622481375497
 20
0.1941213001289062
 10
0.23468878855267
 20
0.1933706407067964
 10
0.2346630104551076
 20
0.1916477326766644
 10
0.2344759214755475
 20
0.1906597143757752
 10
0.2341462489497891
 20
0.1893550811423386
 10
0.2338167279542732
 20
0.1886363692303897
  0
LWPOLYLINE
  5
2017
330
2
100
AcDbEntity
  8
Profilo
  6
Continuous
370
     0
100
AcDbPolyline
 90
        8
 70
   128
 43
0.0
 10
0.2348659088717108
 20
0.1925407256169512
 10
0.2359901578982869
 20
0.1928249836575114
 10
0.2367722990455258
 20
0.1927009196466032
 10
0.237430888171191
 20
0.1923805782486423
 10
0.237810756504936
 20
0.1918577343419146
 10
0.2380322335151147
 20
0.1911133008135893
 10
0.2379780425508636
 20
0.1904177459240822
 10
0.2376776719213213
 20
0.1897956115168058
  0
LWPOLYLINE
  5
2018
330
2
100
AcDbEntity
  8
Profilo
  6
Continuous
370
     0
100
AcDbPolyline
 90
        8
 70
   128
 43
0.0
 10
0.2293694242173453
 20
0.1960030818786156
 10
0.2301073602036871
 20
0.1963794576276734
 10
0.2307723939701555
 20
0.196489843635693
 10
0.2312695206835839
 20
0.1963184706454908
 10
0.2318393980866483
 20
0.195827166074841
 10
0.2322983439336971
 20
0.1952216071078899
 10
0.2324246275645438
 20
0.194574120304996
 10
0.2321806191908879
 20
0.1940322831681365
  0
LWPOLYLINE
  5
2019
330
2
100
AcDbEntity
  8
Profilo
  6
Continuous
370
     0
100
AcDbPolyline
 90
       17
 70
   128
 43
0.0
 10
0.2139094605284212
 20
0.1760524486767961
 10
0.215947090304668
 20
0.1817840758697363
 10
0.2172313437460852
 20
0.1861651553032187
 10
0.2177947562126791
 20
0.1878814703426746
 10
0.2199288259203479
 20
0.191341456202816
 10
0.2223883816621454
 20
0.1944131300653287
 10
0.2244378069906853
 20
0.1961885385119193
 10
0.2262617499831498
 20
0.1974445221711627
 10
0.2275305769924122
 20
0.198040991715653
 10
0.2283389787766529
 20
0.198212817009289
 10
0.2287869594696049
 20
0.197052260138753
 10
0.2290692156066173
 20
0.1938864518605965
 10
0.2286466390675072
 20
0.1910049848576319
 10
0.2279843885661238
 20
0.1885254008202542
 10
0.226767021645855
 20
0.185386303796467
 10
0.225865095152732
 20
0.183308603387371
 10
0.2249495584642775
 20
0.1813167076397773
  0
LWPOLYLINE
  5
201A
330
2
100
AcDbEntity
  8
Profilo
  6
Continuous
370
     0
100
AcDbPolyline
 90
        4
 70
   128
 43
0.0
 10
0.2159831239118594
 20
0.1754568401611221
 10
0.2194706666017007
 20
0.1811978734449533
 10
0.2222314691149799
 20
0.1862522523377863
 10
0.2246490277361536
 20
0.1912523482243907
  0
LWPOLYLINE
  5
201B
330
2
100
AcDbEntity
  8
Profilo
  6
Continuous
370
     0
100
AcDbPolyline
 90
        5
 70
   128
 43
0.0
 10
0.2178537959199906
 20
0.174477298770166
 10
0.2201038800399141
 20
0.1799786533831865
 10
0.2219124637134525
 20
0.183826951240953
 10
0.2239778977267294
 20
0.1885514658880916
 10
0.2249833937140048
 20
0.1910853333973451
  0
LWPOLYLINE
  5
201C
330
2
100
AcDbEntity
  8
Profilo
  6
Continuous
370
     0
100
AcDbPolyline
 90
        2
 70
   128
 43
0.0
 10
0.2257823325298739
 20
0.1918713641461829
 10
0.2280708491820741
 20
0.1940803927842994
  0
LWPOLYLINE
  5
201D
330
2
100
AcDbEntity
  8
Profilo
  6
Continuous
370
     0
100
AcDbPolyline
 90
        3
 70
   128
 43
0.0
 10
0.224675082463555
 20
0.1927517446842804
 10
0.2247638764851446
 20
0.1949647227601674
 10
0.2246325023182822
 20
0.1955156693341551
  0
LWPOLYLINE
  5
201E
330
2
100
AcDbEntity
  8
Profilo
  6
Continuous
370
     0
100
AcDbPolyline
 90
        2
 70
   128
 43
0.0
 10
0.2240601440024873
 20
0.18720113297092
 10
0.2268546483607507
 20
0.1892702888492744
  0
LWPOLYLINE
  5
201F
330
2
100
AcDbEntity
  8
Profilo
  6
Continuous
370
     0
100
AcDbPolyline
 90
        3
 70
   128
 43
0.0
 10
0.2212413332683484
 20
0.1811260700329958
 10
0.2234807220294423
 20
0.1825357123279284
 10
0.2246323680918229
 20
0.1827618211591209
  0
LWPOLYLINE
  5
2020
330
2
100
AcDbEntity
  8
Profilo
  6
Continuous
370
     0
100
AcDbPolyline
 90
        3
 70
   128
 43
0.0
 10
0.2191534762292461
 20
0.1826429869642987
 10
0.2184332846202318
 20
0.1855196429693451
 10
0.2178817339974456
 20
0.1862240338680672
  0
LWPOLYLINE
  5
2021
330
2
100
AcDbEntity
  8
Profilo
  6
Continuous
370
     0
100
AcDbPolyline
 90
        3
 70
   128
 43
0.0
 10
0.2219858971587184
 20
0.188632245240719
 10
0.221663393074324
 20
0.1912199643462729
 10
0.2212834641797498
 20
0.1919514973122803
  0
LWPOLYLINE
  5
2022
330
2
100
AcDbEntity
  8
Profilo
  6
Continuous
370
     0
100
AcDbPolyline
 90
        2
 70
   128
 43
0.0
 10
0.2179728943570568
 20
0.1895426956782225
 10
0.220005012357308
 20
0.1957847687539745
  0
LWPOLYLINE
  5
2023
330
2
100
AcDbEntity
  8
Profilo
  6
Continuous
370
     0
100
AcDbPolyline
 90
       12
 70
   128
 43
0.0
 10
0.217419832295691
 20
0.1969177781155005
 10
0.2184228022482001
 20
0.1983715481375908
 10
0.2191759610986827
 20
0.1992615834652818
 10
0.2202141964169998
 20
0.2001041910131698
 10
0.2209706735588112
 20
0.2007788909110074
 10
0.2214171698359374
 20
0.2008803398536441
 10
0.2218956140092571
 20
0.2005859611549217
 10
0.2221906424006045
 20
0.1998925316646028
 10
0.2226985338339963
 20
0.1982459828853363
 10
0.2228259160865859
 20
0.1972485079679136
 10
0.2229155327232787
 20
0.1959058536168415
 10
0.2228242338280898
 20
0.1951204903820245
  0
LWPOLYLINE
  5
2024
330
2
100
AcDbEntity
  8
Profilo
  6
Continuous
370
     0
100
AcDbPolyline
 90
        8
 70
   128
 43
0.0
 10
0.2226155517008474
 20
0.1991579686990641
 10
0.2235969354981892
 20
0.1997757262159703
 10
0.2243791338206952
 20
0.1998994292364551
 10
0.2251044802361916
 20
0.1997982816946267
 10
0.2256273241429193
 20
0.1994184133608799
 10
0.2260680039080926
 20
0.1987788551628254
 10
0.2262314035197969
 20
0.1981005972238248
 10
0.2261379841799011
 20
0.1974160926126332
  0
LWPOLYLINE
  5
2025
330
2
100
AcDbEntity
  8
Profilo
  6
Continuous
370
     0
100
AcDbPolyline
 90
        8
 70
   128
 43
0.0
 10
0.2163181572281617
 20
0.2007523580159352
 10
0.2169036695538521
 20
0.2013383473851947
 10
0.2175020430985887
 20
0.2016488374530998
 10
0.2180277958651681
 20
0.2016394726568583
 10
0.2187216029445848
 20
0.2013483160457139
 10
0.2193452143949338
 20
0.2009142173104306
 10
0.2196654016906793
 20
0.2003374445553648
 10
0.2196007728203563
 20
0.1997467240813547
  0
LWPOLYLINE
  5
2026
330
2
100
AcDbEntity
  8
Profilo
  6
Continuous
370
     0
100
AcDbPolyline
 90
       17
 70
   128
 43
0.0
 10
0.207779942728027
 20
0.1770007867928336
 10
0.2079466735964827
 20
0.183081550412759
 10
0.2078142432018661
 20
0.1876450606948628
 10
0.207819709784688
 20
0.1894514773241718
 10
0.2087801362553131
 20
0.1934015832295981
 10
0.2101701133460464
 20
0.1970829631953035
 10
0.2115706012774629
 20
0.19940478422274
 10
0.212917153850435
 20
0.2011629250476657
 10
0.2139395608197704
 20
0.2021222904035107
 10
0.2146552996686578
 20
0.2025355158582998
 10
0.2154399864218005
 20
0.201570194331318
 10
0.2166867165190526
 20
0.1986465536821407
 10
0.2171752446205465
 20
0.195775532380472
 10
0.2173116405723151
 20
0.1932126611645609
 10
0.2171238901574148
 20
0.189851015418054
 10
0.2169081518245418
 20
0.1875962942910215
 10
0.2166529543281074
 20
0.1854189724647868
  0
LWPOLYLINE
  5
2027
330
2
100
AcDbEntity
  8
Profilo
  6
Continuous
370
     0
100
AcDbPolyline
 90
        4
 70
   128
 43
0.0
 10
0.2099361669547862
 20
0.1770751266589366
 10
0.2114789403058412
 20
0.1836128837335616
 10
0.2125427305524047
 20
0.1892730186101308
 10
0.2132968508301309
 20
0.1947754590840281
  0
LWPOLYLINE
  5
2028
330
2
100
AcDbEntity
  8
Profilo
  6
Continuous
370
     0
100
AcDbPolyline
 90
        5
 70
   128
 43
0.0
 10
0.21201797669447
 20
0.1767215968775014
 10
0.212457921791429
 20
0.1826490102624932
 10
0.2129887976419459
 20
0.1868678421076422
 10
0.2134931868031126
 20
0.191999376759997
 10
0.2136664621920635
 20
0.194719943313944
  0
LWPOLYLINE
  5
2029
330
2
100
AcDbEntity
  8
Profilo
  6
Continuous
370
     0
100
AcDbPolyline
 90
        2
 70
   128
 43
0.0
 10
0.2141834012995266
 20
0.1957143886512048
 10
0.215677282584012
 20
0.1985224902696073
  0
LWPOLYLINE
  5
202A
330
2
100
AcDbEntity
  8
Profilo
  6
Continuous
370
     0
100
AcDbPolyline
 90
        3
 70
   128
 43
0.0
 10
0.2128582913609959
 20
0.1962095212112663
 10
0.2122588916602085
 20
0.1983416272924275
 10
0.2119636955483871
 20
0.1988250117715667
  0
LWPOLYLINE
  5
202B
330
2
100
AcDbEntity
  8
Profilo
  6
Continuous
370
     0
100
AcDbPolyline
 90
        2
 70
   128
 43
0.0
 10
0.2139886834790813
 20
0.1907405493368857
 10
0.2160070107284019
 20
0.1935719828557834
  0
LWPOLYLINE
  5
202C
330
2
100
AcDbEntity
  8
Profilo
  6
Continuous
370
     0
100
AcDbPolyline
 90
        3
 70
   128
 43
0.0
 10
0.2131851328518918
 20
0.1840917607220942
 10
0.2148793147005245
 20
0.1861244193965264
 10
0.2159047237212016
 20
0.1866953398786042
  0
LWPOLYLINE
  5
202D
330
2
100
AcDbEntity
  8
Profilo
  6
Continuous
370
     0
100
AcDbPolyline
 90
        3
 70
   128
 43
0.0
 10
0.2107307096989336
 20
0.184889251147379
 10
0.2091568311836708
 20
0.187402562139726
 10
0.2084146066114142
 20
0.1879020391782765
  0
LWPOLYLINE
  5
202E
330
2
100
AcDbEntity
  8
Profilo
  6
Continuous
370
     0
100
AcDbPolyline
 90
        3
 70
   128
 43
0.0
 10
0.2115737194896846
 20
0.1914606404613744
 10
0.2104673506984044
 20
0.1938220483362199
 10
0.2098799607290486
 20
0.1944003730453479
  0
LWPOLYLINE
  5
202F
330
2
100
AcDbEntity
  8
Profilo
  6
Continuous
370
     0
100
AcDbPolyline
 90
        2
 70
   128
 43
0.0
 10
0.207475782367529
 20
0.1910864442185383
 10
0.2074795347730104
 20
0.1976509674890754
  0
LWPOLYLINE
  5
2030
330
2
100
AcDbEntity
  8
Profilo
  6
Continuous
370
     0
100
AcDbPolyline
 90
       12
 70
   128
 43
0.0
 10
0.2046707632821162
 20
0.1979296588528184
 10
0.2051754047483593
 20
0.1996222110656949
 10
0.2056166653390642
 20
0.2007014238480918
 10
0.2063437057521126
 20
0.2018236236047107
 10
0.2068546645327268
 20
0.202699065631768
 10
0.2072479582792534
 20
0.2029335242472912
 10
0.2077939537486587
 20
0.2028014008480299
 10
0.2082888239196516
 20
0.2022330789994187
 10
0.2092806689318086
 20
0.2008240651377152
 10
0.2097100533541413
 20
0.1999147733984921
 10
0.2102101868524903
 20
0.1986655262924893
 10
0.2103660470296051
 20
0.1978903885601775
  0
LWPOLYLINE
  5
2031
330
2
100
AcDbEntity
  8
Profilo
  6
Continuous
370
     0
100
AcDbPolyline
 90
        8
 70
   128
 43
0.0
 10
0.2089199291182714
 20
0.2016657722992581
 10
0.2096623830025925
 20
0.2025565588825847
 10
0.2103680714786615
 20
0.2029159200209265
 10
0.2110891732230543
 20
0.2030438673613611
 10
0.2117038130983063
 20
0.2028441587598011
 10
0.212320558812665
 20
0.2023720803045071
 10
0.2126855543078564
 20
0.2017775119287842
 10
0.2128082307934877
 20
0.2010976411942438
  0
LWPOLYLINE
  5
2032
330
2
100
AcDbEntity
  8
Profilo
  6
Continuous
370
     0
100
AcDbPolyline
 90
        8
 70
   128
 43
0.0
 10
0.202438057674779
 20
0.2012361247362376
 10
0.2028138323138732
 20
0.201974367003404
 10
0.2032869726652068
 20
0.2024545682000399
 10
0.2037898871410094
 20
0.202608128289262
 10
0.2045397092258105
 20
0.2025456200753291
 10
0.2052669428457387
 20
0.2023254741804661
 10
0.205749691643001
 20
0.2018758740091085
 10
0.2058707686001332
 20
0.2012940940337349
  0
LWPOLYLINE
  5
2033
330
2
100
AcDbEntity
  8
Profilo
  6
Continuous
370
     0
100
AcDbPolyline
 90
       13
 70
   128
 43
0.0
 10
0.2045612372658065
 20
0.1701628740701158
 10
0.204497382439054
 20
0.1714074649168685
 10
0.2043696727855474
 20
0.1729392699958284
 10
0.2044375975094001
 20
0.1742534773902223
 10
0.2048821294045803
 20
0.1751174450168312
 10
0.2057106221159616
 20
0.1758433157427591
 10
0.2067003709149334
 20
0.1760347914597245
 10
0.2079774654185934
 20
0.1758433157427591
 10
0.2088952612401828
 20
0.1751051025283421
 10
0.2094015332813685
 20
0.17436455912986
 10
0.2095738330403213
 20
0.173577521728952
 10
0.2096696152804499
 20
0.1723967554644284
 10
0.2095738330403213
 20
0.170609650086274
  0
LWPOLYLINE
  5
2034
330
2
100
AcDbEntity
  8
Profilo
  6
Continuous
370
     0
100
AcDbPolyline
 90
        3
 70
   128
 43
0.0
 10
0.206444951607922
 20
0.1707692131837449
 10
0.2067003709149334
 20
0.1725563185618993
 10
0.2068919353951907
 20
0.1742476860815701
  0
LWPOLYLINE
  5
2035
330
2
100
AcDbEntity
  8
Profilo
  6
Continuous
370
     0
100
AcDbPolyline
 90
        3
 70
   128
 43
0.0
 10
0.2079774654185934
 20
0.1709287762812158
 10
0.2074347004068921
 20
0.1724286680839229
 10
0.2072112085132568
 20
0.1739923857823773
  0
LWPOLYLINE
  5
2036
330
2
100
AcDbEntity
  8
Profilo
  6
Continuous
370
     0
100
AcDbPolyline
 90
        2
 70
   128
 43
0.0
 10
0.2075624090447009
 20
0.1725244059424047
 10
0.208552157843671
 20
0.1740562103646047
  0
LWPOLYLINE
  5
2037
330
2
100
AcDbEntity
  8
Profilo
  6
Continuous
370
     0
100
AcDbPolyline
 90
        2
 70
   128
 43
0.0
 10
0.2059979688363493
 20
0.171215989856663
 10
0.2048166565728179
 20
0.1724924933229102
  0
LWPOLYLINE
  5
2038
330
2
100
AcDbEntity
  8
Profilo
  6
Continuous
370
     0
100
AcDbPolyline
 90
        2
 70
   128
 43
0.0
 10
0.2061576059032303
 20
0.1736094343484465
 10
0.2051997845176364
 20
0.1747263753739828
  0
LWPOLYLINE
  5
2039
330
2
100
AcDbEntity
  8
Profilo
  6
Continuous
370
     0
100
AcDbPolyline
 90
        7
 70
   128
 43
0.0
 10
0.211402910004192
 20
0.174523702557766
 10
0.2110829685576276
 20
0.1753460302942487
 10
0.2106868498506683
 20
0.1758028790367381
 10
0.2100471132178784
 20
0.1758879018577227
 10
0.2095769908416893
 20
0.1756193842658758
 10
0.2092188013005293
 20
0.1752837372760668
 10
0.2089725466257922
 20
0.1749704667522463
  0
LWPOLYLINE
  5
203A
330
2
100
AcDbEntity
  8
Profilo
  6
Continuous
370
     0
100
AcDbPolyline
 90
       13
 70
   128
 43
0.0
 10
0.1998419757276538
 20
0.1679154390074698
 10
0.1993066972630396
 20
0.1690408548328617
 10
0.1986025125027323
 20
0.1704071858245589
 10
0.1981623413683232
 20
0.1716473488041808
 10
0.1982424091910259
 20
0.1726156658026015
 10
0.1987300579490542
 20
0.1736033333440142
 10
0.1995711920221689
 20
0.174158994307462
 10
0.2008243480797661
 20
0.1744708167196998
 10
0.2019547828210685
 20
0.1741400218954881
 10
0.2027059108873489
 20
0.1736495909291241
 10
0.203166281282081
 20
0.1729883994462563
 10
0.2037066322202422
 20
0.1719341679381956
 10
0.204302036589119
 20
0.1702464435804659
  0
LWPOLYLINE
  5
203B
330
2
100
AcDbEntity
  8
Profilo
  6
Continuous
370
     0
100
AcDbPolyline
 90
        3
 70
   128
 43
0.0
 10
0.201350264920252
 20
0.169196489574349
 10
0.2009023459700975
 20
0.1709453043927654
 10
0.2004320701447456
 20
0.1725812327789691
  0
LWPOLYLINE
  5
203C
330
2
100
AcDbEntity
  8
Profilo
  6
Continuous
370
     0
100
AcDbPolyline
 90
        3
 70
   128
 43
0.0
 10
0.2027050609094031
 20
0.169930374299462
 10
0.2016296276808939
 20
0.1711083864593168
 10
0.200824739238587
 20
0.1724675465905841
  0
LWPOLYLINE
  5
203D
330
2
100
AcDbEntity
  8
Profilo
  6
Continuous
370
     0
100
AcDbPolyline
 90
        2
 70
   128
 43
0.0
 10
0.2017109777851983
 20
0.1712457086871156
 10
0.2020391902688962
 20
0.1730396719081662
  0
LWPOLYLINE
  5
203E
330
2
100
AcDbEntity
  8
Profilo
  6
Continuous
370
     0
100
AcDbPolyline
 90
        2
 70
   128
 43
0.0
 10
0.2007663326555184
 20
0.1694382044968284
 10
0.199186445705846
 20
0.1701654712907712
  0
LWPOLYLINE
  5
203F
330
2
100
AcDbEntity
  8
Profilo
  6
Continuous
370
     0
100
AcDbPolyline
 90
        2
 70
   128
 43
0.0
 10
0.1999978865209501
 20
0.1717105493356752
 10
0.198685540121596
 20
0.1723759259127591
  0
LWPOLYLINE
  5
2040
330
2
100
AcDbEntity
  8
Profilo
  6
Continuous
370
     0
100
AcDbPolyline
 90
        7
 70
   128
 43
0.0
 10
0.2044940403251795
 20
0.1745625139986449
 10
0.2038837617703701
 20
0.175199809472471
 10
0.2033429673597181
 20
0.1754702946087084
 10
0.2027193909535233
 20
0.175304028842366
 10
0.2023878117460848
 20
0.1748760428905887
 10
0.2021853343023702
 20
0.174428872303507
 10
0.2020777080879087
 20
0.1740452104942443
  0
LWPOLYLINE
  5
2041
330
2
100
AcDbEntity
  8
Profilo
  6
Continuous
370
     0
100
AcDbPolyline
 90
       13
 70
   128
 43
0.0
 10
0.1963420027477797
 20
0.1640330965487942
 10
0.1954167919392299
 20
0.1648680029953274
 10
0.1942433378184235
 20
0.1658608483921005
 10
0.1933620828908088
 20
0.1668381633854055
 10
0.1930654970408442
 20
0.167763412270443
 10
0.193138061742656
 20
0.1688625131973934
 10
0.1937025260521808
 20
0.1696977650627152
 10
0.1947409620138346
 20
0.170465413468572
 10
0.1959119372329011
 20
0.1705923975478876
 10
0.196793568885178
 20
0.1704267426825035
 10
0.1974719226963598
 20
0.1699920575272267
 10
0.1983745788005139
 20
0.1692248579660985
 10
0.1995705248605896
 20
0.1678934553629988
  0
LWPOLYLINE
  5
2042
330
2
100
AcDbEntity
  8
Profilo
  6
Continuous
370
     0
100
AcDbPolyline
 90
        3
 70
   128
 43
0.0
 10
0.197245243433961
 20
0.1657938302328686
 10
0.1961621778264065
 20
0.1672381132884895
 10
0.1951016569267944
 20
0.1685695472741533
  0
LWPOLYLINE
  5
2043
330
2
100
AcDbEntity
  8
Profilo
  6
Continuous
370
     0
100
AcDbPolyline
 90
        3
 70
   128
 43
0.0
 10
0.1982160661935003
 20
0.1669903092889063
 10
0.1967716897083965
 20
0.1676671001332797
 10
0.1955079416864288
 20
0.1686147828881901
  0
LWPOLYLINE
  5
2044
330
2
100
AcDbEntity
  8
Profilo
  6
Continuous
370
     0
100
AcDbPolyline
 90
        2
 70
   128
 43
0.0
 10
0.1967942964632575
 20
0.1678251006660401
 10
0.1964110052562921
 20
0.1696081080478522
  0
LWPOLYLINE
  5
2045
330
2
100
AcDbEntity
  8
Profilo
  6
Continuous
370
     0
100
AcDbPolyline
 90
        2
 70
   128
 43
0.0
 10
0.1966132600700122
 20
0.1657936844991128
 10
0.1948753219005782
 20
0.1658609948440622
  0
LWPOLYLINE
  5
2046
330
2
100
AcDbEntity
  8
Profilo
  6
Continuous
370
     0
100
AcDbPolyline
 90
        2
 70
   128
 43
0.0
 10
0.1950337196920001
 20
0.1675989857821674
 10
0.1935666411217388
 20
0.1677115003585894
  0
LWPOLYLINE
  5
2047
330
2
100
AcDbEntity
  8
Profilo
  6
Continuous
370
     0
100
AcDbPolyline
 90
        7
 70
   128
 43
0.0
 10
0.1980962245405416
 20
0.1719544611319753
 10
0.1972885182552696
 20
0.1723097018843505
 10
0.1966853791876323
 20
0.1723526445042958
 10
0.1961728968631385
 20
0.1719604026063509
 10
0.1960303407530114
 20
0.1714381052760979
 10
0.1960144007620842
 20
0.1709474887600142
 10
0.1960617881234187
 20
0.1705518446978691
  0
LWPOLYLINE
  5
2048
330
2
100
AcDbEntity
  8
Profilo
  6
Continuous
370
     0
100
AcDbPolyline
 90
       13
 70
   128
 43
0.0
 10
0.1945941574850328
 20
0.159106898139902
 10
0.1934198692910923
 20
0.1595241882695384
 10
0.1919557935622945
 20
0.1599923963598902
 10
0.1907676179156054
 20
0.1605580760185342
 10
0.1901395309000721
 20
0.1612993960348442
 10
0.1897859642276186
 20
0.1623426021945745
 10
0.1899878241993113
 20
0.1633302854368553
 10
0.1906534476033043
 20
0.1644368923252864
 10
0.1916866929379489
 20
0.1650023231331681
 10
0.1925646077491739
 20
0.1651866638203559
 10
0.1933576717583468
 20
0.1650446618671287
 10
0.1944852118192321
 20
0.1646812934314342
 10
0.1960996276241372
 20
0.1639089065600908
  0
LWPOLYLINE
  5
2049
330
2
100
AcDbEntity
  8
Profilo
  6
Continuous
370
     0
100
AcDbPolyline
 90
        3
 70
   128
 43
0.0
 10
0.1947548394582247
 20
0.1610792591988611
 10
0.1932015141140079
 20
0.1619991314889267
 10
0.1917122028334534
 20
0.1628233723192119
  0
LWPOLYLINE
  5
204A
330
2
100
AcDbEntity
  8
Profilo
  6
Continuous
370
     0
100
AcDbPolyline
 90
        3
 70
   128
 43
0.0
 10
0.195193890023542
 20
0.1625561794956494
 10
0.1936004635083955
 20
0.1626287137536111
 10
0.1920702500872066
 20
0.1630206430234958
  0
LWPOLYLINE
  5
204B
330
2
100
AcDbEntity
  8
Profilo
  6
Continuous
370
     0
100
AcDbPolyline
 90
        2
 70
   128
 43
0.0
 10
0.1935608852403158
 20
0.1627833384424986
 10
0.1925244429544038
 20
0.1642839432741963
  0
LWPOLYLINE
  5
204C
330
2
100
AcDbEntity
  8
Profilo
  6
Continuous
370
     0
100
AcDbPolyline
 90
        2
 70
   128
 43
0.0
 10
0.19417101873328
 20
0.1608372749955121
 10
0.1925396146759309
 20
0.1602343815016192
  0
LWPOLYLINE
  5
204D
330
2
100
AcDbEntity
  8
Profilo
  6
Continuous
370
     0
100
AcDbPolyline
 90
        2
 70
   128
 43
0.0
 10
0.1920208548158063
 20
0.1619006919675248
 10
0.1906223934878598
 20
0.1614432152189758
  0
LWPOLYLINE
  5
204E
330
2
100
AcDbEntity
  8
Profilo
  6
Continuous
370
     0
100
AcDbPolyline
 90
        7
 70
   128
 43
0.0
 10
0.1931834721071451
 20
0.1670965963646443
 10
0.1923013040514648
 20
0.1671157002112876
 10
0.1917276427824225
 20
0.166924562690332
 10
0.1914042753278723
 20
0.1663660599340635
 10
0.1914724451905462
 20
0.1658289662592272
 10
0.1916454693715307
 20
0.1653695957312676
 10
0.1918406560124642
 20
0.1650222026381774
  0
LWPOLYLINE
  5
204F
330
2
100
AcDbEntity
  8
Profilo
  6
Continuous
370
     0
100
AcDbPolyline
 90
       13
 70
   128
 43
0.0
 10
0.1948645335364117
 20
0.1538868128324436
 10
0.1936199426896573
 20
0.1538229580056912
 10
0.1920881376106974
 20
0.1536952483521863
 10
0.1907739302163053
 20
0.1537631730760372
 10
0.1899099625896946
 20
0.1542077049712192
 10
0.1891840918637685
 20
0.1550361976825987
 10
0.1889926161468031
 20
0.1560259464815706
 10
0.1891840918637685
 20
0.1573030409852306
 10
0.1899223050781836
 20
0.1582208368068199
 10
0.1906628484766658
 20
0.1587271088480056
 10
0.1914498858775738
 20
0.1588994086069584
 10
0.1926306521420992
 20
0.1589951908470888
 10
0.1944177575202518
 20
0.1588994086069584
  0
LWPOLYLINE
  5
2050
330
2
100
AcDbEntity
  8
Profilo
  6
Continuous
370
     0
100
AcDbPolyline
 90
        3
 70
   128
 43
0.0
 10
0.1942581944227809
 20
0.1557705271745591
 10
0.1924710890446283
 20
0.1560259464815706
 10
0.1907797215249557
 20
0.1562175109618278
  0
LWPOLYLINE
  5
2051
330
2
100
AcDbEntity
  8
Profilo
  6
Continuous
370
     0
100
AcDbPolyline
 90
        3
 70
   128
 43
0.0
 10
0.19409863132531
 20
0.1573030409852306
 10
0.1925987395226046
 20
0.1567602759735292
 10
0.1910350218241502
 20
0.1565367840798957
  0
LWPOLYLINE
  5
2052
330
2
100
AcDbEntity
  8
Profilo
  6
Continuous
370
     0
100
AcDbPolyline
 90
        2
 70
   128
 43
0.0
 10
0.1925030016641228
 20
0.1568879846113381
 10
0.1909711972419211
 20
0.1578777334103081
  0
LWPOLYLINE
  5
2053
330
2
100
AcDbEntity
  8
Profilo
  6
Continuous
370
     0
100
AcDbPolyline
 90
        2
 70
   128
 43
0.0
 10
0.1938114177498628
 20
0.1553235444029864
 10
0.1925349142836156
 20
0.154142232139455
  0
LWPOLYLINE
  5
2054
330
2
100
AcDbEntity
  8
Profilo
  6
Continuous
370
     0
100
AcDbPolyline
 90
        2
 70
   128
 43
0.0
 10
0.1914179732580793
 20
0.1554831814698692
 10
0.1903010322325448
 20
0.1545253600842736
  0
LWPOLYLINE
  5
2055
330
2
100
AcDbEntity
  8
Profilo
  6
Continuous
370
     0
100
AcDbPolyline
 90
        7
 70
   128
 43
0.0
 10
0.1905037050487616
 20
0.1607284855708291
 10
0.1896813773122788
 20
0.1604085441242647
 10
0.1892245285697894
 20
0.1600124254173055
 10
0.1891395057488031
 20
0.1593726887845155
 10
0.18940802334065
 20
0.1589025664083264
 10
0.189743670330459
 20
0.1585443768671664
 10
0.1900569408542813
 20
0.1582981221924294
  0
LWPOLYLINE
  5
2056
330
2
100
AcDbEntity
  8
Profilo
  6
Continuous
370
     0
100
AcDbPolyline
 90
       13
 70
   128
 43
0.0
 10
0.197111968599056
 20
0.1491675512942927
 10
0.1959865527736658
 20
0.1486322728296768
 10
0.1946202217819669
 20
0.1479280880693695
 10
0.1933800588023468
 20
0.1474879169349604
 10
0.1924117418039261
 20
0.1475679847576648
 10
0.1914240742625116
 20
0.1480556335156931
 10
0.1908684132990656
 20
0.148896767588806
 10
0.1905565908868277
 20
0.150149923646405
 10
0.1908873857110395
 20
0.1512803583877056
 10
0.1913778166774017
 20
0.152031486453986
 10
0.1920390081602695
 20
0.1524918568487182
 10
0.1930932396683319
 20
0.1530322077868811
 10
0.1947809640260617
 20
0.1536276121557579
  0
LWPOLYLINE
  5
2057
330
2
100
AcDbEntity
  8
Profilo
  6
Continuous
370
     0
100
AcDbPolyline
 90
        3
 70
   128
 43
0.0
 10
0.1958309180321768
 20
0.1506758404868891
 10
0.1940821032137622
 20
0.1502279215367346
 10
0.1924461748275584
 20
0.1497576457113828
  0
LWPOLYLINE
  5
2058
330
2
100
AcDbEntity
  8
Profilo
  6
Continuous
370
     0
100
AcDbPolyline
 90
        3
 70
   128
 43
0.0
 10
0.1950970333070655
 20
0.1520306364760402
 10
0.1939190211472089
 20
0.150955203247531
 10
0.1925598610159435
 20
0.1501503148052259
  0
LWPOLYLINE
  5
2059
330
2
100
AcDbEntity
  8
Profilo
  6
Continuous
370
     0
100
AcDbPolyline
 90
        2
 70
   128
 43
0.0
 10
0.193781698919412
 20
0.1510365533518355
 10
0.1919877356983614
 20
0.1513647658355333
  0
LWPOLYLINE
  5
205A
330
2
100
AcDbEntity
  8
Profilo
  6
Continuous
370
     0
100
AcDbPolyline
 90
        2
 70
   128
 43
0.0
 10
0.1955892031096974
 20
0.1500919082221555
 10
0.1948619363157563
 20
0.1485120212724849
  0
LWPOLYLINE
  5
205B
330
2
100
AcDbEntity
  8
Profilo
  6
Continuous
370
     0
100
AcDbPolyline
 90
        2
 70
   128
 43
0.0
 10
0.1933168582708505
 20
0.1493234620875872
 10
0.1926514816937684
 20
0.1480111156882331
  0
LWPOLYLINE
  5
205C
330
2
100
AcDbEntity
  8
Profilo
  6
Continuous
370
     0
100
AcDbPolyline
 90
        7
 70
   128
 43
0.0
 10
0.1904648936078809
 20
0.1538196158918166
 10
0.1898275981340566
 20
0.1532093373370072
 10
0.1895571129978192
 20
0.152668542926357
 10
0.1897233787641598
 20
0.1520449665201605
 10
0.1901513647159388
 20
0.1517133873127219
 10
0.1905985353030205
 20
0.1515109098690073
 10
0.1909821971122815
 20
0.1514032836545476
  0
LWPOLYLINE
  5
205D
330
2
100
AcDbEntity
  8
Profilo
  6
Continuous
370
     0
100
AcDbPolyline
 90
       13
 70
   128
 43
0.0
 10
0.2009943110577316
 20
0.1456675783144168
 10
0.2001594046111984
 20
0.144742367505867
 10
0.199166559214427
 20
0.1435689133850607
 10
0.1981892442211203
 20
0.1426876584574459
 10
0.1972639953360827
 20
0.1423910726074813
 10
0.1961648944091342
 20
0.1424636373092949
 10
0.1953296425438123
 20
0.1430281016188198
 10
0.1945619941379556
 20
0.1440665375804718
 10
0.1944350100586399
 20
0.1452375127995383
 10
0.1946006649240223
 20
0.1461191444518151
 10
0.1950353500792991
 20
0.146797498262997
 10
0.1958025496404291
 20
0.147700154367151
 10
0.1971339522435288
 20
0.1488961004272267
  0
LWPOLYLINE
  5
205E
330
2
100
AcDbEntity
  8
Profilo
  6
Continuous
370
     0
100
AcDbPolyline
 90
        3
 70
   128
 43
0.0
 10
0.199233577373659
 20
0.1465708190005981
 10
0.197789294318038
 20
0.1454877533930455
 10
0.1964578603323742
 20
0.1444272324934315
  0
LWPOLYLINE
  5
205F
330
2
100
AcDbEntity
  8
Profilo
  6
Continuous
370
     0
100
AcDbPolyline
 90
        3
 70
   128
 43
0.0
 10
0.1980370983176213
 20
0.1475416417601374
 10
0.1973603074732461
 20
0.1460972652750337
 10
0.1964126247183374
 20
0.144833517253066
  0
LWPOLYLINE
  5
2060
330
2
100
AcDbEntity
  8
Profilo
  6
Continuous
370
     0
100
AcDbPolyline
 90
        2
 70
   128
 43
0.0
 10
0.1972023069404874
 20
0.1461198720298947
 10
0.1954192995586735
 20
0.1457365808229292
  0
LWPOLYLINE
  5
2061
330
2
100
AcDbEntity
  8
Profilo
  6
Continuous
370
     0
100
AcDbPolyline
 90
        2
 70
   128
 43
0.0
 10
0.1992337231074147
 20
0.1459388356366494
 10
0.1991664127624654
 20
0.1442008974672154
  0
LWPOLYLINE
  5
2062
330
2
100
AcDbEntity
  8
Profilo
  6
Continuous
370
     0
100
AcDbPolyline
 90
        2
 70
   128
 43
0.0
 10
0.1974284218243601
 20
0.1443592952586373
 10
0.1973159072479363
 20
0.142892216688376
  0
LWPOLYLINE
  5
2063
330
2
100
AcDbEntity
  8
Profilo
  6
Continuous
370
     0
100
AcDbPolyline
 90
        7
 70
   128
 43
0.0
 10
0.1930729464745523
 20
0.1474218001071788
 10
0.192717705722177
 20
0.1466140938219067
 10
0.19267476310223
 20
0.1460109547542694
 10
0.1930670050001749
 20
0.1454984724297775
 10
0.1935893023304297
 20
0.1453559163196485
 10
0.1940799188465115
 20
0.1453399763287231
 10
0.1944755629086584
 20
0.1453873636900576
  0
LWPOLYLINE
  5
2064
330
2
100
AcDbEntity
  8
Profilo
  6
Continuous
370
     0
100
AcDbPolyline
 90
       13
 70
   128
 43
0.0
 10
0.2059205094666256
 20
0.14391973305167
 10
0.2055032193369891
 20
0.1427454448577295
 10
0.2050350112466356
 20
0.1412813691289317
 10
0.2044693315879916
 20
0.1400931934822425
 10
0.2037280115716834
 20
0.1394651064667092
 10
0.2026848054119513
 20
0.1391115397942575
 10
0.2016971221696723
 20
0.1393133997659502
 10
0.2005905152812394
 20
0.1399790231699414
 10
0.2000250844733594
 20
0.1410122685045861
 10
0.1998407437861717
 20
0.1418901833158129
 10
0.1999827457393971
 20
0.142683247324984
 10
0.2003461141750934
 20
0.1438107873858692
 10
0.2011185010464368
 20
0.1454252031907744
  0
LWPOLYLINE
  5
2065
330
2
100
AcDbEntity
  8
Profilo
  6
Continuous
370
     0
100
AcDbPolyline
 90
        3
 70
   128
 43
0.0
 10
0.2039481484076665
 20
0.1440804150248636
 10
0.2030282761176009
 20
0.142527089680645
 10
0.2022040352873157
 20
0.1410377784000905
  0
LWPOLYLINE
  5
2066
330
2
100
AcDbEntity
  8
Profilo
  6
Continuous
370
     0
100
AcDbPolyline
 90
        3
 70
   128
 43
0.0
 10
0.2024712281108764
 20
0.144519465590181
 10
0.2023986938529147
 20
0.1429260390750327
 10
0.2020067645830318
 20
0.1413958256538437
  0
LWPOLYLINE
  5
2067
330
2
100
AcDbEntity
  8
Profilo
  6
Continuous
370
     0
100
AcDbPolyline
 90
        2
 70
   128
 43
0.0
 10
0.2022440691640272
 20
0.1428864608069529
 10
0.2007434643323313
 20
0.1418500185210428
  0
LWPOLYLINE
  5
2068
330
2
100
AcDbEntity
  8
Profilo
  6
Continuous
370
     0
100
AcDbPolyline
 90
        2
 70
   128
 43
0.0
 10
0.2041901326110137
 20
0.1434965942999172
 10
0.2047930261049066
 20
0.1418651902425681
  0
LWPOLYLINE
  5
2069
330
2
100
AcDbEntity
  8
Profilo
  6
Continuous
370
     0
100
AcDbPolyline
 90
        2
 70
   128
 43
0.0
 10
0.203126715639001
 20
0.1413464303824435
 10
0.2035841923875518
 20
0.139947969054497
  0
LWPOLYLINE
  5
206A
330
2
100
AcDbEntity
  8
Profilo
  6
Continuous
370
     0
100
AcDbPolyline
 90
        7
 70
   128
 43
0.0
 10
0.1979308112418815
 20
0.1425090476737823
 10
0.1979117073952382
 20
0.141626879618102
 10
0.1981028449161956
 20
0.1410532183490596
 10
0.198661347672464
 20
0.1407298508945094
 10
0.1991984413472986
 20
0.1407980207571851
 10
0.19965781187526
 20
0.1409710449381696
 10
0.2000052049683484
 20
0.1411662315791032
  0
LWPOLYLINE
  5
206B
330
2
100
AcDbEntity
  8
Profilo
  6
Continuous
370
     0
100
AcDbPolyline
 90
       13
 70
   128
 43
0.0
 10
0.2111405947740822
 20
0.1441901091030489
 10
0.2112044496008364
 20
0.1429455182562962
 10
0.2113321592543413
 20
0.1414137131773346
 10
0.2112642345304904
 20
0.1400995057829424
 10
0.2108197026353084
 20
0.1392355381563335
 10
0.2099912099239271
 20
0.1385096674304056
 10
0.209001461124957
 20
0.1383181917134402
 10
0.2077243666212952
 20
0.1385096674304056
 10
0.2068065707997059
 20
0.1392478806448208
 10
0.2063002987585202
 20
0.1399884240433047
 10
0.2061279989995674
 20
0.140775461444211
 10
0.2060322167594387
 20
0.1419562277087363
 10
0.2061279989995674
 20
0.1437433330868907
  0
LWPOLYLINE
  5
206C
330
2
100
AcDbEntity
  8
Profilo
  6
Continuous
370
     0
100
AcDbPolyline
 90
        3
 70
   128
 43
0.0
 10
0.2092568804319685
 20
0.1435837699894198
 10
0.209001461124957
 20
0.1417966646112654
 10
0.208809896644698
 20
0.1401052970915946
  0
LWPOLYLINE
  5
206D
330
2
100
AcDbEntity
  8
Profilo
  6
Continuous
370
     0
100
AcDbPolyline
 90
        3
 70
   128
 43
0.0
 10
0.2077243666212952
 20
0.1434242068919489
 10
0.2082671316329966
 20
0.1419243150892418
 10
0.2084906235266319
 20
0.1403605973907874
  0
LWPOLYLINE
  5
206E
330
2
100
AcDbEntity
  8
Profilo
  6
Continuous
370
     0
100
AcDbPolyline
 90
        2
 70
   128
 43
0.0
 10
0.2081394229951877
 20
0.14182857723076
 10
0.2071496741962177
 20
0.1402967728085583
  0
LWPOLYLINE
  5
206F
330
2
100
AcDbEntity
  8
Profilo
  6
Continuous
370
     0
100
AcDbPolyline
 90
        2
 70
   128
 43
0.0
 10
0.2097038632035394
 20
0.1431369933164999
 10
0.2108851754670725
 20
0.1418604898502545
  0
LWPOLYLINE
  5
2070
330
2
100
AcDbEntity
  8
Profilo
  6
Continuous
370
     0
100
AcDbPolyline
 90
        2
 70
   128
 43
0.0
 10
0.2095442261366584
 20
0.1407435488247182
 10
0.2105020475222522
 20
0.1396266077991819
  0
LWPOLYLINE
  5
2071
330
2
100
AcDbEntity
  8
Profilo
  6
Continuous
370
     0
100
AcDbPolyline
 90
        7
 70
   128
 43
0.0
 10
0.2042989220356985
 20
0.1398292806153987
 10
0.2046188634822629
 20
0.139006952878916
 10
0.2050149821892203
 20
0.1385501041364266
 10
0.2056547188220103
 20
0.138465081315442
 10
0.2061248411982012
 20
0.1387335989072889
 10
0.2064830307393612
 20
0.1390692458970962
 10
0.2067292854140982
 20
0.1393825164209184
  0
LWPOLYLINE
  5
2072
330
2
100
AcDbEntity
  8
Profilo
  6
Continuous
370
     0
100
AcDbPolyline
 90
       13
 70
   128
 43
0.0
 10
0.2158598563122348
 20
0.1464375441656949
 10
0.216395134776849
 20
0.145312128340303
 10
0.2170993195371581
 20
0.1439457973486041
 10
0.2175394906715654
 20
0.1427056343689839
 10
0.2174594228488628
 20
0.1417373173705632
 10
0.2169717740908345
 20
0.1407496498291488
 10
0.2161306400177198
 20
0.1401939888657027
 10
0.2148774839601225
 20
0.1398821664534649
 10
0.2137470492188219
 20
0.1402129612776766
 10
0.2129959211525415
 20
0.1407033922440389
 10
0.2125355507578094
 20
0.1413645837269067
 10
0.2119951998196464
 20
0.1424188152349691
 10
0.2113997954507697
 20
0.1441065395926989
  0
LWPOLYLINE
  5
2073
330
2
100
AcDbEntity
  8
Profilo
  6
Continuous
370
     0
100
AcDbPolyline
 90
        3
 70
   128
 43
0.0
 10
0.2143515671196367
 20
0.1451564935988157
 10
0.2147994860697912
 20
0.1434076787803993
 10
0.215269761895143
 20
0.1417717503941956
  0
LWPOLYLINE
  5
2074
330
2
100
AcDbEntity
  8
Profilo
  6
Continuous
370
     0
100
AcDbPolyline
 90
        3
 70
   128
 43
0.0
 10
0.2129967711304856
 20
0.1444226088737027
 10
0.2140722043589966
 20
0.1432445967138461
 10
0.2148770928013016
 20
0.1418854365825806
  0
LWPOLYLINE
  5
2075
330
2
100
AcDbEntity
  8
Profilo
  6
Continuous
370
     0
100
AcDbPolyline
 90
        2
 70
   128
 43
0.0
 10
0.2139908542546903
 20
0.1431072744860491
 10
0.2136626417709943
 20
0.1413133112649985
  0
LWPOLYLINE
  5
2076
330
2
100
AcDbEntity
  8
Profilo
  6
Continuous
370
     0
100
AcDbPolyline
 90
        2
 70
   128
 43
0.0
 10
0.2149354993843721
 20
0.1449147786763363
 10
0.2165153863340427
 20
0.1441875118823935
  0
LWPOLYLINE
  5
2077
330
2
100
AcDbEntity
  8
Profilo
  6
Continuous
370
     0
100
AcDbPolyline
 90
        2
 70
   128
 43
0.0
 10
0.2157039455189404
 20
0.1426424338374877
 10
0.2170162919182944
 20
0.1419770572604056
  0
LWPOLYLINE
  5
2078
330
2
100
AcDbEntity
  8
Profilo
  6
Continuous
370
     0
100
AcDbPolyline
 90
        7
 70
   128
 43
0.0
 10
0.2112077917147092
 20
0.139790469174518
 10
0.2118180702695186
 20
0.1391531737006937
 10
0.2123588646801705
 20
0.1388826885644563
 10
0.2129824410863671
 20
0.1390489543307969
 10
0.2133140202938057
 20
0.139476940282576
 10
0.2135164977375203
 20
0.1399241108696577
 10
0.21362412395198
 20
0.1403077726789204
  0
LWPOLYLINE
  5
2079
330
2
100
AcDbEntity
  8
Profilo
  6
Continuous
370
     0
100
AcDbPolyline
 90
       13
 70
   128
 43
0.0
 10
0.2193598292921107
 20
0.1503198866243705
 10
0.2202850401006605
 20
0.1494849801778356
 10
0.2214584942214651
 20
0.1484921347810642
 10
0.2223397491490816
 20
0.1475148197877574
 10
0.2226363349990462
 20
0.1465895709027199
 10
0.2225637702972326
 20
0.1454904699757713
 10
0.2219993059877078
 20
0.1446552181104495
 10
0.220960870026054
 20
0.1438875697045927
 10
0.2197898948069893
 20
0.1437605856252771
 10
0.2189082631547107
 20
0.1439262404906594
 10
0.2182299093435288
 20
0.1443609256459362
 10
0.2173272532393748
 20
0.1451281252070662
 10
0.2161313071793009
 20
0.146459527810166
  0
LWPOLYLINE
  5
207A
330
2
100
AcDbEntity
  8
Profilo
  6
Continuous
370
     0
100
AcDbPolyline
 90
        3
 70
   128
 43
0.0
 10
0.2184565886059277
 20
0.1485591529402961
 10
0.2195396542134821
 20
0.1471148698846752
 10
0.2206001751130961
 20
0.1457834358990114
  0
LWPOLYLINE
  5
207B
330
2
100
AcDbEntity
  8
Profilo
  6
Continuous
370
     0
100
AcDbPolyline
 90
        3
 70
   128
 43
0.0
 10
0.2174857658463884
 20
0.1473626738842584
 10
0.2189301423314939
 20
0.1466858830398832
 10
0.2201938903534616
 20
0.1457382002849746
  0
LWPOLYLINE
  5
207C
330
2
100
AcDbEntity
  8
Profilo
  6
Continuous
370
     0
100
AcDbPolyline
 90
        2
 70
   128
 43
0.0
 10
0.2189075355766311
 20
0.1465278825071246
 10
0.2192908267835984
 20
0.1447448751253107
  0
LWPOLYLINE
  5
207D
330
2
100
AcDbEntity
  8
Profilo
  6
Continuous
370
     0
100
AcDbPolyline
 90
        2
 70
   128
 43
0.0
 10
0.2190885719698764
 20
0.1485592986740519
 10
0.2208265101393104
 20
0.1484919883291025
  0
LWPOLYLINE
  5
207E
330
2
100
AcDbEntity
  8
Profilo
  6
Continuous
370
     0
100
AcDbPolyline
 90
        2
 70
   128
 43
0.0
 10
0.2206681123478885
 20
0.1467539973909973
 10
0.2221351909181498
 20
0.1466414828145753
  0
LWPOLYLINE
  5
207F
330
2
100
AcDbEntity
  8
Profilo
  6
Continuous
370
     0
100
AcDbPolyline
 90
        7
 70
   128
 43
0.0
 10
0.217605607499347
 20
0.1423985220411895
 10
0.2184133137846208
 20
0.1420432812888142
 10
0.2190164528522564
 20
0.1420003386688671
 10
0.2195289351767501
 20
0.1423925805668121
 10
0.219671491286879
 20
0.1429148778970668
 10
0.2196874312778045
 20
0.1434054944131505
 10
0.21964004391647
 20
0.1438011384752956
  0
LWPOLYLINE
  5
2080
330
2
100
AcDbEntity
  8
Profilo
  6
Continuous
370
     0
100
AcDbPolyline
 90
       13
 70
   128
 43
0.0
 10
0.2211076745548576
 20
0.1552460850332627
 10
0.2222819627487981
 20
0.1548287949036263
 10
0.2237460384775959
 20
0.1543605868132727
 10
0.2249342141242833
 20
0.1537949071546306
 10
0.2255623011398166
 20
0.1530535871383206
 10
0.22591586781227
 20
0.1520103809785885
 10
0.2257140078405774
 20
0.1510226977363094
 10
0.2250483844365844
 20
0.1499160908478783
 10
0.2240151391019397
 20
0.1493506600399966
 10
0.2231372242907147
 20
0.1491663193528088
 10
0.2223441602815436
 20
0.1493083213060343
 10
0.2212166202206566
 20
0.1496716897417305
 10
0.2196022044157514
 20
0.1504440766130739
  0
LWPOLYLINE
  5
2081
330
2
100
AcDbEntity
  8
Profilo
  6
Continuous
370
     0
100
AcDbPolyline
 90
        3
 70
   128
 43
0.0
 10
0.220946992581664
 20
0.1532737239743036
 10
0.2225003179258826
 20
0.152353851684238
 10
0.2239896292064353
 20
0.1515296108539528
  0
LWPOLYLINE
  5
2082
330
2
100
AcDbEntity
  8
Profilo
  6
Continuous
370
     0
100
AcDbPolyline
 90
        3
 70
   128
 43
0.0
 10
0.2205079420163466
 20
0.1517968036775153
 10
0.2221013685314931
 20
0.1517242694195536
 10
0.2236315819526839
 20
0.1513323401496689
  0
LWPOLYLINE
  5
2083
330
2
100
AcDbEntity
  8
Profilo
  6
Continuous
370
     0
100
AcDbPolyline
 90
        2
 70
   128
 43
0.0
 10
0.2221409467995729
 20
0.1515696447306643
 10
0.2231773890854848
 20
0.1500690398989684
  0
LWPOLYLINE
  5
2084
330
2
100
AcDbEntity
  8
Profilo
  6
Continuous
370
     0
100
AcDbPolyline
 90
        2
 70
   128
 43
0.0
 10
0.2215308133066104
 20
0.1535157081776526
 10
0.2231622173639595
 20
0.1541186016715437
  0
LWPOLYLINE
  5
2085
330
2
100
AcDbEntity
  8
Profilo
  6
Continuous
370
     0
100
AcDbPolyline
 90
        2
 70
   128
 43
0.0
 10
0.2236809772240841
 20
0.1524522912056381
 10
0.2250794385520306
 20
0.1529097679541889
  0
LWPOLYLINE
  5
2086
330
2
100
AcDbEntity
  8
Profilo
  6
Continuous
370
     0
100
AcDbPolyline
 90
        7
 70
   128
 43
0.0
 10
0.2225183599327453
 20
0.1472563868085186
 10
0.2234005279884238
 20
0.1472372829618771
 10
0.2239741892574679
 20
0.1474284204828327
 10
0.2242975567120181
 20
0.1479869232391012
 10
0.2242293868493425
 20
0.1485240169139357
 10
0.224056362668358
 20
0.1489833874418971
 10
0.2238611760274244
 20
0.1493307805349855
  0
LWPOLYLINE
  5
2087
330
2
100
AcDbEntity
  8
Profilo
  6
Continuous
370
     0
100
AcDbPolyline
 90
       13
 70
   128
 43
0.0
 10
0.2208372985034787
 20
0.1604661703407211
 10
0.2220818893502313
 20
0.1605300251674735
 10
0.2236136944291912
 20
0.1606577348209784
 10
0.2249279018235851
 20
0.1605898100971275
 10
0.225791869450194
 20
0.1601452782019455
 10
0.2265177401761219
 20
0.1593167854905642
 10
0.2267092158930874
 20
0.1583270366915941
 10
0.2265177401761219
 20
0.1570499421879324
 10
0.225779526961705
 20
0.156132146366343
 10
0.2250389835632228
 20
0.1556258743251591
 10
0.2242519461623148
 20
0.1554535745662063
 10
0.2230711798977913
 20
0.1553577923260759
 10
0.2212840745196368
 20
0.1554535745662063
  0
LWPOLYLINE
  5
2088
330
2
100
AcDbEntity
  8
Profilo
  6
Continuous
370
     0
100
AcDbPolyline
 90
        3
 70
   128
 43
0.0
 10
0.2214436376171077
 20
0.1585824559986056
 10
0.2232307429952621
 20
0.1583270366915941
 10
0.224922110514933
 20
0.1581354722113369
  0
LWPOLYLINE
  5
2089
330
2
100
AcDbEntity
  8
Profilo
  6
Continuous
370
     0
100
AcDbPolyline
 90
        3
 70
   128
 43
0.0
 10
0.2216032007145786
 20
0.1570499421879324
 10
0.223103092517284
 20
0.1575927071996355
 10
0.2246668102157384
 20
0.157816199093269
  0
LWPOLYLINE
  5
208A
330
2
100
AcDbEntity
  8
Profilo
  6
Continuous
370
     0
100
AcDbPolyline
 90
        2
 70
   128
 43
0.0
 10
0.2231988303757676
 20
0.1574649985618266
 10
0.2247306347979675
 20
0.1564752497628548
  0
LWPOLYLINE
  5
208B
330
2
100
AcDbEntity
  8
Profilo
  6
Continuous
370
     0
100
AcDbPolyline
 90
        2
 70
   128
 43
0.0
 10
0.2218904142900259
 20
0.1590294387701783
 10
0.2231669177562731
 20
0.1602107510337097
  0
LWPOLYLINE
  5
208C
330
2
100
AcDbEntity
  8
Profilo
  6
Continuous
370
     0
100
AcDbPolyline
 90
        2
 70
   128
 43
0.0
 10
0.2242838587818094
 20
0.1588698017032955
 10
0.2254007998073456
 20
0.1598276230888894
  0
LWPOLYLINE
  5
208D
330
2
100
AcDbEntity
  8
Profilo
  6
Continuous
370
     0
100
AcDbPolyline
 90
        7
 70
   128
 43
0.0
 10
0.2251981269911289
 20
0.1536244976023356
 10
0.2260204547276098
 20
0.1539444390489
 10
0.226477303470101
 20
0.1543405577558592
 10
0.2265623262910855
 20
0.1549802943886474
 10
0.2262938086992387
 20
0.1554504167648383
 10
0.2259581617094296
 20
0.1558086063059983
 10
0.2256448911856092
 20
0.1560548609807353
  0
LWPOLYLINE
  5
208E
330
2
100
AcDbEntity
  8
Profilo
  6
Continuous
370
     0
100
AcDbPolyline
 90
       13
 70
   128
 43
0.0
 10
0.2185898634408327
 20
0.165185431878872
 10
0.2197152792662228
 20
0.1657207103434862
 10
0.2210816102579217
 20
0.1664248951037953
 10
0.2223217732375419
 20
0.1668650662382043
 10
0.2232900902359626
 20
0.1667849984154999
 10
0.224277757777377
 20
0.1662973496574716
 10
0.2248334187408231
 20
0.1654562155843587
 10
0.2251452411530627
 20
0.1642030595267597
 10
0.224814446328851
 20
0.1630726247854591
 10
0.2243240153624869
 20
0.1623214967191787
 10
0.2236628238796191
 20
0.1618611263244465
 10
0.2226085923715585
 20
0.1613207753862836
 10
0.2209208680138287
 20
0.1607253710174068
  0
LWPOLYLINE
  5
208F
330
2
100
AcDbEntity
  8
Profilo
  6
Continuous
370
     0
100
AcDbPolyline
 90
        3
 70
   128
 43
0.0
 10
0.2198709140077119
 20
0.1636771426862756
 10
0.2216197288261283
 20
0.1641250616364301
 10
0.2232556572123302
 20
0.1645953374617819
  0
LWPOLYLINE
  5
2090
330
2
100
AcDbEntity
  8
Profilo
  6
Continuous
370
     0
100
AcDbPolyline
 90
        3
 70
   128
 43
0.0
 10
0.2206047987328231
 20
0.1623223466971227
 10
0.2217828108926797
 20
0.1633977799256337
 10
0.2231419710239452
 20
0.1642026683679388
  0
LWPOLYLINE
  5
2091
330
2
100
AcDbEntity
  8
Profilo
  6
Continuous
370
     0
100
AcDbPolyline
 90
        2
 70
   128
 43
0.0
 10
0.2219201331204784
 20
0.1633164298213293
 10
0.2237140963415291
 20
0.1629882173376314
  0
LWPOLYLINE
  5
2092
330
2
100
AcDbEntity
  8
Profilo
  6
Continuous
370
     0
100
AcDbPolyline
 90
        2
 70
   128
 43
0.0
 10
0.2201126289301913
 20
0.1642610749510092
 10
0.2208398957241323
 20
0.1658409619006798
  0
LWPOLYLINE
  5
2093
330
2
100
AcDbEntity
  8
Profilo
  6
Continuous
370
     0
100
AcDbPolyline
 90
        2
 70
   128
 43
0.0
 10
0.2223849737690381
 20
0.1650295210855775
 10
0.223050350346122
 20
0.1663418674849316
  0
LWPOLYLINE
  5
2094
330
2
100
AcDbEntity
  8
Profilo
  6
Continuous
370
     0
100
AcDbPolyline
 90
        7
 70
   128
 43
0.0
 10
0.2252369384320078
 20
0.1605333672813463
 10
0.2258742339058338
 20
0.1611436458361557
 10
0.2261447190420712
 20
0.1616844402468077
 10
0.2259784532757289
 20
0.1623080166530042
 10
0.2255504673239516
 20
0.1626395958604428
 10
0.2251032967368699
 20
0.1628420733041574
 10
0.2247196349276072
 20
0.1629496995186171
  0
LWPOLYLINE
  5
2095
330
2
100
AcDbEntity
  8
Profilo
  6
Continuous
370
     0
100
AcDbPolyline
 90
       13
 70
   128
 43
0.0
 10
0.2147075209821571
 20
0.1686854048587479
 10
0.2155424274286902
 20
0.1696106156672977
 10
0.2165352728254616
 20
0.1707840697881023
 10
0.2175125878187684
 20
0.1716653247157188
 10
0.2184378367038059
 20
0.1719619105656834
 10
0.2195369376307562
 20
0.1718893458638698
 10
0.2203721894960781
 20
0.1713248815543449
 10
0.2211398379019331
 20
0.1702864455926912
 10
0.2212668219812487
 20
0.1691154703736264
 10
0.2211011671158664
 20
0.1682338387213496
 10
0.2206664819605896
 20
0.1675554849101677
 10
0.2198992823994613
 20
0.1666528288060137
 10
0.2185678797963616
 20
0.165456882745938
  0
LWPOLYLINE
  5
2096
330
2
100
AcDbEntity
  8
Profilo
  6
Continuous
370
     0
100
AcDbPolyline
 90
        3
 70
   128
 43
0.0
 10
0.2164682546662314
 20
0.1677821641725648
 10
0.2179125377218524
 20
0.1688652297801192
 10
0.2192439717075144
 20
0.1699257506797332
  0
LWPOLYLINE
  5
2097
330
2
100
AcDbEntity
  8
Profilo
  6
Continuous
370
     0
100
AcDbPolyline
 90
        3
 70
   128
 43
0.0
 10
0.2176647337222674
 20
0.1668113414130255
 10
0.2183415245666426
 20
0.168255717898131
 10
0.219289207321553
 20
0.1695194659200987
  0
LWPOLYLINE
  5
2098
330
2
100
AcDbEntity
  8
Profilo
  6
Continuous
370
     0
100
AcDbPolyline
 90
        2
 70
   128
 43
0.0
 10
0.218499525099403
 20
0.16823311114327
 10
0.2202825324812151
 20
0.1686164023502355
  0
LWPOLYLINE
  5
2099
330
2
100
AcDbEntity
  8
Profilo
  6
Continuous
370
     0
100
AcDbPolyline
 90
        2
 70
   128
 43
0.0
 10
0.2164681089324757
 20
0.1684141475365136
 10
0.2165354192774251
 20
0.1701520857059476
  0
LWPOLYLINE
  5
209A
330
2
100
AcDbEntity
  8
Profilo
  6
Continuous
370
     0
100
AcDbPolyline
 90
        2
 70
   128
 43
0.0
 10
0.2182734102155303
 20
0.1699936879145274
 10
0.2183859247919523
 20
0.1714607664847887
  0
LWPOLYLINE
  5
209B
330
2
100
AcDbEntity
  8
Profilo
  6
Continuous
370
     0
100
AcDbPolyline
 90
        7
 70
   128
 43
0.0
 10
0.2226288855653363
 20
0.1669311830659841
 10
0.2229841263177134
 20
0.167738889351258
 10
0.2230270689376587
 20
0.1683420284188953
 10
0.2226348270397137
 20
0.1688545107433872
 10
0.2221125297094607
 20
0.1689970668535162
 10
0.2216219131933771
 20
0.1690130068444416
 10
0.221226269131232
 20
0.1689656194831071
  0
LWPOLYLINE
  5
209C
330
2
100
AcDbEntity
  8
Profilo
  6
Continuous
370
     0
100
AcDbPolyline
 90
       13
 70
   128
 43
0.0
 10
0.2097813225732631
 20
0.1704332501214947
 10
0.2101986127028995
 20
0.1716075383154352
 10
0.2106668207932531
 20
0.173071614044233
 10
0.211232500451897
 20
0.1742597896909222
 10
0.211973820468207
 20
0.1748878767064555
 10
0.2130170266279373
 20
0.1752414433789072
 10
0.2140047098702164
 20
0.1750395834072145
 10
0.2151113167586493
 20
0.1743739600032215
 10
0.215676747566531
 20
0.1733407146685786
 10
0.215861088253717
 20
0.1724627998573518
 10
0.2157190863004915
 20
0.1716697358481807
 10
0.2153557178647953
 20
0.1705421957872955
 10
0.2145833309934519
 20
0.1689277799823903
  0
LWPOLYLINE
  5
209D
330
2
100
AcDbEntity
  8
Profilo
  6
Continuous
370
     0
100
AcDbPolyline
 90
        3
 70
   128
 43
0.0
 10
0.2117536836322222
 20
0.1702725681483011
 10
0.2126735559222878
 20
0.1718258934925197
 10
0.213497796752573
 20
0.1733152047730742
  0
LWPOLYLINE
  5
209E
330
2
100
AcDbEntity
  8
Profilo
  6
Continuous
370
     0
100
AcDbPolyline
 90
        3
 70
   128
 43
0.0
 10
0.2132306039290123
 20
0.1698335175829837
 10
0.213303138186974
 20
0.171426944098132
 10
0.2136950674568569
 20
0.172957157519321
  0
LWPOLYLINE
  5
209F
330
2
100
AcDbEntity
  8
Profilo
  6
Continuous
370
     0
100
AcDbPolyline
 90
        2
 70
   128
 43
0.0
 10
0.2134577628758615
 20
0.17146652236621
 10
0.2149583677075574
 20
0.1725029646521219
  0
LWPOLYLINE
  5
20A0
330
2
100
AcDbEntity
  8
Profilo
  6
Continuous
370
     0
100
AcDbPolyline
 90
        2
 70
   128
 43
0.0
 10
0.2115116994288749
 20
0.1708563888732475
 10
0.2109088059349821
 20
0.1724877929305966
  0
LWPOLYLINE
  5
20A1
330
2
100
AcDbEntity
  8
Profilo
  6
Continuous
370
     0
100
AcDbPolyline
 90
        2
 70
   128
 43
0.0
 10
0.2125751164008877
 20
0.1730065527907212
 10
0.2121176396523369
 20
0.1744050141186678
  0
LWPOLYLINE
  5
20A2
330
2
100
AcDbEntity
  8
Profilo
  6
Continuous
370
     0
100
AcDbPolyline
 90
        7
 70
   128
 43
0.0
 10
0.2177710207980072
 20
0.1718439354993824
 10
0.2177901246446504
 20
0.1727261035550609
 10
0.2175989871236949
 20
0.1732997648241051
 10
0.2170404843674264
 20
0.1736231322786553
 10
0.2165033906925901
 20
0.1735549624159796
 10
0.2160440201646304
 20
0.1733819382349951
 10
0.2156966270715403
 20
0.1731867515940615
  0
LWPOLYLINE
  5
20A3
330
2
100
AcDbEntity
  8
Profilo
  6
Continuous
370
     0
100
AcDbPolyline
 90
       25
 70
   128
 43
0.0
 10
0.2061381959372829
 20
0.1639463252154952
 10
0.20641235180326
 20
0.1642414330447406
 10
0.2064545296287944
 20
0.1647684112643391
 10
0.2063069072394223
 20
0.1651899939713713
 10
0.2059273068096074
 20
0.165674813460536
 10
0.2054633517444197
 20
0.1663282665579194
 10
0.2052524626167441
 20
0.1671292738983064
 10
0.2053789960933491
 20
0.1679513599471521
 10
0.2057375076103968
 20
0.1684151007278599
 10
0.2064967074543306
 20
0.1687102085571053
 10
0.2073613518621004
 20
0.1688788415085658
 10
0.2087532180733612
 20
0.1688366834348903
 10
0.2098287505931106
 20
0.1685837336793204
 10
0.2109042841285559
 20
0.1682253884111807
 10
0.2117478396235585
 20
0.1678248850693671
 10
0.2123383281653529
 20
0.1671503526067651
 10
0.2125703062057957
 20
0.1665390582398154
 10
0.2125070394674923
 20
0.1659066845076489
 10
0.2121485279504446
 20
0.1650424397283677
 10
0.2118111063618619
 20
0.1644943828003105
 10
0.2114104170192798
 20
0.1641992749710651
 10
0.2110519065179281
 20
0.163862008411384
 10
0.2110519065179281
 20
0.1634615050695705
 10
0.2112206168043714
 20
0.1632085553139988
 10
0.2114268353017289
 20
0.1631745628378157
  0
LWPOLYLINE
  5
20A4
330
2
100
AcDbEntity
  8
Profilo
  6
Continuous
370
     0
100
AcDbPolyline
 90
        5
 70
   128
 43
0.0
 10
0.2076144177996143
 20
0.1632296346792175
 10
0.208078373880498
 20
0.164093878801737
 10
0.2084157954690825
 20
0.1649159648505827
 10
0.2086055956839891
 20
0.1657802096298622
 10
0.2086477735095235
 20
0.1661385548980019
  0
LWPOLYLINE
  5
20A5
330
2
100
AcDbEntity
  8
Profilo
  6
Continuous
370
     0
100
AcDbPolyline
 90
        3
 70
   128
 43
0.0
 10
0.2093647955279229
 20
0.1633561095570025
 10
0.2092804398768523
 20
0.1649159648505827
 10
0.2092804398768523
 20
0.1661385548980019
  0
LWPOLYLINE
  5
20A6
330
2
100
AcDbEntity
  8
Profilo
  6
Continuous
370
     0
100
AcDbPolyline
 90
        7
 70
   128
 43
0.0
 10
0.2064629792105185
 20
0.168127382104061
 10
0.2069606625195183
 20
0.1679513599471521
 10
0.2080572849677308
 20
0.1675719353137955
 10
0.2091749953130146
 20
0.1673611442886612
 10
0.2100607286335533
 20
0.1673611442886612
 10
0.2109260799663003
 20
0.167292568705435
 10
0.21142197971171
 20
0.167292568705435
  0
LWPOLYLINE
  5
20A7
330
2
100
AcDbEntity
  8
Profilo
  6
Continuous
370
     0
100
AcDbPolyline
 90
       25
 70
   128
 43
0.0
 10
0.2018528447687119
 20
0.160752410868366
 10
0.2018380294934049
 20
0.1611549410875424
 10
0.2014952238472402
 20
0.1615573951866094
 10
0.2010927350636868
 20
0.1617511143850022
 10
0.2004814978771842
 20
0.1618255154953788
 10
0.1996913709880766
 20
0.1619595108389658
 10
0.198975852133651
 20
0.1623767874288764
 10
0.1984840221931469
 20
0.1630475627280874
 10
0.1984096138672354
 20
0.1636289829036764
 10
0.1987377764779138
 20
0.1643744910088381
 10
0.1992299308984554
 20
0.1651051284363967
 10
0.2002439391947201
 20
0.1660595162131071
 10
0.2011833180202837
 20
0.1666411700637452
 10
0.2021972234456987
 20
0.1671482987509437
 10
0.2030769058854064
 20
0.1674615839328842
 10
0.2039714108159577
 20
0.167402155906562
 10
0.2045676944536131
 20
0.1671339387598736
 10
0.2049701138681955
 20
0.1666420466659369
 10
0.2053277212873906
 20
0.1657774273970661
 10
0.20547666296429
 20
0.1651512995333549
 10
0.2054020055602427
 20
0.1646592966348242
 10
0.2053869838250288
 20
0.1641673079567743
 10
0.2056701824539123
 20
0.1638841093278907
 10
0.2059683411289773
 20
0.1638245430280266
 10
0.2061381959372829
 20
0.1639463252154952
  0
LWPOLYLINE
  5
20A8
330
2
100
AcDbEntity
  8
Profilo
  6
Continuous
370
     0
100
AcDbPolyline
 90
        5
 70
   128
 43
0.0
 10
0.2034034679963165
 20
0.1612894806195429
 10
0.203120421607648
 20
0.1622286599901437
 10
0.2027777120811963
 20
0.1630485557034072
 10
0.2023008077561931
 20
0.1637938780664734
 10
0.2020772436135386
 20
0.1640770906620319
  0
LWPOLYLINE
  5
20A9
330
2
100
AcDbEntity
  8
Profilo
  6
Continuous
370
     0
100
AcDbPolyline
 90
        3
 70
   128
 43
0.0
 10
0.2045517407139096
 20
0.1626166158245988
 10
0.2033891080052447
 20
0.1636599516274555
 10
0.2025246062921044
 20
0.1645244533405977
  0
LWPOLYLINE
  5
20AA
330
2
100
AcDbEntity
  8
Profilo
  6
Continuous
370
     0
100
AcDbPolyline
 90
        7
 70
   128
 43
0.0
 10
0.1991260475452007
 20
0.1639385210017186
 10
0.1996024292486668
 20
0.1641659697836074
 10
0.2006461521493955
 20
0.1646731052219442
 10
0.201585544477234
 20
0.1653143940232114
 10
0.2022118525145101
 20
0.1659407020604858
 10
0.2028722385699252
 20
0.1665041075960585
 10
0.2032228926426937
 20
0.1668547616688252
  0
LWPOLYLINE
  5
20AB
330
2
100
AcDbEntity
  8
Profilo
  6
Continuous
370
     0
100
AcDbPolyline
 90
       25
 70
   128
 43
0.0
 10
0.2010810823910324
 20
0.15546377150392
 10
0.2007859745617869
 20
0.1557379273698971
 10
0.2002589963421867
 20
0.1557801051954333
 10
0.1998374136351563
 20
0.1556324828060594
 10
0.1993525941459916
 20
0.1552528823762445
 10
0.1986991410486064
 20
0.1547889273110568
 10
0.1978981337082194
 20
0.154578038183383
 10
0.1970760476593737
 20
0.1547045716599862
 10
0.1966123068786677
 20
0.1550630831770339
 10
0.1963171990494222
 20
0.1558222830209677
 10
0.1961485660979617
 20
0.1566869274287375
 10
0.1961907241716373
 20
0.1580787936400001
 10
0.1964436739272072
 20
0.1591543261597477
 10
0.1968020191953451
 20
0.160229859695193
 10
0.1972025225371604
 20
0.1610734151901974
 10
0.1978770549997625
 20
0.1616639037319901
 10
0.1984883493667121
 20
0.1618958817724328
 10
0.1991207230988786
 20
0.1618326150341294
 10
0.1999849678781581
 20
0.1614741035170817
 10
0.2005330248062153
 20
0.161136681928499
 10
0.2008281326354625
 20
0.1607359925859169
 10
0.2011653991951436
 20
0.160377482084567
 10
0.2015659025369571
 20
0.160377482084567
 10
0.201818852292527
 20
0.1605461923710086
 10
0.2018528447687119
 20
0.160752410868366
  0
LWPOLYLINE
  5
20AC
330
2
100
AcDbEntity
  8
Profilo
  6
Continuous
370
     0
100
AcDbPolyline
 90
        5
 70
   128
 43
0.0
 10
0.2017977729273101
 20
0.1569399933662515
 10
0.2009335288047888
 20
0.1574039494471369
 10
0.2001114427559449
 20
0.1577413710357197
 10
0.1992471979766636
 20
0.1579311712506262
 10
0.1988888527085256
 20
0.1579733490761624
  0
LWPOLYLINE
  5
20AD
330
2
100
AcDbEntity
  8
Profilo
  6
Continuous
370
     0
100
AcDbPolyline
 90
        3
 70
   128
 43
0.0
 10
0.2016712980495251
 20
0.15869037109456
 10
0.2001114427559449
 20
0.1586060154434894
 10
0.1988888527085256
 20
0.1586060154434894
  0
LWPOLYLINE
  5
20AE
330
2
100
AcDbEntity
  8
Profilo
  6
Continuous
370
     0
100
AcDbPolyline
 90
        7
 70
   128
 43
0.0
 10
0.1969000255024665
 20
0.1557885547771556
 10
0.1970760476593737
 20
0.1562862380861554
 10
0.1974554722927303
 20
0.1573828605343679
 10
0.1976662633178664
 20
0.1585005708796535
 10
0.1976662633178664
 20
0.1593863042001904
 10
0.1977348389010908
 20
0.1602516555329374
 10
0.1977348389010908
 20
0.1607475552783471
  0
LWPOLYLINE
  5
20AF
330
2
100
AcDbEntity
  8
Profilo
  6
Continuous
370
     0
100
AcDbPolyline
 90
       25
 70
   128
 43
0.0
 10
0.2042749967381615
 20
0.151178420335349
 10
0.2038724665189852
 20
0.151163605060042
 10
0.2034700124199164
 20
0.1508207994138773
 10
0.2032762932215254
 20
0.1504183106303257
 10
0.2032018921111488
 20
0.1498070734438213
 10
0.2030678967675618
 20
0.1490169465547138
 10
0.2026506201776511
 20
0.1483014277002881
 10
0.2019798448784384
 20
0.1478095977597858
 10
0.2013984247028512
 20
0.1477351894338726
 10
0.2006529165976877
 20
0.1480633520445527
 10
0.199922279170129
 20
0.1485555064650926
 10
0.1989678913934204
 20
0.1495695147613572
 10
0.1983862375427824
 20
0.1505088935869226
 10
0.1978791088555821
 20
0.1515227990123358
 10
0.1975658236736434
 20
0.1524024814520435
 10
0.1976252516999638
 20
0.1532969863825949
 10
0.1978934688466521
 20
0.1538932700202503
 10
0.1983853609405889
 20
0.1542956894348327
 10
0.1992499802094615
 20
0.1546532968540278
 10
0.1998761080731727
 20
0.1548022385309289
 10
0.2003681109717034
 20
0.1547275811268798
 10
0.2008600996497515
 20
0.1547125593916659
 10
0.2011432982786369
 20
0.1549957580205512
 10
0.201202864578501
 20
0.1552939166956145
 10
0.2010810823910324
 20
0.15546377150392
  0
LWPOLYLINE
  5
20B0
330
2
100
AcDbEntity
  8
Profilo
  6
Continuous
370
     0
100
AcDbPolyline
 90
        5
 70
   128
 43
0.0
 10
0.2037379269869847
 20
0.1527290435629536
 10
0.2027987476163839
 20
0.1524459971742851
 10
0.2019788519031204
 20
0.1521032876478335
 10
0.2012335295400542
 20
0.1516263833228302
 10
0.2009503169444956
 20
0.1514028191801758
  0
LWPOLYLINE
  5
20B1
330
2
100
AcDbEntity
  8
Profilo
  6
Continuous
370
     0
100
AcDbPolyline
 90
        3
 70
   128
 43
0.0
 10
0.202410791781927
 20
0.1538773162805467
 10
0.2013674559790703
 20
0.1527146835718836
 10
0.2005029542659299
 20
0.1518501818587415
  0
LWPOLYLINE
  5
20B2
330
2
100
AcDbEntity
  8
Profilo
  6
Continuous
370
     0
100
AcDbPolyline
 90
        7
 70
   128
 43
0.0
 10
0.2010888866048072
 20
0.1484516231118378
 10
0.2008614378229202
 20
0.1489280048153039
 10
0.2003543023845816
 20
0.1499717277160327
 10
0.1997130135833162
 20
0.1509111200438711
 10
0.1990867055460418
 20
0.1515374280811473
 10
0.198523300010469
 20
0.1521978141365623
 10
0.1981726459377006
 20
0.1525484682093308
  0
LWPOLYLINE
  5
20B3
330
2
100
AcDbEntity
  8
Profilo
  6
Continuous
370
     0
100
AcDbPolyline
 90
       25
 70
   128
 43
0.0
 10
0.2095636361026058
 20
0.1504066579576695
 10
0.2092894802366286
 20
0.1501115501284241
 10
0.2092473024110943
 20
0.1495845719088256
 10
0.2093949248004664
 20
0.1491629892017934
 10
0.2097745252302813
 20
0.1486781697126287
 10
0.210238480295469
 20
0.1480247166152453
 10
0.2104493694231445
 20
0.1472237092748565
 10
0.2103228359465396
 20
0.1464016232260126
 10
0.2099643244294919
 20
0.1459378824453049
 10
0.2092051245855599
 20
0.1456427746160594
 10
0.2083404801777883
 20
0.1454741416645989
 10
0.2069486139665274
 20
0.1455162997382744
 10
0.2058730814467781
 20
0.1457692494938443
 10
0.2047975479113328
 20
0.146127594761984
 10
0.2039539924163302
 20
0.1465280981037976
 10
0.2033635038745375
 20
0.1472026305663996
 10
0.2031315258340948
 20
0.1478139249333493
 10
0.2031947925723964
 20
0.1484462986655158
 10
0.2035533040894441
 20
0.149310543444797
 10
0.2038907256780268
 20
0.1498586003728524
 10
0.2042914150206107
 20
0.1501537082020997
 10
0.2046499255219606
 20
0.1504909747617807
 10
0.2046499255219606
 20
0.1508914781035942
 10
0.2044812152355172
 20
0.1511444278591641
 10
0.2042749967381615
 20
0.151178420335349
  0
LWPOLYLINE
  5
20B4
330
2
100
AcDbEntity
  8
Profilo
  6
Continuous
370
     0
100
AcDbPolyline
 90
        5
 70
   128
 43
0.0
 10
0.2080874142402761
 20
0.1511233484939472
 10
0.2076234581593907
 20
0.1502591043714277
 10
0.2072860365708079
 20
0.149437018322582
 10
0.2070962363558996
 20
0.1485727735433007
 10
0.2070540585303652
 20
0.1482144282751628
  0
LWPOLYLINE
  5
20B5
330
2
100
AcDbEntity
  8
Profilo
  6
Continuous
370
     0
100
AcDbPolyline
 90
        3
 70
   128
 43
0.0
 10
0.2063370365119676
 20
0.1509968736161622
 10
0.2064213921630364
 20
0.149437018322582
 10
0.2064213921630364
 20
0.1482144282751628
  0
LWPOLYLINE
  5
20B6
330
2
100
AcDbEntity
  8
Profilo
  6
Continuous
370
     0
100
AcDbPolyline
 90
        7
 70
   128
 43
0.0
 10
0.209238852829372
 20
0.1462256010691037
 10
0.2087411695203704
 20
0.1464016232260126
 10
0.2076445470721579
 20
0.1467810478593674
 10
0.2065268367268741
 20
0.1469918388845036
 10
0.2056411034063354
 20
0.1469918388845036
 10
0.2047757520735884
 20
0.1470604144677279
 10
0.2042798523281787
 20
0.1470604144677279
  0
LWPOLYLINE
  5
20B7
330
2
100
AcDbEntity
  8
Profilo
  6
Continuous
370
     0
100
AcDbPolyline
 90
       25
 70
   128
 43
0.0
 10
0.2138489872711785
 20
0.1536005723047987
 10
0.2138638025464838
 20
0.1531980420856223
 10
0.2142066081926485
 20
0.1527955879865553
 10
0.2146090969762019
 20
0.1526018687881625
 10
0.2152203341627045
 20
0.1525274676777859
 10
0.2160104610518138
 20
0.1523934723341989
 10
0.2167259799062394
 20
0.1519761957442883
 10
0.2172178098467418
 20
0.1513054204450755
 10
0.217292218172655
 20
0.1507240002694883
 10
0.2169640555619749
 20
0.1499784921643266
 10
0.216471901141435
 20
0.149247854736768
 10
0.2154578928451704
 20
0.1482934669600576
 10
0.214518514019605
 20
0.1477118131094195
 10
0.2135046085941918
 20
0.1472046844222193
 10
0.2126249261544823
 20
0.1468913992402805
 10
0.2117304212239309
 20
0.1469508272666027
 10
0.2111341375862773
 20
0.1472190444132893
 10
0.2107317181716949
 20
0.147710936507226
 10
0.210374110752498
 20
0.1485755557760986
 10
0.2102251690755986
 20
0.1492016836398098
 10
0.2102998264796478
 20
0.1496936865383405
 10
0.2103148482148599
 20
0.1501856752163904
 10
0.2100316495859763
 20
0.150468873845274
 10
0.2097334909109131
 20
0.1505284401451381
 10
0.2095636361026058
 20
0.1504066579576695
  0
LWPOLYLINE
  5
20B8
330
2
100
AcDbEntity
  8
Profilo
  6
Continuous
370
     0
100
AcDbPolyline
 90
        5
 70
   128
 43
0.0
 10
0.212298364043574
 20
0.1530635025536218
 10
0.2125814104322425
 20
0.152124323183021
 10
0.2129241199586941
 20
0.1513044274697575
 10
0.2134010242836956
 20
0.1505591051066913
 10
0.2136245884263518
 20
0.1502758925111328
  0
LWPOLYLINE
  5
20B9
330
2
100
AcDbEntity
  8
Profilo
  6
Continuous
370
     0
100
AcDbPolyline
 90
        3
 70
   128
 43
0.0
 10
0.2111500913259809
 20
0.1517363673485659
 10
0.212312724034644
 20
0.1506930315457074
 10
0.2131772257477843
 20
0.149828529832567
  0
LWPOLYLINE
  5
20BA
330
2
100
AcDbEntity
  8
Profilo
  6
Continuous
370
     0
100
AcDbPolyline
 90
        7
 70
   128
 43
0.0
 10
0.2165757844946897
 20
0.1504144621714461
 10
0.2160994027912237
 20
0.1501870133895573
 10
0.2150556798904949
 20
0.1496798779512205
 10
0.2141162875626547
 20
0.1490385891499533
 10
0.2134899795253803
 20
0.1484122811126789
 10
0.2128295934699635
 20
0.1478488755771062
 10
0.212478939397195
 20
0.1474982215043377
  0
LWPOLYLINE
  5
20BB
330
2
100
AcDbEntity
  8
Profilo
  6
Continuous
370
     0
100
AcDbPolyline
 90
       25
 70
   128
 43
0.0
 10
0.2146207496488563
 20
0.1588892116692447
 10
0.2149158574781035
 20
0.1586150558032676
 10
0.215442835697702
 20
0.1585728779777314
 10
0.2158644184047342
 20
0.1587205003671035
 10
0.2163492378938971
 20
0.1591001007969184
 10
0.2170026909912822
 20
0.1595640558621079
 10
0.2178036983316693
 20
0.1597749449897817
 10
0.218625784380515
 20
0.1596484115131767
 10
0.2190895251612209
 20
0.159289899996129
 10
0.2193846329904682
 20
0.158530700152197
 10
0.2195532659419287
 20
0.1576660557444254
 10
0.2195111078682531
 20
0.1562741895331646
 10
0.2192581581126815
 20
0.155198657013417
 10
0.2188998128445435
 20
0.1541231234779699
 10
0.21849930950273
 20
0.1532795679829673
 10
0.2178247770401279
 20
0.1526890794411746
 10
0.2172134826731783
 20
0.1524571014007319
 10
0.21658110894101
 20
0.1525203681390353
 10
0.2157168641617305
 20
0.1528788796560812
 10
0.2151688072336734
 20
0.1532163012446657
 10
0.2148736994044279
 20
0.1536169905872478
 10
0.2145364328447469
 20
0.1539755010885977
 10
0.2141359295029334
 20
0.1539755010885977
 10
0.2138829797473617
 20
0.1538067908021544
 10
0.2138489872711785
 20
0.1536005723047987
  0
LWPOLYLINE
  5
20BC
330
2
100
AcDbEntity
  8
Profilo
  6
Continuous
370
     0
100
AcDbPolyline
 90
        5
 70
   128
 43
0.0
 10
0.2139040591125804
 20
0.1574129898069132
 10
0.2147683032350999
 20
0.1569490337260278
 10
0.2155903892839456
 20
0.156611612137445
 10
0.2164546340632251
 20
0.1564218119225367
 10
0.2168129793313648
 20
0.1563796340970023
  0
LWPOLYLINE
  5
20BD
330
2
100
AcDbEntity
  8
Profilo
  6
Continuous
370
     0
100
AcDbPolyline
 90
        3
 70
   128
 43
0.0
 10
0.2140305339903653
 20
0.1556626120786047
 10
0.2155903892839456
 20
0.1557469677296735
 10
0.2168129793313648
 20
0.1557469677296735
  0
LWPOLYLINE
  5
20BE
330
2
100
AcDbEntity
  8
Profilo
  6
Continuous
370
     0
100
AcDbPolyline
 90
        7
 70
   128
 43
0.0
 10
0.2188018065374239
 20
0.1585644283960091
 10
0.218625784380515
 20
0.1580667450870093
 10
0.2182463597471584
 20
0.156970122638795
 10
0.2180355687220222
 20
0.1558524122935112
 10
0.2180355687220222
 20
0.1549666789729743
 10
0.2179669931387979
 20
0.1541013276402273
 10
0.2179669931387979
 20
0.1536054278948158
  0
LWPOLYLINE
  5
20BF
330
2
100
AcDbEntity
  8
Profilo
  6
Continuous
370
     0
100
AcDbPolyline
 90
       25
 70
   128
 43
0.0
 10
0.2114268353017289
 20
0.1631745628378157
 10
0.2118293655209035
 20
0.1631893781131209
 10
0.2122318196199723
 20
0.1635321837592856
 10
0.212425538818365
 20
0.163934672542839
 10
0.2124999399287399
 20
0.1645459097293416
 10
0.2126339352723287
 20
0.1653360366184509
 10
0.2130512118622393
 20
0.1660515554728766
 10
0.2137219871614503
 20
0.1665433854133789
 10
0.2143034073370392
 20
0.1666177937392921
 10
0.215048915442201
 20
0.166289631128612
 10
0.2157795528697596
 20
0.1657974767080721
 10
0.21673394064647
 20
0.1647834684118075
 10
0.2173155944971063
 20
0.1638440895862421
 10
0.2178227231843065
 20
0.1628301841608289
 10
0.218136008366247
 20
0.1619505017211212
 10
0.2180765803399248
 20
0.1610559967905681
 10
0.2178083631932365
 20
0.1604597131529144
 10
0.2173164710992998
 20
0.160057293738332
 10
0.2164518518304289
 20
0.1596996863191352
 10
0.215825723966716
 20
0.1595507446422358
 10
0.2153337210681871
 20
0.1596254020462849
 10
0.2148417323901372
 20
0.1596404237814988
 10
0.2145585337612518
 20
0.1593572251526135
 10
0.2144989674613894
 20
0.1590590664775502
 10
0.2146207496488563
 20
0.1588892116692447
  0
LWPOLYLINE
  5
20C0
330
2
100
AcDbEntity
  8
Profilo
  6
Continuous
370
     0
100
AcDbPolyline
 90
        5
 70
   128
 43
0.0
 10
0.211963905052904
 20
0.1616239396102111
 10
0.2129030844235066
 20
0.1619069859988796
 10
0.2137229801367701
 20
0.1622496955253312
 10
0.2144683024998345
 20
0.1627265998503327
 10
0.214751515095393
 20
0.1629501639929889
  0
LWPOLYLINE
  5
20C1
330
2
100
AcDbEntity
  8
Profilo
  6
Continuous
370
     0
100
AcDbPolyline
 90
        3
 70
   128
 43
0.0
 10
0.2132910402579617
 20
0.160475666892618
 10
0.2143343760608184
 20
0.1616382996012811
 10
0.2151988777739605
 20
0.1625028013144232
  0
LWPOLYLINE
  5
20C2
330
2
100
AcDbEntity
  8
Profilo
  6
Continuous
370
     0
100
AcDbPolyline
 90
        7
 70
   128
 43
0.0
 10
0.2146129454350815
 20
0.1659013600613269
 10
0.2148403942169702
 20
0.1654249783578608
 10
0.215347529655307
 20
0.164381255457132
 10
0.2159888184565725
 20
0.1634418631292936
 10
0.2166151264938486
 20
0.1628155550920174
 10
0.2171785320294196
 20
0.1621551690366006
 10
0.2175291861021881
 20
0.1618045149638321
  0
LWPOLYLINE
  5
20C3
330
2
100
AcDbEntity
  8
Profilo
  6
Continuous
370
     0
100
AcDbPolyline
 90
       54
 70
   129
 43
0.0
 10
0.203709199686782
 20
0.1549967666498167
 10
0.2038574325099359
 20
0.1555894215145153
 10
0.2036893864892034
 20
0.1567077134951327
 10
0.2034214781742735
 20
0.1575556982132196
 10
0.2031714298719697
 20
0.158055563414552
 10
0.2029749636389292
 20
0.1583590521566696
 10
0.2031162704255673
 20
0.1585526978082901
 10
0.2036795535284307
 20
0.1589675559508757
 10
0.2039463720006877
 20
0.1595305784663954
 10
0.204242836631296
 20
0.1600639679759764
 10
0.2044243731369958
 20
0.1608887762945384
 10
0.2046278111129064
 20
0.1613632445911795
 10
0.2050459877073857
 20
0.1614310261517056
 10
0.2057251597843356
 20
0.1612196453561947
 10
0.2064663218687043
 20
0.1611900130070159
 10
0.2071778367790239
 20
0.1612789113680724
 10
0.2076521803911357
 20
0.1615159734453031
 10
0.2079486450217439
 20
0.1618419338835922
 10
0.2081561701616005
 20
0.1620493629548841
 10
0.2084886818718269
 20
0.162127397850711
 10
0.2086772378581484
 20
0.1619043700754266
 10
0.2088067605304515
 20
0.1614512484452751
 10
0.2090752112274727
 20
0.1611307476518982
 10
0.2095495548395862
 20
0.1608640525687269
 10
0.2102668490647281
 20
0.1605860526776835
 10
0.2111309439805259
 20
0.1605752568587211
 10
0.2114873824603935
 20
0.1604780912042512
 10
0.2115953947057546
 20
0.1600570398159662
 10
0.2114873824603935
 20
0.1593552872832356
 10
0.2114765754463862
 20
0.1582563697191799
 10
0.2116544544278915
 20
0.1576044494993636
 10
0.2121584441983545
 20
0.1571006923389616
 10
0.2126031416521149
 20
0.1566562011904371
 10
0.212574331412234
 20
0.156296425499273
 10
0.2119212718844507
 20
0.1560635456689785
 10
0.2111504646574266
 20
0.1555005231534588
 10
0.2107947066944179
 20
0.1543152134240616
 10
0.2107947066944179
 20
0.1534262304702528
 10
0.2105575343805141
 20
0.1533669651151351
 10
0.2102017774332014
 20
0.1536336595415447
 10
0.2094902615071858
 20
0.1538114562636595
 10
0.2087194532644657
 20
0.1538707216187772
 10
0.2080968778448961
 20
0.1538410892695983
 10
0.2075335947420326
 20
0.1536929255534241
 10
0.2071778367790239
 20
0.1533669651151351
 10
0.2067627864993126
 20
0.1531595353870832
 10
0.2063773823779526
 20
0.1532188013989609
 10
0.206169857238096
 20
0.1536929255534241
 10
0.2058140992750873
 20
0.1541966820570662
 10
0.205399048995376
 20
0.1544633771402358
 10
0.2048950592249112
 20
0.1547004392174665
 10
0.2044207156127994
 20
0.1547893375785248
 10
0.2040946038081421
 20
0.1548189699277036
 10
0.2037981391775355
 20
0.1548189699277036
  0
LWPOLYLINE
  5
20C4
330
2
100
AcDbEntity
  8
Profilo
  6
Continuous
370
     0
100
AcDbPolyline
 90
       60
 70
   129
 43
0.0
 10
0.2027901596366059
 20
0.1541966820570662
 10
0.2025804680154652
 20
0.156040027754314
 10
0.2023152929406406
 20
0.1571463332102981
 10
0.2019600580614854
 20
0.1578118785706555
 10
0.2018414724123824
 20
0.1581674713581234
 10
0.2019007657447828
 20
0.1585230648023513
 10
0.2021972303753911
 20
0.1588786575898174
 10
0.2025826344967511
 20
0.1595898438215131
 10
0.2031755637579677
 20
0.160508459781259
 10
0.203590614037679
 20
0.1611011146459594
 10
0.2037981391775355
 20
0.1617234025165968
 10
0.2041538971405425
 20
0.1620197299489452
 10
0.2046578869110073
 20
0.1621086283100035
 10
0.2052508161722239
 20
0.1621382613159424
 10
0.2063477362195995
 20
0.1621382613159424
 10
0.2069688145020775
 20
0.1622138740813175
 10
0.2075624029505198
 20
0.1624763008820059
 10
0.2078934419003792
 20
0.162750138228907
 10
0.2083210492396942
 20
0.1630209912589007
 10
0.2088067605304515
 20
0.1631504543941547
 10
0.2093420296997296
 20
0.1627901815357587
 10
0.2096384943303379
 20
0.1622864250321166
 10
0.2102610697499058
 20
0.1619308315878887
 10
0.2108539990111224
 20
0.1616345041555403
 10
0.2114172821139858
 20
0.1614567074334255
 10
0.211950919058498
 20
0.1613085437172513
 10
0.2122770298474593
 20
0.1612492783621336
 10
0.2125142021613632
 20
0.1609529509297834
 10
0.2124549088289628
 20
0.1603010300532071
 10
0.2124252626706115
 20
0.1593824147502195
 10
0.2125734944780659
 20
0.1585230648023513
 10
0.2130774842485307
 20
0.1578415115765944
 10
0.2133146565624346
 20
0.1576044494993636
 10
0.213757812188445
 20
0.1569487883752517
 10
0.2137297068421477
 20
0.1561820770359739
 10
0.2131960709133315
 20
0.1555005231534588
 10
0.2124252626706115
 20
0.1548486029336425
 10
0.2118619795677462
 20
0.1540485183408902
 10
0.2116841005862428
 20
0.1532484337481397
 10
0.2117433939186432
 20
0.1525076151672651
 10
0.2115655149371379
 20
0.1523298184451521
 10
0.2111801108157779
 20
0.1523298184451521
 10
0.2107057672036662
 20
0.1523298184451521
 10
0.2101128379424496
 20
0.1523594514510909
 10
0.2096642960762812
 20
0.1525445414917095
 10
0.2091395556200867
 20
0.152619469913287
 10
0.2087813995969205
 20
0.1526361207466107
 10
0.2083982564166481
 20
0.1525944939916806
 10
0.2079401507493616
 20
0.1524113361386399
 10
0.2076319700561052
 20
0.1521116231090916
 10
0.207207483953073
 20
0.1519149596458065
 10
0.2062587967288477
 20
0.1517667959296323
 10
0.2055769279768794
 20
0.152003858006863
 10
0.2053210485592162
 20
0.1524622468512811
 10
0.2050415765361601
 20
0.1528719500855407
 10
0.2046875777600187
 20
0.1533561456528152
 10
0.2041969454182405
 20
0.153611581901306
 10
0.2037087995022405
 20
0.1537271420865883
 10
0.2034127350561738
 20
0.153722557902603
 10
0.2029087452857107
 20
0.153900354624716
  0
CIRCLE
  5
20C5
330
2
100
AcDbEntity
  8
Profilo
  6
Continuous
370
     0
100
AcDbCircle
 10
0.2074446552512809
 20
0.157545183487486
 30
0.0
 40
0.0006002128521671
  0
CIRCLE
  5
20C6
330
2
100
AcDbEntity
  8
Profilo
  6
Continuous
370
     0
100
AcDbCircle
 10
0.2089862717367209
 20
0.1573081214102534
 30
0.0
 40
0.0006002128521671
  0
CIRCLE
  5
20C7
330
2
100
AcDbEntity
  8
Profilo
  6
Continuous
370
     0
100
AcDbCircle
 10
0.2077707660402405
 20
0.1588490245838785
 30
0.0
 40
0.0006002128521671
  0
CIRCLE
  5
20C8
330
2
100
AcDbEntity
  8
Profilo
  6
Continuous
370
     0
100
AcDbCircle
 10
0.2089566245626718
 20
0.1587304938736432
 30
0.0
 40
0.0006002128521671
  0
CIRCLE
  5
20C9
330
2
100
AcDbEntity
  8
Profilo
  6
Continuous
370
     0
100
AcDbCircle
 10
0.2092827363673292
 20
0.1601232333310941
 30
0.0
 40
0.0006002128521671
  0
CIRCLE
  5
20CA
330
2
100
AcDbEntity
  8
Profilo
  6
Continuous
370
     0
100
AcDbCircle
 10
0.2078893516893435
 20
0.1605380914736796
 30
0.0
 40
0.0006002128521671
  0
CIRCLE
  5
20CB
330
2
100
AcDbEntity
  8
Profilo
  6
Continuous
370
     0
100
AcDbCircle
 10
0.2064663218687043
 20
0.160330662402386
 30
0.0
 40
0.0006002128521671
  0
CIRCLE
  5
20CC
330
2
100
AcDbEntity
  8
Profilo
  6
Continuous
370
     0
100
AcDbCircle
 10
0.206525614185407
 20
0.1589379229449368
 30
0.0
 40
0.0006002128521671
  0
CIRCLE
  5
20CD
330
2
100
AcDbEntity
  8
Profilo
  6
Continuous
370
     0
100
AcDbCircle
 10
0.2058437454334387
 20
0.1576933472036602
 30
0.0
 40
0.0006002128521671
  0
CIRCLE
  5
20CE
330
2
100
AcDbEntity
  8
Profilo
  6
Continuous
370
     0
100
AcDbCircle
 10
0.2064366746946552
 20
0.156508036817503
 30
0.0
 40
0.0006002128521671
  0
CIRCLE
  5
20CF
330
2
100
AcDbEntity
  8
Profilo
  6
Continuous
370
     0
100
AcDbCircle
 10
0.2078300593726409
 20
0.1559450143019832
 30
0.0
 40
0.0006002128521671
  0
CIRCLE
  5
20D0
330
2
100
AcDbEntity
  8
Profilo
  6
Continuous
370
     0
100
AcDbCircle
 10
0.2086008676153609
 20
0.15461154019965
 30
0.0
 40
0.0006002128521671
  0
CIRCLE
  5
20D1
330
2
100
AcDbEntity
  8
Profilo
  6
Continuous
370
     0
100
AcDbCircle
 10
0.2072074829373752
 20
0.1543448451164804
 30
0.0
 40
0.0006002128521671
  0
CIRCLE
  5
20D2
330
2
100
AcDbEntity
  8
Profilo
  6
Continuous
370
     0
100
AcDbCircle
 10
0.2061105639056956
 20
0.1549967659930567
 30
0.0
 40
0.0006002128521671
  0
CIRCLE
  5
20D3
330
2
100
AcDbEntity
  8
Profilo
  6
Continuous
370
     0
100
AcDbCircle
 10
0.2046875330693586
 20
0.1567154658887949
 30
0.0
 40
0.0006002128521671
  0
CIRCLE
  5
20D4
330
2
100
AcDbEntity
  8
Profilo
  6
Continuous
370
     0
100
AcDbCircle
 10
0.2044207145971034
 20
0.1582563697191799
 30
0.0
 40
0.0006002128521671
  0
CIRCLE
  5
20D5
330
2
100
AcDbEntity
  8
Profilo
  6
Continuous
370
     0
100
AcDbCircle
 10
0.2051618766814704
 20
0.159619476170692
 30
0.0
 40
0.0006002128521671
  0
CIRCLE
  5
20D6
330
2
100
AcDbEntity
  8
Profilo
  6
Continuous
370
     0
100
AcDbCircle
 10
0.2104389487314092
 20
0.1587008608677043
 30
0.0
 40
0.0006002128521671
  0
CIRCLE
  5
20D7
330
2
100
AcDbEntity
  8
Profilo
  6
Continuous
370
     0
100
AcDbCircle
 10
0.2107057672036662
 20
0.1572784884043146
 30
0.0
 40
0.0006002128521671
  0
CIRCLE
  5
20D8
330
2
100
AcDbEntity
  8
Profilo
  6
Continuous
370
     0
100
AcDbCircle
 10
0.2100238974360002
 20
0.1558857489468655
 30
0.0
 40
0.0006002128521671
  0
ARC
  5
20D9
330
2
100
AcDbEntity
  8
Profilo
  6
Continuous
370
     0
100
AcDbCircle
 10
0.2053397556629756
 20
0.1555597885085765
 30
0.0
 40
0.0006002128521671
100
AcDbArc
 50
1.183602737917103
 51
286.5252691480578
  0
ARC
  5
20DA
330
2
100
AcDbEntity
  8
Profilo
  6
Continuous
370
     0
100
AcDbCircle
 10
0.2105575343805141
 20
0.1597676398868662
 30
0.0
 40
0.0006002128521671
100
AcDbArc
 50
290.258595150766
 51
237.0552228927419
  0
DIMENSION
  5
20DC
102
{ACAD_XDICTIONARY
360
20E6
102
}
102
{ACAD_REACTORS
330
20ED
102
}
330
2
100
AcDbEntity
  8
Text
  6
ACAD_ISO10W100
100
AcDbDimension
  2
*D7
 10
0.1619348924250465
 20
0.1225648060276147
 30
0.0
 11
0.272091129665756
 21
0.19359400421819
 31
0.0
 70
    35
  1
d 460 mm
 71
     5
 42
0.115
  3
Bovelacci
100
AcDbDiametricDimension
 15
0.2537669396148421
 25
0.1917881771455483
 35
0.0
 40
0.0
1001
ACAD
1000
DSTYLE
1002
{
1070
   288
1070
     1
1002
}
  0
ENDSEC
  0
SECTION
  2
OBJECTS
  0
DICTIONARY
  5
9
330
0
100
AcDbDictionary
281
     1
  3
ACAD_2007HEADERVARS_RT
350
208
  3
ACAD_COLOR
350
184
  3
ACAD_GROUP
350
17F
  3
ACAD_LAYOUT
350
164
  3
ACAD_MATERIAL
350
B
  3
ACAD_MLINESTYLE
350
180
  3
ACAD_PLOTSETTINGS
350
181
  3
ACAD_PLOTSTYLENAME
350
8
  3
ACAD_TABLESTYLE
350
185
  3
ACAD_VISUALSTYLE
350
17A
  3
ACDBHEADERROUNDTRIPXREC
350
20FE
  3
AcDbVariableDictionary
350
18B
  3
DWGPROPS
350
20FD
  0
DICTIONARY
  5
16E
330
16D
100
AcDbDictionary
280
     1
281
     1
  3
ACAD_LAYERSTATES
360
16F
  0
DICTIONARY
  5
3
330
2
100
AcDbDictionary
280
     1
281
     1
  3
ACAD_SORTENTS
360
18A
  0
DICTIONARY
  5
20FF
330
18
100
AcDbDictionary
280
     1
281
     1
  3
ACAD_MTEXT_RT
360
2100
  0
DICTIONARY
  5
20E6
330
20DC
100
AcDbDictionary
280
     1
281
     1
  3
ACAD_DIMASSOC
360
20ED
  0
DICTIONARY
  5
208
102
{ACAD_REACTORS
330
9
102
}
330
9
100
AcDbDictionary
281
     1
  3
DIMFXL
350
209
  0
DICTIONARY
  5
184
102
{ACAD_REACTORS
330
9
102
}
330
9
100
AcDbDictionary
281
     1
  0
DICTIONARY
  5
17F
102
{ACAD_REACTORS
330
9
102
}
330
9
100
AcDbDictionary
281
     1
  0
DICTIONARY
  5
164
102
{ACAD_REACTORS
330
9
102
}
330
9
100
AcDbDictionary
281
     1
  3
Layout1
350
168
  3
Layout2
350
16C
  3
Model
350
163
  0
DICTIONARY
  5
B
102
{ACAD_REACTORS
330
9
102
}
330
9
100
AcDbDictionary
281
     1
  3
ByBlock
350
183
  3
ByLayer
350
182
  3
Global
350
A
  0
DICTIONARY
  5
180
102
{ACAD_REACTORS
330
9
102
}
330
9
100
AcDbDictionary
281
     1
  3
Standard
350
186
  0
DICTIONARY
  5
181
102
{ACAD_REACTORS
330
9
102
}
330
9
100
AcDbDictionary
281
     1
  0
ACDBDICTIONARYWDFLT
  5
8
102
{ACAD_REACTORS
330
9
102
}
330
9
100
AcDbDictionary
281
     1
  3
Normal
350
7
100
AcDbDictionaryWithDefault
340
7
  0
DICTIONARY
  5
185
102
{ACAD_REACTORS
330
9
102
}
330
9
100
AcDbDictionary
281
     1
  3
Standard
350
187
  0
DICTIONARY
  5
17A
102
{ACAD_REACTORS
330
9
102
}
330
9
100
AcDbDictionary
281
     1
  3
2dWireframe
350
179
  3
3D Hidden
350
1BD
  3
3dWireframe
350
189
  3
Basic
350
1BC
  3
Brighten
350
1C0
  3
ColorChange
350
1C4
  3
Conceptual
350
1BE
  3
Dim
350
1BF
  3
Facepattern
350
1C3
  3
Flat
350
1B8
  3
FlatWithEdges
350
1B9
  3
Gouraud
350
1BA
  3
GouraudWithEdges
350
1BB
  3
Linepattern
350
1C2
  3
Realistic
350
188
  3
Thicken
350
1C1
  0
DICTIONARY
  5
20FE
102
{ACAD_REACTORS
330
9
102
}
330
9
100
AcDbDictionary
281
     1
  0
DICTIONARY
  5
18B
102
{ACAD_REACTORS
330
9
102
}
330
9
100
AcDbDictionary
281
     1
  3
CTABLESTYLE
350
18C
  3
DIMASSOC
350
190
  3
HIDETEXT
350
18F
  3
INDEXCTL
350
18E
  3
PROJECTNAME
350
2F9
  3
SORTENTS
350
18D
  0
XRECORD
  5
20FD
102
{ACAD_REACTORS
330
9
102
}
330
9
100
AcDbXrecord
280
     1
  1
DWGPROPS COOKIE
  2

  3

  4

  6

  7

  8
Mario
  9

300
=
301
=
302
=
303
=
304
=
305
=
306
=
307
=
308
=
309
=
 40
0.1816702893518518
 41
2454297.625402373
 42
2454311.726014537
  1

 90
        0
  0
DICTIONARY
  5
16F
102
{ACAD_REACTORS
330
16E
102
}
330
16E
100
AcDbDictionary
281
     1
  0
SORTENTSTABLE
  5
18A
102
{ACAD_REACTORS
330
3
102
}
330
3
100
AcDbSortentsTable
330
2
331
15
  5
11
331
13
  5
D
331
24
  5
18
331
11
  5
15
331
22
  5
23
331
D
  5
13
331
1E
  5
1F
331
1C
  5
1D
331
18
  5
1C
331
16
  5
12
331
14
  5
10
331
12
  5
16
331
23
  5
24
331
21
  5
22
331
10
  5
14
331
1F
  5
21
331
1D
  5
1E
  0
XRECORD
  5
2100
102
{ACAD_REACTORS
330
20FF
102
}
330
20FF
100
AcDbXrecord
280
     1
 40
7955300.0
  1
{\fTimes New Roman|b0|i0|c238|p18;\H1.6x;\C4;Bovelacci\P\pt0.09;\H0.4375x;\T0.95;via del Commercio, 5  47100 Forli - Italy  \fTimes New Roman|b0|i0|c0|p18;\P\fTimes New Roman|b0|i0|c238|p18;tel.+39-0543721386  fax +39-0543721127\fTimes New Roman|b0|i
  1
0|c0|p18; \fTimes New Roman|b0|i0|c238|p18;www.bovelacci.it\fTimes New Roman|b0|i0|c0|p18; \fTimes New Roman|b0|i0|c238|p18;e-mail: bovelacci@bovelacci\fTimes New Roman|b0|i0|c0|p18;.it}
  0
DIMASSOC
  5
20ED
102
{ACAD_REACTORS
330
20E6
102
}
330
20E6
100
AcDbDimAssoc
330
20DC
 90
        2
 70
     0
 71
     0
  1
AcDbOsnapPointRef
 72
     3
331
1EDE
 73
     2
 91
        0
 40
0.0
 10
0.0
 20
0.0
 30
0.0
 75
     0
  0
XRECORD
  5
209
102
{ACAD_REACTORS
330
208
102
}
330
208
100
AcDbXrecord
280
     1
 40
0.18
  0
LAYOUT
  5
168
102
{ACAD_XDICTIONARY
360
2103
102
}
102
{ACAD_REACTORS
330
164
102
}
330
164
100
AcDbPlotSettings
  1

  2
C:\Documents and Settings\All Users\Dati applicazioni\Autodesk\ADT 2006\enu\Plotters\Default Windows System Printer.pc3
  4

  6

 40
0.0
 41
0.0
 42
0.0
 43
0.0
 44
0.0
 45
0.0
 46
0.0
 47
0.0
 48
0.0
 49
0.0
140
0.0
141
0.0
142
1.0
143
1.0
 70
   688
 72
     0
 73
     0
 74
     5
  7

 75
    16
147
1.0
148
0.0
149
0.0
100
AcDbLayout
  1
Layout1
 70
     1
 71
     1
 10
0.0
 20
0.0
 11
420.0
 21
297.0
 12
0.0
 22
0.0
 32
0.0
 14
1.000000000000000E+20
 24
1.000000000000000E+20
 34
1.000000000000000E+20
 15
-1.000000000000000E+20
 25
-1.000000000000000E+20
 35
-1.000000000000000E+20
146
0.0
 13
0.0
 23
0.0
 33
0.0
 16
1.0
 26
0.0
 36
0.0
 17
0.0
 27
1.0
 37
0.0
 76
     0
330
165
  0
LAYOUT
  5
16C
102
{ACAD_XDICTIONARY
360
2105
102
}
102
{ACAD_REACTORS
330
164
102
}
330
164
100
AcDbPlotSettings
  1

  2
C:\Documents and Settings\All Users\Dati applicazioni\Autodesk\ADT 2006\enu\Plotters\Default Windows System Printer.pc3
  4

  6

 40
0.0
 41
0.0
 42
0.0
 43
0.0
 44
0.0
 45
0.0
 46
0.0
 47
0.0
 48
0.0
 49
0.0
140
0.0
141
0.0
142
1.0
143
1.0
 70
   688
 72
     0
 73
     0
 74
     5
  7

 75
    16
147
1.0
148
0.0
149
0.0
100
AcDbLayout
  1
Layout2
 70
     1
 71
     2
 10
0.0
 20
0.0
 11
12.0
 21
9.0
 12
0.0
 22
0.0
 32
0.0
 14
0.0
 24
0.0
 34
0.0
 15
0.0
 25
0.0
 35
0.0
146
0.0
 13
0.0
 23
0.0
 33
0.0
 16
1.0
 26
0.0
 36
0.0
 17
0.0
 27
1.0
 37
0.0
 76
     0
330
169
  0
LAYOUT
  5
163
102
{ACAD_XDICTIONARY
360
2101
102
}
102
{ACAD_REACTORS
330
164
102
}
330
164
100
AcDbPlotSettings
  1

  2
C:\Documents and Settings\All Users\Dati applicazioni\Autodesk\ADT 2006\enu\Plotters\Default Windows System Printer.pc3
  4

  6

 40
0.0
 41
0.0
 42
0.0
 43
0.0
 44
0.0
 45
0.0
 46
0.0
 47
0.0
 48
0.0
 49
0.0
140
0.0
141
0.0
142
1.0
143
1.0
 70
  1712
 72
     0
 73
     0
 74
     0
  7

 75
     0
147
1.0
148
0.0
149
0.0
100
AcDbLayout
  1
Model
 70
     1
 71
     0
 10
0.0
 20
0.0
 11
12.0
 21
9.0
 12
0.0
 22
0.0
 32
0.0
 14
0.0
 24
0.0
 34
0.0
 15
0.0
 25
0.0
 35
0.0
146
0.0
 13
0.0
 23
0.0
 33
0.0
 16
1.0
 26
0.0
 36
0.0
 17
0.0
 27
1.0
 37
0.0
 76
     0
330
2
  0
MATERIAL
  5
183
102
{ACAD_XDICTIONARY
360
1B0
102
}
102
{ACAD_REACTORS
330
B
102
}
330
B
100
AcDbMaterial
  1
ByBlock
  0
MATERIAL
  5
182
102
{ACAD_XDICTIONARY
360
1AE
102
}
102
{ACAD_REACTORS
330
B
102
}
330
B
100
AcDbMaterial
  1
ByLayer
  0
MATERIAL
  5
A
102
{ACAD_XDICTIONARY
360
193
102
}
102
{ACAD_REACTORS
330
B
102
}
330
B
100
AcDbMaterial
  1
Global
  0
MLINESTYLE
  5
186
102
{ACAD_REACTORS
330
180
102
}
330
180
100
AcDbMlineStyle
  2
STANDARD
 70
     0
  3

 62
   256
 51
90.0
 52
90.0
 71
     2
 49
0.5
 62
   256
  6
BYLAYER
 49
-0.5
 62
   256
  6
BYLAYER
  0
ACDBPLACEHOLDER
  5
7
102
{ACAD_REACTORS
330
8
102
}
330
8
  0
TABLESTYLE
  5
187
102
{ACAD_XDICTIONARY
360
21A
102
}
102
{ACAD_REACTORS
330
185
102
}
330
185
100
AcDbTableStyle
  3
Standard
 70
     0
 71
     0
 40
1.5
 41
1.5
280
     0
281
     0
  7
Standard
140
4.5
170
     2
 62
     0
 63
     7
283
     0
274
    -2
284
     1
 64
     0
275
    -2
285
     1
 65
     0
276
    -2
286
     1
 66
     0
277
    -2
287
     1
 67
     0
278
    -2
288
     1
 68
     0
279
    -2
289
     1
 69
     0
  7
Standard
140
6.0
170
     5
 62
     0
 63
     7
283
     0
274
    -2
284
     1
 64
     0
275
    -2
285
     1
 65
     0
276
    -2
286
     1
 66
     0
277
    -2
287
     1
 67
     0
278
    -2
288
     1
 68
     0
279
    -2
289
     1
 69
     0
  7
Standard
140
4.5
170
     5
 62
     0
 63
     7
283
     0
274
    -2
284
     1
 64
     0
275
    -2
285
     1
 65
     0
276
    -2
286
     1
 66
     0
277
    -2
287
     1
 67
     0
278
    -2
288
     1
 68
     0
279
    -2
289
     1
 69
     0
  0
VISUALSTYLE
  5
179
102
{ACAD_REACTORS
330
17A
102
}
330
17A
100
AcDbVisualStyle
  2
2dWireframe
 70
     4
 71
     0
 72
     2
 73
     0
 90
        0
 40
-0.6
 41
-30.0
 62
     5
 63
     7
 74
     1
 91
        4
 64
     7
 65
   257
 75
     1
175
     1
 42
1.0
 92
        0
 66
   257
 43
1.0
 76
     1
 77
     6
 78
     2
 67
     7
 79
     5
170
     0
171
     0
290
     0
174
     0
 93
        1
 44
0.0
173
     0
291
     0
 45
0.0
1001
ACAD
1000
AcDbSavedByObjectVersion
1070
     0
1000
AcDbSavedByObjectVersion
1070
     0
1000
AcDbSavedByObjectVersion
1070
     0
1001
ACAD
1000
AcRTDxfName
1000
VISUALSTYLE
  0
VISUALSTYLE
  5
1BD
102
{ACAD_REACTORS
330
17A
102
}
330
17A
100
AcDbVisualStyle
  2
3D Hidden
 70
     6
 71
     1
 72
     2
 73
     2
 90
        0
 40
-0.6
 41
-30.0
 62
     5
 63
     7
 74
     2
 91
        2
 64
     7
 65
   257
 75
     2
175
     1
 42
40.0
 92
        0
 66
   257
 43
1.0
 76
     1
 77
     6
 78
     2
 67
     7
 79
     3
170
     0
171
     0
290
     0
174
     0
 93
        1
 44
0.0
173
     0
291
     0
 45
0.0
1001
ACAD
1000
AcDbSavedByObjectVersion
1070
     0
1000
AcDbSavedByObjectVersion
1070
     0
1001
ACAD
1000
AcRTDxfName
1000
VISUALSTYLE
  0
VISUALSTYLE
  5
189
102
{ACAD_REACTORS
330
17A
102
}
330
17A
100
AcDbVisualStyle
  2
3dWireframe
 70
     5
 71
     0
 72
     2
 73
     0
 90
        0
 40
-0.6
 41
-30.0
 62
     5
 63
     7
 74
     1
 91
        4
 64
     7
 65
   257
 75
     1
175
     1
 42
1.0
 92
        0
 66
   257
 43
1.0
 76
     1
 77
     6
 78
     2
 67
     7
 79
     5
170
     0
171
     0
290
     0
174
     0
 93
        1
 44
0.0
173
     0
291
     0
 45
0.0
1001
ACAD
1000
AcDbSavedByObjectVersion
1070
     0
1000
AcDbSavedByObjectVersion
1070
     0
1000
AcDbSavedByObjectVersion
1070
     0
1001
ACAD
1000
AcRTDxfName
1000
VISUALSTYLE
  0
VISUALSTYLE
  5
1BC
102
{ACAD_REACTORS
330
17A
102
}
330
17A
100
AcDbVisualStyle
  2
Basic
 70
     7
 71
     1
 72
     0
 73
     1
 90
        0
 40
-0.6
 41
-30.0
 62
     5
 63
     7
 74
     0
 91
        4
 64
     7
 65
   257
 75
     1
175
     1
 42
1.0
 92
        8
 66
     7
 43
1.0
 76
     1
 77
     6
 78
     2
 67
     7
 79
     5
170
     0
171
     0
290
     0
174
     0
 93
        1
 44
0.0
173
     0
291
     1
 45
0.0
1001
ACAD
1000
AcDbSavedByObjectVersion
1070
     0
1000
AcDbSavedByObjectVersion
1070
     0
1001
ACAD
1000
AcRTDxfName
1000
VISUALSTYLE
  0
VISUALSTYLE
  5
1C0
102
{ACAD_REACTORS
330
17A
102
}
330
17A
100
AcDbVisualStyle
  2
Brighten
 70
    12
 71
     2
 72
     2
 73
     0
 90
        0
 40
-0.6
 41
-30.0
 62
     5
 63
     7
 74
     1
 91
        4
 64
     7
 65
   257
 75
     1
175
     1
 42
1.0
 92
        8
 66
     7
 43
1.0
 76
     1
 77
     6
 78
     2
 67
     7
 79
     5
170
     0
171
     0
290
     0
174
     0
 93
        1
 44
50.0
173
     0
291
     1
 45
0.0
1001
ACAD
1000
AcDbSavedByObjectVersion
1070
     0
1000
AcDbSavedByObjectVersion
1070
     0
1001
ACAD
1000
AcRTDxfName
1000
VISUALSTYLE
  0
VISUALSTYLE
  5
1C4
102
{ACAD_REACTORS
330
17A
102
}
330
17A
100
AcDbVisualStyle
  2
ColorChange
 70
    16
 71
     2
 72
     2
 73
     3
 90
        0
 40
-0.6
 41
-30.0
 62
     5
 63
     8
 74
     1
 91
        4
 64
     7
 65
   257
 75
     1
175
     1
 42
1.0
 92
        8
 66
     8
 43
1.0
 76
     1
 77
     6
 78
     2
 67
     7
 79
     5
170
     0
171
     0
290
     0
174
     0
 93
        1
 44
0.0
173
     0
291
     1
 45
0.0
1001
ACAD
1000
AcDbSavedByObjectVersion
1070
     0
1000
AcDbSavedByObjectVersion
1070
     0
1001
ACAD
1000
AcRTDxfName
1000
VISUALSTYLE
  0
VISUALSTYLE
  5
1BE
102
{ACAD_REACTORS
330
17A
102
}
330
17A
100
AcDbVisualStyle
  2
Conceptual
 70
     9
 71
     3
 72
     2
 73
     0
 90
        0
 40
-0.6
 41
-30.0
 62
     5
 63
     7
 74
     2
 91
        2
 64
     7
 65
   257
 75
     1
175
     1
 42
40.0
 92
        8
 66
     7
 43
1.0
 76
     1
 77
     6
 78
     2
 67
     7
 79
     3
170
     0
171
     0
290
     0
174
     0
 93
        1
 44
0.0
173
     0
291
     0
 45
0.0
1001
ACAD
1000
AcDbSavedByObjectVersion
1070
     0
1000
AcDbSavedByObjectVersion
1070
     0
1001
ACAD
1000
AcRTDxfName
1000
VISUALSTYLE
  0
VISUALSTYLE
  5
1BF
102
{ACAD_REACTORS
330
17A
102
}
330
17A
100
AcDbVisualStyle
  2
Dim
 70
    11
 71
     2
 72
     2
 73
     0
 90
        0
 40
-0.6
 41
-30.0
 62
     5
 63
     7
 74
     1
 91
        4
 64
     7
 65
   257
 75
     1
175
     1
 42
1.0
 92
        8
 66
     7
 43
1.0
 76
     1
 77
     6
 78
     2
 67
     7
 79
     5
170
     0
171
     0
290
     0
174
     0
 93
        1
 44
-50.0
173
     0
291
     1
 45
0.0
1001
ACAD
1000
AcDbSavedByObjectVersion
1070
     0
1000
AcDbSavedByObjectVersion
1070
     0
1001
ACAD
1000
AcRTDxfName
1000
VISUALSTYLE
  0
VISUALSTYLE
  5
1C3
102
{ACAD_REACTORS
330
17A
102
}
330
17A
100
AcDbVisualStyle
  2
Facepattern
 70
    15
 71
     2
 72
     2
 73
     0
 90
        0
 40
-0.6
 41
-30.0
 62
     5
 63
     7
 74
     1
 91
        4
 64
     7
 65
   257
 75
     1
175
     1
 42
1.0
 92
        8
 66
     7
 43
1.0
 76
     1
 77
     6
 78
     2
 67
     7
 79
     5
170
     0
171
     0
290
     0
174
     0
 93
        1
 44
0.0
173
     0
291
     1
 45
0.0
1001
ACAD
1000
AcDbSavedByObjectVersion
1070
     0
1000
AcDbSavedByObjectVersion
1070
     0
1001
ACAD
1000
AcRTDxfName
1000
VISUALSTYLE
  0
VISUALSTYLE
  5
1B8
102
{ACAD_REACTORS
330
17A
102
}
330
17A
100
AcDbVisualStyle
  2
Flat
 70
     0
 71
     2
 72
     1
 73
     1
 90
        2
 40
-0.6
 41
30.0
 62
     5
 63
     7
 74
     0
 91
        4
 64
     7
 65
   257
 75
     1
175
     1
 42
1.0
 92
        8
 66
     7
 43
1.0
 76
     1
 77
     6
 78
     2
 67
     7
 79
     5
170
     0
171
     0
290
     0
174
     0
 93
       13
 44
0.0
173
     0
291
     1
 45
0.0
1001
ACAD
1000
AcDbSavedByObjectVersion
1070
     0
1000
AcDbSavedByObjectVersion
1070
     0
1001
ACAD
1000
AcRTDxfName
1000
VISUALSTYLE
  0
VISUALSTYLE
  5
1B9
102
{ACAD_REACTORS
330
17A
102
}
330
17A
100
AcDbVisualStyle
  2
FlatWithEdges
 70
     1
 71
     2
 72
     1
 73
     1
 90
        2
 40
-0.6
 41
30.0
 62
     5
 63
     7
 74
     1
 91
        4
 64
     7
 65
   257
 75
     1
175
     1
 42
1.0
 92
        0
 66
   257
 43
1.0
 76
     1
 77
     6
 78
     2
 67
     7
 79
     5
170
     0
171
     0
290
     0
174
     0
 93
       13
 44
0.0
173
     0
291
     1
 45
0.0
1001
ACAD
1000
AcDbSavedByObjectVersion
1070
     0
1000
AcDbSavedByObjectVersion
1070
     0
1001
ACAD
1000
AcRTDxfName
1000
VISUALSTYLE
  0
VISUALSTYLE
  5
1BA
102
{ACAD_REACTORS
330
17A
102
}
330
17A
100
AcDbVisualStyle
  2
Gouraud
 70
     2
 71
     2
 72
     2
 73
     1
 90
        2
 40
-0.6
 41
30.0
 62
     5
 63
     7
 74
     0
 91
        4
 64
     7
 65
   257
 75
     1
175
     1
 42
1.0
 92
        0
 66
     7
 43
1.0
 76
     1
 77
     6
 78
     2
 67
     7
 79
     5
170
     0
171
     0
290
     0
174
     0
 93
       13
 44
0.0
173
     0
291
     1
 45
0.0
1001
ACAD
1000
AcDbSavedByObjectVersion
1070
     0
1000
AcDbSavedByObjectVersion
1070
     0
1001
ACAD
1000
AcRTDxfName
1000
VISUALSTYLE
  0
VISUALSTYLE
  5
1BB
102
{ACAD_REACTORS
330
17A
102
}
330
17A
100
AcDbVisualStyle
  2
GouraudWithEdges
 70
     3
 71
     2
 72
     2
 73
     1
 90
        2
 40
-0.6
 41
30.0
 62
     5
 63
     7
 74
     1
 91
        4
 64
     7
 65
   257
 75
     1
175
     1
 42
1.0
 92
        0
 66
   257
 43
1.0
 76
     1
 77
     6
 78
     2
 67
     7
 79
     5
170
     0
171
     0
290
     0
174
     0
 93
       13
 44
0.0
173
     0
291
     1
 45
0.0
1001
ACAD
1000
AcDbSavedByObjectVersion
1070
     0
1000
AcDbSavedByObjectVersion
1070
     0
1001
ACAD
1000
AcRTDxfName
1000
VISUALSTYLE
  0
VISUALSTYLE
  5
1C2
102
{ACAD_REACTORS
330
17A
102
}
330
17A
100
AcDbVisualStyle
  2
Linepattern
 70
    14
 71
     2
 72
     2
 73
     0
 90
        0
 40
-0.6
 41
-30.0
 62
     5
 63
     7
 74
     1
 91
        4
 64
     7
 65
   257
 75
     7
175
     7
 42
1.0
 92
        8
 66
     7
 43
1.0
 76
     1
 77
     6
 78
     2
 67
     7
 79
     5
170
     0
171
     0
290
     0
174
     0
 93
        1
 44
0.0
173
     0
291
     1
 45
0.0
1001
ACAD
1000
AcDbSavedByObjectVersion
1070
     0
1000
AcDbSavedByObjectVersion
1070
     0
1001
ACAD
1000
AcRTDxfName
1000
VISUALSTYLE
  0
VISUALSTYLE
  5
188
102
{ACAD_REACTORS
330
17A
102
}
330
17A
100
AcDbVisualStyle
  2
Realistic
 70
     8
 71
     2
 72
     2
 73
     0
 90
        0
 40
-0.6
 41
-30.0
 62
     5
 63
     7
 74
     1
 91
        0
 64
     7
 65
   257
 75
     1
175
     1
 42
1.0
 92
        8
 66
     8
 43
1.0
 76
     1
 77
     6
 78
     2
 67
     7
 79
     5
170
     0
171
     0
290
     0
174
     0
 93
       13
 44
0.0
173
     0
291
     0
 45
0.0
1001
ACAD
1000
AcDbSavedByObjectVersion
1070
     0
1000
AcDbSavedByObjectVersion
1070
     0
1000
AcDbSavedByObjectVersion
1070
     0
1001
ACAD
1000
AcRTDxfName
1000
VISUALSTYLE
  0
VISUALSTYLE
  5
1C1
102
{ACAD_REACTORS
330
17A
102
}
330
17A
100
AcDbVisualStyle
  2
Thicken
 70
    13
 71
     2
 72
     2
 73
     0
 90
        0
 40
-0.6
 41
-30.0
 62
     5
 63
     7
 74
     1
 91
        4
 64
     7
 65
   257
 75
     1
175
     1
 42
1.0
 92
       12
 66
     7
 43
1.0
 76
     1
 77
     6
 78
     2
 67
     7
 79
     5
170
     0
171
     0
290
     0
174
     0
 93
        1
 44
0.0
173
     0
291
     1
 45
0.0
1001
ACAD
1000
AcDbSavedByObjectVersion
1070
     0
1000
AcDbSavedByObjectVersion
1070
     0
1001
ACAD
1000
AcRTDxfName
1000
VISUALSTYLE
  0
DICTIONARYVAR
  5
18C
102
{ACAD_REACTORS
330
18B
102
}
330
18B
100
DictionaryVariables
280
     0
  1
STANDARD
  0
DICTIONARYVAR
  5
190
102
{ACAD_REACTORS
330
18B
102
}
330
18B
100
DictionaryVariables
280
     0
  1
2
  0
DICTIONARYVAR
  5
18F
102
{ACAD_REACTORS
330
18B
102
}
330
18B
100
DictionaryVariables
280
     0
  1
1
  0
DICTIONARYVAR
  5
18E
102
{ACAD_REACTORS
330
18B
102
}
330
18B
100
DictionaryVariables
280
     0
  1
0
  0
DICTIONARYVAR
  5
2F9
102
{ACAD_REACTORS
330
18B
102
}
330
18B
100
DictionaryVariables
280
     0
  1

  0
DICTIONARYVAR
  5
18D
102
{ACAD_REACTORS
330
18B
102
}
330
18B
100
DictionaryVariables
280
     0
  1
127
  0
DICTIONARY
  5
2103
330
168
100
AcDbDictionary
280
     1
281
     1
  3
ACAD_XREC_ROUNDTRIP
360
2104
  0
DICTIONARY
  5
2105
330
16C
100
AcDbDictionary
280
     1
281
     1
  3
ACAD_XREC_ROUNDTRIP
360
2106
  0
DICTIONARY
  5
2101
330
163
100
AcDbDictionary
280
     1
281
     1
  3
ACAD_XREC_ROUNDTRIP
360
2102
  0
DICTIONARY
  5
1B0
330
183
100
AcDbDictionary
280
     1
281
     1
  3
ACAD_XREC_ROUNDTRIP
360
1B1
  0
DICTIONARY
  5
1AE
330
182
100
AcDbDictionary
280
     1
281
     1
  3
ACAD_XREC_ROUNDTRIP
360
1AF
  0
DICTIONARY
  5
193
330
A
100
AcDbDictionary
280
     1
281
     1
  3
ACAD_XREC_ROUNDTRIP
360
194
  0
DICTIONARY
  5
21A
330
187
100
AcDbDictionary
280
     1
281
     1
  3
ACAD_XREC_ROUNDTRIP
360
21B
  0
XRECORD
  5
2104
102
{ACAD_REACTORS
330
2103
102
}
330
2103
100
AcDbXrecord
280
     1
102
SHADEPLOT
 70
     0
102
SHADEPLOTRESLEVEL
 70
     2
102
SHADEPLOTCUSTOMDPI
 70
   300
  0
XRECORD
  5
2106
102
{ACAD_REACTORS
330
2105
102
}
330
2105
100
AcDbXrecord
280
     1
102
SHADEPLOT
 70
     0
102
SHADEPLOTRESLEVEL
 70
     2
102
SHADEPLOTCUSTOMDPI
 70
   300
  0
XRECORD
  5
2102
102
{ACAD_REACTORS
330
2101
102
}
330
2101
100
AcDbXrecord
280
     1
102
SHADEPLOT
 70
     0
102
SHADEPLOTRESLEVEL
 70
     2
102
SHADEPLOTCUSTOMDPI
 70
   300
  0
XRECORD
  5
1B1
102
{ACAD_REACTORS
330
1B0
102
}
330
1B0
100
AcDbXrecord
280
     1
102
MATERIAL
148
0.0
149
0.0
149
0.0
 93
        0
 94
       63
282
     0
 72
     1
 77
     1
171
     1
175
     1
179
     1
273
     0
  0
XRECORD
  5
1AF
102
{ACAD_REACTORS
330
1AE
102
}
330
1AE
100
AcDbXrecord
280
     1
102
MATERIAL
148
0.0
149
0.0
149
0.0
 93
        0
 94
       63
282
     0
 72
     1
 77
     1
171
     1
175
     1
179
     1
273
     0
  0
XRECORD
  5
194
102
{ACAD_REACTORS
330
193
102
}
330
193
100
AcDbXrecord
280
     1
102
MATERIAL
148
0.0
149
0.0
149
0.0
 93
        0
 94
       63
282
     0
 72
     1
 77
     1
171
     1
175
     1
179
     1
273
     0
  0
XRECORD
  5
21B
102
{ACAD_REACTORS
330
21A
102
}
330
21A
100
AcDbXrecord
280
     1
102
ACAD_ROUNDTRIP_PRE2007_TABLESTYLE
 90
        4
 91
        0
  1

 92
        4
 93
        0
  2

 94
        4
 95
        0
  3

  0
ENDSEC
  0
EOF
