  0
SECTION
  2
HEADER
  9
$ACADVER
  1
AC1015
  9
$ACADMAINTVER
 70
    20
  9
$DWGCODEPAGE
  3
ANSI_1252
  9
$INSBASE
 10
0.0
 20
0.0
 30
0.0
  9
$EXTMIN
 10
0.0149999999999999
 20
-0.1019819952819346
 30
0.0
  9
$EXTMAX
 10
1.296793315009053
 20
0.667933885513129
 30
0.0
  9
$LIMMIN
 10
0.0
 20
0.0
  9
$LIMMAX
 10
1.0
 20
0.5
  9
$ORTHOMODE
 70
     0
  9
$REGENMODE
 70
     1
  9
$FILLMODE
 70
     1
  9
$QTEXTMODE
 70
     0
  9
$MIRRTEXT
 70
     0
  9
$LTSCALE
 40
1.0
  9
$ATTMODE
 70
     1
  9
$TEXTSIZE
 40
0.008
  9
$TRACEWID
 40
1.0
  9
$TEXTSTYLE
  7
style1
  9
$CLAYER
  8
Text
  9
$CELTYPE
  6
ACAD_ISO10W100
  9
$CECOLOR
 62
   256
  9
$CELTSCALE
 40
1.0
  9
$DISPSILH
 70
     0
  9
$DIMSCALE
 40
0.001
  9
$DIMASZ
 40
1.5
  9
$DIMEXO
 40
0.0625
  9
$DIMDLI
 40
0.38
  9
$DIMRND
 40
0.0
  9
$DIMDLE
 40
0.0
  9
$DIMEXE
 40
0.18
  9
$DIMTP
 40
0.0
  9
$DIMTM
 40
0.0
  9
$DIMTXT
 40
3.0
  9
$DIMCEN
 40
0.0
  9
$DIMTSZ
 40
0.0
  9
$DIMTOL
 70
     0
  9
$DIMLIM
 70
     0
  9
$DIMTIH
 70
     1
  9
$DIMTOH
 70
     1
  9
$DIMSE1
 70
     0
  9
$DIMSE2
 70
     0
  9
$DIMTAD
 70
     0
  9
$DIMZIN
 70
     0
  9
$DIMBLK
  1
ArchTick
  9
$DIMASO
 70
     1
  9
$DIMSHO
 70
     1
  9
$DIMPOST
  1

  9
$DIMAPOST
  1

  9
$DIMALT
 70
     0
  9
$DIMALTD
 70
     2
  9
$DIMALTF
 40
25.4
  9
$DIMLFAC
 40
1.0
  9
$DIMTOFL
 70
     0
  9
$DIMTVP
 40
0.0
  9
$DIMTIX
 70
     0
  9
$DIMSOXD
 70
     0
  9
$DIMSAH
 70
     0
  9
$DIMBLK1
  1

  9
$DIMBLK2
  1

  9
$DIMSTYLE
  2
Bovelacci
  9
$DIMCLRD
 70
     5
  9
$DIMCLRE
 70
     5
  9
$DIMCLRT
 70
     4
  9
$DIMTFAC
 40
1.0
  9
$DIMGAP
 40
2.0
  9
$DIMJUST
 70
     0
  9
$DIMSD1
 70
     0
  9
$DIMSD2
 70
     0
  9
$DIMTOLJ
 70
     1
  9
$DIMTZIN
 70
     0
  9
$DIMALTZ
 70
     0
  9
$DIMALTTZ
 70
     0
  9
$DIMUPT
 70
     0
  9
$DIMDEC
 70
     2
  9
$DIMTDEC
 70
     2
  9
$DIMALTU
 70
     2
  9
$DIMALTTD
 70
     2
  9
$DIMTXSTY
  7
ROMANS
  9
$DIMAUNIT
 70
     0
  9
$DIMADEC
 70
     0
  9
$DIMALTRND
 40
0.0
  9
$DIMAZIN
 70
     0
  9
$DIMDSEP
 70
    46
  9
$DIMATFIT
 70
     3
  9
$DIMFRAC
 70
     0
  9
$DIMLDRBLK
  1

  9
$DIMLUNIT
 70
     2
  9
$DIMLWD
 70
    -2
  9
$DIMLWE
 70
    -2
  9
$DIMTMOVE
 70
     2
  9
$LUNITS
 70
     2
  9
$LUPREC
 70
     2
  9
$SKETCHINC
 40
1.0
  9
$FILLETRAD
 40
0.0
  9
$AUNITS
 70
     0
  9
$AUPREC
 70
     0
  9
$MENU
  1
.
  9
$ELEVATION
 40
0.0
  9
$PELEVATION
 40
0.0
  9
$THICKNESS
 40
0.0
  9
$LIMCHECK
 70
     0
  9
$CHAMFERA
 40
0.0
  9
$CHAMFERB
 40
0.0
  9
$CHAMFERC
 40
0.0
  9
$CHAMFERD
 40
0.0
  9
$SKPOLY
 70
     0
  9
$TDCREATE
 40
2454297.625402373
  9
$TDUCREATE
 40
2454297.542069039
  9
$TDUPDATE
 40
2454311.730109040
  9
$TDUUPDATE
 40
2454311.646775706
  9
$TDINDWG
 40
0.1857662500
  9
$TDUSRTIMER
 40
0.1857642477
  9
$USRTIMER
 70
     1
  9
$ANGBASE
 50
0.0
  9
$ANGDIR
 70
     0
  9
$PDMODE
 70
     0
  9
$PDSIZE
 40
0.0
  9
$PLINEWID
 40
0.0
  9
$SPLFRAME
 70
     0
  9
$SPLINETYPE
 70
     6
  9
$SPLINESEGS
 70
     8
  9
$HANDSEED
  5
23D7
  9
$SURFTAB1
 70
     6
  9
$SURFTAB2
 70
     6
  9
$SURFTYPE
 70
     6
  9
$SURFU
 70
     6
  9
$SURFV
 70
     6
  9
$UCSBASE
  2

  9
$UCSNAME
  2

  9
$UCSORG
 10
0.0
 20
0.0
 30
0.0
  9
$UCSXDIR
 10
1.0
 20
0.0
 30
0.0
  9
$UCSYDIR
 10
0.0
 20
1.0
 30
0.0
  9
$UCSORTHOREF
  2

  9
$UCSORTHOVIEW
 70
     0
  9
$UCSORGTOP
 10
0.0
 20
0.0
 30
0.0
  9
$UCSORGBOTTOM
 10
0.0
 20
0.0
 30
0.0
  9
$UCSORGLEFT
 10
0.0
 20
0.0
 30
0.0
  9
$UCSORGRIGHT
 10
0.0
 20
0.0
 30
0.0
  9
$UCSORGFRONT
 10
0.0
 20
0.0
 30
0.0
  9
$UCSORGBACK
 10
0.0
 20
0.0
 30
0.0
  9
$PUCSBASE
  2

  9
$PUCSNAME
  2

  9
$PUCSORG
 10
0.0
 20
0.0
 30
0.0
  9
$PUCSXDIR
 10
1.0
 20
0.0
 30
0.0
  9
$PUCSYDIR
 10
0.0
 20
1.0
 30
0.0
  9
$PUCSORTHOREF
  2

  9
$PUCSORTHOVIEW
 70
     0
  9
$PUCSORGTOP
 10
0.0
 20
0.0
 30
0.0
  9
$PUCSORGBOTTOM
 10
0.0
 20
0.0
 30
0.0
  9
$PUCSORGLEFT
 10
0.0
 20
0.0
 30
0.0
  9
$PUCSORGRIGHT
 10
0.0
 20
0.0
 30
0.0
  9
$PUCSORGFRONT
 10
0.0
 20
0.0
 30
0.0
  9
$PUCSORGBACK
 10
0.0
 20
0.0
 30
0.0
  9
$USERI1
 70
     0
  9
$USERI2
 70
     0
  9
$USERI3
 70
     0
  9
$USERI4
 70
     0
  9
$USERI5
 70
     0
  9
$USERR1
 40
0.0
  9
$USERR2
 40
0.0
  9
$USERR3
 40
0.0
  9
$USERR4
 40
0.0
  9
$USERR5
 40
0.0
  9
$WORLDVIEW
 70
     1
  9
$SHADEDGE
 70
     3
  9
$SHADEDIF
 70
    70
  9
$TILEMODE
 70
     1
  9
$MAXACTVP
 70
    64
  9
$PINSBASE
 10
0.0
 20
0.0
 30
0.0
  9
$PLIMCHECK
 70
     0
  9
$PEXTMIN
 10
1.000000000000000E+20
 20
1.000000000000000E+20
 30
1.000000000000000E+20
  9
$PEXTMAX
 10
-1.000000000000000E+20
 20
-1.000000000000000E+20
 30
-1.000000000000000E+20
  9
$PLIMMIN
 10
0.0
 20
0.0
  9
$PLIMMAX
 10
420.0
 20
297.0
  9
$UNITMODE
 70
     0
  9
$VISRETAIN
 70
     1
  9
$PLINEGEN
 70
     0
  9
$PSLTSCALE
 70
     1
  9
$TREEDEPTH
 70
  3020
  9
$CMLSTYLE
  2
Standard
  9
$CMLJUST
 70
     0
  9
$CMLSCALE
 40
20.0
  9
$PROXYGRAPHICS
 70
     1
  9
$MEASUREMENT
 70
     1
  9
$CELWEIGHT
370
    -1
  9
$ENDCAPS
280
     0
  9
$JOINSTYLE
280
     0
  9
$LWDISPLAY
290
     0
  9
$INSUNITS
 70
     4
  9
$HYPERLINKBASE
  1

  9
$STYLESHEET
  1

  9
$XEDIT
290
     1
  9
$CEPSNTYPE
380
     0
  9
$PSTYLEMODE
290
     1
  9
$FINGERPRINTGUID
  2
{904A8C64-524F-4709-A9C6-320D2C273A6D}
  9
$VERSIONGUID
  2
{F75E1232-072E-4103-AF4B-BA6D3B59FB14}
  9
$EXTNAMES
290
     1
  9
$PSVPSCALE
 40
0.0
  9
$OLESTARTUP
290
     0
  0
ENDSEC
  0
SECTION
  2
CLASSES
  0
CLASS
  1
ACDBDICTIONARYWDFLT
  2
AcDbDictionaryWithDefault
  3
ObjectDBX Classes
 90
        0
280
     0
281
     0
  0
CLASS
  1
TABLESTYLE
  2
AcDbTableStyle
  3
ObjectDBX Classes
 90
     2047
280
     0
281
     0
  0
CLASS
  1
SORTENTSTABLE
  2
AcDbSortentsTable
  3
ObjectDBX Classes
 90
        0
280
     0
281
     0
  0
CLASS
  1
DICTIONARYVAR
  2
AcDbDictionaryVar
  3
ObjectDBX Classes
 90
        0
280
     0
281
     0
  0
CLASS
  1
ACDBPLACEHOLDER
  2
AcDbPlaceHolder
  3
ObjectDBX Classes
 90
        0
280
     0
281
     0
  0
CLASS
  1
LAYOUT
  2
AcDbLayout
  3
ObjectDBX Classes
 90
        0
280
     0
281
     0
  0
CLASS
  1
DIMASSOC
  2
AcDbDimAssoc
  3
"AcDbDimAssoc|Product Desc:     AcDim ARX App For Dimension|Company:          Autodesk, Inc.|WEB Address:      www.autodesk.com"
 90
        0
280
     0
281
     0
  0
CLASS
  1
MATERIAL
  2
AcDbMaterial
  3
ObjectDBX Classes
 90
        0
280
     0
281
     0
  0
CLASS
  1
VISUALSTYLE
  2
AcDbVisualStyle
  3
ObjectDBX Classes
 90
     4095
280
     0
281
     0
  0
ENDSEC
  0
SECTION
  2
TABLES
  0
TABLE
  2
VPORT
  5
177
330
0
100
AcDbSymbolTable
 70
     5
  0
VPORT
  5
23CC
330
177
100
AcDbSymbolTableRecord
100
AcDbViewportTableRecord
  2
*Active
 70
     0
 10
0.0
 20
0.0
 11
1.0
 21
1.0
 12
0.2089959324639602
 22
0.1490051537554529
 13
0.0
 23
0.0
 14
10.0
 24
10.0
 15
10.0
 25
10.0
 16
0.0
 26
0.0
 36
1.0
 17
0.0
 27
0.0
 37
0.0
 40
0.2730241870247392
 41
1.546526867627784
 42
50.0
 43
0.0
 44
0.0
 50
0.0
 51
0.0
 71
     0
 72
  1000
 73
     1
 74
     3
 75
     0
 76
     0
 77
     0
 78
     0
281
     0
 65
     1
110
0.0
120
0.0
130
0.0
111
1.0
121
0.0
131
0.0
112
0.0
122
1.0
132
0.0
 79
     0
146
0.0
  0
ENDTAB
  0
TABLE
  2
LTYPE
  5
172
330
0
100
AcDbSymbolTable
 70
     2
  0
LTYPE
  5
173
330
172
100
AcDbSymbolTableRecord
100
AcDbLinetypeTableRecord
  2
ByBlock
 70
     0
  3

 72
    65
 73
     0
 40
0.0
  0
LTYPE
  5
174
330
172
100
AcDbSymbolTableRecord
100
AcDbLinetypeTableRecord
  2
ByLayer
 70
     0
  3

 72
    65
 73
     0
 40
0.0
  0
LTYPE
  5
C
330
172
100
AcDbSymbolTableRecord
100
AcDbLinetypeTableRecord
  2
Continuous
 70
     0
  3
Solid line
 72
    65
 73
     0
 40
0.0
  0
LTYPE
  5
14E
330
172
100
AcDbSymbolTableRecord
100
AcDbLinetypeTableRecord
  2
ACAD_ISO10W100
 70
     0
  3
ISO dash dot __ . __ . __ . __ . __ . __ . __ .
 72
    65
 73
     4
 40
18.0
 49
12.0
 74
     0
 49
-3.0
 74
     0
 49
0.0
 74
     0
 49
-3.0
 74
     0
  0
ENDTAB
  0
TABLE
  2
LAYER
  5
16D
102
{ACAD_XDICTIONARY
360
16E
102
}
330
0
100
AcDbSymbolTable
 70
     8
  0
LAYER
  5
6
330
16D
100
AcDbSymbolTableRecord
100
AcDbLayerTableRecord
  2
0
 70
     0
 62
     7
  6
Continuous
370
    -3
390
7
  0
LAYER
  5
15F
330
16D
100
AcDbSymbolTableRecord
100
AcDbLayerTableRecord
  2
Defpoints
 70
     0
 62
     7
  6
Continuous
290
     0
370
    -3
390
7
  0
LAYER
  5
28
330
16D
100
AcDbSymbolTableRecord
100
AcDbLayerTableRecord
  2
Profilo
 70
     0
 62
     1
  6
Continuous
370
    -3
390
7
1001
AcAecLayerStandard
1000

1000

  0
LAYER
  5
14D
330
16D
100
AcDbSymbolTableRecord
100
AcDbLayerTableRecord
  2
Sezione
 70
     0
 62
     2
  6
Continuous
370
    -3
390
7
1001
AcAecLayerStandard
1000

1000

  0
LAYER
  5
E
330
16D
100
AcDbSymbolTableRecord
100
AcDbLayerTableRecord
  2
Table
 70
     0
 62
     3
  6
Continuous
370
    -3
390
7
1001
AcAecLayerStandard
1000

1000

  0
LAYER
  5
19
330
16D
100
AcDbSymbolTableRecord
100
AcDbLayerTableRecord
  2
Text
 70
     0
 62
     4
  6
Continuous
370
    -3
390
7
1001
AcAecLayerStandard
1000

1000

  0
LAYER
  5
23D
330
16D
100
AcDbSymbolTableRecord
100
AcDbLayerTableRecord
  2
Bovelacci
 70
     0
 62
     9
  6
Continuous
370
    -3
390
7
1001
AcAecLayerStandard
1000

1000

  0
LAYER
  5
1826
330
16D
100
AcDbSymbolTableRecord
100
AcDbLayerTableRecord
  2
Layer1
 70
     0
 62
     7
  6
Continuous
370
    -3
390
7
1001
AcAecLayerStandard
1000

1000

  0
ENDTAB
  0
TABLE
  2
STYLE
  5
170
330
0
100
AcDbSymbolTable
 70
     3
  0
STYLE
  5
1A
330
170
100
AcDbSymbolTableRecord
100
AcDbTextStyleTableRecord
  2
Standard
 70
     0
 40
0.0
 41
1.0
 50
0.0
 71
     0
 42
2.5
  3
txt
  4

  0
STYLE
  5
20
330
170
100
AcDbSymbolTableRecord
100
AcDbTextStyleTableRecord
  2
ROMANS
 70
     0
 40
0.0
 41
1.0
 50
0.0
 71
     0
 42
2.5
  3
romans
  4

  0
STYLE
  5
26
330
170
100
AcDbSymbolTableRecord
100
AcDbTextStyleTableRecord
  2
style1
 70
     0
 40
0.0
 41
1.0
 50
0.0
 71
     0
 42
0.008
  3
TIMES.TTF
  4

1001
ACAD
1000
Times New Roman
1071
       18
  0
ENDTAB
  0
TABLE
  2
VIEW
  5
175
330
0
100
AcDbSymbolTable
 70
     2
  0
ENDTAB
  0
TABLE
  2
UCS
  5
176
330
0
100
AcDbSymbolTable
 70
     0
  0
ENDTAB
  0
TABLE
  2
APPID
  5
17B
330
0
100
AcDbSymbolTable
 70
    10
  0
APPID
  5
1B
330
17B
100
AcDbSymbolTableRecord
100
AcDbRegAppTableRecord
  2
ACAD
 70
     0
  0
APPID
  5
157
330
17B
100
AcDbSymbolTableRecord
100
AcDbRegAppTableRecord
  2
ACAD_DSTYLE_DIMJOGGED_JOGANGLE_SYMBOL
 70
     0
  0
APPID
  5
F
330
17B
100
AcDbSymbolTableRecord
100
AcDbRegAppTableRecord
  2
AcAecLayerStandard
 70
     0
  0
APPID
  5
19C
330
17B
100
AcDbSymbolTableRecord
100
AcDbRegAppTableRecord
  2
ACAD_DSTYLE_DIMFLIPARROW_WHICH_SYMBOL
 70
     0
  0
APPID
  5
1A7
330
17B
100
AcDbSymbolTableRecord
100
AcDbRegAppTableRecord
  2
ACAD_DSTYLE_DIMEXT_LENGTH
 70
     0
  0
APPID
  5
1D2
330
17B
100
AcDbSymbolTableRecord
100
AcDbRegAppTableRecord
  2
ACAD_EXEMPT_FROM_CAD_STANDARDS
 70
     0
  0
APPID
  5
1D3
330
17B
100
AcDbSymbolTableRecord
100
AcDbRegAppTableRecord
  2
ACAD_DSTYLE_DIM_LINETYPE
 70
     0
  0
APPID
  5
1D4
330
17B
100
AcDbSymbolTableRecord
100
AcDbRegAppTableRecord
  2
ACAD_DSTYLE_DIM_EXT1_LINETYPE
 70
     0
  0
APPID
  5
1D5
330
17B
100
AcDbSymbolTableRecord
100
AcDbRegAppTableRecord
  2
ACAD_DSTYLE_DIM_EXT2_LINETYPE
 70
     0
  0
APPID
  5
243
330
17B
100
AcDbSymbolTableRecord
100
AcDbRegAppTableRecord
  2
ACAD_PSEXT
 70
     0
  0
ENDTAB
  0
TABLE
  2
DIMSTYLE
  5
17C
330
0
100
AcDbSymbolTable
 70
     7
100
AcDbDimStyleTable
 71
     2
340
156
340
17D
  0
DIMSTYLE
105
17D
330
17C
100
AcDbSymbolTableRecord
100
AcDbDimStyleTableRecord
  2
ISO-25
 70
     0
 41
2.5
 42
0.625
 43
3.75
 44
1.25
 73
     0
 74
     0
 77
     1
 78
     8
140
2.5
141
2.5
143
0.03937007874016
147
0.625
171
     3
172
     1
271
     2
272
     2
274
     3
278
    44
283
     0
284
     8
340
1A
  0
DIMSTYLE
105
156
102
{ACAD_REACTORS
330
23AD
102
}
330
17C
100
AcDbSymbolTableRecord
100
AcDbDimStyleTableRecord
  2
Bovelacci
 70
     0
 40
0.001
 41
1.5
140
3.0
141
0.0
147
2.0
176
     5
177
     5
178
     4
271
     2
272
     2
279
     2
340
20
342
152
1001
ACAD_DSTYLE_DIMJOGGED_JOGANGLE_SYMBOL
1070
   384
1040
0.7853981633974483
1001
ACAD_DSTYLE_DIMEXT_LENGTH
1070
   378
1040
0.18
  0
DIMSTYLE
105
23E
330
17C
100
AcDbSymbolTableRecord
100
AcDbDimStyleTableRecord
  2
Dim 1-100
 70
     0
 40
0.1
 41
1.5
 42
0.0
 43
5.0
 44
1.25
 45
0.005
 46
1.25
 73
     0
 74
     0
 77
     1
 78
     9
140
2.0
141
2.5
147
1.0
172
     1
174
     1
179
     2
279
     2
289
     2
340
20
342
152
  0
DIMSTYLE
105
23F
330
17C
100
AcDbSymbolTableRecord
100
AcDbDimStyleTableRecord
  2
Standard
 70
     0
 42
0.0
 73
     0
 74
     0
 77
     1
271
     2
272
     2
340
20
  0
DIMSTYLE
105
240
330
17C
100
AcDbSymbolTableRecord
100
AcDbDimStyleTableRecord
  2
Dim 1-50
 70
     0
 40
0.05
 41
1.5
 42
0.0
 43
5.0
 44
1.25
 45
0.005
 46
1.25
 73
     0
 74
     0
 77
     1
 78
     9
140
2.0
141
2.5
147
1.0
172
     1
174
     1
179
     2
279
     2
289
     2
340
20
342
152
  0
DIMSTYLE
105
241
330
17C
100
AcDbSymbolTableRecord
100
AcDbDimStyleTableRecord
  2
Dim 1-200
 70
     0
 40
0.2
 41
1.5
 42
0.0
 43
5.0
 44
1.25
 45
0.005
 46
1.25
 73
     0
 74
     0
 77
     1
 78
     9
140
2.0
141
2.5
147
1.0
172
     1
174
     1
179
     2
271
     2
272
     2
279
     2
289
     2
340
20
342
152
  0
DIMSTYLE
105
242
330
17C
100
AcDbSymbolTableRecord
100
AcDbDimStyleTableRecord
  2
AEC Scale - Italiano
 70
     0
 41
1.0
 42
10.0
 43
10.0
 44
10.0
 73
     0
 74
     0
 75
     1
 76
     1
 77
     1
140
10.0
141
1.0
147
10.0
173
     1
271
     0
272
     0
279
     2
340
1A
343
238
344
232
  0
ENDTAB
  0
TABLE
  2
BLOCK_RECORD
  5
1
330
0
100
AcDbSymbolTable
 70
    10
  0
BLOCK_RECORD
  5
2
102
{ACAD_XDICTIONARY
360
3
102
}
330
1
100
AcDbSymbolTableRecord
100
AcDbBlockTableRecord
  2
*Model_Space
340
163
  0
BLOCK_RECORD
  5
165
330
1
100
AcDbSymbolTableRecord
100
AcDbBlockTableRecord
  2
*Paper_Space
340
168
  0
BLOCK_RECORD
  5
169
330
1
100
AcDbSymbolTableRecord
100
AcDbBlockTableRecord
  2
*Paper_Space0
340
16C
  0
BLOCK_RECORD
  5
152
330
1
100
AcDbSymbolTableRecord
100
AcDbBlockTableRecord
  2
_ArchTick
340
0
310
2800000020000000200000000100080000000000000400000000000000000000000000000000000000000000000080000080000000808000800000008000800080800000C0C0C000C0DCC000F0CAA6000020400000206000002080000020A0000020C0000020E00000400000004020000040400000406000004080000040A0
310
000040C0000040E00000600000006020000060400000606000006080000060A0000060C0000060E00000800000008020000080400000806000008080000080A0000080C0000080E00000A0000000A0200000A0400000A0600000A0800000A0A00000A0C00000A0E00000C0000000C0200000C0400000C0600000C0800000C0
310
A00000C0C00000C0E00000E0000000E0200000E0400000E0600000E0800000E0A00000E0C00000E0E00040000000400020004000400040006000400080004000A0004000C0004000E00040200000402020004020400040206000402080004020A0004020C0004020E000404000004040200040404000404060004040800040
310
40A0004040C0004040E00040600000406020004060400040606000406080004060A0004060C0004060E00040800000408020004080400040806000408080004080A0004080C0004080E00040A0000040A0200040A0400040A0600040A0800040A0A00040A0C00040A0E00040C0000040C0200040C0400040C0600040C08000
310
40C0A00040C0C00040C0E00040E0000040E0200040E0400040E0600040E0800040E0A00040E0C00040E0E00080000000800020008000400080006000800080008000A0008000C0008000E00080200000802020008020400080206000802080008020A0008020C0008020E00080400000804020008040400080406000804080
310
008040A0008040C0008040E00080600000806020008060400080606000806080008060A0008060C0008060E00080800000808020008080400080806000808080008080A0008080C0008080E00080A0000080A0200080A0400080A0600080A0800080A0A00080A0C00080A0E00080C0000080C0200080C0400080C0600080C0
310
800080C0A00080C0C00080C0E00080E0000080E0200080E0400080E0600080E0800080E0A00080E0C00080E0E000C0000000C0002000C0004000C0006000C0008000C000A000C000C000C000E000C0200000C0202000C0204000C0206000C0208000C020A000C020C000C020E000C0400000C0402000C0404000C0406000C0
310
408000C040A000C040C000C040E000C0600000C0602000C0604000C0606000C0608000C060A000C060C000C060E000C0800000C0802000C0804000C0806000C0808000C080A000C080C000C080E000C0A00000C0A02000C0A04000C0A06000C0A08000C0A0A000C0A0C000C0A0E000C0C00000C0C02000C0C04000C0C06000
310
C0C08000C0C0A000F0FBFF00A4A0A000808080000000FF0000FF000000FFFF00FF000000FF00FF00FFFF0000FFFFFF00000000FF000000000000000000000000000000000000000000000000000000000000FF00FF00000000000000000000000000000000000000000000000000000000FF000000FF000000000000000000
310
0000000000000000000000000000000000FF0000000000FF0000000000000000000000000000000000000000000000000000FF0000000000FF0000000000000000000000000000000000000000000000000000FF0000000000FF0000000000000000000000000000000000000000000000000000FF0000000000FF00000000
310
00000000000000000000000000000000000000000000FF0000000000FF0000000000000000000000000000000000000000000000000000FF0000000000FF0000000000000000000000000000000000000000000000000000FF0000000000FF0000000000000000000000000000000000000000000000000000FF0000000000
310
FF0000000000000000000000000000000000000000000000000000FF0000000000FF0000000000000000000000000000000000000000000000000000FF0000000000FF0000000000000000000000000000000000000000000000000000FF0000000000FF0000000000000000000000000000000000000000000000000000FF
310
0000000000FF0000000000000000000000000000000000000000000000000000FF0000000000FF0000000000000000000000000000000000000000000000000000FF0000000000FF0000000000000000000000000000000000000000000000000000FF0000000000FF00000000000000000000000000000000000000000000
310
00000000FF0000000000FF0000000000000000000000000000000000000000000000000000FF0000000000FF0000000000000000000000000000000000000000000000000000FF0000000000FF0000000000000000000000000000000000000000000000000000FF0000000000FF0000000000000000000000000000000000
310
000000000000000000FF0000000000FF0000000000000000000000000000000000000000000000000000FF0000000000FF0000000000000000000000000000000000000000000000000000FF0000000000FF0000000000000000000000000000000000000000000000000000FF0000000000FF000000000000000000000000
310
0000000000000000000000000000FF0000000000FF0000000000000000000000000000000000000000000000000000FF0000000000FF0000000000000000000000000000000000000000000000000000FF0000000000FF0000000000000000000000000000000000000000000000000000FF000000FF000000000000000000
310
00000000000000000000000000000000000000FF00FF000000000000000000000000000000000000000000000000000000000000FF000000
102
{BLKREFS
331
180C
331
1CC2
331
20F7
331
23C8
102
}
  0
BLOCK_RECORD
  5
232
330
1
100
AcDbSymbolTableRecord
100
AcDbBlockTableRecord
  2
_Arrivo
340
0
310
2800000020000000200000000100080000000000000400000000000000000000000000000000000000000000000080000080000000808000800000008000800080800000C0C0C000C0DCC000F0CAA6000020400000206000002080000020A0000020C0000020E00000400000004020000040400000406000004080000040A0
310
000040C0000040E00000600000006020000060400000606000006080000060A0000060C0000060E00000800000008020000080400000806000008080000080A0000080C0000080E00000A0000000A0200000A0400000A0600000A0800000A0A00000A0C00000A0E00000C0000000C0200000C0400000C0600000C0800000C0
310
A00000C0C00000C0E00000E0000000E0200000E0400000E0600000E0800000E0A00000E0C00000E0E00040000000400020004000400040006000400080004000A0004000C0004000E00040200000402020004020400040206000402080004020A0004020C0004020E000404000004040200040404000404060004040800040
310
40A0004040C0004040E00040600000406020004060400040606000406080004060A0004060C0004060E00040800000408020004080400040806000408080004080A0004080C0004080E00040A0000040A0200040A0400040A0600040A0800040A0A00040A0C00040A0E00040C0000040C0200040C0400040C0600040C08000
310
40C0A00040C0C00040C0E00040E0000040E0200040E0400040E0600040E0800040E0A00040E0C00040E0E00080000000800020008000400080006000800080008000A0008000C0008000E00080200000802020008020400080206000802080008020A0008020C0008020E00080400000804020008040400080406000804080
310
008040A0008040C0008040E00080600000806020008060400080606000806080008060A0008060C0008060E00080800000808020008080400080806000808080008080A0008080C0008080E00080A0000080A0200080A0400080A0600080A0800080A0A00080A0C00080A0E00080C0000080C0200080C0400080C0600080C0
310
800080C0A00080C0C00080C0E00080E0000080E0200080E0400080E0600080E0800080E0A00080E0C00080E0E000C0000000C0002000C0004000C0006000C0008000C000A000C000C000C000E000C0200000C0202000C0204000C0206000C0208000C020A000C020C000C020E000C0400000C0402000C0404000C0406000C0
310
408000C040A000C040C000C040E000C0600000C0602000C0604000C0606000C0608000C060A000C060C000C060E000C0800000C0802000C0804000C0806000C0808000C080A000C080C000C080E000C0A00000C0A02000C0A04000C0A06000C0A08000C0A0A000C0A0C000C0A0E000C0C00000C0C02000C0C04000C0C06000
310
C0C08000C0C0A000F0FBFF00A4A0A000808080000000FF0000FF000000FFFF00FF000000FF00FF00FFFF0000FFFFFF00000000000000000000000000000000000000000000000000000000000000000000000000000000000000FF0000000000000000000000000000000000000000000000000000000000000000FF000000
310
00000000000000000000000000000000000000000000000000000000FF0000000000000000000000000000000000000000000000000000000000000000FF00000000000000000000000000000000000000000000000000000000000000FF0000000000000000000000000000000000000000000000000000000000000000FF
310
0000000000000000000000000000000000000000000000000000000000000000FF00000000000000000000000000000000000000000000000000000000000000FF0000000000000000000000000000000000000000000000000000000000000000FF0000000000000000000000000000000000000000000000000000000000
310
0000FF0000000000000000000000000000000000000000000000000000000000000000FF00000000000000000000000000000000000000000000000000000000000000FF0000000000000000000000000000000000000000000000000000000000000000FF0000FF0000000000000000000000000000000000000000000000
310
000000000000FFFF000000000000000000000000000000000000000000000000000000000000FFFF00000000000000000000000000000000000000000000000000000000FFFFFFFFFFFF00000000000000000000000000000000000000000000000000000000FFFF0000000000000000000000000000000000000000000000
310
000000000000FF0000FF000000000000000000000000000000000000000000000000000000FF00000000000000000000000000000000000000000000000000000000000000FF000000000000000000000000000000000000000000000000000000000000FF0000000000000000000000000000000000000000000000000000
310
0000000000FF000000000000000000000000000000000000000000000000000000000000FF00000000000000000000000000000000000000000000000000000000000000FF000000000000000000000000000000000000000000000000000000000000FF000000000000000000000000000000000000000000000000000000
310
000000FF00000000000000000000000000000000000000000000000000000000000000FF000000000000000000000000000000000000000000000000000000000000FF00000000000000000000000000000000000000000000000000000000000000FF00000000000000000000000000000000000000000000000000000000
310
0000FF0000000000000000000000000000000000000000000000000000000000000000000000000000000000000000000000000000000000
  0
BLOCK_RECORD
  5
238
330
1
100
AcDbSymbolTableRecord
100
AcDbBlockTableRecord
  2
_Partenza
340
0
310
2800000020000000200000000100080000000000000400000000000000000000000000000000000000000000000080000080000000808000800000008000800080800000C0C0C000C0DCC000F0CAA6000020400000206000002080000020A0000020C0000020E00000400000004020000040400000406000004080000040A0
310
000040C0000040E00000600000006020000060400000606000006080000060A0000060C0000060E00000800000008020000080400000806000008080000080A0000080C0000080E00000A0000000A0200000A0400000A0600000A0800000A0A00000A0C00000A0E00000C0000000C0200000C0400000C0600000C0800000C0
310
A00000C0C00000C0E00000E0000000E0200000E0400000E0600000E0800000E0A00000E0C00000E0E00040000000400020004000400040006000400080004000A0004000C0004000E00040200000402020004020400040206000402080004020A0004020C0004020E000404000004040200040404000404060004040800040
310
40A0004040C0004040E00040600000406020004060400040606000406080004060A0004060C0004060E00040800000408020004080400040806000408080004080A0004080C0004080E00040A0000040A0200040A0400040A0600040A0800040A0A00040A0C00040A0E00040C0000040C0200040C0400040C0600040C08000
310
40C0A00040C0C00040C0E00040E0000040E0200040E0400040E0600040E0800040E0A00040E0C00040E0E00080000000800020008000400080006000800080008000A0008000C0008000E00080200000802020008020400080206000802080008020A0008020C0008020E00080400000804020008040400080406000804080
310
008040A0008040C0008040E00080600000806020008060400080606000806080008060A0008060C0008060E00080800000808020008080400080806000808080008080A0008080C0008080E00080A0000080A0200080A0400080A0600080A0800080A0A00080A0C00080A0E00080C0000080C0200080C0400080C0600080C0
310
800080C0A00080C0C00080C0E00080E0000080E0200080E0400080E0600080E0800080E0A00080E0C00080E0E000C0000000C0002000C0004000C0006000C0008000C000A000C000C000C000E000C0200000C0202000C0204000C0206000C0208000C020A000C020C000C020E000C0400000C0402000C0404000C0406000C0
310
408000C040A000C040C000C040E000C0600000C0602000C0604000C0606000C0608000C060A000C060C000C060E000C0800000C0802000C0804000C0806000C0808000C080A000C080C000C080E000C0A00000C0A02000C0A04000C0A06000C0A08000C0A0A000C0A0C000C0A0E000C0C00000C0C02000C0C04000C0C06000
310
C0C08000C0C0A000F0FBFF00A4A0A000808080000000FF0000FF000000FFFF00FF000000FF00FF00FFFF0000FFFFFF0000000000000000000000000000000000000000000000000000000000000000000000000000000000000000000000000000000000000000000000000000000000000000000000000000000000000000
310
000000000000000000000000000000000000000000000000000000000000000000000000000000000000000000000000000000000000000000000000000000000000000000000000000000000000000000000000000000000000000000000000000000000000000000000000000000000000FFFFFFFFFFFFFFFFFFFFFFFFFF
310
FFFFFFFFFFFFFFFFFFFFFFFFFFFFFFFFFF0000000000000000000000000000000000000000000000000000000000000000000000000000000000000000000000000000000000000000000000000000000000000000000000000000000000000000000000000000000000000000000000000000000000000000000000000000
310
00000000000000000000000000000000000000000000000000000000000000000000000000000000000000000000000000000000000000000000000000000000000000000000000000000000000000000000000000000000000000000000000000000000000000000000000000000000000000000000000000000000000000
310
00000000000000000000000000000000000000000000000000000000000000000000000000000000000000000000000000000000000000000000000000000000000000000000000000000000000000000000000000000000000000000000000000000000000000000000000000000000000000000000000000000000000000
310
00000000000000000000000000000000000000000000000000000000000000000000000000000000000000000000000000000000000000000000000000000000000000000000000000000000000000000000000000000000000000000000000000000000000000000000000000000000000000000000000000000000000000
310
000000000000000000000000000000000000000000000000000000000000000000000000000000000000000000000000000000000000000000000000000000000000000000000000000000000000000000000000000000FFFFFFFFFFFFFFFFFFFFFFFFFFFFFFFFFFFFFFFFFFFFFFFFFFFFFFFFFFFF00000000000000000000
310
00000000000000000000000000000000000000000000000000000000000000000000000000000000000000000000000000000000000000000000000000000000000000000000000000000000000000000000000000000000000000000000000000000000000000000000000000000000000000000000000000000000000000
310
0000000000000000000000000000000000000000000000000000000000000000000000000000000000000000000000000000000000000000
  0
BLOCK_RECORD
  5
1CA8
330
1
100
AcDbSymbolTableRecord
100
AcDbBlockTableRecord
  2
*D5
340
0
  0
BLOCK_RECORD
  5
20DD
330
1
100
AcDbSymbolTableRecord
100
AcDbBlockTableRecord
  2
*D7
340
0
  0
BLOCK_RECORD
  5
23AE
330
1
100
AcDbSymbolTableRecord
100
AcDbBlockTableRecord
  2
*D9
340
0
  0
ENDTAB
  0
ENDSEC
  0
SECTION
  2
BLOCKS
  0
BLOCK
  5
5
330
2
100
AcDbEntity
  8
0
100
AcDbBlockBegin
  2
*Model_Space
 70
     0
 10
0.0
 20
0.0
 30
0.0
  3
*Model_Space
  1

  0
ENDBLK
  5
162
330
2
100
AcDbEntity
  8
0
100
AcDbBlockEnd
  0
BLOCK
  5
166
330
165
100
AcDbEntity
 67
     1
  8
0
100
AcDbBlockBegin
  2
*Paper_Space
 70
     0
 10
0.0
 20
0.0
 30
0.0
  3
*Paper_Space
  1

  0
ENDBLK
  5
167
330
165
100
AcDbEntity
 67
     1
  8
0
100
AcDbBlockEnd
  0
BLOCK
  5
16A
330
169
100
AcDbEntity
 67
     1
  8
0
100
AcDbBlockBegin
  2
*Paper_Space0
 70
     0
 10
0.0
 20
0.0
 30
0.0
  3
*Paper_Space0
  1

  0
ENDBLK
  5
16B
330
169
100
AcDbEntity
 67
     1
  8
0
100
AcDbBlockEnd
  0
BLOCK
  5
153
330
152
100
AcDbEntity
  8
0
 62
     1
100
AcDbBlockBegin
  2
_ArchTick
 70
     0
 10
0.0
 20
0.0
 30
0.0
  3
_ArchTick
  1

  0
LWPOLYLINE
  5
154
330
152
100
AcDbEntity
  8
0
  6
ByBlock
 62
     0
100
AcDbPolyline
 90
        2
 70
     0
 43
0.15
 10
-0.5
 20
-0.5
 10
0.5
 20
0.5
  0
ENDBLK
  5
155
330
152
100
AcDbEntity
  8
0
 62
     1
100
AcDbBlockEnd
  0
BLOCK
  5
233
330
232
100
AcDbEntity
  8
0
100
AcDbBlockBegin
  2
_Arrivo
 70
     0
 10
0.0
 20
0.0
 30
0.0
  3
_Arrivo
  1

  0
LINE
  5
234
330
232
100
AcDbEntity
  8
0
  6
ByBlock
 62
     0
370
    -2
100
AcDbLine
 10
0.025
 20
-0.0433012701891858
 30
0.0
 11
-0.15
 21
0.2598076211353328
 31
0.0
  0
LINE
  5
235
330
232
100
AcDbEntity
  8
0
  6
ByBlock
 62
     0
370
    -2
100
AcDbLine
 10
0.025
 20
0.0433012701892585
 30
0.0
 11
-0.15
 21
-0.2598076211353328
 31
0.0
  0
LINE
  5
236
330
232
100
AcDbEntity
  8
0
  6
ByBlock
 62
     0
370
    -2
100
AcDbLine
 10
-0.05
 20
0.0
 30
0.0
 11
0.05
 21
0.0
 31
0.0
  0
ENDBLK
  5
237
330
232
100
AcDbEntity
  8
0
100
AcDbBlockEnd
  0
BLOCK
  5
239
330
238
100
AcDbEntity
  8
0
100
AcDbBlockBegin
  2
_Partenza
 70
     0
 10
0.0
 20
0.0
 30
0.0
  3
_Partenza
  1

  0
LINE
  5
23A
330
238
100
AcDbEntity
  8
0
  6
ByBlock
 62
     0
370
    -2
100
AcDbLine
 10
-0.05
 20
0.05
 30
0.0
 11
0.1
 21
0.05
 31
0.0
  0
LINE
  5
23B
330
238
100
AcDbEntity
  8
0
  6
ByBlock
 62
     0
370
    -2
100
AcDbLine
 10
-0.05
 20
-0.05
 30
0.0
 11
0.1
 21
-0.05
 31
0.0
  0
ENDBLK
  5
23C
330
238
100
AcDbEntity
  8
0
100
AcDbBlockEnd
  0
BLOCK
  5
1CAF
330
1CA8
100
AcDbEntity
  8
0
100
AcDbBlockBegin
  2
*D5
 70
     1
 10
0.0
 20
0.0
 30
0.0
  3
*D5
  1

  0
LINE
  5
1CBF
330
1CA8
100
AcDbEntity
  8
Text
  6
ACAD_ISO10W100
 62
     5
370
    -2
100
AcDbLine
 10
0.2691906163671416
 20
0.2054122756710057
 30
0.0
 11
0.2676906163671416
 21
0.2054122756710057
 31
0.0
  0
LINE
  5
1CC0
330
1CA8
100
AcDbEntity
  8
Text
  6
ACAD_ISO10W100
 62
     5
370
    -2
100
AcDbLine
 10
0.2676906163671416
 20
0.2054122756710057
 30
0.0
 11
0.2653415959966366
 21
0.2035462362022504
 31
0.0
  0
MTEXT
  5
1CC1
330
1CA8
100
AcDbEntity
  8
Text
  6
ACAD_ISO10W100
 62
     4
100
AcDbMText
 10
0.283619187795713
 20
0.2054122756710057
 30
0.0
 40
0.003
 41
0.0
 71
     5
 72
     1
  1
\A1;d 575 mm
  7
ROMANS
 73
     1
 44
1.0
1001
ACAD
1000
MTEXTBEGIN
1070
    73
1070
     1
1070
    44
1040
1.0
1070
    74
1070
     0
1000
MTEXTEND
  0
INSERT
  5
1CC2
330
1CA8
100
AcDbEntity
  8
Text
  6
ACAD_ISO10W100
 62
     5
370
    -2
100
AcDbBlockReference
  2
_ArchTick
 10
0.2653415959966366
 20
0.2035462362022504
 30
0.0
 41
0.0015
 42
0.0015
 43
0.0015
 50
218.4632953061788
  0
POINT
  5
1CC3
330
1CA8
100
AcDbEntity
  8
Defpoints
  6
ACAD_ISO10W100
 62
     0
100
AcDbPoint
 10
0.2653415959966366
 20
0.2035462362022504
 30
0.0
  0
POINT
  5
1CC4
330
1CA8
100
AcDbEntity
  8
Defpoints
  6
ACAD_ISO10W100
 62
     0
100
AcDbPoint
 10
0.152784369909937
 20
0.1141318449910611
 30
0.0
  0
ENDBLK
  5
1CB0
330
1CA8
100
AcDbEntity
  8
0
100
AcDbBlockEnd
  0
BLOCK
  5
20E4
330
20DD
100
AcDbEntity
  8
0
100
AcDbBlockBegin
  2
*D7
 70
     1
 10
0.0
 20
0.0
 30
0.0
  3
*D7
  1

  0
LINE
  5
20F4
330
20DD
100
AcDbEntity
  8
Text
  6
ACAD_ISO10W100
 62
     5
370
    -2
100
AcDbLine
 10
0.2576625582371847
 20
0.19359400421819
 30
0.0
 11
0.2561625582371847
 21
0.19359400421819
 31
0.0
  0
LINE
  5
20F5
330
20DD
100
AcDbEntity
  8
Text
  6
ACAD_ISO10W100
 62
     5
370
    -2
100
AcDbLine
 10
0.2561625582371847
 20
0.19359400421819
 30
0.0
 11
0.2537669396148421
 21
0.1917881771455483
 31
0.0
  0
MTEXT
  5
20F6
330
20DD
100
AcDbEntity
  8
Text
  6
ACAD_ISO10W100
 62
     4
100
AcDbMText
 10
0.272091129665756
 20
0.19359400421819
 30
0.0
 40
0.003
 41
0.0
 71
     5
 72
     1
  1
\A1;d 460 mm
  7
ROMANS
 73
     1
 44
1.0
1001
ACAD
1000
MTEXTBEGIN
1070
    73
1070
     1
1070
    44
1040
1.0
1070
    74
1070
     0
1000
MTEXTEND
  0
INSERT
  5
20F7
330
20DD
100
AcDbEntity
  8
Text
  6
ACAD_ISO10W100
 62
     5
370
    -2
100
AcDbBlockReference
  2
_ArchTick
 10
0.2537669396148421
 20
0.1917881771455483
 30
0.0
 41
0.0015
 42
0.0015
 43
0.0015
 50
217.0091357843495
  0
POINT
  5
20F8
330
20DD
100
AcDbEntity
  8
Defpoints
  6
ACAD_ISO10W100
 62
     0
100
AcDbPoint
 10
0.2537669396148421
 20
0.1917881771455483
 30
0.0
  0
POINT
  5
20F9
330
20DD
100
AcDbEntity
  8
Defpoints
  6
ACAD_ISO10W100
 62
     0
100
AcDbPoint
 10
0.1619348924250465
 20
0.1225648060276147
 30
0.0
  0
ENDBLK
  5
20E5
330
20DD
100
AcDbEntity
  8
0
100
AcDbBlockEnd
  0
BLOCK
  5
23B5
330
23AE
100
AcDbEntity
  8
0
100
AcDbBlockBegin
  2
*D9
 70
     1
 10
0.0
 20
0.0
 30
0.0
  3
*D9
  1

  0
LINE
  5
23C5
330
23AE
100
AcDbEntity
  8
Text
  6
ACAD_ISO10W100
 62
     5
370
    -2
100
AcDbLine
 10
0.2546132161146366
 20
0.189098188936143
 30
0.0
 11
0.2531132161146367
 21
0.189098188936143
 31
0.0
  0
LINE
  5
23C6
330
23AE
100
AcDbEntity
  8
Text
  6
ACAD_ISO10W100
 62
     5
370
    -2
100
AcDbLine
 10
0.2531132161146367
 20
0.189098188936143
 30
0.0
 11
0.2505606070808934
 21
0.1875220585097975
 31
0.0
  0
MTEXT
  5
23C7
330
23AE
100
AcDbEntity
  8
Text
  6
ACAD_ISO10W100
 62
     4
100
AcDbMText
 10
0.2690417875432081
 20
0.189098188936143
 30
0.0
 40
0.003
 41
0.0
 71
     5
 72
     1
  1
\A1;d 770 mm
  7
ROMANS
 73
     1
 44
1.0
1001
ACAD
1000
MTEXTBEGIN
1070
    73
1070
     1
1070
    44
1040
1.0
1070
    74
1070
     0
1000
MTEXTEND
  0
INSERT
  5
23C8
330
23AE
100
AcDbEntity
  8
Text
  6
ACAD_ISO10W100
 62
     5
370
    -2
100
AcDbBlockReference
  2
_ArchTick
 10
0.2505606070808934
 20
0.1875220585097975
 30
0.0
 41
0.0015
 42
0.0015
 43
0.0015
 50
211.6936132992798
  0
POINT
  5
23C9
330
23AE
100
AcDbEntity
  8
Defpoints
  6
ACAD_ISO10W100
 62
     0
100
AcDbPoint
 10
0.2505606070808934
 20
0.1875220585097975
 30
0.0
  0
POINT
  5
23CA
330
23AE
100
AcDbEntity
  8
Defpoints
  6
ACAD_ISO10W100
 62
     0
100
AcDbPoint
 10
0.1685455495883884
 20
0.1368811550954381
 30
0.0
  0
ENDBLK
  5
23B6
330
23AE
100
AcDbEntity
  8
0
100
AcDbBlockEnd
  0
ENDSEC
  0
SECTION
  2
ENTITIES
  0
LINE
  5
D
330
2
100
AcDbEntity
  8
Table
100
AcDbLine
 10
0.02
 20
0.02
 30
0.0
 11
0.4
 21
0.02
 31
0.0
  0
LINE
  5
10
330
2
100
AcDbEntity
  8
Table
100
AcDbLine
 10
0.4
 20
0.02
 30
0.0
 11
0.4
 21
0.2769999999999999
 31
0.0
  0
LINE
  5
11
330
2
100
AcDbEntity
  8
Table
100
AcDbLine
 10
0.4
 20
0.2769999999999999
 30
0.0
 11
0.02
 21
0.277
 31
0.0
  0
LINE
  5
12
330
2
100
AcDbEntity
  8
Table
100
AcDbLine
 10
0.02
 20
0.277
 30
0.0
 11
0.02
 21
0.02
 31
0.0
  0
LINE
  5
13
330
2
100
AcDbEntity
  8
Table
 62
     2
100
AcDbLine
 10
0.015
 20
0.015
 30
0.0
 11
0.4050000000000001
 21
0.015
 31
0.0
  0
LINE
  5
14
330
2
100
AcDbEntity
  8
Table
 62
     2
100
AcDbLine
 10
0.4050000000000001
 20
0.015
 30
0.0
 11
0.4050000000000001
 21
0.2819999999999998
 31
0.0
  0
LINE
  5
15
330
2
100
AcDbEntity
  8
Table
 62
     2
100
AcDbLine
 10
0.4050000000000001
 20
0.2819999999999998
 30
0.0
 11
0.0149999999999999
 21
0.282
 31
0.0
  0
LINE
  5
16
330
2
100
AcDbEntity
  8
Table
 62
     2
100
AcDbLine
 10
0.0149999999999999
 20
0.282
 30
0.0
 11
0.015
 21
0.015
 31
0.0
  0
LINE
  5
17
330
2
100
AcDbEntity
  8
Table
100
AcDbLine
 10
0.21
 20
0.2769999999999999
 30
0.0
 11
0.21
 21
0.2532994226089223
 31
0.0
  0
MTEXT
  5
18
102
{ACAD_XDICTIONARY
360
23CF
102
}
330
2
100
AcDbEntity
  8
Text
100
AcDbMText
 10
0.305
 20
0.0471738284815141
 30
0.0
 40
0.005
 41
0.1900000000000001
 71
     2
 72
     5
  3
{\fTimes New Roman|b0|i0|c238|p18;\H1.6x;\C4;Bovelacci\P\H0.4375x;\T0.95;via del Commercio, 5  47100 Forli - Italy  \fTimes New Roman|b0|i0|c0|p18;\P\fTimes New Roman|b0|i0|c238|p18;tel.+39-0543721386  fax +39-0543721127\fTimes New Roman|b0|i0|c0|p18
  1
; \fTimes New Roman|b0|i0|c238|p18;www.bovelacci.it\fTimes New Roman|b0|i0|c0|p18; \fTimes New Roman|b0|i0|c238|p18;e-mail: bovelacci@bovelacci\fTimes New Roman|b0|i0|c0|p18;.it}
 73
     1
 44
1.0
1001
ACAD
1000
ACAD_MTEXT_DEFINED_HEIGHT_BEGIN
1070
    46
1040
0.0271738284815141
1000
ACAD_MTEXT_DEFINED_HEIGHT_END
1000
MTEXTBEGIN
1070
    73
1070
     1
1070
    44
1040
1.0
1070
    74
1070
     0
1000
MTEXTEND
  0
MTEXT
  5
1C
330
2
100
AcDbEntity
  8
Text
100
AcDbMText
 10
0.0219676065851835
 20
0.0500313976452307
 30
0.0
 40
0.002
 41
0.1863544980601608
 71
     1
 72
     5
  3
{\fArial|b0|i0|c0|p34;\H1.25x;Le caratteristiche tecniche indicate vengono fornite a titolo indicativo e potranno essere modificate senza preavviso. Non devono quindi essere considerate a scopo di specifica.\P\fArial|b0|i1|c0|p34;The given values are
  3
 indicative and can be changed without notice. They cannot be considered like a state.\PThis lealfet and designs embodied within are protected by copyright law and international treaties. Unauthorized repro- duction of the leaflet or any portion of i
  1
t or reproduction of any of the designs embodied therein may result in severe civil penalties and will be prosecuted to the maximum.\PAll right reserved, Bovelacci Forlì Italy.}
 73
     1
 44
1.0
1001
ACAD
1000
MTEXTBEGIN
1070
    73
1070
     1
1070
    44
1040
1.0
1070
    74
1070
     0
1000
MTEXTEND
  0
LINE
  5
1D
330
2
100
AcDbEntity
  8
Table
100
AcDbLine
 10
0.02
 20
0.0528099428524846
 30
0.0
 11
0.4
 21
0.0528099428524846
 31
0.0
  0
MTEXT
  5
1E
330
2
100
AcDbEntity
  8
Text
100
AcDbMText
 10
0.1133313047219695
 20
0.2610796890771976
 30
0.0
 40
0.003
 41
0.1103605678262056
 71
     2
 72
     5
  1
{\fTimes New Roman|b0|i0|c0|p18;Rosoni\fTimes New Roman|b0|i1|c0|p18;   Ceiling centres}
 73
     1
 44
1.0
1001
ACAD
1000
ACAD_MTEXT_DEFINED_HEIGHT_BEGIN
1070
    46
1040
0.0141952763113409
1000
ACAD_MTEXT_DEFINED_HEIGHT_END
1000
MTEXTBEGIN
1070
    73
1070
     1
1070
    44
1040
1.0
1070
    74
1070
     0
1000
MTEXTEND
  0
TEXT
  5
1F
330
2
100
AcDbEntity
  8
Text
100
AcDbText
 10
0.2180556919891047
 20
0.269976982173197
 30
0.0
 40
0.003
  1
Rosone - Ceiling centre : D 770 mm
  7
ROMANS
100
AcDbText
  0
TEXT
  5
21
330
2
100
AcDbEntity
  8
Text
100
AcDbText
 10
0.2184542410678115
 20
0.2576348370183962
 30
0.0
 40
0.003
  1
File : C - R3324
  7
ROMANS
100
AcDbText
  0
LINE
  5
22
330
2
100
AcDbEntity
  8
Table
100
AcDbLine
 10
0.4
 20
0.2654452889427402
 30
0.0
 11
0.02
 21
0.2654452889427403
 31
0.0
  0
LINE
  5
23
330
2
100
AcDbEntity
  8
Table
100
AcDbLine
 10
0.4
 20
0.2532994226089223
 30
0.0
 11
0.02
 21
0.2532994226089225
 31
0.0
  0
LINE
  5
24
330
2
100
AcDbEntity
  8
Table
100
AcDbLine
 10
0.21
 20
0.0528099428524846
 30
0.0
 11
0.21
 21
0.02
 31
0.0
  0
TEXT
  5
25
330
2
100
AcDbEntity
  8
Text
100
AcDbText
 10
0.0896473531074035
 20
0.2687784133392506
 30
0.0
 40
0.005
  1
CLASSICSTYL
  7
style1
 72
     1
 11
0.1140561490699125
 21
0.2687784133392506
 31
0.0
100
AcDbText
  0
TEXT
  5
252
330
2
100
AcDbEntity
  8
Text
  6
ACAD_ISO10W100
100
AcDbText
 10
0.2784584357783816
 20
0.1025685932422247
 30
0.0
 40
0.005
  1
scala 1 : 8
  7
style1
100
AcDbText
  0
CIRCLE
  5
225D
330
2
100
AcDbEntity
  8
Profilo
  6
Continuous
370
     0
100
AcDbCircle
 10
0.1945000237275096
 20
0.1719534854549719
 30
0.0
 40
0.0009535947695089
  0
CIRCLE
  5
225E
330
2
100
AcDbEntity
  8
Profilo
  6
Continuous
370
     0
100
AcDbCircle
 10
0.1987590544950868
 20
0.1731964227595849
 30
0.0
 40
0.000792288414856
  0
CIRCLE
  5
225F
330
2
100
AcDbEntity
  8
Profilo
  6
Continuous
370
     0
100
AcDbCircle
 10
0.1982305617353666
 20
0.1783856861978895
 30
0.0
 40
0.0007413188114154
  0
LWPOLYLINE
  5
2260
330
2
100
AcDbEntity
  8
Profilo
  6
Continuous
370
     0
100
AcDbPolyline
 90
       48
 70
   129
 43
0.0
 10
0.1935417573176565
 20
0.1713045058853465
 10
0.1932673990531593
 20
0.1709445773484596
 10
0.193233104270097
 20
0.1704646727670264
 10
0.1934560203600013
 20
0.1701218838378947
 10
0.1938675571331141
 20
0.1700019073901012
 10
0.1943991262705771
 20
0.1700361862023646
 10
0.194690631926606
 20
0.1701047442301394
 10
0.1947935162757919
 20
0.1703618359269882
 10
0.1947935162757919
 20
0.1707731828838937
 10
0.1948449584503848
 20
0.1703104175069686
 10
0.1949478427995717
 20
0.1701904414624223
 10
0.1952564952234985
 20
0.1700876046223841
 10
0.1956851800117747
 20
0.1701218838378947
 10
0.1958566539270861
 20
0.1703446967224792
 10
0.195908096101679
 20
0.1704989515792897
 10
0.1961653069746447
 20
0.1706189276238369
 10
0.1963196334984245
 20
0.1706703460438555
 10
0.1964568126306727
 20
0.1709788561607238
 10
0.1963367808899552
 20
0.1714073427253847
 10
0.1960795700169895
 20
0.1716472948144781
 10
0.1958052117524922
 20
0.1718358288867993
 10
0.1959423908847413
 20
0.1720586417713837
 10
0.196148159583114
 20
0.1724185703082707
 10
0.196199601757707
 20
0.1727442200328942
 10
0.1960452752339272
 20
0.1731555665865535
 10
0.195719474794837
 20
0.1734812163111762
 10
0.1954965587049335
 20
0.1737211688035168
 10
0.1950678745402892
 20
0.1738240052403078
 10
0.194690631926606
 20
0.1738068660357997
 10
0.1945534527943569
 20
0.1735154951234404
 10
0.1945363054028262
 20
0.1731898458020641
 10
0.1943819788790464
 20
0.1730184513374983
 10
0.1943819788790464
 20
0.1733955190788933
 10
0.1941933575722043
 20
0.1736354715712339
 10
0.1940218836568939
 20
0.1738240052403078
 10
0.1936960838414363
 20
0.1738582844558184
 10
0.1932502516616286
 20
0.1737554476157802
 10
0.1929758933971313
 20
0.1734812163111762
 10
0.1929244512225383
 20
0.1731041485697812
 10
0.1928215668733515
 20
0.1727613592374023
 10
0.1929244512225383
 20
0.1723842914960073
 10
0.192650092958041
 20
0.1722985942637244
 10
0.1923928820850753
 20
0.1722128970314415
 10
0.1922557035764589
 20
0.1717844104667797
 10
0.1923242925189508
 20
0.1712873662775912
 10
0.1925986507834481
 20
0.1710645533930058
 10
0.1930787777463181
 20
0.1709959957684791
 10
0.1933016938362215
 20
0.1711159718130254
  0
LWPOLYLINE
  5
2261
330
2
100
AcDbEntity
  8
Profilo
  6
Continuous
370
     0
100
AcDbPolyline
 90
       42
 70
   129
 43
0.0
 10
0.1984287614094804
 20
0.1716815740299887
 10
0.198154403144984
 20
0.1712702270730831
 10
0.1977085715888081
 20
0.171081693000762
 10
0.1972627394090003
 20
0.1712702270730831
 10
0.1970398233190969
 20
0.1715787371899505
 10
0.19693693896991
 20
0.1721786178159309
 10
0.1970398233190969
 20
0.1726928016128747
 10
0.1975199502819669
 20
0.1730527301497616
 10
0.1970741181021591
 20
0.173001311729743
 10
0.1967483176630689
 20
0.1731727061943088
 10
0.1967140228800066
 20
0.1736868899912526
 10
0.1968340546207241
 20
0.1742182129927053
 10
0.1971427076682837
 20
0.1743724678495159
 10
0.1976228346311528
 20
0.1745267231095727
 10
0.1980515194194299
 20
0.1744067466617792
 10
0.198205845319577
 20
0.1740810973404038
 10
0.1983087296687638
 20
0.1739439816881013
 10
0.1982744348857015
 20
0.1742696310094777
 10
0.1982572874941699
 20
0.1748009544141767
 10
0.1985316457586672
 20
0.1751437433433084
 10
0.1989088883723504
 20
0.1751780221555726
 10
0.1993547205521582
 20
0.1751951617633279
 10
0.1996462255845544
 20
0.1749209304587239
 10
0.1998519942829271
 20
0.1745095835018174
 10
0.1998176994998648
 20
0.1741325157604224
 10
0.1996976677591473
 20
0.1738582844558184
 10
0.1999891734151753
 20
0.1738925632680827
 10
0.2002635316796726
 20
0.1739439816881013
 10
0.2006407742933558
 20
0.1738582844558184
 10
0.2008808377747908
 20
0.1735326347311957
 10
0.2008808377747908
 20
0.1730355905420063
 10
0.2006750690764181
 20
0.1725728255683284
 10
0.2003149738542655
 20
0.1723842914960073
 10
0.1999891734151753
 20
0.1724699887282902
 10
0.1996805203676166
 20
0.1726928016128747
 10
0.2000406155897683
 20
0.1722985942637244
 10
0.2001092051558928
 20
0.1718358288867993
 10
0.1999377312405823
 20
0.1713902031176294
 10
0.1995947834099605
 20
0.1712188086530636
 10
0.1990460675045995
 20
0.1710988326085173
 10
0.1987202670655093
 20
0.1713045058853465
 10
0.1986002353247918
 20
0.1716644344222334
  0
LWPOLYLINE
  5
2262
330
2
100
AcDbEntity
  8
Profilo
  6
Continuous
370
     0
100
AcDbPolyline
 90
       43
 70
   129
 43
0.0
 10
0.1971775113352374
 20
0.1786449759937841
 10
0.1967316791554297
 20
0.1788335100661053
 10
0.1965430578485876
 20
0.1792619962275198
 10
0.1965945000231806
 20
0.1797761800244645
 10
0.1968002687215533
 20
0.179998992909049
 10
0.1971946587267681
 20
0.1800846901413319
 10
0.1976233428914125
 20
0.1799818533012937
 10
0.1977948168067229
 20
0.1798104588367278
 10
0.1980177328966273
 20
0.179639064372162
 10
0.198172059420407
 20
0.1792619962275198
 10
0.1981892068119377
 20
0.1796047855598987
 10
0.1983435333357175
 20
0.1798790168645027
 10
0.1986178916002139
 20
0.1800161321135579
 10
0.1990808705479206
 20
0.1800504113290685
 10
0.1994066709870108
 20
0.1799475744890303
 10
0.1997324714261011
 20
0.1796733431844263
 10
0.1999039453414115
 20
0.179364833067558
 10
0.199783913600694
 20
0.178987765326163
 10
0.1996638818599774
 20
0.1786449759937841
 10
0.1998182083837563
 20
0.178439302716955
 10
0.2002468925484007
 20
0.1782164898323705
 10
0.200469808638305
 20
0.1778908401077469
 10
0.2003669242891182
 20
0.1773766567140494
 10
0.2001954503738077
 20
0.1770338673816715
 10
0.1996638818599774
 20
0.1769481701493886
 10
0.1993552288124178
 20
0.1769481701493886
 10
0.1989779861987346
 20
0.1771024254094454
 10
0.1990465757648583
 20
0.1768967521326162
 10
0.1990294283733276
 20
0.1763997079434268
 10
0.1987379227172996
 20
0.1761940342633504
 10
0.1983606807272482
 20
0.1760397794065399
 10
0.19774337463213
 20
0.1760397794065399
 10
0.1974347215845713
 20
0.1763140107111439
 10
0.1972803950607915
 20
0.1767596364803138
 10
0.197503311150695
 20
0.177428075134069
 10
0.1972803950607915
 20
0.1770681465971821
 10
0.1970060374199269
 20
0.1767767756848227
 10
0.1966287948062428
 20
0.1769138913371243
 10
0.1962686995840903
 20
0.1773252382940308
 10
0.1960972256687798
 20
0.177805142875464
 10
0.1961486678433737
 20
0.1782507686446338
 10
0.1964744682824639
 20
0.1786278367892761
 10
0.1969203004622708
 20
0.1786792552092956
  0
LWPOLYLINE
  5
2263
330
2
100
AcDbEntity
  8
Profilo
  6
Continuous
370
     0
100
AcDbPolyline
 90
        8
 70
   128
 43
0.0
 10
0.1999346504974133
 20
0.1792714241408765
 10
0.2007302892150025
 20
0.1794908090232615
 10
0.2014161842526125
 20
0.1793536933709591
 10
0.2019374647057044
 20
0.1790520392584923
 10
0.2020472083856817
 20
0.1786406923015867
 10
0.201498491856688
 20
0.1784761534381743
 10
0.2007028531390997
 20
0.1784487306303116
 10
0.2000443935537597
 20
0.1784487306303116
  0
LWPOLYLINE
  5
2264
330
2
100
AcDbEntity
  8
Profilo
  6
Continuous
370
     0
100
AcDbPolyline
 90
       22
 70
   128
 43
0.0
 10
0.1901126288691188
 20
0.1793262705630963
 10
0.1909631391148807
 20
0.1792714241408765
 10
0.1917313423801989
 20
0.1792714241408765
 10
0.1924721089459818
 20
0.1795730786565904
 10
0.1929933893990736
 20
0.1798198867500845
 10
0.1936244135321428
 20
0.1799844252102497
 10
0.1944474877020019
 20
0.1800392716324696
 10
0.1950785112114393
 20
0.179929579191277
 10
0.1950785112114393
 20
0.1796005014644532
 10
0.1945572307583483
 20
0.1793262705630963
 10
0.1937615926643919
 20
0.1789697696251634
 10
0.1931305685313218
 20
0.1785309998603942
 10
0.192389801965539
 20
0.1782567685557902
 10
0.1914569841157017
 20
0.1783390377858728
 10
0.1920057006446962
 20
0.1781196529034886
 10
0.1928013387386518
 20
0.1777357291576921
 10
0.1936244135321428
 20
0.1775986135053896
 10
0.1949413327028229
 20
0.1774340750452253
 10
0.1950785112114393
 20
0.177214689759594
 10
0.1953254340236656
 20
0.1770775741072915
 10
0.1958741499290275
 20
0.1770775741072915
 10
0.1961485081935248
 20
0.1771598437406213
  0
LWPOLYLINE
  5
2265
330
2
100
AcDbEntity
  8
Profilo
  6
Continuous
370
     0
100
AcDbPolyline
 90
        5
 70
   128
 43
0.0
 10
0.1966697886466167
 20
0.1766936507647422
 10
0.1961210727412548
 20
0.1762274573856167
 10
0.1967520962506921
 20
0.1758435336398211
 10
0.197300812156054
 20
0.1754047638750519
 10
0.1977397856287022
 20
0.1746917624024323
  0
LWPOLYLINE
  5
2266
330
2
100
AcDbEntity
  8
Profilo
  6
Continuous
370
     0
100
AcDbPolyline
 90
        8
 70
   128
 43
0.0
 10
0.1967795317029621
 20
0.1743626850788557
 10
0.1964777379861948
 20
0.1749659937070364
 10
0.1959564575331039
 20
0.1752950714338594
 10
0.1955449201363575
 20
0.175624148757436
 10
0.1951333833632447
 20
0.175870956850931
 10
0.1954077410041093
 20
0.1754047638750519
 10
0.1957918429485848
 20
0.1747466088246513
 10
0.1957369707967793
 20
0.173731953239565
  0
LWPOLYLINE
  5
2267
330
2
100
AcDbEntity
  8
Profilo
  6
Continuous
370
     0
100
AcDbPolyline
 90
       35
 70
   128
 43
0.0
 10
0.1945846668342501
 20
0.1738416456807575
 10
0.1945846668342501
 20
0.1747466088246513
 10
0.1944474877020019
 20
0.1754596098940245
 10
0.1943103085697537
 20
0.1757064179875186
 10
0.1943926161738292
 20
0.1750482633403653
 10
0.1942005655134074
 20
0.1746094931723497
 10
0.1937890281166619
 20
0.1741433001964715
 10
0.1934597983239918
 20
0.1738964921029765
 10
0.1928562102668254
 20
0.1735399915682908
 10
0.1921977513051172
 20
0.1729641057479728
 10
0.1913198049834535
 20
0.1727172976544787
 10
0.1909631391148807
 20
0.1727172976544787
 10
0.1909631391148807
 20
0.1733480294937685
 10
0.1914569841157017
 20
0.1739239149108401
 10
0.1919782645687935
 20
0.1743352618677457
 10
0.1924995450218845
 20
0.1749385704959264
 10
0.1927739032863818
 20
0.1756789951796559
 10
0.1926367241541336
 20
0.1762000341745068
 10
0.1922800582855608
 20
0.1766662275536331
 10
0.1918685215124471
 20
0.1771324205295114
 10
0.1916215987002208
 20
0.1774614978530881
 10
0.1917313423801989
 20
0.1768856124360173
 10
0.1915941632479499
 20
0.1764742654791108
 10
0.1912649334552807
 20
0.17592580327315
 10
0.1907985245303616
 20
0.1754870331051345
 10
0.1903595516813461
 20
0.1751579557815578
 10
0.1898382712282542
 20
0.1751031093593379
 10
0.189563912963757
 20
0.1752676482227503
 10
0.1897285275482761
 20
0.1758161104287111
 10
0.1900577573409461
 20
0.1763919962490291
 10
0.1903595516813461
 20
0.1769953048772098
 10
0.1903869871336161
 20
0.1775437674864179
 10
0.1902772440772706
 20
0.1781196529034886
 10
0.1900851934168488
 20
0.1786681155126967
 10
0.1899754503605033
 20
0.1788600771839709
  0
CIRCLE
  5
2268
330
2
100
AcDbEntity
  8
Profilo
  6
Continuous
370
     0
100
AcDbCircle
 10
0.2096263011864095
 20
0.1622276710048721
 30
0.0
 40
0.005547530159425
  0
ARC
  5
2269
330
2
100
AcDbEntity
  8
Profilo
  6
Continuous
370
     0
100
AcDbCircle
 10
0.2096263011864095
 20
0.1622276710048721
 30
0.0
 40
0.0274790175935179
100
AcDbArc
 50
64.98965342939334
 51
124.0534020840377
  0
ARC
  5
226A
330
2
100
AcDbEntity
  8
Profilo
  6
Continuous
370
     0
100
AcDbCircle
 10
0.2096523653886637
 20
0.1621544481531035
 30
0.0
 40
0.0481948408912234
100
AcDbArc
 50
62.58200021199886
 51
125.3779010758659
  0
ARC
  5
226B
330
2
100
AcDbEntity
  8
Profilo
  6
Continuous
370
     0
100
AcDbCircle
 10
0.2100412790153208
 20
0.1610499757563563
 30
0.0
 40
0.0470801444889354
100
AcDbArc
 50
62.8970987275738
 51
125.7360716350504
  0
ARC
  5
226C
330
2
100
AcDbEntity
  8
Profilo
  6
Continuous
370
     0
100
AcDbCircle
 10
0.2096263011864095
 20
0.1622276710048721
 30
0.0
 40
0.0437369922392543
100
AcDbArc
 50
63.62879799652877
 51
120.9511177094589
  0
LWPOLYLINE
  5
226D
330
2
100
AcDbEntity
  8
Profilo
  6
Continuous
370
     0
100
AcDbPolyline
 90
       31
 70
   128
 43
0.0
 10
0.2257436025525622
 20
0.1832821620507573
 10
0.2262866326190525
 20
0.183526638353784
 10
0.2263952383097527
 20
0.1839884274112137
 10
0.2262323293704551
 20
0.1845317089854074
 10
0.2257436025525622
 20
0.1848848419774519
 10
0.2252820267540977
 20
0.1849120061497066
 10
0.2246575424195819
 20
0.1848576778051972
 10
0.224250269869714
 20
0.1843143962310035
 10
0.2240873609304164
 20
0.1836896227636785
 10
0.2241416637757674
 20
0.1829561932309683
 10
0.2245489363256344
 20
0.1822770914191339
 10
0.2252820267540977
 20
0.1819239584270894
 10
0.2259336629145353
 20
0.1818967948784674
 10
0.2266939047656732
 20
0.1820054509438534
 10
0.2271011773155405
 20
0.1824129116567746
 10
0.2276713588047061
 20
0.1831735059853722
 10
0.2279971770865484
 20
0.1838797713458277
 10
0.2279971770865484
 20
0.1847218575675565
 10
0.2277256620533035
 20
0.1854281229280129
 10
0.2269654197989184
 20
0.1862973733219965
 10
0.2262866326190525
 20
0.1868134907239355
 10
0.223354270501954
 20
0.1887693030190419
 10
0.2198916386643984
 20
0.1902855150911179
 10
0.2161775420377359
 20
0.1913163542060875
 10
0.2129587310403747
 20
0.1918437194387529
 10
0.2102510347275308
 20
0.1920355038082156
 10
0.2069601501956104
 20
0.1920111852697829
 10
0.2033898248119235
 20
0.1915317255933887
 10
0.1994600705143024
 20
0.1904529403860543
 10
0.197407723922119
 20
0.1895373176963909
 10
0.1953243707307302
 20
0.1883225903376585
  0
LWPOLYLINE
  5
226E
330
2
100
AcDbEntity
  8
Profilo
  6
Continuous
370
     0
100
AcDbPolyline
 90
       19
 70
   128
 43
0.0
 10
0.193545436124124
 20
0.1849846783416019
 10
0.1962267484682594
 20
0.1867841552915456
 10
0.1996933023336045
 20
0.1883156250533376
 10
0.2026427459745161
 20
0.1893110804388275
 10
0.2062035290987076
 20
0.1899816041429622
 10
0.2080065969626148
 20
0.1900528104698832
 10
0.210387916093363
 20
0.190029115563671
 10
0.2130450686287919
 20
0.1898629662202577
 10
0.2153226278872663
 20
0.1894831972724494
 10
0.2182289656568753
 20
0.1887232777139148
 10
0.2200557581509976
 20
0.1880586822111588
 10
0.221170813351643
 20
0.1875127645435691
 10
0.2219062748720876
 20
0.1873703512660952
 10
0.2228315334342562
 20
0.1871092601534542
 10
0.2240177621223013
 20
0.1866108133704788
 10
0.2248006733064241
 20
0.186136102029811
 10
0.2253937878520695
 20
0.1855664489199146
 10
0.2257259318685928
 20
0.1851629445297996
 10
0.225749656498808
 20
0.1850205312523257
  0
LWPOLYLINE
  5
226F
330
2
100
AcDbEntity
  8
Profilo
  6
Continuous
370
     0
100
AcDbPolyline
 90
       53
 70
   128
 43
0.0
 10
0.2248718471970702
 20
0.184996795810019
 10
0.2245397031805477
 20
0.1852816223649668
 10
0.2239465886349015
 20
0.185400300200134
 10
0.2233534740892554
 20
0.1854477710847474
 10
0.2225705633083799
 20
0.1852341514803525
 10
0.2217639274940418
 20
0.1847831755819914
 10
0.2206963215538274
 20
0.1842135224720959
 10
0.2201981055290433
 20
0.1839286959171481
 10
0.2201506562686123
 20
0.1837388111314272
 10
0.2197236141344743
 20
0.1838100180819809
 10
0.2196287156136122
 20
0.1842372579144026
 10
0.2196287156136122
 20
0.184545819911658
 10
0.2194626436053515
 20
0.1844983490270436
 10
0.2189644275805672
 20
0.1844034066341841
 10
0.2182764149173063
 20
0.184332200307263
 10
0.2173986056155686
 20
0.1842609933567093
 10
0.2168529403303536
 20
0.1843084648649554
 10
0.2168054910699226
 20
0.1844746135847369
 10
0.2169478388512156
 20
0.184735704697378
 10
0.2164021735660003
 20
0.1847831755819914
 10
0.2159988556588318
 20
0.1848543825325451
 10
0.2155718131214475
 20
0.1852341514803525
 10
0.2152396691049241
 20
0.1857563337056355
 10
0.2152396691049241
 20
0.186325986815531
 10
0.215358292256002
 20
0.1868719044831198
 10
0.2156192623818774
 20
0.1871092601534542
 10
0.2159514063984008
 20
0.1870380532029013
 10
0.215975131028616
 20
0.1867769620902603
 10
0.216022580289047
 20
0.1864209292083915
 10
0.2163072750451385
 20
0.1862073089803639
 10
0.2167105929523079
 20
0.1860174248182756
 10
0.2168054910699226
 20
0.1860174248182756
 10
0.2167817668429538
 20
0.1862547798649782
 10
0.2168292157001384
 20
0.1863734577001453
 10
0.2170664615990462
 20
0.1864684000930049
 10
0.2174935041364308
 20
0.1864446646506982
 10
0.2178019235227381
 20
0.1864446646506982
 10
0.2182052414299067
 20
0.1864446646506982
 10
0.2182764149173063
 20
0.1864209292083915
 10
0.2181577921694757
 20
0.1868006981561988
 10
0.2181577921694757
 20
0.1872042025463146
 10
0.2181577921694757
 20
0.1874890291012624
 10
0.2183713134381684
 20
0.1876789132633506
 10
0.2186797328244758
 20
0.187655177821043
 10
0.2188458048327366
 20
0.1875364999858758
 10
0.2189644275805672
 20
0.1873466158237885
 10
0.2190830507316444
 20
0.1872991443155424
 10
0.21917794884926
 20
0.1874178221507096
 10
0.2195100928657825
 20
0.1874178221507096
 10
0.2199371354031668
 20
0.1873228797578491
 10
0.2203404529070891
 20
0.1872042025463146
 10
0.2206963215538274
 20
0.1871804664803752
 10
0.2213205528014753
 20
0.1871229629636811
  0
LWPOLYLINE
  5
2270
330
2
100
AcDbEntity
  8
Profilo
  6
Continuous
370
     0
100
AcDbPolyline
 90
       21
 70
   128
 43
0.0
 10
0.1904979356710446
 20
0.1808954011692027
 10
0.1900465425627271
 20
0.1811730528143153
 10
0.1898382069941358
 20
0.181589530685231
 10
0.1899770973731967
 20
0.1821448347819506
 10
0.190324322697218
 20
0.1824224868303096
 10
0.1910534965636563
 20
0.182491899741588
 10
0.1916785020221676
 20
0.1822489543504909
 10
0.1922687855095451
 20
0.1816242373424938
 10
0.1923035081043107
 20
0.1807912816006615
 10
0.1919562827802903
 20
0.1797847933790114
 10
0.1911229417531877
 20
0.1795418475846672
 10
0.1901507097233914
 20
0.1795418475846672
 10
0.1895604268596458
 20
0.1797500867217486
 10
0.1888312529932066
 20
0.1803748037297458
 10
0.18837985988489
 20
0.1810689332457741
 10
0.18837985988489
 20
0.1817977698223124
 10
0.1885534722350839
 20
0.1828389647012262
 10
0.1892826461015231
 20
0.1837413333543359
 10
0.1903590452919828
 20
0.1847131153219713
 10
0.19303268197075
 20
0.1867955046765507
 10
0.1953243707307302
 20
0.1883225903376585
  0
LWPOLYLINE
  5
2271
330
2
100
AcDbEntity
  8
Profilo
  6
Continuous
370
     0
100
AcDbPolyline
 90
       43
 70
   128
 43
0.0
 10
0.1904632130762789
 20
0.1825266059956035
 10
0.1910187739688915
 20
0.1835330946205017
 10
0.191886837590759
 20
0.1841231049712361
 10
0.1928590689969234
 20
0.1846089957534301
 10
0.1941090811612096
 20
0.1849907669670839
 10
0.1953243707307302
 20
0.1850254736243467
 10
0.1961924343525985
 20
0.1854072448379996
 10
0.1967827178399759
 20
0.1860319618459977
 10
0.1971299431639972
 20
0.1859972555919812
 10
0.197164665758762
 20
0.1857890164549006
 10
0.1974424465168847
 20
0.186136081414538
 10
0.1980327293806303
 20
0.1859278422774565
 10
0.1981716197596912
 20
0.1855113644065408
 10
0.1980674519753951
 20
0.1849907669670839
 10
0.1986230128680078
 20
0.185233712358181
 10
0.1992827415449165
 20
0.1854766581525252
 10
0.1997688572479979
 20
0.1855807773178192
 10
0.1999771928165901
 20
0.1861013747572752
 10
0.2003591407353762
 20
0.186136081414538
 10
0.2006716434646318
 20
0.1858237231121625
 10
0.2008452564384584
 20
0.1853031256727057
 10
0.2008799790332232
 20
0.1845048761848899
 10
0.2005674763039675
 20
0.1838801591768927
 10
0.199873025032294
 20
0.1834636813059761
 10
0.1992827415449165
 20
0.1834636813059761
 10
0.1987966258418343
 20
0.1836372137857957
 10
0.1990744059763243
 20
0.1833248554834202
 10
0.1989355162208952
 20
0.182977790523782
 10
0.1983799553282834
 20
0.1829430838665201
 10
0.1975466136775481
 20
0.1829430838665201
 10
0.1970257753797011
 20
0.1829430838665201
 10
0.1966091048661493
 20
0.1829083776125045
 10
0.1961577117578328
 20
0.1832554425721419
 10
0.1965049370818541
 20
0.1825960193101291
 10
0.1964354918923228
 20
0.1823530735157849
 10
0.1960535439735376
 20
0.1823530735157849
 10
0.1955327056756897
 20
0.182491899741588
 10
0.1949424221883123
 20
0.1828042580439634
 10
0.1942132489455057
 20
0.1830472034350604
 10
0.1935187976738313
 20
0.1832554425721419
 10
0.1923729532938412
 20
0.1832554425721419
 10
0.1918173924012285
 20
0.1832554425721419
 10
0.1910534965636563
 20
0.1825613126528663
  0
CIRCLE
  5
2272
330
2
100
AcDbEntity
  8
Profilo
  6
Continuous
370
     0
100
AcDbCircle
 10
0.1999004867363097
 20
0.1471013935459732
 30
0.0
 40
0.0009535947695089
  0
CIRCLE
  5
2273
330
2
100
AcDbEntity
  8
Profilo
  6
Continuous
370
     0
100
AcDbCircle
 10
0.1986575494316967
 20
0.1513604243135494
 30
0.0
 40
0.000792288414856
  0
CIRCLE
  5
2274
330
2
100
AcDbEntity
  8
Profilo
  6
Continuous
370
     0
100
AcDbCircle
 10
0.193468285993392
 20
0.1508319315538301
 30
0.0
 40
0.0007413188114154
  0
LWPOLYLINE
  5
2275
330
2
100
AcDbEntity
  8
Profilo
  6
Continuous
370
     0
100
AcDbPolyline
 90
       48
 70
   129
 43
0.0
 10
0.2005494663059351
 20
0.1461431271361201
 10
0.200909394842822
 20
0.1458687688716228
 10
0.2013892994242552
 20
0.1458344740885605
 10
0.2017320883533868
 20
0.146057390178464
 10
0.2018520648011803
 20
0.1464689269515776
 10
0.201817785988917
 20
0.1470004960890406
 10
0.2017492279611421
 20
0.1472920017450686
 10
0.2014921362642934
 20
0.1473948860942554
 10
0.2010807893073878
 20
0.1473948860942554
 10
0.2015435546843129
 20
0.1474463282688484
 10
0.2016635307288592
 20
0.1475492126180343
 10
0.2017663675688974
 20
0.1478578650419621
 10
0.2017320883533868
 20
0.1482865498302382
 10
0.2015092754688024
 20
0.1484580237455487
 10
0.2013550206119918
 20
0.1485094659201417
 10
0.2012350445674456
 20
0.1487666767931083
 10
0.201183626147426
 20
0.1489210033168872
 10
0.2008751160305586
 20
0.1490581824491363
 10
0.2004466294658969
 20
0.1489381507084187
 10
0.2002066773768034
 20
0.148680939835453
 10
0.2000181433044823
 20
0.1484065815709558
 10
0.1997953304198978
 20
0.148543760703204
 10
0.1994354018830109
 20
0.1487495294015767
 10
0.1991097521583873
 20
0.1488009715761705
 10
0.198698405604729
 20
0.1486466450523908
 10
0.1983727558801054
 20
0.1483208446133005
 10
0.1981328033877656
 20
0.1480979285233962
 10
0.1980299669509737
 20
0.1476692443587518
 10
0.1980471061554827
 20
0.1472920017450686
 10
0.198338477067842
 20
0.1471548226128204
 10
0.1986641263892175
 20
0.1471376752212888
 10
0.1988355208537833
 20
0.1469833486975099
 10
0.1984584531123883
 20
0.1469833486975099
 10
0.1982185006200485
 20
0.1467947273906679
 10
0.1980299669509737
 20
0.1466232534753574
 10
0.1979956877354632
 20
0.146297453659899
 10
0.1980985245755014
 20
0.1458516214800912
 10
0.1983727558801054
 20
0.1455772632155948
 10
0.1987498236215004
 20
0.145525821041001
 10
0.1990926129538792
 20
0.145422936691815
 10
0.1994696806952743
 20
0.145525821041001
 10
0.1995553779275572
 20
0.1452514627765046
 10
0.1996410751598401
 20
0.144994251903538
 10
0.2000695617245018
 20
0.1448570733949225
 10
0.2005666059136903
 20
0.1449256623374143
 10
0.2007894187982757
 20
0.1452000206019107
 10
0.2008579764228033
 20
0.1456801475647807
 10
0.2007380003782562
 20
0.1459030636546851
  0
LWPOLYLINE
  5
2276
330
2
100
AcDbEntity
  8
Profilo
  6
Continuous
370
     0
100
AcDbPolyline
 90
       42
 70
   129
 43
0.0
 10
0.2001723981612928
 20
0.1510301312279439
 10
0.2005837451181993
 20
0.1507557729634467
 10
0.2007722791905204
 20
0.1503099414072716
 10
0.2005837451181993
 20
0.1498641092274638
 10
0.200275235001331
 20
0.1496411931375604
 10
0.1996753543753507
 20
0.1495383087883736
 10
0.1991611705784069
 20
0.1496411931375604
 10
0.1988012420415199
 20
0.1501213201004295
 10
0.1988526604615386
 20
0.1496754879206218
 10
0.1986812659969728
 20
0.1493496874815315
 10
0.198167082200029
 20
0.1493153926984702
 10
0.1976357591985762
 20
0.1494354244391877
 10
0.1974815043417657
 20
0.1497440774867463
 10
0.1973272490817088
 20
0.1502242044496164
 10
0.1974472255295023
 20
0.1506528892378925
 10
0.1977728748508787
 20
0.1508072151380405
 10
0.1979099905031802
 20
0.1509100994872264
 10
0.1975843411818039
 20
0.1508758047041642
 10
0.1970530177771048
 20
0.1508586573126335
 10
0.1967102288479732
 20
0.1511330155771308
 10
0.1966759500357089
 20
0.151510258190814
 10
0.1966588104279536
 20
0.1519560903706217
 10
0.1969330417325577
 20
0.152247595403017
 10
0.1973443886894641
 20
0.1524533641013898
 10
0.1977214564308591
 20
0.1524190693183284
 10
0.1979956877354632
 20
0.1522990375776109
 10
0.1979614089231998
 20
0.1525905432336388
 10
0.1979099905031802
 20
0.1528649014981352
 10
0.1979956877354632
 20
0.1532421441118193
 10
0.1983213374600867
 20
0.1534822075932544
 10
0.1988183816492752
 20
0.1534822075932544
 10
0.1992811466229531
 20
0.1532764388948816
 10
0.1994696806952743
 20
0.1529163436727291
 10
0.1993839834629913
 20
0.1525905432336388
 10
0.1991611705784069
 20
0.1522818901860793
 10
0.1995553779275572
 20
0.1526419854082318
 10
0.2000181433044823
 20
0.1527105749743564
 10
0.2004637690736521
 20
0.1525391010590459
 10
0.200635163538218
 20
0.152196153228424
 10
0.2007551395827651
 20
0.1516474373230622
 10
0.2005494663059351
 20
0.1513216368839719
 10
0.2001895377690481
 20
0.1512016051432544
  0
LWPOLYLINE
  5
2277
330
2
100
AcDbEntity
  8
Profilo
  6
Continuous
370
     0
100
AcDbPolyline
 90
       43
 70
   129
 43
0.0
 10
0.1932089961974974
 20
0.1497788811537001
 10
0.1930204621251763
 20
0.1493330489738932
 10
0.1925919759637618
 20
0.1491444276670512
 10
0.1920777921668171
 20
0.1491958698416441
 10
0.1918549792822326
 20
0.1494016385400169
 10
0.1917692820499497
 20
0.1497960285452317
 10
0.1918721188899879
 20
0.150224712709876
 10
0.1920435133545537
 20
0.1503961866251865
 10
0.1922149078191195
 20
0.1506191027150899
 10
0.1925919759637618
 20
0.1507734292388697
 10
0.1922491866313829
 20
0.1507905766304013
 10
0.1919749553267789
 20
0.1509449031541802
 10
0.1918378400777245
 20
0.1512192614186775
 10
0.1918035608622131
 20
0.1516822403663841
 10
0.1919063977022513
 20
0.1520080408054744
 10
0.1921806290068553
 20
0.1523338412445646
 10
0.1924891391237236
 20
0.1525053151598751
 10
0.1928662068651186
 20
0.1523852834191576
 10
0.1932089961974974
 20
0.1522652516784401
 10
0.1934146694743266
 20
0.1524195782022198
 10
0.193637482358912
 20
0.1528482623668642
 10
0.1939631320835347
 20
0.1530711784567676
 10
0.1944773154772321
 20
0.1529682941075817
 10
0.1948201048096101
 20
0.1527968201922712
 10
0.194905802041893
 20
0.1522652516784401
 10
0.194905802041893
 20
0.1519565986308814
 10
0.1947515467818361
 20
0.1515793560171973
 10
0.1949572200586653
 20
0.1516479455833218
 10
0.1954542642478547
 20
0.1516307981917911
 10
0.1956599379279311
 20
0.1513392925357632
 10
0.1958141927847417
 20
0.1509620505457118
 10
0.1958141927847417
 20
0.1503447444505935
 10
0.1955399614801376
 20
0.150036091403034
 10
0.1950943357109678
 20
0.1498817648792542
 10
0.1944258970572126
 20
0.1501046809691585
 10
0.1947858255940995
 20
0.1498817648792542
 10
0.1950771965064588
 20
0.1496074072383896
 10
0.1949400808541573
 20
0.1492301646247064
 10
0.1945287338972508
 20
0.1488700694025539
 10
0.1940488293158176
 20
0.1486985954872434
 10
0.1936032035466477
 20
0.1487500376618364
 10
0.1932261354020055
 20
0.1490758381009266
 10
0.1931747169819868
 20
0.1495216702807344
  0
LWPOLYLINE
  5
2278
330
2
100
AcDbEntity
  8
Profilo
  6
Continuous
370
     0
100
AcDbPolyline
 90
        8
 70
   128
 43
0.0
 10
0.1925825480504051
 20
0.1525360203158769
 10
0.19236316316802
 20
0.1533316590334651
 10
0.1925002788203225
 20
0.1540175540710761
 10
0.1928019329327892
 20
0.154538834524167
 10
0.1932132798896948
 20
0.1546485782041452
 10
0.1933778187531072
 20
0.1540998616751515
 10
0.1934052415609699
 20
0.1533042229575624
 10
0.1934052415609699
 20
0.1526457633722232
  0
LWPOLYLINE
  5
2279
330
2
100
AcDbEntity
  8
Profilo
  6
Continuous
370
     0
100
AcDbPolyline
 90
       22
 70
   128
 43
0.0
 10
0.1925277016281852
 20
0.1427139986875824
 10
0.1925825480504051
 20
0.1435645089333443
 10
0.1925825480504051
 20
0.1443327121986616
 10
0.1922808935346911
 20
0.1450734787644453
 10
0.192034085441197
 20
0.1455947592175372
 10
0.1918695469810319
 20
0.1462257833506063
 10
0.191814700558812
 20
0.1470488575204655
 10
0.1919243930000045
 20
0.1476798810299028
 10
0.1922534707268284
 20
0.1476798810299028
 10
0.1925277016281852
 20
0.147158600576811
 10
0.192884202566119
 20
0.1463629624828545
 10
0.1933229723308873
 20
0.1457319383497854
 10
0.1935972036354914
 20
0.1449911717840017
 10
0.1935149344054088
 20
0.1440583539341652
 10
0.1937343192877938
 20
0.1446070704631589
 10
0.1941182430335895
 20
0.1454027085571153
 10
0.1942553586858919
 20
0.1462257833506063
 10
0.1944198971460562
 20
0.1475427025212864
 10
0.1946392824316876
 20
0.1476798810299028
 10
0.19477639808399
 20
0.1479268038421292
 10
0.19477639808399
 20
0.1484755197474911
 10
0.1946941284506602
 20
0.1487498780119883
  0
LWPOLYLINE
  5
227A
330
2
100
AcDbEntity
  8
Profilo
  6
Continuous
370
     0
100
AcDbPolyline
 90
        5
 70
   128
 43
0.0
 10
0.1951603214265394
 20
0.1492711584650793
 10
0.1956265148056648
 20
0.1487224425597174
 10
0.1960104385514605
 20
0.1493534660691548
 10
0.1964492083162297
 20
0.1499021819745166
 10
0.1971622097888492
 20
0.1503411554471649
  0
LWPOLYLINE
  5
227B
330
2
100
AcDbEntity
  8
Profilo
  6
Continuous
370
     0
100
AcDbPolyline
 90
        8
 70
   128
 43
0.0
 10
0.1974912871124259
 20
0.1493809015214257
 10
0.1968879784842452
 20
0.1490791078046584
 10
0.1965589007574222
 20
0.1485578273515665
 10
0.1962298234338455
 20
0.148146289954821
 10
0.1959830153403514
 20
0.1477347531817074
 10
0.1964492083162297
 20
0.1480091108225728
 10
0.1971073633666303
 20
0.1483932127670474
 10
0.1981220189517165
 20
0.1483383406152429
  0
LWPOLYLINE
  5
227C
330
2
100
AcDbEntity
  8
Profilo
  6
Continuous
370
     0
100
AcDbPolyline
 90
       35
 70
   128
 43
0.0
 10
0.198012326510524
 20
0.1471860366527137
 10
0.1971073633666303
 20
0.1471860366527137
 10
0.196394362297257
 20
0.1470488575204655
 10
0.1961475542037629
 20
0.1469116783882164
 10
0.1968057088509163
 20
0.1469939859922927
 10
0.1972444790189318
 20
0.1468019353318709
 10
0.197710671994811
 20
0.1463903979351254
 10
0.197957480088305
 20
0.1460611681424554
 10
0.1983139806229917
 20
0.1454575800852881
 10
0.1988898664433087
 20
0.1447991211235807
 10
0.1991366745368028
 20
0.1439211748019161
 10
0.1991366745368028
 20
0.1435645089333443
 10
0.1985059426975131
 20
0.1435645089333443
 10
0.1979300572804423
 20
0.1440583539341652
 10
0.1975187103235358
 20
0.1445796343872562
 10
0.1969154016953551
 20
0.145100914840348
 10
0.1961749770116257
 20
0.1453752731048453
 10
0.1956539380167748
 20
0.1452380939725962
 10
0.1951877446376493
 20
0.1448814281040235
 10
0.1947215516617702
 20
0.1444698913309107
 10
0.1943924743381935
 20
0.1442229685186843
 10
0.1949683597552643
 20
0.1443327121986616
 10
0.1953797067121707
 20
0.1441955330664134
 10
0.1959281689181316
 20
0.1438663032737434
 10
0.1963669390861471
 20
0.1433998943488252
 10
0.1966960164097238
 20
0.1429609214998088
 10
0.1967508628319436
 20
0.1424396410467178
 10
0.1965863239685321
 20
0.1421652827822205
 10
0.1960378617625704
 20
0.1423298973667396
 10
0.1954619759422524
 20
0.1426591271594096
 10
0.1948586673140726
 20
0.1429609214998088
 10
0.1943102047048646
 20
0.1429883569520797
 10
0.1937343192877938
 20
0.1428786138957333
 10
0.1931858566785858
 20
0.1426865632353124
 10
0.1929938950073107
 20
0.142576820178966
  0
ARC
  5
227D
330
2
100
AcDbEntity
  8
Profilo
  6
Continuous
370
     0
100
AcDbCircle
 10
0.2096263011864095
 20
0.1622276710048721
 30
0.0
 40
0.0274790175935179
100
AcDbArc
 50
154.9896534293933
 51
214.0534020840914
  0
LWPOLYLINE
  5
227E
330
2
100
AcDbEntity
  8
Profilo
  6
Continuous
370
     0
100
AcDbPolyline
 90
       31
 70
   128
 43
0.0
 10
0.1885718101405243
 20
0.1783449723710259
 10
0.1883273338374976
 20
0.178888002437516
 10
0.1878655447800679
 20
0.1789966081282163
 10
0.1873222632058742
 20
0.1788336991889187
 10
0.1869691302138297
 20
0.1783449723710259
 10
0.186941966041575
 20
0.1778833965725605
 10
0.1869962943860843
 20
0.1772589122380456
 10
0.187539575960278
 20
0.1768516396881775
 10
0.1881643494276031
 20
0.1766887307488799
 10
0.1888977789603141
 20
0.17674303359423
 10
0.1895768807721476
 20
0.1771503061440981
 10
0.1899300137641922
 20
0.1778833965725605
 10
0.1899571773128141
 20
0.1785350327329981
 10
0.1898485212474281
 20
0.179295274584136
 10
0.1894410605345069
 20
0.179702547134004
 10
0.1886804662059103
 20
0.1802727286231697
 10
0.1879742008454539
 20
0.1805985469050112
 10
0.187132114623725
 20
0.1805985469050112
 10
0.1864258492632687
 20
0.1803270318717661
 10
0.1855565988692851
 20
0.179566789617381
 10
0.1850404814673461
 20
0.178888002437516
 10
0.1830846691722396
 20
0.1759556403204175
 10
0.1815684571001637
 20
0.1724930084828621
 10
0.180537617985195
 20
0.1687789118561994
 10
0.1800102527525287
 20
0.1655601008588382
 10
0.1798184683830659
 20
0.1628524045459944
 10
0.1798427869214987
 20
0.159561520014074
 10
0.1803222465978929
 20
0.1559911946303861
 10
0.1814010318052273
 20
0.1520614403327659
 10
0.1823166544948906
 20
0.1500090937405826
 10
0.183531381853623
 20
0.1479257405491937
  0
LWPOLYLINE
  5
227F
330
2
100
AcDbEntity
  8
Profilo
  6
Continuous
370
     0
100
AcDbPolyline
 90
       19
 70
   128
 43
0.0
 10
0.1868692938496796
 20
0.1461468059425875
 10
0.185069816899736
 20
0.1488281182867229
 10
0.1835383471379439
 20
0.152294672152068
 10
0.1825428917524541
 20
0.1552441157929797
 10
0.1818723680483194
 20
0.1588048989171712
 10
0.1818011617213984
 20
0.1606079667810775
 10
0.1818248566276106
 20
0.1629892859118266
 10
0.1819910059710239
 20
0.1656464384472555
 10
0.1823707749188321
 20
0.16792399770573
 10
0.1831306944773676
 20
0.170830335475339
 10
0.1837952899801236
 20
0.1726571279694603
 10
0.1843412076477124
 20
0.1737721831701057
 10
0.1844836209251863
 20
0.1745076446905512
 10
0.1847447120378274
 20
0.1754329032527199
 10
0.1852431588208028
 20
0.1766191319407641
 10
0.1857178701614706
 20
0.1774020431248869
 10
0.186287523271367
 20
0.1779951576705331
 10
0.1866910276614819
 20
0.1783273016870556
 10
0.1868334409389558
 20
0.1783510263172715
  0
LWPOLYLINE
  5
2280
330
2
100
AcDbEntity
  8
Profilo
  6
Continuous
370
     0
100
AcDbPolyline
 90
       53
 70
   128
 43
0.0
 10
0.1868571763812625
 20
0.1774732170155339
 10
0.1865723498263148
 20
0.1771410729990105
 10
0.1864536719911476
 20
0.1765479584533652
 10
0.1864062011065342
 20
0.1759548439077191
 10
0.1866198207109291
 20
0.1751719331268434
 10
0.1870707966092902
 20
0.1743652973125055
 10
0.1876404497191857
 20
0.1732976913722902
 10
0.1879252762741344
 20
0.1727994753475069
 10
0.1881151610598544
 20
0.172752026087076
 10
0.1880439541093006
 20
0.1723249839529378
 10
0.187616714276879
 20
0.1722300854320758
 10
0.1873081522796236
 20
0.1722300854320758
 10
0.1873556231642379
 20
0.172064013423815
 10
0.1874505655570984
 20
0.1715657973990309
 10
0.1875217718840185
 20
0.17087778473577
 10
0.1875929788345723
 20
0.1699999754340323
 10
0.1875455073263261
 20
0.1694543101488172
 10
0.1873793586065446
 20
0.1694068608883862
 10
0.1871182674939036
 20
0.1695492086696791
 10
0.1870707966092902
 20
0.169003543384464
 10
0.1869995896587364
 20
0.1686002254772946
 10
0.1866198207109291
 20
0.1681731829399101
 10
0.186097638485647
 20
0.1678410389233876
 10
0.1855279853757505
 20
0.1678410389233876
 10
0.1849820677081617
 20
0.1679596620744647
 10
0.1847447120378274
 20
0.1682206322003411
 10
0.1848159189883802
 20
0.1685527762168636
 10
0.1850770101010213
 20
0.1685765008470795
 10
0.1854330429828901
 20
0.1686239501075105
 10
0.1856466632109177
 20
0.168908644863602
 10
0.1858365473730059
 20
0.1693119627707714
 10
0.1858365473730059
 20
0.1694068608883862
 10
0.1855991923263034
 20
0.1693831366614175
 10
0.1854805144911362
 20
0.1694305855186012
 10
0.1853855720982767
 20
0.1696678314175098
 10
0.1854093075405834
 20
0.1700948739548943
 10
0.1854093075405834
 20
0.1704032933412008
 10
0.1854093075405834
 20
0.1708066112483703
 10
0.1854330429828901
 20
0.17087778473577
 10
0.1850532740350828
 20
0.1707591619879393
 10
0.1846497696449678
 20
0.1707591619879393
 10
0.1843649430900192
 20
0.1707591619879393
 10
0.1841750589279318
 20
0.1709726832566319
 10
0.1841987943702386
 20
0.1712811026429385
 10
0.1843174722054057
 20
0.1714471746512002
 10
0.184507356367493
 20
0.1715657973990309
 10
0.1845548278757392
 20
0.1716844205501079
 10
0.1844361500405729
 20
0.1717793186677227
 10
0.1844361500405729
 20
0.172111462684246
 10
0.1845310924334325
 20
0.1725385052216305
 10
0.1846497696449678
 20
0.1729418227255527
 10
0.1846735057109063
 20
0.1732976913722902
 10
0.1847310092276013
 20
0.173921922619939
  0
LWPOLYLINE
  5
2281
330
2
100
AcDbEntity
  8
Profilo
  6
Continuous
370
     0
100
AcDbPolyline
 90
       21
 70
   128
 43
0.0
 10
0.1909585710220789
 20
0.1430993054895072
 10
0.1906809193769663
 20
0.1426479123811907
 10
0.1902644415060506
 20
0.1424395768125993
 10
0.1897091374093309
 20
0.1425784671916602
 10
0.189431485360972
 20
0.1429256925156806
 10
0.1893620724496936
 20
0.1436548663821199
 10
0.1896050178407906
 20
0.1442798718406312
 10
0.1902297348487878
 20
0.1448701553280086
 10
0.1910626905906201
 20
0.1449048779227743
 10
0.192069178812271
 20
0.144557652598753
 10
0.1923121246066144
 20
0.1437243115716503
 10
0.1923121246066144
 20
0.1427520795418541
 10
0.1921038854695329
 20
0.1421617966781085
 10
0.1914791684615358
 20
0.1414326228116701
 10
0.1907850389455075
 20
0.1409812297033536
 10
0.1900562023689691
 20
0.1409812297033536
 10
0.1890150074900554
 20
0.1411548420535474
 10
0.1881126388369456
 20
0.1418840159199867
 10
0.1871408568693103
 20
0.1429604151104463
 10
0.1850584675147309
 20
0.1456340517892126
 10
0.183531381853623
 20
0.1479257405491937
  0
LWPOLYLINE
  5
2282
330
2
100
AcDbEntity
  8
Profilo
  6
Continuous
370
     0
100
AcDbPolyline
 90
       43
 70
   128
 43
0.0
 10
0.189327366195678
 20
0.1430645828947424
 10
0.1883208775707799
 20
0.1436201437873542
 10
0.1877308672200455
 20
0.1444882074092225
 10
0.1872449764378514
 20
0.1454604388153861
 10
0.1868632052241976
 20
0.1467104509796723
 10
0.1868284985669348
 20
0.1479257405491937
 10
0.1864467273532819
 20
0.1487938041710611
 10
0.1858220103452848
 20
0.1493840876584395
 10
0.1858567165993004
 20
0.1497313129824599
 10
0.1860649557363818
 20
0.1497660355772256
 10
0.1857178907767436
 20
0.1500438163353482
 10
0.1859261299138251
 20
0.150634099199093
 10
0.1863426077847408
 20
0.1507729895781548
 10
0.1868632052241976
 20
0.1506688217938586
 10
0.1866202598331006
 20
0.1512243826864713
 10
0.1863773140387563
 20
0.1518841113633792
 10
0.1862731948734633
 20
0.1523702270664614
 10
0.1857525974340064
 20
0.1525785626350536
 10
0.1857178907767436
 20
0.1529605105538397
 10
0.186030249079119
 20
0.1532730132830945
 10
0.1865508465185759
 20
0.1534466262569211
 10
0.1873490960063917
 20
0.1534813488516867
 10
0.1879738130143898
 20
0.1531688461224311
 10
0.1883902908853055
 20
0.1524743948507575
 10
0.1883902908853055
 20
0.1518841113633792
 10
0.1882167584054868
 20
0.1513979956602979
 10
0.1885291167078613
 20
0.1516757757947878
 10
0.1888761816674995
 20
0.1515368860393588
 10
0.1889108883247623
 20
0.1509813251467461
 10
0.1889108883247623
 20
0.1501479834960117
 10
0.1889108883247623
 20
0.1496271451981638
 10
0.1889455945787779
 20
0.1492104746846129
 10
0.1885985296191397
 20
0.1487590815762963
 10
0.1892579528811524
 20
0.1491063069003168
 10
0.1895008986754967
 20
0.1490368617107863
 10
0.1895008986754967
 20
0.1486549137920002
 10
0.1893620724496936
 20
0.1481340754941532
 10
0.1890497141473182
 20
0.1475437920067749
 10
0.1888067687562211
 20
0.1468146187639684
 10
0.1885985296191397
 20
0.1461201674922948
 10
0.1885985296191397
 20
0.1449743231123047
 10
0.1885985296191397
 20
0.1444187622196921
 10
0.1892926595384152
 20
0.1436548663821199
  0
CIRCLE
  5
2283
330
2
100
AcDbEntity
  8
Profilo
  6
Continuous
370
     0
100
AcDbCircle
 10
0.2247525786453084
 20
0.1525018565547732
 30
0.0
 40
0.0009535947695089
  0
CIRCLE
  5
2284
330
2
100
AcDbEntity
  8
Profilo
  6
Continuous
370
     0
100
AcDbCircle
 10
0.2204935478777321
 20
0.1512589192501593
 30
0.0
 40
0.000792288414856
  0
CIRCLE
  5
2285
330
2
100
AcDbEntity
  8
Profilo
  6
Continuous
370
     0
100
AcDbCircle
 10
0.2210220406374513
 20
0.1460696558118556
 30
0.0
 40
0.0007413188114154
  0
LWPOLYLINE
  5
2286
330
2
100
AcDbEntity
  8
Profilo
  6
Continuous
370
     0
100
AcDbPolyline
 90
       48
 70
   129
 43
0.0
 10
0.2257108450551624
 20
0.1531508361243986
 10
0.2259852033196588
 20
0.1535107646612855
 10
0.226019498102721
 20
0.1539906692427187
 10
0.2257965820128176
 20
0.1543334581718504
 10
0.2253850452397038
 20
0.1544534346196439
 10
0.2248534761022408
 20
0.1544191558073805
 10
0.2245619704462128
 20
0.1543505977796057
 10
0.2244590860970261
 20
0.1540935060827569
 10
0.2244590860970261
 20
0.1536821591258514
 10
0.224407643922433
 20
0.1541449245027765
 10
0.2243047595732472
 20
0.1542649005473228
 10
0.2239961071493204
 20
0.154367737387361
 10
0.2235674223610432
 20
0.1543334581718504
 10
0.2233959484457328
 20
0.154110645287265
 10
0.2233445062711399
 20
0.1539563904304554
 10
0.2230872953981732
 20
0.1538364143859082
 10
0.2229329688743943
 20
0.1537849959658896
 10
0.2227957897421452
 20
0.1534764858490213
 10
0.2229158214828627
 20
0.1530479992843604
 10
0.2231730323558293
 20
0.152808047195267
 10
0.2234473906203257
 20
0.1526195131229459
 10
0.2233102114880776
 20
0.1523967002383605
 10
0.2231044427897049
 20
0.1520367717014736
 10
0.2230530006151118
 20
0.1517111219768509
 10
0.2232073271388907
 20
0.1512997754231916
 10
0.2235331275779809
 20
0.1509741256985689
 10
0.2237560436678854
 20
0.1507341732062283
 10
0.2241847278325297
 20
0.1506313367694373
 10
0.2245619704462128
 20
0.1506484759739454
 10
0.2246991495784611
 20
0.1509398468863047
 10
0.2247162969699927
 20
0.151265496207681
 10
0.2248706234937716
 20
0.1514368906722468
 10
0.2248706234937716
 20
0.1510598229308518
 10
0.2250592448006135
 20
0.1508198704385112
 10
0.2252307187159241
 20
0.1506313367694373
 10
0.2255565185313826
 20
0.1505970575539267
 10
0.2260023507111903
 20
0.1506998943939649
 10
0.2262767089756867
 20
0.1509741256985689
 10
0.2263281511502806
 20
0.1513511934399639
 10
0.2264310354994664
 20
0.1516939827723428
 10
0.2263281511502806
 20
0.1520710505137378
 10
0.226602509414777
 20
0.1521567477460207
 10
0.2268597202877436
 20
0.1522424449783036
 10
0.22699689879636
 20
0.1526709315429645
 10
0.2269283098538672
 20
0.1531679757321539
 10
0.2266539515893708
 20
0.1533907886167384
 10
0.2261738246265007
 20
0.153459346241266
 10
0.2259509085365965
 20
0.1533393701967197
  0
LWPOLYLINE
  5
2287
330
2
100
AcDbEntity
  8
Profilo
  6
Continuous
370
     0
100
AcDbPolyline
 90
       42
 70
   129
 43
0.0
 10
0.2208238409633376
 20
0.1527737679797564
 10
0.2210981992278348
 20
0.153185114936662
 10
0.22154403078401
 20
0.1533736490089831
 10
0.2219898629638177
 20
0.153185114936662
 10
0.2222127790537219
 20
0.1528766048197946
 10
0.222315663402908
 20
0.1522767241938142
 10
0.2222127790537219
 20
0.1517625403968695
 10
0.221732652090852
 20
0.1514026118599835
 10
0.2221784842706598
 20
0.1514540302800021
 10
0.2225042847097499
 20
0.1512826358154363
 10
0.2225385794928113
 20
0.1507684520184925
 10
0.2224185477520938
 20
0.1502371290170398
 10
0.2221098947045352
 20
0.1500828741602292
 10
0.2216297677416651
 20
0.1499286189001715
 10
0.2212010829533889
 20
0.150048595347965
 10
0.2210467570532409
 20
0.1503742446693413
 10
0.2209438727040551
 20
0.1505113603216438
 10
0.2209781674871173
 20
0.1501857110002674
 10
0.2209953148786481
 20
0.1496543875955675
 10
0.2207209566141516
 20
0.1493115986664367
 10
0.2203437140004676
 20
0.1492773198541725
 10
0.2198978818206598
 20
0.1492601802464172
 10
0.2196063767882644
 20
0.1495344115510212
 10
0.2194006080898917
 20
0.1499457585079268
 10
0.2194349028729541
 20
0.1503228262493227
 10
0.2195549346136706
 20
0.1505970575539267
 10
0.2192634289576427
 20
0.1505627787416625
 10
0.2189890706931462
 20
0.1505113603216438
 10
0.2186118280794622
 20
0.1505970575539267
 10
0.2183717645980281
 20
0.1509227072785494
 10
0.2183717645980281
 20
0.1514197514677388
 10
0.2185775332964008
 20
0.1518825164414167
 10
0.2189376285185525
 20
0.1520710505137378
 10
0.2192634289576427
 20
0.1519853532814549
 10
0.2195720820052021
 20
0.1517625403968695
 10
0.2192119867830498
 20
0.1521567477460207
 10
0.2191433972169252
 20
0.1526195131229459
 10
0.2193148711322364
 20
0.1530651388921157
 10
0.2196578189628574
 20
0.1532365333566815
 10
0.2202065348682194
 20
0.1533565094012278
 10
0.2205323353073095
 20
0.1531508361243986
 10
0.220652367048027
 20
0.1527909075875117
  0
LWPOLYLINE
  5
2288
330
2
100
AcDbEntity
  8
Profilo
  6
Continuous
370
     0
100
AcDbPolyline
 90
       43
 70
   129
 43
0.0
 10
0.2220750910375815
 20
0.1458103660159601
 10
0.2225209232173892
 20
0.145621831943639
 10
0.2227095445242303
 20
0.1451933457822253
 10
0.2226581023496373
 20
0.1446791619852807
 10
0.2224523336512647
 20
0.1444563491006961
 10
0.2220579436460498
 20
0.1443706518684132
 10
0.2216292594814054
 20
0.1444734887084514
 10
0.2214577855660949
 20
0.1446448831730173
 10
0.2212348694761916
 20
0.1448162776375831
 10
0.2210805429524119
 20
0.1451933457822253
 10
0.2210633955608801
 20
0.1448505564498464
 10
0.2209090690371014
 20
0.1445763251452425
 10
0.2206347107726041
 20
0.1444392098961872
 10
0.2201717318248975
 20
0.1444049306806766
 10
0.2198459313858072
 20
0.1445077675207148
 10
0.219520130946717
 20
0.1447819988253188
 10
0.2193486570314065
 20
0.1450905089421862
 10
0.219468688772124
 20
0.1454675766835821
 10
0.2195887205128415
 20
0.1458103660159601
 10
0.2194343939890617
 20
0.1460160392927902
 10
0.2190057098244174
 20
0.1462388521773746
 10
0.2187827937345138
 20
0.1465645019019982
 10
0.2188856780836998
 20
0.1470786852956957
 10
0.2190571519990102
 20
0.1474214746280736
 10
0.2195887205128415
 20
0.1475071718603565
 10
0.2198973735604
 20
0.1475071718603565
 10
0.2202746161740841
 20
0.1473529166002997
 10
0.2202060266079597
 20
0.1475585898771289
 10
0.2202231739994903
 20
0.1480556340663174
 10
0.2205146796555192
 20
0.1482613077463938
 10
0.2208919216455697
 20
0.1484155626032043
 10
0.2215092277406879
 20
0.1484155626032043
 10
0.2218178807882476
 20
0.1481413312986003
 10
0.2219722073120274
 20
0.1476957055294304
 10
0.2217492912221229
 20
0.1470272668756761
 10
0.2219722073120274
 20
0.1473871954125631
 10
0.222246564952892
 20
0.1476785663249224
 10
0.222623807566575
 20
0.1475414506726199
 10
0.2229839027887276
 20
0.1471301037157143
 10
0.223155376704038
 20
0.1466501991342811
 10
0.2231039345294452
 20
0.1462045733651113
 10
0.222778134090355
 20
0.145827505220469
 10
0.2223323019105471
 20
0.1457760868004495
  0
LWPOLYLINE
  5
2289
330
2
100
AcDbEntity
  8
Profilo
  6
Continuous
370
     0
100
AcDbPolyline
 90
        8
 70
   128
 43
0.0
 10
0.2193179518754046
 20
0.1451839178688677
 10
0.2185223131578163
 20
0.1449645329864836
 10
0.2178364181202064
 20
0.145101648638786
 10
0.2173151376671145
 20
0.1454033027512528
 10
0.2172053939871363
 20
0.1458146497081584
 10
0.2177541105161299
 20
0.1459791885715699
 10
0.218549749233719
 20
0.1460066113794335
 10
0.2192082088190592
 20
0.1460066113794335
  0
LWPOLYLINE
  5
228A
330
2
100
AcDbEntity
  8
Profilo
  6
Continuous
370
     0
100
AcDbPolyline
 90
       22
 70
   128
 43
0.0
 10
0.2291399735036991
 20
0.1451290714466488
 10
0.2282894632579372
 20
0.1451839178688677
 10
0.22752125999262
 20
0.1451839178688677
 10
0.2267804934268363
 20
0.1448822633531538
 10
0.2262592129737443
 20
0.1446354552596597
 10
0.2256281888406753
 20
0.1444709167994954
 10
0.2248051146708161
 20
0.1444160703772755
 10
0.2241740911613788
 20
0.1445257628184681
 10
0.2241740911613788
 20
0.1448548405452911
 10
0.2246953716144706
 20
0.1451290714466488
 10
0.2254910097084269
 20
0.1454855723845817
 10
0.2261220338414961
 20
0.1459243421493509
 10
0.2268628004072799
 20
0.1461985734539549
 10
0.2277956182571164
 20
0.1461163042238723
 10
0.2272469017281225
 20
0.1463356891062565
 10
0.2264512636341662
 20
0.146719612852053
 10
0.2256281888406753
 20
0.1468567285043546
 10
0.2243112696699951
 20
0.1470212669645198
 10
0.2241740911613788
 20
0.1472406522501511
 10
0.2239271683491524
 20
0.1473777679024527
 10
0.2233784524437905
 20
0.1473777679024527
 10
0.2231040941792932
 20
0.1472954982691238
  0
LWPOLYLINE
  5
228B
330
2
100
AcDbEntity
  8
Profilo
  6
Continuous
370
     0
100
AcDbPolyline
 90
        5
 70
   128
 43
0.0
 10
0.2225828137262022
 20
0.147761691245002
 10
0.2231315296315641
 20
0.1482278846241275
 10
0.2225005061221267
 20
0.148611808369924
 10
0.2219517902167648
 20
0.1490505781346932
 10
0.2215128167441167
 20
0.1497635796073128
  0
LWPOLYLINE
  5
228C
330
2
100
AcDbEntity
  8
Profilo
  6
Continuous
370
     0
100
AcDbPolyline
 90
        8
 70
   128
 43
0.0
 10
0.2224730706698559
 20
0.1500926569308895
 10
0.2227748643866231
 20
0.1494893483027088
 10
0.2232961448397149
 20
0.1491602705758849
 10
0.2237076822364604
 20
0.1488311932523082
 10
0.2241192190095742
 20
0.1485843851588141
 10
0.2238448613687087
 20
0.1490505781346932
 10
0.2234607594242342
 20
0.1497087331850929
 10
0.2235156315760387
 20
0.1507233887701801
  0
LWPOLYLINE
  5
228D
330
2
100
AcDbEntity
  8
Profilo
  6
Continuous
370
     0
100
AcDbPolyline
 90
       35
 70
   128
 43
0.0
 10
0.2246679355385679
 20
0.1506136963289876
 10
0.2246679355385679
 20
0.1497087331850929
 10
0.2248051146708161
 20
0.1489957321157206
 10
0.224942293803065
 20
0.1487489240222265
 10
0.2248599861989897
 20
0.1494070786693798
 10
0.2250520368594105
 20
0.1498458488373954
 10
0.2254635742561561
 20
0.1503120418132736
 10
0.225792804048826
 20
0.1505588499067677
 10
0.2263963921059935
 20
0.1509153504414543
 10
0.2270548510677008
 20
0.1514912362617723
 10
0.2279327973893653
 20
0.1517380443552664
 10
0.2282894632579381
 20
0.1517380443552664
 10
0.2282894632579372
 20
0.1511073125159757
 10
0.2277956182571164
 20
0.150531427098905
 10
0.2272743378040254
 20
0.1501200801419994
 10
0.2267530573509334
 20
0.1495167715138187
 10
0.2264786990864371
 20
0.1487763468300892
 10
0.2266158782186853
 20
0.1482553078352374
 10
0.2269725440872581
 20
0.147789114456112
 10
0.2273840808603709
 20
0.1473229214802337
 10
0.2276310036725981
 20
0.1469938441566571
 10
0.22752125999262
 20
0.1475697295737278
 10
0.227658439124868
 20
0.1479810765306334
 10
0.227987668917538
 20
0.1485295387365952
 10
0.2284540778424563
 20
0.1489683089046106
 10
0.2288930506914727
 20
0.1492973862281874
 10
0.2294143311445636
 20
0.1493522326504072
 10
0.2296886894090609
 20
0.1491876937869948
 10
0.2295240748245418
 20
0.148639231581034
 10
0.2291948450318718
 20
0.148063345760716
 10
0.2288930506914727
 20
0.1474600371325353
 10
0.2288656152392019
 20
0.1469115745233272
 10
0.2289753582955483
 20
0.1463356891062565
 10
0.2291674089559692
 20
0.1457872264970484
 10
0.2292771520123154
 20
0.1455952648257742
  0
ARC
  5
228E
330
2
100
AcDbEntity
  8
Profilo
  6
Continuous
370
     0
100
AcDbCircle
 10
0.2096263011864095
 20
0.1622276710048721
 30
0.0
 40
0.0274790175935179
100
AcDbArc
 50
244.9896534293934
 51
304.0534020840914
  0
LWPOLYLINE
  5
228F
330
2
100
AcDbEntity
  8
Profilo
  6
Continuous
370
     0
100
AcDbPolyline
 90
       31
 70
   128
 43
0.0
 10
0.1935089998202557
 20
0.1411731799589869
 10
0.1929659697537656
 20
0.1409287036559612
 10
0.1928573640630653
 20
0.1404669145985315
 10
0.1930202730023629
 20
0.1399236330243378
 10
0.1935089998202557
 20
0.1395705000322933
 10
0.1939705756187211
 20
0.1395433358600386
 10
0.194595059953236
 20
0.1395976642045479
 10
0.1950023325031041
 20
0.1401409457787417
 10
0.1951652414424017
 20
0.1407657192460667
 10
0.1951109385970515
 20
0.1414991487787768
 10
0.1947036660471835
 20
0.1421782505906112
 10
0.1939705756187211
 20
0.1425313835826548
 10
0.1933189394582835
 20
0.1425585471312777
 10
0.1925586976071456
 20
0.1424498910658917
 10
0.1921514250572776
 20
0.1420424303529705
 10
0.1915812435681128
 20
0.1412818360243729
 10
0.1912554252862704
 20
0.1405755706639166
 10
0.1912554252862704
 20
0.1397334844421877
 10
0.1915269403195154
 20
0.1390272190817323
 10
0.1922871825739005
 20
0.1381579686877487
 10
0.1929659697537656
 20
0.1376418512858097
 10
0.1958983318708649
 20
0.1356860389907032
 10
0.1993609637084195
 20
0.1341698269186273
 10
0.203075060335083
 20
0.1331389878036577
 10
0.2062938713324434
 20
0.1326116225709923
 10
0.2090015676452872
 20
0.1324198382015287
 10
0.2122924521772085
 20
0.1324441567399623
 10
0.2158627775608953
 20
0.1329236164163555
 10
0.2197925318585155
 20
0.1340024016236908
 10
0.221844878450699
 20
0.1349180243133542
 10
0.2239282316420879
 20
0.1361327516720867
  0
LWPOLYLINE
  5
2290
330
2
100
AcDbEntity
  8
Profilo
  6
Continuous
370
     0
100
AcDbPolyline
 90
       19
 70
   128
 43
0.0
 10
0.225707166248694
 20
0.1394706636681432
 10
0.2230258539045594
 20
0.1376711867181996
 10
0.2195593000392135
 20
0.1361397169564067
 10
0.2166098563983019
 20
0.1351442615709168
 10
0.2130490732741104
 20
0.1344737378667821
 10
0.2112460054102041
 20
0.1344025315398611
 10
0.208864686279455
 20
0.1344262264460742
 10
0.206207533744027
 20
0.1345923757894876
 10
0.2039299744855516
 20
0.1349721447372957
 10
0.2010236367159426
 20
0.1357320642958303
 10
0.1991968442218213
 20
0.1363966597985863
 10
0.1980817890211759
 20
0.1369425774661761
 10
0.1973463275007303
 20
0.13708499074365
 10
0.1964210689385626
 20
0.137346081856291
 10
0.1952348402505175
 20
0.1378445286392655
 10
0.1944519290663946
 20
0.1383192399799342
 10
0.1938588145207485
 20
0.1388888930898297
 10
0.193526670504226
 20
0.1392923974799456
 10
0.1935029458740101
 20
0.1394348107574195
  0
LWPOLYLINE
  5
2291
330
2
100
AcDbEntity
  8
Profilo
  6
Continuous
370
     0
100
AcDbPolyline
 90
       53
 70
   128
 43
0.0
 10
0.1943807551757477
 20
0.1394585461997262
 10
0.1947128991922711
 20
0.1391737196447783
 10
0.1953060137379163
 20
0.1390550418096112
 10
0.1958991282835625
 20
0.1390075709249968
 10
0.1966820390644381
 20
0.1392211905293918
 10
0.197488674878777
 20
0.1396721664277528
 10
0.1985562808189913
 20
0.1402418195376493
 10
0.1990544968437755
 20
0.1405266460925971
 10
0.1991019461042065
 20
0.1407165308783171
 10
0.1995289882383437
 20
0.1406453239277642
 10
0.1996238867592057
 20
0.1402180840953426
 10
0.1996238867592057
 20
0.1399095220980872
 10
0.1997899587674674
 20
0.1399569929827016
 10
0.2002881747922507
 20
0.1400519353755611
 10
0.2009761874555116
 20
0.1401231417024821
 10
0.2018539967572492
 20
0.1401943486530349
 10
0.2023996620424644
 20
0.1401468771447888
 10
0.2024471113028954
 20
0.1399807284250082
 10
0.2023047635216024
 20
0.1397196373123672
 10
0.2028504288068176
 20
0.1396721664277528
 10
0.203253746713987
 20
0.1396009594772001
 10
0.2036807892513714
 20
0.1392211905293918
 10
0.2040129332678939
 20
0.1386990083041097
 10
0.2040129332678939
 20
0.1381293551942142
 10
0.2038943101168169
 20
0.1375834375266245
 10
0.2036333399909405
 20
0.137346081856291
 10
0.203301195974418
 20
0.1374172888068438
 10
0.203277471344202
 20
0.1376783799194849
 10
0.2032300220837711
 20
0.1380344128013537
 10
0.2029453273276796
 20
0.1382480330293813
 10
0.2025420094205101
 20
0.1384379171914687
 10
0.2024471113028954
 20
0.1384379171914687
 10
0.2024708355298641
 20
0.1382005621447669
 10
0.2024233866726803
 20
0.1380818843095998
 10
0.2021861407737726
 20
0.1379869419167403
 10
0.2017590982363882
 20
0.1380106773590469
 10
0.2014506788500807
 20
0.1380106773590469
 10
0.2010473609429113
 20
0.1380106773590469
 10
0.2009761874555116
 20
0.1380344128013537
 10
0.2010948102033423
 20
0.1376546438535455
 10
0.2010948102033423
 20
0.1372511394634306
 10
0.2010948102033423
 20
0.1369663129084828
 10
0.2008812889346505
 20
0.1367764287463946
 10
0.2005728695483431
 20
0.1368001641887013
 10
0.2004067975400814
 20
0.1369188420238685
 10
0.2002881747922507
 20
0.1371087261859567
 10
0.2001695516411737
 20
0.1371561976942028
 10
0.2000746535235589
 20
0.1370375198590356
 10
0.1997425095070364
 20
0.1370375198590356
 10
0.199315466969652
 20
0.1371324622518961
 10
0.1989121494657289
 20
0.1372511394634306
 10
0.1985562808189913
 20
0.13727487552937
 10
0.1979320495713426
 20
0.1373323790460641
  0
LWPOLYLINE
  5
2292
330
2
100
AcDbEntity
  8
Profilo
  6
Continuous
370
     0
100
AcDbPolyline
 90
       21
 70
   128
 43
0.0
 10
0.2287546667017744
 20
0.1435599408405425
 10
0.2292060598100909
 20
0.1432822891954298
 10
0.229414395378683
 20
0.1428658113245141
 10
0.2292755049996213
 20
0.1423105072277945
 10
0.2289282796756008
 20
0.1420328551794346
 10
0.2281991058091616
 20
0.1419634422681571
 10
0.2275741003506511
 20
0.1422063876592542
 10
0.2269838168632728
 20
0.1428311046672513
 10
0.226949094268508
 20
0.1436640604090827
 10
0.2272963195925286
 20
0.1446705486307337
 10
0.2281296606196312
 20
0.1449134944250779
 10
0.2291018926494275
 20
0.1449134944250779
 10
0.2296921755131731
 20
0.1447052552879965
 10
0.2304213493796113
 20
0.1440805382799993
 10
0.2308727424879289
 20
0.1433864087639701
 10
0.2308727424879289
 20
0.1426575721874327
 10
0.2306991301377341
 20
0.141616377308519
 10
0.2299699562712948
 20
0.1407140086554092
 10
0.2288935570808352
 20
0.1397422266877738
 10
0.2262199204020688
 20
0.1376598373331936
 10
0.2239282316420879
 20
0.1361327516720867
  0
LWPOLYLINE
  5
2293
330
2
100
AcDbEntity
  8
Profilo
  6
Continuous
370
     0
100
AcDbPolyline
 90
       43
 70
   128
 43
0.0
 10
0.2287893892965391
 20
0.1419287360141416
 10
0.2282338284039274
 20
0.1409222473892435
 10
0.2273657647820589
 20
0.1403322370385082
 10
0.2263935333758955
 20
0.1398463462563142
 10
0.2251435212116092
 20
0.1394645750426612
 10
0.2239282316420879
 20
0.1394298683853985
 10
0.2230601680202203
 20
0.1390480971717447
 10
0.2224698845328421
 20
0.1384233801637474
 10
0.2221226592088215
 20
0.1384580864177631
 10
0.222087936614056
 20
0.1386663255548446
 10
0.2218101558559342
 20
0.1383192605952072
 10
0.2212198729921886
 20
0.1385274997322887
 10
0.2210809826131267
 20
0.1389439776032043
 10
0.2211851503974228
 20
0.1394645750426612
 10
0.2206295895048103
 20
0.1392216296515642
 10
0.2199698608279024
 20
0.13897868385722
 10
0.2194837451248202
 20
0.138874564691926
 10
0.2192754095562287
 20
0.1383539672524699
 10
0.2188934616374427
 20
0.1383192605952072
 10
0.2185809589081869
 20
0.1386316188975826
 10
0.2184073459343605
 20
0.1391522163370386
 10
0.2183726233395948
 20
0.1399504658248553
 10
0.2186851260688505
 20
0.1405751828328525
 10
0.2193795773405239
 20
0.1409916607037681
 10
0.2199698608279024
 20
0.1409916607037681
 10
0.2204559765309836
 20
0.1408181282239496
 10
0.2201781963964937
 20
0.1411304865263249
 10
0.2203170861519227
 20
0.1414775514859622
 10
0.2208726470445355
 20
0.141512258143225
 10
0.2217059886952698
 20
0.141512258143225
 10
0.2222268269931177
 20
0.141512258143225
 10
0.2226434975066685
 20
0.1415469643972406
 10
0.2230948906149852
 20
0.1411998994376032
 10
0.2227476652909647
 20
0.141859322699616
 10
0.2228171104804952
 20
0.1421022684939602
 10
0.2231990583992813
 20
0.1421022684939602
 10
0.2237198966971282
 20
0.1419634422681571
 10
0.2243101801845067
 20
0.1416510839657817
 10
0.225039353427313
 20
0.1414081385746847
 10
0.2257338046989867
 20
0.1411998994376032
 10
0.2268796490789768
 20
0.1411998994376032
 10
0.2274352099715895
 20
0.1411998994376032
 10
0.2281991058091616
 20
0.1418940293568788
  0
CIRCLE
  5
2294
330
2
100
AcDbEntity
  8
Profilo
  6
Continuous
370
     0
100
AcDbCircle
 10
0.2193521156365084
 20
0.1773539484637719
 30
0.0
 40
0.0009535947695089
  0
CIRCLE
  5
2295
330
2
100
AcDbEntity
  8
Profilo
  6
Continuous
370
     0
100
AcDbCircle
 10
0.2205950529411222
 20
0.1730949176961948
 30
0.0
 40
0.000792288414856
  0
CIRCLE
  5
2296
330
2
100
AcDbEntity
  8
Profilo
  6
Continuous
370
     0
100
AcDbCircle
 10
0.225784316379426
 20
0.173623410455915
 30
0.0
 40
0.0007413188114154
  0
LWPOLYLINE
  5
2297
330
2
100
AcDbEntity
  8
Profilo
  6
Continuous
370
     0
100
AcDbPolyline
 90
       48
 70
   129
 43
0.0
 10
0.218703136066883
 20
0.178312214873625
 10
0.218343207529996
 20
0.1785865731381223
 10
0.2178633029485627
 20
0.1786208679211846
 10
0.217520514019431
 20
0.1783979518312803
 10
0.2174005375716375
 20
0.1779864150581675
 10
0.2174348163839018
 20
0.1774548459207045
 10
0.2175033744116759
 20
0.1771633402646765
 10
0.2177604661085246
 20
0.1770604559154897
 10
0.2181718130654311
 20
0.1770604559154897
 10
0.217709047688506
 20
0.1770090137408967
 10
0.2175890716439587
 20
0.1769061293917099
 10
0.2174862348039206
 20
0.176597476967783
 10
0.217520514019431
 20
0.1761687921795069
 10
0.2177433269040164
 20
0.1759973182641964
 10
0.2178975817608269
 20
0.1759458760896025
 10
0.2180175578053733
 20
0.1756886652166368
 10
0.2180689762253929
 20
0.1755343386928571
 10
0.2183774863422601
 20
0.1753971595606089
 10
0.2188059729069212
 20
0.1755171913013264
 10
0.2190459249960146
 20
0.1757744021742921
 10
0.2192344590683357
 20
0.1760487604387894
 10
0.2194572719529211
 20
0.1759115813065412
 10
0.219817200489808
 20
0.1757058126081675
 10
0.2201428502144306
 20
0.1756543704335746
 10
0.22055419676809
 20
0.1758086969573543
 10
0.2208798464927126
 20
0.1761344973964446
 10
0.2211197989850532
 20
0.176357413486348
 10
0.2212226354218443
 20
0.1767860976509924
 10
0.2212054962173361
 20
0.1771633402646765
 10
0.2209141253049769
 20
0.1773005193969247
 10
0.2205884759836004
 20
0.1773176667884554
 10
0.2204170815190347
 20
0.1774719933122352
 10
0.2207941492604297
 20
0.1774719933122352
 10
0.2210341017527704
 20
0.1776606146190772
 10
0.2212226354218443
 20
0.1778320885343877
 10
0.2212569146373549
 20
0.1781578883498452
 10
0.2211540777973165
 20
0.178603720529653
 10
0.2208798464927126
 20
0.1788780787941503
 10
0.2205027787513176
 20
0.1789295209687433
 10
0.2201599894189395
 20
0.1790324053179301
 10
0.2197829216775438
 20
0.1789295209687433
 10
0.2196972244452608
 20
0.1792038792332405
 10
0.2196115272129778
 20
0.1794610901062062
 10
0.2191830406483169
 20
0.1795982686148226
 10
0.2186859964591275
 20
0.1795296796723308
 10
0.2184631835745431
 20
0.1792553214078335
 10
0.2183946259500154
 20
0.1787751944449644
 10
0.2185146019945618
 20
0.17855227835506
  0
LWPOLYLINE
  5
2298
330
2
100
AcDbEntity
  8
Profilo
  6
Continuous
370
     0
100
AcDbPolyline
 90
       42
 70
   129
 43
0.0
 10
0.219080204211525
 20
0.1734252107818012
 10
0.2186688572546196
 20
0.1736995690462976
 10
0.2184803231822985
 20
0.1741454006024735
 10
0.2186688572546196
 20
0.1745912327822813
 10
0.218977367371487
 20
0.1748141488721847
 10
0.2195772479974674
 20
0.1749170332213715
 10
0.2200914317944119
 20
0.1748141488721847
 10
0.220451360331299
 20
0.1743340219093147
 10
0.2203999419112793
 20
0.1747798540891224
 10
0.2205713363758452
 20
0.1751056545282127
 10
0.2210855201727898
 20
0.175139949311275
 10
0.2216168431742417
 20
0.1750199175705574
 10
0.2217710980310522
 20
0.1747112645229988
 10
0.2219253532911099
 20
0.1742311375601287
 10
0.2218053768433164
 20
0.1738024527718517
 10
0.2214797275219402
 20
0.1736481268717046
 10
0.2213426118696378
 20
0.1735452425225187
 10
0.2216682611910141
 20
0.1735795373055801
 10
0.2221995845957141
 20
0.1735966846971116
 10
0.2225423735248457
 20
0.1733223264326143
 10
0.2225766523371091
 20
0.1729450838189311
 10
0.2225937919448643
 20
0.1724992516391234
 10
0.2223195606402604
 20
0.1722077466067272
 10
0.2219082136833546
 20
0.1720019779083545
 10
0.2215311459419589
 20
0.1720362726914167
 10
0.2212569146373549
 20
0.1721563044321342
 10
0.2212911934496191
 20
0.1718647987761063
 10
0.2213426118696378
 20
0.171590440511609
 10
0.2212569146373549
 20
0.1712131978979258
 10
0.220931264912732
 20
0.1709731344164907
 10
0.2204342207235435
 20
0.1709731344164907
 10
0.2199714557498649
 20
0.1711789031148635
 10
0.2197829216775438
 20
0.171538998337016
 10
0.2198686189098265
 20
0.1718647987761063
 10
0.2200914317944119
 20
0.1721734518236658
 10
0.2196972244452608
 20
0.1718133566015133
 10
0.2192344590683357
 20
0.1717447670353888
 10
0.2187888332991659
 20
0.1719162409506992
 10
0.2186174388345999
 20
0.1722591887813211
 10
0.2184974627900538
 20
0.1728079046866829
 10
0.218703136066883
 20
0.1731337051257732
 10
0.2190630646037699
 20
0.1732537368664898
  0
LWPOLYLINE
  5
2299
330
2
100
AcDbEntity
  8
Profilo
  6
Continuous
370
     0
100
AcDbPolyline
 90
       43
 70
   129
 43
0.0
 10
0.2260436061753215
 20
0.1746764608560441
 10
0.2262321402476426
 20
0.1751222930358519
 10
0.2266606264090571
 20
0.175310914342694
 10
0.2271748102060008
 20
0.175259472168101
 10
0.2273976230905862
 20
0.1750537034697283
 10
0.2274833203228692
 20
0.1746593134645135
 10
0.227380483482831
 20
0.1742306292998691
 10
0.2272090890182651
 20
0.1740591553845586
 10
0.2270376945536994
 20
0.1738362392946543
 10
0.2266606264090571
 20
0.1736819127708754
 10
0.2270034157414351
 20
0.1736647653793438
 10
0.2272776470460391
 20
0.173510438855564
 10
0.2274147622950944
 20
0.1732360805910676
 10
0.227449041510605
 20
0.172773101643361
 10
0.2273462046705668
 20
0.1724473012042708
 10
0.2270719733659627
 20
0.1721215007651805
 10
0.2267634632490953
 20
0.17195002684987
 10
0.2263863955076993
 20
0.1720700585905875
 10
0.2260436061753215
 20
0.172190090331305
 10
0.2258379328984913
 20
0.1720357638075253
 10
0.2256151200139068
 20
0.1716070796428809
 10
0.2252894702892834
 20
0.1713841635529766
 10
0.2247752868955867
 20
0.1714870479021634
 10
0.2244324975632078
 20
0.1716585218174739
 10
0.2243468003309249
 20
0.172190090331305
 10
0.2243468003309249
 20
0.1724987433788637
 10
0.2245010555909826
 20
0.1728759859925469
 10
0.2242953823141526
 20
0.1728073964264233
 10
0.2237983381249641
 20
0.172824543817954
 10
0.2235926644448877
 20
0.1731160494739819
 10
0.2234384095880773
 20
0.1734932914640334
 10
0.2234384095880773
 20
0.1741105975591516
 10
0.2237126408926811
 20
0.1744192506067111
 10
0.2241582666618511
 20
0.17457357713049
 10
0.2248267053156053
 20
0.1743506610405866
 10
0.2244667767787185
 20
0.17457357713049
 10
0.2241754058663591
 20
0.1748479347713555
 10
0.2243125215186617
 20
0.1752251773850387
 10
0.2247238684755672
 20
0.1755852726071912
 10
0.2252037730570003
 20
0.1757567465225017
 10
0.2256493988261702
 20
0.1757053043479088
 10
0.2260264669708125
 20
0.1753795039088185
 10
0.2260778853908319
 20
0.1749336717290107
  0
LWPOLYLINE
  5
229A
330
2
100
AcDbEntity
  8
Profilo
  6
Continuous
370
     0
100
AcDbPolyline
 90
        8
 70
   128
 43
0.0
 10
0.2266700543224137
 20
0.1719193216938682
 10
0.226889439204798
 20
0.17112368297628
 10
0.2267523235524963
 20
0.170437787938669
 10
0.2264506694400286
 20
0.1699165074855781
 10
0.2260393224831231
 20
0.1698067638055999
 10
0.2258747836197116
 20
0.1703554803345936
 10
0.225847360811849
 20
0.1711511190521818
 10
0.225847360811849
 20
0.1718095786375219
  0
LWPOLYLINE
  5
229B
330
2
100
AcDbEntity
  8
Profilo
  6
Continuous
370
     0
100
AcDbPolyline
 90
       22
 70
   128
 43
0.0
 10
0.2267249007446336
 20
0.1817413433221627
 10
0.2266700543224137
 20
0.1808908330764008
 10
0.2266700543224137
 20
0.1801226298110826
 10
0.2269717088381276
 20
0.1793818632452998
 10
0.2272185169316219
 20
0.1788605827922079
 10
0.2273830553917862
 20
0.1782295586591388
 10
0.227437901814006
 20
0.1774064844892796
 10
0.2273282093728135
 20
0.1767754609798423
 10
0.2269991316459905
 20
0.1767754609798423
 10
0.2267249007446336
 20
0.1772967414329333
 10
0.2263683998066999
 20
0.1780923795268897
 10
0.2259296300419305
 20
0.1787234036599597
 10
0.2256553987373266
 20
0.1794641702257426
 10
0.2257376679674092
 20
0.1803969880755799
 10
0.2255182830850251
 20
0.1798482715465862
 10
0.2251343593392284
 20
0.1790526334526298
 10
0.224997243686927
 20
0.1782295586591388
 10
0.2248327052267617
 20
0.1769126394884587
 10
0.2246133199411303
 20
0.1767754609798423
 10
0.2244762042888289
 20
0.1765285381676159
 10
0.2244762042888289
 20
0.175979822262254
 10
0.2245584739221578
 20
0.1757054639977568
  0
LWPOLYLINE
  5
229C
330
2
100
AcDbEntity
  8
Profilo
  6
Continuous
370
     0
100
AcDbPolyline
 90
        5
 70
   128
 43
0.0
 10
0.2240922809462795
 20
0.1751841835446649
 10
0.2236260875671539
 20
0.1757328994500268
 10
0.2232421638213574
 20
0.1751018759405894
 10
0.2228033940565882
 20
0.1745531600352276
 10
0.2220903925839686
 20
0.1741141865625803
  0
LWPOLYLINE
  5
229D
330
2
100
AcDbEntity
  8
Profilo
  6
Continuous
370
     0
100
AcDbPolyline
 90
        8
 70
   128
 43
0.0
 10
0.2217613152603921
 20
0.1750744404883194
 10
0.2223646238885727
 20
0.1753762342050867
 10
0.2226937016153966
 20
0.1758975146581786
 10
0.2230227789389734
 20
0.1763090520549241
 10
0.2232695870324675
 20
0.1767205888280369
 10
0.2228033940565882
 20
0.1764462311871723
 10
0.2221452390061885
 20
0.1760621292426968
 10
0.2211305834211015
 20
0.1761170013945022
  0
LWPOLYLINE
  5
229E
330
2
100
AcDbEntity
  8
Profilo
  6
Continuous
370
     0
100
AcDbPolyline
 90
       35
 70
   128
 43
0.0
 10
0.221240275862294
 20
0.1772693053570314
 10
0.2221452390061885
 20
0.1772693053570314
 10
0.222858240075561
 20
0.1774064844892796
 10
0.223105048169056
 20
0.1775436636215278
 10
0.2224468935219026
 20
0.1774613560174524
 10
0.2220081233538861
 20
0.1776534066778742
 10
0.2215419303780078
 20
0.1780649440746197
 10
0.2212951222845139
 20
0.1783941738672897
 10
0.2209386217498273
 20
0.178997761924457
 10
0.2203627359295093
 20
0.1796562208861644
 10
0.2201159278360151
 20
0.1805341672078281
 10
0.2201159278360151
 20
0.1808908330764008
 10
0.2207466596753057
 20
0.1808908330764008
 10
0.2213225450923766
 20
0.1803969880755799
 10
0.221733892049282
 20
0.179875707622488
 10
0.2223372006774629
 20
0.1793544271693971
 10
0.2230776253611923
 20
0.1790800689048998
 10
0.2235986643560441
 20
0.1792172480371489
 10
0.2240648577351696
 20
0.1795739139057207
 10
0.2245310507110478
 20
0.1799854506788344
 10
0.2248601280346245
 20
0.1802323734910608
 10
0.2242842426175537
 20
0.1801226298110826
 10
0.223872895660648
 20
0.1802598089433317
 10
0.2233244334546872
 20
0.1805890387360017
 10
0.2228856632866708
 20
0.18105544766092
 10
0.2225565859630942
 20
0.1814944205099355
 10
0.2225017395408753
 20
0.1820157009630273
 10
0.2226662784042868
 20
0.1822900592275246
 10
0.2232147406102476
 20
0.1821254446430055
 10
0.2237906264305654
 20
0.1817962148503355
 10
0.2243939350587463
 20
0.1814944205099355
 10
0.2249423976679542
 20
0.1814669850576654
 10
0.2255182830850251
 20
0.1815767281140109
 10
0.2260667456942331
 20
0.1817687787744327
 10
0.2262587073655073
 20
0.1818785218307791
  0
ARC
  5
229F
330
2
100
AcDbEntity
  8
Profilo
  6
Continuous
370
     0
100
AcDbCircle
 10
0.2096263011864095
 20
0.1622276710048721
 30
0.0
 40
0.0274790175935179
100
AcDbArc
 50
334.9896534293933
 51
34.05340208409139
  0
LWPOLYLINE
  5
22A0
330
2
100
AcDbEntity
  8
Profilo
  6
Continuous
370
     0
100
AcDbPolyline
 90
       31
 70
   128
 43
0.0
 10
0.2306807922322946
 20
0.1461103696387193
 10
0.2309252685353205
 20
0.1455673395722291
 10
0.231387057592751
 20
0.1454587338815288
 10
0.2319303391669447
 20
0.1456216428208264
 10
0.2322834721589884
 20
0.1461103696387193
 10
0.2323106363312429
 20
0.1465719454371838
 10
0.2322563079867336
 20
0.1471964297716995
 10
0.23171302641254
 20
0.1476037023215676
 10
0.2310882529452158
 20
0.1477666112608652
 10
0.2303548234125047
 20
0.1477123084155151
 10
0.2296757216006704
 20
0.147305035865647
 10
0.2293225886086267
 20
0.1465719454371838
 10
0.2292954250600039
 20
0.145920309276747
 10
0.2294040811253898
 20
0.1451600674256083
 10
0.2298115418383111
 20
0.1447527948757411
 10
0.2305721361669086
 20
0.1441826133865755
 10
0.231278401527365
 20
0.143856795104733
 10
0.2321204877490939
 20
0.143856795104733
 10
0.2328267531095502
 20
0.144128310137979
 10
0.2336960035035328
 20
0.1448885523923632
 10
0.2342121209054718
 20
0.1455673395722291
 10
0.2361679332005784
 20
0.1484997016893276
 10
0.2376841452726552
 20
0.151962333526883
 10
0.2387149843876238
 20
0.1556764301535457
 10
0.2392423496202893
 20
0.1588952411509069
 10
0.239434133989753
 20
0.1616029374637508
 10
0.2394098154513193
 20
0.1648938219956711
 10
0.2389303557749259
 20
0.1684641473793581
 10
0.2378515705675908
 20
0.1723939016769792
 10
0.2369359478779274
 20
0.1744462482691625
 10
0.235721220519195
 20
0.1765296014605514
  0
LWPOLYLINE
  5
22A1
330
2
100
AcDbEntity
  8
Profilo
  6
Continuous
370
     0
100
AcDbPolyline
 90
       19
 70
   128
 43
0.0
 10
0.2323833085231384
 20
0.1783085360671576
 10
0.2341827854730819
 20
0.1756272237230222
 10
0.235714255234875
 20
0.1721606698576771
 10
0.2367097106203647
 20
0.1692112262167654
 10
0.2373802343244995
 20
0.1656504430925739
 10
0.2374514406514204
 20
0.1638473752286676
 10
0.2374277457452073
 20
0.1614660560979185
 10
0.2372615964017941
 20
0.1588089035624897
 10
0.2368818274539859
 20
0.1565313443040152
 10
0.2361219078954511
 20
0.1536250065344061
 10
0.2354573123926952
 20
0.1517982140402839
 10
0.2349113947251065
 20
0.1506831588396386
 10
0.2347689814476316
 20
0.1499476973191939
 10
0.2345078903349905
 20
0.1490224387570252
 10
0.2340094435520161
 20
0.1478362100689802
 10
0.2335347322113475
 20
0.1470532988848573
 10
0.2329650791014518
 20
0.146460184339212
 10
0.232561574711337
 20
0.1461280403226887
 10
0.2324191614338622
 20
0.1461043156924736
  0
LWPOLYLINE
  5
22A2
330
2
100
AcDbEntity
  8
Profilo
  6
Continuous
370
     0
100
AcDbPolyline
 90
       53
 70
   128
 43
0.0
 10
0.2323954259915555
 20
0.1469821249942113
 10
0.2326802525465033
 20
0.1473142690107337
 10
0.2327989303816703
 20
0.1479073835563799
 10
0.2328464012662847
 20
0.1485004981020261
 10
0.2326327816618897
 20
0.1492834088829017
 10
0.2321818057635288
 20
0.1500900446972396
 10
0.2316121526536322
 20
0.151157650637454
 10
0.2313273260986844
 20
0.1516558666622382
 10
0.2311374413129644
 20
0.1517033159226692
 10
0.2312086482635173
 20
0.1521303580568073
 10
0.2316358880959389
 20
0.1522252565776693
 10
0.2319444500931943
 20
0.1522252565776693
 10
0.2318969792085801
 20
0.1523913285859301
 10
0.2318020368157204
 20
0.1528895446107142
 10
0.2317308304887995
 20
0.1535775572739751
 10
0.2316596235382466
 20
0.1544553665757128
 10
0.2317070950464926
 20
0.1550010318609279
 10
0.2318732437662734
 20
0.1550484811213589
 10
0.2321343348789143
 20
0.154906133340066
 10
0.2321818057635288
 20
0.1554517986252811
 10
0.2322530127140816
 20
0.1558551165324505
 10
0.2326327816618897
 20
0.156282159069835
 10
0.2331549638871718
 20
0.1566143030863575
 10
0.2337246169970675
 20
0.1566143030863575
 10
0.2342705346646571
 20
0.1564956799352805
 10
0.2345078903349905
 20
0.156234709809404
 10
0.2344366833844377
 20
0.1559025657928806
 10
0.2341755922717967
 20
0.1558788411626656
 10
0.2338195593899278
 20
0.1558313919022346
 10
0.2336059391619011
 20
0.1555466971461431
 10
0.233416054999813
 20
0.1551433792389737
 10
0.233416054999813
 20
0.1550484811213589
 10
0.2336534100465146
 20
0.1550722053483277
 10
0.2337720878816818
 20
0.155024756491143
 10
0.2338670302745422
 20
0.1547875105922353
 10
0.2338432948322346
 20
0.1543604680548508
 10
0.2338432948322346
 20
0.1540520486685434
 10
0.2338432948322346
 20
0.1536487307613749
 10
0.2338195593899278
 20
0.1535775572739751
 10
0.234199328337736
 20
0.1536961800218058
 10
0.2346028327278511
 20
0.1536961800218058
 10
0.2348876592827989
 20
0.1536961800218058
 10
0.2350775434448869
 20
0.1534826587531132
 10
0.2350538080025803
 20
0.1531742393668057
 10
0.234935130167413
 20
0.1530081673585449
 10
0.234745246005325
 20
0.1528895446107142
 10
0.2346977744970788
 20
0.1527709214596372
 10
0.234816452332246
 20
0.1526760233420216
 10
0.234816452332246
 20
0.1523438793254991
 10
0.2347215099393854
 20
0.1519168367881146
 10
0.2346028327278511
 20
0.1515135192841924
 10
0.2345790966619115
 20
0.151157650637454
 10
0.2345215931452176
 20
0.1505334193898062
  0
LWPOLYLINE
  5
22A3
330
2
100
AcDbEntity
  8
Profilo
  6
Continuous
370
     0
100
AcDbPolyline
 90
       21
 70
   128
 43
0.0
 10
0.2282940313507391
 20
0.1813560365202379
 10
0.2285716829958517
 20
0.1818074296285544
 10
0.2289881608667682
 20
0.1820157651971458
 10
0.2295434649634871
 20
0.1818768748180849
 10
0.2298211170118468
 20
0.1815296494940636
 10
0.2298905299231252
 20
0.1808004756276252
 10
0.2296475845320283
 20
0.1801754701691139
 10
0.2290228675240302
 20
0.1795851866817365
 10
0.2281899117821987
 20
0.1795504640869708
 10
0.2271834235605479
 20
0.1798976894109921
 10
0.2269404777662036
 20
0.1807310304380948
 10
0.2269404777662036
 20
0.1817032624678901
 10
0.2271487169032851
 20
0.1822935453316358
 10
0.2277734339112822
 20
0.183022719198075
 10
0.2284675634273113
 20
0.1834741123063915
 10
0.2291964000038498
 20
0.1834741123063915
 10
0.2302375948827626
 20
0.1833004999561977
 10
0.2311399635358724
 20
0.1825713260897584
 10
0.2321117455035078
 20
0.1814949268992988
 10
0.2341941348580879
 20
0.1788212902205316
 10
0.235721220519195
 20
0.1765296014605514
  0
LWPOLYLINE
  5
22A4
330
2
100
AcDbEntity
  8
Profilo
  6
Continuous
370
     0
100
AcDbPolyline
 90
       43
 70
   128
 43
0.0
 10
0.2299252361771409
 20
0.1813907591150027
 10
0.230931724802038
 20
0.18083519822239
 10
0.2315217351527733
 20
0.1799671346005226
 10
0.2320076259349675
 20
0.1789949031943582
 10
0.2323893971486204
 20
0.177744891030072
 10
0.232424103805883
 20
0.1765296014605514
 10
0.232805875019537
 20
0.1756615378386831
 10
0.2334305920275341
 20
0.1750712543513057
 10
0.2333958857735184
 20
0.1747240290272843
 10
0.2331876466364371
 20
0.1746893064325196
 10
0.2335347115960743
 20
0.1744115256743969
 10
0.233326472458993
 20
0.1738212428106512
 10
0.2329099945880773
 20
0.1736823524315903
 10
0.2323893971486204
 20
0.1737865202158865
 10
0.2326323425397173
 20
0.1732309593232738
 10
0.2328752883340617
 20
0.172571230646365
 10
0.2329794074993556
 20
0.1720851149432837
 10
0.2335000049388125
 20
0.1718767793746915
 10
0.2335347115960743
 20
0.1714948314559054
 10
0.2332223532936999
 20
0.1711823287266497
 10
0.232701755854243
 20
0.171008715752824
 10
0.2319035063664262
 20
0.1709739931580584
 10
0.2312787893584292
 20
0.171286495887314
 10
0.2308623114875135
 20
0.1719809471589876
 10
0.2308623114875135
 20
0.172571230646365
 10
0.2310358439673321
 20
0.1730573463494472
 10
0.2307234856649566
 20
0.1727795662149573
 10
0.2303764207053194
 20
0.1729184559703863
 10
0.2303417140480566
 20
0.173474016862999
 10
0.2303417140480566
 20
0.1743073585137335
 10
0.2303417140480566
 20
0.1748281968115805
 10
0.230307007794041
 20
0.1752448673251322
 10
0.2306540727536782
 20
0.1756962604334488
 10
0.2299946494916656
 20
0.1753490351094283
 10
0.2297517036973213
 20
0.1754184802989588
 10
0.2297517036973213
 20
0.1758004282177449
 10
0.2298905299231252
 20
0.1763212665155919
 10
0.2302028882254998
 20
0.1769115500029693
 10
0.2304458336165969
 20
0.1776407232457767
 10
0.2306540727536782
 20
0.1783351745174503
 10
0.2306540727536782
 20
0.1794810188974404
 10
0.2306540727536782
 20
0.180036579790053
 10
0.2299599428344027
 20
0.1808004756276252
  0
LWPOLYLINE
  5
22A5
330
2
100
AcDbEntity
  8
Profilo
  6
Continuous
370
     0
100
AcDbPolyline
 90
       22
 70
   128
 43
0.0
 10
0.2017648233508764
 20
0.1675620916458701
 10
0.2008762721633055
 20
0.168580203460443
 10
0.2004861764895607
 20
0.1700098924859222
 10
0.2006480633067478
 20
0.1709634759193482
 10
0.2007776048151932
 20
0.1716108856486528
 10
0.2009071469472714
 20
0.1718051087287428
 10
0.2013281579410766
 20
0.1717403674332146
 10
0.2017491689348809
 20
0.1712548105394841
 10
0.202040637796608
 20
0.1708663647825505
 10
0.2025588057012879
 20
0.1704779190256168
 10
0.2030769729823352
 20
0.1702513252977628
 10
0.2035951402633824
 20
0.170154214160965
 10
0.2041133075444306
 20
0.1699276208363581
 10
0.2047286311127199
 20
0.1693773226470986
 10
0.2050201005980796
 20
0.168827024457839
 10
0.2050201005980796
 20
0.1681472440807704
 10
0.2050848716641183
 20
0.167564575646994
 10
0.2052467990173998
 20
0.1674027232146681
 10
0.2055382678791269
 20
0.167370352566904
 10
0.2055382678791269
 20
0.167661687187039
 10
0.2053439553046419
 20
0.1679530214039276
 10
0.2051820279513603
 20
0.1680501329439726
  0
LWPOLYLINE
  5
22A6
330
2
100
AcDbEntity
  8
Profilo
  6
Continuous
370
     0
100
AcDbPolyline
 90
       24
 70
   128
 43
0.0
 10
0.2036275254845858
 20
0.1702189550532459
 10
0.2031741292695781
 20
0.1710605874593932
 10
0.2032065144907815
 20
0.1718051087287428
 10
0.2032389003356168
 20
0.172549629594846
 10
0.2032389003356168
 20
0.1736178553256001
 10
0.2033684418440622
 20
0.1737797077579261
 10
0.2037246817718288
 20
0.1736502259733642
 10
0.2043400059637508
 20
0.1731970393241496
 10
0.2049553295320401
 20
0.1726791113794078
 10
0.2053439553046419
 20
0.1724201478102832
 10
0.2056354241663689
 20
0.1721288135933955
 10
0.205667810011205
 20
0.1716756265409337
 10
0.2056840537596483
 20
0.1710094605869091
 10
0.2057398757033255
 20
0.1705630888109079
 10
0.2059743296129375
 20
0.1701613540512085
 10
0.2063762506008457
 20
0.1694471589676588
 10
0.2065883753588082
 20
0.1689226718082603
 10
0.206621868774467
 20
0.1683647070882598
 10
0.2067893352291297
 20
0.1681192022888614
 10
0.2069344737794065
 20
0.1681080432364096
 10
0.2070572825544013
 20
0.1683647070882598
 10
0.2069791314590745
 20
0.16864368944826
 10
0.20681166438078
 20
0.1688445568281102
 10
0.2067000198697937
 20
0.1689003533001102
  0
LWPOLYLINE
  5
22A7
330
2
100
AcDbEntity
  8
Profilo
  6
Continuous
370
     0
100
AcDbPolyline
 90
       23
 70
   128
 43
0.0
 10
0.2054045243367801
 20
0.1724731207472393
 10
0.2057370612511147
 20
0.1731932830789441
 10
0.2061511966996898
 20
0.1737517046777229
 10
0.2065650203321561
 20
0.1742736687210445
 10
0.2068704610501479
 20
0.1746085132822962
 10
0.2070675194772991
 20
0.1748251778608519
 10
0.2072153134535697
 20
0.1748153293609412
 10
0.2073434018989426
 20
0.1745494230893246
 10
0.2077178132223454
 20
0.1740274594492502
 10
0.208131636231178
 20
0.1733380729236792
 10
0.2083878124982912
 20
0.1728850479764862
 10
0.2084469303382523
 20
0.1721562682577659
 10
0.2085071083529881
 20
0.1715108820215846
 10
0.2084913435540898
 20
0.1705339231697896
 10
0.2083652257865334
 20
0.1694781775284481
 10
0.2083809905854326
 20
0.1688793961536147
 10
0.208444049157394
 20
0.1685642481889381
 10
0.2086174606980136
 20
0.1684854613993923
 10
0.2087751080633666
 20
0.1685957631467042
 10
0.2088696962331256
 20
0.1689581833464068
 10
0.2088381666353281
 20
0.1692575740338235
 10
0.2087435784655691
 20
0.169619994233526
 10
0.2085544021260512
 20
0.1700454439455145
  0
LWPOLYLINE
  5
22A8
330
2
100
AcDbEntity
  8
Profilo
  6
Continuous
370
     0
100
AcDbPolyline
 90
       20
 70
   128
 43
0.0
 10
0.2085071083529881
 20
0.1722357224209906
 10
0.208932754805087
 20
0.1731181368027336
 10
0.2095160479989071
 20
0.1739690362267104
 10
0.2098944006779428
 20
0.1744417581737257
 10
0.2100835770174607
 20
0.1746938766261165
 10
0.2105741392182738
 20
0.1752004055864796
 10
0.2108736685264489
 20
0.1750901038391678
 10
0.2112204916076872
 20
0.1746016246148935
 10
0.2116776676575836
 20
0.1738295119804615
 10
0.2121190789085807
 20
0.1730416420687705
 10
0.2121663726816447
 20
0.1723168016693654
 10
0.2122294318772389
 20
0.1713398428175695
 10
0.2120717845118858
 20
0.1705204579481124
 10
0.2117564910284442
 20
0.1698586474642395
 10
0.2111574324120931
 20
0.1691810792998604
 10
0.2111259034379282
 20
0.1686925996723388
 10
0.2112362564065864
 20
0.1685507833705072
 10
0.2113939031483067
 20
0.1685980552022869
 10
0.2115357850911288
 20
0.1689762330824965
 10
0.2115357850911288
 20
0.1695277418190567
  0
LWPOLYLINE
  5
22A9
330
2
100
AcDbEntity
  8
Profilo
  6
Continuous
370
     0
100
AcDbPolyline
 90
       22
 70
   128
 43
0.0
 10
0.2024415859182522
 20
0.1568738989466766
 10
0.2012416445613063
 20
0.1562742058305216
 10
0.1994572058084796
 20
0.156057480578624
 10
0.1985436289130569
 20
0.1563883715426891
 10
0.1979679361988762
 20
0.1567116334471062
 10
0.1978232497932411
 20
0.1568948535684015
 10
0.1980149219761309
 20
0.157275252656936
 10
0.1986068135758503
 20
0.1575256125741266
 10
0.1990663162758139
 20
0.1576827795940842
 10
0.1995958728326583
 20
0.1580555502160793
 10
0.1999714987698582
 20
0.1584783352725253
 10
0.2002239794450873
 20
0.1589411326500828
 10
0.200599604998777
 20
0.1593639178311384
 10
0.201313115117218
 20
0.1597790738279355
 10
0.2019265488203363
 20
0.1598862262888326
 10
0.2025730583775973
 20
0.1596761625998754
 10
0.2031472243485297
 20
0.1595577090961763
 10
0.2033511934629895
 20
0.1596616960085114
 10
0.2034720486100865
 20
0.1599288962884765
 10
0.2031949729211846
 20
0.1600189236371475
 10
0.202857851728057
 20
0.1599241486210475
 10
0.2027154548610721
 20
0.1598001556727663
  0
LWPOLYLINE
  5
22AA
330
2
100
AcDbEntity
  8
Profilo
  6
Continuous
370
     0
100
AcDbPolyline
 90
       24
 70
   128
 43
0.0
 10
0.2001724147813315
 20
0.158991938861685
 10
0.1992318676615163
 20
0.1588208121534546
 10
0.1985337934404996
 20
0.1590816820540141
 10
0.1978357197957063
 20
0.1593425524230735
 10
0.1968197767535982
 20
0.1596726523277047
 10
0.196705876470743
 20
0.1598458687756125
 10
0.1969391051574469
 20
0.1601446610083877
 10
0.1975602569056341
 20
0.1605898267145175
 10
0.1982429810920936
 20
0.1610149856669828
 10
0.1986093620501779
 20
0.1613045665966325
 10
0.1989765061871742
 20
0.1614917427328141
 10
0.1994175204629498
 20
0.1613825010007396
 10
0.2000561015287803
 20
0.1611920931226777
 10
0.2004978762442919
 20
0.1611072464813702
 10
0.2009523989477941
 20
0.1612060825318998
 10
0.2017558392515693
 20
0.1613676336883699
 10
0.2023202063373664
 20
0.1614073008761124
 10
0.2028612123548241
 20
0.1612667344265851
 10
0.2031464512745524
 20
0.1613501393343387
 10
0.2032019144426764
 20
0.1614847259614963
 10
0.2029957626124095
 20
0.161680837539277
 10
0.2027062846044141
 20
0.1616927217211813
 10
0.2024634982007056
 20
0.1615955224990934
 10
0.2023759325512
 20
0.1615065843174864
  0
LWPOLYLINE
  5
22AB
330
2
100
AcDbEntity
  8
Profilo
  6
Continuous
370
     0
100
AcDbPolyline
 90
       23
 70
   128
 43
0.0
 10
0.1985776986535621
 20
0.1613785407070946
 10
0.1979955431329909
 20
0.161917344505586
 10
0.1975924275242156
 20
0.1624837724866323
 10
0.197223888754648
 20
0.1630386379087237
 10
0.1969998190253579
 20
0.1634326019538127
 10
0.1968546531689459
 20
0.1636869686918988
 10
0.196909690499296
 20
0.1638244857622592
 10
0.1972021638980437
 20
0.1638641355560523
 10
0.1978142802810237
 20
0.1640589262497206
 10
0.198597804170807
 20
0.1642394631667695
 10
0.1991078193189726
 20
0.1643431088673685
 10
0.1998191984366235
 20
0.1641741279560523
 10
0.2004515932513124
 20
0.1640319253341896
 10
0.2013758647426924
 20
0.1637150352314588
 10
0.2023409659809732
 20
0.1632688467618925
 10
0.2029153125001166
 20
0.1630988063558746
 10
0.2032345221958967
 20
0.1630613925448191
 10
0.2033630399985642
 20
0.1632019702636244
 10
0.2033068525180364
 20
0.1633859869321487
 10
0.2029913997773953
 20
0.1635879396281753
 10
0.2026969191316639
 20
0.1636504700091036
 10
0.202323007687178
 20
0.1636725053147024
 10
0.20185992226239
 20
0.1636240591155319
  0
LWPOLYLINE
  5
22AC
330
2
100
AcDbEntity
  8
Profilo
  6
Continuous
370
     0
100
AcDbPolyline
 90
       20
 70
   128
 43
0.0
 10
0.1997622290661838
 20
0.1642559133358151
 10
0.1990545351056483
 20
0.1649334082077617
 10
0.1984255291733563
 20
0.1657510953831677
 10
0.198092861292942
 20
0.1662570092792638
 10
0.1979115410997621
 20
0.1665148355560747
 10
0.1975813954881656
 20
0.1671379139907015
 10
0.1977788583302449
 20
0.167388698176634
 10
0.1983506039057101
 20
0.1675675981463479
 10
0.1992262018268385
 20
0.1677638024820845
 10
0.200111914218412
 20
0.1679401443366432
 10
0.2008158929831449
 20
0.1677611353860694
 10
0.2017645224283877
 20
0.1675192113569416
 10
0.2024950880328264
 20
0.1671160759532494
 10
0.2030270761614672
 20
0.1666117033447051
 10
0.2034863624863548
 20
0.1658325846663414
 10
0.2039411912303539
 20
0.1656516503236997
 10
0.2041101674910231
 20
0.1657127785862883
 10
0.2041139248296713
 20
0.1658773173466498
 10
0.2037981002239066
 20
0.1661291184847972
 10
0.2032735842462074
 20
0.1662995440569407
  0
LWPOLYLINE
  5
22AD
330
2
100
AcDbEntity
  8
Profilo
  6
Continuous
370
     0
100
AcDbPolyline
 90
       22
 70
   128
 43
0.0
 10
0.2125796281851573
 20
0.1537187723346255
 10
0.2128298874297629
 20
0.1521702621638242
 10
0.2123520777088743
 20
0.1506495928806254
 10
0.2117550709149631
 20
0.1498829805522787
 10
0.2112697317420784
 20
0.1494353576671713
 10
0.2110507684936078
 20
0.149354370849465
 10
0.2107482174235262
 20
0.1496542117109966
 10
0.2106930155560038
 20
0.1502944995429723
 10
0.2106855349807761
 20
0.1507800798601501
 10
0.2104946510271912
 20
0.1513989105314838
 10
0.21020863334239
 20
0.1518867997941567
 10
0.209846507700137
 20
0.1522699354401892
 10
0.2095604897783121
 20
0.1527578243766289
 10
0.2093861397145365
 20
0.1535647030825421
 10
0.2094737931075488
 20
0.1541812251346138
 10
0.209873357987987
 20
0.154731179012105
 10
0.2101634410071684
 20
0.1552406391545092
 10
0.2101275734992785
 20
0.1554667590330435
 10
0.2099107972261731
 20
0.1556642685356285
 10
0.2097395550329753
 20
0.15542857387689
 10
0.209725515251779
 20
0.1550786654787671
 10
0.2097994365013716
 20
0.1549049220823194
  0
LWPOLYLINE
  5
22AE
330
2
100
AcDbEntity
  8
Profilo
  6
Continuous
370
     0
100
AcDbPolyline
 90
       24
 70
   128
 43
0.0
 10
0.2097822537641136
 20
0.152236594513519
 10
0.2096543598910554
 20
0.1512891999853018
 10
0.2091905410745938
 20
0.1507059051811396
 10
0.2087267219906252
 20
0.1501226110697734
 10
0.2080988346599686
 20
0.1492583982997647
 10
0.2078988989053896
 20
0.1492035995196556
 10
0.2076868022331582
 20
0.1495177450596475
 10
0.2074553709337874
 20
0.1502460592458762
 10
0.207261994117671
 20
0.1510267498738628
 10
0.207099804229997
 20
0.1514646843000044
 10
0.2070352429237039
 20
0.1518716997309356
 10
0.207275418890821
 20
0.1522573716799845
 10
0.2076538399456329
 20
0.1528058590936417
 10
0.2078710497915124
 20
0.1531997927614833
 10
0.2079175063613221
 20
0.1536626115597247
 10
0.2080121387890792
 20
0.154476650748894
 10
0.2081488120722714
 20
0.1550256535785553
 10
0.2084496787635193
 20
0.1554967434550706
 10
0.2084584996561631
 20
0.1557937953222893
 10
0.2083476392289107
 20
0.1558881334847552
 10
0.2080974216159677
 20
0.1557526732535613
 10
0.207996665463358
 20
0.1554810357219066
 10
0.2080140822921541
 20
0.1552200959191262
 10
0.208071608255499
 20
0.1551093326279952
  0
LWPOLYLINE
  5
22AF
330
2
100
AcDbEntity
  8
Profilo
  6
Continuous
370
     0
100
AcDbPolyline
 90
       23
 70
   128
 43
0.0
 10
0.207019666142551
 20
0.1514574298776012
 10
0.2063273373297652
 20
0.1510702666066329
 10
0.2056640627335702
 20
0.1508619167523187
 10
0.2050224696153402
 20
0.1506828783990318
 10
0.2045785461887963
 20
0.1505915170079909
 10
0.2042917703283769
 20
0.1505320597191794
 10
0.2041779912929125
 20
0.1506268984426059
 10
0.2042306613487714
 20
0.1509173096344337
 10
0.2042345587551211
 20
0.1515596605438872
 10
0.2043049801411707
 20
0.1523606250204187
 10
0.2043640105704025
 20
0.1528777065333701
 10
0.2047445492040361
 20
0.1535020503054468
 10
0.2050752126790869
 20
0.1540595504880272
 10
0.2056622086744906
 20
0.1548406604856373
 10
0.2063847918098889
 20
0.155620646487398
 10
0.2067239926811413
 20
0.1561143371118513
 10
0.2068582165507105
 20
0.1564063620696471
 10
0.206764233380299
 20
0.1565720306674748
 10
0.2065718602422379
 20
0.1565754574758079
 10
0.2062823115569181
 20
0.1563378509063694
 10
0.2061318421066238
 20
0.1560771061196954
 10
0.2059953402949077
 20
0.1557283044878058
 10
0.2058983141022124
 20
0.1552729133781042
  0
LWPOLYLINE
  5
22B0
330
2
100
AcDbEntity
  8
Profilo
  6
Continuous
370
     0
100
AcDbPolyline
 90
       20
 70
   128
 43
0.0
 10
0.204649162182051
 20
0.1534731422866983
 10
0.2037861368087077
 20
0.1530094427630221
 10
0.2028140965696059
 20
0.1526639018056105
 10
0.202230143833509
 20
0.1525038518417639
 10
0.2019289054517597
 20
0.1524110787916356
 10
0.2012343020417424
 20
0.1522896334815286
 10
0.2010568114814879
 20
0.1525549283795881
 10
0.2010633465988036
 20
0.153153973865732
 10
0.2011473198246441
 20
0.1540473474483889
 10
0.2012533089358961
 20
0.1549442026198354
 10
0.2016410979667962
 20
0.1555584094034955
 10
0.2021643240110909
 20
0.1563858509825952
 10
0.2027734857509984
 20
0.156956084470503
 10
0.2034175659795514
 20
0.1573061755393009
 10
0.2043004791552507
 20
0.1575022218791812
 10
0.204613107752267
 20
0.1578788779332182
 10
0.2046071878559952
 20
0.1580584735790026
 10
0.2044518632772665
 20
0.1581128922935931
 10
0.2041147909935976
 20
0.1578903360751646
 10
0.2037906222917372
 20
0.1574441561347409
  0
LWPOLYLINE
  5
22B1
330
2
100
AcDbEntity
  8
Profilo
  6
Continuous
370
     0
100
AcDbPolyline
 90
       22
 70
   128
 43
0.0
 10
0.218798017220645
 20
0.1624163171798413
 10
0.2204521860943488
 20
0.1620451449086463
 10
0.2214800191009588
 20
0.161242215625934
 10
0.2220246255062295
 20
0.1604375321867563
 10
0.2223003621154957
 20
0.1598376241252012
 10
0.2223097217912893
 20
0.1596043513979225
 10
0.2219310627637567
 20
0.1594092641530306
 10
0.221305054533665
 20
0.1595546238785838
 10
0.2208409285839555
 20
0.1596975619989095
 10
0.2201933992558891
 20
0.1597072497650792
 10
0.2196410046680982
 20
0.1595859968557119
 10
0.2191647180377585
 20
0.159359990329705
 10
0.2186123236869904
 20
0.1592387370941036
 10
0.2177910593031946
 20
0.1593222595623599
 10
0.2172317983761874
 20
0.1595961386844568
 10
0.2168322334957483
 20
0.1601460925619479
 10
0.2164373486902288
 20
0.1605794097495655
 10
0.216211212236801
 20
0.1606151726076964
 10
0.2159563819849704
 20
0.1604700399134312
 10
0.2161276241781682
 20
0.1602343452546918
 10
0.2164560683093218
 20
0.1601128649878033
 10
0.216644151021046
 20
0.160129478611759
  0
LWPOLYLINE
  5
22B2
330
2
100
AcDbEntity
  8
Profilo
  6
Continuous
370
     0
100
AcDbPolyline
 90
       24
 70
   128
 43
0.0
 10
0.2191765715851412
 20
0.159288578292203
 10
0.2200380759444533
 20
0.1588741829812402
 10
0.2204494943722752
 20
0.158252817066247
 10
0.2208609120585453
 20
0.1576314511109261
 10
0.2214887993892019
 20
0.1567672383409165
 10
0.2214791325801617
 20
0.1565601543843597
 10
0.221114820941118
 20
0.1564555147727139
 10
0.2203506367838584
 20
0.1564604719881618
 10
0.2195483991524033
 20
0.1565178063784914
 10
0.2190817793311038
 20
0.1564988838090405
 10
0.2186747341124609
 20
0.1565632570431207
 10
0.2183821567476454
 20
0.1569108571482148
 10
0.2179774527557462
 20
0.1574402488903178
 10
0.21766992110768
 20
0.1577685599276645
 10
0.2172441101433213
 20
0.1579557616250801
 10
0.2164991558963376
 20
0.1582973143556913
 10
0.2160192575449066
 20
0.1585969495766001
 10
0.2156641973687226
 20
0.159028665581569
 10
0.2153844100604597
 20
0.1591288488241783
 10
0.215260431380286
 20
0.1590525663878614
 10
0.215311940221171
 20
0.1587727357830791
 10
0.2155391475022779
 20
0.1585929703739909
 10
0.2157926980981586
 20
0.1585288999289437
 10
0.2159158167482469
 20
0.1585493826319263
  0
LWPOLYLINE
  5
22B3
330
2
100
AcDbEntity
  8
Profilo
  6
Continuous
370
     0
100
AcDbPolyline
 90
       23
 70
   128
 43
0.0
 10
0.2190639146658847
 20
0.1564204262189651
 10
0.219218187448764
 20
0.1556423423598184
 10
0.2192113768132168
 20
0.1549471470872564
 10
0.2191833892287694
 20
0.1542816298775426
 10
0.2191330991920541
 20
0.1538312013875312
 10
0.2191010278195737
 20
0.1535400880240812
 10
0.2189756711780984
 20
0.1534611845082482
 10
0.2187157496640613
 20
0.1536010187017179
 10
0.2181060420106729
 20
0.153803222702796
 10
0.2173660409310039
 20
0.1541177090560252
 10
0.2168925085944738
 20
0.1543336373053842
 10
0.2164163152864413
 20
0.1548884838885071
 10
0.215988281738172
 20
0.1553752405719398
 10
0.2154267937232117
 20
0.1561748832021456
 10
0.2149082734223049
 20
0.1571031295315496
 10
0.2145435645706081
 20
0.1575782875234072
 10
0.214307309788323
 20
0.1577961826839432
 10
0.2141207071919712
 20
0.1577579937894645
 10
0.2140580015346539
 20
0.1575760950049622
 10
0.2141945033463701
 20
0.1572272933730726
 10
0.2143959887575511
 20
0.1570036138515908
 10
0.2146855374428711
 20
0.1567660072821523
 10
0.2150886573827738
 20
0.1565330062973528
  0
LWPOLYLINE
  5
22B4
330
2
100
AcDbEntity
  8
Profilo
  6
Continuous
370
     0
100
AcDbPolyline
 90
       20
 70
   128
 43
0.0
 10
0.2164143322352079
 20
0.1547888323706109
 10
0.2165886471818644
 20
0.1538247554324655
 10
0.2166168992079591
 20
0.152793512200874
 10
0.216588664449642
 20
0.1521886819872232
 10
0.2165838090841847
 20
0.1518735188121919
 10
0.2164846661796889
 20
0.1511753830481449
 10
0.2161775081386896
 20
0.1510885601262547
 10
0.2156098014878466
 20
0.1512798906277849
 10
0.2147861018744318
 20
0.1516358215307812
 10
0.2139658943560498
 20
0.1520137666551639
 10
0.2135015823928771
 20
0.1525723762741607
 10
0.2128763244268079
 20
0.1533256873228769
 10
0.2125222414822778
 20
0.1540812464036193
 10
0.2123883168263652
 20
0.1548019871918379
 10
0.2124747008531751
 20
0.1557022691716175
 10
0.212213087207987
 20
0.1561159897577221
 10
0.2120404522502117
 20
0.1561658577084598
 10
0.2119406990426207
 20
0.1560349515633405
 10
0.2120482015204133
 20
0.1556456031177967
 10
0.2123723702222737
 20
0.1551994231773731
  0
LWPOLYLINE
  5
22B5
330
2
100
AcDbEntity
  8
Profilo
  6
Continuous
370
     0
100
AcDbPolyline
 90
       22
 70
   128
 43
0.0
 10
0.212267789000584
 20
0.1711028191077236
 10
0.2131272745612611
 20
0.1724896337092566
 10
0.2142265252281891
 20
0.173196704210539
 10
0.2151601172910482
 20
0.17346599482329
 10
0.2158158710604026
 20
0.1735428541362308
 10
0.2160406189066377
 20
0.1734796704798306
 10
0.2161091458275567
 20
0.1730592590701846
 10
0.2157774533316453
 20
0.1725088084891956
 10
0.2154980882948917
 20
0.1721115687886682
 10
0.2152887771150188
 20
0.1714987254861023
 10
0.2152333961693645
 20
0.1709358978042056
 10
0.2153011604856801
 20
0.1704130824434203
 10
0.215245779923537
 20
0.1698502548861341
 10
0.2149125606843774
 20
0.1690949959044271
 10
0.2144792650298941
 20
0.1686477404586201
 10
0.2138327554726339
 20
0.1684376767696628
 10
0.2132986202220011
 20
0.1681960213771164
 10
0.2131947277155775
 20
0.167992004160442
 10
0.2132540102316895
 20
0.1677047977199221
 10
0.2135310859205913
 20
0.1677948250685931
 10
0.2137481153382455
 20
0.1680696545328167
 10
0.2137904355971953
 20
0.168253665713545
  0
LWPOLYLINE
  5
22B6
330
2
100
AcDbEntity
  8
Profilo
  6
Continuous
370
     0
100
AcDbPolyline
 90
       24
 70
   128
 43
0.0
 10
0.2153727403168733
 20
0.1704022883037094
 10
0.2160330731654422
 20
0.1710935724449726
 10
0.2167511625538963
 20
0.171292841994218
 10
0.2174692517515517
 20
0.1714921108257442
 10
0.2184851947936607
 20
0.1718222107303754
 10
0.218679156131689
 20
0.1717490245868077
 10
0.2186660958284945
 20
0.1713702082102489
 10
0.2184252353450145
 20
0.1706449577516572
 10
0.2181228020378374
 20
0.1698997017256175
 10
0.2179966050161247
 20
0.1694500725084017
 10
0.2178095985423385
 20
0.1690828419240974
 10
0.217388599819426
 20
0.1689119986544897
 10
0.2167600579422377
 20
0.1686906933308151
 10
0.2163527830852373
 20
0.1684996670429356
 10
0.2160431608666704
 20
0.1681525452564493
 10
0.2154881213942144
 20
0.1675495972637483
 10
0.2150548546186935
 20
0.1671857791848342
 10
0.2145345486705124
 20
0.166981504472877
 10
0.2143528097117412
 20
0.1667463692546945
 10
0.2143870471007656
 20
0.1666048859538399
 10
0.2146690989280967
 20
0.166567401360186
 10
0.2149102769029219
 20
0.1667279377590235
 10
0.2150495629602471
 20
0.1669492798490898
 10
0.2150681285073058
 20
0.1670727021468451
  0
LWPOLYLINE
  5
22B7
330
2
100
AcDbEntity
  8
Profilo
  6
Continuous
370
     0
100
AcDbPolyline
 90
       23
 70
   128
 43
0.0
 10
0.2180657021332684
 20
0.1694088374734622
 10
0.2188533767694116
 20
0.1693151184733809
 10
0.2195124421613539
 20
0.1690938140204329
 10
0.2201367380011324
 20
0.1688615401180188
 10
0.2205495804756899
 20
0.1686745213927313
 10
0.2208165351378507
 20
0.1685540607283519
 10
0.2208528395081687
 20
0.1684104569503079
 10
0.2206395291222274
 20
0.1682064680428338
 10
0.2202588116628831
 20
0.1676890860787082
 10
0.2197310444578858
 20
0.1670824848574698
 10
0.219379354949907
 20
0.1666988543417543
 10
0.2187045126666931
 20
0.1664174246165894
 10
0.2181093099104868
 20
0.1661607566086211
 10
0.2171752952375618
 20
0.165873852935332
 10
0.2161322489323459
 20
0.1656675547150742
 10
0.2155676455947477
 20
0.1654675278796155
 10
0.2152874082397222
 20
0.1653101695370148
 10
0.2152660646631982
 20
0.1651208989044063
 10
0.2154196835737513
 20
0.1650050524647394
 10
0.2157935950182372
 20
0.1650270877703391
 10
0.2160685893008785
 20
0.1651495910101491
 10
0.2163840420415204
 20
0.1653515437061758
 10
0.2167302100586178
 20
0.165662932287859
  0
LWPOLYLINE
  5
22B8
330
2
100
AcDbEntity
  8
Profilo
  6
Continuous
370
     0
100
AcDbPolyline
 90
       20
 70
   128
 43
0.0
 10
0.2187986740956156
 20
0.1663847446102465
 10
0.2197694320307388
 20
0.1662526118183795
 10
0.2207589329822178
 20
0.1659608094079997
 10
0.2213254356780113
 20
0.1657470537423865
 10
0.2216236732788801
 20
0.1656450452383437
 10
0.2222570030041757
 20
0.1653350189175077
 10
0.222244659455175
 20
0.1650160645027178
 10
0.2218872623319978
 20
0.164535267769604
 10
0.2212942147485475
 20
0.1638618715826453
 10
0.2206813095131067
 20
0.1631985993439494
 10
0.2200065599075832
 20
0.1629296322912713
 10
0.2190969031885209
 20
0.1625677625443792
 10
0.218268906154057
 20
0.1624644902488791
 10
0.2175420559362183
 20
0.1625598414842789
 10
0.2167125310251727
 20
0.1629202000073618
 10
0.2162382163035093
 20
0.1627992373373827
 10
0.2161374419282299
 20
0.1626504617801036
 10
0.2162311156341802
 20
0.1625151386184921
 10
0.216634628102999
 20
0.1624970642641082
 10
0.2171591440806992
 20
0.1626674898362518
  0
LWPOLYLINE
  5
22B9
330
2
100
AcDbEntity
  8
Profilo
  6
Continuous
370
     0
100
AcDbPolyline
 90
        3
 70
   128
 43
0.0
 10
0.2038088640143585
 20
0.1674356547789196
 10
0.2025389804330031
 20
0.1684510918565681
 10
0.2017770502841893
 20
0.1694665285309694
  0
LWPOLYLINE
  5
22BA
330
2
100
AcDbEntity
  8
Profilo
  6
Continuous
370
     0
100
AcDbPolyline
 90
        3
 70
   128
 43
0.0
 10
0.2045390469177299
 20
0.1684193595487032
 10
0.2036183811653391
 20
0.1695299935499456
 10
0.203078681110987
 20
0.1698473174350873
  0
LWPOLYLINE
  5
22BB
330
2
100
AcDbEntity
  8
Profilo
  6
Continuous
370
     0
100
AcDbPolyline
 90
        2
 70
   128
 43
0.0
 10
0.2051104942175244
 20
0.1700377120887694
 10
0.2041580818433231
 20
0.1718147265714064
  0
LWPOLYLINE
  5
22BC
330
2
100
AcDbEntity
  8
Profilo
  6
Continuous
370
     0
100
AcDbPolyline
 90
        2
 70
   128
 43
0.0
 10
0.2073327907967128
 20
0.170481965608617
 10
0.2072375490603868
 20
0.1725763039763958
  0
LWPOLYLINE
  5
22BD
330
2
100
AcDbEntity
  8
Profilo
  6
Continuous
370
     0
100
AcDbPolyline
 90
        5
 70
   128
 43
0.0
 10
0.2073010435512705
 20
0.1686732188181151
 10
0.2066978490060347
 20
0.1701963740313402
 10
0.2064756189115731
 20
0.1714974022830183
 10
0.2066661017605933
 20
0.1730840225152196
 10
0.2068248373641703
 20
0.1734965437272023
  0
LWPOLYLINE
  5
22BE
330
2
100
AcDbEntity
  8
Profilo
  6
Continuous
370
     0
100
AcDbPolyline
 90
        2
 70
   128
 43
0.0
 10
0.2099360518266764
 20
0.1698155851272224
 10
0.210063040184812
 20
0.172608036687507
  0
LWPOLYLINE
  5
22BF
330
2
100
AcDbEntity
  8
Profilo
  6
Continuous
370
     0
100
AcDbPolyline
 90
        2
 70
   128
 43
0.0
 10
0.2104122580137766
 20
0.170481965608617
 10
0.2106662347300479
 20
0.1726397689953719
  0
LWPOLYLINE
  5
22C0
330
2
100
AcDbEntity
  8
Profilo
  6
Continuous
370
     0
100
AcDbPolyline
 90
        3
 70
   128
 43
0.0
 10
0.20287552733147
 20
0.1583043149668656
 10
0.2015173736743681
 20
0.1574103712255924
 10
0.2003161866437841
 20
0.1569995197817032
  0
LWPOLYLINE
  5
22C1
330
2
100
AcDbEntity
  8
Profilo
  6
Continuous
370
     0
100
AcDbPolyline
 90
        3
 70
   128
 43
0.0
 10
0.202165607426201
 20
0.1593027416665155
 10
0.2008248303584728
 20
0.1587703412842888
 10
0.2003562609210727
 20
0.158355114503982
  0
LWPOLYLINE
  5
22C2
330
2
100
AcDbEntity
  8
Profilo
  6
Continuous
370
     0
100
AcDbPolyline
 90
        2
 70
   128
 43
0.0
 10
0.2008030496243338
 20
0.1603463187824742
 10
0.19881869681179
 20
0.1599896484621753
  0
LWPOLYLINE
  5
22C3
330
2
100
AcDbEntity
  8
Profilo
  6
Continuous
370
     0
100
AcDbPolyline
 90
        2
 70
   128
 43
0.0
 10
0.201067266828906
 20
0.1625971303126959
 10
0.1990460013618052
 20
0.1631537361863543
  0
LWPOLYLINE
  5
22C4
330
2
100
AcDbEntity
  8
Profilo
  6
Continuous
370
     0
100
AcDbPolyline
 90
        5
 70
   128
 43
0.0
 10
0.2027776768119749
 20
0.1620080033912575
 10
0.2011426727557162
 20
0.1619050121343747
 10
0.1998366484832232
 20
0.1620956985948506
 10
0.1983865454099869
 20
0.1627671511650218
 10
0.1980432664223379
 20
0.1630455937602159
  0
LWPOLYLINE
  5
22C5
330
2
100
AcDbEntity
  8
Profilo
  6
Continuous
370
     0
100
AcDbPolyline
 90
        2
 70
   128
 43
0.0
 10
0.2025054842271212
 20
0.1648670557853883
 10
0.1998889465350253
 20
0.1658507438789843
  0
LWPOLYLINE
  5
22C6
330
2
100
AcDbEntity
  8
Profilo
  6
Continuous
370
     0
100
AcDbPolyline
 90
        2
 70
   128
 43
0.0
 10
0.2020188745325993
 20
0.1655258776762011
 10
0.2000451646822461
 20
0.1664342218042257
  0
LWPOLYLINE
  5
22C7
330
2
100
AcDbEntity
  8
Profilo
  6
Continuous
370
     0
100
AcDbPolyline
 90
        3
 70
   128
 43
0.0
 10
0.2112715306657436
 20
0.1545949198493698
 10
0.2117020291250651
 20
0.1530269951555846
 10
0.2117215848621321
 20
0.151757638324533
  0
LWPOLYLINE
  5
22C8
330
2
100
AcDbEntity
  8
Profilo
  6
Continuous
370
     0
100
AcDbPolyline
 90
        3
 70
   128
 43
0.0
 10
0.2101025931316249
 20
0.1542282767152455
 10
0.2101946130848236
 20
0.1527886011821632
 10
0.210444721300773
 20
0.1522146530337535
  0
LWPOLYLINE
  5
22C9
330
2
100
AcDbEntity
  8
Profilo
  6
Continuous
370
     0
100
AcDbPolyline
 90
        2
 70
   128
 43
0.0
 10
0.2086890387986415
 20
0.153254890302723
 10
0.2084150536890184
 20
0.1512574414393629
  0
LWPOLYLINE
  5
22CA
330
2
100
AcDbEntity
  8
Profilo
  6
Continuous
370
     0
100
AcDbPolyline
 90
        2
 70
   128
 43
0.0
 10
0.2066300374322909
 20
0.1542017148108229
 10
0.2054760684096613
 20
0.1524513777913036
  0
LWPOLYLINE
  5
22CB
330
2
100
AcDbEntity
  8
Profilo
  6
Continuous
370
     0
100
AcDbPolyline
 90
        5
 70
   128
 43
0.0
 10
0.2077188761819662
 20
0.1556463611401883
 10
0.2073115826486902
 20
0.1540595538296653
 10
0.2067266453526193
 20
0.1528763762917563
 10
0.2056399495171484
 20
0.1517047365697536
 10
0.2052690558315799
 20
0.1514643023455168
  0
LWPOLYLINE
  5
22CC
330
2
100
AcDbEntity
  8
Profilo
  6
Continuous
370
     0
100
AcDbPolyline
 90
        2
 70
   128
 43
0.0
 10
0.2049156436376356
 20
0.1562709863862709
 10
0.2031715460529393
 20
0.1540864875021567
  0
LWPOLYLINE
  5
22CD
330
2
100
AcDbEntity
  8
Profilo
  6
Continuous
370
     0
100
AcDbPolyline
 90
        2
 70
   128
 43
0.0
 10
0.2041386961200653
 20
0.1560117802259308
 10
0.2026648996323452
 20
0.1544153643837761
  0
LWPOLYLINE
  5
22CE
330
2
100
AcDbEntity
  8
Profilo
  6
Continuous
370
     0
100
AcDbPolyline
 90
        3
 70
   128
 43
0.0
 10
0.21739388277887
 20
0.1614337274011083
 10
0.219018099115937
 20
0.1613586403898223
 10
0.220231372256704
 20
0.1609849861682701
  0
LWPOLYLINE
  5
22CF
330
2
100
AcDbEntity
  8
Profilo
  6
Continuous
370
     0
100
AcDbPolyline
 90
        3
 70
   128
 43
0.0
 10
0.2173813595573295
 20
0.1602087027828286
 10
0.2187790080837769
 20
0.1598513347528388
 10
0.219402152899499
 20
0.1599118420696482
  0
LWPOLYLINE
  5
22D0
330
2
100
AcDbEntity
  8
Profilo
  6
Continuous
370
     0
100
AcDbPolyline
 90
        2
 70
   128
 43
0.0
 10
0.2178702927364668
 20
0.1585635397797439
 10
0.219685313438853
 20
0.1576857188116957
  0
LWPOLYLINE
  5
22D1
330
2
100
AcDbEntity
  8
Profilo
  6
Continuous
370
     0
100
AcDbPolyline
 90
        2
 70
   128
 43
0.0
 10
0.2163335427046074
 20
0.156897897976909
 10
0.2176416160937598
 20
0.1552595243334197
  0
LWPOLYLINE
  5
22D2
330
2
100
AcDbEntity
  8
Profilo
  6
Continuous
370
     0
100
AcDbPolyline
 90
        5
 70
   128
 43
0.0
 10
0.2152960720771067
 20
0.1583798654316174
 10
0.2166793548864022
 20
0.1575021558370005
 10
0.2176238680286354
 20
0.1565802254433709
 10
0.2184023561401187
 20
0.1551846597024328
 10
0.218516410223873
 20
0.1547576205846018
  0
LWPOLYLINE
  5
22D3
330
2
100
AcDbEntity
  8
Profilo
  6
Continuous
370
     0
100
AcDbPolyline
 90
        2
 70
   128
 43
0.0
 10
0.2138357716711934
 20
0.1559068526697972
 10
0.215374397776251
 20
0.1535730700174319
  0
LWPOLYLINE
  5
22D4
330
2
100
AcDbEntity
  8
Profilo
  6
Continuous
370
     0
100
AcDbPolyline
 90
        2
 70
   128
 43
0.0
 10
0.2138422013923826
 20
0.1550878325618002
 10
0.2149050549208253
 20
0.1531928491831461
  0
LWPOLYLINE
  5
22D5
330
2
100
AcDbEntity
  8
Profilo
  6
Continuous
370
     0
100
AcDbPolyline
 90
        3
 70
   128
 43
0.0
 10
0.2127817011416042
 20
0.1693697380280982
 10
0.2133550235836721
 20
0.1708912563967949
 10
0.2140853118852367
 20
0.1719296822188875
  0
LWPOLYLINE
  5
22D6
330
2
100
AcDbEntity
  8
Profilo
  6
Continuous
370
     0
100
AcDbPolyline
 90
        3
 70
   128
 43
0.0
 10
0.213942898899161
 20
0.1689792743110704
 10
0.2147146732396339
 20
0.1701980842551259
 10
0.2148496896997136
 20
0.1708094279818922
  0
LWPOLYLINE
  5
22D7
330
2
100
AcDbEntity
  8
Profilo
  6
Continuous
370
     0
100
AcDbPolyline
 90
        2
 70
   128
 43
0.0
 10
0.2156586305550797
 20
0.1689358940706528
 10
0.217054360149062
 20
0.1703908197397211
  0
LWPOLYLINE
  5
22D8
330
2
100
AcDbEntity
  8
Profilo
  6
Continuous
370
     0
100
AcDbPolyline
 90
        2
 70
   128
 43
0.0
 10
0.2167678681695283
 20
0.1669596463153183
 10
0.2187302710064334
 20
0.167697412736889
  0
LWPOLYLINE
  5
22D9
330
2
100
AcDbEntity
  8
Profilo
  6
Continuous
370
     0
100
AcDbPolyline
 90
        5
 70
   128
 43
0.0
 10
0.2150378373097281
 20
0.166430906243184
 10
0.2163000466352019
 20
0.1674752591919816
 10
0.2174687251559944
 20
0.168088652411367
 10
0.2190365531042
 20
0.1683977850719337
 10
0.2194779360900834
 20
0.1683742946068255
  0
LWPOLYLINE
  5
22DA
330
2
100
AcDbEntity
  8
Profilo
  6
Continuous
370
     0
100
AcDbPolyline
 90
        2
 70
   128
 43
0.0
 10
0.2169385545694189
 20
0.1642778750556836
 10
0.2196335753830187
 20
0.1650200169382824
  0
LWPOLYLINE
  5
22DB
330
2
100
AcDbEntity
  8
Profilo
  6
Continuous
370
     0
100
AcDbPolyline
 90
        2
 70
   128
 43
0.0
 10
0.2177194758732217
 20
0.1640308989518123
 10
0.2198501519665827
 20
0.1644561506578425
  0
LWPOLYLINE
  5
22DC
330
2
100
AcDbEntity
  8
Profilo
  6
Continuous
370
     0
100
AcDbPolyline
 90
        3
 70
   128
 43
0.0
 10
0.1867095869563597
 20
0.1810276133387661
 10
0.1818514963251678
 20
0.1867505720802457
 10
0.1874903520454929
 20
0.1825017087232993
  0
LWPOLYLINE
  5
22DD
330
2
100
AcDbEntity
  8
Profilo
  6
Continuous
370
     0
100
AcDbPolyline
 90
       59
 70
   128
 43
0.0
 10
0.1849732102597354
 20
0.1797498959859481
 10
0.1847799385274265
 20
0.1810874616359767
 10
0.1841682681966843
 20
0.1818869676412443
 10
0.1835095466858114
 20
0.1824983549185347
 10
0.1826390933052748
 20
0.1829216230646015
 10
0.1815569080550745
 20
0.183227316501623
 10
0.1808981859205698
 20
0.183744644011678
 10
0.1808040829366784
 20
0.1842854864635418
 10
0.1812745984797683
 20
0.1845911799005643
 10
0.1814628044475512
 20
0.1846146948423731
 10
0.1808469882098074
 20
0.1848286399235949
 10
0.1806587822420245
 20
0.1852283927246047
 10
0.1803529467648366
 20
0.1859103248273225
 10
0.1805176274543705
 20
0.1861925033225352
 10
0.1810822459813519
 20
0.1862630481479618
 10
0.1803529467648366
 20
0.1866392860071636
 10
0.1800706378131622
 20
0.1869684947892413
 10
0.1797883282378561
 20
0.1876974559690824
 10
0.1798824318453793
 20
0.1881677539987668
 10
0.180423524470479
 20
0.1884499324939796
 10
0.1812234001453732
 20
0.1884499324939796
 10
0.1818585963779971
 20
0.1881677539987668
 10
0.1821644312315522
 20
0.1877444858527001
 10
0.1822350083135629
 20
0.1883323581881825
 10
0.1824937919869882
 20
0.1885910217415864
 10
0.1831289875959803
 20
0.1884029026103618
 10
0.1836230290409502
 20
0.1880031498093512
 10
0.1837406579267233
 20
0.1871801284590274
 10
0.1839053379926254
 20
0.1865687415849843
 10
0.1840935445840401
 20
0.1862865626865243
 10
0.1840935445840401
 20
0.1872036434008363
 10
0.1842346987480614
 20
0.18802666475116
 10
0.1846816883892697
 20
0.1879561199257335
 10
0.1851992557361213
 20
0.1873917625320608
 10
0.1856932965574594
 20
0.1865217117013665
 10
0.1863990698720939
 20
0.1857457206379068
 10
0.1873165750563921
 20
0.1850402739966274
 10
0.1885634403724945
 20
0.1846875506759881
 10
0.1895044714586735
 20
0.1846875506759881
 10
0.1904455019212208
 20
0.1849697291712008
 10
0.1911983270396169
 20
0.1855576015066832
 10
0.1919982027145102
 20
0.186333592570142
 10
0.1923040381916981
 20
0.1871095840368481
 10
0.1922805122898172
 20
0.18802666475116
 10
0.1918570485504889
 20
0.1887321113924395
 10
0.1912924300235084
 20
0.1892494389024945
 10
0.190539605528744
 20
0.189555132339516
 10
0.1897632551320998
 20
0.1895316173977072
 10
0.1889869047354546
 20
0.1891788940770679
 10
0.1884458114867222
 20
0.1883793880718002
 10
0.1884928632904839
 20
0.1877444858527001
 10
0.1888457499478016
 20
0.1872036434008363
 10
0.1893397907691396
 20
0.1870155242696126
 10
0.1900926158875358
 20
0.1870155242696126
 10
0.1904690278231016
 20
0.1872977031680717
 10
0.1906572344145163
 20
0.1879326049839246
 10
0.190539605528744
 20
0.1883323581881825
 10
0.1902102447733081
 20
0.1884969623775973
 10
0.1897867804103479
 20
0.1884969623775973
  0
LWPOLYLINE
  5
22DE
330
2
100
AcDbEntity
  8
Profilo
  6
Continuous
370
     0
100
AcDbPolyline
 90
       11
 70
   128
 43
0.0
 10
0.1899190446970682
 20
0.1865997020782138
 10
0.1876304578837511
 20
0.1865997020782138
 10
0.1863657124082592
 20
0.1873822773576389
 10
0.1851009669327672
 20
0.1888270320918831
 10
0.1841373516293594
 20
0.1905727771941373
 10
0.1835953179432386
 20
0.1924991168397957
 10
0.1838362220809071
 20
0.194545852713308
 10
0.1842578036981932
 20
0.1960508057631024
 10
0.1849729701613312
 20
0.1975164289295165
 10
0.1859903138750509
 20
0.1985955592639058
 10
0.1871320778795698
 20
0.1997367953342758
  0
LWPOLYLINE
  5
22DF
330
2
100
AcDbEntity
  8
Profilo
  6
Continuous
370
     0
100
AcDbPolyline
 90
       21
 70
   128
 43
0.0
 10
0.2263706635351098
 20
0.1907998237683003
 10
0.2260496469787825
 20
0.1904561726972206
 10
0.2259468642816476
 20
0.190070917430042
 10
0.2260753424971578
 20
0.1894801921224903
 10
0.2264607758964232
 20
0.1892490388815341
 10
0.227321577944718
 20
0.1891463040629707
 10
0.2279125767382518
 20
0.189377457303927
 10
0.2282723146191421
 20
0.1900067080172224
 10
0.2283365537268971
 20
0.1906873259381768
 10
0.2280924453668805
 20
0.1916376229090767
 10
0.2272059478002114
 20
0.192138454796733
 10
0.2263836893412965
 20
0.192138454796733
 10
0.2254329526668723
 20
0.1920614035819991
 10
0.2246235416553289
 20
0.1913294184533866
 10
0.224186717219312
 20
0.1903791214824858
 10
0.2242124127376882
 20
0.189030727442493
 10
0.2247134762814592
 20
0.1881703238914877
 10
0.2254201052195006
 20
0.1875410731781922
 10
0.2269104490270763
 20
0.1869631900758021
 10
0.2281052934378851
 20
0.1868604552572387
 10
0.2292487468119424
 20
0.187181501514844
  0
LWPOLYLINE
  5
22E0
330
2
100
AcDbEntity
  8
Profilo
  6
Continuous
370
     0
100
AcDbPolyline
 90
       10
 70
   128
 43
0.0
 10
0.2279201239353831
 20
0.188974333358534
 10
0.2296849407557844
 20
0.1895313859339666
 10
0.2309388899102773
 20
0.1909240181790416
 10
0.2318212983204787
 20
0.1925951767118329
 10
0.2322857240949362
 20
0.1943591776093608
 10
0.232192839064771
 20
0.1966338101015766
 10
0.2315426432299833
 20
0.1984442319798493
 10
0.2307531198499478
 20
0.1997904428409324
 10
0.2297313832708668
 20
0.2007652854528098
 10
0.2290536136081328
 20
0.2014131788133126
  0
LWPOLYLINE
  5
22E1
330
2
100
AcDbEntity
  8
Profilo
  6
Continuous
370
     0
100
AcDbPolyline
 90
       20
 70
   128
 43
0.0
 10
0.183189309669759
 20
0.1884213624485852
 10
0.1824885871524773
 20
0.1895480908415251
 10
0.1821382262056528
 20
0.190385523834084
 10
0.1818944963903946
 20
0.1914817998249333
 10
0.1817878646351956
 20
0.1925628496147377
 10
0.1818640300855325
 20
0.1935373172069651
 10
0.1821777644884233
 20
0.1945011443222991
 10
0.1823436687443742
 20
0.1947875738467081
 10
0.1824341621449739
 20
0.1951493799013283
 10
0.1822531753437737
 20
0.1955262609393923
 10
0.1822380934221572
 20
0.195661938209874
 10
0.1823889151328581
 20
0.1958880665907644
 10
0.1825849844793075
 20
0.1961895715018652
 10
0.182615148946174
 20
0.19686795745103
 10
0.1824794085334578
 20
0.1975161930300583
 10
0.1822230108769072
 20
0.1977573967976406
 10
0.1817252974854233
 20
0.1978629236979866
 10
0.181046597916372
 20
0.1977272464275049
 10
0.1805790489917547
 20
0.1974106661297122
 10
0.1802774049467202
 20
0.1970940862351668
  0
LWPOLYLINE
  5
22E2
330
2
100
AcDbEntity
  8
Profilo
  6
Continuous
370
     0
100
AcDbPolyline
 90
        9
 70
   128
 43
0.0
 10
0.182042024075707
 20
0.1978478483112956
 10
0.1824466073495634
 20
0.1989005925856947
 10
0.1826937147569272
 20
0.1998268157145334
 10
0.182261276949949
 20
0.2009382832271921
 10
0.1817052863747366
 20
0.2014940167818974
 10
0.1813240001297365
 20
0.2015260849944592
 10
0.1810875187917749
 20
0.2011235276110112
 10
0.1813346255755068
 20
0.2006295420498295
 10
0.1814581789673728
 20
0.199703319324238
  0
LWPOLYLINE
  5
22E3
330
2
100
AcDbEntity
  8
Profilo
  6
Continuous
370
     0
100
AcDbPolyline
 90
       13
 70
   128
 43
0.0
 10
0.181155675557138
 20
0.2002164623408408
 10
0.1807524892194554
 20
0.2003507955892866
 10
0.1802298405172726
 20
0.2002313881229195
 10
0.1796026610768415
 20
0.1997985364101792
 10
0.1792293404861918
 20
0.1992612030131496
 10
0.17873655690741
 20
0.199111943982626
 10
0.1786021616693933
 20
0.1988432770824872
 10
0.1784976315547777
 20
0.1979924994390852
 10
0.1783931020637939
 20
0.1977387587242724
 10
0.1779600499790777
 20
0.1977536845063502
 10
0.1775419307678787
 20
0.1975745735084228
 10
0.1774075349062294
 20
0.1970521662967192
 10
0.1773328711622792
 20
0.1967685736145025
  0
LWPOLYLINE
  5
22E4
330
2
100
AcDbEntity
  8
Profilo
  6
Continuous
370
     0
100
AcDbPolyline
 90
        7
 70
   128
 43
0.0
 10
0.1815686828550274
 20
0.1885881127181917
 10
0.1800873461676098
 20
0.1908568529661826
 10
0.1791794299523322
 20
0.1935315785998227
 10
0.1788927200280785
 20
0.1958719637308807
 10
0.1790838601854585
 20
0.1973048521175474
 10
0.1794661405002176
 20
0.1982839929385131
 10
0.1802068091557427
 20
0.1993108963427778
  0
LWPOLYLINE
  5
22E5
330
2
100
AcDbEntity
  8
Profilo
  6
Continuous
370
     0
100
AcDbPolyline
 90
        6
 70
   128
 43
0.0
 10
0.1794889404941939
 20
0.1876552198850362
 10
0.178332780613647
 20
0.1882067681397966
 10
0.1772817264602546
 20
0.1886007311213044
 10
0.1760992904597354
 20
0.189178543655481
 10
0.1753635522405441
 20
0.1895199784814018
 10
0.175021959562738
 20
0.1896512994752383
  0
LWPOLYLINE
  5
22E6
330
2
100
AcDbEntity
  8
Profilo
  6
Continuous
370
     0
100
AcDbPolyline
 90
        6
 70
   128
 43
0.0
 10
0.1743124974635199
 20
0.1887583163945571
 10
0.1729461267522947
 20
0.1886269954007206
 10
0.1717111378881964
 20
0.1883906176924656
 10
0.1706600837348049
 20
0.1879703904315416
 10
0.1697929636684858
 20
0.187418841773534
 10
0.1692411601600015
 20
0.1869198220776077
  0
LWPOLYLINE
  5
22E7
330
2
100
AcDbEntity
  8
Profilo
  6
Continuous
370
     0
100
AcDbPolyline
 90
       10
 70
   128
 43
0.0
 10
0.1798681880854664
 20
0.1884348353319541
 10
0.1769088567557004
 20
0.1911652618680696
 10
0.1736521601215648
 20
0.1938523833125133
 10
0.172416395458985
 20
0.1949738082017557
 10
0.1719773739666561
 20
0.195445132091644
 10
0.1719285940780113
 20
0.1957051727333331
 10
0.1721237148798533
 20
0.1957051727333331
 10
0.1726277762237089
 20
0.1952501017111888
 10
0.1747253239080655
 20
0.1933323020291343
 10
0.1773594541093042
 20
0.1909431788604386
  0
LWPOLYLINE
  5
22E8
330
2
100
AcDbEntity
  8
Profilo
  6
Continuous
370
     0
100
AcDbPolyline
 90
      329
 70
   129
 43
0.0
 10
0.1884066841775847
 20
0.1868875667584667
 10
0.1876256459375389
 20
0.1873655317221402
 10
0.1873387339564465
 20
0.18784349708906
 10
0.1872430968372927
 20
0.1880346833164766
 10
0.1868446083211259
 20
0.1880187510300469
 10
0.1862707843589402
 20
0.1881143439421325
 10
0.1859998124173992
 20
0.1884489199409239
 10
0.1858722958427734
 20
0.1890702746759713
 10
0.1858404170109333
 20
0.1897234939838789
 10
0.1860316912492401
 20
0.1901377302050789
 10
0.1860157518333196
 20
0.1902492554035943
 10
0.1855853838616801
 20
0.1904404416310118
 10
0.1853462907519801
 20
0.190775017226556
 10
0.1853303513360605
 20
0.1914282365344636
 10
0.1854578672870544
 20
0.1916512869314933
 10
0.1850839417731509
 20
0.1918433292521552
 10
0.1849386473148187
 20
0.1920890981782962
 10
0.1850615889234766
 20
0.1926364925863714
 10
0.1852068827581761
 20
0.1929604607712724
 10
0.1858454104341212
 20
0.1935694507455302
 10
0.1860465873284556
 20
0.193725849263051
 10
0.186471293343166
 20
0.1941280167067129
 10
0.1866724702375004
 20
0.1946642399649286
 10
0.1864601172301452
 20
0.1952563193756903
 10
0.1863707052078152
 20
0.195948941151426
 10
0.1863707052078152
 20
0.1964404790037081
 10
0.186683646974154
 20
0.1968091325945428
 10
0.1870748240261693
 20
0.196898503003163
 10
0.1874212947552032
 20
0.196898503003163
 10
0.1875907125550829
 20
0.1969605231883692
 10
0.1874454187203833
 20
0.1972509775204431
 10
0.1875460068557342
 20
0.1977983719285182
 10
0.1877807133363964
 20
0.1982005389689329
 10
0.1881830665014326
 20
0.1983904513392808
 10
0.1885630668167944
 20
0.1983904513392808
 10
0.1890883615904884
 20
0.1983569374864537
 10
0.1896024802511615
 20
0.1982899097808003
 10
0.1901501278745299
 20
0.1982675670778334
 10
0.1907313050842261
 20
0.1982899097808003
 10
0.1911448349859157
 20
0.1987702760799749
 10
0.1913571886169028
 20
0.1992729854853635
 10
0.1916366007969137
 20
0.1998427225964064
 10
0.1916813064962624
 20
0.2001555192282009
 10
0.1920166011122755
 20
0.2005465155220024
 10
0.1923966014276373
 20
0.2007475990422098
 10
0.1926871903443017
 20
0.20083696945083
 10
0.1932013083813422
 20
0.2008481410039366
 10
0.1936483678693597
 20
0.2007252563392429
 10
0.1937936623276919
 20
0.2007029140395224
 10
0.1939948385983936
 20
0.2011832803386978
 10
0.1941848393797063
 20
0.2014290492648389
 10
0.1945871925447433
 20
0.2015072485235988
 10
0.1949113104241029
 20
0.201484905820632
 10
0.1951907226041138
 20
0.2014737346707717
 10
0.1954366051977969
 20
0.2016636470411196
 10
0.1957495469641348
 20
0.2016971608939459
 10
0.1960624887304736
 20
0.2016077904853256
 10
0.196420136196161
 20
0.2014290492648389
 10
0.1967330779624998
 20
0.2012614795974578
 10
0.197209697617762
 20
0.2013111426835662
 10
0.197612050782799
 20
0.2015904254625335
 10
0.1980814631204899
 20
0.2021825052765424
 10
0.1983496985638482
 20
0.2023500749439226
 10
0.1987408756158626
 20
0.2024171030528231
 10
0.1991655822542058
 20
0.2023835887967497
 10
0.1994561711708702
 20
0.2022383618323364
 10
0.1998026418999041
 20
0.2023835887967497
 10
0.2000708773432616
 20
0.2026070154231711
 10
0.2005626431542604
 20
0.2026628719789642
 10
0.2009426434696222
 20
0.2025511588673771
 10
0.2012332317626539
 20
0.2024617880555096
 10
0.2017361736866736
 20
0.2028639554991715
 10
0.2024738220913547
 20
0.2035789195746277
 10
0.2028091167073678
 20
0.2038693739067016
 10
0.2031444113233809
 20
0.2039810870182887
 10
0.2037727825249853
 20
0.2039824100714854
 10
0.204305414331752
 20
0.2039035381968363
 10
0.2047591373300437
 20
0.2037457944475379
 10
0.2051339515198605
 20
0.2035387557765839
 10
0.2054989029661132
 20
0.203410588980279
 10
0.2058737177795626
 20
0.2037556534318691
 10
0.2062682593274066
 20
0.2040612819461346
 10
0.2069488435130282
 20
0.2042190256954321
 10
0.2076097009642555
 20
0.2041993077267698
 10
0.2082113775886676
 20
0.204150012805114
 10
0.2088229169566438
 20
0.2039232561654986
 10
0.2089905973171577
 20
0.2037260764788757
 10
0.2092075951372909
 20
0.2035190378079216
 10
0.2095429558583188
 20
0.2034401659332724
 10
0.2101742225843222
 20
0.2036472046042265
 10
0.2106562142075312
 20
0.2039786288249687
 10
0.2114308832917102
 20
0.2041176078813608
 10
0.2119274654143457
 20
0.204177169873247
 10
0.2125035014000176
 20
0.204038191220102
 10
0.2131192633817582
 20
0.2037800877766912
 10
0.2133377597901165
 20
0.2034624219381479
 10
0.2139137951521556
 20
0.2034822762042751
 10
0.2146884642363346
 20
0.203740379647685
 10
0.2156021758658364
 20
0.2037006715186788
 10
0.2160788946786216
 20
0.2035021304704013
 10
0.2164562975657854
 20
0.2032837351559968
 10
0.2170323329278248
 20
0.2032241727608643
 10
0.2175289156740928
 20
0.2029660693174543
 10
0.2180453611065805
 20
0.2025689872208986
 10
0.2188994834301622
 20
0.2029263611884481
 10
0.2194953821020518
 20
0.2031447565028518
 10
0.219813195059664
 20
0.2031050479705993
 10
0.2201111447074251
 20
0.2029462150513272
 10
0.2204997405456802
 20
0.2031218315113103
 10
0.2209565960486143
 20
0.2031416857774365
 10
0.2213339989357791
 20
0.2031416857774365
 10
0.2218305810584145
 20
0.2028438742050204
 10
0.2219298976076685
 20
0.2025857707616096
 10
0.2224860702834893
 20
0.2023872297133321
 10
0.2229826524061257
 20
0.2023078130520734
 10
0.2234395085326924
 20
0.2021291262699222
 10
0.2239559539651801
 20
0.2016526275121077
 10
0.22423404030309
 20
0.2011959830204194
 10
0.2245319899508511
 20
0.2008981714480033
 10
0.2250484353833386
 20
0.2006797761335987
 10
0.2256840612985622
 20
0.2006400680045925
 10
0.2265779096182126
 20
0.2005209432143275
 10
0.2273128514590575
 20
0.2005209432143275
 10
0.2278094342053267
 20
0.2002826940370438
 10
0.2278888874447294
 20
0.2001238611177717
 10
0.2280875199196048
 20
0.199766487150223
 10
0.2284053328772161
 20
0.1996870704889634
 10
0.228961505553037
 20
0.1994885294406859
 10
0.2292594545771662
 20
0.1991311554731364
 10
0.229616994154479
 20
0.198257574618767
 10
0.229815627252987
 20
0.1976420972078076
 10
0.2299943970416437
 20
0.1968876411437032
 10
0.2303916626150261
 20
0.1964707047810211
 10
0.2307293388824886
 20
0.1959544978942004
 10
0.2310471518400999
 20
0.1954184367412534
 10
0.2310471518400999
 20
0.1947831050641667
 10
0.2310471518400999
 20
0.1938102536856586
 10
0.2310670151499511
 20
0.1932543386698317
 10
0.2308884131183611
 20
0.1927124751967261
 10
0.2306301900903025
 20
0.192434517487189
 10
0.2305110102311973
 20
0.1921565597776528
 10
0.2308288231888096
 20
0.1914815199715599
 10
0.2305904634706001
 20
0.1910248754798726
 10
0.2304116936819442
 20
0.190667501512323
 10
0.2298753849396065
 20
0.1904491066011656
 10
0.2291205797889103
 20
0.1904491066011656
 10
0.2287829035214478
 20
0.190647647649444
 10
0.2284650905638355
 20
0.1912234169313972
 10
0.2283657740145824
 20
0.1917197695520908
 10
0.2286239970426422
 20
0.1919778729955016
 10
0.2289219466904032
 20
0.1914616661086809
 10
0.2292198963381643
 20
0.1910645840121251
 10
0.2296370252213969
 20
0.1910050216169926
 10
0.2299548381790092
 20
0.19120356266527
 10
0.2299548381790092
 20
0.1917197695520908
 10
0.2296767518410985
 20
0.1922161221727853
 10
0.2292000330283133
 20
0.1929308701078834
 10
0.2296568885312482
 20
0.1930897030271555
 10
0.2298356583199049
 20
0.1929308701078834
 10
0.2298753849396065
 20
0.1934272231318242
 10
0.2299548381790092
 20
0.1941022629379171
 10
0.2301733345873674
 20
0.1946383236876169
 10
0.2299945647987107
 20
0.1950354057841727
 10
0.2293986655031884
 20
0.195472196412981
 10
0.2289219466904032
 20
0.1959685490336745
 10
0.2284849538736868
 20
0.1966832969687736
 10
0.2285246804933882
 20
0.197139941460461
 10
0.2286835869721938
 20
0.1978745436616863
 10
0.2287034502820451
 20
0.1983708966856271
 10
0.2285246804933882
 20
0.1987084163870504
 10
0.2280479616806029
 20
0.1987679787821829
 10
0.2276308321737367
 20
0.1988871031692007
 10
0.2274719256949311
 20
0.1993238937980098
 10
0.2273527458358269
 20
0.199621705370426
 10
0.2270945234313989
 20
0.1997805382896972
 10
0.2263993075866237
 20
0.1996812677655585
 10
0.2259424520836887
 20
0.1996415596365523
 10
0.2252670995487636
 20
0.1995025805801601
 10
0.224730790806426
 20
0.1995025805801601
 10
0.2245122943980677
 20
0.1995025805801601
 10
0.2240951648912024
 20
0.1997209758945647
 10
0.2237773525572229
 20
0.2000386417331081
 10
0.223429071423853
 20
0.2006213839610739
 10
0.223230438325345
 20
0.2009589040657426
 10
0.2230516691603209
 20
0.2014552566864371
 10
0.2228530360618138
 20
0.2016537977347145
 10
0.2226345396534556
 20
0.2018324849201129
 10
0.2222372734564406
 20
0.2019714635732578
 10
0.2220187776717149
 20
0.2019119011781253
 10
0.2215023316155957
 20
0.2016935062669679
 10
0.2212242452776848
 20
0.2019714635732578
 10
0.221045475489029
 20
0.2022295670166677
 10
0.2207475264648996
 20
0.2022494212827949
 10
0.2205886199860939
 20
0.2021700046215352
 10
0.2202906703383328
 20
0.2020905883635228
 10
0.2199529946945022
 20
0.2021700046215352
 10
0.2196947716664424
 20
0.2023486918069336
 10
0.2193968220186815
 20
0.2025075247262048
 10
0.2190790090610701
 20
0.2023685456698127
 10
0.218800923346792
 20
0.2020707340973965
 10
0.2185427003187323
 20
0.2018324849201129
 10
0.2181652974315683
 20
0.2015743814767029
 10
0.2178673477838073
 20
0.2016537977347145
 10
0.217271449111917
 20
0.2017927767911066
 10
0.2170132260838572
 20
0.2022097127505415
 10
0.2167351403695791
 20
0.2025273785890848
 10
0.2164173274119678
 20
0.202686211508356
 10
0.2159406079755498
 20
0.2025472328552111
 10
0.2156227956415704
 20
0.2026465033793498
 10
0.2151460762051525
 20
0.2030038773468993
 10
0.2149474431066454
 20
0.2030634397420318
 10
0.2144905876037103
 20
0.2028847525566334
 10
0.2142277858678885
 20
0.2027667467766147
 10
0.2138305196708742
 20
0.2026873305186031
 10
0.2132942109285365
 20
0.2027667467766147
 10
0.2130359879004768
 20
0.2029057258330068
 10
0.2126387217034618
 20
0.2032630998005564
 10
0.2124400886049547
 20
0.2033822241875741
 10
0.2118640532429155
 20
0.2034417865827075
 10
0.2114866503557515
 20
0.2032630998005564
 10
0.2110893847823683
 20
0.2029057258330068
 10
0.2108112984444583
 20
0.2026277681234697
 10
0.2103544423178916
 20
0.2022306860269149
 10
0.2097982702657026
 20
0.2021711236317824
 10
0.2091427816642606
 20
0.2021711236317824
 10
0.2090037384953052
 20
0.2026873305186031
 10
0.2086660622278427
 20
0.2030049963571455
 10
0.2082489327209773
 20
0.2033028079295626
 10
0.2077722139081921
 20
0.2035212032439663
 10
0.2070571353771975
 20
0.2035609113729725
 10
0.2066995957998838
 20
0.20350134897784
 10
0.2062228763634668
 20
0.2032829536634354
 10
0.2057262942408304
 20
0.2028263091717481
 10
0.205487934522621
 20
0.2024887894703248
 10
0.2051303949453083
 20
0.2020917069705227
 10
0.2047728559916273
 20
0.2020718531076437
 10
0.2045344962734179
 20
0.2022902484220474
 10
0.2044550430340151
 20
0.2027270386476085
 10
0.2041372300764028
 20
0.2030049963571455
 10
0.2036506641108586
 20
0.2032226630043374
 10
0.2033725777729478
 20
0.2031829544720839
 10
0.2030547648153365
 20
0.202904997165794
 10
0.2026574992419532
 20
0.2026468937223841
 10
0.2021410531858339
 20
0.2021902492306959
 10
0.2017636509223026
 20
0.2018924372550325
 10
0.2013067947957359
 20
0.2017137504728813
 10
0.2008698019790194
 20
0.2018328752631463
 10
0.2003930831662333
 20
0.2020512701743037
 10
0.2000752702086219
 20
0.20181302099702
 10
0.1997574572510097
 20
0.2014953551584767
 10
0.199340328367777
 20
0.2015747718197364
 10
0.1989827887904634
 20
0.2018527291260263
 10
0.1986053865269313
 20
0.2017137504728813
 10
0.1983471634988716
 20
0.2012571059811931
 10
0.1981286670905142
 20
0.2009394401426507
 10
0.197810854132902
 20
0.2006019204412274
 10
0.1974930417989225
 20
0.2005820661751011
 10
0.1970759122920571
 20
0.2005423580460949
 10
0.196579329545788
 20
0.2006416285702336
 10
0.1962813805216597
 20
0.2008798777475173
 10
0.1959437042541972
 20
0.2010387106667894
 10
0.1954681279356392
 20
0.2009911678530688
 10
0.195234587647229
 20
0.2009911678530688
 10
0.1950379221083776
 20
0.2010525972815142
 10
0.1947306323208517
 20
0.201089455261179
 10
0.1944479254918205
 20
0.2009788817254318
 10
0.1943495924105785
 20
0.2007085917563772
 10
0.1942758429114628
 20
0.2004383017873227
 10
0.1940300108319894
 20
0.2002294412467135
 10
0.1935875138372964
 20
0.2002662988231311
 10
0.1932310575091505
 20
0.2003645862312412
 10
0.1928746011810036
 20
0.2003523005068505
 10
0.192481270103299
 20
0.2000942962621867
 10
0.1922600209823202
 20
0.1996765751809674
 10
0.1920387724849741
 20
0.1991728528192768
 10
0.1918543981135532
 20
0.1986445586055584
 10
0.1913996093277961
 20
0.198042549239004
 10
0.1911414860808922
 20
0.1977108294382578
 10
0.1906744048804401
 20
0.1976616857342032
 10
0.190219616094683
 20
0.1977231155658948
 10
0.189813993225916
 20
0.1977231155658948
 10
0.1895681611464426
 20
0.1977599731423124
 10
0.1891748300687379
 20
0.1978214025707577
 10
0.1888306655316552
 20
0.1978459744227855
 10
0.1882852212009214
 20
0.1977441610234697
 10
0.1881254304116269
 20
0.1974738710544152
 10
0.1882114717018057
 20
0.197154437381306
 10
0.1881131386205637
 20
0.196687572596033
 10
0.1880148061629534
 20
0.1963189952188683
 10
0.1876829327933012
 20
0.1962944233668414
 10
0.1873510594236489
 20
0.1962575657904239
 10
0.187043769636124
 20
0.1960487052498146
 10
0.187043769636124
 20
0.1956186984442055
 10
0.1871052279678083
 20
0.195348408475151
 10
0.1871411229911477
 20
0.1946062462003754
 10
0.1871411229911477
 20
0.194409671384156
 10
0.1869813328254859
 20
0.1938199477419923
 10
0.1867846666630017
 20
0.1935619439005757
 10
0.1864773768754759
 20
0.1932670816762471
 10
0.1863298778772446
 20
0.1931442228193564
 10
0.1858259225508674
 20
0.1928370748706379
 10
0.1857275894696253
 20
0.1927142160137482
 10
0.1857152983021939
 20
0.1925422130495556
 10
0.1857644642191831
 20
0.1922227793764465
 10
0.1859365467995409
 20
0.1920753482642826
 10
0.1859488385906041
 20
0.1918542019992827
 10
0.1858136307598042
 20
0.1915470544538106
 10
0.185850505509362
 20
0.1912153346530644
 10
0.1858873802589198
 20
0.1909941883880654
 10
0.1859488385906041
 20
0.1908959009799552
 10
0.1861940139853486
 20
0.1906203296857839
 10
0.1863783877331377
 20
0.1905711859817293
 10
0.1865750532719901
 20
0.1905097565532839
 10
0.1867348440612846
 20
0.1903008960126747
 10
0.1865750532719901
 20
0.1900674636200378
 10
0.186439846064822
 20
0.1898586030794286
 10
0.1863046382340221
 20
0.189465453850237
 10
0.1863169300250853
 20
0.1891951638811825
 10
0.1864767208143798
 20
0.1886668696674641
 10
0.1866610945621689
 20
0.1883965796984096
 10
0.1868700518920845
 20
0.188359722121992
 10
0.1870913003894306
 20
0.1883351502699652
 10
0.1873371324689039
 20
0.1883105784179374
 10
0.1875706727573141
 20
0.1881877191578004
 10
0.1876935887970508
 20
0.1877085686481367
 10
0.1878656707537758
 20
0.1875242799595552
 10
0.1880869198747554
 20
0.1874137068270553
 10
0.1883696267037858
 20
0.1872908475669183
 10
0.1885048339109538
 20
0.1870697013019183
  0
LWPOLYLINE
  5
22E9
330
2
100
AcDbEntity
  8
Profilo
  6
Continuous
370
     0
100
AcDbPolyline
 90
        6
 70
   128
 43
0.0
 10
0.1937126606094852
 20
0.1892266385142557
 10
0.1917491520691483
 20
0.191138915729525
 10
0.1906415313552083
 20
0.1917427929358849
 10
0.1892318331718406
 20
0.1918937621366637
 10
0.1880738660051187
 20
0.1920447313374417
 10
0.186613821368969
 20
0.1917931161372269
  0
LWPOLYLINE
  5
22EA
330
2
100
AcDbEntity
  8
Profilo
  6
Continuous
370
     0
100
AcDbPolyline
 90
        5
 70
   128
 43
0.0
 10
0.1929574650650194
 20
0.1890253461121357
 10
0.1916988056163655
 20
0.1901324541221724
 10
0.1906415313552083
 20
0.1907363313285323
 10
0.1895842577176821
 20
0.1908873005293102
 10
0.1888290621732163
 20
0.1908873005293102
  0
LWPOLYLINE
  5
22EB
330
2
100
AcDbEntity
  8
Profilo
  6
Continuous
370
     0
100
AcDbPolyline
 90
        7
 70
   128
 43
0.0
 10
0.1943168167956053
 20
0.1897298693179324
 10
0.1930581573469514
 20
0.1918434393385689
 10
0.1919505372566441
 20
0.1926989317451436
 10
0.1910946488066136
 20
0.1931518393474784
 10
0.1899366822635244
 20
0.1938060397551803
 10
0.1889801009079302
 20
0.1941079781567371
 10
0.1879731737231867
 20
0.1943595937601982
  0
LWPOLYLINE
  5
22EC
330
2
100
AcDbEntity
  8
Profilo
  6
Continuous
370
     0
100
AcDbPolyline
 90
        6
 70
   128
 43
0.0
 10
0.1949713200581391
 20
0.1904847157250703
 10
0.1935616212511395
 20
0.1926989317451436
 10
0.1923533082552675
 20
0.1940073321573003
 10
0.1912960346177421
 20
0.1947621781611918
 10
0.1898863358107425
 20
0.1955673477696717
 10
0.1884262911745929
 20
0.1962215477741264
  0
LWPOLYLINE
  5
22ED
330
2
100
AcDbEntity
  8
Profilo
  6
Continuous
370
     0
100
AcDbPolyline
 90
        6
 70
   128
 43
0.0
 10
0.195676169149823
 20
0.1906356849258491
 10
0.1942161245136733
 20
0.1932524857501615
 10
0.1929574650650194
 20
0.194711855363097
 10
0.1917994978982975
 20
0.1957183169704496
 10
0.190238760356584
 20
0.1967751017791442
 10
0.1893325254537725
 20
0.197328655784163
  0
LWPOLYLINE
  5
22EE
330
2
100
AcDbEntity
  8
Profilo
  6
Continuous
370
     0
100
AcDbPolyline
 90
        5
 70
   128
 43
0.0
 10
0.1961796330540111
 20
0.1909879465287471
 10
0.1949713200581391
 20
0.1936047473530603
 10
0.1941154316081095
 20
0.1948125013625329
 10
0.1931085037997333
 20
0.1960705785733475
 10
0.1916988056163655
 20
0.1976305941857189
  0
LWPOLYLINE
  5
22EF
330
2
100
AcDbEntity
  8
Profilo
  6
Continuous
370
     0
100
AcDbPolyline
 90
        7
 70
   128
 43
0.0
 10
0.1970858679568226
 20
0.191491177735671
 10
0.1960285936956645
 20
0.1938563625532751
 10
0.1949713200581391
 20
0.1955673477696717
 10
0.1941657780608914
 20
0.1968757481818283
 10
0.1936119677039214
 20
0.1980331789899589
 10
0.1935112747983576
 20
0.1996938410050143
 10
0.1935112747983576
 20
0.2000461026079122
  0
LWPOLYLINE
  5
22F0
330
2
100
AcDbEntity
  8
Profilo
  6
Continuous
370
     0
100
AcDbPolyline
 90
        7
 70
   128
 43
0.0
 10
0.1980424486887842
 20
0.1919944085393469
 10
0.1967334427873484
 20
0.1951144397640897
 10
0.1961292866012292
 20
0.1959699325739116
 10
0.195676169149823
 20
0.197278332582821
 10
0.1951727052456349
 20
0.1983351177947629
 10
0.1949713200581391
 20
0.1996938410050143
 10
0.1948706271525753
 20
0.2008512722163921
  0
LWPOLYLINE
  5
22F1
330
2
100
AcDbEntity
  8
Profilo
  6
Continuous
370
     0
100
AcDbPolyline
 90
        6
 70
   128
 43
0.0
 10
0.1989990300443785
 20
0.1921957009414669
 10
0.1978914099540703
 20
0.1951144397640897
 10
0.1970858679568226
 20
0.1967751017791442
 10
0.1966830969581992
 20
0.1980331789899589
 10
0.196229979506793
 20
0.1990899637986544
 10
0.196229979506793
 20
0.2003983642108102
  0
LWPOLYLINE
  5
22F2
330
2
100
AcDbEntity
  8
Profilo
  6
Continuous
370
     0
100
AcDbPolyline
 90
        6
 70
   128
 43
0.0
 10
0.1997542255888443
 20
0.1919944085393469
 10
0.1990493764971604
 20
0.194258947357515
 10
0.1984955661401904
 20
0.1955170245683296
 10
0.1978410635012884
 20
0.197328655784163
 10
0.197438292502665
 20
0.1989893177992176
 10
0.197438292502665
 20
0.2000964258092543
  0
LWPOLYLINE
  5
22F3
330
2
100
AcDbEntity
  8
Profilo
  6
Continuous
370
     0
100
AcDbPolyline
 90
        4
 70
   128
 43
0.0
 10
0.2004590746805281
 20
0.1926486085438016
 10
0.1992507616846562
 20
0.1960202553720064
 10
0.1989486835915966
 20
0.1984357637941988
 10
0.1988983371388147
 20
0.2012035338192909
  0
LWPOLYLINE
  5
22F4
330
2
100
AcDbEntity
  8
Profilo
  6
Continuous
370
     0
100
AcDbPolyline
 90
        5
 70
   128
 43
0.0
 10
0.2014156560361215
 20
0.1932524857501615
 10
0.2002576894930323
 20
0.197479624984941
 10
0.2002073430402504
 20
0.1986873793976608
 10
0.2001066501346858
 20
0.2005996566129301
 10
0.2003583823985962
 20
0.2015557954221888
  0
LWPOLYLINE
  5
22F5
330
2
100
AcDbEntity
  8
Profilo
  6
Continuous
370
     0
100
AcDbPolyline
 90
        5
 70
   128
 43
0.0
 10
0.2020701592986562
 20
0.1935041009503763
 10
0.2013149631305577
 20
0.1959699325739116
 10
0.2010128850374981
 20
0.1981841481907377
 10
0.2011135779430619
 20
0.2003983642108102
 10
0.2011639243958438
 20
0.2015557954221888
  0
LWPOLYLINE
  5
22F6
330
2
100
AcDbEntity
  8
Profilo
  6
Continuous
370
     0
100
AcDbPolyline
 90
        5
 70
   128
 43
0.0
 10
0.202825354843122
 20
0.1935041009503763
 10
0.2019191199403096
 20
0.1967751017791442
 10
0.2017680805819639
 20
0.1988886717997807
 10
0.2018184270347458
 20
0.2004486874121522
 10
0.2021708515805873
 20
0.2017067646229668
  0
LWPOLYLINE
  5
22F7
330
2
100
AcDbEntity
  8
Profilo
  6
Continuous
370
     0
100
AcDbPolyline
 90
        5
 70
   128
 43
0.0
 10
0.2034295110292412
 20
0.1939066857546162
 10
0.202825354843122
 20
0.1970770405839482
 10
0.202825354843122
 20
0.1986370561963188
 10
0.2028757012959039
 20
0.200348041009469
 10
0.2032784722945273
 20
0.2021093494272067
  0
LWPOLYLINE
  5
22F8
330
2
100
AcDbEntity
  8
Profilo
  6
Continuous
370
     0
100
AcDbPolyline
 90
        4
 70
   128
 43
0.0
 10
0.2050405950237366
 20
0.1934034549509403
 10
0.2046881704778951
 20
0.1980331789899589
 10
0.2045874775723313
 20
0.2003983642108102
 10
0.204738516930677
 20
0.2015557954221888
  0
LWPOLYLINE
  5
22F9
330
2
100
AcDbEntity
  8
Profilo
  6
Continuous
370
     0
100
AcDbPolyline
 90
        2
 70
   128
 43
0.0
 10
0.2057454447390532
 20
0.194258947357515
 10
0.2054937124751428
 20
0.2011028874166069
  0
LWPOLYLINE
  5
22FA
330
2
100
AcDbEntity
  8
Profilo
  6
Continuous
370
     0
100
AcDbPolyline
 90
        2
 70
   128
 43
0.0
 10
0.2070544500168563
 20
0.1948125013625329
 10
0.2067523719237967
 20
0.2022603186279856
  0
LWPOLYLINE
  5
22FB
330
2
100
AcDbEntity
  8
Profilo
  6
Continuous
370
     0
100
AcDbPolyline
 90
        3
 70
   128
 43
0.0
 10
0.2088669198224802
 20
0.1941079781567371
 10
0.2087662269169164
 20
0.1992409334026796
 10
0.2083634559182921
 20
0.2026125802308835
  0
LWPOLYLINE
  5
22FC
330
2
100
AcDbEntity
  8
Profilo
  6
Continuous
370
     0
100
AcDbPolyline
 90
        3
 70
   128
 43
0.0
 10
0.2101255792711341
 20
0.1938060397551803
 10
0.2099745399127884
 20
0.1992912562007744
 10
0.209622115366946
 20
0.2014551490195057
  0
LWPOLYLINE
  5
22FD
330
2
100
AcDbEntity
  8
Profilo
  6
Continuous
370
     0
100
AcDbPolyline
 90
        3
 70
   128
 43
0.0
 10
0.210729736080886
 20
0.1938563625532751
 10
0.2104780038169756
 20
0.1993415794021155
 10
0.2101255792711341
 20
0.2016061182202836
  0
LWPOLYLINE
  5
22FE
330
2
100
AcDbEntity
  8
Profilo
  6
Continuous
370
     0
100
AcDbPolyline
 90
        4
 70
   128
 43
0.0
 10
0.2116359703600656
 20
0.1939066857546162
 10
0.2116863168128475
 20
0.1987377021957556
 10
0.2114849316253518
 20
0.2013041798187269
 10
0.2109814677211637
 20
0.2020590262258656
  0
LWPOLYLINE
  5
22FF
330
2
100
AcDbEntity
  8
Profilo
  6
Continuous
370
     0
100
AcDbPolyline
 90
        5
 70
   128
 43
0.0
 10
0.2126932446212237
 20
0.1941583013580782
 10
0.2129449762615014
 20
0.1997944874076974
 10
0.2127939375267875
 20
0.2013041798187269
 10
0.2123408200753813
 20
0.2024112878287635
 10
0.2117366632656294
 20
0.2030151650351234
  0
LWPOLYLINE
  5
2300
330
2
100
AcDbEntity
  8
Profilo
  6
Continuous
370
     0
100
AcDbPolyline
 90
        4
 70
   128
 43
0.0
 10
0.2139519040698776
 20
0.1934537781522815
 10
0.2144553679740648
 20
0.1974293021868462
 10
0.2144553679740648
 20
0.200348041009469
 10
0.2141029428045914
 20
0.2024112878287635
  0
LWPOLYLINE
  5
2301
330
2
100
AcDbEntity
  8
Profilo
  6
Continuous
370
     0
100
AcDbPolyline
 90
        4
 70
   128
 43
0.0
 10
0.2137001718059672
 20
0.1967751017791442
 10
0.2138512111643128
 20
0.1998951334071343
 10
0.2135491330712533
 20
0.2019583802264288
 10
0.2129953227142833
 20
0.2026125802308835
  0
LWPOLYLINE
  5
2302
330
2
100
AcDbEntity
  8
Profilo
  6
Continuous
370
     0
100
AcDbPolyline
 90
        3
 70
   128
 43
0.0
 10
0.2146567531615615
 20
0.1939066857546162
 10
0.2153616022532445
 20
0.2000461026079122
 10
0.2149084848018392
 20
0.2026125802308835
  0
LWPOLYLINE
  5
2303
330
2
100
AcDbEntity
  8
Profilo
  6
Continuous
370
     0
100
AcDbPolyline
 90
        5
 70
   128
 43
0.0
 10
0.2164188765144026
 20
0.1936047473530603
 10
0.2169223404185907
 20
0.1969763941812642
 10
0.2176271895102746
 20
0.1989389945978756
 10
0.2179796140561161
 20
0.2005996566129301
 10
0.2178285746977704
 20
0.2014048262214109
  0
LWPOLYLINE
  5
2304
330
2
100
AcDbEntity
  8
Profilo
  6
Continuous
370
     0
100
AcDbPolyline
 90
        6
 70
   128
 43
0.0
 10
0.217325111417215
 20
0.1931518393474784
 10
0.2179292676033341
 20
0.1967751017791442
 10
0.2188858489589285
 20
0.1988383485984396
 10
0.219691390956176
 20
0.2006499798142721
 10
0.2195906980506124
 20
0.2016564414216257
 10
0.2193389664103345
 20
0.2021596722253015
  0
LWPOLYLINE
  5
2305
330
2
100
AcDbEntity
  8
Profilo
  6
Continuous
370
     0
100
AcDbPolyline
 90
        6
 70
   128
 43
0.0
 10
0.2183823850547404
 20
0.1934034549509403
 10
0.2188858489589285
 20
0.1958189633731327
 10
0.219892776143672
 20
0.1980835021913009
 10
0.2207486645937014
 20
0.1999957794065702
 10
0.221101089139544
 20
0.2012538566173857
 10
0.220899703952048
 20
0.2020590262258656
  0
LWPOLYLINE
  5
2306
330
2
100
AcDbEntity
  8
Profilo
  6
Continuous
370
     0
100
AcDbPolyline
 90
        4
 70
   128
 43
0.0
 10
0.2199431225964539
 20
0.1925982853424605
 10
0.221453514309018
 20
0.1959699325739116
 10
0.2223094027590478
 20
0.197479624984941
 10
0.2236687544896336
 20
0.1991402869999955
  0
LWPOLYLINE
  5
2307
330
2
100
AcDbEntity
  8
Profilo
  6
Continuous
370
     0
100
AcDbPolyline
 90
        5
 70
   128
 43
0.0
 10
0.2205976258589875
 20
0.1960705785733475
 10
0.2218562853076414
 20
0.1983351177947629
 10
0.2231149447562953
 20
0.1999454566084754
 10
0.2231149447562953
 20
0.2004486874121522
 10
0.222812866039603
 20
0.2011028874166069
  0
LWPOLYLINE
  5
2308
330
2
100
AcDbEntity
  8
Profilo
  6
Continuous
370
     0
100
AcDbPolyline
 90
        4
 70
   128
 43
0.0
 10
0.2209500504048299
 20
0.1919440853380049
 10
0.2225107879465434
 20
0.1952654093681149
 10
0.2246253358452269
 20
0.197529948186283
 10
0.2267398837439105
 20
0.1990396410005596
  0
LWPOLYLINE
  5
2309
330
2
100
AcDbEntity
  8
Profilo
  6
Continuous
370
     0
100
AcDbPolyline
 90
        5
 70
   128
 43
0.0
 10
0.2224604414937616
 20
0.1909376237306523
 10
0.2235680615840688
 20
0.1928499009459216
 10
0.2250281068438512
 20
0.1943595937601982
 10
0.2266895372911286
 20
0.1952654093681149
 10
0.228300621285624
 20
0.1961209017746895
  0
LWPOLYLINE
  5
230A
330
2
100
AcDbEntity
  8
Profilo
  6
Continuous
370
     0
100
AcDbPolyline
 90
        4
 70
   128
 43
0.0
 10
0.2242225648466036
 20
0.1926486085438016
 10
0.2259343417466627
 20
0.1936047473530603
 10
0.2281999283800601
 20
0.1940073321573003
 10
0.229508934281496
 20
0.1939570089559582
  0
LWPOLYLINE
  5
230B
330
2
100
AcDbEntity
  8
Profilo
  6
Continuous
370
     0
100
AcDbPolyline
 90
        3
 70
   128
 43
0.0
 10
0.1908263588525154
 20
0.1393109567748233
 10
0.1851034001110359
 20
0.1344528661436315
 10
0.1893522634679823
 20
0.1400917218639556
  0
LWPOLYLINE
  5
230C
330
2
100
AcDbEntity
  8
Profilo
  6
Continuous
370
     0
100
AcDbPolyline
 90
       59
 70
   128
 43
0.0
 10
0.1921040762053334
 20
0.1375745800781991
 10
0.1907665105553049
 20
0.1373813083458901
 10
0.1899670045500372
 20
0.1367696380151471
 10
0.1893556172727469
 20
0.1361109165042751
 10
0.1889323491266801
 20
0.1352404631237384
 10
0.1886266556896585
 20
0.1341582778735381
 10
0.1881093281796036
 20
0.1334995557390335
 10
0.1875684857277398
 20
0.1334054527551419
 10
0.1872627922907173
 20
0.1338759682982311
 10
0.1872392773489084
 20
0.134064174266014
 10
0.1870253322676867
 20
0.1334483580282701
 10
0.1866255794666769
 20
0.1332601520604872
 10
0.1859436473639591
 20
0.1329543165833002
 10
0.1856614688687463
 20
0.1331189972728341
 10
0.1855909240433198
 20
0.1336836157998156
 10
0.185214686184118
 20
0.1329543165833002
 10
0.1848854774020403
 20
0.1326720076316258
 10
0.1841565162221992
 20
0.1323896980563188
 10
0.1836862181925147
 20
0.132483801663843
 10
0.183404039697302
 20
0.1330248942889427
 10
0.183404039697302
 20
0.1338247699638368
 10
0.1836862181925147
 20
0.1344599661964598
 10
0.1841094863385815
 20
0.1347658010500158
 10
0.1835216140031
 20
0.1348363781320265
 10
0.1832629504496952
 20
0.1350951618054518
 10
0.1834510695809197
 20
0.135730357414443
 10
0.1838508223819304
 20
0.1362243988594138
 10
0.1846738437322541
 20
0.1363420277451861
 10
0.1852852306062973
 20
0.1365067078110882
 10
0.1855674095047572
 20
0.1366949144025037
 10
0.1846503287904453
 20
0.1366949144025037
 10
0.1838273074401215
 20
0.1368360685665242
 10
0.1838978522655481
 20
0.1372830582077333
 10
0.1844622096592208
 20
0.137800625554585
 10
0.1853322604899159
 20
0.138294666375923
 10
0.1861082515533747
 20
0.1390004396905574
 10
0.1868136981946542
 20
0.1399179448748557
 10
0.1871664215152935
 20
0.141164810190958
 10
0.1871664215152935
 20
0.1421058412771371
 10
0.1868842430200808
 20
0.1430468717396834
 10
0.1862963706845992
 20
0.1437996968580796
 10
0.1855203796211395
 20
0.1445995725329737
 10
0.1847443881544335
 20
0.1449054080101616
 10
0.1838273074401215
 20
0.1448818821082799
 10
0.1831218607988421
 20
0.1444584183689524
 10
0.1826045332887871
 20
0.1438937998419719
 10
0.1822988398517655
 20
0.1431409753472076
 10
0.1823223547935744
 20
0.1423646249505624
 10
0.1826750781142137
 20
0.1415882745539173
 10
0.1834745841194814
 20
0.1410471813051849
 10
0.1841094863385815
 20
0.1410942331089474
 10
0.1846503287904453
 20
0.1414471197662642
 10
0.1848384479216698
 20
0.1419411605876023
 10
0.1848384479216698
 20
0.1426939857059984
 10
0.1845562690232099
 20
0.1430703976415651
 10
0.183921367207357
 20
0.1432586042329799
 10
0.1835216140031
 20
0.1431409753472076
 10
0.1833570098136843
 20
0.1428116145917716
 10
0.1833570098136843
 20
0.1423881502288115
  0
LWPOLYLINE
  5
230D
330
2
100
AcDbEntity
  8
Profilo
  6
Continuous
370
     0
100
AcDbPolyline
 90
       11
 70
   128
 43
0.0
 10
0.1852542701130677
 20
0.1425204145155309
 10
0.1852542701130677
 20
0.1402318277022147
 10
0.1844716948336427
 20
0.1389670822267228
 10
0.1830269400993985
 20
0.13770233675123
 10
0.1812811949971442
 20
0.1367387214478229
 10
0.1793548553514859
 20
0.1361966877617022
 10
0.1773081194779735
 20
0.1364375918993698
 10
0.1758031664281792
 20
0.1368591735166568
 10
0.174337543261766
 20
0.137574339979794
 10
0.1732584129273758
 20
0.1385916836935146
 10
0.1721171768570058
 20
0.1397334476980324
  0
LWPOLYLINE
  5
230E
330
2
100
AcDbEntity
  8
Profilo
  6
Continuous
370
     0
100
AcDbPolyline
 90
       21
 70
   128
 43
0.0
 10
0.1810541484229813
 20
0.1789720333535735
 10
0.181397799494061
 20
0.1786510167972451
 10
0.1817830547612396
 20
0.1785482341001113
 10
0.1823737800687912
 20
0.1786767123156213
 10
0.1826049333097475
 20
0.1790621457148868
 10
0.1827076681283108
 20
0.1799229477631806
 10
0.1824765148873546
 20
0.1805139465567155
 10
0.1818472641740592
 20
0.1808736844376056
 10
0.1811666462531056
 20
0.1809379235453606
 10
0.1802163492822049
 20
0.1806938151853442
 10
0.1797155173945486
 20
0.1798073176186751
 10
0.1797155173945486
 20
0.17898505915976
 10
0.1797925686092825
 20
0.178034322485335
 10
0.180524553737895
 20
0.1772249114737926
 10
0.1814748507087958
 20
0.1767880870377757
 10
0.1828232447487885
 20
0.176813782556151
 10
0.1836836482997939
 20
0.1773148460999229
 10
0.1843128990130893
 20
0.1780214750379642
 10
0.1848907821154795
 20
0.1795118188455399
 10
0.1849935169340429
 20
0.1807066632563478
 10
0.1846724706764375
 20
0.1818501166304059
  0
LWPOLYLINE
  5
230F
330
2
100
AcDbEntity
  8
Profilo
  6
Continuous
370
     0
100
AcDbPolyline
 90
       10
 70
   128
 43
0.0
 10
0.1828796388327476
 20
0.1805214937538458
 10
0.182322586257315
 20
0.1822863105742479
 10
0.18092995401224
 20
0.1835402597287409
 10
0.1792587954794487
 20
0.1844226681389415
 10
0.1774947945819207
 20
0.1848870939133998
 10
0.1752201620897058
 20
0.1847942088832347
 10
0.1734097402114323
 20
0.1841440130484461
 10
0.1720635293503492
 20
0.1833544896684106
 10
0.1710886867384718
 20
0.1823327530893305
 10
0.170440793377969
 20
0.1816549834265965
  0
LWPOLYLINE
  5
2310
330
2
100
AcDbEntity
  8
Profilo
  6
Continuous
370
     0
100
AcDbPolyline
 90
       20
 70
   128
 43
0.0
 10
0.1834326097426973
 20
0.1357906794882226
 10
0.1823058813497564
 20
0.1350899569709409
 10
0.1814684483571975
 20
0.1347395960241155
 10
0.1803721723663483
 20
0.1344958662088573
 10
0.1792911225765439
 20
0.1343892344536592
 10
0.1783166549843165
 20
0.1344653999039962
 10
0.1773528278689824
 20
0.1347791343068868
 10
0.1770663983445735
 20
0.1349450385628378
 10
0.1767045922899533
 20
0.1350355319634374
 10
0.1763277112518893
 20
0.1348545451622373
 10
0.1761920339814076
 20
0.1348394632406199
 10
0.1759659056005172
 20
0.1349902849513208
 10
0.1756644006894164
 20
0.1351863542977711
 10
0.1749860147402515
 20
0.1352165187646377
 10
0.1743377791612233
 20
0.1350807783519215
 10
0.174096575393641
 20
0.1348243806953708
 10
0.1739910484932949
 20
0.134326667303887
 10
0.1741267257637775
 20
0.1336479677348347
 10
0.1744433060615693
 20
0.1331804188102174
 10
0.1747598859561148
 20
0.132878774765183
  0
LWPOLYLINE
  5
2311
330
2
100
AcDbEntity
  8
Profilo
  6
Continuous
370
     0
100
AcDbPolyline
 90
        9
 70
   128
 43
0.0
 10
0.1740061238799859
 20
0.1346433938941706
 10
0.1729533796055878
 20
0.1350479771680271
 10
0.1720271564767481
 20
0.1352950845753909
 10
0.1709156889640904
 20
0.1348626467684117
 10
0.1703599554093842
 20
0.1343066561932002
 10
0.1703278871968223
 20
0.1339253699481992
 10
0.1707304445802704
 20
0.1336888886102384
 10
0.171224430141452
 20
0.1339359953939704
 10
0.1721506528670436
 20
0.1340595487858356
  0
LWPOLYLINE
  5
2312
330
2
100
AcDbEntity
  8
Profilo
  6
Continuous
370
     0
100
AcDbPolyline
 90
       13
 70
   128
 43
0.0
 10
0.1716375098504408
 20
0.1337570453756016
 10
0.171503176601995
 20
0.1333538590379191
 10
0.1716225840683621
 20
0.1328312103357362
 10
0.1720554357811024
 20
0.1322040308953051
 10
0.1725927691781319
 20
0.1318307103046553
 10
0.1727420282086565
 20
0.1313379267258736
 10
0.1730106951087944
 20
0.1312035314878569
 10
0.1738614727521963
 20
0.1310990013732405
 10
0.1741152134670101
 20
0.1309944718822566
 10
0.1741002876849313
 20
0.1305614197975413
 10
0.1742793986828588
 20
0.1301433005863423
 10
0.1748018058945633
 20
0.1300089047246929
 10
0.1750853985767791
 20
0.1299342409807419
  0
LWPOLYLINE
  5
2313
330
2
100
AcDbEntity
  8
Profilo
  6
Continuous
370
     0
100
AcDbPolyline
 90
        7
 70
   128
 43
0.0
 10
0.1832658594730898
 20
0.1341700526734909
 10
0.180997119225099
 20
0.1326887159860735
 10
0.1783223935914588
 20
0.1317807997707958
 10
0.1759820084604009
 20
0.1314940898465422
 10
0.1745491200737341
 20
0.1316852300039221
 10
0.1735699792527685
 20
0.1320675103186812
 10
0.1725430758485038
 20
0.1328081789742063
  0
LWPOLYLINE
  5
2314
330
2
100
AcDbEntity
  8
Profilo
  6
Continuous
370
     0
100
AcDbPolyline
 90
       66
 70
   128
 43
0.0
 10
0.1832419779798162
 20
0.1337160945658522
 10
0.1797552823813728
 20
0.1314701972489156
 10
0.1801135043772277
 20
0.1311834867010302
 10
0.1795164674486378
 20
0.1308012063862702
 10
0.1781552231385446
 20
0.1306339582028849
 10
0.1769611492813656
 20
0.1303233556810048
 10
0.1756715494510923
 20
0.1299649679638715
 10
0.1751461570023232
 20
0.1297499345852331
 10
0.1747640531099484
 20
0.1294393320633537
 10
0.1747162901234012
 20
0.1290809443462203
 10
0.1751939199888703
 20
0.1286986634078286
 10
0.1756715494510923
 20
0.1286986634078286
 10
0.1752416829754175
 20
0.1286747708102019
 10
0.1747162901234012
 20
0.1286747708102019
 10
0.1743341866342727
 20
0.128292490495443
 10
0.174190897674632
 20
0.1280296725451832
 10
0.1743341866342727
 20
0.1274562520730442
 10
0.1747879346032211
 20
0.1272651119156642
 10
0.1757431939309131
 20
0.1271695415251587
 10
0.1762447048864086
 20
0.1272173267204111
 10
0.1766268083755371
 20
0.1273128971109173
 10
0.1757909569174603
 20
0.1266916908198933
 10
0.1752894455587175
 20
0.1260943777501277
 10
0.1749312235628626
 20
0.1253537090946025
 10
0.1747401716166748
 20
0.1247325034272103
 10
0.1745968830602804
 20
0.1241590829550713
 10
0.1745968830602804
 20
0.1232511667397928
 10
0.1748356975897682
 20
0.1228211012297806
 10
0.1754088530250846
 20
0.1226060684747749
 10
0.1761491789133152
 20
0.1225821758771483
 10
0.1772954897839469
 20
0.1227255308392742
 10
0.178250749111639
 20
0.123490092092426
 10
0.1786806155873137
 20
0.1241590829550713
 10
0.179086600972963
 20
0.1248519664153433
 10
0.1792537710226301
 20
0.1251625689372225
 10
0.1791343639595093
 20
0.1242546527219449
 10
0.1791343639595093
 20
0.1235617698853057
 10
0.1794925859553651
 20
0.1230361339847871
 10
0.1798985709377663
 20
0.1225821758771483
 10
0.1805983330069936
 20
0.1226514439551276
 10
0.1809565550028485
 20
0.1229859390746343
 10
0.1809565550028485
 20
0.1233204348177729
 10
0.1807655034599069
 20
0.1243478133975517
 10
0.1810998439624891
 20
0.1235593601704061
 10
0.1813386588952233
 20
0.1231531866343877
 10
0.1817446438776253
 20
0.1235593601704061
 10
0.1820312217969067
 20
0.1238699626922863
 10
0.1820789843802066
 20
0.1230337242698875
 10
0.1826760217120438
 20
0.1229381538793812
 10
0.1827954287751636
 20
0.1230337242698875
 10
0.1829625992280779
 20
0.1226992291503807
 10
0.1833679337731724
 20
0.1222289050623835
 10
0.1836782734213875
 20
0.1219923457703946
 10
0.1840920600222546
 20
0.121844496914488
 10
0.1846240709629801
 20
0.1215931531734511
 10
0.1850230793701464
 20
0.1215487985790422
 10
0.1854664219551669
 20
0.1214600887665925
 10
0.1859393205243391
 20
0.1212678846926444
 10
0.1860871016548435
 20
0.1209426162118387
 10
0.1863678853189061
 20
0.1202772948011773
 10
0.1862965706950794
 20
0.1198321804220561
 10
0.1866364663274471
 20
0.1194477728977925
 10
0.1868729158136564
 20
0.1192999234182532
 10
0.187153699477719
 20
0.1196695464934687
 10
0.1875379296911863
 20
0.1202165885699514
 10
0.1877743791773956
 20
0.1213993825353659
  0
LWPOLYLINE
  5
2315
330
2
100
AcDbEntity
  8
Profilo
  6
Continuous
370
     0
100
AcDbPolyline
 90
        6
 70
   128
 43
0.0
 10
0.1841987523062454
 20
0.1320903103126576
 10
0.1836472040514849
 20
0.1309341504321106
 10
0.1832532410699772
 20
0.1298830962787182
 10
0.1826754285358005
 20
0.1287006602781981
 10
0.1823339937098798
 20
0.1279649220590077
 10
0.1822026727160433
 20
0.1276233293812016
  0
LWPOLYLINE
  5
2316
330
2
100
AcDbEntity
  8
Profilo
  6
Continuous
370
     0
100
AcDbPolyline
 90
        6
 70
   128
 43
0.0
 10
0.1830956557967254
 20
0.1269138672819836
 10
0.183226976790561
 20
0.1255474965707574
 10
0.183463354498816
 20
0.1243125077066599
 10
0.18388358175974
 20
0.1232614535532676
 10
0.1844351304177476
 20
0.1223943334869495
 10
0.1849341501136739
 20
0.1218425299784651
  0
LWPOLYLINE
  5
2317
330
2
100
AcDbEntity
  8
Profilo
  6
Continuous
370
     0
100
AcDbPolyline
 90
       10
 70
   128
 43
0.0
 10
0.1834191368593283
 20
0.1324695579039292
 10
0.180688710323212
 20
0.1295102265741641
 10
0.1780015888787683
 20
0.1262535299400284
 10
0.1768801639895268
 20
0.1250177652774486
 10
0.1764088400996375
 20
0.1245787437851189
 10
0.1761487994579485
 20
0.1245299638964749
 10
0.1761487994579485
 20
0.124725084698317
 10
0.1766038704800936
 20
0.1252291460421717
 10
0.1785216701621473
 20
0.1273266937265282
 10
0.1809107933308429
 20
0.1299608239277678
  0
LWPOLYLINE
  5
2318
330
2
100
AcDbEntity
  8
Profilo
  6
Continuous
370
     0
100
AcDbPolyline
 90
      329
 70
   129
 43
0.0
 10
0.1849664054328148
 20
0.1410080539960473
 10
0.1844884404691414
 20
0.1402270157560026
 10
0.1840104751022225
 20
0.1399401037749092
 10
0.1838192888748049
 20
0.1398444666557563
 10
0.1838352211612346
 20
0.1394459781395896
 10
0.1837396282491499
 20
0.138872154177403
 10
0.1834050522503576
 20
0.1386011822358628
 10
0.1827836975153103
 20
0.1384736656612371
 10
0.1821304782074027
 20
0.1384417868293961
 10
0.1817162419862026
 20
0.1386330610677037
 10
0.1816047167876873
 20
0.1386171216517832
 10
0.1814135305602706
 20
0.1381867536801437
 10
0.1810789549647256
 20
0.1379476605704437
 10
0.180425735656818
 20
0.1379317211545232
 10
0.1802026852597882
 20
0.1380592371055171
 10
0.1800106429391264
 20
0.1376853115916144
 10
0.1797648740129853
 20
0.1375400171332823
 10
0.1792174796049102
 20
0.1376629587419402
 10
0.1788935114200092
 20
0.1378082525766397
 10
0.1782845214457513
 20
0.1384467802525848
 10
0.1781281229282305
 20
0.1386479571469192
 10
0.1777259554845687
 20
0.1390726631616297
 10
0.1771897322263538
 20
0.1392738400559641
 10
0.1765976528155912
 20
0.1390614870486088
 10
0.1759050310398555
 20
0.1389720750262788
 10
0.1754134931875735
 20
0.1389720750262788
 10
0.1750448395967388
 20
0.1392850167926176
 10
0.1749554691881185
 20
0.1396761938446319
 10
0.1749554691881185
 20
0.1400226645736668
 10
0.1748934490029133
 20
0.1401920823735465
 10
0.1746029946708385
 20
0.140046788538847
 10
0.1740556002627633
 20
0.1401473766741978
 10
0.1736534332223487
 20
0.1403820831548601
 10
0.1734635208520008
 20
0.1407844363198962
 10
0.1734635208520008
 20
0.1411644366352579
 10
0.1734970347048279
 20
0.1416897314089519
 10
0.1735640624104813
 20
0.1422038500696242
 10
0.1735864051134481
 20
0.1427514976929925
 10
0.1735640624104813
 20
0.1433326749026887
 10
0.1730836961113067
 20
0.1437462048043784
 10
0.172580986705918
 20
0.1439585584353663
 10
0.172011249594876
 20
0.1442379706153772
 10
0.1716984529630816
 20
0.1442826763147259
 10
0.17130745666928
 20
0.144617970930739
 10
0.1711063731490727
 20
0.1449979712461008
 10
0.1710170027404525
 20
0.1452885601627644
 10
0.171005831187345
 20
0.1458026781998057
 10
0.1711287158520387
 20
0.1462497376878223
 10
0.1711510581517592
 20
0.1463950321461546
 10
0.1706706918525838
 20
0.1465962084168572
 10
0.1704249229264436
 20
0.1467862091981699
 10
0.1703467236676828
 20
0.147188562363206
 10
0.1703690663706496
 20
0.1475126802425656
 10
0.1703802375205099
 20
0.1477920924225765
 10
0.170190325150162
 20
0.1480379750162596
 10
0.1701568112973357
 20
0.1483509167825984
 10
0.170246181705956
 20
0.1486638585489371
 10
0.1704249229264436
 20
0.1490215060146246
 10
0.1705924925938238
 20
0.1493344477809634
 10
0.1705428295077154
 20
0.1498110674362255
 10
0.1702635467287481
 20
0.1502134206012616
 10
0.1696714669147392
 20
0.1506828329389534
 10
0.169503897247359
 20
0.1509510683823109
 10
0.1694368691384585
 20
0.1513422454343262
 10
0.1694703833945319
 20
0.1517669520726693
 10
0.1696156103589461
 20
0.1520575409893329
 10
0.1694703833945319
 20
0.1524040117183677
 10
0.1692469567681105
 20
0.1526722471617251
 10
0.1691911002123174
 20
0.1531640129727231
 10
0.1693028133239045
 20
0.1535440132880849
 10
0.1693921841357719
 20
0.1538346015811175
 10
0.1689900166921101
 20
0.1543375435051363
 10
0.1682750526166539
 20
0.1550751919098182
 10
0.16798459828458
 20
0.1554104865258313
 10
0.1678728851729929
 20
0.1557457811418444
 10
0.167871562119797
 20
0.156374152343448
 10
0.1679504339944462
 20
0.1569067841502146
 10
0.1681081777437436
 20
0.1573605071485063
 10
0.1683152164146977
 20
0.157735321338324
 10
0.1684433832110026
 20
0.1581002727845767
 10
0.1680983187594125
 20
0.1584750875980262
 10
0.1677926902451479
 20
0.1588696291458701
 10
0.1676349464958495
 20
0.1595502133314918
 10
0.1676546644645118
 20
0.160211070782719
 10
0.1677039593861676
 20
0.1608127474071302
 10
0.167930716025783
 20
0.1614242867751073
 10
0.1681278957124059
 20
0.1615919671356213
 10
0.16833493438336
 20
0.1618089649557536
 10
0.1684138062580092
 20
0.1621443256767824
 10
0.1682067675870551
 20
0.1627755924027857
 10
0.1678753433663129
 20
0.1632575840259939
 10
0.1677363643099208
 20
0.1640322531101729
 10
0.1676768023180355
 20
0.1645288352328092
 10
0.1678157809711804
 20
0.1651048712184803
 10
0.1680738844145904
 20
0.1657206332002218
 10
0.1683915502531337
 20
0.1659391296085791
 10
0.1683716959870065
 20
0.1665151649706183
 10
0.1681135925435966
 20
0.1672898340547973
 10
0.1681533006726028
 20
0.1682035456842991
 10
0.1683518417208802
 20
0.1686802644970852
 10
0.1685702370352848
 20
0.1690576673842491
 10
0.1686297994304173
 20
0.1696337027462883
 10
0.1688879028738273
 20
0.1701302854925565
 10
0.169284984970383
 20
0.170646730925044
 10
0.1689276110028335
 20
0.171500853248625
 10
0.1687092156884298
 20
0.1720967519205153
 10
0.1687489242206823
 20
0.1724145648781276
 10
0.1689077571399544
 20
0.1727125145258886
 10
0.1687321406799713
 20
0.173101110364143
 10
0.1687122864138451
 20
0.1735579658670779
 10
0.1687122864138451
 20
0.1739353687542419
 10
0.1690100979862612
 20
0.1744319508768782
 10
0.169268201429672
 20
0.1745312674261322
 10
0.1694667424779495
 20
0.175087440101953
 10
0.1695461591392082
 20
0.1755840222245893
 10
0.1697248459213603
 20
0.1760408783511561
 10
0.1702013446791748
 20
0.1765573237836427
 10
0.1706579891708622
 20
0.1768354101215536
 10
0.1709558007432792
 20
0.1771333597693146
 10
0.1711741960576829
 20
0.1776498052018013
 10
0.1712139041866891
 20
0.1782854311170249
 10
0.1713330289769541
 20
0.1791792794366763
 10
0.1713330289769541
 20
0.1799142212775212
 10
0.1715712781542387
 20
0.1804108040237894
 10
0.1717301110735099
 20
0.1804902572631931
 10
0.1720874850410594
 20
0.1806888897380675
 10
0.1721669017023182
 20
0.1810067026956797
 10
0.1723654427505956
 20
0.1815628753715005
 10
0.1727228167181452
 20
0.1818608243956289
 10
0.1735963975725145
 20
0.1822183639729425
 10
0.174211874983474
 20
0.1824169970714496
 10
0.1749663310475793
 20
0.1825957668601065
 10
0.1753832674102604
 20
0.1829930324334888
 10
0.1758994742970812
 20
0.1833307087009514
 10
0.1764355354500291
 20
0.1836485216585636
 10
0.1770708671271148
 20
0.1836485216585636
 10
0.1780437185056238
 20
0.1836485216585636
 10
0.1785996335214499
 20
0.1836683849684147
 10
0.1791414969945555
 20
0.1834897829368248
 10
0.1794194547040926
 20
0.1832315599087652
 10
0.1796974124136288
 20
0.1831123800496609
 10
0.1803724522197216
 20
0.1834301930072722
 10
0.180829096711409
 20
0.1831918332890637
 10
0.1811864706789585
 20
0.1830130635004069
 10
0.1814048655901159
 20
0.1824767547580691
 10
0.1814048655901159
 20
0.181721949607374
 10
0.1812063245418385
 20
0.1813842733399106
 10
0.1806305552598844
 20
0.1810664603822992
 10
0.1801342026391908
 20
0.1809671438330452
 10
0.17987609919578
 20
0.1812253668611049
 10
0.1803923060826007
 20
0.181523316508866
 10
0.1807893881791565
 20
0.1818212661566271
 10
0.180848950574289
 20
0.1822383950398606
 10
0.1806504095260115
 20
0.1825562079974728
 10
0.1801342026391908
 20
0.1825562079974728
 10
0.1796378500184963
 20
0.182278121659562
 10
0.1789231020833981
 20
0.1818014028467768
 10
0.1787642691641269
 20
0.1822582583497109
 10
0.1789231020833981
 20
0.1824370281383677
 10
0.1784267490594573
 20
0.1824767547580691
 10
0.1777517092533645
 20
0.1825562079974728
 10
0.1772156485036647
 20
0.1827747044058302
 10
0.1768185664071089
 20
0.1825959346171743
 10
0.1763817757783006
 20
0.1820000353216521
 10
0.175885423157607
 20
0.181523316508866
 10
0.1751706752225079
 20
0.1810863236921504
 10
0.1747140307308206
 20
0.1811260503118518
 10
0.1739794285295952
 20
0.1812849567906575
 10
0.1734830755056544
 20
0.1813048201005077
 10
0.1731455558042321
 20
0.1811260503118518
 10
0.1730859934090987
 20
0.1806493314990657
 10
0.1729668690220809
 20
0.1802322019922003
 10
0.1725300783932726
 20
0.1800732955133947
 10
0.1722322668208556
 20
0.1799541156542904
 10
0.1720734339015844
 20
0.1796958932498626
 10
0.1721727044257231
 20
0.1790006774050864
 10
0.1722124125547293
 20
0.1785438219021523
 10
0.1723513916111214
 20
0.1778684693672273
 10
0.1723513916111214
 20
0.1773321606248895
 10
0.1723513916111214
 20
0.1771136642165313
 10
0.1721329962967169
 20
0.1766965347096659
 10
0.1718153304581735
 20
0.1763787223756855
 10
0.1712325882302086
 20
0.1760304412423158
 10
0.170895068125539
 20
0.1758318081438087
 10
0.1703987155048445
 20
0.1756530389787846
 10
0.1702001744565671
 20
0.1754544058802766
 10
0.1700214872711687
 20
0.1752359094719184
 10
0.1698825086180238
 20
0.1748386432749042
 10
0.1699420710131563
 20
0.1746201474901777
 10
0.1701604659243137
 20
0.1741037014340593
 10
0.1698825086180238
 20
0.1738256150961485
 10
0.1696244051746139
 20
0.1736468453074916
 10
0.1696045509084867
 20
0.1733488962833632
 10
0.1696839675697463
 20
0.1731899898045567
 10
0.1697633838277588
 20
0.1728920401567956
 10
0.1696839675697463
 20
0.1725543645129658
 10
0.169505280384348
 20
0.1722961414849061
 10
0.1693464474650768
 20
0.171998191837145
 10
0.1694854265214689
 20
0.1716803788795328
 10
0.1697832380938851
 20
0.1714022931652547
 10
0.1700214872711687
 20
0.171144070137195
 10
0.1702795907145795
 20
0.1707666672500311
 10
0.1702001744565671
 20
0.17046871760227
 10
0.1700611954001749
 20
0.1698728189303805
 10
0.1696442594407401
 20
0.1696145959023209
 10
0.1693265936021968
 20
0.1693365101880427
 10
0.1691677606829256
 20
0.1690186972304305
 10
0.1693067393360705
 20
0.1685419777940126
 10
0.1692074688119318
 20
0.168224165460033
 10
0.1688500948443823
 20
0.167747446023616
 10
0.1687905324492498
 20
0.167548812925108
 10
0.1689692196346482
 20
0.1670919574221731
 10
0.1690872254146669
 20
0.166829155686352
 10
0.1691666416726794
 20
0.1664318894893369
 10
0.1690872254146669
 20
0.1658955807469992
 10
0.1689482463582748
 20
0.1656373577189395
 10
0.1685908723907252
 20
0.1652400915219253
 10
0.1684717480037074
 20
0.1650414584234173
 10
0.1684121856085741
 20
0.1644654230613781
 10
0.1685908723907252
 20
0.1640880201742142
 10
0.1689482463582748
 20
0.1636907546008318
 10
0.1692262040678119
 20
0.1634126682629219
 10
0.1696232861643667
 20
0.1629558121363542
 10
0.1696828485594992
 20
0.1623996400841662
 10
0.1696828485594992
 20
0.1617441514827241
 10
0.1691666416726794
 20
0.1616051083137687
 10
0.168848975834136
 20
0.1612674320463062
 10
0.168551164261719
 20
0.1608503025394409
 10
0.1683327689473153
 20
0.1603735837266548
 10
0.1682930608183091
 20
0.159658505195661
 10
0.1683526232134416
 20
0.1593009656183474
 10
0.1685710185278462
 20
0.1588242461819295
 10
0.1690276630195335
 20
0.1583276640592931
 10
0.1693651827209568
 20
0.1580893043410846
 10
0.1697622652207589
 20
0.1577317647637709
 10
0.1697821190836388
 20
0.15737422581009
 10
0.1695637237692342
 20
0.1571358660918814
 10
0.1691269335436731
 20
0.1570564128524786
 10
0.168848975834136
 20
0.1567385998948664
 10
0.1686313091869442
 20
0.1562520339293213
 10
0.1686710177191977
 20
0.1559739475914114
 10
0.1689489750254876
 20
0.1556561346337991
 10
0.1692070784688975
 20
0.1552588690604167
 10
0.1696637229605857
 20
0.1547424230042974
 10
0.1699615349362491
 20
0.1543650207407653
 10
0.1701402217184003
 20
0.1539081646141985
 10
0.1700210969281353
 20
0.153471171797482
 10
0.1698027020169779
 20
0.1529944529846968
 10
0.1700409511942615
 20
0.1526766400270855
 10
0.1703586170328049
 20
0.1523588270694733
 10
0.1702792003715452
 20
0.1519416981862397
 10
0.1700012430652553
 20
0.1515841586089269
 10
0.1701402217184003
 20
0.1512067563453948
 10
0.1705968662100885
 20
0.1509485333173351
 10
0.1709145320486318
 20
0.1507300369089769
 10
0.1712520517500542
 20
0.1504122239513655
 10
0.1712719060161805
 20
0.150094411617386
 10
0.1713116141451867
 20
0.1496772821105198
 10
0.171212343621048
 20
0.1491806993642516
 10
0.1709740944437643
 20
0.1488827503401232
 10
0.1708152615244922
 20
0.1485450740726598
 10
0.1708628043382128
 20
0.1480694977541027
 10
0.1708628043382128
 20
0.1478359574656925
 10
0.1708013749097674
 20
0.1476392919268402
 10
0.1707645169301035
 20
0.1473320021393153
 10
0.1708750904658498
 20
0.1470492953102841
 10
0.1711453804349043
 20
0.146950962229042
 10
0.1714156704039589
 20
0.1468772127299264
 10
0.1716245309445681
 20
0.146631380650453
 10
0.1715876733681505
 20
0.14618888365576
 10
0.1714893859600404
 20
0.1458324273276131
 10
0.1715016716844311
 20
0.1454759709994672
 10
0.1717596759290949
 20
0.1450826399217625
 10
0.1721773970103142
 20
0.1448613908007837
 10
0.1726811193720048
 20
0.1446401423034368
 10
0.1732094135857241
 20
0.1444557679320159
 10
0.1738114229522776
 20
0.1440009791462596
 10
0.1741431427530238
 20
0.1437428558993549
 10
0.1741922864570784
 20
0.1432757746989028
 10
0.1741308566253867
 20
0.1428209859131465
 10
0.1741308566253867
 20
0.1424153630443786
 10
0.1740939990489692
 20
0.1421695309649061
 10
0.1740325696205238
 20
0.1417761998872015
 10
0.174007997768497
 20
0.1414320353501187
 10
0.1741098111678119
 20
0.1408865910193841
 10
0.1743801011368664
 20
0.1407268002300904
 10
0.1746995348099756
 20
0.1408128415202694
 10
0.1751663995952486
 20
0.1407145084390263
 10
0.1755349769724133
 20
0.1406161759814171
 10
0.1755595488244401
 20
0.1402843026117648
 10
0.1755964064008577
 20
0.1399524292421126
 10
0.1758052669414678
 20
0.1396451394545876
 10
0.176235273747076
 20
0.1396451394545876
 10
0.1765055637161306
 20
0.1397065977862718
 10
0.1772477259909062
 20
0.1397424928096113
 10
0.1774443008071256
 20
0.1397424928096113
 10
0.1780340244492893
 20
0.1395827026439486
 10
0.1782920282907059
 20
0.1393860364814644
 10
0.1785868905150354
 20
0.1390787466939396
 10
0.1787097493719252
 20
0.1389312476957082
 10
0.1790168973206436
 20
0.1384272923693309
 10
0.1791397561775343
 20
0.1383289592880881
 10
0.1793117591417259
 20
0.1383166681206576
 10
0.1796311928148351
 20
0.1383658340376458
 10
0.1797786239269989
 20
0.1385379166180036
 10
0.1799997701919989
 20
0.1385502084090668
 10
0.180306917737471
 20
0.1384150005782669
 10
0.1806386375382172
 20
0.1384518753278247
 10
0.1808597838032171
 20
0.1384887500773826
 10
0.1809580712113263
 20
0.1385502084090668
 10
0.1812336425054977
 20
0.1387953838038122
 10
0.1812827862095523
 20
0.1389797575516013
 10
0.1813442156379976
 20
0.1391764230904537
 10
0.1815530761786068
 20
0.1393362138797482
 10
0.1817865085712438
 20
0.1391764230904537
 10
0.181995369111853
 20
0.1390412158832856
 10
0.1823885183410445
 20
0.1389060080524857
 10
0.1826588083100991
 20
0.138918299843549
 10
0.1831871025238174
 20
0.1390780906328434
 10
0.183457392492872
 20
0.1392624643806326
 10
0.1834942500692895
 20
0.1394714217105481
 10
0.1835188219213164
 20
0.1396926702078942
 10
0.1835433937733442
 20
0.1399385022873676
 10
0.1836662530334812
 20
0.1401720425757777
 10
0.1841454035431449
 20
0.1402949586155143
 10
0.1843296922317272
 20
0.1404670405722394
 10
0.1844402653642263
 20
0.1406882896932182
 10
0.1845631246243633
 20
0.1409709965222493
 10
0.1847842708893632
 20
0.1411062037294174
  0
LWPOLYLINE
  5
2319
330
2
100
AcDbEntity
  8
Profilo
  6
Continuous
370
     0
100
AcDbPolyline
 90
        6
 70
   128
 43
0.0
 10
0.1826273336770259
 20
0.1463140304279488
 10
0.1807150564617566
 20
0.144350521887611
 10
0.1801111792553967
 20
0.143242901173671
 10
0.1799602100546178
 20
0.1418332029903032
 10
0.1798092408538399
 20
0.1406752358235813
 10
0.1800608560540546
 20
0.1392151911874325
  0
LWPOLYLINE
  5
231A
330
2
100
AcDbEntity
  8
Profilo
  6
Continuous
370
     0
100
AcDbPolyline
 90
        5
 70
   128
 43
0.0
 10
0.1828286260791458
 20
0.145558834883483
 10
0.1817215180691092
 20
0.1443001754348291
 10
0.1811176408627493
 20
0.143242901173671
 10
0.1809666716619713
 20
0.1421856275361456
 10
0.1809666716619713
 20
0.1414304319916798
  0
LWPOLYLINE
  5
231B
330
2
100
AcDbEntity
  8
Profilo
  6
Continuous
370
     0
100
AcDbPolyline
 90
        7
 70
   128
 43
0.0
 10
0.1821241028733491
 20
0.1469181866140688
 10
0.1800105328527126
 20
0.145659527165415
 10
0.1791550404461379
 20
0.1445519070751068
 10
0.1787021328438032
 20
0.1436960186250772
 10
0.1780479324361013
 20
0.1425380520819871
 10
0.1777459940345454
 20
0.1415814707263937
 10
0.1774943784310834
 20
0.1405745435416503
  0
LWPOLYLINE
  5
231C
330
2
100
AcDbEntity
  8
Profilo
  6
Continuous
370
     0
100
AcDbPolyline
 90
        6
 70
   128
 43
0.0
 10
0.1813692564662113
 20
0.1475726898766026
 10
0.1791550404461379
 20
0.1461629910696031
 10
0.1778466400339813
 20
0.1449546780737311
 10
0.1770917940300907
 20
0.1438974044362048
 10
0.1762866244216099
 20
0.1424877056292052
 10
0.1756324244171552
 20
0.1410276609930555
  0
LWPOLYLINE
  5
231D
330
2
100
AcDbEntity
  8
Profilo
  6
Continuous
370
     0
100
AcDbPolyline
 90
        6
 70
   128
 43
0.0
 10
0.1812182872654324
 20
0.1482775389682865
 10
0.1786014864411201
 20
0.1468174943321369
 10
0.1771421168281855
 20
0.145558834883483
 10
0.176135655220832
 20
0.1444008677167611
 10
0.1750788704121373
 20
0.1428401301750476
 10
0.1745253164071194
 20
0.1419338952722352
  0
LWPOLYLINE
  5
231E
330
2
100
AcDbEntity
  8
Profilo
  6
Continuous
370
     0
100
AcDbPolyline
 90
        5
 70
   128
 43
0.0
 10
0.1808660256625345
 20
0.1487810028724746
 10
0.1782492248382212
 20
0.1475726898766026
 10
0.1770414708287487
 20
0.1467168014265722
 10
0.175783393617934
 20
0.1457098736181969
 10
0.1742233780055626
 20
0.1443001754348291
  0
LWPOLYLINE
  5
231F
330
2
100
AcDbEntity
  8
Profilo
  6
Continuous
370
     0
100
AcDbPolyline
 90
        7
 70
   128
 43
0.0
 10
0.1803627944556114
 20
0.1496872377752861
 10
0.1779976096380065
 20
0.148629963514128
 10
0.1762866244216099
 20
0.1475726898766026
 10
0.1749782240094542
 20
0.146767147879355
 10
0.1738207932013227
 20
0.146213337522385
 10
0.1721601311862673
 20
0.1461126446168203
 10
0.1718078695833693
 20
0.1461126446168203
  0
LWPOLYLINE
  5
2320
330
2
100
AcDbEntity
  8
Profilo
  6
Continuous
370
     0
100
AcDbPolyline
 90
        7
 70
   128
 43
0.0
 10
0.1798595636519347
 20
0.1506438185072477
 10
0.1767395324271919
 20
0.1493348126058119
 10
0.17588403961737
 20
0.1487306564196918
 10
0.1745756396084606
 20
0.1482775389682865
 10
0.1735188543965187
 20
0.1477740750640984
 10
0.1721601311862673
 20
0.1475726898766026
 10
0.1710026999748895
 20
0.1474719969710388
  0
LWPOLYLINE
  5
2321
330
2
100
AcDbEntity
  8
Profilo
  6
Continuous
370
     0
100
AcDbPolyline
 90
        6
 70
   128
 43
0.0
 10
0.1796582712498147
 20
0.1516003998628411
 10
0.1767395324271919
 20
0.1504927797725339
 10
0.1750788704121373
 20
0.1496872377752861
 10
0.1738207932013227
 20
0.1492844667766618
 10
0.1727640083926281
 20
0.1488313493252565
 10
0.1714556079804714
 20
0.1488313493252565
  0
LWPOLYLINE
  5
2322
330
2
100
AcDbEntity
  8
Profilo
  6
Continuous
370
     0
100
AcDbPolyline
 90
        6
 70
   128
 43
0.0
 10
0.1798595636519347
 20
0.1523555954073078
 10
0.1775950248337665
 20
0.1516507463156239
 10
0.1763369476229519
 20
0.1510969359586539
 10
0.1745253164071194
 20
0.150442433319752
 10
0.172864654392064
 20
0.1500396623211276
 10
0.1717575463820273
 20
0.1500396623211276
  0
LWPOLYLINE
  5
2323
330
2
100
AcDbEntity
  8
Profilo
  6
Continuous
370
     0
100
AcDbPolyline
 90
        4
 70
   128
 43
0.0
 10
0.17920536364748
 20
0.1530604444989908
 10
0.1758337168192752
 20
0.1518521315031197
 10
0.1734182083970828
 20
0.1515500534100592
 10
0.1706504383719916
 20
0.1514997069572773
  0
LWPOLYLINE
  5
2324
330
2
100
AcDbEntity
  8
Profilo
  6
Continuous
370
     0
100
AcDbPolyline
 90
        5
 70
   128
 43
0.0
 10
0.1786014864411201
 20
0.1540170258545851
 10
0.1743743472063406
 20
0.152859059311495
 10
0.1731665927936208
 20
0.1528087128587131
 10
0.1712543155783515
 20
0.1527080199531493
 10
0.1702981767690928
 20
0.1529597522170597
  0
LWPOLYLINE
  5
2325
330
2
100
AcDbEntity
  8
Profilo
  6
Continuous
370
     0
100
AcDbPolyline
 90
        5
 70
   128
 43
0.0
 10
0.1783498712409053
 20
0.1546715291171189
 10
0.17588403961737
 20
0.1539163329490213
 10
0.1736698240005439
 20
0.1536142548559608
 10
0.1714556079804714
 20
0.1537149477615255
 10
0.1702981767690928
 20
0.1537652942143074
  0
LWPOLYLINE
  5
2326
330
2
100
AcDbEntity
  8
Profilo
  6
Continuous
370
     0
100
AcDbPolyline
 90
        5
 70
   128
 43
0.0
 10
0.1783498712409053
 20
0.1554267246615847
 10
0.1750788704121373
 20
0.1545204897587732
 10
0.1729653003915008
 20
0.1543694504004266
 10
0.1714052847791294
 20
0.1544197968532094
 10
0.1701472075683148
 20
0.1547722213990509
  0
LWPOLYLINE
  5
2327
330
2
100
AcDbEntity
  8
Profilo
  6
Continuous
370
     0
100
AcDbPolyline
 90
        5
 70
   128
 43
0.0
 10
0.1779472864366653
 20
0.1560308808477048
 10
0.1747769316073342
 20
0.1554267246615847
 10
0.1732169159949628
 20
0.1554267246615847
 10
0.1715059311818126
 20
0.1554770711143666
 10
0.1697446227640749
 20
0.1558798421129909
  0
LWPOLYLINE
  5
2328
330
2
100
AcDbEntity
  8
Profilo
  6
Continuous
370
     0
100
AcDbPolyline
 90
        4
 70
   128
 43
0.0
 10
0.1784505172403412
 20
0.1576419648422002
 10
0.1738207932013227
 20
0.1572895402963587
 10
0.1714556079804714
 20
0.157188847390794
 10
0.1702981767690928
 20
0.1573398867491406
  0
LWPOLYLINE
  5
2329
330
2
100
AcDbEntity
  8
Profilo
  6
Continuous
370
     0
100
AcDbPolyline
 90
        2
 70
   128
 43
0.0
 10
0.1775950248337665
 20
0.1583468145575159
 10
0.1707510847746747
 20
0.1580950822936063
  0
LWPOLYLINE
  5
232A
330
2
100
AcDbEntity
  8
Profilo
  6
Continuous
370
     0
100
AcDbPolyline
 90
        2
 70
   128
 43
0.0
 10
0.1770414708287487
 20
0.1596558198353198
 10
0.169593653563296
 20
0.1593537417422602
  0
LWPOLYLINE
  5
232B
330
2
100
AcDbEntity
  8
Profilo
  6
Continuous
370
     0
100
AcDbPolyline
 90
        3
 70
   128
 43
0.0
 10
0.1777459940345454
 20
0.1614682896409437
 10
0.1726130387886029
 20
0.1613675967353799
 10
0.1692413919603981
 20
0.1609648257367556
  0
LWPOLYLINE
  5
232C
330
2
100
AcDbEntity
  8
Profilo
  6
Continuous
370
     0
100
AcDbPolyline
 90
        3
 70
   128
 43
0.0
 10
0.1780479324361013
 20
0.1627269490895976
 10
0.1725627159905081
 20
0.162575909731251
 10
0.1703988231717768
 20
0.1622234851854095
  0
LWPOLYLINE
  5
232D
330
2
100
AcDbEntity
  8
Profilo
  6
Continuous
370
     0
100
AcDbPolyline
 90
        3
 70
   128
 43
0.0
 10
0.1779976096380065
 20
0.1633311058993495
 10
0.1725123927891661
 20
0.1630793736354391
 10
0.1702478539709979
 20
0.1627269490895976
  0
LWPOLYLINE
  5
232E
330
2
100
AcDbEntity
  8
Profilo
  6
Continuous
370
     0
100
AcDbPolyline
 90
        4
 70
   128
 43
0.0
 10
0.1779472864366653
 20
0.1642373401785292
 10
0.173116269995526
 20
0.1642876866313111
 10
0.1705497923725547
 20
0.1640863014438153
 10
0.1697949459654169
 20
0.1635828375396272
  0
LWPOLYLINE
  5
232F
330
2
100
AcDbEntity
  8
Profilo
  6
Continuous
370
     0
100
AcDbPolyline
 90
        5
 70
   128
 43
0.0
 10
0.1776956708332034
 20
0.1652946144396873
 10
0.1720594847835841
 20
0.165546346079965
 10
0.1705497923725547
 20
0.1653953073452511
 10
0.1694426843625181
 20
0.1649421898938449
 10
0.1688388071561582
 20
0.164338033084093
  0
LWPOLYLINE
  5
2330
330
2
100
AcDbEntity
  8
Profilo
  6
Continuous
370
     0
100
AcDbPolyline
 90
        4
 70
   128
 43
0.0
 10
0.1784001940390001
 20
0.1665532738883403
 10
0.1744246700044354
 20
0.1670567377925284
 10
0.1715059311818126
 20
0.1670567377925284
 10
0.1694426843625181
 20
0.1667043126230542
  0
LWPOLYLINE
  5
2331
330
2
100
AcDbEntity
  8
Profilo
  6
Continuous
370
     0
100
AcDbPolyline
 90
        4
 70
   128
 43
0.0
 10
0.1750788704121373
 20
0.1663015416244308
 10
0.1719588387841473
 20
0.1664525809827765
 10
0.1698955919648528
 20
0.1661505028897169
 10
0.1692413919603981
 20
0.1655966925327469
  0
LWPOLYLINE
  5
2332
330
2
100
AcDbEntity
  8
Profilo
  6
Continuous
370
     0
100
AcDbPolyline
 90
        3
 70
   128
 43
0.0
 10
0.1779472864366653
 20
0.1672581229800242
 10
0.1718078695833693
 20
0.1679629720717081
 10
0.1692413919603981
 20
0.1675098546203019
  0
LWPOLYLINE
  5
2333
330
2
100
AcDbEntity
  8
Profilo
  6
Continuous
370
     0
100
AcDbPolyline
 90
        5
 70
   128
 43
0.0
 10
0.1782492248382212
 20
0.1690202463328662
 10
0.1748775780100173
 20
0.1695237102370542
 10
0.172914977593406
 20
0.1702285593287381
 10
0.1712543155783515
 20
0.1705809838745796
 10
0.1704491459698716
 20
0.1704299445162339
  0
LWPOLYLINE
  5
2334
330
2
100
AcDbEntity
  8
Profilo
  6
Continuous
370
     0
100
AcDbPolyline
 90
        6
 70
   128
 43
0.0
 10
0.1787021328438032
 20
0.1699264812356777
 10
0.1750788704121373
 20
0.1705306374217977
 10
0.1730156235928428
 20
0.1714872187773911
 10
0.1712039923770094
 20
0.1722927607746397
 10
0.1701975307696568
 20
0.172192067869075
 10
0.1696942999659801
 20
0.1719403362287973
  0
LWPOLYLINE
  5
2335
330
2
100
AcDbEntity
  8
Profilo
  6
Continuous
370
     0
100
AcDbPolyline
 90
        6
 70
   128
 43
0.0
 10
0.1784505172403412
 20
0.1709837548732039
 10
0.1760350088181488
 20
0.1714872187773911
 10
0.1737704699999807
 20
0.1724941459621355
 10
0.1718581927847114
 20
0.1733500344121651
 10
0.1706001155738968
 20
0.1737024589580066
 10
0.1697949459654169
 20
0.1735010737705108
  0
LWPOLYLINE
  5
2336
330
2
100
AcDbEntity
  8
Profilo
  6
Continuous
370
     0
100
AcDbPolyline
 90
        4
 70
   128
 43
0.0
 10
0.179255686848822
 20
0.1725444924149174
 10
0.17588403961737
 20
0.1740548841274808
 10
0.1743743472063406
 20
0.1749107725775113
 10
0.172713685191286
 20
0.1762701243080963
  0
LWPOLYLINE
  5
2337
330
2
100
AcDbEntity
  8
Profilo
  6
Continuous
370
     0
100
AcDbPolyline
 90
        5
 70
   128
 43
0.0
 10
0.175783393617934
 20
0.1731989956774512
 10
0.1735188543965187
 20
0.1744576551261051
 10
0.1719085155828062
 20
0.175716314574759
 10
0.1714052847791294
 20
0.175716314574759
 10
0.1707510847746747
 20
0.1754142358580667
  0
LWPOLYLINE
  5
2338
330
2
100
AcDbEntity
  8
Profilo
  6
Continuous
370
     0
100
AcDbPolyline
 90
        4
 70
   128
 43
0.0
 10
0.1799098868532767
 20
0.1735514202232936
 10
0.1765885628231667
 20
0.1751121577650071
 10
0.1743240240049986
 20
0.1772267056636906
 10
0.1728143311907229
 20
0.1793412535623741
  0
LWPOLYLINE
  5
2339
330
2
100
AcDbEntity
  8
Profilo
  6
Continuous
370
     0
100
AcDbPolyline
 90
        5
 70
   128
 43
0.0
 10
0.1809163484606293
 20
0.1750618113122252
 10
0.17900407124536
 20
0.1761694314025325
 10
0.1774943784310834
 20
0.177629476662314
 10
0.1765885628231667
 20
0.1792909071095922
 10
0.175733070416592
 20
0.1809019911040875
  0
LWPOLYLINE
  5
233A
330
2
100
AcDbEntity
  8
Profilo
  6
Continuous
370
     0
100
AcDbPolyline
 90
        4
 70
   128
 43
0.0
 10
0.17920536364748
 20
0.1768239346650663
 10
0.1782492248382212
 20
0.1785357115651264
 10
0.1778466400339813
 20
0.1808012981985237
 10
0.1778969632353233
 20
0.1821103040999595
  0
LWPOLYLINE
  5
233B
330
2
100
AcDbEntity
  8
Profilo
  6
Continuous
370
     0
100
AcDbPolyline
 90
       21
 70
   128
 43
0.0
 10
0.1864997418246725
 20
0.1329878349442475
 10
0.1857648492856543
 20
0.1318359700188022
 10
0.1853729061680476
 20
0.1307576288376082
 10
0.1853239132783468
 20
0.1294342095482953
 10
0.1856178706165512
 20
0.1280372671383633
 10
0.1859118275515093
 20
0.1271059721984077
 10
0.1860833026654627
 20
0.1266893403500541
 10
0.1860588062206123
 20
0.1262482010027049
 10
0.1853239132783468
 20
0.126297216000697
 10
0.1855443812820001
 20
0.1259786153955908
 10
0.1860833026654627
 20
0.1259050922749707
 10
0.1865487347143733
 20
0.1251453516988827
 10
0.1868426916493313
 20
0.124091518016685
 10
0.186303770669116
 20
0.1235033318044638
 10
0.1855688777268505
 20
0.1236503780457032
 10
0.1850054598985376
 20
0.1242385642579244
 10
0.1847115029635795
 20
0.1244591342434148
 10
0.185470891947449
 20
0.1234298080602127
 10
0.1865128106546117
 20
0.1224309026567191
 10
0.1866425230964215
 20
0.1215224950192515
 10
0.1863182419918978
 20
0.1208736325101508
  0
LWPOLYLINE
  5
233C
330
2
100
AcDbEntity
  8
Profilo
  6
Continuous
370
     0
100
AcDbPolyline
 90
        3
 70
   128
 43
0.0
 10
0.2325430154164583
 20
0.143427728670979
 10
0.2374011060476501
 20
0.1377047699294994
 10
0.231762250327326
 20
0.1419536332864459
  0
LWPOLYLINE
  5
233D
330
2
100
AcDbEntity
  8
Profilo
  6
Continuous
370
     0
100
AcDbPolyline
 90
       59
 70
   128
 43
0.0
 10
0.2342793921130824
 20
0.144705446023797
 10
0.2344726638453914
 20
0.1433678803737685
 10
0.2350843341761346
 20
0.1425683743685008
 10
0.2357430556870075
 20
0.1419569870912095
 10
0.2366135090675431
 20
0.1415337189451437
 10
0.2376956943177435
 20
0.1412280255081221
 10
0.2383544164522481
 20
0.1407106979980672
 10
0.2384485194361395
 20
0.1401698555462024
 10
0.2379780038930504
 20
0.139864162109181
 10
0.2377897979252675
 20
0.1398406471673721
 10
0.2384056141630114
 20
0.1396267020861503
 10
0.2385938201307943
 20
0.1392269492851396
 10
0.2388996556079813
 20
0.1385450171824227
 10
0.2387349749184474
 20
0.13826283868721
 10
0.2381703563914661
 20
0.1381922938617824
 10
0.2388996556079813
 20
0.1378160560025816
 10
0.2391819645596558
 20
0.137486847220504
 10
0.2394642741349628
 20
0.1367578860406628
 10
0.2393701705274386
 20
0.1362875880109783
 10
0.238829077902339
 20
0.1360054095157656
 10
0.2380292022274457
 20
0.1360054095157656
 10
0.2373940059948218
 20
0.1362875880109783
 10
0.2370881711412665
 20
0.1367108561570442
 10
0.237017594059256
 20
0.1361229838215627
 10
0.2367588103858297
 20
0.1358643202681588
 10
0.2361236147768386
 20
0.1360524393993833
 10
0.2356295733318678
 20
0.1364521922003931
 10
0.2355119444460954
 20
0.1372752135507177
 10
0.2353472643801935
 20
0.137886600424761
 10
0.2351590577887779
 20
0.1381687793232208
 10
0.2351590577887779
 20
0.137251698608909
 10
0.2350179036247575
 20
0.1364286772585843
 10
0.2345709139835483
 20
0.1364992220840117
 10
0.2340533466366967
 20
0.1370635794776843
 10
0.2335593058153585
 20
0.1379336303083786
 10
0.232853532500724
 20
0.1387096213718383
 10
0.2319360273164258
 20
0.139415068013117
 10
0.2306891620003235
 20
0.1397677913337571
 10
0.2297481309141445
 20
0.1397677913337571
 10
0.2288071004515981
 20
0.1394856128385443
 10
0.228054275333202
 20
0.1388977405030619
 10
0.2272543996583078
 20
0.1381217494396032
 10
0.2269485641811209
 20
0.1373457579728971
 10
0.2269720900830015
 20
0.1364286772585843
 10
0.2273955538223291
 20
0.1357232306173057
 10
0.2279601723493104
 20
0.1352059031072507
 10
0.228712996844074
 20
0.1349002096702282
 10
0.2294893472407191
 20
0.1349237246120371
 10
0.2302656976373643
 20
0.1352764479326773
 10
0.2308067908860965
 20
0.136075953937945
 10
0.2307597390823342
 20
0.1367108561570442
 10
0.2304068524250173
 20
0.137251698608909
 10
0.2299128116036793
 20
0.1374398177401326
 10
0.2291599864852831
 20
0.1374398177401326
 10
0.2287835745497172
 20
0.1371576388416726
 10
0.2285953679583017
 20
0.1365227370258206
 10
0.228712996844074
 20
0.1361229838215627
 10
0.2290423575995109
 20
0.135958379632148
 10
0.2294658219624701
 20
0.135958379632148
  0
LWPOLYLINE
  5
233E
330
2
100
AcDbEntity
  8
Profilo
  6
Continuous
370
     0
100
AcDbPolyline
 90
       11
 70
   128
 43
0.0
 10
0.2293335576757506
 20
0.1378556399315313
 10
0.2316221444890668
 20
0.1378556399315313
 10
0.2328868899645597
 20
0.1370730646521063
 10
0.2341516354400515
 20
0.1356283099178621
 10
0.2351152507434586
 20
0.1338825648156078
 10
0.2356572844295793
 20
0.1319562251699486
 10
0.2354163802919117
 20
0.1299094892964372
 10
0.2349947986746247
 20
0.1284045362466428
 10
0.2342796322114877
 20
0.1269389130802287
 10
0.2332622884977671
 20
0.1258597827458384
 10
0.2321205244932492
 20
0.1247185466754694
  0
LWPOLYLINE
  5
233F
330
2
100
AcDbEntity
  8
Profilo
  6
Continuous
370
     0
100
AcDbPolyline
 90
       21
 70
   128
 43
0.0
 10
0.1928819388377081
 20
0.133655518241445
 10
0.1932029553940364
 20
0.1339991693125246
 10
0.1933057380911702
 20
0.1343844245797023
 10
0.1931772598756603
 20
0.1349751498872548
 10
0.1927918264763948
 20
0.1352063031282102
 10
0.1919310244281009
 20
0.1353090379467745
 10
0.1913400256345661
 20
0.1350778847058182
 10
0.1909802877536759
 20
0.1344486339925228
 10
0.1909160486459209
 20
0.1337680160715683
 10
0.1911601570059374
 20
0.1328177191006675
 10
0.1920466545726074
 20
0.1323168872130122
 10
0.1928689130315215
 20
0.1323168872130122
 10
0.1938196497059466
 20
0.1323939384277461
 10
0.194629060717489
 20
0.1331259235563586
 10
0.1950658851535059
 20
0.1340762205272593
 10
0.1950401896351306
 20
0.1354246145672521
 10
0.1945391260913587
 20
0.1362850181182566
 10
0.1938324971533183
 20
0.136914268831553
 10
0.1923421533457417
 20
0.1374921519339431
 10
0.1911473089349338
 20
0.1375948867525064
 10
0.1900038555608756
 20
0.1372738404949012
  0
LWPOLYLINE
  5
2340
330
2
100
AcDbEntity
  8
Profilo
  6
Continuous
370
     0
100
AcDbPolyline
 90
       10
 70
   128
 43
0.0
 10
0.1913324784374357
 20
0.1354810086512112
 10
0.1895676616170336
 20
0.1349239560757786
 10
0.1883137124625407
 20
0.1335313238307036
 10
0.1874313040523401
 20
0.1318601652979123
 10
0.1869668782778826
 20
0.1300961644003844
 10
0.1870597633080469
 20
0.1278215319081686
 10
0.1877099591428355
 20
0.126011110029896
 10
0.188499482522871
 20
0.1246648991688128
 10
0.1895212191019511
 20
0.1236900565569353
 10
0.1901989887646851
 20
0.1230421631964326
  0
LWPOLYLINE
  5
2341
330
2
100
AcDbEntity
  8
Profilo
  6
Continuous
370
     0
100
AcDbPolyline
 90
       20
 70
   128
 43
0.0
 10
0.2360632927030589
 20
0.1360339795611599
 10
0.2367640152203407
 20
0.1349072511682201
 10
0.2371143761671661
 20
0.1340698181756612
 10
0.2373581059824243
 20
0.132973542184811
 10
0.2374647377376223
 20
0.1318924923950074
 10
0.2373885722872855
 20
0.13091802480278
 10
0.2370748378843948
 20
0.1299541976874461
 10
0.2369089336284445
 20
0.1296677681630362
 10
0.236818440227844
 20
0.1293059621084168
 10
0.2369994270290442
 20
0.128929081070353
 10
0.2370145089506615
 20
0.1287934037998703
 10
0.2368636872399608
 20
0.1285672754189798
 10
0.2366676178935104
 20
0.1282657705078799
 10
0.236637453426644
 20
0.1275873845587152
 10
0.2367731938393602
 20
0.1269391489796859
 10
0.2370295914959108
 20
0.1266979452121046
 10
0.2375273048873946
 20
0.1265924183117586
 10
0.2382060044564468
 20
0.1267280955822402
 10
0.2386735533810642
 20
0.127044675880033
 10
0.2389751974260987
 20
0.1273612557745776
  0
LWPOLYLINE
  5
2342
330
2
100
AcDbEntity
  8
Profilo
  6
Continuous
370
     0
100
AcDbPolyline
 90
        9
 70
   128
 43
0.0
 10
0.237210578297111
 20
0.1266074936984496
 10
0.2368059950232546
 20
0.1255547494240505
 10
0.2365588876158907
 20
0.1246285262952117
 10
0.2369913254228698
 20
0.1235170587825531
 10
0.2375473159980822
 20
0.1229613252278478
 10
0.2379286022430823
 20
0.1229292570152851
 10
0.2381650835810432
 20
0.1233318143987341
 10
0.2379179767973119
 20
0.1238257999599157
 10
0.2377944234054461
 20
0.1247520226855072
  0
LWPOLYLINE
  5
2343
330
2
100
AcDbEntity
  8
Profilo
  6
Continuous
370
     0
100
AcDbPolyline
 90
       13
 70
   128
 43
0.0
 10
0.2380969268156799
 20
0.1242388796689044
 10
0.2385001131533626
 20
0.1241045464204586
 10
0.2390227618555454
 20
0.1242239538868257
 10
0.2396499412959765
 20
0.1246568055995659
 10
0.2400232618866263
 20
0.1251941389965956
 10
0.2405160454654079
 20
0.1253433980271192
 10
0.2406504407034245
 20
0.1256120649272571
 10
0.2407549708180411
 20
0.1264628425706599
 10
0.2408595003090249
 20
0.1267165832854728
 10
0.2412925523937404
 20
0.126701657503395
 10
0.2417106716049392
 20
0.1268807685013225
 10
0.2418450674665886
 20
0.1274031757130259
 10
0.2419197312105395
 20
0.1276867683952427
  0
LWPOLYLINE
  5
2344
330
2
100
AcDbEntity
  8
Profilo
  6
Continuous
370
     0
100
AcDbPolyline
 90
        7
 70
   128
 43
0.0
 10
0.2376839195177905
 20
0.1358672292915526
 10
0.2391652562052082
 20
0.1335984890435617
 10
0.2400731724204859
 20
0.1309237634099225
 10
0.2403598823447395
 20
0.1285833782788636
 10
0.2401687421873595
 20
0.1271504898921968
 10
0.2397864618726003
 20
0.1261713490712321
 10
0.2390457932170761
 20
0.1251444456669675
  0
LWPOLYLINE
  5
2345
330
2
100
AcDbEntity
  8
Profilo
  6
Continuous
370
     0
100
AcDbPolyline
 90
       66
 70
   128
 43
0.0
 10
0.2381378776254304
 20
0.1358433477982799
 10
0.2403837749423659
 20
0.1323566521998356
 10
0.2406704854902524
 20
0.1327148741956913
 10
0.2410527658050113
 20
0.1321178372671015
 10
0.2412200139883966
 20
0.1307565929570082
 10
0.2415306165102768
 20
0.1295625190998292
 10
0.2418890042274102
 20
0.1282729192695559
 10
0.2421040376060486
 20
0.1277475268207868
 10
0.2424146401279279
 20
0.1273654229284111
 10
0.2427730278450613
 20
0.1273176599418648
 10
0.2431553087834529
 20
0.127795289807334
 10
0.2431553087834529
 20
0.1282729192695559
 10
0.2431792013810796
 20
0.1278430527938802
 10
0.2431792013810796
 20
0.1273176599418648
 10
0.2435614816958385
 20
0.1269355564527363
 10
0.2438242996460983
 20
0.1267922674930956
 10
0.2443977201182375
 20
0.1269355564527363
 10
0.2445888602756173
 20
0.1273893044216847
 10
0.2446844306661229
 20
0.1283445637493767
 10
0.2446366454708706
 20
0.1288460747048722
 10
0.2445410750803643
 20
0.1292281781940007
 10
0.245162281371389
 20
0.128392326735923
 10
0.2457595944411547
 20
0.1278908153771802
 10
0.2465002630966789
 20
0.1275325933813253
 10
0.2471214687640711
 20
0.1273415414351374
 10
0.2476948892362102
 20
0.1271982528787441
 10
0.2486028054514887
 20
0.1271982528787441
 10
0.2490328709615009
 20
0.1274370674082319
 10
0.2492479037165076
 20
0.1280102228435482
 10
0.2492717963141341
 20
0.1287505487317778
 10
0.2491284413520074
 20
0.1298968596024106
 10
0.2483638800988555
 20
0.1308521189301017
 10
0.2476948892362102
 20
0.1312819854057774
 10
0.2470020057759392
 20
0.1316879707914257
 10
0.2466914032540589
 20
0.1318551408410937
 10
0.2475993194693367
 20
0.131735733777973
 10
0.2482922023059758
 20
0.131735733777973
 10
0.2488178382064945
 20
0.1320939557738278
 10
0.2492717963141341
 20
0.1324999407562299
 10
0.2492025282361539
 20
0.1331997028254563
 10
0.2488680331166472
 20
0.1335579248213112
 10
0.2485335373735086
 20
0.1335579248213112
 10
0.2475061587937298
 20
0.1333668732783706
 10
0.2482946120208754
 20
0.1337012137809518
 10
0.2487007855568939
 20
0.1339400287136868
 10
0.2482946120208754
 20
0.134346013696089
 10
0.2479840094989962
 20
0.1346325916153703
 10
0.2488202479213941
 20
0.1346803541986702
 10
0.2489158183119005
 20
0.1352773915305064
 10
0.2488202479213941
 20
0.1353967985936272
 10
0.2491547430409009
 20
0.1355639690465415
 10
0.2496250671288991
 20
0.135969303591636
 10
0.2498616264208869
 20
0.1362796432398512
 10
0.2500094752767945
 20
0.1366934298407182
 10
0.2502608190178306
 20
0.1372254407814428
 10
0.2503051736122395
 20
0.1376244491886099
 10
0.2503938834246889
 20
0.1380677917736297
 10
0.2505860874986371
 20
0.1385406903428027
 10
0.2509113559794428
 20
0.1386884714733072
 10
0.2515766773901042
 20
0.1389692551373688
 10
0.2520217917692263
 20
0.1388979405135422
 10
0.252406199293489
 20
0.1392378361459098
 10
0.2525540487730283
 20
0.1394742856321199
 10
0.252184425697813
 20
0.1397550692961825
 10
0.2516373836213309
 20
0.14013929950965
 10
0.2504545896559157
 20
0.1403757489958592
  0
LWPOLYLINE
  5
2346
330
2
100
AcDbEntity
  8
Profilo
  6
Continuous
370
     0
100
AcDbPolyline
 90
        6
 70
   128
 43
0.0
 10
0.2397636618786239
 20
0.1368001221247081
 10
0.240919821759171
 20
0.1362485738699486
 10
0.2419708759125632
 20
0.1358546108884408
 10
0.2431533119130834
 20
0.1352767983542642
 10
0.2438890501322738
 20
0.1349353635283425
 10
0.2442306428100809
 20
0.1348040425345069
  0
LWPOLYLINE
  5
2347
330
2
100
AcDbEntity
  8
Profilo
  6
Continuous
370
     0
100
AcDbPolyline
 90
        6
 70
   128
 43
0.0
 10
0.2449401049092979
 20
0.1356970256151881
 10
0.2463064756205242
 20
0.1358283466090246
 10
0.2475414644846217
 20
0.1360647243172796
 10
0.248592518638014
 20
0.1364849515782036
 10
0.249459638704332
 20
0.1370365002362103
 10
0.2500114422128173
 20
0.1375355199321374
  0
LWPOLYLINE
  5
2348
330
2
100
AcDbEntity
  8
Profilo
  6
Continuous
370
     0
100
AcDbPolyline
 90
       10
 70
   128
 43
0.0
 10
0.2393844142873525
 20
0.1360205066777911
 10
0.2423437456171174
 20
0.1332900801416747
 10
0.2456004422512541
 20
0.1306029586972318
 10
0.2468362069138338
 20
0.1294815338079894
 10
0.2472752284061626
 20
0.1290102099181012
 10
0.2473240082948076
 20
0.1287501692764112
 10
0.2471288874929645
 20
0.1287501692764112
 10
0.24662482614911
 20
0.1292052402985563
 10
0.2445272784647533
 20
0.1311230399806108
 10
0.2418931482635137
 20
0.1335121631493066
  0
LWPOLYLINE
  5
2349
330
2
100
AcDbEntity
  8
Profilo
  6
Continuous
370
     0
100
AcDbPolyline
 90
      329
 70
   129
 43
0.0
 10
0.2308459181952343
 20
0.1375677752512776
 10
0.2316269564352791
 20
0.1370898102876049
 10
0.2319138684163723
 20
0.1366118449206852
 10
0.2320095055355262
 20
0.1364206586932686
 10
0.232407994051693
 20
0.1364365909796982
 10
0.2329818180138787
 20
0.1363409980676126
 10
0.2332527899554189
 20
0.1360064220688212
 10
0.2333803065300455
 20
0.1353850673337731
 10
0.2334121853618854
 20
0.1347318480258663
 10
0.2332209111235787
 20
0.1343176118046662
 10
0.2332368505394984
 20
0.1342060866061509
 10
0.2336672185111378
 20
0.1340149003787333
 10
0.233906311620838
 20
0.1336803247831883
 10
0.2339222510367583
 20
0.1330271054752816
 10
0.2337947350857644
 20
0.1328040550782518
 10
0.2341686605996671
 20
0.13261201275759
 10
0.2343139550579993
 20
0.132366243831449
 10
0.2341910134493423
 20
0.1318188494233738
 10
0.2340457196146418
 20
0.1314948812384719
 10
0.2334071919386969
 20
0.1308858912642141
 10
0.2332060150443623
 20
0.1307294927466942
 10
0.232781309029652
 20
0.1303273253030323
 10
0.2325801321353176
 20
0.1297911020448166
 10
0.2327924851426727
 20
0.1291990226340548
 10
0.2328818971650028
 20
0.1285064008583192
 10
0.2328818971650028
 20
0.1280148630060371
 10
0.2325689553986648
 20
0.1276462094152023
 10
0.2321777783466496
 20
0.1275568390065822
 10
0.2318313076176157
 20
0.1275568390065822
 10
0.2316618898177352
 20
0.1274948188213759
 10
0.2318071836524346
 20
0.1272043644893021
 10
0.2317065955170838
 20
0.1266569700812261
 10
0.2314718890364225
 20
0.1262548030408115
 10
0.2310695358713853
 20
0.1260648906704644
 10
0.2306895355560235
 20
0.1260648906704644
 10
0.2301642407823295
 20
0.1260984045232916
 10
0.2296501221216574
 20
0.1261654322289448
 10
0.229102474498289
 20
0.1261877749319117
 10
0.2285212972885927
 20
0.1261654322289448
 10
0.2281077673869031
 20
0.1256850659297694
 10
0.2278954137559153
 20
0.1251823565243807
 10
0.2276160015759043
 20
0.1246126194133387
 10
0.2275712958765555
 20
0.1242998227815443
 10
0.2272360012605424
 20
0.1239088264877428
 10
0.2268560009451808
 20
0.1237077429675355
 10
0.2265654120285172
 20
0.1236183725589152
 10
0.2260512939914767
 20
0.1236072010058086
 10
0.2256042345034592
 20
0.1237300856705023
 10
0.225458940045127
 20
0.123752427970222
 10
0.2252577637744252
 20
0.1232720616710473
 10
0.2250677629931116
 20
0.1230262927449063
 10
0.2246654098280756
 20
0.1229480934861463
 10
0.224341291948716
 20
0.1229704361891132
 10
0.2240618797687049
 20
0.1229816073389726
 10
0.223815997175022
 20
0.1227916949686256
 10
0.2235030554086831
 20
0.1227581811157985
 10
0.2231901136423443
 20
0.1228475515244187
 10
0.222832466176657
 20
0.1230262927449063
 10
0.2225195244103189
 20
0.1231938624122874
 10
0.2220429047550559
 20
0.1231441993261789
 10
0.2216405515900198
 20
0.1228649165472117
 10
0.2211711392523281
 20
0.1222728367332028
 10
0.2209029038089706
 20
0.1221052670658217
 10
0.2205117267569554
 20
0.1220382389569221
 10
0.2200870201186122
 20
0.1220717532129956
 10
0.2197964312019486
 20
0.1222169801774088
 10
0.2194499604729139
 20
0.1220717532129956
 10
0.2191817250295565
 20
0.1218483265865741
 10
0.2186899592185585
 20
0.1217924700307811
 10
0.2183099589031967
 20
0.1219041831423681
 10
0.218019370610165
 20
0.1219935539542347
 10
0.2175164286861452
 20
0.1215913865105737
 10
0.2167787802814634
 20
0.1208764224351175
 10
0.2164434856654502
 20
0.1205859681030427
 10
0.216108191049438
 20
0.1204742549914557
 10
0.2154798198478336
 20
0.1204729319382597
 10
0.2149471880410668
 20
0.120551803812909
 10
0.2144934650427752
 20
0.1207095475622072
 10
0.2141186508529574
 20
0.1209165862331613
 10
0.2137536994067057
 20
0.1210447530294653
 10
0.2133788845932563
 20
0.1206996885778761
 10
0.2129843430454115
 20
0.1203940600636106
 10
0.2123037588597898
 20
0.1202363163143122
 10
0.2116429014085626
 20
0.1202560342829746
 10
0.2110412247841513
 20
0.1203053292046303
 10
0.2104296854161742
 20
0.1205320858442466
 10
0.2102620050556603
 20
0.1207292655308696
 10
0.210045007235528
 20
0.1209363042018236
 10
0.2097096465144992
 20
0.1210151760764728
 10
0.2090783797884959
 20
0.1208081374055187
 10
0.2085963881652877
 20
0.1204767131847757
 10
0.2078217190811087
 20
0.1203377341283845
 10
0.2073251369584723
 20
0.1202781721364982
 10
0.2067491009728013
 20
0.1204171507896432
 10
0.2061333389910607
 20
0.1206752542330539
 10
0.2059148425827024
 20
0.1209929200715964
 10
0.2053388072206632
 20
0.1209730658054701
 10
0.2045641381364842
 20
0.1207149623620602
 10
0.2036504265069825
 20
0.1207546704910665
 10
0.2031737076941964
 20
0.1209532115393438
 10
0.2027963048070325
 20
0.1211716068537476
 10
0.2022202694449933
 20
0.121231169248881
 10
0.2017236866987251
 20
0.1214892726922908
 10
0.2012072412662385
 20
0.1218863547888466
 10
0.2003531189426566
 20
0.1215289808212971
 10
0.1997572202707663
 20
0.1213105855068925
 10
0.1994394073131549
 20
0.121350294039146
 10
0.1991414576653938
 20
0.1215091269584172
 10
0.1987528618271386
 20
0.121333510498435
 10
0.1982960063242036
 20
0.1213136562323087
 10
0.1979186034370397
 20
0.1213136562323087
 10
0.1974220213144033
 20
0.1216114678047248
 10
0.1973227047651493
 20
0.1218695712481347
 10
0.1967665320893286
 20
0.1220681122964131
 10
0.1962699499666922
 20
0.1221475289576719
 10
0.1958130938401255
 20
0.122326215739823
 10
0.1952966484076388
 20
0.1228027144976376
 10
0.195018562069728
 20
0.1232593589893258
 10
0.1947206124219669
 20
0.1235571705617419
 10
0.1942041669894803
 20
0.1237755658761466
 10
0.1935685410742567
 20
0.1238152740051527
 10
0.1926746927546052
 20
0.1239343987954177
 10
0.1919397509137604
 20
0.1239343987954177
 10
0.1914431681674922
 20
0.1241726479727014
 10
0.1913637149280893
 20
0.1243314808919734
 10
0.1911650824532141
 20
0.1246888548595221
 10
0.1908472694956018
 20
0.1247682715207818
 10
0.1902910968197811
 20
0.1249668125690592
 10
0.1899931477956527
 20
0.1253241865366087
 10
0.189635608218339
 20
0.1261977673909782
 10
0.1894369751198319
 20
0.1268132448019376
 10
0.1892582053311751
 20
0.1275677008660421
 10
0.1888609397577927
 20
0.1279846372287241
 10
0.1885232634903302
 20
0.1285008441155448
 10
0.188205450532718
 20
0.1290369052684918
 10
0.188205450532718
 20
0.1296722369455785
 10
0.188205450532718
 20
0.1306450883240866
 10
0.1881855872228677
 20
0.1312010033399136
 10
0.1883641892544567
 20
0.1317428668130191
 10
0.1886224122825164
 20
0.1320208245225553
 10
0.1887415921416207
 20
0.1322987822320925
 10
0.1884237791840093
 20
0.1329738220381843
 10
0.1886621389022178
 20
0.1334304665298726
 10
0.1888409086908747
 20
0.1337878404974222
 10
0.1893772174332124
 20
0.1340062354085796
 10
0.1901320225839085
 20
0.1340062354085796
 10
0.190469698851371
 20
0.1338076943603012
 10
0.1907875118089823
 20
0.133231925078348
 10
0.1908868283582363
 20
0.1327355724576535
 10
0.1906286053301767
 20
0.1324774690142436
 10
0.1903306556824156
 20
0.1329936759010643
 10
0.1900327060346545
 20
0.1333907579976192
 10
0.189615577151421
 20
0.1334503203927526
 10
0.1892977641938096
 20
0.1332517793444742
 10
0.1892977641938096
 20
0.1327355724576535
 10
0.1895758505317195
 20
0.13223921983696
 10
0.1900525693445048
 20
0.1315244719018617
 10
0.1895957138415707
 20
0.1313656389825896
 10
0.1894169440529139
 20
0.1315244719018617
 10
0.1893772174332124
 20
0.1310281188779201
 10
0.1892977641938096
 20
0.1303530790718281
 10
0.1890792677854514
 20
0.1298170183221283
 10
0.1892580375741082
 20
0.1294199362255726
 10
0.1898539368696304
 20
0.1289831455967642
 10
0.1903306556824156
 20
0.1284867929760697
 10
0.1907676484991321
 20
0.1277720450409716
 10
0.1907279218794307
 20
0.1273154005492833
 10
0.1905690154006241
 20
0.1265807983480589
 10
0.1905491520907738
 20
0.1260844453241181
 10
0.1907279218794307
 20
0.1257469256226948
 10
0.1912046406922159
 20
0.1256873632275623
 10
0.1916217701990812
 20
0.1255682388405436
 10
0.1917806766778869
 20
0.1251314482117353
 10
0.191899856536992
 20
0.1248336366393192
 10
0.192158078941419
 20
0.124674803720048
 10
0.1928532947861952
 20
0.1247740742441867
 10
0.1933101502891301
 20
0.124813782373193
 10
0.1939855028240551
 20
0.1249527614295842
 10
0.1945218115663929
 20
0.1249527614295842
 10
0.1947403079747503
 20
0.1249527614295842
 10
0.1951574374816165
 20
0.1247343661151805
 10
0.195475249815596
 20
0.1244167002766372
 10
0.1958235309489658
 20
0.1238339580486713
 10
0.1960221640474729
 20
0.1234964379440017
 10
0.196200933212497
 20
0.1230000853233082
 10
0.196399566311005
 20
0.1228015442750298
 10
0.1966180627193632
 20
0.1226228570896323
 10
0.1970153289163774
 20
0.1224838784364874
 10
0.1972338247011038
 20
0.12254344083162
 10
0.1977502707572232
 20
0.1227618357427773
 10
0.1980283570951331
 20
0.1224838784364874
 10
0.1982071268837899
 20
0.1222257749930766
 10
0.1985050759079183
 20
0.1222059207269503
 10
0.1986639823867249
 20
0.12228533738821
 10
0.198961932034486
 20
0.1223647536462216
 10
0.1992996076783158
 20
0.12228533738821
 10
0.1995578307063754
 20
0.1221066502028116
 10
0.1998557803541365
 20
0.1219478172835394
 10
0.2001735933117488
 20
0.1220867963399316
 10
0.2004516790260269
 20
0.1223846079123487
 10
0.2007099020540866
 20
0.1226228570896323
 10
0.2010873049412505
 20
0.1228809605330422
 10
0.2013852545890116
 20
0.1228015442750298
 10
0.201981153260901
 20
0.1226625652186386
 10
0.2022393762889607
 20
0.1222456292592037
 10
0.2025174620032388
 20
0.1219279634206605
 10
0.2028352749608511
 20
0.1217691305013892
 10
0.203311994397269
 20
0.1219081091545342
 10
0.2036298067312485
 20
0.1218088386303955
 10
0.2041065261676656
 20
0.1214514646628459
 10
0.2043051592661735
 20
0.1213919022677135
 10
0.2047620147691085
 20
0.121570589453111
 10
0.2050248165049295
 20
0.1216885952331296
 10
0.2054220827019446
 20
0.1217680114911421
 10
0.2059583914442824
 20
0.1216885952331296
 10
0.2062166144723421
 20
0.1215496161767383
 10
0.2066138806693563
 20
0.1211922422091888
 10
0.2068125137678642
 20
0.1210731178221702
 10
0.2073885491299034
 20
0.1210135554270377
 10
0.2077659520170674
 20
0.1211922422091888
 10
0.2081632175904498
 20
0.1215496161767383
 10
0.2084413039283597
 20
0.1218275738862746
 10
0.2088981600549273
 20
0.1222246559828303
 10
0.2094543321071154
 20
0.1222842183779628
 10
0.2101098207085574
 20
0.1222842183779628
 10
0.2102488638775128
 20
0.1217680114911421
 10
0.2105865401449753
 20
0.1214503456525988
 10
0.2110036696518407
 20
0.1211525340801826
 10
0.2114803884646268
 20
0.120934138765779
 10
0.2121954669956205
 20
0.1208944306367727
 10
0.2125530065729342
 20
0.1209539930319052
 10
0.2130297260093521
 20
0.121172388346309
 10
0.2135263081319885
 20
0.1216290328379972
 10
0.213764667850197
 20
0.1219665525394196
 10
0.2141222074275106
 20
0.1223636350392224
 10
0.2144797463811916
 20
0.1223834889021016
 10
0.2147181060994001
 20
0.1221650935876978
 10
0.2147975593388028
 20
0.1217283033621358
 10
0.2151153722964151
 20
0.1214503456525988
 10
0.2156019382619601
 20
0.1212326790054078
 10
0.2158800245998702
 20
0.1212723875376613
 10
0.2161978375574823
 20
0.1215503448439512
 10
0.2165951031308647
 20
0.1218084482873611
 10
0.217111549186984
 20
0.1222650927790493
 10
0.2174889514505161
 20
0.1225629047547127
 10
0.2179458075770829
 20
0.1227415915368638
 10
0.2183828003937995
 20
0.122622466746598
 10
0.2188595192065847
 20
0.1224040718354415
 10
0.2191773321641961
 20
0.1226423210127252
 10
0.2194951451218083
 20
0.1229599868512676
 10
0.2199122740050419
 20
0.1228805701900088
 10
0.2202698135823546
 20
0.122602612883719
 10
0.2206472158458868
 20
0.1227415915368638
 10
0.2209054388739463
 20
0.1231982360285521
 10
0.2211239352823045
 20
0.1235159018670946
 10
0.221441748239916
 20
0.1238534215685178
 10
0.2217595605738954
 20
0.1238732758346441
 10
0.2221766900807617
 20
0.1239129839636503
 10
0.22267327282703
 20
0.1238137134395116
 10
0.2229712218511592
 20
0.1235754642622271
 10
0.2233088981186218
 20
0.1234166313429558
 10
0.2237844744371789
 20
0.1234641741566763
 10
0.2240180147255889
 20
0.1234641741566763
 10
0.2242146802644414
 20
0.1234027447282311
 10
0.224521970051967
 20
0.1233658867485662
 10
0.2248046768809975
 20
0.1234764602843134
 10
0.2249030099622394
 20
0.123746750253368
 10
0.2249767594613551
 20
0.1240170402224216
 10
0.2252225915408284
 20
0.1242259007630317
 10
0.2256650885355216
 20
0.1241890431866141
 10
0.2260215448636683
 20
0.124090755778504
 10
0.2263780011918151
 20
0.1241030415028947
 10
0.2267713322695189
 20
0.1243610457475586
 10
0.2269925813904977
 20
0.1247787668287769
 10
0.2272138298878448
 20
0.1252824891904684
 10
0.2273982042592657
 20
0.1258107834041868
 10
0.2278529930450218
 20
0.1264127927707403
 10
0.2281111162919266
 20
0.1267445125714874
 10
0.2285781974923788
 20
0.1267936562755419
 10
0.2290329862781349
 20
0.1267322264438495
 10
0.2294386091469028
 20
0.1267322264438495
 10
0.2296844412263762
 20
0.1266953688674318
 10
0.2300777723040801
 20
0.1266339394389875
 10
0.2304219368411637
 20
0.1266093675869597
 10
0.2309673811718974
 20
0.1267111809862754
 10
0.231127171961192
 20
0.1269814709553301
 10
0.231041130671013
 20
0.1273009046284392
 10
0.2311394637522552
 20
0.1277677694137122
 10
0.2312377962098646
 20
0.1281363467908759
 10
0.2315696695795169
 20
0.1281609186429037
 10
0.2319015429491691
 20
0.1281977762193213
 10
0.2322088327366949
 20
0.1284066367599306
 10
0.2322088327366949
 20
0.1288366435655397
 10
0.2321473744050098
 20
0.1291069335345942
 10
0.2321114793816702
 20
0.1298490958093698
 10
0.2321114793816702
 20
0.1300456706255883
 10
0.232271269547333
 20
0.1306353942677519
 10
0.232467935709817
 20
0.1308933981091694
 10
0.2327752254973421
 20
0.1311882603334981
 10
0.2329227244955734
 20
0.131311119190388
 10
0.2334266798219514
 20
0.1316182671391072
 10
0.2335250129031936
 20
0.1317411259959971
 10
0.2335373040706241
 20
0.1319131289601887
 10
0.2334881381536356
 20
0.1322325626332978
 10
0.2333160555732779
 20
0.1323799937454626
 10
0.2333037637822148
 20
0.1326011400104625
 10
0.2334389716130147
 20
0.1329082875559337
 10
0.2334020968634568
 20
0.1332400073566808
 10
0.2333652221138991
 20
0.1334611536216798
 10
0.2333037637822148
 20
0.13355944102979
 10
0.2330585883874693
 20
0.1338350123239613
 10
0.2328742146396801
 20
0.1338841560280159
 10
0.2326775491008278
 20
0.1339455854564612
 10
0.2325177583115342
 20
0.1341544459970705
 10
0.2326775491008278
 20
0.1343878783897065
 10
0.232812756307996
 20
0.1345967389303166
 10
0.2329479641387958
 20
0.1349898881595072
 10
0.2329356723477327
 20
0.1352601781285618
 10
0.2327758815584381
 20
0.1357884723422802
 10
0.2325915078106489
 20
0.1360587623113347
 10
0.2323825504807343
 20
0.1360956198877522
 10
0.2321613019833875
 20
0.1361201917397801
 10
0.2319154699039141
 20
0.1361447635918078
 10
0.2316819296155038
 20
0.1362676228519448
 10
0.2315590135757672
 20
0.1367467733616084
 10
0.2313869316190422
 20
0.13693106205019
 10
0.2311656824980635
 20
0.13704163518269
 10
0.2308829756690323
 20
0.1371644944428269
 10
0.2307477684618649
 20
0.1373856407078268
  0
LWPOLYLINE
  5
234A
330
2
100
AcDbEntity
  8
Profilo
  6
Continuous
370
     0
100
AcDbPolyline
 90
        6
 70
   128
 43
0.0
 10
0.2255399417633327
 20
0.1352287034954894
 10
0.2275034503036706
 20
0.1333164262802193
 10
0.2286110710176104
 20
0.1327125490738593
 10
0.2300207692009784
 20
0.1325615798730815
 10
0.2311787363677002
 20
0.1324106106723034
 10
0.2326387810038498
 20
0.1326622258725182
  0
LWPOLYLINE
  5
234B
330
2
100
AcDbEntity
  8
Profilo
  6
Continuous
370
     0
100
AcDbPolyline
 90
        5
 70
   128
 43
0.0
 10
0.2262951373077986
 20
0.1354299958976095
 10
0.2275537967564525
 20
0.1343228878875728
 10
0.2286110710176104
 20
0.133719010681213
 10
0.229668344655136
 20
0.1335680414804341
 10
0.2304235401996018
 20
0.1335680414804341
  0
LWPOLYLINE
  5
234C
330
2
100
AcDbEntity
  8
Profilo
  6
Continuous
370
     0
100
AcDbPolyline
 90
        7
 70
   128
 43
0.0
 10
0.2249357855772136
 20
0.1347254726918127
 10
0.2261944450258666
 20
0.1326119026711762
 10
0.2273020651161747
 20
0.1317564102646016
 10
0.2281579535662044
 20
0.1313035026622668
 10
0.2293159201092945
 20
0.1306493022545649
 10
0.2302725014648879
 20
0.1303473638530081
 10
0.2312794286496322
 20
0.1300957482495469
  0
LWPOLYLINE
  5
234D
330
2
100
AcDbEntity
  8
Profilo
  6
Continuous
370
     0
100
AcDbPolyline
 90
        6
 70
   128
 43
0.0
 10
0.2242812823146788
 20
0.1339706262846739
 10
0.2256909811216793
 20
0.1317564102646016
 10
0.2268992941175505
 20
0.130448009852445
 10
0.2279565677550768
 20
0.1296931638485534
 10
0.2293662665620764
 20
0.1288879942400736
 10
0.2308263111982259
 20
0.1282337942356188
  0
LWPOLYLINE
  5
234E
330
2
100
AcDbEntity
  8
Profilo
  6
Continuous
370
     0
100
AcDbPolyline
 90
        6
 70
   128
 43
0.0
 10
0.2235764332229958
 20
0.1338196570838961
 10
0.2250364778591447
 20
0.1312028562595828
 10
0.2262951373077986
 20
0.1297434866466482
 10
0.2274531044745205
 20
0.1287370250392956
 10
0.229013842016234
 20
0.127680240230601
 10
0.2299200769190464
 20
0.1271266862255822
  0
LWPOLYLINE
  5
234F
330
2
100
AcDbEntity
  8
Profilo
  6
Continuous
370
     0
100
AcDbPolyline
 90
        5
 70
   128
 43
0.0
 10
0.2230729693188077
 20
0.1334673954809981
 10
0.2242812823146788
 20
0.1308505946566848
 10
0.2251371707647093
 20
0.1296428406472123
 10
0.2261440985730846
 20
0.1283847634363968
 10
0.2275537967564525
 20
0.1268247478240253
  0
LWPOLYLINE
  5
2350
330
2
100
AcDbEntity
  8
Profilo
  6
Continuous
370
     0
100
AcDbPolyline
 90
        7
 70
   128
 43
0.0
 10
0.2221667344159953
 20
0.1329641642740742
 10
0.2232240086771534
 20
0.1305989794564701
 10
0.2242812823146788
 20
0.1288879942400736
 10
0.2250868243119275
 20
0.1275795938279169
 10
0.2256406346688966
 20
0.1264221630197855
 10
0.2257413275744612
 20
0.1247615010047308
 10
0.2257413275744612
 20
0.124409239401833
  0
LWPOLYLINE
  5
2351
330
2
100
AcDbEntity
  8
Profilo
  6
Continuous
370
     0
100
AcDbPolyline
 90
        7
 70
   128
 43
0.0
 10
0.2212101536840338
 20
0.1324609334703983
 10
0.2225191595854696
 20
0.1293409022456554
 10
0.2231233157715897
 20
0.1284854094358336
 10
0.2235764332229949
 20
0.1271770094269242
 10
0.2240798971271831
 20
0.1261202242149823
 10
0.2242812823146788
 20
0.1247615010047308
 10
0.2243819752202436
 20
0.1236040697933531
  0
LWPOLYLINE
  5
2352
330
2
100
AcDbEntity
  8
Profilo
  6
Continuous
370
     0
100
AcDbPolyline
 90
        6
 70
   128
 43
0.0
 10
0.2202535723284403
 20
0.1322596410682783
 10
0.2213611924187477
 20
0.1293409022456554
 10
0.2221667344159953
 20
0.127680240230601
 10
0.2225695054146197
 20
0.1264221630197855
 10
0.2230226228660258
 20
0.1253653782110908
 10
0.2230226228660258
 20
0.1240569777989342
  0
LWPOLYLINE
  5
2353
330
2
100
AcDbEntity
  8
Profilo
  6
Continuous
370
     0
100
AcDbPolyline
 90
        6
 70
   128
 43
0.0
 10
0.2194983767839745
 20
0.1324609334703983
 10
0.2202032258756577
 20
0.1301963946522302
 10
0.2207570362326277
 20
0.1289383174414156
 10
0.2214115388715296
 20
0.1271266862255822
 10
0.2218143098701538
 20
0.1254660242105276
 10
0.2218143098701538
 20
0.124358916200491
  0
LWPOLYLINE
  5
2354
330
2
100
AcDbEntity
  8
Profilo
  6
Continuous
370
     0
100
AcDbPolyline
 90
        4
 70
   128
 43
0.0
 10
0.2187935276922908
 20
0.1318067334659427
 10
0.2200018406881619
 20
0.1284350866377388
 10
0.2203039187812223
 20
0.1260195782155455
 10
0.2203542652340042
 20
0.1232518081904543
  0
LWPOLYLINE
  5
2355
330
2
100
AcDbEntity
  8
Profilo
  6
Continuous
370
     0
100
AcDbPolyline
 90
        5
 70
   128
 43
0.0
 10
0.2178369463366965
 20
0.1312028562595828
 10
0.2189949128797864
 20
0.1269757170248042
 10
0.2190452593325685
 20
0.1257679626120844
 10
0.2191459522381323
 20
0.1238556853968142
 10
0.2188942199742219
 20
0.1228995465875563
  0
LWPOLYLINE
  5
2356
330
2
100
AcDbEntity
  8
Profilo
  6
Continuous
370
     0
100
AcDbPolyline
 90
        5
 70
   128
 43
0.0
 10
0.2171824430741625
 20
0.130951241059368
 10
0.2179376392422601
 20
0.1284854094358336
 10
0.2182397173353208
 20
0.1262711938190074
 10
0.2181390244297559
 20
0.1240569777989342
 10
0.218088677976974
 20
0.1228995465875563
  0
LWPOLYLINE
  5
2357
330
2
100
AcDbEntity
  8
Profilo
  6
Continuous
370
     0
100
AcDbPolyline
 90
        5
 70
   128
 43
0.0
 10
0.2164272475296969
 20
0.130951241059368
 10
0.2173334824325084
 20
0.127680240230601
 10
0.217484521790855
 20
0.1255666702099645
 10
0.2174341753380729
 20
0.1240066545975931
 10
0.2170817507922305
 20
0.1227485773867784
  0
LWPOLYLINE
  5
2358
330
2
100
AcDbEntity
  8
Profilo
  6
Continuous
370
     0
100
AcDbPolyline
 90
        5
 70
   128
 43
0.0
 10
0.2158230913435767
 20
0.1305486562551281
 10
0.2164272475296969
 20
0.127378301425797
 10
0.2164272475296969
 20
0.1258182858134256
 10
0.216376901076915
 20
0.1241073010002762
 10
0.2159741300782906
 20
0.1223459925825375
  0
LWPOLYLINE
  5
2359
330
2
100
AcDbEntity
  8
Profilo
  6
Continuous
370
     0
100
AcDbPolyline
 90
        4
 70
   128
 43
0.0
 10
0.2142120073490813
 20
0.1310518870588049
 10
0.2145644318949229
 20
0.1264221630197855
 10
0.2146651248004876
 20
0.1240569777989342
 10
0.214514085442141
 20
0.1228995465875563
  0
LWPOLYLINE
  5
235A
330
2
100
AcDbEntity
  8
Profilo
  6
Continuous
370
     0
100
AcDbPolyline
 90
        2
 70
   128
 43
0.0
 10
0.2135071576337657
 20
0.1301963946522302
 10
0.2137588898976752
 20
0.1233524545931383
  0
LWPOLYLINE
  5
235B
330
2
100
AcDbEntity
  8
Profilo
  6
Continuous
370
     0
100
AcDbPolyline
 90
        2
 70
   128
 43
0.0
 10
0.2121981523559617
 20
0.1296428406472123
 10
0.2125002304490213
 20
0.1221950233817597
  0
LWPOLYLINE
  5
235C
330
2
100
AcDbEntity
  8
Profilo
  6
Continuous
370
     0
100
AcDbPolyline
 90
        3
 70
   128
 43
0.0
 10
0.2103856825503378
 20
0.1303473638530081
 10
0.2104863754559025
 20
0.1252144086070656
 10
0.2108891464545259
 20
0.1218427617788617
  0
LWPOLYLINE
  5
235D
330
2
100
AcDbEntity
  8
Profilo
  6
Continuous
370
     0
100
AcDbPolyline
 90
        3
 70
   128
 43
0.0
 10
0.209127023101684
 20
0.1306493022545649
 10
0.2092780624600306
 20
0.1251640858089708
 10
0.2096304870058721
 20
0.1230001929902394
  0
LWPOLYLINE
  5
235E
330
2
100
AcDbEntity
  8
Profilo
  6
Continuous
370
     0
100
AcDbPolyline
 90
        3
 70
   128
 43
0.0
 10
0.2085228662919321
 20
0.1305989794564701
 10
0.2087745985558425
 20
0.1251137626076288
 10
0.209127023101684
 20
0.1228492237894616
  0
LWPOLYLINE
  5
235F
330
2
100
AcDbEntity
  8
Profilo
  6
Continuous
370
     0
100
AcDbPolyline
 90
        4
 70
   128
 43
0.0
 10
0.2076166320127524
 20
0.1305486562551281
 10
0.2075662855599705
 20
0.1257176398139896
 10
0.2077676707474663
 20
0.1231511621910184
 10
0.2082711346516544
 20
0.1223963157838796
  0
LWPOLYLINE
  5
2360
330
2
100
AcDbEntity
  8
Profilo
  6
Continuous
370
     0
100
AcDbPolyline
 90
        5
 70
   128
 43
0.0
 10
0.2065593577515952
 20
0.1302970406516669
 10
0.2063076261113166
 20
0.1246608546020477
 10
0.2064586648460305
 20
0.1231511621910184
 10
0.2069117822974367
 20
0.1220440541809817
 10
0.2075159391071886
 20
0.1214401769746218
  0
LWPOLYLINE
  5
2361
330
2
100
AcDbEntity
  8
Profilo
  6
Continuous
370
     0
100
AcDbPolyline
 90
        4
 70
   128
 43
0.0
 10
0.2053006983029413
 20
0.1310015638574628
 10
0.2047972343987532
 20
0.127026039822899
 10
0.2047972343987532
 20
0.1241073010002762
 10
0.2051496595682274
 20
0.1220440541809817
  0
LWPOLYLINE
  5
2362
330
2
100
AcDbEntity
  8
Profilo
  6
Continuous
370
     0
100
AcDbPolyline
 90
        4
 70
   128
 43
0.0
 10
0.2055524305668508
 20
0.127680240230601
 10
0.2054013912085051
 20
0.124560208602611
 10
0.2057034693015647
 20
0.1224969617833165
 10
0.2062572796585347
 20
0.1218427617788617
  0
LWPOLYLINE
  5
2363
330
2
100
AcDbEntity
  8
Profilo
  6
Continuous
370
     0
100
AcDbPolyline
 90
        3
 70
   128
 43
0.0
 10
0.2045958492112574
 20
0.1305486562551281
 10
0.2038910001195735
 20
0.124409239401833
 10
0.2043441175709797
 20
0.1218427617788617
  0
LWPOLYLINE
  5
2364
330
2
100
AcDbEntity
  8
Profilo
  6
Continuous
370
     0
100
AcDbPolyline
 90
        5
 70
   128
 43
0.0
 10
0.2028337258584154
 20
0.1308505946566848
 10
0.2023302619542273
 20
0.127478947828481
 10
0.2016254128625434
 20
0.1255163474118696
 10
0.2012729883167019
 20
0.1238556853968142
 10
0.2014240276750476
 20
0.1230505157883343
  0
LWPOLYLINE
  5
2365
330
2
100
AcDbEntity
  8
Profilo
  6
Continuous
370
     0
100
AcDbPolyline
 90
        6
 70
   128
 43
0.0
 10
0.2019274909556039
 20
0.1313035026622668
 10
0.2013233347694838
 20
0.127680240230601
 10
0.2003667534138904
 20
0.1256169934113056
 10
0.1995612114166418
 20
0.1238053621954731
 10
0.1996619043222065
 20
0.1227989005881196
 10
0.1999136359624842
 20
0.1222956697844428
  0
LWPOLYLINE
  5
2366
330
2
100
AcDbEntity
  8
Profilo
  6
Continuous
370
     0
100
AcDbPolyline
 90
        6
 70
   128
 43
0.0
 10
0.2008702173180776
 20
0.1310518870588049
 10
0.2003667534138904
 20
0.1286363786366116
 10
0.199359826229146
 20
0.1263718398184443
 10
0.1985039377791165
 20
0.1244595626031741
 10
0.198151513233275
 20
0.1232014853923594
 10
0.1983528984207707
 20
0.1223963157838796
  0
LWPOLYLINE
  5
2367
330
2
100
AcDbEntity
  8
Profilo
  6
Continuous
370
     0
100
AcDbPolyline
 90
        4
 70
   128
 43
0.0
 10
0.1993094797763641
 20
0.1318570566672847
 10
0.1977990880638007
 20
0.1284854094358336
 10
0.1969431996137703
 20
0.1269757170248042
 10
0.1955838478831853
 20
0.1253150550097497
  0
LWPOLYLINE
  5
2368
330
2
100
AcDbEntity
  8
Profilo
  6
Continuous
370
     0
100
AcDbPolyline
 90
        5
 70
   128
 43
0.0
 10
0.1986549765138303
 20
0.1283847634363968
 10
0.1973963170651765
 20
0.1261202242149823
 10
0.1961376576165226
 20
0.1245098854012689
 10
0.1961376576165226
 20
0.1240066545975931
 10
0.1964397363332149
 20
0.1233524545931383
  0
LWPOLYLINE
  5
2369
330
2
100
AcDbEntity
  8
Profilo
  6
Continuous
370
     0
100
AcDbPolyline
 90
        4
 70
   128
 43
0.0
 10
0.1983025519679888
 20
0.1325112566717394
 10
0.1967418144262745
 20
0.1291899326416303
 10
0.194627266527591
 20
0.1269253938234622
 10
0.1925127186289075
 20
0.1254157010091856
  0
LWPOLYLINE
  5
236A
330
2
100
AcDbEntity
  8
Profilo
  6
Continuous
370
     0
100
AcDbPolyline
 90
        5
 70
   128
 43
0.0
 10
0.1967921608790573
 20
0.133517718279093
 10
0.1956845407887491
 20
0.1316054410638227
 10
0.1942244955289676
 20
0.1300957482495469
 10
0.1925630650816894
 20
0.1291899326416303
 10
0.190951981087194
 20
0.1283344402350556
  0
LWPOLYLINE
  5
236B
330
2
100
AcDbEntity
  8
Profilo
  6
Continuous
370
     0
100
AcDbPolyline
 90
        4
 70
   128
 43
0.0
 10
0.1950300375262153
 20
0.1318067334659427
 10
0.1933182606261552
 20
0.1308505946566848
 10
0.1910526739927578
 20
0.130448009852445
 10
0.189743668091322
 20
0.1304983330537869
  0
LWPOLYLINE
  5
236C
330
2
100
AcDbEntity
  8
Profilo
  6
Continuous
370
     0
100
AcDbPolyline
 90
       21
 70
   128
 43
0.0
 10
0.2388661372470341
 20
0.1391011116431362
 10
0.2400180021724794
 20
0.1383662191041169
 10
0.2410963433536735
 20
0.1379742759865103
 10
0.2424197626429863
 20
0.1379252830968096
 10
0.2438167050529182
 20
0.1382192404350148
 10
0.2447479999928739
 20
0.1385131973699728
 10
0.2451646318412275
 20
0.1386846724839255
 10
0.2456057711885766
 20
0.1386601760390751
 10
0.2455567561905856
 20
0.1379252830968096
 10
0.2458753567956917
 20
0.1381457511004637
 10
0.245948879916311
 20
0.1386846724839255
 10
0.2467086204923988
 20
0.1391501045328368
 10
0.2477624541745966
 20
0.1394440614677949
 10
0.2483506403868179
 20
0.1389051404875796
 10
0.2482035941455785
 20
0.1381702475453141
 10
0.2476154079333581
 20
0.1376068297170012
 10
0.2473948379478668
 20
0.1373128727820431
 10
0.2484241641310688
 20
0.1380722617659117
 10
0.2494230695345625
 20
0.1391141804730753
 10
0.2503314771720301
 20
0.1392438929148842
 10
0.2509803396811308
 20
0.1389196118103615
  0
LWPOLYLINE
  5
236D
330
2
100
AcDbEntity
  8
Profilo
  6
Continuous
370
     0
100
AcDbPolyline
 90
        3
 70
   128
 43
0.0
 10
0.2284262435203035
 20
0.1851443852349218
 10
0.2341492022617829
 20
0.1900024758661137
 10
0.2299003389048357
 20
0.1843636201457887
  0
LWPOLYLINE
  5
236E
330
2
100
AcDbEntity
  8
Profilo
  6
Continuous
370
     0
100
AcDbPolyline
 90
       59
 70
   128
 43
0.0
 10
0.2271485261674846
 20
0.1868807619315461
 10
0.2284860918175131
 20
0.1870740336638551
 10
0.2292855978227807
 20
0.1876857039945982
 10
0.2298969851000719
 20
0.1883444255054701
 10
0.2303202532461378
 20
0.1892148788860067
 10
0.2306259466831604
 20
0.1902970641362071
 10
0.2311432741932153
 20
0.1909557862707117
 10
0.2316841166450791
 20
0.1910498892546032
 10
0.2319898100821007
 20
0.1905793737115132
 10
0.2320133250239096
 20
0.1903911677437303
 10
0.2322272701051312
 20
0.1910069839814742
 10
0.232627022906142
 20
0.1911951899492571
 10
0.2333089550088588
 20
0.191501025426445
 10
0.2335911335040724
 20
0.1913363447369111
 10
0.2336616783294991
 20
0.1907717262099296
 10
0.2340379161887008
 20
0.191501025426445
 10
0.2343671249707777
 20
0.1917833343781193
 10
0.2350960861506197
 20
0.1920656439534264
 10
0.2355663841803032
 20
0.1919715403459022
 10
0.2358485626755168
 20
0.1914304477208025
 10
0.2358485626755168
 20
0.1906305720459084
 10
0.2355663841803032
 20
0.1899953758132845
 10
0.2351431160342373
 20
0.1896895409597293
 10
0.2357309883697188
 20
0.1896189638777187
 10
0.2359896519231227
 20
0.1893601802042933
 10
0.2358015327918982
 20
0.1887249845953013
 10
0.2354017799908885
 20
0.1882309431503314
 10
0.2345787586405648
 20
0.1881133142645591
 10
0.2339673717665207
 20
0.187948634198657
 10
0.2336851928680608
 20
0.1877604276072414
 10
0.2346022735823736
 20
0.1877604276072414
 10
0.2354252949326974
 20
0.1876192734432201
 10
0.2353547501072707
 20
0.1871722838020119
 10
0.2347903927135972
 20
0.1866547164551603
 10
0.233920341882903
 20
0.1861606756338222
 10
0.233144350819444
 20
0.1854549023191877
 10
0.2324389041781646
 20
0.1845373971348895
 10
0.2320861808575245
 20
0.1832905318187871
 10
0.2320861808575245
 20
0.182349500732608
 10
0.2323683593527381
 20
0.1814084702700608
 10
0.2329562316882195
 20
0.1806556451516646
 10
0.2337322227516785
 20
0.1798557694767714
 10
0.2345082142183844
 20
0.1795499339995835
 10
0.2354252949326974
 20
0.1795734599014643
 10
0.2361307415739768
 20
0.1799969236407927
 10
0.2366480690840317
 20
0.1805615421677732
 10
0.2369537625210534
 20
0.1813143666625375
 10
0.2369302475792445
 20
0.1820907170591827
 10
0.2365775242586043
 20
0.1828670674558269
 10
0.2357780182533367
 20
0.1834081607045593
 10
0.2351431160342373
 20
0.1833611089007977
 10
0.2346022735823736
 20
0.1830082222434809
 10
0.2344141544511491
 20
0.1825141814221419
 10
0.2344141544511491
 20
0.1817613563037458
 10
0.2346963333496089
 20
0.18138494436818
 10
0.2353312351654618
 20
0.1811967377767652
 10
0.2357309883697188
 20
0.1813143666625375
 10
0.2358955925591346
 20
0.1816437274179735
 10
0.2358955925591346
 20
0.1820671917809337
  0
LWPOLYLINE
  5
236F
330
2
100
AcDbEntity
  8
Profilo
  6
Continuous
370
     0
100
AcDbPolyline
 90
       11
 70
   128
 43
0.0
 10
0.2339983322597502
 20
0.1819349274942134
 10
0.2339983322597502
 20
0.1842235143075305
 10
0.2347809075391762
 20
0.1854882597830224
 10
0.2362256622734194
 20
0.1867530052585152
 10
0.2379714073756745
 20
0.1877166205619222
 10
0.2398977470213329
 20
0.188258654248043
 10
0.2419444828948454
 20
0.1880177501103745
 10
0.2434494359446389
 20
0.1875961684930883
 10
0.2449150591110528
 20
0.1868810020299504
 10
0.245994189445443
 20
0.1858636583162306
 10
0.2471354255158122
 20
0.1847218943117118
  0
LWPOLYLINE
  5
2370
330
2
100
AcDbEntity
  8
Profilo
  6
Continuous
370
     0
100
AcDbPolyline
 90
       21
 70
   128
 43
0.0
 10
0.2381984539498367
 20
0.1454833086561716
 10
0.2378548028787569
 20
0.1458043252124991
 10
0.2374695476115793
 20
0.1459071079096338
 10
0.2368788223040275
 20
0.1457786296941238
 10
0.2366476690630713
 20
0.1453931962948584
 10
0.2365449342445079
 20
0.1445323942465645
 10
0.2367760874854633
 20
0.1439413954530296
 10
0.2374053381987597
 20
0.1435816575721395
 10
0.2380859561197133
 20
0.1435174184643845
 10
0.2390362530906139
 20
0.1437615268244009
 10
0.2395370849782693
 20
0.14464802439107
 10
0.2395370849782693
 20
0.1454702828499851
 10
0.2394600337635354
 20
0.1464210195244092
 10
0.238728048634923
 20
0.1472304305359525
 10
0.237777751664023
 20
0.1476672549719694
 10
0.2364293576240295
 20
0.1476415594535932
 10
0.2355689540730249
 20
0.1471404959098222
 10
0.2349397033597294
 20
0.1464338669717809
 10
0.2343618202573385
 20
0.1449435231642052
 10
0.234259085438775
 20
0.1437486787533965
 10
0.2345801316963805
 20
0.1426052253793392
  0
LWPOLYLINE
  5
2371
330
2
100
AcDbEntity
  8
Profilo
  6
Continuous
370
     0
100
AcDbPolyline
 90
       10
 70
   128
 43
0.0
 10
0.2363729635400703
 20
0.1439338482558984
 10
0.236930016115503
 20
0.1421690314354972
 10
0.238322648360578
 20
0.1409150822810043
 10
0.2399938068933693
 20
0.1400326738708028
 10
0.2417578077908971
 20
0.1395682480963453
 10
0.2440324402831131
 20
0.1396611331265105
 10
0.2458428621613857
 20
0.1403113289612982
 10
0.2471890730224688
 20
0.1411008523413345
 10
0.2481639156343462
 20
0.1421225889204146
 10
0.248811808994849
 20
0.1428003585831486
  0
LWPOLYLINE
  5
2372
330
2
100
AcDbEntity
  8
Profilo
  6
Continuous
370
     0
100
AcDbPolyline
 90
       20
 70
   128
 43
0.0
 10
0.2358199926301216
 20
0.1886646625215226
 10
0.2369467210230614
 20
0.1893653850388043
 10
0.2377841540156214
 20
0.1897157459856288
 10
0.2388804300064706
 20
0.189959475800887
 10
0.239961479796275
 20
0.190066107556086
 10
0.2409359473885014
 20
0.189989942105749
 10
0.2418997745038365
 20
0.1896762077028583
 10
0.2421862040282454
 20
0.1895103034469073
 10
0.2425480100828647
 20
0.1894198100463077
 10
0.2429248911209287
 20
0.1896007968475078
 10
0.2430605683914112
 20
0.1896158787691252
 10
0.2432866967723017
 20
0.1894650570584234
 10
0.2435882016834015
 20
0.1892689877119741
 10
0.2442665876325665
 20
0.1892388232451075
 10
0.2449148232115955
 20
0.1893745636578238
 10
0.2451560269791769
 20
0.1896309613143744
 10
0.245261553879524
 20
0.1901286747058582
 10
0.2451258766090414
 20
0.1908073742749104
 10
0.2448092963112496
 20
0.1912749231995269
 10
0.2444927164167041
 20
0.1915765672445614
  0
LWPOLYLINE
  5
2373
330
2
100
AcDbEntity
  8
Profilo
  6
Continuous
370
     0
100
AcDbPolyline
 90
        9
 70
   128
 43
0.0
 10
0.2452464784928321
 20
0.1898119481155745
 10
0.246299222767231
 20
0.1894073648417182
 10
0.2472254458960699
 20
0.1891602574343544
 10
0.2483369134087285
 20
0.1895926952413326
 10
0.2488926469634337
 20
0.190148685816545
 10
0.2489247151759964
 20
0.1905299720615451
 10
0.2485221577925485
 20
0.1907664533995067
 10
0.2480281722313669
 20
0.1905193466157747
 10
0.2471019495057745
 20
0.1903957932239088
  0
LWPOLYLINE
  5
2374
330
2
100
AcDbEntity
  8
Profilo
  6
Continuous
370
     0
100
AcDbPolyline
 90
       13
 70
   128
 43
0.0
 10
0.2476150925223781
 20
0.1906982966341436
 10
0.2477494257708229
 20
0.1911014829718262
 10
0.247630018304456
 20
0.1916241316740089
 10
0.2471971665917155
 20
0.19225131111444
 10
0.2466598331946861
 20
0.1926246317050898
 10
0.2465105741641623
 20
0.1931174152838716
 10
0.2462419072640245
 20
0.1932518105218882
 10
0.2453911296206216
 20
0.1933563406365039
 10
0.2451373889058087
 20
0.1934608701274877
 10
0.2451523146878874
 20
0.1938939222122039
 10
0.2449732036899601
 20
0.1943120414234028
 10
0.2444507964782556
 20
0.1944464372850522
 10
0.2441672037960388
 20
0.1945211010290023
  0
LWPOLYLINE
  5
2375
330
2
100
AcDbEntity
  8
Profilo
  6
Continuous
370
     0
100
AcDbPolyline
 90
        7
 70
   128
 43
0.0
 10
0.2359867428997291
 20
0.1902852893362542
 10
0.2382554831477198
 20
0.1917666260236718
 10
0.240930208781359
 20
0.1926745422389494
 10
0.243270593912418
 20
0.192961252163203
 10
0.2447034822990846
 20
0.192770112005823
 10
0.2456826231200495
 20
0.192387831691064
 10
0.2467095265243142
 20
0.1916471630355388
  0
LWPOLYLINE
  5
2376
330
2
100
AcDbEntity
  8
Profilo
  6
Continuous
370
     0
100
AcDbPolyline
 90
       66
 70
   128
 43
0.0
 10
0.2360106243930025
 20
0.190739247443893
 10
0.2394973199914459
 20
0.1929851447608296
 10
0.239139097995591
 20
0.193271855308715
 10
0.2397361349241802
 20
0.193654135623475
 10
0.2410973792342733
 20
0.1938213838068602
 10
0.2422914530914531
 20
0.1941319863287404
 10
0.2435810529217257
 20
0.1944903740458729
 10
0.2441064453704949
 20
0.1947054074245112
 10
0.2444885492628704
 20
0.1950160099463914
 10
0.2445363122494177
 20
0.1953743976635248
 10
0.2440586823839484
 20
0.1957566786019166
 10
0.2435810529217257
 20
0.1957566786019166
 10
0.2440109193974014
 20
0.1957805711995432
 10
0.2445363122494177
 20
0.1957805711995432
 10
0.2449184157385453
 20
0.1961628515143022
 10
0.2450617046981867
 20
0.1964256694645611
 10
0.2449184157385453
 20
0.196999089936701
 10
0.244464667769597
 20
0.1971902300940801
 10
0.2435094084419057
 20
0.1972858004845864
 10
0.2430078974864094
 20
0.1972380152893333
 10
0.2426257939972809
 20
0.1971424448988278
 10
0.2434616454553585
 20
0.1977636511898518
 10
0.2439631568141013
 20
0.1983609642596175
 10
0.2443213788099562
 20
0.1991016329151426
 10
0.2445124307561441
 20
0.1997228385825348
 10
0.2446557193125376
 20
0.2002962590546739
 10
0.2446557193125376
 20
0.2012041752699515
 10
0.2444169047830496
 20
0.2016342407799646
 10
0.2438437493477343
 20
0.2018492735349703
 10
0.2431034234595037
 20
0.2018731661325969
 10
0.2419571125888711
 20
0.2017298111704701
 10
0.2410018532611798
 20
0.2009652499173192
 10
0.2405719867855041
 20
0.2002962590546739
 10
0.2401660013998557
 20
0.1996033755944019
 10
0.2399988313501888
 20
0.1992927730725217
 10
0.2401182384133086
 20
0.2002006892878002
 10
0.2401182384133086
 20
0.2008935721244395
 10
0.2397600164174537
 20
0.2014192080249581
 10
0.2393540314350517
 20
0.2018731661325969
 10
0.2386542693658253
 20
0.2018038980546168
 10
0.2382960473699703
 20
0.2014694029351109
 10
0.2382960473699703
 20
0.2011349071919714
 10
0.2384870989129111
 20
0.2001075286121935
 10
0.2381527584103297
 20
0.2008959818393391
 10
0.2379139434775948
 20
0.2013021553753575
 10
0.2375079584951934
 20
0.2008959818393391
 10
0.2372213805759114
 20
0.2005853793174589
 10
0.2371736179926114
 20
0.2014216177398577
 10
0.2365765806607751
 20
0.2015171881303631
 10
0.2364571735976544
 20
0.2014216177398577
 10
0.2362900031447401
 20
0.2017561128593636
 10
0.2358846685996456
 20
0.2022264369473618
 10
0.2355743289514305
 20
0.2024629962393506
 10
0.2351605423505632
 20
0.2026108450952572
 10
0.2346285314098389
 20
0.2028621888362942
 10
0.2342295230026716
 20
0.202906543430703
 10
0.233786180417652
 20
0.2029952532431526
 10
0.2333132818484798
 20
0.2031874573171008
 10
0.2331655007179745
 20
0.2035127257979065
 10
0.2328847170539126
 20
0.2041780472085669
 10
0.2331585204617241
 20
0.2047948881274276
 10
0.2325176061452725
 20
0.2053999157972951
 10
0.231858888999825
 20
0.2049550424869077
 10
0.2319657078446895
 20
0.2039585257554831
 10
0.2316986604207118
 20
0.2028552397199034
 10
0.2325354095978992
 20
0.2010045661357548
  0
LWPOLYLINE
  5
2377
330
2
100
AcDbEntity
  8
Profilo
  6
Continuous
370
     0
100
AcDbPolyline
 90
        6
 70
   128
 43
0.0
 10
0.2350538500665735
 20
0.1923650316970876
 10
0.2356053983213331
 20
0.1935211915776346
 10
0.2359993613028407
 20
0.1945722457310269
 10
0.2365771738370175
 20
0.1957546817315471
 10
0.2369186086629391
 20
0.1964904199507375
 10
0.2370499296567747
 20
0.1968320126285435
  0
LWPOLYLINE
  5
2378
330
2
100
AcDbEntity
  8
Profilo
  6
Continuous
370
     0
100
AcDbPolyline
 90
        6
 70
   128
 43
0.0
 10
0.2361569465760935
 20
0.1975414747277616
 10
0.2360256255822578
 20
0.1989078454389869
 10
0.235789247874002
 20
0.2001428343030852
 10
0.2353690206130779
 20
0.2011938884564767
 10
0.2348174719550712
 20
0.2020610085227958
 10
0.2343184522591442
 20
0.2026128120312801
  0
LWPOLYLINE
  5
2379
330
2
100
AcDbEntity
  8
Profilo
  6
Continuous
370
     0
100
AcDbPolyline
 90
       10
 70
   128
 43
0.0
 10
0.2358334655134906
 20
0.1919857841058151
 10
0.2385638920496068
 20
0.1949451154355811
 10
0.2412510134940498
 20
0.1982018120697168
 10
0.242372438383292
 20
0.1994375767322966
 10
0.2428437622731805
 20
0.1998765982246254
 10
0.2431038029148703
 20
0.1999253781132703
 10
0.2431038029148703
 20
0.1997302573114282
 10
0.2426487318927252
 20
0.1992261959675726
 10
0.2407309322106708
 20
0.1971286482832161
 10
0.2383418090419751
 20
0.1944945180819774
  0
LWPOLYLINE
  5
237A
330
2
100
AcDbEntity
  8
Profilo
  6
Continuous
370
     0
100
AcDbPolyline
 90
      329
 70
   129
 43
0.0
 10
0.2342861969400039
 20
0.1834472880136969
 10
0.2347641619036767
 20
0.1842283262537426
 10
0.2352421272705963
 20
0.1845152382348359
 10
0.235433313498014
 20
0.1846108753539889
 10
0.2354173812115843
 20
0.1850093638701556
 10
0.235512974123669
 20
0.1855831878323414
 10
0.2358475501224611
 20
0.1858541597738824
 10
0.2364689048575086
 20
0.1859816763485081
 10
0.2371221241654153
 20
0.1860135551803491
 10
0.2375363603866162
 20
0.1858222809420414
 10
0.2376478855851307
 20
0.1858382203579619
 10
0.2378390718125483
 20
0.1862685883296015
 10
0.2381736474080932
 20
0.1865076814393015
 10
0.2388268667159999
 20
0.1865236208552211
 10
0.2390499171130306
 20
0.1863961049042272
 10
0.2392419594336925
 20
0.1867700304181307
 10
0.2394877283598325
 20
0.1869153248764629
 10
0.2400351227679087
 20
0.186792383267805
 10
0.2403590909528097
 20
0.1866470894331055
 10
0.2409680809270674
 20
0.1860085617571604
 10
0.2411244794445884
 20
0.185807384862826
 10
0.2415266468882492
 20
0.1853826788481155
 10
0.2420628701464651
 20
0.1851815019537811
 10
0.2426549495572268
 20
0.1853938549611364
 10
0.2433475713329634
 20
0.1854832669834664
 10
0.2438391091852444
 20
0.1854832669834664
 10
0.2442077627760792
 20
0.1851703252171276
 10
0.2442971331846995
 20
0.1847791481651123
 10
0.2442971331846995
 20
0.1844326774360784
 10
0.2443591533699055
 20
0.1842632596361987
 10
0.2446496077019804
 20
0.1844085534708982
 10
0.2451970021100554
 20
0.1843079653355474
 10
0.2455991691504701
 20
0.1840732588548851
 10
0.2457890815208172
 20
0.183670905689849
 10
0.2457890815208172
 20
0.1832909053744872
 10
0.245755567667991
 20
0.1827656106007932
 10
0.2456885399623367
 20
0.18225149194012
 10
0.2456661972593708
 20
0.1817038443167517
 10
0.2456885399623367
 20
0.1811226671070555
 10
0.2461689062615122
 20
0.1807091372053667
 10
0.2466716156669009
 20
0.1804967835743788
 10
0.2472413527779428
 20
0.1802173713943679
 10
0.2475541494097372
 20
0.1801726656950192
 10
0.2479451457035389
 20
0.1798373710790061
 10
0.248146229223746
 20
0.1794573707636443
 10
0.2482355996323663
 20
0.1791667818469799
 10
0.248246771185473
 20
0.1786526638099394
 10
0.2481238865207792
 20
0.1782056043219219
 10
0.2481015442210595
 20
0.1780603098635897
 10
0.2485819105202343
 20
0.177859133592888
 10
0.2488276794463752
 20
0.1776691328115752
 10
0.2489058787051352
 20
0.1772667796465382
 10
0.2488835360021683
 20
0.1769426617671786
 10
0.248872364852309
 20
0.1766632495871677
 10
0.2490622772226559
 20
0.1764173669934846
 10
0.249095791075483
 20
0.1761044252271467
 10
0.249006420666863
 20
0.175791483460808
 10
0.2488276794463752
 20
0.1754338359951205
 10
0.2486601097789951
 20
0.1751208942287817
 10
0.2487097728651026
 20
0.1746442745735196
 10
0.2489890556440698
 20
0.1742419214084835
 10
0.2495811354580787
 20
0.1737725090707917
 10
0.2497487051254599
 20
0.1735042736274334
 10
0.2498157332343605
 20
0.1731130965754189
 10
0.2497822189782861
 20
0.1726883899370758
 10
0.2496369920138727
 20
0.1723978010204113
 10
0.2497822189782861
 20
0.1720513302913774
 10
0.2500056456047075
 20
0.17178309484802
 10
0.2500615021605006
 20
0.1712913290370211
 10
0.2499497890489143
 20
0.1709113287216594
 10
0.249860418237047
 20
0.1706207404286276
 10
0.2502625856807078
 20
0.1701177985046079
 10
0.2509775497561641
 20
0.1693801500999269
 10
0.2512680040882389
 20
0.1690448554839138
 10
0.251379717199826
 20
0.1687095608679007
 10
0.2513810402530217
 20
0.1680811896662963
 10
0.2513021683783727
 20
0.1675485578595305
 10
0.2511444246290744
 20
0.1670948348612379
 10
0.2509373859581202
 20
0.1667200206714211
 10
0.2508092191618162
 20
0.1663550692251684
 10
0.2511542836134054
 20
0.1659802544117189
 10
0.251459912127671
 20
0.165585712863875
 10
0.2516176558769694
 20
0.1649051286782533
 10
0.2515979379083071
 20
0.1642442712270261
 10
0.2515486429866514
 20
0.163642594602614
 10
0.251321886347035
 20
0.1630310552346378
 10
0.2511247066604121
 20
0.1628633748741238
 10
0.250917667989458
 20
0.1626463770539906
 10
0.2508387961148097
 20
0.1623110163329627
 10
0.2510458347857628
 20
0.1616797496069594
 10
0.251377259006506
 20
0.1611977579837503
 10
0.2515162380628972
 20
0.1604230888995722
 10
0.2515758000547833
 20
0.1599265067769359
 10
0.2514368214016385
 20
0.159350470791264
 10
0.2511787179582277
 20
0.1587347088095233
 10
0.2508610521196852
 20
0.1585162124011651
 10
0.2508809063858115
 20
0.1579401770391259
 10
0.2511390098292222
 20
0.1571655079549469
 10
0.2510993017002161
 20
0.1562517963254452
 10
0.2509007606519376
 20
0.1557750775126599
 10
0.2506823653375339
 20
0.155397674625496
 10
0.2506228029424014
 20
0.1548216392634568
 10
0.2503646994989908
 20
0.1543250565171886
 10
0.2499676174024359
 20
0.1538086110847011
 10
0.2503249913699844
 20
0.1529544887611193
 10
0.2505433866843891
 20
0.1523585900892298
 10
0.2505036781521356
 20
0.1520407771316176
 10
0.2503448452328645
 20
0.1517428274838565
 10
0.2505204616928466
 20
0.1513542316456012
 10
0.2505403159589739
 20
0.1508973761426672
 10
0.2505403159589739
 20
0.1505199732555024
 10
0.2502425043865567
 20
0.1500233911328669
 10
0.2499844009431468
 20
0.1499240745836129
 10
0.2497858598948684
 20
0.1493679019077921
 10
0.2497064432336097
 20
0.1488713197851558
 10
0.2495277564514586
 20
0.148414463658589
 10
0.2490512576936441
 20
0.1478980182261015
 10
0.2485946132019559
 20
0.1476199318881915
 10
0.2482968016295397
 20
0.1473219822404305
 10
0.2480784063151351
 20
0.1468055368079438
 10
0.2480386981861289
 20
0.1461699108927193
 10
0.2479195733958639
 20
0.1452760625730688
 10
0.2479195733958639
 20
0.1445411207322239
 10
0.2476813242185802
 20
0.1440445379859548
 10
0.247522491299308
 20
0.143965084746552
 10
0.2471651173317595
 20
0.1437664522716767
 10
0.2470857006704998
 20
0.1434486393140654
 10
0.2468871596222223
 20
0.1428924666382446
 10
0.2465297856546738
 20
0.1425945176141153
 10
0.2456562048003035
 20
0.1422369780368026
 10
0.245040727389344
 20
0.1420383449382946
 10
0.2442862713252396
 20
0.1418595751496386
 10
0.2438693349625574
 20
0.1414623095762554
 10
0.2433531280757368
 20
0.1411246333087929
 10
0.2428170669227897
 20
0.1408068203511816
 10
0.2421817352457039
 20
0.1408068203511816
 10
0.2412088838671949
 20
0.1408068203511816
 10
0.2406529688513681
 20
0.1407869570413305
 10
0.2401111053782633
 20
0.1409655590729203
 10
0.2398331476687262
 20
0.14122378210098
 10
0.2395551899591892
 20
0.1413429619600842
 10
0.2388801501530973
 20
0.141025149002472
 10
0.238423505661409
 20
0.1412635087206814
 10
0.2380661316938595
 20
0.1414422785093373
 10
0.237847736782703
 20
0.1419785872516751
 10
0.237847736782703
 20
0.1427333924023711
 10
0.2380462778309803
 20
0.1430710686698336
 10
0.2386220471129335
 20
0.1433888816274459
 10
0.2391183997336281
 20
0.143488198176699
 10
0.2393765031770379
 20
0.1432299751486402
 10
0.2388602962902172
 20
0.1429320255008782
 10
0.2384632141936623
 20
0.142634075853118
 10
0.2384036517985289
 20
0.1422169469698845
 10
0.2386021928468074
 20
0.1418991340122723
 10
0.2391183997336281
 20
0.1418991340122723
 10
0.2396147523543217
 20
0.1421772203501831
 10
0.2403295002894198
 20
0.1426539391629683
 10
0.240488333208692
 20
0.1421970836600334
 10
0.2403295002894198
 20
0.1420183138713766
 10
0.2408258533133616
 20
0.1419785872516751
 10
0.2415008931194534
 20
0.1418991340122723
 10
0.2420369538691542
 20
0.141680637603914
 10
0.2424340359657091
 20
0.1418594073925708
 10
0.2428708265945173
 20
0.142455306688093
 10
0.2433671792152118
 20
0.1429320255008782
 10
0.2440819271503099
 20
0.1433690183175947
 10
0.2445385716419982
 20
0.1433292916978933
 10
0.2452731738432226
 20
0.1431703852190876
 10
0.2457695268671645
 20
0.1431505219092365
 10
0.2461070465685868
 20
0.1433292916978933
 10
0.2461666089637193
 20
0.1438060105106794
 10
0.246285733350738
 20
0.1442231400175448
 10
0.2467225239795462
 20
0.1443820464963504
 10
0.2470203355519623
 20
0.1445012263554547
 10
0.2471791684712344
 20
0.1447594487598825
 10
0.2470798979470948
 20
0.1454546646046579
 10
0.2470401898180887
 20
0.1459115201075928
 10
0.2469012107616975
 20
0.1465868726425178
 10
0.2469012107616975
 20
0.1471231813848556
 10
0.2469012107616975
 20
0.1473416777932138
 10
0.247119606076101
 20
0.1477588073000792
 10
0.2474372719146445
 20
0.1480766196340587
 10
0.2480200141426102
 20
0.1484249007674284
 10
0.2483575342472798
 20
0.1486235338659364
 10
0.2488538868679735
 20
0.1488023030309605
 10
0.2490524279162517
 20
0.1490009361294676
 10
0.2492311151016492
 20
0.1492194325378259
 10
0.2493700937547942
 20
0.1496166987348409
 10
0.2493105313596617
 20
0.1498351945195665
 10
0.2490921364485044
 20
0.1503516405756858
 10
0.2493700937547942
 20
0.1506297269135967
 10
0.2496281971982049
 20
0.1508084967022535
 10
0.2496480514643312
 20
0.1511064457263819
 10
0.2495686348030724
 20
0.1512653522051875
 10
0.2494892185450601
 20
0.1515633018529486
 10
0.2495686348030724
 20
0.1519009774967793
 10
0.2497473219884699
 20
0.152159200524839
 10
0.2499061549077421
 20
0.1524571501726001
 10
0.24976717585135
 20
0.1527749631302114
 10
0.249469364278933
 20
0.1530530488444895
 10
0.2492311151016492
 20
0.1533112718725492
 10
0.2489730116582394
 20
0.1536886747597131
 10
0.2490524279162517
 20
0.1539866244074751
 10
0.2491914069726429
 20
0.1545825230793646
 10
0.2496083429320786
 20
0.1548407461074243
 10
0.2499260087706212
 20
0.1551188318217024
 10
0.2500848416898932
 20
0.1554366447793137
 10
0.2499458630367475
 20
0.1559133642157316
 10
0.2500451335608871
 20
0.1562311765497112
 10
0.2504025075284357
 20
0.1567078959861291
 10
0.2504620699235682
 20
0.1569065290846362
 10
0.2502833827381707
 20
0.1573633845875711
 10
0.250165376958152
 20
0.1576261863233931
 10
0.2500859607001394
 20
0.1580234525204073
 10
0.250165376958152
 20
0.1585597612627451
 10
0.2503043560145433
 20
0.1588179842908047
 10
0.2506617299820927
 20
0.1592152504878198
 10
0.2507808543691115
 20
0.1594138835863269
 10
0.2508404167642438
 20
0.1599899189483661
 10
0.2506617299820927
 20
0.16036732183553
 10
0.2503043560145433
 20
0.1607645874089133
 10
0.2500263983050069
 20
0.1610426737468232
 10
0.2496293162084512
 20
0.16149952987339
 10
0.2495697538133187
 20
0.1620557019255789
 10
0.2495697538133187
 20
0.162711190527021
 10
0.2500859607001394
 20
0.1628502336959764
 10
0.2504036265386829
 20
0.1631879099634389
 10
0.250701438111099
 20
0.1636050394703042
 10
0.2509198334255027
 20
0.1640817582830895
 10
0.2509595415545088
 20
0.1647968368140841
 10
0.2508999791593763
 20
0.1651543763913977
 10
0.2506815838449727
 20
0.1656310958278148
 10
0.2502249393532845
 20
0.1661276779504511
 10
0.2498874196518621
 20
0.1663660376686605
 10
0.2494903371520591
 20
0.1667235772459733
 10
0.2494704832891801
 20
0.1670811161996543
 10
0.2496888786035837
 20
0.1673194759178637
 10
0.2501256688291458
 20
0.1673989291572665
 10
0.2504036265386829
 20
0.1677167421148787
 10
0.2506212931858736
 20
0.1682033080804238
 10
0.2505815846536203
 20
0.1684813944183338
 10
0.2503036273473305
 20
0.1687992073759451
 10
0.2500455239039204
 20
0.1691964729493284
 10
0.2495888794122323
 20
0.1697129190054477
 10
0.2492910674365688
 20
0.1700903212689789
 10
0.2491123806544178
 20
0.1705471773955457
 10
0.2492315054446836
 20
0.1709841702122622
 10
0.249449900355841
 20
0.1714608890250483
 10
0.2492116511785565
 20
0.1717787019826596
 10
0.2488939853400139
 20
0.1720965149402719
 10
0.2489734020012727
 20
0.1725136438235045
 10
0.2492513593075626
 20
0.1728711834008182
 10
0.2491123806544178
 20
0.1732485856643503
 10
0.2486557361627304
 20
0.17350680869241
 10
0.2483380703241871
 20
0.1737253051007673
 10
0.2480005506227647
 20
0.1740431180583796
 10
0.2479806963566374
 20
0.1743609303923591
 10
0.2479409882276312
 20
0.1747780598992244
 10
0.2480402587517708
 20
0.1752746426454935
 10
0.2482785079290546
 20
0.1755725916696219
 10
0.2484373408483257
 20
0.1759102679370844
 10
0.248389798034606
 20
0.1763858442556424
 10
0.248389798034606
 20
0.1766193845440526
 10
0.2484512274630506
 20
0.176816050082904
 10
0.2484880854427154
 20
0.1771233398704298
 10
0.2483775119069682
 20
0.177406046699461
 10
0.2481072219379144
 20
0.1775043797807031
 10
0.2478369319688599
 20
0.1775781292798187
 10
0.2476280714282507
 20
0.1778239613592921
 10
0.2476649290046683
 20
0.1782664583539851
 10
0.2477632164127775
 20
0.178622914682132
 10
0.2477509306883877
 20
0.1789793710102779
 10
0.2474929264437231
 20
0.1793727020879826
 10
0.2470752053625047
 20
0.1795939512089614
 10
0.2465714830008132
 20
0.1798151997063074
 10
0.2460431887870949
 20
0.1799995740777293
 10
0.2454411794205412
 20
0.1804543628634855
 10
0.2451094596197951
 20
0.1807124861103894
 10
0.2450603159157396
 20
0.1811795673108415
 10
0.245121745747432
 20
0.1816343560965986
 10
0.245121745747432
 20
0.1820399789653656
 10
0.2451586033238497
 20
0.182285811044839
 10
0.2452200327522941
 20
0.1826791421225436
 10
0.2452446046043218
 20
0.1830233066596264
 10
0.2451427912050061
 20
0.1835687509903602
 10
0.2448725012359525
 20
0.1837285417796547
 10
0.2445530675628433
 20
0.1836425004894758
 10
0.2440862027775693
 20
0.1837408335707179
 10
0.2437176254004055
 20
0.1838391660283282
 10
0.2436930535483779
 20
0.1841710393979804
 10
0.2436561959719602
 20
0.1845029127676326
 10
0.2434473354313511
 20
0.1848102025551576
 10
0.243017328625742
 20
0.1848102025551576
 10
0.2427470386566873
 20
0.1847487442234733
 10
0.2420048763819117
 20
0.1847128492001339
 10
0.2418083015656932
 20
0.1847128492001339
 10
0.2412185779235296
 20
0.1848726393657957
 10
0.2409605740821121
 20
0.1850693055282807
 10
0.2406657118577835
 20
0.1853765953158056
 10
0.2405428530008937
 20
0.1855240943140369
 10
0.2402357050521744
 20
0.1860280496404142
 10
0.2401128461952846
 20
0.1861263827216563
 10
0.239940843231093
 20
0.1861386738890877
 10
0.2396214095579837
 20
0.1860895079720984
 10
0.2394739784458189
 20
0.1859174253917407
 10
0.2392528321808199
 20
0.1859051336006775
 10
0.2389456846353478
 20
0.1860403414314774
 10
0.2386139648346017
 20
0.1860034666819196
 10
0.2383928185696017
 20
0.1859665919323626
 10
0.2382945311614915
 20
0.1859051336006775
 10
0.2380189598673204
 20
0.1856599582059329
 10
0.2379698161632657
 20
0.1854755844581438
 10
0.2379083867348211
 20
0.1852789189192915
 10
0.2376995261942111
 20
0.185119128129997
 10
0.2374660938015751
 20
0.1852789189192915
 10
0.2372572332609658
 20
0.1854141261264596
 10
0.2368640840317743
 20
0.1855493339572595
 10
0.2365937940627198
 20
0.1855370421661963
 10
0.2360654998490015
 20
0.1853772513769017
 10
0.2357952098799468
 20
0.1851928776291126
 10
0.2357583523035294
 20
0.1849839202991971
 10
0.2357337804515016
 20
0.184762671801851
 10
0.2357092085994747
 20
0.1845168397223776
 10
0.2355863493393377
 20
0.1842832994339675
 10
0.2351071988296739
 20
0.1841603833942308
 10
0.2349229101410915
 20
0.1839883014375058
 10
0.2348123370085917
 20
0.183767052316527
 10
0.2346894777484547
 20
0.1834843454874958
 10
0.2344683314834556
 20
0.1833491382803277
  0
LWPOLYLINE
  5
237B
330
2
100
AcDbEntity
  8
Profilo
  6
Continuous
370
     0
100
AcDbPolyline
 90
        6
 70
   128
 43
0.0
 10
0.236625268695793
 20
0.1781413115817963
 10
0.2385375459110623
 20
0.1801048201221341
 10
0.2391414231174223
 20
0.1812124408360732
 10
0.2392923923182001
 20
0.182622139019441
 10
0.2394433615189789
 20
0.1837801061861629
 10
0.2391917463187634
 20
0.1852401508223126
  0
LWPOLYLINE
  5
237C
330
2
100
AcDbEntity
  8
Profilo
  6
Continuous
370
     0
100
AcDbPolyline
 90
        5
 70
   128
 43
0.0
 10
0.236423976293672
 20
0.1788965071262621
 10
0.2375310843037088
 20
0.180155166574916
 10
0.2381349615100687
 20
0.1812124408360732
 10
0.2382859307108474
 20
0.1822697144735995
 10
0.2382859307108474
 20
0.1830249100180653
  0
LWPOLYLINE
  5
237D
330
2
100
AcDbEntity
  8
Profilo
  6
Continuous
370
     0
100
AcDbPolyline
 90
        7
 70
   128
 43
0.0
 10
0.2371284994994689
 20
0.1775371553956763
 10
0.2392420695201054
 20
0.1787958148443301
 10
0.2400975619266799
 20
0.1799034349346383
 10
0.2405504695290147
 20
0.1807593233846679
 10
0.2412046699367167
 20
0.1819172899277571
 10
0.2415066083382735
 20
0.1828738712833514
 10
0.2417582239417355
 20
0.1838807984680949
  0
LWPOLYLINE
  5
237E
330
2
100
AcDbEntity
  8
Profilo
  6
Continuous
370
     0
100
AcDbPolyline
 90
        6
 70
   128
 43
0.0
 10
0.2378833459066076
 20
0.1768826521331425
 10
0.2400975619266799
 20
0.1782923509401421
 10
0.2414059623388367
 20
0.179500663936014
 10
0.2421608083427282
 20
0.1805579375735394
 10
0.2429659779512081
 20
0.1819676363805399
 10
0.2436201779556627
 20
0.1834276810166887
  0
LWPOLYLINE
  5
237F
330
2
100
AcDbEntity
  8
Profilo
  6
Continuous
370
     0
100
AcDbPolyline
 90
        6
 70
   128
 43
0.0
 10
0.2380343151073856
 20
0.1761778030414586
 10
0.2406511159316989
 20
0.1776378476776083
 10
0.2421104855446333
 20
0.1788965071262621
 10
0.2431169471519859
 20
0.180054474292984
 10
0.2441737319606816
 20
0.1816152118346975
 10
0.2447272859656995
 20
0.182521446737509
  0
LWPOLYLINE
  5
2380
330
2
100
AcDbEntity
  8
Profilo
  6
Continuous
370
     0
100
AcDbPolyline
 90
        5
 70
   128
 43
0.0
 10
0.2383865767102835
 20
0.1756743391372705
 10
0.2410033775345966
 20
0.1768826521331425
 10
0.2422111315440703
 20
0.1777385405831721
 10
0.2434692087548849
 20
0.1787454683915482
 10
0.2450292243672561
 20
0.180155166574916
  0
LWPOLYLINE
  5
2381
330
2
100
AcDbEntity
  8
Profilo
  6
Continuous
370
     0
100
AcDbPolyline
 90
        7
 70
   128
 43
0.0
 10
0.2388898079172075
 20
0.174768104234459
 10
0.2412549927348114
 20
0.1758253784956171
 10
0.2429659779512081
 20
0.1768826521331425
 10
0.2442743783633647
 20
0.1776881941303902
 10
0.2454318091714961
 20
0.1782420044873602
 10
0.2470924711865507
 20
0.178342697392924
 10
0.2474447327894485
 20
0.178342697392924
  0
LWPOLYLINE
  5
2382
330
2
100
AcDbEntity
  8
Profilo
  6
Continuous
370
     0
100
AcDbPolyline
 90
        7
 70
   128
 43
0.0
 10
0.2393930387208842
 20
0.1738115235024974
 10
0.2425130699456262
 20
0.1751205294039332
 10
0.2433685627554479
 20
0.1757246855900524
 10
0.2446769627643575
 20
0.1761778030414586
 10
0.2457337479762992
 20
0.1766812669456467
 10
0.2470924711865507
 20
0.1768826521331425
 10
0.2482499023979293
 20
0.1769833450387063
  0
LWPOLYLINE
  5
2383
330
2
100
AcDbEntity
  8
Profilo
  6
Continuous
370
     0
100
AcDbPolyline
 90
        6
 70
   128
 43
0.0
 10
0.2395943311230042
 20
0.1728549421469031
 10
0.2425130699456262
 20
0.1739625622372113
 10
0.2441737319606816
 20
0.174768104234459
 10
0.2454318091714961
 20
0.1751708752330824
 10
0.2464885939801908
 20
0.1756239926844886
 10
0.2477969943923475
 20
0.1756239926844886
  0
LWPOLYLINE
  5
2384
330
2
100
AcDbEntity
  8
Profilo
  6
Continuous
370
     0
100
AcDbPolyline
 90
        6
 70
   128
 43
0.0
 10
0.2393930387208842
 20
0.1720997466024373
 10
0.2416575775390515
 20
0.1728045956941212
 10
0.2429156547498661
 20
0.1733584060510912
 10
0.2447272859656995
 20
0.1740129086899932
 10
0.246387947980754
 20
0.1744156796886166
 10
0.2474950559907906
 20
0.1744156796886166
  0
LWPOLYLINE
  5
2385
330
2
100
AcDbEntity
  8
Profilo
  6
Continuous
370
     0
100
AcDbPolyline
 90
        4
 70
   128
 43
0.0
 10
0.2400472387253388
 20
0.1713948975107534
 10
0.2434188855535428
 20
0.1726032105066254
 10
0.245834393975736
 20
0.172905288599685
 10
0.2486021640008273
 20
0.1729556350524669
  0
LWPOLYLINE
  5
2386
330
2
100
AcDbEntity
  8
Profilo
  6
Continuous
370
     0
100
AcDbPolyline
 90
        5
 70
   128
 43
0.0
 10
0.2406511159316989
 20
0.17043831615516
 10
0.2448782551664773
 20
0.1715962826982492
 10
0.2460860095791981
 20
0.171646629151032
 10
0.2479982867944673
 20
0.1717473220565958
 10
0.2489544256037253
 20
0.1714955897926854
  0
LWPOLYLINE
  5
2387
330
2
100
AcDbEntity
  8
Profilo
  6
Continuous
370
     0
100
AcDbPolyline
 90
        5
 70
   128
 43
0.0
 10
0.2409027311319136
 20
0.1697838128926262
 10
0.2433685627554479
 20
0.1705390090607238
 10
0.2455827783722742
 20
0.1708410871537834
 10
0.2477969943923475
 20
0.1707403942482196
 10
0.2489544256037253
 20
0.1706900477954377
  0
LWPOLYLINE
  5
2388
330
2
100
AcDbEntity
  8
Profilo
  6
Continuous
370
     0
100
AcDbPolyline
 90
        5
 70
   128
 43
0.0
 10
0.2409027311319136
 20
0.1690286173481595
 10
0.2441737319606816
 20
0.1699348522509719
 10
0.2462873019813181
 20
0.1700858916093176
 10
0.2478473175936886
 20
0.1700355451565357
 10
0.2491053948045041
 20
0.1696831206106942
  0
LWPOLYLINE
  5
2389
330
2
100
AcDbEntity
  8
Profilo
  6
Continuous
370
     0
100
AcDbPolyline
 90
        5
 70
   128
 43
0.0
 10
0.2413053159361534
 20
0.1684244611620403
 10
0.2444756707654847
 20
0.1690286173481595
 10
0.2460356863778561
 20
0.1690286173481595
 10
0.2477466711910055
 20
0.1689782708953776
 10
0.2495079796087439
 20
0.1685754998967542
  0
LWPOLYLINE
  5
238A
330
2
100
AcDbEntity
  8
Profilo
  6
Continuous
370
     0
100
AcDbPolyline
 90
        4
 70
   128
 43
0.0
 10
0.2408020851324767
 20
0.166813377167545
 10
0.2454318091714961
 20
0.1671658017133865
 10
0.2477969943923475
 20
0.1672664946189503
 10
0.2489544256037253
 20
0.1671154552606046
  0
LWPOLYLINE
  5
238B
330
2
100
AcDbEntity
  8
Profilo
  6
Continuous
370
     0
100
AcDbPolyline
 90
        2
 70
   128
 43
0.0
 10
0.2416575775390515
 20
0.1661085274522284
 10
0.2485015175981432
 20
0.1663602597161388
  0
LWPOLYLINE
  5
238C
330
2
100
AcDbEntity
  8
Profilo
  6
Continuous
370
     0
100
AcDbPolyline
 90
        2
 70
   128
 43
0.0
 10
0.2422111315440703
 20
0.1647995221744253
 10
0.249658948809522
 20
0.1651016002674849
  0
LWPOLYLINE
  5
238D
330
2
100
AcDbEntity
  8
Profilo
  6
Continuous
370
     0
100
AcDbPolyline
 90
        3
 70
   128
 43
0.0
 10
0.2415066083382735
 20
0.1629870523688014
 10
0.246639563584216
 20
0.1630877452743652
 10
0.2500112104124198
 20
0.1634905162729895
  0
LWPOLYLINE
  5
238E
330
2
100
AcDbEntity
  8
Profilo
  6
Continuous
370
     0
100
AcDbPolyline
 90
        3
 70
   128
 43
0.0
 10
0.2412046699367167
 20
0.1617283929201475
 10
0.2466898863823107
 20
0.1618794322784932
 10
0.2488537792010421
 20
0.1622318568243356
  0
LWPOLYLINE
  5
238F
330
2
100
AcDbEntity
  8
Profilo
  6
Continuous
370
     0
100
AcDbPolyline
 90
        3
 70
   128
 43
0.0
 10
0.2412549927348114
 20
0.1611242361103956
 10
0.2467402095836528
 20
0.161375968374306
 10
0.2490047484018199
 20
0.1617283929201475
  0
LWPOLYLINE
  5
2390
330
2
100
AcDbEntity
  8
Profilo
  6
Continuous
370
     0
100
AcDbPolyline
 90
        4
 70
   128
 43
0.0
 10
0.2413053159361534
 20
0.1602180018312159
 10
0.2461363323772928
 20
0.160167655378434
 10
0.248702810000264
 20
0.1603690405659298
 10
0.249457656407402
 20
0.1608725044701179
  0
LWPOLYLINE
  5
2391
330
2
100
AcDbEntity
  8
Profilo
  6
Continuous
370
     0
100
AcDbPolyline
 90
        5
 70
   128
 43
0.0
 10
0.2415569315396145
 20
0.1591607275700578
 10
0.2471931175892339
 20
0.1589089959297801
 10
0.248702810000264
 20
0.159060034664494
 10
0.2498099180102998
 20
0.1595131521159002
 10
0.2504137952166598
 20
0.1601173089256521
  0
LWPOLYLINE
  5
2392
330
2
100
AcDbEntity
  8
Profilo
  6
Continuous
370
     0
100
AcDbPolyline
 90
        4
 70
   128
 43
0.0
 10
0.2408524083338187
 20
0.1579020681214039
 10
0.2448279323683826
 20
0.1573986042172167
 10
0.2477466711910055
 20
0.1573986042172167
 10
0.2498099180102998
 20
0.15775102938669
  0
LWPOLYLINE
  5
2393
330
2
100
AcDbEntity
  8
Profilo
  6
Continuous
370
     0
100
AcDbPolyline
 90
        4
 70
   128
 43
0.0
 10
0.2441737319606816
 20
0.1581538003853143
 10
0.2472937635886707
 20
0.1580027610269686
 10
0.2493570104079651
 20
0.1583048391200282
 10
0.2500112104124198
 20
0.1588586494769982
  0
LWPOLYLINE
  5
2394
330
2
100
AcDbEntity
  8
Profilo
  6
Continuous
370
     0
100
AcDbPolyline
 90
        3
 70
   128
 43
0.0
 10
0.2413053159361534
 20
0.1571972190297209
 10
0.2474447327894485
 20
0.156492369938037
 10
0.2500112104124198
 20
0.1569454873894424
  0
LWPOLYLINE
  5
2395
330
2
100
AcDbEntity
  8
Profilo
  6
Continuous
370
     0
100
AcDbPolyline
 90
        5
 70
   128
 43
0.0
 10
0.2410033775345966
 20
0.155435095676879
 10
0.2443750243628014
 20
0.1549316317726909
 10
0.2463376247794129
 20
0.154226782681007
 10
0.2479982867944673
 20
0.1538743581351655
 10
0.2488034564029472
 20
0.1540253974935112
  0
LWPOLYLINE
  5
2396
330
2
100
AcDbEntity
  8
Profilo
  6
Continuous
370
     0
100
AcDbPolyline
 90
        6
 70
   128
 43
0.0
 10
0.2405504695290147
 20
0.1545288607740666
 10
0.2441737319606816
 20
0.1539247045879474
 10
0.2462369787799759
 20
0.1529681232323531
 10
0.2480486099958084
 20
0.1521625812351054
 10
0.2490550716031621
 20
0.1522632741406692
 10
0.2495583024068388
 20
0.1525150057809469
  0
LWPOLYLINE
  5
2397
330
2
100
AcDbEntity
  8
Profilo
  6
Continuous
370
     0
100
AcDbPolyline
 90
        6
 70
   128
 43
0.0
 10
0.2408020851324767
 20
0.1534715871365412
 10
0.2432175935546701
 20
0.1529681232323531
 10
0.2454821323728373
 20
0.1519611960476096
 10
0.2473944095881074
 20
0.15110530759758
 10
0.248652486798922
 20
0.1507528830517376
 10
0.249457656407402
 20
0.1509542682392334
  0
LWPOLYLINE
  5
2398
330
2
100
AcDbEntity
  8
Profilo
  6
Continuous
370
     0
100
AcDbPolyline
 90
        4
 70
   128
 43
0.0
 10
0.2399969155239968
 20
0.1519108495948277
 10
0.2433685627554479
 20
0.1504004578822634
 10
0.2448782551664773
 20
0.1495445694322338
 10
0.2465389171815329
 20
0.1481852177016479
  0
LWPOLYLINE
  5
2399
330
2
100
AcDbEntity
  8
Profilo
  6
Continuous
370
     0
100
AcDbPolyline
 90
        5
 70
   128
 43
0.0
 10
0.2434692087548849
 20
0.1512563463322939
 10
0.2457337479762992
 20
0.14999768688364
 10
0.2473440867900127
 20
0.1487390274349861
 10
0.2478473175936886
 20
0.1487390274349861
 10
0.2485015175981432
 20
0.1490411061516784
  0
LWPOLYLINE
  5
239A
330
2
100
AcDbEntity
  8
Profilo
  6
Continuous
370
     0
100
AcDbPolyline
 90
        4
 70
   128
 43
0.0
 10
0.2393427155195422
 20
0.1509039217864515
 10
0.2426640395496512
 20
0.149343184244738
 10
0.2449285783678193
 20
0.1472286363460545
 10
0.2464382711820959
 20
0.145114088447371
  0
LWPOLYLINE
  5
239B
330
2
100
AcDbEntity
  8
Profilo
  6
Continuous
370
     0
100
AcDbPolyline
 90
        5
 70
   128
 43
0.0
 10
0.2383362539121887
 20
0.1493935306975199
 10
0.2402485311274588
 20
0.1482859106072127
 10
0.2417582239417355
 20
0.1468258653474302
 10
0.2426640395496512
 20
0.145164434900153
 10
0.243519531956226
 20
0.1435533509056576
  0
LWPOLYLINE
  5
239C
330
2
100
AcDbEntity
  8
Profilo
  6
Continuous
370
     0
100
AcDbPolyline
 90
        4
 70
   128
 43
0.0
 10
0.2400472387253388
 20
0.1476314073446779
 10
0.2410033775345966
 20
0.1459196304446187
 10
0.2414059623388367
 20
0.1436540438112214
 10
0.2413556391374954
 20
0.1423450379097856
  0
LWPOLYLINE
  5
239D
330
2
100
AcDbEntity
  8
Profilo
  6
Continuous
370
     0
100
AcDbPolyline
 90
       21
 70
   128
 43
0.0
 10
0.2327528605481464
 20
0.1914675070654969
 10
0.2334877530871646
 20
0.1926193719909429
 10
0.2338796962047713
 20
0.193697713172137
 10
0.2339286890944719
 20
0.1950211324614498
 10
0.2336347317562667
 20
0.1964180748713818
 10
0.2333407748213086
 20
0.1973493698113365
 10
0.2331692997073562
 20
0.1977660016596902
 10
0.2331937961522066
 20
0.1982071410070402
 10
0.2339286890944719
 20
0.1981581260090482
 10
0.2337082210908178
 20
0.1984767266141544
 10
0.2331692997073562
 20
0.1985502497347736
 10
0.2327038676584447
 20
0.1993099903108616
 10
0.2324099107234867
 20
0.2003638239930602
 10
0.2329488317037019
 20
0.2009520102052805
 10
0.2336837246459674
 20
0.200804963964042
 10
0.2342471424742805
 20
0.2002167777518208
 10
0.2345410994092385
 20
0.1999962077663303
 10
0.2337817104253699
 20
0.2010255339495325
 10
0.2327397917182064
 20
0.2020244393530261
 10
0.2326100792763973
 20
0.2029328469904929
 10
0.2325766903090934
 20
0.2038228420330496
  0
ARC
  5
239E
330
2
100
AcDbEntity
  8
Profilo
  6
Continuous
370
     0
100
AcDbCircle
 10
0.209699524038178
 20
0.1622537352071264
 30
0.0
 40
0.0481948408912234
100
AcDbArc
 50
152.5820002119989
 51
215.377901075866
  0
ARC
  5
239F
330
2
100
AcDbEntity
  8
Profilo
  6
Continuous
370
     0
100
AcDbCircle
 10
0.2108039964349253
 20
0.1626426488337843
 30
0.0
 40
0.0470801444889354
100
AcDbArc
 50
152.8970987275738
 51
215.7360716350504
  0
ARC
  5
23A0
330
2
100
AcDbEntity
  8
Profilo
  6
Continuous
370
     0
100
AcDbCircle
 10
0.2096263011864095
 20
0.1622276710048721
 30
0.0
 40
0.0437369922392543
100
AcDbArc
 50
153.6287979965288
 51
210.951117709459
  0
LWPOLYLINE
  5
23A1
330
2
100
AcDbEntity
  8
Profilo
  6
Continuous
370
     0
100
AcDbPolyline
 90
       66
 70
   128
 43
0.0
 10
0.1811147247473885
 20
0.1886119942114653
 10
0.178868827430452
 20
0.1920986898099087
 10
0.1785821168825665
 20
0.1917404678140538
 10
0.1781998365678075
 20
0.1923375047426438
 10
0.1780325883844214
 20
0.193698749052737
 10
0.1777219858625412
 20
0.1948928229099159
 10
0.1773635981454087
 20
0.1961824227401893
 10
0.1771485647667703
 20
0.1967078151889584
 10
0.1768379622448901
 20
0.1970899190813332
 10
0.1764795745277567
 20
0.1971376820678804
 10
0.176097293589365
 20
0.1966600522024112
 10
0.176097293589365
 20
0.1961824227401893
 10
0.1760734009917393
 20
0.196612289215864
 10
0.1760734009917393
 20
0.1971376820678804
 10
0.1756911206769793
 20
0.1975197855570089
 10
0.1754283027267205
 20
0.1976630745166495
 10
0.1748548822545806
 20
0.1975197855570089
 10
0.1746637420972015
 20
0.1970660375880605
 10
0.1745681717066951
 20
0.1961107782603685
 10
0.1746159569019483
 20
0.1956092673048729
 10
0.1747115272924546
 20
0.1952271638157444
 10
0.1740903210014297
 20
0.1960630152738222
 10
0.1734930079316641
 20
0.1965645266325641
 10
0.172752339276139
 20
0.1969227486284198
 10
0.1721311336087468
 20
0.1971138005746068
 10
0.1715577131366077
 20
0.1972570891310011
 10
0.1706497969213301
 20
0.1972570891310011
 10
0.1702197314113178
 20
0.1970182746015133
 10
0.1700046986563113
 20
0.196445119166197
 10
0.1699808060586847
 20
0.1957047932779673
 10
0.1701241610208115
 20
0.1945584824073346
 10
0.1708887222739623
 20
0.1936032230796435
 10
0.1715577131366077
 20
0.1931733566039678
 10
0.1722505965968797
 20
0.1927673712183194
 10
0.1725611991187599
 20
0.1926002011686515
 10
0.1716532829034814
 20
0.1927196082317722
 10
0.1709604000668421
 20
0.1927196082317722
 10
0.1704347641663235
 20
0.1923613862359174
 10
0.1699808060586847
 20
0.1919554012535153
 10
0.1700500741366648
 20
0.1912556391842889
 10
0.1703845692561716
 20
0.190897417188434
 10
0.1707190649993102
 20
0.190897417188434
 10
0.1717464435790881
 20
0.1910884687313746
 10
0.1709579903519425
 20
0.1907541282287924
 10
0.1705518168159241
 20
0.1905153132960583
 10
0.1709579903519425
 20
0.1901093283136562
 10
0.1712685928738227
 20
0.1898227503943749
 10
0.1704323544514239
 20
0.1897749878110749
 10
0.1703367840609185
 20
0.1891779504792387
 10
0.1704323544514239
 20
0.1890585434161179
 10
0.170097859331918
 20
0.1888913729632037
 10
0.1696275352439198
 20
0.1884860384181092
 10
0.169390975951931
 20
0.188175698769894
 10
0.1692431270960244
 20
0.1877619121690269
 10
0.1689917833549874
 20
0.1872299012283024
 10
0.1689474287605785
 20
0.1868308928211352
 10
0.168858718948129
 20
0.1863875502361155
 10
0.1686665148741817
 20
0.1859146516669424
 10
0.1683412463933751
 20
0.185766870536438
 10
0.1676759249827147
 20
0.1854860868723754
 10
0.1670590840638539
 20
0.1857598902801877
 10
0.1664540563939865
 20
0.1851189759637352
 10
0.1668989297043739
 20
0.1844602588182885
 10
0.1678954464357985
 20
0.184567077663153
 10
0.1689987324713782
 20
0.1843000302391754
 10
0.1708494060555268
 20
0.185136779416362
  0
LWPOLYLINE
  5
23A2
330
2
100
AcDbEntity
  8
Profilo
  6
Continuous
370
     0
100
AcDbPolyline
 90
       21
 70
   128
 43
0.0
 10
0.1803864651257847
 20
0.185354230366609
 10
0.1792346002003387
 20
0.1860891229056282
 10
0.1781562590191446
 20
0.1864810660232349
 10
0.1768328397298318
 20
0.1865300589129356
 10
0.1754358973198997
 20
0.1862361015747304
 10
0.174504602379945
 20
0.1859421446397723
 10
0.1740879705315914
 20
0.1857706695258198
 10
0.1736468311842414
 20
0.1857951659706701
 10
0.1736958461822333
 20
0.1865300589129356
 10
0.1733772455771272
 20
0.1863095909092814
 10
0.1733037224565079
 20
0.1857706695258198
 10
0.17254398188042
 20
0.1853052374769083
 10
0.1714901481982214
 20
0.1850112805419503
 10
0.170901961986001
 20
0.1855502015221656
 10
0.1710490082272396
 20
0.1862850944644311
 10
0.1716371944394608
 20
0.186848512292744
 10
0.1718577644249513
 20
0.187142469227702
 10
0.1708284382417491
 20
0.1863830802438325
 10
0.1698295328382555
 20
0.1853411615366699
 10
0.1689211252007887
 20
0.1852114490948601
 10
0.168031130158232
 20
0.1851780601275571
  0
ARC
  5
23A3
330
2
100
AcDbEntity
  8
Profilo
  6
Continuous
370
     0
100
AcDbCircle
 10
0.2096002369841552
 20
0.1623008938566416
 30
0.0
 40
0.0481948408912234
100
AcDbArc
 50
242.5820002119989
 51
305.377901075866
  0
ARC
  5
23A4
330
2
100
AcDbEntity
  8
Profilo
  6
Continuous
370
     0
100
AcDbCircle
 10
0.2092113233574973
 20
0.1634053662533889
 30
0.0
 40
0.0470801444889354
100
AcDbArc
 50
242.8970987275739
 51
305.7360716350504
  0
ARC
  5
23A5
330
2
100
AcDbEntity
  8
Profilo
  6
Continuous
370
     0
100
AcDbCircle
 10
0.2096263011864095
 20
0.1622276710048721
 30
0.0
 40
0.0437369922392543
100
AcDbArc
 50
243.6287979965288
 51
300.951117709459
  0
LWPOLYLINE
  5
23A6
330
2
100
AcDbEntity
  8
Profilo
  6
Continuous
370
     0
100
AcDbPolyline
 90
       66
 70
   128
 43
0.0
 10
0.1832419779798162
 20
0.1337160945658522
 10
0.1797552823813728
 20
0.1314701972489156
 10
0.1801135043772277
 20
0.1311834867010302
 10
0.1795164674486378
 20
0.1308012063862702
 10
0.1781552231385446
 20
0.1306339582028849
 10
0.1769611492813656
 20
0.1303233556810048
 10
0.1756715494510923
 20
0.1299649679638723
 10
0.1751461570023232
 20
0.1297499345852331
 10
0.1747640531099484
 20
0.1294393320633537
 10
0.1747162901234012
 20
0.1290809443462203
 10
0.1751939199888703
 20
0.1286986634078286
 10
0.1756715494510923
 20
0.1286986634078286
 10
0.1752416829754175
 20
0.1286747708102019
 10
0.1747162901234012
 20
0.1286747708102019
 10
0.1743341866342727
 20
0.128292490495443
 10
0.174190897674632
 20
0.1280296725451832
 10
0.1743341866342727
 20
0.1274562520730442
 10
0.1747879346032211
 20
0.1272651119156642
 10
0.1757431939309131
 20
0.1271695415251587
 10
0.1762447048864086
 20
0.1272173267204119
 10
0.1766268083755371
 20
0.1273128971109173
 10
0.1757909569174603
 20
0.1266916908198933
 10
0.1752894455587175
 20
0.1260943777501277
 10
0.1749312235628626
 20
0.1253537090946025
 10
0.1747401716166748
 20
0.1247325034272103
 10
0.1745968830602804
 20
0.1241590829550713
 10
0.1745968830602804
 20
0.1232511667397928
 10
0.1748356975897682
 20
0.1228211012297806
 10
0.1754088530250846
 20
0.1226060684747749
 10
0.1761491789133152
 20
0.1225821758771483
 10
0.1772954897839469
 20
0.1227255308392751
 10
0.1782507491116381
 20
0.123490092092426
 10
0.1786806155873137
 20
0.1241590829550713
 10
0.179086600972963
 20
0.1248519664153433
 10
0.1792537710226301
 20
0.1251625689372225
 10
0.1791343639595093
 20
0.1242546527219449
 10
0.1791343639595093
 20
0.1235617698853057
 10
0.1794925859553642
 20
0.1230361339847871
 10
0.1798985709377663
 20
0.1225821758771483
 10
0.1805983330069927
 20
0.1226514439551276
 10
0.1809565550028485
 20
0.1229859390746343
 10
0.1809565550028485
 20
0.1233204348177729
 10
0.1807655034599069
 20
0.1243478133975517
 10
0.1810998439624891
 20
0.1235593601704061
 10
0.1813386588952233
 20
0.1231531866343877
 10
0.1817446438776253
 20
0.1235593601704061
 10
0.1820312217969067
 20
0.1238699626922863
 10
0.1820789843802066
 20
0.1230337242698875
 10
0.1826760217120429
 20
0.1229381538793812
 10
0.1827954287751636
 20
0.1230337242698875
 10
0.1829625992280779
 20
0.1226992291503807
 10
0.1833679337731724
 20
0.1222289050623835
 10
0.1836782734213875
 20
0.1219923457703946
 10
0.1840920600222546
 20
0.121844496914488
 10
0.1846240709629792
 20
0.1215931531734511
 10
0.1850230793701464
 20
0.1215487985790422
 10
0.1854664219551669
 20
0.1214600887665925
 10
0.1859393205243391
 20
0.1212678846926444
 10
0.1860871016548435
 20
0.1209426162118387
 10
0.1863678853189061
 20
0.1202772948011773
 10
0.1860940819110939
 20
0.1196604538823176
 10
0.1867349962275464
 20
0.1190554262124501
 10
0.187393713372993
 20
0.1195002995228376
 10
0.1872868945281285
 20
0.1204968162542621
 10
0.1875539419521062
 20
0.1216001022898418
 10
0.1867171927749196
 20
0.1234507758739905
  0
LWPOLYLINE
  5
23A7
330
2
100
AcDbEntity
  8
Profilo
  6
Continuous
370
     0
100
AcDbPolyline
 90
       21
 70
   128
 43
0.0
 10
0.1864997418246725
 20
0.1329878349442475
 10
0.1857648492856534
 20
0.1318359700188022
 10
0.1853729061680476
 20
0.1307576288376082
 10
0.185323913278346
 20
0.1294342095482953
 10
0.1856178706165512
 20
0.1280372671383633
 10
0.1859118275515093
 20
0.1271059721984077
 10
0.1860833026654627
 20
0.1266893403500541
 10
0.1860588062206114
 20
0.1262482010027049
 10
0.185323913278346
 20
0.126297216000697
 10
0.1855443812820001
 20
0.1259786153955908
 10
0.1860833026654627
 20
0.1259050922749707
 10
0.1865487347143733
 20
0.1251453516988827
 10
0.1868426916493313
 20
0.124091518016685
 10
0.186303770669116
 20
0.1235033318044638
 10
0.1855688777268505
 20
0.1236503780457032
 10
0.1850054598985376
 20
0.1242385642579244
 10
0.1847115029635795
 20
0.1244591342434148
 10
0.185470891947449
 20
0.1234298080602127
 10
0.1865128106546117
 20
0.1224309026567191
 10
0.1866425230964215
 20
0.1215224950192515
 10
0.1866759120637245
 20
0.1206324999766956
  0
ARC
  5
23A8
102
{ACAD_REACTORS
330
23BE
102
}
330
2
100
AcDbEntity
  8
Profilo
  6
Continuous
370
     0
100
AcDbCircle
 10
0.2095530783346409
 20
0.1622016068026178
 30
0.0
 40
0.0481948408912234
100
AcDbArc
 50
332.5820002119989
 51
35.37790107586604
  0
ARC
  5
23A9
330
2
100
AcDbEntity
  8
Profilo
  6
Continuous
370
     0
100
AcDbCircle
 10
0.2084486059378936
 20
0.1618126931759608
 30
0.0
 40
0.0470801444889354
100
AcDbArc
 50
332.8970987275738
 51
35.7360716350504
  0
ARC
  5
23AA
330
2
100
AcDbEntity
  8
Profilo
  6
Continuous
370
     0
100
AcDbCircle
 10
0.2096263011864095
 20
0.1622276710048721
 30
0.0
 40
0.0437369922392543
100
AcDbArc
 50
333.6287979965288
 51
30.95111770945897
  0
LWPOLYLINE
  5
23AB
330
2
100
AcDbEntity
  8
Profilo
  6
Continuous
370
     0
100
AcDbPolyline
 90
       66
 70
   128
 43
0.0
 10
0.2381378776254304
 20
0.1358433477982799
 10
0.2403837749423659
 20
0.1323566521998356
 10
0.2406704854902515
 20
0.1327148741956905
 10
0.2410527658050113
 20
0.1321178372671015
 10
0.2412200139883966
 20
0.1307565929570082
 10
0.2415306165102768
 20
0.1295625190998283
 10
0.2418890042274102
 20
0.1282729192695559
 10
0.2421040376060486
 20
0.1277475268207868
 10
0.2424146401279279
 20
0.1273654229284111
 10
0.2427730278450613
 20
0.1273176599418648
 10
0.2431553087834529
 20
0.127795289807334
 10
0.2431553087834529
 20
0.1282729192695559
 10
0.2431792013810796
 20
0.1278430527938802
 10
0.2431792013810796
 20
0.1273176599418648
 10
0.2435614816958385
 20
0.1269355564527363
 10
0.2438242996460983
 20
0.1267922674930947
 10
0.2443977201182375
 20
0.1269355564527363
 10
0.2445888602756173
 20
0.1273893044216847
 10
0.2446844306661229
 20
0.1283445637493758
 10
0.2446366454708706
 20
0.1288460747048722
 10
0.2445410750803643
 20
0.1292281781940007
 10
0.2451622813713882
 20
0.128392326735923
 10
0.2457595944411547
 20
0.1278908153771802
 10
0.2465002630966789
 20
0.1275325933813253
 10
0.2471214687640711
 20
0.1273415414351374
 10
0.2476948892362102
 20
0.1271982528787441
 10
0.2486028054514887
 20
0.1271982528787441
 10
0.2490328709615009
 20
0.1274370674082319
 10
0.2492479037165076
 20
0.1280102228435482
 10
0.2492717963141332
 20
0.1287505487317778
 10
0.2491284413520074
 20
0.1298968596024106
 10
0.2483638800988555
 20
0.1308521189301017
 10
0.2476948892362102
 20
0.1312819854057774
 10
0.2470020057759392
 20
0.1316879707914257
 10
0.2466914032540589
 20
0.1318551408410937
 10
0.2475993194693367
 20
0.131735733777973
 10
0.2482922023059758
 20
0.131735733777973
 10
0.2488178382064945
 20
0.1320939557738278
 10
0.2492717963141332
 20
0.1324999407562299
 10
0.2492025282361539
 20
0.1331997028254563
 10
0.2488680331166472
 20
0.1335579248213112
 10
0.2485335373735086
 20
0.1335579248213112
 10
0.2475061587937298
 20
0.1333668732783706
 10
0.2482946120208754
 20
0.1337012137809518
 10
0.2487007855568939
 20
0.1339400287136868
 10
0.2482946120208754
 20
0.134346013696089
 10
0.2479840094989953
 20
0.1346325916153703
 10
0.2488202479213941
 20
0.1346803541986702
 10
0.2489158183119005
 20
0.1352773915305064
 10
0.2488202479213941
 20
0.1353967985936272
 10
0.2491547430409009
 20
0.1355639690465415
 10
0.2496250671288981
 20
0.135969303591636
 10
0.2498616264208869
 20
0.1362796432398512
 10
0.2500094752767936
 20
0.1366934298407182
 10
0.2502608190178306
 20
0.1372254407814428
 10
0.2503051736122395
 20
0.1376244491886099
 10
0.2503938834246889
 20
0.1380677917736297
 10
0.2505860874986371
 20
0.1385406903428027
 10
0.2509113559794428
 20
0.1386884714733072
 10
0.2515766773901042
 20
0.1389692551373688
 10
0.2521935183089639
 20
0.1386954517295574
 10
0.2527985459788323
 20
0.1393363660460091
 10
0.2523536726684441
 20
0.1399950831914567
 10
0.2513571559370194
 20
0.1398882643465921
 10
0.2502538699014397
 20
0.1401553117705698
 10
0.2484031963172912
 20
0.1393185625933823
  0
LWPOLYLINE
  5
23AC
330
2
100
AcDbEntity
  8
Profilo
  6
Continuous
370
     0
100
AcDbPolyline
 90
       21
 70
   128
 43
0.0
 10
0.2388661372470341
 20
0.1391011116431353
 10
0.2400180021724794
 20
0.1383662191041169
 10
0.2410963433536735
 20
0.1379742759865103
 10
0.2424197626429863
 20
0.1379252830968096
 10
0.2438167050529182
 20
0.1382192404350148
 10
0.2447479999928739
 20
0.1385131973699728
 10
0.2451646318412275
 20
0.1386846724839255
 10
0.2456057711885766
 20
0.1386601760390751
 10
0.2455567561905856
 20
0.1379252830968096
 10
0.2458753567956917
 20
0.1381457511004637
 10
0.245948879916311
 20
0.1386846724839255
 10
0.2467086204923988
 20
0.1391501045328368
 10
0.2477624541745966
 20
0.1394440614677949
 10
0.2483506403868179
 20
0.1389051404875796
 10
0.2482035941455785
 20
0.1381702475453141
 10
0.2476154079333572
 20
0.1376068297170012
 10
0.2473948379478668
 20
0.1373128727820431
 10
0.2484241641310688
 20
0.1380722617659117
 10
0.2494230695345625
 20
0.1391141804730753
 10
0.2503314771720301
 20
0.1392438929148842
 10
0.2512214722145868
 20
0.1392772818821881
  0
DIMENSION
  5
23AD
102
{ACAD_XDICTIONARY
360
23B7
102
}
102
{ACAD_REACTORS
330
23BE
102
}
330
2
100
AcDbEntity
  8
Text
  6
ACAD_ISO10W100
100
AcDbDimension
  2
*D9
 10
0.1685455495883884
 20
0.1368811550954381
 30
0.0
 11
0.2690417875432081
 21
0.189098188936143
 31
0.0
 70
    35
  1
d 770 mm
 71
     5
 42
0.0963896817824469
  3
Bovelacci
100
AcDbDiametricDimension
 15
0.2505606070808934
 25
0.1875220585097975
 35
0.0
 40
0.0
1001
ACAD
1000
DSTYLE
1002
{
1070
   288
1070
     1
1002
}
  0
ENDSEC
  0
SECTION
  2
OBJECTS
  0
DICTIONARY
  5
9
330
0
100
AcDbDictionary
281
     1
  3
ACAD_2007HEADERVARS_RT
350
208
  3
ACAD_COLOR
350
184
  3
ACAD_GROUP
350
17F
  3
ACAD_LAYOUT
350
164
  3
ACAD_MATERIAL
350
B
  3
ACAD_MLINESTYLE
350
180
  3
ACAD_PLOTSETTINGS
350
181
  3
ACAD_PLOTSTYLENAME
350
8
  3
ACAD_TABLESTYLE
350
185
  3
ACAD_VISUALSTYLE
350
17A
  3
ACDBHEADERROUNDTRIPXREC
350
23CE
  3
AcDbVariableDictionary
350
18B
  3
DWGPROPS
350
23CD
  0
DICTIONARY
  5
16E
330
16D
100
AcDbDictionary
280
     1
281
     1
  3
ACAD_LAYERSTATES
360
16F
  0
DICTIONARY
  5
3
330
2
100
AcDbDictionary
280
     1
281
     1
  3
ACAD_SORTENTS
360
18A
  0
DICTIONARY
  5
23CF
330
18
100
AcDbDictionary
280
     1
281
     1
  3
ACAD_MTEXT_RT
360
23D0
  0
DICTIONARY
  5
23B7
330
23AD
100
AcDbDictionary
280
     1
281
     1
  3
ACAD_DIMASSOC
360
23BE
  0
DICTIONARY
  5
208
102
{ACAD_REACTORS
330
9
102
}
330
9
100
AcDbDictionary
281
     1
  3
DIMFXL
350
209
  0
DICTIONARY
  5
184
102
{ACAD_REACTORS
330
9
102
}
330
9
100
AcDbDictionary
281
     1
  0
DICTIONARY
  5
17F
102
{ACAD_REACTORS
330
9
102
}
330
9
100
AcDbDictionary
281
     1
  0
DICTIONARY
  5
164
102
{ACAD_REACTORS
330
9
102
}
330
9
100
AcDbDictionary
281
     1
  3
Layout1
350
168
  3
Layout2
350
16C
  3
Model
350
163
  0
DICTIONARY
  5
B
102
{ACAD_REACTORS
330
9
102
}
330
9
100
AcDbDictionary
281
     1
  3
ByBlock
350
183
  3
ByLayer
350
182
  3
Global
350
A
  0
DICTIONARY
  5
180
102
{ACAD_REACTORS
330
9
102
}
330
9
100
AcDbDictionary
281
     1
  3
Standard
350
186
  0
DICTIONARY
  5
181
102
{ACAD_REACTORS
330
9
102
}
330
9
100
AcDbDictionary
281
     1
  0
ACDBDICTIONARYWDFLT
  5
8
102
{ACAD_REACTORS
330
9
102
}
330
9
100
AcDbDictionary
281
     1
  3
Normal
350
7
100
AcDbDictionaryWithDefault
340
7
  0
DICTIONARY
  5
185
102
{ACAD_REACTORS
330
9
102
}
330
9
100
AcDbDictionary
281
     1
  3
Standard
350
187
  0
DICTIONARY
  5
17A
102
{ACAD_REACTORS
330
9
102
}
330
9
100
AcDbDictionary
281
     1
  3
2dWireframe
350
179
  3
3D Hidden
350
1BD
  3
3dWireframe
350
189
  3
Basic
350
1BC
  3
Brighten
350
1C0
  3
ColorChange
350
1C4
  3
Conceptual
350
1BE
  3
Dim
350
1BF
  3
Facepattern
350
1C3
  3
Flat
350
1B8
  3
FlatWithEdges
350
1B9
  3
Gouraud
350
1BA
  3
GouraudWithEdges
350
1BB
  3
Linepattern
350
1C2
  3
Realistic
350
188
  3
Thicken
350
1C1
  0
DICTIONARY
  5
23CE
102
{ACAD_REACTORS
330
9
102
}
330
9
100
AcDbDictionary
281
     1
  0
DICTIONARY
  5
18B
102
{ACAD_REACTORS
330
9
102
}
330
9
100
AcDbDictionary
281
     1
  3
CTABLESTYLE
350
18C
  3
DIMASSOC
350
190
  3
HIDETEXT
350
18F
  3
INDEXCTL
350
18E
  3
PROJECTNAME
350
2F9
  3
SORTENTS
350
18D
  0
XRECORD
  5
23CD
102
{ACAD_REACTORS
330
9
102
}
330
9
100
AcDbXrecord
280
     1
  1
DWGPROPS COOKIE
  2

  3

  4

  6

  7

  8
Mario
  9

300
=
301
=
302
=
303
=
304
=
305
=
306
=
307
=
308
=
309
=
 40
0.1857649768518519
 41
2454297.625402373
 42
2454311.73010904
  1

 90
        0
  0
DICTIONARY
  5
16F
102
{ACAD_REACTORS
330
16E
102
}
330
16E
100
AcDbDictionary
281
     1
  0
SORTENTSTABLE
  5
18A
102
{ACAD_REACTORS
330
3
102
}
330
3
100
AcDbSortentsTable
330
2
331
15
  5
11
331
13
  5
D
331
24
  5
18
331
11
  5
15
331
22
  5
23
331
D
  5
13
331
1E
  5
1F
331
1C
  5
1D
331
18
  5
1C
331
16
  5
12
331
14
  5
10
331
12
  5
16
331
23
  5
24
331
21
  5
22
331
10
  5
14
331
1F
  5
21
331
1D
  5
1E
  0
XRECORD
  5
23D0
102
{ACAD_REACTORS
330
23CF
102
}
330
23CF
100
AcDbXrecord
280
     1
 40
7955300.0
  1
{\fTimes New Roman|b0|i0|c238|p18;\H1.6x;\C4;Bovelacci\P\pt0.09;\H0.4375x;\T0.95;via del Commercio, 5  47100 Forli - Italy  \fTimes New Roman|b0|i0|c0|p18;\P\fTimes New Roman|b0|i0|c238|p18;tel.+39-0543721386  fax +39-0543721127\fTimes New Roman|b0|i
  1
0|c0|p18; \fTimes New Roman|b0|i0|c238|p18;www.bovelacci.it\fTimes New Roman|b0|i0|c0|p18; \fTimes New Roman|b0|i0|c238|p18;e-mail: bovelacci@bovelacci\fTimes New Roman|b0|i0|c0|p18;.it}
  0
DIMASSOC
  5
23BE
102
{ACAD_REACTORS
330
23B7
102
}
330
23B7
100
AcDbDimAssoc
330
23AD
 90
        2
 70
     0
 71
     0
  1
AcDbOsnapPointRef
 72
     3
331
23A8
 73
     2
 91
        0
 40
0.0
 10
0.0
 20
0.0
 30
0.0
 75
     0
  0
XRECORD
  5
209
102
{ACAD_REACTORS
330
208
102
}
330
208
100
AcDbXrecord
280
     1
 40
0.18
  0
LAYOUT
  5
168
102
{ACAD_XDICTIONARY
360
23D3
102
}
102
{ACAD_REACTORS
330
164
102
}
330
164
100
AcDbPlotSettings
  1

  2
C:\Documents and Settings\All Users\Dati applicazioni\Autodesk\ADT 2006\enu\Plotters\Default Windows System Printer.pc3
  4

  6

 40
0.0
 41
0.0
 42
0.0
 43
0.0
 44
0.0
 45
0.0
 46
0.0
 47
0.0
 48
0.0
 49
0.0
140
0.0
141
0.0
142
1.0
143
1.0
 70
   688
 72
     0
 73
     0
 74
     5
  7

 75
    16
147
1.0
148
0.0
149
0.0
100
AcDbLayout
  1
Layout1
 70
     1
 71
     1
 10
0.0
 20
0.0
 11
420.0
 21
297.0
 12
0.0
 22
0.0
 32
0.0
 14
1.000000000000000E+20
 24
1.000000000000000E+20
 34
1.000000000000000E+20
 15
-1.000000000000000E+20
 25
-1.000000000000000E+20
 35
-1.000000000000000E+20
146
0.0
 13
0.0
 23
0.0
 33
0.0
 16
1.0
 26
0.0
 36
0.0
 17
0.0
 27
1.0
 37
0.0
 76
     0
330
165
  0
LAYOUT
  5
16C
102
{ACAD_XDICTIONARY
360
23D5
102
}
102
{ACAD_REACTORS
330
164
102
}
330
164
100
AcDbPlotSettings
  1

  2
C:\Documents and Settings\All Users\Dati applicazioni\Autodesk\ADT 2006\enu\Plotters\Default Windows System Printer.pc3
  4

  6

 40
0.0
 41
0.0
 42
0.0
 43
0.0
 44
0.0
 45
0.0
 46
0.0
 47
0.0
 48
0.0
 49
0.0
140
0.0
141
0.0
142
1.0
143
1.0
 70
   688
 72
     0
 73
     0
 74
     5
  7

 75
    16
147
1.0
148
0.0
149
0.0
100
AcDbLayout
  1
Layout2
 70
     1
 71
     2
 10
0.0
 20
0.0
 11
12.0
 21
9.0
 12
0.0
 22
0.0
 32
0.0
 14
0.0
 24
0.0
 34
0.0
 15
0.0
 25
0.0
 35
0.0
146
0.0
 13
0.0
 23
0.0
 33
0.0
 16
1.0
 26
0.0
 36
0.0
 17
0.0
 27
1.0
 37
0.0
 76
     0
330
169
  0
LAYOUT
  5
163
102
{ACAD_XDICTIONARY
360
23D1
102
}
102
{ACAD_REACTORS
330
164
102
}
330
164
100
AcDbPlotSettings
  1

  2
C:\Documents and Settings\All Users\Dati applicazioni\Autodesk\ADT 2006\enu\Plotters\Default Windows System Printer.pc3
  4

  6

 40
0.0
 41
0.0
 42
0.0
 43
0.0
 44
0.0
 45
0.0
 46
0.0
 47
0.0
 48
0.0
 49
0.0
140
0.0
141
0.0
142
1.0
143
1.0
 70
  1712
 72
     0
 73
     0
 74
     0
  7

 75
     0
147
1.0
148
0.0
149
0.0
100
AcDbLayout
  1
Model
 70
     1
 71
     0
 10
0.0
 20
0.0
 11
12.0
 21
9.0
 12
0.0
 22
0.0
 32
0.0
 14
0.0
 24
0.0
 34
0.0
 15
0.0
 25
0.0
 35
0.0
146
0.0
 13
0.0
 23
0.0
 33
0.0
 16
1.0
 26
0.0
 36
0.0
 17
0.0
 27
1.0
 37
0.0
 76
     0
330
2
  0
MATERIAL
  5
183
102
{ACAD_XDICTIONARY
360
1B0
102
}
102
{ACAD_REACTORS
330
B
102
}
330
B
100
AcDbMaterial
  1
ByBlock
  0
MATERIAL
  5
182
102
{ACAD_XDICTIONARY
360
1AE
102
}
102
{ACAD_REACTORS
330
B
102
}
330
B
100
AcDbMaterial
  1
ByLayer
  0
MATERIAL
  5
A
102
{ACAD_XDICTIONARY
360
193
102
}
102
{ACAD_REACTORS
330
B
102
}
330
B
100
AcDbMaterial
  1
Global
  0
MLINESTYLE
  5
186
102
{ACAD_REACTORS
330
180
102
}
330
180
100
AcDbMlineStyle
  2
STANDARD
 70
     0
  3

 62
   256
 51
90.0
 52
90.0
 71
     2
 49
0.5
 62
   256
  6
BYLAYER
 49
-0.5
 62
   256
  6
BYLAYER
  0
ACDBPLACEHOLDER
  5
7
102
{ACAD_REACTORS
330
8
102
}
330
8
  0
TABLESTYLE
  5
187
102
{ACAD_XDICTIONARY
360
21A
102
}
102
{ACAD_REACTORS
330
185
102
}
330
185
100
AcDbTableStyle
  3
Standard
 70
     0
 71
     0
 40
1.5
 41
1.5
280
     0
281
     0
  7
Standard
140
4.5
170
     2
 62
     0
 63
     7
283
     0
274
    -2
284
     1
 64
     0
275
    -2
285
     1
 65
     0
276
    -2
286
     1
 66
     0
277
    -2
287
     1
 67
     0
278
    -2
288
     1
 68
     0
279
    -2
289
     1
 69
     0
  7
Standard
140
6.0
170
     5
 62
     0
 63
     7
283
     0
274
    -2
284
     1
 64
     0
275
    -2
285
     1
 65
     0
276
    -2
286
     1
 66
     0
277
    -2
287
     1
 67
     0
278
    -2
288
     1
 68
     0
279
    -2
289
     1
 69
     0
  7
Standard
140
4.5
170
     5
 62
     0
 63
     7
283
     0
274
    -2
284
     1
 64
     0
275
    -2
285
     1
 65
     0
276
    -2
286
     1
 66
     0
277
    -2
287
     1
 67
     0
278
    -2
288
     1
 68
     0
279
    -2
289
     1
 69
     0
  0
VISUALSTYLE
  5
179
102
{ACAD_REACTORS
330
17A
102
}
330
17A
100
AcDbVisualStyle
  2
2dWireframe
 70
     4
 71
     0
 72
     2
 73
     0
 90
        0
 40
-0.6
 41
-30.0
 62
     5
 63
     7
 74
     1
 91
        4
 64
     7
 65
   257
 75
     1
175
     1
 42
1.0
 92
        0
 66
   257
 43
1.0
 76
     1
 77
     6
 78
     2
 67
     7
 79
     5
170
     0
171
     0
290
     0
174
     0
 93
        1
 44
0.0
173
     0
291
     0
 45
0.0
1001
ACAD
1000
AcDbSavedByObjectVersion
1070
     0
1000
AcDbSavedByObjectVersion
1070
     0
1000
AcDbSavedByObjectVersion
1070
     0
1001
ACAD
1000
AcRTDxfName
1000
VISUALSTYLE
  0
VISUALSTYLE
  5
1BD
102
{ACAD_REACTORS
330
17A
102
}
330
17A
100
AcDbVisualStyle
  2
3D Hidden
 70
     6
 71
     1
 72
     2
 73
     2
 90
        0
 40
-0.6
 41
-30.0
 62
     5
 63
     7
 74
     2
 91
        2
 64
     7
 65
   257
 75
     2
175
     1
 42
40.0
 92
        0
 66
   257
 43
1.0
 76
     1
 77
     6
 78
     2
 67
     7
 79
     3
170
     0
171
     0
290
     0
174
     0
 93
        1
 44
0.0
173
     0
291
     0
 45
0.0
1001
ACAD
1000
AcDbSavedByObjectVersion
1070
     0
1000
AcDbSavedByObjectVersion
1070
     0
1001
ACAD
1000
AcRTDxfName
1000
VISUALSTYLE
  0
VISUALSTYLE
  5
189
102
{ACAD_REACTORS
330
17A
102
}
330
17A
100
AcDbVisualStyle
  2
3dWireframe
 70
     5
 71
     0
 72
     2
 73
     0
 90
        0
 40
-0.6
 41
-30.0
 62
     5
 63
     7
 74
     1
 91
        4
 64
     7
 65
   257
 75
     1
175
     1
 42
1.0
 92
        0
 66
   257
 43
1.0
 76
     1
 77
     6
 78
     2
 67
     7
 79
     5
170
     0
171
     0
290
     0
174
     0
 93
        1
 44
0.0
173
     0
291
     0
 45
0.0
1001
ACAD
1000
AcDbSavedByObjectVersion
1070
     0
1000
AcDbSavedByObjectVersion
1070
     0
1000
AcDbSavedByObjectVersion
1070
     0
1001
ACAD
1000
AcRTDxfName
1000
VISUALSTYLE
  0
VISUALSTYLE
  5
1BC
102
{ACAD_REACTORS
330
17A
102
}
330
17A
100
AcDbVisualStyle
  2
Basic
 70
     7
 71
     1
 72
     0
 73
     1
 90
        0
 40
-0.6
 41
-30.0
 62
     5
 63
     7
 74
     0
 91
        4
 64
     7
 65
   257
 75
     1
175
     1
 42
1.0
 92
        8
 66
     7
 43
1.0
 76
     1
 77
     6
 78
     2
 67
     7
 79
     5
170
     0
171
     0
290
     0
174
     0
 93
        1
 44
0.0
173
     0
291
     1
 45
0.0
1001
ACAD
1000
AcDbSavedByObjectVersion
1070
     0
1000
AcDbSavedByObjectVersion
1070
     0
1001
ACAD
1000
AcRTDxfName
1000
VISUALSTYLE
  0
VISUALSTYLE
  5
1C0
102
{ACAD_REACTORS
330
17A
102
}
330
17A
100
AcDbVisualStyle
  2
Brighten
 70
    12
 71
     2
 72
     2
 73
     0
 90
        0
 40
-0.6
 41
-30.0
 62
     5
 63
     7
 74
     1
 91
        4
 64
     7
 65
   257
 75
     1
175
     1
 42
1.0
 92
        8
 66
     7
 43
1.0
 76
     1
 77
     6
 78
     2
 67
     7
 79
     5
170
     0
171
     0
290
     0
174
     0
 93
        1
 44
50.0
173
     0
291
     1
 45
0.0
1001
ACAD
1000
AcDbSavedByObjectVersion
1070
     0
1000
AcDbSavedByObjectVersion
1070
     0
1001
ACAD
1000
AcRTDxfName
1000
VISUALSTYLE
  0
VISUALSTYLE
  5
1C4
102
{ACAD_REACTORS
330
17A
102
}
330
17A
100
AcDbVisualStyle
  2
ColorChange
 70
    16
 71
     2
 72
     2
 73
     3
 90
        0
 40
-0.6
 41
-30.0
 62
     5
 63
     8
 74
     1
 91
        4
 64
     7
 65
   257
 75
     1
175
     1
 42
1.0
 92
        8
 66
     8
 43
1.0
 76
     1
 77
     6
 78
     2
 67
     7
 79
     5
170
     0
171
     0
290
     0
174
     0
 93
        1
 44
0.0
173
     0
291
     1
 45
0.0
1001
ACAD
1000
AcDbSavedByObjectVersion
1070
     0
1000
AcDbSavedByObjectVersion
1070
     0
1001
ACAD
1000
AcRTDxfName
1000
VISUALSTYLE
  0
VISUALSTYLE
  5
1BE
102
{ACAD_REACTORS
330
17A
102
}
330
17A
100
AcDbVisualStyle
  2
Conceptual
 70
     9
 71
     3
 72
     2
 73
     0
 90
        0
 40
-0.6
 41
-30.0
 62
     5
 63
     7
 74
     2
 91
        2
 64
     7
 65
   257
 75
     1
175
     1
 42
40.0
 92
        8
 66
     7
 43
1.0
 76
     1
 77
     6
 78
     2
 67
     7
 79
     3
170
     0
171
     0
290
     0
174
     0
 93
        1
 44
0.0
173
     0
291
     0
 45
0.0
1001
ACAD
1000
AcDbSavedByObjectVersion
1070
     0
1000
AcDbSavedByObjectVersion
1070
     0
1001
ACAD
1000
AcRTDxfName
1000
VISUALSTYLE
  0
VISUALSTYLE
  5
1BF
102
{ACAD_REACTORS
330
17A
102
}
330
17A
100
AcDbVisualStyle
  2
Dim
 70
    11
 71
     2
 72
     2
 73
     0
 90
        0
 40
-0.6
 41
-30.0
 62
     5
 63
     7
 74
     1
 91
        4
 64
     7
 65
   257
 75
     1
175
     1
 42
1.0
 92
        8
 66
     7
 43
1.0
 76
     1
 77
     6
 78
     2
 67
     7
 79
     5
170
     0
171
     0
290
     0
174
     0
 93
        1
 44
-50.0
173
     0
291
     1
 45
0.0
1001
ACAD
1000
AcDbSavedByObjectVersion
1070
     0
1000
AcDbSavedByObjectVersion
1070
     0
1001
ACAD
1000
AcRTDxfName
1000
VISUALSTYLE
  0
VISUALSTYLE
  5
1C3
102
{ACAD_REACTORS
330
17A
102
}
330
17A
100
AcDbVisualStyle
  2
Facepattern
 70
    15
 71
     2
 72
     2
 73
     0
 90
        0
 40
-0.6
 41
-30.0
 62
     5
 63
     7
 74
     1
 91
        4
 64
     7
 65
   257
 75
     1
175
     1
 42
1.0
 92
        8
 66
     7
 43
1.0
 76
     1
 77
     6
 78
     2
 67
     7
 79
     5
170
     0
171
     0
290
     0
174
     0
 93
        1
 44
0.0
173
     0
291
     1
 45
0.0
1001
ACAD
1000
AcDbSavedByObjectVersion
1070
     0
1000
AcDbSavedByObjectVersion
1070
     0
1001
ACAD
1000
AcRTDxfName
1000
VISUALSTYLE
  0
VISUALSTYLE
  5
1B8
102
{ACAD_REACTORS
330
17A
102
}
330
17A
100
AcDbVisualStyle
  2
Flat
 70
     0
 71
     2
 72
     1
 73
     1
 90
        2
 40
-0.6
 41
30.0
 62
     5
 63
     7
 74
     0
 91
        4
 64
     7
 65
   257
 75
     1
175
     1
 42
1.0
 92
        8
 66
     7
 43
1.0
 76
     1
 77
     6
 78
     2
 67
     7
 79
     5
170
     0
171
     0
290
     0
174
     0
 93
       13
 44
0.0
173
     0
291
     1
 45
0.0
1001
ACAD
1000
AcDbSavedByObjectVersion
1070
     0
1000
AcDbSavedByObjectVersion
1070
     0
1001
ACAD
1000
AcRTDxfName
1000
VISUALSTYLE
  0
VISUALSTYLE
  5
1B9
102
{ACAD_REACTORS
330
17A
102
}
330
17A
100
AcDbVisualStyle
  2
FlatWithEdges
 70
     1
 71
     2
 72
     1
 73
     1
 90
        2
 40
-0.6
 41
30.0
 62
     5
 63
     7
 74
     1
 91
        4
 64
     7
 65
   257
 75
     1
175
     1
 42
1.0
 92
        0
 66
   257
 43
1.0
 76
     1
 77
     6
 78
     2
 67
     7
 79
     5
170
     0
171
     0
290
     0
174
     0
 93
       13
 44
0.0
173
     0
291
     1
 45
0.0
1001
ACAD
1000
AcDbSavedByObjectVersion
1070
     0
1000
AcDbSavedByObjectVersion
1070
     0
1001
ACAD
1000
AcRTDxfName
1000
VISUALSTYLE
  0
VISUALSTYLE
  5
1BA
102
{ACAD_REACTORS
330
17A
102
}
330
17A
100
AcDbVisualStyle
  2
Gouraud
 70
     2
 71
     2
 72
     2
 73
     1
 90
        2
 40
-0.6
 41
30.0
 62
     5
 63
     7
 74
     0
 91
        4
 64
     7
 65
   257
 75
     1
175
     1
 42
1.0
 92
        0
 66
     7
 43
1.0
 76
     1
 77
     6
 78
     2
 67
     7
 79
     5
170
     0
171
     0
290
     0
174
     0
 93
       13
 44
0.0
173
     0
291
     1
 45
0.0
1001
ACAD
1000
AcDbSavedByObjectVersion
1070
     0
1000
AcDbSavedByObjectVersion
1070
     0
1001
ACAD
1000
AcRTDxfName
1000
VISUALSTYLE
  0
VISUALSTYLE
  5
1BB
102
{ACAD_REACTORS
330
17A
102
}
330
17A
100
AcDbVisualStyle
  2
GouraudWithEdges
 70
     3
 71
     2
 72
     2
 73
     1
 90
        2
 40
-0.6
 41
30.0
 62
     5
 63
     7
 74
     1
 91
        4
 64
     7
 65
   257
 75
     1
175
     1
 42
1.0
 92
        0
 66
   257
 43
1.0
 76
     1
 77
     6
 78
     2
 67
     7
 79
     5
170
     0
171
     0
290
     0
174
     0
 93
       13
 44
0.0
173
     0
291
     1
 45
0.0
1001
ACAD
1000
AcDbSavedByObjectVersion
1070
     0
1000
AcDbSavedByObjectVersion
1070
     0
1001
ACAD
1000
AcRTDxfName
1000
VISUALSTYLE
  0
VISUALSTYLE
  5
1C2
102
{ACAD_REACTORS
330
17A
102
}
330
17A
100
AcDbVisualStyle
  2
Linepattern
 70
    14
 71
     2
 72
     2
 73
     0
 90
        0
 40
-0.6
 41
-30.0
 62
     5
 63
     7
 74
     1
 91
        4
 64
     7
 65
   257
 75
     7
175
     7
 42
1.0
 92
        8
 66
     7
 43
1.0
 76
     1
 77
     6
 78
     2
 67
     7
 79
     5
170
     0
171
     0
290
     0
174
     0
 93
        1
 44
0.0
173
     0
291
     1
 45
0.0
1001
ACAD
1000
AcDbSavedByObjectVersion
1070
     0
1000
AcDbSavedByObjectVersion
1070
     0
1001
ACAD
1000
AcRTDxfName
1000
VISUALSTYLE
  0
VISUALSTYLE
  5
188
102
{ACAD_REACTORS
330
17A
102
}
330
17A
100
AcDbVisualStyle
  2
Realistic
 70
     8
 71
     2
 72
     2
 73
     0
 90
        0
 40
-0.6
 41
-30.0
 62
     5
 63
     7
 74
     1
 91
        0
 64
     7
 65
   257
 75
     1
175
     1
 42
1.0
 92
        8
 66
     8
 43
1.0
 76
     1
 77
     6
 78
     2
 67
     7
 79
     5
170
     0
171
     0
290
     0
174
     0
 93
       13
 44
0.0
173
     0
291
     0
 45
0.0
1001
ACAD
1000
AcDbSavedByObjectVersion
1070
     0
1000
AcDbSavedByObjectVersion
1070
     0
1000
AcDbSavedByObjectVersion
1070
     0
1001
ACAD
1000
AcRTDxfName
1000
VISUALSTYLE
  0
VISUALSTYLE
  5
1C1
102
{ACAD_REACTORS
330
17A
102
}
330
17A
100
AcDbVisualStyle
  2
Thicken
 70
    13
 71
     2
 72
     2
 73
     0
 90
        0
 40
-0.6
 41
-30.0
 62
     5
 63
     7
 74
     1
 91
        4
 64
     7
 65
   257
 75
     1
175
     1
 42
1.0
 92
       12
 66
     7
 43
1.0
 76
     1
 77
     6
 78
     2
 67
     7
 79
     5
170
     0
171
     0
290
     0
174
     0
 93
        1
 44
0.0
173
     0
291
     1
 45
0.0
1001
ACAD
1000
AcDbSavedByObjectVersion
1070
     0
1000
AcDbSavedByObjectVersion
1070
     0
1001
ACAD
1000
AcRTDxfName
1000
VISUALSTYLE
  0
DICTIONARYVAR
  5
18C
102
{ACAD_REACTORS
330
18B
102
}
330
18B
100
DictionaryVariables
280
     0
  1
STANDARD
  0
DICTIONARYVAR
  5
190
102
{ACAD_REACTORS
330
18B
102
}
330
18B
100
DictionaryVariables
280
     0
  1
2
  0
DICTIONARYVAR
  5
18F
102
{ACAD_REACTORS
330
18B
102
}
330
18B
100
DictionaryVariables
280
     0
  1
1
  0
DICTIONARYVAR
  5
18E
102
{ACAD_REACTORS
330
18B
102
}
330
18B
100
DictionaryVariables
280
     0
  1
0
  0
DICTIONARYVAR
  5
2F9
102
{ACAD_REACTORS
330
18B
102
}
330
18B
100
DictionaryVariables
280
     0
  1

  0
DICTIONARYVAR
  5
18D
102
{ACAD_REACTORS
330
18B
102
}
330
18B
100
DictionaryVariables
280
     0
  1
127
  0
DICTIONARY
  5
23D3
330
168
100
AcDbDictionary
280
     1
281
     1
  3
ACAD_XREC_ROUNDTRIP
360
23D4
  0
DICTIONARY
  5
23D5
330
16C
100
AcDbDictionary
280
     1
281
     1
  3
ACAD_XREC_ROUNDTRIP
360
23D6
  0
DICTIONARY
  5
23D1
330
163
100
AcDbDictionary
280
     1
281
     1
  3
ACAD_XREC_ROUNDTRIP
360
23D2
  0
DICTIONARY
  5
1B0
330
183
100
AcDbDictionary
280
     1
281
     1
  3
ACAD_XREC_ROUNDTRIP
360
1B1
  0
DICTIONARY
  5
1AE
330
182
100
AcDbDictionary
280
     1
281
     1
  3
ACAD_XREC_ROUNDTRIP
360
1AF
  0
DICTIONARY
  5
193
330
A
100
AcDbDictionary
280
     1
281
     1
  3
ACAD_XREC_ROUNDTRIP
360
194
  0
DICTIONARY
  5
21A
330
187
100
AcDbDictionary
280
     1
281
     1
  3
ACAD_XREC_ROUNDTRIP
360
21B
  0
XRECORD
  5
23D4
102
{ACAD_REACTORS
330
23D3
102
}
330
23D3
100
AcDbXrecord
280
     1
102
SHADEPLOT
 70
     0
102
SHADEPLOTRESLEVEL
 70
     2
102
SHADEPLOTCUSTOMDPI
 70
   300
  0
XRECORD
  5
23D6
102
{ACAD_REACTORS
330
23D5
102
}
330
23D5
100
AcDbXrecord
280
     1
102
SHADEPLOT
 70
     0
102
SHADEPLOTRESLEVEL
 70
     2
102
SHADEPLOTCUSTOMDPI
 70
   300
  0
XRECORD
  5
23D2
102
{ACAD_REACTORS
330
23D1
102
}
330
23D1
100
AcDbXrecord
280
     1
102
SHADEPLOT
 70
     0
102
SHADEPLOTRESLEVEL
 70
     2
102
SHADEPLOTCUSTOMDPI
 70
   300
  0
XRECORD
  5
1B1
102
{ACAD_REACTORS
330
1B0
102
}
330
1B0
100
AcDbXrecord
280
     1
102
MATERIAL
148
0.0
149
0.0
149
0.0
 93
        0
 94
       63
282
     0
 72
     1
 77
     1
171
     1
175
     1
179
     1
273
     0
  0
XRECORD
  5
1AF
102
{ACAD_REACTORS
330
1AE
102
}
330
1AE
100
AcDbXrecord
280
     1
102
MATERIAL
148
0.0
149
0.0
149
0.0
 93
        0
 94
       63
282
     0
 72
     1
 77
     1
171
     1
175
     1
179
     1
273
     0
  0
XRECORD
  5
194
102
{ACAD_REACTORS
330
193
102
}
330
193
100
AcDbXrecord
280
     1
102
MATERIAL
148
0.0
149
0.0
149
0.0
 93
        0
 94
       63
282
     0
 72
     1
 77
     1
171
     1
175
     1
179
     1
273
     0
  0
XRECORD
  5
21B
102
{ACAD_REACTORS
330
21A
102
}
330
21A
100
AcDbXrecord
280
     1
102
ACAD_ROUNDTRIP_PRE2007_TABLESTYLE
 90
        4
 91
        0
  1

 92
        4
 93
        0
  2

 94
        4
 95
        0
  3

  0
ENDSEC
  0
EOF
