  0
SECTION
  2
HEADER
  9
$ACADVER
  1
AC1015
  9
$ACADMAINTVER
 70
    20
  9
$DWGCODEPAGE
  3
ANSI_1252
  9
$INSBASE
 10
0.0
 20
0.0
 30
0.0
  9
$EXTMIN
 10
0.0149999999999999
 20
-0.026210188131048
 30
0.0
  9
$EXTMAX
 10
0.8515178529016747
 20
0.4528755680297306
 30
0.0
  9
$LIMMIN
 10
0.0
 20
0.0
  9
$LIMMAX
 10
1.0
 20
0.5
  9
$ORTHOMODE
 70
     0
  9
$REGENMODE
 70
     1
  9
$FILLMODE
 70
     1
  9
$QTEXTMODE
 70
     0
  9
$MIRRTEXT
 70
     0
  9
$LTSCALE
 40
1.0
  9
$ATTMODE
 70
     1
  9
$TEXTSIZE
 40
0.008
  9
$TRACEWID
 40
1.0
  9
$TEXTSTYLE
  7
style1
  9
$CLAYER
  8
Text
  9
$CELTYPE
  6
ACAD_ISO10W100
  9
$CECOLOR
 62
   256
  9
$CELTSCALE
 40
1.0
  9
$DISPSILH
 70
     0
  9
$DIMSCALE
 40
0.001
  9
$DIMASZ
 40
1.5
  9
$DIMEXO
 40
0.0625
  9
$DIMDLI
 40
0.38
  9
$DIMRND
 40
0.0
  9
$DIMDLE
 40
0.0
  9
$DIMEXE
 40
0.18
  9
$DIMTP
 40
0.0
  9
$DIMTM
 40
0.0
  9
$DIMTXT
 40
3.0
  9
$DIMCEN
 40
0.0
  9
$DIMTSZ
 40
0.0
  9
$DIMTOL
 70
     0
  9
$DIMLIM
 70
     0
  9
$DIMTIH
 70
     1
  9
$DIMTOH
 70
     1
  9
$DIMSE1
 70
     0
  9
$DIMSE2
 70
     0
  9
$DIMTAD
 70
     0
  9
$DIMZIN
 70
     0
  9
$DIMBLK
  1
ArchTick
  9
$DIMASO
 70
     1
  9
$DIMSHO
 70
     1
  9
$DIMPOST
  1

  9
$DIMAPOST
  1

  9
$DIMALT
 70
     0
  9
$DIMALTD
 70
     2
  9
$DIMALTF
 40
25.4
  9
$DIMLFAC
 40
1.0
  9
$DIMTOFL
 70
     0
  9
$DIMTVP
 40
0.0
  9
$DIMTIX
 70
     0
  9
$DIMSOXD
 70
     0
  9
$DIMSAH
 70
     0
  9
$DIMBLK1
  1

  9
$DIMBLK2
  1

  9
$DIMSTYLE
  2
Bovelacci
  9
$DIMCLRD
 70
     5
  9
$DIMCLRE
 70
     5
  9
$DIMCLRT
 70
     4
  9
$DIMTFAC
 40
1.0
  9
$DIMGAP
 40
2.0
  9
$DIMJUST
 70
     0
  9
$DIMSD1
 70
     0
  9
$DIMSD2
 70
     0
  9
$DIMTOLJ
 70
     1
  9
$DIMTZIN
 70
     0
  9
$DIMALTZ
 70
     0
  9
$DIMALTTZ
 70
     0
  9
$DIMUPT
 70
     0
  9
$DIMDEC
 70
     2
  9
$DIMTDEC
 70
     2
  9
$DIMALTU
 70
     2
  9
$DIMALTTD
 70
     2
  9
$DIMTXSTY
  7
ROMANS
  9
$DIMAUNIT
 70
     0
  9
$DIMADEC
 70
     0
  9
$DIMALTRND
 40
0.0
  9
$DIMAZIN
 70
     0
  9
$DIMDSEP
 70
    46
  9
$DIMATFIT
 70
     3
  9
$DIMFRAC
 70
     0
  9
$DIMLDRBLK
  1

  9
$DIMLUNIT
 70
     2
  9
$DIMLWD
 70
    -2
  9
$DIMLWE
 70
    -2
  9
$DIMTMOVE
 70
     2
  9
$LUNITS
 70
     2
  9
$LUPREC
 70
     2
  9
$SKETCHINC
 40
1.0
  9
$FILLETRAD
 40
0.0
  9
$AUNITS
 70
     0
  9
$AUPREC
 70
     0
  9
$MENU
  1
.
  9
$ELEVATION
 40
0.0
  9
$PELEVATION
 40
0.0
  9
$THICKNESS
 40
0.0
  9
$LIMCHECK
 70
     0
  9
$CHAMFERA
 40
0.0
  9
$CHAMFERB
 40
0.0
  9
$CHAMFERC
 40
0.0
  9
$CHAMFERD
 40
0.0
  9
$SKPOLY
 70
     0
  9
$TDCREATE
 40
2454297.625402373
  9
$TDUCREATE
 40
2454297.542069039
  9
$TDUPDATE
 40
2454305.942728403
  9
$TDUUPDATE
 40
2454305.859395069
  9
$TDINDWG
 40
0.1108736690
  9
$TDUSRTIMER
 40
0.1108716667
  9
$USRTIMER
 70
     1
  9
$ANGBASE
 50
0.0
  9
$ANGDIR
 70
     0
  9
$PDMODE
 70
     0
  9
$PDSIZE
 40
0.0
  9
$PLINEWID
 40
0.0
  9
$SPLFRAME
 70
     0
  9
$SPLINETYPE
 70
     6
  9
$SPLINESEGS
 70
     8
  9
$HANDSEED
  5
7DE
  9
$SURFTAB1
 70
     6
  9
$SURFTAB2
 70
     6
  9
$SURFTYPE
 70
     6
  9
$SURFU
 70
     6
  9
$SURFV
 70
     6
  9
$UCSBASE
  2

  9
$UCSNAME
  2

  9
$UCSORG
 10
0.0
 20
0.0
 30
0.0
  9
$UCSXDIR
 10
1.0
 20
0.0
 30
0.0
  9
$UCSYDIR
 10
0.0
 20
1.0
 30
0.0
  9
$UCSORTHOREF
  2

  9
$UCSORTHOVIEW
 70
     0
  9
$UCSORGTOP
 10
0.0
 20
0.0
 30
0.0
  9
$UCSORGBOTTOM
 10
0.0
 20
0.0
 30
0.0
  9
$UCSORGLEFT
 10
0.0
 20
0.0
 30
0.0
  9
$UCSORGRIGHT
 10
0.0
 20
0.0
 30
0.0
  9
$UCSORGFRONT
 10
0.0
 20
0.0
 30
0.0
  9
$UCSORGBACK
 10
0.0
 20
0.0
 30
0.0
  9
$PUCSBASE
  2

  9
$PUCSNAME
  2

  9
$PUCSORG
 10
0.0
 20
0.0
 30
0.0
  9
$PUCSXDIR
 10
1.0
 20
0.0
 30
0.0
  9
$PUCSYDIR
 10
0.0
 20
1.0
 30
0.0
  9
$PUCSORTHOREF
  2

  9
$PUCSORTHOVIEW
 70
     0
  9
$PUCSORGTOP
 10
0.0
 20
0.0
 30
0.0
  9
$PUCSORGBOTTOM
 10
0.0
 20
0.0
 30
0.0
  9
$PUCSORGLEFT
 10
0.0
 20
0.0
 30
0.0
  9
$PUCSORGRIGHT
 10
0.0
 20
0.0
 30
0.0
  9
$PUCSORGFRONT
 10
0.0
 20
0.0
 30
0.0
  9
$PUCSORGBACK
 10
0.0
 20
0.0
 30
0.0
  9
$USERI1
 70
     0
  9
$USERI2
 70
     0
  9
$USERI3
 70
     0
  9
$USERI4
 70
     0
  9
$USERI5
 70
     0
  9
$USERR1
 40
0.0
  9
$USERR2
 40
0.0
  9
$USERR3
 40
0.0
  9
$USERR4
 40
0.0
  9
$USERR5
 40
0.0
  9
$WORLDVIEW
 70
     1
  9
$SHADEDGE
 70
     3
  9
$SHADEDIF
 70
    70
  9
$TILEMODE
 70
     1
  9
$MAXACTVP
 70
    64
  9
$PINSBASE
 10
0.0
 20
0.0
 30
0.0
  9
$PLIMCHECK
 70
     0
  9
$PEXTMIN
 10
1.000000000000000E+20
 20
1.000000000000000E+20
 30
1.000000000000000E+20
  9
$PEXTMAX
 10
-1.000000000000000E+20
 20
-1.000000000000000E+20
 30
-1.000000000000000E+20
  9
$PLIMMIN
 10
0.0
 20
0.0
  9
$PLIMMAX
 10
420.0
 20
297.0
  9
$UNITMODE
 70
     0
  9
$VISRETAIN
 70
     1
  9
$PLINEGEN
 70
     0
  9
$PSLTSCALE
 70
     1
  9
$TREEDEPTH
 70
  3020
  9
$CMLSTYLE
  2
Standard
  9
$CMLJUST
 70
     0
  9
$CMLSCALE
 40
20.0
  9
$PROXYGRAPHICS
 70
     1
  9
$MEASUREMENT
 70
     1
  9
$CELWEIGHT
370
    -1
  9
$ENDCAPS
280
     0
  9
$JOINSTYLE
280
     0
  9
$LWDISPLAY
290
     0
  9
$INSUNITS
 70
     4
  9
$HYPERLINKBASE
  1

  9
$STYLESHEET
  1

  9
$XEDIT
290
     1
  9
$CEPSNTYPE
380
     0
  9
$PSTYLEMODE
290
     1
  9
$FINGERPRINTGUID
  2
{904A8C64-524F-4709-A9C6-320D2C273A6D}
  9
$VERSIONGUID
  2
{69D99809-2FA7-43B9-A6A1-CE5237FBABBC}
  9
$EXTNAMES
290
     1
  9
$PSVPSCALE
 40
0.0
  9
$OLESTARTUP
290
     0
  0
ENDSEC
  0
SECTION
  2
CLASSES
  0
CLASS
  1
ACDBDICTIONARYWDFLT
  2
AcDbDictionaryWithDefault
  3
ObjectDBX Classes
 90
        0
280
     0
281
     0
  0
CLASS
  1
TABLESTYLE
  2
AcDbTableStyle
  3
ObjectDBX Classes
 90
     2047
280
     0
281
     0
  0
CLASS
  1
SORTENTSTABLE
  2
AcDbSortentsTable
  3
ObjectDBX Classes
 90
        0
280
     0
281
     0
  0
CLASS
  1
DICTIONARYVAR
  2
AcDbDictionaryVar
  3
ObjectDBX Classes
 90
        0
280
     0
281
     0
  0
CLASS
  1
ACDBPLACEHOLDER
  2
AcDbPlaceHolder
  3
ObjectDBX Classes
 90
        0
280
     0
281
     0
  0
CLASS
  1
LAYOUT
  2
AcDbLayout
  3
ObjectDBX Classes
 90
        0
280
     0
281
     0
  0
CLASS
  1
DIMASSOC
  2
AcDbDimAssoc
  3
"AcDbDimAssoc|Product Desc:     AcDim ARX App For Dimension|Company:          Autodesk, Inc.|WEB Address:      www.autodesk.com"
 90
        0
280
     0
281
     0
  0
CLASS
  1
MATERIAL
  2
AcDbMaterial
  3
ObjectDBX Classes
 90
        0
280
     0
281
     0
  0
CLASS
  1
VISUALSTYLE
  2
AcDbVisualStyle
  3
ObjectDBX Classes
 90
     4095
280
     0
281
     0
  0
ENDSEC
  0
SECTION
  2
TABLES
  0
TABLE
  2
VPORT
  5
177
330
0
100
AcDbSymbolTable
 70
    13
  0
VPORT
  5
7D3
330
177
100
AcDbSymbolTableRecord
100
AcDbViewportTableRecord
  2
*Active
 70
     0
 10
0.0
 20
0.0
 11
1.0
 21
1.0
 12
0.2085354541438673
 22
0.1475692104413332
 13
0.0
 23
0.0
 14
10.0
 24
10.0
 15
10.0
 25
10.0
 16
0.0
 26
0.0
 36
1.0
 17
0.0
 27
0.0
 37
0.0
 40
0.2761626770263705
 41
1.546526867627784
 42
50.0
 43
0.0
 44
0.0
 50
0.0
 51
0.0
 71
     0
 72
  1000
 73
     1
 74
     3
 75
     0
 76
     0
 77
     0
 78
     0
281
     0
 65
     1
110
0.0
120
0.0
130
0.0
111
1.0
121
0.0
131
0.0
112
0.0
122
1.0
132
0.0
 79
     0
146
0.0
  0
ENDTAB
  0
TABLE
  2
LTYPE
  5
172
330
0
100
AcDbSymbolTable
 70
     3
  0
LTYPE
  5
173
330
172
100
AcDbSymbolTableRecord
100
AcDbLinetypeTableRecord
  2
ByBlock
 70
     0
  3

 72
    65
 73
     0
 40
0.0
  0
LTYPE
  5
174
330
172
100
AcDbSymbolTableRecord
100
AcDbLinetypeTableRecord
  2
ByLayer
 70
     0
  3

 72
    65
 73
     0
 40
0.0
  0
LTYPE
  5
C
330
172
100
AcDbSymbolTableRecord
100
AcDbLinetypeTableRecord
  2
Continuous
 70
     0
  3
Solid line
 72
    65
 73
     0
 40
0.0
  0
LTYPE
  5
14E
330
172
100
AcDbSymbolTableRecord
100
AcDbLinetypeTableRecord
  2
ACAD_ISO10W100
 70
     0
  3
ISO dash dot __ . __ . __ . __ . __ . __ . __ .
 72
    65
 73
     4
 40
18.0
 49
12.0
 74
     0
 49
-3.0
 74
     0
 49
0.0
 74
     0
 49
-3.0
 74
     0
  0
ENDTAB
  0
TABLE
  2
LAYER
  5
16D
102
{ACAD_XDICTIONARY
360
16E
102
}
330
0
100
AcDbSymbolTable
 70
     7
  0
LAYER
  5
6
330
16D
100
AcDbSymbolTableRecord
100
AcDbLayerTableRecord
  2
0
 70
     0
 62
     7
  6
Continuous
370
    -3
390
7
  0
LAYER
  5
15F
330
16D
100
AcDbSymbolTableRecord
100
AcDbLayerTableRecord
  2
Defpoints
 70
     0
 62
     7
  6
Continuous
290
     0
370
    -3
390
7
  0
LAYER
  5
28
330
16D
100
AcDbSymbolTableRecord
100
AcDbLayerTableRecord
  2
Profilo
 70
     0
 62
     1
  6
Continuous
370
    -3
390
7
1001
AcAecLayerStandard
1000

1000

  0
LAYER
  5
14D
330
16D
100
AcDbSymbolTableRecord
100
AcDbLayerTableRecord
  2
Sezione
 70
     0
 62
     2
  6
Continuous
370
    -3
390
7
1001
AcAecLayerStandard
1000

1000

  0
LAYER
  5
E
330
16D
100
AcDbSymbolTableRecord
100
AcDbLayerTableRecord
  2
Table
 70
     0
 62
     3
  6
Continuous
370
    -3
390
7
1001
AcAecLayerStandard
1000

1000

  0
LAYER
  5
19
330
16D
100
AcDbSymbolTableRecord
100
AcDbLayerTableRecord
  2
Text
 70
     0
 62
     4
  6
Continuous
370
    -3
390
7
1001
AcAecLayerStandard
1000

1000

  0
LAYER
  5
23D
330
16D
100
AcDbSymbolTableRecord
100
AcDbLayerTableRecord
  2
Bovelacci
 70
     0
 62
     9
  6
Continuous
370
    -3
390
7
1001
AcAecLayerStandard
1000

1000

  0
ENDTAB
  0
TABLE
  2
STYLE
  5
170
330
0
100
AcDbSymbolTable
 70
     3
  0
STYLE
  5
1A
330
170
100
AcDbSymbolTableRecord
100
AcDbTextStyleTableRecord
  2
Standard
 70
     0
 40
0.0
 41
1.0
 50
0.0
 71
     0
 42
2.5
  3
txt
  4

  0
STYLE
  5
20
330
170
100
AcDbSymbolTableRecord
100
AcDbTextStyleTableRecord
  2
ROMANS
 70
     0
 40
0.0
 41
1.0
 50
0.0
 71
     0
 42
2.5
  3
romans
  4

  0
STYLE
  5
26
330
170
100
AcDbSymbolTableRecord
100
AcDbTextStyleTableRecord
  2
style1
 70
     0
 40
0.0
 41
1.0
 50
0.0
 71
     0
 42
0.008
  3
TIMES.TTF
  4

1001
ACAD
1000
Times New Roman
1071
       18
  0
ENDTAB
  0
TABLE
  2
VIEW
  5
175
330
0
100
AcDbSymbolTable
 70
     3
  0
ENDTAB
  0
TABLE
  2
UCS
  5
176
330
0
100
AcDbSymbolTable
 70
     0
  0
ENDTAB
  0
TABLE
  2
APPID
  5
17B
330
0
100
AcDbSymbolTable
 70
    10
  0
APPID
  5
1B
330
17B
100
AcDbSymbolTableRecord
100
AcDbRegAppTableRecord
  2
ACAD
 70
     0
  0
APPID
  5
157
330
17B
100
AcDbSymbolTableRecord
100
AcDbRegAppTableRecord
  2
ACAD_DSTYLE_DIMJOGGED_JOGANGLE_SYMBOL
 70
     0
  0
APPID
  5
F
330
17B
100
AcDbSymbolTableRecord
100
AcDbRegAppTableRecord
  2
AcAecLayerStandard
 70
     0
  0
APPID
  5
19C
330
17B
100
AcDbSymbolTableRecord
100
AcDbRegAppTableRecord
  2
ACAD_DSTYLE_DIMFLIPARROW_WHICH_SYMBOL
 70
     0
  0
APPID
  5
1A7
330
17B
100
AcDbSymbolTableRecord
100
AcDbRegAppTableRecord
  2
ACAD_DSTYLE_DIMEXT_LENGTH
 70
     0
  0
APPID
  5
1D2
330
17B
100
AcDbSymbolTableRecord
100
AcDbRegAppTableRecord
  2
ACAD_EXEMPT_FROM_CAD_STANDARDS
 70
     0
  0
APPID
  5
1D3
330
17B
100
AcDbSymbolTableRecord
100
AcDbRegAppTableRecord
  2
ACAD_DSTYLE_DIM_LINETYPE
 70
     0
  0
APPID
  5
1D4
330
17B
100
AcDbSymbolTableRecord
100
AcDbRegAppTableRecord
  2
ACAD_DSTYLE_DIM_EXT1_LINETYPE
 70
     0
  0
APPID
  5
1D5
330
17B
100
AcDbSymbolTableRecord
100
AcDbRegAppTableRecord
  2
ACAD_DSTYLE_DIM_EXT2_LINETYPE
 70
     0
  0
APPID
  5
243
330
17B
100
AcDbSymbolTableRecord
100
AcDbRegAppTableRecord
  2
ACAD_PSEXT
 70
     0
  0
ENDTAB
  0
TABLE
  2
DIMSTYLE
  5
17C
330
0
100
AcDbSymbolTable
 70
     8
100
AcDbDimStyleTable
 71
     2
340
156
340
17D
  0
DIMSTYLE
105
17D
330
17C
100
AcDbSymbolTableRecord
100
AcDbDimStyleTableRecord
  2
ISO-25
 70
     0
 41
2.5
 42
0.625
 43
3.75
 44
1.25
 73
     0
 74
     0
 77
     1
 78
     8
140
2.5
141
2.5
143
0.03937007874016
147
0.625
171
     3
172
     1
271
     2
272
     2
274
     3
278
    44
283
     0
284
     8
340
1A
  0
DIMSTYLE
105
156
102
{ACAD_REACTORS
330
7B3
102
}
330
17C
100
AcDbSymbolTableRecord
100
AcDbDimStyleTableRecord
  2
Bovelacci
 70
     0
 40
0.001
 41
1.5
140
3.0
141
0.0
147
2.0
176
     5
177
     5
178
     4
271
     2
272
     2
279
     2
340
20
342
152
1001
ACAD_DSTYLE_DIMJOGGED_JOGANGLE_SYMBOL
1070
   384
1040
0.7853981633974483
1001
ACAD_DSTYLE_DIMEXT_LENGTH
1070
   378
1040
0.18
  0
DIMSTYLE
105
23E
330
17C
100
AcDbSymbolTableRecord
100
AcDbDimStyleTableRecord
  2
Dim 1-100
 70
     0
 40
0.1
 41
1.5
 42
0.0
 43
5.0
 44
1.25
 45
0.005
 46
1.25
 73
     0
 74
     0
 77
     1
 78
     9
140
2.0
141
2.5
147
1.0
172
     1
174
     1
179
     2
279
     2
289
     2
340
20
342
152
  0
DIMSTYLE
105
23F
330
17C
100
AcDbSymbolTableRecord
100
AcDbDimStyleTableRecord
  2
Standard
 70
     0
 42
0.0
 73
     0
 74
     0
 77
     1
271
     2
272
     2
340
20
  0
DIMSTYLE
105
240
330
17C
100
AcDbSymbolTableRecord
100
AcDbDimStyleTableRecord
  2
Dim 1-50
 70
     0
 40
0.05
 41
1.5
 42
0.0
 43
5.0
 44
1.25
 45
0.005
 46
1.25
 73
     0
 74
     0
 77
     1
 78
     9
140
2.0
141
2.5
147
1.0
172
     1
174
     1
179
     2
279
     2
289
     2
340
20
342
152
  0
DIMSTYLE
105
241
330
17C
100
AcDbSymbolTableRecord
100
AcDbDimStyleTableRecord
  2
Dim 1-200
 70
     0
 40
0.2
 41
1.5
 42
0.0
 43
5.0
 44
1.25
 45
0.005
 46
1.25
 73
     0
 74
     0
 77
     1
 78
     9
140
2.0
141
2.5
147
1.0
172
     1
174
     1
179
     2
271
     2
272
     2
279
     2
289
     2
340
20
342
152
  0
DIMSTYLE
105
242
330
17C
100
AcDbSymbolTableRecord
100
AcDbDimStyleTableRecord
  2
AEC Scale - Italiano
 70
     0
 41
1.0
 42
10.0
 43
10.0
 44
10.0
 73
     0
 74
     0
 75
     1
 76
     1
 77
     1
140
10.0
141
1.0
147
10.0
173
     1
271
     0
272
     0
279
     2
340
1A
343
238
344
232
  0
ENDTAB
  0
TABLE
  2
BLOCK_RECORD
  5
1
330
0
100
AcDbSymbolTable
 70
    20
  0
BLOCK_RECORD
  5
2
102
{ACAD_XDICTIONARY
360
3
102
}
330
1
100
AcDbSymbolTableRecord
100
AcDbBlockTableRecord
  2
*Model_Space
340
163
  0
BLOCK_RECORD
  5
165
330
1
100
AcDbSymbolTableRecord
100
AcDbBlockTableRecord
  2
*Paper_Space
340
168
  0
BLOCK_RECORD
  5
169
330
1
100
AcDbSymbolTableRecord
100
AcDbBlockTableRecord
  2
*Paper_Space0
340
16C
  0
BLOCK_RECORD
  5
152
330
1
100
AcDbSymbolTableRecord
100
AcDbBlockTableRecord
  2
_ArchTick
340
0
310
2800000020000000200000000100080000000000000400000000000000000000000000000000000000000000000080000080000000808000800000008000800080800000C0C0C000C0DCC000F0CAA6000020400000206000002080000020A0000020C0000020E00000400000004020000040400000406000004080000040A0
310
000040C0000040E00000600000006020000060400000606000006080000060A0000060C0000060E00000800000008020000080400000806000008080000080A0000080C0000080E00000A0000000A0200000A0400000A0600000A0800000A0A00000A0C00000A0E00000C0000000C0200000C0400000C0600000C0800000C0
310
A00000C0C00000C0E00000E0000000E0200000E0400000E0600000E0800000E0A00000E0C00000E0E00040000000400020004000400040006000400080004000A0004000C0004000E00040200000402020004020400040206000402080004020A0004020C0004020E000404000004040200040404000404060004040800040
310
40A0004040C0004040E00040600000406020004060400040606000406080004060A0004060C0004060E00040800000408020004080400040806000408080004080A0004080C0004080E00040A0000040A0200040A0400040A0600040A0800040A0A00040A0C00040A0E00040C0000040C0200040C0400040C0600040C08000
310
40C0A00040C0C00040C0E00040E0000040E0200040E0400040E0600040E0800040E0A00040E0C00040E0E00080000000800020008000400080006000800080008000A0008000C0008000E00080200000802020008020400080206000802080008020A0008020C0008020E00080400000804020008040400080406000804080
310
008040A0008040C0008040E00080600000806020008060400080606000806080008060A0008060C0008060E00080800000808020008080400080806000808080008080A0008080C0008080E00080A0000080A0200080A0400080A0600080A0800080A0A00080A0C00080A0E00080C0000080C0200080C0400080C0600080C0
310
800080C0A00080C0C00080C0E00080E0000080E0200080E0400080E0600080E0800080E0A00080E0C00080E0E000C0000000C0002000C0004000C0006000C0008000C000A000C000C000C000E000C0200000C0202000C0204000C0206000C0208000C020A000C020C000C020E000C0400000C0402000C0404000C0406000C0
310
408000C040A000C040C000C040E000C0600000C0602000C0604000C0606000C0608000C060A000C060C000C060E000C0800000C0802000C0804000C0806000C0808000C080A000C080C000C080E000C0A00000C0A02000C0A04000C0A06000C0A08000C0A0A000C0A0C000C0A0E000C0C00000C0C02000C0C04000C0C06000
310
C0C08000C0C0A000F0FBFF00A4A0A000808080000000FF0000FF000000FFFF00FF000000FF00FF00FFFF0000FFFFFF00000000FF000000000000000000000000000000000000000000000000000000000000FF00FF00000000000000000000000000000000000000000000000000000000FF000000FF000000000000000000
310
0000000000000000000000000000000000FF0000000000FF0000000000000000000000000000000000000000000000000000FF0000000000FF0000000000000000000000000000000000000000000000000000FF0000000000FF0000000000000000000000000000000000000000000000000000FF0000000000FF00000000
310
00000000000000000000000000000000000000000000FF0000000000FF0000000000000000000000000000000000000000000000000000FF0000000000FF0000000000000000000000000000000000000000000000000000FF0000000000FF0000000000000000000000000000000000000000000000000000FF0000000000
310
FF0000000000000000000000000000000000000000000000000000FF0000000000FF0000000000000000000000000000000000000000000000000000FF0000000000FF0000000000000000000000000000000000000000000000000000FF0000000000FF0000000000000000000000000000000000000000000000000000FF
310
0000000000FF0000000000000000000000000000000000000000000000000000FF0000000000FF0000000000000000000000000000000000000000000000000000FF0000000000FF0000000000000000000000000000000000000000000000000000FF0000000000FF00000000000000000000000000000000000000000000
310
00000000FF0000000000FF0000000000000000000000000000000000000000000000000000FF0000000000FF0000000000000000000000000000000000000000000000000000FF0000000000FF0000000000000000000000000000000000000000000000000000FF0000000000FF0000000000000000000000000000000000
310
000000000000000000FF0000000000FF0000000000000000000000000000000000000000000000000000FF0000000000FF0000000000000000000000000000000000000000000000000000FF0000000000FF0000000000000000000000000000000000000000000000000000FF0000000000FF000000000000000000000000
310
0000000000000000000000000000FF0000000000FF0000000000000000000000000000000000000000000000000000FF0000000000FF0000000000000000000000000000000000000000000000000000FF0000000000FF0000000000000000000000000000000000000000000000000000FF000000FF000000000000000000
310
00000000000000000000000000000000000000FF00FF000000000000000000000000000000000000000000000000000000000000FF000000
102
{BLKREFS
331
211
331
260
331
261
331
280
331
2D7
331
2D8
331
2F1
331
2F2
331
4FE
331
53F
331
5CC
331
7CE
102
}
  0
BLOCK_RECORD
  5
232
330
1
100
AcDbSymbolTableRecord
100
AcDbBlockTableRecord
  2
_Arrivo
340
0
310
2800000020000000200000000100080000000000000400000000000000000000000000000000000000000000000080000080000000808000800000008000800080800000C0C0C000C0DCC000F0CAA6000020400000206000002080000020A0000020C0000020E00000400000004020000040400000406000004080000040A0
310
000040C0000040E00000600000006020000060400000606000006080000060A0000060C0000060E00000800000008020000080400000806000008080000080A0000080C0000080E00000A0000000A0200000A0400000A0600000A0800000A0A00000A0C00000A0E00000C0000000C0200000C0400000C0600000C0800000C0
310
A00000C0C00000C0E00000E0000000E0200000E0400000E0600000E0800000E0A00000E0C00000E0E00040000000400020004000400040006000400080004000A0004000C0004000E00040200000402020004020400040206000402080004020A0004020C0004020E000404000004040200040404000404060004040800040
310
40A0004040C0004040E00040600000406020004060400040606000406080004060A0004060C0004060E00040800000408020004080400040806000408080004080A0004080C0004080E00040A0000040A0200040A0400040A0600040A0800040A0A00040A0C00040A0E00040C0000040C0200040C0400040C0600040C08000
310
40C0A00040C0C00040C0E00040E0000040E0200040E0400040E0600040E0800040E0A00040E0C00040E0E00080000000800020008000400080006000800080008000A0008000C0008000E00080200000802020008020400080206000802080008020A0008020C0008020E00080400000804020008040400080406000804080
310
008040A0008040C0008040E00080600000806020008060400080606000806080008060A0008060C0008060E00080800000808020008080400080806000808080008080A0008080C0008080E00080A0000080A0200080A0400080A0600080A0800080A0A00080A0C00080A0E00080C0000080C0200080C0400080C0600080C0
310
800080C0A00080C0C00080C0E00080E0000080E0200080E0400080E0600080E0800080E0A00080E0C00080E0E000C0000000C0002000C0004000C0006000C0008000C000A000C000C000C000E000C0200000C0202000C0204000C0206000C0208000C020A000C020C000C020E000C0400000C0402000C0404000C0406000C0
310
408000C040A000C040C000C040E000C0600000C0602000C0604000C0606000C0608000C060A000C060C000C060E000C0800000C0802000C0804000C0806000C0808000C080A000C080C000C080E000C0A00000C0A02000C0A04000C0A06000C0A08000C0A0A000C0A0C000C0A0E000C0C00000C0C02000C0C04000C0C06000
310
C0C08000C0C0A000F0FBFF00A4A0A000808080000000FF0000FF000000FFFF00FF000000FF00FF00FFFF0000FFFFFF00000000000000000000000000000000000000000000000000000000000000000000000000000000000000FF0000000000000000000000000000000000000000000000000000000000000000FF000000
310
00000000000000000000000000000000000000000000000000000000FF0000000000000000000000000000000000000000000000000000000000000000FF00000000000000000000000000000000000000000000000000000000000000FF0000000000000000000000000000000000000000000000000000000000000000FF
310
0000000000000000000000000000000000000000000000000000000000000000FF00000000000000000000000000000000000000000000000000000000000000FF0000000000000000000000000000000000000000000000000000000000000000FF0000000000000000000000000000000000000000000000000000000000
310
0000FF0000000000000000000000000000000000000000000000000000000000000000FF00000000000000000000000000000000000000000000000000000000000000FF0000000000000000000000000000000000000000000000000000000000000000FF0000FF0000000000000000000000000000000000000000000000
310
000000000000FFFF000000000000000000000000000000000000000000000000000000000000FFFF00000000000000000000000000000000000000000000000000000000FFFFFFFFFFFF00000000000000000000000000000000000000000000000000000000FFFF0000000000000000000000000000000000000000000000
310
000000000000FF0000FF000000000000000000000000000000000000000000000000000000FF00000000000000000000000000000000000000000000000000000000000000FF000000000000000000000000000000000000000000000000000000000000FF0000000000000000000000000000000000000000000000000000
310
0000000000FF000000000000000000000000000000000000000000000000000000000000FF00000000000000000000000000000000000000000000000000000000000000FF000000000000000000000000000000000000000000000000000000000000FF000000000000000000000000000000000000000000000000000000
310
000000FF00000000000000000000000000000000000000000000000000000000000000FF000000000000000000000000000000000000000000000000000000000000FF00000000000000000000000000000000000000000000000000000000000000FF00000000000000000000000000000000000000000000000000000000
310
0000FF0000000000000000000000000000000000000000000000000000000000000000000000000000000000000000000000000000000000
  0
BLOCK_RECORD
  5
238
330
1
100
AcDbSymbolTableRecord
100
AcDbBlockTableRecord
  2
_Partenza
340
0
310
2800000020000000200000000100080000000000000400000000000000000000000000000000000000000000000080000080000000808000800000008000800080800000C0C0C000C0DCC000F0CAA6000020400000206000002080000020A0000020C0000020E00000400000004020000040400000406000004080000040A0
310
000040C0000040E00000600000006020000060400000606000006080000060A0000060C0000060E00000800000008020000080400000806000008080000080A0000080C0000080E00000A0000000A0200000A0400000A0600000A0800000A0A00000A0C00000A0E00000C0000000C0200000C0400000C0600000C0800000C0
310
A00000C0C00000C0E00000E0000000E0200000E0400000E0600000E0800000E0A00000E0C00000E0E00040000000400020004000400040006000400080004000A0004000C0004000E00040200000402020004020400040206000402080004020A0004020C0004020E000404000004040200040404000404060004040800040
310
40A0004040C0004040E00040600000406020004060400040606000406080004060A0004060C0004060E00040800000408020004080400040806000408080004080A0004080C0004080E00040A0000040A0200040A0400040A0600040A0800040A0A00040A0C00040A0E00040C0000040C0200040C0400040C0600040C08000
310
40C0A00040C0C00040C0E00040E0000040E0200040E0400040E0600040E0800040E0A00040E0C00040E0E00080000000800020008000400080006000800080008000A0008000C0008000E00080200000802020008020400080206000802080008020A0008020C0008020E00080400000804020008040400080406000804080
310
008040A0008040C0008040E00080600000806020008060400080606000806080008060A0008060C0008060E00080800000808020008080400080806000808080008080A0008080C0008080E00080A0000080A0200080A0400080A0600080A0800080A0A00080A0C00080A0E00080C0000080C0200080C0400080C0600080C0
310
800080C0A00080C0C00080C0E00080E0000080E0200080E0400080E0600080E0800080E0A00080E0C00080E0E000C0000000C0002000C0004000C0006000C0008000C000A000C000C000C000E000C0200000C0202000C0204000C0206000C0208000C020A000C020C000C020E000C0400000C0402000C0404000C0406000C0
310
408000C040A000C040C000C040E000C0600000C0602000C0604000C0606000C0608000C060A000C060C000C060E000C0800000C0802000C0804000C0806000C0808000C080A000C080C000C080E000C0A00000C0A02000C0A04000C0A06000C0A08000C0A0A000C0A0C000C0A0E000C0C00000C0C02000C0C04000C0C06000
310
C0C08000C0C0A000F0FBFF00A4A0A000808080000000FF0000FF000000FFFF00FF000000FF00FF00FFFF0000FFFFFF0000000000000000000000000000000000000000000000000000000000000000000000000000000000000000000000000000000000000000000000000000000000000000000000000000000000000000
310
000000000000000000000000000000000000000000000000000000000000000000000000000000000000000000000000000000000000000000000000000000000000000000000000000000000000000000000000000000000000000000000000000000000000000000000000000000000000FFFFFFFFFFFFFFFFFFFFFFFFFF
310
FFFFFFFFFFFFFFFFFFFFFFFFFFFFFFFFFF0000000000000000000000000000000000000000000000000000000000000000000000000000000000000000000000000000000000000000000000000000000000000000000000000000000000000000000000000000000000000000000000000000000000000000000000000000
310
00000000000000000000000000000000000000000000000000000000000000000000000000000000000000000000000000000000000000000000000000000000000000000000000000000000000000000000000000000000000000000000000000000000000000000000000000000000000000000000000000000000000000
310
00000000000000000000000000000000000000000000000000000000000000000000000000000000000000000000000000000000000000000000000000000000000000000000000000000000000000000000000000000000000000000000000000000000000000000000000000000000000000000000000000000000000000
310
00000000000000000000000000000000000000000000000000000000000000000000000000000000000000000000000000000000000000000000000000000000000000000000000000000000000000000000000000000000000000000000000000000000000000000000000000000000000000000000000000000000000000
310
000000000000000000000000000000000000000000000000000000000000000000000000000000000000000000000000000000000000000000000000000000000000000000000000000000000000000000000000000000FFFFFFFFFFFFFFFFFFFFFFFFFFFFFFFFFFFFFFFFFFFFFFFFFFFFFFFFFFFF00000000000000000000
310
00000000000000000000000000000000000000000000000000000000000000000000000000000000000000000000000000000000000000000000000000000000000000000000000000000000000000000000000000000000000000000000000000000000000000000000000000000000000000000000000000000000000000
310
0000000000000000000000000000000000000000000000000000000000000000000000000000000000000000000000000000000000000000
  0
BLOCK_RECORD
  5
266
330
1
100
AcDbSymbolTableRecord
100
AcDbBlockTableRecord
  2
*D6
340
0
  0
BLOCK_RECORD
  5
2C5
330
1
100
AcDbSymbolTableRecord
100
AcDbBlockTableRecord
  2
*D8
340
0
  0
BLOCK_RECORD
  5
2DF
330
1
100
AcDbSymbolTableRecord
100
AcDbBlockTableRecord
  2
*D9
340
0
  0
BLOCK_RECORD
  5
4E4
330
1
100
AcDbSymbolTableRecord
100
AcDbBlockTableRecord
  2
*D11
340
0
  0
BLOCK_RECORD
  5
525
330
1
100
AcDbSymbolTableRecord
100
AcDbBlockTableRecord
  2
*D13
340
0
  0
BLOCK_RECORD
  5
5B2
330
1
100
AcDbSymbolTableRecord
100
AcDbBlockTableRecord
  2
*D17
340
0
  0
BLOCK_RECORD
  5
7B4
330
1
100
AcDbSymbolTableRecord
100
AcDbBlockTableRecord
  2
*D19
340
0
  0
ENDTAB
  0
ENDSEC
  0
SECTION
  2
BLOCKS
  0
BLOCK
  5
5
330
2
100
AcDbEntity
  8
0
100
AcDbBlockBegin
  2
*Model_Space
 70
     0
 10
0.0
 20
0.0
 30
0.0
  3
*Model_Space
  1

  0
ENDBLK
  5
162
330
2
100
AcDbEntity
  8
0
100
AcDbBlockEnd
  0
BLOCK
  5
166
330
165
100
AcDbEntity
 67
     1
  8
0
100
AcDbBlockBegin
  2
*Paper_Space
 70
     0
 10
0.0
 20
0.0
 30
0.0
  3
*Paper_Space
  1

  0
ENDBLK
  5
167
330
165
100
AcDbEntity
 67
     1
  8
0
100
AcDbBlockEnd
  0
BLOCK
  5
16A
330
169
100
AcDbEntity
 67
     1
  8
0
100
AcDbBlockBegin
  2
*Paper_Space0
 70
     0
 10
0.0
 20
0.0
 30
0.0
  3
*Paper_Space0
  1

  0
ENDBLK
  5
16B
330
169
100
AcDbEntity
 67
     1
  8
0
100
AcDbBlockEnd
  0
BLOCK
  5
153
330
152
100
AcDbEntity
  8
0
 62
     1
100
AcDbBlockBegin
  2
_ArchTick
 70
     0
 10
0.0
 20
0.0
 30
0.0
  3
_ArchTick
  1

  0
LWPOLYLINE
  5
154
330
152
100
AcDbEntity
  8
0
  6
ByBlock
 62
     0
100
AcDbPolyline
 90
        2
 70
     0
 43
0.15
 10
-0.5
 20
-0.5
 10
0.5
 20
0.5
  0
ENDBLK
  5
155
330
152
100
AcDbEntity
  8
0
 62
     1
100
AcDbBlockEnd
  0
BLOCK
  5
233
330
232
100
AcDbEntity
  8
0
100
AcDbBlockBegin
  2
_Arrivo
 70
     0
 10
0.0
 20
0.0
 30
0.0
  3
_Arrivo
  1

  0
LINE
  5
234
330
232
100
AcDbEntity
  8
0
  6
ByBlock
 62
     0
370
    -2
100
AcDbLine
 10
0.025
 20
-0.0433012701891858
 30
0.0
 11
-0.15
 21
0.2598076211353328
 31
0.0
  0
LINE
  5
235
330
232
100
AcDbEntity
  8
0
  6
ByBlock
 62
     0
370
    -2
100
AcDbLine
 10
0.025
 20
0.0433012701892585
 30
0.0
 11
-0.15
 21
-0.2598076211353328
 31
0.0
  0
LINE
  5
236
330
232
100
AcDbEntity
  8
0
  6
ByBlock
 62
     0
370
    -2
100
AcDbLine
 10
-0.05
 20
0.0
 30
0.0
 11
0.05
 21
0.0
 31
0.0
  0
ENDBLK
  5
237
330
232
100
AcDbEntity
  8
0
100
AcDbBlockEnd
  0
BLOCK
  5
239
330
238
100
AcDbEntity
  8
0
100
AcDbBlockBegin
  2
_Partenza
 70
     0
 10
0.0
 20
0.0
 30
0.0
  3
_Partenza
  1

  0
LINE
  5
23A
330
238
100
AcDbEntity
  8
0
  6
ByBlock
 62
     0
370
    -2
100
AcDbLine
 10
-0.05
 20
0.05
 30
0.0
 11
0.1
 21
0.05
 31
0.0
  0
LINE
  5
23B
330
238
100
AcDbEntity
  8
0
  6
ByBlock
 62
     0
370
    -2
100
AcDbLine
 10
-0.05
 20
-0.05
 30
0.0
 11
0.1
 21
-0.05
 31
0.0
  0
ENDBLK
  5
23C
330
238
100
AcDbEntity
  8
0
100
AcDbBlockEnd
  0
BLOCK
  5
26D
330
266
100
AcDbEntity
  8
0
100
AcDbBlockBegin
  2
*D6
 70
     1
 10
0.0
 20
0.0
 30
0.0
  3
*D6
  1

  0
LINE
  5
27D
330
266
100
AcDbEntity
  8
Text
  6
ACAD_ISO10W100
 62
     5
370
    -2
100
AcDbLine
 10
0.265324276937575
 20
0.1924574125485932
 30
0.0
 11
0.263824276937575
 21
0.1924574125485932
 31
0.0
  0
LINE
  5
27E
330
266
100
AcDbEntity
  8
Text
  6
ACAD_ISO10W100
 62
     5
370
    -2
100
AcDbLine
 10
0.263824276937575
 20
0.1924574125485932
 30
0.0
 11
0.2613215374025681
 21
0.1908032375820575
 31
0.0
  0
MTEXT
  5
27F
330
266
100
AcDbEntity
  8
Text
  6
ACAD_ISO10W100
 62
     4
100
AcDbMText
 10
0.2797528483661464
 20
0.1924574125485932
 30
0.0
 40
0.003
 41
0.0
 71
     5
 72
     1
  1
\A1;d 120 mm
  7
ROMANS
 73
     1
 44
1.0
1001
ACAD
1000
MTEXTBEGIN
1070
    73
1070
     1
1070
    44
1040
1.0
1070
    74
1070
     0
1000
MTEXTEND
  0
INSERT
  5
280
330
266
100
AcDbEntity
  8
Text
  6
ACAD_ISO10W100
 62
     5
370
    -2
100
AcDbBlockReference
  2
_ArchTick
 10
0.2613215374025681
 20
0.1908032375820575
 30
0.0
 41
0.0015
 42
0.0015
 43
0.0015
 50
213.4625388295094
  0
POINT
  5
281
330
266
100
AcDbEntity
  8
Defpoints
  6
ACAD_ISO10W100
 62
     0
100
AcDbPoint
 10
0.2613215374025681
 20
0.1908032375820575
 30
0.0
  0
POINT
  5
282
330
266
100
AcDbEntity
  8
Defpoints
  6
ACAD_ISO10W100
 62
     0
100
AcDbPoint
 10
0.1612119560022933
 20
0.1246362389206268
 30
0.0
  0
ENDBLK
  5
26E
330
266
100
AcDbEntity
  8
0
100
AcDbBlockEnd
  0
BLOCK
  5
2D0
330
2C5
100
AcDbEntity
  8
0
100
AcDbBlockBegin
  2
*D8
 70
     1
 10
0.0
 20
0.0
 30
0.0
  3
*D8
  1

  0
LINE
  5
2D3
330
2C5
100
AcDbEntity
  8
Text
  6
ACAD_ISO10W100
 62
     5
370
    -2
100
AcDbLine
 10
0.1650797227868191
 20
0.124595709950333
 30
0.0
 11
0.1650797227868191
 21
0.1060944378993535
 31
0.0
  0
LINE
  5
2D4
330
2C5
100
AcDbEntity
  8
Text
  6
ACAD_ISO10W100
 62
     5
370
    -2
100
AcDbLine
 10
0.2550797227868189
 20
0.124595709950333
 30
0.0
 11
0.2550797227868189
 21
0.1060944378993535
 31
0.0
  0
LINE
  5
2D5
330
2C5
100
AcDbEntity
  8
Text
  6
ACAD_ISO10W100
 62
     5
370
    -2
100
AcDbLine
 10
0.1650797227868191
 20
0.1062744378993535
 30
0.0
 11
0.1999368656439618
 21
0.1062744378993535
 31
0.0
  0
LINE
  5
2D6
330
2C5
100
AcDbEntity
  8
Text
  6
ACAD_ISO10W100
 62
     5
370
    -2
100
AcDbLine
 10
0.2550797227868189
 20
0.1062744378993535
 30
0.0
 11
0.2202225799296761
 21
0.1062744378993535
 31
0.0
  0
INSERT
  5
2D7
330
2C5
100
AcDbEntity
  8
Text
  6
ACAD_ISO10W100
 62
     5
370
    -2
100
AcDbBlockReference
  2
_ArchTick
 10
0.1650797227868191
 20
0.1062744378993535
 30
0.0
 41
0.0015
 42
0.0015
 43
0.0015
 50
180.0
  0
INSERT
  5
2D8
330
2C5
100
AcDbEntity
  8
Text
  6
ACAD_ISO10W100
 62
     5
370
    -2
100
AcDbBlockReference
  2
_ArchTick
 10
0.2550797227868189
 20
0.1062744378993535
 30
0.0
 41
0.0015
 42
0.0015
 43
0.0015
  0
MTEXT
  5
2D9
330
2C5
100
AcDbEntity
  8
Text
  6
ACAD_ISO10W100
 62
     4
100
AcDbMText
 10
0.210079722786819
 20
0.1062744378993535
 30
0.0
 40
0.003
 41
0.0
 71
     5
 72
     1
  1
\A1;90 mm
  7
ROMANS
 73
     1
 44
1.0
1001
ACAD
1000
MTEXTBEGIN
1070
    73
1070
     1
1070
    44
1040
1.0
1070
    74
1070
     0
1000
MTEXTEND
  0
POINT
  5
2DA
330
2C5
100
AcDbEntity
  8
Defpoints
  6
ACAD_ISO10W100
 62
     0
100
AcDbPoint
 10
0.1650797227868191
 20
0.124658209950333
 30
0.0
  0
POINT
  5
2DB
330
2C5
100
AcDbEntity
  8
Defpoints
  6
ACAD_ISO10W100
 62
     0
100
AcDbPoint
 10
0.2550797227868189
 20
0.124658209950333
 30
0.0
  0
POINT
  5
2DC
330
2C5
100
AcDbEntity
  8
Defpoints
  6
ACAD_ISO10W100
 62
     0
100
AcDbPoint
 10
0.2550797227868189
 20
0.1062744378993535
 30
0.0
  0
ENDBLK
  5
2D1
330
2C5
100
AcDbEntity
  8
0
100
AcDbBlockEnd
  0
BLOCK
  5
2EA
330
2DF
100
AcDbEntity
  8
0
100
AcDbBlockBegin
  2
*D9
 70
     1
 10
0.0
 20
0.0
 30
0.0
  3
*D9
  1

  0
LINE
  5
2ED
330
2DF
100
AcDbEntity
  8
Text
  6
ACAD_ISO10W100
 62
     5
370
    -2
100
AcDbLine
 10
0.2518566651931464
 20
0.1197979324732989
 30
0.0
 11
0.2714595524708644
 21
0.1197979324732989
 31
0.0
  0
LINE
  5
2EE
330
2DF
100
AcDbEntity
  8
Text
  6
ACAD_ISO10W100
 62
     5
370
    -2
100
AcDbLine
 10
0.2518566651931464
 20
0.2098859792004421
 30
0.0
 11
0.2714595524708645
 21
0.2098859792004421
 31
0.0
  0
LINE
  5
2EF
330
2DF
100
AcDbEntity
  8
Text
  6
ACAD_ISO10W100
 62
     5
370
    -2
100
AcDbLine
 10
0.2712795524708644
 20
0.1197979324732989
 30
0.0
 11
0.2712795524708644
 21
0.1613419558368705
 31
0.0
  0
LINE
  5
2F0
330
2DF
100
AcDbEntity
  8
Text
  6
ACAD_ISO10W100
 62
     5
370
    -2
100
AcDbLine
 10
0.2712795524708644
 20
0.2098859792004421
 30
0.0
 11
0.2712795524708644
 21
0.1683419558368705
 31
0.0
  0
INSERT
  5
2F1
330
2DF
100
AcDbEntity
  8
Text
  6
ACAD_ISO10W100
 62
     5
370
    -2
100
AcDbBlockReference
  2
_ArchTick
 10
0.2712795524708644
 20
0.1197979324732989
 30
0.0
 41
0.0015
 42
0.0015
 43
0.0015
 50
270.0
  0
INSERT
  5
2F2
330
2DF
100
AcDbEntity
  8
Text
  6
ACAD_ISO10W100
 62
     5
370
    -2
100
AcDbBlockReference
  2
_ArchTick
 10
0.2712795524708644
 20
0.2098859792004421
 30
0.0
 41
0.0015
 42
0.0015
 43
0.0015
 50
90.0
  0
MTEXT
  5
2F3
330
2DF
100
AcDbEntity
  8
Text
  6
ACAD_ISO10W100
 62
     4
100
AcDbMText
 10
0.2712795524708644
 20
0.1648419558368706
 30
0.0
 40
0.003
 41
0.0
 71
     5
 72
     1
  1
\A1;90 mm
  7
ROMANS
 73
     1
 44
1.0
1001
ACAD
1000
MTEXTBEGIN
1070
    73
1070
     1
1070
    44
1040
1.0
1070
    74
1070
     0
1000
MTEXTEND
  0
POINT
  5
2F4
330
2DF
100
AcDbEntity
  8
Defpoints
  6
ACAD_ISO10W100
 62
     0
100
AcDbPoint
 10
0.2517941651931463
 20
0.1197979324732989
 30
0.0
  0
POINT
  5
2F5
330
2DF
100
AcDbEntity
  8
Defpoints
  6
ACAD_ISO10W100
 62
     0
100
AcDbPoint
 10
0.2517941651931463
 20
0.2098859792004421
 30
0.0
  0
POINT
  5
2F6
330
2DF
100
AcDbEntity
  8
Defpoints
  6
ACAD_ISO10W100
 62
     0
100
AcDbPoint
 10
0.2712795524708644
 20
0.2098859792004421
 30
0.0
  0
ENDBLK
  5
2EB
330
2DF
100
AcDbEntity
  8
0
100
AcDbBlockEnd
  0
BLOCK
  5
4EB
330
4E4
100
AcDbEntity
  8
0
100
AcDbBlockBegin
  2
*D11
 70
     1
 10
0.0
 20
0.0
 30
0.0
  3
*D11
  1

  0
LINE
  5
4FB
330
4E4
100
AcDbEntity
  8
Text
  6
ACAD_ISO10W100
 62
     5
370
    -2
100
AcDbLine
 10
0.2719438839007483
 20
0.1970560400174176
 30
0.0
 11
0.2704438839007483
 21
0.1970560400174176
 31
0.0
  0
LINE
  5
4FC
330
4E4
100
AcDbEntity
  8
Text
  6
ACAD_ISO10W100
 62
     5
370
    -2
100
AcDbLine
 10
0.2704438839007483
 20
0.1970560400174176
 30
0.0
 11
0.2679040154966245
 21
0.1954594597689697
 31
0.0
  0
MTEXT
  5
4FD
330
4E4
100
AcDbEntity
  8
Text
  6
ACAD_ISO10W100
 62
     4
100
AcDbMText
 10
0.2863724553293197
 20
0.1970560400174176
 30
0.0
 40
0.003
 41
0.0
 71
     5
 72
     1
  1
\A1;d 280 mm
  7
ROMANS
 73
     1
 44
1.0
1001
ACAD
1000
MTEXTBEGIN
1070
    73
1070
     1
1070
    44
1040
1.0
1070
    74
1070
     0
1000
MTEXTEND
  0
INSERT
  5
4FE
330
4E4
100
AcDbEntity
  8
Text
  6
ACAD_ISO10W100
 62
     5
370
    -2
100
AcDbBlockReference
  2
_ArchTick
 10
0.2679040154966245
 20
0.1954594597689697
 30
0.0
 41
0.0015
 42
0.0015
 43
0.0015
 50
212.1537752595364
  0
POINT
  5
4FF
330
4E4
100
AcDbEntity
  8
Defpoints
  6
ACAD_ISO10W100
 62
     0
100
AcDbPoint
 10
0.2679040154966245
 20
0.1954594597689697
 30
0.0
  0
POINT
  5
500
330
4E4
100
AcDbEntity
  8
Defpoints
  6
ACAD_ISO10W100
 62
     0
100
AcDbPoint
 10
0.1493768233041824
 20
0.1209523815080696
 30
0.0
  0
ENDBLK
  5
4EC
330
4E4
100
AcDbEntity
  8
0
100
AcDbBlockEnd
  0
BLOCK
  5
52C
330
525
100
AcDbEntity
  8
0
100
AcDbBlockBegin
  2
*D13
 70
     1
 10
0.0
 20
0.0
 30
0.0
  3
*D13
  1

  0
LINE
  5
53C
330
525
100
AcDbEntity
  8
Text
  6
ACAD_ISO10W100
 62
     5
370
    -2
100
AcDbLine
 10
0.2758442994853839
 20
0.2102749962840716
 30
0.0
 11
0.2743442994853838
 21
0.2102749962840716
 31
0.0
  0
LINE
  5
53D
330
525
100
AcDbEntity
  8
Text
  6
ACAD_ISO10W100
 62
     5
370
    -2
100
AcDbLine
 10
0.2743442994853838
 20
0.2102749962840716
 30
0.0
 11
0.2720543541117148
 21
0.2083369172904256
 31
0.0
  0
MTEXT
  5
53E
330
525
100
AcDbEntity
  8
Text
  6
ACAD_ISO10W100
 62
     4
100
AcDbMText
 10
0.2902728709139553
 20
0.2102749962840716
 30
0.0
 40
0.003
 41
0.0
 71
     5
 72
     1
  1
\A1;d 340 mm
  7
ROMANS
 73
     1
 44
1.0
1001
ACAD
1000
MTEXTBEGIN
1070
    73
1070
     1
1070
    44
1040
1.0
1070
    74
1070
     0
1000
MTEXTEND
  0
INSERT
  5
53F
330
525
100
AcDbEntity
  8
Text
  6
ACAD_ISO10W100
 62
     5
370
    -2
100
AcDbBlockReference
  2
_ArchTick
 10
0.2720543541117148
 20
0.2083369172904256
 30
0.0
 41
0.0015
 42
0.0015
 43
0.0015
 50
220.242669939943
  0
POINT
  5
540
330
525
100
AcDbEntity
  8
Defpoints
  6
ACAD_ISO10W100
 62
     0
100
AcDbPoint
 10
0.2720543541117148
 20
0.2083369172904256
 30
0.0
  0
POINT
  5
541
330
525
100
AcDbEntity
  8
Defpoints
  6
ACAD_ISO10W100
 62
     0
100
AcDbPoint
 10
0.1422907829371338
 20
0.0985124409838235
 30
0.0
  0
ENDBLK
  5
52D
330
525
100
AcDbEntity
  8
0
100
AcDbBlockEnd
  0
BLOCK
  5
5B9
330
5B2
100
AcDbEntity
  8
0
100
AcDbBlockBegin
  2
*D17
 70
     1
 10
0.0
 20
0.0
 30
0.0
  3
*D17
  1

  0
LINE
  5
5C9
330
5B2
100
AcDbEntity
  8
Text
  6
ACAD_ISO10W100
 62
     5
370
    -2
100
AcDbLine
 10
0.2339841855771125
 20
0.1851322658533807
 30
0.0
 11
0.2324841855771125
 21
0.1851322658533806
 31
0.0
  0
LINE
  5
5CA
330
5B2
100
AcDbEntity
  8
Text
  6
ACAD_ISO10W100
 62
     5
370
    -2
100
AcDbLine
 10
0.2324841855771125
 20
0.1851322658533806
 30
0.0
 11
0.2304491104323
 21
0.1829280723149256
 31
0.0
  0
MTEXT
  5
5CB
330
5B2
100
AcDbEntity
  8
Text
  6
ACAD_ISO10W100
 62
     4
100
AcDbMText
 10
0.2469841855771125
 20
0.1851322658533807
 30
0.0
 40
0.003
 41
0.0
 71
     5
 72
     1
  1
\A1;d 65 mm
  7
ROMANS
 73
     1
 44
1.0
1001
ACAD
1000
MTEXTBEGIN
1070
    73
1070
     1
1070
    44
1040
1.0
1070
    74
1070
     0
1000
MTEXTEND
  0
INSERT
  5
5CC
330
5B2
100
AcDbEntity
  8
Text
  6
ACAD_ISO10W100
 62
     5
370
    -2
100
AcDbBlockReference
  2
_ArchTick
 10
0.2304491104323
 20
0.1829280723149256
 30
0.0
 41
0.0015
 42
0.0015
 43
0.0015
 50
227.2845060028153
  0
POINT
  5
5CD
330
5B2
100
AcDbEntity
  8
Defpoints
  6
ACAD_ISO10W100
 62
     0
100
AcDbPoint
 10
0.2304491104323
 20
0.1829280723149256
 30
0.0
  0
POINT
  5
5CE
330
5B2
100
AcDbEntity
  8
Defpoints
  6
ACAD_ISO10W100
 62
     0
100
AcDbPoint
 10
0.1863558156280306
 20
0.1351705456484012
 30
0.0
  0
ENDBLK
  5
5BA
330
5B2
100
AcDbEntity
  8
0
100
AcDbBlockEnd
  0
BLOCK
  5
7BB
330
7B4
100
AcDbEntity
  8
0
100
AcDbBlockBegin
  2
*D19
 70
     1
 10
0.0
 20
0.0
 30
0.0
  3
*D19
  1

  0
LINE
  5
7CB
330
7B4
100
AcDbEntity
  8
Text
  6
ACAD_ISO10W100
 62
     5
370
    -2
100
AcDbLine
 10
0.2503141389346617
 20
0.1968373266487671
 30
0.0
 11
0.2488141389346617
 21
0.1968373266487671
 31
0.0
  0
LINE
  5
7CC
330
7B4
100
AcDbEntity
  8
Text
  6
ACAD_ISO10W100
 62
     5
370
    -2
100
AcDbLine
 10
0.2488141389346617
 20
0.1968373266487671
 30
0.0
 11
0.2466074539163463
 21
0.1948049533489173
 31
0.0
  0
MTEXT
  5
7CD
330
7B4
100
AcDbEntity
  8
Text
  6
ACAD_ISO10W100
 62
     4
100
AcDbMText
 10
0.2647427103632332
 20
0.1968373266487671
 30
0.0
 40
0.003
 41
0.0
 71
     5
 72
     1
  1
\A1;d 410 mm
  7
ROMANS
 73
     1
 44
1.0
1001
ACAD
1000
MTEXTBEGIN
1070
    73
1070
     1
1070
    44
1040
1.0
1070
    74
1070
     0
1000
MTEXTEND
  0
INSERT
  5
7CE
330
7B4
100
AcDbEntity
  8
Text
  6
ACAD_ISO10W100
 62
     5
370
    -2
100
AcDbBlockReference
  2
_ArchTick
 10
0.2466074539163463
 20
0.1948049533489173
 30
0.0
 41
0.0015
 42
0.0015
 43
0.0015
 50
222.645301951812
  0
POINT
  5
7CF
330
7B4
100
AcDbEntity
  8
Defpoints
  6
ACAD_ISO10W100
 62
     0
100
AcDbPoint
 10
0.2466074539163463
 20
0.1948049533489173
 30
0.0
  0
POINT
  5
7D0
330
7B4
100
AcDbEntity
  8
Defpoints
  6
ACAD_ISO10W100
 62
     0
100
AcDbPoint
 10
0.1712123824572375
 20
0.125365532270715
 30
0.0
  0
ENDBLK
  5
7BC
330
7B4
100
AcDbEntity
  8
0
100
AcDbBlockEnd
  0
ENDSEC
  0
SECTION
  2
ENTITIES
  0
LINE
  5
D
330
2
100
AcDbEntity
  8
Table
100
AcDbLine
 10
0.02
 20
0.02
 30
0.0
 11
0.4
 21
0.02
 31
0.0
  0
LINE
  5
10
330
2
100
AcDbEntity
  8
Table
100
AcDbLine
 10
0.4
 20
0.02
 30
0.0
 11
0.4
 21
0.2769999999999999
 31
0.0
  0
LINE
  5
11
330
2
100
AcDbEntity
  8
Table
100
AcDbLine
 10
0.4
 20
0.2769999999999999
 30
0.0
 11
0.02
 21
0.277
 31
0.0
  0
LINE
  5
12
330
2
100
AcDbEntity
  8
Table
100
AcDbLine
 10
0.02
 20
0.277
 30
0.0
 11
0.02
 21
0.02
 31
0.0
  0
LINE
  5
13
330
2
100
AcDbEntity
  8
Table
 62
     2
100
AcDbLine
 10
0.015
 20
0.015
 30
0.0
 11
0.4050000000000001
 21
0.015
 31
0.0
  0
LINE
  5
14
330
2
100
AcDbEntity
  8
Table
 62
     2
100
AcDbLine
 10
0.4050000000000001
 20
0.015
 30
0.0
 11
0.4050000000000001
 21
0.2819999999999998
 31
0.0
  0
LINE
  5
15
330
2
100
AcDbEntity
  8
Table
 62
     2
100
AcDbLine
 10
0.4050000000000001
 20
0.2819999999999998
 30
0.0
 11
0.0149999999999999
 21
0.282
 31
0.0
  0
LINE
  5
16
330
2
100
AcDbEntity
  8
Table
 62
     2
100
AcDbLine
 10
0.0149999999999999
 20
0.282
 30
0.0
 11
0.015
 21
0.015
 31
0.0
  0
LINE
  5
17
330
2
100
AcDbEntity
  8
Table
100
AcDbLine
 10
0.21
 20
0.2769999999999999
 30
0.0
 11
0.21
 21
0.2532994226089223
 31
0.0
  0
MTEXT
  5
18
102
{ACAD_XDICTIONARY
360
7D6
102
}
330
2
100
AcDbEntity
  8
Text
100
AcDbMText
 10
0.305
 20
0.0471738284815141
 30
0.0
 40
0.005
 41
0.1900000000000001
 71
     2
 72
     5
  3
{\fTimes New Roman|b0|i0|c238|p18;\H1.6x;\C4;Bovelacci\P\H0.4375x;\T0.95;via del Commercio, 5  47100 Forli - Italy  \fTimes New Roman|b0|i0|c0|p18;\P\fTimes New Roman|b0|i0|c238|p18;tel.+39-0543721386  fax +39-0543721127\fTimes New Roman|b0|i0|c0|p18
  1
; \fTimes New Roman|b0|i0|c238|p18;www.bovelacci.it\fTimes New Roman|b0|i0|c0|p18; \fTimes New Roman|b0|i0|c238|p18;e-mail: bovelacci@bovelacci\fTimes New Roman|b0|i0|c0|p18;.it}
 73
     1
 44
1.0
1001
ACAD
1000
ACAD_MTEXT_DEFINED_HEIGHT_BEGIN
1070
    46
1040
0.0271738284815141
1000
ACAD_MTEXT_DEFINED_HEIGHT_END
1000
MTEXTBEGIN
1070
    73
1070
     1
1070
    44
1040
1.0
1070
    74
1070
     0
1000
MTEXTEND
  0
MTEXT
  5
1C
330
2
100
AcDbEntity
  8
Text
100
AcDbMText
 10
0.0219676065851835
 20
0.0500313976452307
 30
0.0
 40
0.002
 41
0.1863544980601608
 71
     1
 72
     5
  3
{\fArial|b0|i0|c0|p34;\H1.25x;Le caratteristiche tecniche indicate vengono fornite a titolo indicativo e potranno essere modificate senza preavviso. Non devono quindi essere considerate a scopo di specifica.\P\fArial|b0|i1|c0|p34;The given values are
  3
 indicative and can be changed without notice. They cannot be considered like a state.\PThis lealfet and designs embodied within are protected by copyright law and international treaties. Unauthorized repro- duction of the leaflet or any portion of i
  1
t or reproduction of any of the designs embodied therein may result in severe civil penalties and will be prosecuted to the maximum.\PAll right reserved, Bovelacci Forlì Italy.}
 73
     1
 44
1.0
1001
ACAD
1000
MTEXTBEGIN
1070
    73
1070
     1
1070
    44
1040
1.0
1070
    74
1070
     0
1000
MTEXTEND
  0
LINE
  5
1D
330
2
100
AcDbEntity
  8
Table
100
AcDbLine
 10
0.02
 20
0.0528099428524846
 30
0.0
 11
0.4
 21
0.0528099428524846
 31
0.0
  0
MTEXT
  5
1E
330
2
100
AcDbEntity
  8
Text
100
AcDbMText
 10
0.1133313047219695
 20
0.2610796890771976
 30
0.0
 40
0.003
 41
0.1103605678262056
 71
     2
 72
     5
  1
{\fTimes New Roman|b0|i0|c0|p18;Rosoni\fTimes New Roman|b0|i1|c0|p18;   Ceiling centres}
 73
     1
 44
1.0
1001
ACAD
1000
ACAD_MTEXT_DEFINED_HEIGHT_BEGIN
1070
    46
1040
0.0141952763113409
1000
ACAD_MTEXT_DEFINED_HEIGHT_END
1000
MTEXTBEGIN
1070
    73
1070
     1
1070
    44
1040
1.0
1070
    74
1070
     0
1000
MTEXTEND
  0
TEXT
  5
1F
330
2
100
AcDbEntity
  8
Text
100
AcDbText
 10
0.2180556919891047
 20
0.269976982173197
 30
0.0
 40
0.003
  1
Rosone - Ceiling centre : D 410 mm
  7
ROMANS
100
AcDbText
  0
TEXT
  5
21
330
2
100
AcDbEntity
  8
Text
100
AcDbText
 10
0.2184542410678115
 20
0.2576348370183962
 30
0.0
 40
0.003
  1
File : E - C15
  7
ROMANS
100
AcDbText
  0
LINE
  5
22
330
2
100
AcDbEntity
  8
Table
100
AcDbLine
 10
0.4
 20
0.2654452889427402
 30
0.0
 11
0.02
 21
0.2654452889427403
 31
0.0
  0
LINE
  5
23
330
2
100
AcDbEntity
  8
Table
100
AcDbLine
 10
0.4
 20
0.2532994226089223
 30
0.0
 11
0.02
 21
0.2532994226089225
 31
0.0
  0
LINE
  5
24
330
2
100
AcDbEntity
  8
Table
100
AcDbLine
 10
0.21
 20
0.0528099428524846
 30
0.0
 11
0.21
 21
0.02
 31
0.0
  0
TEXT
  5
25
330
2
100
AcDbEntity
  8
Text
100
AcDbText
 10
0.0947789320547719
 20
0.2687784133392506
 30
0.0
 40
0.005
  1
EUROSTYL
  7
style1
 72
     1
 11
0.1140561490699125
 21
0.2687784133392506
 31
0.0
100
AcDbText
  0
TEXT
  5
252
330
2
100
AcDbEntity
  8
Text
  6
ACAD_ISO10W100
100
AcDbText
 10
0.2583518181972964
 20
0.0957523914651689
 30
0.0
 40
0.005
  1
scala 1 : 4
  7
style1
100
AcDbText
  0
CIRCLE
  5
6CA
330
2
100
AcDbEntity
  8
Profilo
  6
Continuous
370
     0
100
AcDbCircle
 10
0.2089099181867919
 20
0.1600852428098162
 30
0.0
 40
0.0406976052604796
  0
CIRCLE
  5
6CB
330
2
100
AcDbEntity
  8
Profilo
  6
Continuous
370
     0
100
AcDbCircle
 10
0.2089099181867919
 20
0.1600852428098162
 30
0.0
 40
0.0027144141069769
  0
CIRCLE
  5
6CC
330
2
100
AcDbEntity
  8
Profilo
  6
Continuous
370
     0
100
AcDbCircle
 10
0.2089099181867919
 20
0.1600852428098162
 30
0.0
 40
0.0061707108854455
  0
CIRCLE
  5
6CD
330
2
100
AcDbEntity
  8
Profilo
  6
Continuous
370
     0
100
AcDbCircle
 10
0.2089099181867919
 20
0.1600852428098162
 30
0.0
 40
0.0268442018295044
  0
CIRCLE
  5
6CE
330
2
100
AcDbEntity
  8
Profilo
  6
Continuous
370
     0
100
AcDbCircle
 10
0.2089099181867919
 20
0.1600852428098162
 30
0.0
 40
0.0282113027769033
  0
CIRCLE
  5
6CF
330
2
100
AcDbEntity
  8
Profilo
  6
Continuous
370
     0
100
AcDbCircle
 10
0.2089099181867919
 20
0.1600852428098162
 30
0.0
 40
0.0455516977492884
  0
CIRCLE
  5
6D0
330
2
100
AcDbEntity
  8
Profilo
  6
Continuous
370
     0
100
AcDbCircle
 10
0.2089099181867919
 20
0.1600852428098162
 30
0.0
 40
0.0474299953251807
  0
CIRCLE
  5
6D1
102
{ACAD_REACTORS
330
7C4
102
}
330
2
100
AcDbEntity
  8
Profilo
  6
Continuous
370
     0
100
AcDbCircle
 10
0.2089099181867919
 20
0.1600852428098162
 30
0.0
 40
0.05125
  0
LWPOLYLINE
  5
6D2
330
2
100
AcDbEntity
  8
Profilo
  6
Continuous
370
     0
100
AcDbPolyline
 90
       15
 70
   128
 43
0.0
 10
0.2001868794084729
 20
0.2003361461328315
 10
0.2014651289217968
 20
0.2006099249332938
 10
0.2028346808366737
 20
0.201248742134372
 10
0.2032911981416323
 20
0.2021613381359128
 10
0.2032911981416323
 20
0.2032564533377614
 10
0.2031085906899295
 20
0.2040777897391481
 10
0.202560770983417
 20
0.2046253473400727
 10
0.2019216462267555
 20
0.2047166069402267
 10
0.2031998957400785
 20
0.2046253473400727
 10
0.2043868402032534
 20
0.2043515685396104
 10
0.2051172673614678
 20
0.203986530138994
 10
0.2052085724116168
 20
0.2032564533377614
 10
0.2050259649599149
 20
0.202343857336221
 10
0.2042042327515505
 20
0.2015225209348342
 10
0.2035651079948881
 20
0.2010662229340638
  0
LWPOLYLINE
  5
6D3
330
2
100
AcDbEntity
  8
Profilo
  6
Continuous
370
     0
100
AcDbPolyline
 90
       15
 70
   128
 43
0.0
 10
0.1955730168131533
 20
0.1990513009321951
 10
0.1968108394817796
 20
0.1994716242493317
 10
0.1980969688260876
 20
0.2002651172698719
 10
0.1984444533951086
 20
0.2012245410480054
 10
0.1983173182800233
 20
0.2023122514726279
 10
0.1980405942182684
 20
0.2031068348598856
 10
0.1974329111150903
 20
0.2035870920860527
 10
0.1967875132984675
 20
0.2036035367659474
 10
0.1980677143387892
 20
0.2036612899415432
 10
0.1992784168868946
 20
0.2035271581770222
 10
0.2000462835296652
 20
0.2032493854528346
 10
0.2002217279511191
 20
0.2025348450390991
 10
0.2001463011549165
 20
0.201607220254038
 10
0.1994254765420911
 20
0.2006960401488715
 10
0.1988436462830114
 20
0.2001686296164549
  0
LWPOLYLINE
  5
6D4
330
2
100
AcDbEntity
  8
Profilo
  6
Continuous
370
     0
100
AcDbPolyline
 90
       15
 70
   128
 43
0.0
 10
0.1911395129296729
 20
0.1972395066410986
 10
0.1923201693254743
 20
0.197800690323103
 10
0.193505483406166
 20
0.1987381285312267
 10
0.1937392361065557
 20
0.1997314055252298
 10
0.1934866851607186
 20
0.2007970017550826
 10
0.1931195867071305
 20
0.2015540867509939
 10
0.1924602580787875
 20
0.2019605489472932
 10
0.1918173151005045
 20
0.2019019563208437
 10
0.193082155144918
 20
0.2021079412595638
 10
0.1943002431029319
 20
0.2021152704329983
 10
0.1950951651511776
 20
0.2019285197848197
 10
0.1953523763591083
 20
0.2012391786918942
 10
0.1953851502364305
 20
0.2003090696572052
 10
0.1947749811354698
 20
0.1993203679960663
 10
0.1942583136301057
 20
0.1987289772546903
  0
LWPOLYLINE
  5
6D5
330
2
100
AcDbEntity
  8
Profilo
  6
Continuous
370
     0
100
AcDbPolyline
 90
       15
 70
   128
 43
0.0
 10
0.1869463232924515
 20
0.1949252646692248
 10
0.1880538470630706
 20
0.1956197196694995
 10
0.1891223165405924
 20
0.1966884258216021
 10
0.1892391762680774
 20
0.1977021236640815
 10
0.1888646248097834
 20
0.1987311953381691
 10
0.1884121163411969
 20
0.1994405436669313
 10
0.1877100584763183
 20
0.1997677141294372
 10
0.1870782650371974
 20
0.1996348765614014
 10
0.1883106392939153
 20
0.1999863076703137
 10
0.189519640111816
 20
0.2001349986672061
 10
0.1903308676085109
 20
0.2000417955771851
 10
0.1906663672625728
 20
0.1993869759607982
 10
0.1908068986029525
 20
0.1984669608055881
 10
0.1903156365042113
 20
0.1974141080823423
 10
0.189871118794237
 20
0.1967667346772623
  0
LWPOLYLINE
  5
6D6
330
2
100
AcDbEntity
  8
Profilo
  6
Continuous
370
     0
100
AcDbPolyline
 90
       15
 70
   128
 43
0.0
 10
0.1830501535979823
 20
0.1921398711691985
 10
0.1840695673843611
 20
0.1929582061751913
 10
0.1850067430419708
 20
0.1941437278539136
 10
0.1850051294692092
 20
0.1951641380205321
 10
0.1845136426643947
 20
0.1961427687098185
 10
0.1839818435815756
 20
0.1967947876521606
 10
0.1832465506084155
 20
0.1970382419616233
 10
0.1826344506308903
 20
0.1968329558522285
 10
0.1838176933522082
 20
0.197325080628459
 10
0.1850012573679554
 20
0.1976131226581534
 10
0.1858178198528526
 20
0.1976147275381943
 10
0.1862270708957692
 20
0.1970032847103251
 10
0.1864734592539066
 20
0.1961058050612971
 10
0.1861077476345188
 20
0.1950030393028741
 10
0.1857413910593995
 20
0.1943084378488356
  0
LWPOLYLINE
  5
6D7
330
2
100
AcDbEntity
  8
Profilo
  6
Continuous
370
     0
100
AcDbPolyline
 90
       15
 70
   128
 43
0.0
 10
0.1795036928575675
 20
0.1889209938098101
 10
0.1804212108370342
 20
0.1898521422444053
 10
0.1812144189816724
 20
0.1911384473027861
 10
0.1810943539294663
 20
0.1921517704965373
 10
0.180492578294029
 20
0.1930667258997749
 10
0.1798886802672801
 20
0.1936525980180299
 10
0.1791300957619175
 20
0.193809043872556
 10
0.1785459668481348
 20
0.1935340853642664
 10
0.1796640767060806
 20
0.194160248664449
 10
0.1808061982467468
 20
0.1945837464526252
 10
0.1816170531130397
 20
0.1946801375994786
 10
0.1820945211265175
 20
0.1941203402754534
 10
0.1824434345225454
 20
0.1932575330052488
 10
0.1822082190047898
 20
0.1921197672267545
 10
0.1819249779087253
 20
0.1913873310168457
  0
LWPOLYLINE
  5
6D8
330
2
100
AcDbEntity
  8
Profilo
  6
Continuous
370
     0
100
AcDbPolyline
 90
       15
 70
   128
 43
0.0
 10
0.1763549008688241
 20
0.1853121623854128
 10
0.1771581151846935
 20
0.1863435320634028
 10
0.1777966290369399
 20
0.187713225432163
 10
0.1775597361791521
 20
0.1887057581951911
 10
0.1768558096962238
 20
0.1895446651101423
 10
0.1761879794103793
 20
0.1900564674889651
 10
0.1754163619269102
 20
0.1901237892267523
 10
0.1748681034183657
 20
0.1897828766617057
 10
0.1759059598952108
 20
0.1905346107013786
 10
0.1769911937262478
 20
0.191087837166955
 10
0.177785375552878
 20
0.1912777110557169
 10
0.1783246036011248
 20
0.1907771295340204
 10
0.1787713235799162
 20
0.1899606626308367
 10
0.1786697850501622
 20
0.1888032831626062
 10
0.1784734897830813
 20
0.1880429171400836
  0
LWPOLYLINE
  5
6D9
330
2
100
AcDbEntity
  8
Profilo
  6
Continuous
370
     0
100
AcDbPolyline
 90
       15
 70
   128
 43
0.0
 10
0.1736463596416995
 20
0.1813621801501297
 10
0.17432440819825
 20
0.1824798235659176
 10
0.1747995929536137
 20
0.1839143824919317
 10
0.1744490758597579
 20
0.1848727025212908
 10
0.1736525179274475
 20
0.1856242161710624
 10
0.1729297866414712
 20
0.1860550275612677
 10
0.1721555709826614
 20
0.1860323147713019
 10
0.1716505971351554
 20
0.1856300584071106
 10
0.1725941650024751
 20
0.1864971972729745
 10
0.1736078351980208
 20
0.1871726709770556
 10
0.1743746040381888
 20
0.1874534598891064
 10
0.1749682999868896
 20
0.1870188636760796
 10
0.1755067854270715
 20
0.1862597784541465
 10
0.1755402970197466
 20
0.185098436868022
 10
0.1754336021383953
 20
0.1843204236789444
  0
LWPOLYLINE
  5
6DA
330
2
100
AcDbEntity
  8
Profilo
  6
Continuous
370
     0
100
AcDbPolyline
 90
       15
 70
   128
 43
0.0
 10
0.1714146975498301
 20
0.177124463837562
 10
0.1719584109035159
 20
0.1783132667812486
 10
0.1722638405033516
 20
0.1797932913160049
 10
0.1718044393158176
 20
0.1807044389772804
 10
0.170926022013677
 20
0.1813583964289686
 10
0.1701581634283766
 20
0.1817023908455543
 10
0.1693918195328579
 20
0.1815899506793563
 10
0.1689369592514025
 20
0.1811317903432816
 10
0.1697734783724683
 20
0.1821026074697387
 10
0.1707018767820625
 20
0.1828911937892408
 10
0.1714308634025843
 20
0.1832591005362338
 10
0.1720709985325082
 20
0.1828963668001151
 10
0.1726939673422658
 20
0.1822049285848609
 10
0.1728620758705681
 20
0.1810553300335319
 10
0.1728464242401835
 20
0.1802701909716126
  0
LWPOLYLINE
  5
6DB
330
2
100
AcDbEntity
  8
Profilo
  6
Continuous
370
     0
100
AcDbPolyline
 90
       15
 70
   128
 43
0.0
 10
0.1696900939946293
 20
0.1726563212911032
 10
0.1700921193550731
 20
0.1739002072422474
 10
0.1702236633880034
 20
0.1754056825928715
 10
0.1696615907197565
 20
0.1762573361770037
 10
0.1687131931348855
 20
0.1768048937779281
 10
0.1679105912203804
 20
0.1770574192865264
 10
0.1671624825746882
 20
0.176856772304455
 10
0.1667638870642849
 20
0.1763489038290756
 10
0.167482044953019
 20
0.1774102705799117
 10
0.1683126165808242
 20
0.1783013052376706
 10
0.1689939626882222
 20
0.1787513545119909
 10
0.1696718802698778
 20
0.1784653886042975
 10
0.1703709078647526
 20
0.1778509479114323
 10
0.1706713399492241
 20
0.1767286387431878
 10
0.1707469432312563
 20
0.1759469914673457
  0
LWPOLYLINE
  5
6DC
330
2
100
AcDbEntity
  8
Profilo
  6
Continuous
370
     0
100
AcDbPolyline
 90
       15
 70
   128
 43
0.0
 10
0.1684958712806515
 20
0.1680181764736673
 10
0.1687507719445211
 20
0.1693003240086463
 10
0.1687066515031621
 20
0.1708108912036399
 10
0.1680495084228142
 20
0.1715915335569015
 10
0.1670439560055874
 20
0.1720252865298357
 10
0.1662174645759189
 20
0.1721829281561464
 10
0.1654977080661182
 20
0.1718967877644272
 10
0.1651607676472608
 20
0.1713460791996326
 10
0.1657508524502067
 20
0.1724836424103001
 10
0.1664723652397895
 20
0.1734650756911254
 10
0.1670968567967999
 20
0.1739911813483898
 10
0.1678033891578521
 20
0.1737858504674535
 10
0.1685690223887939
 20
0.1732567165532852
 10
0.1689977152008784
 20
0.1721768740743221
 10
0.1691635509906348
 20
0.17140928902306
  0
LWPOLYLINE
  5
6DD
330
2
100
AcDbEntity
  8
Profilo
  6
Continuous
370
     0
100
AcDbPolyline
 90
       15
 70
   128
 43
0.0
 10
0.1678481792214328
 20
0.1632727523372479
 10
0.1679525080945281
 20
0.1645758226101543
 10
0.1677333198321602
 20
0.1660710538195588
 10
0.1669899930725542
 20
0.1667701280933013
 10
0.1659408841944059
 20
0.1670842106733826
 10
0.1651016801283289
 20
0.1671448365848417
 10
0.1644200092264845
 20
0.1667770723414034
 10
0.1641492804403219
 20
0.1661909710758007
 10
0.1646033122728003
 20
0.1673893471553466
 10
0.1652060090014242
 20
0.1684479068577481
 10
0.1657652008310431
 20
0.1690429542214681
 10
0.1664907933333544
 20
0.1689210351152115
 10
0.1673126783243461
 20
0.1684843636082085
 10
0.1678638345291754
 20
0.1674615908356028
 10
0.1681176601820875
 20
0.166718448279959
  0
LWPOLYLINE
  5
6DE
330
2
100
AcDbEntity
  8
Profilo
  6
Continuous
370
     0
100
AcDbPolyline
 90
       15
 70
   128
 43
0.0
 10
0.1677557767409683
 20
0.1584842226025912
 10
0.1677081229542552
 20
0.1597905938233802
 10
0.1673168310161144
 20
0.1612502686101333
 10
0.1664973727965082
 20
0.1618583210240549
 10
0.1654188948552868
 20
0.1620484857831913
 10
0.1645783269481529
 20
0.162011276118349
 10
0.1639439600838159
 20
0.1615668614036905
 10
0.1637431040727517
 20
0.1609532934514497
 10
0.1640549429331124
 20
0.1621962764191933
 10
0.1645306731614398
 20
0.163317647339138
 10
0.1650170031534561
 20
0.1639735894145133
 10
0.1657518434031744
 20
0.1639367308296984
 10
0.1666188655696434
 20
0.1635984269628901
 10
0.1672850317250474
 20
0.1626465551438409
 10
0.1676234146845934
 20
0.1619379048120313
  0
LWPOLYLINE
  5
6DF
330
2
100
AcDbEntity
  8
Profilo
  6
Continuous
370
     0
100
AcDbPolyline
 90
       15
 70
   128
 43
0.0
 10
0.1682199134242925
 20
0.1537173439197128
 10
0.1680209214134865
 20
0.1550093496586819
 10
0.1674628173517807
 20
0.1564137284253414
 10
0.166578309438828
 20
0.1569225361136482
 10
0.1654850469985762
 20
0.1569862113996969
 10
0.1646544824893497
 20
0.1568516693554375
 10
0.164075998386114
 20
0.1563366141161884
 10
0.1639477313831315
 20
0.1557038769312976
 10
0.1641131601857426
 20
0.1569746575749171
 10
0.1644554904785436
 20
0.1581436750944066
 10
0.1648623818541071
 20
0.158851641390126
 10
0.1655965323974613
 20
0.158900341775882
 10
0.166496966751968
 20
0.1586649805287121
 10
0.1672691341034922
 20
0.1577968820966513
 10
0.1676874983206356
 20
0.1571323072687356
  0
LWPOLYLINE
  5
6E0
330
2
100
AcDbEntity
  8
Profilo
  6
Continuous
370
     0
100
AcDbPolyline
 90
       15
 70
   128
 43
0.0
 10
0.1692343126189819
 20
0.1490365801452952
 10
0.1688866734096621
 20
0.1502967482412399
 10
0.1681693046244066
 20
0.1516268391741758
 10
0.1672317084702712
 20
0.1520295213857347
 10
0.1661384460300195
 20
0.1519658460996859
 10
0.1653291168788666
 20
0.1517357911263533
 10
0.1648143385418497
 20
0.1511570606010554
 10
0.1647603951381236
 20
0.1505137108684899
 10
0.164777176742221
 20
0.1517951040597842
 10
0.1649814776695468
 20
0.1529959592222981
 10
0.1653034279208179
 20
0.1537463757087167
 10
0.1660269606311335
 20
0.1538799764758711
 10
0.166948630343714
 20
0.153750740705449
 10
0.1678163566525692
 20
0.1529781552024614
 10
0.1683090444689699
 20
0.1523666431129196
  0
LWPOLYLINE
  5
6E1
330
2
100
AcDbEntity
  8
Profilo
  6
Continuous
370
     0
100
AcDbPolyline
 90
       15
 70
   128
 43
0.0
 10
0.1707852563161147
 20
0.1445052305796124
 10
0.1702936711322167
 20
0.1457165194208332
 10
0.1694267388055988
 20
0.1469543353219272
 10
0.1684487337898333
 20
0.1472454464706216
 10
0.1673702558486119
 20
0.1470552817114852
 10
0.1665931068439115
 20
0.1467328249079382
 10
0.1661489957670261
 20
0.1460982454341433
 10
0.1661701054545539
 20
0.1454529833553797
 10
0.1660380129177297
 20
0.1467276604496461
 10
0.1661015216600135
 20
0.147944113749159
 10
0.1663341769621456
 20
0.1487268323306252
 10
0.1670373073007234
 20
0.1489435267579923
 10
0.1679677483696251
 20
0.1489221641564111
 10
0.1689192991260546
 20
0.1482555394760666
 10
0.1694796477841935
 20
0.1477053597768707
  0
LWPOLYLINE
  5
6E2
330
2
100
AcDbEntity
  8
Profilo
  6
Continuous
370
     0
100
AcDbPolyline
 90
       15
 70
   128
 43
0.0
 10
0.1728517706628045
 20
0.1401845739520832
 10
0.1722228873506346
 20
0.1413306029349489
 10
0.1712181152551626
 20
0.142459404467592
 10
0.170212927217855
 20
0.1426350077745324
 10
0.1691638183397066
 20
0.1423209251944511
 10
0.1684293590885606
 20
0.1419104272357882
 10
0.1680619211122567
 20
0.1412285804122686
 10
0.1681577984187277
 20
0.1405901320499856
 10
0.1678786180659408
 20
0.1418408552262118
 10
0.1678004757763907
 20
0.143056456218654
 10
0.167940689865538
 20
0.1438608919690948
 10
0.1686139092007581
 20
0.1441577496362799
 10
0.16954053900668
 20
0.1442445490960791
 10
0.1705630461190728
 20
0.1436929001935954
 10
0.1711834778646184
 20
0.1432114931213526
  0
LWPOLYLINE
  5
6E3
330
2
100
AcDbEntity
  8
Profilo
  6
Continuous
370
     0
100
AcDbPolyline
 90
       15
 70
   128
 43
0.0
 10
0.1754059095975855
 20
0.1361330397315782
 10
0.174648232725102
 20
0.13719831078009
 10
0.1735192086796966
 20
0.1382028328399938
 10
0.1725004310646663
 20
0.1382605535716983
 10
0.1714948786474395
 20
0.1378268005987642
 10
0.1708130414512665
 20
0.1373338127656737
 10
0.1705272455438405
 20
0.1366139194010201
 10
0.1706965938931593
 20
0.1359909186740698
 10
0.1702741011597519
 20
0.1372007740468931
 10
0.170055364578783
 20
0.1383990838141855
 10
0.1701012412999241
 20
0.1392143581200727
 10
0.1707354454951739
 20
0.139587364536382
 10
0.1716457329596104
 20
0.1397811522437706
 10
0.1727253687733665
 20
0.139351939224209
 10
0.1733974933313001
 20
0.1389458149837253
  0
LWPOLYLINE
  5
6E4
330
2
100
AcDbEntity
  8
Profilo
  6
Continuous
370
     0
100
AcDbPolyline
 90
       15
 70
   128
 43
0.0
 10
0.1784131327729483
 20
0.1324054179680878
 10
0.1775369086200691
 20
0.1333755251187698
 10
0.1762989007381226
 20
0.1342421832683157
 10
0.1752803107649161
 20
0.1341812408509072
 10
0.1743319131800451
 20
0.1336336832499829
 10
0.173711918717242
 20
0.1330648723571945
 10
0.1735116297780632
 20
0.1323166677741985
 10
0.1737521590243205
 20
0.1317175396986652
 10
0.1731920673997316
 20
0.1328701660496554
 10
0.1728356945643628
 20
0.1340349795078766
 10
0.1727866135135454
 20
0.134850067182813
 10
0.173373226045052
 20
0.1352941780763523
 10
0.1742548610916297
 20
0.1355923333850276
 10
0.1753770253844655
 20
0.1352913606181696
 10
0.1760917534231601
 20
0.1349660113430981
  0
LWPOLYLINE
  5
6E5
330
2
100
AcDbEntity
  8
Profilo
  6
Continuous
370
     0
100
AcDbPolyline
 90
       15
 70
   128
 43
0.0
 10
0.1818327726542901
 20
0.1290521183512883
 10
0.1808498506495335
 20
0.1299139425691307
 10
0.1795196008638655
 20
0.1306310167435842
 10
0.1785149732144975
 20
0.1304522353187123
 10
0.177636555912356
 20
0.129798277867024
 10
0.1770867885444425
 20
0.129161336106077
 10
0.1769747151378198
 20
0.1283949384881907
 10
0.1772831725355852
 20
0.1278277852435012
 10
0.1765930562982094
 20
0.1289075952785732
 10
0.1761038665396859
 20
0.1300231603239194
 10
0.1759604914539257
 20
0.1308270387053713
 10
0.1764915793935249
 20
0.1313362482381706
 10
0.1773326394206685
 20
0.1317347391090634
 10
0.1784821568455783
 20
0.131566076735267
 10
0.1792298228944154
 20
0.1313259022164213
  0
LWPOLYLINE
  5
6E6
330
2
100
AcDbEntity
  8
Profilo
  6
Continuous
370
     0
100
AcDbPolyline
 90
       15
 70
   128
 43
0.0
 10
0.1856185844785509
 20
0.1261184885059656
 10
0.1845422569558457
 20
0.1268603750968676
 10
0.1831377546127861
 20
0.1274181680981483
 10
0.1821606751527904
 20
0.1271239653778878
 10
0.1813641172204792
 20
0.1263724517281162
 10
0.1808920116079895
 20
0.125675992643664
 10
0.1808696693344889
 20
0.1249017662039264
 10
0.1812418835266094
 20
0.1243742575647731
 10
0.1804310753146743
 20
0.1253666487055991
 10
0.1798156840852842
 20
0.126417879234566
 10
0.1795799538666574
 20
0.1271996772464646
 10
0.180048335161038
 20
0.1277670992331335
 10
0.1808374462747067
 20
0.1282605367608196
 10
0.1819987715804976
 20
0.1282264656493528
 10
0.1827692647387746
 20
0.128074713835085
  0
LWPOLYLINE
  5
6E7
330
2
100
AcDbEntity
  8
Profilo
  6
Continuous
370
     0
100
AcDbPolyline
 90
       15
 70
   128
 43
0.0
 10
0.1897193716353087
 20
0.1236442007431826
 10
0.1885641940779765
 20
0.1242561169636969
 10
0.1871044326623139
 20
0.1246470855983474
 10
0.1861681147152228
 20
0.1242414401697898
 10
0.1854641882322945
 20
0.1234025332548385
 10
0.1850761287937479
 20
0.1226559752612339
 10
0.1851438197942896
 20
0.1218843900840696
 10
0.1855747572223454
 20
0.1214036596998645
 10
0.184654221825989
 20
0.1222952115586958
 10
0.1839209512364148
 20
0.1232678914817481
 10
0.1835960537317371
 20
0.1240170366471444
 10
0.1839953943273935
 20
0.1246349976787164
 10
0.1847218851534829
 20
0.1252167089671182
 10
0.185879313407628
 20
0.1253176898713149
 10
0.1866622140771483
 20
0.1252564129445852
  0
LWPOLYLINE
  5
6E8
330
2
100
AcDbEntity
  8
Profilo
  6
Continuous
370
     0
100
AcDbPolyline
 90
       15
 70
   128
 43
0.0
 10
0.1940796780131022
 20
0.1216627155603307
 10
0.1928612722159173
 20
0.122136386293307
 10
0.1913659924966018
 20
0.1223552433812441
 10
0.1904830981564107
 20
0.1218436409029324
 10
0.1898813225209734
 20
0.1209286854996948
 10
0.1895825570945659
 20
0.1201421245130931
 10
0.1897393659644904
 20
0.1193836149643814
 10
0.1902231989390331
 20
0.1189561638888854
 10
0.1892053850203263
 20
0.1197348197562744
 10
0.1883641512973802
 20
0.1206157952460695
 10
0.1879544801880455
 20
0.121322156661748
 10
0.1882793796884841
 20
0.1219822998753733
 10
0.1889334256848534
 20
0.1226444182772314
 10
0.1900713046557654
 20
0.1228790856035936
 10
0.1908560254480272
 20
0.1229091122297163
  0
LWPOLYLINE
  5
6E9
330
2
100
AcDbEntity
  8
Profilo
  6
Continuous
370
     0
100
AcDbPolyline
 90
       15
 70
   128
 43
0.0
 10
0.1986405379482072
 20
0.1202008291453014
 10
0.1973753807594198
 20
0.1205298488066509
 10
0.195864803829527
 20
0.1205736346812061
 10
0.1950472727275969
 20
0.1199629936990136
 10
0.1945557859227824
 20
0.1189843630097273
 10
0.1943503547983785
 20
0.1181684359181396
 10
0.1945941609667232
 20
0.1174332595383158
 10
0.1951243464767807
 20
0.1170648683140397
 10
0.1940230182229314
 20
0.1177200982051514
 10
0.193085197609592
 20
0.1184974555794891
 10
0.1925962929945701
 20
0.1191514809190544
 10
0.1928423576914071
 20
0.1198448790102339
 10
0.1934151140079614
 20
0.1205784505100164
 10
0.1945180558345714
 20
0.1209436307855232
 10
0.1952939847470365
 20
0.1210645549058902
  0
LWPOLYLINE
  5
6EA
330
2
100
AcDbEntity
  8
Profilo
  6
Continuous
370
     0
100
AcDbPolyline
 90
       15
 70
   128
 43
0.0
 10
0.2033402736340817
 20
0.1192783110040158
 10
0.2020454741343152
 20
0.1194582301672466
 10
0.2005400279554508
 20
0.1193263526995804
 10
0.199798915797474
 20
0.1186249310852466
 10
0.1994243643391791
 20
0.117595859411159
 10
0.1993150456203241
 20
0.1167616002287893
 10
0.1996425520269078
 20
0.1160596990172072
 10
0.2002119202229802
 20
0.1157553495034903
 10
0.1990419712093117
 20
0.1162782925580837
 10
0.1980202461205576
 20
0.1169415193920201
 10
0.1974587195960595
 20
0.1175343640847244
 10
0.1976226218863897
 20
0.1182516400337881
 10
0.1981063429765009
 20
0.1190467443353907
 10
0.1991594322626835
 20
0.1195374991232767
 10
0.1999160761879033
 20
0.1197476854466034
  0
LWPOLYLINE
  5
6EB
330
2
100
AcDbEntity
  8
Profilo
  6
Continuous
370
     0
100
AcDbPolyline
 90
       15
 70
   128
 43
0.0
 10
0.208115329207897
 20
0.1189076366117698
 10
0.2068083973391765
 20
0.1189360221788477
 10
0.2053284404883409
 20
0.1186302647854767
 10
0.2046737695448881
 20
0.1178475480630579
 10
0.204421218599051
 20
0.1167819518332051
 10
0.2044094906338814
 20
0.1159406424843367
 10
0.2048162683163872
 20
0.1152815084507829
 10
0.2054171194703642
 20
0.1150453164526912
 10
0.2041943712502567
 20
0.1154289007630535
 10
0.2031025587651618
 20
0.1159690280514147
 10
0.2024760040141411
 20
0.1164926748898047
 10
0.2025555274006605
 20
0.1172241287700168
 10
0.2029436717664004
 20
0.1180700134517489
 10
0.2039326672861181
 20
0.1186797061353897
 10
0.2046597939130141
 20
0.1189763122522245
  0
LWPOLYLINE
  5
6EC
330
2
100
AcDbEntity
  8
Profilo
  6
Continuous
370
     0
100
AcDbPolyline
 90
       15
 70
   128
 43
0.0
 10
0.2129011302345465
 20
0.1190938187038324
 10
0.2115997400083771
 20
0.1189702868086576
 10
0.210165286363136
 20
0.1184947843338052
 10
0.2096059099356398
 20
0.1176413574042343
 10
0.2094787748205544
 20
0.1165536469796119
 10
0.2095647962096809
 20
0.1157166647299357
 10
0.2100453441977736
 20
0.1151092115314801
 10
0.2106695528285487
 20
0.1149443711406044
 10
0.2094105409740747
 20
0.1151834093869705
 10
0.2082634059835124
 20
0.1155931328347609
 10
0.2075802960841317
 20
0.1160405003936552
 10
0.2075743651494586
 20
0.1167762405460831
 10
0.2078616838041365
 20
0.1176614664687259
 10
0.2087732110895903
 20
0.1183818520004934
 10
0.2094609872779085
 20
0.118760866821929
  0
LWPOLYLINE
  5
6ED
330
2
100
AcDbEntity
  8
Profilo
  6
Continuous
370
     0
100
AcDbPolyline
 90
       15
 70
   128
 43
0.0
 10
0.217632956965111
 20
0.119834339486801
 10
0.2163547074517871
 20
0.1195605606863388
 10
0.2149851555369102
 20
0.1189217434852605
 10
0.2145286382319507
 20
0.1180091474837197
 10
0.2145286382319507
 20
0.1169140322818711
 10
0.2147112456836535
 20
0.1160926958804844
 10
0.2152590653901669
 20
0.1155451382795599
 10
0.2158981901468284
 20
0.1154538786794058
 10
0.2146199406335045
 20
0.1155451382795599
 10
0.2134329961703305
 20
0.1158189170800221
 10
0.2127025690121151
 20
0.1161839554806384
 10
0.2126112639619662
 20
0.1169140322818711
 10
0.212793871413669
 20
0.1178266282834116
 10
0.2136156036220334
 20
0.1186479646847983
 10
0.2142547283786949
 20
0.1191042626855687
  0
LWPOLYLINE
  5
6EE
330
2
100
AcDbEntity
  8
Profilo
  6
Continuous
370
     0
100
AcDbPolyline
 90
       15
 70
   128
 43
0.0
 10
0.2222468195604297
 20
0.1211191846874373
 10
0.2210089968918034
 20
0.1206988613703007
 10
0.2197228675474954
 20
0.1199053683497606
 10
0.2193753829784752
 20
0.118945944571627
 10
0.2195025180935606
 20
0.1178582341470046
 10
0.2197792421553155
 20
0.1170636507597468
 10
0.2203869252584936
 20
0.1165833935335797
 10
0.2210323230751154
 20
0.1165669488536849
 10
0.2197521220347947
 20
0.1165091956780892
 10
0.2185414194866893
 20
0.1166433274426102
 10
0.2177735528439177
 20
0.1169211001667977
 10
0.2175981084224638
 20
0.1176356405805333
 10
0.2176735352186665
 20
0.1185632653655944
 10
0.2183943598314919
 20
0.1194744454707611
 10
0.2189761900905724
 20
0.1200018560031776
  0
LWPOLYLINE
  5
6EF
330
2
100
AcDbEntity
  8
Profilo
  6
Continuous
370
     0
100
AcDbPolyline
 90
       15
 70
   128
 43
0.0
 10
0.226680323443911
 20
0.122930978978534
 10
0.2254996670481095
 20
0.1223697952965295
 10
0.2243143529674179
 20
0.1214323570884058
 10
0.2240806002670272
 20
0.1204390800944028
 10
0.2243331512128652
 20
0.11937348386455
 10
0.2247002496664525
 20
0.1186163988686386
 10
0.2253595782947964
 20
0.1182099366723394
 10
0.2260025212730794
 20
0.1182685292987888
 10
0.2247376812286659
 20
0.1180625443600688
 10
0.223519593270652
 20
0.1180552151866342
 10
0.2227246712224054
 20
0.1182419658348128
 10
0.2224674600144747
 20
0.1189313069277383
 10
0.2224346861371524
 20
0.1198614159624273
 10
0.2230448552381132
 20
0.1208501176235662
 10
0.2235615227434782
 20
0.1214415083649423
  0
LWPOLYLINE
  5
6F0
330
2
100
AcDbEntity
  8
Profilo
  6
Continuous
370
     0
100
AcDbPolyline
 90
       15
 70
   128
 43
0.0
 10
0.2308735130811323
 20
0.1252452209504078
 10
0.2297659893105133
 20
0.1245507659501329
 10
0.2286975198329915
 20
0.1234820597980304
 10
0.2285806601055056
 20
0.1224683619555511
 10
0.2289552115638005
 20
0.1214392902814634
 10
0.229407720032387
 20
0.1207299419527012
 10
0.2301097778972647
 20
0.1204027714901954
 10
0.2307415713363856
 20
0.120535609058231
 10
0.2295091970796685
 20
0.1201841779493189
 10
0.228300196261767
 20
0.1200354869524264
 10
0.227488968765073
 20
0.1201286900424474
 10
0.2271534691110111
 20
0.1207835096588343
 10
0.2270129377706314
 20
0.1217035248140444
 10
0.2275041998693725
 20
0.1227563775372903
 10
0.227948717579346
 20
0.1234037509423702
  0
LWPOLYLINE
  5
6F1
330
2
100
AcDbEntity
  8
Profilo
  6
Continuous
370
     0
100
AcDbPolyline
 90
       15
 70
   128
 43
0.0
 10
0.2347696827756016
 20
0.128030614450434
 10
0.2337502689892219
 20
0.1272122794444412
 10
0.2328130933316121
 20
0.1260267577657189
 10
0.2328147069043738
 20
0.1250063475991004
 10
0.2333061937091891
 20
0.1240277169098141
 10
0.2338379927920082
 20
0.1233756979674719
 10
0.2345732857651674
 20
0.1231322436580092
 10
0.2351853857426935
 20
0.1233375297674041
 10
0.2340021430213757
 20
0.1228454049911735
 10
0.2328185790056285
 20
0.1225573629614791
 10
0.2320020165207304
 20
0.1225557580814383
 10
0.2315927654778138
 20
0.1231672009093074
 10
0.2313463771196764
 20
0.1240646805583354
 10
0.2317120887390642
 20
0.1251674463167585
 10
0.2320784453141835
 20
0.1258620477707969
  0
LWPOLYLINE
  5
6F2
330
2
100
AcDbEntity
  8
Profilo
  6
Continuous
370
     0
100
AcDbPolyline
 90
       15
 70
   128
 43
0.0
 10
0.2383161435160164
 20
0.1312494918098224
 10
0.2373986255365497
 20
0.1303183433752271
 10
0.2366054173919114
 20
0.1290320383168463
 10
0.2367254824441167
 20
0.1280187151230951
 10
0.2373272580795549
 20
0.1271037597198575
 10
0.2379311561063038
 20
0.1265178876016024
 10
0.2386897406116664
 20
0.1263614417470764
 10
0.239273869525449
 20
0.126636400255366
 10
0.2381557596675023
 20
0.1260102369551834
 10
0.2370136381268371
 20
0.1255867391670072
 10
0.2362027832605442
 20
0.1254903480201538
 10
0.2357253152470655
 20
0.1260501453441789
 10
0.2353764018510385
 20
0.1269129526143835
 10
0.2356116173687941
 20
0.128050718392878
 10
0.2358948584648577
 20
0.1287831546027867
  0
LWPOLYLINE
  5
6F3
330
2
100
AcDbEntity
  8
Profilo
  6
Continuous
370
     0
100
AcDbPolyline
 90
       15
 70
   128
 43
0.0
 10
0.2414649355047589
 20
0.1348583232342197
 10
0.2406617211888904
 20
0.1338269535562297
 10
0.2400232073366439
 20
0.1324572601874695
 10
0.2402601001944318
 20
0.1314647274244414
 10
0.2409640266773592
 20
0.1306258205094901
 10
0.2416318569632045
 20
0.1301140181306674
 10
0.2424034744466736
 20
0.1300466963928802
 10
0.2429517329552173
 20
0.1303876089579268
 10
0.241913876478373
 20
0.129635874918254
 10
0.2408286426473352
 20
0.1290826484526775
 10
0.2400344608207059
 20
0.1288927745639156
 10
0.2394952327724582
 20
0.1293933560856122
 10
0.2390485127936677
 20
0.1302098229887958
 10
0.2391500513234208
 20
0.1313672024570263
 10
0.2393463465905017
 20
0.132127568479549
  0
LWPOLYLINE
  5
6F4
330
2
100
AcDbEntity
  8
Profilo
  6
Continuous
370
     0
100
AcDbPolyline
 90
       15
 70
   128
 43
0.0
 10
0.2441734767318844
 20
0.1388083054695028
 10
0.2434954281753339
 20
0.1376906620537149
 10
0.2430202434199702
 20
0.1362561031277008
 10
0.2433707605138251
 20
0.1352977830983417
 10
0.2441673184461355
 20
0.1345462694485702
 10
0.2448900497321127
 20
0.1341154580583648
 10
0.2456642653909224
 20
0.1341381708483306
 10
0.2461692392384285
 20
0.1345404272125219
 10
0.2452256713711078
 20
0.1336732883466579
 10
0.2442120011755622
 20
0.1329978146425769
 10
0.2434452323353951
 20
0.1327170257305261
 10
0.2428515363866943
 20
0.1331516219435529
 10
0.2423130509465123
 20
0.133910707165486
 10
0.2422795393538364
 20
0.1350720487516105
 10
0.2423862342351877
 20
0.1358500619406881
  0
LWPOLYLINE
  5
6F5
330
2
100
AcDbEntity
  8
Profilo
  6
Continuous
370
     0
100
AcDbPolyline
 90
       15
 70
   128
 43
0.0
 10
0.2464051388237529
 20
0.1430460217820704
 10
0.2458614254700671
 20
0.1418572188383838
 10
0.2455559958702314
 20
0.1403771943036275
 10
0.2460153970577654
 20
0.139466046642352
 10
0.2468938143599069
 20
0.1388120891906638
 10
0.2476616729452064
 20
0.1384680947740781
 10
0.2484280168407251
 20
0.1385805349402761
 10
0.2488828771221805
 20
0.1390386952763507
 10
0.2480463580011147
 20
0.1380678781498936
 10
0.2471179595915205
 20
0.1372792918303916
 10
0.2463889729709996
 20
0.1369113850833985
 10
0.2457488378410757
 20
0.1372741188195173
 10
0.245125869031318
 20
0.1379655570347714
 10
0.2449577605030149
 20
0.1391151555861005
 10
0.2449734121334004
 20
0.1399002946480198
  0
LWPOLYLINE
  5
6F6
330
2
100
AcDbEntity
  8
Profilo
  6
Continuous
370
     0
100
AcDbPolyline
 90
       15
 70
   128
 43
0.0
 10
0.2481297423789537
 20
0.1475141643285293
 10
0.2477277170185099
 20
0.1462702783773851
 10
0.2475961729855796
 20
0.144764803026761
 10
0.2481582456538265
 20
0.1439131494426286
 10
0.2491066432386983
 20
0.1433655918417043
 10
0.2499092451532034
 20
0.1431130663331059
 10
0.2506573537988956
 20
0.1433137133151775
 10
0.251055949309299
 20
0.1438215817905568
 10
0.2503377914205649
 20
0.1427602150397207
 10
0.2495072197927597
 20
0.1418691803819617
 10
0.2488258736853617
 20
0.1414191311076416
 10
0.2481479561037061
 20
0.1417050970153348
 10
0.2474489285088313
 20
0.1423195377082001
 10
0.2471484964243589
 20
0.1434418468764447
 10
0.2470728931423267
 20
0.1442234941522867
  0
LWPOLYLINE
  5
6F7
330
2
100
AcDbEntity
  8
Profilo
  6
Continuous
370
     0
100
AcDbPolyline
 90
       15
 70
   128
 43
0.0
 10
0.2493239650929324
 20
0.1521523091459649
 10
0.2490690644290618
 20
0.150870161610986
 10
0.2491131848704218
 20
0.1493595944159925
 10
0.2497703279507697
 20
0.1485789520627308
 10
0.2507758803679965
 20
0.1481451990897967
 10
0.2516023717976641
 20
0.1479875574634859
 10
0.2523221283074648
 20
0.1482736978552052
 10
0.2526590687263222
 20
0.1488244064199997
 10
0.2520689839233763
 20
0.1476868432093322
 10
0.2513474711337944
 20
0.1467054099285069
 10
0.250722979576784
 20
0.1461793042712425
 10
0.2500164472157318
 20
0.1463846351521789
 10
0.24925081398479
 20
0.1469137690663471
 10
0.2488221211727055
 20
0.1479936115453102
 10
0.248656285382949
 20
0.1487611965965724
  0
LWPOLYLINE
  5
6F8
330
2
100
AcDbEntity
  8
Profilo
  6
Continuous
370
     0
100
AcDbPolyline
 90
       15
 70
   128
 43
0.0
 10
0.2499716571521511
 20
0.1568977332823845
 10
0.2498673282790558
 20
0.155594663009478
 10
0.2500865165414228
 20
0.1540994318000736
 10
0.2508298433010296
 20
0.1534003575263311
 10
0.251878952179178
 20
0.1530862749462498
 10
0.2527181562452541
 20
0.1530256490347908
 10
0.2533998271470994
 20
0.1533934132782291
 10
0.253670555933261
 20
0.1539795145438318
 10
0.2532165241007827
 20
0.1527811384642857
 10
0.2526138273721588
 20
0.1517225787618843
 10
0.2520546355425399
 20
0.1511275313981643
 10
0.2513290430402286
 20
0.1512494505044208
 10
0.2505071580492377
 20
0.1516861220114238
 10
0.2499560018444076
 20
0.1527088947840296
 10
0.2497021761914955
 20
0.1534520373396735
  0
LWPOLYLINE
  5
6F9
330
2
100
AcDbEntity
  8
Profilo
  6
Continuous
370
     0
100
AcDbPolyline
 90
       15
 70
   128
 43
0.0
 10
0.2500640596326147
 20
0.1616862630170411
 10
0.2501117134193287
 20
0.1603798917962521
 10
0.2505030053574695
 20
0.158920217009499
 10
0.2513224635770748
 20
0.1583121645955773
 10
0.2524009415182971
 20
0.1581219998364409
 10
0.2532415094254301
 20
0.1581592095012834
 10
0.2538758762897679
 20
0.1586036242159418
 10
0.2540767323008322
 20
0.1592171921681825
 10
0.2537648934404715
 20
0.157974209200439
 10
0.2532891632121441
 20
0.1568528382804942
 10
0.2528028332201269
 20
0.156196896205119
 10
0.2520679929704086
 20
0.1562337547899338
 10
0.2512009708039404
 20
0.1565720586567422
 10
0.2505348046485365
 20
0.1575239304757914
 10
0.2501964216889896
 20
0.158232580807601
  0
LWPOLYLINE
  5
6FA
330
2
100
AcDbEntity
  8
Profilo
  6
Continuous
370
     0
100
AcDbPolyline
 90
       15
 70
   128
 43
0.0
 10
0.2495999229492904
 20
0.1664531416999196
 10
0.2497989149600965
 20
0.1651611359609504
 10
0.2503570190218032
 20
0.1637567571942908
 10
0.251241526934755
 20
0.1632479495059842
 10
0.2523347893750076
 20
0.1631842742199355
 10
0.2531653538842342
 20
0.1633188162641949
 10
0.253743837987469
 20
0.163833871503444
 10
0.2538721049904524
 20
0.1644666086883348
 10
0.2537066761878413
 20
0.1631958280447152
 10
0.2533643458950403
 20
0.1620268105252257
 10
0.2529574545194768
 20
0.1613188442295064
 10
0.2522233039761217
 20
0.1612701438437503
 10
0.251322869621615
 20
0.1615055050909202
 10
0.2505507022700917
 20
0.162373603522981
 10
0.2501323380529483
 20
0.1630381783508968
  0
LWPOLYLINE
  5
6FB
330
2
100
AcDbEntity
  8
Profilo
  6
Continuous
370
     0
100
AcDbPolyline
 90
       15
 70
   128
 43
0.0
 10
0.2485855237546011
 20
0.1711339054743372
 10
0.2489331629639218
 20
0.1698737373783923
 10
0.2496505317491764
 20
0.1685436464454564
 10
0.2505881279033117
 20
0.1681409642338976
 10
0.2516813903435644
 20
0.1682046395199463
 10
0.2524907194947163
 20
0.168434694493279
 10
0.2530054978317342
 20
0.1690134250185768
 10
0.2530594412354603
 20
0.1696567747511424
 10
0.2530426596313628
 20
0.168375381559848
 10
0.252838358704037
 20
0.1671745263973342
 10
0.2525164084527651
 20
0.1664241099109156
 10
0.2517928757424495
 20
0.1662905091437612
 10
0.250871206029869
 20
0.1664197449141832
 10
0.2500034797210138
 20
0.1671923304171709
 10
0.249510791904614
 20
0.1678038425067127
  0
LWPOLYLINE
  5
6FC
330
2
100
AcDbEntity
  8
Profilo
  6
Continuous
370
     0
100
AcDbPolyline
 90
       15
 70
   128
 43
0.0
 10
0.2470345800574691
 20
0.1756652550400198
 10
0.2475261652413672
 20
0.174453966198799
 10
0.2483930975679851
 20
0.1732161502977051
 10
0.2493711025837497
 20
0.1729250391490106
 10
0.250449580524972
 20
0.1731152039081471
 10
0.2512267295296724
 20
0.1734376607116941
 10
0.2516708406065569
 20
0.1740722401854889
 10
0.25164973091903
 20
0.1747175022642524
 10
0.2517818234558533
 20
0.1734428251699862
 10
0.2517183147135695
 20
0.1722263718704733
 10
0.2514856594114383
 20
0.1714436532890069
 10
0.2507825290728605
 20
0.1712269588616399
 10
0.2498520880039587
 20
0.171248321463221
 10
0.2489005372475292
 20
0.1719149461435656
 10
0.2483401885893903
 20
0.1724651258427614
  0
LWPOLYLINE
  5
6FD
330
2
100
AcDbEntity
  8
Profilo
  6
Continuous
370
     0
100
AcDbPolyline
 90
       15
 70
   128
 43
0.0
 10
0.2449680657107793
 20
0.179985911667549
 10
0.2455969490229484
 20
0.1788398826846833
 10
0.2466017211184213
 20
0.1777110811520403
 10
0.2476069091557289
 20
0.1775354778450998
 10
0.2486560180338773
 20
0.1778495604251811
 10
0.2493904772850233
 20
0.1782600583838441
 10
0.2497579152613263
 20
0.1789419052073637
 10
0.2496620379548562
 20
0.1795803535696466
 10
0.249941218307643
 20
0.1783296303934204
 10
0.2500193605971923
 20
0.1771140294009783
 10
0.2498791465080459
 20
0.1763095936505374
 10
0.2492059271728257
 20
0.1760127359833522
 10
0.248279297366903
 20
0.175925936523553
 10
0.2472567902545102
 20
0.1764775854260368
 10
0.2466363585089655
 20
0.1769589924982796
  0
LWPOLYLINE
  5
6FE
330
2
100
AcDbEntity
  8
Profilo
  6
Continuous
370
     0
100
AcDbPolyline
 90
       15
 70
   128
 43
0.0
 10
0.2424139267759984
 20
0.1840374458880543
 10
0.2431716036484819
 20
0.1829721748395424
 10
0.2443006276938873
 20
0.1819676527796385
 10
0.2453194053089176
 20
0.181909932047934
 10
0.2463249577261444
 20
0.1823436850208682
 10
0.2470067949223174
 20
0.1828366728539586
 10
0.2472925908297434
 20
0.1835565662186123
 10
0.2471232424804237
 20
0.1841795669455626
 10
0.2475457352138319
 20
0.1829697115727393
 10
0.2477644717948009
 20
0.1817714018054469
 10
0.2477185950736598
 20
0.1809561274995597
 10
0.247084390878409
 20
0.1805831210832504
 10
0.2461741034139726
 20
0.1803893333758618
 10
0.2450944676002165
 20
0.1808185463954234
 10
0.2444223430422838
 20
0.181224670635907
  0
LWPOLYLINE
  5
6FF
330
2
100
AcDbEntity
  8
Profilo
  6
Continuous
370
     0
100
AcDbPolyline
 90
       15
 70
   128
 43
0.0
 10
0.2394067036006355
 20
0.1877650676515445
 10
0.2402829277535148
 20
0.1867949605008625
 10
0.2415209356354613
 20
0.1859283023513166
 10
0.2425395256086678
 20
0.1859892447687251
 10
0.2434879231935387
 20
0.1865368023696494
 10
0.244107917656341
 20
0.1871056132624377
 10
0.2443082065955207
 20
0.1878538178454338
 10
0.2440676773492625
 20
0.1884529459209672
 10
0.2446277689738514
 20
0.187300319569977
 10
0.2449841418092211
 20
0.1861355061117557
 10
0.2450332228600376
 20
0.1853204184368193
 10
0.244446610328531
 20
0.1848763075432801
 10
0.2435649752819542
 20
0.1845781522346047
 10
0.2424428109891175
 20
0.1848791250014626
 10
0.2417280829504238
 20
0.1852044742765342
  0
LWPOLYLINE
  5
700
330
2
100
AcDbEntity
  8
Profilo
  6
Continuous
370
     0
100
AcDbPolyline
 90
       15
 70
   128
 43
0.0
 10
0.2359870637192938
 20
0.191118367268344
 10
0.2369699857240504
 20
0.1902565430505015
 10
0.2383002355097175
 20
0.1895394688760481
 10
0.2393048631590864
 20
0.1897182503009199
 10
0.2401832804612278
 20
0.1903722077526083
 10
0.2407330478291405
 20
0.1910091495135553
 10
0.2408451212357632
 20
0.1917755471314416
 10
0.2405366638379986
 20
0.192342700376131
 10
0.2412267800753745
 20
0.1912628903410591
 10
0.2417159698338971
 20
0.1901473252957129
 10
0.2418593449196582
 20
0.189343446914261
 10
0.241328256980059
 20
0.1888342373814617
 10
0.2404871969529145
 20
0.1884357465105689
 10
0.2393376795280047
 20
0.1886044088843654
 10
0.2385900134791685
 20
0.188844583403211
  0
LWPOLYLINE
  5
701
330
2
100
AcDbEntity
  8
Profilo
  6
Continuous
370
     0
100
AcDbPolyline
 90
       15
 70
   128
 43
0.0
 10
0.232201251895032
 20
0.1940519971136668
 10
0.2332775794177382
 20
0.1933101105227648
 10
0.2346820817607969
 20
0.192752317521484
 10
0.2356591612207934
 20
0.1930465202417445
 10
0.2364557191531038
 20
0.1937980338915161
 10
0.2369278247655935
 20
0.1944944929759683
 10
0.236950167039095
 20
0.1952687194157059
 10
0.2365779528469736
 20
0.1957962280548591
 10
0.2373887610589096
 20
0.1948038369140331
 10
0.2380041522882996
 20
0.1937526063850663
 10
0.2382398825069265
 20
0.1929708083731676
 10
0.2377715012125459
 20
0.1924033863864988
 10
0.2369823900988772
 20
0.1919099488588126
 10
0.2358210647930863
 20
0.1919440199702795
 10
0.2350505716348092
 20
0.1920957717845473
  0
LWPOLYLINE
  5
702
330
2
100
AcDbEntity
  8
Profilo
  6
Continuous
370
     0
100
AcDbPolyline
 90
       15
 70
   128
 43
0.0
 10
0.2281004647382743
 20
0.1965262848764497
 10
0.2292556422956073
 20
0.1959143686559355
 10
0.2307154037112691
 20
0.1955234000212849
 10
0.2316517216583611
 20
0.1959290454498426
 10
0.2323556481412885
 20
0.1967679523647938
 10
0.232743707579836
 20
0.1975145103583985
 10
0.2326760165792943
 20
0.1982860955355626
 10
0.2322450791512385
 20
0.1987668259197679
 10
0.2331656145475949
 20
0.1978752740609364
 10
0.2338988851371682
 20
0.1969025941378842
 10
0.2342237826418467
 20
0.1961534489724879
 10
0.2338244420461895
 20
0.1955354879409159
 10
0.233097951220101
 20
0.1949537766525142
 10
0.2319405229659559
 20
0.1948527957483174
 10
0.2311576222964355
 20
0.1949140726750471
  0
LWPOLYLINE
  5
703
330
2
100
AcDbEntity
  8
Profilo
  6
Continuous
370
     0
100
AcDbPolyline
 90
       15
 70
   128
 43
0.0
 10
0.2237401583604817
 20
0.1985077700593018
 10
0.2249585641576666
 20
0.1980340993263254
 10
0.2264538438769821
 20
0.1978152422383883
 10
0.2273367382171731
 20
0.1983268447167
 10
0.2279385138526104
 20
0.1992418001199376
 10
0.2282372792790179
 20
0.2000283611065393
 10
0.2280804704090935
 20
0.200786870655251
 10
0.2275966374345508
 20
0.201214321730747
 10
0.2286144513532575
 20
0.200435665863358
 10
0.2294556850762037
 20
0.199554690373563
 10
0.2298653561855384
 20
0.1988483289578844
 10
0.2295404566850998
 20
0.198188185744259
 10
0.2288864106887305
 20
0.1975260673424011
 10
0.2277485317178185
 20
0.1972914000160388
 10
0.2269638109255567
 20
0.197261373389916
  0
LWPOLYLINE
  5
704
330
2
100
AcDbEntity
  8
Profilo
  6
Continuous
370
     0
100
AcDbPolyline
 90
       15
 70
   128
 43
0.0
 10
0.2191792984253766
 20
0.1999696564743311
 10
0.220444455614164
 20
0.1996406368129815
 10
0.2219550325440569
 20
0.1995968509384263
 10
0.222772563645987
 20
0.2002074919206188
 10
0.2232640504508014
 20
0.2011861226099051
 10
0.2234694815752045
 20
0.2020020497014927
 10
0.2232256754068598
 20
0.2027372260813165
 10
0.2226954898968032
 20
0.2031056173055926
 10
0.2237968181506515
 20
0.2024503874144809
 10
0.2247346387639919
 20
0.2016730300401432
 10
0.2252235433790128
 20
0.201019004700578
 10
0.2249774786821759
 20
0.2003256066093985
 10
0.2244047223656225
 20
0.1995920351096159
 10
0.2233017805390125
 20
0.1992268548341093
 10
0.2225258516265474
 20
0.1991059307137422
  0
LWPOLYLINE
  5
705
330
2
100
AcDbEntity
  8
Profilo
  6
Continuous
370
     0
100
AcDbPolyline
 90
       15
 70
   128
 43
0.0
 10
0.2144795627395022
 20
0.2008921746156166
 10
0.2157743622392687
 20
0.2007122554523857
 10
0.2172798084181331
 20
0.2008441329200519
 10
0.2180209205761099
 20
0.2015455545343858
 10
0.2183954720344048
 20
0.2025746262084734
 10
0.2185047907532598
 20
0.2034088853908431
 10
0.218177284346676
 20
0.2041107866024252
 10
0.2176079161506037
 20
0.2044151361161421
 10
0.2187778651642722
 20
0.2038921930615486
 10
0.2197995902530263
 20
0.2032289662276122
 10
0.2203611167775243
 20
0.2026361215349079
 10
0.2201972144871942
 20
0.2019188455858443
 10
0.219713493397083
 20
0.2011237412842417
 10
0.2186604041109004
 20
0.2006329864963559
 10
0.2179037601856806
 20
0.2004228001730289
  0
LWPOLYLINE
  5
706
330
2
100
AcDbEntity
  8
Profilo
  6
Continuous
370
     0
100
AcDbPolyline
 90
       15
 70
   128
 43
0.0
 10
0.2097045071656869
 20
0.2012628490078627
 10
0.2110114390344064
 20
0.2012344634407847
 10
0.212491395885243
 20
0.2015402208341559
 10
0.2131460668286957
 20
0.2023229375565746
 10
0.2133986177745328
 20
0.2033885337864274
 10
0.2134103457397025
 20
0.2042298431352957
 10
0.2130035680571967
 20
0.2048889771688496
 10
0.2124027169032197
 20
0.2051251691669412
 10
0.2136254651233271
 20
0.2047415848565789
 10
0.2147172776084221
 20
0.2042014575682178
 10
0.2153438323594428
 20
0.2036778107298277
 10
0.2152643089729234
 20
0.2029463568496157
 10
0.2148761646071835
 20
0.2021004721678835
 10
0.2138871690874657
 20
0.2014907794842427
 10
0.2131600424605697
 20
0.201194173367408
  0
LWPOLYLINE
  5
707
330
2
100
AcDbEntity
  8
Profilo
  6
Continuous
370
     0
100
AcDbPolyline
 90
       15
 70
   128
 43
0.0
 10
0.2049187061390374
 20
0.2010766669158002
 10
0.2062200963652059
 20
0.2012001988109748
 10
0.2076545500104479
 20
0.2016757012858274
 10
0.2082139264379441
 20
0.2025291282153981
 10
0.2083410615530294
 20
0.2036168386400206
 10
0.2082550401639029
 20
0.2044538208896967
 10
0.2077744921758102
 20
0.2050612740881524
 10
0.2071502835450352
 20
0.205226114479028
 10
0.2084092953995091
 20
0.2049870762326619
 10
0.2095564303900714
 20
0.2045773527848715
 10
0.2102395402894521
 20
0.2041299852259772
 10
0.2102454712241253
 20
0.2033942450735493
 10
0.2099581525694474
 20
0.2025090191509066
 10
0.2090466252839935
 20
0.201788633619139
 10
0.2083588490956754
 20
0.2014096187977035
  0
LWPOLYLINE
  5
708
330
2
100
AcDbEntity
  8
Profilo
  6
Continuous
370
     0
100
AcDbPolyline
 90
       18
 70
   129
 43
0.0
 10
0.2060619924226092
 20
0.1652797177482634
 10
0.2059876066037527
 20
0.1646601424632085
 10
0.2061115820856483
 20
0.1640157854402739
 10
0.2064091200638833
 20
0.1633218615902052
 10
0.206880223187053
 20
0.1629005519380001
 10
0.2075496876109748
 20
0.1627518531322845
 10
0.2079464049152879
 20
0.1628262016972989
 10
0.2083183287123795
 20
0.1630244656544613
 10
0.2085662770275747
 20
0.1634457769823535
 10
0.2086158666906137
 20
0.1639910020267068
 10
0.2085662770275747
 20
0.1646601424632085
 10
0.2084670977014966
 20
0.1651062372046678
 10
0.2082191493863006
 20
0.1654779817054258
 10
0.2077728397703524
 20
0.1658249427926167
 10
0.2075248914551573
 20
0.1658992913576308
 10
0.2070785844878051
 20
0.1658249427926167
 10
0.2065826852088179
 20
0.1656762456625882
 10
0.2061859679045057
 20
0.1654284148782916
  0
LWPOLYLINE
  5
709
330
2
100
AcDbEntity
  8
Profilo
  6
Continuous
370
     0
100
AcDbPolyline
 90
       22
 70
   128
 43
0.0
 10
0.2040118917095219
 20
0.1662000286136352
 10
0.2038694237303054
 20
0.167094158542322
 10
0.2033103474907627
 20
0.167820607480784
 10
0.2021362884471627
 20
0.1685470564192462
 10
0.2006267847192762
 20
0.1701675950699026
 10
0.1995086348887878
 20
0.1715646121303542
 10
0.1992290967690169
 20
0.1729057483743326
 10
0.199340912546645
 20
0.1746939294744081
 10
0.2000118019152179
 20
0.1762585873085913
 10
0.200514971590245
 20
0.1772644403294187
 10
0.2009063228390471
 20
0.1774320811031506
 10
0.2018567529759878
 20
0.1772085595129455
 10
0.203142625148619
 20
0.1767056338403755
 10
0.2045962223119908
 20
0.1756997808195481
 10
0.2053789274581919
 20
0.174749810290881
 10
0.2061057260398773
 20
0.1732969124139565
 10
0.2063293549465366
 20
0.1723469418852894
 10
0.2064970772886803
 20
0.1711734480907301
 10
0.2064970772886803
 20
0.1696646693973326
 10
0.2066088930663075
 20
0.1686588180521924
 10
0.207056153528222
 20
0.1680441307466762
 10
0.207479131661944
 20
0.1676669838304118
  0
LWPOLYLINE
  5
70A
330
2
100
AcDbEntity
  8
Profilo
  6
Continuous
370
     0
100
AcDbPolyline
 90
        8
 70
   128
 43
0.0
 10
0.2059939102622501
 20
0.1662559496466007
 10
0.2051552959029366
 20
0.167764726664311
 10
0.2046521288765064
 20
0.1689941012753433
 10
0.2039812395079326
 20
0.1703911183357949
 10
0.2033662567038743
 20
0.171285208047989
 10
0.2029749028064762
 20
0.1721234186193972
 10
0.2023040134379024
 20
0.1740792421688917
 10
0.2015772148562169
 20
0.1756997808195481
  0
LWPOLYLINE
  5
70B
330
2
100
AcDbEntity
  8
Profilo
  6
Continuous
370
     0
100
AcDbPolyline
 90
        4
 70
   128
 43
0.0
 10
0.2047407535474968
 20
0.1688880218976648
 10
0.2048922558876935
 20
0.1698831320879054
 10
0.2052385492212247
 20
0.1711594695081758
 10
0.2056497702372717
 20
0.1728468312126678
  0
LWPOLYLINE
  5
70C
330
2
100
AcDbEntity
  8
Profilo
  6
Continuous
370
     0
100
AcDbPolyline
 90
        4
 70
   128
 43
0.0
 10
0.2031175111612813
 20
0.1718733524683864
 10
0.2032473691749079
 20
0.1729549951452129
 10
0.2034638018462165
 20
0.1739068390921608
 10
0.2038533811842902
 20
0.1751831765124312
  0
LWPOLYLINE
  5
70D
330
2
100
AcDbEntity
  8
Profilo
  6
Continuous
370
     0
100
AcDbPolyline
 90
        4
 70
   128
 43
0.0
 10
0.2029876504990578
 20
0.171548860670751
 10
0.2020569921313096
 20
0.1720464157658712
 10
0.2011912614460762
 20
0.1726088685502437
 10
0.2003688194139823
 20
0.1731280567670105
  0
LWPOLYLINE
  5
70E
330
2
100
AcDbEntity
  8
Profilo
  6
Continuous
370
     0
100
AcDbPolyline
 90
       10
 70
   128
 43
0.0
 10
0.1973128746382946
 20
0.1791638719778467
 10
0.1975456915245026
 20
0.180986733100044
 10
0.1978949195024093
 20
0.182150263258561
 10
0.198399357854923
 20
0.1828483796779837
 10
0.1988649916273382
 20
0.1832362225055936
 10
0.1994470364914529
 20
0.1832750062856483
 10
0.2004947151279828
 20
0.1828483796779837
 10
0.2011543665036986
 20
0.1825768898662254
 10
0.2021244412772234
 20
0.182150263258561
 10
0.2028228945844417
 20
0.1816072819593575
  0
LWPOLYLINE
  5
70F
330
2
100
AcDbEntity
  8
Profilo
  6
Continuous
370
     0
100
AcDbPolyline
 90
        7
 70
   128
 43
0.0
 10
0.2014259879700051
 20
0.1826544591020223
 10
0.2016588048562122
 20
0.1835852815531485
 10
0.2021244412772234
 20
0.1843997509884231
 10
0.202473666606535
 20
0.1845161040042745
 10
0.2032497264253543
 20
0.1843997509884231
 10
0.2038705732209716
 20
0.1840506936165551
 10
0.2040257862441746
 20
0.1838955551449615
  0
LWPOLYLINE
  5
710
330
2
100
AcDbEntity
  8
Profilo
  6
Continuous
370
     0
100
AcDbPolyline
 90
       14
 70
   128
 43
0.0
 10
0.2028616965159451
 20
0.1768755987922425
 10
0.2026676815612396
 20
0.1788923821660884
 10
0.2028616965159451
 20
0.1807540270683407
 10
0.2034049367999613
 20
0.1826932428820772
 10
0.2042974050618842
 20
0.1839343406007036
 10
0.2053838882785126
 20
0.1849427322876266
 10
0.2058883266310263
 20
0.1849427322876266
 10
0.206625581869748
 20
0.1842446141925166
 10
0.2077120650863764
 20
0.1832362225055936
 10
0.2085657314167968
 20
0.1822278308186706
 10
0.2092253801439174
 20
0.1809091655399346
 10
0.2094970016102231
 20
0.1797456353814177
 10
0.2096910165649277
 20
0.1787372436944947
 10
0.2096910165649277
 20
0.1781942640709784
  0
LWPOLYLINE
  5
711
330
2
100
AcDbEntity
  8
Profilo
  6
Continuous
370
     0
100
AcDbPolyline
 90
        3
 70
   128
 43
0.0
 10
0.2069511128591801
 20
0.1763248674397768
 10
0.2065479780067421
 20
0.1785821068985882
 10
0.2056555097448192
 20
0.1831198694897418
  0
LWPOLYLINE
  5
712
330
2
100
AcDbEntity
  8
Profilo
  6
Continuous
370
     0
100
AcDbPolyline
 90
        3
 70
   128
 43
0.0
 10
0.2063151584719389
 20
0.1797844208371598
 10
0.2069360052675571
 20
0.1812582229118023
 10
0.2072076267338627
 20
0.1821114778028188
  0
LWPOLYLINE
  5
713
330
2
100
AcDbEntity
  8
Profilo
  6
Continuous
370
     0
100
AcDbPolyline
 90
        4
 70
   128
 43
0.0
 10
0.2068703174379867
 20
0.1769628266890131
 10
0.2071917907783363
 20
0.1776857935494907
 10
0.2076472115645489
 20
0.1783552087986918
 10
0.2086250281842024
 20
0.1793861066402883
  0
LWPOLYLINE
  5
714
330
2
100
AcDbEntity
  8
Profilo
  6
Continuous
370
     0
100
AcDbPolyline
 90
        4
 70
   128
 43
0.0
 10
0.2066580245222369
 20
0.1736276763087512
 10
0.2061102869222016
 20
0.1753043203179642
 10
0.2051175110323007
 20
0.1766387906782935
 10
0.2033373605214381
 20
0.1782127820901355
  0
LWPOLYLINE
  5
715
330
2
100
AcDbEntity
  8
Profilo
  6
Continuous
370
     0
100
AcDbPolyline
 90
        4
 70
   128
 43
0.0
 10
0.2061102869222016
 20
0.1787602575823873
 10
0.2053229123012399
 20
0.1800605120859468
 10
0.2043986026181195
 20
0.1809501595513953
 10
0.2037481630593165
 20
0.1814976350436474
  0
LWPOLYLINE
  5
716
330
2
100
AcDbEntity
  8
Profilo
  6
Continuous
370
     0
100
AcDbPolyline
 90
       22
 70
   128
 43
0.0
 10
0.2014835333133453
 20
0.1625812549311944
 10
0.200880278486957
 20
0.1632564208877674
 10
0.2000172056773899
 20
0.1635652891885038
 10
0.1986367764112791
 20
0.1635416726833336
 10
0.1964907717265636
 20
0.1640888572188908
 10
0.1947948397858685
 20
0.164659585318028
 10
0.1938346043597863
 20
0.1656366912036999
 10
0.1929619060860388
 20
0.1672014570449015
 10
0.1926803762469789
 20
0.1688804411522279
 10
0.1925598643142881
 20
0.1699986526239332
 10
0.1927984564899721
 20
0.1703512614761465
 10
0.1937188540956296
 20
0.1706770644748924
 10
0.1950725007503629
 20
0.1709491714586464
 10
0.1968391496987831
 20
0.1708888680100226
 10
0.1980111960113675
 20
0.1705128642967649
 10
0.1994081137817265
 20
0.169683545804287
 10
0.2001098352326747
 20
0.1690052826558636
 10
0.200885370889907
 20
0.168108754399597
 10
0.2017010782360649
 20
0.166839488993516
 10
0.202338947947496
 20
0.1660537651693347
 10
0.203047532438511
 20
0.1657784645637276
 10
0.2036072653049257
 20
0.1656898676320054
  0
LWPOLYLINE
  5
717
330
2
100
AcDbEntity
  8
Profilo
  6
Continuous
370
     0
100
AcDbPolyline
 90
        8
 70
   128
 43
0.0
 10
0.2031206802299892
 20
0.1636998588282954
 10
0.2015994864973207
 20
0.1645157336719496
 10
0.2005115453640649
 20
0.1652779167741674
 10
0.1991918728670508
 20
0.1660904521350497
 10
0.1981911350176271
 20
0.166510123458194
 10
0.1974087363203278
 20
0.1670036891716435
 10
0.1957869502262783
 20
0.1682863224656024
 10
0.1942993990109694
 20
0.1692566693512284
  0
LWPOLYLINE
  5
718
330
2
100
AcDbEntity
  8
Profilo
  6
Continuous
370
     0
100
AcDbPolyline
 90
        4
 70
   128
 43
0.0
 10
0.2006434520230942
 20
0.1652365912375059
 10
0.2002329067153072
 20
0.1661556395496523
 10
0.1998341870992919
 20
0.1674165832244592
 10
0.1992678716205563
 20
0.1690584050857979
  0
LWPOLYLINE
  5
719
330
2
100
AcDbEntity
  8
Profilo
  6
Continuous
370
     0
100
AcDbPolyline
 90
        4
 70
   128
 43
0.0
 10
0.197663902070919
 20
0.1668704200361821
 10
0.1971883654026547
 20
0.1678505623019639
 10
0.1968558344624454
 20
0.1687683167213779
 10
0.196493529350674
 20
0.1700526625770652
  0
LWPOLYLINE
  5
71A
330
2
100
AcDbEntity
  8
Profilo
  6
Continuous
370
     0
100
AcDbPolyline
 90
        4
 70
   128
 43
0.0
 10
0.1977300898407794
 20
0.1665272321904669
 10
0.1966781716076966
 20
0.1664426502713036
 10
0.1956457876771414
 20
0.166447766317847
 10
0.1946732110701668
 20
0.1664398895068651
  0
LWPOLYLINE
  5
71B
330
2
100
AcDbEntity
  8
Profilo
  6
Continuous
370
     0
100
AcDbPolyline
 90
       10
 70
   128
 43
0.0
 10
0.1888391786618853
 20
0.1698653718948702
 10
0.1880495235626978
 20
0.1715247305654562
 10
0.1877142609368401
 20
0.172692361321318
 10
0.187761191251312
 20
0.173552374188744
 10
0.1879432236439993
 20
0.1741303889610076
 10
0.1884119028476487
 20
0.174477693164126
 10
0.1895239179598172
 20
0.1746852098577124
 10
0.190225630483835
 20
0.1748134525534461
 10
0.1912723610720894
 20
0.1749790134311
 10
0.1921534952377686
 20
0.1748998408618528
  0
LWPOLYLINE
  5
71C
330
2
100
AcDbEntity
  8
Profilo
  6
Continuous
370
     0
100
AcDbPolyline
 90
        7
 70
   128
 43
0.0
 10
0.1904121959069072
 20
0.1750255575986813
 10
0.190104813324049
 20
0.1759344855858065
 10
0.1900561961869605
 20
0.1768714029309069
 10
0.1902870780393944
 20
0.1771580907840626
 10
0.1910028462932678
 20
0.1774797780132632
 10
0.1917138505162932
 20
0.1775217873851156
 10
0.1919282982105053
 20
0.1774751910935534
  0
LWPOLYLINE
  5
71D
330
2
100
AcDbEntity
  8
Profilo
  6
Continuous
370
     0
100
AcDbPolyline
 90
       14
 70
   128
 43
0.0
 10
0.1947442785551365
 20
0.1709402735892461
 10
0.1934907073772021
 20
0.172532007323739
 10
0.1926474419215041
 20
0.1742030150783461
 10
0.1920560255068475
 20
0.1761280851037995
 10
0.1921358294999893
 20
0.1776546677148618
 10
0.1925046596384068
 20
0.1790903779583532
 10
0.1929290201845542
 20
0.1793630979216123
 10
0.1939266698963478
 20
0.1791743938827033
 10
0.1953858554466319
 20
0.1789134779879916
 10
0.1966491829688908
 20
0.1785266917816031
 10
0.1979170390652538
 20
0.1777739929843084
 10
0.1987745934794118
 20
0.1769420187794826
 10
0.199482986951413
 20
0.1761985981140913
 10
0.1997765438989323
 20
0.1757418145875528
  0
LWPOLYLINE
  5
71E
330
2
100
AcDbEntity
  8
Profilo
  6
Continuous
370
     0
100
AcDbPolyline
 90
        3
 70
   128
 43
0.0
 10
0.1984822623496962
 20
0.1726878742880666
 10
0.1969227679446706
 20
0.1743688338010708
 10
0.1937186761896872
 20
0.1777037378413486
  0
LWPOLYLINE
  5
71F
330
2
100
AcDbEntity
  8
Profilo
  6
Continuous
370
     0
100
AcDbPolyline
 90
        3
 70
   128
 43
0.0
 10
0.1960768876979178
 20
0.1752544129058505
 10
0.1958023796996751
 20
0.176829909226935
 10
0.1955695777960209
 20
0.1776945625699902
  0
LWPOLYLINE
  5
720
330
2
100
AcDbEntity
  8
Profilo
  6
Continuous
370
     0
100
AcDbPolyline
 90
        4
 70
   128
 43
0.0
 10
0.1980693861061706
 20
0.1731808784577283
 10
0.1979489612950085
 20
0.1739628784927417
 10
0.1979701724327889
 20
0.1747722455022073
 10
0.1982354186667392
 20
0.1761681395300095
  0
LWPOLYLINE
  5
721
330
2
100
AcDbEntity
  8
Profilo
  6
Continuous
370
     0
100
AcDbPolyline
 90
        4
 70
   128
 43
0.0
 10
0.1996939123687229
 20
0.1702603972022988
 10
0.1983266639899048
 20
0.1713747505945148
 10
0.1967700186187378
 20
0.1719606433309344
 10
0.1944214967089375
 20
0.1723223471394055
  0
LWPOLYLINE
  5
722
330
2
100
AcDbEntity
  8
Profilo
  6
Continuous
370
     0
100
AcDbPolyline
 90
        4
 70
   128
 43
0.0
 10
0.1964582432421926
 20
0.1742820700274537
 10
0.1950928909029417
 20
0.1749502268634322
 10
0.1938343323836202
 20
0.1751989263940511
 10
0.1929911602092151
 20
0.1753078379112698
  0
LWPOLYLINE
  5
723
330
2
100
AcDbEntity
  8
Profilo
  6
Continuous
370
     0
100
AcDbPolyline
 90
       22
 70
   128
 43
0.0
 10
0.2013129996421592
 20
0.1581700150361948
 10
0.2004404871135839
 20
0.1584118565999367
 10
0.1995474372528483
 20
0.1582050807598231
 10
0.1983989143025699
 20
0.1574388968845457
 10
0.1962977499854779
 20
0.1567390000811853
 10
0.1945624823428649
 20
0.1563022370801042
 10
0.193226417573553
 20
0.1566050883926691
 10
0.191646280784153
 20
0.1574496368765225
 10
0.1905017154721673
 20
0.1587098816660506
 10
0.1897957836188919
 20
0.1595854273472721
 10
0.1898058653914882
 20
0.1600110534588043
 10
0.1904040107292861
 20
0.1607827408964131
 10
0.1913956586176539
 20
0.1617434884917653
 10
0.1929144607925439
 20
0.1626478805341995
 10
0.1941037318485492
 20
0.1629652221585952
 10
0.1957272572856425
 20
0.1630227858122413
 10
0.1966842796783299
 20
0.1628315738013074
 10
0.1978214015591535
 20
0.1624966524701323
 10
0.1991938349325768
 20
0.1618698831495977
 10
0.2001552394514034
 20
0.1615537486088936
 10
0.2009001774022405
 20
0.1617052407002948
 10
0.2014189537711435
 20
0.1619333226529405
  0
LWPOLYLINE
  5
724
330
2
100
AcDbEntity
  8
Profilo
  6
Continuous
370
     0
100
AcDbPolyline
 90
        8
 70
   128
 43
0.0
 10
0.2020854923442121
 20
0.1599961529637791
 10
0.20036468750007
 20
0.1598600911352134
 10
0.1990373858827719
 20
0.159913094978991
 10
0.1974879169507597
 20
0.1598831744043243
 10
0.196419151252287
 20
0.1596951846585765
 10
0.1954941138133137
 20
0.1596874018874157
 10
0.193436336619657
 20
0.1598896179176608
 10
0.1916603197710505
 20
0.1599016947582137
  0
LWPOLYLINE
  5
725
330
2
100
AcDbEntity
  8
Profilo
  6
Continuous
370
     0
100
AcDbPolyline
 90
        4
 70
   128
 43
0.0
 10
0.1991706950976069
 20
0.159949643849244
 10
0.1983284473762839
 20
0.1605008389378749
 10
0.1973113054715887
 20
0.1613460481598695
 10
0.1959472546611753
 20
0.1624210633376388
  0
LWPOLYLINE
  5
726
330
2
100
AcDbEntity
  8
Profilo
  6
Continuous
370
     0
100
AcDbPolyline
 90
        4
 70
   128
 43
0.0
 10
0.1957808236367937
 20
0.159713241776378
 10
0.1948508718188313
 20
0.1602806953870837
 10
0.1940749534910682
 20
0.1608729797353427
 10
0.1930757932425131
 20
0.1617575632920202
  0
LWPOLYLINE
  5
727
330
2
100
AcDbEntity
  8
Profilo
  6
Continuous
370
     0
100
AcDbPolyline
 90
        4
 70
   128
 43
0.0
 10
0.1960220456894677
 20
0.1594603175987481
 10
0.1951828441975556
 20
0.1588204528270082
 10
0.1943115816251517
 20
0.1582666078270931
 10
0.1934976566441142
 20
0.1577341668201944
  0
LWPOLYLINE
  5
728
330
2
100
AcDbEntity
  8
Profilo
  6
Continuous
370
     0
100
AcDbPolyline
 90
       10
 70
   128
 43
0.0
 10
0.1867378006715648
 20
0.1574617499304789
 10
0.1851763835015376
 20
0.1584307714960107
 10
0.184263073786773
 20
0.1592317883343162
 10
0.1838375960199523
 20
0.1599806496408981
 10
0.1836782330344111
 20
0.1605653207516788
 10
0.1838847442419669
 20
0.1611108787473051
 10
0.1847080388887836
 20
0.1618866536581718
 10
0.1852290237927916
 20
0.1623739127116215
 10
0.1860200806298498
 20
0.1630790966657359
 10
0.186804141782184
 20
0.1634888695577743
  0
LWPOLYLINE
  5
729
330
2
100
AcDbEntity
  8
Profilo
  6
Continuous
370
     0
100
AcDbPolyline
 90
        7
 70
   128
 43
0.0
 10
0.1852712999690127
 20
0.1626532117130956
 10
0.1845213097152849
 20
0.1632516670224856
 10
0.1839738746176096
 20
0.1640135676402842
 10
0.184013109636352
 20
0.1643795689630068
 10
0.1844413349620508
 20
0.1650371630149214
 10
0.1850167577953903
 20
0.1654569014517552
 10
0.1852223545329139
 20
0.1655336413335618
  0
LWPOLYLINE
  5
72A
330
2
100
AcDbEntity
  8
Profilo
  6
Continuous
370
     0
100
AcDbPolyline
 90
       14
 70
   128
 43
0.0
 10
0.1911243510877514
 20
0.1615585528117631
 10
0.1892092236782707
 20
0.1622198726928545
 10
0.1875964086361253
 20
0.1631697101445054
 10
0.1860581060557005
 20
0.1644694382504889
 10
0.1852999085761067
 20
0.1657968265612923
 10
0.1848339846733948
 20
0.1672040275032875
 10
0.1850435359381628
 20
0.1676628807684181
 10
0.1859848333885898
 20
0.1680435029847446
 10
0.1873534401704264
 20
0.1686129018352716
 10
0.1886253313224524
 20
0.1689705229970451
 10
0.1900988594357067
 20
0.1690227672310171
 10
0.1912700793304103
 20
0.1687864949114658
 10
0.1922679413976163
 20
0.1685440760761085
 10
0.1927618530359922
 20
0.1683185141887457
  0
LWPOLYLINE
  5
72B
330
2
100
AcDbEntity
  8
Profilo
  6
Continuous
370
     0
100
AcDbPolyline
 90
        3
 70
   128
 43
0.0
 10
0.1933241188901944
 20
0.1650496346879507
 10
0.1911033933873159
 20
0.1656206214868613
 10
0.1866049546324489
 20
0.1666938585067811
  0
LWPOLYLINE
  5
72C
330
2
100
AcDbEntity
  8
Profilo
  6
Continuous
370
     0
100
AcDbPolyline
 90
        3
 70
   128
 43
0.0
 10
0.1899130134302525
 20
0.1659083006492845
 10
0.1888303049880122
 20
0.1670852822667916
 10
0.1881669926739076
 20
0.1676868127348141
  0
LWPOLYLINE
  5
72D
330
2
100
AcDbEntity
  8
Profilo
  6
Continuous
370
     0
100
AcDbPolyline
 90
        4
 70
   128
 43
0.0
 10
0.1927102471144109
 20
0.1652411584375714
 10
0.1921861581784008
 20
0.165833912161352
 10
0.1917664252813751
 20
0.1665262626242906
 10
0.191234887324484
 20
0.1678439663473872
  0
LWPOLYLINE
  5
72E
330
2
100
AcDbEntity
  8
Profilo
  6
Continuous
370
     0
100
AcDbPolyline
 90
        4
 70
   128
 43
0.0
 10
0.1956558169452596
 20
0.1636625784704386
 10
0.1939031494874197
 20
0.1638608419172738
 10
0.1922768585416013
 20
0.1635121402256907
 10
0.1901056043453606
 20
0.1625467180272785
  0
LWPOLYLINE
  5
72F
330
2
100
AcDbEntity
  8
Profilo
  6
Continuous
370
     0
100
AcDbPolyline
 90
        4
 70
   128
 43
0.0
 10
0.1907595183777622
 20
0.1652964901409078
 10
0.1892496780408168
 20
0.1651204142348528
 10
0.1880564541226282
 20
0.1646492054868977
 10
0.1872882505404256
 20
0.1642849743918979
  0
LWPOLYLINE
  5
730
330
2
100
AcDbEntity
  8
Profilo
  6
Continuous
370
     0
100
AcDbPolyline
 90
       22
 70
   128
 43
0.0
 10
0.2035544339316335
 20
0.1543668464269673
 10
0.2026896802638129
 20
0.1540985806101609
 10
0.2020501903727052
 20
0.1534418104974249
 10
0.2014982216598968
 20
0.1521763172188443
 10
0.200109002534987
 20
0.1504515513663989
 10
0.1988853344061703
 20
0.1491459664319229
 10
0.1975976314177033
 20
0.1486784100194864
 10
0.1958117383785727
 20
0.1485346029696624
 10
0.1941675289931031
 20
0.1489759896251815
 10
0.193100305594782
 20
0.1493308899484414
 10
0.1928786760727272
 20
0.1496944000362115
 10
0.1929646622242072
 20
0.1506669666037255
 10
0.1932794701483005
 20
0.1520113242374696
 10
0.194068216590477
 20
0.1535932736876177
 10
0.1948971272326097
 20
0.1545032069261499
 10
0.1962318024814424
 20
0.1554293766726127
 10
0.1971402779681874
 20
0.1557859242616004
 10
0.1982779579099596
 20
0.156118945011724
 10
0.1997713794117379
 20
0.156333666607465
 10
0.2007510795961933
 20
0.1565874918332117
 10
0.2012958584709417
 20
0.1571176789529932
 10
0.2016089705107051
 20
0.157590025381592
  0
LWPOLYLINE
  5
731
330
2
100
AcDbEntity
  8
Profilo
  6
Continuous
370
     0
100
AcDbPolyline
 90
        8
 70
   128
 43
0.0
 10
0.2032170114443661
 20
0.156320732495901
 10
0.2018429388681382
 20
0.1552759326643178
 10
0.2006976856520259
 20
0.1546029289037631
 10
0.1994103657229049
 20
0.1537400519645955
 10
0.198612897733111
 20
0.1530040865659582
 10
0.1978389144033354
 20
0.1524974262850405
 10
0.1959984758294981
 20
0.1515550228907592
 10
0.1944978661482912
 20
0.1506049953746943
  0
LWPOLYLINE
  5
732
330
2
100
AcDbEntity
  8
Profilo
  6
Continuous
370
     0
100
AcDbPolyline
 90
        4
 70
   128
 43
0.0
 10
0.2007900726888743
 20
0.1547057481728675
 10
0.1997835302544966
 20
0.154714089491901
 10
0.1984709014290813
 20
0.1548752163050628
 10
0.1967421917813736
 20
0.1550421150760152
  0
LWPOLYLINE
  5
733
330
2
100
AcDbEntity
  8
Profilo
  6
Continuous
370
     0
100
AcDbPolyline
 90
        4
 70
   128
 43
0.0
 10
0.1980661399565442
 20
0.1526741712162568
 10
0.1969770261203598
 20
0.1526487736599229
 10
0.1960040689917319
 20
0.152727541841336
 10
0.1946852799255805
 20
0.1529315140699275
  0
LWPOLYLINE
  5
734
330
2
100
AcDbEntity
  8
Profilo
  6
Continuous
370
     0
100
AcDbPolyline
 90
        4
 70
   128
 43
0.0
 10
0.1984058099947001
 20
0.1525918123460329
 10
0.1980457657881269
 20
0.1515998172656755
 10
0.1976122442845665
 20
0.1506628530934932
 10
0.1972153863600259
 20
0.1497748941483198
  0
LWPOLYLINE
  5
735
330
2
100
AcDbEntity
  8
Profilo
  6
Continuous
370
     0
100
AcDbPolyline
 90
       10
 70
   128
 43
0.0
 10
0.1916759133316328
 20
0.1458910684185624
 10
0.189838473009803
 20
0.1458620953787628
 10
0.1886370855874315
 20
0.1460421811130643
 10
0.187874285924001
 20
0.1464421326851636
 10
0.1874241241821368
 20
0.1468478311878774
 10
0.187302901544337
 20
0.1474184321671287
 10
0.1875760854925608
 20
0.1485161622424391
 10
0.1877509337506391
 20
0.1492077363469426
 10
0.1880351618800751
 20
0.1502286524546779
 10
0.1884732161431091
 20
0.1509972708100967
  0
LWPOLYLINE
  5
736
330
2
100
AcDbEntity
  8
Profilo
  6
Continuous
370
     0
100
AcDbPolyline
 90
        7
 70
   128
 43
0.0
 10
0.1876354982927684
 20
0.1494655538451199
 10
0.1866810169745519
 20
0.1495635311445267
 10
0.1858085706918102
 20
0.1499085169722049
 10
0.1856437020356305
 20
0.1502376289305716
 10
0.1856484259179425
 20
0.1510223483400551
 10
0.1859055746777527
 20
0.1516865518539056
 10
0.186037044947102
 20
0.1518622635388254
  0
LWPOLYLINE
  5
737
330
2
100
AcDbEntity
  8
Profilo
  6
Continuous
370
     0
100
AcDbPolyline
 90
       14
 70
   128
 43
0.0
 10
0.1931512155075004
 20
0.1517090665185731
 10
0.1911825712873398
 20
0.1512300081566795
 10
0.1893122640390212
 20
0.1511571086257057
 10
0.1873154754929864
 20
0.1514188403220095
 10
0.1859599988832612
 20
0.1521255979227516
 10
0.1848072484864691
 20
0.1530575132069738
 10
0.1847354594239123
 20
0.153556817104399
 10
0.1853215493233524
 20
0.1543859207116256
 10
0.1861650543536222
 20
0.1556048541955289
 10
0.1870416926814002
 20
0.1565933405334316
 10
0.188253058047039
 20
0.1574339406235246
 10
0.1893660893811655
 20
0.1578683849812847
 10
0.1903366058877947
 20
0.1582039342433378
 10
0.1908740587616562
 20
0.1582812083006442
  0
LWPOLYLINE
  5
738
330
2
100
AcDbEntity
  8
Profilo
  6
Continuous
370
     0
100
AcDbPolyline
 90
        3
 70
   128
 43
0.0
 10
0.1931143565833671
 20
0.1558352357432441
 10
0.1909374646389026
 20
0.1551149655538068
 10
0.1865729014043735
 20
0.1535857903826745
  0
LWPOLYLINE
  5
739
330
2
100
AcDbEntity
  8
Profilo
  6
Continuous
370
     0
100
AcDbPolyline
 90
        3
 70
   128
 43
0.0
 10
0.189780522197075
 20
0.154713408672448
 10
0.1882333655911943
 20
0.1551181922389739
 10
0.1873501398396276
 20
0.1552656181585778
  0
LWPOLYLINE
  5
73A
330
2
100
AcDbEntity
  8
Profilo
  6
Continuous
370
     0
100
AcDbPolyline
 90
        4
 70
   128
 43
0.0
 10
0.1924943892267275
 20
0.1556644716355612
 10
0.1917330307000162
 20
0.1558797839290065
 10
0.1910056159972984
 20
0.1562353014653497
 10
0.1898460533952104
 20
0.1570564532621071
  0
LWPOLYLINE
  5
73B
330
2
100
AcDbEntity
  8
Profilo
  6
Continuous
370
     0
100
AcDbPolyline
 90
        4
 70
   128
 43
0.0
 10
0.1958258050169797
 20
0.1559289809425767
 10
0.1942441780142243
 20
0.1551482072005236
 10
0.1930645773782287
 20
0.153975621404207
 10
0.1917599487615063
 20
0.15198958792556
  0
LWPOLYLINE
  5
73C
330
2
100
AcDbEntity
  8
Profilo
  6
Continuous
370
     0
100
AcDbPolyline
 90
        4
 70
   128
 43
0.0
 10
0.1908234172081029
 20
0.1546563760476546
 10
0.1896484525124198
 20
0.1536919702556456
 10
0.1888994033584714
 20
0.1526504586771901
 10
0.1884500675779537
 20
0.1519287257691005
  0
LWPOLYLINE
  5
73D
330
2
100
AcDbEntity
  8
Profilo
  6
Continuous
370
     0
100
AcDbPolyline
 90
       22
 70
   128
 43
0.0
 10
0.207496196632077
 20
0.1523792282650362
 10
0.2069137550044877
 20
0.151686027569042
 10
0.2067308586050125
 20
0.1507877830539614
 10
0.2069506902959672
 20
0.1494247655464788
 10
0.2067144836196457
 20
0.1472227316164865
 10
0.2063909209894981
 20
0.1454628387404893
 10
0.2055604163822393
 20
0.1443733204604043
 10
0.204135775514785
 20
0.1432868155991303
 10
0.2025139469182913
 20
0.142769206976202
 10
0.2014242678632503
 20
0.1424907835964712
 10
0.2010412928538374
 20
0.1426767657760514
 10
0.2005878198234534
 20
0.143541428460112
 10
0.2001258384917002
 20
0.1448425720823114
 10
0.1999341077787877
 20
0.1465998211672721
 10
0.2001394847349724
 20
0.1478134486459879
 10
0.2007615598344057
 20
0.1493141721347681
 10
0.2013330538671483
 20
0.1501052779834187
 10
0.202110086526819
 20
0.1510005090796886
 10
0.2032503453821486
 20
0.151988549002208
 10
0.2039372933458987
 20
0.1527317462786743
 10
0.2041089497010493
 20
0.1534722977624287
 10
0.2041169865513928
 20
0.1540389420133408
  0
LWPOLYLINE
  5
73E
330
2
100
AcDbEntity
  8
Profilo
  6
Continuous
370
     0
100
AcDbPolyline
 90
        8
 70
   128
 43
0.0
 10
0.2061559882110828
 20
0.1538405174539321
 10
0.2055649062369895
 20
0.1522186961836564
 10
0.2049653112262055
 20
0.1510333587575281
 10
0.2043488552817039
 20
0.1496114827852482
 10
0.2040758754527074
 20
0.1485612055477059
 10
0.2036986804706296
 20
0.147716528816332
 10
0.2026599067598866
 20
0.1459287124165044
 10
0.2019111372170619
 20
0.1443182075675986
  0
LWPOLYLINE
  5
73F
330
2
100
AcDbEntity
  8
Profilo
  6
Continuous
370
     0
100
AcDbPolyline
 90
        4
 70
   128
 43
0.0
 10
0.204987443853643
 20
0.1511698040340295
 10
0.2041361768172376
 20
0.1506326432736093
 10
0.2029448114485792
 20
0.1500585310532271
 10
0.2014002960622456
 20
0.1492643242368357
  0
LWPOLYLINE
  5
740
330
2
100
AcDbEntity
  8
Profilo
  6
Continuous
370
     0
100
AcDbPolyline
 90
        4
 70
   128
 43
0.0
 10
0.203794279245922
 20
0.1479880635229612
 10
0.2028917893391944
 20
0.1473778783442732
 10
0.2020307004234543
 20
0.1469181220177911
 10
0.2008109887500915
 20
0.1463767231769176
  0
LWPOLYLINE
  5
741
330
2
100
AcDbEntity
  8
Profilo
  6
Continuous
370
     0
100
AcDbPolyline
 90
        4
 70
   128
 43
0.0
 10
0.2041245544324399
 20
0.1481024183195194
 10
0.2043579790028416
 20
0.1470732443594557
 10
0.204499838582388
 20
0.1460506405194016
 10
0.2046460473013216
 20
0.1450890843270278
  0
LWPOLYLINE
  5
742
330
2
100
AcDbEntity
  8
Profilo
  6
Continuous
370
     0
100
AcDbPolyline
 90
       10
 70
   128
 43
0.0
 10
0.2020857007635544
 20
0.1388269369846253
 10
0.2005556116093701
 20
0.137809168074917
 10
0.1994475784973961
 20
0.1373111467569988
 10
0.1985896404408101
 20
0.1372352067963966
 10
0.1979916031149742
 20
0.1373331262829605
 10
0.1975811339628024
 20
0.1377476084665985
 10
0.1972174732390963
 20
0.1388187721636315
 10
0.1969906717647245
 20
0.139495091427438
 10
0.1966778307637036
 20
0.1405076060380369
 10
0.1966307990040674
 20
0.1413910389597883
  0
LWPOLYLINE
  5
743
330
2
100
AcDbEntity
  8
Profilo
  6
Continuous
370
     0
100
AcDbPolyline
 90
        7
 70
   128
 43
0.0
 10
0.1967541746150083
 20
0.1396495721882987
 10
0.1958982433067933
 20
0.1392159643774351
 10
0.1949777813693452
 20
0.1390345048522585
 10
0.1946611536716756
 20
0.1392222367248819
 10
0.1942408763113426
 20
0.1398849386239856
 10
0.1940981080833108
 20
0.140582727292243
 10
0.1941137110028921
 20
0.1408016235618335
  0
LWPOLYLINE
  5
744
330
2
100
AcDbEntity
  8
Profilo
  6
Continuous
370
     0
100
AcDbPolyline
 90
       14
 70
   128
 43
0.0
 10
0.2001813566822517
 20
0.1445189570146193
 10
0.1987842262815367
 20
0.1430516180547773
 10
0.1972502361634263
 20
0.1419791266271795
 10
0.1954289279065142
 20
0.1411197639495349
 10
0.1939065264129047
 20
0.1409815002956906
 10
0.1924329396280699
 20
0.1411422534039981
 10
0.1921026027583121
 20
0.1415234824741983
 10
0.1921474057048071
 20
0.1425378329351965
 10
0.1921980020963201
 20
0.1440192982839094
 10
0.1924010611248115
 20
0.145324812369968
 10
0.1929656637983437
 20
0.1466868837269736
 10
0.1936671269876105
 20
0.1476541117480936
 10
0.1943021658001511
 20
0.148461094587733
 10
0.1947125224195061
 20
0.1488166706225062
  0
LWPOLYLINE
  5
745
330
2
100
AcDbEntity
  8
Profilo
  6
Continuous
370
     0
100
AcDbPolyline
 90
        3
 70
   128
 43
0.0
 10
0.1979195734795216
 20
0.1479701840130592
 10
0.1964776629046556
 20
0.1461873375312343
 10
0.1936326931788967
 20
0.142541252481249
  0
LWPOLYLINE
  5
746
330
2
100
AcDbEntity
  8
Profilo
  6
Continuous
370
     0
100
AcDbPolyline
 90
        3
 70
   128
 43
0.0
 10
0.1957214790287785
 20
0.1452240360786596
 10
0.1942010855499385
 20
0.1447281056718965
 10
0.1933783642964573
 20
0.1443746203552692
  0
LWPOLYLINE
  5
747
330
2
100
AcDbEntity
  8
Profilo
  6
Continuous
370
     0
100
AcDbPolyline
 90
        4
 70
   128
 43
0.0
 10
0.1974903457972783
 20
0.1474913484457005
 10
0.1967334436325949
 20
0.1472608591769655
 10
0.195929296152632
 20
0.1471666694808913
 10
0.1945098618384329
 20
0.1472305594578203
  0
LWPOLYLINE
  5
748
330
2
100
AcDbEntity
  8
Profilo
  6
Continuous
370
     0
100
AcDbPolyline
 90
        4
 70
   128
 43
0.0
 10
0.2001499065721879
 20
0.1495149671908205
 10
0.1992414754226506
 20
0.1480030464062972
 10
0.1988830799637464
 20
0.1463788642104823
 10
0.198859287294286
 20
0.1440027710484289
  0
LWPOLYLINE
  5
749
330
2
100
AcDbEntity
  8
Profilo
  6
Continuous
370
     0
100
AcDbPolyline
 90
        4
 70
   128
 43
0.0
 10
0.1966296523060678
 20
0.1457398887928482
 10
0.1961626062406234
 20
0.1442933451396823
 10
0.1960955496647652
 20
0.1430122032979171
 10
0.1961077426213917
 20
0.1421621136755349
  0
LWPOLYLINE
  5
74A
330
2
100
AcDbEntity
  8
Profilo
  6
Continuous
370
     0
100
AcDbPolyline
 90
       22
 70
   128
 43
0.0
 10
0.2118868059372627
 20
0.1528382152729758
 10
0.2117715974513283
 20
0.1519401660208498
 10
0.2121033628580362
 20
0.1510856333902704
 10
0.2130251999441317
 20
0.1500578400818898
 10
0.2140169996671741
 20
0.148077668288295
 10
0.2146962713845835
 20
0.1464222210240969
 10
0.2145866445032729
 20
0.1450566552321221
 10
0.2139755692168797
 20
0.1433724101759758
 10
0.2128910405294546
 20
0.1420601433551321
 10
0.2121248712183663
 20
0.1412367937282296
 10
0.2117021425811105
 20
0.1411861999716907
 10
0.2108531848519226
 20
0.141668434479523
 10
0.2097610900729505
 20
0.1425132601835711
 10
0.2086497553515934
 20
0.143887894734998
 10
0.2081663928893669
 20
0.1450198983044871
 10
0.2078783633907026
 20
0.1466187064315025
 10
0.207931430652031
 20
0.1475932000225563
 10
0.208101113650405
 20
0.1487664119173077
 10
0.2085261857294036
 20
0.1502140744723618
 10
0.2087022803476997
 20
0.1512106839154508
 10
0.2084463145033581
 20
0.1519264798995727
 10
0.2081467245210835
 20
0.1524075164268505
  0
LWPOLYLINE
  5
74B
330
2
100
AcDbEntity
  8
Profilo
  6
Continuous
370
     0
100
AcDbPolyline
 90
        8
 70
   128
 43
0.0
 10
0.2099693182867475
 20
0.1533429585893354
 10
0.2103488912651781
 20
0.1516590326744382
 10
0.2104853216391105
 20
0.1503376978403382
 10
0.2107354500859373
 20
0.1488082584096492
 10
0.2110736275846625
 20
0.1477771249352171
 10
0.2112129776919593
 20
0.1468626106473977
 10
0.2113056721578481
 20
0.144797000316862
 10
0.2115464717926987
 20
0.1430373420453594
  0
LWPOLYLINE
  5
74C
330
2
100
AcDbEntity
  8
Profilo
  6
Continuous
370
     0
100
AcDbPolyline
 90
        4
 70
   128
 43
0.0
 10
0.2104301729043076
 20
0.1504644487130234
 10
0.2100044525351674
 20
0.1495523306191864
 10
0.2093126007100292
 20
0.1484252559387486
 10
0.2084426523072065
 20
0.1469220985876202
  0
LWPOLYLINE
  5
74D
330
2
100
AcDbEntity
  8
Profilo
  6
Continuous
370
     0
100
AcDbPolyline
 90
        4
 70
   128
 43
0.0
 10
0.211146597753648
 20
0.1471427247786575
 10
0.2107172659450749
 20
0.1461414814604864
 10
0.210241434888806
 20
0.1452891700112842
 10
0.209508050446453
 20
0.1441742904075817
  0
LWPOLYLINE
  5
74E
330
2
100
AcDbEntity
  8
Profilo
  6
Continuous
370
     0
100
AcDbPolyline
 90
        4
 70
   128
 43
0.0
 10
0.211362618050422
 20
0.147417486402083
 10
0.2121154007459947
 20
0.1466778890228375
 10
0.2127876019944745
 20
0.1458943150087553
 10
0.2134304571216827
 20
0.1451644488662284
  0
LWPOLYLINE
  5
74F
330
2
100
AcDbEntity
  8
Profilo
  6
Continuous
370
     0
100
AcDbPolyline
 90
       10
 70
   128
 43
0.0
 10
0.214662129009737
 20
0.1385121674461748
 10
0.2139251835185585
 20
0.1368287371041787
 10
0.2132622974010465
 20
0.1358107269836295
 10
0.2125816102223708
 20
0.1352830058912509
 10
0.2120255699379856
 20
0.1350420576165467
 10
0.2114561753270199
 20
0.1351688258398576
 10
0.2105711296416584
 20
0.1358733362532863
 10
0.2100146863004462
 20
0.1363196740887808
 10
0.2092041009763623
 20
0.1370023209674644
 10
0.20868691544543
 20
0.1377200847449311
  0
LWPOLYLINE
  5
750
330
2
100
AcDbEntity
  8
Profilo
  6
Continuous
370
     0
100
AcDbPolyline
 90
        7
 70
   128
 43
0.0
 10
0.2097322136329096
 20
0.1363217715622604
 10
0.2092465844773337
 20
0.1354942460573493
 10
0.2085703470466449
 20
0.1348439532964296
 10
0.2082024873643109
 20
0.134830701540202
 10
0.2074906438537003
 20
0.1351609827583883
 10
0.206993286541475
 20
0.13567081360922
 10
0.206888068294566
 20
0.1358633964445334
  0
LWPOLYLINE
  5
751
330
2
100
AcDbEntity
  8
Profilo
  6
Continuous
370
     0
100
AcDbPolyline
 90
       14
 70
   128
 43
0.0
 10
0.2099827544616251
 20
0.1422710332645207
 10
0.2096007169109326
 20
0.1402812834587584
 10
0.2088900749468741
 20
0.1385497085849366
 10
0.2078224994819051
 20
0.1368420931115295
 10
0.2066165248218568
 20
0.13590270593627
 10
0.2052899550412974
 20
0.1352412588926022
 10
0.2048059499864385
 20
0.1353833755994247
 10
0.2042952413610382
 20
0.1362609238098855
 10
0.2035368651169869
 20
0.1375345662427255
 10
0.2030018750393918
 20
0.1387426165789383
 10
0.2027404576612624
 20
0.1401937111709436
 10
0.2028076430993801
 20
0.1413866347928245
 10
0.202905583881819
 20
0.1424088398603328
 10
0.2030585589194651
 20
0.1429298249939126
  0
LWPOLYLINE
  5
752
330
2
100
AcDbEntity
  8
Profilo
  6
Continuous
370
     0
100
AcDbPolyline
 90
        3
 70
   128
 43
0.0
 10
0.2062141471661694
 20
0.1439515778499296
 10
0.2059650143803691
 20
0.1416721962367053
 10
0.2055428959497132
 20
0.1370668075492313
  0
LWPOLYLINE
  5
753
330
2
100
AcDbEntity
  8
Profilo
  6
Continuous
370
     0
100
AcDbPolyline
 90
        3
 70
   128
 43
0.0
 10
0.2058496721080927
 20
0.1404529916177443
 10
0.2048387559432394
 20
0.1392138016377626
 10
0.2043377473727521
 20
0.1384716341753255
  0
LWPOLYLINE
  5
754
330
2
100
AcDbEntity
  8
Profilo
  6
Continuous
370
     0
100
AcDbPolyline
 90
        4
 70
   128
 43
0.0
 10
0.206111935914657
 20
0.143316697732241
 10
0.205599801201273
 20
0.1427135856155897
 10
0.2049742320871186
 20
0.1421995932500891
 10
0.2037455864263225
 20
0.1414859367909399
  0
LWPOLYLINE
  5
755
330
2
100
AcDbEntity
  8
Profilo
  6
Continuous
370
     0
100
AcDbPolyline
 90
        4
 70
   128
 43
0.0
 10
0.2072552499197491
 20
0.1464569412620966
 10
0.2073084350947394
 20
0.1446938976014676
 10
0.207885032838828
 20
0.1431337853774026
 10
0.209149630121072
 20
0.1411220253222228
  0
LWPOLYLINE
  5
756
330
2
100
AcDbEntity
  8
Profilo
  6
Continuous
370
     0
100
AcDbPolyline
 90
        4
 70
   128
 43
0.0
 10
0.20633478505295
 20
0.1413779500790011
 10
0.2067239414435324
 20
0.1399085359537695
 10
0.2073601674348018
 20
0.1387945173313392
 10
0.2078300179509942
 20
0.1380859684433246
  0
LWPOLYLINE
  5
757
330
2
100
AcDbEntity
  8
Profilo
  6
Continuous
370
     0
100
AcDbPolyline
 90
       22
 70
   128
 43
0.0
 10
0.2153322744153583
 20
0.1555980823188125
 10
0.2157208769513386
 20
0.1547803088027919
 10
0.2164619709917421
 20
0.1542407961290834
 10
0.2177931367115324
 20
0.1538745441331755
 10
0.2196980534295945
 20
0.1527449250292192
 10
0.2211644955237884
 20
0.1517195161863715
 10
0.2218105521286546
 20
0.1505114603728322
 10
0.2222070545091015
 20
0.1487642110268332
 10
0.2220041559260892
 20
0.1470739214516577
 10
0.221804749701729
 20
0.1459670532666145
 10
0.2214764807921024
 20
0.1456959467341792
 10
0.2205015764446785
 20
0.1456426470168528
 10
0.219126100594438
 20
0.1457629286109673
 10
0.2174480027863528
 20
0.1463185118714861
 10
0.2164293650721956
 20
0.1470094883967908
 10
0.2153226783061399
 20
0.1481987708783523
 10
0.2148404703155375
 20
0.1490472573820923
 10
0.2143489304995543
 20
0.1501259635882608
 10
0.2139238584205556
 20
0.1515736261433148
 10
0.2135331908963141
 20
0.1525072312965515
 10
0.2129308701994905
 20
0.152971011613655
 10
0.2124187710871672
 20
0.1532137147187295
  0
LWPOLYLINE
  5
758
330
2
100
AcDbEntity
  8
Profilo
  6
Continuous
370
     0
100
AcDbPolyline
 90
        8
 70
   128
 43
0.0
 10
0.2134462963160406
 20
0.1549860273260376
 10
0.2146760125082763
 20
0.1537746313464467
 10
0.2155051525871727
 20
0.1527368135780958
 10
0.216542451410785
 20
0.151585396901739
 10
0.2173844172708341
 20
0.1509007847829084
 10
0.2179960697930385
 20
0.150206784763377
 10
0.219190802597587
 20
0.1485191971871731
 10
0.2203447192274572
 20
0.1471690645611246
  0
LWPOLYLINE
  5
759
330
2
100
AcDbEntity
  8
Profilo
  6
Continuous
370
     0
100
AcDbPolyline
 90
        4
 70
   128
 43
0.0
 10
0.2153902318237677
 20
0.1528136275404664
 10
0.2155252213310981
 20
0.1518161431632873
 10
0.2155525411155701
 20
0.1504939442703037
 10
0.2156333621673927
 20
0.1487590782226194
  0
LWPOLYLINE
  5
75A
330
2
100
AcDbEntity
  8
Profilo
  6
Continuous
370
     0
100
AcDbPolyline
 90
        4
 70
   128
 43
0.0
 10
0.2177887863025207
 20
0.1504065440617842
 10
0.217968922407809
 20
0.1493321302832022
 10
0.2180294222093162
 20
0.1483578665742566
 10
0.2180152093765735
 20
0.1470234726045377
  0
LWPOLYLINE
  5
75B
330
2
100
AcDbEntity
  8
Profilo
  6
Continuous
370
     0
100
AcDbPolyline
 90
        4
 70
   128
 43
0.0
 10
0.2178219667916512
 20
0.1507544776380122
 10
0.2188551044254592
 20
0.15053927378175
 10
0.219844228196026
 20
0.1502435088066414
 10
0.2207796277708172
 20
0.149977060057226
  0
LWPOLYLINE
  5
75C
330
2
100
AcDbEntity
  8
Profilo
  6
Continuous
370
     0
100
AcDbPolyline
 90
       10
 70
   128
 43
0.0
 10
0.2254122709628146
 20
0.1450466969076139
 10
0.2257024441210833
 20
0.1432320823723633
 10
0.2256951666566131
 20
0.1420172944695415
 10
0.2254078437255711
 20
0.1412053399635178
 10
0.2250703393441367
 20
0.1407020233023052
 10
0.2245227980402087
 20
0.1405008295500889
 10
0.2233973631448587
 20
0.1406150096014825
 10
0.2226879447660004
 20
0.1406896568995679
 10
0.221636970231929
 20
0.1408257004857066
 10
0.220813833681514
 20
0.1411499101910194
  0
LWPOLYLINE
  5
75D
330
2
100
AcDbEntity
  8
Profilo
  6
Continuous
370
     0
100
AcDbPolyline
 90
        7
 70
   128
 43
0.0
 10
0.2224491796567307
 20
0.1405387051526569
 10
0.2224880364793969
 20
0.1395799954544916
 10
0.2222707241616464
 20
0.1386673328146719
 10
0.2219684253446161
 20
0.1384573047685628
 10
0.2211910209687018
 20
0.1383503033527132
 10
0.2204969820047558
 20
0.1385103086932728
 10
0.220304348641313
 20
0.1386154344048223
  0
LWPOLYLINE
  5
75E
330
2
100
AcDbEntity
  8
Profilo
  6
Continuous
370
     0
100
AcDbPolyline
 90
       14
 70
   128
 43
0.0
 10
0.2194435343040386
 20
0.1456789951758635
 10
0.2201978838263632
 20
0.1437985660286102
 10
0.2205362138187905
 20
0.1419576704962794
 10
0.220561318812764
 20
0.1399439580744819
 10
0.2200546594198329
 20
0.1385016961685596
 10
0.2192962831757825
 20
0.1372280537357197
 10
0.2188122781209236
 20
0.137085937028897
 10
0.2179082043036973
 20
0.1375480676324586
 10
0.2165816345231379
 20
0.1382095146761264
 10
0.2154784509090339
 20
0.1389365538164213
 10
0.2144740116497117
 20
0.1400159593634092
 10
0.2138855884347877
 20
0.1410558337648993
 10
0.2134153356807176
 20
0.1419687181738987
 10
0.2132623606430715
 20
0.1424897033074785
  0
LWPOLYLINE
  5
75F
330
2
100
AcDbEntity
  8
Profilo
  6
Continuous
370
     0
100
AcDbPolyline
 90
        3
 70
   128
 43
0.0
 10
0.2153646091044579
 20
0.1450552963165347
 10
0.2163873520069253
 20
0.143003067128769
 10
0.2185221044905596
 20
0.1389005531719578
  0
LWPOLYLINE
  5
760
330
2
100
AcDbEntity
  8
Profilo
  6
Continuous
370
     0
100
AcDbPolyline
 90
        3
 70
   128
 43
0.0
 10
0.2169494716947293
 20
0.1419150481954535
 10
0.2167689915834103
 20
0.1403260327051994
 10
0.2167487623770905
 20
0.1394308160223715
  0
LWPOLYLINE
  5
761
330
2
100
AcDbEntity
  8
Profilo
  6
Continuous
370
     0
100
AcDbPolyline
 90
        4
 70
   128
 43
0.0
 10
0.2156218656338409
 20
0.1444659416000339
 10
0.2155170975246847
 20
0.1436816904711166
 10
0.2152687205500225
 20
0.1429110843805393
 10
0.2146209498587368
 20
0.1416464623686362
  0
LWPOLYLINE
  5
762
330
2
100
AcDbEntity
  8
Profilo
  6
Continuous
370
     0
100
AcDbPolyline
 90
        4
 70
   128
 43
0.0
 10
0.2148859387507687
 20
0.1477258047817965
 10
0.2158838543330159
 20
0.1462713921502401
 10
0.217212379570394
 20
0.1452706745058395
 10
0.2193638661024482
 20
0.1442619671606355
  0
LWPOLYLINE
  5
763
330
2
100
AcDbEntity
  8
Profilo
  6
Continuous
370
     0
100
AcDbPolyline
 90
        4
 70
   128
 43
0.0
 10
0.2168575043748053
 20
0.1429554446277736
 10
0.2179793088170536
 20
0.1419296886328534
 10
0.2191168201185782
 20
0.1413364862711001
 10
0.2198951539752516
 20
0.1409944373830305
  0
LWPOLYLINE
  5
764
330
2
100
AcDbEntity
  8
Profilo
  6
Continuous
370
     0
100
AcDbPolyline
 90
       22
 70
   128
 43
0.0
 10
0.2167386901690842
 20
0.1597825911157818
 10
0.2175077251675399
 20
0.1593047306490917
 10
0.2184228557201309
 20
0.1592515293941423
 10
0.2197407143631509
 20
0.1596631011315946
 10
0.2219539504777457
 20
0.1597426808012758
 10
0.2237419779452019
 20
0.1596728704421901
 10
0.2249385996290185
 20
0.1590058737921705
 10
0.2262167929720651
 20
0.1577503594781996
 10
0.2269599433599592
 20
0.156218702145795
 10
0.227390610289625
 20
0.1551797382306055
 10
0.2272610241669961
 20
0.1547741933307747
 10
0.2264696984432997
 20
0.1542022816719429
 10
0.2252475453855933
 20
0.1535598305998616
 10
0.223535468687974
 20
0.1531199688098213
 10
0.222304965998781
 20
0.1531505381263641
 10
0.2207309871940819
 20
0.1535527061776446
 10
0.2198666015814459
 20
0.1540057971242527
 10
0.2188698993696259
 20
0.1546475160431533
 10
0.2177296405142954
 20
0.1556355559656726
 10
0.2168962450261385
 20
0.156209743789443
 10
0.2161388020422799
 20
0.156274261465763
 10
0.2155767816497518
 20
0.1562015746276312
  0
LWPOLYLINE
  5
765
330
2
100
AcDbEntity
  8
Profilo
  6
Continuous
370
     0
100
AcDbPolyline
 90
        8
 70
   128
 43
0.0
 10
0.2154830063418125
 20
0.1582480609495046
 10
0.2171724395455794
 20
0.1578938045694252
 10
0.2184310432128138
 20
0.1574690036754048
 10
0.219926177365916
 20
0.1570611764126019
 10
0.2210046133757706
 20
0.1569404451598635
 10
0.221894372958815
 20
0.1566872995112514
 10
0.2238118248781566
 20
0.1559135318209
 10
0.2255124981262482
 20
0.1554015824094947
  0
LWPOLYLINE
  5
766
330
2
100
AcDbEntity
  8
Profilo
  6
Continuous
370
     0
100
AcDbPolyline
 90
        4
 70
   128
 43
0.0
 10
0.2182928369511956
 20
0.1574714928371496
 10
0.2189456781202097
 20
0.156705336418495
 10
0.2196834956757547
 20
0.1556078021192768
 10
0.2206894260693242
 20
0.1541920350871987
  0
LWPOLYLINE
  5
767
330
2
100
AcDbEntity
  8
Profilo
  6
Continuous
370
     0
100
AcDbPolyline
 90
        4
 70
   128
 43
0.0
 10
0.221611996959733
 20
0.1567432818109936
 10
0.222344409038236
 20
0.1559368163552554
 10
0.2229220314380103
 20
0.1551499222303383
 10
0.2236315026888518
 20
0.1540196745516115
  0
LWPOLYLINE
  5
768
330
2
100
AcDbEntity
  8
Profilo
  6
Continuous
370
     0
100
AcDbPolyline
 90
        4
 70
   128
 43
0.0
 10
0.2214518030703634
 20
0.157053920887953
 10
0.2224372817434734
 20
0.1574314362584796
 10
0.2234292882277888
 20
0.157717383612166
 10
0.2243602494943844
 20
0.1579989478511646
  0
LWPOLYLINE
  5
769
330
2
100
AcDbEntity
  8
Profilo
  6
Continuous
370
     0
100
AcDbPolyline
 90
       10
 70
   128
 43
0.0
 10
0.2309230325095577
 20
0.1563558584357144
 10
0.2321481963897887
 20
0.1549861870006978
 10
0.2327988381219097
 20
0.1539603078914683
 10
0.2329961024389811
 20
0.1531219097904655
 10
0.2329842892169094
 20
0.1525160242264137
 10
0.232632441715275
 20
0.1520507460934321
 10
0.2316239352372673
 20
0.1515383444232306
 10
0.2309867771435397
 20
0.1512176011941975
 10
0.2300290903882172
 20
0.1507638486104302
 10
0.2291613428570705
 20
0.1505915699529087
  0
LWPOLYLINE
  5
76A
330
2
100
AcDbEntity
  8
Profilo
  6
Continuous
370
     0
100
AcDbPolyline
 90
        7
 70
   128
 43
0.0
 10
0.2308675258276962
 20
0.1509615263399658
 10
0.231418531861957
 20
0.150176016003795
 10
0.2317291397825756
 20
0.1492907474246518
 10
0.2315883795693152
 20
0.1489506255093138
 10
0.230992234724573
 20
0.1484403136529246
 10
0.2303218665761124
 20
0.1481996929181282
 10
0.2301029778279473
 20
0.1481839848352796
  0
LWPOLYLINE
  5
76B
330
2
100
AcDbEntity
  8
Profilo
  6
Continuous
370
     0
100
AcDbPolyline
 90
       14
 70
   128
 43
0.0
 10
0.225559965456201
 20
0.1536608389213047
 10
0.2272112014081851
 20
0.1524867534003359
 10
0.2284910859750264
 20
0.1511210085338648
 10
0.2296009007697386
 20
0.1494405386293857
 10
0.2299544174212971
 20
0.1479533099573951
 10
0.2300050138128109
 20
0.1464718446086823
 10
0.2296746769430531
 20
0.146090615538482
 10
0.2286642749830909
 20
0.1459906053337722
 10
0.2271906881982562
 20
0.1458298522254648
 10
0.225869564050398
 20
0.1458450503798116
 10
0.2244410052776893
 20
0.1462100632473283
 10
0.223383793622862
 20
0.146766735653356
 10
0.2224946492590532
 20
0.1472804650541221
 10
0.2220842926396973
 20
0.1476360410888954
  0
LWPOLYLINE
  5
76C
330
2
100
AcDbEntity
  8
Profilo
  6
Continuous
370
     0
100
AcDbPolyline
 90
        3
 70
   128
 43
0.0
 10
0.2224657522830526
 20
0.1509309165982295
 10
0.2244356572286119
 20
0.1497574081026793
 10
0.2284495117964227
 20
0.1474602880708401
  0
LWPOLYLINE
  5
76D
330
2
100
AcDbEntity
  8
Profilo
  6
Continuous
370
     0
100
AcDbPolyline
 90
        3
 70
   128
 43
0.0
 10
0.2254967698473653
 20
0.1491460131787627
 10
0.226204026949713
 20
0.1477116733689449
 10
0.2266709997376346
 20
0.1469476324372253
  0
LWPOLYLINE
  5
76E
330
2
100
AcDbEntity
  8
Profilo
  6
Continuous
370
     0
100
AcDbPolyline
 90
        4
 70
   128
 43
0.0
 10
0.2230007994629404
 20
0.150574203241224
 10
0.2233366610924137
 20
0.1498578072922181
 10
0.2235443341917505
 20
0.1490752494654802
 10
0.22368310108753
 20
0.1476611704542102
  0
LWPOLYLINE
  5
76F
330
2
100
AcDbEntity
  8
Profilo
  6
Continuous
370
     0
100
AcDbPolyline
 90
        4
 70
   128
 43
0.0
 10
0.2206192832772695
 20
0.1529187025477765
 10
0.222245098120345
 20
0.1522346866794234
 10
0.2239037534750559
 20
0.1521110843960513
 10
0.2262590474846686
 20
0.1524256872157399
  0
LWPOLYLINE
  5
770
330
2
100
AcDbEntity
  8
Profilo
  6
Continuous
370
     0
100
AcDbPolyline
 90
        4
 70
   128
 43
0.0
 10
0.2248569212369278
 20
0.1499715290659744
 10
0.2263552087467178
 20
0.149715101482107
 10
0.2276328535575367
 20
0.1498310529395199
 10
0.2284725552546407
 20
0.1499641021565556
  0
LWPOLYLINE
  5
771
330
2
100
AcDbEntity
  8
Profilo
  6
Continuous
370
     0
100
AcDbPolyline
 90
       22
 70
   128
 43
0.0
 10
0.2156595261338918
 20
0.1640631896871725
 10
0.2165648304165544
 20
0.1640769595915861
 10
0.2173634499968886
 20
0.1645269607779401
 10
0.218249590755524
 20
0.1655856851301385
 10
0.2200684594382471
 20
0.1668491975906165
 10
0.221610386191647
 20
0.1677571500110462
 10
0.2229776540247272
 20
0.1678429792481542
 10
0.2247317209752382
 20
0.1674778168898568
 10
0.2261849753367324
 20
0.1665910821810882
 10
0.2271089817132028
 20
0.1659498862378568
 10
0.2272192210558945
 20
0.1655386606108835
 10
0.226862714281957
 20
0.1646297149212907
 10
0.226181908977287
 20
0.1634285048590571
 10
0.224979425644672
 20
0.1621328510288806
 10
0.2239277338899444
 20
0.1614933075946515
 10
0.2223861901958914
 20
0.1609806757009531
 10
0.2214140632857779
 20
0.1608945179162686
 10
0.2202286445880113
 20
0.1608955083253199
 10
0.2187352230862338
 20
0.1611102299210609
 10
0.2177236968131597
 20
0.1611426998383355
 10
0.2170516143378045
 20
0.1607874709675003
 10
0.2166181101686526
 20
0.1604224717436885
  0
LWPOLYLINE
  5
772
330
2
100
AcDbEntity
  8
Profilo
  6
Continuous
370
     0
100
AcDbPolyline
 90
        8
 70
   128
 43
0.0
 10
0.2154328073215874
 20
0.1620933868327137
 10
0.2170455744316533
 20
0.1627087439497651
 10
0.2183340439157482
 20
0.163031831212427
 10
0.2198123188688446
 20
0.1634970756375483
 10
0.2207848292152399
 20
0.1639785565706001
 10
0.2216702034782465
 20
0.1642466372477001
 10
0.2237015970760592
 20
0.1646323552177066
 10
0.2254090752024862
 20
0.165121129341804
  0
LWPOLYLINE
  5
773
330
2
100
AcDbEntity
  8
Profilo
  6
Continuous
370
     0
100
AcDbPolyline
 90
        4
 70
   128
 43
0.0
 10
0.2182164316674611
 20
0.1629592052822796
 10
0.2191798520397523
 20
0.1626676260716697
 10
0.2203939155056542
 20
0.1621432157514121
 10
0.2220055794485758
 20
0.161496043764293
  0
LWPOLYLINE
  5
774
330
2
100
AcDbEntity
  8
Profilo
  6
Continuous
370
     0
100
AcDbPolyline
 90
        4
 70
   128
 43
0.0
 10
0.2214023873551369
 20
0.1641410685641612
 10
0.2224545397469051
 20
0.1638585985152511
 10
0.2233658937143048
 20
0.1635089072990954
 10
0.2245737969394705
 20
0.162941651563408
  0
LWPOLYLINE
  5
775
330
2
100
AcDbEntity
  8
Profilo
  6
Continuous
370
     0
100
AcDbPolyline
 90
        4
 70
   128
 43
0.0
 10
0.2210996795152653
 20
0.1643157874297881
 10
0.2217246167120257
 20
0.1651661635643573
 10
0.2224045508605006
 20
0.1659430369824509
 10
0.2230355001946151
 20
0.1666832195534192
  0
LWPOLYLINE
  5
776
330
2
100
AcDbEntity
  8
Profilo
  6
Continuous
370
     0
100
AcDbPolyline
 90
       10
 70
   128
 43
0.0
 10
0.229444785796056
 20
0.1688490731520214
 10
0.23121595952287
 20
0.1683592058202207
 10
0.2323179462988485
 20
0.1678479448732484
 10
0.2329371678371654
 20
0.1672492886504969
 10
0.2332547963889981
 20
0.1667331985692096
 10
0.2332103517853892
 20
0.1661515585751861
 10
0.2326389674057252
 20
0.1651752590932214
 10
0.2322763627899429
 20
0.1645609590460244
 10
0.2317160225914929
 20
0.1636614735316347
 10
0.2310791677895427
 20
0.1630474037677791
  0
LWPOLYLINE
  5
777
330
2
100
AcDbEntity
  8
Profilo
  6
Continuous
370
     0
100
AcDbPolyline
 90
        7
 70
   128
 43
0.0
 10
0.2323144867177167
 20
0.1642810630413523
 10
0.2332027014409175
 20
0.1639181460487591
 10
0.2339426137797587
 20
0.1633413380491617
 10
0.2340080825434134
 20
0.162979108569528
 10
0.2337824690058909
 20
0.1622275066813115
 10
0.2333486088234589
 20
0.161662655254312
 10
0.2331729603215191
 20
0.1615311005823817
  0
LWPOLYLINE
  5
778
330
2
100
AcDbEntity
  8
Profilo
  6
Continuous
370
     0
100
AcDbPolyline
 90
       14
 70
   128
 43
0.0
 10
0.2263901242439383
 20
0.1636823855086795
 10
0.2284139908779015
 20
0.1635874074712108
 10
0.2302290757124175
 20
0.163130427615812
 10
0.2320712419521256
 20
0.1623167375496903
 10
0.233172695609132
 20
0.161256726706733
 10
0.2340162006394018
 20
0.1600377932228296
 10
0.233944411576845
 20
0.1595384893254044
 10
0.2331484769572747
 20
0.1589080908457803
 10
0.2319957265604826
 20
0.1579761755615581
 10
0.2308761094611988
 20
0.1572747074233365
 10
0.2294769884917251
 20
0.1568094386050033
 10
0.2282866456275008
 20
0.1567061694599141
 10
0.227260906707069
 20
0.1566576383975421
 10
0.2267234538332075
 20
0.1567349124548485
  0
LWPOLYLINE
  5
779
330
2
100
AcDbEntity
  8
Profilo
  6
Continuous
370
     0
100
AcDbPolyline
 90
        3
 70
   128
 43
0.0
 10
0.2252630139170322
 20
0.1597129707707249
 10
0.2275546500041508
 20
0.1597907636231126
 10
0.2321732361913995
 20
0.1600283568956797
  0
LWPOLYLINE
  5
77A
330
2
100
AcDbEntity
  8
Profilo
  6
Continuous
370
     0
100
AcDbPolyline
 90
        3
 70
   128
 43
0.0
 10
0.2287778597948631
 20
0.1598501062770283
 10
0.2301483049781228
 20
0.1590258349027032
 10
0.2309542191995917
 20
0.1586355473194576
  0
LWPOLYLINE
  5
77B
330
2
100
AcDbEntity
  8
Profilo
  6
Continuous
370
     0
100
AcDbPolyline
 90
        4
 70
   128
 43
0.0
 10
0.2259059780482728
 20
0.1597021527436477
 10
0.2265758357221019
 20
0.1592810626265508
 10
0.2271736241537472
 20
0.1587350096443522
 10
0.2280548711276611
 20
0.1576204337283886
  0
LWPOLYLINE
  5
77C
330
2
100
AcDbEntity
  8
Profilo
  6
Continuous
370
     0
100
AcDbPolyline
 90
        4
 70
   128
 43
0.0
 10
0.2226349871219642
 20
0.1603869262106004
 10
0.2243725165006494
 20
0.1606904773106274
 10
0.2258346906170703
 20
0.1614832332399225
 10
0.2276460028979044
 20
0.1630212620521299
  0
LWPOLYLINE
  5
77D
330
2
100
AcDbEntity
  8
Profilo
  6
Continuous
370
     0
100
AcDbPolyline
 90
        4
 70
   128
 43
0.0
 10
0.2277932773067708
 20
0.1601986461577584
 10
0.2291923521861385
 20
0.160792960930991
 10
0.2302044873062228
 20
0.1615812524391155
 10
0.2308389574879757
 20
0.1621471575749282
  0
LWPOLYLINE
  5
77E
330
2
100
AcDbEntity
  8
Profilo
  6
Continuous
370
     0
100
AcDbPolyline
 90
       22
 70
   128
 43
0.0
 10
0.2124374092659462
 20
0.1670808182318321
 10
0.2131915551196457
 20
0.1675818466599917
 10
0.2136201076537427
 20
0.1683921780905381
 10
0.2137931870982979
 20
0.1697619175562486
 10
0.2146402103938965
 20
0.1718082065288739
 10
0.215446485583769
 20
0.1734056532506176
 10
0.216550301689763
 20
0.174217058198512
 10
0.2182233383845962
 20
0.1748581842645338
 10
0.2199252987281206
 20
0.174897904184067
 10
0.2210492790555822
 20
0.1748580513942957
 10
0.2213643436512049
 20
0.1745717062711624
 10
0.2215558442087959
 20
0.173614310384951
 10
0.2216325375310533
 20
0.1722357170399794
 10
0.2213214275252062
 20
0.1704956321060953
 10
0.2207824514061729
 20
0.1693890264426643
 10
0.2197627720536002
 20
0.1681243516081523
 10
0.218991547271248
 20
0.1675262995800508
 10
0.2179937741483091
 20
0.1668862470313768
 10
0.2166213407748858
 20
0.1662594777108421
 10
0.2157528361614924
 20
0.1657399207523075
 10
0.2153794956318589
 20
0.1650777279908801
 10
0.2152121421967952
 20
0.1645363010559871
  0
LWPOLYLINE
  5
77F
330
2
100
AcDbEntity
  8
Profilo
  6
Continuous
370
     0
100
AcDbPolyline
 90
        8
 70
   128
 43
0.0
 10
0.2133116370895964
 20
0.1653011411775206
 10
0.2143356959437839
 20
0.1666907402549446
 10
0.2152449512874288
 20
0.1676591377512193
 10
0.2162370251879022
 20
0.1688497420465487
 10
0.2167948447072885
 20
0.1697805683711284
 10
0.2173947335775088
 20
0.1704847616531289
 10
0.2188951157396286
 20
0.171907502553369
 10
0.2200672865037136
 20
0.1732418178820811
  0
LWPOLYLINE
  5
780
330
2
100
AcDbEntity
  8
Profilo
  6
Continuous
370
     0
100
AcDbPolyline
 90
        4
 70
   128
 43
0.0
 10
0.2151852741102964
 20
0.1675344549488511
 10
0.2161533945248657
 20
0.1678100272854543
 10
0.2174582473288631
 20
0.1680252375155328
 10
0.2191639529067324
 20
0.1683521331065842
  0
LWPOLYLINE
  5
781
330
2
100
AcDbEntity
  8
Profilo
  6
Continuous
370
     0
100
AcDbPolyline
 90
        4
 70
   128
 43
0.0
 10
0.2172265070571602
 20
0.1702511592974196
 10
0.2182643488119613
 20
0.1705823669000285
 10
0.2192200859016558
 20
0.1707809030829638
 10
0.2205429203617932
 20
0.1709567389783589
  0
LWPOLYLINE
  5
782
330
2
100
AcDbEntity
  8
Profilo
  6
Continuous
370
     0
100
AcDbPolyline
 90
        4
 70
   128
 43
0.0
 10
0.2168773928671153
 20
0.170234485946382
 10
0.2169433754431493
 20
0.171287734430739
 10
0.2170953629678289
 20
0.1723088820921202
 10
0.2172259784139554
 20
0.1732726802586559
  0
LWPOLYLINE
  5
783
330
2
100
AcDbEntity
  8
Profilo
  6
Continuous
370
     0
100
AcDbPolyline
 90
       10
 70
   128
 43
0.0
 10
0.2214468637090541
 20
0.1785598336569445
 10
0.2232017121387033
 20
0.1791052998449693
 10
0.2244051709434329
 20
0.1792709787985206
 10
0.2252497512397904
 20
0.1791021335748415
 10
0.225795976744575
 20
0.1788396939306092
 10
0.226073045886608
 20
0.1783263586639742
 10
0.2261201941086226
 20
0.1771961295575677
 10
0.2261472673742546
 20
0.1764833086167551
 10
0.2261621777865097
 20
0.1754236704671008
 10
0.2259584126135741
 20
0.1745627724081256
  0
LWPOLYLINE
  5
784
330
2
100
AcDbEntity
  8
Profilo
  6
Continuous
370
     0
100
AcDbPolyline
 90
        7
 70
   128
 43
0.0
 10
0.2263306624679473
 20
0.1762684564654752
 10
0.2272740839812963
 20
0.1764433563973591
 10
0.2282083837987499
 20
0.1763581414416491
 10
0.2284592956694402
 20
0.176088809698112
 10
0.2286758441431911
 20
0.1753345460670118
 10
0.2286162394691991
 20
0.1746248002848322
 10
0.2285395983717786
 20
0.1744191667026372
  0
LWPOLYLINE
  5
785
330
2
100
AcDbEntity
  8
Profilo
  6
Continuous
370
     0
100
AcDbPolyline
 90
       14
 70
   128
 43
0.0
 10
0.2216704411177652
 20
0.1725618647053611
 10
0.2234243750773832
 20
0.173576149007206
 10
0.2251983835693923
 20
0.1741730220381032
 10
0.2271880264891124
 20
0.1744844526570735
 10
0.2286877133979666
 20
0.1741882055961095
 10
0.230056320179804
 20
0.1736188067455825
 10
0.230265871444572
 20
0.173159953480452
 10
0.229937107783303
 20
0.1721993137890115
 10
0.2294711838805903
 20
0.1707921128470163
 10
0.228908544348067
 20
0.1695966895937746
 10
0.2279830722039187
 20
0.16844885865198
 10
0.2270375235791289
 20
0.1677184351796747
 10
0.2262008549617855
 20
0.1671230519235638
 10
0.2257069433234096
 20
0.1668974900362009
  0
LWPOLYLINE
  5
786
330
2
100
AcDbEntity
  8
Profilo
  6
Continuous
370
     0
100
AcDbPolyline
 90
        3
 70
   128
 43
0.0
 10
0.2228682832021136
 20
0.1686132186852832
 10
0.224754072165058
 20
0.1699176142046339
 10
0.2285110214906638
 20
0.1726144865963211
  0
LWPOLYLINE
  5
787
330
2
100
AcDbEntity
  8
Profilo
  6
Continuous
370
     0
100
AcDbPolyline
 90
        3
 70
   128
 43
0.0
 10
0.2257510186619662
 20
0.1706288535630587
 10
0.2273495452635539
 20
0.1706763509615513
 10
0.2282385288475723
 20
0.1707837302768198
  0
LWPOLYLINE
  5
788
330
2
100
AcDbEntity
  8
Profilo
  6
Continuous
370
     0
100
AcDbPolyline
 90
        4
 70
   128
 43
0.0
 10
0.2234150277160058
 20
0.168951730635295
 10
0.2242062063557377
 20
0.1689596394870048
 10
0.2250043165164153
 20
0.1688234593129673
 10
0.2263482538808399
 20
0.1683622564704116
  0
LWPOLYLINE
  5
789
330
2
100
AcDbEntity
  8
Profilo
  6
Continuous
370
     0
100
AcDbPolyline
 90
        4
 70
   128
 43
0.0
 10
0.2202930785564441
 20
0.1677593675252682
 10
0.2215906691698033
 20
0.1689541102642065
 10
0.2223921320972002
 20
0.1704115299999633
 10
0.2230843837982095
 20
0.1726846715240058
  0
LWPOLYLINE
  5
78A
330
2
100
AcDbEntity
  8
Profilo
  6
Continuous
370
     0
100
AcDbPolyline
 90
        4
 70
   128
 43
0.0
 10
0.2247343002794599
 20
0.1703897584878406
 10
0.2255899661395972
 20
0.1716461248768995
 10
0.2260152458197251
 20
0.1728564794517073
 10
0.2262430446863723
 20
0.1736755696241714
  0
LWPOLYLINE
  5
78B
330
2
100
AcDbEntity
  8
Profilo
  6
Continuous
370
     0
100
AcDbPolyline
 90
       22
 70
   128
 43
0.0
 10
0.2080953389044302
 20
0.1678774010083754
 10
0.2084588903491558
 20
0.1687066149744382
 10
0.2083813134354486
 20
0.1696200021455069
 10
0.2077863800651978
 20
0.1708658741224828
 10
0.2073926340621004
 20
0.173045257316834
 10
0.2072072710125294
 20
0.1748250202927574
 10
0.2076971815769746
 20
0.1761043856135951
 10
0.2087580106866345
 20
0.1775482471079542
 10
0.2101683166285968
 20
0.178501810861985
 10
0.2111354150947469
 20
0.1790759542048398
 10
0.211555274160329
 20
0.1790054021389234
 10
0.2122339819754917
 20
0.1783035224853294
 10
0.2130438243367501
 20
0.1771852395039734
 10
0.2137228628863286
 20
0.1755531881380372
 10
0.213867723512559
 20
0.1743308597246416
 10
0.2136936494911981
 20
0.1727156672735081
 10
0.2133681852557914
 20
0.1717955982952781
 10
0.2128748436242847
 20
0.1707177149506877
 10
0.2120591362781268
 20
0.1694484495446067
 10
0.2116093974026063
 20
0.1685418213735835
 10
0.211653331798954
 20
0.1677829062444867
 10
0.2118052626311482
 20
0.1672369508248013
  0
LWPOLYLINE
  5
78C
330
2
100
AcDbEntity
  8
Profilo
  6
Continuous
370
     0
100
AcDbPolyline
 90
        8
 70
   128
 43
0.0
 10
0.2097929522070248
 20
0.1668528846443581
 10
0.2099031713547836
 20
0.1685755377935103
 10
0.2101445304108618
 20
0.1698817861607004
 10
0.2103354268049726
 20
0.1714197418748787
 10
0.210301451741308
 20
0.172504382809837
 10
0.2104253947410595
 20
0.1734211123052945
 10
0.2109184047322057
 20
0.1754291659525491
 10
0.2111831121985157
 20
0.1771853867968314
  0
LWPOLYLINE
  5
78D
330
2
100
AcDbEntity
  8
Profilo
  6
Continuous
370
     0
100
AcDbPolyline
 90
        4
 70
   128
 43
0.0
 10
0.2101617353869651
 20
0.1697446323948968
 10
0.2108271844525984
 20
0.1704998640089427
 10
0.2118085450490714
 20
0.1713863670619099
 10
0.2130667427928554
 20
0.1725835431907071
  0
LWPOLYLINE
  5
78E
330
2
100
AcDbEntity
  8
Profilo
  6
Continuous
370
     0
100
AcDbPolyline
 90
        4
 70
   128
 43
0.0
 10
0.2104101685550506
 20
0.1731336433747974
 10
0.2111041922487751
 20
0.1739733725552981
 10
0.2118008726877012
 20
0.1746571023020319
 10
0.2128186477884182
 20
0.1755202031741189
  0
LWPOLYLINE
  5
78F
330
2
100
AcDbEntity
  8
Profilo
  6
Continuous
370
     0
100
AcDbPolyline
 90
        4
 70
   128
 43
0.0
 10
0.2101254893034483
 20
0.1729308714782416
 10
0.209611568257076
 20
0.173852593360501
 10
0.2091873541927669
 20
0.1747938080977659
 10
0.2087761662696448
 20
0.1756752227518664
  0
LWPOLYLINE
  5
790
330
2
100
AcDbEntity
  8
Profilo
  6
Continuous
370
     0
100
AcDbPolyline
 90
       10
 70
   128
 43
0.0
 10
0.2094685500005575
 20
0.1824050421031256
 10
0.2106499211557955
 20
0.1838126601503578
 10
0.2115727623220078
 20
0.1846026771073118
 10
0.2123745530998315
 20
0.1849172500482196
 10
0.2129759528192452
 20
0.1849917835737762
 10
0.2134865682120008
 20
0.1847097333546328
 10
0.2141372798083367
 20
0.1837844143792512
 10
0.2145454353848353
 20
0.1831993881569789
 10
0.2151308624572572
 20
0.18231602499753
 10
0.2154248809160075
 20
0.1814816276943448
  0
LWPOLYLINE
  5
791
330
2
100
AcDbEntity
  8
Profilo
  6
Continuous
370
     0
100
AcDbPolyline
 90
        7
 70
   128
 43
0.0
 10
0.2148158749980082
 20
0.1831177938990499
 10
0.215514973636916
 20
0.1837749812628216
 10
0.2163470273423862
 20
0.1842084144973368
 10
0.2167037195740271
 20
0.1841174914154624
 10
0.2172936774486935
 20
0.1836000394149806
 10
0.2176272523459881
 20
0.1829707385486387
 10
0.2176739516599977
 20
0.1827563132655886
  0
LWPOLYLINE
  5
792
330
2
100
AcDbEntity
  8
Profilo
  6
Continuous
370
     0
100
AcDbPolyline
 90
       14
 70
   128
 43
0.0
 10
0.2128993821225553
 20
0.1774801046058048
 10
0.2138265217683541
 20
0.1792816231477182
 10
0.2149962187561878
 20
0.1807428460949047
 10
0.2165016407870539
 20
0.1820805203779073
 10
0.2179234209504772
 20
0.1826420934476112
 10
0.2193826065007614
 20
0.1829030093423228
 10
0.2198069670469087
 20
0.1826302893790638
 10
0.2200497544834603
 20
0.1816444047902835
 10
0.2204185846218778
 20
0.1802086945467921
 10
0.2205915567322692
 20
0.1788988546149776
 10
0.2204335642801409
 20
0.1774328897635553
 10
0.2200330149022289
 20
0.1763072162555653
 10
0.2196510529623625
 20
0.1753540107827534
 10
0.2193574960148432
 20
0.1748972272562149
  0
LWPOLYLINE
  5
793
330
2
100
AcDbEntity
  8
Profilo
  6
Continuous
370
     0
100
AcDbPolyline
 90
        3
 70
   128
 43
0.0
 10
0.2160418702199245
 20
0.174805894515179
 10
0.2169230873873078
 20
0.176922756340517
 10
0.2186255949857261
 20
0.1812226699221533
  0
LWPOLYLINE
  5
794
330
2
100
AcDbEntity
  8
Profilo
  6
Continuous
370
     0
100
AcDbPolyline
 90
        3
 70
   128
 43
0.0
 10
0.2173772471217303
 20
0.1780600789325283
 10
0.218696334240293
 20
0.1789642650154177
 10
0.2193861411801932
 20
0.1795352190553087
  0
LWPOLYLINE
  5
795
330
2
100
AcDbEntity
  8
Profilo
  6
Continuous
370
     0
100
AcDbPolyline
 90
        4
 70
   128
 43
0.0
 10
0.2163188075964195
 20
0.175386261289962
 10
0.2169801135741409
 20
0.1758206581059418
 10
0.2177251511270122
 20
0.1761375869831194
 10
0.2191050882645504
 20
0.1764761858577794
  0
LWPOLYLINE
  5
796
330
2
100
AcDbEntity
  8
Profilo
  6
Continuous
370
     0
100
AcDbPolyline
 90
        4
 70
   128
 43
0.0
 10
0.2143370970031271
 20
0.1726953284655543
 10
0.2147827729997556
 20
0.1744019404654398
 10
0.2146690659215455
 20
0.1760613035391911
 10
0.2140224720188775
 20
0.1783478514024359
  0
LWPOLYLINE
  5
797
330
2
100
AcDbEntity
  8
Profilo
  6
Continuous
370
     0
100
AcDbPolyline
 90
        4
 70
   128
 43
0.0
 10
0.2166511937474687
 20
0.1773092598983786
 10
0.2166917827236274
 20
0.1788287904517982
 10
0.2163951836702405
 20
0.1800769290677449
 10
0.2161439866911723
 20
0.1808891489345174
  0
LWPOLYLINE
  5
798
330
2
100
AcDbEntity
  8
Profilo
  6
Continuous
370
     0
100
AcDbPolyline
 90
        4
 70
   128
 43
0.0
 10
0.2000247826842483
 20
0.1767671114520691
 10
0.1994857536678831
 20
0.1784507631851185
 10
0.1987445917500523
 20
0.1797303397087309
 10
0.1978686692673846
 20
0.1806731852154585
  0
LWPOLYLINE
  5
799
330
2
100
AcDbEntity
  8
Profilo
  6
Continuous
370
     0
100
AcDbPolyline
 90
        4
 70
   128
 43
0.0
 10
0.2016418670847477
 20
0.1774405718101515
 10
0.2012375959846226
 20
0.1794609545600857
 10
0.2011702157022042
 20
0.180875222820177
 10
0.2013723512522667
 20
0.1816833765904254
  0
LWPOLYLINE
  5
79A
330
2
100
AcDbEntity
  8
Profilo
  6
Continuous
370
     0
100
AcDbPolyline
 90
        4
 70
   128
 43
0.0
 10
0.1924163674561587
 20
0.1693152568180385
 10
0.191052656542577
 20
0.1704402136984836
 10
0.1897373601630783
 20
0.1711159595843771
 10
0.1884907465145569
 20
0.1714355722507684
  0
LWPOLYLINE
  5
79B
330
2
100
AcDbEntity
  8
Profilo
  6
Continuous
370
     0
100
AcDbPolyline
 90
        4
 70
   128
 43
0.0
 10
0.1934126452624476
 20
0.1707560695556776
 10
0.1919802493897482
 20
0.1722371582236857
 10
0.1911589543408836
 20
0.1733904878628915
 10
0.1908920806715069
 20
0.1741796328062063
  0
LWPOLYLINE
  5
79C
330
2
100
AcDbEntity
  8
Profilo
  6
Continuous
370
     0
100
AcDbPolyline
 90
        4
 70
   128
 43
0.0
 10
0.1900445380471851
 20
0.1589329379525596
 10
0.1882891138159268
 20
0.1591420341194248
 10
0.1868172802818127
 20
0.1589994048234206
 10
0.185595766492691
 20
0.1585943098861716
  0
LWPOLYLINE
  5
79D
330
2
100
AcDbEntity
  8
Profilo
  6
Continuous
370
     0
100
AcDbPolyline
 90
        4
 70
   128
 43
0.0
 10
0.1901036980951283
 20
0.1606836552058514
 10
0.1880979530186118
 20
0.1611552146047134
 10
0.1867834985783212
 20
0.1616814316116237
 10
0.186132346193894
 20
0.1622010197843343
  0
LWPOLYLINE
  5
79E
330
2
100
AcDbEntity
  8
Profilo
  6
Continuous
370
     0
100
AcDbPolyline
 90
        4
 70
   128
 43
0.0
 10
0.1936623335361294
 20
0.1489164677374628
 10
0.1920725307773863
 20
0.1481433166351713
 10
0.1909114568362569
 20
0.1472275959509801
 10
0.1901028649037777
 20
0.1462264081904034
  0
LWPOLYLINE
  5
79F
330
2
100
AcDbEntity
  8
Profilo
  6
Continuous
370
     0
100
AcDbPolyline
 90
        4
 70
   128
 43
0.0
 10
0.1927655929285115
 20
0.150421249148464
 10
0.1908233085380531
 20
0.1497335625009208
 10
0.1894330247036378
 20
0.1494655966939133
 10
0.1886043298853928
 20
0.1495506625224185
  0
LWPOLYLINE
  5
7A0
330
2
100
AcDbEntity
  8
Profilo
  6
Continuous
370
     0
100
AcDbPolyline
 90
        4
 70
   128
 43
0.0
 10
0.2021211294173739
 20
0.1424460046930446
 10
0.2012016992740364
 20
0.1409360763337492
 10
0.2007200176984452
 20
0.1395379991084286
 10
0.2005810698479336
 20
0.1382585885644525
  0
LWPOLYLINE
  5
7A1
330
2
100
AcDbEntity
  8
Profilo
  6
Continuous
370
     0
100
AcDbPolyline
 90
        4
 70
   128
 43
0.0
 10
0.200553196961047
 20
0.1432270927960398
 10
0.1992910348270922
 20
0.1415984957537246
 10
0.1982663268927027
 20
0.1406214243831682
 10
0.1975231943901543
 20
0.1402449600679642
  0
LWPOLYLINE
  5
7A2
330
2
100
AcDbEntity
  8
Profilo
  6
Continuous
370
     0
100
AcDbPolyline
 90
        4
 70
   128
 43
0.0
 10
0.2127353177656197
 20
0.1415758751178004
 10
0.2127781728118141
 20
0.1398085610869335
 10
0.2131288140986121
 20
0.1383720069611812
 10
0.2137036252908466
 20
0.1372205774416352
  0
LWPOLYLINE
  5
7A3
330
2
100
AcDbEntity
  8
Profilo
  6
Continuous
370
     0
100
AcDbPolyline
 90
        4
 70
   128
 43
0.0
 10
0.2109940009369853
 20
0.1413852799589934
 10
0.2108126886190533
 20
0.1393328405757245
 10
0.2104788941136191
 20
0.1379568768981145
 10
0.2100572632456032
 20
0.1372384071993087
  0
LWPOLYLINE
  5
7A4
330
2
100
AcDbEntity
  8
Profilo
  6
Continuous
370
     0
100
AcDbPolyline
 90
        4
 70
   128
 43
0.0
 10
0.2221349687765699
 20
0.1465823390038285
 10
0.2231265028379286
 20
0.1451187490189462
 10
0.2241981408560705
 20
0.1440998137774821
 10
0.2253042125989373
 20
0.1434419360192098
  0
LWPOLYLINE
  5
7A5
330
2
100
AcDbEntity
  8
Profilo
  6
Continuous
370
     0
100
AcDbPolyline
 90
        4
 70
   128
 43
0.0
 10
0.2207731233651631
 20
0.1454805731994596
 10
0.2217302262431053
 20
0.1436559264775812
 10
0.2221933225636212
 20
0.142317929238464
 10
0.2222270581516315
 20
0.1414855632089629
  0
LWPOLYLINE
  5
7A6
330
2
100
AcDbEntity
  8
Profilo
  6
Continuous
370
     0
100
AcDbPolyline
 90
        4
 70
   128
 43
0.0
 10
0.2273357596690071
 20
0.1558758794412987
 10
0.2289611676868939
 20
0.1551806929813682
 10
0.2304135649374512
 20
0.1549028813639048
 10
0.2316997272677217
 20
0.1549474269068157
  0
LWPOLYLINE
  5
7A7
330
2
100
AcDbEntity
  8
Profilo
  6
Continuous
370
     0
100
AcDbPolyline
 90
        4
 70
   128
 43
0.0
 10
0.22678576197061
 20
0.1542127458495496
 10
0.228577406643246
 20
0.1531952042309204
 10
0.2296903639800301
 20
0.152319978099879
 10
0.2301687552132379
 20
0.1516379860728319
  0
LWPOLYLINE
  5
7A8
330
2
100
AcDbEntity
  8
Profilo
  6
Continuous
370
     0
100
AcDbPolyline
 90
        4
 70
   128
 43
0.0
 10
0.2266864760816152
 20
0.1665058630063327
 10
0.2284297024949364
 20
0.1667997968604293
 10
0.2298017331130062
 20
0.1673513120925882
 10
0.230859638578407
 20
0.1680841380415516
  0
LWPOLYLINE
  5
7A9
330
2
100
AcDbEntity
  8
Profilo
  6
Continuous
370
     0
100
AcDbPolyline
 90
        4
 70
   128
 43
0.0
 10
0.2271229464793711
 20
0.1648093947914435
 10
0.2291802984222946
 20
0.1649220205503729
 10
0.2305897606847005
 20
0.1647874436399604
 10
0.2313609217267125
 20
0.1644723532652295
  0
LWPOLYLINE
  5
7AA
330
2
100
AcDbEntity
  8
Profilo
  6
Continuous
370
     0
100
AcDbPolyline
 90
        4
 70
   128
 43
0.0
 10
0.2203932609657733
 20
0.1750973450249072
 10
0.2217008437053478
 20
0.1762870772711927
 10
0.2225568976639975
 20
0.1774928171635837
 10
0.2230506687540672
 20
0.1786812564577047
  0
LWPOLYLINE
  5
7AB
330
2
100
AcDbEntity
  8
Profilo
  6
Continuous
370
     0
100
AcDbPolyline
 90
        4
 70
   128
 43
0.0
 10
0.2216776231923465
 20
0.1739061588584336
 10
0.2233474877002346
 20
0.175113194112237
 10
0.2246059605787309
 20
0.1757619936406345
 10
0.2254250532474729
 20
0.1759138438858745
  0
LWPOLYLINE
  5
7AC
330
2
100
AcDbEntity
  8
Profilo
  6
Continuous
370
     0
100
AcDbPolyline
 90
        4
 70
   128
 43
0.0
 10
0.2104541656550281
 20
0.178922590660636
 10
0.2109109564399783
 20
0.1806303897171609
 10
0.2109792426559258
 20
0.182107540373301
 10
0.2107521105383869
 20
0.1833742719338068
  0
LWPOLYLINE
  5
7AD
330
2
100
AcDbEntity
  8
Profilo
  6
Continuous
370
     0
100
AcDbPolyline
 90
        4
 70
   128
 43
0.0
 10
0.2121786437783515
 20
0.178614879733914
 10
0.2129308506686478
 20
0.1805330993180124
 10
0.2136387779162574
 20
0.1817592860191521
 10
0.2142457460768352
 20
0.182329865504422
  0
LWPOLYLINE
  5
7AE
330
2
100
AcDbEntity
  8
Profilo
  6
Continuous
370
     0
100
AcDbPolyline
 90
       18
 70
   129
 43
0.0
 10
0.2029874080486842
 20
0.1602161042191658
 10
0.2034867830756701
 20
0.159841896567827
 10
0.2041068003675861
 20
0.1596270839731281
 10
0.204856525039155
 20
0.1595377974958356
 10
0.2054569414624086
 20
0.1597351299422002
 10
0.2059204506176322
 20
0.1602405537373885
 10
0.2060544215237512
 20
0.1606212952835516
 10
0.2060686817987396
 20
0.161042522718686
 10
0.2058277896434799
 20
0.161467907922417
 10
0.2053804057358104
 20
0.1617834663525507
 10
0.2047761182875807
 20
0.1620750906628445
 10
0.2043401992459437
 20
0.1622122462176602
 10
0.203894284906972
 20
0.1621833889282543
 10
0.2033706529833659
 20
0.1619703540064854
 10
0.2031822910797312
 20
0.1617927987492075
 10
0.2030235253420918
 20
0.1613691112950876
 10
0.2029043511946729
 20
0.1608653013567524
 10
0.2029206202975573
 20
0.1603978187009481
  0
LWPOLYLINE
  5
7AF
330
2
100
AcDbEntity
  8
Profilo
  6
Continuous
370
     0
100
AcDbPolyline
 90
       18
 70
   129
 43
0.0
 10
0.205835333812866
 20
0.1550216292807186
 10
0.2064090946587094
 20
0.1552669969144349
 10
0.2069051364687289
 20
0.1556965413426703
 10
0.2073573231620636
 20
0.1563011787154466
 10
0.2074866364621475
 20
0.1569198208140163
 10
0.2072806811934493
 20
0.1575739434149204
 10
0.2070179347952552
 20
0.157880336396069
 10
0.206660271273152
 20
0.158103299874041
 10
0.2061714308026972
 20
0.1581073737498798
 10
0.2056744572319886
 20
0.1578777071356602
 10
0.2051197594467979
 20
0.1575001910094523
 10
0.204783019731239
 20
0.1571912518228087
 10
0.2045850537074625
 20
0.1567906500326448
 10
0.2045077313998054
 20
0.1562306540236848
 10
0.2045673178113658
 20
0.1559787502013929
 10
0.2048548590410786
 20
0.155629411312287
 10
0.2052315841726469
 20
0.1552742985039804
 10
0.2056445705798435
 20
0.1550546466324728
  0
LWPOLYLINE
  5
7B0
330
2
100
AcDbEntity
  8
Profilo
  6
Continuous
370
     0
100
AcDbPolyline
 90
       18
 70
   129
 43
0.0
 10
0.2117578439509737
 20
0.1548907678713691
 10
0.2118322297698312
 20
0.1555103431564241
 10
0.2117082542879347
 20
0.1561547001793586
 10
0.2114107163097005
 20
0.1568486240294273
 10
0.2109396131865309
 20
0.1572699336816324
 10
0.2102701487626091
 20
0.1574186324873481
 10
0.209873431458296
 20
0.1573442839223337
 10
0.2095015076612043
 20
0.1571460199651713
 10
0.2092535593460083
 20
0.156724708637279
 10
0.2092039696829693
 20
0.1561794835929257
 10
0.2092535593460083
 20
0.1555103431564241
 10
0.2093527386720873
 20
0.1550642484149647
 10
0.2096006869872824
 20
0.1546925039142067
 10
0.2100469966032306
 20
0.1543455428270158
 10
0.2102949449184266
 20
0.1542711942620017
 10
0.2107412518857787
 20
0.1543455428270158
 10
0.211237151164765
 20
0.1544942399570443
 10
0.2116338684690782
 20
0.1547420707413409
  0
LWPOLYLINE
  5
7B1
330
2
100
AcDbEntity
  8
Profilo
  6
Continuous
370
     0
100
AcDbPolyline
 90
       18
 70
   129
 43
0.0
 10
0.2148324283248997
 20
0.1599543814004667
 10
0.2143330532979137
 20
0.1603285890518054
 10
0.2137130360059978
 20
0.1605434016465044
 10
0.2129633113344289
 20
0.1606326881237969
 10
0.2123628949111744
 20
0.1604353556774322
 10
0.2118993857559517
 20
0.1599299318822439
 10
0.2117654148498327
 20
0.1595491903360808
 10
0.2117511545748443
 20
0.1591279629009464
 10
0.2119920467301031
 20
0.1587025776972154
 10
0.2124394306377735
 20
0.1583870192670818
 10
0.2130437180860023
 20
0.1580953949567879
 10
0.2134796371276402
 20
0.1579582394019723
 10
0.213925551466611
 20
0.1579870966913781
 10
0.214449183390218
 20
0.1582001316131471
 10
0.2146375452938527
 20
0.158377686870425
 10
0.2147963110314912
 20
0.1588013743245449
 10
0.2149154851789101
 20
0.1593051842628801
 10
0.2148992160760257
 20
0.1597726669186843
  0
LWPOLYLINE
  5
7B2
330
2
100
AcDbEntity
  8
Profilo
  6
Continuous
370
     0
100
AcDbPolyline
 90
       18
 70
   129
 43
0.0
 10
0.2119845025607179
 20
0.1651488563389138
 10
0.2114107417148745
 20
0.1649034887051977
 10
0.2109146999048541
 20
0.164473944276962
 10
0.2104625132115203
 20
0.1638693069041858
 10
0.2103331999114355
 20
0.1632506648056161
 10
0.2105391551801345
 20
0.1625965422047121
 10
0.2108019015783287
 20
0.1622901492235634
 10
0.2111595651004319
 20
0.1620671857455915
 10
0.2116484055708858
 20
0.1620631118697526
 10
0.2121453791415953
 20
0.1622927784839723
 10
0.2127000769267859
 20
0.1626702946101801
 10
0.2130368166423449
 20
0.1629792337968238
 10
0.2132347826661205
 20
0.1633798355869877
 10
0.2133121049737785
 20
0.1639398315959475
 10
0.213252518562218
 20
0.1641917354182396
 10
0.2129649773325044
 20
0.1645410743073454
 10
0.212588252200937
 20
0.1648961871156521
 10
0.2121752657937395
 20
0.1651158389871596
  0
DIMENSION
  5
7B3
102
{ACAD_XDICTIONARY
360
7BD
102
}
102
{ACAD_REACTORS
330
7C4
102
}
330
2
100
AcDbEntity
  8
Text
  6
ACAD_ISO10W100
100
AcDbDimension
  2
*D19
 10
0.1712123824572375
 20
0.125365532270715
 30
0.0
 11
0.2647427103632332
 21
0.1968373266487671
 31
0.0
 70
    35
  1
d 410 mm
 71
     5
 42
0.1025
  3
Bovelacci
100
AcDbDiametricDimension
 15
0.2466074539163463
 25
0.1948049533489173
 35
0.0
 40
0.0
1001
ACAD
1000
DSTYLE
1002
{
1070
   288
1070
     1
1002
}
  0
ENDSEC
  0
SECTION
  2
OBJECTS
  0
DICTIONARY
  5
9
330
0
100
AcDbDictionary
281
     1
  3
ACAD_2007HEADERVARS_RT
350
208
  3
ACAD_COLOR
350
184
  3
ACAD_GROUP
350
17F
  3
ACAD_LAYOUT
350
164
  3
ACAD_MATERIAL
350
B
  3
ACAD_MLINESTYLE
350
180
  3
ACAD_PLOTSETTINGS
350
181
  3
ACAD_PLOTSTYLENAME
350
8
  3
ACAD_TABLESTYLE
350
185
  3
ACAD_VISUALSTYLE
350
17A
  3
ACDBHEADERROUNDTRIPXREC
350
7D5
  3
AcDbVariableDictionary
350
18B
  3
DWGPROPS
350
7D4
  0
DICTIONARY
  5
16E
330
16D
100
AcDbDictionary
280
     1
281
     1
  3
ACAD_LAYERSTATES
360
16F
  0
DICTIONARY
  5
3
330
2
100
AcDbDictionary
280
     1
281
     1
  3
ACAD_SORTENTS
360
18A
  0
DICTIONARY
  5
7D6
330
18
100
AcDbDictionary
280
     1
281
     1
  3
ACAD_MTEXT_RT
360
7D7
  0
DICTIONARY
  5
7BD
330
7B3
100
AcDbDictionary
280
     1
281
     1
  3
ACAD_DIMASSOC
360
7C4
  0
DICTIONARY
  5
208
102
{ACAD_REACTORS
330
9
102
}
330
9
100
AcDbDictionary
281
     1
  3
DIMFXL
350
209
  0
DICTIONARY
  5
184
102
{ACAD_REACTORS
330
9
102
}
330
9
100
AcDbDictionary
281
     1
  0
DICTIONARY
  5
17F
102
{ACAD_REACTORS
330
9
102
}
330
9
100
AcDbDictionary
281
     1
  0
DICTIONARY
  5
164
102
{ACAD_REACTORS
330
9
102
}
330
9
100
AcDbDictionary
281
     1
  3
Layout1
350
168
  3
Layout2
350
16C
  3
Model
350
163
  0
DICTIONARY
  5
B
102
{ACAD_REACTORS
330
9
102
}
330
9
100
AcDbDictionary
281
     1
  3
ByBlock
350
183
  3
ByLayer
350
182
  3
Global
350
A
  0
DICTIONARY
  5
180
102
{ACAD_REACTORS
330
9
102
}
330
9
100
AcDbDictionary
281
     1
  3
Standard
350
186
  0
DICTIONARY
  5
181
102
{ACAD_REACTORS
330
9
102
}
330
9
100
AcDbDictionary
281
     1
  0
ACDBDICTIONARYWDFLT
  5
8
102
{ACAD_REACTORS
330
9
102
}
330
9
100
AcDbDictionary
281
     1
  3
Normal
350
7
100
AcDbDictionaryWithDefault
340
7
  0
DICTIONARY
  5
185
102
{ACAD_REACTORS
330
9
102
}
330
9
100
AcDbDictionary
281
     1
  3
Standard
350
187
  0
DICTIONARY
  5
17A
102
{ACAD_REACTORS
330
9
102
}
330
9
100
AcDbDictionary
281
     1
  3
2dWireframe
350
179
  3
3D Hidden
350
1BD
  3
3dWireframe
350
189
  3
Basic
350
1BC
  3
Brighten
350
1C0
  3
ColorChange
350
1C4
  3
Conceptual
350
1BE
  3
Dim
350
1BF
  3
Facepattern
350
1C3
  3
Flat
350
1B8
  3
FlatWithEdges
350
1B9
  3
Gouraud
350
1BA
  3
GouraudWithEdges
350
1BB
  3
Linepattern
350
1C2
  3
Realistic
350
188
  3
Thicken
350
1C1
  0
DICTIONARY
  5
7D5
102
{ACAD_REACTORS
330
9
102
}
330
9
100
AcDbDictionary
281
     1
  0
DICTIONARY
  5
18B
102
{ACAD_REACTORS
330
9
102
}
330
9
100
AcDbDictionary
281
     1
  3
CTABLESTYLE
350
18C
  3
DIMASSOC
350
190
  3
HIDETEXT
350
18F
  3
INDEXCTL
350
18E
  3
PROJECTNAME
350
2F9
  3
SORTENTS
350
18D
  0
XRECORD
  5
7D4
102
{ACAD_REACTORS
330
9
102
}
330
9
100
AcDbXrecord
280
     1
  1
DWGPROPS COOKIE
  2

  3

  4

  6

  7

  8
Mario
  9

300
=
301
=
302
=
303
=
304
=
305
=
306
=
307
=
308
=
309
=
 40
0.1108724074074074
 41
2454297.625402373
 42
2454305.942728403
  1

 90
        0
  0
DICTIONARY
  5
16F
102
{ACAD_REACTORS
330
16E
102
}
330
16E
100
AcDbDictionary
281
     1
  0
SORTENTSTABLE
  5
18A
102
{ACAD_REACTORS
330
3
102
}
330
3
100
AcDbSortentsTable
330
2
331
14
  5
10
331
23
  5
24
331
12
  5
16
331
10
  5
14
331
21
  5
22
331
1F
  5
21
331
1D
  5
1E
331
15
  5
11
331
24
  5
18
331
13
  5
D
331
22
  5
23
331
11
  5
15
331
1E
  5
1F
331
D
  5
13
331
1C
  5
1D
331
18
  5
1C
331
16
  5
12
  0
XRECORD
  5
7D7
102
{ACAD_REACTORS
330
7D6
102
}
330
7D6
100
AcDbXrecord
280
     1
 40
7955300.0
  1
{\fTimes New Roman|b0|i0|c238|p18;\H1.6x;\C4;Bovelacci\P\pt0.09;\H0.4375x;\T0.95;via del Commercio, 5  47100 Forli - Italy  \fTimes New Roman|b0|i0|c0|p18;\P\fTimes New Roman|b0|i0|c238|p18;tel.+39-0543721386  fax +39-0543721127\fTimes New Roman|b0|i
  1
0|c0|p18; \fTimes New Roman|b0|i0|c238|p18;www.bovelacci.it\fTimes New Roman|b0|i0|c0|p18; \fTimes New Roman|b0|i0|c238|p18;e-mail: bovelacci@bovelacci\fTimes New Roman|b0|i0|c0|p18;.it}
  0
DIMASSOC
  5
7C4
102
{ACAD_REACTORS
330
7BD
102
}
330
7BD
100
AcDbDimAssoc
330
7B3
 90
        2
 70
     0
 71
     0
  1
AcDbOsnapPointRef
 72
     3
331
6D1
 73
     2
 91
        0
 40
0.0
 10
0.0
 20
0.0
 30
0.0
 75
     0
  0
XRECORD
  5
209
102
{ACAD_REACTORS
330
208
102
}
330
208
100
AcDbXrecord
280
     1
 40
0.18
  0
LAYOUT
  5
168
102
{ACAD_XDICTIONARY
360
7DA
102
}
102
{ACAD_REACTORS
330
164
102
}
330
164
100
AcDbPlotSettings
  1

  2
C:\Documents and Settings\All Users\Dati applicazioni\Autodesk\ADT 2006\enu\Plotters\Default Windows System Printer.pc3
  4

  6

 40
0.0
 41
0.0
 42
0.0
 43
0.0
 44
0.0
 45
0.0
 46
0.0
 47
0.0
 48
0.0
 49
0.0
140
0.0
141
0.0
142
1.0
143
1.0
 70
   688
 72
     0
 73
     0
 74
     5
  7

 75
    16
147
1.0
148
0.0
149
0.0
100
AcDbLayout
  1
Layout1
 70
     1
 71
     1
 10
0.0
 20
0.0
 11
420.0
 21
297.0
 12
0.0
 22
0.0
 32
0.0
 14
1.000000000000000E+20
 24
1.000000000000000E+20
 34
1.000000000000000E+20
 15
-1.000000000000000E+20
 25
-1.000000000000000E+20
 35
-1.000000000000000E+20
146
0.0
 13
0.0
 23
0.0
 33
0.0
 16
1.0
 26
0.0
 36
0.0
 17
0.0
 27
1.0
 37
0.0
 76
     0
330
165
  0
LAYOUT
  5
16C
102
{ACAD_XDICTIONARY
360
7DC
102
}
102
{ACAD_REACTORS
330
164
102
}
330
164
100
AcDbPlotSettings
  1

  2
C:\Documents and Settings\All Users\Dati applicazioni\Autodesk\ADT 2006\enu\Plotters\Default Windows System Printer.pc3
  4

  6

 40
0.0
 41
0.0
 42
0.0
 43
0.0
 44
0.0
 45
0.0
 46
0.0
 47
0.0
 48
0.0
 49
0.0
140
0.0
141
0.0
142
1.0
143
1.0
 70
   688
 72
     0
 73
     0
 74
     5
  7

 75
    16
147
1.0
148
0.0
149
0.0
100
AcDbLayout
  1
Layout2
 70
     1
 71
     2
 10
0.0
 20
0.0
 11
12.0
 21
9.0
 12
0.0
 22
0.0
 32
0.0
 14
0.0
 24
0.0
 34
0.0
 15
0.0
 25
0.0
 35
0.0
146
0.0
 13
0.0
 23
0.0
 33
0.0
 16
1.0
 26
0.0
 36
0.0
 17
0.0
 27
1.0
 37
0.0
 76
     0
330
169
  0
LAYOUT
  5
163
102
{ACAD_XDICTIONARY
360
7D8
102
}
102
{ACAD_REACTORS
330
164
102
}
330
164
100
AcDbPlotSettings
  1

  2
C:\Documents and Settings\All Users\Dati applicazioni\Autodesk\ADT 2006\enu\Plotters\Default Windows System Printer.pc3
  4

  6

 40
0.0
 41
0.0
 42
0.0
 43
0.0
 44
0.0
 45
0.0
 46
0.0
 47
0.0
 48
0.0
 49
0.0
140
0.0
141
0.0
142
1.0
143
1.0
 70
  1712
 72
     0
 73
     0
 74
     0
  7

 75
     0
147
1.0
148
0.0
149
0.0
100
AcDbLayout
  1
Model
 70
     1
 71
     0
 10
0.0
 20
0.0
 11
12.0
 21
9.0
 12
0.0
 22
0.0
 32
0.0
 14
0.0
 24
0.0
 34
0.0
 15
0.0
 25
0.0
 35
0.0
146
0.0
 13
0.0
 23
0.0
 33
0.0
 16
1.0
 26
0.0
 36
0.0
 17
0.0
 27
1.0
 37
0.0
 76
     0
330
2
  0
MATERIAL
  5
183
102
{ACAD_XDICTIONARY
360
1B0
102
}
102
{ACAD_REACTORS
330
B
102
}
330
B
100
AcDbMaterial
  1
ByBlock
  0
MATERIAL
  5
182
102
{ACAD_XDICTIONARY
360
1AE
102
}
102
{ACAD_REACTORS
330
B
102
}
330
B
100
AcDbMaterial
  1
ByLayer
  0
MATERIAL
  5
A
102
{ACAD_XDICTIONARY
360
193
102
}
102
{ACAD_REACTORS
330
B
102
}
330
B
100
AcDbMaterial
  1
Global
  0
MLINESTYLE
  5
186
102
{ACAD_REACTORS
330
180
102
}
330
180
100
AcDbMlineStyle
  2
STANDARD
 70
     0
  3

 62
   256
 51
90.0
 52
90.0
 71
     2
 49
0.5
 62
   256
  6
BYLAYER
 49
-0.5
 62
   256
  6
BYLAYER
  0
ACDBPLACEHOLDER
  5
7
102
{ACAD_REACTORS
330
8
102
}
330
8
  0
TABLESTYLE
  5
187
102
{ACAD_XDICTIONARY
360
21A
102
}
102
{ACAD_REACTORS
330
185
102
}
330
185
100
AcDbTableStyle
  3
Standard
 70
     0
 71
     0
 40
1.5
 41
1.5
280
     0
281
     0
  7
Standard
140
4.5
170
     2
 62
     0
 63
     7
283
     0
274
    -2
284
     1
 64
     0
275
    -2
285
     1
 65
     0
276
    -2
286
     1
 66
     0
277
    -2
287
     1
 67
     0
278
    -2
288
     1
 68
     0
279
    -2
289
     1
 69
     0
  7
Standard
140
6.0
170
     5
 62
     0
 63
     7
283
     0
274
    -2
284
     1
 64
     0
275
    -2
285
     1
 65
     0
276
    -2
286
     1
 66
     0
277
    -2
287
     1
 67
     0
278
    -2
288
     1
 68
     0
279
    -2
289
     1
 69
     0
  7
Standard
140
4.5
170
     5
 62
     0
 63
     7
283
     0
274
    -2
284
     1
 64
     0
275
    -2
285
     1
 65
     0
276
    -2
286
     1
 66
     0
277
    -2
287
     1
 67
     0
278
    -2
288
     1
 68
     0
279
    -2
289
     1
 69
     0
  0
VISUALSTYLE
  5
179
102
{ACAD_REACTORS
330
17A
102
}
330
17A
100
AcDbVisualStyle
  2
2dWireframe
 70
     4
 71
     0
 72
     2
 73
     0
 90
        0
 40
-0.6
 41
-30.0
 62
     5
 63
     7
 74
     1
 91
        4
 64
     7
 65
   257
 75
     1
175
     1
 42
1.0
 92
        0
 66
   257
 43
1.0
 76
     1
 77
     6
 78
     2
 67
     7
 79
     5
170
     0
171
     0
290
     0
174
     0
 93
        1
 44
0.0
173
     0
291
     0
 45
0.0
1001
ACAD
1000
AcDbSavedByObjectVersion
1070
     0
1000
AcDbSavedByObjectVersion
1070
     0
1000
AcDbSavedByObjectVersion
1070
     0
1001
ACAD
1000
AcRTDxfName
1000
VISUALSTYLE
  0
VISUALSTYLE
  5
1BD
102
{ACAD_REACTORS
330
17A
102
}
330
17A
100
AcDbVisualStyle
  2
3D Hidden
 70
     6
 71
     1
 72
     2
 73
     2
 90
        0
 40
-0.6
 41
-30.0
 62
     5
 63
     7
 74
     2
 91
        2
 64
     7
 65
   257
 75
     2
175
     1
 42
40.0
 92
        0
 66
   257
 43
1.0
 76
     1
 77
     6
 78
     2
 67
     7
 79
     3
170
     0
171
     0
290
     0
174
     0
 93
        1
 44
0.0
173
     0
291
     0
 45
0.0
1001
ACAD
1000
AcDbSavedByObjectVersion
1070
     0
1000
AcDbSavedByObjectVersion
1070
     0
1001
ACAD
1000
AcRTDxfName
1000
VISUALSTYLE
  0
VISUALSTYLE
  5
189
102
{ACAD_REACTORS
330
17A
102
}
330
17A
100
AcDbVisualStyle
  2
3dWireframe
 70
     5
 71
     0
 72
     2
 73
     0
 90
        0
 40
-0.6
 41
-30.0
 62
     5
 63
     7
 74
     1
 91
        4
 64
     7
 65
   257
 75
     1
175
     1
 42
1.0
 92
        0
 66
   257
 43
1.0
 76
     1
 77
     6
 78
     2
 67
     7
 79
     5
170
     0
171
     0
290
     0
174
     0
 93
        1
 44
0.0
173
     0
291
     0
 45
0.0
1001
ACAD
1000
AcDbSavedByObjectVersion
1070
     0
1000
AcDbSavedByObjectVersion
1070
     0
1000
AcDbSavedByObjectVersion
1070
     0
1001
ACAD
1000
AcRTDxfName
1000
VISUALSTYLE
  0
VISUALSTYLE
  5
1BC
102
{ACAD_REACTORS
330
17A
102
}
330
17A
100
AcDbVisualStyle
  2
Basic
 70
     7
 71
     1
 72
     0
 73
     1
 90
        0
 40
-0.6
 41
-30.0
 62
     5
 63
     7
 74
     0
 91
        4
 64
     7
 65
   257
 75
     1
175
     1
 42
1.0
 92
        8
 66
     7
 43
1.0
 76
     1
 77
     6
 78
     2
 67
     7
 79
     5
170
     0
171
     0
290
     0
174
     0
 93
        1
 44
0.0
173
     0
291
     1
 45
0.0
1001
ACAD
1000
AcDbSavedByObjectVersion
1070
     0
1000
AcDbSavedByObjectVersion
1070
     0
1001
ACAD
1000
AcRTDxfName
1000
VISUALSTYLE
  0
VISUALSTYLE
  5
1C0
102
{ACAD_REACTORS
330
17A
102
}
330
17A
100
AcDbVisualStyle
  2
Brighten
 70
    12
 71
     2
 72
     2
 73
     0
 90
        0
 40
-0.6
 41
-30.0
 62
     5
 63
     7
 74
     1
 91
        4
 64
     7
 65
   257
 75
     1
175
     1
 42
1.0
 92
        8
 66
     7
 43
1.0
 76
     1
 77
     6
 78
     2
 67
     7
 79
     5
170
     0
171
     0
290
     0
174
     0
 93
        1
 44
50.0
173
     0
291
     1
 45
0.0
1001
ACAD
1000
AcDbSavedByObjectVersion
1070
     0
1000
AcDbSavedByObjectVersion
1070
     0
1001
ACAD
1000
AcRTDxfName
1000
VISUALSTYLE
  0
VISUALSTYLE
  5
1C4
102
{ACAD_REACTORS
330
17A
102
}
330
17A
100
AcDbVisualStyle
  2
ColorChange
 70
    16
 71
     2
 72
     2
 73
     3
 90
        0
 40
-0.6
 41
-30.0
 62
     5
 63
     8
 74
     1
 91
        4
 64
     7
 65
   257
 75
     1
175
     1
 42
1.0
 92
        8
 66
     8
 43
1.0
 76
     1
 77
     6
 78
     2
 67
     7
 79
     5
170
     0
171
     0
290
     0
174
     0
 93
        1
 44
0.0
173
     0
291
     1
 45
0.0
1001
ACAD
1000
AcDbSavedByObjectVersion
1070
     0
1000
AcDbSavedByObjectVersion
1070
     0
1001
ACAD
1000
AcRTDxfName
1000
VISUALSTYLE
  0
VISUALSTYLE
  5
1BE
102
{ACAD_REACTORS
330
17A
102
}
330
17A
100
AcDbVisualStyle
  2
Conceptual
 70
     9
 71
     3
 72
     2
 73
     0
 90
        0
 40
-0.6
 41
-30.0
 62
     5
 63
     7
 74
     2
 91
        2
 64
     7
 65
   257
 75
     1
175
     1
 42
40.0
 92
        8
 66
     7
 43
1.0
 76
     1
 77
     6
 78
     2
 67
     7
 79
     3
170
     0
171
     0
290
     0
174
     0
 93
        1
 44
0.0
173
     0
291
     0
 45
0.0
1001
ACAD
1000
AcDbSavedByObjectVersion
1070
     0
1000
AcDbSavedByObjectVersion
1070
     0
1001
ACAD
1000
AcRTDxfName
1000
VISUALSTYLE
  0
VISUALSTYLE
  5
1BF
102
{ACAD_REACTORS
330
17A
102
}
330
17A
100
AcDbVisualStyle
  2
Dim
 70
    11
 71
     2
 72
     2
 73
     0
 90
        0
 40
-0.6
 41
-30.0
 62
     5
 63
     7
 74
     1
 91
        4
 64
     7
 65
   257
 75
     1
175
     1
 42
1.0
 92
        8
 66
     7
 43
1.0
 76
     1
 77
     6
 78
     2
 67
     7
 79
     5
170
     0
171
     0
290
     0
174
     0
 93
        1
 44
-50.0
173
     0
291
     1
 45
0.0
1001
ACAD
1000
AcDbSavedByObjectVersion
1070
     0
1000
AcDbSavedByObjectVersion
1070
     0
1001
ACAD
1000
AcRTDxfName
1000
VISUALSTYLE
  0
VISUALSTYLE
  5
1C3
102
{ACAD_REACTORS
330
17A
102
}
330
17A
100
AcDbVisualStyle
  2
Facepattern
 70
    15
 71
     2
 72
     2
 73
     0
 90
        0
 40
-0.6
 41
-30.0
 62
     5
 63
     7
 74
     1
 91
        4
 64
     7
 65
   257
 75
     1
175
     1
 42
1.0
 92
        8
 66
     7
 43
1.0
 76
     1
 77
     6
 78
     2
 67
     7
 79
     5
170
     0
171
     0
290
     0
174
     0
 93
        1
 44
0.0
173
     0
291
     1
 45
0.0
1001
ACAD
1000
AcDbSavedByObjectVersion
1070
     0
1000
AcDbSavedByObjectVersion
1070
     0
1001
ACAD
1000
AcRTDxfName
1000
VISUALSTYLE
  0
VISUALSTYLE
  5
1B8
102
{ACAD_REACTORS
330
17A
102
}
330
17A
100
AcDbVisualStyle
  2
Flat
 70
     0
 71
     2
 72
     1
 73
     1
 90
        2
 40
-0.6
 41
30.0
 62
     5
 63
     7
 74
     0
 91
        4
 64
     7
 65
   257
 75
     1
175
     1
 42
1.0
 92
        8
 66
     7
 43
1.0
 76
     1
 77
     6
 78
     2
 67
     7
 79
     5
170
     0
171
     0
290
     0
174
     0
 93
       13
 44
0.0
173
     0
291
     1
 45
0.0
1001
ACAD
1000
AcDbSavedByObjectVersion
1070
     0
1000
AcDbSavedByObjectVersion
1070
     0
1001
ACAD
1000
AcRTDxfName
1000
VISUALSTYLE
  0
VISUALSTYLE
  5
1B9
102
{ACAD_REACTORS
330
17A
102
}
330
17A
100
AcDbVisualStyle
  2
FlatWithEdges
 70
     1
 71
     2
 72
     1
 73
     1
 90
        2
 40
-0.6
 41
30.0
 62
     5
 63
     7
 74
     1
 91
        4
 64
     7
 65
   257
 75
     1
175
     1
 42
1.0
 92
        0
 66
   257
 43
1.0
 76
     1
 77
     6
 78
     2
 67
     7
 79
     5
170
     0
171
     0
290
     0
174
     0
 93
       13
 44
0.0
173
     0
291
     1
 45
0.0
1001
ACAD
1000
AcDbSavedByObjectVersion
1070
     0
1000
AcDbSavedByObjectVersion
1070
     0
1001
ACAD
1000
AcRTDxfName
1000
VISUALSTYLE
  0
VISUALSTYLE
  5
1BA
102
{ACAD_REACTORS
330
17A
102
}
330
17A
100
AcDbVisualStyle
  2
Gouraud
 70
     2
 71
     2
 72
     2
 73
     1
 90
        2
 40
-0.6
 41
30.0
 62
     5
 63
     7
 74
     0
 91
        4
 64
     7
 65
   257
 75
     1
175
     1
 42
1.0
 92
        0
 66
     7
 43
1.0
 76
     1
 77
     6
 78
     2
 67
     7
 79
     5
170
     0
171
     0
290
     0
174
     0
 93
       13
 44
0.0
173
     0
291
     1
 45
0.0
1001
ACAD
1000
AcDbSavedByObjectVersion
1070
     0
1000
AcDbSavedByObjectVersion
1070
     0
1001
ACAD
1000
AcRTDxfName
1000
VISUALSTYLE
  0
VISUALSTYLE
  5
1BB
102
{ACAD_REACTORS
330
17A
102
}
330
17A
100
AcDbVisualStyle
  2
GouraudWithEdges
 70
     3
 71
     2
 72
     2
 73
     1
 90
        2
 40
-0.6
 41
30.0
 62
     5
 63
     7
 74
     1
 91
        4
 64
     7
 65
   257
 75
     1
175
     1
 42
1.0
 92
        0
 66
   257
 43
1.0
 76
     1
 77
     6
 78
     2
 67
     7
 79
     5
170
     0
171
     0
290
     0
174
     0
 93
       13
 44
0.0
173
     0
291
     1
 45
0.0
1001
ACAD
1000
AcDbSavedByObjectVersion
1070
     0
1000
AcDbSavedByObjectVersion
1070
     0
1001
ACAD
1000
AcRTDxfName
1000
VISUALSTYLE
  0
VISUALSTYLE
  5
1C2
102
{ACAD_REACTORS
330
17A
102
}
330
17A
100
AcDbVisualStyle
  2
Linepattern
 70
    14
 71
     2
 72
     2
 73
     0
 90
        0
 40
-0.6
 41
-30.0
 62
     5
 63
     7
 74
     1
 91
        4
 64
     7
 65
   257
 75
     7
175
     7
 42
1.0
 92
        8
 66
     7
 43
1.0
 76
     1
 77
     6
 78
     2
 67
     7
 79
     5
170
     0
171
     0
290
     0
174
     0
 93
        1
 44
0.0
173
     0
291
     1
 45
0.0
1001
ACAD
1000
AcDbSavedByObjectVersion
1070
     0
1000
AcDbSavedByObjectVersion
1070
     0
1001
ACAD
1000
AcRTDxfName
1000
VISUALSTYLE
  0
VISUALSTYLE
  5
188
102
{ACAD_REACTORS
330
17A
102
}
330
17A
100
AcDbVisualStyle
  2
Realistic
 70
     8
 71
     2
 72
     2
 73
     0
 90
        0
 40
-0.6
 41
-30.0
 62
     5
 63
     7
 74
     1
 91
        0
 64
     7
 65
   257
 75
     1
175
     1
 42
1.0
 92
        8
 66
     8
 43
1.0
 76
     1
 77
     6
 78
     2
 67
     7
 79
     5
170
     0
171
     0
290
     0
174
     0
 93
       13
 44
0.0
173
     0
291
     0
 45
0.0
1001
ACAD
1000
AcDbSavedByObjectVersion
1070
     0
1000
AcDbSavedByObjectVersion
1070
     0
1000
AcDbSavedByObjectVersion
1070
     0
1001
ACAD
1000
AcRTDxfName
1000
VISUALSTYLE
  0
VISUALSTYLE
  5
1C1
102
{ACAD_REACTORS
330
17A
102
}
330
17A
100
AcDbVisualStyle
  2
Thicken
 70
    13
 71
     2
 72
     2
 73
     0
 90
        0
 40
-0.6
 41
-30.0
 62
     5
 63
     7
 74
     1
 91
        4
 64
     7
 65
   257
 75
     1
175
     1
 42
1.0
 92
       12
 66
     7
 43
1.0
 76
     1
 77
     6
 78
     2
 67
     7
 79
     5
170
     0
171
     0
290
     0
174
     0
 93
        1
 44
0.0
173
     0
291
     1
 45
0.0
1001
ACAD
1000
AcDbSavedByObjectVersion
1070
     0
1000
AcDbSavedByObjectVersion
1070
     0
1001
ACAD
1000
AcRTDxfName
1000
VISUALSTYLE
  0
DICTIONARYVAR
  5
18C
102
{ACAD_REACTORS
330
18B
102
}
330
18B
100
DictionaryVariables
280
     0
  1
STANDARD
  0
DICTIONARYVAR
  5
190
102
{ACAD_REACTORS
330
18B
102
}
330
18B
100
DictionaryVariables
280
     0
  1
2
  0
DICTIONARYVAR
  5
18F
102
{ACAD_REACTORS
330
18B
102
}
330
18B
100
DictionaryVariables
280
     0
  1
1
  0
DICTIONARYVAR
  5
18E
102
{ACAD_REACTORS
330
18B
102
}
330
18B
100
DictionaryVariables
280
     0
  1
0
  0
DICTIONARYVAR
  5
2F9
102
{ACAD_REACTORS
330
18B
102
}
330
18B
100
DictionaryVariables
280
     0
  1

  0
DICTIONARYVAR
  5
18D
102
{ACAD_REACTORS
330
18B
102
}
330
18B
100
DictionaryVariables
280
     0
  1
127
  0
DICTIONARY
  5
7DA
330
168
100
AcDbDictionary
280
     1
281
     1
  3
ACAD_XREC_ROUNDTRIP
360
7DB
  0
DICTIONARY
  5
7DC
330
16C
100
AcDbDictionary
280
     1
281
     1
  3
ACAD_XREC_ROUNDTRIP
360
7DD
  0
DICTIONARY
  5
7D8
330
163
100
AcDbDictionary
280
     1
281
     1
  3
ACAD_XREC_ROUNDTRIP
360
7D9
  0
DICTIONARY
  5
1B0
330
183
100
AcDbDictionary
280
     1
281
     1
  3
ACAD_XREC_ROUNDTRIP
360
1B1
  0
DICTIONARY
  5
1AE
330
182
100
AcDbDictionary
280
     1
281
     1
  3
ACAD_XREC_ROUNDTRIP
360
1AF
  0
DICTIONARY
  5
193
330
A
100
AcDbDictionary
280
     1
281
     1
  3
ACAD_XREC_ROUNDTRIP
360
194
  0
DICTIONARY
  5
21A
330
187
100
AcDbDictionary
280
     1
281
     1
  3
ACAD_XREC_ROUNDTRIP
360
21B
  0
XRECORD
  5
7DB
102
{ACAD_REACTORS
330
7DA
102
}
330
7DA
100
AcDbXrecord
280
     1
102
SHADEPLOT
 70
     0
102
SHADEPLOTRESLEVEL
 70
     2
102
SHADEPLOTCUSTOMDPI
 70
   300
  0
XRECORD
  5
7DD
102
{ACAD_REACTORS
330
7DC
102
}
330
7DC
100
AcDbXrecord
280
     1
102
SHADEPLOT
 70
     0
102
SHADEPLOTRESLEVEL
 70
     2
102
SHADEPLOTCUSTOMDPI
 70
   300
  0
XRECORD
  5
7D9
102
{ACAD_REACTORS
330
7D8
102
}
330
7D8
100
AcDbXrecord
280
     1
102
SHADEPLOT
 70
     0
102
SHADEPLOTRESLEVEL
 70
     2
102
SHADEPLOTCUSTOMDPI
 70
   300
  0
XRECORD
  5
1B1
102
{ACAD_REACTORS
330
1B0
102
}
330
1B0
100
AcDbXrecord
280
     1
102
MATERIAL
148
0.0
149
0.0
149
0.0
 93
        0
 94
       63
282
     0
 72
     1
 77
     1
171
     1
175
     1
179
     1
273
     0
  0
XRECORD
  5
1AF
102
{ACAD_REACTORS
330
1AE
102
}
330
1AE
100
AcDbXrecord
280
     1
102
MATERIAL
148
0.0
149
0.0
149
0.0
 93
        0
 94
       63
282
     0
 72
     1
 77
     1
171
     1
175
     1
179
     1
273
     0
  0
XRECORD
  5
194
102
{ACAD_REACTORS
330
193
102
}
330
193
100
AcDbXrecord
280
     1
102
MATERIAL
148
0.0
149
0.0
149
0.0
 93
        0
 94
       63
282
     0
 72
     1
 77
     1
171
     1
175
     1
179
     1
273
     0
  0
XRECORD
  5
21B
102
{ACAD_REACTORS
330
21A
102
}
330
21A
100
AcDbXrecord
280
     1
102
ACAD_ROUNDTRIP_PRE2007_TABLESTYLE
 90
        4
 91
        0
  1

 92
        4
 93
        0
  2

 94
        4
 95
        0
  3

  0
ENDSEC
  0
EOF
