  0
SECTION
  2
HEADER
  9
$ACADVER
  1
AC1015
  9
$ACADMAINTVER
 70
    20
  9
$DWGCODEPAGE
  3
ANSI_1252
  9
$INSBASE
 10
0.0
 20
0.0
 30
0.0
  9
$EXTMIN
 10
-0.1322188988767152
 20
-0.1493530123382243
 30
0.0
  9
$EXTMAX
 10
0.7484601231417259
 20
0.282
 30
0.0
  9
$LIMMIN
 10
0.0
 20
0.0
  9
$LIMMAX
 10
1.0
 20
0.5
  9
$ORTHOMODE
 70
     0
  9
$REGENMODE
 70
     1
  9
$FILLMODE
 70
     1
  9
$QTEXTMODE
 70
     0
  9
$MIRRTEXT
 70
     0
  9
$LTSCALE
 40
1.0
  9
$ATTMODE
 70
     1
  9
$TEXTSIZE
 40
0.005
  9
$TRACEWID
 40
1.0
  9
$TEXTSTYLE
  7
style1
  9
$CLAYER
  8
Dimensione
  9
$CELTYPE
  6
ByLayer
  9
$CECOLOR
 62
   256
  9
$CELTSCALE
 40
1.0
  9
$DISPSILH
 70
     0
  9
$DIMSCALE
 40
0.001
  9
$DIMASZ
 40
1.5
  9
$DIMEXO
 40
0.0625
  9
$DIMDLI
 40
0.38
  9
$DIMRND
 40
0.0
  9
$DIMDLE
 40
0.0
  9
$DIMEXE
 40
0.18
  9
$DIMTP
 40
0.0
  9
$DIMTM
 40
0.0
  9
$DIMTXT
 40
3.0
  9
$DIMCEN
 40
0.0
  9
$DIMTSZ
 40
0.0
  9
$DIMTOL
 70
     0
  9
$DIMLIM
 70
     0
  9
$DIMTIH
 70
     1
  9
$DIMTOH
 70
     1
  9
$DIMSE1
 70
     0
  9
$DIMSE2
 70
     0
  9
$DIMTAD
 70
     0
  9
$DIMZIN
 70
     0
  9
$DIMBLK
  1
ArchTick
  9
$DIMASO
 70
     1
  9
$DIMSHO
 70
     1
  9
$DIMPOST
  1

  9
$DIMAPOST
  1

  9
$DIMALT
 70
     0
  9
$DIMALTD
 70
     2
  9
$DIMALTF
 40
25.4
  9
$DIMLFAC
 40
1.0
  9
$DIMTOFL
 70
     0
  9
$DIMTVP
 40
0.0
  9
$DIMTIX
 70
     0
  9
$DIMSOXD
 70
     0
  9
$DIMSAH
 70
     0
  9
$DIMBLK1
  1

  9
$DIMBLK2
  1

  9
$DIMSTYLE
  2
Bovelacci
  9
$DIMCLRD
 70
     5
  9
$DIMCLRE
 70
     5
  9
$DIMCLRT
 70
     4
  9
$DIMTFAC
 40
1.0
  9
$DIMGAP
 40
2.0
  9
$DIMJUST
 70
     0
  9
$DIMSD1
 70
     0
  9
$DIMSD2
 70
     0
  9
$DIMTOLJ
 70
     1
  9
$DIMTZIN
 70
     0
  9
$DIMALTZ
 70
     0
  9
$DIMALTTZ
 70
     0
  9
$DIMUPT
 70
     0
  9
$DIMDEC
 70
     2
  9
$DIMTDEC
 70
     2
  9
$DIMALTU
 70
     2
  9
$DIMALTTD
 70
     2
  9
$DIMTXSTY
  7
ROMANS
  9
$DIMAUNIT
 70
     0
  9
$DIMADEC
 70
     0
  9
$DIMALTRND
 40
0.0
  9
$DIMAZIN
 70
     0
  9
$DIMDSEP
 70
    46
  9
$DIMATFIT
 70
     3
  9
$DIMFRAC
 70
     0
  9
$DIMLDRBLK
  1

  9
$DIMLUNIT
 70
     2
  9
$DIMLWD
 70
    -2
  9
$DIMLWE
 70
    -2
  9
$DIMTMOVE
 70
     2
  9
$LUNITS
 70
     2
  9
$LUPREC
 70
     2
  9
$SKETCHINC
 40
1.0
  9
$FILLETRAD
 40
0.0
  9
$AUNITS
 70
     0
  9
$AUPREC
 70
     0
  9
$MENU
  1
.
  9
$ELEVATION
 40
0.0
  9
$PELEVATION
 40
0.0
  9
$THICKNESS
 40
0.0
  9
$LIMCHECK
 70
     0
  9
$CHAMFERA
 40
0.0
  9
$CHAMFERB
 40
0.0
  9
$CHAMFERC
 40
0.0
  9
$CHAMFERD
 40
0.0
  9
$SKPOLY
 70
     0
  9
$TDCREATE
 40
2454297.625402373
  9
$TDUCREATE
 40
2454297.542069039
  9
$TDUPDATE
 40
2454331.560846887
  9
$TDUUPDATE
 40
2454331.477513553
  9
$TDINDWG
 40
0.2263447801
  9
$TDUSRTIMER
 40
0.2263442245
  9
$USRTIMER
 70
     1
  9
$ANGBASE
 50
0.0
  9
$ANGDIR
 70
     0
  9
$PDMODE
 70
     0
  9
$PDSIZE
 40
0.0
  9
$PLINEWID
 40
0.0
  9
$SPLFRAME
 70
     0
  9
$SPLINETYPE
 70
     6
  9
$SPLINESEGS
 70
     8
  9
$HANDSEED
  5
14D0
  9
$SURFTAB1
 70
     6
  9
$SURFTAB2
 70
     6
  9
$SURFTYPE
 70
     6
  9
$SURFU
 70
     6
  9
$SURFV
 70
     6
  9
$UCSBASE
  2

  9
$UCSNAME
  2

  9
$UCSORG
 10
0.0
 20
0.0
 30
0.0
  9
$UCSXDIR
 10
1.0
 20
0.0
 30
0.0
  9
$UCSYDIR
 10
0.0
 20
1.0
 30
0.0
  9
$UCSORTHOREF
  2

  9
$UCSORTHOVIEW
 70
     0
  9
$UCSORGTOP
 10
0.0
 20
0.0
 30
0.0
  9
$UCSORGBOTTOM
 10
0.0
 20
0.0
 30
0.0
  9
$UCSORGLEFT
 10
0.0
 20
0.0
 30
0.0
  9
$UCSORGRIGHT
 10
0.0
 20
0.0
 30
0.0
  9
$UCSORGFRONT
 10
0.0
 20
0.0
 30
0.0
  9
$UCSORGBACK
 10
0.0
 20
0.0
 30
0.0
  9
$PUCSBASE
  2

  9
$PUCSNAME
  2

  9
$PUCSORG
 10
0.0
 20
0.0
 30
0.0
  9
$PUCSXDIR
 10
1.0
 20
0.0
 30
0.0
  9
$PUCSYDIR
 10
0.0
 20
1.0
 30
0.0
  9
$PUCSORTHOREF
  2

  9
$PUCSORTHOVIEW
 70
     0
  9
$PUCSORGTOP
 10
0.0
 20
0.0
 30
0.0
  9
$PUCSORGBOTTOM
 10
0.0
 20
0.0
 30
0.0
  9
$PUCSORGLEFT
 10
0.0
 20
0.0
 30
0.0
  9
$PUCSORGRIGHT
 10
0.0
 20
0.0
 30
0.0
  9
$PUCSORGFRONT
 10
0.0
 20
0.0
 30
0.0
  9
$PUCSORGBACK
 10
0.0
 20
0.0
 30
0.0
  9
$USERI1
 70
     0
  9
$USERI2
 70
     0
  9
$USERI3
 70
     0
  9
$USERI4
 70
     0
  9
$USERI5
 70
     0
  9
$USERR1
 40
0.0
  9
$USERR2
 40
0.0
  9
$USERR3
 40
0.0
  9
$USERR4
 40
0.0
  9
$USERR5
 40
0.0
  9
$WORLDVIEW
 70
     1
  9
$SHADEDGE
 70
     3
  9
$SHADEDIF
 70
    70
  9
$TILEMODE
 70
     1
  9
$MAXACTVP
 70
    64
  9
$PINSBASE
 10
0.0
 20
0.0
 30
0.0
  9
$PLIMCHECK
 70
     0
  9
$PEXTMIN
 10
29.06606628894805
 20
20.36233246326446
 30
0.0
  9
$PEXTMAX
 10
261.5945966005325
 20
183.2609921693802
 30
0.0
  9
$PLIMMIN
 10
-3.17498779296875
 20
-3.174999952316281
  9
$PLIMMAX
 10
293.8356628417969
 20
206.7983276844024
  9
$UNITMODE
 70
     0
  9
$VISRETAIN
 70
     1
  9
$PLINEGEN
 70
     0
  9
$PSLTSCALE
 70
     1
  9
$TREEDEPTH
 70
  3020
  9
$CMLSTYLE
  2
Standard
  9
$CMLJUST
 70
     0
  9
$CMLSCALE
 40
20.0
  9
$PROXYGRAPHICS
 70
     1
  9
$MEASUREMENT
 70
     1
  9
$CELWEIGHT
370
    -1
  9
$ENDCAPS
280
     0
  9
$JOINSTYLE
280
     0
  9
$LWDISPLAY
290
     0
  9
$INSUNITS
 70
     4
  9
$HYPERLINKBASE
  1

  9
$STYLESHEET
  1

  9
$XEDIT
290
     1
  9
$CEPSNTYPE
380
     0
  9
$PSTYLEMODE
290
     1
  9
$FINGERPRINTGUID
  2
{4F38C4E7-9F37-4C76-96D9-79C94F9B03D9}
  9
$VERSIONGUID
  2
{6AD3F66A-AB1A-491E-8291-FDCEBB2ABFB5}
  9
$EXTNAMES
290
     1
  9
$PSVPSCALE
 40
0.0
  9
$OLESTARTUP
290
     0
  0
ENDSEC
  0
SECTION
  2
CLASSES
  0
CLASS
  1
ACDBDICTIONARYWDFLT
  2
AcDbDictionaryWithDefault
  3
ObjectDBX Classes
 90
        0
280
     0
281
     0
  0
CLASS
  1
TABLESTYLE
  2
AcDbTableStyle
  3
ObjectDBX Classes
 90
     2047
280
     0
281
     0
  0
CLASS
  1
SORTENTSTABLE
  2
AcDbSortentsTable
  3
ObjectDBX Classes
 90
        0
280
     0
281
     0
  0
CLASS
  1
DICTIONARYVAR
  2
AcDbDictionaryVar
  3
ObjectDBX Classes
 90
        0
280
     0
281
     0
  0
CLASS
  1
DIMASSOC
  2
AcDbDimAssoc
  3
"AcDbDimAssoc|Product Desc:     AcDim ARX App For Dimension|Company:          Autodesk, Inc.|WEB Address:      www.autodesk.com"
 90
        0
280
     0
281
     0
  0
CLASS
  1
ACDBPLACEHOLDER
  2
AcDbPlaceHolder
  3
ObjectDBX Classes
 90
        0
280
     0
281
     0
  0
CLASS
  1
LAYOUT
  2
AcDbLayout
  3
ObjectDBX Classes
 90
        0
280
     0
281
     0
  0
CLASS
  1
MATERIAL
  2
AcDbMaterial
  3
ObjectDBX Classes
 90
        0
280
     0
281
     0
  0
CLASS
  1
VISUALSTYLE
  2
AcDbVisualStyle
  3
ObjectDBX Classes
 90
     4095
280
     0
281
     0
  0
CLASS
  1
ACAD_EVALUATION_GRAPH
  2
AcDbEvalGraph
  3
ObjectDBX Classes
 90
    33921
280
     0
281
     0
  0
CLASS
  1
ACAECUSTOBJ
  2
AcAeEditorObj
  3
AcAeEditorObj
 90
    33792
280
     0
281
     0
  0
CLASS
  1
ACDB_DYNAMICBLOCKPURGEPREVENTER_VERSION
  2
AcDbDynamicBlockPurgePreventer
  3
ObjectDBX Classes
 90
    33921
280
     0
281
     0
  0
ENDSEC
  0
SECTION
  2
TABLES
  0
TABLE
  2
VPORT
  5
96
330
0
100
AcDbSymbolTable
 70
     4
  0
VPORT
  5
14C2
330
96
100
AcDbSymbolTableRecord
100
AcDbViewportTableRecord
  2
*Active
 70
     0
 10
0.0
 20
0.0
 11
1.0
 21
1.0
 12
0.211202756491418
 22
0.1458400548028607
 13
0.0
 23
0.0
 14
10.0
 24
10.0
 15
10.0
 25
10.0
 16
0.0
 26
0.0
 36
1.0
 17
0.0
 27
0.0
 37
0.0
 40
0.276963407760519
 41
1.546526867627784
 42
50.0
 43
0.0
 44
0.0
 50
0.0
 51
0.0
 71
     0
 72
  1000
 73
     1
 74
     3
 75
     0
 76
     0
 77
     0
 78
     0
281
     0
 65
     1
110
0.0
120
0.0
130
0.0
111
1.0
121
0.0
131
0.0
112
0.0
122
1.0
132
0.0
 79
     0
146
0.0
  0
ENDTAB
  0
TABLE
  2
LTYPE
  5
91
330
0
100
AcDbSymbolTable
 70
     5
  0
LTYPE
  5
92
330
91
100
AcDbSymbolTableRecord
100
AcDbLinetypeTableRecord
  2
ByBlock
 70
     0
  3

 72
    65
 73
     0
 40
0.0
  0
LTYPE
  5
93
330
91
100
AcDbSymbolTableRecord
100
AcDbLinetypeTableRecord
  2
ByLayer
 70
     0
  3

 72
    65
 73
     0
 40
0.0
  0
LTYPE
  5
C
330
91
100
AcDbSymbolTableRecord
100
AcDbLinetypeTableRecord
  2
Continuous
 70
     0
  3
Solid line
 72
    65
 73
     0
 40
0.0
  0
LTYPE
  5
105
330
91
100
AcDbSymbolTableRecord
100
AcDbLinetypeTableRecord
  2
ACAD_ISO10W100
 70
     0
  3
ISO dash dot __ . __ . __ . __ . __ . __ . __ .
 72
    65
 73
     4
 40
18.0
 49
12.0
 74
     0
 49
-3.0
 74
     0
 49
0.0
 74
     0
 49
-3.0
 74
     0
  0
LTYPE
  5
190
330
91
100
AcDbSymbolTableRecord
100
AcDbLinetypeTableRecord
  2
RAYITAX4
 70
     0
  3
RAYITAX4
 72
    65
 73
     2
 40
18.0
 49
12.0
 74
     0
 49
-6.0
 74
     0
  0
LTYPE
  5
73C
330
91
100
AcDbSymbolTableRecord
100
AcDbLinetypeTableRecord
  2
RAYITA
 70
     0
  3
rayita
 72
    65
 73
     2
 40
1.5
 49
1.0
 74
     0
 49
-0.5
 74
     0
  0
ENDTAB
  0
TABLE
  2
LAYER
  5
8A
102
{ACAD_XDICTIONARY
360
8B
102
}
330
0
100
AcDbSymbolTable
 70
    12
  0
LAYER
  5
6
330
8A
100
AcDbSymbolTableRecord
100
AcDbLayerTableRecord
  2
0
 70
     0
 62
     7
  6
Continuous
370
    -3
390
7
  0
LAYER
  5
3F
330
8A
100
AcDbSymbolTableRecord
100
AcDbLayerTableRecord
  2
Defpoints
 70
     0
 62
     7
  6
Continuous
290
     0
370
    -3
390
7
  0
LAYER
  5
2E
330
8A
100
AcDbSymbolTableRecord
100
AcDbLayerTableRecord
  2
Dimensione
 70
     0
 62
   150
  6
Continuous
370
    -3
390
7
1001
AcAecLayerStandard
1000

1000

  0
LAYER
  5
2A
330
8A
100
AcDbSymbolTableRecord
100
AcDbLayerTableRecord
  2
Profilo
 70
     0
 62
     1
  6
Continuous
370
    -3
390
7
1001
AcAecLayerStandard
1000

1000

  0
LAYER
  5
54
330
8A
100
AcDbSymbolTableRecord
100
AcDbLayerTableRecord
  2
Sezione
 70
     0
 62
     2
  6
Continuous
370
    -3
390
7
1001
AcAecLayerStandard
1000

1000

  0
LAYER
  5
E
330
8A
100
AcDbSymbolTableRecord
100
AcDbLayerTableRecord
  2
Table
 70
     0
 62
     3
  6
Continuous
370
    -3
390
7
1001
AcAecLayerStandard
1000

1000

  0
LAYER
  5
19
330
8A
100
AcDbSymbolTableRecord
100
AcDbLayerTableRecord
  2
Text
 70
     0
 62
     4
  6
Continuous
370
    -3
390
7
1001
AcAecLayerStandard
1000

1000

  0
LAYER
  5
5C
330
8A
100
AcDbSymbolTableRecord
100
AcDbLayerTableRecord
  2
Vista
 70
     0
 62
     2
  6
Continuous
370
    -3
390
7
1001
AcAecLayerStandard
1000

1000

  0
LAYER
  5
256
330
8A
100
AcDbSymbolTableRecord
100
AcDbLayerTableRecord
  2
CORTE
 70
     0
 62
     1
  6
Continuous
370
    -3
390
7
  0
LAYER
  5
40E
330
8A
100
AcDbSymbolTableRecord
100
AcDbLayerTableRecord
  2
COTAS
 70
     0
 62
     4
  6
Continuous
370
    -3
390
7
  0
LAYER
  5
594
330
8A
100
AcDbSymbolTableRecord
100
AcDbLayerTableRecord
  2
MARCO
 70
     0
 62
     4
  6
Continuous
370
    -3
390
7
  0
LAYER
  5
B5A
330
8A
100
AcDbSymbolTableRecord
100
AcDbLayerTableRecord
  2
TRAMA
 70
     0
 62
     4
  6
Continuous
370
    -3
390
7
  0
ENDTAB
  0
TABLE
  2
STYLE
  5
8F
330
0
100
AcDbSymbolTable
 70
     5
  0
STYLE
  5
1A
330
8F
100
AcDbSymbolTableRecord
100
AcDbTextStyleTableRecord
  2
Standard
 70
     0
 40
0.0
 41
1.0
 50
0.0
 71
     0
 42
2.5
  3
txt
  4

  0
STYLE
  5
20
330
8F
100
AcDbSymbolTableRecord
100
AcDbTextStyleTableRecord
  2
ROMANS
 70
     0
 40
0.0
 41
1.0
 50
0.0
 71
     0
 42
2.5
  3
romans
  4

  0
STYLE
  5
28
330
8F
100
AcDbSymbolTableRecord
100
AcDbTextStyleTableRecord
  2
Arial
 70
     0
 40
0.0
 41
1.0
 50
0.0
 71
     0
 42
0.25
  3
ARIAL.TTF
  4

1001
ACAD
1000
Arial
1071
       34
  0
STYLE
  5
26
330
8F
100
AcDbSymbolTableRecord
100
AcDbTextStyleTableRecord
  2
style1
 70
     0
 40
0.0
 41
1.0
 50
0.0
 71
     0
 42
0.005
  3
TIMES.TTF
  4

1001
ACAD
1000
Times New Roman
1071
       18
  0
STYLE
  5
595
330
8F
100
AcDbSymbolTableRecord
100
AcDbTextStyleTableRecord
  2
EUROROMANOBLIQUE
 70
     0
 40
0.0
 41
1.0
 50
0.0
 71
     0
 42
2.5
  3
euro____.pfb
  4

  0
ENDTAB
  0
TABLE
  2
VIEW
  5
94
330
0
100
AcDbSymbolTable
 70
     2
  0
ENDTAB
  0
TABLE
  2
UCS
  5
95
330
0
100
AcDbSymbolTable
 70
     0
  0
ENDTAB
  0
TABLE
  2
APPID
  5
98
330
0
100
AcDbSymbolTable
 70
    13
  0
APPID
  5
1B
330
98
100
AcDbSymbolTableRecord
100
AcDbRegAppTableRecord
  2
ACAD
 70
     0
  0
APPID
  5
34
330
98
100
AcDbSymbolTableRecord
100
AcDbRegAppTableRecord
  2
ACAD_DSTYLE_DIMJOGGED_JOGANGLE_SYMBOL
 70
     0
  0
APPID
  5
F
330
98
100
AcDbSymbolTableRecord
100
AcDbRegAppTableRecord
  2
AcAecLayerStandard
 70
     0
  0
APPID
  5
85
330
98
100
AcDbSymbolTableRecord
100
AcDbRegAppTableRecord
  2
ACAD_PSEXT
 70
     0
  0
APPID
  5
BA
330
98
100
AcDbSymbolTableRecord
100
AcDbRegAppTableRecord
  2
ACAD_DSTYLE_DIMEXT_LENGTH
 70
     0
  0
APPID
  5
101
330
98
100
AcDbSymbolTableRecord
100
AcDbRegAppTableRecord
  2
ACAD_EXEMPT_FROM_CAD_STANDARDS
 70
     0
  0
APPID
  5
102
330
98
100
AcDbSymbolTableRecord
100
AcDbRegAppTableRecord
  2
ACAD_DSTYLE_DIM_LINETYPE
 70
     0
  0
APPID
  5
103
330
98
100
AcDbSymbolTableRecord
100
AcDbRegAppTableRecord
  2
ACAD_DSTYLE_DIM_EXT1_LINETYPE
 70
     0
  0
APPID
  5
104
330
98
100
AcDbSymbolTableRecord
100
AcDbRegAppTableRecord
  2
ACAD_DSTYLE_DIM_EXT2_LINETYPE
 70
     0
  0
APPID
  5
10D5
330
98
100
AcDbSymbolTableRecord
100
AcDbRegAppTableRecord
  2
ACAUTHENVIRON
 70
     0
  0
APPID
  5
10D9
330
98
100
AcDbSymbolTableRecord
100
AcDbRegAppTableRecord
  2
AcDbDynamicBlockTrueName
 70
     0
  0
APPID
  5
10DA
330
98
100
AcDbSymbolTableRecord
100
AcDbRegAppTableRecord
  2
AcDbDynamicBlockGUID
 70
     0
  0
APPID
  5
10DC
330
98
100
AcDbSymbolTableRecord
100
AcDbRegAppTableRecord
  2
AcDbBlockRepETag
 70
     0
  0
ENDTAB
  0
TABLE
  2
DIMSTYLE
  5
99
330
0
100
AcDbSymbolTable
 70
     8
100
AcDbDimStyleTable
 71
     2
340
2F
340
9A
  0
DIMSTYLE
105
9A
330
99
100
AcDbSymbolTableRecord
100
AcDbDimStyleTableRecord
  2
ISO-25
 70
     0
 41
2.5
 42
0.625
 43
3.75
 44
1.25
 73
     0
 74
     0
 77
     1
 78
     8
140
2.5
141
2.5
143
0.03937007874016
147
0.625
171
     3
172
     1
271
     2
272
     2
274
     3
278
    44
283
     0
284
     8
340
1A
  0
DIMSTYLE
105
2F
102
{ACAD_REACTORS
330
1477
330
1491
102
}
330
99
100
AcDbSymbolTableRecord
100
AcDbDimStyleTableRecord
  2
Bovelacci
 70
     0
 40
0.001
 41
1.5
140
3.0
141
0.0
147
2.0
176
     5
177
     5
178
     4
271
     2
272
     2
279
     2
340
20
342
30
1001
ACAD_DSTYLE_DIMJOGGED_JOGANGLE_SYMBOL
1070
   384
1040
0.7853981633974483
1001
ACAD_DSTYLE_DIMEXT_LENGTH
1070
   378
1040
0.18
  0
DIMSTYLE
105
194
330
99
100
AcDbSymbolTableRecord
100
AcDbDimStyleTableRecord
  2
STANDARD
 70
     0
340
1A
  0
DIMSTYLE
105
4EB
330
99
100
AcDbSymbolTableRecord
100
AcDbDimStyleTableRecord
  2
Dim 1-100
 70
     0
 40
0.1
 41
1.5
 42
0.0
 43
5.0
 44
1.25
 45
0.005
 46
1.25
 73
     0
 74
     0
 77
     1
 78
     9
140
2.0
141
2.5
147
1.0
172
     1
174
     1
179
     2
279
     2
289
     2
340
20
342
30
  0
DIMSTYLE
105
4EC
330
99
100
AcDbSymbolTableRecord
100
AcDbDimStyleTableRecord
  2
Dim 1-50
 70
     0
 40
0.05
 41
1.5
 42
0.0
 43
5.0
 44
1.25
 45
0.005
 46
1.25
 73
     0
 74
     0
 77
     1
 78
     9
140
2.0
141
2.5
147
1.0
172
     1
174
     1
179
     2
279
     2
289
     2
340
20
342
30
  0
DIMSTYLE
105
4ED
330
99
100
AcDbSymbolTableRecord
100
AcDbDimStyleTableRecord
  2
Dim 1-200
 70
     0
 40
0.2
 41
1.5
 42
0.0
 43
5.0
 44
1.25
 45
0.005
 46
1.25
 73
     0
 74
     0
 77
     1
 78
     9
140
2.0
141
2.5
147
1.0
172
     1
174
     1
179
     2
271
     2
272
     2
279
     2
289
     2
340
20
342
30
  0
DIMSTYLE
105
4EE
330
99
100
AcDbSymbolTableRecord
100
AcDbDimStyleTableRecord
  2
AEC Scale - Italiano
 70
     0
 41
1.0
 42
10.0
 43
10.0
 44
10.0
 73
     0
 74
     0
 75
     1
 76
     1
 77
     1
140
10.0
141
1.0
147
10.0
173
     1
271
     0
272
     0
279
     2
340
1A
343
4E6
344
4E0
  0
ENDTAB
  0
TABLE
  2
BLOCK_RECORD
  5
1
330
0
100
AcDbSymbolTable
 70
    34
  0
BLOCK_RECORD
  5
2
102
{ACAD_XDICTIONARY
360
3
102
}
330
1
100
AcDbSymbolTableRecord
100
AcDbBlockTableRecord
  2
*Model_Space
340
77
  0
BLOCK_RECORD
  5
79
330
1
100
AcDbSymbolTableRecord
100
AcDbBlockTableRecord
  2
*Paper_Space
340
82
  0
BLOCK_RECORD
  5
86
330
1
100
AcDbSymbolTableRecord
100
AcDbBlockTableRecord
  2
*Paper_Space0
340
89
  0
BLOCK_RECORD
  5
30
330
1
100
AcDbSymbolTableRecord
100
AcDbBlockTableRecord
  2
_ArchTick
340
0
310
2800000020000000200000000100080000000000000400000000000000000000000000000000000000000000000080000080000000808000800000008000800080800000C0C0C000C0DCC000F0CAA6000020400000206000002080000020A0000020C0000020E00000400000004020000040400000406000004080000040A0
310
000040C0000040E00000600000006020000060400000606000006080000060A0000060C0000060E00000800000008020000080400000806000008080000080A0000080C0000080E00000A0000000A0200000A0400000A0600000A0800000A0A00000A0C00000A0E00000C0000000C0200000C0400000C0600000C0800000C0
310
A00000C0C00000C0E00000E0000000E0200000E0400000E0600000E0800000E0A00000E0C00000E0E00040000000400020004000400040006000400080004000A0004000C0004000E00040200000402020004020400040206000402080004020A0004020C0004020E000404000004040200040404000404060004040800040
310
40A0004040C0004040E00040600000406020004060400040606000406080004060A0004060C0004060E00040800000408020004080400040806000408080004080A0004080C0004080E00040A0000040A0200040A0400040A0600040A0800040A0A00040A0C00040A0E00040C0000040C0200040C0400040C0600040C08000
310
40C0A00040C0C00040C0E00040E0000040E0200040E0400040E0600040E0800040E0A00040E0C00040E0E00080000000800020008000400080006000800080008000A0008000C0008000E00080200000802020008020400080206000802080008020A0008020C0008020E00080400000804020008040400080406000804080
310
008040A0008040C0008040E00080600000806020008060400080606000806080008060A0008060C0008060E00080800000808020008080400080806000808080008080A0008080C0008080E00080A0000080A0200080A0400080A0600080A0800080A0A00080A0C00080A0E00080C0000080C0200080C0400080C0600080C0
310
800080C0A00080C0C00080C0E00080E0000080E0200080E0400080E0600080E0800080E0A00080E0C00080E0E000C0000000C0002000C0004000C0006000C0008000C000A000C000C000C000E000C0200000C0202000C0204000C0206000C0208000C020A000C020C000C020E000C0400000C0402000C0404000C0406000C0
310
408000C040A000C040C000C040E000C0600000C0602000C0604000C0606000C0608000C060A000C060C000C060E000C0800000C0802000C0804000C0806000C0808000C080A000C080C000C080E000C0A00000C0A02000C0A04000C0A06000C0A08000C0A0A000C0A0C000C0A0E000C0C00000C0C02000C0C04000C0C06000
310
C0C08000C0C0A000F0FBFF00A4A0A000808080000000FF0000FF000000FFFF00FF000000FF00FF00FFFF0000FFFFFF00000000FF000000000000000000000000000000000000000000000000000000000000FF00FF00000000000000000000000000000000000000000000000000000000FF000000FF000000000000000000
310
0000000000000000000000000000000000FF0000000000FF0000000000000000000000000000000000000000000000000000FF0000000000FF0000000000000000000000000000000000000000000000000000FF0000000000FF0000000000000000000000000000000000000000000000000000FF0000000000FF00000000
310
00000000000000000000000000000000000000000000FF0000000000FF0000000000000000000000000000000000000000000000000000FF0000000000FF0000000000000000000000000000000000000000000000000000FF0000000000FF0000000000000000000000000000000000000000000000000000FF0000000000
310
FF0000000000000000000000000000000000000000000000000000FF0000000000FF0000000000000000000000000000000000000000000000000000FF0000000000FF0000000000000000000000000000000000000000000000000000FF0000000000FF0000000000000000000000000000000000000000000000000000FF
310
0000000000FF0000000000000000000000000000000000000000000000000000FF0000000000FF0000000000000000000000000000000000000000000000000000FF0000000000FF0000000000000000000000000000000000000000000000000000FF0000000000FF00000000000000000000000000000000000000000000
310
00000000FF0000000000FF0000000000000000000000000000000000000000000000000000FF0000000000FF0000000000000000000000000000000000000000000000000000FF0000000000FF0000000000000000000000000000000000000000000000000000FF0000000000FF0000000000000000000000000000000000
310
000000000000000000FF0000000000FF0000000000000000000000000000000000000000000000000000FF0000000000FF0000000000000000000000000000000000000000000000000000FF0000000000FF0000000000000000000000000000000000000000000000000000FF0000000000FF000000000000000000000000
310
0000000000000000000000000000FF0000000000FF0000000000000000000000000000000000000000000000000000FF0000000000FF0000000000000000000000000000000000000000000000000000FF0000000000FF0000000000000000000000000000000000000000000000000000FF000000FF000000000000000000
310
00000000000000000000000000000000000000FF00FF000000000000000000000000000000000000000000000000000000000000FF000000
102
{BLKREFS
331
545
331
546
331
55F
331
560
331
71A
331
71B
331
724
331
725
331
B90
331
B91
331
BAA
331
BAB
331
BC4
331
BC5
331
BDE
331
BDF
331
F9F
331
FA0
331
FB9
331
FBA
331
FD4
331
FD5
331
11BA
331
11BB
331
11D4
331
11D5
331
11EE
331
11EF
331
14A4
331
14A5
331
14B9
331
14BA
102
}
  0
BLOCK_RECORD
  5
179
330
1
100
AcDbSymbolTableRecord
100
AcDbBlockTableRecord
  2
DOT
340
0
  0
BLOCK_RECORD
  5
213
330
1
100
AcDbSymbolTableRecord
100
AcDbBlockTableRecord
  2
ELEMENT
340
0
102
{BLKREFS
331
244
102
}
  0
BLOCK_RECORD
  5
235
330
1
100
AcDbSymbolTableRecord
100
AcDbBlockTableRecord
  2
NOM-J
340
0
  0
BLOCK_RECORD
  5
3FB
330
1
100
AcDbSymbolTableRecord
100
AcDbBlockTableRecord
  2
NOM-QR
340
0
  0
BLOCK_RECORD
  5
4E0
330
1
100
AcDbSymbolTableRecord
100
AcDbBlockTableRecord
  2
_Arrivo
340
0
310
2800000020000000200000000100080000000000000400000000000000000000000000000000000000000000000080000080000000808000800000008000800080800000C0C0C000C0DCC000F0CAA6000020400000206000002080000020A0000020C0000020E00000400000004020000040400000406000004080000040A0
310
000040C0000040E00000600000006020000060400000606000006080000060A0000060C0000060E00000800000008020000080400000806000008080000080A0000080C0000080E00000A0000000A0200000A0400000A0600000A0800000A0A00000A0C00000A0E00000C0000000C0200000C0400000C0600000C0800000C0
310
A00000C0C00000C0E00000E0000000E0200000E0400000E0600000E0800000E0A00000E0C00000E0E00040000000400020004000400040006000400080004000A0004000C0004000E00040200000402020004020400040206000402080004020A0004020C0004020E000404000004040200040404000404060004040800040
310
40A0004040C0004040E00040600000406020004060400040606000406080004060A0004060C0004060E00040800000408020004080400040806000408080004080A0004080C0004080E00040A0000040A0200040A0400040A0600040A0800040A0A00040A0C00040A0E00040C0000040C0200040C0400040C0600040C08000
310
40C0A00040C0C00040C0E00040E0000040E0200040E0400040E0600040E0800040E0A00040E0C00040E0E00080000000800020008000400080006000800080008000A0008000C0008000E00080200000802020008020400080206000802080008020A0008020C0008020E00080400000804020008040400080406000804080
310
008040A0008040C0008040E00080600000806020008060400080606000806080008060A0008060C0008060E00080800000808020008080400080806000808080008080A0008080C0008080E00080A0000080A0200080A0400080A0600080A0800080A0A00080A0C00080A0E00080C0000080C0200080C0400080C0600080C0
310
800080C0A00080C0C00080C0E00080E0000080E0200080E0400080E0600080E0800080E0A00080E0C00080E0E000C0000000C0002000C0004000C0006000C0008000C000A000C000C000C000E000C0200000C0202000C0204000C0206000C0208000C020A000C020C000C020E000C0400000C0402000C0404000C0406000C0
310
408000C040A000C040C000C040E000C0600000C0602000C0604000C0606000C0608000C060A000C060C000C060E000C0800000C0802000C0804000C0806000C0808000C080A000C080C000C080E000C0A00000C0A02000C0A04000C0A06000C0A08000C0A0A000C0A0C000C0A0E000C0C00000C0C02000C0C04000C0C06000
310
C0C08000C0C0A000F0FBFF00A4A0A000808080000000FF0000FF000000FFFF00FF000000FF00FF00FFFF0000FFFFFF00000000000000000000000000000000000000000000000000000000000000000000000000000000000000FF0000000000000000000000000000000000000000000000000000000000000000FF000000
310
00000000000000000000000000000000000000000000000000000000FF0000000000000000000000000000000000000000000000000000000000000000FF00000000000000000000000000000000000000000000000000000000000000FF0000000000000000000000000000000000000000000000000000000000000000FF
310
0000000000000000000000000000000000000000000000000000000000000000FF00000000000000000000000000000000000000000000000000000000000000FF0000000000000000000000000000000000000000000000000000000000000000FF0000000000000000000000000000000000000000000000000000000000
310
0000FF0000000000000000000000000000000000000000000000000000000000000000FF00000000000000000000000000000000000000000000000000000000000000FF0000000000000000000000000000000000000000000000000000000000000000FF0000FF0000000000000000000000000000000000000000000000
310
000000000000FFFF000000000000000000000000000000000000000000000000000000000000FFFF00000000000000000000000000000000000000000000000000000000FFFFFFFFFFFF00000000000000000000000000000000000000000000000000000000FFFF0000000000000000000000000000000000000000000000
310
000000000000FF0000FF000000000000000000000000000000000000000000000000000000FF00000000000000000000000000000000000000000000000000000000000000FF000000000000000000000000000000000000000000000000000000000000FF0000000000000000000000000000000000000000000000000000
310
0000000000FF000000000000000000000000000000000000000000000000000000000000FF00000000000000000000000000000000000000000000000000000000000000FF000000000000000000000000000000000000000000000000000000000000FF000000000000000000000000000000000000000000000000000000
310
000000FF00000000000000000000000000000000000000000000000000000000000000FF000000000000000000000000000000000000000000000000000000000000FF00000000000000000000000000000000000000000000000000000000000000FF00000000000000000000000000000000000000000000000000000000
310
0000FF0000000000000000000000000000000000000000000000000000000000000000000000000000000000000000000000000000000000
  0
BLOCK_RECORD
  5
4E6
330
1
100
AcDbSymbolTableRecord
100
AcDbBlockTableRecord
  2
_Partenza
340
0
310
2800000020000000200000000100080000000000000400000000000000000000000000000000000000000000000080000080000000808000800000008000800080800000C0C0C000C0DCC000F0CAA6000020400000206000002080000020A0000020C0000020E00000400000004020000040400000406000004080000040A0
310
000040C0000040E00000600000006020000060400000606000006080000060A0000060C0000060E00000800000008020000080400000806000008080000080A0000080C0000080E00000A0000000A0200000A0400000A0600000A0800000A0A00000A0C00000A0E00000C0000000C0200000C0400000C0600000C0800000C0
310
A00000C0C00000C0E00000E0000000E0200000E0400000E0600000E0800000E0A00000E0C00000E0E00040000000400020004000400040006000400080004000A0004000C0004000E00040200000402020004020400040206000402080004020A0004020C0004020E000404000004040200040404000404060004040800040
310
40A0004040C0004040E00040600000406020004060400040606000406080004060A0004060C0004060E00040800000408020004080400040806000408080004080A0004080C0004080E00040A0000040A0200040A0400040A0600040A0800040A0A00040A0C00040A0E00040C0000040C0200040C0400040C0600040C08000
310
40C0A00040C0C00040C0E00040E0000040E0200040E0400040E0600040E0800040E0A00040E0C00040E0E00080000000800020008000400080006000800080008000A0008000C0008000E00080200000802020008020400080206000802080008020A0008020C0008020E00080400000804020008040400080406000804080
310
008040A0008040C0008040E00080600000806020008060400080606000806080008060A0008060C0008060E00080800000808020008080400080806000808080008080A0008080C0008080E00080A0000080A0200080A0400080A0600080A0800080A0A00080A0C00080A0E00080C0000080C0200080C0400080C0600080C0
310
800080C0A00080C0C00080C0E00080E0000080E0200080E0400080E0600080E0800080E0A00080E0C00080E0E000C0000000C0002000C0004000C0006000C0008000C000A000C000C000C000E000C0200000C0202000C0204000C0206000C0208000C020A000C020C000C020E000C0400000C0402000C0404000C0406000C0
310
408000C040A000C040C000C040E000C0600000C0602000C0604000C0606000C0608000C060A000C060C000C060E000C0800000C0802000C0804000C0806000C0808000C080A000C080C000C080E000C0A00000C0A02000C0A04000C0A06000C0A08000C0A0A000C0A0C000C0A0E000C0C00000C0C02000C0C04000C0C06000
310
C0C08000C0C0A000F0FBFF00A4A0A000808080000000FF0000FF000000FFFF00FF000000FF00FF00FFFF0000FFFFFF0000000000000000000000000000000000000000000000000000000000000000000000000000000000000000000000000000000000000000000000000000000000000000000000000000000000000000
310
000000000000000000000000000000000000000000000000000000000000000000000000000000000000000000000000000000000000000000000000000000000000000000000000000000000000000000000000000000000000000000000000000000000000000000000000000000000000FFFFFFFFFFFFFFFFFFFFFFFFFF
310
FFFFFFFFFFFFFFFFFFFFFFFFFFFFFFFFFF0000000000000000000000000000000000000000000000000000000000000000000000000000000000000000000000000000000000000000000000000000000000000000000000000000000000000000000000000000000000000000000000000000000000000000000000000000
310
00000000000000000000000000000000000000000000000000000000000000000000000000000000000000000000000000000000000000000000000000000000000000000000000000000000000000000000000000000000000000000000000000000000000000000000000000000000000000000000000000000000000000
310
00000000000000000000000000000000000000000000000000000000000000000000000000000000000000000000000000000000000000000000000000000000000000000000000000000000000000000000000000000000000000000000000000000000000000000000000000000000000000000000000000000000000000
310
00000000000000000000000000000000000000000000000000000000000000000000000000000000000000000000000000000000000000000000000000000000000000000000000000000000000000000000000000000000000000000000000000000000000000000000000000000000000000000000000000000000000000
310
000000000000000000000000000000000000000000000000000000000000000000000000000000000000000000000000000000000000000000000000000000000000000000000000000000000000000000000000000000FFFFFFFFFFFFFFFFFFFFFFFFFFFFFFFFFFFFFFFFFFFFFFFFFFFFFFFFFFFF00000000000000000000
310
00000000000000000000000000000000000000000000000000000000000000000000000000000000000000000000000000000000000000000000000000000000000000000000000000000000000000000000000000000000000000000000000000000000000000000000000000000000000000000000000000000000000000
310
0000000000000000000000000000000000000000000000000000000000000000000000000000000000000000000000000000000000000000
  0
BLOCK_RECORD
  5
73D
330
1
100
AcDbSymbolTableRecord
100
AcDbBlockTableRecord
  2
A$C6CE44357
340
0
1001
ACAD
1000
DesignCenter Data
1002
{
1070
     1
1070
     0
1002
}
  0
BLOCK_RECORD
  5
B69
102
{ACAD_XDICTIONARY
360
B6D
102
}
330
1
100
AcDbSymbolTableRecord
100
AcDbBlockTableRecord
  2
A$C263D6B6A
340
0
1001
ACAD
1000
DesignCenter Data
1002
{
1070
     1
1070
     4
1002
}
  0
BLOCK_RECORD
  5
BFB
330
1
100
AcDbSymbolTableRecord
100
AcDbBlockTableRecord
  2
*X19
340
0
102
{BLKREFS
331
C22
102
}
  0
BLOCK_RECORD
  5
C1F
330
1
100
AcDbSymbolTableRecord
100
AcDbBlockTableRecord
  2
A$C6C65579B
340
0
1001
ACAD
1000
DesignCenter Data
1002
{
1070
     1
1070
     0
1002
}
  0
BLOCK_RECORD
  5
FEB
102
{ACAD_XDICTIONARY
360
10D6
102
}
330
1
100
AcDbSymbolTableRecord
100
AcDbBlockTableRecord
  2
Z4
340
0
1001
AcDbDynamicBlockGUID
1000
{4CAFDB11-9655-4F72-B423-0BC31DC420EB}
1001
AcDbBlockRepETag
1070
     1
1071
       20
  0
BLOCK_RECORD
  5
11A8
330
1
100
AcDbSymbolTableRecord
100
AcDbBlockTableRecord
  2
*D26
340
0
  0
BLOCK_RECORD
  5
11DC
330
1
100
AcDbSymbolTableRecord
100
AcDbBlockTableRecord
  2
*D28
340
0
  0
BLOCK_RECORD
  5
1478
330
1
100
AcDbSymbolTableRecord
100
AcDbBlockTableRecord
  2
*D32
340
0
  0
BLOCK_RECORD
  5
1492
330
1
100
AcDbSymbolTableRecord
100
AcDbBlockTableRecord
  2
*D33
340
0
  0
ENDTAB
  0
ENDSEC
  0
SECTION
  2
BLOCKS
  0
BLOCK
  5
5
330
2
100
AcDbEntity
  8
0
100
AcDbBlockBegin
  2
*Model_Space
 70
     0
 10
0.0
 20
0.0
 30
0.0
  3
*Model_Space
  1

  0
ENDBLK
  5
76
330
2
100
AcDbEntity
  8
0
100
AcDbBlockEnd
  0
BLOCK
  5
7A
330
79
100
AcDbEntity
 67
     1
  8
0
100
AcDbBlockBegin
  2
*Paper_Space
 70
     0
 10
0.0
 20
0.0
 30
0.0
  3
*Paper_Space
  1

  0
ENDBLK
  5
81
330
79
100
AcDbEntity
 67
     1
  8
0
100
AcDbBlockEnd
  0
BLOCK
  5
87
330
86
100
AcDbEntity
 67
     1
  8
0
100
AcDbBlockBegin
  2
*Paper_Space0
 70
     0
 10
0.0
 20
0.0
 30
0.0
  3
*Paper_Space0
  1

  0
ENDBLK
  5
88
330
86
100
AcDbEntity
 67
     1
  8
0
100
AcDbBlockEnd
  0
BLOCK
  5
31
330
30
100
AcDbEntity
  8
0
 62
     1
100
AcDbBlockBegin
  2
_ArchTick
 70
     0
 10
0.0
 20
0.0
 30
0.0
  3
_ArchTick
  1

  0
LWPOLYLINE
  5
32
330
30
100
AcDbEntity
  8
0
  6
ByBlock
 62
     0
100
AcDbPolyline
 90
        2
 70
     0
 43
0.15
 10
-0.5
 20
-0.5
 10
0.5
 20
0.5
  0
ENDBLK
  5
33
330
30
100
AcDbEntity
  8
0
 62
     1
100
AcDbBlockEnd
  0
BLOCK
  5
17A
330
179
100
AcDbEntity
  8
0
100
AcDbBlockBegin
  2
DOT
 70
     0
 10
0.0
 20
0.0
 30
0.0
  3
DOT
  1

  0
LWPOLYLINE
  5
17B
330
179
100
AcDbEntity
  8
0
  6
ByBlock
 62
     0
100
AcDbPolyline
 90
        2
 70
     1
 43
0.5
 10
-0.25
 20
0.0
 42
1.0
 10
0.25
 20
0.0
 42
1.0
  0
LINE
  5
17C
330
179
100
AcDbEntity
  8
0
  6
ByBlock
 62
     0
100
AcDbLine
 10
-0.5
 20
0.0
 30
0.0
 11
-1.0
 21
0.0
 31
0.0
  0
ENDBLK
  5
17D
330
179
100
AcDbEntity
  8
0
100
AcDbBlockEnd
  0
BLOCK
  5
214
330
213
100
AcDbEntity
  8
0
100
AcDbBlockBegin
  2
ELEMENT
 70
     0
 10
0.0
 20
0.0
 30
0.0
  3
ELEMENT
  1

  0
LINE
  5
215
330
213
100
AcDbEntity
  8
CORTE
 62
     1
100
AcDbLine
 10
0.0287752548522349
 20
0.037775254852221
 30
0.0
 11
0.0062928932188697
 21
0.015292893218799
 31
0.0
  0
ARC
  5
216
330
213
100
AcDbEntity
  8
CORTE
 62
     1
100
AcDbCircle
 10
0.0148333333333994
 20
0.0291666666666402
 30
0.0
 40
0.0191847740553366
100
AcDbArc
 50
270.4730994291238
 51
359.5269005707907
  0
LINE
  5
217
330
213
100
AcDbEntity
  8
CORTE
100
AcDbLine
 10
0.0130000000000337
 20
-0.0000000000000568
 30
0.0
 11
0.0099999999999909
 21
0.0000000000000284
 31
0.0
  0
LINE
  5
218
330
213
100
AcDbEntity
  8
CORTE
100
AcDbLine
 10
-0.0009999999999764
 20
0.0010000000000048
 30
0.0
 11
-0.0009999999999764
 21
0.0140000000000384
 31
0.0
  0
ARC
  5
219
330
213
100
AcDbEntity
  8
CORTE
100
AcDbCircle
 10
0.0
 20
0.0010000000000048
 30
0.0
 40
0.001
100
AcDbArc
 50
180.0
 51
269.9999999991858
  0
LINE
  5
21A
330
213
100
AcDbEntity
  8
CORTE
100
AcDbLine
 10
0.0040000000000191
 20
-0.0039999999999623
 30
0.0
 11
0.0040000000000191
 21
-0.0010000000000332
 31
0.0
  0
LINE
  5
21B
330
213
100
AcDbEntity
  8
CORTE
100
AcDbLine
 10
0.0090000000000146
 20
-0.0039999999999907
 30
0.0
 11
0.0090000000000146
 21
-0.0009999999999764
 31
0.0
  0
ARC
  5
21C
330
213
100
AcDbEntity
  8
CORTE
100
AcDbCircle
 10
0.0049999999999955
 20
-0.0039999999999623
 30
0.0
 40
0.001
100
AcDbArc
 50
180.0
 51
269.9999999996743
  0
LINE
  5
21D
330
213
100
AcDbEntity
  8
CORTE
100
AcDbLine
 10
0.0080000000000382
 20
-0.0049999999999955
 30
0.0
 11
0.0049999999999955
 21
-0.004999999999967
 31
0.0
  0
ARC
  5
21E
330
213
100
AcDbEntity
  8
CORTE
100
AcDbCircle
 10
0.0080000000000382
 20
-0.0039999999999907
 30
0.0
 40
0.001
100
AcDbArc
 50
269.9999999995929
 51
0.000000000000007
  0
LINE
  5
21F
330
213
100
AcDbEntity
  8
CORTE
100
AcDbLine
 10
0.0030000000000427
 20
-0.0000000000000284
 30
0.0
 11
0.0
 21
0.0
 31
0.0
  0
ARC
  5
220
330
213
100
AcDbEntity
  8
CORTE
100
AcDbCircle
 10
0.0030000000000427
 20
-0.0010000000000332
 30
0.0
 40
0.001
100
AcDbArc
 50
0.000000000000007
 51
89.99999999967434
  0
ARC
  5
221
330
213
100
AcDbEntity
  8
CORTE
100
AcDbCircle
 10
0.0099999999999909
 20
-0.0009999999999764
 30
0.0
 40
0.001
100
AcDbArc
 50
89.99999999967434
 51
180.0
  0
ARC
  5
222
330
213
100
AcDbEntity
  8
CORTE
100
AcDbCircle
 10
0.0
 20
0.0140000000000384
 30
0.0
 40
0.001
100
AcDbArc
 50
89.99999999975274
 51
180.0
  0
LINE
  5
223
330
213
100
AcDbEntity
  8
CORTE
100
AcDbLine
 10
0.0055857864376776
 20
0.0149999999999864
 30
0.0
 11
0.0
 21
0.0150000000000432
 31
0.0
  0
ARC
  5
224
330
213
100
AcDbEntity
  8
CORTE
 62
     1
100
AcDbCircle
 10
0.0055857864376776
 20
0.0159999999999911
 30
0.0
 40
0.001
100
AcDbArc
 50
269.9999999997674
 51
315.0000000000357
  0
LINE
  5
225
330
213
100
AcDbEntity
  8
CORTE
100
AcDbLine
 10
0.01400000000001
 20
0.0009999999999479
 30
0.0
 11
0.01400000000001
 21
0.0089825806863075
 31
0.0
  0
ARC
  5
226
330
213
100
AcDbEntity
  8
CORTE
100
AcDbCircle
 10
0.0130000000000337
 20
0.0009999999999479
 30
0.0
 40
0.001
100
AcDbArc
 50
269.9999999991858
 51
0.000000000000007
  0
ARC
  5
227
330
213
100
AcDbEntity
  8
CORTE
 62
     1
100
AcDbCircle
 10
0.0149999999999864
 20
0.0089825806862791
 30
0.0
 40
0.001
100
AcDbArc
 50
90.47309942941524
 51
179.9999999983715
  0
LINE
  5
228
330
213
100
AcDbEntity
  8
CORTE
100
AcDbLine
 10
0.0440000000000964
 20
0.0339999999999918
 30
0.0
 11
0.0440000000000396
 21
0.0310000000000059
 31
0.0
  0
ARC
  5
229
330
213
100
AcDbEntity
  8
CORTE
100
AcDbCircle
 10
0.0430000000000632
 20
0.0310000000000059
 30
0.0
 40
0.001
100
AcDbArc
 50
270.0
 51
0.000000000000007
  0
ARC
  5
22A
330
213
100
AcDbEntity
  8
CORTE
 62
     1
100
AcDbCircle
 10
0.0350174193137605
 20
0.0290000000000248
 30
0.0
 40
0.001
100
AcDbArc
 50
90.00000000325689
 51
179.5269005705982
  0
LINE
  5
22B
330
213
100
AcDbEntity
  8
CORTE
100
AcDbLine
 10
0.0430000000000632
 20
0.0300000000000011
 30
0.0
 11
0.0350174193137036
 21
0.0300000000000296
 31
0.0
  0
LINE
  5
22C
330
213
100
AcDbEntity
  8
CORTE
100
AcDbLine
 10
0.047999999999945
 20
0.0400000000000205
 30
0.0
 11
0.0300000000000296
 21
0.0400000000000205
 31
0.0
  0
ARC
  5
22D
330
213
100
AcDbEntity
  8
CORTE
 62
     1
100
AcDbCircle
 10
0.0300000000000296
 20
0.0390000000000157
 30
0.0
 40
0.001
100
AcDbArc
 50
90.0
 51
195.0000055997392
  0
ARC
  5
22E
330
213
100
AcDbEntity
  8
CORTE
 62
     1
100
AcDbCircle
 10
0.0280681480710428
 20
0.0384823616334131
 30
0.0
 40
0.001
100
AcDbArc
 50
315.0
 51
15.00000559812761
  0
LINE
  5
22F
330
213
100
AcDbEntity
  8
CORTE
100
AcDbLine
 10
0.0489999999998645
 20
0.0360000000000582
 30
0.0
 11
0.0489999999999213
 21
0.0389999999999873
 31
0.0
  0
LINE
  5
230
330
213
100
AcDbEntity
  8
CORTE
100
AcDbLine
 10
0.0480000000000018
 20
0.0350000000000534
 30
0.0
 11
0.0450000000000728
 21
0.0349999999999966
 31
0.0
  0
ARC
  5
231
330
213
100
AcDbEntity
  8
CORTE
100
AcDbCircle
 10
0.0480000000000018
 20
0.0360000000000582
 30
0.0
 40
0.001
100
AcDbArc
 50
270.0000000004071
 51
0.000000000000007
  0
ARC
  5
232
330
213
100
AcDbEntity
  8
CORTE
100
AcDbCircle
 10
0.0450000000000728
 20
0.0339999999999918
 30
0.0
 40
0.001
100
AcDbArc
 50
90.0
 51
180.0
  0
ARC
  5
233
330
213
100
AcDbEntity
  8
CORTE
100
AcDbCircle
 10
0.047999999999945
 20
0.0390000000000157
 30
0.0
 40
0.001
100
AcDbArc
 50
359.9999999991858
 51
90.0
  0
ENDBLK
  5
234
330
213
100
AcDbEntity
  8
0
100
AcDbBlockEnd
  0
BLOCK
  5
236
330
235
100
AcDbEntity
  8
0
 62
     4
100
AcDbBlockBegin
  2
NOM-J
 70
     0
 10
0.0
 20
0.0
 30
0.0
  3
NOM-J
  1

  0
LINE
  5
237
330
235
100
AcDbEntity
  8
Vista
 62
     4
100
AcDbLine
 10
0.0211489998446837
 20
0.0224999999999795
 30
0.0
 11
0.093805067538824
 21
0.0379594292031982
 31
0.0
  0
LINE
  5
238
330
235
100
AcDbEntity
  8
Vista
 62
     4
100
AcDbLine
 10
0.0197074998707194
 20
0.0224999999999795
 30
0.0
 11
0.0923635675646324
 21
0.0379594292032266
 31
0.0
  0
LINE
  5
239
330
235
100
AcDbEntity
  8
Vista
 62
     4
100
AcDbLine
 10
0.0182659998964141
 20
0.0224999999999795
 30
0.0
 11
0.0909220675904408
 21
0.0379594292031982
 31
0.0
  0
LINE
  5
23A
330
235
100
AcDbEntity
  8
Vista
 62
     4
100
AcDbLine
 10
0.0168244999223362
 20
0.0224999999999795
 30
0.0
 11
0.0894805676163628
 21
0.0379594292032266
 31
0.0
  0
LINE
  5
23B
330
235
100
AcDbEntity
  8
Vista
 62
     4
100
AcDbLine
 10
0.0153829999481445
 20
0.0224999999999795
 30
0.0
 11
0.0880390676422849
 21
0.0379594292032266
 31
0.0
  0
LINE
  5
23C
330
235
100
AcDbEntity
  8
Vista
 62
     4
100
AcDbLine
 10
0.0139414999740666
 20
0.0224999999999795
 30
0.0
 11
0.0865975676682069
 21
0.0379594292032266
 31
0.0
  0
LINE
  5
23D
330
235
100
AcDbEntity
  8
Vista
 62
     2
100
AcDbLine
 10
0.0125000000000455
 20
0.022500000000008
 30
0.0
 11
0.0851560676940153
 21
0.0379594292032266
 31
0.0
  0
LINE
  5
23E
330
235
100
AcDbEntity
  8
Vista
 62
     2
100
AcDbLine
 10
0.0218535533905424
 20
0.0223535533905874
 30
0.0
 11
0.0945096210847396
 21
0.0378129825938061
 31
0.0
  0
LINE
  5
23F
330
235
100
AcDbEntity
  8
Vista
 62
     2
100
AcDbLine
 10
0.02150000000006
 20
0.0200000000000387
 30
0.0
 11
0.094359627334427
 21
0.0355027417029987
 31
0.0
  0
LINE
  5
240
330
235
100
AcDbEntity
  8
Vista
 62
     2
100
AcDbLine
 10
0.0190000000000055
 20
0.0175000000000125
 30
0.0
 11
0.0918596273343724
 21
0.0330027417029726
 31
0.0
  0
LINE
  5
241
330
235
100
AcDbEntity
  8
Vista
 62
     2
100
AcDbLine
 10
0.0075428343679391
 20
0.0078574386832884
 30
0.0
 11
0.0801989020703786
 21
0.0233168678888376
 31
0.0
  0
LINE
  5
242
330
235
100
AcDbEntity
  8
Vista
 62
     2
100
AcDbLine
 10
0.0040000000000191
 20
0.0024999999999693
 30
0.0
 11
0.0746560676942068
 21
0.0175338782567849
 31
0.0
  0
LINE
  5
243
330
235
100
AcDbEntity
  8
Vista
 62
     3
100
AcDbLine
 10
0.0018535533906174
 20
0.0001464466094205
 30
0.0
 11
0.074509621085781
 21
0.0156058758136055
 31
0.0
  0
INSERT
  5
244
330
235
100
AcDbEntity
  8
CORTE
 62
     4
100
AcDbBlockReference
  2
ELEMENT
 10
-0.0024999999999977
 20
0.0024999999999977
 30
0.0
 41
0.5
 42
0.5
 43
0.5
  0
LINE
  5
245
330
235
100
AcDbEntity
  8
Vista
 62
     2
100
AcDbLine
 10
-0.0024999999999977
 20
0.0100000000000193
 30
0.0
 11
0.0013108568762163
 21
0.0108108568761622
 31
0.0
  0
ARC
  5
246
330
235
100
AcDbEntity
  8
CORTE
 62
     3
100
AcDbCircle
 10
0.0775727343608992
 20
0.0325427625365364
 30
0.0
 40
0.0095923870276683
100
AcDbArc
 50
278.1349003175446
 51
356.7599311023579
  0
LINE
  5
247
330
235
100
AcDbEntity
  8
CORTE
 62
     3
100
AcDbLine
 10
0.0771560676942045
 20
0.0184594292032045
 30
0.0
 11
0.0771560676942045
 21
0.0224507195463559
 31
0.0
  0
ARC
  5
248
330
235
100
AcDbEntity
  8
CORTE
 62
     3
100
AcDbCircle
 10
0.0751560676941949
 20
0.0174594292032282
 30
0.0
 40
0.0005
100
AcDbArc
 50
89.99999999967434
 51
180.0
  0
LINE
  5
249
330
235
100
AcDbEntity
  8
Vista
 62
     3
100
AcDbLine
 10
0.074509621085781
 20
0.0156058758135771
 30
0.0
 11
0.0746560676941499
 21
0.0156370360599851
 31
0.0
  0
ARC
  5
24A
330
235
100
AcDbEntity
  8
CORTE
100
AcDbCircle
 10
0.0741560676942186
 20
0.0159594292032068
 30
0.0
 40
0.0005
100
AcDbArc
 50
315.0000001496929
 51
0.000000000000007
  0
LINE
  5
24B
330
235
100
AcDbEntity
  8
CORTE
 62
     3
100
AcDbLine
 10
0.0746560676942068
 20
0.0159594292032068
 30
0.0
 11
0.0746560676942068
 21
0.0174594292032282
 31
0.0
  0
ARC
  5
24C
330
235
100
AcDbEntity
  8
CORTE
 62
     3
100
AcDbCircle
 10
0.0766560676942163
 20
0.0184594292032045
 30
0.0
 40
0.0005
100
AcDbArc
 50
269.9999999991858
 51
0.000000000000007
  0
LINE
  5
24D
330
235
100
AcDbEntity
  8
CORTE
 62
     3
100
AcDbLine
 10
0.0766560676942163
 20
0.017959429203188
 30
0.0
 11
0.0751560676941949
 21
0.0179594292032164
 31
0.0
  0
ARC
  5
24E
330
235
100
AcDbEntity
  8
CORTE
 62
     3
100
AcDbCircle
 10
0.0776560676941927
 20
0.0224507195463559
 30
0.0
 40
0.0005
100
AcDbArc
 50
152.521182623883
 51
179.9999999983715
  0
LINE
  5
24F
330
235
100
AcDbEntity
  8
CORTE
 62
     3
100
AcDbLine
 10
0.0946560676941317
 20
0.0359594292032455
 30
0.0
 11
0.0946560676941317
 21
0.03745942920321
 31
0.0
  0
ARC
  5
250
330
235
100
AcDbEntity
  8
CORTE
 62
     3
100
AcDbCircle
 10
0.0916560676942027
 20
0.0334594292032193
 30
0.0
 40
0.0005
100
AcDbArc
 50
270.0
 51
0.000000000000007
  0
ARC
  5
251
330
235
100
AcDbEntity
  8
CORTE
 62
     3
100
AcDbCircle
 10
0.0941560676942004
 20
0.0359594292032455
 30
0.0
 40
0.0005
100
AcDbArc
 50
294.0240004981589
 51
0.000000000000007
  0
LINE
  5
252
330
235
100
AcDbEntity
  8
CORTE
 62
     3
100
AcDbLine
 10
0.0921560676942477
 20
0.0349594292032123
 30
0.0
 11
0.0921560676941908
 21
0.0334594292032193
 31
0.0
  0
LINE
  5
253
330
235
100
AcDbEntity
  8
CORTE
 62
     3
100
AcDbLine
 10
0.0941560676941436
 20
0.0379594292032266
 30
0.0
 11
0.0851560676942427
 21
0.0379594292032266
 31
0.0
  0
ARC
  5
254
330
235
100
AcDbEntity
  8
CORTE
 62
     3
100
AcDbCircle
 10
0.0941560676941436
 20
0.03745942920321
 30
0.0
 40
0.0005
100
AcDbArc
 50
359.9999999991858
 51
90.0
  0
ENDBLK
  5
255
330
235
100
AcDbEntity
  8
0
 62
     4
100
AcDbBlockEnd
  0
BLOCK
  5
3FC
330
3FB
100
AcDbEntity
  8
0
 62
     1
100
AcDbBlockBegin
  2
NOM-QR
 70
     0
 10
0.0
 20
0.0
 30
0.0
  3
NOM-QR
  1

  0
LINE
  5
3FD
330
3FB
100
AcDbEntity
  8
CORTE
 62
     4
100
AcDbLine
 10
0.0184292030348843
 20
0.0200000000000102
 30
0.0
 11
0.0860297709413658
 21
0.0343689442811126
 31
0.0
  0
LINE
  5
3FE
330
3FB
100
AcDbEntity
  8
CORTE
 62
     4
100
AcDbLine
 10
0.0155433624279908
 20
0.0200000000000102
 30
0.0
 11
0.0831439303344155
 21
0.0343689442811126
 31
0.0
  0
LINE
  5
3FF
330
3FB
100
AcDbEntity
  8
CORTE
 62
     4
100
AcDbLine
 10
0.0126575218209837
 20
0.0200000000000102
 30
0.0
 11
0.0802580897274084
 21
0.034368944281141
 31
0.0
  0
LINE
  5
400
330
3FB
100
AcDbEntity
  8
CORTE
 62
     4
100
AcDbLine
 10
0.0097716812139765
 20
0.0200000000000102
 30
0.0
 11
0.077372249120458
 21
0.0343689442811126
 31
0.0
  0
LINE
  5
401
330
3FB
100
AcDbEntity
  8
CORTE
 62
     4
100
AcDbLine
 10
0.0068858406069694
 20
0.0200000000000102
 30
0.0
 11
0.0744864085134509
 21
0.0343689442811126
 31
0.0
  0
LINE
  5
402
330
3FB
100
AcDbEntity
  8
CORTE
 62
     3
100
AcDbLine
 10
0.0081347328614925
 20
0.0017290908471352
 30
0.0
 11
0.0757353007679171
 21
0.0160980351282376
 31
0.0
  0
LINE
  5
403
330
3FB
100
AcDbEntity
  8
CORTE
 62
     3
100
AcDbLine
 10
0.0040000000000191
 20
0.0200000000000102
 30
0.0
 11
0.0716005679065006
 21
0.034368944281141
 31
0.0
  0
LINE
  5
404
330
3FB
100
AcDbEntity
  8
CORTE
 62
     3
100
AcDbLine
 10
0.0200000000000387
 20
0.0200000000000102
 30
0.0
 11
0.0876005679064633
 21
0.0343689442811126
 31
0.0
  0
ARC
  5
405
330
3FB
100
AcDbEntity
  8
CORTE
 62
     1
100
AcDbCircle
 10
0.0
 20
0.0200000000000102
 30
0.0
 40
0.0200000000000102
100
AcDbArc
 50
270.0
 51
0.0
  0
LINE
  5
406
330
3FB
100
AcDbEntity
  8
CORTE
 62
     1
100
AcDbLine
 10
0.0
 20
0.0160000000000196
 30
0.0
 11
0.0
 21
0.0
 31
0.0
  0
LINE
  5
407
330
3FB
100
AcDbEntity
  8
COTAS
 62
     1
100
AcDbLine
 10
0.0200000000000387
 20
0.0200000000000102
 30
0.0
 11
0.0040000000000191
 21
0.0200000000000102
 31
0.0
  0
ARC
  5
408
330
3FB
100
AcDbEntity
  8
CORTE
 62
     1
100
AcDbCircle
 10
0.0
 20
0.0200000000000102
 30
0.0
 40
0.004
100
AcDbArc
 50
270.0
 51
0.0
  0
ARC
  5
409
330
3FB
100
AcDbEntity
  8
CORTE
 62
     1
100
AcDbCircle
 10
0.0676005679064247
 20
0.0343689442811126
 30
0.0
 40
0.0200000000000102
100
AcDbArc
 50
270.0
 51
0.0
  0
LINE
  5
40A
330
3FB
100
AcDbEntity
  8
COTAS
 62
     1
100
AcDbLine
 10
0.0876005679064633
 20
0.0343689442811126
 30
0.0
 11
0.0716005679064438
 21
0.0343689442811126
 31
0.0
  0
ENDBLK
  5
40B
330
3FB
100
AcDbEntity
  8
0
 62
     1
100
AcDbBlockEnd
  0
BLOCK
  5
4E1
330
4E0
100
AcDbEntity
  8
0
100
AcDbBlockBegin
  2
_Arrivo
 70
     0
 10
0.0
 20
0.0
 30
0.0
  3
_Arrivo
  1

  0
LINE
  5
4E2
330
4E0
100
AcDbEntity
  8
0
  6
ByBlock
 62
     0
370
    -2
100
AcDbLine
 10
0.025
 20
-0.0433012701891858
 30
0.0
 11
-0.15
 21
0.2598076211353328
 31
0.0
  0
LINE
  5
4E3
330
4E0
100
AcDbEntity
  8
0
  6
ByBlock
 62
     0
370
    -2
100
AcDbLine
 10
0.025
 20
0.0433012701892585
 30
0.0
 11
-0.15
 21
-0.2598076211353328
 31
0.0
  0
LINE
  5
4E4
330
4E0
100
AcDbEntity
  8
0
  6
ByBlock
 62
     0
370
    -2
100
AcDbLine
 10
-0.05
 20
0.0
 30
0.0
 11
0.05
 21
0.0
 31
0.0
  0
ENDBLK
  5
4E5
330
4E0
100
AcDbEntity
  8
0
100
AcDbBlockEnd
  0
BLOCK
  5
4E7
330
4E6
100
AcDbEntity
  8
0
100
AcDbBlockBegin
  2
_Partenza
 70
     0
 10
0.0
 20
0.0
 30
0.0
  3
_Partenza
  1

  0
LINE
  5
4E8
330
4E6
100
AcDbEntity
  8
0
  6
ByBlock
 62
     0
370
    -2
100
AcDbLine
 10
-0.05
 20
0.05
 30
0.0
 11
0.1
 21
0.05
 31
0.0
  0
LINE
  5
4E9
330
4E6
100
AcDbEntity
  8
0
  6
ByBlock
 62
     0
370
    -2
100
AcDbLine
 10
-0.05
 20
-0.05
 30
0.0
 11
0.1
 21
-0.05
 31
0.0
  0
ENDBLK
  5
4EA
330
4E6
100
AcDbEntity
  8
0
100
AcDbBlockEnd
  0
BLOCK
  5
807
330
73D
100
AcDbEntity
  8
0
 62
     3
100
AcDbBlockBegin
  2
A$C6CE44357
 70
     0
 10
0.0
 20
0.0
 30
0.0
  3
A$C6CE44357
  1

  0
LINE
  5
73E
330
73D
100
AcDbEntity
  8
Vista
 62
     3
100
AcDbLine
 10
-265.2371225605411
 20
-42.42864078547465
 30
0.0
 11
-265.1113419531143
 21
-42.4023863117474
 31
0.0
  0
LINE
  5
73F
330
73D
100
AcDbEntity
  8
Vista
 62
     4
100
AcDbLine
 10
-265.2590480951634
 20
-42.54823976658282
 30
0.0
 11
-265.2510480951634
 21
-42.54823976658282
 31
0.0
  0
LINE
  5
740
330
73D
100
AcDbEntity
  8
Vista
 62
     3
100
AcDbLine
 10
-265.2678775571128
 20
-42.55723976658283
 30
0.0
 11
-265.2164242716711
 21
-42.55723976658283
 31
0.0
  0
LINE
  5
741
330
73D
100
AcDbEntity
  8
Vista
 62
     2
100
AcDbLine
 10
-265.240902830533
 20
-42.52873976658283
 30
0.0
 11
-265.2164242716711
 21
-42.52873976658283
 31
0.0
  0
LINE
  5
742
330
73D
100
AcDbEntity
  8
Vista
 62
     2
100
AcDbLine
 10
-265.245902830533
 20
-42.53973976658282
 30
0.0
 11
-265.2164242716711
 21
-42.53973976658282
 31
0.0
  0
LINE
  5
743
330
73D
100
AcDbEntity
  8
Vista
 62
     2
100
AcDbLine
 10
-265.2411287103258
 20
-42.53147306509318
 30
0.0
 11
-265.2164242716712
 21
-42.53147306509318
 31
0.0
  0
LINE
  5
744
330
73D
100
AcDbEntity
  8
Vista
 62
     2
100
AcDbLine
 10
-265.2649809809004
 20
-42.55319036467706
 30
0.0
 11
-265.2164242716712
 21
-42.55319036467706
 31
0.0
  0
LWPOLYLINE
  5
745
330
73D
100
AcDbEntity
  8
CORTE
  6
Continuous
 62
     1
100
AcDbPolyline
 90
       30
 70
     1
 43
0.0
 10
-265.2651647001392
 20
-42.55337345319399
 42
0.2685636005234304
 10
-265.2649137067366
 20
-42.55293986846818
 10
-265.2649137067366
 20
-42.54823976658282
 10
-265.2624028305331
 20
-42.54823976658282
 42
0.4142135623730693
 10
-265.261402830533
 20
-42.54723976658282
 10
-265.261402830533
 20
-42.53973976658282
 10
-265.258902830533
 20
-42.53973976658282
 42
-0.2526773759784102
 10
-265.2565834054943
 20
-42.53823976658283
 10
-265.2512222555718
 20
-42.53823976658283
 42
-0.2526773759784102
 10
-265.2489028305331
 20
-42.53973976658282
 10
-265.245902830533
 20
-42.53973976658282
 42
0.414213562373069
 10
-265.244902830533
 20
-42.53873976658282
 10
-265.244902830533
 20
-42.53523036708408
 42
-0.3189892314182299
 10
-265.2417043063426
 20
-42.53182012245305
 42
0.356818340496206
 10
-265.240902830533
 20
-42.53084002646501
 10
-265.240902830533
 20
-42.52873976658283
 42
0.364269306410865
 10
-265.234652830533
 20
-42.52348976658284
 42
-0.3260576707120786
 10
-265.2292666879074
 20
-42.51829884552306
 42
0.3747567555282292
 10
-265.228402830533
 20
-42.51730815627538
 10
-265.228402830533
 20
-42.51473976658282
 10
-265.240902830533
 20
-42.51473976658282
 10
-265.240902830533
 20
-42.52073976658282
 10
-265.254402830533
 20
-42.53323976658283
 10
-265.264402830533
 20
-42.53323976658283
 42
0.4142135623730704
 10
-265.269402830533
 20
-42.53823976658283
 10
-265.269402830533
 20
-42.54351258119139
 10
-265.270902830533
 20
-42.54473976658282
 10
-265.270902830533
 20
-42.55723976658283
 10
-265.2678775571128
 20
-42.55723976658283
 42
0.3849291685644514
 10
-265.2673801055846
 20
-42.55679018460604
 42
-0.2416670294637286
  0
LINE
  5
746
330
73D
100
AcDbEntity
  8
CORTE
  6
RAYITA
 62
     4
100
AcDbLine
 10
-265.2649137067366
 20
-42.54823976658282
 30
0.0
 11
-265.2649137067366
 21
-42.53973976658282
 31
0.0
  0
LINE
  5
747
330
73D
100
AcDbEntity
  8
CORTE
  6
RAYITA
 62
     4
100
AcDbLine
 10
-265.2631769303866
 20
-42.5441333561959
 30
0.0
 11
-265.2631769303866
 21
-42.53973976658282
 31
0.0
  0
LINE
  5
748
330
73D
100
AcDbEntity
  8
CORTE
  6
RAYITA
 62
     4
100
AcDbLine
 10
-265.2631769303866
 20
-42.5441333561959
 30
0.0
 11
-265.2649137067366
 21
-42.5441333561959
 31
0.0
  0
LINE
  5
749
330
73D
100
AcDbEntity
  8
CORTE
  6
RAYITA
 62
     4
100
AcDbLine
 10
-265.261402830533
 20
-42.53973976658282
 30
0.0
 11
-265.2649137067366
 21
-42.53973976658282
 31
0.0
  0
LINE
  5
74A
330
73D
100
AcDbEntity
  8
Vista
 62
     3
100
AcDbLine
 10
-265.228402830533
 20
-42.51473976658282
 30
0.0
 11
-265.2164242716711
 21
-42.51473976658279
 31
0.0
  0
LINE
  5
74B
330
73D
100
AcDbEntity
  8
Vista
 62
     2
100
AcDbLine
 10
-265.2286491254761
 20
-42.51796536909266
 30
0.0
 11
-265.2164242716712
 21
-42.51796536909266
 31
0.0
  0
LINE
  5
74C
330
73D
100
AcDbEntity
  8
Vista
 62
     4
100
AcDbLine
 10
-265.2590480951634
 20
-42.53973976658282
 30
0.0
 11
-265.2590480951634
 21
-42.54823976658282
 31
0.0
  0
LINE
  5
74D
330
73D
100
AcDbEntity
  8
Vista
 62
     4
100
AcDbLine
 10
-265.2510480951634
 20
-42.53973976658282
 30
0.0
 11
-265.2510480951634
 21
-42.54823976658282
 31
0.0
  0
LINE
  5
74E
330
73D
100
AcDbEntity
  8
Vista
 62
     4
100
AcDbLine
 10
-265.2470480951634
 20
-42.53973976658282
 30
0.0
 11
-265.2470480951635
 21
-42.54823976658282
 31
0.0
  0
LINE
  5
74F
330
73D
100
AcDbEntity
  8
Vista
 62
     4
100
AcDbLine
 10
-265.2390480951634
 20
-42.53973976658282
 30
0.0
 11
-265.2390480951634
 21
-42.54823976658282
 31
0.0
  0
LINE
  5
750
330
73D
100
AcDbEntity
  8
Vista
 62
     4
100
AcDbLine
 10
-265.2350480951635
 20
-42.53973976658282
 30
0.0
 11
-265.2350480951635
 21
-42.54823976658282
 31
0.0
  0
LINE
  5
751
330
73D
100
AcDbEntity
  8
Vista
 62
     4
100
AcDbLine
 10
-265.2510480951634
 20
-42.5441333561959
 30
0.0
 11
-265.2470480951635
 21
-42.5441333561959
 31
0.0
  0
LINE
  5
752
330
73D
100
AcDbEntity
  8
Vista
 62
     4
100
AcDbLine
 10
-265.2390480951634
 20
-42.5441333561959
 30
0.0
 11
-265.2350480951635
 21
-42.5441333561959
 31
0.0
  0
LINE
  5
753
330
73D
100
AcDbEntity
  8
Vista
 62
     4
100
AcDbLine
 10
-265.2470480951635
 20
-42.54823976658282
 30
0.0
 11
-265.2390480951634
 21
-42.54823976658282
 31
0.0
  0
LINE
  5
754
330
73D
100
AcDbEntity
  8
Vista
 62
     4
100
AcDbLine
 10
-265.2350480951635
 20
-42.54823976658282
 30
0.0
 11
-265.2270480951634
 21
-42.54823976658282
 31
0.0
  0
LINE
  5
755
330
73D
100
AcDbEntity
  8
Vista
 62
     4
100
AcDbLine
 10
-265.2230480951634
 20
-42.53973976658282
 30
0.0
 11
-265.2230480951634
 21
-42.54823976658282
 31
0.0
  0
LINE
  5
756
330
73D
100
AcDbEntity
  8
Vista
 62
     4
100
AcDbLine
 10
-265.2270480951634
 20
-42.53973976658282
 30
0.0
 11
-265.2270480951634
 21
-42.54823976658282
 31
0.0
  0
LINE
  5
757
330
73D
100
AcDbEntity
  8
Vista
 62
     4
100
AcDbLine
 10
-265.2230480951634
 20
-42.54823976658282
 30
0.0
 11
-265.2164242716711
 21
-42.54823976658282
 31
0.0
  0
LINE
  5
758
330
73D
100
AcDbEntity
  8
Vista
 62
     4
100
AcDbLine
 10
-265.2270480951634
 20
-42.5441333561959
 30
0.0
 11
-265.2230480951634
 21
-42.5441333561959
 31
0.0
  0
LINE
  5
759
330
73D
100
AcDbEntity
  8
Vista
 62
     4
100
AcDbLine
 10
-265.2079942150913
 20
-42.54823976658282
 30
0.0
 11
-265.2030480951634
 21
-42.54823976658282
 31
0.0
  0
LINE
  5
75A
330
73D
100
AcDbEntity
  8
Vista
 62
     4
100
AcDbLine
 10
-265.1870480951635
 20
-42.53973976658282
 30
0.0
 11
-265.1870480951635
 21
-42.54823976658282
 31
0.0
  0
LINE
  5
75B
330
73D
100
AcDbEntity
  8
Vista
 62
     4
100
AcDbLine
 10
-265.1910480951634
 20
-42.53973976658282
 30
0.0
 11
-265.1910480951634
 21
-42.54823976658282
 31
0.0
  0
LINE
  5
75C
330
73D
100
AcDbEntity
  8
Vista
 62
     4
100
AcDbLine
 10
-265.1990480951635
 20
-42.53973976658282
 30
0.0
 11
-265.1990480951635
 21
-42.54823976658282
 31
0.0
  0
LINE
  5
75D
330
73D
100
AcDbEntity
  8
Vista
 62
     4
100
AcDbLine
 10
-265.2030480951634
 20
-42.53973976658282
 30
0.0
 11
-265.2030480951634
 21
-42.54823976658282
 31
0.0
  0
LINE
  5
75E
330
73D
100
AcDbEntity
  8
Vista
 62
     4
100
AcDbLine
 10
-265.1990480951635
 20
-42.54823976658282
 30
0.0
 11
-265.1910480951634
 21
-42.54823976658282
 31
0.0
  0
LINE
  5
75F
330
73D
100
AcDbEntity
  8
Vista
 62
     4
100
AcDbLine
 10
-265.2030480951634
 20
-42.5441333561959
 30
0.0
 11
-265.1990480951635
 21
-42.5441333561959
 31
0.0
  0
LINE
  5
760
330
73D
100
AcDbEntity
  8
Vista
 62
     4
100
AcDbLine
 10
-265.1910480951634
 20
-42.5441333561959
 30
0.0
 11
-265.1870480951635
 21
-42.5441333561959
 31
0.0
  0
LINE
  5
761
330
73D
100
AcDbEntity
  8
Vista
 62
     4
100
AcDbLine
 10
-265.1870480951635
 20
-42.54823976658282
 30
0.0
 11
-265.1790480951634
 21
-42.54823976658282
 31
0.0
  0
LINE
  5
762
330
73D
100
AcDbEntity
  8
Vista
 62
     4
100
AcDbLine
 10
-265.1630480951634
 20
-42.53973976658282
 30
0.0
 11
-265.1630480951634
 21
-42.54823976658282
 31
0.0
  0
LINE
  5
763
330
73D
100
AcDbEntity
  8
Vista
 62
     4
100
AcDbLine
 10
-265.1670480951634
 20
-42.53973976658282
 30
0.0
 11
-265.1670480951634
 21
-42.54823976658282
 31
0.0
  0
LINE
  5
764
330
73D
100
AcDbEntity
  8
Vista
 62
     4
100
AcDbLine
 10
-265.1750480951634
 20
-42.53973976658282
 30
0.0
 11
-265.1750480951634
 21
-42.54823976658282
 31
0.0
  0
LINE
  5
765
330
73D
100
AcDbEntity
  8
Vista
 62
     4
100
AcDbLine
 10
-265.1790480951634
 20
-42.53973976658282
 30
0.0
 11
-265.1790480951634
 21
-42.54823976658282
 31
0.0
  0
LINE
  5
766
330
73D
100
AcDbEntity
  8
Vista
 62
     4
100
AcDbLine
 10
-265.1750480951634
 20
-42.54823976658282
 30
0.0
 11
-265.1670480951634
 21
-42.54823976658282
 31
0.0
  0
LINE
  5
767
330
73D
100
AcDbEntity
  8
Vista
 62
     4
100
AcDbLine
 10
-265.1790480951634
 20
-42.5441333561959
 30
0.0
 11
-265.1750480951634
 21
-42.5441333561959
 31
0.0
  0
LINE
  5
768
330
73D
100
AcDbEntity
  8
Vista
 62
     4
100
AcDbLine
 10
-265.1670480951634
 20
-42.5441333561959
 30
0.0
 11
-265.1630480951634
 21
-42.5441333561959
 31
0.0
  0
LINE
  5
769
330
73D
100
AcDbEntity
  8
Vista
 62
     4
100
AcDbLine
 10
-265.1630480951634
 20
-42.54823976658282
 30
0.0
 11
-265.1550480951634
 21
-42.54823976658282
 31
0.0
  0
LINE
  5
76A
330
73D
100
AcDbEntity
  8
Vista
 62
     4
100
AcDbLine
 10
-265.1390480951635
 20
-42.53973976658282
 30
0.0
 11
-265.1390480951635
 21
-42.54823976658282
 31
0.0
  0
LINE
  5
76B
330
73D
100
AcDbEntity
  8
Vista
 62
     4
100
AcDbLine
 10
-265.1430480951634
 20
-42.53973976658282
 30
0.0
 11
-265.1430480951634
 21
-42.54823976658282
 31
0.0
  0
LINE
  5
76C
330
73D
100
AcDbEntity
  8
Vista
 62
     4
100
AcDbLine
 10
-265.1510480951634
 20
-42.53973976658282
 30
0.0
 11
-265.1510480951634
 21
-42.54823976658282
 31
0.0
  0
LINE
  5
76D
330
73D
100
AcDbEntity
  8
Vista
 62
     4
100
AcDbLine
 10
-265.1550480951634
 20
-42.53973976658282
 30
0.0
 11
-265.1550480951634
 21
-42.54823976658282
 31
0.0
  0
LINE
  5
76E
330
73D
100
AcDbEntity
  8
Vista
 62
     4
100
AcDbLine
 10
-265.1510480951634
 20
-42.54823976658282
 30
0.0
 11
-265.1430480951634
 21
-42.54823976658282
 31
0.0
  0
LINE
  5
76F
330
73D
100
AcDbEntity
  8
Vista
 62
     4
100
AcDbLine
 10
-265.1550480951634
 20
-42.5441333561959
 30
0.0
 11
-265.1510480951634
 21
-42.5441333561959
 31
0.0
  0
LINE
  5
770
330
73D
100
AcDbEntity
  8
Vista
 62
     4
100
AcDbLine
 10
-265.1430480951634
 20
-42.5441333561959
 30
0.0
 11
-265.1390480951635
 21
-42.5441333561959
 31
0.0
  0
LINE
  5
771
330
73D
100
AcDbEntity
  8
Vista
 62
     4
100
AcDbLine
 10
-265.1390480951635
 20
-42.54823976658282
 30
0.0
 11
-265.1310480951634
 21
-42.54823976658282
 31
0.0
  0
LINE
  5
772
330
73D
100
AcDbEntity
  8
Vista
 62
     4
100
AcDbLine
 10
-265.1150480951634
 20
-42.53973976658282
 30
0.0
 11
-265.1150480951634
 21
-42.54823976658282
 31
0.0
  0
LINE
  5
773
330
73D
100
AcDbEntity
  8
Vista
 62
     4
100
AcDbLine
 10
-265.1190480951634
 20
-42.53973976658282
 30
0.0
 11
-265.1190480951634
 21
-42.54823976658282
 31
0.0
  0
LINE
  5
774
330
73D
100
AcDbEntity
  8
Vista
 62
     4
100
AcDbLine
 10
-265.1270480951634
 20
-42.53973976658282
 30
0.0
 11
-265.1270480951634
 21
-42.54823976658282
 31
0.0
  0
LINE
  5
775
330
73D
100
AcDbEntity
  8
Vista
 62
     4
100
AcDbLine
 10
-265.1310480951634
 20
-42.53973976658282
 30
0.0
 11
-265.1310480951634
 21
-42.54823976658282
 31
0.0
  0
LINE
  5
776
330
73D
100
AcDbEntity
  8
Vista
 62
     4
100
AcDbLine
 10
-265.1270480951634
 20
-42.54823976658282
 30
0.0
 11
-265.1190480951634
 21
-42.54823976658282
 31
0.0
  0
LINE
  5
777
330
73D
100
AcDbEntity
  8
Vista
 62
     4
100
AcDbLine
 10
-265.1310480951634
 20
-42.5441333561959
 30
0.0
 11
-265.1270480951634
 21
-42.5441333561959
 31
0.0
  0
LINE
  5
778
330
73D
100
AcDbEntity
  8
Vista
 62
     4
100
AcDbLine
 10
-265.1190480951634
 20
-42.5441333561959
 30
0.0
 11
-265.1150480951634
 21
-42.5441333561959
 31
0.0
  0
LINE
  5
779
330
73D
100
AcDbEntity
  8
Vista
 62
     4
100
AcDbLine
 10
-265.1150480951634
 20
-42.54823976658282
 30
0.0
 11
-265.1070480951634
 21
-42.54823976658282
 31
0.0
  0
LINE
  5
77A
330
73D
100
AcDbEntity
  8
Vista
 62
     4
100
AcDbLine
 10
-265.1030480951634
 20
-42.53973976658282
 30
0.0
 11
-265.1030480951634
 21
-42.54823976658282
 31
0.0
  0
LINE
  5
77B
330
73D
100
AcDbEntity
  8
Vista
 62
     4
100
AcDbLine
 10
-265.1070480951634
 20
-42.53973976658282
 30
0.0
 11
-265.1070480951634
 21
-42.54823976658282
 31
0.0
  0
LINE
  5
77C
330
73D
100
AcDbEntity
  8
Vista
 62
     4
100
AcDbLine
 10
-265.1030480951634
 20
-42.54823976658282
 30
0.0
 11
-265.0999942150913
 21
-42.54823976658285
 31
0.0
  0
LINE
  5
77D
330
73D
100
AcDbEntity
  8
Vista
 62
     4
100
AcDbLine
 10
-265.1070480951634
 20
-42.5441333561959
 30
0.0
 11
-265.1030480951634
 21
-42.5441333561959
 31
0.0
  0
LINE
  5
77E
330
73D
100
AcDbEntity
  8
CORTE
  6
RAYITA
 62
     4
100
AcDbLine
 10
-265.2611334367446
 20
-42.46214078547466
 30
0.0
 11
-265.2611334367446
 21
-42.45803437508773
 31
0.0
  0
LINE
  5
77F
330
73D
100
AcDbEntity
  8
CORTE
  6
RAYITA
 62
     4
100
AcDbLine
 10
-265.2576225605411
 20
-42.45364078547466
 30
0.0
 11
-265.2593966603947
 21
-42.45364078547466
 31
0.0
  0
LINE
  5
780
330
73D
100
AcDbEntity
  8
CORTE
  6
RAYITA
 62
     4
100
AcDbLine
 10
-265.2593966603947
 20
-42.45803437508773
 30
0.0
 11
-265.2611334367446
 21
-42.45803437508773
 31
0.0
  0
LINE
  5
781
330
73D
100
AcDbEntity
  8
CORTE
  6
RAYITA
 62
     4
100
AcDbLine
 10
-265.2593966603947
 20
-42.45803437508773
 30
0.0
 11
-265.2593966603947
 21
-42.45364078547466
 31
0.0
  0
LINE
  5
782
330
73D
100
AcDbEntity
  8
Vista
 62
     2
100
AcDbLine
 10
-265.2246225605411
 20
-42.42864078547465
 30
0.0
 11
-265.0988419531143
 21
-42.4023863117474
 31
0.0
  0
LINE
  5
783
330
73D
100
AcDbEntity
  8
Vista
 62
     2
100
AcDbLine
 10
-265.2253196169622
 20
-42.43216218366036
 30
0.0
 11
-265.1005238724924
 21
-42.40611328262953
 31
0.0
  0
LINE
  5
784
330
73D
100
AcDbEntity
  8
Vista
 62
     2
100
AcDbLine
 10
-265.2357843481861
 20
-42.4424980657533
 30
0.0
 11
-265.1113419531143
 21
-42.41652292015008
 31
0.0
  0
LINE
  5
785
330
73D
100
AcDbEntity
  8
Vista
 62
     2
100
AcDbLine
 10
-265.2377407371607
 20
-42.44566528066572
 30
0.0
 11
-265.1119601297339
 21
-42.41941080693844
 31
0.0
  0
LINE
  5
786
330
73D
100
AcDbEntity
  8
Vista
 62
     2
100
AcDbLine
 10
-265.2616957494533
 20
-42.44725731687553
 30
0.0
 11
-265.2475622982738
 21
-42.44430720930124
 31
0.0
  0
LINE
  5
787
330
73D
100
AcDbEntity
  8
Vista
 62
     2
100
AcDbLine
 10
-265.2419054000998
 20
-42.45361692139899
 30
0.0
 11
-265.1318419531143
 21
-42.43064312650061
 31
0.0
  0
LINE
  5
788
330
73D
100
AcDbEntity
  8
Vista
 62
     4
100
AcDbLine
 10
-265.2551225605411
 20
-42.45364078547466
 30
0.0
 11
-265.2479363219937
 21
-42.45214078547464
 31
0.0
  0
LINE
  5
789
330
73D
100
AcDbEntity
  8
Vista
 62
     4
100
AcDbLine
 10
-265.2543974497464
 20
-42.4613609643679
 30
0.0
 11
-265.2463974497463
 21
-42.4596911060796
 31
0.0
  0
LINE
  5
78A
330
73D
100
AcDbEntity
  8
Vista
 62
     4
100
AcDbLine
 10
-265.2593966603947
 20
-42.45803437508773
 30
0.0
 11
-265.2558974497463
 21
-42.45730397684979
 31
0.0
  0
LINE
  5
78B
330
73D
100
AcDbEntity
  8
Vista
 62
     2
100
AcDbLine
 10
-265.2611968867646
 20
-42.46708465797961
 30
0.0
 11
-265.1354162793379
 21
-42.44083018425236
 31
0.0
  0
LINE
  5
78C
330
73D
100
AcDbEntity
  8
Vista
 62
     3
100
AcDbLine
 10
-265.264002248065
 20
-42.47113166995989
 30
0.0
 11
-265.1382216406382
 21
-42.44487719623264
 31
0.0
  0
ARC
  5
78D
330
73D
100
AcDbEntity
  8
CORTE
  6
Continuous
 62
     1
100
AcDbCircle
 10
-265.2616334367446
 20
-42.46684088735999
 30
0.0
 40
0.0004999999999999
100
AcDbArc
 50
299.8686408419573
 51
359.9999999999935
  0
LINE
  5
78E
330
73D
100
AcDbEntity
  8
CORTE
  6
Continuous
 62
     1
100
AcDbLine
 10
-265.2611334367446
 20
-42.46684088735999
 30
0.0
 11
-265.2611334367446
 21
-42.46214078547466
 31
0.0
  0
LINE
  5
78F
330
73D
100
AcDbEntity
  8
CORTE
  6
Continuous
 62
     1
100
AcDbLine
 10
-265.2576225605411
 20
-42.45364078547466
 30
0.0
 11
-265.2551225605411
 21
-42.45364078547466
 31
0.0
  0
ARC
  5
790
330
73D
100
AcDbEntity
  8
CORTE
  6
Continuous
 62
     1
100
AcDbCircle
 10
-265.2525734960763
 20
-42.45503911726784
 30
0.0
 40
0.0029074149083751
100
AcDbArc
 50
94.53017172282182
 51
151.2522954919238
  0
LINE
  5
791
330
73D
100
AcDbEntity
  8
CORTE
  6
Continuous
 62
     1
100
AcDbLine
 10
-265.2528031355024
 20
-42.45214078547464
 30
0.0
 11
-265.2474419855798
 21
-42.45214078547464
 31
0.0
  0
ARC
  5
792
330
73D
100
AcDbEntity
  8
CORTE
  6
Continuous
 62
     1
100
AcDbCircle
 10
-265.2476716250059
 20
-42.45503911726784
 30
0.0
 40
0.0029074149083745
100
AcDbArc
 50
28.74770450807759
 51
85.46982827718144
  0
LINE
  5
793
330
73D
100
AcDbEntity
  8
CORTE
  6
Continuous
 62
     1
100
AcDbLine
 10
-265.245122560541
 20
-42.45364078547466
 30
0.0
 11
-265.2421225605411
 21
-42.45364078547466
 31
0.0
  0
ARC
  5
794
330
73D
100
AcDbEntity
  8
CORTE
  6
Continuous
 62
     1
100
AcDbCircle
 10
-265.2421225605411
 20
-42.45264078547466
 30
0.0
 40
0.001
100
AcDbArc
 50
270.0
 51
359.9999999999951
  0
LINE
  5
795
330
73D
100
AcDbEntity
  8
CORTE
  6
Continuous
 62
     1
100
AcDbLine
 10
-265.2411225605411
 20
-42.45264078547466
 30
0.0
 11
-265.2411225605411
 21
-42.44913138597588
 31
0.0
  0
ARC
  5
796
330
73D
100
AcDbEntity
  8
CORTE
  6
Continuous
 62
     1
100
AcDbCircle
 10
-265.2371225605411
 20
-42.44967795498879
 30
0.0
 40
0.0040371695141331
100
AcDbArc
 50
101.4506709648844
 51
172.21916242068
  0
ARC
  5
797
330
73D
100
AcDbEntity
  8
CORTE
  6
Continuous
 62
     1
100
AcDbCircle
 10
-265.238122560541
 20
-42.44474104535682
 30
0.0
 40
0.0010000000000001
100
AcDbArc
 50
281.4506709648813
 51
359.9999999999935
  0
LINE
  5
798
330
73D
100
AcDbEntity
  8
CORTE
  6
Continuous
 62
     1
100
AcDbLine
 10
-265.2371225605411
 20
-42.44474104535682
 30
0.0
 11
-265.2371225605411
 21
-42.44264078547463
 31
0.0
  0
ARC
  5
799
330
73D
100
AcDbEntity
  8
CORTE
  6
Continuous
 62
     1
100
AcDbCircle
 10
-265.2371225605411
 20
-42.4362955473794
 30
0.0
 40
0.0063452380952395
100
AcDbArc
 50
270.0
 51
350.0605185437708
  0
ARC
  5
79A
330
73D
100
AcDbEntity
  8
CORTE
  6
Continuous
 62
     1
100
AcDbCircle
 10
-265.224622560541
 20
-42.43848602356989
 30
0.0
 40
0.0063452380952396
100
AcDbArc
 50
97.82469757354439
 51
170.060518543773
  0
ARC
  5
79B
330
73D
100
AcDbEntity
  8
CORTE
  6
Continuous
 62
     1
100
AcDbCircle
 10
-265.2256225605411
 20
-42.43120917516718
 30
0.0
 40
0.001
100
AcDbArc
 50
277.8246975735409
 51
359.9999999999984
  0
LINE
  5
79C
330
73D
100
AcDbEntity
  8
CORTE
  6
Continuous
 62
     1
100
AcDbLine
 10
-265.2246225605411
 20
-42.43120917516718
 30
0.0
 11
-265.2246225605411
 21
-42.42864078547465
 31
0.0
  0
LINE
  5
79D
330
73D
100
AcDbEntity
  8
CORTE
  6
Continuous
 62
     1
100
AcDbLine
 10
-265.2246225605411
 20
-42.42864078547465
 30
0.0
 11
-265.2371225605411
 21
-42.42864078547465
 31
0.0
  0
LINE
  5
79E
330
73D
100
AcDbEntity
  8
CORTE
  6
Continuous
 62
     1
100
AcDbLine
 10
-265.2371225605411
 20
-42.42864078547465
 30
0.0
 11
-265.2371225605411
 21
-42.43464078547465
 31
0.0
  0
LINE
  5
79F
330
73D
100
AcDbEntity
  8
CORTE
  6
Continuous
 62
     1
100
AcDbLine
 10
-265.2371225605411
 20
-42.43464078547465
 30
0.0
 11
-265.2506225605411
 21
-42.44714078547464
 31
0.0
  0
LINE
  5
7A0
330
73D
100
AcDbEntity
  8
CORTE
  6
Continuous
 62
     1
100
AcDbLine
 10
-265.2506225605411
 20
-42.44714078547464
 30
0.0
 11
-265.2606225605411
 21
-42.44714078547464
 31
0.0
  0
ARC
  5
7A1
330
73D
100
AcDbEntity
  8
CORTE
  6
Continuous
 62
     1
100
AcDbCircle
 10
-265.2606225605411
 20
-42.45214078547464
 30
0.0
 40
0.005
100
AcDbArc
 50
90.00000000000325
 51
179.9999999999967
  0
LINE
  5
7A2
330
73D
100
AcDbEntity
  8
CORTE
  6
Continuous
 62
     1
100
AcDbLine
 10
-265.2656225605411
 20
-42.45214078547464
 30
0.0
 11
-265.2656225605411
 21
-42.45741360008323
 31
0.0
  0
LINE
  5
7A3
330
73D
100
AcDbEntity
  8
CORTE
  6
Continuous
 62
     1
100
AcDbLine
 10
-265.2656225605411
 20
-42.45741360008323
 30
0.0
 11
-265.2671225605411
 21
-42.45864078547465
 31
0.0
  0
LINE
  5
7A4
330
73D
100
AcDbEntity
  8
CORTE
  6
Continuous
 62
     1
100
AcDbLine
 10
-265.2671225605411
 20
-42.45864078547465
 30
0.0
 11
-265.2671225605411
 21
-42.47114078547464
 31
0.0
  0
LINE
  5
7A5
330
73D
100
AcDbEntity
  8
CORTE
  6
Continuous
 62
     1
100
AcDbLine
 10
-265.2671225605411
 20
-42.47114078547464
 30
0.0
 11
-265.2640972871209
 21
-42.47114078547464
 31
0.0
  0
ARC
  5
7A6
330
73D
100
AcDbEntity
  8
CORTE
  6
Continuous
 62
     1
100
AcDbCircle
 10
-265.2640972871209
 20
-42.47064078547466
 30
0.0
 40
0.0005
100
AcDbArc
 50
270.0
 51
354.2126842324164
  0
ARC
  5
7A7
330
73D
100
AcDbEntity
  8
CORTE
  6
Continuous
 62
     1
100
AcDbCircle
 10
-265.2591640162722
 20
-42.47114078547464
 30
0.0
 40
0.004458544268822
100
AcDbArc
 50
119.8686408419609
 51
174.2126842324128
  0
LINE
  5
7A8
330
73D
100
AcDbEntity
  8
CORTE
  6
Continuous
 62
     4
100
AcDbLine
 10
-265.2573974497463
 20
-42.4613609643679
 30
0.0
 11
-265.2573974497463
 21
-42.45761707527883
 31
0.0
  0
LINE
  5
7A9
330
73D
100
AcDbEntity
  8
Vista
 62
     4
100
AcDbLine
 10
-265.2611334367446
 20
-42.46214078547466
 30
0.0
 11
-265.2573974497463
 21
-42.4613609643679
 31
0.0
  0
LINE
  5
7AA
330
73D
100
AcDbEntity
  8
CORTE
  6
Continuous
 62
     1
100
AcDbLine
 10
-265.2593974497464
 20
-42.45803437508773
 30
0.0
 11
-265.2593974497464
 21
-42.45359456852866
 31
0.0
  0
LINE
  5
7AB
330
73D
100
AcDbEntity
  8
Vista
 62
     4
100
AcDbLine
 10
-265.2573974497463
 20
-42.4613609643679
 30
0.0
 11
-265.2543974497464
 21
-42.4613609643679
 31
0.0
  0
LINE
  5
7AC
330
73D
100
AcDbEntity
  8
Vista
 62
     4
100
AcDbLine
 10
-265.2463974497463
 20
-42.45532102013244
 30
0.0
 11
-265.2438974497463
 21
-42.45479918941735
 31
0.0
  0
LINE
  5
7AD
330
73D
100
AcDbEntity
  8
CORTE
  6
Continuous
 62
     4
100
AcDbLine
 10
-265.2543974497464
 20
-42.4613609643679
 30
0.0
 11
-265.2543974497464
 21
-42.45348943144084
 31
0.0
  0
LINE
  5
7AE
330
73D
100
AcDbEntity
  8
CORTE
  6
Continuous
 62
     4
100
AcDbLine
 10
-265.2558974497463
 20
-42.45730397684979
 30
0.0
 11
-265.2558974497463
 21
-42.45364078547466
 31
0.0
  0
LINE
  5
7AF
330
73D
100
AcDbEntity
  8
CORTE
  6
Continuous
 62
     4
100
AcDbLine
 10
-265.2463974497463
 20
-42.4596911060796
 30
0.0
 11
-265.2463974497463
 21
-42.45242577862588
 31
0.0
  0
LINE
  5
7B0
330
73D
100
AcDbEntity
  8
Vista
 62
     4
100
AcDbLine
 10
-265.2463974497463
 20
-42.45906490922148
 30
0.0
 11
-265.2453974497464
 21
-42.45885617693547
 31
0.0
  0
LINE
  5
7B1
330
73D
100
AcDbEntity
  8
CORTE
  6
Continuous
 62
     4
100
AcDbLine
 10
-265.2423974497464
 20
-42.45885617693547
 30
0.0
 11
-265.2423974497464
 21
-42.45364078547466
 31
0.0
  0
LINE
  5
7B2
330
73D
100
AcDbEntity
  8
CORTE
  6
Continuous
 62
     4
100
AcDbLine
 10
-265.2453974497464
 20
-42.45885617693547
 30
0.0
 11
-265.2453974497464
 21
-42.4551122878464
 31
0.0
  0
LINE
  5
7B3
330
73D
100
AcDbEntity
  8
CORTE
  6
Continuous
 62
     4
100
AcDbLine
 10
-265.2343974497463
 20
-42.45718631864717
 30
0.0
 11
-265.2343974497463
 21
-42.45204976975823
 31
0.0
  0
LINE
  5
7B4
330
73D
100
AcDbEntity
  8
Vista
 62
     4
100
AcDbLine
 10
-265.2423974497464
 20
-42.45885617693547
 30
0.0
 11
-265.2453974497464
 21
-42.45885617693547
 31
0.0
  0
LINE
  5
7B5
330
73D
100
AcDbEntity
  8
CORTE
  6
Continuous
 62
     4
100
AcDbLine
 10
-265.2438974497463
 20
-42.45479918941735
 30
0.0
 11
-265.2438974497463
 21
-42.45364078547466
 31
0.0
  0
LINE
  5
7B6
330
73D
100
AcDbEntity
  8
Vista
 62
     4
100
AcDbLine
 10
-265.2423974497464
 20
-42.45885617693547
 30
0.0
 11
-265.2343974497463
 21
-42.45718631864717
 31
0.0
  0
LINE
  5
7B7
330
73D
100
AcDbEntity
  8
CORTE
  6
Continuous
 62
     4
100
AcDbLine
 10
-265.2333974497464
 20
-42.45635698981327
 30
0.0
 11
-265.2333974497464
 21
-42.45261310072421
 31
0.0
  0
LINE
  5
7B8
330
73D
100
AcDbEntity
  8
CORTE
  6
Continuous
 62
     4
100
AcDbLine
 10
-265.2303974497463
 20
-42.45635698981327
 30
0.0
 11
-265.2303974497463
 21
-42.45121484061409
 31
0.0
  0
LINE
  5
7B9
330
73D
100
AcDbEntity
  8
Vista
 62
     4
100
AcDbLine
 10
-265.2303974497463
 20
-42.45635698981327
 30
0.0
 11
-265.2223974497463
 21
-42.45468713152497
 31
0.0
  0
LINE
  5
7BA
330
73D
100
AcDbEntity
  8
Vista
 62
     4
100
AcDbLine
 10
-265.2303974497463
 20
-42.45635698981327
 30
0.0
 11
-265.2333974497464
 21
-42.45635698981327
 31
0.0
  0
LINE
  5
7BB
330
73D
100
AcDbEntity
  8
Vista
 62
     4
100
AcDbLine
 10
-265.2343974497463
 20
-42.45656572209931
 30
0.0
 11
-265.2333974497464
 21
-42.45635698981327
 31
0.0
  0
LINE
  5
7BC
330
73D
100
AcDbEntity
  8
Vista
 62
     4
100
AcDbLine
 10
-265.2343974497463
 20
-42.45282183301024
 30
0.0
 11
-265.2318974497463
 21
-42.45230000229516
 31
0.0
  0
LINE
  5
7BD
330
73D
100
AcDbEntity
  8
CORTE
  6
Continuous
 62
     4
100
AcDbLine
 10
-265.2318974497463
 20
-42.45230000229516
 30
0.0
 11
-265.2318974497463
 21
-42.45152793904314
 31
0.0
  0
LINE
  5
7BE
330
73D
100
AcDbEntity
  8
CORTE
  6
Continuous
 62
     4
100
AcDbLine
 10
-265.2223974497463
 20
-42.45468713152497
 30
0.0
 11
-265.2223974497463
 21
-42.44955058263606
 31
0.0
  0
LINE
  5
7BF
330
73D
100
AcDbEntity
  8
Vista
 62
     4
100
AcDbLine
 10
-265.2183974497464
 20
-42.45381967473214
 30
0.0
 11
-265.2103974497463
 21
-42.45214981644385
 31
0.0
  0
LINE
  5
7C0
330
73D
100
AcDbEntity
  8
Vista
 62
     4
100
AcDbLine
 10
-265.2183974497464
 20
-42.45381967473214
 30
0.0
 11
-265.2213974497463
 21
-42.45381967473214
 31
0.0
  0
LINE
  5
7C1
330
73D
100
AcDbEntity
  8
CORTE
  6
Continuous
 62
     4
100
AcDbLine
 10
-265.2198974497463
 20
-42.44976268721403
 30
0.0
 11
-265.2198974497463
 21
-42.44902315161072
 31
0.0
  0
LINE
  5
7C2
330
73D
100
AcDbEntity
  8
Vista
 62
     4
100
AcDbLine
 10
-265.2223974497463
 20
-42.45028451792911
 30
0.0
 11
-265.2198974497463
 21
-42.44976268721403
 31
0.0
  0
LINE
  5
7C3
330
73D
100
AcDbEntity
  8
Vista
 62
     4
100
AcDbLine
 10
-265.2223974497463
 20
-42.45402840701818
 30
0.0
 11
-265.2213974497463
 21
-42.45381967473214
 31
0.0
  0
LINE
  5
7C4
330
73D
100
AcDbEntity
  8
CORTE
  6
Continuous
 62
     4
100
AcDbLine
 10
-265.2213974497463
 20
-42.45381967473214
 30
0.0
 11
-265.2213974497463
 21
-42.45007578564307
 31
0.0
  0
LINE
  5
7C5
330
73D
100
AcDbEntity
  8
CORTE
  6
Continuous
 62
     4
100
AcDbLine
 10
-265.2183974497464
 20
-42.45381967473214
 30
0.0
 11
-265.2183974497464
 21
-42.44867752553297
 31
0.0
  0
LINE
  5
7C6
330
73D
100
AcDbEntity
  8
CORTE
  6
Continuous
 62
     4
100
AcDbLine
 10
-265.2103974497463
 20
-42.45214981644385
 30
0.0
 11
-265.2103974497463
 21
-42.44704019489337
 31
0.0
  0
LINE
  5
7C7
330
73D
100
AcDbEntity
  8
Vista
 62
     4
100
AcDbLine
 10
-265.2063974497464
 20
-42.45136478851414
 30
0.0
 11
-265.1983974497463
 21
-42.44969493022584
 31
0.0
  0
LINE
  5
7C8
330
73D
100
AcDbEntity
  8
Vista
 62
     4
100
AcDbLine
 10
-265.2063974497464
 20
-42.45136478851414
 30
0.0
 11
-265.2093974497463
 21
-42.45136478851414
 31
0.0
  0
LINE
  5
7C9
330
73D
100
AcDbEntity
  8
CORTE
  6
Continuous
 62
     4
100
AcDbLine
 10
-265.2078974497463
 20
-42.44730780099603
 30
0.0
 11
-265.2078974497463
 21
-42.44653573774401
 31
0.0
  0
LINE
  5
7CA
330
73D
100
AcDbEntity
  8
Vista
 62
     4
100
AcDbLine
 10
-265.2103974497463
 20
-42.44782963171111
 30
0.0
 11
-265.2078974497463
 21
-42.44730780099603
 31
0.0
  0
LINE
  5
7CB
330
73D
100
AcDbEntity
  8
Vista
 62
     4
100
AcDbLine
 10
-265.2103974497463
 20
-42.45157352080018
 30
0.0
 11
-265.2093974497463
 21
-42.45136478851414
 31
0.0
  0
LINE
  5
7CC
330
73D
100
AcDbEntity
  8
CORTE
  6
Continuous
 62
     4
100
AcDbLine
 10
-265.2093974497463
 20
-42.45136478851414
 30
0.0
 11
-265.2093974497463
 21
-42.44762089942507
 31
0.0
  0
LINE
  5
7CD
330
73D
100
AcDbEntity
  8
CORTE
  6
Continuous
 62
     4
100
AcDbLine
 10
-265.2063974497464
 20
-42.45136478851414
 30
0.0
 11
-265.2063974497464
 21
-42.44622263931496
 31
0.0
  0
LINE
  5
7CE
330
73D
100
AcDbEntity
  8
CORTE
  6
Continuous
 62
     4
100
AcDbLine
 10
-265.1983974497463
 20
-42.44969493022584
 30
0.0
 11
-265.1983974497463
 21
-42.44455838133693
 31
0.0
  0
LINE
  5
7CF
330
73D
100
AcDbEntity
  8
Vista
 62
     4
100
AcDbLine
 10
-265.1943974497464
 20
-42.44883783223379
 30
0.0
 11
-265.1863974497463
 21
-42.44716797394549
 31
0.0
  0
LINE
  5
7D0
330
73D
100
AcDbEntity
  8
Vista
 62
     4
100
AcDbLine
 10
-265.1943974497464
 20
-42.44883783223379
 30
0.0
 11
-265.1973974497463
 21
-42.44883783223379
 31
0.0
  0
LINE
  5
7D1
330
73D
100
AcDbEntity
  8
CORTE
  6
Continuous
 62
     4
100
AcDbLine
 10
-265.1958974497463
 20
-42.44478084471568
 30
0.0
 11
-265.1958974497463
 21
-42.44400878146369
 31
0.0
  0
LINE
  5
7D2
330
73D
100
AcDbEntity
  8
Vista
 62
     4
100
AcDbLine
 10
-265.1983974497463
 20
-42.44530267543076
 30
0.0
 11
-265.1958974497463
 21
-42.44478084471568
 31
0.0
  0
LINE
  5
7D3
330
73D
100
AcDbEntity
  8
Vista
 62
     4
100
AcDbLine
 10
-265.1983974497463
 20
-42.44904656451983
 30
0.0
 11
-265.1973974497463
 21
-42.44883783223379
 31
0.0
  0
LINE
  5
7D4
330
73D
100
AcDbEntity
  8
CORTE
  6
Continuous
 62
     4
100
AcDbLine
 10
-265.1973974497463
 20
-42.44883783223379
 30
0.0
 11
-265.1973974497463
 21
-42.44509394314476
 31
0.0
  0
LINE
  5
7D5
330
73D
100
AcDbEntity
  8
CORTE
  6
Continuous
 62
     4
100
AcDbLine
 10
-265.1943974497464
 20
-42.44883783223379
 30
0.0
 11
-265.1943974497464
 21
-42.44369568303464
 31
0.0
  0
LINE
  5
7D6
330
73D
100
AcDbEntity
  8
CORTE
  6
Continuous
 62
     4
100
AcDbLine
 10
-265.1838974497463
 20
-42.44224352963455
 30
0.0
 11
-265.1838974497463
 21
-42.44150399403126
 31
0.0
  0
LINE
  5
7D7
330
73D
100
AcDbEntity
  8
CORTE
  6
Continuous
 62
     4
100
AcDbLine
 10
-265.1823974497464
 20
-42.44630051715266
 30
0.0
 11
-265.1823974497464
 21
-42.44115836795351
 31
0.0
  0
LINE
  5
7D8
330
73D
100
AcDbEntity
  8
Vista
 62
     4
100
AcDbLine
 10
-265.1823974497464
 20
-42.44630051715266
 30
0.0
 11
-265.1853974497464
 21
-42.44630051715266
 31
0.0
  0
LINE
  5
7D9
330
73D
100
AcDbEntity
  8
CORTE
  6
Continuous
 62
     4
100
AcDbLine
 10
-265.1853974497464
 20
-42.44630051715266
 30
0.0
 11
-265.1853974497464
 21
-42.44255662806362
 31
0.0
  0
LINE
  5
7DA
330
73D
100
AcDbEntity
  8
Vista
 62
     4
100
AcDbLine
 10
-265.1863974497463
 20
-42.4465092494387
 30
0.0
 11
-265.1853974497464
 21
-42.44630051715266
 31
0.0
  0
LINE
  5
7DB
330
73D
100
AcDbEntity
  8
Vista
 62
     4
100
AcDbLine
 10
-265.1863974497463
 20
-42.44276536034966
 30
0.0
 11
-265.1838974497463
 21
-42.44224352963455
 31
0.0
  0
LINE
  5
7DC
330
73D
100
AcDbEntity
  8
CORTE
  6
Continuous
 62
     4
100
AcDbLine
 10
-265.1863974497463
 20
-42.44716797394549
 30
0.0
 11
-265.1863974497463
 21
-42.44203142505658
 31
0.0
  0
LINE
  5
7DD
330
73D
100
AcDbEntity
  8
Vista
 62
     4
100
AcDbLine
 10
-265.1703974497463
 20
-42.44384563093466
 30
0.0
 11
-265.1623974497463
 21
-42.44217577264636
 31
0.0
  0
LINE
  5
7DE
330
73D
100
AcDbEntity
  8
Vista
 62
     4
100
AcDbLine
 10
-265.1823974497464
 20
-42.44630051715266
 30
0.0
 11
-265.1743974497463
 21
-42.44463065886439
 31
0.0
  0
LINE
  5
7DF
330
73D
100
AcDbEntity
  8
CORTE
  6
Continuous
 62
     4
100
AcDbLine
 10
-265.1743974497463
 20
-42.44463065886439
 30
0.0
 11
-265.1743974497463
 21
-42.43952103731389
 31
0.0
  0
LINE
  5
7E0
330
73D
100
AcDbEntity
  8
CORTE
  6
Continuous
 62
     4
100
AcDbLine
 10
-265.1733974497464
 20
-42.44384563093466
 30
0.0
 11
-265.1733974497464
 21
-42.44010174184562
 31
0.0
  0
LINE
  5
7E1
330
73D
100
AcDbEntity
  8
CORTE
  6
Continuous
 62
     4
100
AcDbLine
 10
-265.1703974497463
 20
-42.44384563093466
 30
0.0
 11
-265.1703974497463
 21
-42.43870348173551
 31
0.0
  0
LINE
  5
7E2
330
73D
100
AcDbEntity
  8
Vista
 62
     4
100
AcDbLine
 10
-265.1703974497463
 20
-42.44384563093466
 30
0.0
 11
-265.1733974497464
 21
-42.44384563093466
 31
0.0
  0
LINE
  5
7E3
330
73D
100
AcDbEntity
  8
Vista
 62
     4
100
AcDbLine
 10
-265.1743974497463
 20
-42.4440543632207
 30
0.0
 11
-265.1733974497464
 21
-42.44384563093466
 31
0.0
  0
LINE
  5
7E4
330
73D
100
AcDbEntity
  8
CORTE
  6
Continuous
 62
     4
100
AcDbLine
 10
-265.1718974497463
 20
-42.43978864341655
 30
0.0
 11
-265.1718974497463
 21
-42.43901658016456
 31
0.0
  0
LINE
  5
7E5
330
73D
100
AcDbEntity
  8
Vista
 62
     4
100
AcDbLine
 10
-265.1743974497463
 20
-42.44031047413163
 30
0.0
 11
-265.1718974497463
 21
-42.43978864341655
 31
0.0
  0
LINE
  5
7E6
330
73D
100
AcDbEntity
  8
CORTE
  6
Continuous
 62
     4
100
AcDbLine
 10
-265.1623974497463
 20
-42.44217577264636
 30
0.0
 11
-265.1623974497463
 21
-42.43703922375745
 31
0.0
  0
LINE
  5
7E7
330
73D
100
AcDbEntity
  8
Vista
 62
     4
100
AcDbLine
 10
-265.1583974497464
 20
-42.44133239831891
 30
0.0
 11
-265.1503974497463
 21
-42.43966254003062
 31
0.0
  0
LINE
  5
7E8
330
73D
100
AcDbEntity
  8
Vista
 62
     4
100
AcDbLine
 10
-265.1583974497464
 20
-42.44133239831891
 30
0.0
 11
-265.1613974497463
 21
-42.44133239831891
 31
0.0
  0
LINE
  5
7E9
330
73D
100
AcDbEntity
  8
CORTE
  6
Continuous
 62
     4
100
AcDbLine
 10
-265.1598974497463
 20
-42.4372754108008
 30
0.0
 11
-265.1598974497463
 21
-42.43650334754879
 31
0.0
  0
LINE
  5
7EA
330
73D
100
AcDbEntity
  8
Vista
 62
     4
100
AcDbLine
 10
-265.1623974497463
 20
-42.43779724151589
 30
0.0
 11
-265.1598974497463
 21
-42.4372754108008
 31
0.0
  0
LINE
  5
7EB
330
73D
100
AcDbEntity
  8
Vista
 62
     4
100
AcDbLine
 10
-265.1623974497463
 20
-42.44154113060496
 30
0.0
 11
-265.1613974497463
 21
-42.44133239831891
 31
0.0
  0
LINE
  5
7EC
330
73D
100
AcDbEntity
  8
CORTE
  6
Continuous
 62
     4
100
AcDbLine
 10
-265.1613974497463
 20
-42.44133239831891
 30
0.0
 11
-265.1613974497463
 21
-42.43758850922985
 31
0.0
  0
LINE
  5
7ED
330
73D
100
AcDbEntity
  8
CORTE
  6
Continuous
 62
     4
100
AcDbLine
 10
-265.1583974497464
 20
-42.44133239831891
 30
0.0
 11
-265.1583974497464
 21
-42.43619024911974
 31
0.0
  0
LINE
  5
7EE
330
73D
100
AcDbEntity
  8
CORTE
  6
Continuous
 62
     4
100
AcDbLine
 10
-265.1478974497463
 20
-42.43473809571968
 30
0.0
 11
-265.1478974497463
 21
-42.43399856011636
 31
0.0
  0
LINE
  5
7EF
330
73D
100
AcDbEntity
  8
CORTE
  6
Continuous
 62
     4
100
AcDbLine
 10
-265.1463974497464
 20
-42.43879508323779
 30
0.0
 11
-265.1463974497464
 21
-42.43365293403861
 31
0.0
  0
LINE
  5
7F0
330
73D
100
AcDbEntity
  8
Vista
 62
     4
100
AcDbLine
 10
-265.1463974497464
 20
-42.43879508323779
 30
0.0
 11
-265.1493974497463
 21
-42.43879508323779
 31
0.0
  0
LINE
  5
7F1
330
73D
100
AcDbEntity
  8
CORTE
  6
Continuous
 62
     4
100
AcDbLine
 10
-265.1493974497463
 20
-42.43879508323779
 30
0.0
 11
-265.1493974497463
 21
-42.43505119414872
 31
0.0
  0
LINE
  5
7F2
330
73D
100
AcDbEntity
  8
Vista
 62
     4
100
AcDbLine
 10
-265.1503974497463
 20
-42.43900381552383
 30
0.0
 11
-265.1493974497463
 21
-42.43879508323779
 31
0.0
  0
LINE
  5
7F3
330
73D
100
AcDbEntity
  8
Vista
 62
     4
100
AcDbLine
 10
-265.1503974497463
 20
-42.43525992643476
 30
0.0
 11
-265.1478974497463
 21
-42.43473809571968
 31
0.0
  0
LINE
  5
7F4
330
73D
100
AcDbEntity
  8
CORTE
  6
Continuous
 62
     4
100
AcDbLine
 10
-265.1503974497463
 20
-42.43966254003062
 30
0.0
 11
-265.1503974497463
 21
-42.43452599114171
 31
0.0
  0
LINE
  5
7F5
330
73D
100
AcDbEntity
  8
Vista
 62
     4
100
AcDbLine
 10
-265.1463974497464
 20
-42.43879508323779
 30
0.0
 11
-265.1383974497463
 21
-42.43712522494949
 31
0.0
  0
LINE
  5
7F6
330
73D
100
AcDbEntity
  8
CORTE
  6
Continuous
 62
     4
100
AcDbLine
 10
-265.1383974497463
 20
-42.43712522494949
 30
0.0
 11
-265.1383974497463
 21
-42.43201560339902
 31
0.0
  0
LINE
  5
7F7
330
73D
100
AcDbEntity
  8
CORTE
  6
Continuous
 62
     4
100
AcDbLine
 10
-265.1373974497464
 20
-42.43634019701978
 30
0.0
 11
-265.1373974497464
 21
-42.43259630793072
 31
0.0
  0
LINE
  5
7F8
330
73D
100
AcDbEntity
  8
CORTE
  6
Continuous
 62
     4
100
AcDbLine
 10
-265.1343974497464
 20
-42.43634019701978
 30
0.0
 11
-265.1343974497464
 21
-42.43119804782061
 31
0.0
  0
LINE
  5
7F9
330
73D
100
AcDbEntity
  8
Vista
 62
     4
100
AcDbLine
 10
-265.1383974497463
 20
-42.43654892930583
 30
0.0
 11
-265.1373974497464
 21
-42.43634019701978
 31
0.0
  0
LINE
  5
7FA
330
73D
100
AcDbEntity
  8
CORTE
  6
Continuous
 62
     4
100
AcDbLine
 10
-265.1358974497463
 20
-42.43228320950167
 30
0.0
 11
-265.1358974497463
 21
-42.43151114624966
 31
0.0
  0
LINE
  5
7FB
330
73D
100
AcDbEntity
  8
Vista
 62
     4
100
AcDbLine
 10
-265.1383974497463
 20
-42.43280504021676
 30
0.0
 11
-265.1358974497463
 21
-42.43228320950167
 31
0.0
  0
LINE
  5
7FC
330
73D
100
AcDbEntity
  8
Vista
 62
     4
100
AcDbLine
 10
-265.1353528293179
 20
-42.43634019701978
 30
0.0
 11
-265.1373974497464
 21
-42.43634019701978
 31
0.0
  0
LWPOLYLINE
  5
7FD
330
73D
100
AcDbEntity
  8
Vista
  6
Continuous
 62
     3
100
AcDbPolyline
 90
       21
 70
     0
 43
0.0
 10
-265.1383166796941
 20
-42.44488631174739
 42
0.384929168564455
 10
-265.1378192281659
 20
-42.4444367297706
 42
-0.2416670294637282
 10
-265.1356038227205
 20
-42.44101999835858
 42
0.2685636005234456
 10
-265.1353528293179
 20
-42.44058641363274
 10
-265.1353528293179
 20
-42.43634019701978
 10
-265.1343974497464
 20
-42.43634019701978
 10
-265.1318419531143
 20
-42.43580678236582
 10
-265.1318419531143
 20
-42.43064312650061
 10
-265.1161247926731
 20
-42.42736244767171
 42
0.3514578094911731
 10
-265.1153419531143
 20
-42.42638631174741
 10
-265.1153419531143
 20
-42.42287691224864
 42
-0.3189892314182308
 10
-265.1121434289239
 20
-42.41946666761764
 42
0.3568183404962087
 10
-265.1113419531143
 20
-42.41848657162957
 10
-265.1113419531143
 20
-42.41652292015008
 10
-265.1100037407593
 20
-42.41624359202602
 42
0.3051840064494136
 10
-265.1050919531143
 20
-42.4111363117474
 42
-0.2900042141350497
 10
-265.1005238724924
 20
-42.40611328262953
 10
-265.0995390095354
 20
-42.40590770993311
 42
0.3266838343405565
 10
-265.0988419531143
 20
-42.40495470143993
 10
-265.0988419531143
 20
-42.4023863117474
 10
-265.1113419531143
 20
-42.4023863117474
  0
LINE
  5
7FE
330
73D
100
AcDbEntity
  8
Vista
 62
     6
100
AcDbLine
 10
-265.0999942150913
 20
-42.55723976658283
 30
0.0
 11
-265.0999942150913
 21
-42.51473976658282
 31
0.0
  0
LINE
  5
7FF
330
73D
100
AcDbEntity
  8
Vista
 62
     6
100
AcDbLine
 10
-265.2079942150913
 20
-42.55723976658283
 30
0.0
 11
-265.2079942150913
 21
-42.51473976658282
 31
0.0
  0
LINE
  5
800
330
73D
100
AcDbEntity
  8
Vista
 62
     2
100
AcDbLine
 10
-265.2079942150914
 20
-42.51796536909266
 30
0.0
 11
-265.0999942150913
 21
-42.51796536909266
 31
0.0
  0
LINE
  5
801
330
73D
100
AcDbEntity
  8
Vista
 62
     3
100
AcDbLine
 10
-265.2079942150913
 20
-42.51473976658279
 30
0.0
 11
-265.0999942150913
 21
-42.51473976658284
 31
0.0
  0
LINE
  5
802
330
73D
100
AcDbEntity
  8
Vista
 62
     2
100
AcDbLine
 10
-265.2079942150913
 20
-42.52873976658283
 30
0.0
 11
-265.0999942150913
 21
-42.52873976658283
 31
0.0
  0
LINE
  5
803
330
73D
100
AcDbEntity
  8
Vista
 62
     2
100
AcDbLine
 10
-265.2079942150914
 20
-42.53147306509318
 30
0.0
 11
-265.0999942150913
 21
-42.53147306509318
 31
0.0
  0
LINE
  5
804
330
73D
100
AcDbEntity
  8
Vista
 62
     2
100
AcDbLine
 10
-265.2079942150913
 20
-42.53973976658282
 30
0.0
 11
-265.0999942150913
 21
-42.53973976658282
 31
0.0
  0
LINE
  5
805
330
73D
100
AcDbEntity
  8
Vista
 62
     2
100
AcDbLine
 10
-265.2079942150913
 20
-42.55319036467706
 30
0.0
 11
-265.0999942150913
 21
-42.55319036467709
 31
0.0
  0
LINE
  5
806
330
73D
100
AcDbEntity
  8
Vista
 62
     3
100
AcDbLine
 10
-265.2079942150913
 20
-42.55723976658283
 30
0.0
 11
-265.0999942150913
 21
-42.55723976658283
 31
0.0
  0
ENDBLK
  5
808
330
73D
100
AcDbEntity
  8
0
 62
     3
100
AcDbBlockEnd
  0
BLOCK
  5
B6F
330
B69
100
AcDbEntity
  8
0
 62
     3
100
AcDbBlockBegin
  2
A$C263D6B6A
 70
     0
 10
0.0
 20
0.0
 30
0.0
  3
A$C263D6B6A
  1

  0
HATCH
  5
B6A
330
B69
100
AcDbEntity
  8
Sezione
100
AcDbHatch
 10
0.0
 20
0.0
 30
0.0
210
0.0
220
0.0
230
1.0
  2
ANSI31
 70
     0
 71
     0
 91
        1
 92
        7
 72
     0
 73
     1
 93
        6
 10
0.0922667539244952
 20
0.0862807646728965
 10
-0.0000000665657739
 20
0.0862807646728965
 10
-0.0000000665657739
 20
0.0003091066906239
 10
0.0191316019951639
 20
0.0003091066906239
 10
0.0191316019951639
 20
0.0668219886661159
 10
0.0922667539244952
 20
0.0668219886661158
 97
        0
 75
     0
 76
     1
 52
0.0
 41
0.002
 77
     0
 78
     1
 53
45.0
 43
-0.0858288002254417
 44
-0.1359207187670848
 45
-0.0044901280605346
 46
0.0044901280605346
 79
     0
 47
0.0003507291251325
 98
        1
 10
0.0287510465309501
 20
0.0740124973428604
1001
ACAD
1010
0.0
1020
0.0
1030
0.0
  0
LINE
  5
B6B
330
B69
100
AcDbEntity
  8
Sezione
100
AcDbLine
 10
0.0191316019951639
 20
0.0000000122728271
 30
0.0
 11
0.0191316019951639
 21
0.0668219886661159
 31
0.0
  0
LINE
  5
B6C
330
B69
100
AcDbEntity
  8
Sezione
100
AcDbLine
 10
0.0191316019951639
 20
0.0668219886661159
 30
0.0
 11
0.0923266054750259
 21
0.0668219886661159
 31
0.0
  0
ENDBLK
  5
B70
330
B69
100
AcDbEntity
  8
0
 62
     3
100
AcDbBlockEnd
  0
BLOCK
  5
BFC
330
BFB
100
AcDbEntity
  8
0
100
AcDbBlockBegin
  2
*X19
 70
     1
 10
0.0
 20
0.0
 30
0.0
  3
*X19
  1

  0
LINE
  5
BFD
330
BFB
100
AcDbEntity
  8
0
 62
     0
100
AcDbLine
 10
486.460053877036
 20
124.0678285189305
 30
0.0
 11
503.5693156116774
 21
141.1770902535719
 31
0.0
  0
LINE
  5
BFE
330
BFB
100
AcDbEntity
  8
0
 62
     0
100
AcDbLine
 10
615.6341149734076
 20
253.2418896153022
 30
0.0
 11
629.3545087289434
 21
266.9622833708378
 31
0.0
  0
LINE
  5
BFF
330
BFB
100
AcDbEntity
  8
0
 62
     0
100
AcDbLine
 10
486.460053877036
 20
132.9066632837623
 30
0.0
 11
503.5693156116774
 21
150.0159250184037
 31
0.0
  0
LINE
  5
C00
330
BFB
100
AcDbEntity
  8
0
 62
     0
100
AcDbLine
 10
606.7952802085758
 20
253.2418896153022
 30
0.0
 11
620.5156739641116
 21
266.9622833708378
 31
0.0
  0
LINE
  5
C01
330
BFB
100
AcDbEntity
  8
0
 62
     0
100
AcDbLine
 10
486.460053877036
 20
141.7454980485942
 30
0.0
 11
503.5693156116774
 21
158.8547597832356
 31
0.0
  0
LINE
  5
C02
330
BFB
100
AcDbEntity
  8
0
 62
     0
100
AcDbLine
 10
597.9564454437441
 20
253.2418896153022
 30
0.0
 11
611.6768391992796
 21
266.9622833708378
 31
0.0
  0
LINE
  5
C03
330
BFB
100
AcDbEntity
  8
0
 62
     0
100
AcDbLine
 10
486.460053877036
 20
150.584332813426
 30
0.0
 11
503.5693156116774
 21
167.6935945480674
 31
0.0
  0
LINE
  5
C04
330
BFB
100
AcDbEntity
  8
0
 62
     0
100
AcDbLine
 10
589.1176106789122
 20
253.2418896153022
 30
0.0
 11
602.8380044344478
 21
266.9622833708378
 31
0.0
  0
LINE
  5
C05
330
BFB
100
AcDbEntity
  8
0
 62
     0
100
AcDbLine
 10
486.460053877036
 20
159.4231675782578
 30
0.0
 11
503.5693156116774
 21
176.5324293128992
 31
0.0
  0
LINE
  5
C06
330
BFB
100
AcDbEntity
  8
0
 62
     0
100
AcDbLine
 10
580.2787759140803
 20
253.2418896153022
 30
0.0
 11
593.999169669616
 21
266.9622833708378
 31
0.0
  0
LINE
  5
C07
330
BFB
100
AcDbEntity
  8
0
 62
     0
100
AcDbLine
 10
486.460053877036
 20
168.2620023430897
 30
0.0
 11
503.5693156116774
 21
185.3712640777311
 31
0.0
  0
LINE
  5
C08
330
BFB
100
AcDbEntity
  8
0
 62
     0
100
AcDbLine
 10
571.4399411492485
 20
253.2418896153022
 30
0.0
 11
585.1603349047841
 21
266.9622833708378
 31
0.0
  0
LINE
  5
C09
330
BFB
100
AcDbEntity
  8
0
 62
     0
100
AcDbLine
 10
486.460053877036
 20
177.1008371079215
 30
0.0
 11
503.5693156116773
 21
194.2100988425629
 31
0.0
  0
LINE
  5
C0A
330
BFB
100
AcDbEntity
  8
0
 62
     0
100
AcDbLine
 10
562.6011063844166
 20
253.2418896153022
 30
0.0
 11
576.3215001399522
 21
266.9622833708378
 31
0.0
  0
LINE
  5
C0B
330
BFB
100
AcDbEntity
  8
0
 62
     0
100
AcDbLine
 10
486.460053877036
 20
185.9396718727533
 30
0.0
 11
503.5693156116773
 21
203.0489336073947
 31
0.0
  0
LINE
  5
C0C
330
BFB
100
AcDbEntity
  8
0
 62
     0
100
AcDbLine
 10
553.7622716195848
 20
253.2418896153022
 30
0.0
 11
567.4826653751203
 21
266.9622833708378
 31
0.0
  0
LINE
  5
C0D
330
BFB
100
AcDbEntity
  8
0
 62
     0
100
AcDbLine
 10
486.4600538770359
 20
194.7785066375852
 30
0.0
 11
503.5693156116773
 21
211.8877683722266
 31
0.0
  0
LINE
  5
C0E
330
BFB
100
AcDbEntity
  8
0
 62
     0
100
AcDbLine
 10
544.9234368547529
 20
253.2418896153022
 30
0.0
 11
558.6438306102885
 21
266.9622833708378
 31
0.0
  0
LINE
  5
C0F
330
BFB
100
AcDbEntity
  8
0
 62
     0
100
AcDbLine
 10
486.4600538770359
 20
203.617341402417
 30
0.0
 11
503.5693156116773
 21
220.7266031370584
 31
0.0
  0
LINE
  5
C10
330
BFB
100
AcDbEntity
  8
0
 62
     0
100
AcDbLine
 10
536.084602089921
 20
253.2418896153022
 30
0.0
 11
549.8049958454567
 21
266.9622833708378
 31
0.0
  0
LINE
  5
C11
330
BFB
100
AcDbEntity
  8
0
 62
     0
100
AcDbLine
 10
486.4600538770359
 20
212.4561761672488
 30
0.0
 11
503.5693156116773
 21
229.5654379018902
 31
0.0
  0
LINE
  5
C12
330
BFB
100
AcDbEntity
  8
0
 62
     0
100
AcDbLine
 10
527.2457673250892
 20
253.2418896153022
 30
0.0
 11
540.9661610806248
 21
266.9622833708378
 31
0.0
  0
LINE
  5
C13
330
BFB
100
AcDbEntity
  8
0
 62
     0
100
AcDbLine
 10
486.4600538770359
 20
221.2950109320807
 30
0.0
 11
503.5693156116773
 21
238.4042726667221
 31
0.0
  0
LINE
  5
C14
330
BFB
100
AcDbEntity
  8
0
 62
     0
100
AcDbLine
 10
518.4069325602573
 20
253.2418896153022
 30
0.0
 11
532.1273263157929
 21
266.9622833708378
 31
0.0
  0
LINE
  5
C15
330
BFB
100
AcDbEntity
  8
0
 62
     0
100
AcDbLine
 10
486.4600538770359
 20
230.1338456969125
 30
0.0
 11
503.5693156116773
 21
247.2431074315539
 31
0.0
  0
LINE
  5
C16
330
BFB
100
AcDbEntity
  8
0
 62
     0
100
AcDbLine
 10
509.5680977954256
 20
253.2418896153021
 30
0.0
 11
523.2884915509611
 21
266.9622833708377
 31
0.0
  0
LINE
  5
C17
330
BFB
100
AcDbEntity
  8
0
 62
     0
100
AcDbLine
 10
486.4600538770359
 20
238.9726804617443
 30
0.0
 11
514.4496567861292
 21
266.9622833708377
 31
0.0
  0
LINE
  5
C18
330
BFB
100
AcDbEntity
  8
0
 62
     0
100
AcDbLine
 10
486.4600538770359
 20
247.8115152265762
 30
0.0
 11
505.6108220212975
 21
266.9622833708377
 31
0.0
  0
LINE
  5
C19
330
BFB
100
AcDbEntity
  8
0
 62
     0
100
AcDbLine
 10
486.4600538770359
 20
256.6503499914079
 30
0.0
 11
496.7719872564656
 21
266.9622833708377
 31
0.0
  0
LINE
  5
C1A
330
BFB
100
AcDbEntity
  8
0
 62
     0
100
AcDbLine
 10
486.4600538770358
 20
265.4891847562398
 30
0.0
 11
487.9331524916337
 21
266.9622833708377
 31
0.0
  0
LINE
  5
C1B
330
BFB
100
AcDbEntity
  8
0
 62
     0
100
AcDbLine
 10
494.0552738068973
 20
122.8242136839599
 30
0.0
 11
503.5693156116774
 21
132.3382554887401
 31
0.0
  0
LINE
  5
C1C
330
BFB
100
AcDbEntity
  8
0
 62
     0
100
AcDbLine
 10
624.4729497382395
 20
253.2418896153022
 30
0.0
 11
629.496054025455
 21
258.2649939025177
 31
0.0
  0
LINE
  5
C1D
330
BFB
100
AcDbEntity
  8
0
 62
     0
100
AcDbLine
 10
502.8941085717291
 20
122.8242136839599
 30
0.0
 11
503.5693156116775
 21
123.4994207239083
 31
0.0
  0
ENDBLK
  5
C1E
330
BFB
100
AcDbEntity
  8
0
100
AcDbBlockEnd
  0
BLOCK
  5
C24
330
C1F
100
AcDbEntity
  8
0
100
AcDbBlockBegin
  2
A$C6C65579B
 70
     0
 10
0.0
 20
0.0
 30
0.0
  3
A$C6C65579B
  1

  0
LINE
  5
C20
330
C1F
100
AcDbEntity
  8
CORTE
  6
RAYITAX4
 62
     4
100
AcDbLine
 10
-265.2537935691752
 20
-42.42682209115611
 30
0.0
 11
-265.2537935691752
 21
-42.55723976708748
 31
0.0
  0
LINE
  5
C21
330
C1F
100
AcDbEntity
  8
CORTE
  6
RAYITAX4
 62
     4
100
AcDbLine
 10
-265.2537935691752
 20
-42.42682209115611
 30
0.0
 11
-265.1278668307615
 21
-42.42682209115611
 31
0.0
  0
INSERT
  5
C22
330
C1F
100
AcDbEntity
  8
TRAMA
100
AcDbBlockReference
  2
*X19
 10
-265.7573628847869
 20
-42.68006398077142
 30
0.0
 41
0.0009999999999764
 42
0.0010000000000048
 43
0.001
1001
ACAD
1000
HATCH
1002
{
1070
    16
1000
ANSI31
1040
50.0
1040
0.0
1002
}
  0
LWPOLYLINE
  5
C23
330
C1F
100
AcDbEntity
  8
CORTE
  6
Continuous
 62
     1
100
AcDbPolyline
 90
       27
 70
     0
 43
0.0
 10
-265.2434935691752
 20
-42.52048009449487
 42
-0.1309515943895288
 10
-265.2396188804983
 20
-42.50227169263183
 42
-0.0391865213385924
 10
-265.2318861974755
 20
-42.48961463308666
 42
0.148047983309989
 10
-265.2273603786659
 20
-42.46536751056521
 42
-0.477131438324366
 10
-265.226266012113
 20
-42.46426334617865
 42
0.3174254686240992
 10
-265.2222487718652
 20
-42.46199398787246
 10
-265.2204935691752
 20
-42.45828353660647
 42
0.3390955557305459
 10
-265.2133594019252
 20
-42.45748275993213
 42
0.1067380655143518
 10
-265.2064935691752
 20
-42.44728353660645
 10
-265.2014935691752
 20
-42.44428353660646
 42
0.6316956553984646
 10
-265.1944935691752
 20
-42.44228353660645
 42
-0.4142135623730849
 10
-265.1884935691752
 20
-42.43628353660648
 10
-265.1804935691752
 20
-42.43628353660648
 42
0.4142135623730847
 10
-265.1784935691752
 20
-42.43428353660647
 10
-265.1784935691752
 20
-42.42728353660647
 10
-265.1984935691753
 20
-42.42728353660647
 10
-265.2184935691752
 20
-42.43928353660646
 10
-265.2222940706685
 20
-42.43961583728498
 42
0.2192482621402799
 10
-265.2266538493824
 20
-42.4421056036295
 10
-265.2379730166141
 20
-42.45795243775387
 42
0.1840335527349514
 10
-265.239055826335
 20
-42.46208505147598
 10
-265.2384935691752
 20
-42.46728353660649
 10
-265.2534935691752
 20
-42.5122835366065
 10
-265.2534935691752
 20
-42.53228353660648
 10
-265.2454935691752
 20
-42.53228353660648
 42
0.4142135623730847
 10
-265.2434935691752
 20
-42.53028353660647
 10
-265.2434935691752
 20
-42.51681234902133
  0
ENDBLK
  5
C25
330
C1F
100
AcDbEntity
  8
0
100
AcDbBlockEnd
  0
BLOCK
  5
FEC
330
FEB
100
AcDbEntity
  8
0
100
AcDbBlockBegin
  2
Z4
 70
     0
 10
0.0
 20
0.0
 30
0.0
  3
Z4
  1

  0
LINE
  5
10C1
330
FEB
100
AcDbEntity
  8
Vista
100
AcDbLine
 10
-0.0000013798916711
 20
0.0115999999867427
 30
0.0
 11
0.0210150918188106
 21
0.011600211399184
 31
0.0
1001
AcDbBlockRepETag
1070
     1
1071
        0
1005
10C1
  0
LINE
  5
10C2
330
FEB
100
AcDbEntity
  8
Vista
100
AcDbLine
 10
-0.0000012632029893
 20
-0.0000000000126761
 30
0.0
 11
0.0210152085074924
 21
0.0000002113997652
 31
0.0
1001
AcDbBlockRepETag
1070
     1
1071
        1
1005
10C2
  0
ARC
  5
10C3
330
FEB
100
AcDbEntity
  8
Vista
100
AcDbCircle
 10
0.0128448849221172
 20
0.0132154841897716
 30
0.0
 40
0.0140847949245492
100
AcDbArc
 50
210.8168847834205
 51
229.3422399532511
1001
AcDbBlockRepETag
1070
     1
1071
        2
1005
10C3
  0
ARC
  5
10C4
330
FEB
100
AcDbEntity
  8
Vista
100
AcDbCircle
 10
0.0104987367970466
 20
0.0104837643425242
 30
0.0
 40
0.0094838638854241
100
AcDbArc
 50
173.2406441673128
 51
270.0000000001934
1001
AcDbBlockRepETag
1070
     1
1071
        3
1005
10C4
  0
ARC
  5
10C5
330
FEB
100
AcDbEntity
  8
Vista
100
AcDbCircle
 10
0.0110245753859886
 20
0.0096688012202151
 30
0.0
 40
0.008684834291003
100
AcDbArc
 50
167.1518779515916
 51
266.5288030567311
1001
AcDbBlockRepETag
1070
     1
1071
        4
1005
10C5
  0
LINE
  5
10C6
330
FEB
100
AcDbEntity
  8
Vista
100
AcDbLine
 10
0.0021417852681793
 20
0.0059999004570841
 30
0.0
 11
0.0035422438405703
 21
0.0052595993301168
 31
0.0
1001
AcDbBlockRepETag
1070
     1
1071
        5
1005
10C6
  0
LWPOLYLINE
  5
10C7
330
FEB
100
AcDbEntity
  8
Vista
100
AcDbPolyline
 90
        6
 70
     0
 43
0.0
 10
-0.0000012632029893
 20
-0.0000000000126477
 42
0.1674163687838473
 10
0.0003641139388151
 20
0.0001254370196193
 42
-0.1204418495943024
 10
0.0035585668839531
 20
0.002205555161737
 42
1.087992653208241
 10
0.0035360325489933
 20
0.00256297800928
 42
0.0381093343277957
 10
0.000498736796942
 20
0.0022098778801194
 10
0.0011181350445213
 20
0.0116000112483619
1001
AcDbBlockRepETag
1070
     1
1071
        6
1005
10C7
  0
LINE
  5
10C8
330
FEB
100
AcDbEntity
  8
Vista
100
AcDbLine
 10
0.0007487367969929
 20
0.0022568144178194
 30
0.0
 11
0.0007487367969929
 21
0.0059999004570841
 31
0.0
1001
AcDbBlockRepETag
1070
     1
1071
        7
1005
10C8
  0
ARC
  5
10C9
330
FEB
100
AcDbEntity
  8
Vista
100
AcDbCircle
 10
0.0099728982081047
 20
0.0096688012202151
 30
0.0
 40
0.008684834291003
100
AcDbArc
 50
273.4711969436545
 51
12.84920570272593
1001
AcDbBlockRepETag
1070
     1
1071
        8
1005
10C9
  0
ARC
  5
10CA
330
FEB
100
AcDbEntity
  8
Vista
100
AcDbCircle
 10
0.0104987367970466
 20
0.0104837643425242
 30
0.0
 40
0.0094838638854241
100
AcDbArc
 50
270.0000000001923
 51
6.760508551422351
1001
AcDbBlockRepETag
1070
     1
1071
        9
1005
10CA
  0
ARC
  5
10CB
330
FEB
100
AcDbEntity
  8
Vista
100
AcDbCircle
 10
0.0104987367970466
 20
0.0104837643425242
 30
0.0
 40
0.0104838638854241
100
AcDbArc
 50
270.0000000001923
 51
310.6577600471345
1001
AcDbBlockRepETag
1070
     1
1071
       10
1005
10CB
  0
ARC
  5
10CC
330
FEB
100
AcDbEntity
  8
Vista
100
AcDbCircle
 10
0.0104987367970466
 20
0.0104837643425242
 30
0.0
 40
0.0104838638854241
100
AcDbArc
 50
229.3422399532511
 51
270.0000000001934
1001
AcDbBlockRepETag
1070
     1
1071
       11
1005
10CC
  0
LINE
  5
10CD
330
FEB
100
AcDbEntity
  8
Vista
100
AcDbLine
 10
0.0202487367969866
 20
0.0059999004571409
 30
0.0
 11
0.0204987367969807
 21
0.0022098778801762
 31
0.0
1001
AcDbBlockRepETag
1070
     1
1071
       12
1005
10CD
  0
LINE
  5
10CE
330
FEB
100
AcDbEntity
  8
Vista
100
AcDbLine
 10
0.0202487367969866
 20
0.0022568144178763
 30
0.0
 11
0.0202487367969866
 21
0.0116002036901364
 31
0.0
1001
AcDbBlockRepETag
1070
     1
1071
       13
1005
10CE
  0
ARC
  5
10CF
330
FEB
100
AcDbEntity
  8
Vista
100
AcDbCircle
 10
0.008152588671976
 20
0.0132154841897716
 30
0.0
 40
0.0140847949245492
100
AcDbArc
 50
310.6577600471345
 51
329.1831152169651
1001
AcDbBlockRepETag
1070
     1
1071
       14
1005
10CF
  0
ARC
  5
10D0
330
FEB
100
AcDbEntity
  8
Vista
100
AcDbCircle
 10
0.017435084485669
 20
0.0023852179221251
 30
0.0
 40
0.0001797034135256
100
AcDbArc
 50
81.56617699754743
 51
271.2187516830706
1001
AcDbBlockRepETag
1070
     1
1071
       15
1005
10D0
  0
ARC
  5
10D1
330
FEB
100
AcDbEntity
  8
Vista
100
AcDbCircle
 10
0.0147810850871792
 20
-0.0053690130053781
 30
0.0
 40
0.0080273344703467
100
AcDbArc
 50
43.23100722392323
 51
70.66466339396645
1001
AcDbBlockRepETag
1070
     1
1071
       16
1005
10D1
  0
ARC
  5
10D2
330
FEB
100
AcDbEntity
  8
Vista
100
AcDbCircle
 10
0.0166670905408637
 20
-0.0175095153721543
 30
0.0
 40
0.0200882050784421
100
AcDbArc
 50
79.00396312718872
 51
87.73375467656311
1001
AcDbBlockRepETag
1070
     1
1071
       17
1005
10D2
  0
ARC
  5
10D3
330
FEB
100
AcDbEntity
  8
Vista
100
AcDbCircle
 10
0.0209993624462754
 20
0.0005930374113916
 30
0.0
 40
0.0005930377539629
100
AcDbArc
 50
231.4503103357746
 51
271.531134397806
1001
AcDbBlockRepETag
1070
     1
1071
       18
1005
10D3
  0
LINE
  5
10D4
330
FEB
100
AcDbEntity
  8
Vista
100
AcDbLine
 10
0.0188556883257434
 20
0.0059999004571409
 30
0.0
 11
0.0174552297534092
 21
0.0052595993301736
 31
0.0
1001
AcDbBlockRepETag
1070
     1
1071
       19
1005
10D4
  0
ENDBLK
  5
1001
330
FEB
100
AcDbEntity
  8
0
100
AcDbBlockEnd
  0
BLOCK
  5
11B3
330
11A8
100
AcDbEntity
  8
0
100
AcDbBlockBegin
  2
*D26
 70
     1
 10
0.0
 20
0.0
 30
0.0
  3
*D26
  1

  0
LINE
  5
11B6
330
11A8
100
AcDbEntity
  8
Dimensione
 62
     5
370
    -2
100
AcDbLine
 10
0.071573763029993
 20
0.134530734588391
 30
0.0
 11
0.071573763029993
 21
0.1152849900088985
 31
0.0
  0
LINE
  5
11B7
330
11A8
100
AcDbEntity
  8
Dimensione
 62
     5
370
    -2
100
AcDbLine
 10
0.1315737630299952
 20
0.195098136068647
 30
0.0
 11
0.1315737630299952
 21
0.1152849900088985
 31
0.0
  0
LINE
  5
11B8
330
11A8
100
AcDbEntity
  8
Dimensione
 62
     5
370
    -2
100
AcDbLine
 10
0.071573763029993
 20
0.1154649900088985
 30
0.0
 11
0.0910737630299941
 21
0.1154649900088985
 31
0.0
  0
LINE
  5
11B9
330
11A8
100
AcDbEntity
  8
Dimensione
 62
     5
370
    -2
100
AcDbLine
 10
0.1315737630299952
 20
0.1154649900088985
 30
0.0
 11
0.1120737630299941
 21
0.1154649900088985
 31
0.0
  0
INSERT
  5
11BA
330
11A8
100
AcDbEntity
  8
Dimensione
 62
     5
370
    -2
100
AcDbBlockReference
  2
_ArchTick
 10
0.071573763029993
 20
0.1154649900088985
 30
0.0
 41
0.0015
 42
0.0015
 43
0.0015
 50
180.0
  0
INSERT
  5
11BB
330
11A8
100
AcDbEntity
  8
Dimensione
 62
     5
370
    -2
100
AcDbBlockReference
  2
_ArchTick
 10
0.1315737630299952
 20
0.1154649900088985
 30
0.0
 41
0.0015
 42
0.0015
 43
0.0015
  0
MTEXT
  5
11BC
330
11A8
100
AcDbEntity
  8
Dimensione
 62
     4
100
AcDbMText
 10
0.1015737630299941
 20
0.1154649900088985
 30
0.0
 40
0.003
 41
0.0
 71
     5
 72
     1
  1
\A1;127 MM
  7
ROMANS
 73
     1
 44
1.0
1001
ACAD
1000
MTEXTBEGIN
1070
    73
1070
     1
1070
    44
1040
1.0
1070
    74
1070
     0
1000
MTEXTEND
  0
POINT
  5
11BD
330
11A8
100
AcDbEntity
  8
Defpoints
 62
     0
100
AcDbPoint
 10
0.071573763029993
 20
0.134593234588391
 30
0.0
  0
POINT
  5
11BE
330
11A8
100
AcDbEntity
  8
Defpoints
 62
     0
100
AcDbPoint
 10
0.1315737630299952
 20
0.195160636068647
 30
0.0
  0
POINT
  5
11BF
330
11A8
100
AcDbEntity
  8
Defpoints
 62
     0
100
AcDbPoint
 10
0.1315737630299952
 20
0.1154649900088985
 30
0.0
  0
ENDBLK
  5
11B4
330
11A8
100
AcDbEntity
  8
0
100
AcDbBlockEnd
  0
BLOCK
  5
11E7
330
11DC
100
AcDbEntity
  8
0
100
AcDbBlockBegin
  2
*D28
 70
     1
 10
0.0
 20
0.0
 30
0.0
  3
*D28
  1

  0
LINE
  5
11EA
330
11DC
100
AcDbEntity
  8
Dimensione
 62
     5
370
    -2
100
AcDbLine
 10
0.0746362630300215
 20
0.134593234588391
 30
0.0
 11
0.1549635286661264
 21
0.134593234588391
 31
0.0
  0
LINE
  5
11EB
330
11DC
100
AcDbEntity
  8
Dimensione
 62
     5
370
    -2
100
AcDbLine
 10
0.1316362630299952
 20
0.197093234588391
 30
0.0
 11
0.1549635286661264
 21
0.197093234588391
 31
0.0
  0
LINE
  5
11EC
330
11DC
100
AcDbEntity
  8
Dimensione
 62
     5
370
    -2
100
AcDbLine
 10
0.1547835286661264
 20
0.134593234588391
 30
0.0
 11
0.1547835286661264
 21
0.162343234588391
 31
0.0
  0
LINE
  5
11ED
330
11DC
100
AcDbEntity
  8
Dimensione
 62
     5
370
    -2
100
AcDbLine
 10
0.1547835286661265
 20
0.197093234588391
 30
0.0
 11
0.1547835286661264
 21
0.169343234588391
 31
0.0
  0
INSERT
  5
11EE
330
11DC
100
AcDbEntity
  8
Dimensione
 62
     5
370
    -2
100
AcDbBlockReference
  2
_ArchTick
 10
0.1547835286661264
 20
0.134593234588391
 30
0.0
 41
0.0015
 42
0.0015
 43
0.0015
 50
270.0
  0
INSERT
  5
11EF
330
11DC
100
AcDbEntity
  8
Dimensione
 62
     5
370
    -2
100
AcDbBlockReference
  2
_ArchTick
 10
0.1547835286661265
 20
0.197093234588391
 30
0.0
 41
0.0015
 42
0.0015
 43
0.0015
 50
90.0
  0
MTEXT
  5
11F0
330
11DC
100
AcDbEntity
  8
Dimensione
 62
     4
100
AcDbMText
 10
0.1547835286661264
 20
0.165843234588391
 30
0.0
 40
0.003
 41
0.0
 71
     5
 72
     1
  1
\A1;127 MM
  7
ROMANS
 73
     1
 44
1.0
1001
ACAD
1000
MTEXTBEGIN
1070
    73
1070
     1
1070
    44
1040
1.0
1070
    74
1070
     0
1000
MTEXTEND
  0
POINT
  5
11F1
330
11DC
100
AcDbEntity
  8
Defpoints
 62
     0
100
AcDbPoint
 10
0.0745737630300215
 20
0.134593234588391
 30
0.0
  0
POINT
  5
11F2
330
11DC
100
AcDbEntity
  8
Defpoints
 62
     0
100
AcDbPoint
 10
0.1315737630299952
 20
0.197093234588391
 30
0.0
  0
POINT
  5
11F3
330
11DC
100
AcDbEntity
  8
Defpoints
 62
     0
100
AcDbPoint
 10
0.1547835286661265
 20
0.197093234588391
 30
0.0
  0
ENDBLK
  5
11E8
330
11DC
100
AcDbEntity
  8
0
100
AcDbBlockEnd
  0
BLOCK
  5
1483
330
1478
100
AcDbEntity
  8
0
100
AcDbBlockBegin
  2
*D32
 70
     1
 10
0.0
 20
0.0
 30
0.0
  3
*D32
  1

  0
LINE
  5
14B5
330
1478
100
AcDbEntity
  8
Dimensione
 62
     5
370
    -2
100
AcDbLine
 10
0.0761467449146901
 20
0.1343004085644424
 30
0.0
 11
0.1526453596421785
 21
0.1343004085644424
 31
0.0
  0
LINE
  5
14B6
330
1478
100
AcDbEntity
  8
Dimensione
 62
     5
370
    -2
100
AcDbLine
 10
0.1412311979533976
 20
0.1973004085644447
 30
0.0
 11
0.1526453596421786
 21
0.1973004085644447
 31
0.0
  0
LINE
  5
14B7
330
1478
100
AcDbEntity
  8
Dimensione
 62
     5
370
    -2
100
AcDbLine
 10
0.1524653596421785
 20
0.1343004085644424
 30
0.0
 11
0.1524653596421785
 21
0.1623004085644435
 31
0.0
  0
LINE
  5
14B8
330
1478
100
AcDbEntity
  8
Dimensione
 62
     5
370
    -2
100
AcDbLine
 10
0.1524653596421786
 20
0.1973004085644447
 30
0.0
 11
0.1524653596421785
 21
0.1693004085644436
 31
0.0
  0
INSERT
  5
14B9
330
1478
100
AcDbEntity
  8
Dimensione
 62
     5
370
    -2
100
AcDbBlockReference
  2
_ArchTick
 10
0.1524653596421785
 20
0.1343004085644424
 30
0.0
 41
0.0015
 42
0.0015
 43
0.0015
 50
270.0
  0
INSERT
  5
14BA
330
1478
100
AcDbEntity
  8
Dimensione
 62
     5
370
    -2
100
AcDbBlockReference
  2
_ArchTick
 10
0.1524653596421786
 20
0.1973004085644447
 30
0.0
 41
0.0015
 42
0.0015
 43
0.0015
 50
90.0
  0
MTEXT
  5
14BB
330
1478
100
AcDbEntity
  8
Dimensione
 62
     4
100
AcDbMText
 10
0.1524653596421785
 20
0.1658004085644436
 30
0.0
 40
0.003
 41
0.0
 71
     5
 72
     1
  1
\A1;126 mm
  7
ROMANS
 73
     1
 44
1.0
1001
ACAD
1000
MTEXTBEGIN
1070
    73
1070
     1
1070
    44
1040
1.0
1070
    74
1070
     0
1000
MTEXTEND
  0
POINT
  5
14BC
330
1478
100
AcDbEntity
  8
Defpoints
 62
     0
100
AcDbPoint
 10
0.0760842449146901
 20
0.1343004085644424
 30
0.0
  0
POINT
  5
14BD
330
1478
100
AcDbEntity
  8
Defpoints
 62
     0
100
AcDbPoint
 10
0.1411686979533977
 20
0.1973004085644447
 30
0.0
  0
POINT
  5
14BE
330
1478
100
AcDbEntity
  8
Defpoints
 62
     0
100
AcDbPoint
 10
0.1524653596421786
 20
0.1973004085644447
 30
0.0
  0
ENDBLK
  5
1484
330
1478
100
AcDbEntity
  8
0
100
AcDbBlockEnd
  0
BLOCK
  5
149D
330
1492
100
AcDbEntity
  8
0
100
AcDbBlockBegin
  2
*D33
 70
     1
 10
0.0
 20
0.0
 30
0.0
  3
*D33
  1

  0
LINE
  5
14A0
330
1492
100
AcDbEntity
  8
Dimensione
 62
     5
370
    -2
100
AcDbLine
 10
0.0713510489610721
 20
0.1342379085644424
 30
0.0
 11
0.0713510489610721
 21
0.1187775717664297
 31
0.0
  0
LINE
  5
14A1
330
1492
100
AcDbEntity
  8
Dimensione
 62
     5
370
    -2
100
AcDbLine
 10
0.1411686979533977
 20
0.1912854293998393
 30
0.0
 11
0.1411686979533977
 21
0.1187775717664297
 31
0.0
  0
LINE
  5
14A2
330
1492
100
AcDbEntity
  8
Dimensione
 62
     5
370
    -2
100
AcDbLine
 10
0.0713510489610721
 20
0.1189575717664297
 30
0.0
 11
0.094902730600092
 21
0.1189575717664297
 31
0.0
  0
LINE
  5
14A3
330
1492
100
AcDbEntity
  8
Dimensione
 62
     5
370
    -2
100
AcDbLine
 10
0.1411686979533977
 20
0.1189575717664297
 30
0.0
 11
0.1176170163143777
 21
0.1189575717664297
 31
0.0
  0
INSERT
  5
14A4
330
1492
100
AcDbEntity
  8
Dimensione
 62
     5
370
    -2
100
AcDbBlockReference
  2
_ArchTick
 10
0.0713510489610721
 20
0.1189575717664297
 30
0.0
 41
0.0015
 42
0.0015
 43
0.0015
 50
180.0
  0
INSERT
  5
14A5
330
1492
100
AcDbEntity
  8
Dimensione
 62
     5
370
    -2
100
AcDbBlockReference
  2
_ArchTick
 10
0.1411686979533977
 20
0.1189575717664297
 30
0.0
 41
0.0015
 42
0.0015
 43
0.0015
  0
MTEXT
  5
14A6
330
1492
100
AcDbEntity
  8
Dimensione
 62
     4
100
AcDbMText
 10
0.1062598734572349
 20
0.1189575717664297
 30
0.0
 40
0.003
 41
0.0
 71
     5
 72
     1
  1
\A1;126 mm
  7
ROMANS
 73
     1
 44
1.0
1001
ACAD
1000
MTEXTBEGIN
1070
    73
1070
     1
1070
    44
1040
1.0
1070
    74
1070
     0
1000
MTEXTEND
  0
POINT
  5
14A7
330
1492
100
AcDbEntity
  8
Defpoints
 62
     0
100
AcDbPoint
 10
0.0713510489610721
 20
0.1343004085644424
 30
0.0
  0
POINT
  5
14A8
330
1492
100
AcDbEntity
  8
Defpoints
 62
     0
100
AcDbPoint
 10
0.1411686979533977
 20
0.1913479293998392
 30
0.0
  0
POINT
  5
14A9
330
1492
100
AcDbEntity
  8
Defpoints
 62
     0
100
AcDbPoint
 10
0.1411686979533977
 20
0.1189575717664297
 30
0.0
  0
ENDBLK
  5
149E
330
1492
100
AcDbEntity
  8
0
100
AcDbBlockEnd
  0
ENDSEC
  0
SECTION
  2
ENTITIES
  0
LINE
  5
D
330
2
100
AcDbEntity
  8
Table
100
AcDbLine
 10
0.02
 20
0.02
 30
0.0
 11
0.4
 21
0.02
 31
0.0
  0
LINE
  5
10
330
2
100
AcDbEntity
  8
Table
100
AcDbLine
 10
0.4
 20
0.02
 30
0.0
 11
0.4
 21
0.2769999999999999
 31
0.0
  0
LINE
  5
11
330
2
100
AcDbEntity
  8
Table
100
AcDbLine
 10
0.4
 20
0.2769999999999999
 30
0.0
 11
0.02
 21
0.277
 31
0.0
  0
LINE
  5
12
330
2
100
AcDbEntity
  8
Table
100
AcDbLine
 10
0.02
 20
0.277
 30
0.0
 11
0.02
 21
0.02
 31
0.0
  0
LINE
  5
13
330
2
100
AcDbEntity
  8
Table
 62
     2
100
AcDbLine
 10
0.015
 20
0.015
 30
0.0
 11
0.4050000000000001
 21
0.015
 31
0.0
  0
LINE
  5
14
330
2
100
AcDbEntity
  8
Table
 62
     2
100
AcDbLine
 10
0.4050000000000001
 20
0.015
 30
0.0
 11
0.4050000000000001
 21
0.2819999999999998
 31
0.0
  0
LINE
  5
15
330
2
100
AcDbEntity
  8
Table
 62
     2
100
AcDbLine
 10
0.4050000000000001
 20
0.2819999999999998
 30
0.0
 11
0.0149999999999999
 21
0.282
 31
0.0
  0
LINE
  5
16
330
2
100
AcDbEntity
  8
Table
 62
     2
100
AcDbLine
 10
0.0149999999999999
 20
0.282
 30
0.0
 11
0.015
 21
0.015
 31
0.0
  0
LINE
  5
17
330
2
100
AcDbEntity
  8
Table
100
AcDbLine
 10
0.21
 20
0.2769999999999999
 30
0.0
 11
0.21
 21
0.2532994226089223
 31
0.0
  0
LINE
  5
1D
330
2
100
AcDbEntity
  8
Table
100
AcDbLine
 10
0.02
 20
0.0528099428524846
 30
0.0
 11
0.4
 21
0.0528099428524846
 31
0.0
  0
MTEXT
  5
1E
330
2
100
AcDbEntity
  8
Text
100
AcDbMText
 10
0.1133313047219695
 20
0.2610796890771976
 30
0.0
 40
0.003
 41
0.1103605678262056
 71
     2
 72
     5
  1
{\fTimes New Roman|b0|i0|c0|p18;Le cornici estruse per soffitti \fTimes New Roman|b0|i1|c0|p18;      Extruded ceilings moulding}
 73
     1
 44
1.0
1001
ACAD
1000
ACAD_MTEXT_DEFINED_HEIGHT_BEGIN
1070
    46
1040
0.0141952763113409
1000
ACAD_MTEXT_DEFINED_HEIGHT_END
1000
MTEXTBEGIN
1070
    73
1070
     1
1070
    44
1040
1.0
1070
    74
1070
     0
1000
MTEXTEND
  0
TEXT
  5
1F
330
2
100
AcDbEntity
  8
Text
100
AcDbText
 10
0.2180556919891047
 20
0.269976982173197
 30
0.0
 40
0.003
  1
Cornice - Moulding : H 126 x 126 mm
  7
ROMANS
100
AcDbText
  0
TEXT
  5
21
330
2
100
AcDbEntity
  8
Text
100
AcDbText
 10
0.2184542410678115
 20
0.2576348370183962
 30
0.0
 40
0.003
  1
File : E - C8L
  7
ROMANS
100
AcDbText
  0
LINE
  5
22
330
2
100
AcDbEntity
  8
Table
100
AcDbLine
 10
0.4
 20
0.2654452889427402
 30
0.0
 11
0.02
 21
0.2654452889427403
 31
0.0
  0
LINE
  5
23
330
2
100
AcDbEntity
  8
Table
100
AcDbLine
 10
0.4
 20
0.2532994226089223
 30
0.0
 11
0.02
 21
0.2532994226089225
 31
0.0
  0
LINE
  5
24
330
2
100
AcDbEntity
  8
Table
100
AcDbLine
 10
0.21
 20
0.0528099428524846
 30
0.0
 11
0.21
 21
0.02
 31
0.0
  0
TEXT
  5
25
330
2
100
AcDbEntity
  8
Text
100
AcDbText
 10
0.0947789320547719
 20
0.2687784133392506
 30
0.0
 40
0.005
  1
EUROSTYL
  7
style1
 72
     1
 11
0.1140561490699125
 21
0.2687784133392506
 31
0.0
100
AcDbText
  0
TEXT
  5
27
330
2
100
AcDbEntity
  8
Text
100
AcDbText
 10
0.3415396129227681
 20
0.1536989643537565
 30
0.0
 40
0.005
  1
scala 1:2
  7
Arial
100
AcDbText
  0
MTEXT
  5
10F
102
{ACAD_XDICTIONARY
360
14CE
102
}
330
2
100
AcDbEntity
  8
Text
100
AcDbMText
 10
0.305
 20
0.0471738284815141
 30
0.0
 40
0.005
 41
0.1900000000000001
 71
     2
 72
     5
  3
{\fTimes New Roman|b0|i0|c238|p18;\H1.6x;\C4;Bovelacci\P\H0.4375x;\T0.95;via del Commercio, 5  47100 Forli - Italy  \fTimes New Roman|b0|i0|c0|p18;\P\fTimes New Roman|b0|i0|c238|p18;tel.+39-0543721386  fax +39-0543721127\fTimes New Roman|b0|i0|c0|p18
  1
; \fTimes New Roman|b0|i0|c238|p18;www.bovelacci.it\fTimes New Roman|b0|i0|c0|p18; \fTimes New Roman|b0|i0|c238|p18;e-mail: bovelacci@bovelacci\fTimes New Roman|b0|i0|c0|p18;.it}
 73
     1
 44
1.0
1001
ACAD
1000
ACAD_MTEXT_DEFINED_HEIGHT_BEGIN
1070
    46
1040
0.0271738284815141
1000
ACAD_MTEXT_DEFINED_HEIGHT_END
1000
MTEXTBEGIN
1070
    73
1070
     1
1070
    44
1040
1.0
1070
    74
1070
     0
1000
MTEXTEND
  0
MTEXT
  5
110
330
2
100
AcDbEntity
  8
Text
100
AcDbMText
 10
0.0219676065851835
 20
0.0500313976452307
 30
0.0
 40
0.002
 41
0.1863544980601608
 71
     1
 72
     5
  3
{\fArial|b0|i0|c0|p34;\H1.25x;Le caratteristiche tecniche indicate vengono fornite a titolo indicativo e potranno essere modificate senza preavviso. Non devono quindi essere considerate a scopo di specifica.\P\fArial|b0|i1|c0|p34;The given values are
  3
 indicative and can be changed without notice. They cannot be considered like a state.\PThis lealfet and designs embodied within are protected by copyright law and international treaties. Unauthorized repro- duction of the leaflet or any portion of i
  1
t or reproduction of any of the designs embodied therein may result in severe civil penalties and will be prosecuted to the maximum.\PAll right reserved, Bovelacci Forlì Italy.}
 73
     1
 44
1.0
1001
ACAD
1000
MTEXTBEGIN
1070
    73
1070
     1
1070
    44
1040
1.0
1070
    74
1070
     0
1000
MTEXTEND
  0
TEXT
  5
1CA
330
2
100
AcDbEntity
  8
Text
100
AcDbText
 10
0.0879440355147445
 20
0.0732117799103868
 30
0.0
 40
0.005
  1
scala 1:2
  7
Arial
100
AcDbText
  0
HATCH
  5
11A4
330
2
100
AcDbEntity
  8
Sezione
100
AcDbHatch
 10
0.0
 20
0.0
 30
0.0
210
0.0
220
0.0
230
1.0
  2
ANSI31
 70
     0
 71
     0
 91
        1
 92
        7
 72
     0
 73
     1
 93
        6
 10
0.1436720704560989
 20
0.2171926373321501
 10
0.0514052499658299
 20
0.2171926373321501
 10
0.0514052499658299
 20
0.1312209793498775
 10
0.0705369185267676
 20
0.1312209793498775
 10
0.0705369185267676
 20
0.1977338613253695
 10
0.1436720704560989
 20
0.1977338613253694
 97
        0
 75
     0
 76
     1
 52
0.0
 41
0.002
 77
     0
 78
     1
 53
45.0
 43
-0.034423483693838
 44
-0.0050088461078311
 45
-0.0044901280605346
 46
0.0044901280605346
 79
     0
 47
0.0003507291251325
 98
        1
 10
0.0801563630625538
 20
0.204924370002114
1001
ACAD
1010
0.0
1020
0.0
1030
0.0
  0
LINE
  5
11A5
330
2
100
AcDbEntity
  8
Sezione
100
AcDbLine
 10
0.0705369185267676
 20
0.1309118849320807
 30
0.0
 11
0.0705369185267676
 21
0.1977338613253695
 31
0.0
  0
LINE
  5
11A6
330
2
100
AcDbEntity
  8
Sezione
100
AcDbLine
 10
0.0705369185267676
 20
0.1977338613253695
 30
0.0
 11
0.1437319220066297
 21
0.1977338613253695
 31
0.0
  0
LWPOLYLINE
  5
1219
102
{ACAD_REACTORS
330
14AA
330
1490
102
}
330
2
100
AcDbEntity
  8
Profilo
370
     0
100
AcDbPolyline
 90
       38
 70
   129
 43
0.0
 10
0.0712885489610721
 20
0.1343004085644424
 10
0.0760842449146901
 20
0.1343004085644424
 10
0.0760842449146901
 20
0.1399634620802459
 10
0.0804864273090197
 20
0.1399634620802459
 10
0.0821732740618097
 20
0.1402648195668945
 10
0.0828673427621504
 20
0.140958888267221
 10
0.0832773772323856
 20
0.14166908880253
 10
0.0832711374894552
 20
0.1539720171308971
 10
0.093384705786101
 20
0.1622110557105572
 10
0.0932677866888633
 20
0.1640224740277745
 10
0.0937939269093641
 20
0.1646068031425329
 10
0.0956061836239081
 20
0.1646068031425329
 10
0.0964246237289723
 20
0.1682296425463505
 10
0.0971261425953509
 20
0.1687555393035041
 10
0.0987630206640313
 20
0.1670025519592144
 10
0.1005752773785753
 20
0.1676453134315778
 10
0.1011014175990903
 20
0.1698073314331481
 10
0.1009260368117645
 20
0.1710344220202842
 10
0.1025046544870287
 20
0.1710100667811218
 10
0.1037907709810719
 20
0.1700167070090686
 10
0.105135351306651
 20
0.1708347683236298
 10
0.1056614893857039
 20
0.1748082046424173
 10
0.107882967223511
 20
0.1748082046424173
 10
0.1095198452921914
 20
0.1773792519165767
 10
0.1092860049562398
 20
0.1790738055185983
 10
0.1144889390468586
 20
0.1793659700759775
 10
0.1221691861836911
 20
0.1862058348515205
 42
0.3030742186492978
 10
0.1294182173247913
 20
0.1894196435980433
 10
0.1360241912896009
 20
0.1894196435980433
 10
0.1360241912896009
 20
0.1913479293998392
 10
0.1411686979533977
 20
0.1913479293998392
 10
0.1411686979533977
 20
0.1973004085644447
 10
0.1276644201588732
 20
0.1973004085644447
 10
0.1242737449242605
 20
0.1936268121166193
 10
0.115387833573032
 20
0.1936268121166193
 10
0.0765633481013958
 20
0.1602281897471585
 10
0.0765633481013958
 20
0.1519772179449603
 10
0.0712885489610721
 20
0.1479033018984666
  0
CIRCLE
  5
1331
330
2
100
AcDbEntity
  8
Vista
370
     0
100
AcDbCircle
 10
0.1746935319974767
 20
0.0744568328814097
 30
0.0
 40
0.0026702319688766
  0
CIRCLE
  5
1332
330
2
100
AcDbEntity
  8
Vista
370
     0
100
AcDbCircle
 10
0.1801431715468098
 20
0.0744568328814097
 30
0.0
 40
0.0026702319688766
  0
CIRCLE
  5
1333
330
2
100
AcDbEntity
  8
Vista
370
     0
100
AcDbCircle
 10
0.1855928110961429
 20
0.0744568328814097
 30
0.0
 40
0.0026702319688766
  0
CIRCLE
  5
1334
330
2
100
AcDbEntity
  8
Vista
370
     0
100
AcDbCircle
 10
0.1910424506454689
 20
0.0744568328814097
 30
0.0
 40
0.0026702319688766
  0
CIRCLE
  5
1335
330
2
100
AcDbEntity
  8
Vista
370
     0
100
AcDbCircle
 10
0.1964920901948019
 20
0.0744568328814097
 30
0.0
 40
0.0026702319688766
  0
CIRCLE
  5
1336
330
2
100
AcDbEntity
  8
Vista
370
     0
100
AcDbCircle
 10
0.201941729744135
 20
0.0744568328814097
 30
0.0
 40
0.0026702319688766
  0
CIRCLE
  5
1337
330
2
100
AcDbEntity
  8
Vista
370
     0
100
AcDbCircle
 10
0.2073913692934681
 20
0.0744568328814097
 30
0.0
 40
0.0026702319688766
  0
CIRCLE
  5
1338
330
2
100
AcDbEntity
  8
Vista
370
     0
100
AcDbCircle
 10
0.2128410088428012
 20
0.0744568328814097
 30
0.0
 40
0.0026702319688766
  0
CIRCLE
  5
1339
330
2
100
AcDbEntity
  8
Vista
370
     0
100
AcDbCircle
 10
0.2182906483921343
 20
0.0744568328814097
 30
0.0
 40
0.0026702319688766
  0
CIRCLE
  5
133A
330
2
100
AcDbEntity
  8
Vista
370
     0
100
AcDbCircle
 10
0.2237402879414674
 20
0.0744568328814097
 30
0.0
 40
0.0026702319688766
  0
CIRCLE
  5
133B
330
2
100
AcDbEntity
  8
Vista
370
     0
100
AcDbCircle
 10
0.2291899274908005
 20
0.0744568328814097
 30
0.0
 40
0.0026702319688766
  0
CIRCLE
  5
133C
330
2
100
AcDbEntity
  8
Vista
370
     0
100
AcDbCircle
 10
0.2346395670401336
 20
0.0744568328814097
 30
0.0
 40
0.0026702319688766
  0
CIRCLE
  5
133D
330
2
100
AcDbEntity
  8
Vista
370
     0
100
AcDbCircle
 10
0.2400892065894666
 20
0.0744568328814097
 30
0.0
 40
0.0026702319688766
  0
ARC
  5
133E
330
2
100
AcDbEntity
  8
Vista
370
     0
100
AcDbCircle
 10
0.2455388461387997
 20
0.0744568328814097
 30
0.0
 40
0.0026702319688766
100
AcDbArc
 50
42.07938127331992
 51
317.92061872668
  0
ARC
  5
1341
330
2
100
AcDbEntity
  8
Vista
370
     0
100
AcDbCircle
 10
0.261887764786799
 20
0.0744568328814097
 30
0.0
 40
0.0026702319688766
100
AcDbArc
 50
242.2890387838995
 51
117.7109612161004
  0
CIRCLE
  5
1342
330
2
100
AcDbEntity
  8
Vista
370
     0
100
AcDbCircle
 10
0.267337404336125
 20
0.0744568328814097
 30
0.0
 40
0.0026702319688766
  0
CIRCLE
  5
1343
330
2
100
AcDbEntity
  8
Vista
370
     0
100
AcDbCircle
 10
0.272787043885458
 20
0.0744568328814097
 30
0.0
 40
0.0026702319688766
  0
CIRCLE
  5
1344
330
2
100
AcDbEntity
  8
Vista
370
     0
100
AcDbCircle
 10
0.2782366834347911
 20
0.0744568328814097
 30
0.0
 40
0.0026702319688766
  0
CIRCLE
  5
1345
330
2
100
AcDbEntity
  8
Vista
370
     0
100
AcDbCircle
 10
0.2836863229841242
 20
0.0744568328814097
 30
0.0
 40
0.0026702319688766
  0
CIRCLE
  5
1346
330
2
100
AcDbEntity
  8
Vista
370
     0
100
AcDbCircle
 10
0.2891359625334573
 20
0.0744568328814097
 30
0.0
 40
0.0026702319688766
  0
CIRCLE
  5
1347
330
2
100
AcDbEntity
  8
Vista
370
     0
100
AcDbCircle
 10
0.2945856020827904
 20
0.0744568328814097
 30
0.0
 40
0.0026702319688766
  0
CIRCLE
  5
1348
330
2
100
AcDbEntity
  8
Vista
370
     0
100
AcDbCircle
 10
0.3000352416321235
 20
0.0744568328814097
 30
0.0
 40
0.0026702319688766
  0
CIRCLE
  5
1349
330
2
100
AcDbEntity
  8
Vista
370
     0
100
AcDbCircle
 10
0.3054848811814566
 20
0.0744568328814097
 30
0.0
 40
0.0026702319688766
  0
CIRCLE
  5
134A
330
2
100
AcDbEntity
  8
Vista
370
     0
100
AcDbCircle
 10
0.3109345207307896
 20
0.0744568328814097
 30
0.0
 40
0.0026702319688766
  0
CIRCLE
  5
134B
330
2
100
AcDbEntity
  8
Vista
370
     0
100
AcDbCircle
 10
0.3163841602801227
 20
0.0744568328814097
 30
0.0
 40
0.0026702319688766
  0
CIRCLE
  5
134C
330
2
100
AcDbEntity
  8
Vista
370
     0
100
AcDbCircle
 10
0.3218337998294558
 20
0.0744568328814097
 30
0.0
 40
0.0026702319688766
  0
CIRCLE
  5
134D
330
2
100
AcDbEntity
  8
Vista
370
     0
100
AcDbCircle
 10
0.3272834393787889
 20
0.0744568328814097
 30
0.0
 40
0.0026702319688766
  0
CIRCLE
  5
134E
330
2
100
AcDbEntity
  8
Vista
370
     0
100
AcDbCircle
 10
0.332733078928122
 20
0.0744568328814097
 30
0.0
 40
0.0026702319688766
  0
CIRCLE
  5
134F
330
2
100
AcDbEntity
  8
Vista
370
     0
100
AcDbCircle
 10
0.3381827184774551
 20
0.0744568328814097
 30
0.0
 40
0.0026702319688766
  0
CIRCLE
  5
1350
330
2
100
AcDbEntity
  8
Vista
370
     0
100
AcDbCircle
 10
0.343632358026781
 20
0.0744568328814097
 30
0.0
 40
0.0026702319688766
  0
CIRCLE
  5
1351
330
2
100
AcDbEntity
  8
Vista
370
     0
100
AcDbCircle
 10
0.3490819975761141
 20
0.0744568328814097
 30
0.0
 40
0.0026702319688766
  0
CIRCLE
  5
1352
330
2
100
AcDbEntity
  8
Vista
370
     0
100
AcDbCircle
 10
0.3545316371254472
 20
0.0744568328814097
 30
0.0
 40
0.0026702319688766
  0
CIRCLE
  5
1353
330
2
100
AcDbEntity
  8
Vista
370
     0
100
AcDbCircle
 10
0.3599812766747803
 20
0.0744568328814097
 30
0.0
 40
0.0026702319688766
  0
CIRCLE
  5
1354
330
2
100
AcDbEntity
  8
Vista
370
     0
100
AcDbCircle
 10
0.3654309162241134
 20
0.0744568328814097
 30
0.0
 40
0.0026702319688766
  0
CIRCLE
  5
1355
330
2
100
AcDbEntity
  8
Vista
370
     0
100
AcDbCircle
 10
0.3708805557734465
 20
0.0744568328814097
 30
0.0
 40
0.0026702319688766
  0
CIRCLE
  5
1356
330
2
100
AcDbEntity
  8
Vista
370
     0
100
AcDbCircle
 10
0.3763301953227796
 20
0.0744568328814097
 30
0.0
 40
0.0026702319688766
  0
ARC
  5
1357
330
2
100
AcDbEntity
  8
Vista
370
     0
100
AcDbCircle
 10
0.3817798348721126
 20
0.0744568328814097
 30
0.0
 40
0.0026702319688766
100
AcDbArc
 50
53.46473293732754
 51
306.5352670626725
  0
LWPOLYLINE
  5
1361
330
2
100
AcDbEntity
  8
Vista
370
     0
100
AcDbPolyline
 90
       14
 70
   128
 43
0.0
 10
0.1893606266101586
 20
0.1015477728928264
 10
0.1895826274809948
 20
0.0984411991984473
 10
0.1904958499580047
 20
0.0968763977702025
 10
0.1887998642343618
 20
0.0963547961640785
 10
0.1882780220699445
 20
0.0940075931741973
 10
0.1891912445469543
 20
0.0928339925267778
 10
0.1880171009877358
 20
0.0921819917904259
 10
0.1854078901656351
 20
0.0921819917904259
 10
0.1829291411953591
 20
0.0921819917904259
 10
0.1816245357843087
 20
0.0923123909206538
 10
0.1824072990309418
 20
0.0940075931741973
 10
0.1841032847545847
 20
0.0957027954277265
 10
0.1850165098530425
 20
0.0971371977257292
 10
0.1857871745987542
 20
0.0989345840217352
  0
LWPOLYLINE
  5
1362
330
2
100
AcDbEntity
  8
Vista
370
     0
100
AcDbPolyline
 90
       23
 70
   128
 43
0.0
 10
0.2041942028418617
 20
0.1041788066954012
 10
0.2018459157234247
 20
0.1048308074317532
 10
0.1975407165562259
 20
0.1037876059145759
 10
0.1957142716022062
 20
0.1019620045308045
 10
0.1941487451089472
 20
0.1003972014075032
 10
0.1915395342868464
 20
0.0970067969004447
 10
0.1912786132046378
 20
0.0954419954721999
 10
0.1919309145994319
 20
0.0928339925267778
 10
0.194279204339324
 20
0.0919211918348992
 10
0.1976711784080578
 20
0.0923123909206538
 10
0.2019763749538015
 20
0.0919211918348992
 10
0.2058901911869526
 20
0.0920515909651272
 10
0.2092821626342385
 20
0.0934859932631298
 10
0.2111086102097062
 20
0.0949203955611324
 10
0.2128045959333491
 20
0.0960939962085519
 10
0.2116304523741306
 20
0.0971371977257292
 10
0.2090212415520227
 20
0.0983108000682052
 10
0.2083689401572286
 20
0.1002668022772752
 10
0.2074557150587637
 20
0.1014404029246805
 10
0.2060206504173365
 20
0.1013100037944525
 10
0.2044551239240704
 20
0.1017012028802213
 10
0.2040637436114849
 20
0.1030052043529253
 10
0.2040637436114849
 20
0.1040484058701026
  0
LWPOLYLINE
  5
1363
330
2
100
AcDbEntity
  8
Vista
370
     0
100
AcDbPolyline
 90
        9
 70
   128
 43
0.0
 10
0.2191971611367691
 20
0.0990931999347993
 10
0.2169793332487089
 20
0.1022228044863311
 10
0.215283347525073
 20
0.1040484058701026
 10
0.2131959788673896
 20
0.1053524073428207
 10
0.2111086102097062
 20
0.106395608859998
 10
0.2084993993876054
 20
0.1065260096852825
 10
0.2058901911869526
 20
0.1062652097297558
 10
0.204846506858118
 20
0.1054828081681052
 10
0.2039332817596531
 20
0.1050916073872798
  0
LWPOLYLINE
  5
1364
330
2
100
AcDbEntity
  8
Vista
370
     0
100
AcDbPolyline
 90
        4
 70
   128
 43
0.0
 10
0.2130655170155578
 20
0.1027444043973986
 10
0.2114999931437467
 20
0.1031356051782239
 10
0.2090212415520227
 20
0.102483604441872
 10
0.2087603204698141
 20
0.1019620045308045
  0
LWPOLYLINE
  5
1365
330
2
100
AcDbEntity
  8
Vista
370
     0
100
AcDbPolyline
 90
        6
 70
   128
 43
0.0
 10
0.2180230175775506
 20
0.0962243970338506
 10
0.2167184121665002
 20
0.0979195992873798
 10
0.215283347525073
 20
0.0989628008045571
 10
0.2130655170155578
 20
0.1000060006266779
 10
0.2113695312919148
 20
0.1000060006266779
 10
0.2105867680452889
 20
0.099223600760098
  0
LWPOLYLINE
  5
1366
330
2
100
AcDbEntity
  8
Vista
370
     0
100
AcDbPolyline
 90
       13
 70
   128
 43
0.0
 10
0.2223282141232943
 20
0.0947899947358479
 10
0.2188057808241837
 20
0.0960939962085519
 10
0.2163270318539148
 20
0.0954419954721999
 10
0.2135873591799751
 20
0.0950507946913746
 10
0.2118913734563392
 20
0.0945291947803071
 10
0.209673545568279
 20
0.0930947924823045
 10
0.211239072061538
 20
0.0927035917014791
 10
0.2130655170155578
 20
0.0927035917014791
 10
0.2147615053606486
 20
0.0921819917904259
 10
0.2176316372649651
 20
0.0920515909651272
 10
0.219327622988601
 20
0.0927035917014791
 10
0.2211540705640758
 20
0.0927035917014791
 10
0.2221977548929175
 20
0.0929643933520765
  0
LWPOLYLINE
  5
1367
330
2
100
AcDbEntity
  8
Vista
370
     0
100
AcDbPolyline
 90
        6
 70
   129
 43
0.0
 10
0.2001499273783338
 20
0.0983108000682052
 10
0.1985844008850677
 20
0.0975283985065545
 10
0.198323479802859
 20
0.0960939962085519
 10
0.2005413103123743
 20
0.0954419954721999
 10
0.2034114395952287
 20
0.0967459969449038
 10
0.2013240735590003
 20
0.0981803992429065
  0
LWPOLYLINE
  5
1368
330
2
100
AcDbEntity
  8
Vista
370
     0
100
AcDbPolyline
 90
        3
 70
   128
 43
0.0
 10
0.2010631524767916
 20
0.0984411991984473
 10
0.2021068341841783
 20
0.0998756014964499
 10
0.2038028225292763
 20
0.1005276022328019
  0
LWPOLYLINE
  5
1369
330
2
100
AcDbEntity
  8
Vista
370
     0
100
AcDbPolyline
 90
        4
 70
   128
 43
0.0
 10
0.1987148627368995
 20
0.0983108000682052
 10
0.1984539416546909
 20
0.0994844007156246
 10
0.1984539416546909
 20
0.1007884021883285
 10
0.1988453219672763
 20
0.1015708037499792
  0
LWPOLYLINE
  5
136A
330
2
100
AcDbEntity
  8
Vista
370
     0
100
AcDbPolyline
 90
        2
 70
   128
 43
0.0
 10
0.1976711784080578
 20
0.0966155978146759
 10
0.192713677846065
 20
0.0958331962530252
  0
LWPOLYLINE
  5
136B
330
2
100
AcDbEntity
  8
Vista
370
     0
100
AcDbPolyline
 90
        2
 70
   128
 43
0.0
 10
0.1985844008850677
 20
0.0953115946469012
 10
0.1961056519147988
 20
0.0928339925267778
  0
LWPOLYLINE
  5
136C
330
2
100
AcDbEntity
  8
Vista
370
     0
100
AcDbPolyline
 90
        2
 70
   128
 43
0.0
 10
0.200802231394583
 20
0.0947899947358479
 10
0.2006717695427511
 20
0.0932251933076032
  0
LWPOLYLINE
  5
136D
330
2
100
AcDbEntity
  8
Vista
370
     0
100
AcDbPolyline
 90
        6
 70
   128
 43
0.0
 10
0.2039332817596531
 20
0.09739799768127
 10
0.2068034136639625
 20
0.0976587976367967
 10
0.2081080190750129
 20
0.0979195992873798
 10
0.2057597293351208
 20
0.0963547961640785
 10
0.2045855857759022
 20
0.0953115946469012
 10
0.2045855857759022
 20
0.094137993999496
  0
LWPOLYLINE
  5
136E
330
2
100
AcDbEntity
  8
Vista
370
     0
100
AcDbPolyline
 90
        9
 70
   128
 43
0.0
 10
0.2189362400545605
 20
0.1011796029691538
 10
0.2181534768079274
 20
0.1035268059590493
 10
0.2184143978901432
 20
0.1049612082570519
 10
0.2195885440708096
 20
0.1067868096408233
 10
0.2215454508766612
 20
0.1071780104216486
 10
0.2223282141232943
 20
0.1071780104216486
 10
0.2232414366003041
 20
0.1065260096852825
 10
0.2248069630935632
 20
0.1048308074317532
 10
0.2263724895868293
 20
0.1056132089934039
  0
LWPOLYLINE
  5
136F
330
2
100
AcDbEntity
  8
Vista
370
     0
100
AcDbPolyline
 90
        9
 70
   128
 43
0.0
 10
0.2261115685046136
 20
0.0959635970783239
 10
0.2246765038631864
 20
0.0960939962085519
 10
0.2235023576825128
 20
0.0967459969449038
 10
0.2221977548929175
 20
0.0954419954721999
 10
0.2221977548929175
 20
0.0937467932186707
 10
0.2225891352055029
 20
0.0932251933076032
 10
0.2245460420113545
 20
0.0925731925712512
 10
0.226633410669038
 20
0.0921819917904259
 10
0.2317213704614076
 20
0.0920515909651272
  0
LWPOLYLINE
  5
1370
330
2
100
AcDbEntity
  8
Vista
370
     0
100
AcDbPolyline
 90
       11
 70
   128
 43
0.0
 10
0.2198494651530254
 20
0.0977891984620811
 10
0.2212845297944526
 20
0.0976587976367967
 10
0.2223282141232943
 20
0.0976587976367967
 10
0.2231109773699273
 20
0.0979195992873798
 10
0.2228500562877116
 20
0.0984411991984473
 10
0.2228500562877116
 20
0.0996148015409091
 10
0.2228500562877116
 20
0.1017012028802213
 10
0.223371898452136
 20
0.102483604441872
 10
0.2241546616987691
 20
0.1030052043529253
 10
0.2246765038631864
 20
0.1031356051782239
 10
0.2250678841757718
 20
0.1032660060035084
  0
LWPOLYLINE
  5
1371
330
2
100
AcDbEntity
  8
Vista
370
     0
100
AcDbPolyline
 90
        2
 70
   128
 43
0.0
 10
0.1929380364788855
 20
0.1010179177795288
 10
0.1940182832571153
 20
0.1006580030581006
  0
LWPOLYLINE
  5
1372
330
2
100
AcDbEntity
  8
Vista
370
     0
100
AcDbPolyline
 90
        2
 70
   128
 43
0.0
 10
0.1961056519147988
 20
0.1049612082570519
 10
0.1939443858851804
 20
0.104834133078915
  0
LWPOLYLINE
  5
1373
330
2
100
AcDbEntity
  8
Vista
370
     0
100
AcDbPolyline
 90
        2
 70
   128
 43
0.0
 10
0.195975192684422
 20
0.1040484058701026
 10
0.1940182832571153
 20
0.1032660060035084
  0
LWPOLYLINE
  5
1377
330
2
100
AcDbEntity
  8
Vista
370
     0
100
AcDbPolyline
 90
       42
 70
   128
 43
0.0
 10
0.2321721367269305
 20
0.0948457112980066
 10
0.22995474137862
 20
0.0944024383300928
 10
0.2275895222952045
 20
0.0944024383300928
 10
0.2264069140642206
 20
0.095880017149895
 10
0.2265547404207737
 20
0.098391900126515
 10
0.2250764794766837
 20
0.1001649936932551
 10
0.225519955924895
 20
0.1026768766698751
 10
0.2267025667773268
 20
0.1048932432045149
 10
0.2278851750083106
 20
0.1056320326144231
 10
0.2292156122173026
 20
0.1056320326144231
 10
0.22995474137862
 20
0.1053365161724429
 10
0.2315808313007182
 20
0.1063708220243171
 10
0.2349808322585574
 20
0.1063708220243171
 10
0.2363112694675493
 20
0.1063708220243171
 10
0.2376417040550791
 20
0.1053365161724429
 10
0.2385286621944047
 20
0.105484274393433
 10
0.2401547494950549
 20
0.1053365161724429
 10
0.2416330130605928
 20
0.1047454849835248
 10
0.2423721422219103
 20
0.1034156660797834
 10
0.2429634476481297
 20
0.1010515396290827
 10
0.2425199685784705
 20
0.0989829313154331
 10
0.2405982285647141
 20
0.096914321306727
 10
0.2386764885509649
 20
0.0957322589289049
 10
0.2371982249854199
 20
0.0948457112980066
 10
0.2346851795454512
 20
0.094697954772073
 10
0.2332069186013612
 20
0.094697954772073
 10
0.2327634395316949
 20
0.094697954772073
 10
0.2323848728814113
 20
0.0950927558564558
 10
0.2325377560208182
 20
0.0977924461935516
 10
0.2339137068969208
 20
0.0976396333090861
 10
0.2354935019589064
 20
0.0984036977314134
 10
0.2362579202773887
 20
0.0996771373052497
 10
0.2360031150450439
 20
0.1011033880684948
 10
0.2353915798659685
 20
0.1021221400665837
 10
0.2341685147507206
 20
0.10258057871998
 10
0.2325377560208182
 20
0.10258057871998
 10
0.2310598830517705
 20
0.1023258911442184
 10
0.2299387400294606
 20
0.1009505751840294
 10
0.2294800879897849
 20
0.0996261991120804
 10
0.2297858542685986
 20
0.0988111981916262
 10
0.2302445063082743
 20
0.0981999466537644
 10
0.2312127661911774
 20
0.0980471354643555
  0
LWPOLYLINE
  5
1378
330
2
100
AcDbEntity
  8
Vista
370
     0
100
AcDbPolyline
 90
        2
 70
   128
 43
0.0
 10
0.2356973487662302
 20
0.1022240147578657
 10
0.2374809880140916
 20
0.1044143299434381
  0
LWPOLYLINE
  5
1379
330
2
100
AcDbEntity
  8
Vista
370
     0
100
AcDbPolyline
 90
        2
 70
   128
 43
0.0
 10
0.2317223792773149
 20
0.1029371409870237
 10
0.2314166129985011
 20
0.1052293308638923
  0
LWPOLYLINE
  5
137A
330
2
100
AcDbEntity
  8
Vista
370
     0
100
AcDbPolyline
 90
        2
 70
   128
 43
0.0
 10
0.2290214385715714
 20
0.099167760458684
 10
0.2271358772307792
 20
0.0988111981916262
  0
LWPOLYLINE
  5
137B
330
2
100
AcDbEntity
  8
Vista
370
     0
100
AcDbPolyline
 90
       13
 70
   128
 43
0.0
 10
0.247520737848987
 20
0.0994658011360141
 10
0.2441408654021586
 20
0.0976587976367967
 10
0.2417925756622665
 20
0.0951811955166733
 10
0.2393138266919905
 20
0.0942683948247805
 10
0.2322689600937693
 20
0.0938771940439551
 10
0.2321384982419374
 20
0.0932251933076032
 10
0.2337040247351965
 20
0.0923123909206538
 10
0.2352695512284626
 20
0.0923123909206538
 10
0.2361827737054725
 20
0.0919211918348992
 10
0.240487970251209
 20
0.0919211918348992
 10
0.2440104061717747
 20
0.0921819917904259
 10
0.2466196143724275
 20
0.0949203955611324
 10
0.247520737848987
 20
0.0959848659087568
  0
LWPOLYLINE
  5
137C
330
2
100
AcDbEntity
  8
Vista
370
     0
100
AcDbPolyline
 90
        6
 70
   128
 43
0.0
 10
0.247520737848987
 20
0.1009505720353189
 10
0.2467500762242594
 20
0.1007884021883285
 10
0.2440104061717747
 20
0.1007884021883285
 10
0.2449236286487846
 20
0.1023532036165733
 10
0.2472719183886767
 20
0.1023532036165733
 10
0.247520737848987
 20
0.1024117224181575
  0
LWPOLYLINE
  5
137D
330
2
100
AcDbEntity
  8
Vista
370
     0
100
AcDbPolyline
 90
        5
 70
   128
 43
0.0
 10
0.247520737848987
 20
0.0921819917904259
 10
0.2472719183886767
 20
0.0921819917904259
 10
0.2459673129776263
 20
0.0923123909206538
 10
0.2467500762242594
 20
0.0940075931741973
 10
0.247520737848987
 20
0.0947778987874698
  0
LWPOLYLINE
  5
137E
330
2
100
AcDbEntity
  8
Vista
370
     0
100
AcDbPolyline
 90
        4
 70
   128
 43
0.0
 10
0.2685369800351793
 20
0.1041788066954012
 10
0.2661886929167423
 20
0.1048308074317532
 10
0.2618834937495436
 20
0.1037876059145759
 10
0.2606460764238534
 20
0.1025507601081305
  0
LWPOLYLINE
  5
137F
330
2
100
AcDbEntity
  8
Vista
370
     0
100
AcDbPolyline
 90
        9
 70
   128
 43
0.0
 10
0.2835399383300867
 20
0.0990931999347993
 10
0.2813221104420265
 20
0.1022228044863311
 10
0.2796261247183907
 20
0.1040484058701026
 10
0.2775387560607072
 20
0.1053524073428207
 10
0.2754513874030238
 20
0.106395608859998
 10
0.272842176580923
 20
0.1065260096852825
 10
0.2702329683802702
 20
0.1062652097297558
 10
0.2691892840514285
 20
0.1054828081681052
 10
0.2682760589529707
 20
0.1050916073872798
  0
LWPOLYLINE
  5
1380
330
2
100
AcDbEntity
  8
Vista
370
     0
100
AcDbPolyline
 90
        4
 70
   128
 43
0.0
 10
0.2774082942088754
 20
0.1027444043973986
 10
0.2758427703370643
 20
0.1031356051782239
 10
0.2733640187453403
 20
0.102483604441872
 10
0.2731030976631317
 20
0.1019620045308045
  0
LWPOLYLINE
  5
1381
330
2
100
AcDbEntity
  8
Vista
370
     0
100
AcDbPolyline
 90
        6
 70
   128
 43
0.0
 10
0.2823657947708682
 20
0.0962243970338506
 10
0.2810611893598178
 20
0.0979195992873798
 10
0.2796261247183907
 20
0.0989628008045571
 10
0.2774082942088754
 20
0.1000060006266779
 10
0.2757123084852324
 20
0.1000060006266779
 10
0.2749295452386065
 20
0.099223600760098
  0
LWPOLYLINE
  5
1382
330
2
100
AcDbEntity
  8
Vista
370
     0
100
AcDbPolyline
 90
       13
 70
   128
 43
0.0
 10
0.2866709913166119
 20
0.0947899947358479
 10
0.2831485580175013
 20
0.0960939962085519
 10
0.2806698090472324
 20
0.0954419954721999
 10
0.2779301363732927
 20
0.0950507946913746
 10
0.2762341506496568
 20
0.0945291947803071
 10
0.2740163227615966
 20
0.0930947924823045
 10
0.2755818492548556
 20
0.0927035917014791
 10
0.2774082942088754
 20
0.0927035917014791
 10
0.2791042825539662
 20
0.0921819917904259
 10
0.2819744144582827
 20
0.0920515909651272
 10
0.2836704001819186
 20
0.0927035917014791
 10
0.2854968477573934
 20
0.0927035917014791
 10
0.2865405320862351
 20
0.0929643933520765
  0
LWPOLYLINE
  5
1383
330
2
100
AcDbEntity
  8
Vista
370
     0
100
AcDbPolyline
 90
        6
 70
   129
 43
0.0
 10
0.2644927045716514
 20
0.0983108000682052
 10
0.2629271780783853
 20
0.0975283985065545
 10
0.2626662569961766
 20
0.0960939962085519
 10
0.2648840875056919
 20
0.0954419954721999
 10
0.2677542167885463
 20
0.0967459969449038
 10
0.2656668507523179
 20
0.0981803992429065
  0
LWPOLYLINE
  5
1384
330
2
100
AcDbEntity
  8
Vista
370
     0
100
AcDbPolyline
 90
        3
 70
   128
 43
0.0
 10
0.2654059296701092
 20
0.0984411991984473
 10
0.2664496113774959
 20
0.0998756014964499
 10
0.2681455997225939
 20
0.1005276022328019
  0
LWPOLYLINE
  5
1385
330
2
100
AcDbEntity
  8
Vista
370
     0
100
AcDbPolyline
 90
        4
 70
   128
 43
0.0
 10
0.2630576399302171
 20
0.0983108000682052
 10
0.2627967188480085
 20
0.0994844007156246
 10
0.2627967188480085
 20
0.1007884021883285
 10
0.2631880991605939
 20
0.1015708037499792
  0
LWPOLYLINE
  5
1386
330
2
100
AcDbEntity
  8
Vista
370
     0
100
AcDbPolyline
 90
        2
 70
   128
 43
0.0
 10
0.2620139556013754
 20
0.0966155978146759
 10
0.2606460764238534
 20
0.0963997166884391
  0
LWPOLYLINE
  5
1387
330
2
100
AcDbEntity
  8
Vista
370
     0
100
AcDbPolyline
 90
        2
 70
   128
 43
0.0
 10
0.2629271780783853
 20
0.0953115946469012
 10
0.2604484291081164
 20
0.0928339925267778
  0
LWPOLYLINE
  5
1388
330
2
100
AcDbEntity
  8
Vista
370
     0
100
AcDbPolyline
 90
        2
 70
   128
 43
0.0
 10
0.2651450085879006
 20
0.0947899947358479
 10
0.2650145467360687
 20
0.0932251933076032
  0
LWPOLYLINE
  5
1389
330
2
100
AcDbEntity
  8
Vista
370
     0
100
AcDbPolyline
 90
        6
 70
   128
 43
0.0
 10
0.2682760589529707
 20
0.09739799768127
 10
0.2711461908572801
 20
0.0976587976367967
 10
0.2724507962683305
 20
0.0979195992873798
 10
0.2701025065284384
 20
0.0963547961640785
 10
0.2689283629692198
 20
0.0953115946469012
 10
0.2689283629692198
 20
0.094137993999496
  0
LWPOLYLINE
  5
138A
330
2
100
AcDbEntity
  8
Vista
370
     0
100
AcDbPolyline
 90
        9
 70
   128
 43
0.0
 10
0.2832790172478781
 20
0.1011796029691538
 10
0.282496254001245
 20
0.1035268059590493
 10
0.2827571750834608
 20
0.1049612082570519
 10
0.2839313212641272
 20
0.1067868096408233
 10
0.2858882280699788
 20
0.1071780104216486
 10
0.2866709913166119
 20
0.1071780104216486
 10
0.2875842137936217
 20
0.1065260096852825
 10
0.2891497402868808
 20
0.1048308074317532
 10
0.2907152667801398
 20
0.1056132089934039
  0
LWPOLYLINE
  5
138B
330
2
100
AcDbEntity
  8
Vista
370
     0
100
AcDbPolyline
 90
        9
 70
   128
 43
0.0
 10
0.2904543456979311
 20
0.0959635970783239
 10
0.289019281056504
 20
0.0960939962085519
 10
0.2878451348758304
 20
0.0967459969449038
 10
0.2865405320862351
 20
0.0954419954721999
 10
0.2865405320862351
 20
0.0937467932186707
 10
0.2869319123988205
 20
0.0932251933076032
 10
0.2888888192046721
 20
0.0925731925712512
 10
0.2909761878623556
 20
0.0921819917904259
 10
0.2960641476547252
 20
0.0920515909651272
  0
LWPOLYLINE
  5
138C
330
2
100
AcDbEntity
  8
Vista
370
     0
100
AcDbPolyline
 90
       11
 70
   128
 43
0.0
 10
0.284192242346343
 20
0.0977891984620811
 10
0.2856273069877702
 20
0.0976587976367967
 10
0.2866709913166119
 20
0.0976587976367967
 10
0.2874537545632449
 20
0.0979195992873798
 10
0.2871928334810292
 20
0.0984411991984473
 10
0.2871928334810292
 20
0.0996148015409091
 10
0.2871928334810292
 20
0.1017012028802213
 10
0.2877146756454536
 20
0.102483604441872
 10
0.2884974388920796
 20
0.1030052043529253
 10
0.289019281056504
 20
0.1031356051782239
 10
0.2894106613690894
 20
0.1032660060035084
  0
LWPOLYLINE
  5
138D
330
2
100
AcDbEntity
  8
0
  6
Continuous
 62
     4
370
     0
100
AcDbPolyline
 90
        2
 70
   128
 43
0.0
 10
0.260709350190325
 20
0.1065260096852825
 10
0.2606460764238534
 20
0.1065260096852825
  0
LWPOLYLINE
  5
1390
330
2
100
AcDbEntity
  8
Vista
370
     0
100
AcDbPolyline
 90
        6
 70
   128
 43
0.0
 10
0.247520737848987
 20
0.1070516418758026
 10
0.2471414565368448
 20
0.1071780104216486
 10
0.2457063918954176
 20
0.1067868096408233
 10
0.2445322483361991
 20
0.1061348089044571
 10
0.2438799443199429
 20
0.1045700074762266
 10
0.2427058007607243
 20
0.1037876059145759
  0
LWPOLYLINE
  5
1392
330
2
100
AcDbEntity
  8
Vista
370
     0
100
AcDbPolyline
 90
        2
 70
   128
 43
0.0
 10
0.2472719183886767
 20
0.1036572067843338
 10
0.2460977722080031
 20
0.1052220082125785
  0
LWPOLYLINE
  5
1393
330
2
100
AcDbEntity
  8
Vista
370
     0
100
AcDbPolyline
 90
       42
 70
   128
 43
0.0
 10
0.2965149139202481
 20
0.0948457112980066
 10
0.2942975185719376
 20
0.0944024383300928
 10
0.291932299488522
 20
0.0944024383300928
 10
0.2907496912575382
 20
0.095880017149895
 10
0.2908975176140913
 20
0.098391900126515
 10
0.2894192566700013
 20
0.1001649936932551
 10
0.2898627331182126
 20
0.1026768766698751
 10
0.2910453439706444
 20
0.1048932432045149
 10
0.2922279522016282
 20
0.1056320326144231
 10
0.2935583894106202
 20
0.1056320326144231
 10
0.2942975185719376
 20
0.1053365161724429
 10
0.2959236084940357
 20
0.1063708220243171
 10
0.299323609451875
 20
0.1063708220243171
 10
0.3006540466608669
 20
0.1063708220243171
 10
0.3019844812483967
 20
0.1053365161724429
 10
0.3028714393877223
 20
0.105484274393433
 10
0.3044975266883654
 20
0.1053365161724429
 10
0.3059757902539104
 20
0.1047454849835248
 10
0.3067149194152279
 20
0.1034156660797834
 10
0.3073062248414473
 20
0.1010515396290827
 10
0.306862745771781
 20
0.0989829313154331
 10
0.3049410057580317
 20
0.096914321306727
 10
0.3030192657442825
 20
0.0957322589289049
 10
0.3015410021787375
 20
0.0948457112980066
 10
0.2990279567387688
 20
0.094697954772073
 10
0.2975496957946788
 20
0.094697954772073
 10
0.2971062167250125
 20
0.094697954772073
 10
0.2967276500747289
 20
0.0950927558564558
 10
0.2968805332141358
 20
0.0977924461935516
 10
0.2982564840902384
 20
0.0976396333090861
 10
0.299836279152224
 20
0.0984036977314134
 10
0.3006006974707063
 20
0.0996771373052497
 10
0.3003458922383615
 20
0.1011033880684948
 10
0.2997343570592861
 20
0.1021221400665837
 10
0.2985112919440382
 20
0.10258057871998
 10
0.2968805332141358
 20
0.10258057871998
 10
0.2954026602450881
 20
0.1023258911442184
 10
0.2942815172227782
 20
0.1009505751840294
 10
0.2938228651831025
 20
0.0996261991120804
 10
0.2941286314619162
 20
0.0988111981916262
 10
0.2945872835015919
 20
0.0981999466537644
 10
0.295555543384495
 20
0.0980471354643555
  0
LWPOLYLINE
  5
1394
330
2
100
AcDbEntity
  8
Vista
370
     0
100
AcDbPolyline
 90
        2
 70
   128
 43
0.0
 10
0.3000401259595478
 20
0.1022240147578657
 10
0.3018237652074092
 20
0.1044143299434381
  0
LWPOLYLINE
  5
1395
330
2
100
AcDbEntity
  8
Vista
370
     0
100
AcDbPolyline
 90
        2
 70
   128
 43
0.0
 10
0.2960651564706325
 20
0.1029371409870237
 10
0.2957593901918187
 20
0.1052293308638923
  0
LWPOLYLINE
  5
1396
330
2
100
AcDbEntity
  8
Vista
370
     0
100
AcDbPolyline
 90
        2
 70
   128
 43
0.0
 10
0.293364215764889
 20
0.099167760458684
 10
0.2914786544240968
 20
0.0988111981916262
  0
LWPOLYLINE
  5
1397
330
2
100
AcDbEntity
  8
Vista
370
     0
100
AcDbPolyline
 90
       15
 70
   128
 43
0.0
 10
0.3140934445522632
 20
0.1006580030581006
 10
0.3084836425954762
 20
0.0976587976367967
 10
0.3061353528555841
 20
0.0951811955166733
 10
0.3036566038853081
 20
0.0942683948247805
 10
0.2966117372870869
 20
0.0938771940439551
 10
0.296481275435255
 20
0.0932251933076032
 10
0.2980468019285141
 20
0.0923123909206538
 10
0.2996123284217802
 20
0.0923123909206538
 10
0.3005255508987901
 20
0.0919211918348992
 10
0.3048307474445266
 20
0.0919211918348992
 10
0.3083531833650923
 20
0.0921819917904259
 10
0.3109623915657451
 20
0.0949203955611324
 10
0.3123974588286273
 20
0.0966155978146759
 10
0.3134411431574691
 20
0.0988323999792726
 10
0.3139629853218864
 20
0.0996148015409091
  0
LWPOLYLINE
  5
1398
330
2
100
AcDbEntity
  8
Vista
370
     0
100
AcDbPolyline
 90
        8
 70
   128
 43
0.0
 10
0.3168331146047478
 20
0.1032660060035084
 10
0.3135716023878459
 20
0.1013100037944525
 10
0.311092853417577
 20
0.1007884021883285
 10
0.3083531833650923
 20
0.1007884021883285
 10
0.3092664058421022
 20
0.1023532036165733
 10
0.3116146955819943
 20
0.1023532036165733
 10
0.3138325234700545
 20
0.1028748052226831
 10
0.3155285091936975
 20
0.1032660060035084
  0
LWPOLYLINE
  5
1399
330
2
100
AcDbEntity
  8
Vista
370
     0
100
AcDbPolyline
 90
       16
 70
   128
 43
0.0
 10
0.3180072607854214
 20
0.1020924036610467
 10
0.3182681818676301
 20
0.0984411991984473
 10
0.3191814043446399
 20
0.0968763977702025
 10
0.317485418620997
 20
0.0963547961640785
 10
0.3169635764565797
 20
0.0940075931741973
 10
0.3178767989335895
 20
0.0928339925267778
 10
0.316702655374371
 20
0.0921819917904259
 10
0.3140934445522632
 20
0.0921819917904259
 10
0.3116146955819943
 20
0.0921819917904259
 10
0.3103100901709439
 20
0.0923123909206538
 10
0.311092853417577
 20
0.0940075931741973
 10
0.3127888391412128
 20
0.0957027954277265
 10
0.3137020642396777
 20
0.0971371977257292
 10
0.3144848274863108
 20
0.0989628008045571
 10
0.3153980499633207
 20
0.1007884021883285
 10
0.3172244975387883
 20
0.102483604441872
  0
LWPOLYLINE
  5
139A
330
2
100
AcDbEntity
  8
Vista
370
     0
100
AcDbPolyline
 90
       23
 70
   128
 43
0.0
 10
0.3328797572284969
 20
0.1041788066954012
 10
0.3305314701100599
 20
0.1048308074317532
 10
0.3262262709428612
 20
0.1037876059145759
 10
0.3243998259888414
 20
0.1019620045308045
 10
0.3228342994955824
 20
0.1003972014075032
 10
0.3202250886734816
 20
0.0970067969004447
 10
0.319964167591273
 20
0.0954419954721999
 10
0.3206164689860671
 20
0.0928339925267778
 10
0.3229647587259592
 20
0.0919211918348992
 10
0.326356732794693
 20
0.0923123909206538
 10
0.3306619293404367
 20
0.0919211918348992
 10
0.3345757455735878
 20
0.0920515909651272
 10
0.3379677170208666
 20
0.0934859932631298
 10
0.3397941645963414
 20
0.0949203955611324
 10
0.3414901503199843
 20
0.0960939962085519
 10
0.3403160067607587
 20
0.0971371977257292
 10
0.3377067959386579
 20
0.0983108000682052
 10
0.3370544945438638
 20
0.1002668022772752
 10
0.3361412694453989
 20
0.1014404029246805
 10
0.3347062048039717
 20
0.1013100037944525
 10
0.3331406783107056
 20
0.1017012028802213
 10
0.3327492979981201
 20
0.1030052043529253
 10
0.3327492979981201
 20
0.1040484058701026
  0
LWPOLYLINE
  5
139B
330
2
100
AcDbEntity
  8
Vista
370
     0
100
AcDbPolyline
 90
        9
 70
   128
 43
0.0
 10
0.3478827155234043
 20
0.0990931999347993
 10
0.3456648876353441
 20
0.1022228044863311
 10
0.3439689019117083
 20
0.1040484058701026
 10
0.3418815332540248
 20
0.1053524073428207
 10
0.3397941645963414
 20
0.106395608859998
 10
0.3371849537742406
 20
0.1065260096852825
 10
0.3345757455735878
 20
0.1062652097297558
 10
0.3335320612447461
 20
0.1054828081681052
 10
0.3326188361462883
 20
0.1050916073872798
  0
LWPOLYLINE
  5
139C
330
2
100
AcDbEntity
  8
Vista
370
     0
100
AcDbPolyline
 90
        4
 70
   128
 43
0.0
 10
0.341751071402193
 20
0.1027444043973986
 10
0.3401855475303819
 20
0.1031356051782239
 10
0.3377067959386579
 20
0.102483604441872
 10
0.3374458748564493
 20
0.1019620045308045
  0
LWPOLYLINE
  5
139D
330
2
100
AcDbEntity
  8
Vista
370
     0
100
AcDbPolyline
 90
        6
 70
   128
 43
0.0
 10
0.3467085719641858
 20
0.0962243970338506
 10
0.3454039665531354
 20
0.0979195992873798
 10
0.3439689019117083
 20
0.0989628008045571
 10
0.341751071402193
 20
0.1000060006266779
 10
0.34005508567855
 20
0.1000060006266779
 10
0.3392723224319241
 20
0.099223600760098
  0
LWPOLYLINE
  5
139E
330
2
100
AcDbEntity
  8
Vista
370
     0
100
AcDbPolyline
 90
       13
 70
   128
 43
0.0
 10
0.3510137685099295
 20
0.0947899947358479
 10
0.3474913352108189
 20
0.0960939962085519
 10
0.3450125862405429
 20
0.0954419954721999
 10
0.3422729135666103
 20
0.0950507946913746
 10
0.3405769278429744
 20
0.0945291947803071
 10
0.3383590999549142
 20
0.0930947924823045
 10
0.3399246264481732
 20
0.0927035917014791
 10
0.341751071402193
 20
0.0927035917014791
 10
0.3434470597472838
 20
0.0921819917904259
 10
0.3463171916516003
 20
0.0920515909651272
 10
0.3480131773752362
 20
0.0927035917014791
 10
0.349839624950711
 20
0.0927035917014791
 10
0.3508833092795527
 20
0.0929643933520765
  0
LWPOLYLINE
  5
139F
330
2
100
AcDbEntity
  8
Vista
370
     0
100
AcDbPolyline
 90
        6
 70
   129
 43
0.0
 10
0.3288354817649619
 20
0.0983108000682052
 10
0.3272699552717029
 20
0.0975283985065545
 10
0.3270090341894942
 20
0.0960939962085519
 10
0.3292268646990095
 20
0.0954419954721999
 10
0.3320969939818639
 20
0.0967459969449038
 10
0.3300096279456355
 20
0.0981803992429065
  0
LWPOLYLINE
  5
13A0
330
2
100
AcDbEntity
  8
Vista
370
     0
100
AcDbPolyline
 90
        3
 70
   128
 43
0.0
 10
0.3297487068634268
 20
0.0984411991984473
 10
0.3307923885708135
 20
0.0998756014964499
 10
0.3324883769159115
 20
0.1005276022328019
  0
LWPOLYLINE
  5
13A1
330
2
100
AcDbEntity
  8
Vista
370
     0
100
AcDbPolyline
 90
        4
 70
   128
 43
0.0
 10
0.3274004171235347
 20
0.0983108000682052
 10
0.3271394960413261
 20
0.0994844007156246
 10
0.3271394960413261
 20
0.1007884021883285
 10
0.3275308763539115
 20
0.1015708037499792
  0
LWPOLYLINE
  5
13A2
330
2
100
AcDbEntity
  8
Vista
370
     0
100
AcDbPolyline
 90
        2
 70
   128
 43
0.0
 10
0.326356732794693
 20
0.0966155978146759
 10
0.3213992322327002
 20
0.0958331962530252
  0
LWPOLYLINE
  5
13A3
330
2
100
AcDbEntity
  8
Vista
370
     0
100
AcDbPolyline
 90
        2
 70
   128
 43
0.0
 10
0.3272699552717029
 20
0.0953115946469012
 10
0.324791206301434
 20
0.0928339925267778
  0
LWPOLYLINE
  5
13A4
330
2
100
AcDbEntity
  8
Vista
370
     0
100
AcDbPolyline
 90
        2
 70
   128
 43
0.0
 10
0.3294877857812182
 20
0.0947899947358479
 10
0.3293573239293863
 20
0.0932251933076032
  0
LWPOLYLINE
  5
13A5
330
2
100
AcDbEntity
  8
Vista
370
     0
100
AcDbPolyline
 90
        6
 70
   128
 43
0.0
 10
0.3326188361462883
 20
0.09739799768127
 10
0.3354889680505977
 20
0.0976587976367967
 10
0.3367935734616481
 20
0.0979195992873798
 10
0.334445283721756
 20
0.0963547961640785
 10
0.3332711401625374
 20
0.0953115946469012
 10
0.3332711401625374
 20
0.094137993999496
  0
LWPOLYLINE
  5
13A6
330
2
100
AcDbEntity
  8
Vista
370
     0
100
AcDbPolyline
 90
        9
 70
   128
 43
0.0
 10
0.3476217944411957
 20
0.1011796029691538
 10
0.3468390311945626
 20
0.1035268059590493
 10
0.3470999522767784
 20
0.1049612082570519
 10
0.3482740984574448
 20
0.1067868096408233
 10
0.3502310052632964
 20
0.1071780104216486
 10
0.3510137685099295
 20
0.1071780104216486
 10
0.3519269909869394
 20
0.1065260096852825
 10
0.3534925174801984
 20
0.1048308074317532
 10
0.3550580439734574
 20
0.1056132089934039
  0
LWPOLYLINE
  5
13A7
330
2
100
AcDbEntity
  8
Vista
370
     0
100
AcDbPolyline
 90
        9
 70
   128
 43
0.0
 10
0.3547971228912488
 20
0.0959635970783239
 10
0.3533620582498216
 20
0.0960939962085519
 10
0.352187912069148
 20
0.0967459969449038
 10
0.3508833092795527
 20
0.0954419954721999
 10
0.3508833092795527
 20
0.0937467932186707
 10
0.3512746895921381
 20
0.0932251933076032
 10
0.3532315963979897
 20
0.0925731925712512
 10
0.3553189650556732
 20
0.0921819917904259
 10
0.3604069248480428
 20
0.0920515909651272
  0
LWPOLYLINE
  5
13A8
330
2
100
AcDbEntity
  8
Vista
370
     0
100
AcDbPolyline
 90
       11
 70
   128
 43
0.0
 10
0.3485350195396606
 20
0.0977891984620811
 10
0.3499700841810878
 20
0.0976587976367967
 10
0.3510137685099295
 20
0.0976587976367967
 10
0.3517965317565626
 20
0.0979195992873798
 10
0.3515356106743468
 20
0.0984411991984473
 10
0.3515356106743468
 20
0.0996148015409091
 10
0.3515356106743468
 20
0.1017012028802213
 10
0.3520574528387712
 20
0.102483604441872
 10
0.3528402160853972
 20
0.1030052043529253
 10
0.3533620582498216
 20
0.1031356051782239
 10
0.353753438562407
 20
0.1032660060035084
  0
LWPOLYLINE
  5
13A9
330
2
100
AcDbEntity
  8
Vista
370
     0
100
AcDbPolyline
 90
        9
 70
   128
 43
0.0
 10
0.3250521273836426
 20
0.1065260096852825
 10
0.3238779838244241
 20
0.1065260096852825
 10
0.3217906151667407
 20
0.1061348089044571
 10
0.3202250886734816
 20
0.1050916073872798
 10
0.3194423254268486
 20
0.1041788066954012
 10
0.3194423254268486
 20
0.1027444043973986
 10
0.321529694084532
 20
0.1015708037499792
 10
0.321529694084532
 20
0.1010492021438551
 10
0.3227038376437505
 20
0.1006580030581006
  0
LWPOLYLINE
  5
13AA
330
2
100
AcDbEntity
  8
Vista
370
     0
100
AcDbPolyline
 90
        3
 70
   128
 43
0.0
 10
0.324791206301434
 20
0.1049612082570519
 10
0.3225733784133737
 20
0.1048308074317532
 10
0.3213992322327002
 20
0.1039180067398746
  0
LWPOLYLINE
  5
13AB
330
2
100
AcDbEntity
  8
Vista
370
     0
100
AcDbPolyline
 90
        2
 70
   128
 43
0.0
 10
0.3246607470710572
 20
0.1040484058701026
 10
0.3227038376437505
 20
0.1032660060035084
  0
LWPOLYLINE
  5
13AC
330
2
100
AcDbEntity
  8
Vista
370
     0
100
AcDbPolyline
 90
       10
 70
   128
 43
0.0
 10
0.3186595621802155
 20
0.106395608859998
 10
0.3176158778513809
 20
0.1066564105105812
 10
0.3155285091936975
 20
0.1069172104661078
 10
0.314223906404095
 20
0.1067868096408233
 10
0.312658379910836
 20
0.1067868096408233
 10
0.3114842337301624
 20
0.1071780104216486
 10
0.3100491690887352
 20
0.1067868096408233
 10
0.3088750255295167
 20
0.1061348089044571
 10
0.3082227215132605
 20
0.1045700074762266
 10
0.3070485779540419
 20
0.1037876059145759
  0
LWPOLYLINE
  5
13AD
330
2
100
AcDbEntity
  8
Vista
370
     0
100
AcDbPolyline
 90
        2
 70
   128
 43
0.0
 10
0.3131802220752604
 20
0.1036572067843338
 10
0.3131802220752604
 20
0.1058740089489305
  0
LWPOLYLINE
  5
13AE
330
2
100
AcDbEntity
  8
Vista
370
     0
100
AcDbPolyline
 90
        2
 70
   128
 43
0.0
 10
0.3116146955819943
 20
0.1036572067843338
 10
0.3104405494013207
 20
0.1052220082125785
  0
LWPOLYLINE
  5
13AF
330
2
100
AcDbEntity
  8
Vista
370
     0
100
AcDbPolyline
 90
       42
 70
   128
 43
0.0
 10
0.3608576911135657
 20
0.0948457112980066
 10
0.3586402957652552
 20
0.0944024383300928
 10
0.3562750766818397
 20
0.0944024383300928
 10
0.3550924684508558
 20
0.095880017149895
 10
0.3552402948074089
 20
0.098391900126515
 10
0.3537620338633189
 20
0.1001649936932551
 10
0.3542055103115302
 20
0.1026768766698751
 10
0.355388121163962
 20
0.1048932432045149
 10
0.3565707293949458
 20
0.1056320326144231
 10
0.3579011666039378
 20
0.1056320326144231
 10
0.3586402957652552
 20
0.1053365161724429
 10
0.3602663856873463
 20
0.1063708220243171
 10
0.3636663866451926
 20
0.1063708220243171
 10
0.3649968238541774
 20
0.1063708220243171
 10
0.3663272584417143
 20
0.1053365161724429
 10
0.3672142165810399
 20
0.105484274393433
 10
0.368840303881683
 20
0.1053365161724429
 10
0.370318567447228
 20
0.1047454849835248
 10
0.3710576966085455
 20
0.1034156660797834
 10
0.3716490020347649
 20
0.1010515396290827
 10
0.3712055229650986
 20
0.0989829313154331
 10
0.3692837829513493
 20
0.096914321306727
 10
0.367362042937593
 20
0.0957322589289049
 10
0.3658837793720551
 20
0.0948457112980066
 10
0.3633707339320864
 20
0.094697954772073
 10
0.3618924729879964
 20
0.094697954772073
 10
0.3614489939183301
 20
0.094697954772073
 10
0.3610704272680465
 20
0.0950927558564558
 10
0.3612233104074463
 20
0.0977924461935516
 10
0.362599261283556
 20
0.0976396333090861
 10
0.3641790563455416
 20
0.0984036977314134
 10
0.3649434746640239
 20
0.0996771373052497
 10
0.3646886694316791
 20
0.1011033880684948
 10
0.3640771342526037
 20
0.1021221400665837
 10
0.3628540691373558
 20
0.10258057871998
 10
0.3612233104074463
 20
0.10258057871998
 10
0.3597454374384057
 20
0.1023258911442184
 10
0.3586242944160958
 20
0.1009505751840294
 10
0.3581656423764201
 20
0.0996261991120804
 10
0.3584714086552339
 20
0.0988111981916262
 10
0.3589300606949024
 20
0.0981999466537644
 10
0.3598983205778126
 20
0.0980471354643555
  0
LWPOLYLINE
  5
13B0
330
2
100
AcDbEntity
  8
Vista
370
     0
100
AcDbPolyline
 90
        2
 70
   128
 43
0.0
 10
0.3643829031528654
 20
0.1022240147578657
 10
0.3661665424007197
 20
0.1044143299434381
  0
LWPOLYLINE
  5
13B1
330
2
100
AcDbEntity
  8
Vista
370
     0
100
AcDbPolyline
 90
        2
 70
   128
 43
0.0
 10
0.3604079336639501
 20
0.1029371409870237
 10
0.3601021673851363
 20
0.1052293308638923
  0
LWPOLYLINE
  5
13B2
330
2
100
AcDbEntity
  8
Vista
370
     0
100
AcDbPolyline
 90
        2
 70
   128
 43
0.0
 10
0.3577069929582066
 20
0.099167760458684
 10
0.3558214316174073
 20
0.0988111981916262
  0
LWPOLYLINE
  5
13B3
330
2
100
AcDbEntity
  8
Vista
370
     0
100
AcDbPolyline
 90
       15
 70
   128
 43
0.0
 10
0.3784362217455808
 20
0.1006580030581006
 10
0.3728264197887867
 20
0.0976587976367967
 10
0.3704781300489017
 20
0.0951811955166733
 10
0.3679993810786257
 20
0.0942683948247805
 10
0.3609545144804045
 20
0.0938771940439551
 10
0.3608240526285726
 20
0.0932251933076032
 10
0.3623895791218317
 20
0.0923123909206538
 10
0.3639551056150978
 20
0.0923123909206538
 10
0.3648683280921077
 20
0.0919211918348992
 10
0.3691735246378442
 20
0.0919211918348992
 10
0.3726959605584099
 20
0.0921819917904259
 10
0.3753051687590627
 20
0.0949203955611324
 10
0.3767402360219449
 20
0.0966155978146759
 10
0.3777839203507867
 20
0.0988323999792726
 10
0.378305762515204
 20
0.0996148015409091
  0
LWPOLYLINE
  5
13B4
330
2
100
AcDbEntity
  8
Vista
370
     0
100
AcDbPolyline
 90
        8
 70
   128
 43
0.0
 10
0.3811758917980654
 20
0.1032660060035084
 10
0.3779143795811635
 20
0.1013100037944525
 10
0.3754356306108946
 20
0.1007884021883285
 10
0.3726959605584099
 20
0.1007884021883285
 10
0.3736091830354198
 20
0.1023532036165733
 10
0.3759574727753119
 20
0.1023532036165733
 10
0.3781753006633721
 20
0.1028748052226831
 10
0.3798712863870151
 20
0.1032660060035084
  0
LWPOLYLINE
  5
13B5
330
2
100
AcDbEntity
  8
Vista
370
     0
100
AcDbPolyline
 90
        3
 70
   128
 43
0.0
 10
0.382350037978739
 20
0.1020924036610467
 10
0.3826109590609476
 20
0.0984411991984473
 10
0.3833694706098072
 20
0.0971414940500569
  0
LWPOLYLINE
  5
13C8
330
2
100
AcDbEntity
  8
Vista
370
     0
100
AcDbPolyline
 90
       10
 70
   128
 43
0.0
 10
0.3830023393735331
 20
0.106395608859998
 10
0.3819586550446985
 20
0.1066564105105812
 10
0.3798712863870151
 20
0.1069172104661078
 10
0.3785666835974126
 20
0.1067868096408233
 10
0.3770011571041536
 20
0.1067868096408233
 10
0.37582701092348
 20
0.1071780104216486
 10
0.3743919462820529
 20
0.1067868096408233
 10
0.3732178027228343
 20
0.1061348089044571
 10
0.3725654987065781
 20
0.1045700074762266
 10
0.3713913551473595
 20
0.1037876059145759
  0
LWPOLYLINE
  5
13C9
330
2
100
AcDbEntity
  8
Vista
370
     0
100
AcDbPolyline
 90
        2
 70
   128
 43
0.0
 10
0.3775229992685709
 20
0.1036572067843338
 10
0.3775229992685709
 20
0.1058740089489305
  0
LWPOLYLINE
  5
13CA
330
2
100
AcDbEntity
  8
Vista
370
     0
100
AcDbPolyline
 90
        2
 70
   128
 43
0.0
 10
0.3759574727753119
 20
0.1036572067843338
 10
0.3747833265946383
 20
0.1052220082125785
  0
LWPOLYLINE
  5
13D5
330
2
100
AcDbEntity
  8
Vista
370
     0
100
AcDbPolyline
 90
        2
 70
   128
 43
0.0
 10
0.2097998288470819
 20
0.1160820066654338
 10
0.2097998288470819
 20
0.1148024109024419
  0
LWPOLYLINE
  5
13D7
330
2
100
AcDbEntity
  8
Vista
370
     0
100
AcDbPolyline
 90
        2
 70
   128
 43
0.0
 10
0.210871978197261
 20
0.114770676023312
 10
0.2109767850423838
 20
0.1166563048062634
  0
LWPOLYLINE
  5
13D9
330
2
100
AcDbEntity
  8
Vista
370
     0
100
AcDbPolyline
 90
        6
 70
   128
 43
0.0
 10
0.2148919511057556
 20
0.114770676023312
 10
0.2150304424681479
 20
0.1172623386509883
 10
0.2157476510394147
 20
0.1179142478542019
 10
0.21728755020807
 20
0.1179142478542019
 10
0.2178397746640641
 20
0.1173620233982007
 10
0.2178397746640641
 20
0.1148024109024419
  0
LWPOLYLINE
  5
13DA
330
2
100
AcDbEntity
  8
Vista
370
     0
100
AcDbPolyline
 90
        3
 70
   128
 43
0.0
 10
0.2172536575596216
 20
0.1192261888374645
 10
0.2177562161982323
 20
0.1192192121199582
 10
0.2183570873064724
 20
0.118557852201647
  0
LWPOLYLINE
  5
13DB
330
2
100
AcDbEntity
  8
Vista
370
     0
100
AcDbPolyline
 90
        6
 70
   128
 43
0.0
 10
0.2189119240142432
 20
0.114770676023312
 10
0.2190504153766355
 20
0.1172623386509883
 10
0.2197676239479094
 20
0.1179142478542019
 10
0.2213075231165646
 20
0.1179142478542019
 10
0.2218597475725588
 20
0.1173620233982007
 10
0.2218597475725588
 20
0.1148024109024419
  0
LWPOLYLINE
  5
13DC
330
2
100
AcDbEntity
  8
Vista
370
     0
100
AcDbPolyline
 90
        4
 70
   128
 43
0.0
 10
0.2185624843283236
 20
0.1186169206595906
 10
0.2193659098675624
 20
0.1192526725682939
 10
0.2217761891067269
 20
0.1192192121199582
 10
0.2223770602149671
 20
0.118557852201647
  0
LWPOLYLINE
  5
13DD
330
2
100
AcDbEntity
  8
Vista
370
     0
100
AcDbPolyline
 90
        6
 70
   128
 43
0.0
 10
0.2229318969227378
 20
0.114770676023312
 10
0.2230703882851301
 20
0.1172623386509883
 10
0.2237875968563969
 20
0.1179142478542019
 10
0.2253274960250593
 20
0.1179142478542019
 10
0.2258797204810463
 20
0.1173620233982007
 10
0.2258797204810463
 20
0.1148024109024419
  0
LWPOLYLINE
  5
13DE
330
2
100
AcDbEntity
  8
Vista
370
     0
100
AcDbPolyline
 90
        4
 70
   128
 43
0.0
 10
0.2225824572368182
 20
0.1186169206595906
 10
0.2233858827760571
 20
0.1192526725682939
 10
0.2257961620152145
 20
0.1192192121199582
 10
0.2263970331234617
 20
0.118557852201647
  0
LWPOLYLINE
  5
13DF
330
2
100
AcDbEntity
  8
Vista
370
     0
100
AcDbPolyline
 90
        6
 70
   128
 43
0.0
 10
0.2269518698312254
 20
0.114770676023312
 10
0.2270903611936248
 20
0.1172623386509883
 10
0.2278075697648916
 20
0.1179142478542019
 10
0.2293474689335468
 20
0.1179142478542019
 10
0.229899693389541
 20
0.1173620233982007
 10
0.229899693389541
 20
0.1148024109024419
  0
LWPOLYLINE
  5
13E0
330
2
100
AcDbEntity
  8
Vista
370
     0
100
AcDbPolyline
 90
        4
 70
   128
 43
0.0
 10
0.2266024301453058
 20
0.1186169206595906
 10
0.2274058556845446
 20
0.1192526725682939
 10
0.2298161349237091
 20
0.1192192121199582
 10
0.2304170060319493
 20
0.118557852201647
  0
LWPOLYLINE
  5
13E1
330
2
100
AcDbEntity
  8
Vista
370
     0
100
AcDbPolyline
 90
        6
 70
   128
 43
0.0
 10
0.23097184273972
 20
0.114770676023312
 10
0.2311103341021123
 20
0.1172623386509883
 10
0.2318275426733791
 20
0.1179142478542019
 10
0.2333674418420415
 20
0.1179142478542019
 10
0.2339196662980356
 20
0.1173620233982007
 10
0.2339196662980356
 20
0.1148024109024419
  0
LWPOLYLINE
  5
13E2
330
2
100
AcDbEntity
  8
Vista
370
     0
100
AcDbPolyline
 90
        4
 70
   128
 43
0.0
 10
0.2306224030538004
 20
0.1186169206595906
 10
0.2314258285930393
 20
0.1192526725682939
 10
0.2338361078322038
 20
0.1192192121199582
 10
0.2344369789404439
 20
0.118557852201647
  0
LWPOLYLINE
  5
13E3
330
2
100
AcDbEntity
  8
Vista
370
     0
100
AcDbPolyline
 90
        6
 70
   128
 43
0.0
 10
0.2349918156482076
 20
0.114770676023312
 10
0.235130307010607
 20
0.1172623386509883
 10
0.2358475155818738
 20
0.1179142478542019
 10
0.237387414750529
 20
0.1179142478542019
 10
0.2379396392065232
 20
0.1173620233982007
 10
0.2379396392065232
 20
0.1148024109024419
  0
LWPOLYLINE
  5
13E4
330
2
100
AcDbEntity
  8
Vista
370
     0
100
AcDbPolyline
 90
        4
 70
   128
 43
0.0
 10
0.234642375962288
 20
0.1186169206595906
 10
0.2354458015015268
 20
0.1192526725682939
 10
0.2378560807406913
 20
0.1192192121199582
 10
0.2384569518489314
 20
0.118557852201647
  0
LWPOLYLINE
  5
13E5
330
2
100
AcDbEntity
  8
Vista
370
     0
100
AcDbPolyline
 90
        6
 70
   128
 43
0.0
 10
0.2390117885567022
 20
0.114770676023312
 10
0.2391502799190945
 20
0.1172623386509883
 10
0.2398674884903684
 20
0.1179142478542019
 10
0.2414073876590237
 20
0.1179142478542019
 10
0.2419596121150178
 20
0.1173620233982007
 10
0.2419596121150178
 20
0.1148024109024419
  0
LWPOLYLINE
  5
13E6
330
2
100
AcDbEntity
  8
Vista
370
     0
100
AcDbPolyline
 90
        4
 70
   128
 43
0.0
 10
0.2386623488707826
 20
0.1186169206595906
 10
0.2394657744100215
 20
0.1192526725682939
 10
0.241876053649186
 20
0.1192192121199582
 10
0.2424769247574261
 20
0.118557852201647
  0
LWPOLYLINE
  5
13E7
330
2
100
AcDbEntity
  8
Vista
370
     0
100
AcDbPolyline
 90
        6
 70
   128
 43
0.0
 10
0.2430317614651969
 20
0.114770676023312
 10
0.2431702528275892
 20
0.1172623386509883
 10
0.243887461398856
 20
0.1179142478542019
 10
0.2454273605675112
 20
0.1179142478542019
 10
0.2459795850235054
 20
0.1173620233982007
 10
0.2459795850235054
 20
0.1148024109024419
  0
LWPOLYLINE
  5
13E8
330
2
100
AcDbEntity
  8
Vista
370
     0
100
AcDbPolyline
 90
        4
 70
   128
 43
0.0
 10
0.2426823217792773
 20
0.1186169206595906
 10
0.243485747318509
 20
0.1192526725682939
 10
0.2458960265576735
 20
0.1192192121199582
 10
0.2464968976659136
 20
0.118557852201647
  0
LWPOLYLINE
  5
13E9
330
2
100
AcDbEntity
  8
Vista
370
     0
100
AcDbPolyline
 90
        3
 70
   128
 43
0.0
 10
0.2470517343736844
 20
0.114770676023312
 10
0.2471902257360767
 20
0.1172623386509883
 10
0.247520737848987
 20
0.1175627587753561
  0
LWPOLYLINE
  5
13EA
330
2
100
AcDbEntity
  8
Vista
370
     0
100
AcDbPolyline
 90
        3
 70
   128
 43
0.0
 10
0.2467022946877648
 20
0.1186169206595906
 10
0.2475057202270037
 20
0.1192526725682939
 10
0.247520737848987
 20
0.1192524640877343
  0
LWPOLYLINE
  5
13EF
330
2
100
AcDbEntity
  8
Vista
370
     0
100
AcDbPolyline
 90
        4
 70
   128
 43
0.0
 10
0.2606460764238534
 20
0.1179142478542019
 10
0.2615072522014827
 20
0.1179142478542019
 10
0.2620594766574769
 20
0.1173620233982007
 10
0.2620594766574769
 20
0.1148024109024419
  0
LWPOLYLINE
  5
13F0
330
2
100
AcDbEntity
  8
Vista
370
     0
100
AcDbPolyline
 90
        3
 70
   128
 43
0.0
 10
0.2606460764238534
 20
0.1192376735085985
 10
0.261975918191645
 20
0.1192192121199582
 10
0.2625767892998851
 20
0.118557852201647
  0
LWPOLYLINE
  5
13F1
330
2
100
AcDbEntity
  8
Vista
370
     0
100
AcDbPolyline
 90
        6
 70
   128
 43
0.0
 10
0.2631316260076488
 20
0.114770676023312
 10
0.2632701173700482
 20
0.1172623386509883
 10
0.263987325941315
 20
0.1179142478542019
 10
0.2655272251099703
 20
0.1179142478542019
 10
0.2660794495659644
 20
0.1173620233982007
 10
0.2660794495659644
 20
0.1148024109024419
  0
LWPOLYLINE
  5
13F2
330
2
100
AcDbEntity
  8
Vista
370
     0
100
AcDbPolyline
 90
        4
 70
   128
 43
0.0
 10
0.2627821863217292
 20
0.1186169206595906
 10
0.2635856118609681
 20
0.1192526725682939
 10
0.2659958911001325
 20
0.1192192121199582
 10
0.2665967622083727
 20
0.118557852201647
  0
LWPOLYLINE
  5
13F3
330
2
100
AcDbEntity
  8
Vista
370
     0
100
AcDbPolyline
 90
        6
 70
   128
 43
0.0
 10
0.2671515989161435
 20
0.114770676023312
 10
0.2672900902785358
 20
0.1172623386509883
 10
0.2680072988498097
 20
0.1179142478542019
 10
0.2695471980184649
 20
0.1179142478542019
 10
0.2700994224744591
 20
0.1173620233982007
 10
0.2700994224744591
 20
0.1148024109024419
  0
LWPOLYLINE
  5
13F4
330
2
100
AcDbEntity
  8
Vista
370
     0
100
AcDbPolyline
 90
        4
 70
   128
 43
0.0
 10
0.2668021592302239
 20
0.1186169206595906
 10
0.2676055847694627
 20
0.1192526725682939
 10
0.2700158640086272
 20
0.1192192121199582
 10
0.2706167351168673
 20
0.118557852201647
  0
LWPOLYLINE
  5
13F5
330
2
100
AcDbEntity
  8
Vista
370
     0
100
AcDbPolyline
 90
        6
 70
   128
 43
0.0
 10
0.2711715718246381
 20
0.114770676023312
 10
0.2713100631870304
 20
0.1172623386509883
 10
0.2720272717582972
 20
0.1179142478542019
 10
0.2735671709269525
 20
0.1179142478542019
 10
0.2741193953829466
 20
0.1173620233982007
 10
0.2741193953829466
 20
0.1148024109024419
  0
LWPOLYLINE
  5
13F6
330
2
100
AcDbEntity
  8
Vista
370
     0
100
AcDbPolyline
 90
        4
 70
   128
 43
0.0
 10
0.2708221321387185
 20
0.1186169206595906
 10
0.2716255576779503
 20
0.1192526725682939
 10
0.2740358369171147
 20
0.1192192121199582
 10
0.2746367080253549
 20
0.118557852201647
  0
LWPOLYLINE
  5
13F7
330
2
100
AcDbEntity
  8
Vista
370
     0
100
AcDbPolyline
 90
        6
 70
   128
 43
0.0
 10
0.2751915447331257
 20
0.114770676023312
 10
0.275330036095518
 20
0.1172623386509883
 10
0.2760472446667919
 20
0.1179142478542019
 10
0.2775871438354471
 20
0.1179142478542019
 10
0.2781393682914413
 20
0.1173620233982007
 10
0.2781393682914413
 20
0.1148024109024419
  0
LWPOLYLINE
  5
13F8
330
2
100
AcDbEntity
  8
Vista
370
     0
100
AcDbPolyline
 90
        4
 70
   128
 43
0.0
 10
0.2748421050472061
 20
0.1186169206595906
 10
0.2756455305864449
 20
0.1192526725682939
 10
0.2780558098256094
 20
0.1192192121199582
 10
0.2786566809338495
 20
0.118557852201647
  0
LWPOLYLINE
  5
13F9
330
2
100
AcDbEntity
  8
Vista
370
     0
100
AcDbPolyline
 90
        6
 70
   128
 43
0.0
 10
0.2792115176416203
 20
0.114770676023312
 10
0.2793500090040126
 20
0.1172623386509883
 10
0.2800672175752794
 20
0.1179142478542019
 10
0.2816071167439418
 20
0.1179142478542019
 10
0.2821593411999288
 20
0.1173620233982007
 10
0.2821593411999288
 20
0.1148024109024419
  0
LWPOLYLINE
  5
13FA
330
2
100
AcDbEntity
  8
Vista
370
     0
100
AcDbPolyline
 90
        4
 70
   128
 43
0.0
 10
0.2788620779557007
 20
0.1186169206595906
 10
0.2796655034949325
 20
0.1192526725682939
 10
0.2820757827340969
 20
0.1192192121199582
 10
0.2826766538423442
 20
0.118557852201647
  0
LWPOLYLINE
  5
13FB
330
2
100
AcDbEntity
  8
Vista
370
     0
100
AcDbPolyline
 90
        6
 70
   128
 43
0.0
 10
0.2832314905501079
 20
0.114770676023312
 10
0.2833699819125002
 20
0.1172623386509883
 10
0.2840871904837741
 20
0.1179142478542019
 10
0.2856270896524293
 20
0.1179142478542019
 10
0.2861793141084234
 20
0.1173620233982007
 10
0.2861793141084234
 20
0.1148024109024419
  0
LWPOLYLINE
  5
13FC
330
2
100
AcDbEntity
  8
Vista
370
     0
100
AcDbPolyline
 90
        4
 70
   128
 43
0.0
 10
0.2828820508641883
 20
0.1186169206595906
 10
0.2836854764034271
 20
0.1192526725682939
 10
0.2860957556425916
 20
0.1192192121199582
 10
0.2866966267508317
 20
0.118557852201647
  0
LWPOLYLINE
  5
13FD
330
2
100
AcDbEntity
  8
Vista
370
     0
100
AcDbPolyline
 90
        6
 70
   128
 43
0.0
 10
0.2872514634586025
 20
0.114770676023312
 10
0.2873899548209948
 20
0.1172623386509883
 10
0.2881071633922616
 20
0.1179142478542019
 10
0.289647062560924
 20
0.1179142478542019
 10
0.2901992870169181
 20
0.1173620233982007
 10
0.2901992870169181
 20
0.1148024109024419
  0
LWPOLYLINE
  5
13FE
330
2
100
AcDbEntity
  8
Vista
370
     0
100
AcDbPolyline
 90
        4
 70
   128
 43
0.0
 10
0.2869020237726829
 20
0.1186169206595906
 10
0.2877054493119218
 20
0.1192526725682939
 10
0.2901157285510862
 20
0.1192192121199582
 10
0.2907165996593264
 20
0.118557852201647
  0
LWPOLYLINE
  5
13FF
330
2
100
AcDbEntity
  8
Vista
370
     0
100
AcDbPolyline
 90
        6
 70
   128
 43
0.0
 10
0.2912714363670901
 20
0.114770676023312
 10
0.2914099277294895
 20
0.1172623386509883
 10
0.2921271363007562
 20
0.1179142478542019
 10
0.2936670354694115
 20
0.1179142478542019
 10
0.2942192599254056
 20
0.1173620233982007
 10
0.2942192599254056
 20
0.1148024109024419
  0
LWPOLYLINE
  5
1400
330
2
100
AcDbEntity
  8
Vista
370
     0
100
AcDbPolyline
 90
        4
 70
   128
 43
0.0
 10
0.2909219966811705
 20
0.1186169206595906
 10
0.2917254222204093
 20
0.1192526725682939
 10
0.2941357014595738
 20
0.1192192121199582
 10
0.2947365725678139
 20
0.118557852201647
  0
LWPOLYLINE
  5
1401
330
2
100
AcDbEntity
  8
Vista
370
     0
100
AcDbPolyline
 90
        6
 70
   128
 43
0.0
 10
0.2952914092755847
 20
0.114770676023312
 10
0.295429900637977
 20
0.1172623386509883
 10
0.2961471092092438
 20
0.1179142478542019
 10
0.2976870083779062
 20
0.1179142478542019
 10
0.2982392328339003
 20
0.1173620233982007
 10
0.2982392328339003
 20
0.1148024109024419
  0
LWPOLYLINE
  5
1402
330
2
100
AcDbEntity
  8
Vista
370
     0
100
AcDbPolyline
 90
        4
 70
   128
 43
0.0
 10
0.2949419695896651
 20
0.1186169206595906
 10
0.295745395128904
 20
0.1192526725682939
 10
0.2981556743680684
 20
0.1192192121199582
 10
0.2987565454763086
 20
0.118557852201647
  0
LWPOLYLINE
  5
1403
330
2
100
AcDbEntity
  8
Vista
370
     0
100
AcDbPolyline
 90
        6
 70
   128
 43
0.0
 10
0.2993113821840794
 20
0.114770676023312
 10
0.2994498735464717
 20
0.1172623386509883
 10
0.3001670821177385
 20
0.1179142478542019
 10
0.3017069812863937
 20
0.1179142478542019
 10
0.3022592057423878
 20
0.1173620233982007
 10
0.3022592057423878
 20
0.1148024109024419
  0
LWPOLYLINE
  5
1404
330
2
100
AcDbEntity
  8
Vista
370
     0
100
AcDbPolyline
 90
        4
 70
   128
 43
0.0
 10
0.2989619424981598
 20
0.1186169206595906
 10
0.2997653680373915
 20
0.1192526725682939
 10
0.302175647276556
 20
0.1192192121199582
 10
0.3027765183847961
 20
0.118557852201647
  0
LWPOLYLINE
  5
1405
330
2
100
AcDbEntity
  8
Vista
370
     0
100
AcDbPolyline
 90
        6
 70
   128
 43
0.0
 10
0.3033313550925669
 20
0.114770676023312
 10
0.3034698464549592
 20
0.1172623386509883
 10
0.3041870550262331
 20
0.1179142478542019
 10
0.3057269541948884
 20
0.1179142478542019
 10
0.3062791786508825
 20
0.1173620233982007
 10
0.3062791786508825
 20
0.1148024109024419
  0
LWPOLYLINE
  5
1406
330
2
100
AcDbEntity
  8
Vista
370
     0
100
AcDbPolyline
 90
        4
 70
   128
 43
0.0
 10
0.3029819154066473
 20
0.1186169206595906
 10
0.3037853409458862
 20
0.1192526725682939
 10
0.3061956201850506
 20
0.1192192121199582
 10
0.3067964912932908
 20
0.118557852201647
  0
LWPOLYLINE
  5
1407
330
2
100
AcDbEntity
  8
Vista
370
     0
100
AcDbPolyline
 90
        6
 70
   128
 43
0.0
 10
0.3073513280010616
 20
0.114770676023312
 10
0.3074898193634539
 20
0.1172623386509883
 10
0.3082070279347207
 20
0.1179142478542019
 10
0.309746927103383
 20
0.1179142478542019
 10
0.31029915155937
 20
0.1173620233982007
 10
0.31029915155937
 20
0.1148024109024419
  0
LWPOLYLINE
  5
1408
330
2
100
AcDbEntity
  8
Vista
370
     0
100
AcDbPolyline
 90
        4
 70
   128
 43
0.0
 10
0.307001888315142
 20
0.1186169206595906
 10
0.3078053138543737
 20
0.1192526725682939
 10
0.3102155930935382
 20
0.1192192121199582
 10
0.3108164642017854
 20
0.118557852201647
  0
LWPOLYLINE
  5
1409
330
2
100
AcDbEntity
  8
Vista
370
     0
100
AcDbPolyline
 90
        6
 70
   128
 43
0.0
 10
0.3113713009095491
 20
0.114770676023312
 10
0.3115097922719485
 20
0.1172623386509883
 10
0.3122270008432153
 20
0.1179142478542019
 10
0.3137669000118706
 20
0.1179142478542019
 10
0.3143191244678647
 20
0.1173620233982007
 10
0.3143191244678647
 20
0.1148024109024419
  0
LWPOLYLINE
  5
140A
330
2
100
AcDbEntity
  8
Vista
370
     0
100
AcDbPolyline
 90
        4
 70
   128
 43
0.0
 10
0.3110218612236295
 20
0.1186169206595906
 10
0.3118252867628684
 20
0.1192526725682939
 10
0.3142355660020328
 20
0.1192192121199582
 10
0.314836437110273
 20
0.118557852201647
  0
LWPOLYLINE
  5
140B
330
2
100
AcDbEntity
  8
Vista
370
     0
100
AcDbPolyline
 90
        6
 70
   128
 43
0.0
 10
0.3153912738180438
 20
0.114770676023312
 10
0.3155297651804361
 20
0.1172623386509883
 10
0.3162469737517028
 20
0.1179142478542019
 10
0.3177868729203652
 20
0.1179142478542019
 10
0.3183390973763593
 20
0.1173620233982007
 10
0.3183390973763593
 20
0.1148024109024419
  0
LWPOLYLINE
  5
140C
330
2
100
AcDbEntity
  8
Vista
370
     0
100
AcDbPolyline
 90
        4
 70
   128
 43
0.0
 10
0.3150418341321242
 20
0.1186169206595906
 10
0.315845259671363
 20
0.1192526725682939
 10
0.3182555389105275
 20
0.1192192121199582
 10
0.3188564100187676
 20
0.118557852201647
  0
LWPOLYLINE
  5
140D
330
2
100
AcDbEntity
  8
Vista
370
     0
100
AcDbPolyline
 90
        6
 70
   128
 43
0.0
 10
0.3194112467265313
 20
0.114770676023312
 10
0.3195497380889307
 20
0.1172623386509883
 10
0.3202669466601975
 20
0.1179142478542019
 10
0.3218068458288528
 20
0.1179142478542019
 10
0.3223590702848469
 20
0.1173620233982007
 10
0.3223590702848469
 20
0.1148024109024419
  0
LWPOLYLINE
  5
140E
330
2
100
AcDbEntity
  8
Vista
370
     0
100
AcDbPolyline
 90
        4
 70
   128
 43
0.0
 10
0.3190618070406117
 20
0.1186169206595906
 10
0.3198652325798506
 20
0.1192526725682939
 10
0.322275511819015
 20
0.1192192121199582
 10
0.3228763829272552
 20
0.118557852201647
  0
LWPOLYLINE
  5
140F
330
2
100
AcDbEntity
  8
Vista
370
     0
100
AcDbPolyline
 90
        6
 70
   128
 43
0.0
 10
0.323431219635026
 20
0.114770676023312
 10
0.3235697109974183
 20
0.1172623386509883
 10
0.3242869195686922
 20
0.1179142478542019
 10
0.3258268187373474
 20
0.1179142478542019
 10
0.3263790431933415
 20
0.1173620233982007
 10
0.3263790431933415
 20
0.1148024109024419
  0
LWPOLYLINE
  5
1410
330
2
100
AcDbEntity
  8
Vista
370
     0
100
AcDbPolyline
 90
        4
 70
   128
 43
0.0
 10
0.3230817799491064
 20
0.1186169206595906
 10
0.3238852054883452
 20
0.1192526725682939
 10
0.3262954847275097
 20
0.1192192121199582
 10
0.3268963558357498
 20
0.118557852201647
  0
LWPOLYLINE
  5
1411
330
2
100
AcDbEntity
  8
Vista
370
     0
100
AcDbPolyline
 90
        6
 70
   128
 43
0.0
 10
0.3274511925435206
 20
0.114770676023312
 10
0.3275896839059129
 20
0.1172623386509883
 10
0.3283068924771797
 20
0.1179142478542019
 10
0.329846791645835
 20
0.1179142478542019
 10
0.3303990161018291
 20
0.1173620233982007
 10
0.3303990161018291
 20
0.1148024109024419
  0
LWPOLYLINE
  5
1412
330
2
100
AcDbEntity
  8
Vista
370
     0
100
AcDbPolyline
 90
        4
 70
   128
 43
0.0
 10
0.327101752857601
 20
0.1186169206595906
 10
0.3279051783968327
 20
0.1192526725682939
 10
0.3303154576359972
 20
0.1192192121199582
 10
0.3309163287442374
 20
0.118557852201647
  0
LWPOLYLINE
  5
1413
330
2
100
AcDbEntity
  8
Vista
370
     0
100
AcDbPolyline
 90
        6
 70
   128
 43
0.0
 10
0.3314711654520082
 20
0.114770676023312
 10
0.3316096568144005
 20
0.1172623386509883
 10
0.3323268653856743
 20
0.1179142478542019
 10
0.3338667645543296
 20
0.1179142478542019
 10
0.3344189890103237
 20
0.1173620233982007
 10
0.3344189890103237
 20
0.1148024109024419
  0
LWPOLYLINE
  5
1414
330
2
100
AcDbEntity
  8
Vista
370
     0
100
AcDbPolyline
 90
        4
 70
   128
 43
0.0
 10
0.3311217257660886
 20
0.1186169206595906
 10
0.3319251513053274
 20
0.1192526725682939
 10
0.3343354305444919
 20
0.1192192121199582
 10
0.334936301652732
 20
0.118557852201647
  0
LWPOLYLINE
  5
1415
330
2
100
AcDbEntity
  8
Vista
370
     0
100
AcDbPolyline
 90
        6
 70
   128
 43
0.0
 10
0.3354911383605028
 20
0.114770676023312
 10
0.3356296297228951
 20
0.1172623386509883
 10
0.3363468382941619
 20
0.1179142478542019
 10
0.3378867374628243
 20
0.1179142478542019
 10
0.3384389619188113
 20
0.1173620233982007
 10
0.3384389619188113
 20
0.1148024109024419
  0
LWPOLYLINE
  5
1416
330
2
100
AcDbEntity
  8
Vista
370
     0
100
AcDbPolyline
 90
        4
 70
   128
 43
0.0
 10
0.3351416986745832
 20
0.1186169206595906
 10
0.3359451242138149
 20
0.1192526725682939
 10
0.3383554034529794
 20
0.1192192121199582
 10
0.3389562745612267
 20
0.118557852201647
  0
LWPOLYLINE
  5
1417
330
2
100
AcDbEntity
  8
Vista
370
     0
100
AcDbPolyline
 90
        6
 70
   128
 43
0.0
 10
0.3395111112689904
 20
0.114770676023312
 10
0.3396496026313827
 20
0.1172623386509883
 10
0.3403668112026565
 20
0.1179142478542019
 10
0.3419067103713118
 20
0.1179142478542019
 10
0.3424589348273059
 20
0.1173620233982007
 10
0.3424589348273059
 20
0.1148024109024419
  0
LWPOLYLINE
  5
1418
330
2
100
AcDbEntity
  8
Vista
370
     0
100
AcDbPolyline
 90
        4
 70
   128
 43
0.0
 10
0.3391616715830708
 20
0.1186169206595906
 10
0.3399650971223096
 20
0.1192526725682939
 10
0.3423753763614741
 20
0.1192192121199582
 10
0.3429762474697142
 20
0.118557852201647
  0
LWPOLYLINE
  5
1419
330
2
100
AcDbEntity
  8
Vista
370
     0
100
AcDbPolyline
 90
        6
 70
   128
 43
0.0
 10
0.343531084177485
 20
0.114770676023312
 10
0.3436695755398773
 20
0.1172623386509883
 10
0.3443867841111441
 20
0.1179142478542019
 10
0.3459266832798065
 20
0.1179142478542019
 10
0.3464789077358006
 20
0.1173620233982007
 10
0.3464789077358006
 20
0.1148024109024419
  0
LWPOLYLINE
  5
141A
330
2
100
AcDbEntity
  8
Vista
370
     0
100
AcDbPolyline
 90
        4
 70
   128
 43
0.0
 10
0.3431816444915654
 20
0.1186169206595906
 10
0.3439850700308042
 20
0.1192526725682939
 10
0.3463953492699687
 20
0.1192192121199582
 10
0.3469962203782089
 20
0.118557852201647
  0
LWPOLYLINE
  5
141B
330
2
100
AcDbEntity
  8
Vista
370
     0
100
AcDbPolyline
 90
        6
 70
   128
 43
0.0
 10
0.3475510570859726
 20
0.114770676023312
 10
0.347689548448372
 20
0.1172623386509883
 10
0.3484067570196387
 20
0.1179142478542019
 10
0.349946656188294
 20
0.1179142478542019
 10
0.3504988806442881
 20
0.1173620233982007
 10
0.3504988806442881
 20
0.1148024109024419
  0
LWPOLYLINE
  5
141C
330
2
100
AcDbEntity
  8
Vista
370
     0
100
AcDbPolyline
 90
        4
 70
   128
 43
0.0
 10
0.3472016174000529
 20
0.1186169206595906
 10
0.3480050429392918
 20
0.1192526725682939
 10
0.3504153221784563
 20
0.1192192121199582
 10
0.3510161932866964
 20
0.118557852201647
  0
LWPOLYLINE
  5
141D
330
2
100
AcDbEntity
  8
Vista
370
     0
100
AcDbPolyline
 90
        6
 70
   128
 43
0.0
 10
0.3515710299944672
 20
0.114770676023312
 10
0.3517095213568595
 20
0.1172623386509883
 10
0.3524267299281263
 20
0.1179142478542019
 10
0.3539666290967887
 20
0.1179142478542019
 10
0.3545188535527828
 20
0.1173620233982007
 10
0.3545188535527828
 20
0.1148024109024419
  0
LWPOLYLINE
  5
141E
330
2
100
AcDbEntity
  8
Vista
370
     0
100
AcDbPolyline
 90
        4
 70
   128
 43
0.0
 10
0.3512215903085476
 20
0.1186169206595906
 10
0.3520250158477864
 20
0.1192526725682939
 10
0.3544352950869509
 20
0.1192192121199582
 10
0.3550361661951911
 20
0.118557852201647
  0
LWPOLYLINE
  5
141F
330
2
100
AcDbEntity
  8
Vista
370
     0
100
AcDbPolyline
 90
        6
 70
   128
 43
0.0
 10
0.3555910029029619
 20
0.114770676023312
 10
0.3557294942653542
 20
0.1172623386509883
 10
0.3564467028366209
 20
0.1179142478542019
 10
0.3579866020052762
 20
0.1179142478542019
 10
0.3585388264612703
 20
0.1173620233982007
 10
0.3585388264612703
 20
0.1148024109024419
  0
LWPOLYLINE
  5
1420
330
2
100
AcDbEntity
  8
Vista
370
     0
100
AcDbPolyline
 90
        4
 70
   128
 43
0.0
 10
0.3552415632170422
 20
0.1186169206595906
 10
0.356044988756274
 20
0.1192526725682939
 10
0.3584552679954385
 20
0.1192192121199582
 10
0.3590561391036786
 20
0.118557852201647
  0
LWPOLYLINE
  5
1421
330
2
100
AcDbEntity
  8
Vista
370
     0
100
AcDbPolyline
 90
        6
 70
   128
 43
0.0
 10
0.3596109758114494
 20
0.114770676023312
 10
0.3597494671738417
 20
0.1172623386509883
 10
0.3604666757451156
 20
0.1179142478542019
 10
0.3620065749137709
 20
0.1179142478542019
 10
0.362558799369765
 20
0.1173620233982007
 10
0.362558799369765
 20
0.1148024109024419
  0
LWPOLYLINE
  5
1422
330
2
100
AcDbEntity
  8
Vista
370
     0
100
AcDbPolyline
 90
        4
 70
   128
 43
0.0
 10
0.3592615361255298
 20
0.1186169206595906
 10
0.3600649616647686
 20
0.1192526725682939
 10
0.3624752409039331
 20
0.1192192121199582
 10
0.3630761120121733
 20
0.118557852201647
  0
LWPOLYLINE
  5
1423
330
2
100
AcDbEntity
  8
Vista
370
     0
100
AcDbPolyline
 90
        6
 70
   128
 43
0.0
 10
0.3636309487199441
 20
0.114770676023312
 10
0.3637694400823364
 20
0.1172623386509883
 10
0.3644866486536031
 20
0.1179142478542019
 10
0.3660265478222655
 20
0.1179142478542019
 10
0.3665787722782525
 20
0.1173620233982007
 10
0.3665787722782525
 20
0.1148024109024419
  0
LWPOLYLINE
  5
1424
330
2
100
AcDbEntity
  8
Vista
370
     0
100
AcDbPolyline
 90
        4
 70
   128
 43
0.0
 10
0.3632815090340244
 20
0.1186169206595906
 10
0.3640849345732562
 20
0.1192526725682939
 10
0.3664952138124207
 20
0.1192192121199582
 10
0.3670960849206679
 20
0.118557852201647
  0
LWPOLYLINE
  5
1425
330
2
100
AcDbEntity
  8
Vista
370
     0
100
AcDbPolyline
 90
        6
 70
   128
 43
0.0
 10
0.3676509216284316
 20
0.114770676023312
 10
0.3677894129908239
 20
0.1172623386509883
 10
0.3685066215620978
 20
0.1179142478542019
 10
0.3700465207307531
 20
0.1179142478542019
 10
0.3705987451867472
 20
0.1173620233982007
 10
0.3705987451867472
 20
0.1148024109024419
  0
LWPOLYLINE
  5
1426
330
2
100
AcDbEntity
  8
Vista
370
     0
100
AcDbPolyline
 90
        4
 70
   128
 43
0.0
 10
0.367301481942512
 20
0.1186169206595906
 10
0.3681049074817508
 20
0.1192526725682939
 10
0.3705151867209153
 20
0.1192192121199582
 10
0.3711160578291555
 20
0.118557852201647
  0
LWPOLYLINE
  5
1427
330
2
100
AcDbEntity
  8
Vista
370
     0
100
AcDbPolyline
 90
        6
 70
   128
 43
0.0
 10
0.3716708945369262
 20
0.114770676023312
 10
0.3718093858993186
 20
0.1172623386509883
 10
0.3725265944705853
 20
0.1179142478542019
 10
0.3740664936392477
 20
0.1179142478542019
 10
0.3746187180952418
 20
0.1173620233982007
 10
0.3746187180952418
 20
0.1148024109024419
  0
LWPOLYLINE
  5
1428
330
2
100
AcDbEntity
  8
Vista
370
     0
100
AcDbPolyline
 90
        4
 70
   128
 43
0.0
 10
0.3713214548510066
 20
0.1186169206595906
 10
0.3721248803902455
 20
0.1192526725682939
 10
0.3745351596294029
 20
0.1192192121199582
 10
0.3751360307376501
 20
0.118557852201647
  0
LWPOLYLINE
  5
1429
330
2
100
AcDbEntity
  8
Vista
370
     0
100
AcDbPolyline
 90
        6
 70
   128
 43
0.0
 10
0.3756908674454138
 20
0.114770676023312
 10
0.3758293588078132
 20
0.1172623386509883
 10
0.37654656737908
 20
0.1179142478542019
 10
0.3780864665477353
 20
0.1179142478542019
 10
0.3786386910037294
 20
0.1173620233982007
 10
0.3786386910037294
 20
0.1148024109024419
  0
LWPOLYLINE
  5
142A
330
2
100
AcDbEntity
  8
Vista
370
     0
100
AcDbPolyline
 90
        4
 70
   128
 43
0.0
 10
0.3753414277594942
 20
0.1186169206595906
 10
0.376144853298733
 20
0.1192526725682939
 10
0.3785551325378975
 20
0.1192192121199582
 10
0.3791560036461377
 20
0.118557852201647
  0
LWPOLYLINE
  5
142B
330
2
100
AcDbEntity
  8
Vista
370
     0
100
AcDbPolyline
 90
        6
 70
   128
 43
0.0
 10
0.3797108403539084
 20
0.114770676023312
 10
0.3798493317163007
 20
0.1172623386509883
 10
0.3805665402875675
 20
0.1179142478542019
 10
0.3821064394562299
 20
0.1179142478542019
 10
0.382658663912224
 20
0.1173620233982007
 10
0.382658663912224
 20
0.1148024109024419
  0
LWPOLYLINE
  5
142C
330
2
100
AcDbEntity
  8
Vista
370
     0
100
AcDbPolyline
 90
        4
 70
   128
 43
0.0
 10
0.3793614006679888
 20
0.1186169206595906
 10
0.3801648262072277
 20
0.1192526725682939
 10
0.3825751054463922
 20
0.1192192121199582
 10
0.3831759765546323
 20
0.118557852201647
  0
LWPOLYLINE
  5
1444
330
2
100
AcDbEntity
  8
Profilo
370
     0
100
AcDbPolyline
 90
       38
 70
   129
 43
0.0
 10
0.1783938393222684
 20
0.1459412506539621
 10
0.1831895352758863
 20
0.1459412506539621
 10
0.1831895352758863
 20
0.1516043041697657
 10
0.187591717670216
 20
0.1516043041697657
 10
0.1892785644230059
 20
0.1519056616564143
 10
0.1899726331233467
 20
0.1525997303567408
 10
0.1903826675935818
 20
0.1533099308920498
 10
0.1903764278506514
 20
0.1656128592204169
 10
0.2004899961472972
 20
0.1738518978000769
 10
0.2003730770500596
 20
0.1756633161172942
 10
0.2008992172705604
 20
0.1762476452320527
 10
0.2027114739851044
 20
0.1762476452320527
 10
0.2035299140901685
 20
0.1798704846358703
 10
0.2042314329565471
 20
0.1803963813930238
 10
0.2058683110252275
 20
0.1786433940487342
 10
0.2076805677397715
 20
0.1792861555210976
 10
0.2082067079602865
 20
0.1814481735226678
 10
0.2080313271729608
 20
0.1826752641098039
 10
0.2096099448482249
 20
0.1826509088706416
 10
0.2108960613422681
 20
0.1816575490985883
 10
0.2122406416678473
 20
0.1824756104131495
 10
0.2127667797469002
 20
0.1864490467319371
 10
0.2149882575847073
 20
0.1864490467319371
 10
0.2166251356533877
 20
0.1890200940060964
 10
0.2163912953174361
 20
0.1907146476081181
 10
0.2215942294080548
 20
0.1910068121654973
 10
0.2292744765448873
 20
0.1978466769410403
 42
0.3030742186492978
 10
0.2365235076859875
 20
0.2010604856875631
 10
0.2431294816507972
 20
0.2010604856875631
 10
0.2431294816507972
 20
0.202988771489359
 10
0.2482739883145939
 20
0.202988771489359
 10
0.2482739883145939
 20
0.2089412506539645
 10
0.2347697105200694
 20
0.2089412506539645
 10
0.2313790352854568
 20
0.2052676542061391
 10
0.2224931239342283
 20
0.2052676542061391
 10
0.1836686384625921
 20
0.1718690318366782
 10
0.1836686384625921
 20
0.1636180600344801
 10
0.1783938393222684
 20
0.1595441439879863
  0
LWPOLYLINE
  5
1445
330
2
100
AcDbEntity
  8
Profilo
370
     0
100
AcDbPolyline
 90
       38
 70
   129
 43
0.0
 10
0.159636164631678
 20
0.0648151012917708
 10
0.1644318605852959
 20
0.0648151012917708
 10
0.1644318605852959
 20
0.0704781548075744
 10
0.1688340429796256
 20
0.0704781548075744
 10
0.1705208897324155
 20
0.070779512294223
 10
0.1712149584327562
 20
0.0714735809945495
 10
0.1716249929029914
 20
0.0721837815298585
 10
0.171618753160061
 20
0.0844867098582256
 10
0.1817323214567068
 20
0.0927257484378856
 10
0.1816154023594691
 20
0.094537166755103
 10
0.1821415425799699
 20
0.0951214958698614
 10
0.1839537992945139
 20
0.0951214958698614
 10
0.1847722393995781
 20
0.098744335273679
 10
0.1854737582659567
 20
0.0992702320308325
 10
0.1871106363346371
 20
0.0975172446865429
 10
0.1889228930491811
 20
0.0981600061589063
 10
0.1894490332696961
 20
0.1003220241604765
 10
0.1892736524823704
 20
0.1015491147476126
 10
0.1908522701576345
 20
0.1015247595084503
 10
0.1921383866516777
 20
0.100531399736397
 10
0.1934829669772569
 20
0.1013494610509582
 10
0.1940091050563097
 20
0.1053228973697458
 10
0.1962305828941169
 20
0.1053228973697458
 10
0.1978674609627973
 20
0.1078939446439051
 10
0.1976336206268456
 20
0.1095884982459268
 10
0.2028365547174644
 20
0.109880662803306
 10
0.2105168018542969
 20
0.116720527578849
 42
0.3030742186492978
 10
0.2177658329953971
 20
0.1199343363253718
 10
0.2243718069602067
 20
0.1199343363253718
 10
0.2243718069602067
 20
0.1218626221271677
 10
0.2295163136240035
 20
0.1218626221271677
 10
0.2295163136240035
 20
0.1278151012917732
 10
0.216012035829479
 20
0.1278151012917732
 10
0.2126213605948664
 20
0.1241415048439478
 10
0.2037354492436378
 20
0.1241415048439478
 10
0.1649109637720016
 20
0.0907428824744869
 10
0.1649109637720016
 20
0.0824919106722888
 10
0.159636164631678
 20
0.078417994625795
  0
LWPOLYLINE
  5
1446
330
2
100
AcDbEntity
  8
Vista
370
     0
100
AcDbPolyline
 90
        2
 70
   128
 43
0.0
 10
0.2138198017555766
 20
0.1169275020429604
 10
0.2138198017555766
 20
0.1148024109024419
  0
LINE
  5
1449
330
2
100
AcDbEntity
  8
Vista
 62
     3
100
AcDbLine
 10
0.2295163136240035
 20
0.1278151012917732
 30
0.0
 11
0.247520737848987
 21
0.1278151012917732
 31
0.0
  0
LINE
  5
144A
330
2
100
AcDbEntity
  8
Vista
100
AcDbLine
 10
0.2295163136240035
 20
0.1218626221271677
 30
0.0
 11
0.247520737848987
 21
0.1218626221271677
 31
0.0
  0
LINE
  5
144B
330
2
100
AcDbEntity
  8
Vista
100
AcDbLine
 10
0.2243718069602067
 20
0.1199343363253718
 30
0.0
 11
0.247520737848987
 21
0.1199343363253718
 31
0.0
  0
LINE
  5
144C
330
2
100
AcDbEntity
  8
Vista
100
AcDbLine
 10
0.2028365547174644
 20
0.109880662803306
 30
0.0
 11
0.247520737848987
 21
0.109880662803306
 31
0.0
  0
LINE
  5
144D
330
2
100
AcDbEntity
  8
Vista
100
AcDbLine
 10
0.171618753160061
 20
0.0844867098582256
 30
0.0
 11
0.247520737848987
 21
0.0844867098582256
 31
0.0
  0
LINE
  5
144E
330
2
100
AcDbEntity
  8
Vista
100
AcDbLine
 10
0.1705208897324155
 20
0.070779512294223
 30
0.0
 11
0.247520737848987
 21
0.070779512294223
 31
0.0
  0
LINE
  5
144F
330
2
100
AcDbEntity
  8
Vista
 62
     3
100
AcDbLine
 10
0.1644318605852959
 20
0.0648151012917708
 30
0.0
 11
0.247520737848987
 21
0.0648151012917708
 31
0.0
  0
LINE
  5
1453
330
2
100
AcDbEntity
  8
Vista
 62
     3
100
AcDbLine
 10
0.2606460764238534
 20
0.0648151012917708
 30
0.0
 11
0.3833694706098071
 21
0.0648151012917708
 31
0.0
  0
LINE
  5
1454
330
2
100
AcDbEntity
  8
Vista
100
AcDbLine
 10
0.2606460764238534
 20
0.070779512294223
 30
0.0
 11
0.3833694706098072
 21
0.070779512294223
 31
0.0
  0
LINE
  5
1455
330
2
100
AcDbEntity
  8
Vista
100
AcDbLine
 10
0.2606460764238534
 20
0.0844867098582256
 30
0.0
 11
0.3833694706098071
 21
0.0844867098582256
 31
0.0
  0
LINE
  5
1456
330
2
100
AcDbEntity
  8
Vista
100
AcDbLine
 10
0.2606460764238534
 20
0.109880662803306
 30
0.0
 11
0.3833694706098072
 21
0.109880662803306
 31
0.0
  0
LINE
  5
1457
330
2
100
AcDbEntity
  8
Vista
100
AcDbLine
 10
0.2606460764238534
 20
0.1199343363253717
 30
0.0
 11
0.3833694706098071
 21
0.1199343363253717
 31
0.0
  0
LINE
  5
1458
330
2
100
AcDbEntity
  8
Vista
100
AcDbLine
 10
0.2606460764238534
 20
0.1218626221271677
 30
0.0
 11
0.3833694706098072
 21
0.1218626221271677
 31
0.0
  0
LINE
  5
1459
330
2
100
AcDbEntity
  8
Vista
 62
     3
100
AcDbLine
 10
0.2606460764238534
 20
0.1278151012917732
 30
0.0
 11
0.3833694706098072
 21
0.1278151012917732
 31
0.0
  0
LWPOLYLINE
  5
145A
330
2
100
AcDbEntity
  8
Vista
370
     0
100
AcDbPolyline
 90
       15
 70
   128
 43
0.0
 10
0.2606460764238534
 20
0.0921546323196663
 10
0.2620139556013754
 20
0.0923123909206538
 10
0.2663191521471191
 20
0.0919211918348992
 10
0.2702329683802702
 20
0.0920515909651272
 10
0.2736249398275561
 20
0.0934859932631298
 10
0.2754513874030238
 20
0.0949203955611324
 10
0.2771473731266667
 20
0.0960939962085519
 10
0.2759732295674482
 20
0.0971371977257292
 10
0.2733640187453403
 20
0.0983108000682052
 10
0.2727117173505462
 20
0.1002668022772752
 10
0.2717984922520813
 20
0.1014404029246805
 10
0.2703634276106541
 20
0.1013100037944525
 10
0.268797901117388
 20
0.1017012028802213
 10
0.2684065208048025
 20
0.1030052043529253
 10
0.2684065208048025
 20
0.1040484058701026
  0
LWPOLYLINE
  5
145B
330
2
100
AcDbEntity
  8
Vista
370
     0
100
AcDbPolyline
 90
       14
 70
   128
 43
0.0
 10
0.3833694706098072
 20
0.096828816315074
 10
0.3818281958143146
 20
0.0963547961640785
 10
0.3813063536498973
 20
0.0940075931741973
 10
0.3822195761269071
 20
0.0928339925267778
 10
0.3810454325676886
 20
0.0921819917904259
 10
0.3784362217455808
 20
0.0921819917904259
 10
0.3759574727753119
 20
0.0921819917904259
 10
0.3746528673642615
 20
0.0923123909206538
 10
0.3754356306108946
 20
0.0940075931741973
 10
0.3771316163345304
 20
0.0957027954277265
 10
0.3780448414329953
 20
0.0971371977257292
 10
0.3788276046796284
 20
0.0989628008045571
 10
0.3797408271566383
 20
0.1007884021883285
 10
0.3815672747321059
 20
0.102483604441872
  0
LINE
  5
145C
330
2
100
AcDbEntity
  8
Vista
 62
     6
100
AcDbLine
 10
0.2606460764238534
 20
0.0648151012917708
 30
0.0
 11
0.2606460764238534
 21
0.1278151012917732
 31
0.0
  0
LINE
  5
145D
330
2
100
AcDbEntity
  8
Vista
 62
     6
100
AcDbLine
 10
0.3833694706098071
 20
0.0648151012917708
 30
0.0
 11
0.3833694706098072
 21
0.1278151012917732
 31
0.0
  0
LINE
  5
145E
330
2
100
AcDbEntity
  8
Vista
 62
     3
100
AcDbLine
 10
0.2482739883145939
 20
0.2089412506539645
 30
0.0
 11
0.3514265209637037
 21
0.230866998321414
 31
0.0
  0
LWPOLYLINE
  5
145F
330
2
100
AcDbEntity
  8
Profilo
370
     0
100
AcDbPolyline
 90
        2
 70
   128
 43
0.0
 10
0.2863420679249961
 20
0.1678669983214116
 10
0.2863420679249961
 20
0.1725918577186704
  0
LINE
  5
1460
330
2
100
AcDbEntity
  8
Vista
 62
     3
100
AcDbLine
 10
0.2347697105200694
 20
0.2089412506539645
 30
0.0
 11
0.3379222431691792
 21
0.230866998321414
 31
0.0
  0
LINE
  5
1461
330
2
100
AcDbEntity
  8
Vista
 62
     3
100
AcDbLine
 10
0.2224931239342283
 20
0.2052676542061391
 30
0.0
 11
0.2335478176831357
 21
0.207617401899722
 31
0.0
  0
LINE
  5
1462
330
2
100
AcDbEntity
  8
Vista
100
AcDbLine
 10
0.2482739883145939
 20
0.202988771489359
 30
0.0
 11
0.3514265209637037
 21
0.2249145191568085
 31
0.0
  0
LINE
  5
1463
330
2
100
AcDbEntity
  8
Vista
100
AcDbLine
 10
0.2431294816507972
 20
0.2010604856875631
 30
0.0
 11
0.3462820142999069
 21
0.2229862333550125
 31
0.0
  0
LINE
  5
1464
330
2
100
AcDbEntity
  8
Vista
100
AcDbLine
 10
0.2317085029179414
 20
0.1978466769410403
 30
0.0
 11
0.3342767140115566
 21
0.2196960460334008
 31
0.0
  0
LINE
  5
1465
330
2
100
AcDbEntity
  8
Vista
100
AcDbLine
 10
0.2215942294080548
 20
0.1910068121654973
 30
0.0
 11
0.3247467620571646
 21
0.2129325598329468
 31
0.0
  0
LINE
  5
1466
330
2
100
AcDbEntity
  8
Vista
100
AcDbLine
 10
0.2004899961472972
 20
0.1738518978000769
 30
0.0
 11
0.303642528796407
 21
0.1957776454675264
 31
0.0
  0
LINE
  5
1467
330
2
100
AcDbEntity
  8
Vista
100
AcDbLine
 10
0.1903764278506514
 20
0.1656128592204169
 30
0.0
 11
0.2935289604997612
 21
0.1875386068878664
 31
0.0
  0
LINE
  5
1468
330
2
100
AcDbEntity
  8
Vista
 62
     3
100
AcDbLine
 10
0.1831895352758863
 20
0.1459412506539621
 30
0.0
 11
0.2863420679249961
 21
0.1678669983214116
 31
0.0
  0
LINE
  5
1469
330
2
100
AcDbEntity
  8
Vista
100
AcDbLine
 10
0.1892785644230059
 20
0.1519056616564143
 30
0.0
 11
0.2907442503193258
 21
0.1735300518372151
 31
0.0
  0
LWPOLYLINE
  5
146A
330
2
100
AcDbEntity
  8
Profilo
370
     0
100
AcDbPolyline
 90
       22
 70
   128
 43
0.0
 10
0.2907442503193258
 20
0.1735300518372151
 10
0.2924310970721157
 20
0.1738314093238638
 10
0.2931251657724565
 20
0.1745254780241903
 10
0.2935352002426916
 20
0.1752356785594993
 10
0.2935289604997612
 20
0.1875386068878664
 10
0.303642528796407
 20
0.1957776454675264
 10
0.3035256096991694
 20
0.1975890637847437
 10
0.3040517499196702
 20
0.1981733928995022
 10
0.3058640066342142
 20
0.1981733928995022
 10
0.3066824467392783
 20
0.2017962323033198
 10
0.3073839656056569
 20
0.2023221290604733
 10
0.3090208436743373
 20
0.2005691417161837
 10
0.3108331003888813
 20
0.2012119031885471
 10
0.3113592406093963
 20
0.2033739211901173
 10
0.3111838598220706
 20
0.2046010117772534
 10
0.3127624774973347
 20
0.2045766565380911
 10
0.3140485939913779
 20
0.2035832967660378
 10
0.3153931743169571
 20
0.204401358080599
 10
0.31591931239601
 20
0.2083747943993865
 10
0.3181407902338171
 20
0.2083747943993865
 10
0.3197776683024975
 20
0.2109458416735459
 10
0.3196529221132256
 20
0.2118498307287657
  0
LWPOLYLINE
  5
146B
330
2
100
AcDbEntity
  8
Profilo
370
     0
100
AcDbPolyline
 90
        2
 70
   128
 43
0.0
 10
0.3247467620571646
 20
0.2129325598329468
 10
0.3317327374894608
 20
0.219154120992485
  0
LWPOLYLINE
  5
146C
330
2
100
AcDbEntity
  8
Profilo
370
     0
100
AcDbPolyline
 90
        3
 70
   128
 43
0.0
 10
0.3514265209637037
 20
0.2249145191568085
 10
0.3514265209637037
 20
0.230866998321414
 10
0.3379222431691792
 20
0.230866998321414
  0
LWPOLYLINE
  5
146D
330
2
100
AcDbEntity
  8
Profilo
370
     0
100
AcDbPolyline
 90
        3
 70
   128
 43
0.0
 10
0.346282014299907
 20
0.2229862333550125
 10
0.346282014299907
 20
0.2229862333550125
 10
0.346282014299907
 20
0.2238210205088634
  0
LWPOLYLINE
  5
1476
330
2
100
AcDbEntity
  8
Profilo
370
     0
100
AcDbPolyline
 90
        2
 70
   128
 43
0.0
 10
0.3342767140115566
 20
0.2196960460334008
 42
0.1487539732180013
 10
0.3381312955427564
 20
0.2212537446008533
  0
DIMENSION
  5
1477
102
{ACAD_XDICTIONARY
360
1485
102
}
102
{ACAD_REACTORS
330
1490
102
}
330
2
100
AcDbEntity
  8
Dimensione
100
AcDbDimension
  2
*D32
 10
0.1524653596421786
 20
0.1973004085644447
 30
0.0
 11
0.1524653596421785
 21
0.1658004085644436
 31
0.0
 70
    32
  1
126 mm
 71
     5
 42
0.0630000000000024
  3
Bovelacci
100
AcDbAlignedDimension
 13
0.0760842449146901
 23
0.1343004085644424
 33
0.0
 14
0.1411686979533977
 24
0.1973004085644447
 34
0.0
 50
90.0
100
AcDbRotatedDimension
  0
DIMENSION
  5
1491
102
{ACAD_XDICTIONARY
360
149F
102
}
102
{ACAD_REACTORS
330
14AA
102
}
330
2
100
AcDbEntity
  8
Dimensione
100
AcDbDimension
  2
*D33
 10
0.1411686979533977
 20
0.1189575717664297
 30
0.0
 11
0.1062598734572349
 21
0.1189575717664297
 31
0.0
 70
    32
  1
126 mm
 71
     5
 42
0.0698176489923256
  3
Bovelacci
100
AcDbAlignedDimension
 13
0.0713510489610721
 23
0.1343004085644424
 33
0.0
 14
0.1411686979533977
 24
0.1913479293998392
 34
0.0
100
AcDbRotatedDimension
  0
VIEWPORT
  5
7B
102
{ACAD_XDICTIONARY
360
14C7
102
}
330
79
100
AcDbEntity
 67
     1
  8
0
100
AcDbViewport
 10
145.330337524414
 20
101.8116638660431
 30
0.0
 40
351.1337450215151
 41
222.1517806396485
 68
     1
 69
     1
 12
145.330337524414
 22
101.8116638660431
 13
0.0
 23
0.0
 14
10.0
 24
10.0
 15
10.0
 25
10.0
 16
0.0
 26
0.0
 36
1.0
 17
0.0
 27
0.0
 37
0.0
 42
50.0
 43
0.0
 44
0.0
 45
222.1517806396485
 50
0.0
 51
0.0
 72
  1000
 90
    32800
  1

281
     0
 71
     1
 74
     0
110
0.0
120
0.0
130
0.0
111
1.0
121
0.0
131
0.0
112
0.0
122
1.0
132
0.0
 79
     0
146
0.0
  0
VIEWPORT
  5
80
102
{ACAD_XDICTIONARY
360
14C9
102
}
330
79
100
AcDbEntity
 67
     1
  8
Sezione
100
AcDbViewport
 10
145.3303314447403
 20
101.8116623163223
 30
0.0
 40
232.5285303115845
 41
162.8986597061157
 68
     2
 69
     2
 12
0.2100067158578973
 22
0.1484909068076998
 13
0.0
 23
0.0
 14
10.0
 24
10.0
 15
10.0
 25
10.0
 16
0.0
 26
0.0
 36
1.0
 17
0.0
 27
0.0
 37
0.0
 42
50.0
 43
0.0
 44
0.0
 45
0.2752830087467564
 50
0.0
 51
0.0
 72
  1000
 90
    32864
  1

281
     0
 71
     1
 74
     0
110
0.0
120
0.0
130
0.0
111
1.0
121
0.0
131
0.0
112
0.0
122
1.0
132
0.0
 79
     0
146
0.0
  0
ENDSEC
  0
SECTION
  2
OBJECTS
  0
DICTIONARY
  5
9
330
0
100
AcDbDictionary
281
     1
  3
ACAD_2007HEADERVARS_RT
350
14A
  3
ACAD_COLOR
350
A1
  3
ACAD_GROUP
350
9C
  3
ACAD_LAYOUT
350
78
  3
ACAD_MATERIAL
350
B
  3
ACAD_MLINESTYLE
350
9D
  3
ACAD_PLOTSETTINGS
350
9E
  3
ACAD_PLOTSTYLENAME
350
8
  3
ACAD_TABLESTYLE
350
A2
  3
ACAD_VISUALSTYLE
350
7F
  3
ACDBHEADERROUNDTRIPXREC
350
14C4
  3
AcDbVariableDictionary
350
A9
  3
AEC_CLASSIFICATION_SYSTEM_DEFS
350
1217
  3
AEC_PROPERTY_SET_DEFS
350
10D
  3
DWGPROPS
350
14C3
  0
DICTIONARY
  5
8B
330
8A
100
AcDbDictionary
280
     1
281
     1
  3
ACAD_LAYERFILTERS
360
48D
  3
ACAD_LAYERSTATES
360
8D
  3
ACLYDICTIONARY
360
48C
  0
DICTIONARY
  5
3
330
2
100
AcDbDictionary
280
     1
281
     1
  3
ACAD_SORTENTS
360
A8
  0
DICTIONARY
  5
B6D
330
B69
100
AcDbDictionary
280
     1
281
     1
  3
ACAD_SORTENTS
360
B6E
  0
DICTIONARY
  5
10D6
330
FEB
100
AcDbDictionary
280
     1
281
     1
  0
DICTIONARY
  5
14CE
330
10F
100
AcDbDictionary
280
     1
281
     1
  3
ACAD_MTEXT_RT
360
14CF
  0
DICTIONARY
  5
1485
330
1477
100
AcDbDictionary
280
     1
281
     1
  3
ACAD_DIMASSOC
360
1490
  0
DICTIONARY
  5
149F
330
1491
100
AcDbDictionary
280
     1
281
     1
  3
ACAD_DIMASSOC
360
14AA
  0
DICTIONARY
  5
14C7
330
7B
100
AcDbDictionary
280
     1
281
     1
  3
ACAD_XREC_ROUNDTRIP
360
14C8
  0
DICTIONARY
  5
14C9
330
80
100
AcDbDictionary
280
     1
281
     1
  3
ACAD_XREC_ROUNDTRIP
360
14CA
  0
DICTIONARY
  5
14A
102
{ACAD_REACTORS
330
9
102
}
330
9
100
AcDbDictionary
281
     1
  3
DIMFXL
350
14B
  0
DICTIONARY
  5
A1
102
{ACAD_REACTORS
330
9
102
}
330
9
100
AcDbDictionary
281
     1
  0
DICTIONARY
  5
9C
102
{ACAD_REACTORS
330
9
102
}
330
9
100
AcDbDictionary
281
     1
  0
DICTIONARY
  5
78
102
{ACAD_REACTORS
330
9
102
}
330
9
100
AcDbDictionary
281
     1
  3
Layout1
350
82
  3
Layout2
350
89
  3
Model
350
77
  0
DICTIONARY
  5
B
102
{ACAD_REACTORS
330
9
102
}
330
9
100
AcDbDictionary
281
     1
  3
ByBlock
350
A0
  3
ByLayer
350
9F
  3
Global
350
A
  0
DICTIONARY
  5
9D
102
{ACAD_REACTORS
330
9
102
}
330
9
100
AcDbDictionary
281
     1
  3
Standard
350
A3
  0
DICTIONARY
  5
9E
102
{ACAD_REACTORS
330
9
102
}
330
9
100
AcDbDictionary
281
     1
  0
ACDBDICTIONARYWDFLT
  5
8
102
{ACAD_REACTORS
330
9
102
}
330
9
100
AcDbDictionary
281
     1
  3
Normal
350
7
100
AcDbDictionaryWithDefault
340
7
  0
DICTIONARY
  5
A2
102
{ACAD_REACTORS
330
9
102
}
330
9
100
AcDbDictionary
281
     1
  3
Standard
350
A4
  0
DICTIONARY
  5
7F
102
{ACAD_REACTORS
330
9
102
}
330
9
100
AcDbDictionary
281
     1
  3
2dWireframe
350
7E
  3
3D Hidden
350
D8
  3
3dWireframe
350
A6
  3
Basic
350
D7
  3
Brighten
350
DB
  3
ColorChange
350
DF
  3
Conceptual
350
D9
  3
Dim
350
DA
  3
Facepattern
350
DE
  3
Flat
350
D3
  3
FlatWithEdges
350
D4
  3
Gouraud
350
D5
  3
GouraudWithEdges
350
D6
  3
Linepattern
350
DD
  3
Realistic
350
A5
  3
Thicken
350
DC
  0
DICTIONARY
  5
14C4
102
{ACAD_REACTORS
330
9
102
}
330
9
100
AcDbDictionary
281
     1
  0
DICTIONARY
  5
A9
102
{ACAD_REACTORS
330
9
102
}
330
9
100
AcDbDictionary
281
     1
  3
CTABLESTYLE
350
AA
  3
DIMASSOC
350
AE
  3
HIDETEXT
350
AD
  3
INDEXCTL
350
AC
  3
PROJECTNAME
350
16A
  3
SORTENTS
350
AB
  0
DICTIONARY
  5
1217
102
{ACAD_REACTORS
330
9
102
}
330
9
100
AcDbDictionary
281
     1
  0
DICTIONARY
  5
10D
102
{ACAD_REACTORS
330
9
102
}
330
9
100
AcDbDictionary
281
     1
  0
XRECORD
  5
14C3
102
{ACAD_REACTORS
330
9
102
}
330
9
100
AcDbXrecord
280
     1
  1
DWGPROPS COOKIE
  2

  3

  4

  6

  7

  8
Mario
  9

300
=
301
=
302
=
303
=
304
=
305
=
306
=
307
=
308
=
309
=
 40
0.226342962962963
 41
2454297.625402373
 42
2454331.560846887
  1

 90
        0
  0
DICTIONARY
  5
48D
102
{ACAD_REACTORS
330
8B
102
}
330
8B
100
AcDbDictionary
281
     1
  0
DICTIONARY
  5
8D
102
{ACAD_REACTORS
330
8B
102
}
330
8B
100
AcDbDictionary
281
     1
  0
DICTIONARY
  5
48C
102
{ACAD_REACTORS
330
8B
102
}
330
8B
100
AcDbDictionary
281
     1
1001
ACAD
1000
<All
  0
SORTENTSTABLE
  5
A8
102
{ACAD_REACTORS
330
3
102
}
330
3
100
AcDbSortentsTable
330
2
331
22
  5
23
331
1413
  5
1418
331
13DC
  5
13E1
331
139D
  5
13A0
331
1366
  5
1368
331
141B
  5
1420
331
13E4
  5
13E9
331
145A
  5
1381
331
13A5
  5
13A8
331
136E
  5
1370
331
1462
  5
1467
331
1423
  5
1428
331
13AD
  5
13B0
331
1337
  5
1337
331
146A
  5
1460
331
142B
  5
1430
331
13F4
  5
13F9
331
13B5
  5
13B8
331
137E
  5
1380
331
13
  5
D
331
110
  5
110
331
13FC
  5
1401
331
1386
  5
1389
331
1347
  5
1347
331
1404
  5
1409
331
134F
  5
134F
331
140C
  5
1411
331
1396
  5
1399
331
1357
  5
1357
331
144B
  5
144F
331
13D5
  5
13DA
331
23
  5
24
331
1453
  5
1458
331
1414
  5
1419
331
13DD
  5
13E2
331
139E
  5
13A1
331
1367
  5
1369
331
141C
  5
1421
331
145B
  5
13B9
331
13E5
  5
13EA
331
13A6
  5
13A9
331
136F
  5
1371
331
1463
  5
1468
331
1424
  5
1429
331
13AE
  5
13B1
331
1377
  5
1379
331
1338
  5
1338
331
146B
  5
1461
331
142C
  5
1431
331
13F5
  5
13FA
331
137F
  5
1382
331
14
  5
10
331
13FD
  5
1402
331
1387
  5
138A
331
1348
  5
1348
331
1405
  5
140A
331
1350
  5
1350
331
1444
  5
1449
331
140D
  5
1412
331
1397
  5
139A
331
144C
  5
1451
331
24
  5
18
331
1454
  5
1456
331
1415
  5
141A
331
13DE
  5
13E3
331
139F
  5
13A2
331
1368
  5
136A
331
145C
  5
145C
331
141D
  5
1422
331
13E6
  5
13EB
331
13A7
  5
13AA
331
1370
  5
1372
331
1331
  5
1331
331
1464
  5
1469
331
1425
  5
142A
331
13AF
  5
13B2
331
1378
  5
137A
331
1339
  5
1339
331
146C
  5
1464
331
13F6
  5
13FB
331
D
  5
13
331
15
  5
11
331
1D
  5
1E
331
1380
  5
1383
331
1341
  5
1341
331
13FE
  5
1403
331
1388
  5
138B
331
1349
  5
1349
331
1406
  5
140B
331
1390
  5
1393
331
1351
  5
1351
331
1445
  5
144A
331
140E
  5
1413
331
144D
  5
1453
331
13D7
  5
13DC
331
25
  5
25
331
1398
  5
139B
331
1361
  5
1363
331
1455
  5
1454
331
1416
  5
141B
331
13DF
  5
13E4
331
13A0
  5
13A3
331
1369
  5
136B
331
145D
  5
145D
331
141E
  5
1423
331
13E7
  5
13EC
331
13A8
  5
13AB
331
1371
  5
1373
331
1332
  5
1332
331
1465
  5
146A
331
1426
  5
142B
331
13EF
  5
13F4
331
13B0
  5
13B3
331
1379
  5
137B
331
133A
  5
133A
331
146D
  5
1463
331
13F7
  5
13FC
331
16
  5
12
331
1E
  5
1F
331
1CA
  5
1CA
331
1381
  5
1384
331
1342
  5
1342
331
13FF
  5
1404
331
1389
  5
138C
331
134A
  5
134A
331
1407
  5
140C
331
13C8
  5
13CC
331
1352
  5
1352
331
140F
  5
1414
331
1446
  5
13DD
331
144E
  5
1455
331
1219
  5
1219
331
1399
  5
139C
331
1362
  5
1364
331
1456
  5
1452
331
1417
  5
141C
331
13E0
  5
13E5
331
13A1
  5
13A4
331
136A
  5
136C
331
145E
  5
145E
331
141F
  5
1424
331
13E8
  5
13ED
331
13A9
  5
13AC
331
1372
  5
1374
331
1333
  5
1333
331
1466
  5
146B
331
1427
  5
142C
331
13F0
  5
13F5
331
13B1
  5
13B4
331
137A
  5
137C
331
133B
  5
133B
331
17
  5
17
331
1F
  5
21
331
13F8
  5
13FD
331
1382
  5
1385
331
1343
  5
1343
331
1476
  5
1462
331
1400
  5
1405
331
138A
  5
138D
331
134B
  5
134B
331
1408
  5
140D
331
13C9
  5
13D7
331
1392
  5
1395
331
1353
  5
1353
331
144F
  5
1457
331
11A4
  5
11A4
331
27
  5
27
331
1410
  5
1415
331
13D9
  5
13DE
331
139A
  5
139D
331
1363
  5
1365
331
1457
  5
1450
331
1418
  5
141D
331
13E1
  5
13E6
331
13A2
  5
13A5
331
136B
  5
136D
331
145F
  5
145F
331
1420
  5
1425
331
13E9
  5
13EE
331
13AA
  5
13AD
331
1373
  5
1375
331
1334
  5
1334
331
1467
  5
146C
331
1428
  5
142D
331
13F1
  5
13F6
331
13B2
  5
13B5
331
137B
  5
137D
331
133C
  5
133C
331
10
  5
14
331
13F9
  5
13FE
331
1383
  5
1386
331
1344
  5
1344
331
1401
  5
1406
331
138B
  5
138E
331
134C
  5
134C
331
1409
  5
140E
331
13CA
  5
13D9
331
1393
  5
1396
331
1354
  5
1354
331
11A5
  5
11A5
331
1411
  5
1416
331
13DA
  5
13DF
331
139B
  5
139E
331
1364
  5
1366
331
1458
  5
144E
331
1419
  5
141E
331
13E2
  5
13E7
331
13A3
  5
13A6
331
136C
  5
136E
331
1460
  5
1465
331
1421
  5
1426
331
13EA
  5
13EF
331
13AB
  5
13AE
331
1335
  5
1335
331
1468
  5
146D
331
1429
  5
142E
331
13F2
  5
13F7
331
13B3
  5
13B6
331
137C
  5
137E
331
133D
  5
133D
331
11
  5
15
331
13FA
  5
13FF
331
1384
  5
1387
331
1345
  5
1345
331
1402
  5
1407
331
138C
  5
138F
331
134D
  5
134D
331
140A
  5
140F
331
1394
  5
1397
331
1355
  5
1355
331
1449
  5
144B
331
11A6
  5
11A6
331
21
  5
22
331
1412
  5
1417
331
13DB
  5
13E0
331
139C
  5
139F
331
1365
  5
1367
331
1459
  5
144C
331
141A
  5
141F
331
13E3
  5
13E8
331
13A4
  5
13A7
331
136D
  5
136F
331
1461
  5
1466
331
1422
  5
1427
331
13AC
  5
13AF
331
1336
  5
1336
331
1469
  5
1476
331
142A
  5
142F
331
13F3
  5
13F8
331
13B4
  5
13B7
331
137D
  5
137F
331
133E
  5
133E
331
12
  5
16
331
10F
  5
10F
331
13FB
  5
1400
331
1385
  5
1388
331
1346
  5
1346
331
1403
  5
1408
331
138D
  5
1390
331
134E
  5
134E
331
140B
  5
1410
331
1395
  5
1398
331
1356
  5
1356
331
144A
  5
144D
  0
SORTENTSTABLE
  5
B6E
102
{ACAD_REACTORS
330
B6D
102
}
330
B6D
100
AcDbSortentsTable
330
B69
  0
XRECORD
  5
14CF
102
{ACAD_REACTORS
330
14CE
102
}
330
14CE
100
AcDbXrecord
280
     1
 40
7955300.0
  1
\pt0.09;{\fTimes New Roman|b0|i0|c238|p18;\H1.6x;\C4;Bovelacci\P\H0.4375x;\T0.95;via del Commercio, 5  47100 Forli - Italy  \fTimes New Roman|b0|i0|c0|p18;\P\fTimes New Roman|b0|i0|c238|p18;tel.+39-0543721386  fax +39-0543721127\fTimes New Roman|b0|i
  1
0|c0|p18; \fTimes New Roman|b0|i0|c238|p18;www.bovelacci.it\fTimes New Roman|b0|i0|c0|p18; \fTimes New Roman|b0|i0|c238|p18;e-mail: bovelacci@bovelacci\fTimes New Roman|b0|i0|c0|p18;.it}
  0
DIMASSOC
  5
1490
102
{ACAD_REACTORS
330
1485
102
}
330
1485
100
AcDbDimAssoc
330
1477
 90
        2
 70
     0
 71
     0
  1
AcDbOsnapPointRef
 72
     1
331
1219
 73
     2
 91
       31
 40
1.0
 10
0.0
 20
0.0
 30
2.000000000000000E+50
 75
     0
  0
DIMASSOC
  5
14AA
102
{ACAD_REACTORS
330
149F
102
}
330
149F
100
AcDbDimAssoc
330
1491
 90
        2
 70
     0
 71
     0
  1
AcDbOsnapPointRef
 72
     1
331
1219
 73
     2
 91
       30
 40
1.0
 10
0.0
 20
0.0
 30
2.000000000000000E+50
 75
     0
  0
XRECORD
  5
14C8
102
{ACAD_REACTORS
330
14C7
102
}
330
14C7
100
AcDbXrecord
280
     1
102
SHADEPLOT
 70
     0
  0
XRECORD
  5
14CA
102
{ACAD_REACTORS
330
14C9
102
}
330
14C9
100
AcDbXrecord
280
     1
102
SHADEPLOT
 70
     0
  0
XRECORD
  5
14B
102
{ACAD_REACTORS
330
14A
102
}
330
14A
100
AcDbXrecord
280
     1
 40
0.18
  0
LAYOUT
  5
82
102
{ACAD_XDICTIONARY
360
83
102
}
102
{ACAD_REACTORS
330
78
102
}
330
78
100
AcDbPlotSettings
  1

  2
C:\Documents and Settings\All Users\Dati applicazioni\Autodesk\ADT 2006\enu\Plotters\Default Windows System Printer.pc3
  4
A4
  6

 40
3.174999952316281
 41
3.174999952316281
 42
3.175003051757812
 43
3.17498779296875
 44
209.9733276367186
 45
297.0106506347656
 46
0.0
 47
0.0
 48
0.0
 49
0.0
140
0.0
141
0.0
142
1.0
143
1.0
 70
   688
 72
     1
 73
     1
 74
     5
  7

 75
    16
147
1.0
148
0.0
149
0.0
100
AcDbLayout
  1
Layout1
 70
     1
 71
     1
 10
-3.17498779296875
 20
-3.174999952316281
 11
293.8356628417969
 21
206.7983276844024
 12
0.0
 22
0.0
 32
0.0
 14
29.06606628894805
 24
20.36233246326446
 34
0.0
 15
261.5945966005325
 25
183.2609921693802
 35
0.0
146
0.0
 13
0.0
 23
0.0
 33
0.0
 16
1.0
 26
0.0
 36
0.0
 17
0.0
 27
1.0
 37
0.0
 76
     0
330
79
331
7B
1001
ACAD_PSEXT
1000
C:\Documents and Settings\All Users\Dati applicazioni\Autodesk\ADT 2006\enu\Plotters\Default Windows System Printer.pc3
1000
Microsoft Office Document Image Writer Driver
1000
Microsoft Document Imaging Writer Port:
1000

1070
     0
  0
LAYOUT
  5
89
102
{ACAD_XDICTIONARY
360
14CC
102
}
102
{ACAD_REACTORS
330
78
102
}
330
78
100
AcDbPlotSettings
  1

  2
C:\Documents and Settings\All Users\Dati applicazioni\Autodesk\ADT 2006\enu\Plotters\Default Windows System Printer.pc3
  4

  6

 40
0.0
 41
0.0
 42
0.0
 43
0.0
 44
0.0
 45
0.0
 46
0.0
 47
0.0
 48
0.0
 49
0.0
140
0.0
141
0.0
142
1.0
143
1.0
 70
   688
 72
     0
 73
     0
 74
     5
  7

 75
    16
147
1.0
148
0.0
149
0.0
100
AcDbLayout
  1
Layout2
 70
     1
 71
     2
 10
0.0
 20
0.0
 11
12.0
 21
9.0
 12
0.0
 22
0.0
 32
0.0
 14
0.0
 24
0.0
 34
0.0
 15
0.0
 25
0.0
 35
0.0
146
0.0
 13
0.0
 23
0.0
 33
0.0
 16
1.0
 26
0.0
 36
0.0
 17
0.0
 27
1.0
 37
0.0
 76
     0
330
86
  0
LAYOUT
  5
77
102
{ACAD_XDICTIONARY
360
14C5
102
}
102
{ACAD_REACTORS
330
78
102
}
330
78
100
AcDbPlotSettings
  1

  2
C:\Documents and Settings\All Users\Dati applicazioni\Autodesk\ADT 2006\enu\Plotters\Default Windows System Printer.pc3
  4

  6

 40
0.0
 41
0.0
 42
0.0
 43
0.0
 44
0.0
 45
0.0
 46
0.0
 47
0.0
 48
0.0
 49
0.0
140
0.0
141
0.0
142
1.0
143
1.0
 70
  1712
 72
     0
 73
     0
 74
     0
  7

 75
     0
147
1.0
148
0.0
149
0.0
100
AcDbLayout
  1
Model
 70
     1
 71
     0
 10
0.0
 20
0.0
 11
12.0
 21
9.0
 12
0.0
 22
0.0
 32
0.0
 14
0.0
 24
0.0
 34
0.0
 15
0.0
 25
0.0
 35
0.0
146
0.0
 13
0.0
 23
0.0
 33
0.0
 16
1.0
 26
0.0
 36
0.0
 17
0.0
 27
1.0
 37
0.0
 76
     0
330
2
  0
MATERIAL
  5
A0
102
{ACAD_XDICTIONARY
360
C7
102
}
102
{ACAD_REACTORS
330
B
102
}
330
B
100
AcDbMaterial
  1
ByBlock
  0
MATERIAL
  5
9F
102
{ACAD_XDICTIONARY
360
C5
102
}
102
{ACAD_REACTORS
330
B
102
}
330
B
100
AcDbMaterial
  1
ByLayer
  0
MATERIAL
  5
A
102
{ACAD_XDICTIONARY
360
B1
102
}
102
{ACAD_REACTORS
330
B
102
}
330
B
100
AcDbMaterial
  1
Global
  0
MLINESTYLE
  5
A3
102
{ACAD_REACTORS
330
9D
102
}
330
9D
100
AcDbMlineStyle
  2
STANDARD
 70
     0
  3

 62
   256
 51
90.0
 52
90.0
 71
     2
 49
0.5
 62
   256
  6
BYLAYER
 49
-0.5
 62
   256
  6
BYLAYER
  0
ACDBPLACEHOLDER
  5
7
102
{ACAD_REACTORS
330
8
102
}
330
8
  0
TABLESTYLE
  5
A4
102
{ACAD_XDICTIONARY
360
155
102
}
102
{ACAD_REACTORS
330
A2
102
}
330
A2
100
AcDbTableStyle
  3
Standard
 70
     0
 71
     0
 40
1.5
 41
1.5
280
     0
281
     0
  7
Standard
140
4.5
170
     2
 62
     0
 63
     7
283
     0
274
    -2
284
     1
 64
     0
275
    -2
285
     1
 65
     0
276
    -2
286
     1
 66
     0
277
    -2
287
     1
 67
     0
278
    -2
288
     1
 68
     0
279
    -2
289
     1
 69
     0
  7
Standard
140
6.0
170
     5
 62
     0
 63
     7
283
     0
274
    -2
284
     1
 64
     0
275
    -2
285
     1
 65
     0
276
    -2
286
     1
 66
     0
277
    -2
287
     1
 67
     0
278
    -2
288
     1
 68
     0
279
    -2
289
     1
 69
     0
  7
Standard
140
4.5
170
     5
 62
     0
 63
     7
283
     0
274
    -2
284
     1
 64
     0
275
    -2
285
     1
 65
     0
276
    -2
286
     1
 66
     0
277
    -2
287
     1
 67
     0
278
    -2
288
     1
 68
     0
279
    -2
289
     1
 69
     0
  0
VISUALSTYLE
  5
7E
102
{ACAD_REACTORS
330
7F
102
}
330
7F
100
AcDbVisualStyle
  2
2dWireframe
 70
     4
 71
     0
 72
     2
 73
     0
 90
        0
 40
-0.6
 41
-30.0
 62
     5
 63
     7
 74
     1
 91
        4
 64
     7
 65
   257
 75
     1
175
     1
 42
1.0
 92
        0
 66
   257
 43
1.0
 76
     1
 77
     6
 78
     2
 67
     7
 79
     5
170
     0
171
     0
290
     0
174
     0
 93
        1
 44
0.0
173
     0
291
     0
 45
0.0
1001
ACAD
1000
AcDbSavedByObjectVersion
1070
     0
1000
AcDbSavedByObjectVersion
1070
     0
1000
AcDbSavedByObjectVersion
1070
     0
1001
ACAD
1000
AcRTDxfName
1000
VISUALSTYLE
  0
VISUALSTYLE
  5
D8
102
{ACAD_REACTORS
330
7F
102
}
330
7F
100
AcDbVisualStyle
  2
3D Hidden
 70
     6
 71
     1
 72
     2
 73
     2
 90
        0
 40
-0.6
 41
-30.0
 62
     5
 63
     7
 74
     2
 91
        2
 64
     7
 65
   257
 75
     2
175
     1
 42
40.0
 92
        0
 66
   257
 43
1.0
 76
     1
 77
     6
 78
     2
 67
     7
 79
     3
170
     0
171
     0
290
     0
174
     0
 93
        1
 44
0.0
173
     0
291
     0
 45
0.0
1001
ACAD
1000
AcDbSavedByObjectVersion
1070
     0
1000
AcDbSavedByObjectVersion
1070
     0
1001
ACAD
1000
AcRTDxfName
1000
VISUALSTYLE
  0
VISUALSTYLE
  5
A6
102
{ACAD_REACTORS
330
7F
102
}
330
7F
100
AcDbVisualStyle
  2
3dWireframe
 70
     5
 71
     0
 72
     2
 73
     0
 90
        0
 40
-0.6
 41
-30.0
 62
     5
 63
     7
 74
     1
 91
        4
 64
     7
 65
   257
 75
     1
175
     1
 42
1.0
 92
        0
 66
   257
 43
1.0
 76
     1
 77
     6
 78
     2
 67
     7
 79
     5
170
     0
171
     0
290
     0
174
     0
 93
        1
 44
0.0
173
     0
291
     0
 45
0.0
1001
ACAD
1000
AcDbSavedByObjectVersion
1070
     0
1000
AcDbSavedByObjectVersion
1070
     0
1000
AcDbSavedByObjectVersion
1070
     0
1001
ACAD
1000
AcRTDxfName
1000
VISUALSTYLE
  0
VISUALSTYLE
  5
D7
102
{ACAD_REACTORS
330
7F
102
}
330
7F
100
AcDbVisualStyle
  2
Basic
 70
     7
 71
     1
 72
     0
 73
     1
 90
        0
 40
-0.6
 41
-30.0
 62
     5
 63
     7
 74
     0
 91
        4
 64
     7
 65
   257
 75
     1
175
     1
 42
1.0
 92
        8
 66
     7
 43
1.0
 76
     1
 77
     6
 78
     2
 67
     7
 79
     5
170
     0
171
     0
290
     0
174
     0
 93
        1
 44
0.0
173
     0
291
     1
 45
0.0
1001
ACAD
1000
AcDbSavedByObjectVersion
1070
     0
1000
AcDbSavedByObjectVersion
1070
     0
1001
ACAD
1000
AcRTDxfName
1000
VISUALSTYLE
  0
VISUALSTYLE
  5
DB
102
{ACAD_REACTORS
330
7F
102
}
330
7F
100
AcDbVisualStyle
  2
Brighten
 70
    12
 71
     2
 72
     2
 73
     0
 90
        0
 40
-0.6
 41
-30.0
 62
     5
 63
     7
 74
     1
 91
        4
 64
     7
 65
   257
 75
     1
175
     1
 42
1.0
 92
        8
 66
     7
 43
1.0
 76
     1
 77
     6
 78
     2
 67
     7
 79
     5
170
     0
171
     0
290
     0
174
     0
 93
        1
 44
50.0
173
     0
291
     1
 45
0.0
1001
ACAD
1000
AcDbSavedByObjectVersion
1070
     0
1000
AcDbSavedByObjectVersion
1070
     0
1001
ACAD
1000
AcRTDxfName
1000
VISUALSTYLE
  0
VISUALSTYLE
  5
DF
102
{ACAD_REACTORS
330
7F
102
}
330
7F
100
AcDbVisualStyle
  2
ColorChange
 70
    16
 71
     2
 72
     2
 73
     3
 90
        0
 40
-0.6
 41
-30.0
 62
     5
 63
     8
 74
     1
 91
        4
 64
     7
 65
   257
 75
     1
175
     1
 42
1.0
 92
        8
 66
     8
 43
1.0
 76
     1
 77
     6
 78
     2
 67
     7
 79
     5
170
     0
171
     0
290
     0
174
     0
 93
        1
 44
0.0
173
     0
291
     1
 45
0.0
1001
ACAD
1000
AcDbSavedByObjectVersion
1070
     0
1000
AcDbSavedByObjectVersion
1070
     0
1001
ACAD
1000
AcRTDxfName
1000
VISUALSTYLE
  0
VISUALSTYLE
  5
D9
102
{ACAD_REACTORS
330
7F
102
}
330
7F
100
AcDbVisualStyle
  2
Conceptual
 70
     9
 71
     3
 72
     2
 73
     0
 90
        0
 40
-0.6
 41
-30.0
 62
     5
 63
     7
 74
     2
 91
        2
 64
     7
 65
   257
 75
     1
175
     1
 42
40.0
 92
        8
 66
     7
 43
1.0
 76
     1
 77
     6
 78
     2
 67
     7
 79
     3
170
     0
171
     0
290
     0
174
     0
 93
        1
 44
0.0
173
     0
291
     0
 45
0.0
1001
ACAD
1000
AcDbSavedByObjectVersion
1070
     0
1000
AcDbSavedByObjectVersion
1070
     0
1001
ACAD
1000
AcRTDxfName
1000
VISUALSTYLE
  0
VISUALSTYLE
  5
DA
102
{ACAD_REACTORS
330
7F
102
}
330
7F
100
AcDbVisualStyle
  2
Dim
 70
    11
 71
     2
 72
     2
 73
     0
 90
        0
 40
-0.6
 41
-30.0
 62
     5
 63
     7
 74
     1
 91
        4
 64
     7
 65
   257
 75
     1
175
     1
 42
1.0
 92
        8
 66
     7
 43
1.0
 76
     1
 77
     6
 78
     2
 67
     7
 79
     5
170
     0
171
     0
290
     0
174
     0
 93
        1
 44
-50.0
173
     0
291
     1
 45
0.0
1001
ACAD
1000
AcDbSavedByObjectVersion
1070
     0
1000
AcDbSavedByObjectVersion
1070
     0
1001
ACAD
1000
AcRTDxfName
1000
VISUALSTYLE
  0
VISUALSTYLE
  5
DE
102
{ACAD_REACTORS
330
7F
102
}
330
7F
100
AcDbVisualStyle
  2
Facepattern
 70
    15
 71
     2
 72
     2
 73
     0
 90
        0
 40
-0.6
 41
-30.0
 62
     5
 63
     7
 74
     1
 91
        4
 64
     7
 65
   257
 75
     1
175
     1
 42
1.0
 92
        8
 66
     7
 43
1.0
 76
     1
 77
     6
 78
     2
 67
     7
 79
     5
170
     0
171
     0
290
     0
174
     0
 93
        1
 44
0.0
173
     0
291
     1
 45
0.0
1001
ACAD
1000
AcDbSavedByObjectVersion
1070
     0
1000
AcDbSavedByObjectVersion
1070
     0
1001
ACAD
1000
AcRTDxfName
1000
VISUALSTYLE
  0
VISUALSTYLE
  5
D3
102
{ACAD_REACTORS
330
7F
102
}
330
7F
100
AcDbVisualStyle
  2
Flat
 70
     0
 71
     2
 72
     1
 73
     1
 90
        2
 40
-0.6
 41
30.0
 62
     5
 63
     7
 74
     0
 91
        4
 64
     7
 65
   257
 75
     1
175
     1
 42
1.0
 92
        8
 66
     7
 43
1.0
 76
     1
 77
     6
 78
     2
 67
     7
 79
     5
170
     0
171
     0
290
     0
174
     0
 93
       13
 44
0.0
173
     0
291
     1
 45
0.0
1001
ACAD
1000
AcDbSavedByObjectVersion
1070
     0
1000
AcDbSavedByObjectVersion
1070
     0
1001
ACAD
1000
AcRTDxfName
1000
VISUALSTYLE
  0
VISUALSTYLE
  5
D4
102
{ACAD_REACTORS
330
7F
102
}
330
7F
100
AcDbVisualStyle
  2
FlatWithEdges
 70
     1
 71
     2
 72
     1
 73
     1
 90
        2
 40
-0.6
 41
30.0
 62
     5
 63
     7
 74
     1
 91
        4
 64
     7
 65
   257
 75
     1
175
     1
 42
1.0
 92
        0
 66
   257
 43
1.0
 76
     1
 77
     6
 78
     2
 67
     7
 79
     5
170
     0
171
     0
290
     0
174
     0
 93
       13
 44
0.0
173
     0
291
     1
 45
0.0
1001
ACAD
1000
AcDbSavedByObjectVersion
1070
     0
1000
AcDbSavedByObjectVersion
1070
     0
1001
ACAD
1000
AcRTDxfName
1000
VISUALSTYLE
  0
VISUALSTYLE
  5
D5
102
{ACAD_REACTORS
330
7F
102
}
330
7F
100
AcDbVisualStyle
  2
Gouraud
 70
     2
 71
     2
 72
     2
 73
     1
 90
        2
 40
-0.6
 41
30.0
 62
     5
 63
     7
 74
     0
 91
        4
 64
     7
 65
   257
 75
     1
175
     1
 42
1.0
 92
        0
 66
     7
 43
1.0
 76
     1
 77
     6
 78
     2
 67
     7
 79
     5
170
     0
171
     0
290
     0
174
     0
 93
       13
 44
0.0
173
     0
291
     1
 45
0.0
1001
ACAD
1000
AcDbSavedByObjectVersion
1070
     0
1000
AcDbSavedByObjectVersion
1070
     0
1001
ACAD
1000
AcRTDxfName
1000
VISUALSTYLE
  0
VISUALSTYLE
  5
D6
102
{ACAD_REACTORS
330
7F
102
}
330
7F
100
AcDbVisualStyle
  2
GouraudWithEdges
 70
     3
 71
     2
 72
     2
 73
     1
 90
        2
 40
-0.6
 41
30.0
 62
     5
 63
     7
 74
     1
 91
        4
 64
     7
 65
   257
 75
     1
175
     1
 42
1.0
 92
        0
 66
   257
 43
1.0
 76
     1
 77
     6
 78
     2
 67
     7
 79
     5
170
     0
171
     0
290
     0
174
     0
 93
       13
 44
0.0
173
     0
291
     1
 45
0.0
1001
ACAD
1000
AcDbSavedByObjectVersion
1070
     0
1000
AcDbSavedByObjectVersion
1070
     0
1001
ACAD
1000
AcRTDxfName
1000
VISUALSTYLE
  0
VISUALSTYLE
  5
DD
102
{ACAD_REACTORS
330
7F
102
}
330
7F
100
AcDbVisualStyle
  2
Linepattern
 70
    14
 71
     2
 72
     2
 73
     0
 90
        0
 40
-0.6
 41
-30.0
 62
     5
 63
     7
 74
     1
 91
        4
 64
     7
 65
   257
 75
     7
175
     7
 42
1.0
 92
        8
 66
     7
 43
1.0
 76
     1
 77
     6
 78
     2
 67
     7
 79
     5
170
     0
171
     0
290
     0
174
     0
 93
        1
 44
0.0
173
     0
291
     1
 45
0.0
1001
ACAD
1000
AcDbSavedByObjectVersion
1070
     0
1000
AcDbSavedByObjectVersion
1070
     0
1001
ACAD
1000
AcRTDxfName
1000
VISUALSTYLE
  0
VISUALSTYLE
  5
A5
102
{ACAD_REACTORS
330
7F
102
}
330
7F
100
AcDbVisualStyle
  2
Realistic
 70
     8
 71
     2
 72
     2
 73
     0
 90
        0
 40
-0.6
 41
-30.0
 62
     5
 63
     7
 74
     1
 91
        0
 64
     7
 65
   257
 75
     1
175
     1
 42
1.0
 92
        8
 66
     8
 43
1.0
 76
     1
 77
     6
 78
     2
 67
     7
 79
     5
170
     0
171
     0
290
     0
174
     0
 93
       13
 44
0.0
173
     0
291
     0
 45
0.0
1001
ACAD
1000
AcDbSavedByObjectVersion
1070
     0
1000
AcDbSavedByObjectVersion
1070
     0
1000
AcDbSavedByObjectVersion
1070
     0
1001
ACAD
1000
AcRTDxfName
1000
VISUALSTYLE
  0
VISUALSTYLE
  5
DC
102
{ACAD_REACTORS
330
7F
102
}
330
7F
100
AcDbVisualStyle
  2
Thicken
 70
    13
 71
     2
 72
     2
 73
     0
 90
        0
 40
-0.6
 41
-30.0
 62
     5
 63
     7
 74
     1
 91
        4
 64
     7
 65
   257
 75
     1
175
     1
 42
1.0
 92
       12
 66
     7
 43
1.0
 76
     1
 77
     6
 78
     2
 67
     7
 79
     5
170
     0
171
     0
290
     0
174
     0
 93
        1
 44
0.0
173
     0
291
     1
 45
0.0
1001
ACAD
1000
AcDbSavedByObjectVersion
1070
     0
1000
AcDbSavedByObjectVersion
1070
     0
1001
ACAD
1000
AcRTDxfName
1000
VISUALSTYLE
  0
DICTIONARYVAR
  5
AA
102
{ACAD_REACTORS
330
A9
102
}
330
A9
100
DictionaryVariables
280
     0
  1
STANDARD
  0
DICTIONARYVAR
  5
AE
102
{ACAD_REACTORS
330
A9
102
}
330
A9
100
DictionaryVariables
280
     0
  1
2
  0
DICTIONARYVAR
  5
AD
102
{ACAD_REACTORS
330
A9
102
}
330
A9
100
DictionaryVariables
280
     0
  1
1
  0
DICTIONARYVAR
  5
AC
102
{ACAD_REACTORS
330
A9
102
}
330
A9
100
DictionaryVariables
280
     0
  1
0
  0
DICTIONARYVAR
  5
16A
102
{ACAD_REACTORS
330
A9
102
}
330
A9
100
DictionaryVariables
280
     0
  1

  0
DICTIONARYVAR
  5
AB
102
{ACAD_REACTORS
330
A9
102
}
330
A9
100
DictionaryVariables
280
     0
  1
127
  0
DICTIONARY
  5
83
330
82
100
AcDbDictionary
280
     1
281
     1
  3
ACAD_XREC_ROUNDTRIP
360
14CB
  3
ADSK_XREC_LAYOUTTHUMBNAIL
360
84
  0
DICTIONARY
  5
14CC
330
89
100
AcDbDictionary
280
     1
281
     1
  3
ACAD_XREC_ROUNDTRIP
360
14CD
  0
DICTIONARY
  5
14C5
330
77
100
AcDbDictionary
280
     1
281
     1
  3
ACAD_XREC_ROUNDTRIP
360
14C6
  0
DICTIONARY
  5
C7
330
A0
100
AcDbDictionary
280
     1
281
     1
  3
ACAD_XREC_ROUNDTRIP
360
C8
  0
DICTIONARY
  5
C5
330
9F
100
AcDbDictionary
280
     1
281
     1
  3
ACAD_XREC_ROUNDTRIP
360
C6
  0
DICTIONARY
  5
B1
330
A
100
AcDbDictionary
280
     1
281
     1
  3
ACAD_XREC_ROUNDTRIP
360
B2
  0
DICTIONARY
  5
155
330
A4
100
AcDbDictionary
280
     1
281
     1
  3
ACAD_XREC_ROUNDTRIP
360
156
  0
XRECORD
  5
14CB
102
{ACAD_REACTORS
330
83
102
}
330
83
100
AcDbXrecord
280
     1
102
SHADEPLOT
 70
     0
102
SHADEPLOTRESLEVEL
 70
     2
102
SHADEPLOTCUSTOMDPI
 70
   300
  0
XRECORD
  5
84
102
{ACAD_REACTORS
330
83
102
}
330
83
100
AcDbXrecord
280
     1
310
28000000B40000007F00000001000800000000004C59000000000000000000000001000000000000FFFFFF0000000000FFFFFF000000000000000000000000000000000000000000000000000000000000000000330000006600000099000000CC000000FF00000000330000333300006633000099330000CC330000FF3300
310
0000660000336600006666000099660000CC660000FF66000000990000339900006699000099990000CC990000FF99000000CC000033CC000066CC000099CC0000CCCC0000FFCC000000FF000033FF000066FF000099FF0000CCFF0000FFFF000000003300330033006600330099003300CC003300FF003300003333003333
310
33006633330099333300CC333300FF33330000663300336633006666330099663300CC663300FF66330000993300339933006699330099993300CC993300FF99330000CC330033CC330066CC330099CC3300CCCC3300FFCC330000FF330033FF330066FF330099FF3300CCFF3300FFFF330000006600330066006600660099
310
006600CC006600FF00660000336600333366006633660099336600CC336600FF33660000666600336666006666660099666600CC666600FF66660000996600339966006699660099996600CC996600FF99660000CC660033CC660066CC660099CC6600CCCC6600FFCC660000FF660033FF660066FF660099FF6600CCFF6600
310
FFFF660000009900330099006600990099009900CC009900FF00990000339900333399006633990099339900CC339900FF33990000669900336699006666990099669900CC669900FF66990000999900339999006699990099999900CC999900FF99990000CC990033CC990066CC990099CC9900CCCC9900FFCC990000FF99
310
0033FF990066FF990099FF9900CCFF9900FFFF99000000CC003300CC006600CC009900CC00CC00CC00FF00CC000033CC003333CC006633CC009933CC00CC33CC00FF33CC000066CC003366CC006666CC009966CC00CC66CC00FF66CC000099CC003399CC006699CC009999CC00CC99CC00FF99CC0000CCCC0033CCCC0066CC
310
CC0099CCCC00CCCCCC00FFCCCC0000FFCC0033FFCC0066FFCC0099FFCC00CCFFCC00FFFFCC000000FF003300FF006600FF009900FF00CC00FF00FF00FF000033FF003333FF006633FF009933FF00CC33FF00FF33FF000066FF003366FF006666FF009966FF00CC66FF00FF66FF000099FF003399FF006699FF009999FF00CC
310
99FF00FF99FF0000CCFF0033CCFF0066CCFF0099CCFF00CCCCFF00FFCCFF0000FFFF0033FFFF0066FFFF0099FFFF00CCFFFF00FFFFFF00000000000D0D0D001A1A1A00282828003535350043434300505050005D5D5D006B6B6B00787878008686860093939300A1A1A100AEAEAE00BBBBBB00C9C9C900D6D6D600E4E4E400
310
F1F1F100FFFFFF0000000000000000000000000000000000000000000000000000000000000000000000000000000000E2E2E2E2E2E2E2E2E2E2E2E2E2E2E2E2E2E2E2E2E2E2E2E2E2E2E2E2E2E2E2E2E2E2E2E2E2E2E2E2E2E2E2E2E2E2E2E2E2E2E2E2E2E2E2E2E2E2E2E2E2E2E2E2E2E2E2E2E2E2E2E2E2E2E2E2E2E2E2
310
E2E2E2E2E2E2E2E2E2E2E2E2E2E2E2E2E2E2E2E2E2E2E2E2E2E2E2E2E2E2E2E2E2E2E2E2E2E2E2E2E2E2E2E2E2E2E2E2E2E2E2E2E2E2E2E2E2E2E2E2E2E2E2E2E2E2E2E2E2E2E2E2E2E2E2E2E2E2E2E2E2E2E2E2E2E2E2E2E2E2E2E2E2E2E2E2E2E2E2E2E2E2F5F5F5F5F5F5F5F5F5F5F5F5F5F5F5F5F5F5F5F5F5F5F5F5F5
310
F5F5F5F5F5F5F5F5F5F5F5F5F5F5F5F5F5F5F5F5F5F5F5F5F5F5F5F5F5F5F5F5F5F5F5F5F5F5F5F5F5F5F5F5F5F5F5F5F5F5F5F5F5F5F5F5F5F5F5F5F5F5F5F5F5F5F5F5F5F5F5F5F5F5F5F5F5F5F5F5F5F5F5F5F5F5F5F5F5F5F5F5F5F5F5F5F5F5F5F5F5F5F5F5F5F5F5F5F5F5F5F5F5F5F5F5F5F5F5F5F5F5F5F5F5F5F5
310
F5F5F5F5F5F5F5F5F5F5F5F5F5F5F5F5F5F5F5F5F5F5F5F5F5F5E2E2F5E2E2E2E2E2E2E2E2E2F5F5F5F5F5F5F5F5F5E2E2E2E2E2E2E2E2E2E2E2E2E2E2E2E2F5F5F5F5F5F5F5F5F5E2E2E2E2E2E2E2E2E2E2E2E2E2E2E2E2F5F5F5F5F5F5F5F5F5E2E2E2E2E2E2E2E2E2E2E2E2E2E2E2E2F5F5F5F5F5F5F5F5F5E2E2E2E2E2
310
E2E2E2E2E2E2E2E2E2E2E2F5F5F5F5F5F5F5F5F5E2E2E2E2E2E2E2E2E2E2E2E2E2E2E2E2F5F5F5F5F5F5F5F5F5E2E2E2E2E2E2E2E2E2E2E2E2E2E2E2E2F5F5F5F5F5F5F5F5F5E2E2E2E2E2E2E2E2F5E2E2F5E2F5F5F5F5F5F5F5F5F5F5F5F5F5F5F5F5F5F5F5F5F5F5F5F5F5F5F5F5F5F5F5F5F5F5F5F5F5F5F5F5F5F5F5F5
310
F5F5F5F5F5F5F5F5F5F5F5F5F5F5F5F5F5F5F5F5F5F5F5F5F5F5F5F5F5F5F5F5F5F5F5F5F5F5F5F5F5F5F5F5F5F5F5F5F5F5F5F5F5F5F5F5F5F5F5F5F5F5F5F5F5F5F5F5F5F5F5F5F5F5F5F5F5F5F5F5F5F5F5F5F5F5F5F5F5F5F5F5F5F5F5F5F5F5F5F5F5F5F5F5F5F5F5F5F5F5F5F5F5F5F5F5F5F5F5F5F5F5F5F5F5F5F5
310
F5F5F5E2F5E2E2F5E2F5F5F5F5F5F5F5F5F5F5F5F5F5F5F5F5F5F5F5F5F5F5F5F5F5F5F5F5F5F5F5F5F5F5F5F5F5F5F5F5F5F5F5F5F5F5F5F5F5F5F5F5F5F5F5F5F5F5F5F5F5F5F5F5F5F5F5F5F5F5F5F5F5F5F5F5F5F5F5F5F5F5F5F5F5F5F5F5F5F5F5F5F5F5F5F5F5F5F5F5F5F5F5F5F5F5F5F5F5F5F5F5F5F5F5F5F5F5
310
F5F5F5F5F5F5F5F5F5F5F5F5F5F5F5F5F5F5F5F5F5F5F5F5F5F5F5F5F5F5F5F5F5F5F5F5F5F5F5F5F5F5F5F5F5F5F5F5F5F5F5F5F5F5F5F5E2F5E2E2F5E2F5F5F5F5F5F5F5F5F5F5F5F5F5F5F5F5F5F5F5F5F5F5F5F5F5F5F5F5F5F5F5F5F5F5F5F5F5F5F5F5F5F5F5F5F5F5F5F5F5F5F5F5F5F5F5F5F5F5F5F5F5F5F5F5F5
310
F5F5F5F5F5F5F5F5F5F5F5F5F5F5F5F5F5F5F5F5F5F5F5F5F5F5F5F5F5F5F5F5F5F5F5F5F5F5F5F5F5F5F5F5F5F5F5F5F5F5F5F5F5F5F5F5F5F5F5F5F5F5F5F5F5F5F5F5F5F5F5F5F5F5F5F5F5F5F5F5F5F5F5F5F5F5F5F5F5F5F5F5F5F5F5F5F5F5F5F5F5F5F5F5F5F5F5F5F5E2F5E2E2F5E2F5F5F5F5F5F5F5F5F5F5F5F5
310
F5F5F5F5F5F5F5F5F5F5F5F5F5F5F5F5F5F5F5F5F5F5F5F5F5F5F5F5F5F5F5F5F5F5F5F5F5F5F5F5F5F5F5F5F5F5F5F5F5F5F5F5F5F5F5F5F5F5F5F5F5F5F5F5F5F5F5F5F5F5F5F5F5F5F5F5F5F5F5F5F5F5F5F5F5F5F5F5F5F5F5F5F5F5F5F5F5F5F5F5F5F5F5F5F5F5F5F5F5F5F5F5F5F5F5F5F5F5F5F5F5F5F5F5F5F5F5
310
F5F5F5F5F5F5F5F5F5F5F5F5F5F5F5F5F5F5F5F5F5F5F5F5F5F5F5F5F5F5F5F5F5F5F5E2F5E2E2F5E2F5F5F5F5F5F5F5F5F5F5F5F5F5F5F5F5F5F5F5F5F5F5F5F5F5F5F5F5F5F5F5F5F5F5F5F5F5F5F5F5F5F5F5F5F5F5F5F5F5F5F5F5F5F5F5F5F5F5F5F5F5F5F5F5F5F5F5F5F5F5F5F5F5F5F5F5F5F5F5F5F5F5F5F5F5F5
310
F5F5F5F5F5F5F5F5F5F5F5F5F5F5F5F5F5F5F5F5F5F5F5F5F5F5F5F5F5F5F5F5F5F5F5F5F5F5F5F5F5F5F5F5F5F5F5F5F5F5F5F5F5F5F5F5F5F5F5F5F5F5F5F5F5F5F5F5F5F5F5F5F5F5F5F5F5F5F5F5F5F5F5F5F5F5F5F5E2F5E2E2F5E2F5F5F5F5F5F5F5F5F5F5F5F5F5F5F5F5F5F5F5F5F5F5F5F5F5F5F5F5F5F5F5F5F5
310
F5F5F5F5F5F5F5F5F5F5F5F5F5F5F5F5F5F5F5F5F5F5F5F5F5F5F5F5F5F5F5F5F5F5F5F5F5F5F5F5F5F5F5F5F5F5F5F5F5F5F5F5F5F5F5F5F5F5F5F5F5F5F5F5F5F5F5F5F5F5F5F5F5F5F5F5F5F5F5F5F5F5F5F5F5F5F5F5F5F5F5F5F5F5F5F5F5F5F5F5F5F5F5F5F5F5F5F5F5F5F5F5F5F5F5F5F5F5F5F5F5F5F5F5F5F5F5
310
F5F5F5F5F5F5F5F5F5F5F5F5F5F5E2F5E2E2F5E2F5F5F5F5F5F5F5F5F5F5F5F5F5F5F5F5F5F5F5F5F5F5F5F5F5F5F5F5F5F5F5F5F5F5F5F5F5F5F5F5F5F5F5F5F5F5F5F5F5F5F5F5F5F5F5F5F5F5F5F5F5F5F5F5F5F5F5F5F5F5F5F5F5F5F5F5F5F5F5F5F5F5F5F5F5F5F5F5F5F5F5F5F5F5F5F5F5F5F5F5F5F5F5F5F5F5F5
310
F5F5F5F5F5F5F5F5F5F5F5F5F5F5F5F5F5F5F5F5F5F5F5F5F5F5F5F5F5F5F5F5F5F5F5F5F5F5F5F5F5F5F5F5F5F5F5F5F5F5F5F5F5F5F5F5F5F5F5F5F5F5F5F5F5F5F5E2F5E2E2F5F5F5F5F5F5F5F5F5F5F5F5F5F5F5F5F5F5F5F5F5F5F5F5F5F5F5F5F5F5F5F5F5F5F5F5F5F5F5F5F5F5F5F5F5F5F5F5F5F5F5F5F5F5F5F5
310
F5F5F5F5F5F5F5F5F5F5F5F5F5F5F5F5F5F5F5F5F5F5F5F5F5F5F5F5F5F5F5F5F5F5F5F5F5F5F5F5F5F5F5F5F5F5F5F5F5F5F5F5F5F5F5F5F5F5F5F5F5F5F5F5F5F5F5F5F5F5F5F5F5F5F5F5F5F5F5F5F5F5F5F5F5F5F5F5F5F5F5F5F5F5F5F5F5F5F5F5F5F5F5F5F5F5F5F5F5F5F5F5F5F5F5F5F5F5F5F5F5F5E2E2F5F5F5
310
F5F5F5F5F5F5F5F5F5F5F5F5F5F5F5F5F5F5F5F5F5F5F5F5F5F5F5F5F5F5F5F5F5F5F5F5F5F5F5F5F5F5F5F5F5F5F5F5F5F5F5F5F5F5F5F5F5F5F5F5F5F5F5F5F5F5F5F5F5F5F5F5F5F5F5F5F5F5F5F5F5F5F5F5F5F5F5F5F5F5F5F5F5F5F5F5F5F5F5F5F5F5F5F5F5F5F5F5F5F5F5F5F5F5F5F5F5F5F5F5F5F5F5F5F5F5F5
310
F5F5F5F5F5F5F5F5F5F5F5F5F5F5F5F5F5F5F5F5F5F5F5F5F5F5F5F5F5F5F5F5F5F5F5F5F5F5F5F5F5F5F5F5F5F5F5F5E2E2F5F5F5F5F5F5F5F5F5F5F5F5F5F5F5F5F5F5F5F5F5F5F5F5F5F5F5F5F5F5F5F5F5F5F5F5F5F5F5F5F5F5F5F5F5F5F5F5F5F5F5F5F5F5F5F5F5F5F5F5F5F5F5F5F5F5F5F5F5F5F5F5F5F5F5F5F5
310
F5F5F5F5F5F5F5F5F5F5F5F5F5F5F5F5F5F5F5F5F5F5F5F5F5F5F5F5F5F5F5F5F5F5F5F5F5F5F5F5F5F5F5F5F5F5F5F5F5F5F5F5F5F5F5F5F5F5F5F5F5F5F5F5F5F5F5F5F5F5F5F5F5F5F5F5F5F5F5F5F5F5F5F5F5F5F5F5F5F5F5F5F5F5F5F5F5F5F5F5F5E2E2F5F5F5F5F5F5F5F5F5F5F5F5F5F5F5F5F5F5F5F5F5F5F5F5
310
F5F5F5F5F5F5F5F5F5F5F5F5F5F5F5F5F5F5F5F5F5F5F5F5F5F5F5F5F5F5F5F5F5F5F5F5F5F5F5F5F5F5F5F5F5F5F5F5F5F5F5F5F5F5F5F5F5F5F5F5F5F5F5F5F5F5F5F5F5F5F5F5F5F5F5F5F5F5F5F5F5F5F5F5F5F5F5F5F5F5F5F5F5F5F5F5F5F5F5F5F5F5F5F5F5F5F5F5F5F5F5F5F5F5F5F5F5F5F5F5F5F5F5F5F5F5F5
310
F5F5F5F5F5F5F5F5F5F5F5F5F5F5F5F5F5F5F5F5F5F5F5F5F5F5F5E2E2F5F5F5F5F5F5F5F5F5F5F5F5F5F5F5F5F5F5F5DCDCDCDCDCDCDCDCDCDCDCDCDCDCDCDCDCDCDCDCDCDCDCDCDCDCDCDCDCDCDCDCDCDCDCDCDCDCDCDCDCDCDCDCDCDCDCDCDCDCDCDCDCDCDCDCDCDCDCDCDCDCDCDCDCDCDCDCDCDCDCDCDCDCDCDCDCDCDC
310
DCDCDCDCDCDCDCDCDCDCDCDCDCDCDCDCDCDCDCDCDCDCDCDCDCDCDCDCDCDCDCDCDCDCDCDCDCDCDCDCDCDCDCDCDCDCDCDCDCDCDCDCDCDCDCDCDCDCDCDCDCF5F5F5F5F5F5F5F5F5F5F5F5F5F5F5F5F5F5F5E2E2F5F5F5F5F5F5F5F5F5F5F5F5F5F5F5F5F5F5F5DCDCDCDCDCDCDCDCDCDCDCDCDCDCDCDCDCDCDCDCDCDCDCDCDCDC
310
DCDCDCDCDCDCDCDCDCDCDCDCDCDCDCDCDCDCDCDCDCDCDCDCDCDCDCDCDCDCDCDCDCDCDCDCDCDCDCDCDCDCDCDCDCDCDCDCDCDCDCDCDCDCDCDCDCDCDCDCDCDCDCDCDCDCDCDCDCDCDCDCDCDCDCDCDCDCDCDCDCDCDCDCDCDCDCDCDCDCDCDCDCDCDCDCDCDCDCDCDCDCDCDCDCDCDCDCDCDCDCDCDCDCF5F5F5F5F5F5F5F5F5F5F5F5F5
310
F5F5F5F5F5F5E2E2F5F5F5F5F5F5F5F5F5F5F5F5F5F5F5F5F5F5F5DCF5F5F5F5F5F5F5F5F5F5F5F5F5F5F5F5F5F5F5F5F5F5F5F5F5F5F5F5F5F5F5F5F5F5F5F5F5F5F5F5F5F5F5F5F5F5F5F5F5F5F5F5F5F5F5F5F5F5F5F5F5F5F5F5F5F5F5F5F5F5F5F5F5F5F5F5F5F5F5F5F5F5F5F5F5F5F5F5F5F5F5F5F5F5F5F5F5F5F5
310
F5F5F5F5F5F5F5F5F5F5F5F5F5F5F5F5F5F5F5F5F5F5F5F5F5F5F5F5F5F5F5F5F5F5F5F5F5F5F5DCF5F5F5F5F5F5F5F5F5F5F5F5F5F5F5F5F5F5F5E2E2F5F5F5F5F5F5F5F5F5F5F5F5F5F5F5F5F5F5F5DCF5282828282828282828282828282828282828282828282828282828282828282828282828282828282828282828
310
28282828282828282828282828282828282828282828282828282828282828282828282828282828282828282828282828282828282828282828282828282828282828282828282828282828282828282828282828282828282828F5DCF5F5F5F5F5F5F5F5F5F5F5F5F5F5F5F5F5F5F5E2E2F5F5F5F5F5F5F5F5F5F5F5F5F5
310
F5F5F5F5F5F5DCF5282D2D2D2D2D2D2D2D2D2D2D2D2D2D2D2D2D2D2D2D2DF5F5F5F5F5F5F5F5F5F5F5F5F5F5F5F5F5F5F5F5F5F5F5F5F5F5F5F5F5F5F5F5F5F5F5F5F5F5F5F5F5F5F5F5F528F5F5F5F5F5F5F5F5F5F5F5F5F5F5F5F5F5F5F5F5F5F5F5F5F5F5F5F5F5F5F5F5F5F5F5F5F5F5F5F5F5F5F5F5F5F5F5F5F5F5F5
310
F5F5F5F5F5F5F5F5F5F5F5F5F5F5F5F528F5DCF5F5F5F5F5F5F5F5F5F5F5F5F5F5F5F5F5F5F5E2E2F5E2F5F5F5F5F5F5F5F5F5F5F5F5F5F5F5F5F5DCF5282D2D2D2D2D2D2D2D2D2D2D2D2D2D2D2D2D2D2D2D2D2D2D2D2D2D2D2D2DF5F5F5F5F5F5F5F5F5F5F5F5F5F5F5F5F5F5F5F5F5F5F5F5F5F5F5F5F5F5F5F5F5F5F5F5
310
F528F5F5F5F5F5F5F5F5F5F5F5F5F5F5F5F5F5F5F5F5F5F5F5F5F5F5F5F5F5F5F5F5F5F5F5F5F5F5F5F5F5F5F5F5F5F5F5F5F5F5F5F5F5F5F5F5F5F5F5F5F5F5F5F5F5F5F528F5DCF5F5F5F5F5F5F5F5F5F5F5F5F5F5F5F5F5E2F5E2E2F5E2F5F5F5F5F5F5F5F5F5F5F5F5F5F5F5F5F5DCF5282D2D2D2D2D2D2D2D2D2D2D2D
310
2D2D2D2D2D2D2D2D2D2D2D2D2D2D2D2D2DF5F5F5F5F5F5F5F5F5F5F5F5F5F5F5F5F5F5F5F5F5F5F5F5F5F5F5F5F5F5F5F5F5F5F5F5F528F5F5F5F5F5F5F5F52D2D2D2D2D2D2D2D2D2D2D2D2D2D2D2D2D2D2D2D2D2D2D2D2D2D2D2D2D2D2D2D2D2D2D2D2D2D2D2D2D2D2D2D2D2D2D2D2D2D2DF5F5F5F5F5F5F5F528F5DCF5F5
310
F5F5F5F5F5F5F5F5F5F5F5F5F5F5F5E2F5E2E2F5E2F5F5F5F5F5F5F5F5F5F5F5F5F5F5F5F5F5DCF5282D2D2D2D2D2D2D2D2D2D2D2D2D2D2D2D2D2D2D2D2D2D2D2D2D2D2D2D2D2D2D2D2D2D2D2D2D2D2D2D2D2D2D2D2D2D2D2D2D2D2D2D2D2D2D2D2D2D2D2D2D2D2D2D2D2D28F5F5F5F5F5F5F5F52D2D2D2D2D2D2D2D2D2D2D
310
2D2D2D2D2D2D2D2D2D2D2D2D2D2D2D2D2D2D2D2D2D2D2D2D2D2D2D2D2D2D2D2D2D2D2D2D2D2D2D2DF5F5F5F5F5F5F5F528F5DCF5F5F5F5F5F5F5F5F5F5F5F5F5F5F5F5F5E2F5E2E2F5E2F5F5F5F5F5F5F5F5F5F5F5F5F5F5F5F5F5DCF5282D2D2D2D2D2D2D2D2D2D2D2D2D2D2D2D2D2D2D2D2D2D2D2D2D2D2D2D2D2D2D2D2D
310
2D2D2D2D2D2D2D2D2D2D2D2D2D2D2D2D2D2D2D2D2D2D2D2D2D2D2D2D2DF5F5F5F528F5F5F5F5F5F5F5F5F5F5F5F52D2D2D2D2D2D2D2D2D2D2D2D2D2D2D2D2D2D2D2D2D2D2D2D2D2D2D2D2D2D2D2D2D2D2D2D2D2D2D2D2D2DF5F5F5F5F5F5F5F5F5F5F5F5F528F5DCF5F5F5F5F5F5F5F5F5F5F5F5F5F5F5F5F5E2F5E2E2F5E2
310
F5F5F5F5F5F5F5F5F5F5F5F5F5F5F5F5F5DCF5282D2D2D2D2D2D2D2D2D2D2D2D2D2D2D2D2D2D2D2D2D2D2D2D2D2D2D2D2D2D2D2D2D2D2D2D2D2D2D2D2D2D2D2D2D2D2D2D2D2D2D2D2D2D2D2D2D2D2D2D2D2DF5F5F5F528F5F5F5F5F5F5F5F5F5F5F5F52D2D2D2D2D2D2D2D2D2D2D2D2D2D2D2D2D2D2D2D2D2D2D2D2D2D2D2D
310
2D2D2D2D2D2D2D2D2D2D2D2D2D2DF5F5F5F5F5F5F5F5F5F5F5F5F528F5DCF5F5F5F5F5F5F5F5F5F5F5F5F5F5F5F5F5E2F5E2E2F5E2F5F5F5F5F5F5F5F5F5F5F5F5F5F5F5F5F5DCF5282D2D2D2D2D2D2D2D2D2D2D2D2D2D2D2D2D2D2D2D2D2D2D2D2D2D2D2D2D2D2D2D2D2D2D2D2D2D2D2D2D2D2D2D2D2D2D2D2D2D2D2D2D2D
310
2D2D2D2D2DF5F5F5F5F5F5F528F5F5F5F5F5F5F5F5F5F5F5F5F5F5F5F5F5F5F5F5F5F5F5F5F5F5F5F52D2D2D2D2D2D2D2D2D2DF5F5F5F5F5F5F5F5F5F5F5F5F5F5F5F5F5F5F5F5F5F5F5F5F5F5F5F5F528F5DCF5F5F5F5F5F5F5F5F5F5F5F5F5F5F5F5F5E2F5E2E2F5E2F5F5F5F5F5F5F5F5F5F5F5F5F5F5F5F5F5DCF5282D
310
2D2D2D2D2D2D2D2D2D2D2D2D2D2D2D2D2D2D2D2D2D2D2D2D2D2D2D2D2D2D2DF5F5F5F5F5F5F5F5F5F5F5F5F5F5F5F5F5F5F5F5F5F5F5F5F5F5F5F5F5F5F5F5F5F528F5F5F5F5F5F5F5F5F5F5F5F5F5F5F5F5F5F5F5F5F5F5F5F5F5F5F5F52D2D2D2D2D2D2D2D2D2DF5F5F5F5F5F5F5F5F5F5F5F5F5F5F5F5F5F5F5F5F5F5F5
310
F5F5F5F5F5F528F5DCF5F5F5F5F5F5F5F5F5F5F5F5F5F5F5F5F5E2F5E2E2F5E2F5F5F5F5F5F5F5F5F5F5F5F5F5F5F5F5F5DCF5282D2D2D2D2D2D2D2D2D2D2D2D2D2D2D2D2D2D2D2D2D2D2D2D2D2D2D2D2D2D2D2DF5F5F5F5F5F5F5F5F5F5F5F5F5F5F5F5F5F5F5F5F5F5F5F5F5F5F5F5F5F5F5F5F5F528F5F5F5F5F5F5F5F5
310
F5F5F5F5F5F5F5F5F5F5F5F5F5F5F5F5F5F5F5F52D2D2D2D2D2D2D2D2D2DF5F5F5F5F5F5F5F5F5F5F5F5F5F5F5F5F5F5F5F5F5F5F5F5F5F5F5F5F528F5DCF5F5F5F5F5F5F5F5F5F5F5F5F5F5F5F5F5E2F5E2E2F5E2F5F5F5F5F5F5F5F5F5F5F5F5F5F5F5F5F5DCF5282D2D2D2D2D2D2D2D2D2D2D2D2D2D2D2D2D2D2D2D2D2D
310
2D2D2D2D2D2D2D2D2D2D2D2D2D2D2D2D2D2D2D2D2D2D2D2D2D2D2D2D2D2D2D2D2D2D2D2D2D2D2D2D2D2DF5F528F5F5F5F5F5F5F5F5F5F5F5F5F5F5F5F5F5F5F5F5F5F5F5F5F5F5F5F5F5F5F5F5F5F5F5F5F5F5F5F5F5F5F5F5F5F5F5F5F5F5F5F5F5F5F5F5F5F5F5F5F5F5F5F5F5F5F528F5DCF5F5F5F5F5F5F5F5F5F5F5F5
310
F5F5F5F5F5E2F5E2E2F5E2F5F5F5F5F5F5F5F5F5F5F5F5F5F5F5F5F5DCF528F5F5F5F5F5F5F5F5F5F5F5F5F5F5F5F5F5F5F5F5F5F5F5F5F5F5F5F5F5F5F5F5F5F5F5F5F5F5F5F5F5F5F5F5F5F5F5F5F5F5F5F5F5F5F5F5F5F5F5F5F5F5F5F5F5F528F5F5F5F5F5F5F5F5F5F5F5F5F5F5F5F5F5F5F5F5F5F5F5F5F5F5F5F5F5
310
F5F5F5F5F5F5F5F5F5F5F5F5F5F5F5F5F5F5F5F5F5F5F5F5F5F5F5F5F5F5F5F5F5F5F5F5F5F528F5DCF5F5F5F5F5F5F5F5F5F5F5F5F5F5F5F5F5E2F5E2E2F5E2F5F5F5F5F5F5F5F5F5F5F5F5F5F5F5F5F5DCF52828282828282828282828282828282828282828282828282828282828282828282828282828282828282828
310
2828282828282828282828282828282828282828282828282828282828282828282828282828282828282828282828282828282828282828282828282828282828282828282828282828282828282828282828282828282828282828F5DCF5F5F5F5F5F5F5F5F5F5F5F5F5F5F5F5F5E2F5E2E2F5E2F5F5F5F5F5F5F5F5F5F5
310
F5F5F5F5F5F5F5DCF528F5F5F5F5F5F5F5F5F5F5F5F5F5F5F5F5F5F5F5F5F5F5F5F5F5F5F5F5F5F5F5F5F5F5F5F5F5F5F5F5F5F5F5F5F5F5F5F5F5F5F5F5F5F5F5F5F5F5F5F5F5F5F5F5F5F5F5F5F5F5F5F5F5F5F5F5F5F5F5F5F5F5F5F5F5F5F5F5F5F5F5F5F5F5F5F5F5F5F5F5F5F5F5F5F5F5F5F5F5F5F5F5F5F5F5F5F5
310
F5F5F5F5F5F5F5F5F5F5F5F5F5F5F5F5F528F5DCF5F5F5F5F5F5F5F5F5F5F5F5F5F5F5F5F5E2F5E2E2F5E2F5F5F5F5F5F5F5F5F5F5F5F5F5F5F5F5F5DCF528F5F5F5F5F5F5F5F5F5F5F5F5F5F5F5F5F5F5F5F5F5F5F5F5F5F5F5F5F5F5F5F5F5F5F5F5F5F5F5F5F5F5F5F5F5F5F5F5F5F5F5F5F5F5F5F5F5F5F5F5F5F5F5F5
310
F5F5F5F5F5F5F5F5F5F5F5F5F5F5F5F5F5F5F5F5F5F5F5F5F5F5F5F5F5F5F5F5F5F5F5F5F5F5F5F5F5F5F5F5F5F5F5F5F5F5F5F5F5F5F5F5F5F5F5F5F5F5F5F5F5F5F5F5F5F528F5DCF5F5F5F5F5F5F5F5F5F5F5F5F5F5F5F5F5E2F5E2E2F5E2F5F5F5F5F5F5F5F5F5F5F5F5F5F5F5F5F5DCF528F5F5F5F5F5F5F5F5F5F5F5
310
F5F5F5F5F5F5F5F5F5F5F5F5F5F5F5F5F5F5F5F5F5F5F5F5F5F5F5F5F5F5F5F5F5F5F5F5F5F5F5F5F5F5F5F5F5F5F5F5F5F5F5F5F5F5F5F5F5F5F5F5F5F5F5F5F5F5F5F5F5F5F5F5F5F5F5F5F5F5F5F5F5F5F5F5F5F5F5F5F5F5F5F5F5F5F5F5F5F5F5F5F5F5F5F5F5F5F5F5F5F5F5F5F5F5F5F5F5F5F5F5F5F5F528F5DCF5
310
F5F5F5F5F5F5F5F5F5F5F5F5F5F5F5F5E2F5E2E2F5E2F5F5F5F5F5F5F5F5F5F5F5F5F5F5F5F5F5DCF528F5F5F5F5F5F5F5F5F5F5F5F5F5F5F5F5F5F5F5F5F5F5F5F5F5F5F5F5F5F5F5F5F5F5F5F5F5F5F5F5F5F5F5F5F5F5F5F5F5F5F5F5F5F5F5F5F5F5F5F5F5F5F5F5F5F5F5F5F5F5F5F5F5F5F5F5F5F5F5F5F5F5F5F5F5
310
F5F5F5F5F5F5F5F5F5F5F5F5F5F5F5F5F5F5F5F5F5F5F5F5F5F5F5F5F5F5F5F5F5F5F5F5F5F5F5F5F5F5F5F5F5F5F5F5F528F5DCF5F5F5F5F5F5F5F5F5F5F5F5F5F5F5F5F5E2F5E2E2F5E2F5F5F5F5F5F5F5F5F5F5F5F5F5F5F5F5F5DCF528F5F5F5F5F5F5F5F5F5F5F5F5F5F5F5F5F5F5F5F5F5F5F5F5F5F5F5F5F5F5F5F5
310
F5F5F5F5F5F5F5F5F5F5F5F5F5F5F5F5F5F5F5F5F5F5F5F5F5F5F5F5F5F5F5F5F5F5F5F5F5F5F5F5F5F5F5F5F5F5F5F5F5F5F5F5F5F5F5F5F5F5F5F5F5F5F5F5F5F5F5F5F5F5F5F5F5F5F5F5F5F5F5F5F5F5F5F5F5F5F5F5F5F5F5F5F5F5F5F5F5F5F5F5F5F528F5DCF5F5F5F5F5F5F5F5F5F5F5F5F5F5F5F5F5E2F5E2E2F5
310
F5F5F5F5F5F5F5F5F5F5F5F5F5F5F5F5F5F5DCF528F5F5F5F5F5F5F5F5F5F5F5F5F5F5F5F5F5F5F5F5F5F5F5F5F5F5F5F5F5F5F5F5F5F5F5F5F5F5F5F5F5F5F5F5F5F5F5F5F5F5F5F5F5F5F5F5F5F5F5F5F5F5F5F5F5F5F5F5F5F5F5F5F5F5F5F5F5F5F5F5F5F5F5F5F5F5F5F5F5F5F5F5F5F5F5F5F5F5F5F5F5F5F5F5F5F5
310
F5F5F5F5F5F5F5F5F5F5F5F5F5F5F5F5F5F5F5F5F5F5F5F5F5F5F5F528F5DCF5F5F5F5F5F5F5F5F5F5F5F5F5F5F5F5F5F5F5E2E2F5F5F5F5F5F5F5F5F5F5F5F5F5F5F5F5F5F5F5DCF528F5F5F5F5F5F5F5F5F5F5F5F5F5F5F5F5F5F5F5F5F5F5F5F5F5F5F5F5F5F5F5F5F5F5F5F5F5F5F5F5F5F5F5F5F5F5F5F5F5F5F5F5F5
310
F5F5F5F5F5F5F5F5F5F5F5F5F5F5F5F5F5F5F5F5F5F5F5F5F5F5F5F5F5F5F5F5F5F5F5F5F5F5F5F5F5F5F5F5F5F5F5F5F5F5F5F5F5F5F5F5F5F5F5F5F5F5F5F5F5F5F5F5F5F5F5F5F5F5F5F5F5F5F5F5F528F5DCF5F5F5F5F5F5F5F5F5F5F5F5F5F5F5F5F5F5F5E2E2F5F5F5F5F5F5F5F5F5F5F5F5F5F5F5F5F5F5F5DCF528
310
F5F5F5F5F5F5F5F5F5F5F5F5F5F5F5F5F5F5F5F5F5F5F5F5F5F5F5F5F5F5F5F5F5F5F5F5F5F5F5F5F5F5F5F5F5F5F5F5F5F5F5F5F5F5F5F5F5F5F5F5F5F5F5F5F5F5F5F5F5F5F5F5F5F5F5F5F5F5F5F5F5F5F5F5F5F5F5F5F5F5F5F5F5F5F5F5F5F5F5F5F5F5F5F5F5F5F5F5F5F5F5F5F5F5F5F5F5F5F5F5F5F5F5F5F5F5F5
310
F5F5F5F5F5F5F528F5DCF5F5F5F5F5F5F5F5F5F5F5F5F5F5F5F5F5F5F5E2E2F5F5F5F5F5F5F5F5F5F5F5F5F5F5F5F5F5F5F5DCF528F5F5F5F5F5F5F5F5F5F5F5F5F5F5F5F5F5F5F5F5F5F5F5F5F5F5F5F5F5F5F5F5F5F5F5F5F5F5F5F5F5F5F5F5F5F5F5F5F5F5F5F5F5F5F5F5F5F5F5F5F5F5F5F5F5F5F5F5F5F5F5F5F5F5
310
F5F5F5F5F5F5F5F5F5F5F5F5F5F5F5F5F5F5F5F5F5F5F5F5F5F5F5F5F5F5F5F5F5F5F5F5F5F5F5F5F5F5F5F5F5F5F5F5F5F5F5F5F5F5F5F5F5F5F5F528F5DCF5F5F5F5F5F5F5F5F5F5F5F5F5F5F5F5F5F5F5E2E2F5F5F5F5F5F5F5F5F5F5F5F5F5F5F5F5F5F5F5DCF528F5F5F5F5F5F5F5F5F5F5F5F5F5F5F5F5F5F5F5F5F5
310
F5F5F5F5F5F5F5F5F5F5F5F5F5F5F5F5F5F5F5F5F5F5F5F5F5F5F5F5F5F5F5F5F5F5F5F5F5F5F5F5F5F5F5F5F5F5F5F5F5F5F5F5F5F5F5F5F5F5F5F5F5F5F5F5F5F5F5F5F5F5F5F5F5F5F5F5F5F5F5F5F5F5F5F5F5F5F5F5F5F5F5F5F5F5F5F5F5F5F5F5F5F5F5F5F5F5F5F5F5F5F5F5F528F5DCF5F5F5F5F5F5F5F5F5F5F5
310
F5F5F5F5F5F5F5F5E2E2F5F5F5F5F5F5F5F5F5F5F5F5F5F5F5F5F5F5F5DCF528F5F5F5F5F5F5F5F5F5F5F5F5F5F5F5F5F5F5F5F5F5F5F5F5F5F5F5F5F5F5F5F5F5F5F5F5F5F5F5F5F5F5F5F5F5F5F5F5F5F5F5F5F5F5F5F5F5F5F5F5F5F5F5F5F5F5F5F5F5F5F5F5F5F5F5F5F5F5F5F5F5F5F5F5F5F5F5F5F5F5F5F5F5F5F5
310
F5F5F5F5F5F5F5F5F5F5F5F5F5F5F5F5F5F5F5F5F5F5F5F5F5F5F5F5F5F5F5F5F5F5F5F5F5F5F528F5DCF5F5F5F5F5F5F5F5F5F5F5F5F5F5F5F5F5F5F5E2E2F5F5F5F5F5F5F5F5F5F5F5F5F5F5F5F5F5F5F5DCF528F5F5F5F5F5F5F5F5F5F5F5F5F5F5F5F5F5F5F5F5F5F5F5F5F5F5F5F5F5F5F5F5F5F5F5F5F5F5F5F5F5F5
310
F5F5F5F5F5F5F5F5F5F5F5F5F5F5F5F5F5F5F5F5F5F5F5F5F5F5F5F5F5F5F5F5F5F5F5F5F5F5F5F5F5F5F5F5F5F5F5F5F5F5F5F5F5F5F5F5F5F5F5F5F5F5F5F5F5F5F5F5F5F5F5F5F5F5F5F5F5F5F5F5F5F5F5F5F5F5F5F5F5F5F5F528F5DCF5F5F5F5F5F5F5F5F5F5F5F5F5F5F5F5F5F5F5E2E2F5F5F5F5F5F5F5F5F5F5F5
310
F5F5F5F5F5F5F5F5DCF528F5F5F5F5F5F5F5F5F5F5F5F5F5F5F52D2D2D2D2D2D2D2D2D2DF5F5F5F5F5F5F5F5F5F5F5F5F5F5F5F5F5F5F5F5F5F5F5F5F5F5F5F5F5F5F5F5F5F5F5F5F5F5F5F5F5F5F5F5F5F5F5F5F5F5F5F5F5F5F5F5F5F5F5F5F5F5F5F5F5F5F5F5F5F5F5F5F5F5F5F5F5F5F5F5F5F5F5F5F5F5F5F5F5F5F5
310
F5F5F5F5F5F5F5F5F5F5F5F5F5F5F5F5F5F528F5DCF5F5F5F5F5F5F5F5F5F5F5F5F5F5F5F5F5F5F5E2E2F5E2F5F5F5F5F5F5F5F5F5F5F5F5F5F5F5F5F5DCF528F5F5F5F5F5F5F5F5F5F5F5F5F5F5F52D2D2D2D2D2D2D2D2D2DF5F5F5F5F5F5F5F5F5F5F5F5F5F5F5F5F5F5F5F5F5F5F5F5F5F5F5F5F5F5F5F5F5F5F5F5F5F5
310
F5F5F5F5F5F5F5F5F5F5F5F5F5F5F5F5F5F5F5F5F5F5F5F5F5F5F5F5F5F5F5F5F5F5F5F5F5F5F5F5F5F5F5F5F5F5F5F5F5F5F5F5F5F5F5F5F5F5F5F5F5F5F5F5F5F5F5F5F5F5F528F5DCF5F5F5F5F5F5F5F5F5F5F5F5F5F5F5F5F5E2F5E2E2F5E2F5F5F5F5F5F5F5F5F5F5F5F5F5F5F5F5F5DCF528F5F5F5F5F5F5F5F5F5F5
310
F5F5F5F5F5F5F5F5F5F5F5F5F5F5F5F5F5F5F5F5F5F5F5F5F5F5F5F5F5F5F5F5F5F5F5F5F5F5F5F5F5F5F5F5F5F5F5F5F5F5F5F5F5F5F5F5F5F5F5F5F5F5F5F5F5F5F5F5F5F5F5F5F5F5F5F5F5F5F5F5F5F5F5F5F5F5F5F5F5F5F5F5F5F5F5F5F5F5F5F5F5F5F5F5F5F5F5F5F5F5F5F5F5F5F5F5F5F5F5F5F5F5F5F528F5DC
310
F5F5F5F5F5F5F5F5F5F5F5F5F5F5F5F5F5E2F5E2E2F5E2F5F5F5F5F5F5F5F5F5F5F5F5F5F5F5F5F5DCF528F5F5F5F5F5F5F5F5F5F5F5F5F5F5F5F5F5F5F5F5F5F5F5F5F5F5F5F5F5F5F5F5F5F5F5F5F5F5F5F5F5F5F5F5F5F5F5F5F5F5F5F5F5F5F5F5F5F5F5F5F5F5F5F5F5F5F5F5F5F5F5F5F5F5F5F5F5F5F5F5F5F5F5F5
310
F5F5F5F5F5F5F5F5F5F5F5F5F5F5F5F5F5F5F5F5F5F5F5F5F5F5F5F5F5F5F5F5F5F5F5F5F5F5F5F5F5F5F5F5F5F5F5F5F5F528F5DCF5F5F5F5F5F5F5F5F5F5F5F5F5F5F5F5F5E2F5E2E2F5E2F5F5F5F5F5F5F5F5F5F5F5F5F5F5F5F5F5DCF528F5F5F5F5F5F5F5F5F5F5F5F5F5F5F5F5F5F5F5F5F5F5F5F5F5F5F5F5F5F5F5
310
F5F5F5F5F5F5F5F5F5F5F5F5F5F5F5F5F5F5F5F5F5F5F5F5F5F5F5F5F5F5F5F5F5F5F5F5F5F5F5F5F5F5F5F5F5F5F5F5F5F5F5F5F5F5F5F5F5F5F5F5F5F5F5F5F5F5F5F5F5F5F5F5F5F5F5F5F5F5F5F5F5F5F5F5F5F5F5F5F5F5F5F5F5F5F5F5F5F5F5F5F5F5F528F5DCF5F5F5F5F5F5F5F5F5F5F5F5F5F5F5F5F5E2F5E2E2
310
F5E2F5F5F5F5F5F5F5F5F5F5F5F5F5F5F5F5F5DCF528F5F5F5F5F5F5F5F5F5F5F5F5F5F5F5F5F5F5F5F5F5F5F5F5F5F5F5F5F5F5F5F5F5F5F5F5F5F5F5F5F5F5F5F5F5F5F5F5F5F5F5F5F5F5F5F5F5F5F5F5F5F5F5F5F5F5F5F5F5F5F5F5F5F5F5F5F5F5F5F5F5F5F5F5F5F5F5F5F5F5F5F5F5F5F5F5F5F5F5F5F5F5F5F5F5
310
F5F5F5F5F5F5F5F5F5F5F5F5F5F5F5F5F5F5F5F5F5F5F5F5F5F5F5F5F528F5DCF5F5F5F5F5F5F5F5F5F5F5F5F5F5F5F5F5E2F5E2E2F5E2F5F5F5F5F5F5F5F5F5F5F5F5F5F5F5F5F5DCF528F5F5F5F5F5F5F5F5F5F5F5F5F5F5F5F5F5F5F5F5F5F5F5F5F5F5F5F5F5F5F5F5F5F5F5F5F5F5F5F5F5F5F5F5F5F5F5F5F5F5F5F5
310
F5F5F5F5F5F5F5F5F5F5F5F5F5F5F5F5F5F5F5F5F5F5F5F5F5F5F5F5F5F5F5F5F5F5F5F5F5F5F5F5F5F5F5F5F5F5F5F5F5F5F5F5F5F5F5F5F5F5F5F5F5F5F5F5F5F5F5F5F5F5F5F5F5F5F5F5F5F5F5F5F5F528F5DCF5F5F5F5F5F5F5F5F5F5F5F5F5F5F5F5F5E2F5E2E2F5E2F5F5F5F5F5F5F5F5F5F5F5F5F5F5F5F5F5DCF5
310
28F5F5F5F5F5F5F5F5F5F5F5F5F5F5F5F5F5F5F5F5F5F5F5F5F5F5F5F5F5F5F5F5F5F5F5F5F5F5F5F5F5F5F5F5F5F5F5F5F5F5F5F5F5F5F5F5F5F5F5F5F5F5F5F5F5F5F5F5F5F5F5F5F5F5F5F5F5F5F5F5F5F5F5F5F5F5F5F5F5F5F5F5F5F5F5F5F5F5F5F5F5F5F5F5F5F5F5F5F5F5F5F5F5F5F5F5F5F5F5F5F5F5F5F5F5F5
310
F5F5F5F5F5F5F5F528F5DCF5F5F5F5F5F5F5F5F5F5F5F5F5F5F5F5F5E2F5E2E2F5E2F5F5F5F5F5F5F5F5F5F5F5F5F5F5F5F5F5DCF528F5F5F5F5F5F5F5F5F5F5F5F5F5F5F5F5F5F5F5F5F5F5F5F5F5F5F5F5F5F5F5F5F5F5F5F5F5F5F5F5F5F5F5F5F5F5F5F5F5F5F5F5F5F5F5F5F5F5F5F5F5F5F5F5F5F5F5F5F5F5F5F5F5
310
F5F5F5F5F5F5F5F5F5F5F5F5F5F5F5F5F5F5F5F5F5F5F5F5F5F5F5F5F5F5F5F5F5F5F5F5F5F5F5F5F5F5F5F5F5F5F5F5F5F5F5F5F5F5F5F5F5F5F5F5F528F5DCF5F5F5F5F5F5F5F5F5F5F5F5F5F5F5F5F5E2F5E2E2F5E2F5F5F5F5F5F5F5F5F5F5F5F5F5F5F5F5F5DCF528F5F5F5F5F5F5F5F5F5F5F5F5F5F5F5F5F5F5F5F5
310
F5F5F5F5F5F5F5F5F5F5F5F5F5F5F5F5F5F5F5F5F5F5F5F5F5F5F5F5F5F5F5F5F5F5F5F5F5F5F5F5F5F5F5F5F5F5F5F5F5F5F5F5F5F5F5F5F5F5F5F5F5F5F5F5F5F5F5F5F5F5F5F5F5F5F5F5F5F5F5F5F5F5F5F5F5F5F5F5F5F5F5F5F5F5F5F5F5F5F5F5F5F5F5F5F5F5F5F5F5F5F5F5F5F528F5DCF5F5F5F5F5F5F5F5F5F5
310
F5F5F5F5F5F5F5E2F5E2E2F5E2F5F5F5F5F5F5F5F5F5F5F5F5F5F5F5F5F5DCF528F5F5F5F5F5F5F5F5F5DCF5F5F5F5F5F5F5F5F5F5F5F5F5F5F5F5F5F5F5F5F5F5F5F5F5F5F5F5F5F5F5F5F5F5F5F5F5F5F5F5F5F5F5F5F5F5F5F5F5F5F5F5F5F5F5F5F5F5F5F5F5F5F5F5F5F5F5F5F5F5F5F5F5F5F5F5F5F5F5F5F5F5F5F5
310
F5F5F5F5F5F5F5F5F5F5F5F5F5F5F5F5F5F5F5F5F5F5F5F5F5F5F5F5F5F5F5F5F5F5F5F5F5F5F5F528F5DCF5F5F5F5F5F5F5F5F5F5F5F5F5F5F5F5F5E2F5E2E2F5E2F5F5F5F5F5F5F5F5F5F5F5F5F5F5F5F5F5DCF528F5F5F5F5F5F5F5F50FDCF5F5F5F5F52D2D2D2D2D2D2D2DF5F5F5F5F50FF5F5F5F5F5F5F5F5F5F5F5F5
310
F5F5F5F5F5F5F5F5F5F5F5F5F5F5F5F5F5F5F5F5F5F5F5F5F5F5F5F5F5F5F5F5F5F5F5F5F5F5F5F5F5F5F5F5F5F5F5F5F5F5F5F5F5F5F5F5F5F5F5F5F5F5F5F5F5F5F5F5F5F5F5F5F5F5F5F5F5F5F5F5F5F5F5F5F5F5F5F5F5F5F5F5F528F5DCF5F5F5F5F5F5F5F5F5F5F5F5F5F5F5F5F5E2F5E2E2F5E2F5F5F5F5F5F5F5F5
310
F5F5F5F5F5F5F5F5F5DCF528F5F5F5F5DCF5F5DC0FDC0F0F0F0F0F2D2D2D2D2D2D2D2D0F0F0F0F0F0F0FF5F5F5F5F5F5F5F5F5F5F5F5F5F5F5F5F5F5F5F5F5F5F5F5F5F5F5F5F5F5F5F5F5F5F5F5F5F5F5F5F5F5F5F5F5F5F5F5F5F5F5F5F5F5F5F5F5F5F5F5F5F5F5F5F5F5F5F5F5F5F5F5F5F5F5F5F5F5F5F5F5F5F5F5F5
310
F5F5F5F5F5F5F5F5F5F5F5F5F5F5F5F5F5F5F528F5DCF5F5F5F5F5F5F5F5F5F5F5F5F5F5F5F5F5E2F5E2E2F5E2F5F5F5F5F5F5F5F5F5F5F5F5F5F5F5F5F5DCF528F5F5F5DCF5F5DCF5F5DCF5F5F5F5F5F5F5F5F5F5F5F5F5F5F5F5F5F50FF5F5F5F5F5F5F5F5F5F5F5F5F5F5F5F5F5F5F5F5F5F5F5F5F5F5F5F5F5F5F5F5F5
310
F5F5F5F5F5F5F5F5F5F5F5F5F5F5F5F5F5F5F5F5F5F5F5F5F5F5F5F5F5F5F5F5F5F5F5F5F5F5F5F5F5F5F5F5F5F5F5F5F5F5F5F5F5F5F5F5F5F5F5F5F5F5F5F5F5F5F5F5F5F5F5F528F5DCF5F5F5F5F5F5F5F5F5F5F5F5F5F5F5F5F5E2F5E2E2F5E2F5F5F5F5F5F5F5F5F5F5F5F5F5F5F5F5F5DCF528F5F5F5F5F5DCF5F5DC
310
DCF5F5F5F5F5F5F5F5F5F5F5F5F5F5F5F5F5F50FF5F5F5F5F5F5F5F5F5F5F5F5F5F5F5F5F5F5F5F5F5F5F5F5F5F5F5F5F5F5F5F5F5F5F5F5F5F5F5F5F5F5F5F5F5F5F5F5F5F5F5F5F5F5F5F5F5F5F5F5F5F5F5F5F5F5F5F5F5F5F5F5F5F5F5F5F5F5F5F5F5F5F5F5F5F5F5F5F5F5F5F5F5F5F5F5F5F5F5F5F5F5F5F5F528F5
310
DCF5F5F5F5F5F5F5F5F5F5F5F5F5F5F5F5F5E2F5E2E2F5E2F5F5F5F5F5F5F5F5F5F5F5F5F5F5F5F5F5DCF528F5F5F5F5DCF5F5DCF5DCF5F5F5F5F5F5F5F5F5F5F5F5F5F5F5F5F5F50FF5F5F5F5F5F5F5F5F5F5F5F5F5F5F5F5F5F5F5F5F5F5F5F5F5F5F5F5F5F5F5F5F5F5F5F5F5F5F5F5F5F5F5F5F5F5F5F5F5F5F5F5F5F5
310
F5F5F5F5F5F5F5F5F5F5F5F5F5F5F5F5F5F5F5F5F5F5F5F5F5F5F5F5F5F5F5F5F5F5F5F5F5F5F5F5F5F5F5F5F5F5F5F5F5F5F528F5DCF5F5F5F5F5F5F5F5F5F5F5F5F5F5F5F5F5E2F5E2E2F5E2F5F5F5F5F5F5F5F5F5F5F5F5F5F5F5F5F5DCF528F5F5F5DCF5F5DCF5F5DCF5F5F5F5F5F5F5F5F5F5F5F5F5F5F5F5F5F50FF5
310
F5F5F5F5F5F5F5F5F5F5F5F5F5F5F5F5F5F5F5F5F5F5F5F5F5F5F5F5F5F5F5F5F5F5F5F5F5F5F5F5F5F5F5F5F5F5F5F5F5F5F5F5F5F5F5F5F5F5F5F5F5F5F5F5F5F5F5F5F5F5F5F5F5F5F5F5F5F5F5F5F5F5F5F5F5F5F5F5F5F5F5F5F5F5F5F5F5F5F5F5F5F5F5F528F5DCF5F5F5F5F5F5F5F5F5F5F5F5F5F5F5F5F5E2F5E2
310
E2F5F5F5F5F5F5F5F5F5F5F5F5F5F5F5F5F5F5F5DCF528F5F5F5F5F5DCF5F5F5DC1B0F0F0F0F0F0F0F0F0F0F0F0F0F0F0F0F0F0F0F0F0F0F0F0F0FF5F5F5F5F5F5F5F5F5F5F5F5F5F5F5F5F5F5F5F5F5F5F5F5F5F5F5F5F5F5F5F5F5F5F5F5F5F5F5F5F5F5F5F5F5F5F5F5F5F5F5F5F5F5F5F5F5F5F5F5F5F5F5F5F5F5F5F5
310
F5F5F5F5F5F5F5F5F5F5F5F5F5F5F5F5F5F5F5F5F5F5F5F5F5F5F5F5F5F528F5DCF5F5F5F5F5F5F5F5F5F5F5F5F5F5F5F5F5F5F5E2E2F5F5F5F5F5F5F5F5F5F5F5F5F5F5F5F5F5F5F5DCF528F5F5F5F5DCF5F5F5DCDCBEF5F5F5F5F5F5F5F5F5F5F5F5F5F5F5F5F50FF5F5F5F5F50FF5F5F5F5F5F5F5F5F5F5F5F5F5F5F5F5
310
F5F5F5F5F5F5F5F5F5F5F5F5F5F5F5F5F5F5F5F5F5F5F5F5F5F5F5F5F5F5F5F5F5F5F5F5F5F5F5F5F5F5F5F5F5F5F5F5F5F5F5F5F5F5F5F5F5F5F5F5F5F5F5F5F5F5F5F5F5F5F5F5F5F5F5F5F5F5F5F5F5F5F528F5DCF5F5F5F5F5F5F5F5F5F5F5F5F5F5F5F5F5F5F5E2E2F5F5F5F5F5F5F5F5F5F5F5F5F5F5F5F5F5F5F5DC
310
F528F5F5F5DCF5F5F5DCF5DCF5BEBEF5F5F5F5F5F5F5F5F5F5F5F5F5F5F50FF5F5F5F5F50FF5F5F5F5F5F5F5F5F5F5F5F5F5F5F5F5F5F5F5F5F5F5F5F5F5F5F5F5F5F5F5F5F5F5F5F5F5F5F5F5F5F5F5F5F5F5F5F5F5F5F5F5F5F5F5F5F5F5F5F5F5F5F5F5F5F5F5F5F5F5F5F5F5F5F5F5F5F5F5F5F5F5F5F5F5F5F5F5F5F5
310
F5F5F5F5F5F5F5F5F528F5DCF5F5F5F5F5F5F5F5F5F5F5F5F5F5F5F5F5F5F5E2E2F5F5F5F5F5F5F5F5F5F5F5F5F5F5F5F5F5F5F5DCF528F5F5F5F5F5DCDCF5F5DCF5F5BEBEF5F5F5F5F5F5F5F5F5F5F5F5F5F50FF5F5F5F5F50FF5F5F5F5F5F5F5F5F5F5F5F5F5F5F5F5F5F5F5F5F5F5F5F5F5F5F5F5F5F5F5F5F5F5F5F5F5
310
F5F5F5F5F5F5F5F5F5F5F5F5F5F5F5F5F5F5F5F5F5F5F5F5F5F5F5F5F5F5F5F5F5F5F5F5F5F5F5F5F5F5F5F5F5F5F5F5F5F5F5F5F5F5F5F5F5F5F5F5F5F528F5DCF5F5F5F5F5F5F5F5F5F5F5F5F5F5F5F5F5F5F5E2E2F5F5F5F5F5F5F5F5F5F5F5F5F5F5F5F5F5F5F5DCF528F5F5F5F5DCF5F5F5DCDCF5F5F5BEF5F5F5F5F5
310
F5F5F5F5F5F5F5F5F50FF5F5F5F5F50FF5F5F5F5F5F5F5F5F5F5F5F5F5F5F5F5F5F5F5F5F5F5F5F5F5F5F5F5F5F5F5F5F5F5F5F5F5F5F5F5F5F5F5F5F5F5F5F5F5F5F5F5F5F5F5F5F5F5F5F5F5F5F5F5F5F5F5F5F5F5F5F5F5F5F5F5F5F5F5F5F5F5F5F5F5F5F5F5F5F5F5F5F5F5F5F5F5F5F528F5DCF5F5F5F5F5F5F5F5F5
310
F5F5F5F5F5F5F5F5F5F5E2E2F5F5F5F5F5F5F5F5F5F5F5F5F5F5F5F5F5F5F5DCF528F5F5F5DCF5F5F5DCF5DCF5F5F5BEBEBEF5F5F5F5F5F5F5F5F5F5F5F50FF5F5F5F5F50FF5F5F5F5F5F5F5F5F5F5F5F5F5F5F5F5F5F5F5F5F5F5F5F5F5F5F5F5F5F5F5F5F5F5F5F5F5F5F5F5F5F5F5F5F5F5F5F5F5F5F5F5F5F5F5F5F5F5
310
F5F5F5F5F5F5F5F5F5F5F5F5F5F5F5F5F5F5F5F5F5F5F5F5F5F5F5F5F5F5F5F5F5F5F5F5F5F5F5F5F528F5DCF5F5F5F5F5F5F5F5F5F5F5F5F5F5F5F5F5F5F5E2E2F5F5F5F5F5F5F5F5F5F5F5F5F5F5F5F5F5F5F5DCF528F5F5F5F5F5DCDCF5F5DCF5F5F5F5BEBEF5F5F5F5F5F5F5F5F5F5F5F50FF5F5F5F5F50FF5F5F5F5F5
310
F5F5F5F5F5F5F5F5F5F5F5F5F5F5F5F5F5F5F5F5F5F5F5F5F5F5F5F5F5F5F5F5F5F5F5F5F5F5F5F5F5F5F5F5F5F5F5F5F5F5F5F5F5F5F5F5F5F5F5F5F5F5F5F5F5F5F5F5F5F5F5F5F5F5F5F5F5F5F5F5F5F5F5F5F5F5F5F5F5F5F5F5F5F528F5DCF5F5F5F5F5F5F5F5F5F5F5F5F5F5F5F5F5F5F5E2E2F5F5F5F5F5F5F5F5F5
310
F5F5F5F5F5F5F5F5F5F5DCF528F5F5F5F5DCF5F5F5DCDCF5F5F5F5BEF5F5F5F5F5F5F5F5F5F5F5F5F50FF5F5F5F5F50FF5F5F5F5F5F5F5F5F5F5F5F5F5F5F5F5F5F5F5F5F5F5F5F5F5F5F5F5F5F5F5F5F5F5F5F5F5F5F5F5F5F5F5F5F5F5F5F5F5F5F5F5F5F5F5F5F5F5F5F5F5F5F5F5F5F5F5F5F5F5F5F5F5F5F5F5F5F5F5
310
F5F5F5F5F5F5F5F5F5F5F5F5F5F5F5F5F5F5F5F528F5DCF5F5F5F5F5F5F5F5F5F5F5F5F5F5F5F5F5F5F5E2E2F5F5F5F5F5F5F5F5F5F5F5F5F5F5F5F5F5F5F5DCF528F5F5F5DCF5F5F5DCF5DCF5F5F5F5BEF5F5F5F5F5F5F5F5F5F5F5F5F50FF5F5F5F5F50FF5F5F5F5F5F5F5F5F5F5F5F5F5F5F5F5F5F5F5F5F5F5F5F5F5F5
310
F5F5F5F5F5F5F5F5F5F5F5F5F5F5F5F5F5F5F5F5F5F5F5F5F5F5F5F5F5F5F5F5F5F5F5F5F5F5F5F5F5F5F5F5F5F5F5F5F5F5F5F5F5F5F5F5F5F5F5F5F5F5F5F5F5F5F5F5F5F5F5F5F528F5DCF5F5F5F5F5F5F5F5F5F5F5F5F5F5F5F5F5F5F5E2E2F5E2F5F5F5F5F5F5F5F5F5F5F5F5F5F5F5F5F5DCF528F5F5F5F5F5F5DCF5
310
F5DCBEBEF5F5BEF5F5F5F5F5F5F5F5F5F5F5F5F50FF5F52D2D2D2D2D2D2D2DF5F5F5F5F5F5F5F5F5F5F5F5F5F5F5F5F5F5F5F5F5F5F5F5F5F5F5F5F5F5F5F5F5F5F5F5F5F5F5F5F5F5F5F5F5F5F5F5F5F5F5F5F5F5F5F5F5F5F5F5F5F5F5F5F5F5F5F5F5F5F5F5F5F5F5F5F5F5F5F5F5F5F5F5F5F5F5F5F5F5F5F5F5F5F528
310
F5DCF5F5F5F5F5F5F5F5F5F5F5F5F5F5F5F5F5E2F5E2E2F5E2F5F5F5F5F5F5F5F5F5F5F5F5F5F5F5F5F5DCF528F5F5F5F5F5DCF5F5DCDCF5BEF5F5BEF5F5F5F5F5F5F5F5F5F5F5F5F50FF5F52D2D2D2D2D2D2D2DF5F5F5F5F5F5F5F5F5F5F5F5F5F5F5F5F5F5F5F5F5F5F5F5F5F5F5F5F5F5F5F5F5F5F5F5F5F5F5F5F5F5F5
310
F5F5F5F5F5F5F5F5F5F5F5F5F5F5F5F5F5F5F5F5F5F5F5F5F5F5F5F5F5F5F5F5F5F5F5F5F5F5F5F5F5F5F5F5F5F5F5F5F5F5F5F528F5DCF5F5F5F5F5F5F5F5F5F5F5F5F5F5F5F5F5E2F5E2E2F5E2F5F5F5F5F5F5F5F5F5F5F5F5F5F5F5F5F5DCF528F5F5F5F5DCF5F5DCF5DCF5BEF5F5BEBEF5F5F5F5F5F5F5F5F5F5F5F50F
310
F5F5F5F5F50FF5F5F5F5F5F5F5F5F5F5F5F5F5F5F5F5F5F5F5F5F5F5F5F5F5F5F5F5F5F5F5F5F5F5F5F5F5F5F5F5F5F5F5F5F5F5F5F5F5F5F5F5F5F5F5F5F5F5F5F5F5F5F5F5F5F5F5F5F5F5F5F5F5F5F5F5F5F5F5F5F5F5F5F5F5F5F5F5F5F5F5F5F5F5F5F5F5F5F528F5DCF5F5F5F5F5F5F5F5F5F5F5F5F5F5F5F5F5E2F5
310
E2E2F5E2F5F5F5F5F5F5F5F5F5F5F5F5F5F5F5F5F5DCF528F5F5F5DCF5F5DCF5F5DCF5F5BEF5F5BEF5F5F5F5F5F5F5F5F5F5F5F50FF5F5F5F5F50FF5F5F5F5F5F5F5F5F5F5F5F5F5F5F5F5F5F5F5F5F5F5F5F5F5F5F5F5F5F5F5F5F5F5F5F5F5F5F5F5F5F5F5F5F5F5F5F5F5F5F5F5F5F5F5F5F5F5F5F5F5F5F5F5F5F5F5F5
310
F5F5F5F5F5F5F5F5F5F5F5F5F5F5F5F5F5F5F5F5F5F5F5F5F5F5F5F5F5F5F528F5DCF5F5F5F5F5F5F5F5F5F5F5F5F5F5F5F5F5E2F5E2E2F5E2F5F5F5F5F5F5F5F5F5F5F5F5F5F5F5F5F5DCF528F5F5F5F5F5DCF5F5DCDCF5F5BEF5F5F5BEBEF5F5F5F5BEBEF5F5F5F50FF5F5F5F5F50FF5F5F5F5F5F5F5F5F5F5F5F5F5F5F5
310
F5F5F5F5F5F5F5F5F5F5F5F5F5F5F5F5F5F5F5F5F5F5F5F5F5F5F5F5F5F5F5F5F5F5F5F5F5F5F5F5F5F5F5F5F5F5F5F5F5F5F5F5F5F5F5F5F5F5F5F5F5F5F5F5F5F5F5F5F5F5F5F5F5F5F5F5F5F5F5F5F5F5F5F528F5DCF5F5F5F5F5F5F5F5F5F5F5F5F5F5F5F5F5E2F5E2E2F5E2F5F5F5F5F5F5F5F5F5F5F5F5F5F5F5F5F5
310
DCF528F5F5F5F5DCF5F5DCF5DCF5F5F5BEF5F5F5BEBEBEBEBEF5BEF5F5F5F50FF5F5F5F5F50FF5F5F5F5F5F5F5F5F5F5F5F5F5F5F5F5F5F5F5F5F5F5F5F5F5F5F5F5F5F5F5F5F5F5F5F5F5F5F5F5F5F5F5F5F5F5F5F5F5F5F5F5F5F5F5F5F5F5F5F5F5F5F5F5F5F5F5F5F5F5F5F5F5F5F5F5F5F5F5F5F5F5F5F5F5F5F5F5F5
310
F5F5F5F5F5F5F5F5F5F528F5DCF5F5F5F5F5F5F5F5F5F5F5F5F5F5F5F5F5E2F5E2E2F5E2F5F5F5F5F5F5F5F5F5F5F5F5F5F5F5F5F5DCF528F5F5F5DCF5F5DCF5F5DCF5F5F5F5BEF5F5F5F5F5F5F5F5BEBEF5F5F50FF5F5F5F5F50FF5F5F5F5F5F5F5F5F5F5F5F5F5F5F5F5F5F5F5F5F5F5F5F5F5F5F5F5F5F5F5F5F5F5F5F5
310
F5F5F5F5F5F5F5F5F5F5F5F5F5F5F5F5F5F5F5F5F5F5F5F5F5F5F5F5F5F5F5F5F5F5F5F5F5F5F5F5F5F5F5F5F5F5F5F5F5F5F5F5F5F5F5F5F5F5F5F5F5F5F528F5DCF5F5F5F5F5F5F5F5F5F5F5F5F5F5F5F5F5E2F5E2E2F5E2F5F5F5F5F5F5F5F5F5F5F5F5F5F5F5F5F5DCF528F5F5F5F5F5DCF5F5F5DCF5F5F5F5F5BEBEBE
310
F5F5F5F5F5F5F5BEBEF50FF5F5F5F5F50FF5F5F5F5F5F5F5F5F5F5F5F5F5F5F5F5F5F5F5F5F5F5F5F5F5F5F5F5F5F5F5F5F5F5F5F5F5F5F5F5F5F5F5F5F5F5F5F5F5F5F5F5F5F5F5F5F5F5F5F5F5F5F5F5F5F5F5F5F5F5F5F5F5F5F5F5F5F5F5F5F5F5F5F5F5F5F5F5F5F5F5F5F5F5F5F5F5F5F528F5DCF5F5F5F5F5F5F5F5
310
F5F5F5F5F5F5F5F5F5E2F5E2E2F5E2F5F5F5F5F5F5F5F5F5F5F5F5F5F5F5F5F5DCF528F5F5F5F5DCF5F5F5DCDCF5F5F5F5F5F5F5F5BEBEF5F5F5F5F5F5BEF50FF5F5F5F5F50FF5F5F5F5F5F5F5F5F5F5F5F5F5F5F5F5F5F5F5F5F5F5F5F5F5F5F5F5F5F5F5F5F5F5F5F5F5F5F5F5F5F5F5F5F5F5F5F5F5F5F5F5F5F5F5F5F5
310
F5F5F5F5F5F5F5F5F5F5F5F5F5F5F5F5F5F5F5F5F5F5F5F5F5F5F5F5F5F5F5F5F5F5F5F5F5F5F5F5F5F528F5DCF5F5F5F5F5F5F5F5F5F5F5F5F5F5F5F5F5E2F5E2E2F5E2F5F5F5F5F5F5F5F5F5F5F5F5F5F5F5F5F5DCF528F5F5F5DCF5F5F5DCF5DCF5F5F5F5F5F5F5F5F5BEBEF5F5F5F5F5F5BE1BF5F5F5F5F50FF5F5F5F5
310
F5F5F5F5F5F5F5F5F5F5F5F5F5F5F5F5F5F5F5F5F5F5F5F5F5F5F5F5F5F5F5F5F5F5F5F5F5F5F5F5F5F5F5F5F5F5F5F5F5F5F5F5F5F5F5F5F5F5F5F5F5F5F5F5F5F5F5F5F5F5F5F5F5F5F5F5F5F5F5F5F5F5F5F5F5F5F5F5F5F5F5F5F5F5F528F5DCF5F5F5F5F5F5F5F5F5F5F5F5F5F5F5F5F5E2F5E2E2F5E2F5F5F5F5F5F5
310
F5F5F5F5F5F5F5F5F5F5F5DCF528F5F5F5F5F5DCDCF5F5DCF5F5F5F5F5F5F5F5F5F5BEF5F5F5F5F5F5F5BEF5F5F5F5F50F0FF5F5F5F5F5F5F5F5F5F5F5F5F5F5F5F5F5F5F5F5F5F5F5F5F5F5F5F5F5F5F5F5F5F5F5F5F5F5F5F5F5F5F5F5F5F5F5F5F5F5F5F5F5F5F5F5F5F5F5F5F5F5F5F5F5F5F5F5F5F5F5F5F5F5F5F5F5
310
F5F5F5F5F5F5F5F5F5F5F5F5F5F5F5F5F5F5F5F5F528F5DCF5F5F5F5F5F5F5F5F5F5F5F5F5F5F5F5F5E2F5E2E2F5E2F5F5F5F5F5F5F5F5F5F5F5F5F5F5F5F5F5DCF528F5F5F5F5DCF5F5F5DCDCDCDCDCDCDCDCDCDCDCDCDCDCDCDCDCDCDCDCDCDCDCDCDCDCDCDCDCF5F5F5F5F5F5F5F5F5F5F5F5F5F5F5F5F5F5F5F5F5F5F5
310
F5F5F5F5F5F5F5F5F5F5F5F5F5F5F5F5F5F5F5F5F5F5F5F5F5F5F5F5F5F5F5F5F5F5F5F5F5F5F5F5F5F5F5F5F5F5F5F5F5F5F5F5F5F5F5F5F5F5F5F5F5F5F5F5F5F5F5F5F5F5F5F5F5F528F5DCF5F5F5F5F5F5F5F5F5F5F5F5F5F5F5F5F5E2F5E2E2F5E2F5F5F5F5F5F5F5F5F5F5F5F5F5F5F5F5F5DCF528F5F5F5DCF5F5F5
310
DCF5F5DCF5F5DCF5F5F5DCF5F5DCF5F5DCF5F5DCF5F5DCF5F5DCF5F5F5F5F5F5F5F5F5F5F5F5F5F5F5F5F5F5F5F5F5F5F5F5F5F5F5F5F5F5F5F5F5F5F5F5F5F5F5F5F5F5F5F5F5F5F5F5F5F5F5F5F5F5F5F5F5F5F5F5F5F5F5F5F5F5F5F5F5F5F5F5F5F5F5F5F5F5F5F5F5F5F5F5F5F5F5F5F5F5F5F5F5F5F5F5F5F5F5F5F5
310
28F5DCF5F5F5F5F5F5F5F5F5F5F5F5F5F5F5F5F5E2F5E2E2F5E2F5F5F5F5F5F5F5F5F5F5F5F5F5F5F5F5F5DCF528F5F5F5F5F5DCDCF5F5DCF5F5DCF5F5F5DCF5F5DCF5F5DCF5F5DCF5F5DCF5F5DCF5F5F5F5F5F5F5F5F5F5F5F5F5F5F5F5F5F5F5F5F5F5F5F5F5F5F5F5F5F5F5F5F5F5F5F5F5F5F5F5F5F5F5F5F5F5F5F5F5
310
F5F5F5F5F5F5F5F5F5F5F5F5F5F5F5F5F5F5F5F5F5F5F5F5F5F5F5F5F5F5F5F5F5F5F5F5F5F5F5F5F5F5F5F5F5F5F5F5F5F5F5F5F528F5DCF5F5F5F5F5F5F5F5F5F5F5F5F5F5F5F5F5E2F5E2E2F5E2F5F5F5F5F5F5F5F5F5F5F5F5F5F5F5F5F5DCF528F5F5F5F5DCF5F5F5DCF5F5DCF5F5DCDCF5DCDCF5DCDCF5F5DCF5F5DC
310
F5F5DCF5F5F5F5F5F5F5F5F5F5F5F5F5F5F5F5F5F5F5F5F5F5F5F5F5F5F5F5F5F5F5F5F5F5F5F5F5F5F5F5F5F5F5F5F5F5F5F5F5F5F5F5F5F5F5F5F5F5F5F5F5F5F5F5F5F5F5F5F5F5F5F5F5F5F5F5F5F5F5F5F5F5F5F5F5F5F5F5F5F5F5F5F5F5F5F5F5F5F5F5F5F5F528F5DCF5F5F5F5F5F5F5F5F5F5F5F5F5F5F5F5F5E2
310
F5E2E2F5E2F5F5F5F5F5F5F5F5F5F5F5F5F5F5F5F5F5DCF528F5F5F5DCF5F5F5DCF5F5DCF5F5DCF5F5DCF5F5DCF5F5F5DCF5F5DCF5F5DCF5F5F5DCF5F5F5F5F5F5F5F5F5F5F5F5F5F5F5F5F5F5F5F5F5F5F5F5F5F5F5F5F5F5F5F5F5F5F5F5F5F5F5F5F5F5F5F5F5F5F5F5F5F5F5F5F5F5F5F5F5F5F5F5F5F5F5F5F5F5F5F5
310
F5F5F5F5F5F5F5F5F5F5F5F5F5F5F5F5F5F5F5F5F5F5F5F5F5F5F5F5F5F5F5F528F5DCF5F5F5F5F5F5F5F5F5F5F5F5F5F5F5F5F5E2F5E2E2F5F5F5F5F5F5F5F5F5F5F5F5F5F5F5F5F5F5F5DCF528F5F5F5F5F5F5DCF5F5DCF5F5DCF5F5DCF5F5DCF5F5F5DCF5F5DCF5F5DCF5F5DCDCF5F5F5F5F5F5F5F5F5F5F5F5F5F5F5F5
310
F5F5F5F5F5F5F5F5F5F5F5F5F5F5F5F5F5F5F5F5F5F5F5F5F5F5F5F5F5F5F5F5F5F5F5F5F5F5F5F5F5F5F5F5F5F5F5F5F5F5F5F5F5F5F5F5F5F5F5F5F5F5F5F5F5F5F5F5F5F5F5F5F5F5F5F5F5F5F5F5F5F5F5F5F528F5DCF5F5F5F5F5F5F5F5F5F5F5F5F5F5F5F5F5F5F5E2E2F5F5F5F5F5F5F5F5F5F5F5F5F5F5F5F5F5F5
310
F5DCF528F5F5F5F5F5F5F5F5F5F5F5F5F5F5F5F5F5F5F5F5F5F5F5F5F5F5F5F5F5F5F5F5F5F5F5F5F5F5F5F5F5F5F5F5F5F5F5F5F5F5F5F5F5F5F5F5F5F5F5F5F5F5F5F5F5F5F5F5F5F5F5F5F5F5F5F5F5F5F5F5F5F5F5F5F5F5F5F5F5F5F5F5F5F5F5F5F5F5F5F5F5F5F5F5F5F5F5F5F5F5F5F5F5F5F5F5F5F5F5F5F5F5F5
310
F5F5F5F5F5F5F5F5F5F5F528F5DCF5F5F5F5F5F5F5F5F5F5F5F5F5F5F5F5F5F5F5E2E2F5F5F5F5F5F5F5F5F5F5F5F5F5F5F5F5F5F5F5DCF528F5F5F5F5F5F5F5F5F5F5F5F5F5F5F5F5F5F5F5F5F5F5F5F5F5F5F5F5F5F5F5F5F5F5F5F5F5F5F5F5F5F5F5F5F5F5F5F5F5F5F5F5F5F5F5F5F5F5F5F5F5F5F5F5F5F5F5F5F5F5
310
F5F5F5F5F5F5F5F5F5F5F5F5F5F5F5F5F5F5F5F5F5F5F5F5F5F5F5F5F5F5F5F5F5F5F5F5F5F5F5F5F5F5F5F5F5F5F5F5F5F5F5F5F5F5F5F5F5F5F5F5F5F5F5F528F5DCF5F5F5F5F5F5F5F5F5F5F5F5F5F5F5F5F5F5F5E2E2F5F5F5F5F5F5F5F5F5F5F5F5F5F5F5F5F5F5F5DCF528F5F5F5F5F5F5F5F5F5F5F5F5F5F5F5F5F5
310
F5F5F5F5F5F5F5F5F5F5F5F5F5F5F5F5F5F5F5F5F5F5F5F5F5F5F5F5F5F5F5F5F5F5F5F5F5F5F5F5F5F5F5F5F5F5F5F5F5F5F5F5F5F5F5F5F5F5F5F5F5F5F5F5F5F5F5F5F5F5F5F5F5F5F5F5F5F5F5F5F5F5F5F5F5F5F5F5F5F5F5F5F5F5F5F5F5F5F5F5F5F5F5F5F5F5F5F5F5F5F5F5F5F5F5F5F528F5DCF5F5F5F5F5F5F5
310
F5F5F5F5F5F5F5F5F5F5F5F5E2E2F5F5F5F5F5F5F5F5F5F5F5F5F5F5F5F5F5F5F5DCF528F5F5F5F5F5F5F5F5F5F5F5F5F5F5F5F5F5F5F5F5F5F5F5F5F5F5F5F5F5F5F5F5F5F5F5F5F5F5F5F5F5F5F5F5F5F5F5F5F5F5F5F5F5F5F5F5F5F5F5F5F5F5F5F5F5F5F5F5F5F5F5F5F5F5F5F5F5F5F5F5F5F5F5F5F5F5F5F5F5F5F5
310
F5F5F5F5F5F5F5F5F5F5F5F5F5F5F5F5F5F5F5F5F5F5F5F5F5F5F5F5F5F5F5F5F5F5F5F5F5F5F5F5F5F5F528F5DCF5F5F5F5F5F5F5F5F5F5F5F5F5F5F5F5F5F5F5E2E2F5F5F5F5F5F5F5F5F5F5F5F5F5F5F5F5F5F5F5DCF528F5F5F5F5F5F5F5F5F5F5F5F5F5F5F5F5F5F5F5F5F5F5F5F5F5F5F5F5F5F5F5F5F5F5F5F5F5F5
310
F5F5F5F5F5F5F5F5F5F5F5F5F5F5F5F5F5F5F5F5F5F5F5F5F5F5F5F5F5F5F5F5F5F5F5F5F5F5F5F5F5F5F5F5F5F5F5F5F5F5F5F5F5F5F5F5F5F5F5F5F5F5F5F5F5F5F5F5F5F5F5F5F5F5F5F5F5F5F5F5F5F5F5F5F5F5F5F5F5F5F5F5F5F5F5F528F5DCF5F5F5F5F5F5F5F5F5F5F5F5F5F5F5F5F5F5F5E2E2F5F5F5F5F5F5F5
310
F5F5F5F5F5F5F5F5F5F5F5F5DCF528F5F5F5F5F5F5F5F5F5F5F5F5F5F5F5F5F5F5F5F5F5F5F5F5F5F5F5F5F5F5F5F5F5F5F5F5F5F5F5F5F5F5F5F5F5F5F5F5F5F5F5F5F5F5F5F5F5F5F5F5F5F5F5F5F5F5F5F5F5F5F5F5F5F5F5F5F5F5F5F5F5F5F5F5F5F5F5F5F5F5F5F5F5F5F5F5F5F5F5F5F5F5F5F5F5F5F5F5F5F5F5F5
310
F5F5F5F5F5F5F5F5F5F5F5F5F5F5F5F5F5F5F5F5F5F528F5DCF5F5F5F5F5F5F5F5F5F5F5F5F5F5F5F5F5F5F5E2E2F5F5F5F5F5F5F5F5F5F5F5F5F5F5F5F5F5F5F5DCF528F5F5F5F5F5F5F5F5F5F5F5F5F5F5F5F5F5F5F5F5F5F5F5F5F5F5F5F5F5F5F5F5F5F5F5F5F5F5F5F5F5F5F5F5F5F5F5F5F5F5F5F5F5F5F5F5F5F5F5
310
F5F5F5F5F5F5F5F5F5F5F5F5F5F5F5F5F5F5F5F5F5F5F5F5F5F5F5F5F5F5F5F5F5F5F5F5F5F5F5F5F5F5F5F5F5F5F5F5F5F5F5F5F5F5F5F5F5F5F5F5F5F5F5F5F5F5F5F5F5F5F5F5F5F5F528F5DCF5F5F5F5F5F5F5F5F5F5F5F5F5F5F5F5F5F5F5E2E2F5E2F5F5F5F5F5F5F5F5F5F5F5F5F5F5F5F5F5DCF528F5F5F5F5F5F5
310
F5F5F5F5F5F5F5F5F5F5F5F5F5F5F5F5F5F5F5F5F5F5F5F5F5F5F5F5F5F5F5F5F5F5F5F5F5F5F5F5F5F5F5F5F5F5F5F5F5F5F5F5F5F5F5F5F5F5F5F5F5F5F5F5F5F5F5F5F5F5F5F5F5F5F5F5F5F5F5F5F5F5F5F5F5F5F5F5F5F5F5F5F5F5F5F5F5F5F5F5F5F5F5F5F5F5F5F5F5F5F5F5F5F5F5F5F5F5F5F5F5F5F5F5F5F5F5
310
F528F5DCF5F5F5F5F5F5F5F5F5F5F5F5F5F5F5F5F5E2F5E2E2F5E2F5F5F5F5F5F5F5F5F5F5F5F5F5F5F5F5F5DCF528F5F5F5F5F5F5F5F5F5F5F5F5F5F5F5F5F5F5F5F5F5F5F5F5F5F5F5F5F5F5F5F5F5F5F5F5F5F5F5F5F5F5F5F5F5F5F5F5F5F5F5F5F5F5F5F5F5F5F5F5F5F5F5F5F5F5F5F5F5F5F5F5F5F5F5F5F5F5F5F5
310
F5F5F5F5F5F5F5F5F5F5F5F5F5F5F5F5F5F5F5F5F5F5F5F5F5F5F5F5F5F5F5F5F5F5F5F5F5F5F5F5F5F5F5F5F5F5F5F5F5F5F5F5F5F528F5DCF5F5F5F5F5F5F5F5F5F5F5F5F5F5F5F5F5E2F5E2E2F5E2F5F5F5F5F5F5F5F5F5F5F5F5F5F5F5F5F5DCF528F5F5F5F5F5F5F5F5F5F5F5F5F5F5F5F5F5F5F5F5F5F5F5F5F5F5F5
310
F5F5F5F5F5F5F5F5F5F5F5F5F5F5F5F5F5F5F5F5F5F5F5F5F5F5F5F5F5F5F5F5F5F5F5F5F5F5F5F5F5F5F5F5F5F5F5F5F5F5F5F5F5F5F5F5F5F5F5F5F5F5F5F5F5F5F5F5F5F5F5F5F5F5F5F5F5F5F5F5F5F5F5F5F5F5F5F5F5F5F5F5F5F5F5F5F5F5F5F5F5F5F5F5F5F5F528F5DCF5F5F5F5F5F5F5F5F5F5F5F5F5F5F5F5F5
310
E2F5E2E2F5E2F5F5F5F5F5F5F5F5F5F5F5F5F5F5F5F5F5DCF528F5F5F5F5F5F5F5F5F5F5F5F5F5F5F5F5F5F5F5F5F5F5F5F5F5F5F5F5F5F5F5F5F5F5F5F5F5F5F5F5F5F5F5F5F5F5F5F5F5F5F5F5F5F5F5F5F5F5F5F5F5F5F5F5F5F5F5F5F5F5F5F5F5F5F5F5F5F5F5F5F5F5F5F5F5F5F5F5F5F5F5F5F5F5F5F5F5F5F5F5F5
310
F5F5F5F5F5F5F5F5F5F5F5F5F5F5F5F5F5F5F5F5F5F5F5F5F5F5F5F5F5F5F5F5F528F5DCF5F5F5F5F5F5F5F5F5F5F5F5F5F5F5F5F5E2F5E2E2F5E2F5F5F5F5F5F5F5F5F5F5F5F5F5F5F5F5F5DCF528F5F5F5F5F5F5F5F5F5F5F5F5F5F5F5F5F5F5F5F5F5F5F5F5F5F5F5F5F5F5F5F5F5F5F5F5F5F5F5F5F5F5F5F5F5F5F5F5
310
F5F5F5F5F5F5F5F5F5F5F5F5F5F5F5F5F5F5F5F5F5F5F5F5F5F5F5F5F5F5F5F5F5F5F5F5F5F5F5F5F5F5F5F5F5F5F5F5F5F5F5F5F5F5F5F5F5F5F5F5F5F5F5F5F5F5F5F5F5F5F5F5F5F5F5F5F5F5F5F5F5F5F5F5F5F528F5DCF5F5F5F5F5F5F5F5F5F5F5F5F5F5F5F5F5E2F5E2E2F5E2F5F5F5F5F5F5F5F5F5F5F5F5F5F5F5
310
F5F5DCF528F5F5F5F5F5F5F5F5F5F5F5F5F5F5F5F5F5F5F5F5F5F5F5F5F5F5F5F5F5F5F5F5F5F5F5F5F5F5F5F5F5F5F5F5F5F5F5F5F5F5F5F5F5F5F5F5F5F5F5F5F5F5F5F5F5F5F5F5F5F5F5F5F5F5F5F5F5F5F5F5F5F5F5F5F5F5F5F5F5F5F5F5F5F5F5F5F5F5F5F5F5F5F5F5F5F5F5F5F5F5F5F5F5F5F5F5F5F5F5F5F5F5
310
F5F5F5F5F5F5F5F5F5F5F5F528F5DCF5F5F5F5F5F5F5F5F5F5F5F5F5F5F5F5F5E2F5E2E2F5E2F5F5F5F5F5F5F5F5F5F5F5F5F5F5F5F5F5DCF528F5F5F5F5F5F5F5F5F5F5F5F5F5F5F5F5F5F5F5F5F5F5F5F5F5F5F5F5F5F5F5F5F5F5F5F5F5F5F5F5F5F5F5F5F5F5F5F5F5F5F5F5F5F5F5F5F5F5F5F5F5F5F5F5F5F5F5F5F5
310
F5F5F5F5F5F5F5F5F5F5F5F5F5F5F5F5F5F5F5F5F5F5F5F5F5F5F5F5F5F5F5F5F5F5F5F5F5F5F5F5F5F5F5F5F5F5F5F5F5F5F5F5F5F5F5F5F5F5F5F5F5F5F5F5F528F5DCF5F5F5F5F5F5F5F5F5F5F5F5F5F5F5F5F5E2F5E2E2F5E2F5F5F5F5F5F5F5F5F5F5F5F5F5F5F5F5F5DCF528F5F5F5F5F5F5F5F5F5F5F5F5F5F5F5F5
310
F5F5F5F5F5F5F5F5F5F5F5F5F5F5F5F5F5F5F5F5F5F5F5F5F5F5F5F5F5F5F5F5F5F5F5F5F5F5F5F5F5F5F5F5F5F5F5F5F5F5F5F5F5F5F5F5F5F5F5F5F5F5F5F5F5F5F5F5F5F5F5F5F5F5F5F5F5F5F5F5F5F5F5F5F5F5F5F5F5F5F5F5F5F5F5F5F5F5F5F5F5F5F5F5F5F5F5F5F5F5F5F5F5F5F5F5F5F528F5DCF5F5F5F5F5F5
310
F5F5F5F5F5F5F5F5F5F5F5E2F5E2E2F5E2F5F5F5F5F5F5F5F5F5F5F5F5F5F5F5F5F5DCF528282828282828282828282828282828282828282828282828282828282828282828282828282828282828282828282828282828282828282828282828282828282828282828282828282828282828282828282828282828282828
310
282828282828282828282828282828282828282828282828282828282828282828282828282828282828282828F5DCF5F5F5F5F5F5F5F5F5F5F5F5F5F5F5F5F5E2F5E2E2F5E2F5F5F5F5F5F5F5F5F5F5F5F5F5F5F5F5F5DCF528F5F5F5F5F5F5F5F5F5F5F5F5F5F5F5F5F5F5F5F5F5F5F5F5F5F5F5F5F5F5F5F5F5F5F5F5F5
310
F5F5F5F5F5F5F5F5F5F5F5F5F5F5F5F5F5F5F5F5F5F5F5F5F5F5F5F5F528F5F5F5F5F5F5F5F5F5F5F5F5F5F5F5F5F5F5F5F5F5F5F5F5F5F5F5F5F5F5F5F5F5F5F5F5F5F5F5F5F5F5F5F5F5F5F5F5F5F5F5F5F5F5F5F5F5F5F5F5F5F5F5F5F5F5F528F5DCF5F5F5F5F5F5F5F5F5F5F5F5F5F5F5F5F5E2F5E2E2F5E2F5F5F5F5
310
F5F5F5F5F5F5F5F5F5F5F5F5F5DCF528F5F5F5F5F5F5F5F5F5F5F5F5F52D2D2D2D2D2D2D2D2D2D2D2D2D2D2D2D2D2D2D2D2D2D2D2D2D2D2D2D2D2D2D2D2D2D2D2D2D2DF5F5F5F5F5F5F5F5F5F5F5F5F5F5F528F5F5F52D2D2D2DF52D2D2D2D2D2DF5F5F5F5F5F5F5F5F5F5F5F5F5F5F5F5F5F5F5F5F5F5F5F5F5F5F5F5F5F5
310
F5F5F5F5F5F5F5F5F5F5F5F5F5F5F5F5F5F5F5F5F5F5F528F5DCF5F5F5F5F5F5F5F5F5F5F5F5F5F5F5F5F5E2F5E2E2F5E2F5F5F5F5F5F5F5F5F5F5F5F5F5F5F5F5F5DCF528F5F5F5F5F5F5F5F5F5F5F5F5F52D2D2D2D2D2D2D2D2D2D2D2D2D2D2D2D2D2D2D2D2D2D2D2D2D2D2D2D2D2D2D2D2D2D2D2D2D2DF5F5F5F5F5F5F5
310
F5F5F5F5F5F5F5F528F5F5F52D2D2D2DF52D2D2D2DF52DF5F5F5F5F5F5F5F5F5F5F5F5F5F5F5F5F5F5F5F5F5F5F5F5F5F5F5F5F5F5F5F5F5F5F5F5F5F5F5F5F5F5F5F5F5F5F5F5F5F5F5F5F528F5DCF5F5F5F5F5F5F5F5F5F5F5F5F5F5F5F5F5E2F5E2E2F5E2F5F5F5F5F5F5F5F5F5F5F5F5F5F5F5F5F5DCF528F5F5F5F5F5
310
F5F5F5F5F5F5F5F5F5F5F5F5F5F5F5F5F5F5F5F5F5F5F5F5F5F5F5F5F5F5F5F5F5F5F5F5F5F5F5F5F5F5F5F5F5F5F5F5F5F5F5F5F5F5F5F5F5F5F5F5F528F5F5F5F5F5F5F5F5F5F5F5F5F5F5F5F5F5F5F5F5F5F5F5F5F5F5F5F5F5F5F5F5F5F5F5F5F5F5F5F5F5F5F5F5F5F5F5F5F5F5F5F5F5F5F5F5F5F5F5F5F5F5F5F5F5
310
F5F528F5DCF5F5F5F5F5F5F5F5F5F5F5F5F5F5F5F5F5E2F5E2E2F5E2F5F5F5F5F5F5F5F5F5F5F5F5F5F5F5F5F5DCF52828282828282828282828282828282828282828282828282828282D2D2D2D2D2D2D2D2D2D2D2D2D28282828282828282828282828282828282828282828282828282828282828282828282828282828
310
2828282828282828282828282828282828282828282828282828282828282828282828282828282828282828282828282828282828282828F5DCF5F5F5F5F5F5F5F5F5F5F5F5F5F5F5F5F5E2F5E2E2F5E2F5F5F5F5F5F5F5F5F5F5F5F5F5F5F5F5F5DCF528F5F5F5F5F5F5F5F5F5F5F5F5F5F5F5F5F5F5F5F5F5F5F5F5F5F5
310
2D2D2D2D2D2D2D2D2D2D2D2D2DF5F5F5F5F5F5F5F5F5F5F5F5F5F5F5F5F5F5F5F5F5F5F5F5F5F5F528F5F5F52D2D2D2D2D2D2D2D2D2D2DF5F52D2D2D2D2D2D2D2D2D2DF5F5F5F5F5F5F5F5F5F5F5F5F5F5F5F5F5F5F5F5F5F5F5F5F5F5F5F5F5F5F5F5F5F5F5F5F5F5F5F5F528F5DCF5F5F5F5F5F5F5F5F5F5F5F5F5F5F5F5
310
F5E2F5E2E2F5E2F5F5F5F5F5F5F5F5F5F5F5F5F5F5F5F5F5DCF528F5F5F5F5F5F5F5F5F5F5F5F5F5F5F5F5F5F5F5F5F5F5F5F5F5F52D2D2D2D2D2D2D2D2D2D2D2D2DF5F5F5F5F5F5F5F5F5F5F5F5F5F5F5F5F5F5F5F5F5F5F5F5F5F5F528F5F5F52D2D2D2D2D2D2D2D2D2D2DF52D2D2D2D2D2D2D2D2D2D2DF5F5F5F5F5F5F5
310
F5F5F5F5F5F5F5F5F5F5F5F5F5F5F5F5F5F5F5F5F5F5F5F5F5F5F5F5F5F5F5F5F5F528F5DCF5F5F5F5F5F5F5F5F5F5F5F5F5F5F5F5F5E2F5E2E2F5F5F5F5F5F5F5F5F5F5F5F5F5F5F5F5F5F5F5DCF528F5F5F5F5F5F5F5F5F5F5F5F5F5F5F5F5F5F5F5F5F5F5F5F5F5F5F5F5F5F5F5F5F5F5F5F5F5F5F5F5F5F5F5F5F5F5F5
310
F5F5F5F5F5F5F5F5F5F5F5F5F5F5F5F5F5F5F528F5F5F5F5F5F5F5F5F5F5F5F5F5F5F5F5F5F5F5F5F5F5F5F5F5F5F5F5F5F5F5F5F5F5F5F5F5F5F5F5F5F5F5F5F5F5F5F5F5F5F5F5F5F5F5F5F5F5F5F5F5F5F5F5F5F5F528F5DCF5F5F5F5F5F5F5F5F5F5F5F5F5F5F5F5F5F5F5E2E2F5F5F5F5F5F5F5F5F5F5F5F5F5F5F5F5
310
F5F5F5DCF52828282828282828282828282828282828282828282828282828282828282828282828282828282828282828282828282828282828282828282828282828282828282828282828282828282828282828282828282828282828282828282828282828282828282828282828282828282828282828282828282828
310
2828282828282828282828282828F5DCF5F5F5F5F5F5F5F5F5F5F5F5F5F5F5F5F5F5F5E2E2F5F5F5F5F5F5F5F5F5F5F5F5F5F5F5F5F5F5F5DCF5F5F5F5F5F5F5F5F5F5F5F5F5F5F5F5F5F5F5F5F5F5F5F5F5F5F5F5F5F5F5F5F5F5F5F5F5F5F5F5F5F5F5F5F5F5F5F5F5F5F5F5F5F5F5F5F5F5F5F5F5F5F5F5F5F5F5F5F5F5
310
F5F5F5F5F5F5F5F5F5F5F5F5F5F5F5F5F5F5F5F5F5F5F5F5F5F5F5F5F5F5F5F5F5F5F5F5F5F5F5F5F5F5F5F5F5F5F5F5F5F5F5F5F5F5F5F5F5F5F5F5F5F5F5F5F5F5F5F5DCF5F5F5F5F5F5F5F5F5F5F5F5F5F5F5F5F5F5F5E2E2F5F5F5F5F5F5F5F5F5F5F5F5F5F5F5F5F5F5F5DCDCDCDCDCDCDCDCDCDCDCDCDCDCDCDCDCDC
310
DCDCDCDCDCDCDCDCDCDCDCDCDCDCDCDCDCDCDCDCDCDCDCDCDCDCDCDCDCDCDCDCDCDCDCDCDCDCDCDCDCDCDCDCDCDCDCDCDCDCDCDCDCDCDCDCDCDCDCDCDCDCDCDCDCDCDCDCDCDCDCDCDCDCDCDCDCDCDCDCDCDCDCDCDCDCDCDCDCDCDCDCDCDCDCDCDCDCDCDCDCDCDCDCDCDCDCDCDCDCDCDCDCDCDCDCDCDCDCDCDCDCF5F5F5F5F5
310
F5F5F5F5F5F5F5F5F5F5F5F5F5F5E2E2F5F5F5F5F5F5F5F5F5F5F5F5F5F5F5F5F5F5F5DCDCDCDCDCDCDCDCDCDCDCDCDCDCDCDCDCDCDCDCDCDCDCDCDCDCDCDCDCDCDCDCDCDCDCDCDCDCDCDCDCDCDCDCDCDCDCDCDCDCDCDCDCDCDCDCDCDCDCDCDCDCDCDCDCDCDCDCDCDCDCDCDCDCDCDCDCDCDCDCDCDCDCDCDCDCDCDCDCDCDCDC
310
DCDCDCDCDCDCDCDCDCDCDCDCDCDCDCDCDCDCDCDCDCDCDCDCDCDCDCDCDCDCDCDCDCDCDCDCDCDCDCDCDCDCDCDCDCDCDCDCF5F5F5F5F5F5F5F5F5F5F5F5F5F5F5F5F5F5F5E2E2F5F5F5F5F5F5F5F5F5F5F5F5F5F5F5F5F5F5F5F5F5F5F5F5F5F5F5F5F5F5F5F5F5F5F5F5F5F5F5F5F5F5F5F5F5F5F5F5F5F5F5F5F5F5F5F5F5F5
310
F5F5F5F5F5F5F5F5F5F5F5F5F5F5F5F5F5F5F5F5F5F5F5F5F5F5F5F5F5F5F5F5F5F5F5F5F5F5F5F5F5F5F5F5F5F5F5F5F5F5F5F5F5F5F5F5F5F5F5F5F5F5F5F5F5F5F5F5F5F5F5F5F5F5F5F5F5F5F5F5F5F5F5F5F5F5F5F5F5F5F5F5F5F5F5F5F5F5F5F5F5F5F5F5F5F5F5F5F5F5F5F5F5F5F5F5F5F5F5F5E2E2F5F5F5F5F5
310
F5F5F5F5F5F5F5F5F5F5F5F5F5F5F5F5F5F5F5F5F5F5F5F5F5F5F5F5F5F5F5F5F5F5F5F5F5F5F5F5F5F5F5F5F5F5F5F5F5F5F5F5F5F5F5F5F5F5F5F5F5F5F5F5F5F5F5F5F5F5F5F5F5F5F5F5F5F5F5F5F5F5F5F5F5F5F5F5F5F5F5F5F5F5F5F5F5F5F5F5F5F5F5F5F5F5F5F5F5F5F5F5F5F5F5F5F5F5F5F5F5F5F5F5F5F5F5
310
F5F5F5F5F5F5F5F5F5F5F5F5F5F5F5F5F5F5F5F5F5F5F5F5F5F5F5F5F5F5F5F5F5F5F5F5F5F5F5F5F5F5F5F5F5F5E2E2F5F5F5F5F5F5F5F5F5F5F5F5F5F5F5F5F5F5F5F5F5F5F5F5F5F5F5F5F5F5F5F5F5F5F5F5F5F5F5F5F5F5F5F5F5F5F5F5F5F5F5F5F5F5F5F5F5F5F5F5F5F5F5F5F5F5F5F5F5F5F5F5F5F5F5F5F5F5F5
310
F5F5F5F5F5F5F5F5F5F5F5F5F5F5F5F5F5F5F5F5F5F5F5F5F5F5F5F5F5F5F5F5F5F5F5F5F5F5F5F5F5F5F5F5F5F5F5F5F5F5F5F5F5F5F5F5F5F5F5F5F5F5F5F5F5F5F5F5F5F5F5F5F5F5F5F5F5F5F5F5F5F5F5F5F5F5F5F5F5F5F5F5F5F5F5F5F5F5F5E2E2F5F5F5F5F5F5F5F5F5F5F5F5F5F5F5F5F5F5F5F5F5F5F5F5F5F5
310
F5F5F5F5F5F5F5F5F5F5F5F5F5F5F5F5F5F5F5F5F5F5F5F5F5F5F5F5F5F5F5F5F5F5F5F5F5F5F5F5F5F5F5F5F5F5F5F5F5F5F5F5F5F5F5F5F5F5F5F5F5F5F5F5F5F5F5F5F5F5F5F5F5F5F5F5F5F5F5F5F5F5F5F5F5F5F5F5F5F5F5F5F5F5F5F5F5F5F5F5F5F5F5F5F5F5F5F5F5F5F5F5F5F5F5F5F5F5F5F5F5F5F5F5F5F5F5
310
F5F5F5F5F5F5F5F5F5F5F5F5F5F5F5F5F5F5F5F5F5F5F5F5F5E2E2F5E2F5F5F5F5F5F5F5F5F5F5F5F5F5F5F5F5F5F5F5F5F5F5F5F5F5F5F5F5F5F5F5F5F5F5F5F5F5F5F5F5F5F5F5F5F5F5F5F5F5F5F5F5F5F5F5F5F5F5F5F5F5F5F5F5F5F5F5F5F5F5F5F5F5F5F5F5F5F5F5F5F5F5F5F5F5F5F5F5F5F5F5F5F5F5F5F5F5F5
310
F5F5F5F5F5F5F5F5F5F5F5F5F5F5F5F5F5F5F5F5F5F5F5F5F5F5F5F5F5F5F5F5F5F5F5F5F5F5F5F5F5F5F5F5F5F5F5F5F5F5F5F5F5F5F5F5F5F5F5F5F5F5F5F5F5F5F5F5F5F5F5F5F5F5F5F5E2F5E2E2F5E2F5F5F5F5F5F5F5F5F5F5F5F5F5F5F5F5F5F5F5F5F5F5F5F5F5F5F5F5F5F5F5F5F5F5F5F5F5F5F5F5F5F5F5F5F5
310
F5F5F5F5F5F5F5F5F5F5F5F5F5F5F5F5F5F5F5F5F5F5F5F5F5F5F5F5F5F5F5F5F5F5F5F5F5F5F5F5F5F5F5F5F5F5F5F5F5F5F5F5F5F5F5F5F5F5F5F5F5F5F5F5F5F5F5F5F5F5F5F5F5F5F5F5F5F5F5F5F5F5F5F5F5F5F5F5F5F5F5F5F5F5F5F5F5F5F5F5F5F5F5F5F5F5F5F5F5F5F5F5F5F5F5F5F5F5F5F5F5F5F5F5F5F5F5
310
F5F5E2F5E2E2F5E2F5F5F5F5F5F5F5F5F5F5F5F5F5F5F5F5F5F5F5F5F5F5F5F5F5F5F5F5F5F5F5F5F5F5F5F5F5F5F5F5F5F5F5F5F5F5F5F5F5F5F5F5F5F5F5F5F5F5F5F5F5F5F5F5F5F5F5F5F5F5F5F5F5F5F5F5F5F5F5F5F5F5F5F5F5F5F5F5F5F5F5F5F5F5F5F5F5F5F5F5F5F5F5F5F5F5F5F5F5F5F5F5F5F5F5F5F5F5F5
310
F5F5F5F5F5F5F5F5F5F5F5F5F5F5F5F5F5F5F5F5F5F5F5F5F5F5F5F5F5F5F5F5F5F5F5F5F5F5F5F5F5F5F5F5F5F5F5F5F5F5F5F5F5F5F5E2F5E2E2F5E2F5F5F5F5F5F5F5F5F5F5F5F5F5F5F5F5F5F5F5F5F5F5F5F5F5F5F5F5F5F5F5F5F5F5F5F5F5F5F5F5F5F5F5F5F5F5F5F5F5F5F5F5F5F5F5F5F5F5F5F5F5F5F5F5F5F5
310
F5F5F5F5F5F5F5F5F5F5F5F5F5F5F5F5F5F5F5F5F5F5F5F5F5F5F5F5F5F5F5F5F5F5F5F5F5F5F5F5F5F5F5F5F5F5F5F5F5F5F5F5F5F5F5F5F5F5F5F5F5F5F5F5F5F5F5F5F5F5F5F5F5F5F5F5F5F5F5F5F5F5F5F5F5F5F5F5F5F5F5F5F5F5F5F5F5F5F5F5F5F5F5F5F5F5F5F5E2F5E2E2F5E2F5F5F5F5F5F5F5F5F5F5F5F5F5
310
F5F5F5F5F5F5F5F5F5F5F5F5F5F5F5F5F5F5F5F5F5F5F5F5F5F5F5F5F5F5F5F5F5F5F5F5F5F5F5F5F5F5F5F5F5F5F5F5F5F5F5F5F5F5F5F5F5F5F5F5F5F5F5F5F5F5F5F5F5F5F5F5F5F5F5F5F5F5F5F5F5F5F5F5F5F5F5F5F5F5F5F5F5F5F5F5F5F5F5F5F5F5F5F5F5F5F5F5F5F5F5F5F5F5F5F5F5F5F5F5F5F5F5F5F5F5F5
310
F5F5F5F5F5F5F5F5F5F5F5F5F5F5F5F5F5F5F5F5F5F5F5F5F5F5F5F5F5F5F5F5F5F5E2F5E2E2F5E2F5F5F5F5F5F5F5F5F5F5F5F5F5F5F5F5F5F5F5F5F5F5F5F5F5F5F5F5F5F5F5F5F5F5F5F5F5F5F5F5F5F5F5F5F5F5F5F5F5F5F5F5F5F5F5F5F5F5F5F5F5F5F5F5F5F5F5F5F5F5F5F5F5F5F5F5F5F5F5F5F5F5F5F5F5F5F5
310
F5F5F5F5F5F5F5F5F5F5F5F5F5F5F5F5F5F5F5F5F5F5F5F5F5F5F5F5F5F5F5F5F5F5F5F5F5F5F5F5F5F5F5F5F5F5F5F5F5F5F5F5F5F5F5F5F5F5F5F5F5F5F5F5F5F5F5F5F5F5F5F5F5F5F5F5F5F5F5F5F5F5F5F5F5F5F5E2F5E2E2F5E2F5F5F5F5F5F5F5F5F5F5F5F5F5F5F5F5F5F5F5F5F5F5F5F5F5F5F5F5F5F5F5F5F5F5
310
F5F5F5F5F5F5F5F5F5F5F5F5F5F5F5F5F5F5F5F5F5F5F5F5F5F5F5F5F5F5F5F5F5F5F5F5F5F5F5F5F5F5F5F5F5F5F5F5F5F5F5F5F5F5F5F5F5F5F5F5F5F5F5F5F5F5F5F5F5F5F5F5F5F5F5F5F5F5F5F5F5F5F5F5F5F5F5F5F5F5F5F5F5F5F5F5F5F5F5F5F5F5F5F5F5F5F5F5F5F5F5F5F5F5F5F5F5F5F5F5F5F5F5F5F5F5F5
310
F5F5F5F5F5F5F5F5F5F5F5F5F5E2F5E2E2F5E2E2E2E2E2E2E2E2E2F5F5F5F5F5F5F5F5F5E2E2E2E2E2E2E2E2E2E2E2E2E2E2E2E2F5F5F5F5F5F5F5F5F5E2E2E2E2E2E2E2E2E2E2E2E2E2E2E2E2F5F5F5F5F5F5F5F5F5E2E2E2E2E2E2E2E2E2E2E2E2E2E2E2E2F5F5F5F5F5F5F5F5F5E2E2E2E2E2E2E2E2E2E2E2E2E2E2E2E2
310
F5F5F5F5F5F5F5F5F5E2E2E2E2E2E2E2E2E2E2E2E2E2E2E2E2F5F5F5F5F5F5F5F5F5E2E2E2E2E2E2E2E2E2E2E2E2E2E2E2E2F5F5F5F5F5F5F5F5F5E2E2E2E2E2E2E2E2F5E2E2F5F5F5F5F5F5F5F5F5F5F5F5F5F5F5F5F5F5F5F5F5F5F5F5F5F5F5F5F5F5F5F5F5F5F5F5F5F5F5F5F5F5F5F5F5F5F5F5F5F5F5F5F5F5F5F5F5
310
F5F5F5F5F5F5F5F5F5F5F5F5F5F5F5F5F5F5F5F5F5F5F5F5F5F5F5F5F5F5F5F5F5F5F5F5F5F5F5F5F5F5F5F5F5F5F5F5F5F5F5F5F5F5F5F5F5F5F5F5F5F5F5F5F5F5F5F5F5F5F5F5F5F5F5F5F5F5F5F5F5F5F5F5F5F5F5F5F5F5F5F5F5F5F5F5F5F5F5F5F5F5F5F5F5F5F5F5F5F5F5F5F5F5F5F5F5F5F5F5F5E2E2E2E2E2E2
310
E2E2E2E2E2E2E2E2E2E2E2E2E2E2E2E2E2E2E2E2E2E2E2E2E2E2E2E2E2E2E2E2E2E2E2E2E2E2E2E2E2E2E2E2E2E2E2E2E2E2E2E2E2E2E2E2E2E2E2E2E2E2E2E2E2E2E2E2E2E2E2E2E2E2E2E2E2E2E2E2E2E2E2E2E2E2E2E2E2E2E2E2E2E2E2E2E2E2E2E2E2E2E2E2E2E2E2E2E2E2E2E2E2E2E2E2E2E2E2E2E2E2E2E2E2E2E2
310
E2E2E2E2E2E2E2E2E2E2E2E2E2E2E2E2E2E2E2E2E2E2E2E2E2E2E2E2E2E2E2E2E2E2E2E2E2E2E2E2E2E2E2E2E2E2E2E2
  0
XRECORD
  5
14CD
102
{ACAD_REACTORS
330
14CC
102
}
330
14CC
100
AcDbXrecord
280
     1
102
SHADEPLOT
 70
     0
102
SHADEPLOTRESLEVEL
 70
     2
102
SHADEPLOTCUSTOMDPI
 70
   300
  0
XRECORD
  5
14C6
102
{ACAD_REACTORS
330
14C5
102
}
330
14C5
100
AcDbXrecord
280
     1
102
SHADEPLOT
 70
     0
102
SHADEPLOTRESLEVEL
 70
     2
102
SHADEPLOTCUSTOMDPI
 70
   300
  0
XRECORD
  5
C8
102
{ACAD_REACTORS
330
C7
102
}
330
C7
100
AcDbXrecord
280
     1
102
MATERIAL
148
0.0
149
0.0
149
0.0
 93
        0
 94
       63
282
     0
 72
     1
 77
     1
171
     1
175
     1
179
     1
273
     0
  0
XRECORD
  5
C6
102
{ACAD_REACTORS
330
C5
102
}
330
C5
100
AcDbXrecord
280
     1
102
MATERIAL
148
0.0
149
0.0
149
0.0
 93
        0
 94
       63
282
     0
 72
     1
 77
     1
171
     1
175
     1
179
     1
273
     0
  0
XRECORD
  5
B2
102
{ACAD_REACTORS
330
B1
102
}
330
B1
100
AcDbXrecord
280
     1
102
MATERIAL
148
0.0
149
0.0
149
0.0
 93
        0
 94
       63
282
     0
 72
     1
 77
     1
171
     1
175
     1
179
     1
273
     0
  0
XRECORD
  5
156
102
{ACAD_REACTORS
330
155
102
}
330
155
100
AcDbXrecord
280
     1
102
ACAD_ROUNDTRIP_PRE2007_TABLESTYLE
 90
        4
 91
        0
  1

 92
        4
 93
        0
  2

 94
        4
 95
        0
  3

  0
ENDSEC
  0
EOF
