  0
SECTION
  2
HEADER
  9
$ACADVER
  1
AC1015
  9
$ACADMAINTVER
 70
    20
  9
$DWGCODEPAGE
  3
ANSI_1252
  9
$INSBASE
 10
0.0
 20
0.0
 30
0.0
  9
$EXTMIN
 10
-0.2266680619079011
 20
-0.350399443596217
 30
0.0
  9
$EXTMAX
 10
59.49435180259019
 20
51.42172413748148
 30
0.0
  9
$LIMMIN
 10
0.0
 20
0.0
  9
$LIMMAX
 10
1.0
 20
0.5
  9
$ORTHOMODE
 70
     0
  9
$REGENMODE
 70
     1
  9
$FILLMODE
 70
     1
  9
$QTEXTMODE
 70
     0
  9
$MIRRTEXT
 70
     0
  9
$LTSCALE
 40
1.0
  9
$ATTMODE
 70
     1
  9
$TEXTSIZE
 40
0.005
  9
$TRACEWID
 40
1.0
  9
$TEXTSTYLE
  7
style1
  9
$CLAYER
  8
Dimensione
  9
$CELTYPE
  6
ByLayer
  9
$CECOLOR
 62
   256
  9
$CELTSCALE
 40
1.0
  9
$DISPSILH
 70
     0
  9
$DIMSCALE
 40
0.001
  9
$DIMASZ
 40
1.5
  9
$DIMEXO
 40
0.0625
  9
$DIMDLI
 40
0.38
  9
$DIMRND
 40
0.0
  9
$DIMDLE
 40
0.0
  9
$DIMEXE
 40
0.18
  9
$DIMTP
 40
0.0
  9
$DIMTM
 40
0.0
  9
$DIMTXT
 40
3.0
  9
$DIMCEN
 40
0.0
  9
$DIMTSZ
 40
0.0
  9
$DIMTOL
 70
     0
  9
$DIMLIM
 70
     0
  9
$DIMTIH
 70
     1
  9
$DIMTOH
 70
     1
  9
$DIMSE1
 70
     0
  9
$DIMSE2
 70
     0
  9
$DIMTAD
 70
     0
  9
$DIMZIN
 70
     0
  9
$DIMBLK
  1
ArchTick
  9
$DIMASO
 70
     1
  9
$DIMSHO
 70
     1
  9
$DIMPOST
  1

  9
$DIMAPOST
  1

  9
$DIMALT
 70
     0
  9
$DIMALTD
 70
     2
  9
$DIMALTF
 40
25.4
  9
$DIMLFAC
 40
1.0
  9
$DIMTOFL
 70
     0
  9
$DIMTVP
 40
0.0
  9
$DIMTIX
 70
     0
  9
$DIMSOXD
 70
     0
  9
$DIMSAH
 70
     0
  9
$DIMBLK1
  1

  9
$DIMBLK2
  1

  9
$DIMSTYLE
  2
Bovelacci
  9
$DIMCLRD
 70
     5
  9
$DIMCLRE
 70
     5
  9
$DIMCLRT
 70
     4
  9
$DIMTFAC
 40
1.0
  9
$DIMGAP
 40
2.0
  9
$DIMJUST
 70
     0
  9
$DIMSD1
 70
     0
  9
$DIMSD2
 70
     0
  9
$DIMTOLJ
 70
     1
  9
$DIMTZIN
 70
     0
  9
$DIMALTZ
 70
     0
  9
$DIMALTTZ
 70
     0
  9
$DIMUPT
 70
     0
  9
$DIMDEC
 70
     2
  9
$DIMTDEC
 70
     2
  9
$DIMALTU
 70
     2
  9
$DIMALTTD
 70
     2
  9
$DIMTXSTY
  7
ROMANS
  9
$DIMAUNIT
 70
     0
  9
$DIMADEC
 70
     0
  9
$DIMALTRND
 40
0.0
  9
$DIMAZIN
 70
     0
  9
$DIMDSEP
 70
    46
  9
$DIMATFIT
 70
     3
  9
$DIMFRAC
 70
     0
  9
$DIMLDRBLK
  1

  9
$DIMLUNIT
 70
     2
  9
$DIMLWD
 70
    -2
  9
$DIMLWE
 70
    -2
  9
$DIMTMOVE
 70
     2
  9
$LUNITS
 70
     2
  9
$LUPREC
 70
     2
  9
$SKETCHINC
 40
1.0
  9
$FILLETRAD
 40
0.0
  9
$AUNITS
 70
     0
  9
$AUPREC
 70
     0
  9
$MENU
  1
.
  9
$ELEVATION
 40
0.0
  9
$PELEVATION
 40
0.0
  9
$THICKNESS
 40
0.0
  9
$LIMCHECK
 70
     0
  9
$CHAMFERA
 40
0.0
  9
$CHAMFERB
 40
0.0
  9
$CHAMFERC
 40
0.0
  9
$CHAMFERD
 40
0.0
  9
$SKPOLY
 70
     0
  9
$TDCREATE
 40
2454297.625402373
  9
$TDUCREATE
 40
2454297.542069039
  9
$TDUPDATE
 40
2454334.710859190
  9
$TDUUPDATE
 40
2454334.627525856
  9
$TDINDWG
 40
0.2732469097
  9
$TDUSRTIMER
 40
0.2732463542
  9
$USRTIMER
 70
     1
  9
$ANGBASE
 50
0.0
  9
$ANGDIR
 70
     0
  9
$PDMODE
 70
     0
  9
$PDSIZE
 40
0.0
  9
$PLINEWID
 40
0.0
  9
$SPLFRAME
 70
     0
  9
$SPLINETYPE
 70
     6
  9
$SPLINESEGS
 70
     8
  9
$HANDSEED
  5
1B1A
  9
$SURFTAB1
 70
     6
  9
$SURFTAB2
 70
     6
  9
$SURFTYPE
 70
     6
  9
$SURFU
 70
     6
  9
$SURFV
 70
     6
  9
$UCSBASE
  2

  9
$UCSNAME
  2

  9
$UCSORG
 10
0.0
 20
0.0
 30
0.0
  9
$UCSXDIR
 10
1.0
 20
0.0
 30
0.0
  9
$UCSYDIR
 10
0.0
 20
1.0
 30
0.0
  9
$UCSORTHOREF
  2

  9
$UCSORTHOVIEW
 70
     0
  9
$UCSORGTOP
 10
0.0
 20
0.0
 30
0.0
  9
$UCSORGBOTTOM
 10
0.0
 20
0.0
 30
0.0
  9
$UCSORGLEFT
 10
0.0
 20
0.0
 30
0.0
  9
$UCSORGRIGHT
 10
0.0
 20
0.0
 30
0.0
  9
$UCSORGFRONT
 10
0.0
 20
0.0
 30
0.0
  9
$UCSORGBACK
 10
0.0
 20
0.0
 30
0.0
  9
$PUCSBASE
  2

  9
$PUCSNAME
  2

  9
$PUCSORG
 10
0.0
 20
0.0
 30
0.0
  9
$PUCSXDIR
 10
1.0
 20
0.0
 30
0.0
  9
$PUCSYDIR
 10
0.0
 20
1.0
 30
0.0
  9
$PUCSORTHOREF
  2

  9
$PUCSORTHOVIEW
 70
     0
  9
$PUCSORGTOP
 10
0.0
 20
0.0
 30
0.0
  9
$PUCSORGBOTTOM
 10
0.0
 20
0.0
 30
0.0
  9
$PUCSORGLEFT
 10
0.0
 20
0.0
 30
0.0
  9
$PUCSORGRIGHT
 10
0.0
 20
0.0
 30
0.0
  9
$PUCSORGFRONT
 10
0.0
 20
0.0
 30
0.0
  9
$PUCSORGBACK
 10
0.0
 20
0.0
 30
0.0
  9
$USERI1
 70
     0
  9
$USERI2
 70
     0
  9
$USERI3
 70
     0
  9
$USERI4
 70
     0
  9
$USERI5
 70
     0
  9
$USERR1
 40
0.0
  9
$USERR2
 40
0.0
  9
$USERR3
 40
0.0
  9
$USERR4
 40
0.0
  9
$USERR5
 40
0.0
  9
$WORLDVIEW
 70
     1
  9
$SHADEDGE
 70
     3
  9
$SHADEDIF
 70
    70
  9
$TILEMODE
 70
     1
  9
$MAXACTVP
 70
    64
  9
$PINSBASE
 10
0.0
 20
0.0
 30
0.0
  9
$PLIMCHECK
 70
     0
  9
$PEXTMIN
 10
29.06606628894805
 20
20.36233246326446
 30
0.0
  9
$PEXTMAX
 10
261.5945966005325
 20
183.2609921693802
 30
0.0
  9
$PLIMMIN
 10
-3.17498779296875
 20
-3.174999952316281
  9
$PLIMMAX
 10
293.8356628417969
 20
206.7983276844024
  9
$UNITMODE
 70
     0
  9
$VISRETAIN
 70
     1
  9
$PLINEGEN
 70
     0
  9
$PSLTSCALE
 70
     1
  9
$TREEDEPTH
 70
  3020
  9
$CMLSTYLE
  2
Standard
  9
$CMLJUST
 70
     0
  9
$CMLSCALE
 40
20.0
  9
$PROXYGRAPHICS
 70
     1
  9
$MEASUREMENT
 70
     1
  9
$CELWEIGHT
370
    -1
  9
$ENDCAPS
280
     0
  9
$JOINSTYLE
280
     0
  9
$LWDISPLAY
290
     0
  9
$INSUNITS
 70
     4
  9
$HYPERLINKBASE
  1

  9
$STYLESHEET
  1

  9
$XEDIT
290
     1
  9
$CEPSNTYPE
380
     0
  9
$PSTYLEMODE
290
     1
  9
$FINGERPRINTGUID
  2
{4F38C4E7-9F37-4C76-96D9-79C94F9B03D9}
  9
$VERSIONGUID
  2
{901364FF-399C-474E-8560-BD95BB223092}
  9
$EXTNAMES
290
     1
  9
$PSVPSCALE
 40
0.0
  9
$OLESTARTUP
290
     0
  0
ENDSEC
  0
SECTION
  2
CLASSES
  0
CLASS
  1
ACDBDICTIONARYWDFLT
  2
AcDbDictionaryWithDefault
  3
ObjectDBX Classes
 90
        0
280
     0
281
     0
  0
CLASS
  1
TABLESTYLE
  2
AcDbTableStyle
  3
ObjectDBX Classes
 90
     2047
280
     0
281
     0
  0
CLASS
  1
SORTENTSTABLE
  2
AcDbSortentsTable
  3
ObjectDBX Classes
 90
        0
280
     0
281
     0
  0
CLASS
  1
DICTIONARYVAR
  2
AcDbDictionaryVar
  3
ObjectDBX Classes
 90
        0
280
     0
281
     0
  0
CLASS
  1
DIMASSOC
  2
AcDbDimAssoc
  3
"AcDbDimAssoc|Product Desc:     AcDim ARX App For Dimension|Company:          Autodesk, Inc.|WEB Address:      www.autodesk.com"
 90
        0
280
     0
281
     0
  0
CLASS
  1
ACDBPLACEHOLDER
  2
AcDbPlaceHolder
  3
ObjectDBX Classes
 90
        0
280
     0
281
     0
  0
CLASS
  1
LAYOUT
  2
AcDbLayout
  3
ObjectDBX Classes
 90
        0
280
     0
281
     0
  0
CLASS
  1
MATERIAL
  2
AcDbMaterial
  3
ObjectDBX Classes
 90
        0
280
     0
281
     0
  0
CLASS
  1
VISUALSTYLE
  2
AcDbVisualStyle
  3
ObjectDBX Classes
 90
     4095
280
     0
281
     0
  0
CLASS
  1
ACAD_EVALUATION_GRAPH
  2
AcDbEvalGraph
  3
ObjectDBX Classes
 90
    33921
280
     0
281
     0
  0
CLASS
  1
ACAECUSTOBJ
  2
AcAeEditorObj
  3
AcAeEditorObj
 90
    33792
280
     0
281
     0
  0
CLASS
  1
ACDB_DYNAMICBLOCKPURGEPREVENTER_VERSION
  2
AcDbDynamicBlockPurgePreventer
  3
ObjectDBX Classes
 90
    33921
280
     0
281
     0
  0
ENDSEC
  0
SECTION
  2
TABLES
  0
TABLE
  2
VPORT
  5
96
330
0
100
AcDbSymbolTable
 70
     5
  0
VPORT
  5
1B0C
330
96
100
AcDbSymbolTableRecord
100
AcDbViewportTableRecord
  2
*Active
 70
     0
 10
0.0
 20
0.0
 11
1.0
 21
1.0
 12
0.208750291307948
 22
0.1477340401746261
 13
0.0
 23
0.0
 14
10.0
 24
10.0
 15
10.0
 25
10.0
 16
0.0
 26
0.0
 36
1.0
 17
0.0
 27
0.0
 37
0.0
 40
0.2855749606053734
 41
1.546526867627784
 42
50.0
 43
0.0
 44
0.0
 50
0.0
 51
0.0
 71
     0
 72
  1000
 73
     1
 74
     3
 75
     0
 76
     0
 77
     0
 78
     0
281
     0
 65
     1
110
0.0
120
0.0
130
0.0
111
1.0
121
0.0
131
0.0
112
0.0
122
1.0
132
0.0
 79
     0
146
0.0
  0
ENDTAB
  0
TABLE
  2
LTYPE
  5
91
330
0
100
AcDbSymbolTable
 70
     5
  0
LTYPE
  5
92
330
91
100
AcDbSymbolTableRecord
100
AcDbLinetypeTableRecord
  2
ByBlock
 70
     0
  3

 72
    65
 73
     0
 40
0.0
  0
LTYPE
  5
93
330
91
100
AcDbSymbolTableRecord
100
AcDbLinetypeTableRecord
  2
ByLayer
 70
     0
  3

 72
    65
 73
     0
 40
0.0
  0
LTYPE
  5
C
330
91
100
AcDbSymbolTableRecord
100
AcDbLinetypeTableRecord
  2
Continuous
 70
     0
  3
Solid line
 72
    65
 73
     0
 40
0.0
  0
LTYPE
  5
105
330
91
100
AcDbSymbolTableRecord
100
AcDbLinetypeTableRecord
  2
ACAD_ISO10W100
 70
     0
  3
ISO dash dot __ . __ . __ . __ . __ . __ . __ .
 72
    65
 73
     4
 40
18.0
 49
12.0
 74
     0
 49
-3.0
 74
     0
 49
0.0
 74
     0
 49
-3.0
 74
     0
  0
LTYPE
  5
190
330
91
100
AcDbSymbolTableRecord
100
AcDbLinetypeTableRecord
  2
RAYITAX4
 70
     0
  3
RAYITAX4
 72
    65
 73
     2
 40
18.0
 49
12.0
 74
     0
 49
-6.0
 74
     0
  0
LTYPE
  5
73C
330
91
100
AcDbSymbolTableRecord
100
AcDbLinetypeTableRecord
  2
RAYITA
 70
     0
  3
rayita
 72
    65
 73
     2
 40
1.5
 49
1.0
 74
     0
 49
-0.5
 74
     0
  0
ENDTAB
  0
TABLE
  2
LAYER
  5
8A
102
{ACAD_XDICTIONARY
360
8B
102
}
330
0
100
AcDbSymbolTable
 70
    12
  0
LAYER
  5
6
330
8A
100
AcDbSymbolTableRecord
100
AcDbLayerTableRecord
  2
0
 70
     0
 62
     7
  6
Continuous
370
    -3
390
7
  0
LAYER
  5
3F
330
8A
100
AcDbSymbolTableRecord
100
AcDbLayerTableRecord
  2
Defpoints
 70
     0
 62
     7
  6
Continuous
290
     0
370
    -3
390
7
  0
LAYER
  5
2E
330
8A
100
AcDbSymbolTableRecord
100
AcDbLayerTableRecord
  2
Dimensione
 70
     0
 62
   150
  6
Continuous
370
    -3
390
7
1001
AcAecLayerStandard
1000

1000

  0
LAYER
  5
2A
330
8A
100
AcDbSymbolTableRecord
100
AcDbLayerTableRecord
  2
Profilo
 70
     0
 62
     1
  6
Continuous
370
    -3
390
7
1001
AcAecLayerStandard
1000

1000

  0
LAYER
  5
54
330
8A
100
AcDbSymbolTableRecord
100
AcDbLayerTableRecord
  2
Sezione
 70
     0
 62
     2
  6
Continuous
370
    -3
390
7
1001
AcAecLayerStandard
1000

1000

  0
LAYER
  5
E
330
8A
100
AcDbSymbolTableRecord
100
AcDbLayerTableRecord
  2
Table
 70
     0
 62
     3
  6
Continuous
370
    -3
390
7
1001
AcAecLayerStandard
1000

1000

  0
LAYER
  5
19
330
8A
100
AcDbSymbolTableRecord
100
AcDbLayerTableRecord
  2
Text
 70
     0
 62
     4
  6
Continuous
370
    -3
390
7
1001
AcAecLayerStandard
1000

1000

  0
LAYER
  5
5C
330
8A
100
AcDbSymbolTableRecord
100
AcDbLayerTableRecord
  2
Vista
 70
     0
 62
     2
  6
Continuous
370
    -3
390
7
1001
AcAecLayerStandard
1000

1000

  0
LAYER
  5
256
330
8A
100
AcDbSymbolTableRecord
100
AcDbLayerTableRecord
  2
CORTE
 70
     0
 62
     1
  6
Continuous
370
    -3
390
7
  0
LAYER
  5
40E
330
8A
100
AcDbSymbolTableRecord
100
AcDbLayerTableRecord
  2
COTAS
 70
     0
 62
     4
  6
Continuous
370
    -3
390
7
  0
LAYER
  5
594
330
8A
100
AcDbSymbolTableRecord
100
AcDbLayerTableRecord
  2
MARCO
 70
     0
 62
     4
  6
Continuous
370
    -3
390
7
  0
LAYER
  5
B5A
330
8A
100
AcDbSymbolTableRecord
100
AcDbLayerTableRecord
  2
TRAMA
 70
     0
 62
     4
  6
Continuous
370
    -3
390
7
  0
ENDTAB
  0
TABLE
  2
STYLE
  5
8F
330
0
100
AcDbSymbolTable
 70
     5
  0
STYLE
  5
1A
330
8F
100
AcDbSymbolTableRecord
100
AcDbTextStyleTableRecord
  2
Standard
 70
     0
 40
0.0
 41
1.0
 50
0.0
 71
     0
 42
2.5
  3
txt
  4

  0
STYLE
  5
20
330
8F
100
AcDbSymbolTableRecord
100
AcDbTextStyleTableRecord
  2
ROMANS
 70
     0
 40
0.0
 41
1.0
 50
0.0
 71
     0
 42
2.5
  3
romans
  4

  0
STYLE
  5
28
330
8F
100
AcDbSymbolTableRecord
100
AcDbTextStyleTableRecord
  2
Arial
 70
     0
 40
0.0
 41
1.0
 50
0.0
 71
     0
 42
0.25
  3
ARIAL.TTF
  4

1001
ACAD
1000
Arial
1071
       34
  0
STYLE
  5
26
330
8F
100
AcDbSymbolTableRecord
100
AcDbTextStyleTableRecord
  2
style1
 70
     0
 40
0.0
 41
1.0
 50
0.0
 71
     0
 42
0.005
  3
TIMES.TTF
  4

1001
ACAD
1000
Times New Roman
1071
       18
  0
STYLE
  5
595
330
8F
100
AcDbSymbolTableRecord
100
AcDbTextStyleTableRecord
  2
EUROROMANOBLIQUE
 70
     0
 40
0.0
 41
1.0
 50
0.0
 71
     0
 42
2.5
  3
euro____.pfb
  4

  0
ENDTAB
  0
TABLE
  2
VIEW
  5
94
330
0
100
AcDbSymbolTable
 70
     0
  0
ENDTAB
  0
TABLE
  2
UCS
  5
95
330
0
100
AcDbSymbolTable
 70
     0
  0
ENDTAB
  0
TABLE
  2
APPID
  5
98
330
0
100
AcDbSymbolTable
 70
    13
  0
APPID
  5
1B
330
98
100
AcDbSymbolTableRecord
100
AcDbRegAppTableRecord
  2
ACAD
 70
     0
  0
APPID
  5
34
330
98
100
AcDbSymbolTableRecord
100
AcDbRegAppTableRecord
  2
ACAD_DSTYLE_DIMJOGGED_JOGANGLE_SYMBOL
 70
     0
  0
APPID
  5
F
330
98
100
AcDbSymbolTableRecord
100
AcDbRegAppTableRecord
  2
AcAecLayerStandard
 70
     0
  0
APPID
  5
85
330
98
100
AcDbSymbolTableRecord
100
AcDbRegAppTableRecord
  2
ACAD_PSEXT
 70
     0
  0
APPID
  5
BA
330
98
100
AcDbSymbolTableRecord
100
AcDbRegAppTableRecord
  2
ACAD_DSTYLE_DIMEXT_LENGTH
 70
     0
  0
APPID
  5
101
330
98
100
AcDbSymbolTableRecord
100
AcDbRegAppTableRecord
  2
ACAD_EXEMPT_FROM_CAD_STANDARDS
 70
     0
  0
APPID
  5
102
330
98
100
AcDbSymbolTableRecord
100
AcDbRegAppTableRecord
  2
ACAD_DSTYLE_DIM_LINETYPE
 70
     0
  0
APPID
  5
103
330
98
100
AcDbSymbolTableRecord
100
AcDbRegAppTableRecord
  2
ACAD_DSTYLE_DIM_EXT1_LINETYPE
 70
     0
  0
APPID
  5
104
330
98
100
AcDbSymbolTableRecord
100
AcDbRegAppTableRecord
  2
ACAD_DSTYLE_DIM_EXT2_LINETYPE
 70
     0
  0
APPID
  5
10D5
330
98
100
AcDbSymbolTableRecord
100
AcDbRegAppTableRecord
  2
ACAUTHENVIRON
 70
     0
  0
APPID
  5
10D9
330
98
100
AcDbSymbolTableRecord
100
AcDbRegAppTableRecord
  2
AcDbDynamicBlockTrueName
 70
     0
  0
APPID
  5
10DA
330
98
100
AcDbSymbolTableRecord
100
AcDbRegAppTableRecord
  2
AcDbDynamicBlockGUID
 70
     0
  0
APPID
  5
10DC
330
98
100
AcDbSymbolTableRecord
100
AcDbRegAppTableRecord
  2
AcDbBlockRepETag
 70
     0
  0
ENDTAB
  0
TABLE
  2
DIMSTYLE
  5
99
330
0
100
AcDbSymbolTable
 70
     8
100
AcDbDimStyleTable
 71
     2
340
2F
340
9A
  0
DIMSTYLE
105
9A
330
99
100
AcDbSymbolTableRecord
100
AcDbDimStyleTableRecord
  2
ISO-25
 70
     0
 41
2.5
 42
0.625
 43
3.75
 44
1.25
 73
     0
 74
     0
 77
     1
 78
     8
140
2.5
141
2.5
143
0.03937007874016
147
0.625
171
     3
172
     1
271
     2
272
     2
274
     3
278
    44
283
     0
284
     8
340
1A
  0
DIMSTYLE
105
2F
102
{ACAD_REACTORS
330
1AD6
330
1AF0
102
}
330
99
100
AcDbSymbolTableRecord
100
AcDbDimStyleTableRecord
  2
Bovelacci
 70
     0
 40
0.001
 41
1.5
140
3.0
141
0.0
147
2.0
176
     5
177
     5
178
     4
271
     2
272
     2
279
     2
340
20
342
30
1001
ACAD_DSTYLE_DIMJOGGED_JOGANGLE_SYMBOL
1070
   384
1040
0.7853981633974483
1001
ACAD_DSTYLE_DIMEXT_LENGTH
1070
   378
1040
0.18
  0
DIMSTYLE
105
194
330
99
100
AcDbSymbolTableRecord
100
AcDbDimStyleTableRecord
  2
STANDARD
 70
     0
340
1A
  0
DIMSTYLE
105
4EB
330
99
100
AcDbSymbolTableRecord
100
AcDbDimStyleTableRecord
  2
Dim 1-100
 70
     0
 40
0.1
 41
1.5
 42
0.0
 43
5.0
 44
1.25
 45
0.005
 46
1.25
 73
     0
 74
     0
 77
     1
 78
     9
140
2.0
141
2.5
147
1.0
172
     1
174
     1
179
     2
279
     2
289
     2
340
20
342
30
  0
DIMSTYLE
105
4EC
330
99
100
AcDbSymbolTableRecord
100
AcDbDimStyleTableRecord
  2
Dim 1-50
 70
     0
 40
0.05
 41
1.5
 42
0.0
 43
5.0
 44
1.25
 45
0.005
 46
1.25
 73
     0
 74
     0
 77
     1
 78
     9
140
2.0
141
2.5
147
1.0
172
     1
174
     1
179
     2
279
     2
289
     2
340
20
342
30
  0
DIMSTYLE
105
4ED
330
99
100
AcDbSymbolTableRecord
100
AcDbDimStyleTableRecord
  2
Dim 1-200
 70
     0
 40
0.2
 41
1.5
 42
0.0
 43
5.0
 44
1.25
 45
0.005
 46
1.25
 73
     0
 74
     0
 77
     1
 78
     9
140
2.0
141
2.5
147
1.0
172
     1
174
     1
179
     2
271
     2
272
     2
279
     2
289
     2
340
20
342
30
  0
DIMSTYLE
105
4EE
330
99
100
AcDbSymbolTableRecord
100
AcDbDimStyleTableRecord
  2
AEC Scale - Italiano
 70
     0
 41
1.0
 42
10.0
 43
10.0
 44
10.0
 73
     0
 74
     0
 75
     1
 76
     1
 77
     1
140
10.0
141
1.0
147
10.0
173
     1
271
     0
272
     0
279
     2
340
1A
343
4E6
344
4E0
  0
ENDTAB
  0
TABLE
  2
BLOCK_RECORD
  5
1
330
0
100
AcDbSymbolTable
 70
    29
  0
BLOCK_RECORD
  5
2
102
{ACAD_XDICTIONARY
360
3
102
}
330
1
100
AcDbSymbolTableRecord
100
AcDbBlockTableRecord
  2
*Model_Space
340
77
  0
BLOCK_RECORD
  5
79
330
1
100
AcDbSymbolTableRecord
100
AcDbBlockTableRecord
  2
*Paper_Space
340
82
  0
BLOCK_RECORD
  5
86
330
1
100
AcDbSymbolTableRecord
100
AcDbBlockTableRecord
  2
*Paper_Space0
340
89
  0
BLOCK_RECORD
  5
30
330
1
100
AcDbSymbolTableRecord
100
AcDbBlockTableRecord
  2
_ArchTick
340
0
310
2800000020000000200000000100080000000000000400000000000000000000000000000000000000000000000080000080000000808000800000008000800080800000C0C0C000C0DCC000F0CAA6000020400000206000002080000020A0000020C0000020E00000400000004020000040400000406000004080000040A0
310
000040C0000040E00000600000006020000060400000606000006080000060A0000060C0000060E00000800000008020000080400000806000008080000080A0000080C0000080E00000A0000000A0200000A0400000A0600000A0800000A0A00000A0C00000A0E00000C0000000C0200000C0400000C0600000C0800000C0
310
A00000C0C00000C0E00000E0000000E0200000E0400000E0600000E0800000E0A00000E0C00000E0E00040000000400020004000400040006000400080004000A0004000C0004000E00040200000402020004020400040206000402080004020A0004020C0004020E000404000004040200040404000404060004040800040
310
40A0004040C0004040E00040600000406020004060400040606000406080004060A0004060C0004060E00040800000408020004080400040806000408080004080A0004080C0004080E00040A0000040A0200040A0400040A0600040A0800040A0A00040A0C00040A0E00040C0000040C0200040C0400040C0600040C08000
310
40C0A00040C0C00040C0E00040E0000040E0200040E0400040E0600040E0800040E0A00040E0C00040E0E00080000000800020008000400080006000800080008000A0008000C0008000E00080200000802020008020400080206000802080008020A0008020C0008020E00080400000804020008040400080406000804080
310
008040A0008040C0008040E00080600000806020008060400080606000806080008060A0008060C0008060E00080800000808020008080400080806000808080008080A0008080C0008080E00080A0000080A0200080A0400080A0600080A0800080A0A00080A0C00080A0E00080C0000080C0200080C0400080C0600080C0
310
800080C0A00080C0C00080C0E00080E0000080E0200080E0400080E0600080E0800080E0A00080E0C00080E0E000C0000000C0002000C0004000C0006000C0008000C000A000C000C000C000E000C0200000C0202000C0204000C0206000C0208000C020A000C020C000C020E000C0400000C0402000C0404000C0406000C0
310
408000C040A000C040C000C040E000C0600000C0602000C0604000C0606000C0608000C060A000C060C000C060E000C0800000C0802000C0804000C0806000C0808000C080A000C080C000C080E000C0A00000C0A02000C0A04000C0A06000C0A08000C0A0A000C0A0C000C0A0E000C0C00000C0C02000C0C04000C0C06000
310
C0C08000C0C0A000F0FBFF00A4A0A000808080000000FF0000FF000000FFFF00FF000000FF00FF00FFFF0000FFFFFF00000000FF000000000000000000000000000000000000000000000000000000000000FF00FF00000000000000000000000000000000000000000000000000000000FF000000FF000000000000000000
310
0000000000000000000000000000000000FF0000000000FF0000000000000000000000000000000000000000000000000000FF0000000000FF0000000000000000000000000000000000000000000000000000FF0000000000FF0000000000000000000000000000000000000000000000000000FF0000000000FF00000000
310
00000000000000000000000000000000000000000000FF0000000000FF0000000000000000000000000000000000000000000000000000FF0000000000FF0000000000000000000000000000000000000000000000000000FF0000000000FF0000000000000000000000000000000000000000000000000000FF0000000000
310
FF0000000000000000000000000000000000000000000000000000FF0000000000FF0000000000000000000000000000000000000000000000000000FF0000000000FF0000000000000000000000000000000000000000000000000000FF0000000000FF0000000000000000000000000000000000000000000000000000FF
310
0000000000FF0000000000000000000000000000000000000000000000000000FF0000000000FF0000000000000000000000000000000000000000000000000000FF0000000000FF0000000000000000000000000000000000000000000000000000FF0000000000FF00000000000000000000000000000000000000000000
310
00000000FF0000000000FF0000000000000000000000000000000000000000000000000000FF0000000000FF0000000000000000000000000000000000000000000000000000FF0000000000FF0000000000000000000000000000000000000000000000000000FF0000000000FF0000000000000000000000000000000000
310
000000000000000000FF0000000000FF0000000000000000000000000000000000000000000000000000FF0000000000FF0000000000000000000000000000000000000000000000000000FF0000000000FF0000000000000000000000000000000000000000000000000000FF0000000000FF000000000000000000000000
310
0000000000000000000000000000FF0000000000FF0000000000000000000000000000000000000000000000000000FF0000000000FF0000000000000000000000000000000000000000000000000000FF0000000000FF0000000000000000000000000000000000000000000000000000FF000000FF000000000000000000
310
00000000000000000000000000000000000000FF00FF000000000000000000000000000000000000000000000000000000000000FF000000
102
{BLKREFS
331
11BA
331
11BB
331
11EE
331
11EF
331
14A4
331
14A5
331
14B9
331
14BA
331
15E4
331
15E5
331
15FE
331
15FF
331
1618
331
1619
331
17CF
331
17D0
331
17E9
331
17EA
331
1803
331
1804
331
1AE9
331
1AEA
331
1B03
331
1B04
102
}
  0
BLOCK_RECORD
  5
179
330
1
100
AcDbSymbolTableRecord
100
AcDbBlockTableRecord
  2
DOT
340
0
  0
BLOCK_RECORD
  5
213
330
1
100
AcDbSymbolTableRecord
100
AcDbBlockTableRecord
  2
ELEMENT
340
0
102
{BLKREFS
331
244
102
}
  0
BLOCK_RECORD
  5
235
330
1
100
AcDbSymbolTableRecord
100
AcDbBlockTableRecord
  2
NOM-J
340
0
  0
BLOCK_RECORD
  5
3FB
330
1
100
AcDbSymbolTableRecord
100
AcDbBlockTableRecord
  2
NOM-QR
340
0
  0
BLOCK_RECORD
  5
4E0
330
1
100
AcDbSymbolTableRecord
100
AcDbBlockTableRecord
  2
_Arrivo
340
0
310
2800000020000000200000000100080000000000000400000000000000000000000000000000000000000000000080000080000000808000800000008000800080800000C0C0C000C0DCC000F0CAA6000020400000206000002080000020A0000020C0000020E00000400000004020000040400000406000004080000040A0
310
000040C0000040E00000600000006020000060400000606000006080000060A0000060C0000060E00000800000008020000080400000806000008080000080A0000080C0000080E00000A0000000A0200000A0400000A0600000A0800000A0A00000A0C00000A0E00000C0000000C0200000C0400000C0600000C0800000C0
310
A00000C0C00000C0E00000E0000000E0200000E0400000E0600000E0800000E0A00000E0C00000E0E00040000000400020004000400040006000400080004000A0004000C0004000E00040200000402020004020400040206000402080004020A0004020C0004020E000404000004040200040404000404060004040800040
310
40A0004040C0004040E00040600000406020004060400040606000406080004060A0004060C0004060E00040800000408020004080400040806000408080004080A0004080C0004080E00040A0000040A0200040A0400040A0600040A0800040A0A00040A0C00040A0E00040C0000040C0200040C0400040C0600040C08000
310
40C0A00040C0C00040C0E00040E0000040E0200040E0400040E0600040E0800040E0A00040E0C00040E0E00080000000800020008000400080006000800080008000A0008000C0008000E00080200000802020008020400080206000802080008020A0008020C0008020E00080400000804020008040400080406000804080
310
008040A0008040C0008040E00080600000806020008060400080606000806080008060A0008060C0008060E00080800000808020008080400080806000808080008080A0008080C0008080E00080A0000080A0200080A0400080A0600080A0800080A0A00080A0C00080A0E00080C0000080C0200080C0400080C0600080C0
310
800080C0A00080C0C00080C0E00080E0000080E0200080E0400080E0600080E0800080E0A00080E0C00080E0E000C0000000C0002000C0004000C0006000C0008000C000A000C000C000C000E000C0200000C0202000C0204000C0206000C0208000C020A000C020C000C020E000C0400000C0402000C0404000C0406000C0
310
408000C040A000C040C000C040E000C0600000C0602000C0604000C0606000C0608000C060A000C060C000C060E000C0800000C0802000C0804000C0806000C0808000C080A000C080C000C080E000C0A00000C0A02000C0A04000C0A06000C0A08000C0A0A000C0A0C000C0A0E000C0C00000C0C02000C0C04000C0C06000
310
C0C08000C0C0A000F0FBFF00A4A0A000808080000000FF0000FF000000FFFF00FF000000FF00FF00FFFF0000FFFFFF00000000000000000000000000000000000000000000000000000000000000000000000000000000000000FF0000000000000000000000000000000000000000000000000000000000000000FF000000
310
00000000000000000000000000000000000000000000000000000000FF0000000000000000000000000000000000000000000000000000000000000000FF00000000000000000000000000000000000000000000000000000000000000FF0000000000000000000000000000000000000000000000000000000000000000FF
310
0000000000000000000000000000000000000000000000000000000000000000FF00000000000000000000000000000000000000000000000000000000000000FF0000000000000000000000000000000000000000000000000000000000000000FF0000000000000000000000000000000000000000000000000000000000
310
0000FF0000000000000000000000000000000000000000000000000000000000000000FF00000000000000000000000000000000000000000000000000000000000000FF0000000000000000000000000000000000000000000000000000000000000000FF0000FF0000000000000000000000000000000000000000000000
310
000000000000FFFF000000000000000000000000000000000000000000000000000000000000FFFF00000000000000000000000000000000000000000000000000000000FFFFFFFFFFFF00000000000000000000000000000000000000000000000000000000FFFF0000000000000000000000000000000000000000000000
310
000000000000FF0000FF000000000000000000000000000000000000000000000000000000FF00000000000000000000000000000000000000000000000000000000000000FF000000000000000000000000000000000000000000000000000000000000FF0000000000000000000000000000000000000000000000000000
310
0000000000FF000000000000000000000000000000000000000000000000000000000000FF00000000000000000000000000000000000000000000000000000000000000FF000000000000000000000000000000000000000000000000000000000000FF000000000000000000000000000000000000000000000000000000
310
000000FF00000000000000000000000000000000000000000000000000000000000000FF000000000000000000000000000000000000000000000000000000000000FF00000000000000000000000000000000000000000000000000000000000000FF00000000000000000000000000000000000000000000000000000000
310
0000FF0000000000000000000000000000000000000000000000000000000000000000000000000000000000000000000000000000000000
  0
BLOCK_RECORD
  5
4E6
330
1
100
AcDbSymbolTableRecord
100
AcDbBlockTableRecord
  2
_Partenza
340
0
310
2800000020000000200000000100080000000000000400000000000000000000000000000000000000000000000080000080000000808000800000008000800080800000C0C0C000C0DCC000F0CAA6000020400000206000002080000020A0000020C0000020E00000400000004020000040400000406000004080000040A0
310
000040C0000040E00000600000006020000060400000606000006080000060A0000060C0000060E00000800000008020000080400000806000008080000080A0000080C0000080E00000A0000000A0200000A0400000A0600000A0800000A0A00000A0C00000A0E00000C0000000C0200000C0400000C0600000C0800000C0
310
A00000C0C00000C0E00000E0000000E0200000E0400000E0600000E0800000E0A00000E0C00000E0E00040000000400020004000400040006000400080004000A0004000C0004000E00040200000402020004020400040206000402080004020A0004020C0004020E000404000004040200040404000404060004040800040
310
40A0004040C0004040E00040600000406020004060400040606000406080004060A0004060C0004060E00040800000408020004080400040806000408080004080A0004080C0004080E00040A0000040A0200040A0400040A0600040A0800040A0A00040A0C00040A0E00040C0000040C0200040C0400040C0600040C08000
310
40C0A00040C0C00040C0E00040E0000040E0200040E0400040E0600040E0800040E0A00040E0C00040E0E00080000000800020008000400080006000800080008000A0008000C0008000E00080200000802020008020400080206000802080008020A0008020C0008020E00080400000804020008040400080406000804080
310
008040A0008040C0008040E00080600000806020008060400080606000806080008060A0008060C0008060E00080800000808020008080400080806000808080008080A0008080C0008080E00080A0000080A0200080A0400080A0600080A0800080A0A00080A0C00080A0E00080C0000080C0200080C0400080C0600080C0
310
800080C0A00080C0C00080C0E00080E0000080E0200080E0400080E0600080E0800080E0A00080E0C00080E0E000C0000000C0002000C0004000C0006000C0008000C000A000C000C000C000E000C0200000C0202000C0204000C0206000C0208000C020A000C020C000C020E000C0400000C0402000C0404000C0406000C0
310
408000C040A000C040C000C040E000C0600000C0602000C0604000C0606000C0608000C060A000C060C000C060E000C0800000C0802000C0804000C0806000C0808000C080A000C080C000C080E000C0A00000C0A02000C0A04000C0A06000C0A08000C0A0A000C0A0C000C0A0E000C0C00000C0C02000C0C04000C0C06000
310
C0C08000C0C0A000F0FBFF00A4A0A000808080000000FF0000FF000000FFFF00FF000000FF00FF00FFFF0000FFFFFF0000000000000000000000000000000000000000000000000000000000000000000000000000000000000000000000000000000000000000000000000000000000000000000000000000000000000000
310
000000000000000000000000000000000000000000000000000000000000000000000000000000000000000000000000000000000000000000000000000000000000000000000000000000000000000000000000000000000000000000000000000000000000000000000000000000000000FFFFFFFFFFFFFFFFFFFFFFFFFF
310
FFFFFFFFFFFFFFFFFFFFFFFFFFFFFFFFFF0000000000000000000000000000000000000000000000000000000000000000000000000000000000000000000000000000000000000000000000000000000000000000000000000000000000000000000000000000000000000000000000000000000000000000000000000000
310
00000000000000000000000000000000000000000000000000000000000000000000000000000000000000000000000000000000000000000000000000000000000000000000000000000000000000000000000000000000000000000000000000000000000000000000000000000000000000000000000000000000000000
310
00000000000000000000000000000000000000000000000000000000000000000000000000000000000000000000000000000000000000000000000000000000000000000000000000000000000000000000000000000000000000000000000000000000000000000000000000000000000000000000000000000000000000
310
00000000000000000000000000000000000000000000000000000000000000000000000000000000000000000000000000000000000000000000000000000000000000000000000000000000000000000000000000000000000000000000000000000000000000000000000000000000000000000000000000000000000000
310
000000000000000000000000000000000000000000000000000000000000000000000000000000000000000000000000000000000000000000000000000000000000000000000000000000000000000000000000000000FFFFFFFFFFFFFFFFFFFFFFFFFFFFFFFFFFFFFFFFFFFFFFFFFFFFFFFFFFFF00000000000000000000
310
00000000000000000000000000000000000000000000000000000000000000000000000000000000000000000000000000000000000000000000000000000000000000000000000000000000000000000000000000000000000000000000000000000000000000000000000000000000000000000000000000000000000000
310
0000000000000000000000000000000000000000000000000000000000000000000000000000000000000000000000000000000000000000
  0
BLOCK_RECORD
  5
73D
330
1
100
AcDbSymbolTableRecord
100
AcDbBlockTableRecord
  2
A$C6CE44357
340
0
1001
ACAD
1000
DesignCenter Data
1002
{
1070
     1
1070
     0
1002
}
  0
BLOCK_RECORD
  5
B69
102
{ACAD_XDICTIONARY
360
B6D
102
}
330
1
100
AcDbSymbolTableRecord
100
AcDbBlockTableRecord
  2
A$C263D6B6A
340
0
1001
ACAD
1000
DesignCenter Data
1002
{
1070
     1
1070
     4
1002
}
  0
BLOCK_RECORD
  5
BFB
330
1
100
AcDbSymbolTableRecord
100
AcDbBlockTableRecord
  2
*X10
340
0
102
{BLKREFS
331
C22
102
}
  0
BLOCK_RECORD
  5
C1F
330
1
100
AcDbSymbolTableRecord
100
AcDbBlockTableRecord
  2
A$C6C65579B
340
0
1001
ACAD
1000
DesignCenter Data
1002
{
1070
     1
1070
     0
1002
}
  0
BLOCK_RECORD
  5
FEB
102
{ACAD_XDICTIONARY
360
10D6
102
}
330
1
100
AcDbSymbolTableRecord
100
AcDbBlockTableRecord
  2
Z4
340
0
1001
AcDbDynamicBlockGUID
1000
{4CAFDB11-9655-4F72-B423-0BC31DC420EB}
1001
AcDbBlockRepETag
1070
     1
1071
       20
  0
BLOCK_RECORD
  5
14D6
330
1
100
AcDbSymbolTableRecord
100
AcDbBlockTableRecord
  2
A$C135D5332
340
0
1001
ACAD
1000
DesignCenter Data
1002
{
1070
     1
1070
     0
1002
}
  0
BLOCK_RECORD
  5
17BD
330
1
100
AcDbSymbolTableRecord
100
AcDbBlockTableRecord
  2
*D21
340
0
  0
BLOCK_RECORD
  5
17F1
330
1
100
AcDbSymbolTableRecord
100
AcDbBlockTableRecord
  2
*D23
340
0
  0
BLOCK_RECORD
  5
1AD7
330
1
100
AcDbSymbolTableRecord
100
AcDbBlockTableRecord
  2
*D27
340
0
  0
BLOCK_RECORD
  5
1AF1
330
1
100
AcDbSymbolTableRecord
100
AcDbBlockTableRecord
  2
*D28
340
0
  0
ENDTAB
  0
ENDSEC
  0
SECTION
  2
BLOCKS
  0
BLOCK
  5
5
330
2
100
AcDbEntity
  8
0
100
AcDbBlockBegin
  2
*Model_Space
 70
     0
 10
0.0
 20
0.0
 30
0.0
  3
*Model_Space
  1

  0
ENDBLK
  5
76
330
2
100
AcDbEntity
  8
0
100
AcDbBlockEnd
  0
BLOCK
  5
7A
330
79
100
AcDbEntity
 67
     1
  8
0
100
AcDbBlockBegin
  2
*Paper_Space
 70
     0
 10
0.0
 20
0.0
 30
0.0
  3
*Paper_Space
  1

  0
ENDBLK
  5
81
330
79
100
AcDbEntity
 67
     1
  8
0
100
AcDbBlockEnd
  0
BLOCK
  5
87
330
86
100
AcDbEntity
 67
     1
  8
0
100
AcDbBlockBegin
  2
*Paper_Space0
 70
     0
 10
0.0
 20
0.0
 30
0.0
  3
*Paper_Space0
  1

  0
ENDBLK
  5
88
330
86
100
AcDbEntity
 67
     1
  8
0
100
AcDbBlockEnd
  0
BLOCK
  5
31
330
30
100
AcDbEntity
  8
0
 62
     1
100
AcDbBlockBegin
  2
_ArchTick
 70
     0
 10
0.0
 20
0.0
 30
0.0
  3
_ArchTick
  1

  0
LWPOLYLINE
  5
32
330
30
100
AcDbEntity
  8
0
  6
ByBlock
 62
     0
100
AcDbPolyline
 90
        2
 70
     0
 43
0.15
 10
-0.5
 20
-0.5
 10
0.5
 20
0.5
  0
ENDBLK
  5
33
330
30
100
AcDbEntity
  8
0
 62
     1
100
AcDbBlockEnd
  0
BLOCK
  5
17A
330
179
100
AcDbEntity
  8
0
100
AcDbBlockBegin
  2
DOT
 70
     0
 10
0.0
 20
0.0
 30
0.0
  3
DOT
  1

  0
LWPOLYLINE
  5
17B
330
179
100
AcDbEntity
  8
0
  6
ByBlock
 62
     0
100
AcDbPolyline
 90
        2
 70
     1
 43
0.5
 10
-0.25
 20
0.0
 42
1.0
 10
0.25
 20
0.0
 42
1.0
  0
LINE
  5
17C
330
179
100
AcDbEntity
  8
0
  6
ByBlock
 62
     0
100
AcDbLine
 10
-0.5
 20
0.0
 30
0.0
 11
-1.0
 21
0.0
 31
0.0
  0
ENDBLK
  5
17D
330
179
100
AcDbEntity
  8
0
100
AcDbBlockEnd
  0
BLOCK
  5
214
330
213
100
AcDbEntity
  8
0
100
AcDbBlockBegin
  2
ELEMENT
 70
     0
 10
0.0
 20
0.0
 30
0.0
  3
ELEMENT
  1

  0
LINE
  5
215
330
213
100
AcDbEntity
  8
CORTE
 62
     1
100
AcDbLine
 10
0.0287752548522349
 20
0.037775254852221
 30
0.0
 11
0.0062928932188697
 21
0.015292893218799
 31
0.0
  0
ARC
  5
216
330
213
100
AcDbEntity
  8
CORTE
 62
     1
100
AcDbCircle
 10
0.0148333333333994
 20
0.0291666666666402
 30
0.0
 40
0.0191847740553366
100
AcDbArc
 50
270.4730994291238
 51
359.5269005707907
  0
LINE
  5
217
330
213
100
AcDbEntity
  8
CORTE
100
AcDbLine
 10
0.0130000000000337
 20
-0.0000000000000568
 30
0.0
 11
0.0099999999999909
 21
0.0000000000000284
 31
0.0
  0
LINE
  5
218
330
213
100
AcDbEntity
  8
CORTE
100
AcDbLine
 10
-0.0009999999999764
 20
0.0010000000000048
 30
0.0
 11
-0.0009999999999764
 21
0.0140000000000384
 31
0.0
  0
ARC
  5
219
330
213
100
AcDbEntity
  8
CORTE
100
AcDbCircle
 10
0.0
 20
0.0010000000000048
 30
0.0
 40
0.001
100
AcDbArc
 50
180.0
 51
269.9999999991858
  0
LINE
  5
21A
330
213
100
AcDbEntity
  8
CORTE
100
AcDbLine
 10
0.0040000000000191
 20
-0.0039999999999623
 30
0.0
 11
0.0040000000000191
 21
-0.0010000000000332
 31
0.0
  0
LINE
  5
21B
330
213
100
AcDbEntity
  8
CORTE
100
AcDbLine
 10
0.0090000000000146
 20
-0.0039999999999907
 30
0.0
 11
0.0090000000000146
 21
-0.0009999999999764
 31
0.0
  0
ARC
  5
21C
330
213
100
AcDbEntity
  8
CORTE
100
AcDbCircle
 10
0.0049999999999955
 20
-0.0039999999999623
 30
0.0
 40
0.001
100
AcDbArc
 50
180.0
 51
269.9999999996743
  0
LINE
  5
21D
330
213
100
AcDbEntity
  8
CORTE
100
AcDbLine
 10
0.0080000000000382
 20
-0.0049999999999955
 30
0.0
 11
0.0049999999999955
 21
-0.004999999999967
 31
0.0
  0
ARC
  5
21E
330
213
100
AcDbEntity
  8
CORTE
100
AcDbCircle
 10
0.0080000000000382
 20
-0.0039999999999907
 30
0.0
 40
0.001
100
AcDbArc
 50
269.9999999995929
 51
0.000000000000007
  0
LINE
  5
21F
330
213
100
AcDbEntity
  8
CORTE
100
AcDbLine
 10
0.0030000000000427
 20
-0.0000000000000284
 30
0.0
 11
0.0
 21
0.0
 31
0.0
  0
ARC
  5
220
330
213
100
AcDbEntity
  8
CORTE
100
AcDbCircle
 10
0.0030000000000427
 20
-0.0010000000000332
 30
0.0
 40
0.001
100
AcDbArc
 50
0.000000000000007
 51
89.99999999967434
  0
ARC
  5
221
330
213
100
AcDbEntity
  8
CORTE
100
AcDbCircle
 10
0.0099999999999909
 20
-0.0009999999999764
 30
0.0
 40
0.001
100
AcDbArc
 50
89.99999999967434
 51
180.0
  0
ARC
  5
222
330
213
100
AcDbEntity
  8
CORTE
100
AcDbCircle
 10
0.0
 20
0.0140000000000384
 30
0.0
 40
0.001
100
AcDbArc
 50
89.99999999975274
 51
180.0
  0
LINE
  5
223
330
213
100
AcDbEntity
  8
CORTE
100
AcDbLine
 10
0.0055857864376776
 20
0.0149999999999864
 30
0.0
 11
0.0
 21
0.0150000000000432
 31
0.0
  0
ARC
  5
224
330
213
100
AcDbEntity
  8
CORTE
 62
     1
100
AcDbCircle
 10
0.0055857864376776
 20
0.0159999999999911
 30
0.0
 40
0.001
100
AcDbArc
 50
269.9999999997674
 51
315.0000000000357
  0
LINE
  5
225
330
213
100
AcDbEntity
  8
CORTE
100
AcDbLine
 10
0.01400000000001
 20
0.0009999999999479
 30
0.0
 11
0.01400000000001
 21
0.0089825806863075
 31
0.0
  0
ARC
  5
226
330
213
100
AcDbEntity
  8
CORTE
100
AcDbCircle
 10
0.0130000000000337
 20
0.0009999999999479
 30
0.0
 40
0.001
100
AcDbArc
 50
269.9999999991858
 51
0.000000000000007
  0
ARC
  5
227
330
213
100
AcDbEntity
  8
CORTE
 62
     1
100
AcDbCircle
 10
0.0149999999999864
 20
0.0089825806862791
 30
0.0
 40
0.001
100
AcDbArc
 50
90.47309942941524
 51
179.9999999983715
  0
LINE
  5
228
330
213
100
AcDbEntity
  8
CORTE
100
AcDbLine
 10
0.0440000000000964
 20
0.0339999999999918
 30
0.0
 11
0.0440000000000396
 21
0.0310000000000059
 31
0.0
  0
ARC
  5
229
330
213
100
AcDbEntity
  8
CORTE
100
AcDbCircle
 10
0.0430000000000632
 20
0.0310000000000059
 30
0.0
 40
0.001
100
AcDbArc
 50
270.0
 51
0.000000000000007
  0
ARC
  5
22A
330
213
100
AcDbEntity
  8
CORTE
 62
     1
100
AcDbCircle
 10
0.0350174193137605
 20
0.0290000000000248
 30
0.0
 40
0.001
100
AcDbArc
 50
90.00000000325689
 51
179.5269005705982
  0
LINE
  5
22B
330
213
100
AcDbEntity
  8
CORTE
100
AcDbLine
 10
0.0430000000000632
 20
0.0300000000000011
 30
0.0
 11
0.0350174193137036
 21
0.0300000000000296
 31
0.0
  0
LINE
  5
22C
330
213
100
AcDbEntity
  8
CORTE
100
AcDbLine
 10
0.047999999999945
 20
0.0400000000000205
 30
0.0
 11
0.0300000000000296
 21
0.0400000000000205
 31
0.0
  0
ARC
  5
22D
330
213
100
AcDbEntity
  8
CORTE
 62
     1
100
AcDbCircle
 10
0.0300000000000296
 20
0.0390000000000157
 30
0.0
 40
0.001
100
AcDbArc
 50
90.0
 51
195.0000055997392
  0
ARC
  5
22E
330
213
100
AcDbEntity
  8
CORTE
 62
     1
100
AcDbCircle
 10
0.0280681480710428
 20
0.0384823616334131
 30
0.0
 40
0.001
100
AcDbArc
 50
315.0
 51
15.00000559812761
  0
LINE
  5
22F
330
213
100
AcDbEntity
  8
CORTE
100
AcDbLine
 10
0.0489999999998645
 20
0.0360000000000582
 30
0.0
 11
0.0489999999999213
 21
0.0389999999999873
 31
0.0
  0
LINE
  5
230
330
213
100
AcDbEntity
  8
CORTE
100
AcDbLine
 10
0.0480000000000018
 20
0.0350000000000534
 30
0.0
 11
0.0450000000000728
 21
0.0349999999999966
 31
0.0
  0
ARC
  5
231
330
213
100
AcDbEntity
  8
CORTE
100
AcDbCircle
 10
0.0480000000000018
 20
0.0360000000000582
 30
0.0
 40
0.001
100
AcDbArc
 50
270.0000000004071
 51
0.000000000000007
  0
ARC
  5
232
330
213
100
AcDbEntity
  8
CORTE
100
AcDbCircle
 10
0.0450000000000728
 20
0.0339999999999918
 30
0.0
 40
0.001
100
AcDbArc
 50
90.0
 51
180.0
  0
ARC
  5
233
330
213
100
AcDbEntity
  8
CORTE
100
AcDbCircle
 10
0.047999999999945
 20
0.0390000000000157
 30
0.0
 40
0.001
100
AcDbArc
 50
359.9999999991858
 51
90.0
  0
ENDBLK
  5
234
330
213
100
AcDbEntity
  8
0
100
AcDbBlockEnd
  0
BLOCK
  5
236
330
235
100
AcDbEntity
  8
0
 62
     4
100
AcDbBlockBegin
  2
NOM-J
 70
     0
 10
0.0
 20
0.0
 30
0.0
  3
NOM-J
  1

  0
LINE
  5
237
330
235
100
AcDbEntity
  8
Vista
 62
     4
100
AcDbLine
 10
0.0211489998446837
 20
0.0224999999999795
 30
0.0
 11
0.093805067538824
 21
0.0379594292031982
 31
0.0
  0
LINE
  5
238
330
235
100
AcDbEntity
  8
Vista
 62
     4
100
AcDbLine
 10
0.0197074998707194
 20
0.0224999999999795
 30
0.0
 11
0.0923635675646324
 21
0.0379594292032266
 31
0.0
  0
LINE
  5
239
330
235
100
AcDbEntity
  8
Vista
 62
     4
100
AcDbLine
 10
0.0182659998964141
 20
0.0224999999999795
 30
0.0
 11
0.0909220675904408
 21
0.0379594292031982
 31
0.0
  0
LINE
  5
23A
330
235
100
AcDbEntity
  8
Vista
 62
     4
100
AcDbLine
 10
0.0168244999223362
 20
0.0224999999999795
 30
0.0
 11
0.0894805676163628
 21
0.0379594292032266
 31
0.0
  0
LINE
  5
23B
330
235
100
AcDbEntity
  8
Vista
 62
     4
100
AcDbLine
 10
0.0153829999481445
 20
0.0224999999999795
 30
0.0
 11
0.0880390676422849
 21
0.0379594292032266
 31
0.0
  0
LINE
  5
23C
330
235
100
AcDbEntity
  8
Vista
 62
     4
100
AcDbLine
 10
0.0139414999740666
 20
0.0224999999999795
 30
0.0
 11
0.0865975676682069
 21
0.0379594292032266
 31
0.0
  0
LINE
  5
23D
330
235
100
AcDbEntity
  8
Vista
 62
     2
100
AcDbLine
 10
0.0125000000000455
 20
0.022500000000008
 30
0.0
 11
0.0851560676940153
 21
0.0379594292032266
 31
0.0
  0
LINE
  5
23E
330
235
100
AcDbEntity
  8
Vista
 62
     2
100
AcDbLine
 10
0.0218535533905424
 20
0.0223535533905874
 30
0.0
 11
0.0945096210847396
 21
0.0378129825938061
 31
0.0
  0
LINE
  5
23F
330
235
100
AcDbEntity
  8
Vista
 62
     2
100
AcDbLine
 10
0.02150000000006
 20
0.0200000000000387
 30
0.0
 11
0.094359627334427
 21
0.0355027417029987
 31
0.0
  0
LINE
  5
240
330
235
100
AcDbEntity
  8
Vista
 62
     2
100
AcDbLine
 10
0.0190000000000055
 20
0.0175000000000125
 30
0.0
 11
0.0918596273343724
 21
0.0330027417029726
 31
0.0
  0
LINE
  5
241
330
235
100
AcDbEntity
  8
Vista
 62
     2
100
AcDbLine
 10
0.0075428343679391
 20
0.0078574386832884
 30
0.0
 11
0.0801989020703786
 21
0.0233168678888376
 31
0.0
  0
LINE
  5
242
330
235
100
AcDbEntity
  8
Vista
 62
     2
100
AcDbLine
 10
0.0040000000000191
 20
0.0024999999999693
 30
0.0
 11
0.0746560676942068
 21
0.0175338782567849
 31
0.0
  0
LINE
  5
243
330
235
100
AcDbEntity
  8
Vista
 62
     3
100
AcDbLine
 10
0.0018535533906174
 20
0.0001464466094205
 30
0.0
 11
0.074509621085781
 21
0.0156058758136055
 31
0.0
  0
INSERT
  5
244
330
235
100
AcDbEntity
  8
CORTE
 62
     4
100
AcDbBlockReference
  2
ELEMENT
 10
-0.0024999999999977
 20
0.0024999999999977
 30
0.0
 41
0.5
 42
0.5
 43
0.5
  0
LINE
  5
245
330
235
100
AcDbEntity
  8
Vista
 62
     2
100
AcDbLine
 10
-0.0024999999999977
 20
0.0100000000000193
 30
0.0
 11
0.0013108568762163
 21
0.0108108568761622
 31
0.0
  0
ARC
  5
246
330
235
100
AcDbEntity
  8
CORTE
 62
     3
100
AcDbCircle
 10
0.0775727343608992
 20
0.0325427625365364
 30
0.0
 40
0.0095923870276683
100
AcDbArc
 50
278.1349003175446
 51
356.7599311023579
  0
LINE
  5
247
330
235
100
AcDbEntity
  8
CORTE
 62
     3
100
AcDbLine
 10
0.0771560676942045
 20
0.0184594292032045
 30
0.0
 11
0.0771560676942045
 21
0.0224507195463559
 31
0.0
  0
ARC
  5
248
330
235
100
AcDbEntity
  8
CORTE
 62
     3
100
AcDbCircle
 10
0.0751560676941949
 20
0.0174594292032282
 30
0.0
 40
0.0005
100
AcDbArc
 50
89.99999999967434
 51
180.0
  0
LINE
  5
249
330
235
100
AcDbEntity
  8
Vista
 62
     3
100
AcDbLine
 10
0.074509621085781
 20
0.0156058758135771
 30
0.0
 11
0.0746560676941499
 21
0.0156370360599851
 31
0.0
  0
ARC
  5
24A
330
235
100
AcDbEntity
  8
CORTE
100
AcDbCircle
 10
0.0741560676942186
 20
0.0159594292032068
 30
0.0
 40
0.0005
100
AcDbArc
 50
315.0000001496929
 51
0.000000000000007
  0
LINE
  5
24B
330
235
100
AcDbEntity
  8
CORTE
 62
     3
100
AcDbLine
 10
0.0746560676942068
 20
0.0159594292032068
 30
0.0
 11
0.0746560676942068
 21
0.0174594292032282
 31
0.0
  0
ARC
  5
24C
330
235
100
AcDbEntity
  8
CORTE
 62
     3
100
AcDbCircle
 10
0.0766560676942163
 20
0.0184594292032045
 30
0.0
 40
0.0005
100
AcDbArc
 50
269.9999999991858
 51
0.000000000000007
  0
LINE
  5
24D
330
235
100
AcDbEntity
  8
CORTE
 62
     3
100
AcDbLine
 10
0.0766560676942163
 20
0.017959429203188
 30
0.0
 11
0.0751560676941949
 21
0.0179594292032164
 31
0.0
  0
ARC
  5
24E
330
235
100
AcDbEntity
  8
CORTE
 62
     3
100
AcDbCircle
 10
0.0776560676941927
 20
0.0224507195463559
 30
0.0
 40
0.0005
100
AcDbArc
 50
152.521182623883
 51
179.9999999983715
  0
LINE
  5
24F
330
235
100
AcDbEntity
  8
CORTE
 62
     3
100
AcDbLine
 10
0.0946560676941317
 20
0.0359594292032455
 30
0.0
 11
0.0946560676941317
 21
0.03745942920321
 31
0.0
  0
ARC
  5
250
330
235
100
AcDbEntity
  8
CORTE
 62
     3
100
AcDbCircle
 10
0.0916560676942027
 20
0.0334594292032193
 30
0.0
 40
0.0005
100
AcDbArc
 50
270.0
 51
0.000000000000007
  0
ARC
  5
251
330
235
100
AcDbEntity
  8
CORTE
 62
     3
100
AcDbCircle
 10
0.0941560676942004
 20
0.0359594292032455
 30
0.0
 40
0.0005
100
AcDbArc
 50
294.0240004981589
 51
0.000000000000007
  0
LINE
  5
252
330
235
100
AcDbEntity
  8
CORTE
 62
     3
100
AcDbLine
 10
0.0921560676942477
 20
0.0349594292032123
 30
0.0
 11
0.0921560676941908
 21
0.0334594292032193
 31
0.0
  0
LINE
  5
253
330
235
100
AcDbEntity
  8
CORTE
 62
     3
100
AcDbLine
 10
0.0941560676941436
 20
0.0379594292032266
 30
0.0
 11
0.0851560676942427
 21
0.0379594292032266
 31
0.0
  0
ARC
  5
254
330
235
100
AcDbEntity
  8
CORTE
 62
     3
100
AcDbCircle
 10
0.0941560676941436
 20
0.03745942920321
 30
0.0
 40
0.0005
100
AcDbArc
 50
359.9999999991858
 51
90.0
  0
ENDBLK
  5
255
330
235
100
AcDbEntity
  8
0
 62
     4
100
AcDbBlockEnd
  0
BLOCK
  5
3FC
330
3FB
100
AcDbEntity
  8
0
 62
     1
100
AcDbBlockBegin
  2
NOM-QR
 70
     0
 10
0.0
 20
0.0
 30
0.0
  3
NOM-QR
  1

  0
LINE
  5
3FD
330
3FB
100
AcDbEntity
  8
CORTE
 62
     4
100
AcDbLine
 10
0.0184292030348843
 20
0.0200000000000102
 30
0.0
 11
0.0860297709413658
 21
0.0343689442811126
 31
0.0
  0
LINE
  5
3FE
330
3FB
100
AcDbEntity
  8
CORTE
 62
     4
100
AcDbLine
 10
0.0155433624279908
 20
0.0200000000000102
 30
0.0
 11
0.0831439303344155
 21
0.0343689442811126
 31
0.0
  0
LINE
  5
3FF
330
3FB
100
AcDbEntity
  8
CORTE
 62
     4
100
AcDbLine
 10
0.0126575218209837
 20
0.0200000000000102
 30
0.0
 11
0.0802580897274084
 21
0.034368944281141
 31
0.0
  0
LINE
  5
400
330
3FB
100
AcDbEntity
  8
CORTE
 62
     4
100
AcDbLine
 10
0.0097716812139765
 20
0.0200000000000102
 30
0.0
 11
0.077372249120458
 21
0.0343689442811126
 31
0.0
  0
LINE
  5
401
330
3FB
100
AcDbEntity
  8
CORTE
 62
     4
100
AcDbLine
 10
0.0068858406069694
 20
0.0200000000000102
 30
0.0
 11
0.0744864085134509
 21
0.0343689442811126
 31
0.0
  0
LINE
  5
402
330
3FB
100
AcDbEntity
  8
CORTE
 62
     3
100
AcDbLine
 10
0.0081347328614925
 20
0.0017290908471352
 30
0.0
 11
0.0757353007679171
 21
0.0160980351282376
 31
0.0
  0
LINE
  5
403
330
3FB
100
AcDbEntity
  8
CORTE
 62
     3
100
AcDbLine
 10
0.0040000000000191
 20
0.0200000000000102
 30
0.0
 11
0.0716005679065006
 21
0.034368944281141
 31
0.0
  0
LINE
  5
404
330
3FB
100
AcDbEntity
  8
CORTE
 62
     3
100
AcDbLine
 10
0.0200000000000387
 20
0.0200000000000102
 30
0.0
 11
0.0876005679064633
 21
0.0343689442811126
 31
0.0
  0
ARC
  5
405
330
3FB
100
AcDbEntity
  8
CORTE
 62
     1
100
AcDbCircle
 10
0.0
 20
0.0200000000000102
 30
0.0
 40
0.0200000000000102
100
AcDbArc
 50
270.0
 51
0.0
  0
LINE
  5
406
330
3FB
100
AcDbEntity
  8
CORTE
 62
     1
100
AcDbLine
 10
0.0
 20
0.0160000000000196
 30
0.0
 11
0.0
 21
0.0
 31
0.0
  0
LINE
  5
407
330
3FB
100
AcDbEntity
  8
COTAS
 62
     1
100
AcDbLine
 10
0.0200000000000387
 20
0.0200000000000102
 30
0.0
 11
0.0040000000000191
 21
0.0200000000000102
 31
0.0
  0
ARC
  5
408
330
3FB
100
AcDbEntity
  8
CORTE
 62
     1
100
AcDbCircle
 10
0.0
 20
0.0200000000000102
 30
0.0
 40
0.004
100
AcDbArc
 50
270.0
 51
0.0
  0
ARC
  5
409
330
3FB
100
AcDbEntity
  8
CORTE
 62
     1
100
AcDbCircle
 10
0.0676005679064247
 20
0.0343689442811126
 30
0.0
 40
0.0200000000000102
100
AcDbArc
 50
270.0
 51
0.0
  0
LINE
  5
40A
330
3FB
100
AcDbEntity
  8
COTAS
 62
     1
100
AcDbLine
 10
0.0876005679064633
 20
0.0343689442811126
 30
0.0
 11
0.0716005679064438
 21
0.0343689442811126
 31
0.0
  0
ENDBLK
  5
40B
330
3FB
100
AcDbEntity
  8
0
 62
     1
100
AcDbBlockEnd
  0
BLOCK
  5
4E1
330
4E0
100
AcDbEntity
  8
0
100
AcDbBlockBegin
  2
_Arrivo
 70
     0
 10
0.0
 20
0.0
 30
0.0
  3
_Arrivo
  1

  0
LINE
  5
4E2
330
4E0
100
AcDbEntity
  8
0
  6
ByBlock
 62
     0
370
    -2
100
AcDbLine
 10
0.025
 20
-0.0433012701891858
 30
0.0
 11
-0.15
 21
0.2598076211353328
 31
0.0
  0
LINE
  5
4E3
330
4E0
100
AcDbEntity
  8
0
  6
ByBlock
 62
     0
370
    -2
100
AcDbLine
 10
0.025
 20
0.0433012701892585
 30
0.0
 11
-0.15
 21
-0.2598076211353328
 31
0.0
  0
LINE
  5
4E4
330
4E0
100
AcDbEntity
  8
0
  6
ByBlock
 62
     0
370
    -2
100
AcDbLine
 10
-0.05
 20
0.0
 30
0.0
 11
0.05
 21
0.0
 31
0.0
  0
ENDBLK
  5
4E5
330
4E0
100
AcDbEntity
  8
0
100
AcDbBlockEnd
  0
BLOCK
  5
4E7
330
4E6
100
AcDbEntity
  8
0
100
AcDbBlockBegin
  2
_Partenza
 70
     0
 10
0.0
 20
0.0
 30
0.0
  3
_Partenza
  1

  0
LINE
  5
4E8
330
4E6
100
AcDbEntity
  8
0
  6
ByBlock
 62
     0
370
    -2
100
AcDbLine
 10
-0.05
 20
0.05
 30
0.0
 11
0.1
 21
0.05
 31
0.0
  0
LINE
  5
4E9
330
4E6
100
AcDbEntity
  8
0
  6
ByBlock
 62
     0
370
    -2
100
AcDbLine
 10
-0.05
 20
-0.05
 30
0.0
 11
0.1
 21
-0.05
 31
0.0
  0
ENDBLK
  5
4EA
330
4E6
100
AcDbEntity
  8
0
100
AcDbBlockEnd
  0
BLOCK
  5
807
330
73D
100
AcDbEntity
  8
0
 62
     3
100
AcDbBlockBegin
  2
A$C6CE44357
 70
     0
 10
0.0
 20
0.0
 30
0.0
  3
A$C6CE44357
  1

  0
LINE
  5
73E
330
73D
100
AcDbEntity
  8
Vista
 62
     3
100
AcDbLine
 10
-265.2371225605411
 20
-42.42864078547465
 30
0.0
 11
-265.1113419531143
 21
-42.4023863117474
 31
0.0
  0
LINE
  5
73F
330
73D
100
AcDbEntity
  8
Vista
 62
     4
100
AcDbLine
 10
-265.2590480951634
 20
-42.54823976658282
 30
0.0
 11
-265.2510480951634
 21
-42.54823976658282
 31
0.0
  0
LINE
  5
740
330
73D
100
AcDbEntity
  8
Vista
 62
     3
100
AcDbLine
 10
-265.2678775571128
 20
-42.55723976658283
 30
0.0
 11
-265.2164242716711
 21
-42.55723976658283
 31
0.0
  0
LINE
  5
741
330
73D
100
AcDbEntity
  8
Vista
 62
     2
100
AcDbLine
 10
-265.240902830533
 20
-42.52873976658283
 30
0.0
 11
-265.2164242716711
 21
-42.52873976658283
 31
0.0
  0
LINE
  5
742
330
73D
100
AcDbEntity
  8
Vista
 62
     2
100
AcDbLine
 10
-265.245902830533
 20
-42.53973976658282
 30
0.0
 11
-265.2164242716711
 21
-42.53973976658282
 31
0.0
  0
LINE
  5
743
330
73D
100
AcDbEntity
  8
Vista
 62
     2
100
AcDbLine
 10
-265.2411287103258
 20
-42.53147306509318
 30
0.0
 11
-265.2164242716712
 21
-42.53147306509318
 31
0.0
  0
LINE
  5
744
330
73D
100
AcDbEntity
  8
Vista
 62
     2
100
AcDbLine
 10
-265.2649809809004
 20
-42.55319036467706
 30
0.0
 11
-265.2164242716712
 21
-42.55319036467706
 31
0.0
  0
LWPOLYLINE
  5
745
330
73D
100
AcDbEntity
  8
CORTE
  6
Continuous
 62
     1
100
AcDbPolyline
 90
       30
 70
     1
 43
0.0
 10
-265.2651647001392
 20
-42.55337345319399
 42
0.2685636005234304
 10
-265.2649137067366
 20
-42.55293986846818
 10
-265.2649137067366
 20
-42.54823976658282
 10
-265.2624028305331
 20
-42.54823976658282
 42
0.4142135623730693
 10
-265.261402830533
 20
-42.54723976658282
 10
-265.261402830533
 20
-42.53973976658282
 10
-265.258902830533
 20
-42.53973976658282
 42
-0.2526773759784102
 10
-265.2565834054943
 20
-42.53823976658283
 10
-265.2512222555718
 20
-42.53823976658283
 42
-0.2526773759784102
 10
-265.2489028305331
 20
-42.53973976658282
 10
-265.245902830533
 20
-42.53973976658282
 42
0.414213562373069
 10
-265.244902830533
 20
-42.53873976658282
 10
-265.244902830533
 20
-42.53523036708408
 42
-0.3189892314182299
 10
-265.2417043063426
 20
-42.53182012245305
 42
0.356818340496206
 10
-265.240902830533
 20
-42.53084002646501
 10
-265.240902830533
 20
-42.52873976658283
 42
0.364269306410865
 10
-265.234652830533
 20
-42.52348976658284
 42
-0.3260576707120786
 10
-265.2292666879074
 20
-42.51829884552306
 42
0.3747567555282292
 10
-265.228402830533
 20
-42.51730815627538
 10
-265.228402830533
 20
-42.51473976658282
 10
-265.240902830533
 20
-42.51473976658282
 10
-265.240902830533
 20
-42.52073976658282
 10
-265.254402830533
 20
-42.53323976658283
 10
-265.264402830533
 20
-42.53323976658283
 42
0.4142135623730704
 10
-265.269402830533
 20
-42.53823976658283
 10
-265.269402830533
 20
-42.54351258119139
 10
-265.270902830533
 20
-42.54473976658282
 10
-265.270902830533
 20
-42.55723976658283
 10
-265.2678775571128
 20
-42.55723976658283
 42
0.3849291685644514
 10
-265.2673801055846
 20
-42.55679018460604
 42
-0.2416670294637286
  0
LINE
  5
746
330
73D
100
AcDbEntity
  8
CORTE
  6
RAYITA
 62
     4
100
AcDbLine
 10
-265.2649137067366
 20
-42.54823976658282
 30
0.0
 11
-265.2649137067366
 21
-42.53973976658282
 31
0.0
  0
LINE
  5
747
330
73D
100
AcDbEntity
  8
CORTE
  6
RAYITA
 62
     4
100
AcDbLine
 10
-265.2631769303866
 20
-42.5441333561959
 30
0.0
 11
-265.2631769303866
 21
-42.53973976658282
 31
0.0
  0
LINE
  5
748
330
73D
100
AcDbEntity
  8
CORTE
  6
RAYITA
 62
     4
100
AcDbLine
 10
-265.2631769303866
 20
-42.5441333561959
 30
0.0
 11
-265.2649137067366
 21
-42.5441333561959
 31
0.0
  0
LINE
  5
749
330
73D
100
AcDbEntity
  8
CORTE
  6
RAYITA
 62
     4
100
AcDbLine
 10
-265.261402830533
 20
-42.53973976658282
 30
0.0
 11
-265.2649137067366
 21
-42.53973976658282
 31
0.0
  0
LINE
  5
74A
330
73D
100
AcDbEntity
  8
Vista
 62
     3
100
AcDbLine
 10
-265.228402830533
 20
-42.51473976658282
 30
0.0
 11
-265.2164242716711
 21
-42.51473976658279
 31
0.0
  0
LINE
  5
74B
330
73D
100
AcDbEntity
  8
Vista
 62
     2
100
AcDbLine
 10
-265.2286491254761
 20
-42.51796536909266
 30
0.0
 11
-265.2164242716712
 21
-42.51796536909266
 31
0.0
  0
LINE
  5
74C
330
73D
100
AcDbEntity
  8
Vista
 62
     4
100
AcDbLine
 10
-265.2590480951634
 20
-42.53973976658282
 30
0.0
 11
-265.2590480951634
 21
-42.54823976658282
 31
0.0
  0
LINE
  5
74D
330
73D
100
AcDbEntity
  8
Vista
 62
     4
100
AcDbLine
 10
-265.2510480951634
 20
-42.53973976658282
 30
0.0
 11
-265.2510480951634
 21
-42.54823976658282
 31
0.0
  0
LINE
  5
74E
330
73D
100
AcDbEntity
  8
Vista
 62
     4
100
AcDbLine
 10
-265.2470480951634
 20
-42.53973976658282
 30
0.0
 11
-265.2470480951635
 21
-42.54823976658282
 31
0.0
  0
LINE
  5
74F
330
73D
100
AcDbEntity
  8
Vista
 62
     4
100
AcDbLine
 10
-265.2390480951634
 20
-42.53973976658282
 30
0.0
 11
-265.2390480951634
 21
-42.54823976658282
 31
0.0
  0
LINE
  5
750
330
73D
100
AcDbEntity
  8
Vista
 62
     4
100
AcDbLine
 10
-265.2350480951635
 20
-42.53973976658282
 30
0.0
 11
-265.2350480951635
 21
-42.54823976658282
 31
0.0
  0
LINE
  5
751
330
73D
100
AcDbEntity
  8
Vista
 62
     4
100
AcDbLine
 10
-265.2510480951634
 20
-42.5441333561959
 30
0.0
 11
-265.2470480951635
 21
-42.5441333561959
 31
0.0
  0
LINE
  5
752
330
73D
100
AcDbEntity
  8
Vista
 62
     4
100
AcDbLine
 10
-265.2390480951634
 20
-42.5441333561959
 30
0.0
 11
-265.2350480951635
 21
-42.5441333561959
 31
0.0
  0
LINE
  5
753
330
73D
100
AcDbEntity
  8
Vista
 62
     4
100
AcDbLine
 10
-265.2470480951635
 20
-42.54823976658282
 30
0.0
 11
-265.2390480951634
 21
-42.54823976658282
 31
0.0
  0
LINE
  5
754
330
73D
100
AcDbEntity
  8
Vista
 62
     4
100
AcDbLine
 10
-265.2350480951635
 20
-42.54823976658282
 30
0.0
 11
-265.2270480951634
 21
-42.54823976658282
 31
0.0
  0
LINE
  5
755
330
73D
100
AcDbEntity
  8
Vista
 62
     4
100
AcDbLine
 10
-265.2230480951634
 20
-42.53973976658282
 30
0.0
 11
-265.2230480951634
 21
-42.54823976658282
 31
0.0
  0
LINE
  5
756
330
73D
100
AcDbEntity
  8
Vista
 62
     4
100
AcDbLine
 10
-265.2270480951634
 20
-42.53973976658282
 30
0.0
 11
-265.2270480951634
 21
-42.54823976658282
 31
0.0
  0
LINE
  5
757
330
73D
100
AcDbEntity
  8
Vista
 62
     4
100
AcDbLine
 10
-265.2230480951634
 20
-42.54823976658282
 30
0.0
 11
-265.2164242716711
 21
-42.54823976658282
 31
0.0
  0
LINE
  5
758
330
73D
100
AcDbEntity
  8
Vista
 62
     4
100
AcDbLine
 10
-265.2270480951634
 20
-42.5441333561959
 30
0.0
 11
-265.2230480951634
 21
-42.5441333561959
 31
0.0
  0
LINE
  5
759
330
73D
100
AcDbEntity
  8
Vista
 62
     4
100
AcDbLine
 10
-265.2079942150913
 20
-42.54823976658282
 30
0.0
 11
-265.2030480951634
 21
-42.54823976658282
 31
0.0
  0
LINE
  5
75A
330
73D
100
AcDbEntity
  8
Vista
 62
     4
100
AcDbLine
 10
-265.1870480951635
 20
-42.53973976658282
 30
0.0
 11
-265.1870480951635
 21
-42.54823976658282
 31
0.0
  0
LINE
  5
75B
330
73D
100
AcDbEntity
  8
Vista
 62
     4
100
AcDbLine
 10
-265.1910480951634
 20
-42.53973976658282
 30
0.0
 11
-265.1910480951634
 21
-42.54823976658282
 31
0.0
  0
LINE
  5
75C
330
73D
100
AcDbEntity
  8
Vista
 62
     4
100
AcDbLine
 10
-265.1990480951635
 20
-42.53973976658282
 30
0.0
 11
-265.1990480951635
 21
-42.54823976658282
 31
0.0
  0
LINE
  5
75D
330
73D
100
AcDbEntity
  8
Vista
 62
     4
100
AcDbLine
 10
-265.2030480951634
 20
-42.53973976658282
 30
0.0
 11
-265.2030480951634
 21
-42.54823976658282
 31
0.0
  0
LINE
  5
75E
330
73D
100
AcDbEntity
  8
Vista
 62
     4
100
AcDbLine
 10
-265.1990480951635
 20
-42.54823976658282
 30
0.0
 11
-265.1910480951634
 21
-42.54823976658282
 31
0.0
  0
LINE
  5
75F
330
73D
100
AcDbEntity
  8
Vista
 62
     4
100
AcDbLine
 10
-265.2030480951634
 20
-42.5441333561959
 30
0.0
 11
-265.1990480951635
 21
-42.5441333561959
 31
0.0
  0
LINE
  5
760
330
73D
100
AcDbEntity
  8
Vista
 62
     4
100
AcDbLine
 10
-265.1910480951634
 20
-42.5441333561959
 30
0.0
 11
-265.1870480951635
 21
-42.5441333561959
 31
0.0
  0
LINE
  5
761
330
73D
100
AcDbEntity
  8
Vista
 62
     4
100
AcDbLine
 10
-265.1870480951635
 20
-42.54823976658282
 30
0.0
 11
-265.1790480951634
 21
-42.54823976658282
 31
0.0
  0
LINE
  5
762
330
73D
100
AcDbEntity
  8
Vista
 62
     4
100
AcDbLine
 10
-265.1630480951634
 20
-42.53973976658282
 30
0.0
 11
-265.1630480951634
 21
-42.54823976658282
 31
0.0
  0
LINE
  5
763
330
73D
100
AcDbEntity
  8
Vista
 62
     4
100
AcDbLine
 10
-265.1670480951634
 20
-42.53973976658282
 30
0.0
 11
-265.1670480951634
 21
-42.54823976658282
 31
0.0
  0
LINE
  5
764
330
73D
100
AcDbEntity
  8
Vista
 62
     4
100
AcDbLine
 10
-265.1750480951634
 20
-42.53973976658282
 30
0.0
 11
-265.1750480951634
 21
-42.54823976658282
 31
0.0
  0
LINE
  5
765
330
73D
100
AcDbEntity
  8
Vista
 62
     4
100
AcDbLine
 10
-265.1790480951634
 20
-42.53973976658282
 30
0.0
 11
-265.1790480951634
 21
-42.54823976658282
 31
0.0
  0
LINE
  5
766
330
73D
100
AcDbEntity
  8
Vista
 62
     4
100
AcDbLine
 10
-265.1750480951634
 20
-42.54823976658282
 30
0.0
 11
-265.1670480951634
 21
-42.54823976658282
 31
0.0
  0
LINE
  5
767
330
73D
100
AcDbEntity
  8
Vista
 62
     4
100
AcDbLine
 10
-265.1790480951634
 20
-42.5441333561959
 30
0.0
 11
-265.1750480951634
 21
-42.5441333561959
 31
0.0
  0
LINE
  5
768
330
73D
100
AcDbEntity
  8
Vista
 62
     4
100
AcDbLine
 10
-265.1670480951634
 20
-42.5441333561959
 30
0.0
 11
-265.1630480951634
 21
-42.5441333561959
 31
0.0
  0
LINE
  5
769
330
73D
100
AcDbEntity
  8
Vista
 62
     4
100
AcDbLine
 10
-265.1630480951634
 20
-42.54823976658282
 30
0.0
 11
-265.1550480951634
 21
-42.54823976658282
 31
0.0
  0
LINE
  5
76A
330
73D
100
AcDbEntity
  8
Vista
 62
     4
100
AcDbLine
 10
-265.1390480951635
 20
-42.53973976658282
 30
0.0
 11
-265.1390480951635
 21
-42.54823976658282
 31
0.0
  0
LINE
  5
76B
330
73D
100
AcDbEntity
  8
Vista
 62
     4
100
AcDbLine
 10
-265.1430480951634
 20
-42.53973976658282
 30
0.0
 11
-265.1430480951634
 21
-42.54823976658282
 31
0.0
  0
LINE
  5
76C
330
73D
100
AcDbEntity
  8
Vista
 62
     4
100
AcDbLine
 10
-265.1510480951634
 20
-42.53973976658282
 30
0.0
 11
-265.1510480951634
 21
-42.54823976658282
 31
0.0
  0
LINE
  5
76D
330
73D
100
AcDbEntity
  8
Vista
 62
     4
100
AcDbLine
 10
-265.1550480951634
 20
-42.53973976658282
 30
0.0
 11
-265.1550480951634
 21
-42.54823976658282
 31
0.0
  0
LINE
  5
76E
330
73D
100
AcDbEntity
  8
Vista
 62
     4
100
AcDbLine
 10
-265.1510480951634
 20
-42.54823976658282
 30
0.0
 11
-265.1430480951634
 21
-42.54823976658282
 31
0.0
  0
LINE
  5
76F
330
73D
100
AcDbEntity
  8
Vista
 62
     4
100
AcDbLine
 10
-265.1550480951634
 20
-42.5441333561959
 30
0.0
 11
-265.1510480951634
 21
-42.5441333561959
 31
0.0
  0
LINE
  5
770
330
73D
100
AcDbEntity
  8
Vista
 62
     4
100
AcDbLine
 10
-265.1430480951634
 20
-42.5441333561959
 30
0.0
 11
-265.1390480951635
 21
-42.5441333561959
 31
0.0
  0
LINE
  5
771
330
73D
100
AcDbEntity
  8
Vista
 62
     4
100
AcDbLine
 10
-265.1390480951635
 20
-42.54823976658282
 30
0.0
 11
-265.1310480951634
 21
-42.54823976658282
 31
0.0
  0
LINE
  5
772
330
73D
100
AcDbEntity
  8
Vista
 62
     4
100
AcDbLine
 10
-265.1150480951634
 20
-42.53973976658282
 30
0.0
 11
-265.1150480951634
 21
-42.54823976658282
 31
0.0
  0
LINE
  5
773
330
73D
100
AcDbEntity
  8
Vista
 62
     4
100
AcDbLine
 10
-265.1190480951634
 20
-42.53973976658282
 30
0.0
 11
-265.1190480951634
 21
-42.54823976658282
 31
0.0
  0
LINE
  5
774
330
73D
100
AcDbEntity
  8
Vista
 62
     4
100
AcDbLine
 10
-265.1270480951634
 20
-42.53973976658282
 30
0.0
 11
-265.1270480951634
 21
-42.54823976658282
 31
0.0
  0
LINE
  5
775
330
73D
100
AcDbEntity
  8
Vista
 62
     4
100
AcDbLine
 10
-265.1310480951634
 20
-42.53973976658282
 30
0.0
 11
-265.1310480951634
 21
-42.54823976658282
 31
0.0
  0
LINE
  5
776
330
73D
100
AcDbEntity
  8
Vista
 62
     4
100
AcDbLine
 10
-265.1270480951634
 20
-42.54823976658282
 30
0.0
 11
-265.1190480951634
 21
-42.54823976658282
 31
0.0
  0
LINE
  5
777
330
73D
100
AcDbEntity
  8
Vista
 62
     4
100
AcDbLine
 10
-265.1310480951634
 20
-42.5441333561959
 30
0.0
 11
-265.1270480951634
 21
-42.5441333561959
 31
0.0
  0
LINE
  5
778
330
73D
100
AcDbEntity
  8
Vista
 62
     4
100
AcDbLine
 10
-265.1190480951634
 20
-42.5441333561959
 30
0.0
 11
-265.1150480951634
 21
-42.5441333561959
 31
0.0
  0
LINE
  5
779
330
73D
100
AcDbEntity
  8
Vista
 62
     4
100
AcDbLine
 10
-265.1150480951634
 20
-42.54823976658282
 30
0.0
 11
-265.1070480951634
 21
-42.54823976658282
 31
0.0
  0
LINE
  5
77A
330
73D
100
AcDbEntity
  8
Vista
 62
     4
100
AcDbLine
 10
-265.1030480951634
 20
-42.53973976658282
 30
0.0
 11
-265.1030480951634
 21
-42.54823976658282
 31
0.0
  0
LINE
  5
77B
330
73D
100
AcDbEntity
  8
Vista
 62
     4
100
AcDbLine
 10
-265.1070480951634
 20
-42.53973976658282
 30
0.0
 11
-265.1070480951634
 21
-42.54823976658282
 31
0.0
  0
LINE
  5
77C
330
73D
100
AcDbEntity
  8
Vista
 62
     4
100
AcDbLine
 10
-265.1030480951634
 20
-42.54823976658282
 30
0.0
 11
-265.0999942150913
 21
-42.54823976658285
 31
0.0
  0
LINE
  5
77D
330
73D
100
AcDbEntity
  8
Vista
 62
     4
100
AcDbLine
 10
-265.1070480951634
 20
-42.5441333561959
 30
0.0
 11
-265.1030480951634
 21
-42.5441333561959
 31
0.0
  0
LINE
  5
77E
330
73D
100
AcDbEntity
  8
CORTE
  6
RAYITA
 62
     4
100
AcDbLine
 10
-265.2611334367446
 20
-42.46214078547466
 30
0.0
 11
-265.2611334367446
 21
-42.45803437508773
 31
0.0
  0
LINE
  5
77F
330
73D
100
AcDbEntity
  8
CORTE
  6
RAYITA
 62
     4
100
AcDbLine
 10
-265.2576225605411
 20
-42.45364078547466
 30
0.0
 11
-265.2593966603947
 21
-42.45364078547466
 31
0.0
  0
LINE
  5
780
330
73D
100
AcDbEntity
  8
CORTE
  6
RAYITA
 62
     4
100
AcDbLine
 10
-265.2593966603947
 20
-42.45803437508773
 30
0.0
 11
-265.2611334367446
 21
-42.45803437508773
 31
0.0
  0
LINE
  5
781
330
73D
100
AcDbEntity
  8
CORTE
  6
RAYITA
 62
     4
100
AcDbLine
 10
-265.2593966603947
 20
-42.45803437508773
 30
0.0
 11
-265.2593966603947
 21
-42.45364078547466
 31
0.0
  0
LINE
  5
782
330
73D
100
AcDbEntity
  8
Vista
 62
     2
100
AcDbLine
 10
-265.2246225605411
 20
-42.42864078547465
 30
0.0
 11
-265.0988419531143
 21
-42.4023863117474
 31
0.0
  0
LINE
  5
783
330
73D
100
AcDbEntity
  8
Vista
 62
     2
100
AcDbLine
 10
-265.2253196169622
 20
-42.43216218366036
 30
0.0
 11
-265.1005238724924
 21
-42.40611328262953
 31
0.0
  0
LINE
  5
784
330
73D
100
AcDbEntity
  8
Vista
 62
     2
100
AcDbLine
 10
-265.2357843481861
 20
-42.4424980657533
 30
0.0
 11
-265.1113419531143
 21
-42.41652292015008
 31
0.0
  0
LINE
  5
785
330
73D
100
AcDbEntity
  8
Vista
 62
     2
100
AcDbLine
 10
-265.2377407371607
 20
-42.44566528066572
 30
0.0
 11
-265.1119601297339
 21
-42.41941080693844
 31
0.0
  0
LINE
  5
786
330
73D
100
AcDbEntity
  8
Vista
 62
     2
100
AcDbLine
 10
-265.2616957494533
 20
-42.44725731687553
 30
0.0
 11
-265.2475622982738
 21
-42.44430720930124
 31
0.0
  0
LINE
  5
787
330
73D
100
AcDbEntity
  8
Vista
 62
     2
100
AcDbLine
 10
-265.2419054000998
 20
-42.45361692139899
 30
0.0
 11
-265.1318419531143
 21
-42.43064312650061
 31
0.0
  0
LINE
  5
788
330
73D
100
AcDbEntity
  8
Vista
 62
     4
100
AcDbLine
 10
-265.2551225605411
 20
-42.45364078547466
 30
0.0
 11
-265.2479363219937
 21
-42.45214078547464
 31
0.0
  0
LINE
  5
789
330
73D
100
AcDbEntity
  8
Vista
 62
     4
100
AcDbLine
 10
-265.2543974497464
 20
-42.4613609643679
 30
0.0
 11
-265.2463974497463
 21
-42.4596911060796
 31
0.0
  0
LINE
  5
78A
330
73D
100
AcDbEntity
  8
Vista
 62
     4
100
AcDbLine
 10
-265.2593966603947
 20
-42.45803437508773
 30
0.0
 11
-265.2558974497463
 21
-42.45730397684979
 31
0.0
  0
LINE
  5
78B
330
73D
100
AcDbEntity
  8
Vista
 62
     2
100
AcDbLine
 10
-265.2611968867646
 20
-42.46708465797961
 30
0.0
 11
-265.1354162793379
 21
-42.44083018425236
 31
0.0
  0
LINE
  5
78C
330
73D
100
AcDbEntity
  8
Vista
 62
     3
100
AcDbLine
 10
-265.264002248065
 20
-42.47113166995989
 30
0.0
 11
-265.1382216406382
 21
-42.44487719623264
 31
0.0
  0
ARC
  5
78D
330
73D
100
AcDbEntity
  8
CORTE
  6
Continuous
 62
     1
100
AcDbCircle
 10
-265.2616334367446
 20
-42.46684088735999
 30
0.0
 40
0.0004999999999999
100
AcDbArc
 50
299.8686408419573
 51
359.9999999999935
  0
LINE
  5
78E
330
73D
100
AcDbEntity
  8
CORTE
  6
Continuous
 62
     1
100
AcDbLine
 10
-265.2611334367446
 20
-42.46684088735999
 30
0.0
 11
-265.2611334367446
 21
-42.46214078547466
 31
0.0
  0
LINE
  5
78F
330
73D
100
AcDbEntity
  8
CORTE
  6
Continuous
 62
     1
100
AcDbLine
 10
-265.2576225605411
 20
-42.45364078547466
 30
0.0
 11
-265.2551225605411
 21
-42.45364078547466
 31
0.0
  0
ARC
  5
790
330
73D
100
AcDbEntity
  8
CORTE
  6
Continuous
 62
     1
100
AcDbCircle
 10
-265.2525734960763
 20
-42.45503911726784
 30
0.0
 40
0.0029074149083751
100
AcDbArc
 50
94.53017172282182
 51
151.2522954919238
  0
LINE
  5
791
330
73D
100
AcDbEntity
  8
CORTE
  6
Continuous
 62
     1
100
AcDbLine
 10
-265.2528031355024
 20
-42.45214078547464
 30
0.0
 11
-265.2474419855798
 21
-42.45214078547464
 31
0.0
  0
ARC
  5
792
330
73D
100
AcDbEntity
  8
CORTE
  6
Continuous
 62
     1
100
AcDbCircle
 10
-265.2476716250059
 20
-42.45503911726784
 30
0.0
 40
0.0029074149083745
100
AcDbArc
 50
28.74770450807759
 51
85.46982827718144
  0
LINE
  5
793
330
73D
100
AcDbEntity
  8
CORTE
  6
Continuous
 62
     1
100
AcDbLine
 10
-265.245122560541
 20
-42.45364078547466
 30
0.0
 11
-265.2421225605411
 21
-42.45364078547466
 31
0.0
  0
ARC
  5
794
330
73D
100
AcDbEntity
  8
CORTE
  6
Continuous
 62
     1
100
AcDbCircle
 10
-265.2421225605411
 20
-42.45264078547466
 30
0.0
 40
0.001
100
AcDbArc
 50
270.0
 51
359.9999999999951
  0
LINE
  5
795
330
73D
100
AcDbEntity
  8
CORTE
  6
Continuous
 62
     1
100
AcDbLine
 10
-265.2411225605411
 20
-42.45264078547466
 30
0.0
 11
-265.2411225605411
 21
-42.44913138597588
 31
0.0
  0
ARC
  5
796
330
73D
100
AcDbEntity
  8
CORTE
  6
Continuous
 62
     1
100
AcDbCircle
 10
-265.2371225605411
 20
-42.44967795498879
 30
0.0
 40
0.0040371695141331
100
AcDbArc
 50
101.4506709648844
 51
172.21916242068
  0
ARC
  5
797
330
73D
100
AcDbEntity
  8
CORTE
  6
Continuous
 62
     1
100
AcDbCircle
 10
-265.238122560541
 20
-42.44474104535682
 30
0.0
 40
0.0010000000000001
100
AcDbArc
 50
281.4506709648813
 51
359.9999999999935
  0
LINE
  5
798
330
73D
100
AcDbEntity
  8
CORTE
  6
Continuous
 62
     1
100
AcDbLine
 10
-265.2371225605411
 20
-42.44474104535682
 30
0.0
 11
-265.2371225605411
 21
-42.44264078547463
 31
0.0
  0
ARC
  5
799
330
73D
100
AcDbEntity
  8
CORTE
  6
Continuous
 62
     1
100
AcDbCircle
 10
-265.2371225605411
 20
-42.4362955473794
 30
0.0
 40
0.0063452380952395
100
AcDbArc
 50
270.0
 51
350.0605185437708
  0
ARC
  5
79A
330
73D
100
AcDbEntity
  8
CORTE
  6
Continuous
 62
     1
100
AcDbCircle
 10
-265.224622560541
 20
-42.43848602356989
 30
0.0
 40
0.0063452380952396
100
AcDbArc
 50
97.82469757354439
 51
170.060518543773
  0
ARC
  5
79B
330
73D
100
AcDbEntity
  8
CORTE
  6
Continuous
 62
     1
100
AcDbCircle
 10
-265.2256225605411
 20
-42.43120917516718
 30
0.0
 40
0.001
100
AcDbArc
 50
277.8246975735409
 51
359.9999999999984
  0
LINE
  5
79C
330
73D
100
AcDbEntity
  8
CORTE
  6
Continuous
 62
     1
100
AcDbLine
 10
-265.2246225605411
 20
-42.43120917516718
 30
0.0
 11
-265.2246225605411
 21
-42.42864078547465
 31
0.0
  0
LINE
  5
79D
330
73D
100
AcDbEntity
  8
CORTE
  6
Continuous
 62
     1
100
AcDbLine
 10
-265.2246225605411
 20
-42.42864078547465
 30
0.0
 11
-265.2371225605411
 21
-42.42864078547465
 31
0.0
  0
LINE
  5
79E
330
73D
100
AcDbEntity
  8
CORTE
  6
Continuous
 62
     1
100
AcDbLine
 10
-265.2371225605411
 20
-42.42864078547465
 30
0.0
 11
-265.2371225605411
 21
-42.43464078547465
 31
0.0
  0
LINE
  5
79F
330
73D
100
AcDbEntity
  8
CORTE
  6
Continuous
 62
     1
100
AcDbLine
 10
-265.2371225605411
 20
-42.43464078547465
 30
0.0
 11
-265.2506225605411
 21
-42.44714078547464
 31
0.0
  0
LINE
  5
7A0
330
73D
100
AcDbEntity
  8
CORTE
  6
Continuous
 62
     1
100
AcDbLine
 10
-265.2506225605411
 20
-42.44714078547464
 30
0.0
 11
-265.2606225605411
 21
-42.44714078547464
 31
0.0
  0
ARC
  5
7A1
330
73D
100
AcDbEntity
  8
CORTE
  6
Continuous
 62
     1
100
AcDbCircle
 10
-265.2606225605411
 20
-42.45214078547464
 30
0.0
 40
0.005
100
AcDbArc
 50
90.00000000000325
 51
179.9999999999967
  0
LINE
  5
7A2
330
73D
100
AcDbEntity
  8
CORTE
  6
Continuous
 62
     1
100
AcDbLine
 10
-265.2656225605411
 20
-42.45214078547464
 30
0.0
 11
-265.2656225605411
 21
-42.45741360008323
 31
0.0
  0
LINE
  5
7A3
330
73D
100
AcDbEntity
  8
CORTE
  6
Continuous
 62
     1
100
AcDbLine
 10
-265.2656225605411
 20
-42.45741360008323
 30
0.0
 11
-265.2671225605411
 21
-42.45864078547465
 31
0.0
  0
LINE
  5
7A4
330
73D
100
AcDbEntity
  8
CORTE
  6
Continuous
 62
     1
100
AcDbLine
 10
-265.2671225605411
 20
-42.45864078547465
 30
0.0
 11
-265.2671225605411
 21
-42.47114078547464
 31
0.0
  0
LINE
  5
7A5
330
73D
100
AcDbEntity
  8
CORTE
  6
Continuous
 62
     1
100
AcDbLine
 10
-265.2671225605411
 20
-42.47114078547464
 30
0.0
 11
-265.2640972871209
 21
-42.47114078547464
 31
0.0
  0
ARC
  5
7A6
330
73D
100
AcDbEntity
  8
CORTE
  6
Continuous
 62
     1
100
AcDbCircle
 10
-265.2640972871209
 20
-42.47064078547466
 30
0.0
 40
0.0005
100
AcDbArc
 50
270.0
 51
354.2126842324164
  0
ARC
  5
7A7
330
73D
100
AcDbEntity
  8
CORTE
  6
Continuous
 62
     1
100
AcDbCircle
 10
-265.2591640162722
 20
-42.47114078547464
 30
0.0
 40
0.004458544268822
100
AcDbArc
 50
119.8686408419609
 51
174.2126842324128
  0
LINE
  5
7A8
330
73D
100
AcDbEntity
  8
CORTE
  6
Continuous
 62
     4
100
AcDbLine
 10
-265.2573974497463
 20
-42.4613609643679
 30
0.0
 11
-265.2573974497463
 21
-42.45761707527883
 31
0.0
  0
LINE
  5
7A9
330
73D
100
AcDbEntity
  8
Vista
 62
     4
100
AcDbLine
 10
-265.2611334367446
 20
-42.46214078547466
 30
0.0
 11
-265.2573974497463
 21
-42.4613609643679
 31
0.0
  0
LINE
  5
7AA
330
73D
100
AcDbEntity
  8
CORTE
  6
Continuous
 62
     1
100
AcDbLine
 10
-265.2593974497464
 20
-42.45803437508773
 30
0.0
 11
-265.2593974497464
 21
-42.45359456852866
 31
0.0
  0
LINE
  5
7AB
330
73D
100
AcDbEntity
  8
Vista
 62
     4
100
AcDbLine
 10
-265.2573974497463
 20
-42.4613609643679
 30
0.0
 11
-265.2543974497464
 21
-42.4613609643679
 31
0.0
  0
LINE
  5
7AC
330
73D
100
AcDbEntity
  8
Vista
 62
     4
100
AcDbLine
 10
-265.2463974497463
 20
-42.45532102013244
 30
0.0
 11
-265.2438974497463
 21
-42.45479918941735
 31
0.0
  0
LINE
  5
7AD
330
73D
100
AcDbEntity
  8
CORTE
  6
Continuous
 62
     4
100
AcDbLine
 10
-265.2543974497464
 20
-42.4613609643679
 30
0.0
 11
-265.2543974497464
 21
-42.45348943144084
 31
0.0
  0
LINE
  5
7AE
330
73D
100
AcDbEntity
  8
CORTE
  6
Continuous
 62
     4
100
AcDbLine
 10
-265.2558974497463
 20
-42.45730397684979
 30
0.0
 11
-265.2558974497463
 21
-42.45364078547466
 31
0.0
  0
LINE
  5
7AF
330
73D
100
AcDbEntity
  8
CORTE
  6
Continuous
 62
     4
100
AcDbLine
 10
-265.2463974497463
 20
-42.4596911060796
 30
0.0
 11
-265.2463974497463
 21
-42.45242577862588
 31
0.0
  0
LINE
  5
7B0
330
73D
100
AcDbEntity
  8
Vista
 62
     4
100
AcDbLine
 10
-265.2463974497463
 20
-42.45906490922148
 30
0.0
 11
-265.2453974497464
 21
-42.45885617693547
 31
0.0
  0
LINE
  5
7B1
330
73D
100
AcDbEntity
  8
CORTE
  6
Continuous
 62
     4
100
AcDbLine
 10
-265.2423974497464
 20
-42.45885617693547
 30
0.0
 11
-265.2423974497464
 21
-42.45364078547466
 31
0.0
  0
LINE
  5
7B2
330
73D
100
AcDbEntity
  8
CORTE
  6
Continuous
 62
     4
100
AcDbLine
 10
-265.2453974497464
 20
-42.45885617693547
 30
0.0
 11
-265.2453974497464
 21
-42.4551122878464
 31
0.0
  0
LINE
  5
7B3
330
73D
100
AcDbEntity
  8
CORTE
  6
Continuous
 62
     4
100
AcDbLine
 10
-265.2343974497463
 20
-42.45718631864717
 30
0.0
 11
-265.2343974497463
 21
-42.45204976975823
 31
0.0
  0
LINE
  5
7B4
330
73D
100
AcDbEntity
  8
Vista
 62
     4
100
AcDbLine
 10
-265.2423974497464
 20
-42.45885617693547
 30
0.0
 11
-265.2453974497464
 21
-42.45885617693547
 31
0.0
  0
LINE
  5
7B5
330
73D
100
AcDbEntity
  8
CORTE
  6
Continuous
 62
     4
100
AcDbLine
 10
-265.2438974497463
 20
-42.45479918941735
 30
0.0
 11
-265.2438974497463
 21
-42.45364078547466
 31
0.0
  0
LINE
  5
7B6
330
73D
100
AcDbEntity
  8
Vista
 62
     4
100
AcDbLine
 10
-265.2423974497464
 20
-42.45885617693547
 30
0.0
 11
-265.2343974497463
 21
-42.45718631864717
 31
0.0
  0
LINE
  5
7B7
330
73D
100
AcDbEntity
  8
CORTE
  6
Continuous
 62
     4
100
AcDbLine
 10
-265.2333974497464
 20
-42.45635698981327
 30
0.0
 11
-265.2333974497464
 21
-42.45261310072421
 31
0.0
  0
LINE
  5
7B8
330
73D
100
AcDbEntity
  8
CORTE
  6
Continuous
 62
     4
100
AcDbLine
 10
-265.2303974497463
 20
-42.45635698981327
 30
0.0
 11
-265.2303974497463
 21
-42.45121484061409
 31
0.0
  0
LINE
  5
7B9
330
73D
100
AcDbEntity
  8
Vista
 62
     4
100
AcDbLine
 10
-265.2303974497463
 20
-42.45635698981327
 30
0.0
 11
-265.2223974497463
 21
-42.45468713152497
 31
0.0
  0
LINE
  5
7BA
330
73D
100
AcDbEntity
  8
Vista
 62
     4
100
AcDbLine
 10
-265.2303974497463
 20
-42.45635698981327
 30
0.0
 11
-265.2333974497464
 21
-42.45635698981327
 31
0.0
  0
LINE
  5
7BB
330
73D
100
AcDbEntity
  8
Vista
 62
     4
100
AcDbLine
 10
-265.2343974497463
 20
-42.45656572209931
 30
0.0
 11
-265.2333974497464
 21
-42.45635698981327
 31
0.0
  0
LINE
  5
7BC
330
73D
100
AcDbEntity
  8
Vista
 62
     4
100
AcDbLine
 10
-265.2343974497463
 20
-42.45282183301024
 30
0.0
 11
-265.2318974497463
 21
-42.45230000229516
 31
0.0
  0
LINE
  5
7BD
330
73D
100
AcDbEntity
  8
CORTE
  6
Continuous
 62
     4
100
AcDbLine
 10
-265.2318974497463
 20
-42.45230000229516
 30
0.0
 11
-265.2318974497463
 21
-42.45152793904314
 31
0.0
  0
LINE
  5
7BE
330
73D
100
AcDbEntity
  8
CORTE
  6
Continuous
 62
     4
100
AcDbLine
 10
-265.2223974497463
 20
-42.45468713152497
 30
0.0
 11
-265.2223974497463
 21
-42.44955058263606
 31
0.0
  0
LINE
  5
7BF
330
73D
100
AcDbEntity
  8
Vista
 62
     4
100
AcDbLine
 10
-265.2183974497464
 20
-42.45381967473214
 30
0.0
 11
-265.2103974497463
 21
-42.45214981644385
 31
0.0
  0
LINE
  5
7C0
330
73D
100
AcDbEntity
  8
Vista
 62
     4
100
AcDbLine
 10
-265.2183974497464
 20
-42.45381967473214
 30
0.0
 11
-265.2213974497463
 21
-42.45381967473214
 31
0.0
  0
LINE
  5
7C1
330
73D
100
AcDbEntity
  8
CORTE
  6
Continuous
 62
     4
100
AcDbLine
 10
-265.2198974497463
 20
-42.44976268721403
 30
0.0
 11
-265.2198974497463
 21
-42.44902315161072
 31
0.0
  0
LINE
  5
7C2
330
73D
100
AcDbEntity
  8
Vista
 62
     4
100
AcDbLine
 10
-265.2223974497463
 20
-42.45028451792911
 30
0.0
 11
-265.2198974497463
 21
-42.44976268721403
 31
0.0
  0
LINE
  5
7C3
330
73D
100
AcDbEntity
  8
Vista
 62
     4
100
AcDbLine
 10
-265.2223974497463
 20
-42.45402840701818
 30
0.0
 11
-265.2213974497463
 21
-42.45381967473214
 31
0.0
  0
LINE
  5
7C4
330
73D
100
AcDbEntity
  8
CORTE
  6
Continuous
 62
     4
100
AcDbLine
 10
-265.2213974497463
 20
-42.45381967473214
 30
0.0
 11
-265.2213974497463
 21
-42.45007578564307
 31
0.0
  0
LINE
  5
7C5
330
73D
100
AcDbEntity
  8
CORTE
  6
Continuous
 62
     4
100
AcDbLine
 10
-265.2183974497464
 20
-42.45381967473214
 30
0.0
 11
-265.2183974497464
 21
-42.44867752553297
 31
0.0
  0
LINE
  5
7C6
330
73D
100
AcDbEntity
  8
CORTE
  6
Continuous
 62
     4
100
AcDbLine
 10
-265.2103974497463
 20
-42.45214981644385
 30
0.0
 11
-265.2103974497463
 21
-42.44704019489337
 31
0.0
  0
LINE
  5
7C7
330
73D
100
AcDbEntity
  8
Vista
 62
     4
100
AcDbLine
 10
-265.2063974497464
 20
-42.45136478851414
 30
0.0
 11
-265.1983974497463
 21
-42.44969493022584
 31
0.0
  0
LINE
  5
7C8
330
73D
100
AcDbEntity
  8
Vista
 62
     4
100
AcDbLine
 10
-265.2063974497464
 20
-42.45136478851414
 30
0.0
 11
-265.2093974497463
 21
-42.45136478851414
 31
0.0
  0
LINE
  5
7C9
330
73D
100
AcDbEntity
  8
CORTE
  6
Continuous
 62
     4
100
AcDbLine
 10
-265.2078974497463
 20
-42.44730780099603
 30
0.0
 11
-265.2078974497463
 21
-42.44653573774401
 31
0.0
  0
LINE
  5
7CA
330
73D
100
AcDbEntity
  8
Vista
 62
     4
100
AcDbLine
 10
-265.2103974497463
 20
-42.44782963171111
 30
0.0
 11
-265.2078974497463
 21
-42.44730780099603
 31
0.0
  0
LINE
  5
7CB
330
73D
100
AcDbEntity
  8
Vista
 62
     4
100
AcDbLine
 10
-265.2103974497463
 20
-42.45157352080018
 30
0.0
 11
-265.2093974497463
 21
-42.45136478851414
 31
0.0
  0
LINE
  5
7CC
330
73D
100
AcDbEntity
  8
CORTE
  6
Continuous
 62
     4
100
AcDbLine
 10
-265.2093974497463
 20
-42.45136478851414
 30
0.0
 11
-265.2093974497463
 21
-42.44762089942507
 31
0.0
  0
LINE
  5
7CD
330
73D
100
AcDbEntity
  8
CORTE
  6
Continuous
 62
     4
100
AcDbLine
 10
-265.2063974497464
 20
-42.45136478851414
 30
0.0
 11
-265.2063974497464
 21
-42.44622263931496
 31
0.0
  0
LINE
  5
7CE
330
73D
100
AcDbEntity
  8
CORTE
  6
Continuous
 62
     4
100
AcDbLine
 10
-265.1983974497463
 20
-42.44969493022584
 30
0.0
 11
-265.1983974497463
 21
-42.44455838133693
 31
0.0
  0
LINE
  5
7CF
330
73D
100
AcDbEntity
  8
Vista
 62
     4
100
AcDbLine
 10
-265.1943974497464
 20
-42.44883783223379
 30
0.0
 11
-265.1863974497463
 21
-42.44716797394549
 31
0.0
  0
LINE
  5
7D0
330
73D
100
AcDbEntity
  8
Vista
 62
     4
100
AcDbLine
 10
-265.1943974497464
 20
-42.44883783223379
 30
0.0
 11
-265.1973974497463
 21
-42.44883783223379
 31
0.0
  0
LINE
  5
7D1
330
73D
100
AcDbEntity
  8
CORTE
  6
Continuous
 62
     4
100
AcDbLine
 10
-265.1958974497463
 20
-42.44478084471568
 30
0.0
 11
-265.1958974497463
 21
-42.44400878146369
 31
0.0
  0
LINE
  5
7D2
330
73D
100
AcDbEntity
  8
Vista
 62
     4
100
AcDbLine
 10
-265.1983974497463
 20
-42.44530267543076
 30
0.0
 11
-265.1958974497463
 21
-42.44478084471568
 31
0.0
  0
LINE
  5
7D3
330
73D
100
AcDbEntity
  8
Vista
 62
     4
100
AcDbLine
 10
-265.1983974497463
 20
-42.44904656451983
 30
0.0
 11
-265.1973974497463
 21
-42.44883783223379
 31
0.0
  0
LINE
  5
7D4
330
73D
100
AcDbEntity
  8
CORTE
  6
Continuous
 62
     4
100
AcDbLine
 10
-265.1973974497463
 20
-42.44883783223379
 30
0.0
 11
-265.1973974497463
 21
-42.44509394314476
 31
0.0
  0
LINE
  5
7D5
330
73D
100
AcDbEntity
  8
CORTE
  6
Continuous
 62
     4
100
AcDbLine
 10
-265.1943974497464
 20
-42.44883783223379
 30
0.0
 11
-265.1943974497464
 21
-42.44369568303464
 31
0.0
  0
LINE
  5
7D6
330
73D
100
AcDbEntity
  8
CORTE
  6
Continuous
 62
     4
100
AcDbLine
 10
-265.1838974497463
 20
-42.44224352963455
 30
0.0
 11
-265.1838974497463
 21
-42.44150399403126
 31
0.0
  0
LINE
  5
7D7
330
73D
100
AcDbEntity
  8
CORTE
  6
Continuous
 62
     4
100
AcDbLine
 10
-265.1823974497464
 20
-42.44630051715266
 30
0.0
 11
-265.1823974497464
 21
-42.44115836795351
 31
0.0
  0
LINE
  5
7D8
330
73D
100
AcDbEntity
  8
Vista
 62
     4
100
AcDbLine
 10
-265.1823974497464
 20
-42.44630051715266
 30
0.0
 11
-265.1853974497464
 21
-42.44630051715266
 31
0.0
  0
LINE
  5
7D9
330
73D
100
AcDbEntity
  8
CORTE
  6
Continuous
 62
     4
100
AcDbLine
 10
-265.1853974497464
 20
-42.44630051715266
 30
0.0
 11
-265.1853974497464
 21
-42.44255662806362
 31
0.0
  0
LINE
  5
7DA
330
73D
100
AcDbEntity
  8
Vista
 62
     4
100
AcDbLine
 10
-265.1863974497463
 20
-42.4465092494387
 30
0.0
 11
-265.1853974497464
 21
-42.44630051715266
 31
0.0
  0
LINE
  5
7DB
330
73D
100
AcDbEntity
  8
Vista
 62
     4
100
AcDbLine
 10
-265.1863974497463
 20
-42.44276536034966
 30
0.0
 11
-265.1838974497463
 21
-42.44224352963455
 31
0.0
  0
LINE
  5
7DC
330
73D
100
AcDbEntity
  8
CORTE
  6
Continuous
 62
     4
100
AcDbLine
 10
-265.1863974497463
 20
-42.44716797394549
 30
0.0
 11
-265.1863974497463
 21
-42.44203142505658
 31
0.0
  0
LINE
  5
7DD
330
73D
100
AcDbEntity
  8
Vista
 62
     4
100
AcDbLine
 10
-265.1703974497463
 20
-42.44384563093466
 30
0.0
 11
-265.1623974497463
 21
-42.44217577264636
 31
0.0
  0
LINE
  5
7DE
330
73D
100
AcDbEntity
  8
Vista
 62
     4
100
AcDbLine
 10
-265.1823974497464
 20
-42.44630051715266
 30
0.0
 11
-265.1743974497463
 21
-42.44463065886439
 31
0.0
  0
LINE
  5
7DF
330
73D
100
AcDbEntity
  8
CORTE
  6
Continuous
 62
     4
100
AcDbLine
 10
-265.1743974497463
 20
-42.44463065886439
 30
0.0
 11
-265.1743974497463
 21
-42.43952103731389
 31
0.0
  0
LINE
  5
7E0
330
73D
100
AcDbEntity
  8
CORTE
  6
Continuous
 62
     4
100
AcDbLine
 10
-265.1733974497464
 20
-42.44384563093466
 30
0.0
 11
-265.1733974497464
 21
-42.44010174184562
 31
0.0
  0
LINE
  5
7E1
330
73D
100
AcDbEntity
  8
CORTE
  6
Continuous
 62
     4
100
AcDbLine
 10
-265.1703974497463
 20
-42.44384563093466
 30
0.0
 11
-265.1703974497463
 21
-42.43870348173551
 31
0.0
  0
LINE
  5
7E2
330
73D
100
AcDbEntity
  8
Vista
 62
     4
100
AcDbLine
 10
-265.1703974497463
 20
-42.44384563093466
 30
0.0
 11
-265.1733974497464
 21
-42.44384563093466
 31
0.0
  0
LINE
  5
7E3
330
73D
100
AcDbEntity
  8
Vista
 62
     4
100
AcDbLine
 10
-265.1743974497463
 20
-42.4440543632207
 30
0.0
 11
-265.1733974497464
 21
-42.44384563093466
 31
0.0
  0
LINE
  5
7E4
330
73D
100
AcDbEntity
  8
CORTE
  6
Continuous
 62
     4
100
AcDbLine
 10
-265.1718974497463
 20
-42.43978864341655
 30
0.0
 11
-265.1718974497463
 21
-42.43901658016456
 31
0.0
  0
LINE
  5
7E5
330
73D
100
AcDbEntity
  8
Vista
 62
     4
100
AcDbLine
 10
-265.1743974497463
 20
-42.44031047413163
 30
0.0
 11
-265.1718974497463
 21
-42.43978864341655
 31
0.0
  0
LINE
  5
7E6
330
73D
100
AcDbEntity
  8
CORTE
  6
Continuous
 62
     4
100
AcDbLine
 10
-265.1623974497463
 20
-42.44217577264636
 30
0.0
 11
-265.1623974497463
 21
-42.43703922375745
 31
0.0
  0
LINE
  5
7E7
330
73D
100
AcDbEntity
  8
Vista
 62
     4
100
AcDbLine
 10
-265.1583974497464
 20
-42.44133239831891
 30
0.0
 11
-265.1503974497463
 21
-42.43966254003062
 31
0.0
  0
LINE
  5
7E8
330
73D
100
AcDbEntity
  8
Vista
 62
     4
100
AcDbLine
 10
-265.1583974497464
 20
-42.44133239831891
 30
0.0
 11
-265.1613974497463
 21
-42.44133239831891
 31
0.0
  0
LINE
  5
7E9
330
73D
100
AcDbEntity
  8
CORTE
  6
Continuous
 62
     4
100
AcDbLine
 10
-265.1598974497463
 20
-42.4372754108008
 30
0.0
 11
-265.1598974497463
 21
-42.43650334754879
 31
0.0
  0
LINE
  5
7EA
330
73D
100
AcDbEntity
  8
Vista
 62
     4
100
AcDbLine
 10
-265.1623974497463
 20
-42.43779724151589
 30
0.0
 11
-265.1598974497463
 21
-42.4372754108008
 31
0.0
  0
LINE
  5
7EB
330
73D
100
AcDbEntity
  8
Vista
 62
     4
100
AcDbLine
 10
-265.1623974497463
 20
-42.44154113060496
 30
0.0
 11
-265.1613974497463
 21
-42.44133239831891
 31
0.0
  0
LINE
  5
7EC
330
73D
100
AcDbEntity
  8
CORTE
  6
Continuous
 62
     4
100
AcDbLine
 10
-265.1613974497463
 20
-42.44133239831891
 30
0.0
 11
-265.1613974497463
 21
-42.43758850922985
 31
0.0
  0
LINE
  5
7ED
330
73D
100
AcDbEntity
  8
CORTE
  6
Continuous
 62
     4
100
AcDbLine
 10
-265.1583974497464
 20
-42.44133239831891
 30
0.0
 11
-265.1583974497464
 21
-42.43619024911974
 31
0.0
  0
LINE
  5
7EE
330
73D
100
AcDbEntity
  8
CORTE
  6
Continuous
 62
     4
100
AcDbLine
 10
-265.1478974497463
 20
-42.43473809571968
 30
0.0
 11
-265.1478974497463
 21
-42.43399856011636
 31
0.0
  0
LINE
  5
7EF
330
73D
100
AcDbEntity
  8
CORTE
  6
Continuous
 62
     4
100
AcDbLine
 10
-265.1463974497464
 20
-42.43879508323779
 30
0.0
 11
-265.1463974497464
 21
-42.43365293403861
 31
0.0
  0
LINE
  5
7F0
330
73D
100
AcDbEntity
  8
Vista
 62
     4
100
AcDbLine
 10
-265.1463974497464
 20
-42.43879508323779
 30
0.0
 11
-265.1493974497463
 21
-42.43879508323779
 31
0.0
  0
LINE
  5
7F1
330
73D
100
AcDbEntity
  8
CORTE
  6
Continuous
 62
     4
100
AcDbLine
 10
-265.1493974497463
 20
-42.43879508323779
 30
0.0
 11
-265.1493974497463
 21
-42.43505119414872
 31
0.0
  0
LINE
  5
7F2
330
73D
100
AcDbEntity
  8
Vista
 62
     4
100
AcDbLine
 10
-265.1503974497463
 20
-42.43900381552383
 30
0.0
 11
-265.1493974497463
 21
-42.43879508323779
 31
0.0
  0
LINE
  5
7F3
330
73D
100
AcDbEntity
  8
Vista
 62
     4
100
AcDbLine
 10
-265.1503974497463
 20
-42.43525992643476
 30
0.0
 11
-265.1478974497463
 21
-42.43473809571968
 31
0.0
  0
LINE
  5
7F4
330
73D
100
AcDbEntity
  8
CORTE
  6
Continuous
 62
     4
100
AcDbLine
 10
-265.1503974497463
 20
-42.43966254003062
 30
0.0
 11
-265.1503974497463
 21
-42.43452599114171
 31
0.0
  0
LINE
  5
7F5
330
73D
100
AcDbEntity
  8
Vista
 62
     4
100
AcDbLine
 10
-265.1463974497464
 20
-42.43879508323779
 30
0.0
 11
-265.1383974497463
 21
-42.43712522494949
 31
0.0
  0
LINE
  5
7F6
330
73D
100
AcDbEntity
  8
CORTE
  6
Continuous
 62
     4
100
AcDbLine
 10
-265.1383974497463
 20
-42.43712522494949
 30
0.0
 11
-265.1383974497463
 21
-42.43201560339902
 31
0.0
  0
LINE
  5
7F7
330
73D
100
AcDbEntity
  8
CORTE
  6
Continuous
 62
     4
100
AcDbLine
 10
-265.1373974497464
 20
-42.43634019701978
 30
0.0
 11
-265.1373974497464
 21
-42.43259630793072
 31
0.0
  0
LINE
  5
7F8
330
73D
100
AcDbEntity
  8
CORTE
  6
Continuous
 62
     4
100
AcDbLine
 10
-265.1343974497464
 20
-42.43634019701978
 30
0.0
 11
-265.1343974497464
 21
-42.43119804782061
 31
0.0
  0
LINE
  5
7F9
330
73D
100
AcDbEntity
  8
Vista
 62
     4
100
AcDbLine
 10
-265.1383974497463
 20
-42.43654892930583
 30
0.0
 11
-265.1373974497464
 21
-42.43634019701978
 31
0.0
  0
LINE
  5
7FA
330
73D
100
AcDbEntity
  8
CORTE
  6
Continuous
 62
     4
100
AcDbLine
 10
-265.1358974497463
 20
-42.43228320950167
 30
0.0
 11
-265.1358974497463
 21
-42.43151114624966
 31
0.0
  0
LINE
  5
7FB
330
73D
100
AcDbEntity
  8
Vista
 62
     4
100
AcDbLine
 10
-265.1383974497463
 20
-42.43280504021676
 30
0.0
 11
-265.1358974497463
 21
-42.43228320950167
 31
0.0
  0
LINE
  5
7FC
330
73D
100
AcDbEntity
  8
Vista
 62
     4
100
AcDbLine
 10
-265.1353528293179
 20
-42.43634019701978
 30
0.0
 11
-265.1373974497464
 21
-42.43634019701978
 31
0.0
  0
LWPOLYLINE
  5
7FD
330
73D
100
AcDbEntity
  8
Vista
  6
Continuous
 62
     3
100
AcDbPolyline
 90
       21
 70
     0
 43
0.0
 10
-265.1383166796941
 20
-42.44488631174739
 42
0.384929168564455
 10
-265.1378192281659
 20
-42.4444367297706
 42
-0.2416670294637282
 10
-265.1356038227205
 20
-42.44101999835858
 42
0.2685636005234456
 10
-265.1353528293179
 20
-42.44058641363274
 10
-265.1353528293179
 20
-42.43634019701978
 10
-265.1343974497464
 20
-42.43634019701978
 10
-265.1318419531143
 20
-42.43580678236582
 10
-265.1318419531143
 20
-42.43064312650061
 10
-265.1161247926731
 20
-42.42736244767171
 42
0.3514578094911731
 10
-265.1153419531143
 20
-42.42638631174741
 10
-265.1153419531143
 20
-42.42287691224864
 42
-0.3189892314182308
 10
-265.1121434289239
 20
-42.41946666761764
 42
0.3568183404962087
 10
-265.1113419531143
 20
-42.41848657162957
 10
-265.1113419531143
 20
-42.41652292015008
 10
-265.1100037407593
 20
-42.41624359202602
 42
0.3051840064494136
 10
-265.1050919531143
 20
-42.4111363117474
 42
-0.2900042141350497
 10
-265.1005238724924
 20
-42.40611328262953
 10
-265.0995390095354
 20
-42.40590770993311
 42
0.3266838343405565
 10
-265.0988419531143
 20
-42.40495470143993
 10
-265.0988419531143
 20
-42.4023863117474
 10
-265.1113419531143
 20
-42.4023863117474
  0
LINE
  5
7FE
330
73D
100
AcDbEntity
  8
Vista
 62
     6
100
AcDbLine
 10
-265.0999942150913
 20
-42.55723976658283
 30
0.0
 11
-265.0999942150913
 21
-42.51473976658282
 31
0.0
  0
LINE
  5
7FF
330
73D
100
AcDbEntity
  8
Vista
 62
     6
100
AcDbLine
 10
-265.2079942150913
 20
-42.55723976658283
 30
0.0
 11
-265.2079942150913
 21
-42.51473976658282
 31
0.0
  0
LINE
  5
800
330
73D
100
AcDbEntity
  8
Vista
 62
     2
100
AcDbLine
 10
-265.2079942150914
 20
-42.51796536909266
 30
0.0
 11
-265.0999942150913
 21
-42.51796536909266
 31
0.0
  0
LINE
  5
801
330
73D
100
AcDbEntity
  8
Vista
 62
     3
100
AcDbLine
 10
-265.2079942150913
 20
-42.51473976658279
 30
0.0
 11
-265.0999942150913
 21
-42.51473976658284
 31
0.0
  0
LINE
  5
802
330
73D
100
AcDbEntity
  8
Vista
 62
     2
100
AcDbLine
 10
-265.2079942150913
 20
-42.52873976658283
 30
0.0
 11
-265.0999942150913
 21
-42.52873976658283
 31
0.0
  0
LINE
  5
803
330
73D
100
AcDbEntity
  8
Vista
 62
     2
100
AcDbLine
 10
-265.2079942150914
 20
-42.53147306509318
 30
0.0
 11
-265.0999942150913
 21
-42.53147306509318
 31
0.0
  0
LINE
  5
804
330
73D
100
AcDbEntity
  8
Vista
 62
     2
100
AcDbLine
 10
-265.2079942150913
 20
-42.53973976658282
 30
0.0
 11
-265.0999942150913
 21
-42.53973976658282
 31
0.0
  0
LINE
  5
805
330
73D
100
AcDbEntity
  8
Vista
 62
     2
100
AcDbLine
 10
-265.2079942150913
 20
-42.55319036467706
 30
0.0
 11
-265.0999942150913
 21
-42.55319036467709
 31
0.0
  0
LINE
  5
806
330
73D
100
AcDbEntity
  8
Vista
 62
     3
100
AcDbLine
 10
-265.2079942150913
 20
-42.55723976658283
 30
0.0
 11
-265.0999942150913
 21
-42.55723976658283
 31
0.0
  0
ENDBLK
  5
808
330
73D
100
AcDbEntity
  8
0
 62
     3
100
AcDbBlockEnd
  0
BLOCK
  5
B6F
330
B69
100
AcDbEntity
  8
0
 62
     3
100
AcDbBlockBegin
  2
A$C263D6B6A
 70
     0
 10
0.0
 20
0.0
 30
0.0
  3
A$C263D6B6A
  1

  0
HATCH
  5
B6A
330
B69
100
AcDbEntity
  8
Sezione
100
AcDbHatch
 10
0.0
 20
0.0
 30
0.0
210
0.0
220
0.0
230
1.0
  2
ANSI31
 70
     0
 71
     0
 91
        1
 92
        7
 72
     0
 73
     1
 93
        6
 10
0.0922667539244952
 20
0.0862807646728965
 10
-0.0000000665657739
 20
0.0862807646728965
 10
-0.0000000665657739
 20
0.0003091066906239
 10
0.0191316019951639
 20
0.0003091066906239
 10
0.0191316019951639
 20
0.0668219886661159
 10
0.0922667539244952
 20
0.0668219886661158
 97
        0
 75
     0
 76
     1
 52
0.0
 41
0.002
 77
     0
 78
     1
 53
45.0
 43
-0.0858288002254417
 44
-0.1359207187670848
 45
-0.0044901280605346
 46
0.0044901280605346
 79
     0
 47
0.0003507291251325
 98
        1
 10
0.0287510465309501
 20
0.0740124973428604
1001
ACAD
1010
0.0
1020
0.0
1030
0.0
  0
LINE
  5
B6B
330
B69
100
AcDbEntity
  8
Sezione
100
AcDbLine
 10
0.0191316019951639
 20
0.0000000122728271
 30
0.0
 11
0.0191316019951639
 21
0.0668219886661159
 31
0.0
  0
LINE
  5
B6C
330
B69
100
AcDbEntity
  8
Sezione
100
AcDbLine
 10
0.0191316019951639
 20
0.0668219886661159
 30
0.0
 11
0.0923266054750259
 21
0.0668219886661159
 31
0.0
  0
ENDBLK
  5
B70
330
B69
100
AcDbEntity
  8
0
 62
     3
100
AcDbBlockEnd
  0
BLOCK
  5
BFC
330
BFB
100
AcDbEntity
  8
0
100
AcDbBlockBegin
  2
*X10
 70
     1
 10
0.0
 20
0.0
 30
0.0
  3
*X10
  1

  0
LINE
  5
BFD
330
BFB
100
AcDbEntity
  8
0
 62
     0
100
AcDbLine
 10
486.460053877036
 20
124.0678285189305
 30
0.0
 11
503.5693156116774
 21
141.1770902535719
 31
0.0
  0
LINE
  5
BFE
330
BFB
100
AcDbEntity
  8
0
 62
     0
100
AcDbLine
 10
615.6341149734076
 20
253.2418896153022
 30
0.0
 11
629.3545087289434
 21
266.9622833708378
 31
0.0
  0
LINE
  5
BFF
330
BFB
100
AcDbEntity
  8
0
 62
     0
100
AcDbLine
 10
486.460053877036
 20
132.9066632837623
 30
0.0
 11
503.5693156116774
 21
150.0159250184037
 31
0.0
  0
LINE
  5
C00
330
BFB
100
AcDbEntity
  8
0
 62
     0
100
AcDbLine
 10
606.7952802085758
 20
253.2418896153022
 30
0.0
 11
620.5156739641116
 21
266.9622833708378
 31
0.0
  0
LINE
  5
C01
330
BFB
100
AcDbEntity
  8
0
 62
     0
100
AcDbLine
 10
486.460053877036
 20
141.7454980485942
 30
0.0
 11
503.5693156116774
 21
158.8547597832356
 31
0.0
  0
LINE
  5
C02
330
BFB
100
AcDbEntity
  8
0
 62
     0
100
AcDbLine
 10
597.9564454437441
 20
253.2418896153022
 30
0.0
 11
611.6768391992796
 21
266.9622833708378
 31
0.0
  0
LINE
  5
C03
330
BFB
100
AcDbEntity
  8
0
 62
     0
100
AcDbLine
 10
486.460053877036
 20
150.584332813426
 30
0.0
 11
503.5693156116774
 21
167.6935945480674
 31
0.0
  0
LINE
  5
C04
330
BFB
100
AcDbEntity
  8
0
 62
     0
100
AcDbLine
 10
589.1176106789122
 20
253.2418896153022
 30
0.0
 11
602.8380044344478
 21
266.9622833708378
 31
0.0
  0
LINE
  5
C05
330
BFB
100
AcDbEntity
  8
0
 62
     0
100
AcDbLine
 10
486.460053877036
 20
159.4231675782578
 30
0.0
 11
503.5693156116774
 21
176.5324293128992
 31
0.0
  0
LINE
  5
C06
330
BFB
100
AcDbEntity
  8
0
 62
     0
100
AcDbLine
 10
580.2787759140803
 20
253.2418896153022
 30
0.0
 11
593.999169669616
 21
266.9622833708378
 31
0.0
  0
LINE
  5
C07
330
BFB
100
AcDbEntity
  8
0
 62
     0
100
AcDbLine
 10
486.460053877036
 20
168.2620023430897
 30
0.0
 11
503.5693156116774
 21
185.3712640777311
 31
0.0
  0
LINE
  5
C08
330
BFB
100
AcDbEntity
  8
0
 62
     0
100
AcDbLine
 10
571.4399411492485
 20
253.2418896153022
 30
0.0
 11
585.1603349047841
 21
266.9622833708378
 31
0.0
  0
LINE
  5
C09
330
BFB
100
AcDbEntity
  8
0
 62
     0
100
AcDbLine
 10
486.460053877036
 20
177.1008371079215
 30
0.0
 11
503.5693156116773
 21
194.2100988425629
 31
0.0
  0
LINE
  5
C0A
330
BFB
100
AcDbEntity
  8
0
 62
     0
100
AcDbLine
 10
562.6011063844166
 20
253.2418896153022
 30
0.0
 11
576.3215001399522
 21
266.9622833708378
 31
0.0
  0
LINE
  5
C0B
330
BFB
100
AcDbEntity
  8
0
 62
     0
100
AcDbLine
 10
486.460053877036
 20
185.9396718727533
 30
0.0
 11
503.5693156116773
 21
203.0489336073947
 31
0.0
  0
LINE
  5
C0C
330
BFB
100
AcDbEntity
  8
0
 62
     0
100
AcDbLine
 10
553.7622716195848
 20
253.2418896153022
 30
0.0
 11
567.4826653751203
 21
266.9622833708378
 31
0.0
  0
LINE
  5
C0D
330
BFB
100
AcDbEntity
  8
0
 62
     0
100
AcDbLine
 10
486.4600538770359
 20
194.7785066375852
 30
0.0
 11
503.5693156116773
 21
211.8877683722266
 31
0.0
  0
LINE
  5
C0E
330
BFB
100
AcDbEntity
  8
0
 62
     0
100
AcDbLine
 10
544.9234368547529
 20
253.2418896153022
 30
0.0
 11
558.6438306102885
 21
266.9622833708378
 31
0.0
  0
LINE
  5
C0F
330
BFB
100
AcDbEntity
  8
0
 62
     0
100
AcDbLine
 10
486.4600538770359
 20
203.617341402417
 30
0.0
 11
503.5693156116773
 21
220.7266031370584
 31
0.0
  0
LINE
  5
C10
330
BFB
100
AcDbEntity
  8
0
 62
     0
100
AcDbLine
 10
536.084602089921
 20
253.2418896153022
 30
0.0
 11
549.8049958454567
 21
266.9622833708378
 31
0.0
  0
LINE
  5
C11
330
BFB
100
AcDbEntity
  8
0
 62
     0
100
AcDbLine
 10
486.4600538770359
 20
212.4561761672488
 30
0.0
 11
503.5693156116773
 21
229.5654379018902
 31
0.0
  0
LINE
  5
C12
330
BFB
100
AcDbEntity
  8
0
 62
     0
100
AcDbLine
 10
527.2457673250892
 20
253.2418896153022
 30
0.0
 11
540.9661610806248
 21
266.9622833708378
 31
0.0
  0
LINE
  5
C13
330
BFB
100
AcDbEntity
  8
0
 62
     0
100
AcDbLine
 10
486.4600538770359
 20
221.2950109320807
 30
0.0
 11
503.5693156116773
 21
238.4042726667221
 31
0.0
  0
LINE
  5
C14
330
BFB
100
AcDbEntity
  8
0
 62
     0
100
AcDbLine
 10
518.4069325602573
 20
253.2418896153022
 30
0.0
 11
532.1273263157929
 21
266.9622833708378
 31
0.0
  0
LINE
  5
C15
330
BFB
100
AcDbEntity
  8
0
 62
     0
100
AcDbLine
 10
486.4600538770359
 20
230.1338456969125
 30
0.0
 11
503.5693156116773
 21
247.2431074315539
 31
0.0
  0
LINE
  5
C16
330
BFB
100
AcDbEntity
  8
0
 62
     0
100
AcDbLine
 10
509.5680977954256
 20
253.2418896153021
 30
0.0
 11
523.2884915509611
 21
266.9622833708377
 31
0.0
  0
LINE
  5
C17
330
BFB
100
AcDbEntity
  8
0
 62
     0
100
AcDbLine
 10
486.4600538770359
 20
238.9726804617443
 30
0.0
 11
514.4496567861292
 21
266.9622833708377
 31
0.0
  0
LINE
  5
C18
330
BFB
100
AcDbEntity
  8
0
 62
     0
100
AcDbLine
 10
486.4600538770359
 20
247.8115152265762
 30
0.0
 11
505.6108220212975
 21
266.9622833708377
 31
0.0
  0
LINE
  5
C19
330
BFB
100
AcDbEntity
  8
0
 62
     0
100
AcDbLine
 10
486.4600538770359
 20
256.6503499914079
 30
0.0
 11
496.7719872564656
 21
266.9622833708377
 31
0.0
  0
LINE
  5
C1A
330
BFB
100
AcDbEntity
  8
0
 62
     0
100
AcDbLine
 10
486.4600538770358
 20
265.4891847562398
 30
0.0
 11
487.9331524916337
 21
266.9622833708377
 31
0.0
  0
LINE
  5
C1B
330
BFB
100
AcDbEntity
  8
0
 62
     0
100
AcDbLine
 10
494.0552738068973
 20
122.8242136839599
 30
0.0
 11
503.5693156116774
 21
132.3382554887401
 31
0.0
  0
LINE
  5
C1C
330
BFB
100
AcDbEntity
  8
0
 62
     0
100
AcDbLine
 10
624.4729497382395
 20
253.2418896153022
 30
0.0
 11
629.496054025455
 21
258.2649939025177
 31
0.0
  0
LINE
  5
C1D
330
BFB
100
AcDbEntity
  8
0
 62
     0
100
AcDbLine
 10
502.8941085717291
 20
122.8242136839599
 30
0.0
 11
503.5693156116775
 21
123.4994207239083
 31
0.0
  0
ENDBLK
  5
C1E
330
BFB
100
AcDbEntity
  8
0
100
AcDbBlockEnd
  0
BLOCK
  5
C24
330
C1F
100
AcDbEntity
  8
0
100
AcDbBlockBegin
  2
A$C6C65579B
 70
     0
 10
0.0
 20
0.0
 30
0.0
  3
A$C6C65579B
  1

  0
LINE
  5
C20
330
C1F
100
AcDbEntity
  8
CORTE
  6
RAYITAX4
 62
     4
100
AcDbLine
 10
-265.2537935691752
 20
-42.42682209115611
 30
0.0
 11
-265.2537935691752
 21
-42.55723976708748
 31
0.0
  0
LINE
  5
C21
330
C1F
100
AcDbEntity
  8
CORTE
  6
RAYITAX4
 62
     4
100
AcDbLine
 10
-265.2537935691752
 20
-42.42682209115611
 30
0.0
 11
-265.1278668307615
 21
-42.42682209115611
 31
0.0
  0
INSERT
  5
C22
330
C1F
100
AcDbEntity
  8
TRAMA
100
AcDbBlockReference
  2
*X10
 10
-265.7573628847869
 20
-42.68006398077142
 30
0.0
 41
0.0009999999999764
 42
0.0010000000000048
 43
0.001
1001
ACAD
1000
HATCH
1002
{
1070
    16
1000
ANSI31
1040
50.0
1040
0.0
1002
}
  0
LWPOLYLINE
  5
C23
330
C1F
100
AcDbEntity
  8
CORTE
  6
Continuous
 62
     1
100
AcDbPolyline
 90
       27
 70
     0
 43
0.0
 10
-265.2434935691752
 20
-42.52048009449487
 42
-0.1309515943895288
 10
-265.2396188804983
 20
-42.50227169263183
 42
-0.0391865213385924
 10
-265.2318861974755
 20
-42.48961463308666
 42
0.148047983309989
 10
-265.2273603786659
 20
-42.46536751056521
 42
-0.477131438324366
 10
-265.226266012113
 20
-42.46426334617865
 42
0.3174254686240992
 10
-265.2222487718652
 20
-42.46199398787246
 10
-265.2204935691752
 20
-42.45828353660647
 42
0.3390955557305459
 10
-265.2133594019252
 20
-42.45748275993213
 42
0.1067380655143518
 10
-265.2064935691752
 20
-42.44728353660645
 10
-265.2014935691752
 20
-42.44428353660646
 42
0.6316956553984646
 10
-265.1944935691752
 20
-42.44228353660645
 42
-0.4142135623730849
 10
-265.1884935691752
 20
-42.43628353660648
 10
-265.1804935691752
 20
-42.43628353660648
 42
0.4142135623730847
 10
-265.1784935691752
 20
-42.43428353660647
 10
-265.1784935691752
 20
-42.42728353660647
 10
-265.1984935691753
 20
-42.42728353660647
 10
-265.2184935691752
 20
-42.43928353660646
 10
-265.2222940706685
 20
-42.43961583728498
 42
0.2192482621402799
 10
-265.2266538493824
 20
-42.4421056036295
 10
-265.2379730166141
 20
-42.45795243775387
 42
0.1840335527349514
 10
-265.239055826335
 20
-42.46208505147598
 10
-265.2384935691752
 20
-42.46728353660649
 10
-265.2534935691752
 20
-42.5122835366065
 10
-265.2534935691752
 20
-42.53228353660648
 10
-265.2454935691752
 20
-42.53228353660648
 42
0.4142135623730847
 10
-265.2434935691752
 20
-42.53028353660647
 10
-265.2434935691752
 20
-42.51681234902133
  0
ENDBLK
  5
C25
330
C1F
100
AcDbEntity
  8
0
100
AcDbBlockEnd
  0
BLOCK
  5
FEC
330
FEB
100
AcDbEntity
  8
0
100
AcDbBlockBegin
  2
Z4
 70
     0
 10
0.0
 20
0.0
 30
0.0
  3
Z4
  1

  0
LINE
  5
10C1
330
FEB
100
AcDbEntity
  8
Vista
100
AcDbLine
 10
-0.0000013798916711
 20
0.0115999999867427
 30
0.0
 11
0.0210150918188106
 21
0.011600211399184
 31
0.0
1001
AcDbBlockRepETag
1070
     1
1071
        0
1005
10C1
  0
LINE
  5
10C2
330
FEB
100
AcDbEntity
  8
Vista
100
AcDbLine
 10
-0.0000012632029893
 20
-0.0000000000126761
 30
0.0
 11
0.0210152085074924
 21
0.0000002113997652
 31
0.0
1001
AcDbBlockRepETag
1070
     1
1071
        1
1005
10C2
  0
ARC
  5
10C3
330
FEB
100
AcDbEntity
  8
Vista
100
AcDbCircle
 10
0.0128448849221172
 20
0.0132154841897716
 30
0.0
 40
0.0140847949245492
100
AcDbArc
 50
210.8168847834205
 51
229.3422399532511
1001
AcDbBlockRepETag
1070
     1
1071
        2
1005
10C3
  0
ARC
  5
10C4
330
FEB
100
AcDbEntity
  8
Vista
100
AcDbCircle
 10
0.0104987367970466
 20
0.0104837643425242
 30
0.0
 40
0.0094838638854241
100
AcDbArc
 50
173.2406441673128
 51
270.0000000001934
1001
AcDbBlockRepETag
1070
     1
1071
        3
1005
10C4
  0
ARC
  5
10C5
330
FEB
100
AcDbEntity
  8
Vista
100
AcDbCircle
 10
0.0110245753859886
 20
0.0096688012202151
 30
0.0
 40
0.008684834291003
100
AcDbArc
 50
167.1518779515916
 51
266.5288030567311
1001
AcDbBlockRepETag
1070
     1
1071
        4
1005
10C5
  0
LINE
  5
10C6
330
FEB
100
AcDbEntity
  8
Vista
100
AcDbLine
 10
0.0021417852681793
 20
0.0059999004570841
 30
0.0
 11
0.0035422438405703
 21
0.0052595993301168
 31
0.0
1001
AcDbBlockRepETag
1070
     1
1071
        5
1005
10C6
  0
LWPOLYLINE
  5
10C7
330
FEB
100
AcDbEntity
  8
Vista
100
AcDbPolyline
 90
        6
 70
     0
 43
0.0
 10
-0.0000012632029893
 20
-0.0000000000126477
 42
0.1674163687838473
 10
0.0003641139388151
 20
0.0001254370196193
 42
-0.1204418495943024
 10
0.0035585668839531
 20
0.002205555161737
 42
1.087992653208241
 10
0.0035360325489933
 20
0.00256297800928
 42
0.0381093343277957
 10
0.000498736796942
 20
0.0022098778801194
 10
0.0011181350445213
 20
0.0116000112483619
1001
AcDbBlockRepETag
1070
     1
1071
        6
1005
10C7
  0
LINE
  5
10C8
330
FEB
100
AcDbEntity
  8
Vista
100
AcDbLine
 10
0.0007487367969929
 20
0.0022568144178194
 30
0.0
 11
0.0007487367969929
 21
0.0059999004570841
 31
0.0
1001
AcDbBlockRepETag
1070
     1
1071
        7
1005
10C8
  0
ARC
  5
10C9
330
FEB
100
AcDbEntity
  8
Vista
100
AcDbCircle
 10
0.0099728982081047
 20
0.0096688012202151
 30
0.0
 40
0.008684834291003
100
AcDbArc
 50
273.4711969436545
 51
12.84920570272593
1001
AcDbBlockRepETag
1070
     1
1071
        8
1005
10C9
  0
ARC
  5
10CA
330
FEB
100
AcDbEntity
  8
Vista
100
AcDbCircle
 10
0.0104987367970466
 20
0.0104837643425242
 30
0.0
 40
0.0094838638854241
100
AcDbArc
 50
270.0000000001923
 51
6.760508551422351
1001
AcDbBlockRepETag
1070
     1
1071
        9
1005
10CA
  0
ARC
  5
10CB
330
FEB
100
AcDbEntity
  8
Vista
100
AcDbCircle
 10
0.0104987367970466
 20
0.0104837643425242
 30
0.0
 40
0.0104838638854241
100
AcDbArc
 50
270.0000000001923
 51
310.6577600471345
1001
AcDbBlockRepETag
1070
     1
1071
       10
1005
10CB
  0
ARC
  5
10CC
330
FEB
100
AcDbEntity
  8
Vista
100
AcDbCircle
 10
0.0104987367970466
 20
0.0104837643425242
 30
0.0
 40
0.0104838638854241
100
AcDbArc
 50
229.3422399532511
 51
270.0000000001934
1001
AcDbBlockRepETag
1070
     1
1071
       11
1005
10CC
  0
LINE
  5
10CD
330
FEB
100
AcDbEntity
  8
Vista
100
AcDbLine
 10
0.0202487367969866
 20
0.0059999004571409
 30
0.0
 11
0.0204987367969807
 21
0.0022098778801762
 31
0.0
1001
AcDbBlockRepETag
1070
     1
1071
       12
1005
10CD
  0
LINE
  5
10CE
330
FEB
100
AcDbEntity
  8
Vista
100
AcDbLine
 10
0.0202487367969866
 20
0.0022568144178763
 30
0.0
 11
0.0202487367969866
 21
0.0116002036901364
 31
0.0
1001
AcDbBlockRepETag
1070
     1
1071
       13
1005
10CE
  0
ARC
  5
10CF
330
FEB
100
AcDbEntity
  8
Vista
100
AcDbCircle
 10
0.008152588671976
 20
0.0132154841897716
 30
0.0
 40
0.0140847949245492
100
AcDbArc
 50
310.6577600471345
 51
329.1831152169651
1001
AcDbBlockRepETag
1070
     1
1071
       14
1005
10CF
  0
ARC
  5
10D0
330
FEB
100
AcDbEntity
  8
Vista
100
AcDbCircle
 10
0.017435084485669
 20
0.0023852179221251
 30
0.0
 40
0.0001797034135256
100
AcDbArc
 50
81.56617699754743
 51
271.2187516830706
1001
AcDbBlockRepETag
1070
     1
1071
       15
1005
10D0
  0
ARC
  5
10D1
330
FEB
100
AcDbEntity
  8
Vista
100
AcDbCircle
 10
0.0147810850871792
 20
-0.0053690130053781
 30
0.0
 40
0.0080273344703467
100
AcDbArc
 50
43.23100722392323
 51
70.66466339396645
1001
AcDbBlockRepETag
1070
     1
1071
       16
1005
10D1
  0
ARC
  5
10D2
330
FEB
100
AcDbEntity
  8
Vista
100
AcDbCircle
 10
0.0166670905408637
 20
-0.0175095153721543
 30
0.0
 40
0.0200882050784421
100
AcDbArc
 50
79.00396312718872
 51
87.73375467656311
1001
AcDbBlockRepETag
1070
     1
1071
       17
1005
10D2
  0
ARC
  5
10D3
330
FEB
100
AcDbEntity
  8
Vista
100
AcDbCircle
 10
0.0209993624462754
 20
0.0005930374113916
 30
0.0
 40
0.0005930377539629
100
AcDbArc
 50
231.4503103357746
 51
271.531134397806
1001
AcDbBlockRepETag
1070
     1
1071
       18
1005
10D3
  0
LINE
  5
10D4
330
FEB
100
AcDbEntity
  8
Vista
100
AcDbLine
 10
0.0188556883257434
 20
0.0059999004571409
 30
0.0
 11
0.0174552297534092
 21
0.0052595993301736
 31
0.0
1001
AcDbBlockRepETag
1070
     1
1071
       19
1005
10D4
  0
ENDBLK
  5
1001
330
FEB
100
AcDbEntity
  8
0
100
AcDbBlockEnd
  0
BLOCK
  5
1516
330
14D6
100
AcDbEntity
  8
0
100
AcDbBlockBegin
  2
A$C135D5332
 70
     0
 10
0.0
 20
0.0
 30
0.0
  3
A$C135D5332
  1

  0
LWPOLYLINE
  5
14D7
330
14D6
100
AcDbEntity
  8
0
  6
Continuous
 62
     4
370
     0
100
AcDbPolyline
 90
        4
 70
     1
 43
0.0
 10
1.459560681558286
 20
6.847688894247426
 10
6.152185490139913
 20
6.847688894247426
 10
6.152185490139913
 20
8.834617410295322
 10
1.459560681558286
 20
8.834617410295322
  0
LINE
  5
14D8
330
14D6
100
AcDbEntity
  8
0
  6
Continuous
 62
     4
370
     0
100
AcDbLine
 10
2.274252337528196
 20
6.847688894247426
 30
0.0
 11
2.274252337528196
 21
8.085447461204751
 31
0.0
  0
LINE
  5
14D9
330
14D6
100
AcDbEntity
  8
0
  6
Continuous
 62
     4
370
     0
100
AcDbLine
 10
2.274252337528196
 20
8.085447461204751
 30
0.0
 11
5.370081453371199
 21
8.085447461204751
 31
0.0
  0
LINE
  5
14DA
330
14D6
100
AcDbEntity
  8
0
  6
Continuous
 62
     4
370
     0
100
AcDbLine
 10
5.370081453371199
 20
8.085447461204751
 30
0.0
 11
5.370081453371199
 21
6.847688894247426
 31
0.0
  0
LINE
  5
14DB
330
14D6
100
AcDbEntity
  8
0
  6
Continuous
 62
     4
370
     0
100
AcDbLine
 10
7.428929416310211
 20
0.0
 30
0.0
 11
0.0
 21
0.0
 31
0.0
  0
LINE
  5
14DC
330
14D6
100
AcDbEntity
  8
0
  6
Continuous
 62
     4
370
     0
100
AcDbLine
 10
0.0
 20
0.0
 30
0.0
 11
0.0
 21
14.7340498962148
 31
0.0
  0
LINE
  5
14DD
330
14D6
100
AcDbEntity
  8
0
  6
Continuous
 62
     4
370
     0
100
AcDbLine
 10
0.0
 20
14.7340498962148
 30
0.0
 11
8.891317055019044
 21
14.7340498962148
 31
0.0
  0
LWPOLYLINE
  5
14DE
330
14D6
100
AcDbEntity
  8
0
  6
Continuous
 62
     4
370
     0
100
AcDbPolyline
 90
        4
 70
     1
 43
0.0
 10
6.48058583503257
 20
6.847688894247426
 10
11.17321064361419
 20
6.847688894247426
 10
11.17321064361419
 20
8.834617410295322
 10
6.48058583503257
 20
8.834617410295322
  0
LINE
  5
14DF
330
14D6
100
AcDbEntity
  8
0
  6
Continuous
 62
     4
370
     0
100
AcDbLine
 10
7.29527749100248
 20
6.847688894247426
 30
0.0
 11
7.29527749100248
 21
8.085447461204751
 31
0.0
  0
LINE
  5
14E0
330
14D6
100
AcDbEntity
  8
0
  6
Continuous
 62
     4
370
     0
100
AcDbLine
 10
7.29527749100248
 20
8.085447461204751
 30
0.0
 11
10.39110660684548
 21
8.085447461204751
 31
0.0
  0
LINE
  5
14E1
330
14D6
100
AcDbEntity
  8
0
  6
Continuous
 62
     4
370
     0
100
AcDbLine
 10
10.39110660684548
 20
8.085447461204751
 30
0.0
 11
10.39110660684548
 21
6.847688894247426
 31
0.0
  0
LWPOLYLINE
  5
14E2
330
14D6
100
AcDbEntity
  8
0
  6
Continuous
 62
     4
370
     0
100
AcDbPolyline
 90
        4
 70
     1
 43
0.0
 10
11.50161098850685
 20
6.847688894247426
 10
16.19423579708848
 20
6.847688894247426
 10
16.19423579708848
 20
8.834617410295322
 10
11.50161098850685
 20
8.834617410295322
  0
LINE
  5
14E3
330
14D6
100
AcDbEntity
  8
0
  6
Continuous
 62
     4
370
     0
100
AcDbLine
 10
12.31630264447676
 20
6.847688894247426
 30
0.0
 11
12.31630264447676
 21
8.085447461204751
 31
0.0
  0
LINE
  5
14E4
330
14D6
100
AcDbEntity
  8
0
  6
Continuous
 62
     4
370
     0
100
AcDbLine
 10
12.31630264447676
 20
8.085447461204751
 30
0.0
 11
15.41213176031976
 21
8.085447461204751
 31
0.0
  0
LINE
  5
14E5
330
14D6
100
AcDbEntity
  8
0
  6
Continuous
 62
     4
370
     0
100
AcDbLine
 10
15.41213176031976
 20
8.085447461204751
 30
0.0
 11
15.41213176031976
 21
6.847688894247426
 31
0.0
  0
LWPOLYLINE
  5
14E6
330
14D6
100
AcDbEntity
  8
0
  6
Continuous
 62
     4
370
     0
100
AcDbPolyline
 90
        4
 70
     1
 43
0.0
 10
16.52263614198114
 20
6.847688894247426
 10
21.21526095056276
 20
6.847688894247426
 10
21.21526095056276
 20
8.834617410295322
 10
16.52263614198114
 20
8.834617410295322
  0
LINE
  5
14E7
330
14D6
100
AcDbEntity
  8
0
  6
Continuous
 62
     4
370
     0
100
AcDbLine
 10
17.33732779795104
 20
6.847688894247426
 30
0.0
 11
17.33732779795104
 21
8.085447461204751
 31
0.0
  0
LINE
  5
14E8
330
14D6
100
AcDbEntity
  8
0
  6
Continuous
 62
     4
370
     0
100
AcDbLine
 10
17.33732779795104
 20
8.085447461204751
 30
0.0
 11
20.43315691379405
 21
8.085447461204751
 31
0.0
  0
LINE
  5
14E9
330
14D6
100
AcDbEntity
  8
0
  6
Continuous
 62
     4
370
     0
100
AcDbLine
 10
20.43315691379405
 20
8.085447461204751
 30
0.0
 11
20.43315691379405
 21
6.847688894247426
 31
0.0
  0
LWPOLYLINE
  5
14EA
330
14D6
100
AcDbEntity
  8
0
  6
Continuous
 62
     4
370
     0
100
AcDbPolyline
 90
        4
 70
     1
 43
0.0
 10
21.54366129545542
 20
6.847688894247426
 10
26.23628610403705
 20
6.847688894247426
 10
26.23628610403705
 20
8.834617410295322
 10
21.54366129545542
 20
8.834617410295322
  0
LINE
  5
14EB
330
14D6
100
AcDbEntity
  8
0
  6
Continuous
 62
     4
370
     0
100
AcDbLine
 10
22.35835295142533
 20
6.847688894247426
 30
0.0
 11
22.35835295142533
 21
8.085447461204751
 31
0.0
  0
LINE
  5
14EC
330
14D6
100
AcDbEntity
  8
0
  6
Continuous
 62
     4
370
     0
100
AcDbLine
 10
22.35835295142533
 20
8.085447461204751
 30
0.0
 11
25.45418206726834
 21
8.085447461204751
 31
0.0
  0
LINE
  5
14ED
330
14D6
100
AcDbEntity
  8
0
  6
Continuous
 62
     4
370
     0
100
AcDbLine
 10
25.45418206726834
 20
8.085447461204751
 30
0.0
 11
25.45418206726834
 21
6.847688894247426
 31
0.0
  0
LWPOLYLINE
  5
14EE
330
14D6
100
AcDbEntity
  8
0
  6
Continuous
 62
     4
370
     0
100
AcDbPolyline
 90
        4
 70
     1
 43
0.0
 10
26.56468644892971
 20
6.847688894247426
 10
31.25731125751133
 20
6.847688894247426
 10
31.25731125751133
 20
8.834617410295322
 10
26.56468644892971
 20
8.834617410295322
  0
LINE
  5
14EF
330
14D6
100
AcDbEntity
  8
0
  6
Continuous
 62
     4
370
     0
100
AcDbLine
 10
27.37937810489962
 20
6.847688894247426
 30
0.0
 11
27.37937810489962
 21
8.085447461204751
 31
0.0
  0
LINE
  5
14F0
330
14D6
100
AcDbEntity
  8
0
  6
Continuous
 62
     4
370
     0
100
AcDbLine
 10
27.37937810489962
 20
8.085447461204751
 30
0.0
 11
30.47520722074262
 21
8.085447461204751
 31
0.0
  0
LINE
  5
14F1
330
14D6
100
AcDbEntity
  8
0
  6
Continuous
 62
     4
370
     0
100
AcDbLine
 10
30.47520722074262
 20
8.085447461204751
 30
0.0
 11
30.47520722074262
 21
6.847688894247426
 31
0.0
  0
LWPOLYLINE
  5
14F2
330
14D6
100
AcDbEntity
  8
0
  6
Continuous
 62
     4
370
     0
100
AcDbPolyline
 90
        4
 70
     1
 43
0.0
 10
31.58571160240399
 20
6.847688894247426
 10
36.27833641098562
 20
6.847688894247426
 10
36.27833641098562
 20
8.834617410295322
 10
31.58571160240399
 20
8.834617410295322
  0
LINE
  5
14F3
330
14D6
100
AcDbEntity
  8
0
  6
Continuous
 62
     4
370
     0
100
AcDbLine
 10
32.4004032583739
 20
6.847688894247426
 30
0.0
 11
32.4004032583739
 21
8.085447461204751
 31
0.0
  0
LINE
  5
14F4
330
14D6
100
AcDbEntity
  8
0
  6
Continuous
 62
     4
370
     0
100
AcDbLine
 10
32.4004032583739
 20
8.085447461204751
 30
0.0
 11
35.4962323742169
 21
8.085447461204751
 31
0.0
  0
LINE
  5
14F5
330
14D6
100
AcDbEntity
  8
0
  6
Continuous
 62
     4
370
     0
100
AcDbLine
 10
35.4962323742169
 20
8.085447461204751
 30
0.0
 11
35.4962323742169
 21
6.847688894247426
 31
0.0
  0
LWPOLYLINE
  5
14F6
330
14D6
100
AcDbEntity
  8
0
  6
Continuous
 62
     4
370
     0
100
AcDbPolyline
 90
        4
 70
     1
 43
0.0
 10
36.60673675587827
 20
6.847688894247426
 10
41.2993615644599
 20
6.847688894247426
 10
41.2993615644599
 20
8.834617410295322
 10
36.60673675587827
 20
8.834617410295322
  0
LINE
  5
14F7
330
14D6
100
AcDbEntity
  8
0
  6
Continuous
 62
     4
370
     0
100
AcDbLine
 10
37.42142841184818
 20
6.847688894247426
 30
0.0
 11
37.42142841184818
 21
8.085447461204751
 31
0.0
  0
LINE
  5
14F8
330
14D6
100
AcDbEntity
  8
0
  6
Continuous
 62
     4
370
     0
100
AcDbLine
 10
37.42142841184818
 20
8.085447461204751
 30
0.0
 11
40.51725752769118
 21
8.085447461204751
 31
0.0
  0
LINE
  5
14F9
330
14D6
100
AcDbEntity
  8
0
  6
Continuous
 62
     4
370
     0
100
AcDbLine
 10
40.51725752769118
 20
8.085447461204751
 30
0.0
 11
40.51725752769118
 21
6.847688894247426
 31
0.0
  0
LWPOLYLINE
  5
14FA
330
14D6
100
AcDbEntity
  8
0
  6
Continuous
 62
     4
370
     0
100
AcDbPolyline
 90
        4
 70
     1
 43
0.0
 10
41.62776190935256
 20
6.847688894247426
 10
46.32038671793418
 20
6.847688894247426
 10
46.32038671793418
 20
8.834617410295322
 10
41.62776190935256
 20
8.834617410295322
  0
LINE
  5
14FB
330
14D6
100
AcDbEntity
  8
0
  6
Continuous
 62
     4
370
     0
100
AcDbLine
 10
42.44245356532246
 20
6.847688894247426
 30
0.0
 11
42.44245356532246
 21
8.085447461204751
 31
0.0
  0
LINE
  5
14FC
330
14D6
100
AcDbEntity
  8
0
  6
Continuous
 62
     4
370
     0
100
AcDbLine
 10
42.44245356532246
 20
8.085447461204751
 30
0.0
 11
45.53828268116546
 21
8.085447461204751
 31
0.0
  0
LINE
  5
14FD
330
14D6
100
AcDbEntity
  8
0
  6
Continuous
 62
     4
370
     0
100
AcDbLine
 10
45.53828268116546
 20
8.085447461204751
 30
0.0
 11
45.53828268116546
 21
6.847688894247426
 31
0.0
  0
LWPOLYLINE
  5
14FE
330
14D6
100
AcDbEntity
  8
0
  6
Continuous
 62
     4
370
     0
100
AcDbPolyline
 90
        4
 70
     1
 43
0.0
 10
46.64878706282684
 20
6.847688894247426
 10
51.34141187140847
 20
6.847688894247426
 10
51.34141187140847
 20
8.834617410295322
 10
46.64878706282684
 20
8.834617410295322
  0
LINE
  5
14FF
330
14D6
100
AcDbEntity
  8
0
  6
Continuous
 62
     4
370
     0
100
AcDbLine
 10
47.46347871879675
 20
6.847688894247426
 30
0.0
 11
47.46347871879675
 21
8.085447461204751
 31
0.0
  0
LINE
  5
1500
330
14D6
100
AcDbEntity
  8
0
  6
Continuous
 62
     4
370
     0
100
AcDbLine
 10
47.46347871879675
 20
8.085447461204751
 30
0.0
 11
50.55930783463975
 21
8.085447461204751
 31
0.0
  0
LINE
  5
1501
330
14D6
100
AcDbEntity
  8
0
  6
Continuous
 62
     4
370
     0
100
AcDbLine
 10
50.55930783463975
 20
8.085447461204751
 30
0.0
 11
50.55930783463975
 21
6.847688894247426
 31
0.0
  0
LWPOLYLINE
  5
1502
330
14D6
100
AcDbEntity
  8
0
  6
Continuous
 62
     4
370
     0
100
AcDbPolyline
 90
        4
 70
     1
 43
0.0
 10
51.66981221630113
 20
6.847688894247426
 10
56.36243702488275
 20
6.847688894247426
 10
56.36243702488275
 20
8.834617410295322
 10
51.66981221630113
 20
8.834617410295322
  0
LINE
  5
1503
330
14D6
100
AcDbEntity
  8
0
  6
Continuous
 62
     4
370
     0
100
AcDbLine
 10
52.48450387227103
 20
6.847688894247426
 30
0.0
 11
52.48450387227103
 21
8.085447461204751
 31
0.0
  0
LINE
  5
1504
330
14D6
100
AcDbEntity
  8
0
  6
Continuous
 62
     4
370
     0
100
AcDbLine
 10
52.48450387227103
 20
8.085447461204751
 30
0.0
 11
55.58033298811404
 21
8.085447461204751
 31
0.0
  0
LINE
  5
1505
330
14D6
100
AcDbEntity
  8
0
  6
Continuous
 62
     4
370
     0
100
AcDbLine
 10
55.58033298811404
 20
8.085447461204751
 30
0.0
 11
55.58033298811404
 21
6.847688894247426
 31
0.0
  0
LWPOLYLINE
  5
1506
330
14D6
100
AcDbEntity
  8
0
  6
Continuous
 62
     4
370
     0
100
AcDbPolyline
 90
        4
 70
     1
 43
0.0
 10
56.6908373697754
 20
6.847688894247426
 10
61.38346217835703
 20
6.847688894247426
 10
61.38346217835703
 20
8.834617410295322
 10
56.6908373697754
 20
8.834617410295322
  0
LINE
  5
1507
330
14D6
100
AcDbEntity
  8
0
  6
Continuous
 62
     4
370
     0
100
AcDbLine
 10
57.50552902574532
 20
6.847688894247426
 30
0.0
 11
57.50552902574532
 21
8.085447461204751
 31
0.0
  0
LINE
  5
1508
330
14D6
100
AcDbEntity
  8
0
  6
Continuous
 62
     4
370
     0
100
AcDbLine
 10
57.50552902574532
 20
8.085447461204751
 30
0.0
 11
60.60135814158832
 21
8.085447461204751
 31
0.0
  0
LINE
  5
1509
330
14D6
100
AcDbEntity
  8
0
  6
Continuous
 62
     4
370
     0
100
AcDbLine
 10
60.60135814158832
 20
8.085447461204751
 30
0.0
 11
60.60135814158832
 21
6.847688894247426
 31
0.0
  0
LWPOLYLINE
  5
150A
330
14D6
100
AcDbEntity
  8
0
  6
Continuous
 62
     4
370
     0
100
AcDbPolyline
 90
        4
 70
     1
 43
0.0
 10
61.71186252324969
 20
6.847688894247426
 10
66.40448733183132
 20
6.847688894247426
 10
66.40448733183132
 20
8.834617410295322
 10
61.71186252324969
 20
8.834617410295322
  0
LINE
  5
150B
330
14D6
100
AcDbEntity
  8
0
  6
Continuous
 62
     4
370
     0
100
AcDbLine
 10
62.5265541792196
 20
6.847688894247426
 30
0.0
 11
62.5265541792196
 21
8.085447461204751
 31
0.0
  0
LINE
  5
150C
330
14D6
100
AcDbEntity
  8
0
  6
Continuous
 62
     4
370
     0
100
AcDbLine
 10
62.5265541792196
 20
8.085447461204751
 30
0.0
 11
65.62238329506261
 21
8.085447461204751
 31
0.0
  0
LINE
  5
150D
330
14D6
100
AcDbEntity
  8
0
  6
Continuous
 62
     4
370
     0
100
AcDbLine
 10
65.62238329506261
 20
8.085447461204751
 30
0.0
 11
65.62238329506261
 21
6.847688894247426
 31
0.0
  0
LWPOLYLINE
  5
150E
330
14D6
100
AcDbEntity
  8
0
  6
Continuous
 62
     4
370
     0
100
AcDbPolyline
 90
        4
 70
     1
 43
0.0
 10
66.73288767672397
 20
6.847688894247426
 10
71.4255124853056
 20
6.847688894247426
 10
71.4255124853056
 20
8.834617410295322
 10
66.73288767672397
 20
8.834617410295322
  0
LINE
  5
150F
330
14D6
100
AcDbEntity
  8
0
  6
Continuous
 62
     4
370
     0
100
AcDbLine
 10
67.54757933269388
 20
6.847688894247426
 30
0.0
 11
67.54757933269388
 21
8.085447461204751
 31
0.0
  0
LINE
  5
1510
330
14D6
100
AcDbEntity
  8
0
  6
Continuous
 62
     4
370
     0
100
AcDbLine
 10
67.54757933269388
 20
8.085447461204751
 30
0.0
 11
70.64340844853688
 21
8.085447461204751
 31
0.0
  0
LINE
  5
1511
330
14D6
100
AcDbEntity
  8
0
  6
Continuous
 62
     4
370
     0
100
AcDbLine
 10
70.64340844853688
 20
8.085447461204751
 30
0.0
 11
70.64340844853688
 21
6.847688894247426
 31
0.0
  0
LWPOLYLINE
  5
1512
330
14D6
100
AcDbEntity
  8
0
  6
Continuous
 62
     4
370
     0
100
AcDbPolyline
 90
        4
 70
     1
 43
0.0
 10
71.75391283019826
 20
6.847688894247426
 10
76.44653763877989
 20
6.847688894247426
 10
76.44653763877989
 20
8.834617410295322
 10
71.75391283019826
 20
8.834617410295322
  0
LINE
  5
1513
330
14D6
100
AcDbEntity
  8
0
  6
Continuous
 62
     4
370
     0
100
AcDbLine
 10
72.56860448616817
 20
6.847688894247426
 30
0.0
 11
72.56860448616817
 21
8.085447461204751
 31
0.0
  0
LINE
  5
1514
330
14D6
100
AcDbEntity
  8
0
  6
Continuous
 62
     4
370
     0
100
AcDbLine
 10
72.56860448616817
 20
8.085447461204751
 30
0.0
 11
75.66443360201117
 21
8.085447461204751
 31
0.0
  0
LINE
  5
1515
330
14D6
100
AcDbEntity
  8
0
  6
Continuous
 62
     4
370
     0
100
AcDbLine
 10
75.66443360201117
 20
8.085447461204751
 30
0.0
 11
75.66443360201117
 21
6.847688894247426
 31
0.0
  0
ENDBLK
  5
1517
330
14D6
100
AcDbEntity
  8
0
100
AcDbBlockEnd
  0
BLOCK
  5
17C8
330
17BD
100
AcDbEntity
  8
0
100
AcDbBlockBegin
  2
*D21
 70
     1
 10
0.0
 20
0.0
 30
0.0
  3
*D21
  1

  0
LINE
  5
17CB
330
17BD
100
AcDbEntity
  8
Dimensione
 62
     5
370
    -2
100
AcDbLine
 10
0.0713366526586395
 20
0.1275901842697515
 30
0.0
 11
0.0713366526586395
 21
0.1045502408792916
 31
0.0
  0
LINE
  5
17CC
330
17BD
100
AcDbEntity
  8
Dimensione
 62
     5
370
    -2
100
AcDbLine
 10
0.1025128243567604
 20
0.1923451668968021
 30
0.0
 11
0.1025128243567604
 21
0.1045502408792916
 31
0.0
  0
LINE
  5
17CD
330
17BD
100
AcDbEntity
  8
Dimensione
 62
     5
370
    -2
100
AcDbLine
 10
0.0713366526586395
 20
0.1047302408792916
 30
0.0
 11
0.0767818813648428
 21
0.1047302408792916
 31
0.0
  0
LINE
  5
17CE
330
17BD
100
AcDbEntity
  8
Dimensione
 62
     5
370
    -2
100
AcDbLine
 10
0.1025128243567604
 20
0.1047302408792916
 30
0.0
 11
0.0970675956505571
 21
0.1047302408792916
 31
0.0
  0
INSERT
  5
17CF
330
17BD
100
AcDbEntity
  8
Dimensione
 62
     5
370
    -2
100
AcDbBlockReference
  2
_ArchTick
 10
0.0713366526586395
 20
0.1047302408792916
 30
0.0
 41
0.0015
 42
0.0015
 43
0.0015
 50
180.0
  0
INSERT
  5
17D0
330
17BD
100
AcDbEntity
  8
Dimensione
 62
     5
370
    -2
100
AcDbBlockReference
  2
_ArchTick
 10
0.1025128243567604
 20
0.1047302408792916
 30
0.0
 41
0.0015
 42
0.0015
 43
0.0015
  0
MTEXT
  5
17D1
330
17BD
100
AcDbEntity
  8
Dimensione
 62
     4
100
AcDbMText
 10
0.0869247385076999
 20
0.1047302408792916
 30
0.0
 40
0.003
 41
0.0
 71
     5
 72
     1
  1
\A1;70 mm
  7
ROMANS
 73
     1
 44
1.0
1001
ACAD
1000
MTEXTBEGIN
1070
    73
1070
     1
1070
    44
1040
1.0
1070
    74
1070
     0
1000
MTEXTEND
  0
POINT
  5
17D2
330
17BD
100
AcDbEntity
  8
Defpoints
 62
     0
100
AcDbPoint
 10
0.0713366526586395
 20
0.1276526842697515
 30
0.0
  0
POINT
  5
17D3
330
17BD
100
AcDbEntity
  8
Defpoints
 62
     0
100
AcDbPoint
 10
0.1025128243567604
 20
0.1924076668968021
 30
0.0
  0
POINT
  5
17D4
330
17BD
100
AcDbEntity
  8
Defpoints
 62
     0
100
AcDbPoint
 10
0.1025128243567604
 20
0.1047302408792916
 30
0.0
  0
ENDBLK
  5
17C9
330
17BD
100
AcDbEntity
  8
0
100
AcDbBlockEnd
  0
BLOCK
  5
17FC
330
17F1
100
AcDbEntity
  8
0
100
AcDbBlockBegin
  2
*D23
 70
     1
 10
0.0
 20
0.0
 30
0.0
  3
*D23
  1

  0
LINE
  5
17FF
330
17F1
100
AcDbEntity
  8
Dimensione
 62
     5
370
    -2
100
AcDbLine
 10
0.0748353205044876
 20
0.1276526842697515
 30
0.0
 11
0.1304582170689909
 21
0.1276526842697515
 31
0.0
  0
LINE
  5
1800
330
17F1
100
AcDbEntity
  8
Dimensione
 62
     5
370
    -2
100
AcDbLine
 10
0.1025753243567604
 20
0.1976960885707976
 30
0.0
 11
0.1304582170689909
 21
0.1976960885707976
 31
0.0
  0
LINE
  5
1801
330
17F1
100
AcDbEntity
  8
Dimensione
 62
     5
370
    -2
100
AcDbLine
 10
0.1302782170689909
 20
0.1276526842697515
 30
0.0
 11
0.1302782170689909
 21
0.1591743864202746
 31
0.0
  0
LINE
  5
1802
330
17F1
100
AcDbEntity
  8
Dimensione
 62
     5
370
    -2
100
AcDbLine
 10
0.1302782170689909
 20
0.1976960885707976
 30
0.0
 11
0.1302782170689909
 21
0.1661743864202746
 31
0.0
  0
INSERT
  5
1803
330
17F1
100
AcDbEntity
  8
Dimensione
 62
     5
370
    -2
100
AcDbBlockReference
  2
_ArchTick
 10
0.1302782170689909
 20
0.1276526842697515
 30
0.0
 41
0.0015
 42
0.0015
 43
0.0015
 50
270.0
  0
INSERT
  5
1804
330
17F1
100
AcDbEntity
  8
Dimensione
 62
     5
370
    -2
100
AcDbBlockReference
  2
_ArchTick
 10
0.1302782170689909
 20
0.1976960885707976
 30
0.0
 41
0.0015
 42
0.0015
 43
0.0015
 50
90.0
  0
MTEXT
  5
1805
330
17F1
100
AcDbEntity
  8
Dimensione
 62
     4
100
AcDbMText
 10
0.1302782170689909
 20
0.1626743864202746
 30
0.0
 40
0.003
 41
0.0
 71
     5
 72
     1
  1
\A1;140 mm
  7
ROMANS
 73
     1
 44
1.0
1001
ACAD
1000
MTEXTBEGIN
1070
    73
1070
     1
1070
    44
1040
1.0
1070
    74
1070
     0
1000
MTEXTEND
  0
POINT
  5
1806
330
17F1
100
AcDbEntity
  8
Defpoints
 62
     0
100
AcDbPoint
 10
0.0747728205044876
 20
0.1276526842697515
 30
0.0
  0
POINT
  5
1807
330
17F1
100
AcDbEntity
  8
Defpoints
 62
     0
100
AcDbPoint
 10
0.1025128243567604
 20
0.1976960885707976
 30
0.0
  0
POINT
  5
1808
330
17F1
100
AcDbEntity
  8
Defpoints
 62
     0
100
AcDbPoint
 10
0.1302782170689909
 20
0.1976960885707976
 30
0.0
  0
ENDBLK
  5
17FD
330
17F1
100
AcDbEntity
  8
0
100
AcDbBlockEnd
  0
BLOCK
  5
1AE2
330
1AD7
100
AcDbEntity
  8
0
100
AcDbBlockBegin
  2
*D27
 70
     1
 10
0.0
 20
0.0
 30
0.0
  3
*D27
  1

  0
LINE
  5
1AE5
330
1AD7
100
AcDbEntity
  8
Dimensione
 62
     5
370
    -2
100
AcDbLine
 10
0.0756660145509992
 20
0.1455980355002708
 30
0.0
 11
0.1280703665473194
 21
0.1455980355002708
 31
0.0
  0
LINE
  5
1AE6
330
1AD7
100
AcDbEntity
  8
Dimensione
 62
     5
370
    -2
100
AcDbLine
 10
0.1139215775838474
 20
0.1968480355002739
 30
0.0
 11
0.1280703665473195
 21
0.1968480355002739
 31
0.0
  0
LINE
  5
1AE7
330
1AD7
100
AcDbEntity
  8
Dimensione
 62
     5
370
    -2
100
AcDbLine
 10
0.1278903665473194
 20
0.1455980355002708
 30
0.0
 11
0.1278903665473194
 21
0.1677230355002724
 31
0.0
  0
LINE
  5
1AE8
330
1AD7
100
AcDbEntity
  8
Dimensione
 62
     5
370
    -2
100
AcDbLine
 10
0.1278903665473195
 20
0.1968480355002739
 30
0.0
 11
0.1278903665473194
 21
0.1747230355002724
 31
0.0
  0
INSERT
  5
1AE9
330
1AD7
100
AcDbEntity
  8
Dimensione
 62
     5
370
    -2
100
AcDbBlockReference
  2
_ArchTick
 10
0.1278903665473194
 20
0.1455980355002708
 30
0.0
 41
0.0015
 42
0.0015
 43
0.0015
 50
270.0
  0
INSERT
  5
1AEA
330
1AD7
100
AcDbEntity
  8
Dimensione
 62
     5
370
    -2
100
AcDbBlockReference
  2
_ArchTick
 10
0.1278903665473195
 20
0.1968480355002739
 30
0.0
 41
0.0015
 42
0.0015
 43
0.0015
 50
90.0
  0
MTEXT
  5
1AEB
330
1AD7
100
AcDbEntity
  8
Dimensione
 62
     4
100
AcDbMText
 10
0.1278903665473194
 20
0.1712230355002724
 30
0.0
 40
0.003
 41
0.0
 71
     5
 72
     1
  1
\A1;205 mm
  7
ROMANS
 73
     1
 44
1.0
1001
ACAD
1000
MTEXTBEGIN
1070
    73
1070
     1
1070
    44
1040
1.0
1070
    74
1070
     0
1000
MTEXTEND
  0
POINT
  5
1AEC
330
1AD7
100
AcDbEntity
  8
Defpoints
 62
     0
100
AcDbPoint
 10
0.0756035145509992
 20
0.1455980355002708
 30
0.0
  0
POINT
  5
1AED
330
1AD7
100
AcDbEntity
  8
Defpoints
 62
     0
100
AcDbPoint
 10
0.1138590775838475
 20
0.1968480355002739
 30
0.0
  0
POINT
  5
1AEE
330
1AD7
100
AcDbEntity
  8
Defpoints
 62
     0
100
AcDbPoint
 10
0.1278903665473195
 20
0.1968480355002739
 30
0.0
  0
ENDBLK
  5
1AE3
330
1AD7
100
AcDbEntity
  8
0
100
AcDbBlockEnd
  0
BLOCK
  5
1AFC
330
1AF1
100
AcDbEntity
  8
0
100
AcDbBlockBegin
  2
*D28
 70
     1
 10
0.0
 20
0.0
 30
0.0
  3
*D28
  1

  0
LINE
  5
1AFF
330
1AF1
100
AcDbEntity
  8
Dimensione
 62
     5
370
    -2
100
AcDbLine
 10
0.0718201427107567
 20
0.1455355355002708
 30
0.0
 11
0.0718201427107567
 21
0.1211305120509397
 31
0.0
  0
LINE
  5
1B00
330
1AF1
100
AcDbEntity
  8
Dimensione
 62
     5
370
    -2
100
AcDbLine
 10
0.1138590775838475
 20
0.1929123181812627
 30
0.0
 11
0.1138590775838475
 21
0.1211305120509397
 31
0.0
  0
LINE
  5
1B01
330
1AF1
100
AcDbEntity
  8
Dimensione
 62
     5
370
    -2
100
AcDbLine
 10
0.0718201427107567
 20
0.1213105120509397
 30
0.0
 11
0.0814824672901592
 21
0.1213105120509397
 31
0.0
  0
LINE
  5
1B02
330
1AF1
100
AcDbEntity
  8
Dimensione
 62
     5
370
    -2
100
AcDbLine
 10
0.1138590775838475
 20
0.1213105120509397
 30
0.0
 11
0.1041967530044449
 21
0.1213105120509397
 31
0.0
  0
INSERT
  5
1B03
330
1AF1
100
AcDbEntity
  8
Dimensione
 62
     5
370
    -2
100
AcDbBlockReference
  2
_ArchTick
 10
0.0718201427107567
 20
0.1213105120509397
 30
0.0
 41
0.0015
 42
0.0015
 43
0.0015
 50
180.0
  0
INSERT
  5
1B04
330
1AF1
100
AcDbEntity
  8
Dimensione
 62
     5
370
    -2
100
AcDbBlockReference
  2
_ArchTick
 10
0.1138590775838475
 20
0.1213105120509397
 30
0.0
 41
0.0015
 42
0.0015
 43
0.0015
  0
MTEXT
  5
1B05
330
1AF1
100
AcDbEntity
  8
Dimensione
 62
     4
100
AcDbMText
 10
0.0928396101473021
 20
0.1213105120509397
 30
0.0
 40
0.003
 41
0.0
 71
     5
 72
     1
  1
\A1;145 mm
  7
ROMANS
 73
     1
 44
1.0
1001
ACAD
1000
MTEXTBEGIN
1070
    73
1070
     1
1070
    44
1040
1.0
1070
    74
1070
     0
1000
MTEXTEND
  0
POINT
  5
1B06
330
1AF1
100
AcDbEntity
  8
Defpoints
 62
     0
100
AcDbPoint
 10
0.0718201427107567
 20
0.1455980355002708
 30
0.0
  0
POINT
  5
1B07
330
1AF1
100
AcDbEntity
  8
Defpoints
 62
     0
100
AcDbPoint
 10
0.1138590775838475
 20
0.1929748181812627
 30
0.0
  0
POINT
  5
1B08
330
1AF1
100
AcDbEntity
  8
Defpoints
 62
     0
100
AcDbPoint
 10
0.1138590775838475
 20
0.1213105120509397
 30
0.0
  0
ENDBLK
  5
1AFD
330
1AF1
100
AcDbEntity
  8
0
100
AcDbBlockEnd
  0
ENDSEC
  0
SECTION
  2
ENTITIES
  0
LINE
  5
D
330
2
100
AcDbEntity
  8
Table
100
AcDbLine
 10
0.02
 20
0.02
 30
0.0
 11
0.4
 21
0.02
 31
0.0
  0
LINE
  5
10
330
2
100
AcDbEntity
  8
Table
100
AcDbLine
 10
0.4
 20
0.02
 30
0.0
 11
0.4
 21
0.2769999999999999
 31
0.0
  0
LINE
  5
11
330
2
100
AcDbEntity
  8
Table
100
AcDbLine
 10
0.4
 20
0.2769999999999999
 30
0.0
 11
0.02
 21
0.277
 31
0.0
  0
LINE
  5
12
330
2
100
AcDbEntity
  8
Table
100
AcDbLine
 10
0.02
 20
0.277
 30
0.0
 11
0.02
 21
0.02
 31
0.0
  0
LINE
  5
13
330
2
100
AcDbEntity
  8
Table
 62
     2
100
AcDbLine
 10
0.015
 20
0.015
 30
0.0
 11
0.4050000000000001
 21
0.015
 31
0.0
  0
LINE
  5
14
330
2
100
AcDbEntity
  8
Table
 62
     2
100
AcDbLine
 10
0.4050000000000001
 20
0.015
 30
0.0
 11
0.4050000000000001
 21
0.2819999999999998
 31
0.0
  0
LINE
  5
15
330
2
100
AcDbEntity
  8
Table
 62
     2
100
AcDbLine
 10
0.4050000000000001
 20
0.2819999999999998
 30
0.0
 11
0.0149999999999999
 21
0.282
 31
0.0
  0
LINE
  5
16
330
2
100
AcDbEntity
  8
Table
 62
     2
100
AcDbLine
 10
0.0149999999999999
 20
0.282
 30
0.0
 11
0.015
 21
0.015
 31
0.0
  0
LINE
  5
17
330
2
100
AcDbEntity
  8
Table
100
AcDbLine
 10
0.21
 20
0.2769999999999999
 30
0.0
 11
0.21
 21
0.2532994226089223
 31
0.0
  0
LINE
  5
1D
330
2
100
AcDbEntity
  8
Table
100
AcDbLine
 10
0.02
 20
0.0528099428524846
 30
0.0
 11
0.4
 21
0.0528099428524846
 31
0.0
  0
MTEXT
  5
1E
330
2
100
AcDbEntity
  8
Text
100
AcDbMText
 10
0.1133313047219695
 20
0.2610796890771976
 30
0.0
 40
0.003
 41
0.1103605678262056
 71
     2
 72
     5
  1
{\fTimes New Roman|b0|i0|c0|p18;Le cornici estruse per soffitti \fTimes New Roman|b0|i1|c0|p18;      Extruded ceilings moulding}
 73
     1
 44
1.0
1001
ACAD
1000
ACAD_MTEXT_DEFINED_HEIGHT_BEGIN
1070
    46
1040
0.0141952763113409
1000
ACAD_MTEXT_DEFINED_HEIGHT_END
1000
MTEXTBEGIN
1070
    73
1070
     1
1070
    44
1040
1.0
1070
    74
1070
     0
1000
MTEXTEND
  0
TEXT
  5
1F
330
2
100
AcDbEntity
  8
Text
100
AcDbText
 10
0.2180556919891047
 20
0.269976982173197
 30
0.0
 40
0.003
  1
Cornice - Moulding : H 205 x 145 mm
  7
ROMANS
100
AcDbText
  0
TEXT
  5
21
330
2
100
AcDbEntity
  8
Text
100
AcDbText
 10
0.2184542410678115
 20
0.2576348370183962
 30
0.0
 40
0.003
  1
File : E - F4L
  7
ROMANS
100
AcDbText
  0
LINE
  5
22
330
2
100
AcDbEntity
  8
Table
100
AcDbLine
 10
0.4
 20
0.2654452889427402
 30
0.0
 11
0.02
 21
0.2654452889427403
 31
0.0
  0
LINE
  5
23
330
2
100
AcDbEntity
  8
Table
100
AcDbLine
 10
0.4
 20
0.2532994226089223
 30
0.0
 11
0.02
 21
0.2532994226089225
 31
0.0
  0
LINE
  5
24
330
2
100
AcDbEntity
  8
Table
100
AcDbLine
 10
0.21
 20
0.0528099428524846
 30
0.0
 11
0.21
 21
0.02
 31
0.0
  0
TEXT
  5
25
330
2
100
AcDbEntity
  8
Text
100
AcDbText
 10
0.0947789320547719
 20
0.2687784133392506
 30
0.0
 40
0.005
  1
EUROSTYL
  7
style1
 72
     1
 11
0.1140561490699125
 21
0.2687784133392506
 31
0.0
100
AcDbText
  0
TEXT
  5
27
330
2
100
AcDbEntity
  8
Text
100
AcDbText
 10
0.348385910088107
 20
0.1480913719955395
 30
0.0
 40
0.005
  1
scala 1:4
  7
Arial
100
AcDbText
  0
MTEXT
  5
10F
102
{ACAD_XDICTIONARY
360
1B18
102
}
330
2
100
AcDbEntity
  8
Text
100
AcDbMText
 10
0.305
 20
0.0471738284815141
 30
0.0
 40
0.005
 41
0.1900000000000001
 71
     2
 72
     5
  3
{\fTimes New Roman|b0|i0|c238|p18;\H1.6x;\C4;Bovelacci\P\H0.4375x;\T0.95;via del Commercio, 5  47100 Forli - Italy  \fTimes New Roman|b0|i0|c0|p18;\P\fTimes New Roman|b0|i0|c238|p18;tel.+39-0543721386  fax +39-0543721127\fTimes New Roman|b0|i0|c0|p18
  1
; \fTimes New Roman|b0|i0|c238|p18;www.bovelacci.it\fTimes New Roman|b0|i0|c0|p18; \fTimes New Roman|b0|i0|c238|p18;e-mail: bovelacci@bovelacci\fTimes New Roman|b0|i0|c0|p18;.it}
 73
     1
 44
1.0
1001
ACAD
1000
ACAD_MTEXT_DEFINED_HEIGHT_BEGIN
1070
    46
1040
0.0271738284815141
1000
ACAD_MTEXT_DEFINED_HEIGHT_END
1000
MTEXTBEGIN
1070
    73
1070
     1
1070
    44
1040
1.0
1070
    74
1070
     0
1000
MTEXTEND
  0
MTEXT
  5
110
330
2
100
AcDbEntity
  8
Text
100
AcDbMText
 10
0.0219676065851835
 20
0.0500313976452307
 30
0.0
 40
0.002
 41
0.1863544980601608
 71
     1
 72
     5
  3
{\fArial|b0|i0|c0|p34;\H1.25x;Le caratteristiche tecniche indicate vengono fornite a titolo indicativo e potranno essere modificate senza preavviso. Non devono quindi essere considerate a scopo di specifica.\P\fArial|b0|i1|c0|p34;The given values are
  3
 indicative and can be changed without notice. They cannot be considered like a state.\PThis lealfet and designs embodied within are protected by copyright law and international treaties. Unauthorized repro- duction of the leaflet or any portion of i
  1
t or reproduction of any of the designs embodied therein may result in severe civil penalties and will be prosecuted to the maximum.\PAll right reserved, Bovelacci Forlì Italy.}
 73
     1
 44
1.0
1001
ACAD
1000
MTEXTBEGIN
1070
    73
1070
     1
1070
    44
1040
1.0
1070
    74
1070
     0
1000
MTEXTEND
  0
TEXT
  5
1CA
330
2
100
AcDbEntity
  8
Text
100
AcDbText
 10
0.0879440355147445
 20
0.0732117799103868
 30
0.0
 40
0.005
  1
scala 1:4
  7
Arial
100
AcDbText
  0
HATCH
  5
11A4
330
2
100
AcDbEntity
  8
Sezione
100
AcDbHatch
 10
0.0
 20
0.0
 30
0.0
210
0.0
220
0.0
230
1.0
  2
ANSI31
 70
     0
 71
     0
 91
        1
 92
        1
 93
        6
 72
     1
 10
0.1165395786694034
 20
0.1977338613253694
 11
0.1165395786694034
 21
0.2171926373321501
 72
     1
 10
0.1165395786694034
 20
0.2171926373321501
 11
0.0514052499658299
 21
0.2171926373321501
 72
     1
 10
0.0514052499658299
 20
0.2171926373321501
 11
0.0514052499658299
 21
0.1312209793498775
 72
     1
 10
0.0514052499658299
 20
0.1312209793498775
 11
0.0705369185267676
 21
0.1312209793498775
 72
     1
 10
0.0705369185267676
 20
0.1312209793498775
 11
0.0705369185267676
 21
0.1977338613253695
 72
     1
 10
0.0705369185267676
 20
0.1977338613253695
 11
0.1165395786694034
 21
0.1977338613253694
 97
        0
 75
     0
 76
     1
 52
0.0
 41
0.002
 77
     0
 78
     1
 53
45.0
 43
-0.034423483693838
 44
-0.0050088461078311
 45
-0.0044901280605346
 46
0.0044901280605346
 79
     0
 98
        1
 10
0.0801563630625538
 20
0.204924370002114
1001
ACAD
1010
0.0
1020
0.0
1030
0.0
  0
LINE
  5
11A5
330
2
100
AcDbEntity
  8
Sezione
100
AcDbLine
 10
0.0705369185267676
 20
0.1309118849320807
 30
0.0
 11
0.0705369185267676
 21
0.1977338613253695
 31
0.0
  0
LINE
  5
11A6
330
2
100
AcDbEntity
  8
Sezione
100
AcDbLine
 10
0.0705369185267676
 20
0.1977338613253695
 30
0.0
 11
0.1165395786694034
 21
0.1977338613253694
 31
0.0
  0
LWPOLYLINE
  5
181F
102
{ACAD_REACTORS
330
1AEF
330
1B09
102
}
330
2
100
AcDbEntity
  8
Profilo
370
     0
100
AcDbPolyline
 90
       22
 70
   129
 43
0.0
 10
0.0718201427107567
 20
0.1455980355002708
 10
0.0756035145509992
 20
0.1455980355002708
 10
0.0756035145509992
 20
0.1464869979317669
 42
-0.0818392894507497
 10
0.076268738636835
 20
0.1505239870071406
 42
0.1942578405675501
 10
0.0761737066245737
 20
0.1521862770062227
 42
-0.3354231745972577
 10
0.0766013506797529
 20
0.1542285182261764
 42
0.2863619953631
 10
0.0784544726998328
 20
0.1603077492389246
 42
-0.4612985111461664
 10
0.0789771487672732
 20
0.1610676531155235
 10
0.0807352398846044
 20
0.1614001109718543
 10
0.0806877238784702
 20
0.1645822087241271
 10
0.0801175318049027
 20
0.1652471244367888
 42
-0.3087716061417792
 10
0.1056130312063681
 20
0.1901324249692422
 42
0.0352906088194562
 10
0.1119991775485127
 20
0.1917282228231158
 10
0.1119991775485127
 20
0.1929748181812627
 10
0.1138590775838475
 20
0.1929748181812627
 10
0.1138590775838475
 20
0.1968480355002739
 10
0.1138590775838475
 20
0.1968480355002739
 10
0.105669352308106
 20
0.1968480355002739
 10
0.105669352308106
 20
0.1940956443663282
 42
0.2189350528949022
 10
0.0789296494038334
 20
0.1755661132120281
 10
0.0739538672397452
 20
0.1545244643030301
 10
0.0718201427107567
 20
0.1545244643030301
  0
ARC
  5
194C
330
2
100
AcDbEntity
  8
Vista
370
     0
100
AcDbCircle
 10
0.1760966913674949
 20
0.0869712516038358
 30
0.0
 40
0.0049573438595816
100
AcDbArc
 50
167.3715016536111
 51
13.77133091695136
  0
ARC
  5
194D
330
2
100
AcDbEntity
  8
Vista
370
     0
100
AcDbCircle
 10
0.1760199993212063
 20
0.0861597906620954
 30
0.0
 40
0.0032655324904828
100
AcDbArc
 50
150.6987732806299
 51
30.72192517075648
  0
ARC
  5
194E
330
2
100
AcDbEntity
  8
Vista
370
     0
100
AcDbCircle
 10
0.187431262436612
 20
0.0869712516038358
 30
0.0
 40
0.0049573438595816
100
AcDbArc
 50
167.3715016536111
 51
13.77133091695136
  0
ARC
  5
194F
330
2
100
AcDbEntity
  8
Vista
370
     0
100
AcDbCircle
 10
0.1873545703903198
 20
0.0861597906620954
 30
0.0
 40
0.0032655324904828
100
AcDbArc
 50
150.6987732806299
 51
30.72192517075648
  0
ARC
  5
1950
330
2
100
AcDbEntity
  8
Vista
370
     0
100
AcDbCircle
 10
0.1987658335057255
 20
0.0869712516038358
 30
0.0
 40
0.0049573438595816
100
AcDbArc
 50
167.3715016536111
 51
13.77133091695136
  0
ARC
  5
1951
330
2
100
AcDbEntity
  8
Vista
370
     0
100
AcDbCircle
 10
0.1986891414594368
 20
0.0861597906620954
 30
0.0
 40
0.0032655324904828
100
AcDbArc
 50
150.6987732806299
 51
30.72192517075648
  0
ARC
  5
1952
330
2
100
AcDbEntity
  8
Vista
370
     0
100
AcDbCircle
 10
0.2101004045748426
 20
0.0869712516038358
 30
0.0
 40
0.0049573438595816
100
AcDbArc
 50
167.3715016536111
 51
13.77133091695136
  0
ARC
  5
1953
330
2
100
AcDbEntity
  8
Vista
370
     0
100
AcDbCircle
 10
0.2100237125285504
 20
0.0861597906620954
 30
0.0
 40
0.0032655324904828
100
AcDbArc
 50
150.6987732806299
 51
30.72192517075648
  0
ARC
  5
1954
330
2
100
AcDbEntity
  8
Vista
370
     0
100
AcDbCircle
 10
0.2214349756439561
 20
0.0869712516038358
 30
0.0
 40
0.0049573438595816
100
AcDbArc
 50
167.3715016536111
 51
281.3428080666522
  0
ARC
  5
1955
330
2
100
AcDbEntity
  8
Vista
370
     0
100
AcDbCircle
 10
0.2213582835976674
 20
0.0861597906620954
 30
0.0
 40
0.0032655324904828
100
AcDbArc
 50
150.6987732806299
 51
288.7875291852434
  0
ARC
  5
1956
330
2
100
AcDbEntity
  8
Vista
370
     0
100
AcDbCircle
 10
0.2327695467130732
 20
0.0869712516038358
 30
0.0
 40
0.0049573438595816
100
AcDbArc
 50
310.3232596869515
 51
13.77133091695136
  0
ARC
  5
1958
330
2
100
AcDbEntity
  8
Vista
370
     0
100
AcDbCircle
 10
0.2441041177821867
 20
0.0869712516038358
 30
0.0
 40
0.0049573438595816
100
AcDbArc
 50
167.3715016536111
 51
13.77133091695136
  0
ARC
  5
1959
330
2
100
AcDbEntity
  8
Vista
370
     0
100
AcDbCircle
 10
0.244027425735898
 20
0.0861597906620954
 30
0.0
 40
0.0032655324904828
100
AcDbArc
 50
150.6987732806299
 51
30.72192517075648
  0
ARC
  5
195A
330
2
100
AcDbEntity
  8
Vista
370
     0
100
AcDbCircle
 10
0.2554386888513037
 20
0.0869712516038358
 30
0.0
 40
0.0049573438595816
100
AcDbArc
 50
167.3715016536111
 51
13.77133091695136
  0
ARC
  5
195B
330
2
100
AcDbEntity
  8
Vista
370
     0
100
AcDbCircle
 10
0.2553619968050115
 20
0.0861597906620954
 30
0.0
 40
0.0032655324904828
100
AcDbArc
 50
150.6987732806299
 51
30.72192517075648
  0
ARC
  5
195C
330
2
100
AcDbEntity
  8
Vista
370
     0
100
AcDbCircle
 10
0.2667732599204172
 20
0.0869712516038358
 30
0.0
 40
0.0049573438595816
100
AcDbArc
 50
167.3715016536111
 51
13.77133091695136
  0
ARC
  5
195D
330
2
100
AcDbEntity
  8
Vista
370
     0
100
AcDbCircle
 10
0.2666965678741286
 20
0.0861597906620954
 30
0.0
 40
0.0032655324904828
100
AcDbArc
 50
150.6987732806299
 51
30.72192517075648
  0
ARC
  5
195E
330
2
100
AcDbEntity
  8
Vista
370
     0
100
AcDbCircle
 10
0.2781078309895343
 20
0.0869712516038358
 30
0.0
 40
0.0049573438595816
100
AcDbArc
 50
167.3715016536111
 51
13.77133091695136
  0
ARC
  5
195F
330
2
100
AcDbEntity
  8
Vista
370
     0
100
AcDbCircle
 10
0.2780311389432421
 20
0.0861597906620954
 30
0.0
 40
0.0032655324904828
100
AcDbArc
 50
150.6987732806299
 51
30.72192517075648
  0
ARC
  5
1960
330
2
100
AcDbEntity
  8
Vista
370
     0
100
AcDbCircle
 10
0.2894424020586478
 20
0.0869712516038358
 30
0.0
 40
0.0049573438595816
100
AcDbArc
 50
167.3715016536111
 51
13.77133091695136
  0
ARC
  5
1961
330
2
100
AcDbEntity
  8
Vista
370
     0
100
AcDbCircle
 10
0.2893657100123591
 20
0.0861597906620954
 30
0.0
 40
0.0032655324904828
100
AcDbArc
 50
150.6987732806299
 51
30.72192517075648
  0
ARC
  5
1962
330
2
100
AcDbEntity
  8
Vista
370
     0
100
AcDbCircle
 10
0.3007769731277613
 20
0.0869712516038358
 30
0.0
 40
0.0049573438595816
100
AcDbArc
 50
167.3715016536111
 51
13.77133091695136
  0
ARC
  5
1963
330
2
100
AcDbEntity
  8
Vista
370
     0
100
AcDbCircle
 10
0.3007002810814726
 20
0.0861597906620954
 30
0.0
 40
0.0032655324904828
100
AcDbArc
 50
150.6987732806299
 51
30.72192517075648
  0
ARC
  5
1964
330
2
100
AcDbEntity
  8
Vista
370
     0
100
AcDbCircle
 10
0.3121115441968784
 20
0.0869712516038358
 30
0.0
 40
0.0049573438595816
100
AcDbArc
 50
167.3715016536111
 51
13.77133091695136
  0
ARC
  5
1965
330
2
100
AcDbEntity
  8
Vista
370
     0
100
AcDbCircle
 10
0.3120348521505861
 20
0.0861597906620954
 30
0.0
 40
0.0032655324904828
100
AcDbArc
 50
150.6987732806299
 51
30.72192517075648
  0
ARC
  5
1966
330
2
100
AcDbEntity
  8
Vista
370
     0
100
AcDbCircle
 10
0.3234461152659919
 20
0.0869712516038358
 30
0.0
 40
0.0049573438595816
100
AcDbArc
 50
167.3715016536111
 51
13.77133091695136
  0
ARC
  5
1967
330
2
100
AcDbEntity
  8
Vista
370
     0
100
AcDbCircle
 10
0.3233694232197032
 20
0.0861597906620954
 30
0.0
 40
0.0032655324904828
100
AcDbArc
 50
150.6987732806299
 51
30.72192517075648
  0
ARC
  5
1968
330
2
100
AcDbEntity
  8
Vista
370
     0
100
AcDbCircle
 10
0.334780686335109
 20
0.0869712516038358
 30
0.0
 40
0.0049573438595816
100
AcDbArc
 50
167.3715016536111
 51
13.77133091695136
  0
ARC
  5
1969
330
2
100
AcDbEntity
  8
Vista
370
     0
100
AcDbCircle
 10
0.3347039942888167
 20
0.0861597906620954
 30
0.0
 40
0.0032655324904828
100
AcDbArc
 50
150.6987732806299
 51
30.72192517075648
  0
LINE
  5
196A
330
2
100
AcDbEntity
  8
Vista
370
     0
100
AcDbLine
 10
0.1807435650510357
 20
0.0851703355324719
 30
0.0
 11
0.1827591619373948
 21
0.0851703355324719
 31
0.0
  0
LINE
  5
196B
330
2
100
AcDbEntity
  8
Vista
370
     0
100
AcDbLine
 10
0.1920781361201528
 20
0.0851703355324719
 30
0.0
 11
0.1940937330065119
 21
0.0851703355324719
 31
0.0
  0
LINE
  5
196C
330
2
100
AcDbEntity
  8
Vista
370
     0
100
AcDbLine
 10
0.2034127071892663
 20
0.0851703355324719
 30
0.0
 11
0.2054283040756254
 21
0.0851703355324719
 31
0.0
  0
LINE
  5
196D
330
2
100
AcDbEntity
  8
Vista
370
     0
100
AcDbLine
 10
0.2147472782583834
 20
0.0851703355324719
 30
0.0
 11
0.2167628751447425
 21
0.0851703355324719
 31
0.0
  0
LINE
  5
196F
330
2
100
AcDbEntity
  8
Vista
370
     0
100
AcDbLine
 10
0.2374164203966139
 20
0.0851703355324719
 30
0.0
 11
0.239432017282973
 21
0.0851703355324719
 31
0.0
  0
LINE
  5
1970
330
2
100
AcDbEntity
  8
Vista
370
     0
100
AcDbLine
 10
0.2487509914657275
 20
0.0851703355324719
 30
0.0
 11
0.2507665883520866
 21
0.0851703355324719
 31
0.0
  0
LINE
  5
1971
330
2
100
AcDbEntity
  8
Vista
370
     0
100
AcDbLine
 10
0.2600855625348445
 20
0.0851703355324719
 30
0.0
 11
0.2621011594212001
 21
0.0851703355324719
 31
0.0
  0
LINE
  5
1972
330
2
100
AcDbEntity
  8
Vista
370
     0
100
AcDbLine
 10
0.271420133603958
 20
0.0851703355324719
 30
0.0
 11
0.2734357304903171
 21
0.0851703355324719
 31
0.0
  0
LINE
  5
1973
330
2
100
AcDbEntity
  8
Vista
370
     0
100
AcDbLine
 10
0.2827547046730715
 20
0.0851703355324719
 30
0.0
 11
0.2847703015594306
 21
0.0851703355324719
 31
0.0
  0
LINE
  5
1974
330
2
100
AcDbEntity
  8
Vista
370
     0
100
AcDbLine
 10
0.2940892757421886
 20
0.0851703355324719
 30
0.0
 11
0.2961048726285477
 21
0.0851703355324719
 31
0.0
  0
LINE
  5
1975
330
2
100
AcDbEntity
  8
Vista
370
     0
100
AcDbLine
 10
0.3054238468113021
 20
0.0851703355324719
 30
0.0
 11
0.3074394436976612
 21
0.0851703355324719
 31
0.0
  0
LINE
  5
1976
330
2
100
AcDbEntity
  8
Vista
370
     0
100
AcDbLine
 10
0.3167584178804192
 20
0.0851703355324719
 30
0.0
 11
0.3187740147667783
 21
0.0851703355324719
 31
0.0
  0
LINE
  5
1977
330
2
100
AcDbEntity
  8
Vista
370
     0
100
AcDbLine
 10
0.3280929889495327
 20
0.0851703355324719
 30
0.0
 11
0.3301085858358918
 21
0.0851703355324719
 31
0.0
  0
LINE
  5
1978
330
2
100
AcDbEntity
  8
Vista
370
     0
100
AcDbLine
 10
0.3394275600186497
 20
0.0851703355324719
 30
0.0
 11
0.3414431569050088
 21
0.0851703355324719
 31
0.0
  0
ELLIPSE
  5
197E
330
2
100
AcDbEntity
  8
Vista
370
     0
100
AcDbEllipse
 10
0.200037790504802
 20
0.1203283852157188
 30
0.0
 11
-0.0011019021542942
 21
0.0
 31
0.0
210
0.0
220
0.0
230
1.0
 40
0.7272726169970084
 41
0.6573882942564251
 42
3.080387759090763
  0
ELLIPSE
  5
197F
330
2
100
AcDbEntity
  8
Vista
370
     0
100
AcDbEllipse
 10
0.2050355699921952
 20
0.1203283852157188
 30
0.0
 11
-0.0011019021542942
 21
0.0
 31
0.0
210
0.0
220
0.0
230
1.0
 40
0.7272726169970084
 41
0.0
 42
6.283185307179586
  0
ELLIPSE
  5
1980
330
2
100
AcDbEntity
  8
Vista
370
     0
100
AcDbEllipse
 10
0.2100333494795884
 20
0.1203283852157188
 30
0.0
 11
-0.0011019021542942
 21
0.0
 31
0.0
210
0.0
220
0.0
230
1.0
 40
0.7272726169970084
 41
0.0
 42
6.283185307179586
  0
ELLIPSE
  5
1981
330
2
100
AcDbEntity
  8
Vista
370
     0
100
AcDbEllipse
 10
0.2150311289669816
 20
0.1203283852157188
 30
0.0
 11
-0.0011019021542942
 21
0.0
 31
0.0
210
0.0
220
0.0
230
1.0
 40
0.7272726169970084
 41
0.0
 42
6.283185307179586
  0
ELLIPSE
  5
1982
330
2
100
AcDbEntity
  8
Vista
370
     0
100
AcDbEllipse
 10
0.2200289084543749
 20
0.1203283852157188
 30
0.0
 11
-0.0011019021542942
 21
0.0
 31
0.0
210
0.0
220
0.0
230
1.0
 40
0.7272726169970084
 41
0.0
 42
6.283185307179586
  0
ELLIPSE
  5
1986
330
2
100
AcDbEntity
  8
Vista
370
     0
100
AcDbEllipse
 10
0.2400200264039513
 20
0.1203283852157188
 30
0.0
 11
-0.0011019021542942
 21
0.0
 31
0.0
210
0.0
220
0.0
230
1.0
 40
0.7272726169970084
 41
0.0
 42
6.283185307179586
  0
ELLIPSE
  5
1987
330
2
100
AcDbEntity
  8
Vista
370
     0
100
AcDbEllipse
 10
0.2450178058913445
 20
0.1203283852157188
 30
0.0
 11
-0.0011019021542942
 21
0.0
 31
0.0
210
0.0
220
0.0
230
1.0
 40
0.7272726169970084
 41
0.0
 42
6.283185307179586
  0
ELLIPSE
  5
1988
330
2
100
AcDbEntity
  8
Vista
370
     0
100
AcDbEllipse
 10
0.2500155853787377
 20
0.1203283852157188
 30
0.0
 11
-0.0011019021542942
 21
0.0
 31
0.0
210
0.0
220
0.0
230
1.0
 40
0.7272726169970084
 41
0.0
 42
6.283185307179586
  0
ELLIPSE
  5
1989
330
2
100
AcDbEntity
  8
Vista
370
     0
100
AcDbEllipse
 10
0.2550133648661309
 20
0.1203283852157188
 30
0.0
 11
-0.0011019021542942
 21
0.0
 31
0.0
210
0.0
220
0.0
230
1.0
 40
0.7272726169970084
 41
0.0
 42
6.283185307179586
  0
ELLIPSE
  5
198A
330
2
100
AcDbEntity
  8
Vista
370
     0
100
AcDbEllipse
 10
0.2600111443535241
 20
0.1203283852157188
 30
0.0
 11
-0.0011019021542942
 21
0.0
 31
0.0
210
0.0
220
0.0
230
1.0
 40
0.7272726169970084
 41
0.0
 42
6.283185307179586
  0
ELLIPSE
  5
198B
330
2
100
AcDbEntity
  8
Vista
370
     0
100
AcDbEllipse
 10
0.2650089238409174
 20
0.1203283852157188
 30
0.0
 11
-0.0011019021542942
 21
0.0
 31
0.0
210
0.0
220
0.0
230
1.0
 40
0.7272726169970084
 41
0.0
 42
6.283185307179586
  0
ELLIPSE
  5
198C
330
2
100
AcDbEntity
  8
Vista
370
     0
100
AcDbEllipse
 10
0.2700067033283106
 20
0.1203283852157188
 30
0.0
 11
-0.0011019021542942
 21
0.0
 31
0.0
210
0.0
220
0.0
230
1.0
 40
0.7272726169970084
 41
0.0
 42
6.283185307179586
  0
ELLIPSE
  5
198D
330
2
100
AcDbEntity
  8
Vista
370
     0
100
AcDbEllipse
 10
0.2750044828157073
 20
0.1203283852157188
 30
0.0
 11
-0.0011019021542942
 21
0.0
 31
0.0
210
0.0
220
0.0
230
1.0
 40
0.7272726169970084
 41
0.0
 42
6.283185307179586
  0
ELLIPSE
  5
198E
330
2
100
AcDbEntity
  8
Vista
370
     0
100
AcDbEllipse
 10
0.2800022623031006
 20
0.1203283852157188
 30
0.0
 11
-0.0011019021542942
 21
0.0
 31
0.0
210
0.0
220
0.0
230
1.0
 40
0.7272726169970084
 41
0.0
 42
6.283185307179586
  0
ELLIPSE
  5
198F
330
2
100
AcDbEntity
  8
Vista
370
     0
100
AcDbEllipse
 10
0.2850000417904938
 20
0.1203283852157188
 30
0.0
 11
-0.0011019021542942
 21
0.0
 31
0.0
210
0.0
220
0.0
230
1.0
 40
0.7272726169970084
 41
0.0
 42
6.283185307179586
  0
ELLIPSE
  5
1990
330
2
100
AcDbEntity
  8
Vista
370
     0
100
AcDbEllipse
 10
0.289997821277887
 20
0.1203283852157188
 30
0.0
 11
-0.0011019021542942
 21
0.0
 31
0.0
210
0.0
220
0.0
230
1.0
 40
0.7272726169970084
 41
0.0
 42
6.283185307179586
  0
ELLIPSE
  5
1991
330
2
100
AcDbEntity
  8
Vista
370
     0
100
AcDbEllipse
 10
0.2949956007652802
 20
0.1203283852157188
 30
0.0
 11
-0.0011019021542942
 21
0.0
 31
0.0
210
0.0
220
0.0
230
1.0
 40
0.7272726169970084
 41
0.0
 42
6.283185307179586
  0
ELLIPSE
  5
1992
330
2
100
AcDbEntity
  8
Vista
370
     0
100
AcDbEllipse
 10
0.2999933802526734
 20
0.1203283852157188
 30
0.0
 11
-0.0011019021542942
 21
0.0
 31
0.0
210
0.0
220
0.0
230
1.0
 40
0.7272726169970084
 41
0.0
 42
6.283185307179586
  0
ELLIPSE
  5
1993
330
2
100
AcDbEntity
  8
Vista
370
     0
100
AcDbEllipse
 10
0.3049911597400666
 20
0.1203283852157188
 30
0.0
 11
-0.0011019021542942
 21
0.0
 31
0.0
210
0.0
220
0.0
230
1.0
 40
0.7272726169970084
 41
0.0
 42
6.283185307179586
  0
ELLIPSE
  5
1994
330
2
100
AcDbEntity
  8
Vista
370
     0
100
AcDbEllipse
 10
0.3099889392274599
 20
0.1203283852157188
 30
0.0
 11
-0.0011019021542942
 21
0.0
 31
0.0
210
0.0
220
0.0
230
1.0
 40
0.7272726169970084
 41
0.0
 42
6.283185307179586
  0
ELLIPSE
  5
1995
330
2
100
AcDbEntity
  8
Vista
370
     0
100
AcDbEllipse
 10
0.3149867187148531
 20
0.1203283852157188
 30
0.0
 11
-0.0011019021542942
 21
0.0
 31
0.0
210
0.0
220
0.0
230
1.0
 40
0.7272726169970084
 41
0.0
 42
6.283185307179586
  0
ELLIPSE
  5
1996
330
2
100
AcDbEntity
  8
Vista
370
     0
100
AcDbEllipse
 10
0.3199844982022463
 20
0.1203283852157188
 30
0.0
 11
-0.0011019021542942
 21
0.0
 31
0.0
210
0.0
220
0.0
230
1.0
 40
0.7272726169970084
 41
0.0
 42
6.283185307179586
  0
ELLIPSE
  5
1997
330
2
100
AcDbEntity
  8
Vista
370
     0
100
AcDbEllipse
 10
0.3249822776896431
 20
0.1203283852157188
 30
0.0
 11
-0.0011019021542942
 21
0.0
 31
0.0
210
0.0
220
0.0
230
1.0
 40
0.7272726169970084
 41
0.0
 42
6.283185307179586
  0
ELLIPSE
  5
1998
330
2
100
AcDbEntity
  8
Vista
370
     0
100
AcDbEllipse
 10
0.3299800571770363
 20
0.1203283852157188
 30
0.0
 11
-0.0011019021542942
 21
0.0
 31
0.0
210
0.0
220
0.0
230
1.0
 40
0.7272726169970084
 41
0.0
 42
6.283185307179586
  0
ELLIPSE
  5
1999
330
2
100
AcDbEntity
  8
Vista
370
     0
100
AcDbEllipse
 10
0.3349778366644295
 20
0.1203283852157188
 30
0.0
 11
-0.0011019021542942
 21
0.0
 31
0.0
210
0.0
220
0.0
230
1.0
 40
0.7272726169970084
 41
0.0
 42
6.283185307179586
  0
ELLIPSE
  5
199A
330
2
100
AcDbEntity
  8
Vista
370
     0
100
AcDbEllipse
 10
0.3399756161518227
 20
0.1203283852157188
 30
0.0
 11
-0.0011019021542942
 21
0.0
 31
0.0
210
0.0
220
0.0
230
1.0
 40
0.7272726169970084
 41
0.0
 42
6.283185307179586
  0
ELLIPSE
  5
199B
330
2
100
AcDbEntity
  8
Vista
370
     0
100
AcDbEllipse
 10
0.3449733956392159
 20
0.1203283852157188
 30
0.0
 11
-0.0011019021542942
 21
0.0
 31
0.0
210
0.0
220
0.0
230
1.0
 40
0.7272726169970084
 41
0.0
 42
6.283185307179586
  0
ELLIPSE
  5
199C
330
2
100
AcDbEntity
  8
Vista
370
     0
100
AcDbEllipse
 10
0.3499711751266092
 20
0.1203283852157188
 30
0.0
 11
-0.0011019021542942
 21
0.0
 31
0.0
210
0.0
220
0.0
230
1.0
 40
0.7272726169970084
 41
0.0
 42
6.283185307179586
  0
ELLIPSE
  5
199D
330
2
100
AcDbEntity
  8
Vista
370
     0
100
AcDbEllipse
 10
0.3549689546140024
 20
0.1203283852157188
 30
0.0
 11
-0.0011019021542942
 21
0.0
 31
0.0
210
0.0
220
0.0
230
1.0
 40
0.7272726169970084
 41
0.0
 42
6.283185307179586
  0
ELLIPSE
  5
199E
330
2
100
AcDbEntity
  8
Vista
370
     0
100
AcDbEllipse
 10
0.3599667341013956
 20
0.1203283852157188
 30
0.0
 11
-0.0011019021542942
 21
0.0
 31
0.0
210
0.0
220
0.0
230
1.0
 40
0.7272726169970084
 41
0.0
 42
6.283185307179586
  0
ELLIPSE
  5
199F
330
2
100
AcDbEntity
  8
Vista
370
     0
100
AcDbEllipse
 10
0.3649645135887888
 20
0.1203283852157188
 30
0.0
 11
-0.0011019021542942
 21
0.0
 31
0.0
210
0.0
220
0.0
230
1.0
 40
0.7272726169970084
 41
0.0
 42
6.283185307179586
  0
ELLIPSE
  5
19A0
330
2
100
AcDbEntity
  8
Vista
370
     0
100
AcDbEllipse
 10
0.369962293076182
 20
0.1203283852157188
 30
0.0
 11
-0.0011019021542942
 21
0.0
 31
0.0
210
0.0
220
0.0
230
1.0
 40
0.7272726169970084
 41
0.0
 42
6.283185307179586
  0
LWPOLYLINE
  5
19A3
330
2
100
AcDbEntity
  8
Vista
370
     0
100
AcDbPolyline
 90
       22
 70
   128
 43
0.0
 10
0.190794670919037
 20
0.1169937013246144
 10
0.1929599451425908
 20
0.1173266671306773
 10
0.195041941130598
 20
0.1173266671306773
 10
0.1967908161565511
 20
0.1175763908370097
 10
0.1985396925191488
 20
0.1172434258952332
 10
0.2005384075983202
 20
0.1174931496015656
 10
0.2017043242822901
 20
0.1175763908370097
 10
0.2030368014472871
 20
0.1175763908370097
 10
0.2042027181312535
 20
0.1174931496015656
 10
0.2049522369542672
 20
0.1174931496015656
 10
0.2057850340128241
 20
0.1168272188537262
 10
0.2052020756708409
 20
0.1161612889701732
 10
0.2030368014472871
 20
0.115994806499285
 10
0.2019541643355084
 20
0.1158283240283967
 10
0.2000387288285283
 20
0.1153288757514456
 10
0.1982065728937393
 20
0.1149959108096691
 10
0.1963744169589504
 20
0.1148294283387809
 10
0.195041941130598
 20
0.1144964633970044
 10
0.1940425835910106
 20
0.1144964633970044
 10
0.1928766655703996
 20
0.1145797046324485
 10
0.1917940284586209
 20
0.1144964633970044
 10
0.1905448322024633
 20
0.1150791520451132
  0
LWPOLYLINE
  5
19A4
330
2
100
AcDbEntity
  8
Vista
370
     0
100
AcDbPolyline
 90
       45
 70
   128
 43
0.0
 10
0.1844518163672093
 20
0.1136859952740012
 10
0.1845486856283011
 20
0.1117495008987756
 10
0.1857146036489156
 20
0.1094187454420538
 10
0.1856313240767243
 20
0.1079204023397696
 10
0.1870470794772679
 20
0.1079204023397696
 10
0.1876300391558957
 20
0.1059226118248243
 10
0.1887126762676744
 20
0.105006958234939
 10
0.1892123550374664
 20
0.105006958234939
 10
0.1900451520960268
 20
0.1051734407058273
 10
0.1912110701166377
 20
0.1051734407058273
 10
0.1912110701166377
 20
0.1038415800744349
 10
0.190794670919037
 20
0.1027594431493749
 10
0.1922937072284164
 20
0.1017605483240455
 10
0.1929599451425908
 20
0.1007616526344296
 10
0.1942924223075878
 20
0.1000124815154325
 10
0.1945422623608061
 20
0.1000124815154325
 10
0.1952917798471717
 20
0.0998459990445443
 10
0.1962911373867592
 20
0.0982644147068196
 10
0.1966242570121687
 20
0.097432001488092
 10
0.1972904949263431
 20
0.0970157953108714
 10
0.1982065728937393
 20
0.0970157953108714
 10
0.1987895312357225
 20
0.0969325540754273
 10
0.1992059304333268
 20
0.0963498654273184
 10
0.2003718471172932
 20
0.0963498654273184
 10
0.2014544855657165
 20
0.0965163478982067
 10
0.2030368014472871
 20
0.0964331066627626
 10
0.2039528794146798
 20
0.0961001417209861
 10
0.205368636151868
 20
0.0961001417209861
 10
0.2059515944938512
 20
0.0965995891336508
 10
0.2071175111778211
 20
0.0965995891336508
 10
0.2080335891452138
 20
0.0956006934440349
 10
0.20894966711261
 20
0.0955174522085908
 10
0.2102821429409624
 20
0.0955174522085908
 10
0.2114480609615733
 20
0.0959336583858114
 10
0.2137798956661542
 20
0.0957671759149232
 10
0.2151956510666978
 20
0.0957671759149232
 10
0.216611407803886
 20
0.0958504171503673
 10
0.2178606053966917
 20
0.096766071604539
 10
0.2181937236854567
 20
0.0977649672941549
 10
0.2191930812250441
 20
0.0988471033549285
 10
0.2193596417060712
 20
0.1000124815154325
 10
0.2198593204758631
 20
0.100345446457209
 10
0.2206921188710646
 20
0.098514138413152
 10
0.221691476410652
 20
0.0977649672941549
 10
0.2224099798256618
 20
0.0976787864979247
  0
LWPOLYLINE
  5
19A5
330
2
100
AcDbEntity
  8
Vista
370
     0
100
AcDbPolyline
 90
        5
 70
   128
 43
0.0
 10
0.2417619067745606
 20
0.1152456345160015
 10
0.2389303933001877
 20
0.1133310852365003
 10
0.237847756188409
 20
0.113164602765612
 10
0.2361821607346472
 20
0.1128316378238356
 10
0.2359774406409003
 20
0.1127353435773674
  0
LWPOLYLINE
  5
19A6
330
2
100
AcDbEntity
  8
Vista
370
     0
100
AcDbPolyline
 90
       19
 70
   129
 43
0.0
 10
0.1900451520960268
 20
0.1109170885443344
 10
0.1879631574446606
 20
0.1110835710152226
 10
0.1878798778724694
 20
0.1103343998962255
 10
0.1873801991026774
 20
0.1100846761898932
 10
0.186547400707476
 20
0.1095852279129385
 10
0.186547400707476
 20
0.1090025392648332
 10
0.1872969195304862
 20
0.1079204023397696
 10
0.1879631574446606
 20
0.1078371611043255
 10
0.1880464370168519
 20
0.1073377136916608
 10
0.1887126762676744
 20
0.1065885425726673
 10
0.189961872523832
 20
0.1065885425726673
 10
0.1904615512936275
 20
0.1070879899853284
 10
0.1917107488864297
 20
0.1071712312207726
 10
0.1917940284586209
 20
0.1078371611043255
 10
0.1917940284586209
 20
0.1086695743230567
 10
0.1920438685118392
 20
0.1101679174253373
 10
0.1915441897420472
 20
0.110667364838002
 10
0.1906281117746545
 20
0.1108338473088902
 10
0.1900451520960268
 20
0.1108338473088902
  0
LWPOLYLINE
  5
19A7
330
2
100
AcDbEntity
  8
Vista
370
     0
100
AcDbPolyline
 90
       25
 70
   129
 43
0.0
 10
0.2039528794146798
 20
0.0992633095321491
 10
0.2032033605916696
 20
0.0999292402799884
 10
0.2020374439076996
 20
0.1000124815154325
 10
0.2012879250846894
 20
0.1005119289280973
 10
0.2010380863681122
 20
0.1012611009113808
 10
0.200455128026129
 20
0.1020102720303778
 10
0.2005384075983202
 20
0.1034253738972143
 10
0.2009548067959209
 20
0.1045075099579879
 10
0.2010380863681122
 20
0.1053399231767155
 10
0.2021207234798909
 20
0.1063388180020449
 10
0.2027869613940688
 20
0.1066717838081078
 10
0.2037030393614615
 20
0.1066717838081078
 10
0.2052020756708409
 20
0.1066717838081078
 10
0.2057850340128241
 20
0.1063388180020449
 10
0.2068676724612474
 20
0.1059226118248243
 10
0.2071175111778211
 20
0.1055064056476037
 10
0.2075339103754218
 20
0.1051734407058273
 10
0.208283427861791
 20
0.1045075099579879
 10
0.208783106631583
 20
0.1032588914263261
 10
0.208783106631583
 20
0.1021767545012661
 10
0.208283427861791
 20
0.1015108246177131
 10
0.2079503095730225
 20
0.0997627578091002
 10
0.2072007907500123
 20
0.0995130341027678
 10
0.2062014332104249
 20
0.0993465507675932
 10
0.2049522369542672
 20
0.0991800682967049
  0
LWPOLYLINE
  5
19A8
330
2
100
AcDbEntity
  8
Vista
370
     0
100
AcDbPolyline
 90
       13
 70
   128
 43
0.0
 10
0.2189432425084669
 20
0.1000124815154325
 10
0.2181937236854567
 20
0.1009281351053179
 10
0.2176940449156647
 20
0.1018437895594896
 10
0.2170278070014867
 20
0.1025929606784867
 10
0.2153622115477249
 20
0.1026762019139308
 10
0.2142795744359497
 20
0.1026762019139308
 10
0.2129470972709528
 20
0.1025097194430426
 10
0.2118644601591741
 20
0.1017605483240455
 10
0.2111982209083551
 20
0.1005119289280973
 10
0.2107818217107543
 20
0.0989303445903726
 10
0.2099490246521939
 20
0.0980979322359314
 10
0.2104487034219894
 20
0.0965995891336508
 10
0.2109483821917814
 20
0.0961833829564302
  0
LWPOLYLINE
  5
19A9
330
2
100
AcDbEntity
  8
Vista
370
     0
100
AcDbPolyline
 90
        3
 70
   128
 43
0.0
 10
0.2176940449156647
 20
0.0986806208840402
 10
0.2168612478571043
 20
0.0977649672941549
 10
0.2146959722969059
 20
0.0963498654273184
  0
LWPOLYLINE
  5
19AA
330
2
100
AcDbEntity
  8
Vista
370
     0
100
AcDbPolyline
 90
        4
 70
   128
 43
0.0
 10
0.213863175238349
 20
0.0968493128399832
 10
0.213863175238349
 20
0.097848208529599
 10
0.2140297343827314
 20
0.0983476559422637
 10
0.2142795744359497
 20
0.0989303445903726
  0
LWPOLYLINE
  5
19AB
330
2
100
AcDbEntity
  8
Vista
370
     0
100
AcDbPolyline
 90
        6
 70
   128
 43
0.0
 10
0.2141130139549227
 20
0.0994297920030373
 10
0.2148625327779329
 20
0.0999292402799884
 10
0.2155287706921109
 20
0.0999292402799884
 10
0.2162782895151211
 20
0.0999292402799884
 10
0.2166946873760772
 20
0.0999292402799884
 10
0.2168612478571043
 20
0.0999292402799884
  0
LWPOLYLINE
  5
19AC
330
2
100
AcDbEntity
  8
Vista
370
     0
100
AcDbPolyline
 90
        5
 70
   128
 43
0.0
 10
0.2156120502643021
 20
0.0986806208840402
 10
0.2150290919223154
 20
0.0981811734713755
 10
0.2146959722969059
 20
0.097432001488092
 10
0.2158618903175204
 20
0.0980979322359314
 10
0.2162782895151211
 20
0.0986806208840402
  0
LWPOLYLINE
  5
19AD
330
2
100
AcDbEntity
  8
Vista
370
     0
100
AcDbPolyline
 90
        3
 70
   128
 43
0.0
 10
0.2122808580201338
 20
0.0965163478982067
 10
0.2122808580201338
 20
0.0976817251944244
 10
0.213030376843144
 20
0.0987638621194843
  0
LWPOLYLINE
  5
19B2
330
2
100
AcDbEntity
  8
Vista
370
     0
100
AcDbPolyline
 90
        2
 70
   128
 43
0.0
 10
0.209449345882402
 20
0.1032588914263261
 10
0.2136133351851307
 20
0.1032588914263261
  0
LWPOLYLINE
  5
19B3
330
2
100
AcDbEntity
  8
Vista
370
     0
100
AcDbPolyline
 90
        2
 70
   128
 43
0.0
 10
0.2091995058291837
 20
0.1050901994703831
 10
0.2140297343827314
 20
0.1050901994703831
  0
LWPOLYLINE
  5
19B4
330
2
100
AcDbEntity
  8
Vista
370
     0
100
AcDbPolyline
 90
       16
 70
   129
 43
0.0
 10
0.1976236145517561
 20
0.1062555767666008
 10
0.1965409774399774
 20
0.1065885425726673
 10
0.194875380649571
 20
0.1055064056476037
 10
0.1947921010773798
 20
0.1053399231767155
 10
0.195041941130598
 20
0.1035086151326584
 10
0.1944589814519703
 20
0.1019270307949337
 10
0.1962911373867592
 20
0.102093513265822
 10
0.1971239357819606
 20
0.1029259256202632
 10
0.1978734532683298
 20
0.1029259256202632
 10
0.1984564129469576
 20
0.1029259256202632
 10
0.1992059304333268
 20
0.1033421326617702
 10
0.1995390500587363
 20
0.1042577862516555
 10
0.1989560917167495
 20
0.1054231644121596
 10
0.199289210005518
 20
0.1060890942957126
 10
0.1989560917167495
 20
0.1065885425726673
 10
0.1976236145517561
 20
0.1065885425726673
  0
LWPOLYLINE
  5
19B5
330
2
100
AcDbEntity
  8
Vista
370
     0
100
AcDbPolyline
 90
        5
 70
   128
 43
0.0
 10
0.194375701879779
 20
0.1048404757640508
 10
0.1937927435377958
 20
0.1053399231767155
 10
0.1927101064260171
 20
0.1054231644121596
 10
0.1922937072284164
 20
0.1048404757640508
 10
0.1917940284586209
 20
0.1047572336643202
  0
LWPOLYLINE
  5
19B6
330
2
100
AcDbEntity
  8
Vista
370
     0
100
AcDbPolyline
 90
        8
 70
   128
 43
0.0
 10
0.1925435472816347
 20
0.1082533672815461
 10
0.1944589814519703
 20
0.1082533672815461
 10
0.1949586602217622
 20
0.108170126046102
 10
0.1953750594193629
 20
0.1073377136916608
 10
0.1945422623608061
 20
0.1061723355311567
 10
0.1937927435377958
 20
0.1061723355311567
 10
0.1926268268538259
 20
0.106755025043552
 10
0.1920438685118392
 20
0.1072544724562167
  0
LWPOLYLINE
  5
19B7
330
2
100
AcDbEntity
  8
Vista
370
     0
100
AcDbPolyline
 90
        7
 70
   128
 43
0.0
 10
0.1873801991026774
 20
0.1108338473088902
 10
0.186713961188503
 20
0.1117495008987756
 10
0.1866306816163082
 20
0.113164602765612
 10
0.1887959558398656
 20
0.1134975677073885
 10
0.1895454733262313
 20
0.1128316378238356
 10
0.1896287542350671
 20
0.1124986728820591
 10
0.1896287542350671
 20
0.1114997771924432
  0
LWPOLYLINE
  5
19B8
330
2
100
AcDbEntity
  8
Vista
370
     0
100
AcDbPolyline
 90
        5
 70
   128
 43
0.0
 10
0.19978888877531
 20
0.1007616526344296
 10
0.2003718471172932
 20
0.0994297920030373
 10
0.2007882463148939
 20
0.0988471033549285
 10
0.2012046455124982
 20
0.0979314497650431
 10
0.2016210447100989
 20
0.0968493128399832
  0
LWPOLYLINE
  5
19B9
330
2
100
AcDbEntity
  8
Vista
370
     0
100
AcDbPolyline
 90
        3
 70
   128
 43
0.0
 10
0.1985396925191488
 20
0.0973487602526479
 10
0.1994557704865415
 20
0.0982644147068196
 10
0.2001220084007195
 20
0.098514138413152
  0
LWPOLYLINE
  5
19BA
330
2
100
AcDbEntity
  8
Vista
370
     0
100
AcDbPolyline
 90
        4
 70
   128
 43
0.0
 10
0.1963744169589504
 20
0.1007616526344296
 10
0.1972072153541519
 20
0.1010946175762061
 10
0.1974570540707291
 20
0.1016773070886014
 10
0.1975403349795614
 20
0.1020102720303778
  0
LWPOLYLINE
  5
19BB
330
2
100
AcDbEntity
  8
Vista
370
     0
100
AcDbPolyline
 90
        2
 70
   128
 43
0.0
 10
0.1997056092031187
 20
0.1036750976035467
 10
0.200288567545102
 20
0.1036750976035467
  0
LWPOLYLINE
  5
19BC
330
2
100
AcDbEntity
  8
Vista
370
     0
100
AcDbPolyline
 90
        2
 70
   128
 43
0.0
 10
0.1996223296309275
 20
0.1048404757640508
 10
0.2003718471172932
 20
0.1048404757640508
  0
LWPOLYLINE
  5
19BD
330
2
100
AcDbEntity
  8
Vista
370
     0
100
AcDbPolyline
 90
        2
 70
   128
 43
0.0
 10
0.1995390500587363
 20
0.1060890942957126
 10
0.2006216871705114
 20
0.1060890942957126
  0
LWPOLYLINE
  5
19BE
330
2
100
AcDbEntity
  8
Vista
370
     0
100
AcDbPolyline
 90
        5
 70
   128
 43
0.0
 10
0.2090329466848012
 20
0.0987638621194843
 10
0.2083667087706233
 20
0.0992633095321491
 10
0.2069509520334386
 20
0.0984308971777079
 10
0.2069509520334386
 20
0.0981811734713755
 10
0.2070342316056299
 20
0.0972655190172038
  0
LWPOLYLINE
  5
19BF
330
2
100
AcDbEntity
  8
Vista
370
     0
100
AcDbPolyline
 90
        5
 70
   128
 43
0.0
 10
0.2039528794146798
 20
0.0968493128399832
 10
0.2042027181312535
 20
0.0972655190172038
 10
0.2046191173288578
 20
0.0973487602526479
 10
0.204702396901049
 20
0.0970157953108714
 10
0.2047856764732402
 20
0.096766071604539
  0
LWPOLYLINE
  5
19C0
330
2
100
AcDbEntity
  8
Vista
370
     0
100
AcDbPolyline
 90
        3
 70
   128
 43
0.0
 10
0.2162782895151211
 20
0.1059226118248243
 10
0.216611407803886
 20
0.1035918563681025
 10
0.216611407803886
 20
0.1032588914263261
  0
LWPOLYLINE
  5
19C1
330
2
100
AcDbEntity
  8
Vista
370
     0
100
AcDbPolyline
 90
       10
 70
   128
 43
0.0
 10
0.216611407803886
 20
0.1032588914263261
 10
0.217277647054705
 20
0.1063388180020449
 10
0.2180271645410742
 20
0.1065885425726673
 10
0.2186934024552486
 20
0.1065885425726673
 10
0.2190265220806617
 20
0.1060890942957126
 10
0.2198593204758631
 20
0.1060890942957126
 10
0.2200258796202456
 20
0.1051734407058273
 10
0.2202757196734638
 20
0.1044242687225438
 10
0.2195262008504536
 20
0.102842684384819
 10
0.2186934024552486
 20
0.102842684384819
  0
LWPOLYLINE
  5
19C2
330
2
100
AcDbEntity
  8
Vista
370
     0
100
AcDbPolyline
 90
        2
 70
   128
 43
0.0
 10
0.2211917976408601
 20
0.104590751193432
 10
0.2224099798256618
 20
0.104590751193432
  0
LWPOLYLINE
  5
19C3
330
2
100
AcDbEntity
  8
Vista
370
     0
100
AcDbPolyline
 90
        4
 70
   128
 43
0.0
 10
0.2224099798256618
 20
0.1020102720303778
 10
0.221524915929625
 20
0.1020102720303778
 10
0.2206088379622288
 20
0.1015108246177131
 10
0.2198593204758631
 20
0.1013443421468249
  0
LWPOLYLINE
  5
19C6
330
2
100
AcDbEntity
  8
Vista
370
     0
100
AcDbPolyline
 90
        2
 70
   128
 43
0.0
 10
0.2221078742716082
 20
0.1011778588116502
 10
0.2213583567852425
 20
0.1001789639863208
  0
CIRCLE
  5
19C7
330
2
100
AcDbEntity
  8
Vista
370
     0
100
AcDbCircle
 10
0.1896287542350671
 20
0.1080868848106579
 30
0.0
 40
0.0008369468585418
  0
CIRCLE
  5
19C8
330
2
100
AcDbEntity
  8
Vista
370
     0
100
AcDbCircle
 10
0.204702396901049
 20
0.1025097194430426
 30
0.0
 40
0.0010825631962541
  0
LWPOLYLINE
  5
19C9
330
2
100
AcDbEntity
  8
Vista
370
     0
100
AcDbPolyline
 90
        2
 70
   128
 43
0.0
 10
0.2054519157240592
 20
0.1040913037807673
 10
0.2057017544406329
 20
0.1055064056476037
  0
LWPOLYLINE
  5
19CA
330
2
100
AcDbEntity
  8
Vista
370
     0
100
AcDbPolyline
 90
        2
 70
   128
 43
0.0
 10
0.2035364802170791
 20
0.1036750976035467
 10
0.2028702409662601
 20
0.1050901994703831
  0
LWPOLYLINE
  5
19CB
330
2
100
AcDbEntity
  8
Vista
370
     0
100
AcDbPolyline
 90
        2
 70
   128
 43
0.0
 10
0.2030368014472871
 20
0.1018437895594896
 10
0.2017876038544814
 20
0.1011778588116502
  0
LWPOLYLINE
  5
19CC
330
2
100
AcDbEntity
  8
Vista
370
     0
100
AcDbPolyline
 90
        2
 70
   128
 43
0.0
 10
0.2041194385590622
 20
0.1005951701635414
 10
0.2041194385590622
 20
0.0997627578091002
  0
LWPOLYLINE
  5
19CD
330
2
100
AcDbEntity
  8
Vista
370
     0
100
AcDbPolyline
 90
        2
 70
   128
 43
0.0
 10
0.205368636151868
 20
0.1007616526344296
 10
0.2057850340128241
 20
0.0999292402799884
  0
LWPOLYLINE
  5
19CE
330
2
100
AcDbEntity
  8
Vista
370
     0
100
AcDbPolyline
 90
        2
 70
   128
 43
0.0
 10
0.2062847127826196
 20
0.1020102720303778
 10
0.2073673512310393
 20
0.1020102720303778
  0
LWPOLYLINE
  5
19CF
330
2
100
AcDbEntity
  8
Vista
370
     0
100
AcDbPolyline
 90
        2
 70
   128
 43
0.0
 10
0.2060348740660424
 20
0.1030924089554378
 10
0.2073673512310393
 20
0.1037583388389908
  0
LWPOLYLINE
  5
19D0
330
2
100
AcDbEntity
  8
Vista
370
     0
100
AcDbPolyline
 90
        2
 70
   128
 43
0.0
 10
0.1897953133794495
 20
0.1091690217357214
 10
0.189961872523832
 20
0.1100846761898932
  0
LWPOLYLINE
  5
19D1
330
2
100
AcDbEntity
  8
Vista
370
     0
100
AcDbPolyline
 90
        2
 70
   128
 43
0.0
 10
0.1906281117746545
 20
0.1089192980293891
 10
0.191294349688829
 20
0.1089192980293891
  0
LWPOLYLINE
  5
19D2
330
2
100
AcDbEntity
  8
Vista
370
     0
100
AcDbPolyline
 90
        2
 70
   128
 43
0.0
 10
0.1886293966954832
 20
0.1080868848106579
 10
0.1878798778724694
 20
0.1080868848106579
  0
LWPOLYLINE
  5
19D3
330
2
100
AcDbEntity
  8
Vista
370
     0
100
AcDbPolyline
 90
        2
 70
   128
 43
0.0
 10
0.1886293966954832
 20
0.1090025392648332
 10
0.1879631574446606
 20
0.1095019866774944
  0
LWPOLYLINE
  5
19D4
330
2
100
AcDbEntity
  8
Vista
370
     0
100
AcDbPolyline
 90
        4
 70
   128
 43
0.0
 10
0.2404501495448422
 20
0.1153288757514456
 10
0.2377851965514965
 20
0.1153288757514456
 10
0.2366192798675265
 20
0.1146629458678926
 10
0.2359774406409003
 20
0.1148233313261484
  0
LWPOLYLINE
  5
19D5
330
2
100
AcDbEntity
  8
Vista
370
     0
100
AcDbPolyline
 90
       20
 70
   128
 43
0.0
 10
0.2415327879932655
 20
0.1153288757514456
 10
0.240533430453678
 20
0.1152456345160015
 10
0.2400337516838861
 20
0.1154121178511761
 10
0.2395340729140906
 20
0.1160780477347291
 10
0.2396173524862854
 20
0.1170769425600585
 10
0.2397006320584766
 20
0.117826114543342
 10
0.240866548742443
 20
0.1180758382496744
 10
0.2427819842494231
 20
0.1188250093686715
 10
0.2439479022700376
 20
0.1186585268977832
 10
0.2446974197564033
 20
0.1186585268977832
 10
0.2456134977237995
 20
0.1185752856623391
 10
0.2463630152101651
 20
0.1180758382496744
 10
0.2469459748887929
 20
0.1179925970142303
 10
0.2473623727497526
 20
0.1174931496015656
 10
0.2485282907703636
 20
0.1169104600891703
 10
0.2486948499147496
 20
0.1169104600891703
 10
0.2486948499147496
 20
0.1157450827929526
 10
0.2477787719473533
 20
0.114912669574225
 10
0.2466128552633834
 20
0.1145797046324485
 10
0.2461131764935915
 20
0.1145797046324485
  0
LWPOLYLINE
  5
19D6
330
2
100
AcDbEntity
  8
Vista
370
     0
100
AcDbPolyline
 90
       22
 70
   128
 43
0.0
 10
0.2491112491123503
 20
0.1169937013246144
 10
0.2512765233359041
 20
0.1173266671306773
 10
0.2533585193239113
 20
0.1173266671306773
 10
0.2551073943498644
 20
0.1175763908370097
 10
0.2568562707124621
 20
0.1172434258952332
 10
0.2588549857916335
 20
0.1174931496015656
 10
0.2600209024756034
 20
0.1175763908370097
 10
0.2613533796406004
 20
0.1175763908370097
 10
0.2625192963245667
 20
0.1174931496015656
 10
0.2632688151475805
 20
0.1174931496015656
 10
0.2641016122061374
 20
0.1168272188537262
 10
0.2635186538641542
 20
0.1161612889701732
 10
0.2613533796406004
 20
0.115994806499285
 10
0.2602707425288217
 20
0.1158283240283967
 10
0.2583553070218415
 20
0.1153288757514456
 10
0.2565231510870526
 20
0.1149959108096691
 10
0.2546909951522637
 20
0.1148294283387809
 10
0.2533585193239113
 20
0.1144964633970044
 10
0.2523591617843238
 20
0.1144964633970044
 10
0.2511932437637129
 20
0.1145797046324485
 10
0.2501106066519342
 20
0.1144964633970044
 10
0.2488614103957766
 20
0.1150791520451132
  0
LWPOLYLINE
  5
19D7
330
2
100
AcDbEntity
  8
Vista
370
     0
100
AcDbPolyline
 90
       68
 70
   128
 43
0.0
 10
0.2426987046772319
 20
0.1150791520451132
 10
0.2428652638216143
 20
0.1117495008987756
 10
0.2440311818422288
 20
0.1094187454420538
 10
0.2439479022700376
 20
0.1079204023397696
 10
0.2453636576705812
 20
0.1079204023397696
 10
0.245946617349209
 20
0.1059226118248243
 10
0.2470292544609877
 20
0.105006958234939
 10
0.2475289332307796
 20
0.105006958234939
 10
0.2483617302893401
 20
0.1051734407058273
 10
0.249527648309951
 20
0.1051734407058273
 10
0.249527648309951
 20
0.1038415800744349
 10
0.2491112491123503
 20
0.1027594431493749
 10
0.2506102854217297
 20
0.1017605483240455
 10
0.2512765233359041
 20
0.1007616526344296
 10
0.2526090005009011
 20
0.1000124815154325
 10
0.2528588405541194
 20
0.1000124815154325
 10
0.253608358040485
 20
0.0998459990445443
 10
0.2546077155800725
 20
0.0982644147068196
 10
0.254940835205482
 20
0.097432001488092
 10
0.2556070731196564
 20
0.0970157953108714
 10
0.2565231510870526
 20
0.0970157953108714
 10
0.2571061094290358
 20
0.0969325540754273
 10
0.2575225086266365
 20
0.0963498654273184
 10
0.2586884253106064
 20
0.0963498654273184
 10
0.2597710637590297
 20
0.0965163478982067
 10
0.2613533796406004
 20
0.0964331066627626
 10
0.262269457607993
 20
0.0961001417209861
 10
0.2636852143451812
 20
0.0961001417209861
 10
0.2642681726871644
 20
0.0965995891336508
 10
0.2654340893711343
 20
0.0965995891336508
 10
0.266350167338527
 20
0.0956006934440349
 10
0.2672662453059233
 20
0.0955174522085908
 10
0.2685987211342756
 20
0.0955174522085908
 10
0.2697646391548866
 20
0.0959336583858114
 10
0.2720964738594675
 20
0.0957671759149232
 10
0.2735122292600111
 20
0.0957671759149232
 10
0.2749279859971993
 20
0.0958504171503673
 10
0.276177183590005
 20
0.096766071604539
 10
0.2765103018787699
 20
0.0977649672941549
 10
0.2775096594183574
 20
0.0988471033549285
 10
0.2776762198993844
 20
0.1000124815154325
 10
0.2781758986691764
 20
0.100345446457209
 10
0.2790086970643778
 20
0.098514138413152
 10
0.2800080546039653
 20
0.0977649672941549
 10
0.2820900492553279
 20
0.0975152427235361
 10
0.2828395667416971
 20
0.0973487602526479
 10
0.2830894067949154
 20
0.097848208529599
 10
0.2836723651368986
 20
0.0984308971777079
 10
0.283838924281281
 20
0.0992633095321491
 10
0.283838924281281
 20
0.0999292402799884
 10
0.2844218826232678
 20
0.1002622052217649
 10
0.2849215613930597
 20
0.1005951701635414
 10
0.285171401446278
 20
0.101427583382269
 10
0.2854212401628517
 20
0.1025097194430426
 10
0.2870035573810669
 20
0.1034253738972143
 10
0.2879196353484596
 20
0.1032588914263261
 10
0.289418671657839
 20
0.1032588914263261
 10
0.2905845883418089
 20
0.1036750976035467
 10
0.2919170655068023
 20
0.1045075099579879
 10
0.2926665829931715
 20
0.1054231644121596
 10
0.2940823397303597
 20
0.1066717838081078
 10
0.2946652980723429
 20
0.1076706786334373
 10
0.2960810548095311
 20
0.1085863330876126
 10
0.2974968115467193
 20
0.1095019866774944
 10
0.2986627282306857
 20
0.1110835710152226
 10
0.2999952053956826
 20
0.112415431646615
 10
0.3005781637376658
 20
0.1140802572197838
 10
0.3009945629352701
 20
0.114912669574225
  0
LWPOLYLINE
  5
19D8
330
2
100
AcDbEntity
  8
Vista
370
     0
100
AcDbPolyline
 90
       50
 70
   128
 43
0.0
 10
0.3000784849678738
 20
0.1152456345160015
 10
0.297246971493501
 20
0.1133310852365003
 10
0.2961643343817223
 20
0.113164602765612
 10
0.2944987389279604
 20
0.1128316378238356
 10
0.2930829821907722
 20
0.1121657079402826
 10
0.2920003450789971
 20
0.1110835710152226
 10
0.2920003450789971
 20
0.1098349516192708
 10
0.2912508262559833
 20
0.1092522629711655
 10
0.2902514687163994
 20
0.1092522629711655
 10
0.2888357119792112
 20
0.1092522629711655
 10
0.2872533960976406
 20
0.1096684691483826
 10
0.2864205990390802
 20
0.1103343998962255
 10
0.2845884431042912
 20
0.1096684691483826
 10
0.2845884431042912
 20
0.108170126046102
 10
0.2837556447090898
 20
0.1073377136916608
 10
0.2827562871695059
 20
0.1073377136916608
 10
0.2806742925181397
 20
0.1075874373979932
 10
0.278925416155542
 20
0.107504196162549
 10
0.2779260586159581
 20
0.1069215075144402
 10
0.2768434215041794
 20
0.1076706786334373
 10
0.275510944339186
 20
0.1076706786334373
 10
0.2744283072274073
 20
0.1070879899853284
 10
0.2730958313990549
 20
0.1070047487498843
 10
0.2723463125760447
 20
0.1068382662789961
 10
0.2718466338062492
 20
0.1061723355311567
 10
0.2699311982992691
 20
0.1061723355311567
 10
0.2680990423644801
 20
0.1061723355311567
 10
0.2672662453059233
 20
0.1061723355311567
 10
0.267182965733732
 20
0.1075874373979932
 10
0.2662668877663358
 20
0.108170126046102
 10
0.2642681726871644
 20
0.108170126046102
 10
0.2630189750943622
 20
0.1080868848106579
 10
0.2617697788382011
 20
0.1078371611043255
 10
0.2613533796406004
 20
0.1072544724562167
 10
0.2605205812453954
 20
0.1070047487498843
 10
0.2539414776658945
 20
0.1077539198688814
 10
0.2533585193239113
 20
0.1084198506167243
 10
0.253108679270693
 20
0.1092522629711655
 10
0.2525257209287099
 20
0.1093355042066097
 10
0.2514430838169312
 20
0.1090025392648332
 10
0.2511932437637129
 20
0.1098349516192708
 10
0.2511932437637129
 20
0.1104176411316696
 10
0.2507768445661122
 20
0.1115830184278873
 10
0.2501106066519342
 20
0.1120824667048385
 10
0.249527648309951
 20
0.1120824667048385
 10
0.2491112491123503
 20
0.1129148790592797
 10
0.2481118915727628
 20
0.1137472922780073
 10
0.2470292544609877
 20
0.1138305335134514
 10
0.2461131764935915
 20
0.1139970159843397
 10
0.245780056868182
 20
0.1150791520451132
  0
LWPOLYLINE
  5
19D9
330
2
100
AcDbEntity
  8
Vista
370
     0
100
AcDbPolyline
 90
       19
 70
   129
 43
0.0
 10
0.2483617302893401
 20
0.1109170885443344
 10
0.2462797356379739
 20
0.1110835710152226
 10
0.2461964560657827
 20
0.1103343998962255
 10
0.2456967772959907
 20
0.1100846761898932
 10
0.2448639789007893
 20
0.1095852279129385
 10
0.2448639789007893
 20
0.1090025392648332
 10
0.2456134977237995
 20
0.1079204023397696
 10
0.2462797356379739
 20
0.1078371611043255
 10
0.2463630152101651
 20
0.1073377136916608
 10
0.2470292544609877
 20
0.1065885425726673
 10
0.2482784507171453
 20
0.1065885425726673
 10
0.2487781294869408
 20
0.1070879899853284
 10
0.250027327079743
 20
0.1071712312207726
 10
0.2501106066519342
 20
0.1078371611043255
 10
0.2501106066519342
 20
0.1086695743230567
 10
0.2503604467051525
 20
0.1101679174253373
 10
0.2498607679353605
 20
0.110667364838002
 10
0.2489446899679678
 20
0.1108338473088902
 10
0.2483617302893401
 20
0.1108338473088902
  0
LWPOLYLINE
  5
19DA
330
2
100
AcDbEntity
  8
Vista
370
     0
100
AcDbPolyline
 90
       25
 70
   129
 43
0.0
 10
0.262269457607993
 20
0.0992633095321491
 10
0.2615199387849828
 20
0.0999292402799884
 10
0.2603540221010129
 20
0.1000124815154325
 10
0.2596045032780027
 20
0.1005119289280973
 10
0.2593546645614254
 20
0.1012611009113808
 10
0.2587717062194422
 20
0.1020102720303778
 10
0.2588549857916335
 20
0.1034253738972143
 10
0.2592713849892342
 20
0.1045075099579879
 10
0.2593546645614254
 20
0.1053399231767155
 10
0.2604373016732041
 20
0.1063388180020449
 10
0.2611035395873821
 20
0.1066717838081078
 10
0.2620196175547748
 20
0.1066717838081078
 10
0.2635186538641542
 20
0.1066717838081078
 10
0.2641016122061374
 20
0.1063388180020449
 10
0.2651842506545607
 20
0.1059226118248243
 10
0.2654340893711343
 20
0.1055064056476037
 10
0.2658504885687351
 20
0.1051734407058273
 10
0.2666000060551043
 20
0.1045075099579879
 10
0.2670996848248962
 20
0.1032588914263261
 10
0.2670996848248962
 20
0.1021767545012661
 10
0.2666000060551043
 20
0.1015108246177131
 10
0.2662668877663358
 20
0.0997627578091002
 10
0.2655173689433256
 20
0.0995130341027678
 10
0.2645180114037381
 20
0.0993465507675932
 10
0.2632688151475805
 20
0.0991800682967049
  0
LWPOLYLINE
  5
19DB
330
2
100
AcDbEntity
  8
Vista
370
     0
100
AcDbPolyline
 90
       13
 70
   128
 43
0.0
 10
0.2772598207017801
 20
0.1000124815154325
 10
0.2765103018787699
 20
0.1009281351053179
 10
0.276010623108978
 20
0.1018437895594896
 10
0.2753443851948
 20
0.1025929606784867
 10
0.2736787897410381
 20
0.1026762019139308
 10
0.272596152629263
 20
0.1026762019139308
 10
0.271263675464266
 20
0.1025097194430426
 10
0.2701810383524873
 20
0.1017605483240455
 10
0.2695147991016683
 20
0.1005119289280973
 10
0.2690983999040676
 20
0.0989303445903726
 10
0.2682656028455072
 20
0.0980979322359314
 10
0.2687652816153027
 20
0.0965995891336508
 10
0.2692649603850946
 20
0.0961833829564302
  0
LWPOLYLINE
  5
19DC
330
2
100
AcDbEntity
  8
Vista
370
     0
100
AcDbPolyline
 90
        3
 70
   128
 43
0.0
 10
0.276010623108978
 20
0.0986806208840402
 10
0.2751778260504175
 20
0.0977649672941549
 10
0.2730125504902191
 20
0.0963498654273184
  0
LWPOLYLINE
  5
19DD
330
2
100
AcDbEntity
  8
Vista
370
     0
100
AcDbPolyline
 90
        4
 70
   128
 43
0.0
 10
0.2721797534316587
 20
0.0968493128399832
 10
0.2721797534316587
 20
0.097848208529599
 10
0.2723463125760447
 20
0.0983476559422637
 10
0.272596152629263
 20
0.0989303445903726
  0
LWPOLYLINE
  5
19DE
330
2
100
AcDbEntity
  8
Vista
370
     0
100
AcDbPolyline
 90
        6
 70
   128
 43
0.0
 10
0.2724295921482359
 20
0.0994297920030373
 10
0.2731791109712462
 20
0.0999292402799884
 10
0.2738453488854241
 20
0.0999292402799884
 10
0.2745948677084343
 20
0.0999292402799884
 10
0.2750112655693905
 20
0.0999292402799884
 10
0.2751778260504175
 20
0.0999292402799884
  0
LWPOLYLINE
  5
19DF
330
2
100
AcDbEntity
  8
Vista
370
     0
100
AcDbPolyline
 90
        5
 70
   128
 43
0.0
 10
0.2739286284576154
 20
0.0986806208840402
 10
0.2733456701156286
 20
0.0981811734713755
 10
0.2730125504902191
 20
0.097432001488092
 10
0.2741784685108336
 20
0.0980979322359314
 10
0.2745948677084343
 20
0.0986806208840402
  0
LWPOLYLINE
  5
19E0
330
2
100
AcDbEntity
  8
Vista
370
     0
100
AcDbPolyline
 90
        3
 70
   128
 43
0.0
 10
0.270597436213447
 20
0.0965163478982067
 10
0.270597436213447
 20
0.0976817251944244
 10
0.2713469550364572
 20
0.0987638621194843
  0
LWPOLYLINE
  5
19E1
330
2
100
AcDbEntity
  8
Vista
370
     0
100
AcDbPolyline
 90
        3
 70
   128
 43
0.0
 10
0.2840887643344993
 20
0.1065885425726673
 10
0.2891688316046207
 20
0.1065053004729332
 10
0.2868369969000399
 20
0.1038415800744349
  0
LWPOLYLINE
  5
19E2
330
2
100
AcDbEntity
  8
Vista
370
     0
100
AcDbPolyline
 90
        5
 70
   128
 43
0.0
 10
0.2909177079672184
 20
0.1089192980293891
 10
0.2900016299998222
 20
0.1073377136916608
 10
0.2903347482885907
 20
0.1061723355311567
 10
0.2920836246511883
 20
0.1057561293539361
 10
0.2927498625653628
 20
0.1060058530602685
  0
LWPOLYLINE
  5
19E3
330
2
100
AcDbEntity
  8
Vista
370
     0
100
AcDbPolyline
 90
        4
 70
   128
 43
0.0
 10
0.2927498625653628
 20
0.1100014340901591
 10
0.2941656193025509
 20
0.1101679174253373
 10
0.294332179783578
 20
0.1092522629711655
 10
0.2940823397303597
 20
0.1082533672815461
  0
LWPOLYLINE
  5
19E4
330
2
100
AcDbEntity
  8
Vista
370
     0
100
AcDbPolyline
 90
        2
 70
   128
 43
0.0
 10
0.292333463367762
 20
0.1066717838081078
 10
0.2922501837955708
 20
0.1091690217357214
  0
LWPOLYLINE
  5
19E5
330
2
100
AcDbEntity
  8
Vista
370
     0
100
AcDbPolyline
 90
        2
 70
   128
 43
0.0
 10
0.2677659240757152
 20
0.1032588914263261
 10
0.271929913378444
 20
0.1032588914263261
  0
LWPOLYLINE
  5
19E6
330
2
100
AcDbEntity
  8
Vista
370
     0
100
AcDbPolyline
 90
        2
 70
   128
 43
0.0
 10
0.267516084022497
 20
0.1050901994703831
 10
0.2723463125760447
 20
0.1050901994703831
  0
LWPOLYLINE
  5
19E7
330
2
100
AcDbEntity
  8
Vista
370
     0
100
AcDbPolyline
 90
       16
 70
   129
 43
0.0
 10
0.2559401927450694
 20
0.1062555767666008
 10
0.2548575556332907
 20
0.1065885425726673
 10
0.2531919588428843
 20
0.1055064056476037
 10
0.253108679270693
 20
0.1053399231767155
 10
0.2533585193239113
 20
0.1035086151326584
 10
0.2527755596452835
 20
0.1019270307949337
 10
0.2546077155800725
 20
0.102093513265822
 10
0.2554405139752739
 20
0.1029259256202632
 10
0.2561900314616431
 20
0.1029259256202632
 10
0.2567729911402709
 20
0.1029259256202632
 10
0.2575225086266365
 20
0.1033421326617702
 10
0.2578556282520496
 20
0.1042577862516555
 10
0.2572726699100628
 20
0.1054231644121596
 10
0.2576057881988313
 20
0.1060890942957126
 10
0.2572726699100628
 20
0.1065885425726673
 10
0.2559401927450694
 20
0.1065885425726673
  0
LWPOLYLINE
  5
19E8
330
2
100
AcDbEntity
  8
Vista
370
     0
100
AcDbPolyline
 90
        5
 70
   128
 43
0.0
 10
0.2526922800730923
 20
0.1048404757640508
 10
0.2521093217311056
 20
0.1053399231767155
 10
0.2510266846193304
 20
0.1054231644121596
 10
0.2506102854217297
 20
0.1048404757640508
 10
0.2501106066519342
 20
0.1047572336643202
  0
LWPOLYLINE
  5
19E9
330
2
100
AcDbEntity
  8
Vista
370
     0
100
AcDbPolyline
 90
        8
 70
   128
 43
0.0
 10
0.250860125474948
 20
0.1082533672815461
 10
0.2527755596452835
 20
0.1082533672815461
 10
0.2532752384150755
 20
0.108170126046102
 10
0.2536916376126762
 20
0.1073377136916608
 10
0.2528588405541194
 20
0.1061723355311567
 10
0.2521093217311056
 20
0.1061723355311567
 10
0.2509434050471392
 20
0.106755025043552
 10
0.2503604467051525
 20
0.1072544724562167
  0
LWPOLYLINE
  5
19EA
330
2
100
AcDbEntity
  8
Vista
370
     0
100
AcDbPolyline
 90
        7
 70
   128
 43
0.0
 10
0.2456967772959907
 20
0.1108338473088902
 10
0.2450305393818163
 20
0.1117495008987756
 10
0.2449472598096215
 20
0.113164602765612
 10
0.2471125340331789
 20
0.1134975677073885
 10
0.2478620515195446
 20
0.1128316378238356
 10
0.2479453324283804
 20
0.1124986728820591
 10
0.2479453324283804
 20
0.1114997771924432
  0
LWPOLYLINE
  5
19EB
330
2
100
AcDbEntity
  8
Vista
370
     0
100
AcDbPolyline
 90
        5
 70
   128
 43
0.0
 10
0.2581054669686233
 20
0.1007616526344296
 10
0.2586884253106064
 20
0.0994297920030373
 10
0.2591048245082072
 20
0.0988471033549285
 10
0.2595212237058114
 20
0.0979314497650431
 10
0.2599376229034122
 20
0.0968493128399832
  0
LWPOLYLINE
  5
19EC
330
2
100
AcDbEntity
  8
Vista
370
     0
100
AcDbPolyline
 90
        3
 70
   128
 43
0.0
 10
0.2568562707124621
 20
0.0973487602526479
 10
0.2577723486798548
 20
0.0982644147068196
 10
0.2584385865940328
 20
0.098514138413152
  0
LWPOLYLINE
  5
19ED
330
2
100
AcDbEntity
  8
Vista
370
     0
100
AcDbPolyline
 90
        4
 70
   128
 43
0.0
 10
0.2546909951522637
 20
0.1007616526344296
 10
0.2555237935474651
 20
0.1010946175762061
 10
0.2557736322640424
 20
0.1016773070886014
 10
0.2558569131728746
 20
0.1020102720303778
  0
LWPOLYLINE
  5
19EE
330
2
100
AcDbEntity
  8
Vista
370
     0
100
AcDbPolyline
 90
        2
 70
   128
 43
0.0
 10
0.258022187396432
 20
0.1036750976035467
 10
0.2586051457384152
 20
0.1036750976035467
  0
LWPOLYLINE
  5
19EF
330
2
100
AcDbEntity
  8
Vista
370
     0
100
AcDbPolyline
 90
        2
 70
   128
 43
0.0
 10
0.2579389078242408
 20
0.1048404757640508
 10
0.2586884253106064
 20
0.1048404757640508
  0
LWPOLYLINE
  5
19F0
330
2
100
AcDbEntity
  8
Vista
370
     0
100
AcDbPolyline
 90
        2
 70
   128
 43
0.0
 10
0.2578556282520496
 20
0.1060890942957126
 10
0.2589382653638247
 20
0.1060890942957126
  0
LWPOLYLINE
  5
19F1
330
2
100
AcDbEntity
  8
Vista
370
     0
100
AcDbPolyline
 90
        5
 70
   128
 43
0.0
 10
0.2673495248781145
 20
0.0987638621194843
 10
0.2666832869639365
 20
0.0992633095321491
 10
0.2652675302267519
 20
0.0984308971777079
 10
0.2652675302267519
 20
0.0981811734713755
 10
0.2653508097989431
 20
0.0972655190172038
  0
LWPOLYLINE
  5
19F2
330
2
100
AcDbEntity
  8
Vista
370
     0
100
AcDbPolyline
 90
        5
 70
   128
 43
0.0
 10
0.262269457607993
 20
0.0968493128399832
 10
0.2625192963245667
 20
0.0972655190172038
 10
0.2629356955221675
 20
0.0973487602526479
 10
0.2630189750943622
 20
0.0970157953108714
 10
0.2631022546665535
 20
0.096766071604539
  0
LWPOLYLINE
  5
19F3
330
2
100
AcDbEntity
  8
Vista
370
     0
100
AcDbPolyline
 90
        3
 70
   128
 43
0.0
 10
0.2745948677084343
 20
0.1059226118248243
 10
0.2749279859971993
 20
0.1035918563681025
 10
0.2749279859971993
 20
0.1032588914263261
  0
LWPOLYLINE
  5
19F4
330
2
100
AcDbEntity
  8
Vista
370
     0
100
AcDbPolyline
 90
       10
 70
   128
 43
0.0
 10
0.2749279859971993
 20
0.1032588914263261
 10
0.2755942252480183
 20
0.1063388180020449
 10
0.2763437427343875
 20
0.1065885425726673
 10
0.2770099806485619
 20
0.1065885425726673
 10
0.2773431002739749
 20
0.1060890942957126
 10
0.2781758986691764
 20
0.1060890942957126
 10
0.2783424578135588
 20
0.1051734407058273
 10
0.2785922978667771
 20
0.1044242687225438
 10
0.2778427790437669
 20
0.102842684384819
 10
0.2770099806485619
 20
0.102842684384819
  0
LWPOLYLINE
  5
19F5
330
2
100
AcDbEntity
  8
Vista
370
     0
100
AcDbPolyline
 90
        3
 70
   128
 43
0.0
 10
0.2795083758341698
 20
0.104590751193432
 10
0.2808408516625222
 20
0.104590751193432
 10
0.2820900492553279
 20
0.104590751193432
  0
LWPOLYLINE
  5
19F6
330
2
100
AcDbEntity
  8
Vista
370
     0
100
AcDbPolyline
 90
       11
 70
   128
 43
0.0
 10
0.2831726863671066
 20
0.1059226118248243
 10
0.284338603051073
 20
0.1054231644121596
 10
0.2836723651368986
 20
0.105006958234939
 10
0.2825897280251199
 20
0.1043410274870996
 10
0.2830894067949154
 20
0.1029259256202632
 10
0.2832559659392978
 20
0.1024264782075984
 10
0.2820067696831367
 20
0.1020102720303778
 10
0.2811739712879352
 20
0.1020102720303778
 10
0.2798414941229383
 20
0.1020102720303778
 10
0.278925416155542
 20
0.1015108246177131
 10
0.2781758986691764
 20
0.1013443421468249
  0
LWPOLYLINE
  5
19F7
330
2
100
AcDbEntity
  8
Vista
370
     0
100
AcDbPolyline
 90
        2
 70
   128
 43
0.0
 10
0.2813405304323177
 20
0.1007616526344296
 10
0.2836723651368986
 20
0.1013443421468249
  0
LWPOLYLINE
  5
19F8
330
2
100
AcDbEntity
  8
Vista
370
     0
100
AcDbPolyline
 90
        2
 70
   128
 43
0.0
 10
0.2819234887743009
 20
0.0987638621194843
 10
0.2808408516625222
 20
0.0987638621194843
  0
LWPOLYLINE
  5
19F9
330
2
100
AcDbEntity
  8
Vista
370
     0
100
AcDbPolyline
 90
        2
 70
   128
 43
0.0
 10
0.2804244524649215
 20
0.1011778588116502
 10
0.2796749349785558
 20
0.1001789639863208
  0
CIRCLE
  5
19FA
330
2
100
AcDbEntity
  8
Vista
370
     0
100
AcDbCircle
 10
0.2479453324283804
 20
0.1080868848106579
 30
0.0
 40
0.0008369468585418
  0
CIRCLE
  5
19FB
330
2
100
AcDbEntity
  8
Vista
370
     0
100
AcDbCircle
 10
0.2630189750943622
 20
0.1025097194430426
 30
0.0
 40
0.0010825631962541
  0
LWPOLYLINE
  5
19FC
330
2
100
AcDbEntity
  8
Vista
370
     0
100
AcDbPolyline
 90
        2
 70
   128
 43
0.0
 10
0.2637684939173725
 20
0.1040913037807673
 10
0.2640183326339462
 20
0.1055064056476037
  0
LWPOLYLINE
  5
19FD
330
2
100
AcDbEntity
  8
Vista
370
     0
100
AcDbPolyline
 90
        2
 70
   128
 43
0.0
 10
0.2618530584103923
 20
0.1036750976035467
 10
0.2611868191595733
 20
0.1050901994703831
  0
LWPOLYLINE
  5
19FE
330
2
100
AcDbEntity
  8
Vista
370
     0
100
AcDbPolyline
 90
        2
 70
   128
 43
0.0
 10
0.2613533796406004
 20
0.1018437895594896
 10
0.2601041820477946
 20
0.1011778588116502
  0
LWPOLYLINE
  5
19FF
330
2
100
AcDbEntity
  8
Vista
370
     0
100
AcDbPolyline
 90
        2
 70
   128
 43
0.0
 10
0.2624360167523755
 20
0.1005951701635414
 10
0.2624360167523755
 20
0.0997627578091002
  0
LWPOLYLINE
  5
1A00
330
2
100
AcDbEntity
  8
Vista
370
     0
100
AcDbPolyline
 90
        2
 70
   128
 43
0.0
 10
0.2636852143451812
 20
0.1007616526344296
 10
0.2641016122061374
 20
0.0999292402799884
  0
LWPOLYLINE
  5
1A01
330
2
100
AcDbEntity
  8
Vista
370
     0
100
AcDbPolyline
 90
        2
 70
   128
 43
0.0
 10
0.2646012909759329
 20
0.1020102720303778
 10
0.2656839294243526
 20
0.1020102720303778
  0
LWPOLYLINE
  5
1A02
330
2
100
AcDbEntity
  8
Vista
370
     0
100
AcDbPolyline
 90
        2
 70
   128
 43
0.0
 10
0.2643514522593557
 20
0.1030924089554378
 10
0.2656839294243526
 20
0.1037583388389908
  0
LWPOLYLINE
  5
1A03
330
2
100
AcDbEntity
  8
Vista
370
     0
100
AcDbPolyline
 90
        2
 70
   128
 43
0.0
 10
0.2481118915727628
 20
0.1091690217357214
 10
0.2482784507171453
 20
0.1100846761898932
  0
LWPOLYLINE
  5
1A04
330
2
100
AcDbEntity
  8
Vista
370
     0
100
AcDbPolyline
 90
        2
 70
   128
 43
0.0
 10
0.2489446899679678
 20
0.1089192980293891
 10
0.2496109278821422
 20
0.1089192980293891
  0
LWPOLYLINE
  5
1A05
330
2
100
AcDbEntity
  8
Vista
370
     0
100
AcDbPolyline
 90
        2
 70
   128
 43
0.0
 10
0.2469459748887929
 20
0.1080868848106579
 10
0.2461964560657827
 20
0.1080868848106579
  0
LWPOLYLINE
  5
1A06
330
2
100
AcDbEntity
  8
Vista
370
     0
100
AcDbPolyline
 90
        2
 70
   128
 43
0.0
 10
0.2469459748887929
 20
0.1090025392648332
 10
0.2462797356379739
 20
0.1095019866774944
  0
LWPOLYLINE
  5
1A07
330
2
100
AcDbEntity
  8
Vista
370
     0
100
AcDbPolyline
 90
       29
 70
   128
 43
0.0
 10
0.2987667277381555
 20
0.1153288757514456
 10
0.2961017747448097
 20
0.1153288757514456
 10
0.2949358580608398
 20
0.1146629458678926
 10
0.2936033808958428
 20
0.1149959108096691
 10
0.2927705825006414
 20
0.1152456345160015
 10
0.2921043445864634
 20
0.1152456345160015
 10
0.29077186742147
 20
0.1152456345160015
 10
0.2896059507375001
 20
0.1154121178511761
 10
0.2885233136257214
 20
0.1150791520451132
 10
0.2874406765139463
 20
0.1149959108096691
 10
0.2856085205791573
 20
0.1157450827929526
 10
0.2848590017561436
 20
0.1166607363828379
 10
0.2841927638419691
 20
0.1170769425600585
 10
0.2831934063023817
 20
0.1173266671306773
 10
0.2818609291373883
 20
0.1173266671306773
 10
0.2807782920256096
 20
0.1179925970142303
 10
0.2813612503675928
 20
0.1179925970142303
 10
0.2823606079071802
 20
0.1183255619560068
 10
0.2841094842697779
 20
0.1182423207205626
 10
0.2857750797235398
 20
0.1182423207205626
 10
0.2869409977441507
 20
0.1175763908370097
 10
0.2879403552837382
 20
0.1174099083661214
 10
0.2897725098818825
 20
0.1172434258952332
 10
0.2910217074746883
 20
0.1171601846597891
 10
0.2921043445864634
 20
0.1174931496015656
 10
0.2941030596656348
 20
0.1172434258952332
 10
0.2952689763496047
 20
0.1171601846597891
 10
0.2966014535146017
 20
0.1171601846597891
 10
0.2979339306795951
 20
0.1171601846597891
  0
LWPOLYLINE
  5
1A08
330
2
100
AcDbEntity
  8
Vista
370
     0
100
AcDbPolyline
 90
       20
 70
   128
 43
0.0
 10
0.2998493661865788
 20
0.1153288757514456
 10
0.2988500086469913
 20
0.1152456345160015
 10
0.2983503298771994
 20
0.1154121178511761
 10
0.2978506511074039
 20
0.1160780477347291
 10
0.2979339306795951
 20
0.1170769425600585
 10
0.2980172102517899
 20
0.117826114543342
 10
0.2991831269357562
 20
0.1180758382496744
 10
0.3010985624427364
 20
0.1188250093686715
 10
0.3022644804633509
 20
0.1186585268977832
 10
0.3030139979497165
 20
0.1186585268977832
 10
0.3039300759171128
 20
0.1185752856623391
 10
0.3046795934034784
 20
0.1180758382496744
 10
0.3052625530821062
 20
0.1179925970142303
 10
0.3056789509430659
 20
0.1174931496015656
 10
0.3068448689636768
 20
0.1169104600891703
 10
0.3070114281080628
 20
0.1169104600891703
 10
0.3070114281080628
 20
0.1157450827929526
 10
0.3060953501406666
 20
0.114912669574225
 10
0.3049294334566967
 20
0.1145797046324485
 10
0.3044297546869047
 20
0.1145797046324485
  0
LWPOLYLINE
  5
1A09
330
2
100
AcDbEntity
  8
Vista
370
     0
100
AcDbPolyline
 90
       22
 70
   128
 43
0.0
 10
0.3074278273056636
 20
0.1169937013246144
 10
0.3095931015292174
 20
0.1173266671306773
 10
0.3116750975172246
 20
0.1173266671306773
 10
0.3134239725431777
 20
0.1175763908370097
 10
0.3151728489057754
 20
0.1172434258952332
 10
0.3171715639849467
 20
0.1174931496015656
 10
0.3183374806689167
 20
0.1175763908370097
 10
0.3196699578339136
 20
0.1175763908370097
 10
0.32083587451788
 20
0.1174931496015656
 10
0.3215853933408902
 20
0.1174931496015656
 10
0.3224181903994506
 20
0.1168272188537262
 10
0.3218352320574675
 20
0.1161612889701732
 10
0.3196699578339136
 20
0.115994806499285
 10
0.3185873207221349
 20
0.1158283240283967
 10
0.3166718852151548
 20
0.1153288757514456
 10
0.3148397292803659
 20
0.1149959108096691
 10
0.313007573345577
 20
0.1148294283387809
 10
0.3116750975172246
 20
0.1144964633970044
 10
0.3106757399776371
 20
0.1144964633970044
 10
0.3095098219570262
 20
0.1145797046324485
 10
0.3084271848452475
 20
0.1144964633970044
 10
0.3071779885890863
 20
0.1150791520451132
  0
LWPOLYLINE
  5
1A0A
330
2
100
AcDbEntity
  8
Vista
370
     0
100
AcDbPolyline
 90
       68
 70
   128
 43
0.0
 10
0.3010152828705451
 20
0.1150791520451132
 10
0.3011818420149276
 20
0.1117495008987756
 10
0.3023477600355421
 20
0.1094187454420538
 10
0.3022644804633509
 20
0.1079204023397696
 10
0.3036802358638945
 20
0.1079204023397696
 10
0.3042631955425223
 20
0.1059226118248243
 10
0.3053458326543009
 20
0.105006958234939
 10
0.3058455114240929
 20
0.105006958234939
 10
0.3066783084826498
 20
0.1051734407058273
 10
0.3078442265032643
 20
0.1051734407058273
 10
0.3078442265032643
 20
0.1038415800744349
 10
0.3074278273056636
 20
0.1027594431493749
 10
0.308926863615043
 20
0.1017605483240455
 10
0.3095931015292174
 20
0.1007616526344296
 10
0.3109255786942143
 20
0.1000124815154325
 10
0.3111754187474326
 20
0.1000124815154325
 10
0.3119249362337983
 20
0.0998459990445443
 10
0.3129242937733857
 20
0.0982644147068196
 10
0.3132574133987952
 20
0.097432001488092
 10
0.3139236513129696
 20
0.0970157953108714
 10
0.3148397292803659
 20
0.0970157953108714
 10
0.3154226876223491
 20
0.0969325540754273
 10
0.3158390868199498
 20
0.0963498654273184
 10
0.3170050035039197
 20
0.0963498654273184
 10
0.318087641952343
 20
0.0965163478982067
 10
0.3196699578339136
 20
0.0964331066627626
 10
0.3205860358013063
 20
0.0961001417209861
 10
0.3220017925384945
 20
0.0961001417209861
 10
0.3225847508804777
 20
0.0965995891336508
 10
0.3237506675644476
 20
0.0965995891336508
 10
0.3246667455318403
 20
0.0956006934440349
 10
0.3255828234992365
 20
0.0955174522085908
 10
0.3269152993275889
 20
0.0955174522085908
 10
0.3280812173481999
 20
0.0959336583858114
 10
0.3304130520527807
 20
0.0957671759149232
 10
0.3318288074533243
 20
0.0957671759149232
 10
0.3332445641905125
 20
0.0958504171503673
 10
0.3344937617833183
 20
0.096766071604539
 10
0.3348268800720832
 20
0.0977649672941549
 10
0.3358262376116706
 20
0.0988471033549285
 10
0.3359927980926977
 20
0.1000124815154325
 10
0.3364924768624896
 20
0.100345446457209
 10
0.3373252752576911
 20
0.098514138413152
 10
0.3383246327972786
 20
0.0977649672941549
 10
0.3404066274486412
 20
0.0975152427235361
 10
0.3411561449350104
 20
0.0973487602526479
 10
0.3414059849882286
 20
0.097848208529599
 10
0.3419889433302118
 20
0.0984308971777079
 10
0.3421555024745943
 20
0.0992633095321491
 10
0.3421555024745943
 20
0.0999292402799884
 10
0.3427384608165775
 20
0.1002622052217649
 10
0.343238139586373
 20
0.1005951701635414
 10
0.3434879796395912
 20
0.101427583382269
 10
0.3437378183561649
 20
0.1025097194430426
 10
0.3453201355743801
 20
0.1034253738972143
 10
0.3462362135417728
 20
0.1032588914263261
 10
0.3477352498511522
 20
0.1032588914263261
 10
0.3489011665351222
 20
0.1036750976035467
 10
0.3502336437001156
 20
0.1045075099579879
 10
0.3509831611864848
 20
0.1054231644121596
 10
0.352398917923673
 20
0.1066717838081078
 10
0.3529818762656562
 20
0.1076706786334373
 10
0.3543976330028443
 20
0.1085863330876126
 10
0.3558133897400325
 20
0.1095019866774944
 10
0.3569793064239989
 20
0.1110835710152226
 10
0.3583117835889959
 20
0.112415431646615
 10
0.358894741930979
 20
0.1140802572197838
 10
0.3593111411285798
 20
0.114912669574225
  0
LWPOLYLINE
  5
1A0B
330
2
100
AcDbEntity
  8
Vista
370
     0
100
AcDbPolyline
 90
       50
 70
   128
 43
0.0
 10
0.3583950631611871
 20
0.1152456345160015
 10
0.3555635496868143
 20
0.1133310852365003
 10
0.3544809125750356
 20
0.113164602765612
 10
0.3528153171212737
 20
0.1128316378238356
 10
0.3513995603840855
 20
0.1121657079402826
 10
0.3503169232723068
 20
0.1110835710152226
 10
0.3503169232723068
 20
0.1098349516192708
 10
0.3495674044492966
 20
0.1092522629711655
 10
0.3485680469097127
 20
0.1092522629711655
 10
0.3471522901725245
 20
0.1092522629711655
 10
0.3455699742909538
 20
0.1096684691483826
 10
0.3447371772323934
 20
0.1103343998962255
 10
0.3429050212976045
 20
0.1096684691483826
 10
0.3429050212976045
 20
0.108170126046102
 10
0.342072222902403
 20
0.1073377136916608
 10
0.3410728653628156
 20
0.1073377136916608
 10
0.338990870711453
 20
0.1075874373979932
 10
0.3372419943488553
 20
0.107504196162549
 10
0.3362426368092714
 20
0.1069215075144402
 10
0.3351599996974927
 20
0.1076706786334373
 10
0.3338275225324993
 20
0.1076706786334373
 10
0.3327448854207206
 20
0.1070879899853284
 10
0.3314124095923682
 20
0.1070047487498843
 10
0.330662890769358
 20
0.1068382662789961
 10
0.3301632119995625
 20
0.1061723355311567
 10
0.3282477764925823
 20
0.1061723355311567
 10
0.3264156205577934
 20
0.1061723355311567
 10
0.3255828234992365
 20
0.1061723355311567
 10
0.3254995439270453
 20
0.1075874373979932
 10
0.3245834659596491
 20
0.108170126046102
 10
0.3225847508804777
 20
0.108170126046102
 10
0.3213355532876755
 20
0.1080868848106579
 10
0.3200863570315144
 20
0.1078371611043255
 10
0.3196699578339136
 20
0.1072544724562167
 10
0.3188371594387086
 20
0.1070047487498843
 10
0.3122580558592078
 20
0.1077539198688814
 10
0.3116750975172246
 20
0.1084198506167243
 10
0.3114252574640063
 20
0.1092522629711655
 10
0.3108422991220231
 20
0.1093355042066097
 10
0.3097596620102444
 20
0.1090025392648332
 10
0.3095098219570262
 20
0.1098349516192708
 10
0.3095098219570262
 20
0.1104176411316696
 10
0.3090934227594254
 20
0.1115830184278873
 10
0.3084271848452475
 20
0.1120824667048385
 10
0.3078442265032643
 20
0.1120824667048385
 10
0.3074278273056636
 20
0.1129148790592797
 10
0.3064284697660761
 20
0.1137472922780073
 10
0.3053458326543009
 20
0.1138305335134514
 10
0.3044297546869047
 20
0.1139970159843397
 10
0.3040966350614952
 20
0.1150791520451132
  0
LWPOLYLINE
  5
1A0C
330
2
100
AcDbEntity
  8
Vista
370
     0
100
AcDbPolyline
 90
       19
 70
   129
 43
0.0
 10
0.3066783084826498
 20
0.1109170885443344
 10
0.3045963138312872
 20
0.1110835710152226
 10
0.3045130342590959
 20
0.1103343998962255
 10
0.304013355489304
 20
0.1100846761898932
 10
0.3031805570941025
 20
0.1095852279129385
 10
0.3031805570941025
 20
0.1090025392648332
 10
0.3039300759171128
 20
0.1079204023397696
 10
0.3045963138312872
 20
0.1078371611043255
 10
0.3046795934034784
 20
0.1073377136916608
 10
0.3053458326543009
 20
0.1065885425726673
 10
0.3065950289104586
 20
0.1065885425726673
 10
0.3070947076802541
 20
0.1070879899853284
 10
0.3083439052730562
 20
0.1071712312207726
 10
0.3084271848452475
 20
0.1078371611043255
 10
0.3084271848452475
 20
0.1086695743230567
 10
0.3086770248984657
 20
0.1101679174253373
 10
0.3081773461286738
 20
0.110667364838002
 10
0.3072612681612811
 20
0.1108338473088902
 10
0.3066783084826498
 20
0.1108338473088902
  0
LWPOLYLINE
  5
1A0D
330
2
100
AcDbEntity
  8
Vista
370
     0
100
AcDbPolyline
 90
       25
 70
   129
 43
0.0
 10
0.3205860358013063
 20
0.0992633095321491
 10
0.3198365169782961
 20
0.0999292402799884
 10
0.3186706002943262
 20
0.1000124815154325
 10
0.3179210814713159
 20
0.1005119289280973
 10
0.3176712427547387
 20
0.1012611009113808
 10
0.3170882844127555
 20
0.1020102720303778
 10
0.3171715639849467
 20
0.1034253738972143
 10
0.3175879631825475
 20
0.1045075099579879
 10
0.3176712427547387
 20
0.1053399231767155
 10
0.3187538798665174
 20
0.1063388180020449
 10
0.3194201177806954
 20
0.1066717838081078
 10
0.320336195748088
 20
0.1066717838081078
 10
0.3218352320574675
 20
0.1066717838081078
 10
0.3224181903994506
 20
0.1063388180020449
 10
0.3235008288478739
 20
0.1059226118248243
 10
0.3237506675644476
 20
0.1055064056476037
 10
0.3241670667620483
 20
0.1051734407058273
 10
0.3249165842484175
 20
0.1045075099579879
 10
0.3254162630182095
 20
0.1032588914263261
 10
0.3254162630182095
 20
0.1021767545012661
 10
0.3249165842484175
 20
0.1015108246177131
 10
0.3245834659596491
 20
0.0997627578091002
 10
0.3238339471366388
 20
0.0995130341027678
 10
0.3228345895970514
 20
0.0993465507675932
 10
0.3215853933408902
 20
0.0991800682967049
  0
LWPOLYLINE
  5
1A0E
330
2
100
AcDbEntity
  8
Vista
370
     0
100
AcDbPolyline
 90
       13
 70
   128
 43
0.0
 10
0.3355763988950934
 20
0.1000124815154325
 10
0.3348268800720832
 20
0.1009281351053179
 10
0.3343272013022912
 20
0.1018437895594896
 10
0.3336609633881133
 20
0.1025929606784867
 10
0.3319953679343514
 20
0.1026762019139308
 10
0.3309127308225762
 20
0.1026762019139308
 10
0.3295802536575793
 20
0.1025097194430426
 10
0.3284976165458006
 20
0.1017605483240455
 10
0.3278313772949816
 20
0.1005119289280973
 10
0.3274149780973809
 20
0.0989303445903726
 10
0.3265821810388204
 20
0.0980979322359314
 10
0.3270818598086159
 20
0.0965995891336508
 10
0.3275815385784079
 20
0.0961833829564302
  0
LWPOLYLINE
  5
1A0F
330
2
100
AcDbEntity
  8
Vista
370
     0
100
AcDbPolyline
 90
        3
 70
   128
 43
0.0
 10
0.3343272013022912
 20
0.0986806208840402
 10
0.3334944042437308
 20
0.0977649672941549
 10
0.3313291286835324
 20
0.0963498654273184
  0
LWPOLYLINE
  5
1A10
330
2
100
AcDbEntity
  8
Vista
370
     0
100
AcDbPolyline
 90
        4
 70
   128
 43
0.0
 10
0.330496331624972
 20
0.0968493128399832
 10
0.330496331624972
 20
0.097848208529599
 10
0.330662890769358
 20
0.0983476559422637
 10
0.3309127308225762
 20
0.0989303445903726
  0
LWPOLYLINE
  5
1A11
330
2
100
AcDbEntity
  8
Vista
370
     0
100
AcDbPolyline
 90
        6
 70
   128
 43
0.0
 10
0.3307461703415492
 20
0.0994297920030373
 10
0.3314956891645594
 20
0.0999292402799884
 10
0.3321619270787374
 20
0.0999292402799884
 10
0.3329114459017476
 20
0.0999292402799884
 10
0.3333278437627038
 20
0.0999292402799884
 10
0.3334944042437308
 20
0.0999292402799884
  0
LWPOLYLINE
  5
1A12
330
2
100
AcDbEntity
  8
Vista
370
     0
100
AcDbPolyline
 90
        5
 70
   128
 43
0.0
 10
0.3322452066509286
 20
0.0986806208840402
 10
0.3316622483089419
 20
0.0981811734713755
 10
0.3313291286835324
 20
0.097432001488092
 10
0.3324950467041469
 20
0.0980979322359314
 10
0.3329114459017476
 20
0.0986806208840402
  0
LWPOLYLINE
  5
1A13
330
2
100
AcDbEntity
  8
Vista
370
     0
100
AcDbPolyline
 90
        3
 70
   128
 43
0.0
 10
0.3289140144067603
 20
0.0965163478982067
 10
0.3289140144067603
 20
0.0976817251944244
 10
0.3296635332297705
 20
0.0987638621194843
  0
LWPOLYLINE
  5
1A14
330
2
100
AcDbEntity
  8
Vista
370
     0
100
AcDbPolyline
 90
        3
 70
   128
 43
0.0
 10
0.3424053425278125
 20
0.1065885425726673
 10
0.347485409797934
 20
0.1065053004729332
 10
0.3451535750933531
 20
0.1038415800744349
  0
LWPOLYLINE
  5
1A15
330
2
100
AcDbEntity
  8
Vista
370
     0
100
AcDbPolyline
 90
        5
 70
   128
 43
0.0
 10
0.3492342861605317
 20
0.1089192980293891
 10
0.3483182081931354
 20
0.1073377136916608
 10
0.3486513264819039
 20
0.1061723355311567
 10
0.3504002028445016
 20
0.1057561293539361
 10
0.351066440758676
 20
0.1060058530602685
  0
LWPOLYLINE
  5
1A16
330
2
100
AcDbEntity
  8
Vista
370
     0
100
AcDbPolyline
 90
        4
 70
   128
 43
0.0
 10
0.351066440758676
 20
0.1100014340901591
 10
0.3524821974958642
 20
0.1101679174253373
 10
0.3526487579768912
 20
0.1092522629711655
 10
0.352398917923673
 20
0.1082533672815461
  0
LWPOLYLINE
  5
1A17
330
2
100
AcDbEntity
  8
Vista
370
     0
100
AcDbPolyline
 90
        2
 70
   128
 43
0.0
 10
0.3506500415610753
 20
0.1066717838081078
 10
0.3505667619888841
 20
0.1091690217357214
  0
LWPOLYLINE
  5
1A18
330
2
100
AcDbEntity
  8
Vista
370
     0
100
AcDbPolyline
 90
        2
 70
   128
 43
0.0
 10
0.3260825022690285
 20
0.1032588914263261
 10
0.3302464915717537
 20
0.1032588914263261
  0
LWPOLYLINE
  5
1A19
330
2
100
AcDbEntity
  8
Vista
370
     0
100
AcDbPolyline
 90
        2
 70
   128
 43
0.0
 10
0.3258326622158102
 20
0.1050901994703831
 10
0.330662890769358
 20
0.1050901994703831
  0
LWPOLYLINE
  5
1A1A
330
2
100
AcDbEntity
  8
Vista
370
     0
100
AcDbPolyline
 90
       16
 70
   129
 43
0.0
 10
0.3142567709383827
 20
0.1062555767666008
 10
0.313174133826604
 20
0.1065885425726673
 10
0.3115085370361975
 20
0.1055064056476037
 10
0.3114252574640063
 20
0.1053399231767155
 10
0.3116750975172246
 20
0.1035086151326584
 10
0.3110921378385968
 20
0.1019270307949337
 10
0.3129242937733857
 20
0.102093513265822
 10
0.3137570921685872
 20
0.1029259256202632
 10
0.3145066096549564
 20
0.1029259256202632
 10
0.3150895693335841
 20
0.1029259256202632
 10
0.3158390868199498
 20
0.1033421326617702
 10
0.3161722064453628
 20
0.1042577862516555
 10
0.3155892481033761
 20
0.1054231644121596
 10
0.3159223663921446
 20
0.1060890942957126
 10
0.3155892481033761
 20
0.1065885425726673
 10
0.3142567709383827
 20
0.1065885425726673
  0
LWPOLYLINE
  5
1A1B
330
2
100
AcDbEntity
  8
Vista
370
     0
100
AcDbPolyline
 90
        5
 70
   128
 43
0.0
 10
0.3110088582664056
 20
0.1048404757640508
 10
0.3104258999244188
 20
0.1053399231767155
 10
0.3093432628126437
 20
0.1054231644121596
 10
0.308926863615043
 20
0.1048404757640508
 10
0.3084271848452475
 20
0.1047572336643202
  0
LWPOLYLINE
  5
1A1C
330
2
100
AcDbEntity
  8
Vista
370
     0
100
AcDbPolyline
 90
        8
 70
   128
 43
0.0
 10
0.3091767036682612
 20
0.1082533672815461
 10
0.3110921378385968
 20
0.1082533672815461
 10
0.3115918166083888
 20
0.108170126046102
 10
0.3120082158059895
 20
0.1073377136916608
 10
0.3111754187474326
 20
0.1061723355311567
 10
0.3104258999244188
 20
0.1061723355311567
 10
0.3092599832404525
 20
0.106755025043552
 10
0.3086770248984657
 20
0.1072544724562167
  0
LWPOLYLINE
  5
1A1D
330
2
100
AcDbEntity
  8
Vista
370
     0
100
AcDbPolyline
 90
        7
 70
   128
 43
0.0
 10
0.304013355489304
 20
0.1108338473088902
 10
0.303347117575126
 20
0.1117495008987756
 10
0.3032638380029348
 20
0.113164602765612
 10
0.3054291122264922
 20
0.1134975677073885
 10
0.3061786297128578
 20
0.1128316378238356
 10
0.3062619106216936
 20
0.1124986728820591
 10
0.3062619106216936
 20
0.1114997771924432
  0
LWPOLYLINE
  5
1A1E
330
2
100
AcDbEntity
  8
Vista
370
     0
100
AcDbPolyline
 90
        5
 70
   128
 43
0.0
 10
0.3164220451619365
 20
0.1007616526344296
 10
0.3170050035039197
 20
0.0994297920030373
 10
0.3174214027015204
 20
0.0988471033549285
 10
0.3178378018991247
 20
0.0979314497650431
 10
0.3182542010967254
 20
0.0968493128399832
  0
LWPOLYLINE
  5
1A1F
330
2
100
AcDbEntity
  8
Vista
370
     0
100
AcDbPolyline
 90
        3
 70
   128
 43
0.0
 10
0.3151728489057754
 20
0.0973487602526479
 10
0.316088926873168
 20
0.0982644147068196
 10
0.316755164787346
 20
0.098514138413152
  0
LWPOLYLINE
  5
1A20
330
2
100
AcDbEntity
  8
Vista
370
     0
100
AcDbPolyline
 90
        4
 70
   128
 43
0.0
 10
0.313007573345577
 20
0.1007616526344296
 10
0.3138403717407784
 20
0.1010946175762061
 10
0.3140902104573557
 20
0.1016773070886014
 10
0.3141734913661879
 20
0.1020102720303778
  0
LWPOLYLINE
  5
1A21
330
2
100
AcDbEntity
  8
Vista
370
     0
100
AcDbPolyline
 90
        2
 70
   128
 43
0.0
 10
0.3163387655897453
 20
0.1036750976035467
 10
0.3169217239317285
 20
0.1036750976035467
  0
LWPOLYLINE
  5
1A22
330
2
100
AcDbEntity
  8
Vista
370
     0
100
AcDbPolyline
 90
        2
 70
   128
 43
0.0
 10
0.3162554860175541
 20
0.1048404757640508
 10
0.3170050035039197
 20
0.1048404757640508
  0
LWPOLYLINE
  5
1A23
330
2
100
AcDbEntity
  8
Vista
370
     0
100
AcDbPolyline
 90
        2
 70
   128
 43
0.0
 10
0.3161722064453628
 20
0.1060890942957126
 10
0.317254843557138
 20
0.1060890942957126
  0
LWPOLYLINE
  5
1A24
330
2
100
AcDbEntity
  8
Vista
370
     0
100
AcDbPolyline
 90
        5
 70
   128
 43
0.0
 10
0.3256661030714278
 20
0.0987638621194843
 10
0.3249998651572498
 20
0.0992633095321491
 10
0.3235841084200651
 20
0.0984308971777079
 10
0.3235841084200651
 20
0.0981811734713755
 10
0.3236673879922564
 20
0.0972655190172038
  0
LWPOLYLINE
  5
1A25
330
2
100
AcDbEntity
  8
Vista
370
     0
100
AcDbPolyline
 90
        5
 70
   128
 43
0.0
 10
0.3205860358013063
 20
0.0968493128399832
 10
0.32083587451788
 20
0.0972655190172038
 10
0.3212522737154807
 20
0.0973487602526479
 10
0.3213355532876755
 20
0.0970157953108714
 10
0.3214188328598667
 20
0.096766071604539
  0
LWPOLYLINE
  5
1A26
330
2
100
AcDbEntity
  8
Vista
370
     0
100
AcDbPolyline
 90
        3
 70
   128
 43
0.0
 10
0.3329114459017476
 20
0.1059226118248243
 10
0.3332445641905125
 20
0.1035918563681025
 10
0.3332445641905125
 20
0.1032588914263261
  0
LWPOLYLINE
  5
1A27
330
2
100
AcDbEntity
  8
Vista
370
     0
100
AcDbPolyline
 90
       10
 70
   128
 43
0.0
 10
0.3332445641905125
 20
0.1032588914263261
 10
0.3339108034413315
 20
0.1063388180020449
 10
0.3346603209277007
 20
0.1065885425726673
 10
0.3353265588418751
 20
0.1065885425726673
 10
0.3356596784672846
 20
0.1060890942957126
 10
0.3364924768624896
 20
0.1060890942957126
 10
0.3366590360068721
 20
0.1051734407058273
 10
0.3369088760600904
 20
0.1044242687225438
 10
0.3361593572370801
 20
0.102842684384819
 10
0.3353265588418751
 20
0.102842684384819
  0
LWPOLYLINE
  5
1A28
330
2
100
AcDbEntity
  8
Vista
370
     0
100
AcDbPolyline
 90
        3
 70
   128
 43
0.0
 10
0.337824954027483
 20
0.104590751193432
 10
0.3391574298558354
 20
0.104590751193432
 10
0.3404066274486412
 20
0.104590751193432
  0
LWPOLYLINE
  5
1A29
330
2
100
AcDbEntity
  8
Vista
370
     0
100
AcDbPolyline
 90
       11
 70
   128
 43
0.0
 10
0.3414892645604199
 20
0.1059226118248243
 10
0.3426551812443862
 20
0.1054231644121596
 10
0.3419889433302118
 20
0.105006958234939
 10
0.3409063062184331
 20
0.1043410274870996
 10
0.3414059849882286
 20
0.1029259256202632
 10
0.3415725441326111
 20
0.1024264782075984
 10
0.3403233478764499
 20
0.1020102720303778
 10
0.3394905494812449
 20
0.1020102720303778
 10
0.3381580723162515
 20
0.1020102720303778
 10
0.3372419943488553
 20
0.1015108246177131
 10
0.3364924768624896
 20
0.1013443421468249
  0
LWPOLYLINE
  5
1A2A
330
2
100
AcDbEntity
  8
Vista
370
     0
100
AcDbPolyline
 90
        2
 70
   128
 43
0.0
 10
0.3396571086256309
 20
0.1007616526344296
 10
0.3419889433302118
 20
0.1013443421468249
  0
LWPOLYLINE
  5
1A2B
330
2
100
AcDbEntity
  8
Vista
370
     0
100
AcDbPolyline
 90
        2
 70
   128
 43
0.0
 10
0.3402400669676141
 20
0.0987638621194843
 10
0.3391574298558354
 20
0.0987638621194843
  0
LWPOLYLINE
  5
1A2C
330
2
100
AcDbEntity
  8
Vista
370
     0
100
AcDbPolyline
 90
        2
 70
   128
 43
0.0
 10
0.3387410306582347
 20
0.1011778588116502
 10
0.3379915131718691
 20
0.1001789639863208
  0
CIRCLE
  5
1A2D
330
2
100
AcDbEntity
  8
Vista
370
     0
100
AcDbCircle
 10
0.3062619106216936
 20
0.1080868848106579
 30
0.0
 40
0.0008369468585418
  0
CIRCLE
  5
1A2E
330
2
100
AcDbEntity
  8
Vista
370
     0
100
AcDbCircle
 10
0.3213355532876755
 20
0.1025097194430426
 30
0.0
 40
0.0010825631962541
  0
LWPOLYLINE
  5
1A2F
330
2
100
AcDbEntity
  8
Vista
370
     0
100
AcDbPolyline
 90
        2
 70
   128
 43
0.0
 10
0.3220850721106857
 20
0.1040913037807673
 10
0.3223349108272594
 20
0.1055064056476037
  0
LWPOLYLINE
  5
1A30
330
2
100
AcDbEntity
  8
Vista
370
     0
100
AcDbPolyline
 90
        2
 70
   128
 43
0.0
 10
0.3201696366037056
 20
0.1036750976035467
 10
0.3195033973528866
 20
0.1050901994703831
  0
LWPOLYLINE
  5
1A31
330
2
100
AcDbEntity
  8
Vista
370
     0
100
AcDbPolyline
 90
        2
 70
   128
 43
0.0
 10
0.3196699578339136
 20
0.1018437895594896
 10
0.3184207602411079
 20
0.1011778588116502
  0
LWPOLYLINE
  5
1A32
330
2
100
AcDbEntity
  8
Vista
370
     0
100
AcDbPolyline
 90
        2
 70
   128
 43
0.0
 10
0.3207525949456888
 20
0.1005951701635414
 10
0.3207525949456888
 20
0.0997627578091002
  0
LWPOLYLINE
  5
1A33
330
2
100
AcDbEntity
  8
Vista
370
     0
100
AcDbPolyline
 90
        2
 70
   128
 43
0.0
 10
0.3220017925384945
 20
0.1007616526344296
 10
0.3224181903994506
 20
0.0999292402799884
  0
LWPOLYLINE
  5
1A34
330
2
100
AcDbEntity
  8
Vista
370
     0
100
AcDbPolyline
 90
        2
 70
   128
 43
0.0
 10
0.3229178691692426
 20
0.1020102720303778
 10
0.3240005076176659
 20
0.1020102720303778
  0
LWPOLYLINE
  5
1A35
330
2
100
AcDbEntity
  8
Vista
370
     0
100
AcDbPolyline
 90
        2
 70
   128
 43
0.0
 10
0.3226680304526689
 20
0.1030924089554378
 10
0.3240005076176659
 20
0.1037583388389908
  0
LWPOLYLINE
  5
1A36
330
2
100
AcDbEntity
  8
Vista
370
     0
100
AcDbPolyline
 90
        2
 70
   128
 43
0.0
 10
0.3064284697660761
 20
0.1091690217357214
 10
0.3065950289104586
 20
0.1100846761898932
  0
LWPOLYLINE
  5
1A37
330
2
100
AcDbEntity
  8
Vista
370
     0
100
AcDbPolyline
 90
        2
 70
   128
 43
0.0
 10
0.3072612681612811
 20
0.1089192980293891
 10
0.3079275060754555
 20
0.1089192980293891
  0
LWPOLYLINE
  5
1A38
330
2
100
AcDbEntity
  8
Vista
370
     0
100
AcDbPolyline
 90
        2
 70
   128
 43
0.0
 10
0.3052625530821062
 20
0.1080868848106579
 10
0.3045130342590959
 20
0.1080868848106579
  0
LWPOLYLINE
  5
1A39
330
2
100
AcDbEntity
  8
Vista
370
     0
100
AcDbPolyline
 90
        2
 70
   128
 43
0.0
 10
0.3052625530821062
 20
0.1090025392648332
 10
0.3045963138312872
 20
0.1095019866774944
  0
LWPOLYLINE
  5
1A3A
330
2
100
AcDbEntity
  8
Vista
370
     0
100
AcDbPolyline
 90
       29
 70
   128
 43
0.0
 10
0.3570833059314688
 20
0.1153288757514456
 10
0.3544183529381194
 20
0.1153288757514456
 10
0.3532524362541531
 20
0.1146629458678926
 10
0.3519199590891561
 20
0.1149959108096691
 10
0.3510871606939546
 20
0.1152456345160015
 10
0.3504209227797767
 20
0.1152456345160015
 10
0.3490884456147833
 20
0.1152456345160015
 10
0.3479225289308133
 20
0.1154121178511761
 10
0.3468398918190346
 20
0.1150791520451132
 10
0.3457572547072595
 20
0.1149959108096691
 10
0.3439250987724706
 20
0.1157450827929526
 10
0.3431755799494568
 20
0.1166607363828379
 10
0.3425093420352824
 20
0.1170769425600585
 10
0.3415099844956949
 20
0.1173266671306773
 10
0.3401775073307015
 20
0.1173266671306773
 10
0.3390948702189228
 20
0.1179925970142303
 10
0.339677828560906
 20
0.1179925970142303
 10
0.3406771861004935
 20
0.1183255619560068
 10
0.3424260624630912
 20
0.1182423207205626
 10
0.344091657916853
 20
0.1182423207205626
 10
0.345257575937464
 20
0.1175763908370097
 10
0.3462569334770515
 20
0.1174099083661214
 10
0.3480890880751958
 20
0.1172434258952332
 10
0.3493382856680015
 20
0.1171601846597891
 10
0.3504209227797767
 20
0.1174931496015656
 10
0.352419637858948
 20
0.1172434258952332
 10
0.353585554542918
 20
0.1171601846597891
 10
0.3549180317079149
 20
0.1171601846597891
 10
0.3562505088729083
 20
0.1171601846597891
  0
LWPOLYLINE
  5
1A3B
330
2
100
AcDbEntity
  8
Vista
370
     0
100
AcDbPolyline
 90
       20
 70
   128
 43
0.0
 10
0.3581659443798885
 20
0.1153288757514456
 10
0.3571665868403046
 20
0.1152456345160015
 10
0.3566669080705126
 20
0.1154121178511761
 10
0.3561672293007171
 20
0.1160780477347291
 10
0.3562505088729083
 20
0.1170769425600585
 10
0.3563337884450996
 20
0.117826114543342
 10
0.3574997051290695
 20
0.1180758382496744
 10
0.3594151406360496
 20
0.1188250093686715
 10
0.3605810586566641
 20
0.1186585268977832
 10
0.3613305761430298
 20
0.1186585268977832
 10
0.362246654110426
 20
0.1185752856623391
 10
0.3629961715967917
 20
0.1180758382496744
 10
0.3635791312754194
 20
0.1179925970142303
 10
0.3639955291363791
 20
0.1174931496015656
 10
0.3651614471569901
 20
0.1169104600891703
 10
0.3653280063013761
 20
0.1169104600891703
 10
0.3653280063013761
 20
0.1157450827929526
 10
0.3644119283339799
 20
0.114912669574225
 10
0.3632460116500099
 20
0.1145797046324485
 10
0.362746332880218
 20
0.1145797046324485
  0
LWPOLYLINE
  5
1A3C
330
2
100
AcDbEntity
  8
Vista
370
     0
100
AcDbPolyline
 90
        4
 70
   128
 43
0.0
 10
0.3657444054989768
 20
0.1169937013246144
 10
0.3679096797225307
 20
0.1173266671306773
 10
0.3699916757105378
 20
0.1173266671306773
 10
0.3711615943035356
 20
0.1174937210383694
  0
LWPOLYLINE
  5
1A3D
330
2
100
AcDbEntity
  8
Vista
370
     0
100
AcDbPolyline
 90
       18
 70
   128
 43
0.0
 10
0.3593318610638584
 20
0.1150791520451132
 10
0.3594984202082409
 20
0.1117495008987756
 10
0.3606643382288554
 20
0.1094187454420538
 10
0.3605810586566641
 20
0.1079204023397696
 10
0.3619968140572078
 20
0.1079204023397696
 10
0.3625797737358355
 20
0.1059226118248243
 10
0.3636624108476142
 20
0.105006958234939
 10
0.3641620896174062
 20
0.105006958234939
 10
0.364994886675963
 20
0.1051734407058273
 10
0.3661608046965775
 20
0.1051734407058273
 10
0.3661608046965775
 20
0.1038415800744349
 10
0.3657444054989768
 20
0.1027594431493749
 10
0.3672434418083562
 20
0.1017605483240455
 10
0.3679096797225307
 20
0.1007616526344296
 10
0.3692421568875276
 20
0.1000124815154325
 10
0.3694919969407459
 20
0.1000124815154325
 10
0.3702415144271115
 20
0.0998459990445443
 10
0.3711615943035356
 20
0.0983898796234524
  0
LWPOLYLINE
  5
1A3E
330
2
100
AcDbEntity
  8
Vista
370
     0
100
AcDbPolyline
 90
       16
 70
   128
 43
0.0
 10
0.3711615943035356
 20
0.1076870819383418
 10
0.370574634052521
 20
0.1077539198688814
 10
0.3699916757105378
 20
0.1084198506167243
 10
0.3697418356573196
 20
0.1092522629711655
 10
0.3691588773153364
 20
0.1093355042066097
 10
0.3680762402035577
 20
0.1090025392648332
 10
0.3678264001503394
 20
0.1098349516192708
 10
0.3678264001503394
 20
0.1104176411316696
 10
0.3674100009527387
 20
0.1115830184278873
 10
0.3667437630385607
 20
0.1120824667048385
 10
0.3661608046965775
 20
0.1120824667048385
 10
0.3657444054989768
 20
0.1129148790592797
 10
0.3647450479593894
 20
0.1137472922780073
 10
0.3636624108476142
 20
0.1138305335134514
 10
0.362746332880218
 20
0.1139970159843397
 10
0.3624132132548085
 20
0.1150791520451132
  0
LWPOLYLINE
  5
1A3F
330
2
100
AcDbEntity
  8
Vista
370
     0
100
AcDbPolyline
 90
       19
 70
   129
 43
0.0
 10
0.364994886675963
 20
0.1109170885443344
 10
0.3629128920246004
 20
0.1110835710152226
 10
0.3628296124524092
 20
0.1103343998962255
 10
0.3623299336826173
 20
0.1100846761898932
 10
0.3614971352874122
 20
0.1095852279129385
 10
0.3614971352874122
 20
0.1090025392648332
 10
0.362246654110426
 20
0.1079204023397696
 10
0.3629128920246004
 20
0.1078371611043255
 10
0.3629961715967917
 20
0.1073377136916608
 10
0.3636624108476142
 20
0.1065885425726673
 10
0.3649116071037718
 20
0.1065885425726673
 10
0.3654112858735673
 20
0.1070879899853284
 10
0.3666604834663695
 20
0.1071712312207726
 10
0.3667437630385607
 20
0.1078371611043255
 10
0.3667437630385607
 20
0.1086695743230567
 10
0.366993603091779
 20
0.1101679174253373
 10
0.366493924321987
 20
0.110667364838002
 10
0.3655778463545944
 20
0.1108338473088902
 10
0.364994886675963
 20
0.1108338473088902
  0
LWPOLYLINE
  5
1A4D
330
2
100
AcDbEntity
  8
Vista
370
     0
100
AcDbPolyline
 90
        6
 70
   128
 43
0.0
 10
0.3711615943035356
 20
0.1063747150511203
 10
0.3698251152295108
 20
0.1055064056476037
 10
0.3697418356573196
 20
0.1053399231767155
 10
0.3699916757105378
 20
0.1035086151326584
 10
0.3694087160319101
 20
0.1019270307949337
 10
0.3711615943035356
 20
0.1020863095442396
  0
LWPOLYLINE
  5
1A4E
330
2
100
AcDbEntity
  8
Vista
370
     0
100
AcDbPolyline
 90
        5
 70
   128
 43
0.0
 10
0.3693254364597188
 20
0.1048404757640508
 10
0.3687424781177321
 20
0.1053399231767155
 10
0.367659841005957
 20
0.1054231644121596
 10
0.3672434418083562
 20
0.1048404757640508
 10
0.3667437630385607
 20
0.1047572336643202
  0
LWPOLYLINE
  5
1A4F
330
2
100
AcDbEntity
  8
Vista
370
     0
100
AcDbPolyline
 90
        8
 70
   128
 43
0.0
 10
0.3674932818615745
 20
0.1082533672815461
 10
0.3694087160319101
 20
0.1082533672815461
 10
0.369908394801702
 20
0.108170126046102
 10
0.3703247939993028
 20
0.1073377136916608
 10
0.3694919969407459
 20
0.1061723355311567
 10
0.3687424781177321
 20
0.1061723355311567
 10
0.3675765614337657
 20
0.106755025043552
 10
0.366993603091779
 20
0.1072544724562167
  0
LWPOLYLINE
  5
1A50
330
2
100
AcDbEntity
  8
Vista
370
     0
100
AcDbPolyline
 90
        7
 70
   128
 43
0.0
 10
0.3623299336826173
 20
0.1108338473088902
 10
0.3616636957684393
 20
0.1117495008987756
 10
0.3615804161962481
 20
0.113164602765612
 10
0.3637456904198054
 20
0.1134975677073885
 10
0.3644952079061711
 20
0.1128316378238356
 10
0.3645784888150069
 20
0.1124986728820591
 10
0.3645784888150069
 20
0.1114997771924432
  0
CIRCLE
  5
1A60
330
2
100
AcDbEntity
  8
Vista
370
     0
100
AcDbCircle
 10
0.3645784888150069
 20
0.1080868848106579
 30
0.0
 40
0.0008369468585418
  0
LWPOLYLINE
  5
1A69
330
2
100
AcDbEntity
  8
Vista
370
     0
100
AcDbPolyline
 90
        2
 70
   128
 43
0.0
 10
0.3647450479593894
 20
0.1091690217357214
 10
0.3649116071037718
 20
0.1100846761898932
  0
LWPOLYLINE
  5
1A6A
330
2
100
AcDbEntity
  8
Vista
370
     0
100
AcDbPolyline
 90
        2
 70
   128
 43
0.0
 10
0.3655778463545944
 20
0.1089192980293891
 10
0.3662440842687688
 20
0.1089192980293891
  0
LWPOLYLINE
  5
1A6B
330
2
100
AcDbEntity
  8
Vista
370
     0
100
AcDbPolyline
 90
        2
 70
   128
 43
0.0
 10
0.3635791312754194
 20
0.1080868848106579
 10
0.3628296124524092
 20
0.1080868848106579
  0
LWPOLYLINE
  5
1A6C
330
2
100
AcDbEntity
  8
Vista
370
     0
100
AcDbPolyline
 90
        2
 70
   128
 43
0.0
 10
0.3635791312754194
 20
0.1090025392648332
 10
0.3629128920246004
 20
0.1095019866774944
  0
LWPOLYLINE
  5
1A6D
330
2
100
AcDbEntity
  8
0
  6
Continuous
 62
     4
370
     0
100
AcDbPolyline
 90
       22
 70
   129
 43
0.0
 10
59.49435180259019
 20
51.21672413748147
 10
59.47921831522922
 20
51.21672413748147
 10
59.47921831522922
 20
51.22027998720745
 42
0.0818392894507497
 10
59.47655741888588
 20
51.23642794350894
 42
-0.1942578405675501
 10
59.47693754693492
 20
51.24307710350527
 42
0.3354231745972577
 10
59.4752269707142
 20
51.25124606838508
 42
-0.2863619953631
 10
59.46781448263388
 20
51.27556299243607
 42
0.4612985111461664
 10
59.46572377836412
 20
51.27860260794247
 10
59.45869141389479
 20
51.2799324393678
 10
59.45888147791933
 20
51.29266083037689
 10
59.4611622462136
 20
51.29532049322754
 42
0.3087716061417792
 10
59.35918024860774
 20
51.39486169535735
 42
-0.0352906088194562
 10
59.33363566323916
 20
51.40124488677284
 10
59.33363566323916
 20
51.40623126820543
 10
59.32619606309782
 20
51.40623126820543
 10
59.32619606309782
 20
51.42172413748148
 10
59.32619606309782
 20
51.42172413748148
 10
59.35895496420079
 20
51.42172413748148
 10
59.35895496420079
 20
51.41071457294569
 42
-0.2189350528949022
 10
59.46591377581788
 20
51.33659644832849
 10
59.48581690447423
 20
51.2524298526925
 10
59.49435180259019
 20
51.2524298526925
  0
LWPOLYLINE
  5
1A6E
330
2
100
AcDbEntity
  8
Profilo
370
     0
100
AcDbPolyline
 90
       22
 70
   129
 43
0.0
 10
0.1912301766000155
 20
0.1520084733131521
 10
0.195013548440258
 20
0.1520084733131521
 10
0.195013548440258
 20
0.1528974357446481
 42
-0.0818392894507497
 10
0.1956787725260938
 20
0.1569344248200219
 42
0.1942578405675501
 10
0.1955837405138325
 20
0.158596714819104
 42
-0.3354231745972577
 10
0.1960113845690117
 20
0.1606389560390577
 42
0.2863619953631
 10
0.1978645065890916
 20
0.1667181870518059
 42
-0.4612985111461664
 10
0.198387182656532
 20
0.1674780909284047
 10
0.2001452737738631
 20
0.1678105487847356
 10
0.200097757767729
 20
0.1709926465370083
 10
0.1995275656941615
 20
0.17165756224967
 42
-0.3087716061417792
 10
0.2250230650956269
 20
0.1965428627821234
 42
0.0352906088194562
 10
0.2314092114377715
 20
0.1981386606359971
 10
0.2314092114377715
 20
0.1993852559941439
 10
0.2332691114731062
 20
0.1993852559941439
 10
0.2332691114731062
 20
0.2032584733131552
 10
0.2332691114731062
 20
0.2032584733131552
 10
0.2250793861973648
 20
0.2032584733131552
 10
0.2250793861973648
 20
0.2005060821792094
 42
0.2189350528949022
 10
0.1983396832930921
 20
0.1819765510249093
 10
0.193363901129004
 20
0.1609349021159113
 10
0.1912301766000155
 20
0.1609349021159113
  0
LWPOLYLINE
  5
1A6F
330
2
100
AcDbEntity
  8
Profilo
370
     0
100
AcDbPolyline
 90
       22
 70
   129
 43
0.0
 10
0.1642769979618394
 20
0.0750978426789014
 10
0.1680603698020818
 20
0.0750978426789014
 10
0.1680603698020818
 20
0.0759868051103975
 42
-0.0818392894507497
 10
0.1687255938879176
 20
0.0800237941857713
 42
0.1942578405675501
 10
0.1686305618756564
 20
0.0816860841848534
 42
-0.3354231745972577
 10
0.1690582059308355
 20
0.0837283254048071
 42
0.2863619953631
 10
0.1709113279509154
 20
0.0898075564175553
 42
-0.4612985111461664
 10
0.1714340040183558
 20
0.0905674602941541
 10
0.173192095135687
 20
0.090899918150485
 10
0.1731445791295528
 20
0.0940820159027577
 10
0.1725743870559854
 20
0.0947469316154194
 42
-0.3087716061417792
 10
0.1980698864574507
 20
0.1196322321478728
 42
0.0352906088194562
 10
0.2044560327995954
 20
0.1212280300017464
 10
0.2044560327995954
 20
0.1224746253598933
 10
0.2063159328349301
 20
0.1224746253598933
 10
0.2063159328349301
 20
0.1263478426789045
 10
0.2063159328349301
 20
0.1263478426789045
 10
0.1981262075591886
 20
0.1263478426789045
 10
0.1981262075591886
 20
0.1235954515449588
 42
0.2189350528949022
 10
0.171386504654916
 20
0.1050659203906586
 10
0.1664107224908279
 20
0.0840242714816607
 10
0.1642769979618394
 20
0.0840242714816607
  0
LWPOLYLINE
  5
1A70
330
2
100
AcDbEntity
  8
Vista
370
     0
100
AcDbPolyline
 90
        7
 70
   128
 43
0.0
 10
0.1899570025700946
 20
0.1170377562173141
 10
0.1902117125770538
 20
0.1169104600891703
 10
0.1903782717214363
 20
0.1169104600891703
 10
0.1903782717214363
 20
0.1157450827929526
 10
0.18946219375404
 20
0.114912669574225
 10
0.1882962770700701
 20
0.1145797046324485
 10
0.1877965983002782
 20
0.1145797046324485
  0
ARC
  5
1A8C
330
2
100
AcDbEntity
  8
Vista
370
     0
100
AcDbCircle
 10
0.3461152574042261
 20
0.0869712516038358
 30
0.0
 40
0.0049573438595816
100
AcDbArc
 50
167.3715016536111
 51
13.77133091695136
  0
ARC
  5
1A8D
330
2
100
AcDbEntity
  8
Vista
370
     0
100
AcDbCircle
 10
0.3460385653579338
 20
0.0861597906620954
 30
0.0
 40
0.0032655324904828
100
AcDbArc
 50
150.6987732806299
 51
30.72192517075648
  0
LINE
  5
1A8E
330
2
100
AcDbEntity
  8
Vista
370
     0
100
AcDbLine
 10
0.3507621310877668
 20
0.0851703355324719
 30
0.0
 11
0.3527777279741259
 21
0.0851703355324719
 31
0.0
  0
ARC
  5
1A8F
330
2
100
AcDbEntity
  8
Vista
370
     0
100
AcDbCircle
 10
0.3574498284733431
 20
0.0869712516038358
 30
0.0
 40
0.0049573438595816
100
AcDbArc
 50
167.3715016536111
 51
13.77133091695136
  0
ARC
  5
1A90
330
2
100
AcDbEntity
  8
Vista
370
     0
100
AcDbCircle
 10
0.3573731364270509
 20
0.0861597906620954
 30
0.0
 40
0.0032655324904828
100
AcDbArc
 50
150.6987732806299
 51
30.72192517075648
  0
LINE
  5
1A91
330
2
100
AcDbEntity
  8
Vista
370
     0
100
AcDbLine
 10
0.3620967021568839
 20
0.0851703355324719
 30
0.0
 11
0.364112299043243
 21
0.0851703355324719
 31
0.0
  0
ARC
  5
1A92
330
2
100
AcDbEntity
  8
Vista
370
     0
100
AcDbCircle
 10
0.3687843995424602
 20
0.0869712516038358
 30
0.0
 40
0.0049573438595816
100
AcDbArc
 50
167.3715016536111
 51
298.6547055971696
  0
ARC
  5
1A93
330
2
100
AcDbEntity
  8
Vista
370
     0
100
AcDbCircle
 10
0.368707707496168
 20
0.0861597906620954
 30
0.0
 40
0.0032655324904828
100
AcDbArc
 50
150.6987732806299
 51
318.716202234285
  0
LINE
  5
1AA7
330
2
100
AcDbEntity
  8
Vista
 62
     3
100
AcDbLine
 10
0.2063159328349301
 20
0.1263478426789045
 30
0.0
 11
0.2224099798256618
 21
0.1263478426789045
 31
0.0
  0
LINE
  5
1AA8
330
2
100
AcDbEntity
  8
Vista
100
AcDbLine
 10
0.2063159328349301
 20
0.1224746253598933
 30
0.0
 11
0.2224099798256618
 21
0.1224746253598933
 31
0.0
  0
LINE
  5
1AAA
330
2
100
AcDbEntity
  8
Vista
100
AcDbLine
 10
0.2044560327995954
 20
0.1212280300017464
 30
0.0
 11
0.2224099798256618
 21
0.1212280300017464
 31
0.0
  0
LINE
  5
1AAC
330
2
100
AcDbEntity
  8
Vista
100
AcDbLine
 10
0.173192095135687
 20
0.090899918150485
 30
0.0
 11
0.2224099798256617
 21
0.090899918150485
 31
0.0
  0
LINE
  5
1AAD
330
2
100
AcDbEntity
  8
Vista
100
AcDbLine
 10
0.1731445791295528
 20
0.0940820159027577
 30
0.0
 11
0.2224099798256618
 21
0.0940820159027578
 31
0.0
  0
LINE
  5
1AAE
330
2
100
AcDbEntity
  8
Vista
 62
     3
100
AcDbLine
 10
0.1680603698020818
 20
0.0750978426789014
 30
0.0
 11
0.2224099798256618
 21
0.0750978426789014
 31
0.0
  0
LINE
  5
1AB0
330
2
100
AcDbEntity
  8
Vista
100
AcDbLine
 10
0.1687255938879176
 20
0.0800237941857713
 30
0.0
 11
0.2224099798256618
 21
0.0800237941857712
 31
0.0
  0
LINE
  5
1AB1
330
2
100
AcDbEntity
  8
Vista
100
AcDbLine
 10
0.1685532987995573
 20
0.0820506906313004
 30
0.0
 11
0.2224099798256618
 21
0.0820506906313004
 31
0.0
  0
LWPOLYLINE
  5
1ABC
330
2
100
AcDbEntity
  8
Vista
370
     0
100
AcDbPolyline
 90
        6
 70
   128
 43
0.0
 10
0.3711615943035356
 20
0.1147888078192536
 10
0.3699916757105378
 20
0.1144964633970044
 10
0.3689923181709504
 20
0.1144964633970044
 10
0.3678264001503394
 20
0.1145797046324485
 10
0.3667437630385607
 20
0.1144964633970044
 10
0.3654945667823996
 20
0.1150791520451132
  0
LINE
  5
1ABD
330
2
100
AcDbEntity
  8
Vista
100
AcDbLine
 10
0.2359774406409003
 20
0.0820506906313004
 30
0.0
 11
0.3711615943035356
 21
0.0820506906313004
 31
0.0
  0
LINE
  5
1ABE
330
2
100
AcDbEntity
  8
Vista
100
AcDbLine
 10
0.2359774406409003
 20
0.0800237941857712
 30
0.0
 11
0.3711615943035356
 21
0.0800237941857713
 31
0.0
  0
LINE
  5
1ABF
330
2
100
AcDbEntity
  8
Vista
 62
     3
100
AcDbLine
 10
0.2359774406409004
 20
0.0750978426789015
 30
0.0
 11
0.3711615943035356
 21
0.0750978426789014
 31
0.0
  0
LINE
  5
1AC0
330
2
100
AcDbEntity
  8
Vista
100
AcDbLine
 10
0.2359774406409003
 20
0.0940820159027577
 30
0.0
 11
0.3711615943035356
 21
0.0940820159027578
 31
0.0
  0
LINE
  5
1AC1
330
2
100
AcDbEntity
  8
Vista
100
AcDbLine
 10
0.2359774406409003
 20
0.090899918150485
 30
0.0
 11
0.3711615943035356
 21
0.090899918150485
 31
0.0
  0
LINE
  5
1AC2
330
2
100
AcDbEntity
  8
Vista
100
AcDbLine
 10
0.2359774406409003
 20
0.1212280300017464
 30
0.0
 11
0.3711615943035356
 21
0.1212280300017464
 31
0.0
  0
LINE
  5
1AC3
330
2
100
AcDbEntity
  8
Vista
100
AcDbLine
 10
0.2359774406409003
 20
0.1224746253598933
 30
0.0
 11
0.3711615943035356
 21
0.1224746253598933
 31
0.0
  0
LINE
  5
1AC4
330
2
100
AcDbEntity
  8
Vista
 62
     3
100
AcDbLine
 10
0.2359774406409003
 20
0.1263478426789045
 30
0.0
 11
0.3711615943035356
 21
0.1263478426789045
 31
0.0
  0
LWPOLYLINE
  5
1AC5
330
2
100
AcDbEntity
  8
Vista
370
     0
100
AcDbPolyline
 90
        4
 70
   128
 43
0.0
 10
0.2359774406409003
 20
0.1172297922648628
 10
0.2369523981562914
 20
0.1171601846597891
 10
0.2382848753212884
 20
0.1171601846597891
 10
0.2396173524862854
 20
0.1171601846597891
  0
LWPOLYLINE
  5
1AC6
330
2
100
AcDbEntity
  8
Vista
370
     0
100
AcDbPolyline
 90
       35
 70
   128
 43
0.0
 10
0.2224099798256618
 20
0.1075811684411669
 10
0.2223577143248264
 20
0.1075874373979932
 10
0.2206088379622288
 20
0.107504196162549
 10
0.2196094804226448
 20
0.1069215075144402
 10
0.2185268433108662
 20
0.1076706786334373
 10
0.2171943661458727
 20
0.1076706786334373
 10
0.2161117290340941
 20
0.1070879899853284
 10
0.2147792532057417
 20
0.1070047487498843
 10
0.2140297343827314
 20
0.1068382662789961
 10
0.2135300556129359
 20
0.1061723355311567
 10
0.2116146201059558
 20
0.1061723355311567
 10
0.2097824641711704
 20
0.1061723355311567
 10
0.20894966711261
 20
0.1061723355311567
 10
0.2088663875404188
 20
0.1075874373979932
 10
0.2079503095730225
 20
0.108170126046102
 10
0.2059515944938512
 20
0.108170126046102
 10
0.204702396901049
 20
0.1080868848106579
 10
0.2034532006448878
 20
0.1078371611043255
 10
0.2030368014472871
 20
0.1072544724562167
 10
0.2022040030520821
 20
0.1070047487498843
 10
0.1956248994725812
 20
0.1077539198688814
 10
0.195041941130598
 20
0.1084198506167243
 10
0.1947921010773798
 20
0.1092522629711655
 10
0.1942091427353966
 20
0.1093355042066097
 10
0.1931265056236179
 20
0.1090025392648332
 10
0.1928766655703996
 20
0.1098349516192708
 10
0.1928766655703996
 20
0.1104176411316696
 10
0.1924602663727989
 20
0.1115830184278873
 10
0.1917940284586209
 20
0.1120824667048385
 10
0.1912110701166377
 20
0.1120824667048385
 10
0.190794670919037
 20
0.1129148790592797
 10
0.1897953133794495
 20
0.1137472922780073
 10
0.1887126762676744
 20
0.1138305335134514
 10
0.1877965983002782
 20
0.1139970159843397
 10
0.1874634786748687
 20
0.1150791520451132
  0
LWPOLYLINE
  5
1AC7
330
2
100
AcDbEntity
  8
Vista
370
     0
100
AcDbPolyline
 90
        8
 70
   128
 43
0.0
 10
0.2359774406409003
 20
0.107034494393483
 10
0.2363487198790296
 20
0.1076706786334373
 10
0.2377644766162178
 20
0.1085863330876126
 10
0.239180233353406
 20
0.1095019866774944
 10
0.2403461500373724
 20
0.1110835710152226
 10
0.2416786272023693
 20
0.112415431646615
 10
0.2422615855443525
 20
0.1140802572197838
 10
0.2426779847419568
 20
0.114912669574225
  0
LINE
  5
1AC9
330
2
100
AcDbEntity
  8
Vista
 62
     6
100
AcDbLine
 10
0.3711615943035356
 20
0.0750978426789014
 30
0.0
 11
0.3711615943035356
 21
0.1263478426789045
 31
0.0
  0
LINE
  5
1ACA
330
2
100
AcDbEntity
  8
Vista
 62
     6
100
AcDbLine
 10
0.2359774406409004
 20
0.0750978426789015
 30
0.0
 11
0.2359774406409003
 21
0.1263478426789045
 31
0.0
  0
LINE
  5
1ACB
330
2
100
AcDbEntity
  8
Vista
 62
     3
100
AcDbLine
 10
0.2332691114731062
 20
0.2032584733131552
 30
0.0
 11
0.3610366240561725
 21
0.230416296480943
 31
0.0
  0
LWPOLYLINE
  5
1ACC
330
2
100
AcDbEntity
  8
Profilo
370
     0
100
AcDbPolyline
 90
        7
 70
   128
 43
0.0
 10
0.3227810610233242
 20
0.1791662964809399
 10
0.3227810610233242
 20
0.180055258912436
 42
-0.0818392894507497
 10
0.32344628510916
 20
0.1840922479878097
 42
0.1942578405675501
 10
0.3233512530968988
 20
0.1857545379868918
 42
-0.3354231745972577
 10
0.3237788971520779
 20
0.1877967792068455
 42
0.2863619953631
 10
0.3256320191721578
 20
0.1938760102195937
 42
-0.3206603059487146
 10
0.3258795233571433
 20
0.194536188560318
 42
-0.3206603059487146
  0
LINE
  5
1ACD
330
2
100
AcDbEntity
  8
Vista
 62
     3
100
AcDbLine
 10
0.2250793861973648
 20
0.2032584733131552
 30
0.0
 11
0.352846898780431
 21
0.230416296480943
 31
0.0
  0
LINE
  5
1ACE
330
2
100
AcDbEntity
  8
Vista
100
AcDbLine
 10
0.2332691114731062
 20
0.1993852559941439
 30
0.0
 11
0.3610366240561725
 21
0.2265430791619318
 31
0.0
  0
LINE
  5
1ACF
330
2
100
AcDbEntity
  8
Vista
100
AcDbLine
 10
0.2314092114377715
 20
0.1981386606359971
 30
0.0
 11
0.3591767240208377
 21
0.2252964838037849
 31
0.0
  0
LINE
  5
1AD0
330
2
100
AcDbEntity
  8
Vista
 62
     3
100
AcDbLine
 10
0.195013548440258
 20
0.1520084733131521
 30
0.0
 11
0.3227810610233242
 21
0.1791662964809399
 31
0.0
  0
LINE
  5
1AD1
330
2
100
AcDbEntity
  8
Vista
100
AcDbLine
 10
0.1956787725260938
 20
0.1569344248200219
 30
0.0
 11
0.32344628510916
 21
0.1840922479878097
 31
0.0
  0
LINE
  5
1AD2
330
2
100
AcDbEntity
  8
Vista
100
AcDbLine
 10
0.2001452737738631
 20
0.1678105487847356
 30
0.0
 11
0.3279127863569294
 21
0.1949683719525234
 31
0.0
  0
LINE
  5
1AD3
330
2
100
AcDbEntity
  8
Vista
100
AcDbLine
 10
0.200097757767729
 20
0.1709926465370083
 30
0.0
 11
0.3278652703507952
 21
0.1981504697047962
 31
0.0
  0
LWPOLYLINE
  5
1AD4
330
2
100
AcDbEntity
  8
Profilo
370
     0
100
AcDbPolyline
 90
        4
 70
   128
 43
0.0
 10
0.3610366240561725
 20
0.2265430791619318
 10
0.3610366240561725
 20
0.230416296480943
 10
0.3610366240561725
 20
0.230416296480943
 10
0.352846898780431
 20
0.230416296480943
  0
LWPOLYLINE
  5
1AD5
330
2
100
AcDbEntity
  8
Profilo
370
     0
100
AcDbPolyline
 90
        6
 70
   128
 43
0.0
 10
0.3279127863569294
 20
0.1949683719525234
 10
0.3278652703507952
 20
0.1981504697047962
 10
0.3272950782772277
 20
0.1988153854174579
 42
-0.3087716061417792
 10
0.3527905776786931
 20
0.2237006859499113
 42
0.0352906088194562
 10
0.3591767240208377
 20
0.2252964838037849
 10
0.3591767240208377
 20
0.2261477452053711
  0
DIMENSION
  5
1AD6
102
{ACAD_XDICTIONARY
360
1AE4
102
}
102
{ACAD_REACTORS
330
1AEF
102
}
330
2
100
AcDbEntity
  8
Dimensione
100
AcDbDimension
  2
*D27
 10
0.1278903665473195
 20
0.1968480355002739
 30
0.0
 11
0.1278903665473194
 21
0.1712230355002724
 31
0.0
 70
    32
  1
205 mm
 71
     5
 42
0.0512500000000031
  3
Bovelacci
100
AcDbAlignedDimension
 13
0.0756035145509992
 23
0.1455980355002708
 33
0.0
 14
0.1138590775838475
 24
0.1968480355002739
 34
0.0
 50
90.0
100
AcDbRotatedDimension
  0
DIMENSION
  5
1AF0
102
{ACAD_XDICTIONARY
360
1AFE
102
}
102
{ACAD_REACTORS
330
1B09
102
}
330
2
100
AcDbEntity
  8
Dimensione
100
AcDbDimension
  2
*D28
 10
0.1138590775838475
 20
0.1213105120509397
 30
0.0
 11
0.0928396101473021
 21
0.1213105120509397
 31
0.0
 70
    32
  1
145 mm
 71
     5
 42
0.0420389348730908
  3
Bovelacci
100
AcDbAlignedDimension
 13
0.0718201427107567
 23
0.1455980355002708
 33
0.0
 14
0.1138590775838475
 24
0.1929748181812627
 34
0.0
100
AcDbRotatedDimension
  0
VIEWPORT
  5
7B
102
{ACAD_XDICTIONARY
360
1B11
102
}
330
79
100
AcDbEntity
 67
     1
  8
0
100
AcDbViewport
 10
145.330337524414
 20
101.8116638660431
 30
0.0
 40
351.1337450215151
 41
222.1517806396485
 68
     1
 69
     1
 12
145.330337524414
 22
101.8116638660431
 13
0.0
 23
0.0
 14
10.0
 24
10.0
 15
10.0
 25
10.0
 16
0.0
 26
0.0
 36
1.0
 17
0.0
 27
0.0
 37
0.0
 42
50.0
 43
0.0
 44
0.0
 45
222.1517806396485
 50
0.0
 51
0.0
 72
  1000
 90
    32800
  1

281
     0
 71
     1
 74
     0
110
0.0
120
0.0
130
0.0
111
1.0
121
0.0
131
0.0
112
0.0
122
1.0
132
0.0
 79
     0
146
0.0
  0
VIEWPORT
  5
80
102
{ACAD_XDICTIONARY
360
1B13
102
}
330
79
100
AcDbEntity
 67
     1
  8
Sezione
100
AcDbViewport
 10
145.3303314447403
 20
101.8116623163223
 30
0.0
 40
232.5285303115845
 41
162.8986597061157
 68
     2
 69
     2
 12
0.2100067158578973
 22
0.1484909068076998
 13
0.0
 23
0.0
 14
10.0
 24
10.0
 15
10.0
 25
10.0
 16
0.0
 26
0.0
 36
1.0
 17
0.0
 27
0.0
 37
0.0
 42
50.0
 43
0.0
 44
0.0
 45
0.2752830087467564
 50
0.0
 51
0.0
 72
  1000
 90
    32864
  1

281
     0
 71
     1
 74
     0
110
0.0
120
0.0
130
0.0
111
1.0
121
0.0
131
0.0
112
0.0
122
1.0
132
0.0
 79
     0
146
0.0
  0
ENDSEC
  0
SECTION
  2
OBJECTS
  0
DICTIONARY
  5
9
330
0
100
AcDbDictionary
281
     1
  3
ACAD_2007HEADERVARS_RT
350
14A
  3
ACAD_COLOR
350
A1
  3
ACAD_GROUP
350
9C
  3
ACAD_LAYOUT
350
78
  3
ACAD_MATERIAL
350
B
  3
ACAD_MLINESTYLE
350
9D
  3
ACAD_PLOTSETTINGS
350
9E
  3
ACAD_PLOTSTYLENAME
350
8
  3
ACAD_TABLESTYLE
350
A2
  3
ACAD_VISUALSTYLE
350
7F
  3
ACDBHEADERROUNDTRIPXREC
350
1B0E
  3
AcDbVariableDictionary
350
A9
  3
AEC_CLASSIFICATION_SYSTEM_DEFS
350
1217
  3
AEC_PROPERTY_SET_DEFS
350
10D
  3
DWGPROPS
350
1B0D
  0
DICTIONARY
  5
8B
330
8A
100
AcDbDictionary
280
     1
281
     1
  3
ACAD_LAYERFILTERS
360
48D
  3
ACAD_LAYERSTATES
360
8D
  3
ACLYDICTIONARY
360
48C
  0
DICTIONARY
  5
3
330
2
100
AcDbDictionary
280
     1
281
     1
  3
ACAD_SORTENTS
360
A8
  0
DICTIONARY
  5
B6D
330
B69
100
AcDbDictionary
280
     1
281
     1
  3
ACAD_SORTENTS
360
B6E
  0
DICTIONARY
  5
10D6
330
FEB
100
AcDbDictionary
280
     1
281
     1
  0
DICTIONARY
  5
1B18
330
10F
100
AcDbDictionary
280
     1
281
     1
  3
ACAD_MTEXT_RT
360
1B19
  0
DICTIONARY
  5
1AE4
330
1AD6
100
AcDbDictionary
280
     1
281
     1
  3
ACAD_DIMASSOC
360
1AEF
  0
DICTIONARY
  5
1AFE
330
1AF0
100
AcDbDictionary
280
     1
281
     1
  3
ACAD_DIMASSOC
360
1B09
  0
DICTIONARY
  5
1B11
330
7B
100
AcDbDictionary
280
     1
281
     1
  3
ACAD_XREC_ROUNDTRIP
360
1B12
  0
DICTIONARY
  5
1B13
330
80
100
AcDbDictionary
280
     1
281
     1
  3
ACAD_XREC_ROUNDTRIP
360
1B14
  0
DICTIONARY
  5
14A
102
{ACAD_REACTORS
330
9
102
}
330
9
100
AcDbDictionary
281
     1
  3
DIMFXL
350
14B
  0
DICTIONARY
  5
A1
102
{ACAD_REACTORS
330
9
102
}
330
9
100
AcDbDictionary
281
     1
  0
DICTIONARY
  5
9C
102
{ACAD_REACTORS
330
9
102
}
330
9
100
AcDbDictionary
281
     1
  0
DICTIONARY
  5
78
102
{ACAD_REACTORS
330
9
102
}
330
9
100
AcDbDictionary
281
     1
  3
Layout1
350
82
  3
Layout2
350
89
  3
Model
350
77
  0
DICTIONARY
  5
B
102
{ACAD_REACTORS
330
9
102
}
330
9
100
AcDbDictionary
281
     1
  3
ByBlock
350
A0
  3
ByLayer
350
9F
  3
Global
350
A
  0
DICTIONARY
  5
9D
102
{ACAD_REACTORS
330
9
102
}
330
9
100
AcDbDictionary
281
     1
  3
Standard
350
A3
  0
DICTIONARY
  5
9E
102
{ACAD_REACTORS
330
9
102
}
330
9
100
AcDbDictionary
281
     1
  0
ACDBDICTIONARYWDFLT
  5
8
102
{ACAD_REACTORS
330
9
102
}
330
9
100
AcDbDictionary
281
     1
  3
Normal
350
7
100
AcDbDictionaryWithDefault
340
7
  0
DICTIONARY
  5
A2
102
{ACAD_REACTORS
330
9
102
}
330
9
100
AcDbDictionary
281
     1
  3
Standard
350
A4
  0
DICTIONARY
  5
7F
102
{ACAD_REACTORS
330
9
102
}
330
9
100
AcDbDictionary
281
     1
  3
2dWireframe
350
7E
  3
3D Hidden
350
D8
  3
3dWireframe
350
A6
  3
Basic
350
D7
  3
Brighten
350
DB
  3
ColorChange
350
DF
  3
Conceptual
350
D9
  3
Dim
350
DA
  3
Facepattern
350
DE
  3
Flat
350
D3
  3
FlatWithEdges
350
D4
  3
Gouraud
350
D5
  3
GouraudWithEdges
350
D6
  3
Linepattern
350
DD
  3
Realistic
350
A5
  3
Thicken
350
DC
  0
DICTIONARY
  5
1B0E
102
{ACAD_REACTORS
330
9
102
}
330
9
100
AcDbDictionary
281
     1
  0
DICTIONARY
  5
A9
102
{ACAD_REACTORS
330
9
102
}
330
9
100
AcDbDictionary
281
     1
  3
CTABLESTYLE
350
AA
  3
DIMASSOC
350
AE
  3
HIDETEXT
350
AD
  3
INDEXCTL
350
AC
  3
PROJECTNAME
350
16A
  3
SORTENTS
350
AB
  0
DICTIONARY
  5
1217
102
{ACAD_REACTORS
330
9
102
}
330
9
100
AcDbDictionary
281
     1
  0
DICTIONARY
  5
10D
102
{ACAD_REACTORS
330
9
102
}
330
9
100
AcDbDictionary
281
     1
  0
XRECORD
  5
1B0D
102
{ACAD_REACTORS
330
9
102
}
330
9
100
AcDbXrecord
280
     1
  1
DWGPROPS COOKIE
  2

  3

  4

  6

  7

  8
Mario
  9

300
=
301
=
302
=
303
=
304
=
305
=
306
=
307
=
308
=
309
=
 40
0.2732452777777778
 41
2454297.625402373
 42
2454334.71085919
  1

 90
        0
  0
DICTIONARY
  5
48D
102
{ACAD_REACTORS
330
8B
102
}
330
8B
100
AcDbDictionary
281
     1
  0
DICTIONARY
  5
8D
102
{ACAD_REACTORS
330
8B
102
}
330
8B
100
AcDbDictionary
281
     1
  0
DICTIONARY
  5
48C
102
{ACAD_REACTORS
330
8B
102
}
330
8B
100
AcDbDictionary
281
     1
1001
ACAD
1000
<All
  0
SORTENTSTABLE
  5
A8
102
{ACAD_REACTORS
330
3
102
}
330
3
100
AcDbSortentsTable
330
2
331
22
  5
23
331
1988
  5
1988
331
1A3D
  5
1A42
331
1A06
  5
1A0A
331
19C7
  5
19CA
331
1990
  5
1990
331
1951
  5
1951
331
1A0E
  5
1A12
331
19CF
  5
19D2
331
1998
  5
1998
331
1959
  5
1959
331
1AC3
  5
1AB1
331
1A8C
  5
1A90
331
1A4D
  5
1A52
331
1A16
  5
1A1A
331
19D7
  5
19DB
331
19A0
  5
19A0
331
1961
  5
1961
331
1ACB
  5
1ACB
331
1A1E
  5
1A22
331
19DF
  5
19E3
331
13
  5
D
331
19A8
  5
19AB
331
1969
  5
1969
331
1AD3
  5
1AD5
331
1A26
  5
1A2A
331
19E7
  5
19EB
331
1971
  5
1971
331
1A2E
  5
1A32
331
19EF
  5
19F3
331
19B8
  5
19BB
331
1AAC
  5
1ABB
331
1A6D
  5
1A8D
331
1A36
  5
1A3A
331
19F7
  5
19FB
331
1981
  5
1981
331
19FF
  5
1A03
331
23
  5
24
331
19C0
  5
19C3
331
1989
  5
1989
331
1A3E
  5
1A43
331
1A07
  5
1A0B
331
19C8
  5
19CB
331
1991
  5
1991
331
1952
  5
1952
331
1ABC
  5
1A41
331
1A0F
  5
1A13
331
19D0
  5
19D3
331
1999
  5
1999
331
195A
  5
195A
331
1AC4
  5
1AAE
331
1A8D
  5
1A91
331
1A4E
  5
1A53
331
1A17
  5
1A1B
331
19D8
  5
19DC
331
1962
  5
1962
331
1ACC
  5
1ACC
331
1A1F
  5
1A23
331
14
  5
10
331
1CA
  5
1CA
331
19E0
  5
19E4
331
19A9
  5
19AC
331
196A
  5
196A
331
1AD4
  5
1ACE
331
1A27
  5
1A2B
331
19E8
  5
19EC
331
1972
  5
1972
331
1A2F
  5
1A33
331
19F0
  5
19F4
331
19B9
  5
19BC
331
1AAD
  5
1ABD
331
1A6E
  5
1A8E
331
1A37
  5
1A3B
331
19F8
  5
19FC
331
1982
  5
1982
331
24
  5
18
331
1A00
  5
1A04
331
19C1
  5
19C4
331
198A
  5
198A
331
1A3F
  5
1A44
331
1A08
  5
1A0C
331
19C9
  5
19CC
331
1992
  5
1992
331
1953
  5
1953
331
1ABD
  5
1AC4
331
1A10
  5
1A14
331
19D1
  5
19D4
331
199A
  5
199A
331
195B
  5
195B
331
1A8E
  5
1A92
331
1AC5
  5
19D8
331
1A4F
  5
1A54
331
1A18
  5
1A1C
331
19D9
  5
19DD
331
1963
  5
1963
331
1ACD
  5
1ACF
331
D
  5
13
331
15
  5
11
331
1D
  5
1E
331
1A20
  5
1A24
331
19E1
  5
19E5
331
19AA
  5
19AD
331
196B
  5
196B
331
1AD5
  5
1ACD
331
1A28
  5
1A2C
331
19E9
  5
19ED
331
19B2
  5
19B5
331
1973
  5
1973
331
1A30
  5
1A34
331
19F1
  5
19F5
331
19BA
  5
19BD
331
1AAE
  5
1ABF
331
1A6F
  5
1A8F
331
19F9
  5
19FD
331
25
  5
25
331
1A38
  5
1A3C
331
1A01
  5
1A05
331
19C2
  5
19C5
331
198B
  5
198B
331
194C
  5
194C
331
1A09
  5
1A0D
331
19CA
  5
19CD
331
1993
  5
1993
331
1954
  5
1954
331
1ABE
  5
1AC2
331
1A11
  5
1A15
331
19D2
  5
19D5
331
199B
  5
199B
331
195C
  5
195C
331
1A8F
  5
1A93
331
1AC6
  5
19A8
331
1A50
  5
1A55
331
1A19
  5
1A1D
331
19DA
  5
19DE
331
19A3
  5
19A4
331
1964
  5
1964
331
1ACE
  5
1AD0
331
16
  5
12
331
1E
  5
1F
331
11A4
  5
11A4
331
1A21
  5
1A25
331
19E2
  5
19E6
331
19AB
  5
19AE
331
196C
  5
196C
331
1A60
  5
1A65
331
1A29
  5
1A2D
331
19EA
  5
19EE
331
19B3
  5
19B6
331
1974
  5
1974
331
1AA7
  5
1AAD
331
1A31
  5
1A35
331
19F2
  5
19F6
331
19BB
  5
19BE
331
19FA
  5
19FE
331
1A70
  5
19A3
331
1A39
  5
1A3D
331
1A02
  5
1A06
331
19C3
  5
19C6
331
198C
  5
198C
331
194D
  5
194D
331
1A0A
  5
1A0E
331
19CB
  5
19CE
331
1994
  5
1994
331
1955
  5
1955
331
1ABF
  5
1AC0
331
1A12
  5
1A16
331
19D3
  5
19D6
331
199C
  5
199C
331
195D
  5
195D
331
1A90
  5
1A94
331
1AC7
  5
19A6
331
1A1A
  5
1A1E
331
19DB
  5
19DF
331
19A4
  5
19A5
331
1965
  5
1965
331
1ACF
  5
1AD1
331
17
  5
17
331
1F
  5
21
331
11A5
  5
11A5
331
1A22
  5
1A26
331
19E3
  5
19E7
331
19AC
  5
19AF
331
196D
  5
196D
331
1A2A
  5
1A2E
331
19EB
  5
19EF
331
19B4
  5
19B7
331
1975
  5
1975
331
1AA8
  5
1AB0
331
1A69
  5
1A6E
331
1A32
  5
1A36
331
19F3
  5
19F7
331
19BC
  5
19BF
331
19FB
  5
19FF
331
27
  5
27
331
1AB0
  5
1AC1
331
1A3A
  5
1A3E
331
1A03
  5
1A07
331
198D
  5
198D
331
194E
  5
194E
331
1A0B
  5
1A0F
331
19CC
  5
19CF
331
1995
  5
1995
331
1956
  5
1956
331
1AC0
  5
1ABE
331
1A13
  5
1A17
331
19D4
  5
19D7
331
199D
  5
199D
331
195E
  5
195E
331
1A91
  5
1A95
331
1A1B
  5
1A1F
331
19DC
  5
19E0
331
19A5
  5
19A7
331
1966
  5
1966
331
10
  5
14
331
11A6
  5
11A6
331
10F
  5
10F
331
1AD0
  5
1AD2
331
1A23
  5
1A27
331
19E4
  5
19E8
331
19AD
  5
19B0
331
1A2B
  5
1A2F
331
19EC
  5
19F0
331
19B5
  5
19B8
331
1976
  5
1976
331
1A6A
  5
1A6F
331
1A33
  5
1A37
331
19F4
  5
19F8
331
19BD
  5
19C0
331
197E
  5
197E
331
19FC
  5
1A00
331
1986
  5
1986
331
1AB1
  5
1AC3
331
1A3B
  5
1A3F
331
1A04
  5
1A08
331
198E
  5
198E
331
194F
  5
194F
331
1A0C
  5
1A10
331
19CD
  5
19D0
331
1996
  5
1996
331
1AC1
  5
1ABC
331
1A14
  5
1A18
331
19D5
  5
19D9
331
199E
  5
199E
331
195F
  5
195F
331
1AC9
  5
1AC9
331
1A92
  5
1A96
331
1A1C
  5
1A20
331
19DD
  5
19E1
331
19A6
  5
19A9
331
1967
  5
1967
331
11
  5
15
331
110
  5
110
331
1AD1
  5
1AD3
331
1A24
  5
1A28
331
19E5
  5
19E9
331
196F
  5
196F
331
1A2C
  5
1A30
331
19ED
  5
19F1
331
19B6
  5
19B9
331
1977
  5
1977
331
1AAA
  5
1AB9
331
1A6B
  5
1A70
331
1A34
  5
1A38
331
19F5
  5
19F9
331
19BE
  5
19C1
331
197F
  5
197F
331
19FD
  5
1A01
331
1987
  5
1987
331
21
  5
22
331
181F
  5
181F
331
1A3C
  5
1A40
331
1A05
  5
1A09
331
19C6
  5
19C9
331
198F
  5
198F
331
1950
  5
1950
331
1A0D
  5
1A11
331
19CE
  5
19D1
331
1997
  5
1997
331
1958
  5
1958
331
1AC2
  5
1ABA
331
1A15
  5
1A19
331
19D6
  5
19DA
331
199F
  5
199F
331
1960
  5
1960
331
1ACA
  5
1ACA
331
1A93
  5
1A97
331
1A1D
  5
1A21
331
19DE
  5
19E2
331
19A7
  5
19AA
331
12
  5
16
331
1968
  5
1968
331
1AD2
  5
1AD4
331
1A25
  5
1A29
331
19E6
  5
19EA
331
1970
  5
1970
331
1A2D
  5
1A31
331
19EE
  5
19F2
331
19B7
  5
19BA
331
1978
  5
1978
331
1A6C
  5
1A8C
331
1A35
  5
1A39
331
19F6
  5
19FA
331
19BF
  5
19C2
331
1980
  5
1980
331
19FE
  5
1A02
  0
SORTENTSTABLE
  5
B6E
102
{ACAD_REACTORS
330
B6D
102
}
330
B6D
100
AcDbSortentsTable
330
B69
  0
XRECORD
  5
1B19
102
{ACAD_REACTORS
330
1B18
102
}
330
1B18
100
AcDbXrecord
280
     1
 40
7955300.0
  1
\pt0.09;{\fTimes New Roman|b0|i0|c238|p18;\H1.6x;\C4;Bovelacci\P\H0.4375x;\T0.95;via del Commercio, 5  47100 Forli - Italy  \fTimes New Roman|b0|i0|c0|p18;\P\fTimes New Roman|b0|i0|c238|p18;tel.+39-0543721386  fax +39-0543721127\fTimes New Roman|b0|i
  1
0|c0|p18; \fTimes New Roman|b0|i0|c238|p18;www.bovelacci.it\fTimes New Roman|b0|i0|c0|p18; \fTimes New Roman|b0|i0|c238|p18;e-mail: bovelacci@bovelacci\fTimes New Roman|b0|i0|c0|p18;.it}
  0
DIMASSOC
  5
1AEF
102
{ACAD_REACTORS
330
1AE4
102
}
330
1AE4
100
AcDbDimAssoc
330
1AD6
 90
        3
 70
     0
 71
     0
  1
AcDbOsnapPointRef
 72
    13
331
181F
 73
     2
 91
        2
 40
0.0
 10
0.0
 20
0.0
 30
2.000000000000000E+50
 75
     0
  1
AcDbOsnapPointRef
 72
     1
331
181F
 73
     2
 91
       15
 40
1.0
 10
0.0
 20
0.0
 30
2.000000000000000E+50
 75
     0
  0
DIMASSOC
  5
1B09
102
{ACAD_REACTORS
330
1AFE
102
}
330
1AFE
100
AcDbDimAssoc
330
1AF0
 90
        3
 70
     0
 71
     0
  1
AcDbOsnapPointRef
 72
     1
331
181F
 73
     2
 91
       22
 40
1.0
 10
0.0
 20
0.0
 30
2.000000000000000E+50
 75
     0
  1
AcDbOsnapPointRef
 72
     1
331
181F
 73
     2
 91
       14
 40
1.0
 10
0.0
 20
0.0
 30
2.000000000000000E+50
 75
     0
  0
XRECORD
  5
1B12
102
{ACAD_REACTORS
330
1B11
102
}
330
1B11
100
AcDbXrecord
280
     1
102
SHADEPLOT
 70
     0
  0
XRECORD
  5
1B14
102
{ACAD_REACTORS
330
1B13
102
}
330
1B13
100
AcDbXrecord
280
     1
102
SHADEPLOT
 70
     0
  0
XRECORD
  5
14B
102
{ACAD_REACTORS
330
14A
102
}
330
14A
100
AcDbXrecord
280
     1
 40
0.18
  0
LAYOUT
  5
82
102
{ACAD_XDICTIONARY
360
83
102
}
102
{ACAD_REACTORS
330
78
102
}
330
78
100
AcDbPlotSettings
  1

  2
C:\Documents and Settings\All Users\Dati applicazioni\Autodesk\ADT 2006\enu\Plotters\Default Windows System Printer.pc3
  4
A4
  6

 40
3.174999952316281
 41
3.174999952316281
 42
3.175003051757812
 43
3.17498779296875
 44
209.9733276367186
 45
297.0106506347656
 46
0.0
 47
0.0
 48
0.0
 49
0.0
140
0.0
141
0.0
142
1.0
143
1.0
 70
   688
 72
     1
 73
     1
 74
     5
  7

 75
    16
147
1.0
148
0.0
149
0.0
100
AcDbLayout
  1
Layout1
 70
     1
 71
     1
 10
-3.17498779296875
 20
-3.174999952316281
 11
293.8356628417969
 21
206.7983276844024
 12
0.0
 22
0.0
 32
0.0
 14
29.06606628894805
 24
20.36233246326446
 34
0.0
 15
261.5945966005325
 25
183.2609921693802
 35
0.0
146
0.0
 13
0.0
 23
0.0
 33
0.0
 16
1.0
 26
0.0
 36
0.0
 17
0.0
 27
1.0
 37
0.0
 76
     0
330
79
331
7B
1001
ACAD_PSEXT
1000
C:\Documents and Settings\All Users\Dati applicazioni\Autodesk\ADT 2006\enu\Plotters\Default Windows System Printer.pc3
1000
Microsoft Office Document Image Writer Driver
1000
Microsoft Document Imaging Writer Port:
1000

1070
     0
  0
LAYOUT
  5
89
102
{ACAD_XDICTIONARY
360
1B16
102
}
102
{ACAD_REACTORS
330
78
102
}
330
78
100
AcDbPlotSettings
  1

  2
C:\Documents and Settings\All Users\Dati applicazioni\Autodesk\ADT 2006\enu\Plotters\Default Windows System Printer.pc3
  4

  6

 40
0.0
 41
0.0
 42
0.0
 43
0.0
 44
0.0
 45
0.0
 46
0.0
 47
0.0
 48
0.0
 49
0.0
140
0.0
141
0.0
142
1.0
143
1.0
 70
   688
 72
     0
 73
     0
 74
     5
  7

 75
    16
147
1.0
148
0.0
149
0.0
100
AcDbLayout
  1
Layout2
 70
     1
 71
     2
 10
0.0
 20
0.0
 11
12.0
 21
9.0
 12
0.0
 22
0.0
 32
0.0
 14
0.0
 24
0.0
 34
0.0
 15
0.0
 25
0.0
 35
0.0
146
0.0
 13
0.0
 23
0.0
 33
0.0
 16
1.0
 26
0.0
 36
0.0
 17
0.0
 27
1.0
 37
0.0
 76
     0
330
86
  0
LAYOUT
  5
77
102
{ACAD_XDICTIONARY
360
1B0F
102
}
102
{ACAD_REACTORS
330
78
102
}
330
78
100
AcDbPlotSettings
  1

  2
C:\Documents and Settings\All Users\Dati applicazioni\Autodesk\ADT 2006\enu\Plotters\Default Windows System Printer.pc3
  4

  6

 40
0.0
 41
0.0
 42
0.0
 43
0.0
 44
0.0
 45
0.0
 46
0.0
 47
0.0
 48
0.0
 49
0.0
140
0.0
141
0.0
142
1.0
143
1.0
 70
  1712
 72
     0
 73
     0
 74
     0
  7

 75
     0
147
1.0
148
0.0
149
0.0
100
AcDbLayout
  1
Model
 70
     1
 71
     0
 10
0.0
 20
0.0
 11
12.0
 21
9.0
 12
0.0
 22
0.0
 32
0.0
 14
0.0
 24
0.0
 34
0.0
 15
0.0
 25
0.0
 35
0.0
146
0.0
 13
0.0
 23
0.0
 33
0.0
 16
1.0
 26
0.0
 36
0.0
 17
0.0
 27
1.0
 37
0.0
 76
     0
330
2
  0
MATERIAL
  5
A0
102
{ACAD_XDICTIONARY
360
C7
102
}
102
{ACAD_REACTORS
330
B
102
}
330
B
100
AcDbMaterial
  1
ByBlock
  0
MATERIAL
  5
9F
102
{ACAD_XDICTIONARY
360
C5
102
}
102
{ACAD_REACTORS
330
B
102
}
330
B
100
AcDbMaterial
  1
ByLayer
  0
MATERIAL
  5
A
102
{ACAD_XDICTIONARY
360
B1
102
}
102
{ACAD_REACTORS
330
B
102
}
330
B
100
AcDbMaterial
  1
Global
  0
MLINESTYLE
  5
A3
102
{ACAD_REACTORS
330
9D
102
}
330
9D
100
AcDbMlineStyle
  2
STANDARD
 70
     0
  3

 62
   256
 51
90.0
 52
90.0
 71
     2
 49
0.5
 62
   256
  6
BYLAYER
 49
-0.5
 62
   256
  6
BYLAYER
  0
ACDBPLACEHOLDER
  5
7
102
{ACAD_REACTORS
330
8
102
}
330
8
  0
TABLESTYLE
  5
A4
102
{ACAD_XDICTIONARY
360
155
102
}
102
{ACAD_REACTORS
330
A2
102
}
330
A2
100
AcDbTableStyle
  3
Standard
 70
     0
 71
     0
 40
1.5
 41
1.5
280
     0
281
     0
  7
Standard
140
4.5
170
     2
 62
     0
 63
     7
283
     0
274
    -2
284
     1
 64
     0
275
    -2
285
     1
 65
     0
276
    -2
286
     1
 66
     0
277
    -2
287
     1
 67
     0
278
    -2
288
     1
 68
     0
279
    -2
289
     1
 69
     0
  7
Standard
140
6.0
170
     5
 62
     0
 63
     7
283
     0
274
    -2
284
     1
 64
     0
275
    -2
285
     1
 65
     0
276
    -2
286
     1
 66
     0
277
    -2
287
     1
 67
     0
278
    -2
288
     1
 68
     0
279
    -2
289
     1
 69
     0
  7
Standard
140
4.5
170
     5
 62
     0
 63
     7
283
     0
274
    -2
284
     1
 64
     0
275
    -2
285
     1
 65
     0
276
    -2
286
     1
 66
     0
277
    -2
287
     1
 67
     0
278
    -2
288
     1
 68
     0
279
    -2
289
     1
 69
     0
  0
VISUALSTYLE
  5
7E
102
{ACAD_REACTORS
330
7F
102
}
330
7F
100
AcDbVisualStyle
  2
2dWireframe
 70
     4
 71
     0
 72
     2
 73
     0
 90
        0
 40
-0.6
 41
-30.0
 62
     5
 63
     7
 74
     1
 91
        4
 64
     7
 65
   257
 75
     1
175
     1
 42
1.0
 92
        0
 66
   257
 43
1.0
 76
     1
 77
     6
 78
     2
 67
     7
 79
     5
170
     0
171
     0
290
     0
174
     0
 93
        1
 44
0.0
173
     0
291
     0
 45
0.0
1001
ACAD
1000
AcDbSavedByObjectVersion
1070
     0
1000
AcDbSavedByObjectVersion
1070
     0
1000
AcDbSavedByObjectVersion
1070
     0
1001
ACAD
1000
AcRTDxfName
1000
VISUALSTYLE
  0
VISUALSTYLE
  5
D8
102
{ACAD_REACTORS
330
7F
102
}
330
7F
100
AcDbVisualStyle
  2
3D Hidden
 70
     6
 71
     1
 72
     2
 73
     2
 90
        0
 40
-0.6
 41
-30.0
 62
     5
 63
     7
 74
     2
 91
        2
 64
     7
 65
   257
 75
     2
175
     1
 42
40.0
 92
        0
 66
   257
 43
1.0
 76
     1
 77
     6
 78
     2
 67
     7
 79
     3
170
     0
171
     0
290
     0
174
     0
 93
        1
 44
0.0
173
     0
291
     0
 45
0.0
1001
ACAD
1000
AcDbSavedByObjectVersion
1070
     0
1000
AcDbSavedByObjectVersion
1070
     0
1001
ACAD
1000
AcRTDxfName
1000
VISUALSTYLE
  0
VISUALSTYLE
  5
A6
102
{ACAD_REACTORS
330
7F
102
}
330
7F
100
AcDbVisualStyle
  2
3dWireframe
 70
     5
 71
     0
 72
     2
 73
     0
 90
        0
 40
-0.6
 41
-30.0
 62
     5
 63
     7
 74
     1
 91
        4
 64
     7
 65
   257
 75
     1
175
     1
 42
1.0
 92
        0
 66
   257
 43
1.0
 76
     1
 77
     6
 78
     2
 67
     7
 79
     5
170
     0
171
     0
290
     0
174
     0
 93
        1
 44
0.0
173
     0
291
     0
 45
0.0
1001
ACAD
1000
AcDbSavedByObjectVersion
1070
     0
1000
AcDbSavedByObjectVersion
1070
     0
1000
AcDbSavedByObjectVersion
1070
     0
1001
ACAD
1000
AcRTDxfName
1000
VISUALSTYLE
  0
VISUALSTYLE
  5
D7
102
{ACAD_REACTORS
330
7F
102
}
330
7F
100
AcDbVisualStyle
  2
Basic
 70
     7
 71
     1
 72
     0
 73
     1
 90
        0
 40
-0.6
 41
-30.0
 62
     5
 63
     7
 74
     0
 91
        4
 64
     7
 65
   257
 75
     1
175
     1
 42
1.0
 92
        8
 66
     7
 43
1.0
 76
     1
 77
     6
 78
     2
 67
     7
 79
     5
170
     0
171
     0
290
     0
174
     0
 93
        1
 44
0.0
173
     0
291
     1
 45
0.0
1001
ACAD
1000
AcDbSavedByObjectVersion
1070
     0
1000
AcDbSavedByObjectVersion
1070
     0
1001
ACAD
1000
AcRTDxfName
1000
VISUALSTYLE
  0
VISUALSTYLE
  5
DB
102
{ACAD_REACTORS
330
7F
102
}
330
7F
100
AcDbVisualStyle
  2
Brighten
 70
    12
 71
     2
 72
     2
 73
     0
 90
        0
 40
-0.6
 41
-30.0
 62
     5
 63
     7
 74
     1
 91
        4
 64
     7
 65
   257
 75
     1
175
     1
 42
1.0
 92
        8
 66
     7
 43
1.0
 76
     1
 77
     6
 78
     2
 67
     7
 79
     5
170
     0
171
     0
290
     0
174
     0
 93
        1
 44
50.0
173
     0
291
     1
 45
0.0
1001
ACAD
1000
AcDbSavedByObjectVersion
1070
     0
1000
AcDbSavedByObjectVersion
1070
     0
1001
ACAD
1000
AcRTDxfName
1000
VISUALSTYLE
  0
VISUALSTYLE
  5
DF
102
{ACAD_REACTORS
330
7F
102
}
330
7F
100
AcDbVisualStyle
  2
ColorChange
 70
    16
 71
     2
 72
     2
 73
     3
 90
        0
 40
-0.6
 41
-30.0
 62
     5
 63
     8
 74
     1
 91
        4
 64
     7
 65
   257
 75
     1
175
     1
 42
1.0
 92
        8
 66
     8
 43
1.0
 76
     1
 77
     6
 78
     2
 67
     7
 79
     5
170
     0
171
     0
290
     0
174
     0
 93
        1
 44
0.0
173
     0
291
     1
 45
0.0
1001
ACAD
1000
AcDbSavedByObjectVersion
1070
     0
1000
AcDbSavedByObjectVersion
1070
     0
1001
ACAD
1000
AcRTDxfName
1000
VISUALSTYLE
  0
VISUALSTYLE
  5
D9
102
{ACAD_REACTORS
330
7F
102
}
330
7F
100
AcDbVisualStyle
  2
Conceptual
 70
     9
 71
     3
 72
     2
 73
     0
 90
        0
 40
-0.6
 41
-30.0
 62
     5
 63
     7
 74
     2
 91
        2
 64
     7
 65
   257
 75
     1
175
     1
 42
40.0
 92
        8
 66
     7
 43
1.0
 76
     1
 77
     6
 78
     2
 67
     7
 79
     3
170
     0
171
     0
290
     0
174
     0
 93
        1
 44
0.0
173
     0
291
     0
 45
0.0
1001
ACAD
1000
AcDbSavedByObjectVersion
1070
     0
1000
AcDbSavedByObjectVersion
1070
     0
1001
ACAD
1000
AcRTDxfName
1000
VISUALSTYLE
  0
VISUALSTYLE
  5
DA
102
{ACAD_REACTORS
330
7F
102
}
330
7F
100
AcDbVisualStyle
  2
Dim
 70
    11
 71
     2
 72
     2
 73
     0
 90
        0
 40
-0.6
 41
-30.0
 62
     5
 63
     7
 74
     1
 91
        4
 64
     7
 65
   257
 75
     1
175
     1
 42
1.0
 92
        8
 66
     7
 43
1.0
 76
     1
 77
     6
 78
     2
 67
     7
 79
     5
170
     0
171
     0
290
     0
174
     0
 93
        1
 44
-50.0
173
     0
291
     1
 45
0.0
1001
ACAD
1000
AcDbSavedByObjectVersion
1070
     0
1000
AcDbSavedByObjectVersion
1070
     0
1001
ACAD
1000
AcRTDxfName
1000
VISUALSTYLE
  0
VISUALSTYLE
  5
DE
102
{ACAD_REACTORS
330
7F
102
}
330
7F
100
AcDbVisualStyle
  2
Facepattern
 70
    15
 71
     2
 72
     2
 73
     0
 90
        0
 40
-0.6
 41
-30.0
 62
     5
 63
     7
 74
     1
 91
        4
 64
     7
 65
   257
 75
     1
175
     1
 42
1.0
 92
        8
 66
     7
 43
1.0
 76
     1
 77
     6
 78
     2
 67
     7
 79
     5
170
     0
171
     0
290
     0
174
     0
 93
        1
 44
0.0
173
     0
291
     1
 45
0.0
1001
ACAD
1000
AcDbSavedByObjectVersion
1070
     0
1000
AcDbSavedByObjectVersion
1070
     0
1001
ACAD
1000
AcRTDxfName
1000
VISUALSTYLE
  0
VISUALSTYLE
  5
D3
102
{ACAD_REACTORS
330
7F
102
}
330
7F
100
AcDbVisualStyle
  2
Flat
 70
     0
 71
     2
 72
     1
 73
     1
 90
        2
 40
-0.6
 41
30.0
 62
     5
 63
     7
 74
     0
 91
        4
 64
     7
 65
   257
 75
     1
175
     1
 42
1.0
 92
        8
 66
     7
 43
1.0
 76
     1
 77
     6
 78
     2
 67
     7
 79
     5
170
     0
171
     0
290
     0
174
     0
 93
       13
 44
0.0
173
     0
291
     1
 45
0.0
1001
ACAD
1000
AcDbSavedByObjectVersion
1070
     0
1000
AcDbSavedByObjectVersion
1070
     0
1001
ACAD
1000
AcRTDxfName
1000
VISUALSTYLE
  0
VISUALSTYLE
  5
D4
102
{ACAD_REACTORS
330
7F
102
}
330
7F
100
AcDbVisualStyle
  2
FlatWithEdges
 70
     1
 71
     2
 72
     1
 73
     1
 90
        2
 40
-0.6
 41
30.0
 62
     5
 63
     7
 74
     1
 91
        4
 64
     7
 65
   257
 75
     1
175
     1
 42
1.0
 92
        0
 66
   257
 43
1.0
 76
     1
 77
     6
 78
     2
 67
     7
 79
     5
170
     0
171
     0
290
     0
174
     0
 93
       13
 44
0.0
173
     0
291
     1
 45
0.0
1001
ACAD
1000
AcDbSavedByObjectVersion
1070
     0
1000
AcDbSavedByObjectVersion
1070
     0
1001
ACAD
1000
AcRTDxfName
1000
VISUALSTYLE
  0
VISUALSTYLE
  5
D5
102
{ACAD_REACTORS
330
7F
102
}
330
7F
100
AcDbVisualStyle
  2
Gouraud
 70
     2
 71
     2
 72
     2
 73
     1
 90
        2
 40
-0.6
 41
30.0
 62
     5
 63
     7
 74
     0
 91
        4
 64
     7
 65
   257
 75
     1
175
     1
 42
1.0
 92
        0
 66
     7
 43
1.0
 76
     1
 77
     6
 78
     2
 67
     7
 79
     5
170
     0
171
     0
290
     0
174
     0
 93
       13
 44
0.0
173
     0
291
     1
 45
0.0
1001
ACAD
1000
AcDbSavedByObjectVersion
1070
     0
1000
AcDbSavedByObjectVersion
1070
     0
1001
ACAD
1000
AcRTDxfName
1000
VISUALSTYLE
  0
VISUALSTYLE
  5
D6
102
{ACAD_REACTORS
330
7F
102
}
330
7F
100
AcDbVisualStyle
  2
GouraudWithEdges
 70
     3
 71
     2
 72
     2
 73
     1
 90
        2
 40
-0.6
 41
30.0
 62
     5
 63
     7
 74
     1
 91
        4
 64
     7
 65
   257
 75
     1
175
     1
 42
1.0
 92
        0
 66
   257
 43
1.0
 76
     1
 77
     6
 78
     2
 67
     7
 79
     5
170
     0
171
     0
290
     0
174
     0
 93
       13
 44
0.0
173
     0
291
     1
 45
0.0
1001
ACAD
1000
AcDbSavedByObjectVersion
1070
     0
1000
AcDbSavedByObjectVersion
1070
     0
1001
ACAD
1000
AcRTDxfName
1000
VISUALSTYLE
  0
VISUALSTYLE
  5
DD
102
{ACAD_REACTORS
330
7F
102
}
330
7F
100
AcDbVisualStyle
  2
Linepattern
 70
    14
 71
     2
 72
     2
 73
     0
 90
        0
 40
-0.6
 41
-30.0
 62
     5
 63
     7
 74
     1
 91
        4
 64
     7
 65
   257
 75
     7
175
     7
 42
1.0
 92
        8
 66
     7
 43
1.0
 76
     1
 77
     6
 78
     2
 67
     7
 79
     5
170
     0
171
     0
290
     0
174
     0
 93
        1
 44
0.0
173
     0
291
     1
 45
0.0
1001
ACAD
1000
AcDbSavedByObjectVersion
1070
     0
1000
AcDbSavedByObjectVersion
1070
     0
1001
ACAD
1000
AcRTDxfName
1000
VISUALSTYLE
  0
VISUALSTYLE
  5
A5
102
{ACAD_REACTORS
330
7F
102
}
330
7F
100
AcDbVisualStyle
  2
Realistic
 70
     8
 71
     2
 72
     2
 73
     0
 90
        0
 40
-0.6
 41
-30.0
 62
     5
 63
     7
 74
     1
 91
        0
 64
     7
 65
   257
 75
     1
175
     1
 42
1.0
 92
        8
 66
     8
 43
1.0
 76
     1
 77
     6
 78
     2
 67
     7
 79
     5
170
     0
171
     0
290
     0
174
     0
 93
       13
 44
0.0
173
     0
291
     0
 45
0.0
1001
ACAD
1000
AcDbSavedByObjectVersion
1070
     0
1000
AcDbSavedByObjectVersion
1070
     0
1000
AcDbSavedByObjectVersion
1070
     0
1001
ACAD
1000
AcRTDxfName
1000
VISUALSTYLE
  0
VISUALSTYLE
  5
DC
102
{ACAD_REACTORS
330
7F
102
}
330
7F
100
AcDbVisualStyle
  2
Thicken
 70
    13
 71
     2
 72
     2
 73
     0
 90
        0
 40
-0.6
 41
-30.0
 62
     5
 63
     7
 74
     1
 91
        4
 64
     7
 65
   257
 75
     1
175
     1
 42
1.0
 92
       12
 66
     7
 43
1.0
 76
     1
 77
     6
 78
     2
 67
     7
 79
     5
170
     0
171
     0
290
     0
174
     0
 93
        1
 44
0.0
173
     0
291
     1
 45
0.0
1001
ACAD
1000
AcDbSavedByObjectVersion
1070
     0
1000
AcDbSavedByObjectVersion
1070
     0
1001
ACAD
1000
AcRTDxfName
1000
VISUALSTYLE
  0
DICTIONARYVAR
  5
AA
102
{ACAD_REACTORS
330
A9
102
}
330
A9
100
DictionaryVariables
280
     0
  1
STANDARD
  0
DICTIONARYVAR
  5
AE
102
{ACAD_REACTORS
330
A9
102
}
330
A9
100
DictionaryVariables
280
     0
  1
2
  0
DICTIONARYVAR
  5
AD
102
{ACAD_REACTORS
330
A9
102
}
330
A9
100
DictionaryVariables
280
     0
  1
1
  0
DICTIONARYVAR
  5
AC
102
{ACAD_REACTORS
330
A9
102
}
330
A9
100
DictionaryVariables
280
     0
  1
0
  0
DICTIONARYVAR
  5
16A
102
{ACAD_REACTORS
330
A9
102
}
330
A9
100
DictionaryVariables
280
     0
  1

  0
DICTIONARYVAR
  5
AB
102
{ACAD_REACTORS
330
A9
102
}
330
A9
100
DictionaryVariables
280
     0
  1
127
  0
DICTIONARY
  5
83
330
82
100
AcDbDictionary
280
     1
281
     1
  3
ACAD_XREC_ROUNDTRIP
360
1B15
  3
ADSK_XREC_LAYOUTTHUMBNAIL
360
84
  0
DICTIONARY
  5
1B16
330
89
100
AcDbDictionary
280
     1
281
     1
  3
ACAD_XREC_ROUNDTRIP
360
1B17
  0
DICTIONARY
  5
1B0F
330
77
100
AcDbDictionary
280
     1
281
     1
  3
ACAD_XREC_ROUNDTRIP
360
1B10
  0
DICTIONARY
  5
C7
330
A0
100
AcDbDictionary
280
     1
281
     1
  3
ACAD_XREC_ROUNDTRIP
360
C8
  0
DICTIONARY
  5
C5
330
9F
100
AcDbDictionary
280
     1
281
     1
  3
ACAD_XREC_ROUNDTRIP
360
C6
  0
DICTIONARY
  5
B1
330
A
100
AcDbDictionary
280
     1
281
     1
  3
ACAD_XREC_ROUNDTRIP
360
B2
  0
DICTIONARY
  5
155
330
A4
100
AcDbDictionary
280
     1
281
     1
  3
ACAD_XREC_ROUNDTRIP
360
156
  0
XRECORD
  5
1B15
102
{ACAD_REACTORS
330
83
102
}
330
83
100
AcDbXrecord
280
     1
102
SHADEPLOT
 70
     0
102
SHADEPLOTRESLEVEL
 70
     2
102
SHADEPLOTCUSTOMDPI
 70
   300
  0
XRECORD
  5
84
102
{ACAD_REACTORS
330
83
102
}
330
83
100
AcDbXrecord
280
     1
310
28000000B40000007F00000001000800000000004C59000000000000000000000001000000000000FFFFFF0000000000FFFFFF000000000000000000000000000000000000000000000000000000000000000000330000006600000099000000CC000000FF00000000330000333300006633000099330000CC330000FF3300
310
0000660000336600006666000099660000CC660000FF66000000990000339900006699000099990000CC990000FF99000000CC000033CC000066CC000099CC0000CCCC0000FFCC000000FF000033FF000066FF000099FF0000CCFF0000FFFF000000003300330033006600330099003300CC003300FF003300003333003333
310
33006633330099333300CC333300FF33330000663300336633006666330099663300CC663300FF66330000993300339933006699330099993300CC993300FF99330000CC330033CC330066CC330099CC3300CCCC3300FFCC330000FF330033FF330066FF330099FF3300CCFF3300FFFF330000006600330066006600660099
310
006600CC006600FF00660000336600333366006633660099336600CC336600FF33660000666600336666006666660099666600CC666600FF66660000996600339966006699660099996600CC996600FF99660000CC660033CC660066CC660099CC6600CCCC6600FFCC660000FF660033FF660066FF660099FF6600CCFF6600
310
FFFF660000009900330099006600990099009900CC009900FF00990000339900333399006633990099339900CC339900FF33990000669900336699006666990099669900CC669900FF66990000999900339999006699990099999900CC999900FF99990000CC990033CC990066CC990099CC9900CCCC9900FFCC990000FF99
310
0033FF990066FF990099FF9900CCFF9900FFFF99000000CC003300CC006600CC009900CC00CC00CC00FF00CC000033CC003333CC006633CC009933CC00CC33CC00FF33CC000066CC003366CC006666CC009966CC00CC66CC00FF66CC000099CC003399CC006699CC009999CC00CC99CC00FF99CC0000CCCC0033CCCC0066CC
310
CC0099CCCC00CCCCCC00FFCCCC0000FFCC0033FFCC0066FFCC0099FFCC00CCFFCC00FFFFCC000000FF003300FF006600FF009900FF00CC00FF00FF00FF000033FF003333FF006633FF009933FF00CC33FF00FF33FF000066FF003366FF006666FF009966FF00CC66FF00FF66FF000099FF003399FF006699FF009999FF00CC
310
99FF00FF99FF0000CCFF0033CCFF0066CCFF0099CCFF00CCCCFF00FFCCFF0000FFFF0033FFFF0066FFFF0099FFFF00CCFFFF00FFFFFF00000000000D0D0D001A1A1A00282828003535350043434300505050005D5D5D006B6B6B00787878008686860093939300A1A1A100AEAEAE00BBBBBB00C9C9C900D6D6D600E4E4E400
310
F1F1F100FFFFFF0000000000000000000000000000000000000000000000000000000000000000000000000000000000E2E2E2E2E2E2E2E2E2E2E2E2E2E2E2E2E2E2E2E2E2E2E2E2E2E2E2E2E2E2E2E2E2E2E2E2E2E2E2E2E2E2E2E2E2E2E2E2E2E2E2E2E2E2E2E2E2E2E2E2E2E2E2E2E2E2E2E2E2E2E2E2E2E2E2E2E2E2E2
310
E2E2E2E2E2E2E2E2E2E2E2E2E2E2E2E2E2E2E2E2E2E2E2E2E2E2E2E2E2E2E2E2E2E2E2E2E2E2E2E2E2E2E2E2E2E2E2E2E2E2E2E2E2E2E2E2E2E2E2E2E2E2E2E2E2E2E2E2E2E2E2E2E2E2E2E2E2E2E2E2E2E2E2E2E2E2E2E2E2E2E2E2E2E2E2E2E2E2E2E2E2E2F5F5F5F5F5F5F5F5F5F5F5F5F5F5F5F5F5F5F5F5F5F5F5F5F5
310
F5F5F5F5F5F5F5F5F5F5F5F5F5F5F5F5F5F5F5F5F5F5F5F5F5F5F5F5F5F5F5F5F5F5F5F5F5F5F5F5F5F5F5F5F5F5F5F5F5F5F5F5F5F5F5F5F5F5F5F5F5F5F5F5F5F5F5F5F5F5F5F5F5F5F5F5F5F5F5F5F5F5F5F5F5F5F5F5F5F5F5F5F5F5F5F5F5F5F5F5F5F5F5F5F5F5F5F5F5F5F5F5F5F5F5F5F5F5F5F5F5F5F5F5F5F5F5
310
F5F5F5F5F5F5F5F5F5F5F5F5F5F5F5F5F5F5F5F5F5F5F5F5F5F5E2E2F5E2E2E2E2E2E2E2E2E2F5F5F5F5F5F5F5F5F5E2E2E2E2E2E2E2E2E2E2E2E2E2E2E2E2F5F5F5F5F5F5F5F5F5E2E2E2E2E2E2E2E2E2E2E2E2E2E2E2E2F5F5F5F5F5F5F5F5F5E2E2E2E2E2E2E2E2E2E2E2E2E2E2E2E2F5F5F5F5F5F5F5F5F5E2E2E2E2E2
310
E2E2E2E2E2E2E2E2E2E2E2F5F5F5F5F5F5F5F5F5E2E2E2E2E2E2E2E2E2E2E2E2E2E2E2E2F5F5F5F5F5F5F5F5F5E2E2E2E2E2E2E2E2E2E2E2E2E2E2E2E2F5F5F5F5F5F5F5F5F5E2E2E2E2E2E2E2E2F5E2E2F5E2F5F5F5F5F5F5F5F5F5F5F5F5F5F5F5F5F5F5F5F5F5F5F5F5F5F5F5F5F5F5F5F5F5F5F5F5F5F5F5F5F5F5F5F5
310
F5F5F5F5F5F5F5F5F5F5F5F5F5F5F5F5F5F5F5F5F5F5F5F5F5F5F5F5F5F5F5F5F5F5F5F5F5F5F5F5F5F5F5F5F5F5F5F5F5F5F5F5F5F5F5F5F5F5F5F5F5F5F5F5F5F5F5F5F5F5F5F5F5F5F5F5F5F5F5F5F5F5F5F5F5F5F5F5F5F5F5F5F5F5F5F5F5F5F5F5F5F5F5F5F5F5F5F5F5F5F5F5F5F5F5F5F5F5F5F5F5F5F5F5F5F5F5
310
F5F5F5E2F5E2E2F5E2F5F5F5F5F5F5F5F5F5F5F5F5F5F5F5F5F5F5F5F5F5F5F5F5F5F5F5F5F5F5F5F5F5F5F5F5F5F5F5F5F5F5F5F5F5F5F5F5F5F5F5F5F5F5F5F5F5F5F5F5F5F5F5F5F5F5F5F5F5F5F5F5F5F5F5F5F5F5F5F5F5F5F5F5F5F5F5F5F5F5F5F5F5F5F5F5F5F5F5F5F5F5F5F5F5F5F5F5F5F5F5F5F5F5F5F5F5F5
310
F5F5F5F5F5F5F5F5F5F5F5F5F5F5F5F5F5F5F5F5F5F5F5F5F5F5F5F5F5F5F5F5F5F5F5F5F5F5F5F5F5F5F5F5F5F5F5F5F5F5F5F5F5F5F5F5E2F5E2E2F5E2F5F5F5F5F5F5F5F5F5F5F5F5F5F5F5F5F5F5F5F5F5F5F5F5F5F5F5F5F5F5F5F5F5F5F5F5F5F5F5F5F5F5F5F5F5F5F5F5F5F5F5F5F5F5F5F5F5F5F5F5F5F5F5F5F5
310
F5F5F5F5F5F5F5F5F5F5F5F5F5F5F5F5F5F5F5F5F5F5F5F5F5F5F5F5F5F5F5F5F5F5F5F5F5F5F5F5F5F5F5F5F5F5F5F5F5F5F5F5F5F5F5F5F5F5F5F5F5F5F5F5F5F5F5F5F5F5F5F5F5F5F5F5F5F5F5F5F5F5F5F5F5F5F5F5F5F5F5F5F5F5F5F5F5F5F5F5F5F5F5F5F5F5F5F5F5E2F5E2E2F5E2F5F5F5F5F5F5F5F5F5F5F5F5
310
F5F5F5F5F5F5F5F5F5F5F5F5F5F5F5F5F5F5F5F5F5F5F5F5F5F5F5F5F5F5F5F5F5F5F5F5F5F5F5F5F5F5F5F5F5F5F5F5F5F5F5F5F5F5F5F5F5F5F5F5F5F5F5F5F5F5F5F5F5F5F5F5F5F5F5F5F5F5F5F5F5F5F5F5F5F5F5F5F5F5F5F5F5F5F5F5F5F5F5F5F5F5F5F5F5F5F5F5F5F5F5F5F5F5F5F5F5F5F5F5F5F5F5F5F5F5F5
310
F5F5F5F5F5F5F5F5F5F5F5F5F5F5F5F5F5F5F5F5F5F5F5F5F5F5F5F5F5F5F5F5F5F5F5E2F5E2E2F5E2F5F5F5F5F5F5F5F5F5F5F5F5F5F5F5F5F5F5F5F5F5F5F5F5F5F5F5F5F5F5F5F5F5F5F5F5F5F5F5F5F5F5F5F5F5F5F5F5F5F5F5F5F5F5F5F5F5F5F5F5F5F5F5F5F5F5F5F5F5F5F5F5F5F5F5F5F5F5F5F5F5F5F5F5F5F5
310
F5F5F5F5F5F5F5F5F5F5F5F5F5F5F5F5F5F5F5F5F5F5F5F5F5F5F5F5F5F5F5F5F5F5F5F5F5F5F5F5F5F5F5F5F5F5F5F5F5F5F5F5F5F5F5F5F5F5F5F5F5F5F5F5F5F5F5F5F5F5F5F5F5F5F5F5F5F5F5F5F5F5F5F5F5F5F5F5E2F5E2E2F5E2F5F5F5F5F5F5F5F5F5F5F5F5F5F5F5F5F5F5F5F5F5F5F5F5F5F5F5F5F5F5F5F5F5
310
F5F5F5F5F5F5F5F5F5F5F5F5F5F5F5F5F5F5F5F5F5F5F5F5F5F5F5F5F5F5F5F5F5F5F5F5F5F5F5F5F5F5F5F5F5F5F5F5F5F5F5F5F5F5F5F5F5F5F5F5F5F5F5F5F5F5F5F5F5F5F5F5F5F5F5F5F5F5F5F5F5F5F5F5F5F5F5F5F5F5F5F5F5F5F5F5F5F5F5F5F5F5F5F5F5F5F5F5F5F5F5F5F5F5F5F5F5F5F5F5F5F5F5F5F5F5F5
310
F5F5F5F5F5F5F5F5F5F5F5F5F5F5E2F5E2E2F5E2F5F5F5F5F5F5F5F5F5F5F5F5F5F5F5F5F5F5F5F5F5F5F5F5F5F5F5F5F5F5F5F5F5F5F5F5F5F5F5F5F5F5F5F5F5F5F5F5F5F5F5F5F5F5F5F5F5F5F5F5F5F5F5F5F5F5F5F5F5F5F5F5F5F5F5F5F5F5F5F5F5F5F5F5F5F5F5F5F5F5F5F5F5F5F5F5F5F5F5F5F5F5F5F5F5F5F5
310
F5F5F5F5F5F5F5F5F5F5F5F5F5F5F5F5F5F5F5F5F5F5F5F5F5F5F5F5F5F5F5F5F5F5F5F5F5F5F5F5F5F5F5F5F5F5F5F5F5F5F5F5F5F5F5F5F5F5F5F5F5F5F5F5F5F5F5E2F5E2E2F5F5F5F5F5F5F5F5F5F5F5F5F5F5F5F5F5F5F5F5F5F5F5F5F5F5F5F5F5F5F5F5F5F5F5F5F5F5F5F5F5F5F5F5F5F5F5F5F5F5F5F5F5F5F5F5
310
F5F5F5F5F5F5F5F5F5F5F5F5F5F5F5F5F5F5F5F5F5F5F5F5F5F5F5F5F5F5F5F5F5F5F5F5F5F5F5F5F5F5F5F5F5F5F5F5F5F5F5F5F5F5F5F5F5F5F5F5F5F5F5F5F5F5F5F5F5F5F5F5F5F5F5F5F5F5F5F5F5F5F5F5F5F5F5F5F5F5F5F5F5F5F5F5F5F5F5F5F5F5F5F5F5F5F5F5F5F5F5F5F5F5F5F5F5F5F5F5F5F5E2E2F5F5F5
310
F5F5F5F5F5F5F5F5F5F5F5F5F5F5F5F5F5F5F5F5F5F5F5F5F5F5F5F5F5F5F5F5F5F5F5F5F5F5F5F5F5F5F5F5F5F5F5F5F5F5F5F5F5F5F5F5F5F5F5F5F5F5F5F5F5F5F5F5F5F5F5F5F5F5F5F5F5F5F5F5F5F5F5F5F5F5F5F5F5F5F5F5F5F5F5F5F5F5F5F5F5F5F5F5F5F5F5F5F5F5F5F5F5F5F5F5F5F5F5F5F5F5F5F5F5F5F5
310
F5F5F5F5F5F5F5F5F5F5F5F5F5F5F5F5F5F5F5F5F5F5F5F5F5F5F5F5F5F5F5F5F5F5F5F5F5F5F5F5F5F5F5F5F5F5F5F5E2E2F5F5F5F5F5F5F5F5F5F5F5F5F5F5F5F5F5F5F5F5F5F5F5F5F5F5F5F5F5F5F5F5F5F5F5F5F5F5F5F5F5F5F5F5F5F5F5F5F5F5F5F5F5F5F5F5F5F5F5F5F5F5F5F5F5F5F5F5F5F5F5F5F5F5F5F5F5
310
F5F5F5F5F5F5F5F5F5F5F5F5F5F5F5F5F5F5F5F5F5F5F5F5F5F5F5F5F5F5F5F5F5F5F5F5F5F5F5F5F5F5F5F5F5F5F5F5F5F5F5F5F5F5F5F5F5F5F5F5F5F5F5F5F5F5F5F5F5F5F5F5F5F5F5F5F5F5F5F5F5F5F5F5F5F5F5F5F5F5F5F5F5F5F5F5F5F5F5F5F5E2E2F5F5F5F5F5F5F5F5F5F5F5F5F5F5F5F5F5F5F5F5F5F5F5F5
310
F5F5F5F5F5F5F5F5F5F5F5F5F5F5F5F5F5F5F5F5F5F5F5F5F5F5F5F5F5F5F5F5F5F5F5F5F5F5F5F5F5F5F5F5F5F5F5F5F5F5F5F5F5F5F5F5F5F5F5F5F5F5F5F5F5F5F5F5F5F5F5F5F5F5F5F5F5F5F5F5F5F5F5F5F5F5F5F5F5F5F5F5F5F5F5F5F5F5F5F5F5F5F5F5F5F5F5F5F5F5F5F5F5F5F5F5F5F5F5F5F5F5F5F5F5F5F5
310
F5F5F5F5F5F5F5F5F5F5F5F5F5F5F5F5F5F5F5F5F5F5F5F5F5F5F5E2E2F5F5F5F5F5F5F5F5F5F5F5F5F5F5F5F5F5F5F5DCDCDCDCDCDCDCDCDCDCDCDCDCDCDCDCDCDCDCDCDCDCDCDCDCDCDCDCDCDCDCDCDCDCDCDCDCDCDCDCDCDCDCDCDCDCDCDCDCDCDCDCDCDCDCDCDCDCDCDCDCDCDCDCDCDCDCDCDCDCDCDCDCDCDCDCDCDCDC
310
DCDCDCDCDCDCDCDCDCDCDCDCDCDCDCDCDCDCDCDCDCDCDCDCDCDCDCDCDCDCDCDCDCDCDCDCDCDCDCDCDCDCDCDCDCDCDCDCDCDCDCDCDCDCDCDCDCDCDCDCDCF5F5F5F5F5F5F5F5F5F5F5F5F5F5F5F5F5F5F5E2E2F5F5F5F5F5F5F5F5F5F5F5F5F5F5F5F5F5F5F5DCDCDCDCDCDCDCDCDCDCDCDCDCDCDCDCDCDCDCDCDCDCDCDCDCDC
310
DCDCDCDCDCDCDCDCDCDCDCDCDCDCDCDCDCDCDCDCDCDCDCDCDCDCDCDCDCDCDCDCDCDCDCDCDCDCDCDCDCDCDCDCDCDCDCDCDCDCDCDCDCDCDCDCDCDCDCDCDCDCDCDCDCDCDCDCDCDCDCDCDCDCDCDCDCDCDCDCDCDCDCDCDCDCDCDCDCDCDCDCDCDCDCDCDCDCDCDCDCDCDCDCDCDCDCDCDCDCDCDCDCDCF5F5F5F5F5F5F5F5F5F5F5F5F5
310
F5F5F5F5F5F5E2E2F5F5F5F5F5F5F5F5F5F5F5F5F5F5F5F5F5F5F5DCF5F5F5F5F5F5F5F5F5F5F5F5F5F5F5F5F5F5F5F5F5F5F5F5F5F5F5F5F5F5F5F5F5F5F5F5F5F5F5F5F5F5F5F5F5F5F5F5F5F5F5F5F5F5F5F5F5F5F5F5F5F5F5F5F5F5F5F5F5F5F5F5F5F5F5F5F5F5F5F5F5F5F5F5F5F5F5F5F5F5F5F5F5F5F5F5F5F5F5
310
F5F5F5F5F5F5F5F5F5F5F5F5F5F5F5F5F5F5F5F5F5F5F5F5F5F5F5F5F5F5F5F5F5F5F5F5F5F5F5DCF5F5F5F5F5F5F5F5F5F5F5F5F5F5F5F5F5F5F5E2E2F5F5F5F5F5F5F5F5F5F5F5F5F5F5F5F5F5F5F5DCF5282828282828282828282828282828282828282828282828282828282828282828282828282828282828282828
310
28282828282828282828282828282828282828282828282828282828282828282828282828282828282828282828282828282828282828282828282828282828282828282828282828282828282828282828282828282828282828F5DCF5F5F5F5F5F5F5F5F5F5F5F5F5F5F5F5F5F5F5E2E2F5F5F5F5F5F5F5F5F5F5F5F5F5
310
F5F5F5F5F5F5DCF5282D2D2D2D2D2D2D2D2D2D2D2D2D2D2D2D2D2D2D2D2DF5F5F5F5F5F5F5F5F5F5F5F5F5F5F5F5F5F5F5F5F5F5F5F5F5F5F5F5F5F5F5F5F5F5F5F5F5F5F5F5F5F5F5F5F528F5F5F5F5F5F5F5F5F5F5F5F5F5F5F5F5F5F5F5F5F5F5F5F5F5F5F5F5F5F5F5F5F5F5F5F5F5F5F5F5F5F5F5F5F5F5F5F5F5F5F5
310
F5F5F5F5F5F5F5F5F5F5F5F5F5F5F5F528F5DCF5F5F5F5F5F5F5F5F5F5F5F5F5F5F5F5F5F5F5E2E2F5E2F5F5F5F5F5F5F5F5F5F5F5F5F5F5F5F5F5DCF5282D2D2D2D2D2D2D2D2D2D2D2D2D2D2D2D2D2D2D2D2D2D2D2D2D2D2D2D2DF5F5F5F5F5F5F5F5F5F5F5F5F5F5F5F5F5F5F5F5F5F5F5F5F5F5F5F5F5F5F5F5F5F5F5F5
310
F528F5F5F5F5F5F5F5F5F5F5F5F5F5F5F5F5F5F5F5F5F5F5F5F5F5F5F5F5F5F5F5F5F5F5F5F5F5F5F5F5F5F5F5F5F5F5F5F5F5F5F5F5F5F5F5F5F5F5F5F5F5F5F5F5F5F5F528F5DCF5F5F5F5F5F5F5F5F5F5F5F5F5F5F5F5F5E2F5E2E2F5E2F5F5F5F5F5F5F5F5F5F5F5F5F5F5F5F5F5DCF5282D2D2D2D2D2D2D2D2D2D2D2D
310
2D2D2D2D2D2D2D2D2D2D2D2D2D2D2D2D2DF5F5F5F5F5F5F5F5F5F5F5F5F5F5F5F5F5F5F5F5F5F5F5F5F5F5F5F5F5F5F5F5F5F5F5F5F528F5F5F5F5F5F5F5F52D2D2D2D2D2D2D2D2D2D2D2D2D2D2D2D2D2D2D2D2D2D2D2D2D2D2D2D2D2D2D2D2D2D2D2D2D2D2D2D2D2D2D2D2D2D2D2D2D2D2DF5F5F5F5F5F5F5F528F5DCF5F5
310
F5F5F5F5F5F5F5F5F5F5F5F5F5F5F5E2F5E2E2F5E2F5F5F5F5F5F5F5F5F5F5F5F5F5F5F5F5F5DCF5282D2D2D2D2D2D2D2D2D2D2D2D2D2D2D2D2D2D2D2D2D2D2D2D2D2D2D2D2D2D2D2D2D2D2D2D2D2D2D2D2D2D2D2D2D2D2D2D2D2D2D2D2D2D2D2D2D2D2D2D2D2D2D2D2D2D28F5F5F5F5F5F5F5F52D2D2D2D2D2D2D2D2D2D2D
310
2D2D2D2D2D2D2D2D2D2D2D2D2D2D2D2D2D2D2D2D2D2D2D2D2D2D2D2D2D2D2D2D2D2D2D2D2D2D2D2DF5F5F5F5F5F5F5F528F5DCF5F5F5F5F5F5F5F5F5F5F5F5F5F5F5F5F5E2F5E2E2F5E2F5F5F5F5F5F5F5F5F5F5F5F5F5F5F5F5F5DCF5282D2D2D2D2D2D2D2D2D2D2D2D2D2D2D2D2D2D2D2D2D2D2D2D2D2D2D2D2D2D2D2D2D
310
2D2D2D2D2D2D2D2D2D2D2D2D2D2D2D2D2D2D2D2D2D2D2D2D2D2D2D2D2DF5F5F5F528F5F5F5F5F5F5F5F5F5F5F5F52D2D2D2D2D2D2D2D2D2D2D2D2D2D2D2D2D2D2D2D2D2D2D2D2D2D2D2D2D2D2D2D2D2D2D2D2D2D2D2D2D2DF5F5F5F5F5F5F5F5F5F5F5F5F528F5DCF5F5F5F5F5F5F5F5F5F5F5F5F5F5F5F5F5E2F5E2E2F5E2
310
F5F5F5F5F5F5F5F5F5F5F5F5F5F5F5F5F5DCF5282D2D2D2D2D2D2D2D2D2D2D2D2D2D2D2D2D2D2D2D2D2D2D2D2D2D2D2D2D2D2D2D2D2D2D2D2D2D2D2D2D2D2D2D2D2D2D2D2D2D2D2D2D2D2D2D2D2D2D2D2D2DF5F5F5F528F5F5F5F5F5F5F5F5F5F5F5F52D2D2D2D2D2D2D2D2D2D2D2D2D2D2D2D2D2D2D2D2D2D2D2D2D2D2D2D
310
2D2D2D2D2D2D2D2D2D2D2D2D2D2DF5F5F5F5F5F5F5F5F5F5F5F5F528F5DCF5F5F5F5F5F5F5F5F5F5F5F5F5F5F5F5F5E2F5E2E2F5E2F5F5F5F5F5F5F5F5F5F5F5F5F5F5F5F5F5DCF5282D2D2D2D2D2D2D2D2D2D2D2D2D2D2D2D2D2D2D2D2D2D2D2D2D2D2D2D2D2D2D2D2D2D2D2D2D2D2D2D2D2D2D2D2D2D2D2D2D2D2D2D2D2D
310
2D2D2D2D2DF5F5F5F5F5F5F528F5F5F5F5F5F5F5F5F5F5F5F5F5F5F5F5F5F5F5F5F5F5F5F5F5F5F5F52D2D2D2D2D2D2D2D2D2DF5F5F5F5F5F5F5F5F5F5F5F5F5F5F5F5F5F5F5F5F5F5F5F5F5F5F5F5F528F5DCF5F5F5F5F5F5F5F5F5F5F5F5F5F5F5F5F5E2F5E2E2F5E2F5F5F5F5F5F5F5F5F5F5F5F5F5F5F5F5F5DCF5282D
310
2D2D2D2D2D2D2D2D2D2D2D2D2D2D2D2D2D2D2D2D2D2D2D2D2D2D2D2D2D2D2DF5F5F5F5F5F5F5F5F5F5F5F5F5F5F5F5F5F5F5F5F5F5F5F5F5F5F5F5F5F5F5F5F5F528F5F5F5F5F5F5F5F5F5F5F5F5F5F5F5F5F5F5F5F5F5F5F5F5F5F5F5F52D2D2D2D2D2D2D2D2D2DF5F5F5F5F5F5F5F5F5F5F5F5F5F5F5F5F5F5F5F5F5F5F5
310
F5F5F5F5F5F528F5DCF5F5F5F5F5F5F5F5F5F5F5F5F5F5F5F5F5E2F5E2E2F5E2F5F5F5F5F5F5F5F5F5F5F5F5F5F5F5F5F5DCF5282D2D2D2D2D2D2D2D2D2D2D2D2D2D2D2D2D2D2D2D2D2D2D2D2D2D2D2D2D2D2D2DF5F5F5F5F5F5F5F5F5F5F5F5F5F5F5F5F5F5F5F5F5F5F5F5F5F5F5F5F5F5F5F5F5F528F5F5F5F5F5F5F5F5
310
F5F5F5F5F5F5F5F5F5F5F5F5F5F5F5F5F5F5F5F52D2D2D2D2D2D2D2D2D2DF5F5F5F5F5F5F5F5F5F5F5F5F5F5F5F5F5F5F5F5F5F5F5F5F5F5F5F5F528F5DCF5F5F5F5F5F5F5F5F5F5F5F5F5F5F5F5F5E2F5E2E2F5E2F5F5F5F5F5F5F5F5F5F5F5F5F5F5F5F5F5DCF5282D2D2D2D2D2D2D2D2D2D2D2D2D2D2D2D2D2D2D2D2D2D
310
2D2D2D2D2D2D2D2D2D2D2D2D2D2D2D2D2D2D2D2D2D2D2D2D2D2D2D2D2D2D2D2D2D2D2D2D2D2D2D2D2D2DF5F528F5F5F5F5F5F5F5F5F5F5F5F5F5F5F5F5F5F5F5F5F5F5F5F5F5F5F5F5F5F5F5F5F5F5F5F5F5F5F5F5F5F5F5F5F5F5F5F5F5F5F5F5F5F5F5F5F5F5F5F5F5F5F5F5F5F5F528F5DCF5F5F5F5F5F5F5F5F5F5F5F5
310
F5F5F5F5F5E2F5E2E2F5E2F5F5F5F5F5F5F5F5F5F5F5F5F5F5F5F5F5DCF528F5F5F5F5F5F5F5F5F5F5F5F5F5F5F5F5F5F5F5F5F5F5F5F5F5F5F5F5F5F5F5F5F5F5F5F5F5F5F5F5F5F5F5F5F5F5F5F5F5F5F5F5F5F5F5F5F5F5F5F5F5F5F5F5F5F528F5F5F5F5F5F5F5F5F5F5F5F5F5F5F5F5F5F5F5F5F5F5F5F5F5F5F5F5F5
310
F5F5F5F5F5F5F5F5F5F5F5F5F5F5F5F5F5F5F5F5F5F5F5F5F5F5F5F5F5F5F5F5F5F5F5F5F5F528F5DCF5F5F5F5F5F5F5F5F5F5F5F5F5F5F5F5F5E2F5E2E2F5E2F5F5F5F5F5F5F5F5F5F5F5F5F5F5F5F5F5DCF52828282828282828282828282828282828282828282828282828282828282828282828282828282828282828
310
2828282828282828282828282828282828282828282828282828282828282828282828282828282828282828282828282828282828282828282828282828282828282828282828282828282828282828282828282828282828282828F5DCF5F5F5F5F5F5F5F5F5F5F5F5F5F5F5F5F5E2F5E2E2F5E2F5F5F5F5F5F5F5F5F5F5
310
F5F5F5F5F5F5F5DCF528F5F5F5F5F5F5F5F5F5F5F5F5F5F5F5F5F5F5F5F5F5F5F5F5F5F5F5F5F5F5F5F5F5F5F5F5F5F5F5F5F5F5F5F5F5F5F5F5F5F5F5F5F5F5F5F5F5F5F5F5F5F5F5F5F5F5F5F5F5F5F5F5F5F5F5F5F5F5F5F5F5F5F5F5F5F5F5F5F5F5F5F5F5F5F5F5F5F5F5F5F5F5F5F5F5F5F5F5F5F5F5F5F5F5F5F5F5
310
F5F5F5F5F5F5F5F5F5F5F5F5F5F5F5F5F528F5DCF5F5F5F5F5F5F5F5F5F5F5F5F5F5F5F5F5E2F5E2E2F5E2F5F5F5F5F5F5F5F5F5F5F5F5F5F5F5F5F5DCF528F5F5F5F5F5F5F5F5F5F5F5F5F5F5F5F5F5F5F5F5F5F5F5F5F5F5F5F5F5F5F5F5F5F5F5F5F5F5F5F5F5F5F5F5F5F5F5F5F5F5F5F5F5F5F5F5F5F5F5F5F5F5F5F5
310
F5F5F5F5F5F5F5F5F5F5F5F5F5F5F5F5F5F5F5F5F5F5F5F5F5F5F5F5F5F5F5F5F5F5F5F5F5F5F5F5F5F5F5F5F5F5F5F5F5F5F5F5F5F5F5F5F5F5F5F5F5F5F5F5F5F5F5F5F5F528F5DCF5F5F5F5F5F5F5F5F5F5F5F5F5F5F5F5F5E2F5E2E2F5E2F5F5F5F5F5F5F5F5F5F5F5F5F5F5F5F5F5DCF528F5F5F5F5F5F5F5F5F5F5F5
310
F5F5F5F5F5F5F5F5F5F5F5F5F5F5F5F5F5F5F5F5F5F5F5F5F5F5F5F5F5F5F5F5F5F5F5F5F5F5F5F5F5F5F5F5F5F5F5F5F5F5F5F5F5F5F5F5F5F5F5F5F5F5F5F5F5F5F5F5F5F5F5F5F5F5F5F5F5F5F5F5F5F5F5F5F5F5F5F5F5F5F5F5F5F5F5F5F5F5F5F5F5F5F5F5F5F5F5F5F5F5F5F5F5F5F5F5F5F5F5F5F5F5F528F5DCF5
310
F5F5F5F5F5F5F5F5F5F5F5F5F5F5F5F5E2F5E2E2F5E2F5F5F5F5F5F5F5F5F5F5F5F5F5F5F5F5F5DCF528F5F5F5F5F5F5F5F5F5F5F5F5F5F5F5F5F5F5F5F5F5F5F5F5F5F5F5F5F5F5F5F5F5F5F5F5F5F5F5F5F5F5F5F5F5F5F5F5F5F5F5F5F5F5F5F5F5F5F5F5F5F5F5F5F5F5F5F5F5F5F5F5F5F5F5F5F5F5F5F5F5F5F5F5F5
310
F5F5F5F5F5F5F5F5F5F5F5F5F5F5F5F5F5F5F5F5F5F5F5F5F5F5F5F5F5F5F5F5F5F5F5F5F5F5F5F5F5F5F5F5F5F5F5F5F528F5DCF5F5F5F5F5F5F5F5F5F5F5F5F5F5F5F5F5E2F5E2E2F5E2F5F5F5F5F5F5F5F5F5F5F5F5F5F5F5F5F5DCF528F5F5F5F5F5F5F5F5F5F5F5F5F5F5F5F5F5F5F5F5F5F5F5F5F5F5F5F5F5F5F5F5
310
F5F5F5F5F5F5F5F5F5F5F5F5F5F5F5F5F5F5F5F5F5F5F5F5F5F5F5F5F5F5F5F5F5F5F5F5F5F5F5F5F5F5F5F5F5F5F5F5F5F5F5F5F5F5F5F5F5F5F5F5F5F5F5F5F5F5F5F5F5F5F5F5F5F5F5F5F5F5F5F5F5F5F5F5F5F5F5F5F5F5F5F5F5F5F5F5F5F5F5F5F5F528F5DCF5F5F5F5F5F5F5F5F5F5F5F5F5F5F5F5F5E2F5E2E2F5
310
F5F5F5F5F5F5F5F5F5F5F5F5F5F5F5F5F5F5DCF528F5F5F5F5F5F5F5F5F5F5F5F5F5F5F5F5F5F5F5F5F5F5F5F5F5F5F5F5F5F5F5F5F5F5F5F5F5F5F5F5F5F5F5F5F5F5F5F5F5F5F5F5F5F5F5F5F5F5F5F5F5F5F5F5F5F5F5F5F5F5F5F5F5F5F5F5F5F5F5F5F5F5F5F5F5F5F5F5F5F5F5F5F5F5F5F5F5F5F5F5F5F5F5F5F5F5
310
F5F5F5F5F5F5F5F5F5F5F5F5F5F5F5F5F5F5F5F5F5F5F5F5F5F5F5F528F5DCF5F5F5F5F5F5F5F5F5F5F5F5F5F5F5F5F5F5F5E2E2F5F5F5F5F5F5F5F5F5F5F5F5F5F5F5F5F5F5F5DCF528F5F5F5F5F5F5F5F5F5F5F5F5F5F5F5F5F5F5F5F5F5F5F5F5F5F5F5F5F5F5F5F5F5F5F5F5F5F5F5F5F5F5F5F5F5F5F5F5F5F5F5F5F5
310
F5F5F5F5F5F5F5F5F5F5F5F5F5F5F5F5F5F5F5F5F5F5F5F5F5F5F5F5F5F5F5F5F5F5F5F5F5F5F5F5F5F5F5F5F5F5F5F5F5F5F5F5F5F5F5F5F5F5F5F5F5F5F5F5F5F5F5F5F5F5F5F5F5F5F5F5F5F5F5F5F528F5DCF5F5F5F5F5F5F5F5F5F5F5F5F5F5F5F5F5F5F5E2E2F5F5F5F5F5F5F5F5F5F5F5F5F5F5F5F5F5F5F5DCF528
310
F5F5F5F5F5F5F5F5F5F5F5F5F5F5F5F5F5F5F5F5F5F5F5F5F5F5F5F5F5F5F5F5F5F5F5F5F5F5F5F5F5F5F5F5F5F5F5F5F5F5F5F5F5F5F5F5F5F5F5F5F5F5F5F5F5F5F5F5F5F5F5F5F5F5F5F5F5F5F5F5F5F5F5F5F5F5F5F5F5F5F5F5F5F5F5F5F5F5F5F5F5F5F5F5F5F5F5F5F5F5F5F5F5F5F5F5F5F5F5F5F5F5F5F5F5F5F5
310
F5F5F5F5F5F5F528F5DCF5F5F5F5F5F5F5F5F5F5F5F5F5F5F5F5F5F5F5E2E2F5F5F5F5F5F5F5F5F5F5F5F5F5F5F5F5F5F5F5DCF528F5F5F5F5F5F5F5F5F5F5F5F5F5F5F5F5F5F5F5F5F5F5F5F5F5F5F5F5F5F5F5F5F5F5F5F5F5F5F5F5F5F5F5F5F5F5F5F5F5F5F5F5F5F5F5F5F5F5F5F5F5F5F5F5F5F5F5F5F5F5F5F5F5F5
310
F5F5F5F5F5F5F5F5F5F5F5F5F5F5F5F5F5F5F5F5F5F5F5F5F5F5F5F5F5F5F5F5F5F5F5F5F5F5F5F5F5F5F5F5F5F5F5F5F5F5F5F5F5F5F5F5F5F5F5F528F5DCF5F5F5F5F5F5F5F5F5F5F5F5F5F5F5F5F5F5F5E2E2F5F5F5F5F5F5F5F5F5F5F5F5F5F5F5F5F5F5F5DCF528F5F5F5F5F5F5F5F5F5F5F5F5F5F5F5F5F5F5F5F5F5
310
F5F5F5F5F5F5F5F5F5F5F5F5F5F5F5F5F5F5F5F5F5F5F5F5F5F5F5F5F5F5F5F5F5F5F5F5F5F5F5F5F5F5F5F5F5F5F5F5F5F5F5F5F5F5F5F5F5F5F5F5F5F5F5F5F5F5F5F5F5F5F5F5F5F5F5F5F5F5F5F5F5F5F5F5F5F5F5F5F5F5F5F5F5F5F5F5F5F5F5F5F5F5F5F5F5F5F5F5F5F5F5F5F528F5DCF5F5F5F5F5F5F5F5F5F5F5
310
F5F5F5F5F5F5F5F5E2E2F5F5F5F5F5F5F5F5F5F5F5F5F5F5F5F5F5F5F5DCF528F5F5F5F5F5F5F5F5F5F5F5F5F5F5F5F5F5F5F5F5F5F5F5F5F5F5F5F5F5F5F5F5F5F5F5F5F5F5F5F5F5F5F5F5F5F5F5F5F5F5F5F5F5F5F5F5F5F5F5F5F5F5F5F5F5F5F5F5F5F5F5F5F5F5F5F5F5F5F5F5F5F5F5F5F5F5F5F5F5F5F5F5F5F5F5
310
F5F5F5F5F5F5F5F5F5F5F5F5F5F5F5F5F5F5F5F5F5F5F5F5F5F5F5F5F5F5F5F5F5F5F5F5F5F5F528F5DCF5F5F5F5F5F5F5F5F5F5F5F5F5F5F5F5F5F5F5E2E2F5F5F5F5F5F5F5F5F5F5F5F5F5F5F5F5F5F5F5DCF528F5F5F5F5F5F5F5F5F5F5F5F5F5F5F5F5F5F5F5F5F5F5F5F5F5F5F5F5F5F5F5F5F5F5F5F5F5F5F5F5F5F5
310
F5F5F5F5F5F5F5F5F5F5F5F5F5F5F5F5F5F5F5F5F5F5F5F5F5F5F5F5F5F5F5F5F5F5F5F5F5F5F5F5F5F5F5F5F5F5F5F5F5F5F5F5F5F5F5F5F5F5F5F5F5F5F5F5F5F5F5F5F5F5F5F5F5F5F5F5F5F5F5F5F5F5F5F5F5F5F5F5F5F5F5F528F5DCF5F5F5F5F5F5F5F5F5F5F5F5F5F5F5F5F5F5F5E2E2F5F5F5F5F5F5F5F5F5F5F5
310
F5F5F5F5F5F5F5F5DCF528F5F5F5F5F5F5F5F5F5F5F5F5F5F5F52D2D2D2D2D2D2D2D2D2DF5F5F5F5F5F5F5F5F5F5F5F5F5F5F5F5F5F5F5F5F5F5F5F5F5F5F5F5F5F5F5F5F5F5F5F5F5F5F5F5F5F5F5F5F5F5F5F5F5F5F5F5F5F5F5F5F5F5F5F5F5F5F5F5F5F5F5F5F5F5F5F5F5F5F5F5F5F5F5F5F5F5F5F5F5F5F5F5F5F5F5
310
F5F5F5F5F5F5F5F5F5F5F5F5F5F5F5F5F5F528F5DCF5F5F5F5F5F5F5F5F5F5F5F5F5F5F5F5F5F5F5E2E2F5E2F5F5F5F5F5F5F5F5F5F5F5F5F5F5F5F5F5DCF528F5F5F5F5F5F5F5F5F5F5F5F5F5F5F52D2D2D2D2D2D2D2D2D2DF5F5F5F5F5F5F5F5F5F5F5F5F5F5F5F5F5F5F5F5F5F5F5F5F5F5F5F5F5F5F5F5F5F5F5F5F5F5
310
F5F5F5F5F5F5F5F5F5F5F5F5F5F5F5F5F5F5F5F5F5F5F5F5F5F5F5F5F5F5F5F5F5F5F5F5F5F5F5F5F5F5F5F5F5F5F5F5F5F5F5F5F5F5F5F5F5F5F5F5F5F5F5F5F5F5F5F5F5F5F528F5DCF5F5F5F5F5F5F5F5F5F5F5F5F5F5F5F5F5E2F5E2E2F5E2F5F5F5F5F5F5F5F5F5F5F5F5F5F5F5F5F5DCF528F5F5F5F5F5F5F5F5F5F5
310
F5F5F5F5F5F5F5F5F5F5F5F5F5F5F5F5F5F5F5F5F5F5F5F5F5F5F5F5F5F5F5F5F5F5F5F5F5F5F5F5F5F5F5F5F5F5F5F5F5F5F5F5F5F5F5F5F5F5F5F5F5F5F5F5F5F5F5F5F5F5F5F5F5F5F5F5F5F5F5F5F5F5F5F5F5F5F5F5F5F5F5F5F5F5F5F5F5F5F5F5F5F5F5F5F5F5F5F5F5F5F5F5F5F5F5F5F5F5F5F5F5F5F5F528F5DC
310
F5F5F5F5F5F5F5F5F5F5F5F5F5F5F5F5F5E2F5E2E2F5E2F5F5F5F5F5F5F5F5F5F5F5F5F5F5F5F5F5DCF528F5F5F5F5F5F5F5F5F5F5F5F5F5F5F5F5F5F5F5F5F5F5F5F5F5F5F5F5F5F5F5F5F5F5F5F5F5F5F5F5F5F5F5F5F5F5F5F5F5F5F5F5F5F5F5F5F5F5F5F5F5F5F5F5F5F5F5F5F5F5F5F5F5F5F5F5F5F5F5F5F5F5F5F5
310
F5F5F5F5F5F5F5F5F5F5F5F5F5F5F5F5F5F5F5F5F5F5F5F5F5F5F5F5F5F5F5F5F5F5F5F5F5F5F5F5F5F5F5F5F5F5F5F5F5F528F5DCF5F5F5F5F5F5F5F5F5F5F5F5F5F5F5F5F5E2F5E2E2F5E2F5F5F5F5F5F5F5F5F5F5F5F5F5F5F5F5F5DCF528F5F5F5F5F5F5F5F5F5F5F5F5F5F5F5F5F5F5F5F5F5F5F5F5F5F5F5F5F5F5F5
310
F5F5F5F5F5F5F5F5F5F5F5F5F5F5F5F5F5F5F5F5F5F5F5F5F5F5F5F5F5F5F5F5F5F5F5F5F5F5F5F5F5F5F5F5F5F5F5F5F5F5F5F5F5F5F5F5F5F5F5F5F5F5F5F5F5F5F5F5F5F5F5F5F5F5F5F5F5F5F5F5F5F5F5F5F5F5F5F5F5F5F5F5F5F5F5F5F5F5F5F5F5F5F528F5DCF5F5F5F5F5F5F5F5F5F5F5F5F5F5F5F5F5E2F5E2E2
310
F5E2F5F5F5F5F5F5F5F5F5F5F5F5F5F5F5F5F5DCF528F5F5F5F5F5F5F5F5F5F5F5F5F5F5F5F5F5F5F5F5F5F5F5F5F5F5F5F5F5F5F5F5F5F5F5F5F5F5F5F5F5F5F5F5F5F5F5F5F5F5F5F5F5F5F5F5F5F5F5F5F5F5F5F5F5F5F5F5F5F5F5F5F5F5F5F5F5F5F5F5F5F5F5F5F5F5F5F5F5F5F5F5F5F5F5F5F5F5F5F5F5F5F5F5F5
310
F5F5F5F5F5F5F5F5F5F5F5F5F5F5F5F5F5F5F5F5F5F5F5F5F5F5F5F5F528F5DCF5F5F5F5F5F5F5F5F5F5F5F5F5F5F5F5F5E2F5E2E2F5E2F5F5F5F5F5F5F5F5F5F5F5F5F5F5F5F5F5DCF528F5F5F5F5F5F5F5F5F5F5F5F5F5F5F5F5F5F5F5F5F5F5F5F5F5F5F5F5F5F5F5F5F5F5F5F5F5F5F5F5F5F5F5F5F5F5F5F5F5F5F5F5
310
F5F5F5F5F5F5F5F5F5F5F5F5F5F5F5F5F5F5F5F5F5F5F5F5F5F5F5F5F5F5F5F5F5F5F5F5F5F5F5F5F5F5F5F5F5F5F5F5F5F5F5F5F5F5F5F5F5F5F5F5F5F5F5F5F5F5F5F5F5F5F5F5F5F5F5F5F5F5F5F5F5F528F5DCF5F5F5F5F5F5F5F5F5F5F5F5F5F5F5F5F5E2F5E2E2F5E2F5F5F5F5F5F5F5F5F5F5F5F5F5F5F5F5F5DCF5
310
28F5F5F5F5F5F5F5F5F5F5F5F5F5F5F5F5F5F5F5F5F5F5F5F5F5F5F5F5F5F5F5F5F5F5F5F5F5F5F5F5F5F5F5F5F5F5F5F5F5F5F5F5F5F5F5F5F5F5F5F5F5F5F5F5F5F5F5F5F5F5F5F5F5F5F5F5F5F5F5F5F5F5F5F5F5F5F5F5F5F5F5F5F5F5F5F5F5F5F5F5F5F5F5F5F5F5F5F5F5F5F5F5F5F5F5F5F5F5F5F5F5F5F5F5F5F5
310
F5F5F5F5F5F5F5F528F5DCF5F5F5F5F5F5F5F5F5F5F5F5F5F5F5F5F5E2F5E2E2F5E2F5F5F5F5F5F5F5F5F5F5F5F5F5F5F5F5F5DCF528F5F5F5F5F5F5F5F5F5F5F5F5F5F5F5F5F5F5F5F5F5F5F5F5F5F5F5F5F5F5F5F5F5F5F5F5F5F5F5F5F5F5F5F5F5F5F5F5F5F5F5F5F5F5F5F5F5F5F5F5F5F5F5F5F5F5F5F5F5F5F5F5F5
310
F5F5F5F5F5F5F5F5F5F5F5F5F5F5F5F5F5F5F5F5F5F5F5F5F5F5F5F5F5F5F5F5F5F5F5F5F5F5F5F5F5F5F5F5F5F5F5F5F5F5F5F5F5F5F5F5F5F5F5F5F528F5DCF5F5F5F5F5F5F5F5F5F5F5F5F5F5F5F5F5E2F5E2E2F5E2F5F5F5F5F5F5F5F5F5F5F5F5F5F5F5F5F5DCF528F5F5F5F5F5F5F5F5F5F5F5F5F5F5F5F5F5F5F5F5
310
F5F5F5F5F5F5F5F5F5F5F5F5F5F5F5F5F5F5F5F5F5F5F5F5F5F5F5F5F5F5F5F5F5F5F5F5F5F5F5F5F5F5F5F5F5F5F5F5F5F5F5F5F5F5F5F5F5F5F5F5F5F5F5F5F5F5F5F5F5F5F5F5F5F5F5F5F5F5F5F5F5F5F5F5F5F5F5F5F5F5F5F5F5F5F5F5F5F5F5F5F5F5F5F5F5F5F5F5F5F5F5F5F5F528F5DCF5F5F5F5F5F5F5F5F5F5
310
F5F5F5F5F5F5F5E2F5E2E2F5E2F5F5F5F5F5F5F5F5F5F5F5F5F5F5F5F5F5DCF528F5F5F5F5F5F5F5F5F5DCF5F5F5F5F5F5F5F5F5F5F5F5F5F5F5F5F5F5F5F5F5F5F5F5F5F5F5F5F5F5F5F5F5F5F5F5F5F5F5F5F5F5F5F5F5F5F5F5F5F5F5F5F5F5F5F5F5F5F5F5F5F5F5F5F5F5F5F5F5F5F5F5F5F5F5F5F5F5F5F5F5F5F5F5
310
F5F5F5F5F5F5F5F5F5F5F5F5F5F5F5F5F5F5F5F5F5F5F5F5F5F5F5F5F5F5F5F5F5F5F5F5F5F5F5F528F5DCF5F5F5F5F5F5F5F5F5F5F5F5F5F5F5F5F5E2F5E2E2F5E2F5F5F5F5F5F5F5F5F5F5F5F5F5F5F5F5F5DCF528F5F5F5F5F5F5F5F50FDCF5F5F5F5F52D2D2D2D2D2D2D2DF5F5F5F5F50FF5F5F5F5F5F5F5F5F5F5F5F5
310
F5F5F5F5F5F5F5F5F5F5F5F5F5F5F5F5F5F5F5F5F5F5F5F5F5F5F5F5F5F5F5F5F5F5F5F5F5F5F5F5F5F5F5F5F5F5F5F5F5F5F5F5F5F5F5F5F5F5F5F5F5F5F5F5F5F5F5F5F5F5F5F5F5F5F5F5F5F5F5F5F5F5F5F5F5F5F5F5F5F5F5F5F528F5DCF5F5F5F5F5F5F5F5F5F5F5F5F5F5F5F5F5E2F5E2E2F5E2F5F5F5F5F5F5F5F5
310
F5F5F5F5F5F5F5F5F5DCF528F5F5F5F5DCF5F5DC0FDC0F0F0F0F0F2D2D2D2D2D2D2D2D0F0F0F0F0F0F0FF5F5F5F5F5F5F5F5F5F5F5F5F5F5F5F5F5F5F5F5F5F5F5F5F5F5F5F5F5F5F5F5F5F5F5F5F5F5F5F5F5F5F5F5F5F5F5F5F5F5F5F5F5F5F5F5F5F5F5F5F5F5F5F5F5F5F5F5F5F5F5F5F5F5F5F5F5F5F5F5F5F5F5F5F5
310
F5F5F5F5F5F5F5F5F5F5F5F5F5F5F5F5F5F5F528F5DCF5F5F5F5F5F5F5F5F5F5F5F5F5F5F5F5F5E2F5E2E2F5E2F5F5F5F5F5F5F5F5F5F5F5F5F5F5F5F5F5DCF528F5F5F5DCF5F5DCF5F5DCF5F5F5F5F5F5F5F5F5F5F5F5F5F5F5F5F5F50FF5F5F5F5F5F5F5F5F5F5F5F5F5F5F5F5F5F5F5F5F5F5F5F5F5F5F5F5F5F5F5F5F5
310
F5F5F5F5F5F5F5F5F5F5F5F5F5F5F5F5F5F5F5F5F5F5F5F5F5F5F5F5F5F5F5F5F5F5F5F5F5F5F5F5F5F5F5F5F5F5F5F5F5F5F5F5F5F5F5F5F5F5F5F5F5F5F5F5F5F5F5F5F5F5F5F528F5DCF5F5F5F5F5F5F5F5F5F5F5F5F5F5F5F5F5E2F5E2E2F5E2F5F5F5F5F5F5F5F5F5F5F5F5F5F5F5F5F5DCF528F5F5F5F5F5DCF5F5DC
310
DCF5F5F5F5F5F5F5F5F5F5F5F5F5F5F5F5F5F50FF5F5F5F5F5F5F5F5F5F5F5F5F5F5F5F5F5F5F5F5F5F5F5F5F5F5F5F5F5F5F5F5F5F5F5F5F5F5F5F5F5F5F5F5F5F5F5F5F5F5F5F5F5F5F5F5F5F5F5F5F5F5F5F5F5F5F5F5F5F5F5F5F5F5F5F5F5F5F5F5F5F5F5F5F5F5F5F5F5F5F5F5F5F5F5F5F5F5F5F5F5F5F5F5F528F5
310
DCF5F5F5F5F5F5F5F5F5F5F5F5F5F5F5F5F5E2F5E2E2F5E2F5F5F5F5F5F5F5F5F5F5F5F5F5F5F5F5F5DCF528F5F5F5F5DCF5F5DCF5DCF5F5F5F5F5F5F5F5F5F5F5F5F5F5F5F5F5F50FF5F5F5F5F5F5F5F5F5F5F5F5F5F5F5F5F5F5F5F5F5F5F5F5F5F5F5F5F5F5F5F5F5F5F5F5F5F5F5F5F5F5F5F5F5F5F5F5F5F5F5F5F5F5
310
F5F5F5F5F5F5F5F5F5F5F5F5F5F5F5F5F5F5F5F5F5F5F5F5F5F5F5F5F5F5F5F5F5F5F5F5F5F5F5F5F5F5F5F5F5F5F5F5F5F5F528F5DCF5F5F5F5F5F5F5F5F5F5F5F5F5F5F5F5F5E2F5E2E2F5E2F5F5F5F5F5F5F5F5F5F5F5F5F5F5F5F5F5DCF528F5F5F5DCF5F5DCF5F5DCF5F5F5F5F5F5F5F5F5F5F5F5F5F5F5F5F5F50FF5
310
F5F5F5F5F5F5F5F5F5F5F5F5F5F5F5F5F5F5F5F5F5F5F5F5F5F5F5F5F5F5F5F5F5F5F5F5F5F5F5F5F5F5F5F5F5F5F5F5F5F5F5F5F5F5F5F5F5F5F5F5F5F5F5F5F5F5F5F5F5F5F5F5F5F5F5F5F5F5F5F5F5F5F5F5F5F5F5F5F5F5F5F5F5F5F5F5F5F5F5F5F5F5F5F528F5DCF5F5F5F5F5F5F5F5F5F5F5F5F5F5F5F5F5E2F5E2
310
E2F5F5F5F5F5F5F5F5F5F5F5F5F5F5F5F5F5F5F5DCF528F5F5F5F5F5DCF5F5F5DC1B0F0F0F0F0F0F0F0F0F0F0F0F0F0F0F0F0F0F0F0F0F0F0F0F0FF5F5F5F5F5F5F5F5F5F5F5F5F5F5F5F5F5F5F5F5F5F5F5F5F5F5F5F5F5F5F5F5F5F5F5F5F5F5F5F5F5F5F5F5F5F5F5F5F5F5F5F5F5F5F5F5F5F5F5F5F5F5F5F5F5F5F5F5
310
F5F5F5F5F5F5F5F5F5F5F5F5F5F5F5F5F5F5F5F5F5F5F5F5F5F5F5F5F5F528F5DCF5F5F5F5F5F5F5F5F5F5F5F5F5F5F5F5F5F5F5E2E2F5F5F5F5F5F5F5F5F5F5F5F5F5F5F5F5F5F5F5DCF528F5F5F5F5DCF5F5F5DCDCBEF5F5F5F5F5F5F5F5F5F5F5F5F5F5F5F5F50FF5F5F5F5F50FF5F5F5F5F5F5F5F5F5F5F5F5F5F5F5F5
310
F5F5F5F5F5F5F5F5F5F5F5F5F5F5F5F5F5F5F5F5F5F5F5F5F5F5F5F5F5F5F5F5F5F5F5F5F5F5F5F5F5F5F5F5F5F5F5F5F5F5F5F5F5F5F5F5F5F5F5F5F5F5F5F5F5F5F5F5F5F5F5F5F5F5F5F5F5F5F5F5F5F5F528F5DCF5F5F5F5F5F5F5F5F5F5F5F5F5F5F5F5F5F5F5E2E2F5F5F5F5F5F5F5F5F5F5F5F5F5F5F5F5F5F5F5DC
310
F528F5F5F5DCF5F5F5DCF5DCF5BEBEF5F5F5F5F5F5F5F5F5F5F5F5F5F5F50FF5F5F5F5F50FF5F5F5F5F5F5F5F5F5F5F5F5F5F5F5F5F5F5F5F5F5F5F5F5F5F5F5F5F5F5F5F5F5F5F5F5F5F5F5F5F5F5F5F5F5F5F5F5F5F5F5F5F5F5F5F5F5F5F5F5F5F5F5F5F5F5F5F5F5F5F5F5F5F5F5F5F5F5F5F5F5F5F5F5F5F5F5F5F5F5
310
F5F5F5F5F5F5F5F5F528F5DCF5F5F5F5F5F5F5F5F5F5F5F5F5F5F5F5F5F5F5E2E2F5F5F5F5F5F5F5F5F5F5F5F5F5F5F5F5F5F5F5DCF528F5F5F5F5F5DCDCF5F5DCF5F5BEBEF5F5F5F5F5F5F5F5F5F5F5F5F5F50FF5F5F5F5F50FF5F5F5F5F5F5F5F5F5F5F5F5F5F5F5F5F5F5F5F5F5F5F5F5F5F5F5F5F5F5F5F5F5F5F5F5F5
310
F5F5F5F5F5F5F5F5F5F5F5F5F5F5F5F5F5F5F5F5F5F5F5F5F5F5F5F5F5F5F5F5F5F5F5F5F5F5F5F5F5F5F5F5F5F5F5F5F5F5F5F5F5F5F5F5F5F5F5F5F5F528F5DCF5F5F5F5F5F5F5F5F5F5F5F5F5F5F5F5F5F5F5E2E2F5F5F5F5F5F5F5F5F5F5F5F5F5F5F5F5F5F5F5DCF528F5F5F5F5DCF5F5F5DCDCF5F5F5BEF5F5F5F5F5
310
F5F5F5F5F5F5F5F5F50FF5F5F5F5F50FF5F5F5F5F5F5F5F5F5F5F5F5F5F5F5F5F5F5F5F5F5F5F5F5F5F5F5F5F5F5F5F5F5F5F5F5F5F5F5F5F5F5F5F5F5F5F5F5F5F5F5F5F5F5F5F5F5F5F5F5F5F5F5F5F5F5F5F5F5F5F5F5F5F5F5F5F5F5F5F5F5F5F5F5F5F5F5F5F5F5F5F5F5F5F5F5F5F5F528F5DCF5F5F5F5F5F5F5F5F5
310
F5F5F5F5F5F5F5F5F5F5E2E2F5F5F5F5F5F5F5F5F5F5F5F5F5F5F5F5F5F5F5DCF528F5F5F5DCF5F5F5DCF5DCF5F5F5BEBEBEF5F5F5F5F5F5F5F5F5F5F5F50FF5F5F5F5F50FF5F5F5F5F5F5F5F5F5F5F5F5F5F5F5F5F5F5F5F5F5F5F5F5F5F5F5F5F5F5F5F5F5F5F5F5F5F5F5F5F5F5F5F5F5F5F5F5F5F5F5F5F5F5F5F5F5F5
310
F5F5F5F5F5F5F5F5F5F5F5F5F5F5F5F5F5F5F5F5F5F5F5F5F5F5F5F5F5F5F5F5F5F5F5F5F5F5F5F5F528F5DCF5F5F5F5F5F5F5F5F5F5F5F5F5F5F5F5F5F5F5E2E2F5F5F5F5F5F5F5F5F5F5F5F5F5F5F5F5F5F5F5DCF528F5F5F5F5F5DCDCF5F5DCF5F5F5F5BEBEF5F5F5F5F5F5F5F5F5F5F5F50FF5F5F5F5F50FF5F5F5F5F5
310
F5F5F5F5F5F5F5F5F5F5F5F5F5F5F5F5F5F5F5F5F5F5F5F5F5F5F5F5F5F5F5F5F5F5F5F5F5F5F5F5F5F5F5F5F5F5F5F5F5F5F5F5F5F5F5F5F5F5F5F5F5F5F5F5F5F5F5F5F5F5F5F5F5F5F5F5F5F5F5F5F5F5F5F5F5F5F5F5F5F5F5F5F5F528F5DCF5F5F5F5F5F5F5F5F5F5F5F5F5F5F5F5F5F5F5E2E2F5F5F5F5F5F5F5F5F5
310
F5F5F5F5F5F5F5F5F5F5DCF528F5F5F5F5DCF5F5F5DCDCF5F5F5F5BEF5F5F5F5F5F5F5F5F5F5F5F5F50FF5F5F5F5F50FF5F5F5F5F5F5F5F5F5F5F5F5F5F5F5F5F5F5F5F5F5F5F5F5F5F5F5F5F5F5F5F5F5F5F5F5F5F5F5F5F5F5F5F5F5F5F5F5F5F5F5F5F5F5F5F5F5F5F5F5F5F5F5F5F5F5F5F5F5F5F5F5F5F5F5F5F5F5F5
310
F5F5F5F5F5F5F5F5F5F5F5F5F5F5F5F5F5F5F5F528F5DCF5F5F5F5F5F5F5F5F5F5F5F5F5F5F5F5F5F5F5E2E2F5F5F5F5F5F5F5F5F5F5F5F5F5F5F5F5F5F5F5DCF528F5F5F5DCF5F5F5DCF5DCF5F5F5F5BEF5F5F5F5F5F5F5F5F5F5F5F5F50FF5F5F5F5F50FF5F5F5F5F5F5F5F5F5F5F5F5F5F5F5F5F5F5F5F5F5F5F5F5F5F5
310
F5F5F5F5F5F5F5F5F5F5F5F5F5F5F5F5F5F5F5F5F5F5F5F5F5F5F5F5F5F5F5F5F5F5F5F5F5F5F5F5F5F5F5F5F5F5F5F5F5F5F5F5F5F5F5F5F5F5F5F5F5F5F5F5F5F5F5F5F5F5F5F5F528F5DCF5F5F5F5F5F5F5F5F5F5F5F5F5F5F5F5F5F5F5E2E2F5E2F5F5F5F5F5F5F5F5F5F5F5F5F5F5F5F5F5DCF528F5F5F5F5F5F5DCF5
310
F5DCBEBEF5F5BEF5F5F5F5F5F5F5F5F5F5F5F5F50FF5F52D2D2D2D2D2D2D2DF5F5F5F5F5F5F5F5F5F5F5F5F5F5F5F5F5F5F5F5F5F5F5F5F5F5F5F5F5F5F5F5F5F5F5F5F5F5F5F5F5F5F5F5F5F5F5F5F5F5F5F5F5F5F5F5F5F5F5F5F5F5F5F5F5F5F5F5F5F5F5F5F5F5F5F5F5F5F5F5F5F5F5F5F5F5F5F5F5F5F5F5F5F5F528
310
F5DCF5F5F5F5F5F5F5F5F5F5F5F5F5F5F5F5F5E2F5E2E2F5E2F5F5F5F5F5F5F5F5F5F5F5F5F5F5F5F5F5DCF528F5F5F5F5F5DCF5F5DCDCF5BEF5F5BEF5F5F5F5F5F5F5F5F5F5F5F5F50FF5F52D2D2D2D2D2D2D2DF5F5F5F5F5F5F5F5F5F5F5F5F5F5F5F5F5F5F5F5F5F5F5F5F5F5F5F5F5F5F5F5F5F5F5F5F5F5F5F5F5F5F5
310
F5F5F5F5F5F5F5F5F5F5F5F5F5F5F5F5F5F5F5F5F5F5F5F5F5F5F5F5F5F5F5F5F5F5F5F5F5F5F5F5F5F5F5F5F5F5F5F5F5F5F5F528F5DCF5F5F5F5F5F5F5F5F5F5F5F5F5F5F5F5F5E2F5E2E2F5E2F5F5F5F5F5F5F5F5F5F5F5F5F5F5F5F5F5DCF528F5F5F5F5DCF5F5DCF5DCF5BEF5F5BEBEF5F5F5F5F5F5F5F5F5F5F5F50F
310
F5F5F5F5F50FF5F5F5F5F5F5F5F5F5F5F5F5F5F5F5F5F5F5F5F5F5F5F5F5F5F5F5F5F5F5F5F5F5F5F5F5F5F5F5F5F5F5F5F5F5F5F5F5F5F5F5F5F5F5F5F5F5F5F5F5F5F5F5F5F5F5F5F5F5F5F5F5F5F5F5F5F5F5F5F5F5F5F5F5F5F5F5F5F5F5F5F5F5F5F5F5F5F5F528F5DCF5F5F5F5F5F5F5F5F5F5F5F5F5F5F5F5F5E2F5
310
E2E2F5E2F5F5F5F5F5F5F5F5F5F5F5F5F5F5F5F5F5DCF528F5F5F5DCF5F5DCF5F5DCF5F5BEF5F5BEF5F5F5F5F5F5F5F5F5F5F5F50FF5F5F5F5F50FF5F5F5F5F5F5F5F5F5F5F5F5F5F5F5F5F5F5F5F5F5F5F5F5F5F5F5F5F5F5F5F5F5F5F5F5F5F5F5F5F5F5F5F5F5F5F5F5F5F5F5F5F5F5F5F5F5F5F5F5F5F5F5F5F5F5F5F5
310
F5F5F5F5F5F5F5F5F5F5F5F5F5F5F5F5F5F5F5F5F5F5F5F5F5F5F5F5F5F5F528F5DCF5F5F5F5F5F5F5F5F5F5F5F5F5F5F5F5F5E2F5E2E2F5E2F5F5F5F5F5F5F5F5F5F5F5F5F5F5F5F5F5DCF528F5F5F5F5F5DCF5F5DCDCF5F5BEF5F5F5BEBEF5F5F5F5BEBEF5F5F5F50FF5F5F5F5F50FF5F5F5F5F5F5F5F5F5F5F5F5F5F5F5
310
F5F5F5F5F5F5F5F5F5F5F5F5F5F5F5F5F5F5F5F5F5F5F5F5F5F5F5F5F5F5F5F5F5F5F5F5F5F5F5F5F5F5F5F5F5F5F5F5F5F5F5F5F5F5F5F5F5F5F5F5F5F5F5F5F5F5F5F5F5F5F5F5F5F5F5F5F5F5F5F5F5F5F5F528F5DCF5F5F5F5F5F5F5F5F5F5F5F5F5F5F5F5F5E2F5E2E2F5E2F5F5F5F5F5F5F5F5F5F5F5F5F5F5F5F5F5
310
DCF528F5F5F5F5DCF5F5DCF5DCF5F5F5BEF5F5F5BEBEBEBEBEF5BEF5F5F5F50FF5F5F5F5F50FF5F5F5F5F5F5F5F5F5F5F5F5F5F5F5F5F5F5F5F5F5F5F5F5F5F5F5F5F5F5F5F5F5F5F5F5F5F5F5F5F5F5F5F5F5F5F5F5F5F5F5F5F5F5F5F5F5F5F5F5F5F5F5F5F5F5F5F5F5F5F5F5F5F5F5F5F5F5F5F5F5F5F5F5F5F5F5F5F5
310
F5F5F5F5F5F5F5F5F5F528F5DCF5F5F5F5F5F5F5F5F5F5F5F5F5F5F5F5F5E2F5E2E2F5E2F5F5F5F5F5F5F5F5F5F5F5F5F5F5F5F5F5DCF528F5F5F5DCF5F5DCF5F5DCF5F5F5F5BEF5F5F5F5F5F5F5F5BEBEF5F5F50FF5F5F5F5F50FF5F5F5F5F5F5F5F5F5F5F5F5F5F5F5F5F5F5F5F5F5F5F5F5F5F5F5F5F5F5F5F5F5F5F5F5
310
F5F5F5F5F5F5F5F5F5F5F5F5F5F5F5F5F5F5F5F5F5F5F5F5F5F5F5F5F5F5F5F5F5F5F5F5F5F5F5F5F5F5F5F5F5F5F5F5F5F5F5F5F5F5F5F5F5F5F5F5F5F5F528F5DCF5F5F5F5F5F5F5F5F5F5F5F5F5F5F5F5F5E2F5E2E2F5E2F5F5F5F5F5F5F5F5F5F5F5F5F5F5F5F5F5DCF528F5F5F5F5F5DCF5F5F5DCF5F5F5F5F5BEBEBE
310
F5F5F5F5F5F5F5BEBEF50FF5F5F5F5F50FF5F5F5F5F5F5F5F5F5F5F5F5F5F5F5F5F5F5F5F5F5F5F5F5F5F5F5F5F5F5F5F5F5F5F5F5F5F5F5F5F5F5F5F5F5F5F5F5F5F5F5F5F5F5F5F5F5F5F5F5F5F5F5F5F5F5F5F5F5F5F5F5F5F5F5F5F5F5F5F5F5F5F5F5F5F5F5F5F5F5F5F5F5F5F5F5F5F5F528F5DCF5F5F5F5F5F5F5F5
310
F5F5F5F5F5F5F5F5F5E2F5E2E2F5E2F5F5F5F5F5F5F5F5F5F5F5F5F5F5F5F5F5DCF528F5F5F5F5DCF5F5F5DCDCF5F5F5F5F5F5F5F5BEBEF5F5F5F5F5F5BEF50FF5F5F5F5F50FF5F5F5F5F5F5F5F5F5F5F5F5F5F5F5F5F5F5F5F5F5F5F5F5F5F5F5F5F5F5F5F5F5F5F5F5F5F5F5F5F5F5F5F5F5F5F5F5F5F5F5F5F5F5F5F5F5
310
F5F5F5F5F5F5F5F5F5F5F5F5F5F5F5F5F5F5F5F5F5F5F5F5F5F5F5F5F5F5F5F5F5F5F5F5F5F5F5F5F5F528F5DCF5F5F5F5F5F5F5F5F5F5F5F5F5F5F5F5F5E2F5E2E2F5E2F5F5F5F5F5F5F5F5F5F5F5F5F5F5F5F5F5DCF528F5F5F5DCF5F5F5DCF5DCF5F5F5F5F5F5F5F5F5BEBEF5F5F5F5F5F5BE1BF5F5F5F5F50FF5F5F5F5
310
F5F5F5F5F5F5F5F5F5F5F5F5F5F5F5F5F5F5F5F5F5F5F5F5F5F5F5F5F5F5F5F5F5F5F5F5F5F5F5F5F5F5F5F5F5F5F5F5F5F5F5F5F5F5F5F5F5F5F5F5F5F5F5F5F5F5F5F5F5F5F5F5F5F5F5F5F5F5F5F5F5F5F5F5F5F5F5F5F5F5F5F5F5F5F528F5DCF5F5F5F5F5F5F5F5F5F5F5F5F5F5F5F5F5E2F5E2E2F5E2F5F5F5F5F5F5
310
F5F5F5F5F5F5F5F5F5F5F5DCF528F5F5F5F5F5DCDCF5F5DCF5F5F5F5F5F5F5F5F5F5BEF5F5F5F5F5F5F5BEF5F5F5F5F50F0FF5F5F5F5F5F5F5F5F5F5F5F5F5F5F5F5F5F5F5F5F5F5F5F5F5F5F5F5F5F5F5F5F5F5F5F5F5F5F5F5F5F5F5F5F5F5F5F5F5F5F5F5F5F5F5F5F5F5F5F5F5F5F5F5F5F5F5F5F5F5F5F5F5F5F5F5F5
310
F5F5F5F5F5F5F5F5F5F5F5F5F5F5F5F5F5F5F5F5F528F5DCF5F5F5F5F5F5F5F5F5F5F5F5F5F5F5F5F5E2F5E2E2F5E2F5F5F5F5F5F5F5F5F5F5F5F5F5F5F5F5F5DCF528F5F5F5F5DCF5F5F5DCDCDCDCDCDCDCDCDCDCDCDCDCDCDCDCDCDCDCDCDCDCDCDCDCDCDCDCDCF5F5F5F5F5F5F5F5F5F5F5F5F5F5F5F5F5F5F5F5F5F5F5
310
F5F5F5F5F5F5F5F5F5F5F5F5F5F5F5F5F5F5F5F5F5F5F5F5F5F5F5F5F5F5F5F5F5F5F5F5F5F5F5F5F5F5F5F5F5F5F5F5F5F5F5F5F5F5F5F5F5F5F5F5F5F5F5F5F5F5F5F5F5F5F5F5F5F528F5DCF5F5F5F5F5F5F5F5F5F5F5F5F5F5F5F5F5E2F5E2E2F5E2F5F5F5F5F5F5F5F5F5F5F5F5F5F5F5F5F5DCF528F5F5F5DCF5F5F5
310
DCF5F5DCF5F5DCF5F5F5DCF5F5DCF5F5DCF5F5DCF5F5DCF5F5DCF5F5F5F5F5F5F5F5F5F5F5F5F5F5F5F5F5F5F5F5F5F5F5F5F5F5F5F5F5F5F5F5F5F5F5F5F5F5F5F5F5F5F5F5F5F5F5F5F5F5F5F5F5F5F5F5F5F5F5F5F5F5F5F5F5F5F5F5F5F5F5F5F5F5F5F5F5F5F5F5F5F5F5F5F5F5F5F5F5F5F5F5F5F5F5F5F5F5F5F5F5
310
28F5DCF5F5F5F5F5F5F5F5F5F5F5F5F5F5F5F5F5E2F5E2E2F5E2F5F5F5F5F5F5F5F5F5F5F5F5F5F5F5F5F5DCF528F5F5F5F5F5DCDCF5F5DCF5F5DCF5F5F5DCF5F5DCF5F5DCF5F5DCF5F5DCF5F5DCF5F5F5F5F5F5F5F5F5F5F5F5F5F5F5F5F5F5F5F5F5F5F5F5F5F5F5F5F5F5F5F5F5F5F5F5F5F5F5F5F5F5F5F5F5F5F5F5F5
310
F5F5F5F5F5F5F5F5F5F5F5F5F5F5F5F5F5F5F5F5F5F5F5F5F5F5F5F5F5F5F5F5F5F5F5F5F5F5F5F5F5F5F5F5F5F5F5F5F5F5F5F5F528F5DCF5F5F5F5F5F5F5F5F5F5F5F5F5F5F5F5F5E2F5E2E2F5E2F5F5F5F5F5F5F5F5F5F5F5F5F5F5F5F5F5DCF528F5F5F5F5DCF5F5F5DCF5F5DCF5F5DCDCF5DCDCF5DCDCF5F5DCF5F5DC
310
F5F5DCF5F5F5F5F5F5F5F5F5F5F5F5F5F5F5F5F5F5F5F5F5F5F5F5F5F5F5F5F5F5F5F5F5F5F5F5F5F5F5F5F5F5F5F5F5F5F5F5F5F5F5F5F5F5F5F5F5F5F5F5F5F5F5F5F5F5F5F5F5F5F5F5F5F5F5F5F5F5F5F5F5F5F5F5F5F5F5F5F5F5F5F5F5F5F5F5F5F5F5F5F5F5F528F5DCF5F5F5F5F5F5F5F5F5F5F5F5F5F5F5F5F5E2
310
F5E2E2F5E2F5F5F5F5F5F5F5F5F5F5F5F5F5F5F5F5F5DCF528F5F5F5DCF5F5F5DCF5F5DCF5F5DCF5F5DCF5F5DCF5F5F5DCF5F5DCF5F5DCF5F5F5DCF5F5F5F5F5F5F5F5F5F5F5F5F5F5F5F5F5F5F5F5F5F5F5F5F5F5F5F5F5F5F5F5F5F5F5F5F5F5F5F5F5F5F5F5F5F5F5F5F5F5F5F5F5F5F5F5F5F5F5F5F5F5F5F5F5F5F5F5
310
F5F5F5F5F5F5F5F5F5F5F5F5F5F5F5F5F5F5F5F5F5F5F5F5F5F5F5F5F5F5F5F528F5DCF5F5F5F5F5F5F5F5F5F5F5F5F5F5F5F5F5E2F5E2E2F5F5F5F5F5F5F5F5F5F5F5F5F5F5F5F5F5F5F5DCF528F5F5F5F5F5F5DCF5F5DCF5F5DCF5F5DCF5F5DCF5F5F5DCF5F5DCF5F5DCF5F5DCDCF5F5F5F5F5F5F5F5F5F5F5F5F5F5F5F5
310
F5F5F5F5F5F5F5F5F5F5F5F5F5F5F5F5F5F5F5F5F5F5F5F5F5F5F5F5F5F5F5F5F5F5F5F5F5F5F5F5F5F5F5F5F5F5F5F5F5F5F5F5F5F5F5F5F5F5F5F5F5F5F5F5F5F5F5F5F5F5F5F5F5F5F5F5F5F5F5F5F5F5F5F5F528F5DCF5F5F5F5F5F5F5F5F5F5F5F5F5F5F5F5F5F5F5E2E2F5F5F5F5F5F5F5F5F5F5F5F5F5F5F5F5F5F5
310
F5DCF528F5F5F5F5F5F5F5F5F5F5F5F5F5F5F5F5F5F5F5F5F5F5F5F5F5F5F5F5F5F5F5F5F5F5F5F5F5F5F5F5F5F5F5F5F5F5F5F5F5F5F5F5F5F5F5F5F5F5F5F5F5F5F5F5F5F5F5F5F5F5F5F5F5F5F5F5F5F5F5F5F5F5F5F5F5F5F5F5F5F5F5F5F5F5F5F5F5F5F5F5F5F5F5F5F5F5F5F5F5F5F5F5F5F5F5F5F5F5F5F5F5F5F5
310
F5F5F5F5F5F5F5F5F5F5F528F5DCF5F5F5F5F5F5F5F5F5F5F5F5F5F5F5F5F5F5F5E2E2F5F5F5F5F5F5F5F5F5F5F5F5F5F5F5F5F5F5F5DCF528F5F5F5F5F5F5F5F5F5F5F5F5F5F5F5F5F5F5F5F5F5F5F5F5F5F5F5F5F5F5F5F5F5F5F5F5F5F5F5F5F5F5F5F5F5F5F5F5F5F5F5F5F5F5F5F5F5F5F5F5F5F5F5F5F5F5F5F5F5F5
310
F5F5F5F5F5F5F5F5F5F5F5F5F5F5F5F5F5F5F5F5F5F5F5F5F5F5F5F5F5F5F5F5F5F5F5F5F5F5F5F5F5F5F5F5F5F5F5F5F5F5F5F5F5F5F5F5F5F5F5F5F5F5F5F528F5DCF5F5F5F5F5F5F5F5F5F5F5F5F5F5F5F5F5F5F5E2E2F5F5F5F5F5F5F5F5F5F5F5F5F5F5F5F5F5F5F5DCF528F5F5F5F5F5F5F5F5F5F5F5F5F5F5F5F5F5
310
F5F5F5F5F5F5F5F5F5F5F5F5F5F5F5F5F5F5F5F5F5F5F5F5F5F5F5F5F5F5F5F5F5F5F5F5F5F5F5F5F5F5F5F5F5F5F5F5F5F5F5F5F5F5F5F5F5F5F5F5F5F5F5F5F5F5F5F5F5F5F5F5F5F5F5F5F5F5F5F5F5F5F5F5F5F5F5F5F5F5F5F5F5F5F5F5F5F5F5F5F5F5F5F5F5F5F5F5F5F5F5F5F5F5F5F5F528F5DCF5F5F5F5F5F5F5
310
F5F5F5F5F5F5F5F5F5F5F5F5E2E2F5F5F5F5F5F5F5F5F5F5F5F5F5F5F5F5F5F5F5DCF528F5F5F5F5F5F5F5F5F5F5F5F5F5F5F5F5F5F5F5F5F5F5F5F5F5F5F5F5F5F5F5F5F5F5F5F5F5F5F5F5F5F5F5F5F5F5F5F5F5F5F5F5F5F5F5F5F5F5F5F5F5F5F5F5F5F5F5F5F5F5F5F5F5F5F5F5F5F5F5F5F5F5F5F5F5F5F5F5F5F5F5
310
F5F5F5F5F5F5F5F5F5F5F5F5F5F5F5F5F5F5F5F5F5F5F5F5F5F5F5F5F5F5F5F5F5F5F5F5F5F5F5F5F5F5F528F5DCF5F5F5F5F5F5F5F5F5F5F5F5F5F5F5F5F5F5F5E2E2F5F5F5F5F5F5F5F5F5F5F5F5F5F5F5F5F5F5F5DCF528F5F5F5F5F5F5F5F5F5F5F5F5F5F5F5F5F5F5F5F5F5F5F5F5F5F5F5F5F5F5F5F5F5F5F5F5F5F5
310
F5F5F5F5F5F5F5F5F5F5F5F5F5F5F5F5F5F5F5F5F5F5F5F5F5F5F5F5F5F5F5F5F5F5F5F5F5F5F5F5F5F5F5F5F5F5F5F5F5F5F5F5F5F5F5F5F5F5F5F5F5F5F5F5F5F5F5F5F5F5F5F5F5F5F5F5F5F5F5F5F5F5F5F5F5F5F5F5F5F5F5F5F5F5F5F528F5DCF5F5F5F5F5F5F5F5F5F5F5F5F5F5F5F5F5F5F5E2E2F5F5F5F5F5F5F5
310
F5F5F5F5F5F5F5F5F5F5F5F5DCF528F5F5F5F5F5F5F5F5F5F5F5F5F5F5F5F5F5F5F5F5F5F5F5F5F5F5F5F5F5F5F5F5F5F5F5F5F5F5F5F5F5F5F5F5F5F5F5F5F5F5F5F5F5F5F5F5F5F5F5F5F5F5F5F5F5F5F5F5F5F5F5F5F5F5F5F5F5F5F5F5F5F5F5F5F5F5F5F5F5F5F5F5F5F5F5F5F5F5F5F5F5F5F5F5F5F5F5F5F5F5F5F5
310
F5F5F5F5F5F5F5F5F5F5F5F5F5F5F5F5F5F5F5F5F5F528F5DCF5F5F5F5F5F5F5F5F5F5F5F5F5F5F5F5F5F5F5E2E2F5F5F5F5F5F5F5F5F5F5F5F5F5F5F5F5F5F5F5DCF528F5F5F5F5F5F5F5F5F5F5F5F5F5F5F5F5F5F5F5F5F5F5F5F5F5F5F5F5F5F5F5F5F5F5F5F5F5F5F5F5F5F5F5F5F5F5F5F5F5F5F5F5F5F5F5F5F5F5F5
310
F5F5F5F5F5F5F5F5F5F5F5F5F5F5F5F5F5F5F5F5F5F5F5F5F5F5F5F5F5F5F5F5F5F5F5F5F5F5F5F5F5F5F5F5F5F5F5F5F5F5F5F5F5F5F5F5F5F5F5F5F5F5F5F5F5F5F5F5F5F5F5F5F5F5F528F5DCF5F5F5F5F5F5F5F5F5F5F5F5F5F5F5F5F5F5F5E2E2F5E2F5F5F5F5F5F5F5F5F5F5F5F5F5F5F5F5F5DCF528F5F5F5F5F5F5
310
F5F5F5F5F5F5F5F5F5F5F5F5F5F5F5F5F5F5F5F5F5F5F5F5F5F5F5F5F5F5F5F5F5F5F5F5F5F5F5F5F5F5F5F5F5F5F5F5F5F5F5F5F5F5F5F5F5F5F5F5F5F5F5F5F5F5F5F5F5F5F5F5F5F5F5F5F5F5F5F5F5F5F5F5F5F5F5F5F5F5F5F5F5F5F5F5F5F5F5F5F5F5F5F5F5F5F5F5F5F5F5F5F5F5F5F5F5F5F5F5F5F5F5F5F5F5F5
310
F528F5DCF5F5F5F5F5F5F5F5F5F5F5F5F5F5F5F5F5E2F5E2E2F5E2F5F5F5F5F5F5F5F5F5F5F5F5F5F5F5F5F5DCF528F5F5F5F5F5F5F5F5F5F5F5F5F5F5F5F5F5F5F5F5F5F5F5F5F5F5F5F5F5F5F5F5F5F5F5F5F5F5F5F5F5F5F5F5F5F5F5F5F5F5F5F5F5F5F5F5F5F5F5F5F5F5F5F5F5F5F5F5F5F5F5F5F5F5F5F5F5F5F5F5
310
F5F5F5F5F5F5F5F5F5F5F5F5F5F5F5F5F5F5F5F5F5F5F5F5F5F5F5F5F5F5F5F5F5F5F5F5F5F5F5F5F5F5F5F5F5F5F5F5F5F5F5F5F5F528F5DCF5F5F5F5F5F5F5F5F5F5F5F5F5F5F5F5F5E2F5E2E2F5E2F5F5F5F5F5F5F5F5F5F5F5F5F5F5F5F5F5DCF528F5F5F5F5F5F5F5F5F5F5F5F5F5F5F5F5F5F5F5F5F5F5F5F5F5F5F5
310
F5F5F5F5F5F5F5F5F5F5F5F5F5F5F5F5F5F5F5F5F5F5F5F5F5F5F5F5F5F5F5F5F5F5F5F5F5F5F5F5F5F5F5F5F5F5F5F5F5F5F5F5F5F5F5F5F5F5F5F5F5F5F5F5F5F5F5F5F5F5F5F5F5F5F5F5F5F5F5F5F5F5F5F5F5F5F5F5F5F5F5F5F5F5F5F5F5F5F5F5F5F5F5F5F5F5F528F5DCF5F5F5F5F5F5F5F5F5F5F5F5F5F5F5F5F5
310
E2F5E2E2F5E2F5F5F5F5F5F5F5F5F5F5F5F5F5F5F5F5F5DCF528F5F5F5F5F5F5F5F5F5F5F5F5F5F5F5F5F5F5F5F5F5F5F5F5F5F5F5F5F5F5F5F5F5F5F5F5F5F5F5F5F5F5F5F5F5F5F5F5F5F5F5F5F5F5F5F5F5F5F5F5F5F5F5F5F5F5F5F5F5F5F5F5F5F5F5F5F5F5F5F5F5F5F5F5F5F5F5F5F5F5F5F5F5F5F5F5F5F5F5F5F5
310
F5F5F5F5F5F5F5F5F5F5F5F5F5F5F5F5F5F5F5F5F5F5F5F5F5F5F5F5F5F5F5F5F528F5DCF5F5F5F5F5F5F5F5F5F5F5F5F5F5F5F5F5E2F5E2E2F5E2F5F5F5F5F5F5F5F5F5F5F5F5F5F5F5F5F5DCF528F5F5F5F5F5F5F5F5F5F5F5F5F5F5F5F5F5F5F5F5F5F5F5F5F5F5F5F5F5F5F5F5F5F5F5F5F5F5F5F5F5F5F5F5F5F5F5F5
310
F5F5F5F5F5F5F5F5F5F5F5F5F5F5F5F5F5F5F5F5F5F5F5F5F5F5F5F5F5F5F5F5F5F5F5F5F5F5F5F5F5F5F5F5F5F5F5F5F5F5F5F5F5F5F5F5F5F5F5F5F5F5F5F5F5F5F5F5F5F5F5F5F5F5F5F5F5F5F5F5F5F5F5F5F5F528F5DCF5F5F5F5F5F5F5F5F5F5F5F5F5F5F5F5F5E2F5E2E2F5E2F5F5F5F5F5F5F5F5F5F5F5F5F5F5F5
310
F5F5DCF528F5F5F5F5F5F5F5F5F5F5F5F5F5F5F5F5F5F5F5F5F5F5F5F5F5F5F5F5F5F5F5F5F5F5F5F5F5F5F5F5F5F5F5F5F5F5F5F5F5F5F5F5F5F5F5F5F5F5F5F5F5F5F5F5F5F5F5F5F5F5F5F5F5F5F5F5F5F5F5F5F5F5F5F5F5F5F5F5F5F5F5F5F5F5F5F5F5F5F5F5F5F5F5F5F5F5F5F5F5F5F5F5F5F5F5F5F5F5F5F5F5F5
310
F5F5F5F5F5F5F5F5F5F5F5F528F5DCF5F5F5F5F5F5F5F5F5F5F5F5F5F5F5F5F5E2F5E2E2F5E2F5F5F5F5F5F5F5F5F5F5F5F5F5F5F5F5F5DCF528F5F5F5F5F5F5F5F5F5F5F5F5F5F5F5F5F5F5F5F5F5F5F5F5F5F5F5F5F5F5F5F5F5F5F5F5F5F5F5F5F5F5F5F5F5F5F5F5F5F5F5F5F5F5F5F5F5F5F5F5F5F5F5F5F5F5F5F5F5
310
F5F5F5F5F5F5F5F5F5F5F5F5F5F5F5F5F5F5F5F5F5F5F5F5F5F5F5F5F5F5F5F5F5F5F5F5F5F5F5F5F5F5F5F5F5F5F5F5F5F5F5F5F5F5F5F5F5F5F5F5F5F5F5F5F528F5DCF5F5F5F5F5F5F5F5F5F5F5F5F5F5F5F5F5E2F5E2E2F5E2F5F5F5F5F5F5F5F5F5F5F5F5F5F5F5F5F5DCF528F5F5F5F5F5F5F5F5F5F5F5F5F5F5F5F5
310
F5F5F5F5F5F5F5F5F5F5F5F5F5F5F5F5F5F5F5F5F5F5F5F5F5F5F5F5F5F5F5F5F5F5F5F5F5F5F5F5F5F5F5F5F5F5F5F5F5F5F5F5F5F5F5F5F5F5F5F5F5F5F5F5F5F5F5F5F5F5F5F5F5F5F5F5F5F5F5F5F5F5F5F5F5F5F5F5F5F5F5F5F5F5F5F5F5F5F5F5F5F5F5F5F5F5F5F5F5F5F5F5F5F5F5F5F5F528F5DCF5F5F5F5F5F5
310
F5F5F5F5F5F5F5F5F5F5F5E2F5E2E2F5E2F5F5F5F5F5F5F5F5F5F5F5F5F5F5F5F5F5DCF528282828282828282828282828282828282828282828282828282828282828282828282828282828282828282828282828282828282828282828282828282828282828282828282828282828282828282828282828282828282828
310
282828282828282828282828282828282828282828282828282828282828282828282828282828282828282828F5DCF5F5F5F5F5F5F5F5F5F5F5F5F5F5F5F5F5E2F5E2E2F5E2F5F5F5F5F5F5F5F5F5F5F5F5F5F5F5F5F5DCF528F5F5F5F5F5F5F5F5F5F5F5F5F5F5F5F5F5F5F5F5F5F5F5F5F5F5F5F5F5F5F5F5F5F5F5F5F5
310
F5F5F5F5F5F5F5F5F5F5F5F5F5F5F5F5F5F5F5F5F5F5F5F5F5F5F5F5F528F5F5F5F5F5F5F5F5F5F5F5F5F5F5F5F5F5F5F5F5F5F5F5F5F5F5F5F5F5F5F5F5F5F5F5F5F5F5F5F5F5F5F5F5F5F5F5F5F5F5F5F5F5F5F5F5F5F5F5F5F5F5F5F5F5F5F528F5DCF5F5F5F5F5F5F5F5F5F5F5F5F5F5F5F5F5E2F5E2E2F5E2F5F5F5F5
310
F5F5F5F5F5F5F5F5F5F5F5F5F5DCF528F5F5F5F5F5F5F5F5F5F5F5F5F52D2D2D2D2D2D2D2D2D2D2D2D2D2D2D2D2D2D2D2D2D2D2D2D2D2D2D2D2D2D2D2D2D2D2D2D2D2DF5F5F5F5F5F5F5F5F5F5F5F5F5F5F528F5F5F52D2D2D2DF52D2D2D2D2D2DF5F5F5F5F5F5F5F5F5F5F5F5F5F5F5F5F5F5F5F5F5F5F5F5F5F5F5F5F5F5
310
F5F5F5F5F5F5F5F5F5F5F5F5F5F5F5F5F5F5F5F5F5F5F528F5DCF5F5F5F5F5F5F5F5F5F5F5F5F5F5F5F5F5E2F5E2E2F5E2F5F5F5F5F5F5F5F5F5F5F5F5F5F5F5F5F5DCF528F5F5F5F5F5F5F5F5F5F5F5F5F52D2D2D2D2D2D2D2D2D2D2D2D2D2D2D2D2D2D2D2D2D2D2D2D2D2D2D2D2D2D2D2D2D2D2D2D2D2DF5F5F5F5F5F5F5
310
F5F5F5F5F5F5F5F528F5F5F52D2D2D2DF52D2D2D2DF52DF5F5F5F5F5F5F5F5F5F5F5F5F5F5F5F5F5F5F5F5F5F5F5F5F5F5F5F5F5F5F5F5F5F5F5F5F5F5F5F5F5F5F5F5F5F5F5F5F5F5F5F5F528F5DCF5F5F5F5F5F5F5F5F5F5F5F5F5F5F5F5F5E2F5E2E2F5E2F5F5F5F5F5F5F5F5F5F5F5F5F5F5F5F5F5DCF528F5F5F5F5F5
310
F5F5F5F5F5F5F5F5F5F5F5F5F5F5F5F5F5F5F5F5F5F5F5F5F5F5F5F5F5F5F5F5F5F5F5F5F5F5F5F5F5F5F5F5F5F5F5F5F5F5F5F5F5F5F5F5F5F5F5F5F528F5F5F5F5F5F5F5F5F5F5F5F5F5F5F5F5F5F5F5F5F5F5F5F5F5F5F5F5F5F5F5F5F5F5F5F5F5F5F5F5F5F5F5F5F5F5F5F5F5F5F5F5F5F5F5F5F5F5F5F5F5F5F5F5F5
310
F5F528F5DCF5F5F5F5F5F5F5F5F5F5F5F5F5F5F5F5F5E2F5E2E2F5E2F5F5F5F5F5F5F5F5F5F5F5F5F5F5F5F5F5DCF52828282828282828282828282828282828282828282828282828282D2D2D2D2D2D2D2D2D2D2D2D2D28282828282828282828282828282828282828282828282828282828282828282828282828282828
310
2828282828282828282828282828282828282828282828282828282828282828282828282828282828282828282828282828282828282828F5DCF5F5F5F5F5F5F5F5F5F5F5F5F5F5F5F5F5E2F5E2E2F5E2F5F5F5F5F5F5F5F5F5F5F5F5F5F5F5F5F5DCF528F5F5F5F5F5F5F5F5F5F5F5F5F5F5F5F5F5F5F5F5F5F5F5F5F5F5
310
2D2D2D2D2D2D2D2D2D2D2D2D2DF5F5F5F5F5F5F5F5F5F5F5F5F5F5F5F5F5F5F5F5F5F5F5F5F5F5F528F5F5F52D2D2D2D2D2D2D2D2D2D2DF5F52D2D2D2D2D2D2D2D2D2DF5F5F5F5F5F5F5F5F5F5F5F5F5F5F5F5F5F5F5F5F5F5F5F5F5F5F5F5F5F5F5F5F5F5F5F5F5F5F5F5F528F5DCF5F5F5F5F5F5F5F5F5F5F5F5F5F5F5F5
310
F5E2F5E2E2F5E2F5F5F5F5F5F5F5F5F5F5F5F5F5F5F5F5F5DCF528F5F5F5F5F5F5F5F5F5F5F5F5F5F5F5F5F5F5F5F5F5F5F5F5F5F52D2D2D2D2D2D2D2D2D2D2D2D2DF5F5F5F5F5F5F5F5F5F5F5F5F5F5F5F5F5F5F5F5F5F5F5F5F5F5F528F5F5F52D2D2D2D2D2D2D2D2D2D2DF52D2D2D2D2D2D2D2D2D2D2DF5F5F5F5F5F5F5
310
F5F5F5F5F5F5F5F5F5F5F5F5F5F5F5F5F5F5F5F5F5F5F5F5F5F5F5F5F5F5F5F5F5F528F5DCF5F5F5F5F5F5F5F5F5F5F5F5F5F5F5F5F5E2F5E2E2F5F5F5F5F5F5F5F5F5F5F5F5F5F5F5F5F5F5F5DCF528F5F5F5F5F5F5F5F5F5F5F5F5F5F5F5F5F5F5F5F5F5F5F5F5F5F5F5F5F5F5F5F5F5F5F5F5F5F5F5F5F5F5F5F5F5F5F5
310
F5F5F5F5F5F5F5F5F5F5F5F5F5F5F5F5F5F5F528F5F5F5F5F5F5F5F5F5F5F5F5F5F5F5F5F5F5F5F5F5F5F5F5F5F5F5F5F5F5F5F5F5F5F5F5F5F5F5F5F5F5F5F5F5F5F5F5F5F5F5F5F5F5F5F5F5F5F5F5F5F5F5F5F5F5F528F5DCF5F5F5F5F5F5F5F5F5F5F5F5F5F5F5F5F5F5F5E2E2F5F5F5F5F5F5F5F5F5F5F5F5F5F5F5F5
310
F5F5F5DCF52828282828282828282828282828282828282828282828282828282828282828282828282828282828282828282828282828282828282828282828282828282828282828282828282828282828282828282828282828282828282828282828282828282828282828282828282828282828282828282828282828
310
2828282828282828282828282828F5DCF5F5F5F5F5F5F5F5F5F5F5F5F5F5F5F5F5F5F5E2E2F5F5F5F5F5F5F5F5F5F5F5F5F5F5F5F5F5F5F5DCF5F5F5F5F5F5F5F5F5F5F5F5F5F5F5F5F5F5F5F5F5F5F5F5F5F5F5F5F5F5F5F5F5F5F5F5F5F5F5F5F5F5F5F5F5F5F5F5F5F5F5F5F5F5F5F5F5F5F5F5F5F5F5F5F5F5F5F5F5F5
310
F5F5F5F5F5F5F5F5F5F5F5F5F5F5F5F5F5F5F5F5F5F5F5F5F5F5F5F5F5F5F5F5F5F5F5F5F5F5F5F5F5F5F5F5F5F5F5F5F5F5F5F5F5F5F5F5F5F5F5F5F5F5F5F5F5F5F5F5DCF5F5F5F5F5F5F5F5F5F5F5F5F5F5F5F5F5F5F5E2E2F5F5F5F5F5F5F5F5F5F5F5F5F5F5F5F5F5F5F5DCDCDCDCDCDCDCDCDCDCDCDCDCDCDCDCDCDC
310
DCDCDCDCDCDCDCDCDCDCDCDCDCDCDCDCDCDCDCDCDCDCDCDCDCDCDCDCDCDCDCDCDCDCDCDCDCDCDCDCDCDCDCDCDCDCDCDCDCDCDCDCDCDCDCDCDCDCDCDCDCDCDCDCDCDCDCDCDCDCDCDCDCDCDCDCDCDCDCDCDCDCDCDCDCDCDCDCDCDCDCDCDCDCDCDCDCDCDCDCDCDCDCDCDCDCDCDCDCDCDCDCDCDCDCDCDCDCDCDCDCDCF5F5F5F5F5
310
F5F5F5F5F5F5F5F5F5F5F5F5F5F5E2E2F5F5F5F5F5F5F5F5F5F5F5F5F5F5F5F5F5F5F5DCDCDCDCDCDCDCDCDCDCDCDCDCDCDCDCDCDCDCDCDCDCDCDCDCDCDCDCDCDCDCDCDCDCDCDCDCDCDCDCDCDCDCDCDCDCDCDCDCDCDCDCDCDCDCDCDCDCDCDCDCDCDCDCDCDCDCDCDCDCDCDCDCDCDCDCDCDCDCDCDCDCDCDCDCDCDCDCDCDCDCDC
310
DCDCDCDCDCDCDCDCDCDCDCDCDCDCDCDCDCDCDCDCDCDCDCDCDCDCDCDCDCDCDCDCDCDCDCDCDCDCDCDCDCDCDCDCDCDCDCDCF5F5F5F5F5F5F5F5F5F5F5F5F5F5F5F5F5F5F5E2E2F5F5F5F5F5F5F5F5F5F5F5F5F5F5F5F5F5F5F5F5F5F5F5F5F5F5F5F5F5F5F5F5F5F5F5F5F5F5F5F5F5F5F5F5F5F5F5F5F5F5F5F5F5F5F5F5F5F5
310
F5F5F5F5F5F5F5F5F5F5F5F5F5F5F5F5F5F5F5F5F5F5F5F5F5F5F5F5F5F5F5F5F5F5F5F5F5F5F5F5F5F5F5F5F5F5F5F5F5F5F5F5F5F5F5F5F5F5F5F5F5F5F5F5F5F5F5F5F5F5F5F5F5F5F5F5F5F5F5F5F5F5F5F5F5F5F5F5F5F5F5F5F5F5F5F5F5F5F5F5F5F5F5F5F5F5F5F5F5F5F5F5F5F5F5F5F5F5F5F5E2E2F5F5F5F5F5
310
F5F5F5F5F5F5F5F5F5F5F5F5F5F5F5F5F5F5F5F5F5F5F5F5F5F5F5F5F5F5F5F5F5F5F5F5F5F5F5F5F5F5F5F5F5F5F5F5F5F5F5F5F5F5F5F5F5F5F5F5F5F5F5F5F5F5F5F5F5F5F5F5F5F5F5F5F5F5F5F5F5F5F5F5F5F5F5F5F5F5F5F5F5F5F5F5F5F5F5F5F5F5F5F5F5F5F5F5F5F5F5F5F5F5F5F5F5F5F5F5F5F5F5F5F5F5F5
310
F5F5F5F5F5F5F5F5F5F5F5F5F5F5F5F5F5F5F5F5F5F5F5F5F5F5F5F5F5F5F5F5F5F5F5F5F5F5F5F5F5F5F5F5F5F5E2E2F5F5F5F5F5F5F5F5F5F5F5F5F5F5F5F5F5F5F5F5F5F5F5F5F5F5F5F5F5F5F5F5F5F5F5F5F5F5F5F5F5F5F5F5F5F5F5F5F5F5F5F5F5F5F5F5F5F5F5F5F5F5F5F5F5F5F5F5F5F5F5F5F5F5F5F5F5F5F5
310
F5F5F5F5F5F5F5F5F5F5F5F5F5F5F5F5F5F5F5F5F5F5F5F5F5F5F5F5F5F5F5F5F5F5F5F5F5F5F5F5F5F5F5F5F5F5F5F5F5F5F5F5F5F5F5F5F5F5F5F5F5F5F5F5F5F5F5F5F5F5F5F5F5F5F5F5F5F5F5F5F5F5F5F5F5F5F5F5F5F5F5F5F5F5F5F5F5F5F5E2E2F5F5F5F5F5F5F5F5F5F5F5F5F5F5F5F5F5F5F5F5F5F5F5F5F5F5
310
F5F5F5F5F5F5F5F5F5F5F5F5F5F5F5F5F5F5F5F5F5F5F5F5F5F5F5F5F5F5F5F5F5F5F5F5F5F5F5F5F5F5F5F5F5F5F5F5F5F5F5F5F5F5F5F5F5F5F5F5F5F5F5F5F5F5F5F5F5F5F5F5F5F5F5F5F5F5F5F5F5F5F5F5F5F5F5F5F5F5F5F5F5F5F5F5F5F5F5F5F5F5F5F5F5F5F5F5F5F5F5F5F5F5F5F5F5F5F5F5F5F5F5F5F5F5F5
310
F5F5F5F5F5F5F5F5F5F5F5F5F5F5F5F5F5F5F5F5F5F5F5F5F5E2E2F5E2F5F5F5F5F5F5F5F5F5F5F5F5F5F5F5F5F5F5F5F5F5F5F5F5F5F5F5F5F5F5F5F5F5F5F5F5F5F5F5F5F5F5F5F5F5F5F5F5F5F5F5F5F5F5F5F5F5F5F5F5F5F5F5F5F5F5F5F5F5F5F5F5F5F5F5F5F5F5F5F5F5F5F5F5F5F5F5F5F5F5F5F5F5F5F5F5F5F5
310
F5F5F5F5F5F5F5F5F5F5F5F5F5F5F5F5F5F5F5F5F5F5F5F5F5F5F5F5F5F5F5F5F5F5F5F5F5F5F5F5F5F5F5F5F5F5F5F5F5F5F5F5F5F5F5F5F5F5F5F5F5F5F5F5F5F5F5F5F5F5F5F5F5F5F5F5E2F5E2E2F5E2F5F5F5F5F5F5F5F5F5F5F5F5F5F5F5F5F5F5F5F5F5F5F5F5F5F5F5F5F5F5F5F5F5F5F5F5F5F5F5F5F5F5F5F5F5
310
F5F5F5F5F5F5F5F5F5F5F5F5F5F5F5F5F5F5F5F5F5F5F5F5F5F5F5F5F5F5F5F5F5F5F5F5F5F5F5F5F5F5F5F5F5F5F5F5F5F5F5F5F5F5F5F5F5F5F5F5F5F5F5F5F5F5F5F5F5F5F5F5F5F5F5F5F5F5F5F5F5F5F5F5F5F5F5F5F5F5F5F5F5F5F5F5F5F5F5F5F5F5F5F5F5F5F5F5F5F5F5F5F5F5F5F5F5F5F5F5F5F5F5F5F5F5F5
310
F5F5E2F5E2E2F5E2F5F5F5F5F5F5F5F5F5F5F5F5F5F5F5F5F5F5F5F5F5F5F5F5F5F5F5F5F5F5F5F5F5F5F5F5F5F5F5F5F5F5F5F5F5F5F5F5F5F5F5F5F5F5F5F5F5F5F5F5F5F5F5F5F5F5F5F5F5F5F5F5F5F5F5F5F5F5F5F5F5F5F5F5F5F5F5F5F5F5F5F5F5F5F5F5F5F5F5F5F5F5F5F5F5F5F5F5F5F5F5F5F5F5F5F5F5F5F5
310
F5F5F5F5F5F5F5F5F5F5F5F5F5F5F5F5F5F5F5F5F5F5F5F5F5F5F5F5F5F5F5F5F5F5F5F5F5F5F5F5F5F5F5F5F5F5F5F5F5F5F5F5F5F5F5E2F5E2E2F5E2F5F5F5F5F5F5F5F5F5F5F5F5F5F5F5F5F5F5F5F5F5F5F5F5F5F5F5F5F5F5F5F5F5F5F5F5F5F5F5F5F5F5F5F5F5F5F5F5F5F5F5F5F5F5F5F5F5F5F5F5F5F5F5F5F5F5
310
F5F5F5F5F5F5F5F5F5F5F5F5F5F5F5F5F5F5F5F5F5F5F5F5F5F5F5F5F5F5F5F5F5F5F5F5F5F5F5F5F5F5F5F5F5F5F5F5F5F5F5F5F5F5F5F5F5F5F5F5F5F5F5F5F5F5F5F5F5F5F5F5F5F5F5F5F5F5F5F5F5F5F5F5F5F5F5F5F5F5F5F5F5F5F5F5F5F5F5F5F5F5F5F5F5F5F5F5E2F5E2E2F5E2F5F5F5F5F5F5F5F5F5F5F5F5F5
310
F5F5F5F5F5F5F5F5F5F5F5F5F5F5F5F5F5F5F5F5F5F5F5F5F5F5F5F5F5F5F5F5F5F5F5F5F5F5F5F5F5F5F5F5F5F5F5F5F5F5F5F5F5F5F5F5F5F5F5F5F5F5F5F5F5F5F5F5F5F5F5F5F5F5F5F5F5F5F5F5F5F5F5F5F5F5F5F5F5F5F5F5F5F5F5F5F5F5F5F5F5F5F5F5F5F5F5F5F5F5F5F5F5F5F5F5F5F5F5F5F5F5F5F5F5F5F5
310
F5F5F5F5F5F5F5F5F5F5F5F5F5F5F5F5F5F5F5F5F5F5F5F5F5F5F5F5F5F5F5F5F5F5E2F5E2E2F5E2F5F5F5F5F5F5F5F5F5F5F5F5F5F5F5F5F5F5F5F5F5F5F5F5F5F5F5F5F5F5F5F5F5F5F5F5F5F5F5F5F5F5F5F5F5F5F5F5F5F5F5F5F5F5F5F5F5F5F5F5F5F5F5F5F5F5F5F5F5F5F5F5F5F5F5F5F5F5F5F5F5F5F5F5F5F5F5
310
F5F5F5F5F5F5F5F5F5F5F5F5F5F5F5F5F5F5F5F5F5F5F5F5F5F5F5F5F5F5F5F5F5F5F5F5F5F5F5F5F5F5F5F5F5F5F5F5F5F5F5F5F5F5F5F5F5F5F5F5F5F5F5F5F5F5F5F5F5F5F5F5F5F5F5F5F5F5F5F5F5F5F5F5F5F5F5E2F5E2E2F5E2F5F5F5F5F5F5F5F5F5F5F5F5F5F5F5F5F5F5F5F5F5F5F5F5F5F5F5F5F5F5F5F5F5F5
310
F5F5F5F5F5F5F5F5F5F5F5F5F5F5F5F5F5F5F5F5F5F5F5F5F5F5F5F5F5F5F5F5F5F5F5F5F5F5F5F5F5F5F5F5F5F5F5F5F5F5F5F5F5F5F5F5F5F5F5F5F5F5F5F5F5F5F5F5F5F5F5F5F5F5F5F5F5F5F5F5F5F5F5F5F5F5F5F5F5F5F5F5F5F5F5F5F5F5F5F5F5F5F5F5F5F5F5F5F5F5F5F5F5F5F5F5F5F5F5F5F5F5F5F5F5F5F5
310
F5F5F5F5F5F5F5F5F5F5F5F5F5E2F5E2E2F5E2E2E2E2E2E2E2E2E2F5F5F5F5F5F5F5F5F5E2E2E2E2E2E2E2E2E2E2E2E2E2E2E2E2F5F5F5F5F5F5F5F5F5E2E2E2E2E2E2E2E2E2E2E2E2E2E2E2E2F5F5F5F5F5F5F5F5F5E2E2E2E2E2E2E2E2E2E2E2E2E2E2E2E2F5F5F5F5F5F5F5F5F5E2E2E2E2E2E2E2E2E2E2E2E2E2E2E2E2
310
F5F5F5F5F5F5F5F5F5E2E2E2E2E2E2E2E2E2E2E2E2E2E2E2E2F5F5F5F5F5F5F5F5F5E2E2E2E2E2E2E2E2E2E2E2E2E2E2E2E2F5F5F5F5F5F5F5F5F5E2E2E2E2E2E2E2E2F5E2E2F5F5F5F5F5F5F5F5F5F5F5F5F5F5F5F5F5F5F5F5F5F5F5F5F5F5F5F5F5F5F5F5F5F5F5F5F5F5F5F5F5F5F5F5F5F5F5F5F5F5F5F5F5F5F5F5F5
310
F5F5F5F5F5F5F5F5F5F5F5F5F5F5F5F5F5F5F5F5F5F5F5F5F5F5F5F5F5F5F5F5F5F5F5F5F5F5F5F5F5F5F5F5F5F5F5F5F5F5F5F5F5F5F5F5F5F5F5F5F5F5F5F5F5F5F5F5F5F5F5F5F5F5F5F5F5F5F5F5F5F5F5F5F5F5F5F5F5F5F5F5F5F5F5F5F5F5F5F5F5F5F5F5F5F5F5F5F5F5F5F5F5F5F5F5F5F5F5F5F5E2E2E2E2E2E2
310
E2E2E2E2E2E2E2E2E2E2E2E2E2E2E2E2E2E2E2E2E2E2E2E2E2E2E2E2E2E2E2E2E2E2E2E2E2E2E2E2E2E2E2E2E2E2E2E2E2E2E2E2E2E2E2E2E2E2E2E2E2E2E2E2E2E2E2E2E2E2E2E2E2E2E2E2E2E2E2E2E2E2E2E2E2E2E2E2E2E2E2E2E2E2E2E2E2E2E2E2E2E2E2E2E2E2E2E2E2E2E2E2E2E2E2E2E2E2E2E2E2E2E2E2E2E2E2
310
E2E2E2E2E2E2E2E2E2E2E2E2E2E2E2E2E2E2E2E2E2E2E2E2E2E2E2E2E2E2E2E2E2E2E2E2E2E2E2E2E2E2E2E2E2E2E2E2
  0
XRECORD
  5
1B17
102
{ACAD_REACTORS
330
1B16
102
}
330
1B16
100
AcDbXrecord
280
     1
102
SHADEPLOT
 70
     0
102
SHADEPLOTRESLEVEL
 70
     2
102
SHADEPLOTCUSTOMDPI
 70
   300
  0
XRECORD
  5
1B10
102
{ACAD_REACTORS
330
1B0F
102
}
330
1B0F
100
AcDbXrecord
280
     1
102
SHADEPLOT
 70
     0
102
SHADEPLOTRESLEVEL
 70
     2
102
SHADEPLOTCUSTOMDPI
 70
   300
  0
XRECORD
  5
C8
102
{ACAD_REACTORS
330
C7
102
}
330
C7
100
AcDbXrecord
280
     1
102
MATERIAL
148
0.0
149
0.0
149
0.0
 93
        0
 94
       63
282
     0
 72
     1
 77
     1
171
     1
175
     1
179
     1
273
     0
  0
XRECORD
  5
C6
102
{ACAD_REACTORS
330
C5
102
}
330
C5
100
AcDbXrecord
280
     1
102
MATERIAL
148
0.0
149
0.0
149
0.0
 93
        0
 94
       63
282
     0
 72
     1
 77
     1
171
     1
175
     1
179
     1
273
     0
  0
XRECORD
  5
B2
102
{ACAD_REACTORS
330
B1
102
}
330
B1
100
AcDbXrecord
280
     1
102
MATERIAL
148
0.0
149
0.0
149
0.0
 93
        0
 94
       63
282
     0
 72
     1
 77
     1
171
     1
175
     1
179
     1
273
     0
  0
XRECORD
  5
156
102
{ACAD_REACTORS
330
155
102
}
330
155
100
AcDbXrecord
280
     1
102
ACAD_ROUNDTRIP_PRE2007_TABLESTYLE
 90
        4
 91
        0
  1

 92
        4
 93
        0
  2

 94
        4
 95
        0
  3

  0
ENDSEC
  0
EOF
