  0
SECTION
  2
HEADER
  9
$ACADVER
  1
AC1015
  9
$ACADMAINTVER
 70
    20
  9
$DWGCODEPAGE
  3
ANSI_1252
  9
$INSBASE
 10
0.0
 20
0.0
 30
0.0
  9
$EXTMIN
 10
0.0149999999999999
 20
-0.0242961045910714
 30
0.0
  9
$EXTMAX
 10
1.156121793940489
 20
0.6357038954089287
 30
0.0
  9
$LIMMIN
 10
0.0
 20
0.0
  9
$LIMMAX
 10
1.0
 20
0.5
  9
$ORTHOMODE
 70
     0
  9
$REGENMODE
 70
     1
  9
$FILLMODE
 70
     1
  9
$QTEXTMODE
 70
     0
  9
$MIRRTEXT
 70
     0
  9
$LTSCALE
 40
1.0
  9
$ATTMODE
 70
     1
  9
$TEXTSIZE
 40
0.008
  9
$TRACEWID
 40
1.0
  9
$TEXTSTYLE
  7
style1
  9
$CLAYER
  8
Text
  9
$CELTYPE
  6
ACAD_ISO10W100
  9
$CECOLOR
 62
   256
  9
$CELTSCALE
 40
1.0
  9
$DISPSILH
 70
     0
  9
$DIMSCALE
 40
0.001
  9
$DIMASZ
 40
1.5
  9
$DIMEXO
 40
0.0625
  9
$DIMDLI
 40
0.38
  9
$DIMRND
 40
0.0
  9
$DIMDLE
 40
0.0
  9
$DIMEXE
 40
0.18
  9
$DIMTP
 40
0.0
  9
$DIMTM
 40
0.0
  9
$DIMTXT
 40
3.0
  9
$DIMCEN
 40
0.0
  9
$DIMTSZ
 40
0.0
  9
$DIMTOL
 70
     0
  9
$DIMLIM
 70
     0
  9
$DIMTIH
 70
     1
  9
$DIMTOH
 70
     1
  9
$DIMSE1
 70
     0
  9
$DIMSE2
 70
     0
  9
$DIMTAD
 70
     0
  9
$DIMZIN
 70
     0
  9
$DIMBLK
  1
ArchTick
  9
$DIMASO
 70
     1
  9
$DIMSHO
 70
     1
  9
$DIMPOST
  1

  9
$DIMAPOST
  1

  9
$DIMALT
 70
     0
  9
$DIMALTD
 70
     2
  9
$DIMALTF
 40
25.4
  9
$DIMLFAC
 40
1.0
  9
$DIMTOFL
 70
     0
  9
$DIMTVP
 40
0.0
  9
$DIMTIX
 70
     0
  9
$DIMSOXD
 70
     0
  9
$DIMSAH
 70
     0
  9
$DIMBLK1
  1

  9
$DIMBLK2
  1

  9
$DIMSTYLE
  2
Bovelacci
  9
$DIMCLRD
 70
     5
  9
$DIMCLRE
 70
     5
  9
$DIMCLRT
 70
     4
  9
$DIMTFAC
 40
1.0
  9
$DIMGAP
 40
2.0
  9
$DIMJUST
 70
     0
  9
$DIMSD1
 70
     0
  9
$DIMSD2
 70
     0
  9
$DIMTOLJ
 70
     1
  9
$DIMTZIN
 70
     0
  9
$DIMALTZ
 70
     0
  9
$DIMALTTZ
 70
     0
  9
$DIMUPT
 70
     0
  9
$DIMDEC
 70
     2
  9
$DIMTDEC
 70
     2
  9
$DIMALTU
 70
     2
  9
$DIMALTTD
 70
     2
  9
$DIMTXSTY
  7
ROMANS
  9
$DIMAUNIT
 70
     0
  9
$DIMADEC
 70
     0
  9
$DIMALTRND
 40
0.0
  9
$DIMAZIN
 70
     0
  9
$DIMDSEP
 70
    46
  9
$DIMATFIT
 70
     3
  9
$DIMFRAC
 70
     0
  9
$DIMLDRBLK
  1

  9
$DIMLUNIT
 70
     2
  9
$DIMLWD
 70
    -2
  9
$DIMLWE
 70
    -2
  9
$DIMTMOVE
 70
     2
  9
$LUNITS
 70
     2
  9
$LUPREC
 70
     2
  9
$SKETCHINC
 40
1.0
  9
$FILLETRAD
 40
0.0
  9
$AUNITS
 70
     0
  9
$AUPREC
 70
     0
  9
$MENU
  1
.
  9
$ELEVATION
 40
0.0
  9
$PELEVATION
 40
0.0
  9
$THICKNESS
 40
0.0
  9
$LIMCHECK
 70
     0
  9
$CHAMFERA
 40
0.0
  9
$CHAMFERB
 40
0.0
  9
$CHAMFERC
 40
0.0
  9
$CHAMFERD
 40
0.0
  9
$SKPOLY
 70
     0
  9
$TDCREATE
 40
2454297.625402373
  9
$TDUCREATE
 40
2454297.542069039
  9
$TDUPDATE
 40
2454305.990967882
  9
$TDUUPDATE
 40
2454305.907634549
  9
$TDINDWG
 40
0.1353805093
  9
$TDUSRTIMER
 40
0.1353785069
  9
$USRTIMER
 70
     1
  9
$ANGBASE
 50
0.0
  9
$ANGDIR
 70
     0
  9
$PDMODE
 70
     0
  9
$PDSIZE
 40
0.0
  9
$PLINEWID
 40
0.0
  9
$SPLFRAME
 70
     0
  9
$SPLINETYPE
 70
     6
  9
$SPLINESEGS
 70
     8
  9
$HANDSEED
  5
14D5
  9
$SURFTAB1
 70
     6
  9
$SURFTAB2
 70
     6
  9
$SURFTYPE
 70
     6
  9
$SURFU
 70
     6
  9
$SURFV
 70
     6
  9
$UCSBASE
  2

  9
$UCSNAME
  2

  9
$UCSORG
 10
0.0
 20
0.0
 30
0.0
  9
$UCSXDIR
 10
1.0
 20
0.0
 30
0.0
  9
$UCSYDIR
 10
0.0
 20
1.0
 30
0.0
  9
$UCSORTHOREF
  2

  9
$UCSORTHOVIEW
 70
     0
  9
$UCSORGTOP
 10
0.0
 20
0.0
 30
0.0
  9
$UCSORGBOTTOM
 10
0.0
 20
0.0
 30
0.0
  9
$UCSORGLEFT
 10
0.0
 20
0.0
 30
0.0
  9
$UCSORGRIGHT
 10
0.0
 20
0.0
 30
0.0
  9
$UCSORGFRONT
 10
0.0
 20
0.0
 30
0.0
  9
$UCSORGBACK
 10
0.0
 20
0.0
 30
0.0
  9
$PUCSBASE
  2

  9
$PUCSNAME
  2

  9
$PUCSORG
 10
0.0
 20
0.0
 30
0.0
  9
$PUCSXDIR
 10
1.0
 20
0.0
 30
0.0
  9
$PUCSYDIR
 10
0.0
 20
1.0
 30
0.0
  9
$PUCSORTHOREF
  2

  9
$PUCSORTHOVIEW
 70
     0
  9
$PUCSORGTOP
 10
0.0
 20
0.0
 30
0.0
  9
$PUCSORGBOTTOM
 10
0.0
 20
0.0
 30
0.0
  9
$PUCSORGLEFT
 10
0.0
 20
0.0
 30
0.0
  9
$PUCSORGRIGHT
 10
0.0
 20
0.0
 30
0.0
  9
$PUCSORGFRONT
 10
0.0
 20
0.0
 30
0.0
  9
$PUCSORGBACK
 10
0.0
 20
0.0
 30
0.0
  9
$USERI1
 70
     0
  9
$USERI2
 70
     0
  9
$USERI3
 70
     0
  9
$USERI4
 70
     0
  9
$USERI5
 70
     0
  9
$USERR1
 40
0.0
  9
$USERR2
 40
0.0
  9
$USERR3
 40
0.0
  9
$USERR4
 40
0.0
  9
$USERR5
 40
0.0
  9
$WORLDVIEW
 70
     1
  9
$SHADEDGE
 70
     3
  9
$SHADEDIF
 70
    70
  9
$TILEMODE
 70
     1
  9
$MAXACTVP
 70
    64
  9
$PINSBASE
 10
0.0
 20
0.0
 30
0.0
  9
$PLIMCHECK
 70
     0
  9
$PEXTMIN
 10
1.000000000000000E+20
 20
1.000000000000000E+20
 30
1.000000000000000E+20
  9
$PEXTMAX
 10
-1.000000000000000E+20
 20
-1.000000000000000E+20
 30
-1.000000000000000E+20
  9
$PLIMMIN
 10
0.0
 20
0.0
  9
$PLIMMAX
 10
420.0
 20
297.0
  9
$UNITMODE
 70
     0
  9
$VISRETAIN
 70
     1
  9
$PLINEGEN
 70
     0
  9
$PSLTSCALE
 70
     1
  9
$TREEDEPTH
 70
  3020
  9
$CMLSTYLE
  2
Standard
  9
$CMLJUST
 70
     0
  9
$CMLSCALE
 40
20.0
  9
$PROXYGRAPHICS
 70
     1
  9
$MEASUREMENT
 70
     1
  9
$CELWEIGHT
370
    -1
  9
$ENDCAPS
280
     0
  9
$JOINSTYLE
280
     0
  9
$LWDISPLAY
290
     0
  9
$INSUNITS
 70
     4
  9
$HYPERLINKBASE
  1

  9
$STYLESHEET
  1

  9
$XEDIT
290
     1
  9
$CEPSNTYPE
380
     0
  9
$PSTYLEMODE
290
     1
  9
$FINGERPRINTGUID
  2
{904A8C64-524F-4709-A9C6-320D2C273A6D}
  9
$VERSIONGUID
  2
{2AF3E621-8142-4931-BB6B-480FF9389CBC}
  9
$EXTNAMES
290
     1
  9
$PSVPSCALE
 40
0.0
  9
$OLESTARTUP
290
     0
  0
ENDSEC
  0
SECTION
  2
CLASSES
  0
CLASS
  1
ACDBDICTIONARYWDFLT
  2
AcDbDictionaryWithDefault
  3
ObjectDBX Classes
 90
        0
280
     0
281
     0
  0
CLASS
  1
TABLESTYLE
  2
AcDbTableStyle
  3
ObjectDBX Classes
 90
     2047
280
     0
281
     0
  0
CLASS
  1
SORTENTSTABLE
  2
AcDbSortentsTable
  3
ObjectDBX Classes
 90
        0
280
     0
281
     0
  0
CLASS
  1
DICTIONARYVAR
  2
AcDbDictionaryVar
  3
ObjectDBX Classes
 90
        0
280
     0
281
     0
  0
CLASS
  1
ACDBPLACEHOLDER
  2
AcDbPlaceHolder
  3
ObjectDBX Classes
 90
        0
280
     0
281
     0
  0
CLASS
  1
LAYOUT
  2
AcDbLayout
  3
ObjectDBX Classes
 90
        0
280
     0
281
     0
  0
CLASS
  1
DIMASSOC
  2
AcDbDimAssoc
  3
"AcDbDimAssoc|Product Desc:     AcDim ARX App For Dimension|Company:          Autodesk, Inc.|WEB Address:      www.autodesk.com"
 90
        0
280
     0
281
     0
  0
CLASS
  1
MATERIAL
  2
AcDbMaterial
  3
ObjectDBX Classes
 90
        0
280
     0
281
     0
  0
CLASS
  1
VISUALSTYLE
  2
AcDbVisualStyle
  3
ObjectDBX Classes
 90
     4095
280
     0
281
     0
  0
ENDSEC
  0
SECTION
  2
TABLES
  0
TABLE
  2
VPORT
  5
177
330
0
100
AcDbSymbolTable
 70
     7
  0
VPORT
  5
14CA
330
177
100
AcDbSymbolTableRecord
100
AcDbViewportTableRecord
  2
*Active
 70
     0
 10
0.0
 20
0.0
 11
1.0
 21
1.0
 12
0.2163930234645091
 22
0.1467881315243619
 13
0.0
 23
0.0
 14
10.0
 24
10.0
 15
10.0
 25
10.0
 16
0.0
 26
0.0
 36
1.0
 17
0.0
 27
0.0
 37
0.0
 40
0.2815753426032665
 41
1.546526867627784
 42
50.0
 43
0.0
 44
0.0
 50
0.0
 51
0.0
 71
     0
 72
  1000
 73
     1
 74
     3
 75
     0
 76
     0
 77
     0
 78
     0
281
     0
 65
     1
110
0.0
120
0.0
130
0.0
111
1.0
121
0.0
131
0.0
112
0.0
122
1.0
132
0.0
 79
     0
146
0.0
  0
ENDTAB
  0
TABLE
  2
LTYPE
  5
172
330
0
100
AcDbSymbolTable
 70
     3
  0
LTYPE
  5
173
330
172
100
AcDbSymbolTableRecord
100
AcDbLinetypeTableRecord
  2
ByBlock
 70
     0
  3

 72
    65
 73
     0
 40
0.0
  0
LTYPE
  5
174
330
172
100
AcDbSymbolTableRecord
100
AcDbLinetypeTableRecord
  2
ByLayer
 70
     0
  3

 72
    65
 73
     0
 40
0.0
  0
LTYPE
  5
C
330
172
100
AcDbSymbolTableRecord
100
AcDbLinetypeTableRecord
  2
Continuous
 70
     0
  3
Solid line
 72
    65
 73
     0
 40
0.0
  0
LTYPE
  5
14E
330
172
100
AcDbSymbolTableRecord
100
AcDbLinetypeTableRecord
  2
ACAD_ISO10W100
 70
     0
  3
ISO dash dot __ . __ . __ . __ . __ . __ . __ .
 72
    65
 73
     4
 40
18.0
 49
12.0
 74
     0
 49
-3.0
 74
     0
 49
0.0
 74
     0
 49
-3.0
 74
     0
  0
ENDTAB
  0
TABLE
  2
LAYER
  5
16D
102
{ACAD_XDICTIONARY
360
16E
102
}
330
0
100
AcDbSymbolTable
 70
     7
  0
LAYER
  5
6
330
16D
100
AcDbSymbolTableRecord
100
AcDbLayerTableRecord
  2
0
 70
     0
 62
     7
  6
Continuous
370
    -3
390
7
  0
LAYER
  5
15F
330
16D
100
AcDbSymbolTableRecord
100
AcDbLayerTableRecord
  2
Defpoints
 70
     0
 62
     7
  6
Continuous
290
     0
370
    -3
390
7
  0
LAYER
  5
28
330
16D
100
AcDbSymbolTableRecord
100
AcDbLayerTableRecord
  2
Profilo
 70
     0
 62
     1
  6
Continuous
370
    -3
390
7
1001
AcAecLayerStandard
1000

1000

  0
LAYER
  5
14D
330
16D
100
AcDbSymbolTableRecord
100
AcDbLayerTableRecord
  2
Sezione
 70
     0
 62
     2
  6
Continuous
370
    -3
390
7
1001
AcAecLayerStandard
1000

1000

  0
LAYER
  5
E
330
16D
100
AcDbSymbolTableRecord
100
AcDbLayerTableRecord
  2
Table
 70
     0
 62
     3
  6
Continuous
370
    -3
390
7
1001
AcAecLayerStandard
1000

1000

  0
LAYER
  5
19
330
16D
100
AcDbSymbolTableRecord
100
AcDbLayerTableRecord
  2
Text
 70
     0
 62
     4
  6
Continuous
370
    -3
390
7
1001
AcAecLayerStandard
1000

1000

  0
LAYER
  5
23D
330
16D
100
AcDbSymbolTableRecord
100
AcDbLayerTableRecord
  2
Bovelacci
 70
     0
 62
     9
  6
Continuous
370
    -3
390
7
1001
AcAecLayerStandard
1000

1000

  0
ENDTAB
  0
TABLE
  2
STYLE
  5
170
330
0
100
AcDbSymbolTable
 70
     3
  0
STYLE
  5
1A
330
170
100
AcDbSymbolTableRecord
100
AcDbTextStyleTableRecord
  2
Standard
 70
     0
 40
0.0
 41
1.0
 50
0.0
 71
     0
 42
2.5
  3
txt
  4

  0
STYLE
  5
20
330
170
100
AcDbSymbolTableRecord
100
AcDbTextStyleTableRecord
  2
ROMANS
 70
     0
 40
0.0
 41
1.0
 50
0.0
 71
     0
 42
2.5
  3
romans
  4

  0
STYLE
  5
26
330
170
100
AcDbSymbolTableRecord
100
AcDbTextStyleTableRecord
  2
style1
 70
     0
 40
0.0
 41
1.0
 50
0.0
 71
     0
 42
0.008
  3
TIMES.TTF
  4

1001
ACAD
1000
Times New Roman
1071
       18
  0
ENDTAB
  0
TABLE
  2
VIEW
  5
175
330
0
100
AcDbSymbolTable
 70
     3
  0
ENDTAB
  0
TABLE
  2
UCS
  5
176
330
0
100
AcDbSymbolTable
 70
     0
  0
ENDTAB
  0
TABLE
  2
APPID
  5
17B
330
0
100
AcDbSymbolTable
 70
    10
  0
APPID
  5
1B
330
17B
100
AcDbSymbolTableRecord
100
AcDbRegAppTableRecord
  2
ACAD
 70
     0
  0
APPID
  5
157
330
17B
100
AcDbSymbolTableRecord
100
AcDbRegAppTableRecord
  2
ACAD_DSTYLE_DIMJOGGED_JOGANGLE_SYMBOL
 70
     0
  0
APPID
  5
F
330
17B
100
AcDbSymbolTableRecord
100
AcDbRegAppTableRecord
  2
AcAecLayerStandard
 70
     0
  0
APPID
  5
19C
330
17B
100
AcDbSymbolTableRecord
100
AcDbRegAppTableRecord
  2
ACAD_DSTYLE_DIMFLIPARROW_WHICH_SYMBOL
 70
     0
  0
APPID
  5
1A7
330
17B
100
AcDbSymbolTableRecord
100
AcDbRegAppTableRecord
  2
ACAD_DSTYLE_DIMEXT_LENGTH
 70
     0
  0
APPID
  5
1D2
330
17B
100
AcDbSymbolTableRecord
100
AcDbRegAppTableRecord
  2
ACAD_EXEMPT_FROM_CAD_STANDARDS
 70
     0
  0
APPID
  5
1D3
330
17B
100
AcDbSymbolTableRecord
100
AcDbRegAppTableRecord
  2
ACAD_DSTYLE_DIM_LINETYPE
 70
     0
  0
APPID
  5
1D4
330
17B
100
AcDbSymbolTableRecord
100
AcDbRegAppTableRecord
  2
ACAD_DSTYLE_DIM_EXT1_LINETYPE
 70
     0
  0
APPID
  5
1D5
330
17B
100
AcDbSymbolTableRecord
100
AcDbRegAppTableRecord
  2
ACAD_DSTYLE_DIM_EXT2_LINETYPE
 70
     0
  0
APPID
  5
243
330
17B
100
AcDbSymbolTableRecord
100
AcDbRegAppTableRecord
  2
ACAD_PSEXT
 70
     0
  0
ENDTAB
  0
TABLE
  2
DIMSTYLE
  5
17C
330
0
100
AcDbSymbolTable
 70
     8
100
AcDbDimStyleTable
 71
     2
340
156
340
17D
  0
DIMSTYLE
105
17D
330
17C
100
AcDbSymbolTableRecord
100
AcDbDimStyleTableRecord
  2
ISO-25
 70
     0
 41
2.5
 42
0.625
 43
3.75
 44
1.25
 73
     0
 74
     0
 77
     1
 78
     8
140
2.5
141
2.5
143
0.03937007874016
147
0.625
171
     3
172
     1
271
     2
272
     2
274
     3
278
    44
283
     0
284
     8
340
1A
  0
DIMSTYLE
105
156
102
{ACAD_REACTORS
330
14AB
102
}
330
17C
100
AcDbSymbolTableRecord
100
AcDbDimStyleTableRecord
  2
Bovelacci
 70
     0
 40
0.001
 41
1.5
140
3.0
141
0.0
147
2.0
176
     5
177
     5
178
     4
271
     2
272
     2
279
     2
340
20
342
152
1001
ACAD_DSTYLE_DIMJOGGED_JOGANGLE_SYMBOL
1070
   384
1040
0.7853981633974483
1001
ACAD_DSTYLE_DIMEXT_LENGTH
1070
   378
1040
0.18
  0
DIMSTYLE
105
23E
330
17C
100
AcDbSymbolTableRecord
100
AcDbDimStyleTableRecord
  2
Dim 1-100
 70
     0
 40
0.1
 41
1.5
 42
0.0
 43
5.0
 44
1.25
 45
0.005
 46
1.25
 73
     0
 74
     0
 77
     1
 78
     9
140
2.0
141
2.5
147
1.0
172
     1
174
     1
179
     2
279
     2
289
     2
340
20
342
152
  0
DIMSTYLE
105
23F
330
17C
100
AcDbSymbolTableRecord
100
AcDbDimStyleTableRecord
  2
Standard
 70
     0
 42
0.0
 73
     0
 74
     0
 77
     1
271
     2
272
     2
340
20
  0
DIMSTYLE
105
240
330
17C
100
AcDbSymbolTableRecord
100
AcDbDimStyleTableRecord
  2
Dim 1-50
 70
     0
 40
0.05
 41
1.5
 42
0.0
 43
5.0
 44
1.25
 45
0.005
 46
1.25
 73
     0
 74
     0
 77
     1
 78
     9
140
2.0
141
2.5
147
1.0
172
     1
174
     1
179
     2
279
     2
289
     2
340
20
342
152
  0
DIMSTYLE
105
241
330
17C
100
AcDbSymbolTableRecord
100
AcDbDimStyleTableRecord
  2
Dim 1-200
 70
     0
 40
0.2
 41
1.5
 42
0.0
 43
5.0
 44
1.25
 45
0.005
 46
1.25
 73
     0
 74
     0
 77
     1
 78
     9
140
2.0
141
2.5
147
1.0
172
     1
174
     1
179
     2
271
     2
272
     2
279
     2
289
     2
340
20
342
152
  0
DIMSTYLE
105
242
330
17C
100
AcDbSymbolTableRecord
100
AcDbDimStyleTableRecord
  2
AEC Scale - Italiano
 70
     0
 41
1.0
 42
10.0
 43
10.0
 44
10.0
 73
     0
 74
     0
 75
     1
 76
     1
 77
     1
140
10.0
141
1.0
147
10.0
173
     1
271
     0
272
     0
279
     2
340
1A
343
238
344
232
  0
ENDTAB
  0
TABLE
  2
BLOCK_RECORD
  5
1
330
0
100
AcDbSymbolTable
 70
    21
  0
BLOCK_RECORD
  5
2
102
{ACAD_XDICTIONARY
360
3
102
}
330
1
100
AcDbSymbolTableRecord
100
AcDbBlockTableRecord
  2
*Model_Space
340
163
  0
BLOCK_RECORD
  5
165
330
1
100
AcDbSymbolTableRecord
100
AcDbBlockTableRecord
  2
*Paper_Space
340
168
  0
BLOCK_RECORD
  5
169
330
1
100
AcDbSymbolTableRecord
100
AcDbBlockTableRecord
  2
*Paper_Space0
340
16C
  0
BLOCK_RECORD
  5
152
330
1
100
AcDbSymbolTableRecord
100
AcDbBlockTableRecord
  2
_ArchTick
340
0
310
2800000020000000200000000100080000000000000400000000000000000000000000000000000000000000000080000080000000808000800000008000800080800000C0C0C000C0DCC000F0CAA6000020400000206000002080000020A0000020C0000020E00000400000004020000040400000406000004080000040A0
310
000040C0000040E00000600000006020000060400000606000006080000060A0000060C0000060E00000800000008020000080400000806000008080000080A0000080C0000080E00000A0000000A0200000A0400000A0600000A0800000A0A00000A0C00000A0E00000C0000000C0200000C0400000C0600000C0800000C0
310
A00000C0C00000C0E00000E0000000E0200000E0400000E0600000E0800000E0A00000E0C00000E0E00040000000400020004000400040006000400080004000A0004000C0004000E00040200000402020004020400040206000402080004020A0004020C0004020E000404000004040200040404000404060004040800040
310
40A0004040C0004040E00040600000406020004060400040606000406080004060A0004060C0004060E00040800000408020004080400040806000408080004080A0004080C0004080E00040A0000040A0200040A0400040A0600040A0800040A0A00040A0C00040A0E00040C0000040C0200040C0400040C0600040C08000
310
40C0A00040C0C00040C0E00040E0000040E0200040E0400040E0600040E0800040E0A00040E0C00040E0E00080000000800020008000400080006000800080008000A0008000C0008000E00080200000802020008020400080206000802080008020A0008020C0008020E00080400000804020008040400080406000804080
310
008040A0008040C0008040E00080600000806020008060400080606000806080008060A0008060C0008060E00080800000808020008080400080806000808080008080A0008080C0008080E00080A0000080A0200080A0400080A0600080A0800080A0A00080A0C00080A0E00080C0000080C0200080C0400080C0600080C0
310
800080C0A00080C0C00080C0E00080E0000080E0200080E0400080E0600080E0800080E0A00080E0C00080E0E000C0000000C0002000C0004000C0006000C0008000C000A000C000C000C000E000C0200000C0202000C0204000C0206000C0208000C020A000C020C000C020E000C0400000C0402000C0404000C0406000C0
310
408000C040A000C040C000C040E000C0600000C0602000C0604000C0606000C0608000C060A000C060C000C060E000C0800000C0802000C0804000C0806000C0808000C080A000C080C000C080E000C0A00000C0A02000C0A04000C0A06000C0A08000C0A0A000C0A0C000C0A0E000C0C00000C0C02000C0C04000C0C06000
310
C0C08000C0C0A000F0FBFF00A4A0A000808080000000FF0000FF000000FFFF00FF000000FF00FF00FFFF0000FFFFFF00000000FF000000000000000000000000000000000000000000000000000000000000FF00FF00000000000000000000000000000000000000000000000000000000FF000000FF000000000000000000
310
0000000000000000000000000000000000FF0000000000FF0000000000000000000000000000000000000000000000000000FF0000000000FF0000000000000000000000000000000000000000000000000000FF0000000000FF0000000000000000000000000000000000000000000000000000FF0000000000FF00000000
310
00000000000000000000000000000000000000000000FF0000000000FF0000000000000000000000000000000000000000000000000000FF0000000000FF0000000000000000000000000000000000000000000000000000FF0000000000FF0000000000000000000000000000000000000000000000000000FF0000000000
310
FF0000000000000000000000000000000000000000000000000000FF0000000000FF0000000000000000000000000000000000000000000000000000FF0000000000FF0000000000000000000000000000000000000000000000000000FF0000000000FF0000000000000000000000000000000000000000000000000000FF
310
0000000000FF0000000000000000000000000000000000000000000000000000FF0000000000FF0000000000000000000000000000000000000000000000000000FF0000000000FF0000000000000000000000000000000000000000000000000000FF0000000000FF00000000000000000000000000000000000000000000
310
00000000FF0000000000FF0000000000000000000000000000000000000000000000000000FF0000000000FF0000000000000000000000000000000000000000000000000000FF0000000000FF0000000000000000000000000000000000000000000000000000FF0000000000FF0000000000000000000000000000000000
310
000000000000000000FF0000000000FF0000000000000000000000000000000000000000000000000000FF0000000000FF0000000000000000000000000000000000000000000000000000FF0000000000FF0000000000000000000000000000000000000000000000000000FF0000000000FF000000000000000000000000
310
0000000000000000000000000000FF0000000000FF0000000000000000000000000000000000000000000000000000FF0000000000FF0000000000000000000000000000000000000000000000000000FF0000000000FF0000000000000000000000000000000000000000000000000000FF000000FF000000000000000000
310
00000000000000000000000000000000000000FF00FF000000000000000000000000000000000000000000000000000000000000FF000000
102
{BLKREFS
331
280
331
2D7
331
2D8
331
2F1
331
2F2
331
4FE
331
53F
331
5CC
331
7CE
331
8C4
331
B19
331
D6F
331
12E5
331
1324
331
14C6
102
}
  0
BLOCK_RECORD
  5
232
330
1
100
AcDbSymbolTableRecord
100
AcDbBlockTableRecord
  2
_Arrivo
340
0
310
2800000020000000200000000100080000000000000400000000000000000000000000000000000000000000000080000080000000808000800000008000800080800000C0C0C000C0DCC000F0CAA6000020400000206000002080000020A0000020C0000020E00000400000004020000040400000406000004080000040A0
310
000040C0000040E00000600000006020000060400000606000006080000060A0000060C0000060E00000800000008020000080400000806000008080000080A0000080C0000080E00000A0000000A0200000A0400000A0600000A0800000A0A00000A0C00000A0E00000C0000000C0200000C0400000C0600000C0800000C0
310
A00000C0C00000C0E00000E0000000E0200000E0400000E0600000E0800000E0A00000E0C00000E0E00040000000400020004000400040006000400080004000A0004000C0004000E00040200000402020004020400040206000402080004020A0004020C0004020E000404000004040200040404000404060004040800040
310
40A0004040C0004040E00040600000406020004060400040606000406080004060A0004060C0004060E00040800000408020004080400040806000408080004080A0004080C0004080E00040A0000040A0200040A0400040A0600040A0800040A0A00040A0C00040A0E00040C0000040C0200040C0400040C0600040C08000
310
40C0A00040C0C00040C0E00040E0000040E0200040E0400040E0600040E0800040E0A00040E0C00040E0E00080000000800020008000400080006000800080008000A0008000C0008000E00080200000802020008020400080206000802080008020A0008020C0008020E00080400000804020008040400080406000804080
310
008040A0008040C0008040E00080600000806020008060400080606000806080008060A0008060C0008060E00080800000808020008080400080806000808080008080A0008080C0008080E00080A0000080A0200080A0400080A0600080A0800080A0A00080A0C00080A0E00080C0000080C0200080C0400080C0600080C0
310
800080C0A00080C0C00080C0E00080E0000080E0200080E0400080E0600080E0800080E0A00080E0C00080E0E000C0000000C0002000C0004000C0006000C0008000C000A000C000C000C000E000C0200000C0202000C0204000C0206000C0208000C020A000C020C000C020E000C0400000C0402000C0404000C0406000C0
310
408000C040A000C040C000C040E000C0600000C0602000C0604000C0606000C0608000C060A000C060C000C060E000C0800000C0802000C0804000C0806000C0808000C080A000C080C000C080E000C0A00000C0A02000C0A04000C0A06000C0A08000C0A0A000C0A0C000C0A0E000C0C00000C0C02000C0C04000C0C06000
310
C0C08000C0C0A000F0FBFF00A4A0A000808080000000FF0000FF000000FFFF00FF000000FF00FF00FFFF0000FFFFFF00000000000000000000000000000000000000000000000000000000000000000000000000000000000000FF0000000000000000000000000000000000000000000000000000000000000000FF000000
310
00000000000000000000000000000000000000000000000000000000FF0000000000000000000000000000000000000000000000000000000000000000FF00000000000000000000000000000000000000000000000000000000000000FF0000000000000000000000000000000000000000000000000000000000000000FF
310
0000000000000000000000000000000000000000000000000000000000000000FF00000000000000000000000000000000000000000000000000000000000000FF0000000000000000000000000000000000000000000000000000000000000000FF0000000000000000000000000000000000000000000000000000000000
310
0000FF0000000000000000000000000000000000000000000000000000000000000000FF00000000000000000000000000000000000000000000000000000000000000FF0000000000000000000000000000000000000000000000000000000000000000FF0000FF0000000000000000000000000000000000000000000000
310
000000000000FFFF000000000000000000000000000000000000000000000000000000000000FFFF00000000000000000000000000000000000000000000000000000000FFFFFFFFFFFF00000000000000000000000000000000000000000000000000000000FFFF0000000000000000000000000000000000000000000000
310
000000000000FF0000FF000000000000000000000000000000000000000000000000000000FF00000000000000000000000000000000000000000000000000000000000000FF000000000000000000000000000000000000000000000000000000000000FF0000000000000000000000000000000000000000000000000000
310
0000000000FF000000000000000000000000000000000000000000000000000000000000FF00000000000000000000000000000000000000000000000000000000000000FF000000000000000000000000000000000000000000000000000000000000FF000000000000000000000000000000000000000000000000000000
310
000000FF00000000000000000000000000000000000000000000000000000000000000FF000000000000000000000000000000000000000000000000000000000000FF00000000000000000000000000000000000000000000000000000000000000FF00000000000000000000000000000000000000000000000000000000
310
0000FF0000000000000000000000000000000000000000000000000000000000000000000000000000000000000000000000000000000000
  0
BLOCK_RECORD
  5
238
330
1
100
AcDbSymbolTableRecord
100
AcDbBlockTableRecord
  2
_Partenza
340
0
310
2800000020000000200000000100080000000000000400000000000000000000000000000000000000000000000080000080000000808000800000008000800080800000C0C0C000C0DCC000F0CAA6000020400000206000002080000020A0000020C0000020E00000400000004020000040400000406000004080000040A0
310
000040C0000040E00000600000006020000060400000606000006080000060A0000060C0000060E00000800000008020000080400000806000008080000080A0000080C0000080E00000A0000000A0200000A0400000A0600000A0800000A0A00000A0C00000A0E00000C0000000C0200000C0400000C0600000C0800000C0
310
A00000C0C00000C0E00000E0000000E0200000E0400000E0600000E0800000E0A00000E0C00000E0E00040000000400020004000400040006000400080004000A0004000C0004000E00040200000402020004020400040206000402080004020A0004020C0004020E000404000004040200040404000404060004040800040
310
40A0004040C0004040E00040600000406020004060400040606000406080004060A0004060C0004060E00040800000408020004080400040806000408080004080A0004080C0004080E00040A0000040A0200040A0400040A0600040A0800040A0A00040A0C00040A0E00040C0000040C0200040C0400040C0600040C08000
310
40C0A00040C0C00040C0E00040E0000040E0200040E0400040E0600040E0800040E0A00040E0C00040E0E00080000000800020008000400080006000800080008000A0008000C0008000E00080200000802020008020400080206000802080008020A0008020C0008020E00080400000804020008040400080406000804080
310
008040A0008040C0008040E00080600000806020008060400080606000806080008060A0008060C0008060E00080800000808020008080400080806000808080008080A0008080C0008080E00080A0000080A0200080A0400080A0600080A0800080A0A00080A0C00080A0E00080C0000080C0200080C0400080C0600080C0
310
800080C0A00080C0C00080C0E00080E0000080E0200080E0400080E0600080E0800080E0A00080E0C00080E0E000C0000000C0002000C0004000C0006000C0008000C000A000C000C000C000E000C0200000C0202000C0204000C0206000C0208000C020A000C020C000C020E000C0400000C0402000C0404000C0406000C0
310
408000C040A000C040C000C040E000C0600000C0602000C0604000C0606000C0608000C060A000C060C000C060E000C0800000C0802000C0804000C0806000C0808000C080A000C080C000C080E000C0A00000C0A02000C0A04000C0A06000C0A08000C0A0A000C0A0C000C0A0E000C0C00000C0C02000C0C04000C0C06000
310
C0C08000C0C0A000F0FBFF00A4A0A000808080000000FF0000FF000000FFFF00FF000000FF00FF00FFFF0000FFFFFF0000000000000000000000000000000000000000000000000000000000000000000000000000000000000000000000000000000000000000000000000000000000000000000000000000000000000000
310
000000000000000000000000000000000000000000000000000000000000000000000000000000000000000000000000000000000000000000000000000000000000000000000000000000000000000000000000000000000000000000000000000000000000000000000000000000000000FFFFFFFFFFFFFFFFFFFFFFFFFF
310
FFFFFFFFFFFFFFFFFFFFFFFFFFFFFFFFFF0000000000000000000000000000000000000000000000000000000000000000000000000000000000000000000000000000000000000000000000000000000000000000000000000000000000000000000000000000000000000000000000000000000000000000000000000000
310
00000000000000000000000000000000000000000000000000000000000000000000000000000000000000000000000000000000000000000000000000000000000000000000000000000000000000000000000000000000000000000000000000000000000000000000000000000000000000000000000000000000000000
310
00000000000000000000000000000000000000000000000000000000000000000000000000000000000000000000000000000000000000000000000000000000000000000000000000000000000000000000000000000000000000000000000000000000000000000000000000000000000000000000000000000000000000
310
00000000000000000000000000000000000000000000000000000000000000000000000000000000000000000000000000000000000000000000000000000000000000000000000000000000000000000000000000000000000000000000000000000000000000000000000000000000000000000000000000000000000000
310
000000000000000000000000000000000000000000000000000000000000000000000000000000000000000000000000000000000000000000000000000000000000000000000000000000000000000000000000000000FFFFFFFFFFFFFFFFFFFFFFFFFFFFFFFFFFFFFFFFFFFFFFFFFFFFFFFFFFFF00000000000000000000
310
00000000000000000000000000000000000000000000000000000000000000000000000000000000000000000000000000000000000000000000000000000000000000000000000000000000000000000000000000000000000000000000000000000000000000000000000000000000000000000000000000000000000000
310
0000000000000000000000000000000000000000000000000000000000000000000000000000000000000000000000000000000000000000
  0
BLOCK_RECORD
  5
D55
330
1
100
AcDbSymbolTableRecord
100
AcDbBlockTableRecord
  2
*D13
340
0
  0
BLOCK_RECORD
  5
12CB
330
1
100
AcDbSymbolTableRecord
100
AcDbBlockTableRecord
  2
*D15
340
0
  0
BLOCK_RECORD
  5
130A
330
1
100
AcDbSymbolTableRecord
100
AcDbBlockTableRecord
  2
*D17
340
0
  0
BLOCK_RECORD
  5
14AC
330
1
100
AcDbSymbolTableRecord
100
AcDbBlockTableRecord
  2
*D20
340
0
  0
ENDTAB
  0
ENDSEC
  0
SECTION
  2
BLOCKS
  0
BLOCK
  5
5
330
2
100
AcDbEntity
  8
0
100
AcDbBlockBegin
  2
*Model_Space
 70
     0
 10
0.0
 20
0.0
 30
0.0
  3
*Model_Space
  1

  0
ENDBLK
  5
162
330
2
100
AcDbEntity
  8
0
100
AcDbBlockEnd
  0
BLOCK
  5
166
330
165
100
AcDbEntity
 67
     1
  8
0
100
AcDbBlockBegin
  2
*Paper_Space
 70
     0
 10
0.0
 20
0.0
 30
0.0
  3
*Paper_Space
  1

  0
ENDBLK
  5
167
330
165
100
AcDbEntity
 67
     1
  8
0
100
AcDbBlockEnd
  0
BLOCK
  5
16A
330
169
100
AcDbEntity
 67
     1
  8
0
100
AcDbBlockBegin
  2
*Paper_Space0
 70
     0
 10
0.0
 20
0.0
 30
0.0
  3
*Paper_Space0
  1

  0
ENDBLK
  5
16B
330
169
100
AcDbEntity
 67
     1
  8
0
100
AcDbBlockEnd
  0
BLOCK
  5
153
330
152
100
AcDbEntity
  8
0
 62
     1
100
AcDbBlockBegin
  2
_ArchTick
 70
     0
 10
0.0
 20
0.0
 30
0.0
  3
_ArchTick
  1

  0
LWPOLYLINE
  5
154
330
152
100
AcDbEntity
  8
0
  6
ByBlock
 62
     0
100
AcDbPolyline
 90
        2
 70
     0
 43
0.15
 10
-0.5
 20
-0.5
 10
0.5
 20
0.5
  0
ENDBLK
  5
155
330
152
100
AcDbEntity
  8
0
 62
     1
100
AcDbBlockEnd
  0
BLOCK
  5
233
330
232
100
AcDbEntity
  8
0
100
AcDbBlockBegin
  2
_Arrivo
 70
     0
 10
0.0
 20
0.0
 30
0.0
  3
_Arrivo
  1

  0
LINE
  5
234
330
232
100
AcDbEntity
  8
0
  6
ByBlock
 62
     0
370
    -2
100
AcDbLine
 10
0.025
 20
-0.0433012701891858
 30
0.0
 11
-0.15
 21
0.2598076211353328
 31
0.0
  0
LINE
  5
235
330
232
100
AcDbEntity
  8
0
  6
ByBlock
 62
     0
370
    -2
100
AcDbLine
 10
0.025
 20
0.0433012701892585
 30
0.0
 11
-0.15
 21
-0.2598076211353328
 31
0.0
  0
LINE
  5
236
330
232
100
AcDbEntity
  8
0
  6
ByBlock
 62
     0
370
    -2
100
AcDbLine
 10
-0.05
 20
0.0
 30
0.0
 11
0.05
 21
0.0
 31
0.0
  0
ENDBLK
  5
237
330
232
100
AcDbEntity
  8
0
100
AcDbBlockEnd
  0
BLOCK
  5
239
330
238
100
AcDbEntity
  8
0
100
AcDbBlockBegin
  2
_Partenza
 70
     0
 10
0.0
 20
0.0
 30
0.0
  3
_Partenza
  1

  0
LINE
  5
23A
330
238
100
AcDbEntity
  8
0
  6
ByBlock
 62
     0
370
    -2
100
AcDbLine
 10
-0.05
 20
0.05
 30
0.0
 11
0.1
 21
0.05
 31
0.0
  0
LINE
  5
23B
330
238
100
AcDbEntity
  8
0
  6
ByBlock
 62
     0
370
    -2
100
AcDbLine
 10
-0.05
 20
-0.05
 30
0.0
 11
0.1
 21
-0.05
 31
0.0
  0
ENDBLK
  5
23C
330
238
100
AcDbEntity
  8
0
100
AcDbBlockEnd
  0
BLOCK
  5
D5C
330
D55
100
AcDbEntity
  8
0
100
AcDbBlockBegin
  2
*D13
 70
     1
 10
0.0
 20
0.0
 30
0.0
  3
*D13
  1

  0
LINE
  5
D6C
330
D55
100
AcDbEntity
  8
Text
  6
ACAD_ISO10W100
 62
     5
370
    -2
100
AcDbLine
 10
0.258964487676054
 20
0.1923867850371209
 30
0.0
 11
0.2574644876760541
 21
0.1923867850371209
 31
0.0
  0
LINE
  5
D6D
330
D55
100
AcDbEntity
  8
Text
  6
ACAD_ISO10W100
 62
     5
370
    -2
100
AcDbLine
 10
0.2574644876760541
 20
0.1923867850371209
 30
0.0
 11
0.255040248637639
 21
0.1906195654456088
 31
0.0
  0
MTEXT
  5
D6E
330
D55
100
AcDbEntity
  8
Text
  6
ACAD_ISO10W100
 62
     4
100
AcDbMText
 10
0.2733930591046255
 20
0.1923867850371209
 30
0.0
 40
0.003
 41
0.0
 71
     5
 72
     1
  1
\A1;d 440 mm
  7
ROMANS
 73
     1
 44
1.0
1001
ACAD
1000
MTEXTBEGIN
1070
    73
1070
     1
1070
    44
1040
1.0
1070
    74
1070
     0
1000
MTEXTEND
  0
INSERT
  5
D6F
330
D55
100
AcDbEntity
  8
Text
  6
ACAD_ISO10W100
 62
     5
370
    -2
100
AcDbBlockReference
  2
_ArchTick
 10
0.255040248637639
 20
0.1906195654456088
 30
0.0
 41
0.0015
 42
0.0015
 43
0.0015
 50
216.0912670112517
  0
POINT
  5
D70
330
D55
100
AcDbEntity
  8
Defpoints
  6
ACAD_ISO10W100
 62
     0
100
AcDbPoint
 10
0.255040248637639
 20
0.1906195654456088
 30
0.0
  0
POINT
  5
D71
330
D55
100
AcDbEntity
  8
Defpoints
  6
ACAD_ISO10W100
 62
     0
100
AcDbPoint
 10
0.1661514838957505
 20
0.1258215137568335
 30
0.0
  0
ENDBLK
  5
D5D
330
D55
100
AcDbEntity
  8
0
100
AcDbBlockEnd
  0
BLOCK
  5
12D2
330
12CB
100
AcDbEntity
  8
0
100
AcDbBlockBegin
  2
*D15
 70
     1
 10
0.0
 20
0.0
 30
0.0
  3
*D15
  1

  0
LINE
  5
12E2
330
12CB
100
AcDbEntity
  8
Text
  6
ACAD_ISO10W100
 62
     5
370
    -2
100
AcDbLine
 10
0.2737352685975478
 20
0.2150776791095738
 30
0.0
 11
0.2722352685975478
 21
0.2150776791095738
 31
0.0
  0
LINE
  5
12E3
330
12CB
100
AcDbEntity
  8
Text
  6
ACAD_ISO10W100
 62
     5
370
    -2
100
AcDbLine
 10
0.2722352685975478
 20
0.2150776791095738
 30
0.0
 11
0.2699877770479046
 21
0.2130905249297774
 31
0.0
  0
MTEXT
  5
12E4
330
12CB
100
AcDbEntity
  8
Text
  6
ACAD_ISO10W100
 62
     4
100
AcDbMText
 10
0.2881638400261192
 20
0.2150776791095738
 30
0.0
 40
0.003
 41
0.0
 71
     5
 72
     1
  1
\A1;d 660 mm
  7
ROMANS
 73
     1
 44
1.0
1001
ACAD
1000
MTEXTBEGIN
1070
    73
1070
     1
1070
    44
1040
1.0
1070
    74
1070
     0
1000
MTEXTEND
  0
INSERT
  5
12E5
330
12CB
100
AcDbEntity
  8
Text
  6
ACAD_ISO10W100
 62
     5
370
    -2
100
AcDbBlockReference
  2
_ArchTick
 10
0.2699877770479046
 20
0.2130905249297774
 30
0.0
 41
0.0015
 42
0.0015
 43
0.0015
 50
221.4820001879257
  0
POINT
  5
12E6
330
12CB
100
AcDbEntity
  8
Defpoints
  6
ACAD_ISO10W100
 62
     0
100
AcDbPoint
 10
0.2699877770479046
 20
0.2130905249297774
 30
0.0
  0
POINT
  5
12E7
330
12CB
100
AcDbEntity
  8
Defpoints
  6
ACAD_ISO10W100
 62
     0
100
AcDbPoint
 10
0.1463757418175257
 20
0.1037970450409773
 30
0.0
  0
ENDBLK
  5
12D3
330
12CB
100
AcDbEntity
  8
0
100
AcDbBlockEnd
  0
BLOCK
  5
1311
330
130A
100
AcDbEntity
  8
0
100
AcDbBlockBegin
  2
*D17
 70
     1
 10
0.0
 20
0.0
 30
0.0
  3
*D17
  1

  0
LINE
  5
1321
330
130A
100
AcDbEntity
  8
Text
  6
ACAD_ISO10W100
 62
     5
370
    -2
100
AcDbLine
 10
0.2597109402773935
 20
0.2031114728173879
 30
0.0
 11
0.2582109402773935
 21
0.2031114728173879
 31
0.0
  0
LINE
  5
1322
330
130A
100
AcDbEntity
  8
Text
  6
ACAD_ISO10W100
 62
     5
370
    -2
100
AcDbLine
 10
0.2582109402773935
 20
0.2031114728173879
 30
0.0
 11
0.2558313843441044
 21
0.2012845317782876
 31
0.0
  0
MTEXT
  5
1323
330
130A
100
AcDbEntity
  8
Text
  6
ACAD_ISO10W100
 62
     4
100
AcDbMText
 10
0.274139511705965
 20
0.2031114728173879
 30
0.0
 40
0.003
 41
0.0
 71
     5
 72
     1
  1
\A1;d 470 mm
  7
ROMANS
 73
     1
 44
1.0
1001
ACAD
1000
MTEXTBEGIN
1070
    73
1070
     1
1070
    44
1040
1.0
1070
    74
1070
     0
1000
MTEXTEND
  0
INSERT
  5
1324
330
130A
100
AcDbEntity
  8
Text
  6
ACAD_ISO10W100
 62
     5
370
    -2
100
AcDbBlockReference
  2
_ArchTick
 10
0.2558313843441044
 20
0.2012845317782876
 30
0.0
 41
0.0015
 42
0.0015
 43
0.0015
 50
217.5158118311028
  0
POINT
  5
1325
330
130A
100
AcDbEntity
  8
Defpoints
  6
ACAD_ISO10W100
 62
     0
100
AcDbPoint
 10
0.2558313843441044
 20
0.2012845317782876
 30
0.0
  0
POINT
  5
1326
330
130A
100
AcDbEntity
  8
Defpoints
  6
ACAD_ISO10W100
 62
     0
100
AcDbPoint
 10
0.1626321102902807
 20
0.129729341080196
 30
0.0
  0
ENDBLK
  5
1312
330
130A
100
AcDbEntity
  8
0
100
AcDbBlockEnd
  0
BLOCK
  5
14B3
330
14AC
100
AcDbEntity
  8
0
100
AcDbBlockBegin
  2
*D20
 70
     1
 10
0.0
 20
0.0
 30
0.0
  3
*D20
  1

  0
LINE
  5
14C3
330
14AC
100
AcDbEntity
  8
Text
  6
ACAD_ISO10W100
 62
     5
370
    -2
100
AcDbLine
 10
0.2774720348740678
 20
0.2019249532412534
 30
0.0
 11
0.2759720348740679
 21
0.2019249532412534
 31
0.0
  0
LINE
  5
14C4
330
14AC
100
AcDbEntity
  8
Text
  6
ACAD_ISO10W100
 62
     5
370
    -2
100
AcDbLine
 10
0.2759720348740679
 20
0.2019249532412534
 30
0.0
 11
0.2734829517340833
 21
0.2002502995092107
 31
0.0
  0
MTEXT
  5
14C5
330
14AC
100
AcDbEntity
  8
Text
  6
ACAD_ISO10W100
 62
     4
100
AcDbMText
 10
0.2919006063026393
 20
0.2019249532412534
 30
0.0
 40
0.003
 41
0.0
 71
     5
 72
     1
  1
\A1;d 300 mm
  7
ROMANS
 73
     1
 44
1.0
1001
ACAD
1000
MTEXTBEGIN
1070
    73
1070
     1
1070
    44
1040
1.0
1070
    74
1070
     0
1000
MTEXTEND
  0
INSERT
  5
14C6
330
14AC
100
AcDbEntity
  8
Text
  6
ACAD_ISO10W100
 62
     5
370
    -2
100
AcDbBlockReference
  2
_ArchTick
 10
0.2734829517340833
 20
0.2002502995092107
 30
0.0
 41
0.0015
 42
0.0015
 43
0.0015
 50
213.9326437699674
  0
POINT
  5
14C7
330
14AC
100
AcDbEntity
  8
Defpoints
  6
ACAD_ISO10W100
 62
     0
100
AcDbPoint
 10
0.2734829517340833
 20
0.2002502995092107
 30
0.0
  0
POINT
  5
14C8
330
14AC
100
AcDbEntity
  8
Defpoints
  6
ACAD_ISO10W100
 62
     0
100
AcDbPoint
 10
0.1490287947348567
 20
0.1165176129070728
 30
0.0
  0
ENDBLK
  5
14B4
330
14AC
100
AcDbEntity
  8
0
100
AcDbBlockEnd
  0
ENDSEC
  0
SECTION
  2
ENTITIES
  0
LINE
  5
D
330
2
100
AcDbEntity
  8
Table
100
AcDbLine
 10
0.02
 20
0.02
 30
0.0
 11
0.4
 21
0.02
 31
0.0
  0
LINE
  5
10
330
2
100
AcDbEntity
  8
Table
100
AcDbLine
 10
0.4
 20
0.02
 30
0.0
 11
0.4
 21
0.2769999999999999
 31
0.0
  0
LINE
  5
11
330
2
100
AcDbEntity
  8
Table
100
AcDbLine
 10
0.4
 20
0.2769999999999999
 30
0.0
 11
0.02
 21
0.277
 31
0.0
  0
LINE
  5
12
330
2
100
AcDbEntity
  8
Table
100
AcDbLine
 10
0.02
 20
0.277
 30
0.0
 11
0.02
 21
0.02
 31
0.0
  0
LINE
  5
13
330
2
100
AcDbEntity
  8
Table
 62
     2
100
AcDbLine
 10
0.015
 20
0.015
 30
0.0
 11
0.4050000000000001
 21
0.015
 31
0.0
  0
LINE
  5
14
330
2
100
AcDbEntity
  8
Table
 62
     2
100
AcDbLine
 10
0.4050000000000001
 20
0.015
 30
0.0
 11
0.4050000000000001
 21
0.2819999999999998
 31
0.0
  0
LINE
  5
15
330
2
100
AcDbEntity
  8
Table
 62
     2
100
AcDbLine
 10
0.4050000000000001
 20
0.2819999999999998
 30
0.0
 11
0.0149999999999999
 21
0.282
 31
0.0
  0
LINE
  5
16
330
2
100
AcDbEntity
  8
Table
 62
     2
100
AcDbLine
 10
0.0149999999999999
 20
0.282
 30
0.0
 11
0.015
 21
0.015
 31
0.0
  0
LINE
  5
17
330
2
100
AcDbEntity
  8
Table
100
AcDbLine
 10
0.21
 20
0.2769999999999999
 30
0.0
 11
0.21
 21
0.2532994226089223
 31
0.0
  0
MTEXT
  5
18
102
{ACAD_XDICTIONARY
360
14CD
102
}
330
2
100
AcDbEntity
  8
Text
100
AcDbMText
 10
0.305
 20
0.0471738284815141
 30
0.0
 40
0.005
 41
0.1900000000000001
 71
     2
 72
     5
  3
{\fTimes New Roman|b0|i0|c238|p18;\H1.6x;\C4;Bovelacci\P\H0.4375x;\T0.95;via del Commercio, 5  47100 Forli - Italy  \fTimes New Roman|b0|i0|c0|p18;\P\fTimes New Roman|b0|i0|c238|p18;tel.+39-0543721386  fax +39-0543721127\fTimes New Roman|b0|i0|c0|p18
  1
; \fTimes New Roman|b0|i0|c238|p18;www.bovelacci.it\fTimes New Roman|b0|i0|c0|p18; \fTimes New Roman|b0|i0|c238|p18;e-mail: bovelacci@bovelacci\fTimes New Roman|b0|i0|c0|p18;.it}
 73
     1
 44
1.0
1001
ACAD
1000
ACAD_MTEXT_DEFINED_HEIGHT_BEGIN
1070
    46
1040
0.0271738284815141
1000
ACAD_MTEXT_DEFINED_HEIGHT_END
1000
MTEXTBEGIN
1070
    73
1070
     1
1070
    44
1040
1.0
1070
    74
1070
     0
1000
MTEXTEND
  0
MTEXT
  5
1C
330
2
100
AcDbEntity
  8
Text
100
AcDbMText
 10
0.0219676065851835
 20
0.0500313976452307
 30
0.0
 40
0.002
 41
0.1863544980601608
 71
     1
 72
     5
  3
{\fArial|b0|i0|c0|p34;\H1.25x;Le caratteristiche tecniche indicate vengono fornite a titolo indicativo e potranno essere modificate senza preavviso. Non devono quindi essere considerate a scopo di specifica.\P\fArial|b0|i1|c0|p34;The given values are
  3
 indicative and can be changed without notice. They cannot be considered like a state.\PThis lealfet and designs embodied within are protected by copyright law and international treaties. Unauthorized repro- duction of the leaflet or any portion of i
  1
t or reproduction of any of the designs embodied therein may result in severe civil penalties and will be prosecuted to the maximum.\PAll right reserved, Bovelacci Forlì Italy.}
 73
     1
 44
1.0
1001
ACAD
1000
MTEXTBEGIN
1070
    73
1070
     1
1070
    44
1040
1.0
1070
    74
1070
     0
1000
MTEXTEND
  0
LINE
  5
1D
330
2
100
AcDbEntity
  8
Table
100
AcDbLine
 10
0.02
 20
0.0528099428524846
 30
0.0
 11
0.4
 21
0.0528099428524846
 31
0.0
  0
MTEXT
  5
1E
330
2
100
AcDbEntity
  8
Text
100
AcDbMText
 10
0.1133313047219695
 20
0.2610796890771976
 30
0.0
 40
0.003
 41
0.1103605678262056
 71
     2
 72
     5
  1
{\fTimes New Roman|b0|i0|c0|p18;Rosoni\fTimes New Roman|b0|i1|c0|p18;   Ceiling centres}
 73
     1
 44
1.0
1001
ACAD
1000
ACAD_MTEXT_DEFINED_HEIGHT_BEGIN
1070
    46
1040
0.0141952763113409
1000
ACAD_MTEXT_DEFINED_HEIGHT_END
1000
MTEXTBEGIN
1070
    73
1070
     1
1070
    44
1040
1.0
1070
    74
1070
     0
1000
MTEXTEND
  0
TEXT
  5
1F
330
2
100
AcDbEntity
  8
Text
100
AcDbText
 10
0.2180556919891047
 20
0.269976982173197
 30
0.0
 40
0.003
  1
Rosone - Ceiling centre : D 300 mm
  7
ROMANS
100
AcDbText
  0
TEXT
  5
21
330
2
100
AcDbEntity
  8
Text
100
AcDbText
 10
0.2184542410678115
 20
0.2576348370183962
 30
0.0
 40
0.003
  1
File : E - M51
  7
ROMANS
100
AcDbText
  0
LINE
  5
22
330
2
100
AcDbEntity
  8
Table
100
AcDbLine
 10
0.4
 20
0.2654452889427402
 30
0.0
 11
0.02
 21
0.2654452889427403
 31
0.0
  0
LINE
  5
23
330
2
100
AcDbEntity
  8
Table
100
AcDbLine
 10
0.4
 20
0.2532994226089223
 30
0.0
 11
0.02
 21
0.2532994226089225
 31
0.0
  0
LINE
  5
24
330
2
100
AcDbEntity
  8
Table
100
AcDbLine
 10
0.21
 20
0.0528099428524846
 30
0.0
 11
0.21
 21
0.02
 31
0.0
  0
TEXT
  5
25
330
2
100
AcDbEntity
  8
Text
100
AcDbText
 10
0.0947789320547719
 20
0.2687784133392506
 30
0.0
 40
0.005
  1
EUROSTYL
  7
style1
 72
     1
 11
0.1140561490699125
 21
0.2687784133392506
 31
0.0
100
AcDbText
  0
TEXT
  5
252
330
2
100
AcDbEntity
  8
Text
  6
ACAD_ISO10W100
100
AcDbText
 10
0.2792397639470868
 20
0.0881830368767877
 30
0.0
 40
0.005
  1
scala 1 : 2
  7
style1
100
AcDbText
  0
CIRCLE
  5
13EF
102
{ACAD_REACTORS
330
14BC
102
}
330
2
100
AcDbEntity
  8
Profilo
  6
Continuous
370
     0
100
AcDbCircle
 10
0.21125587323447
 20
0.1583839562081417
 30
0.0
 40
0.075
  0
CIRCLE
  5
13F0
330
2
100
AcDbEntity
  8
Profilo
  6
Continuous
370
     0
100
AcDbCircle
 10
0.21125587323447
 20
0.1583839562081417
 30
0.0
 40
0.0508364177349554
  0
CIRCLE
  5
13F1
330
2
100
AcDbEntity
  8
Profilo
  6
Continuous
370
     0
100
AcDbCircle
 10
0.21125587323447
 20
0.1583839562081417
 30
0.0
 40
0.011213322151472
  0
CIRCLE
  5
13F2
330
2
100
AcDbEntity
  8
Profilo
  6
Continuous
370
     0
100
AcDbCircle
 10
0.21125587323447
 20
0.1583839562081417
 30
0.0
 40
0.0690757216709777
  0
LWPOLYLINE
  5
13F3
330
2
100
AcDbEntity
  8
Profilo
  6
Continuous
370
     0
100
AcDbPolyline
 90
       21
 70
   128
 43
0.0
 10
0.2022765535750528
 20
0.1692092384354451
 10
0.199960360095214
 20
0.1736464759120917
 10
0.1957140000878281
 20
0.1773120212252426
 10
0.1926257421147115
 20
0.1823280320114815
 10
0.1908885970048333
 20
0.1886945049212318
 10
0.1912746292514731
 20
0.1952539000344622
 10
0.1932047904846703
 20
0.2008486807807168
 10
0.1964860698754576
 20
0.2058646915669558
 10
0.197837182738696
 20
0.2060576137704358
 10
0.2001533762185348
 20
0.2058646915669558
 10
0.2036276664382912
 20
0.204128378337332
 10
0.2072949780757165
 20
0.2010416029841968
 10
0.2101902199255141
 20
0.1975689832241016
 10
0.2123133972820321
 20
0.191974202477847
 10
0.2126994295286719
 20
0.1883086571646961
 10
0.2121203811587131
 20
0.1836784941349929
 10
0.2107692682954747
 20
0.179820026618362
 10
0.2098041876788743
 20
0.1778907911852583
 10
0.2099972038021951
 20
0.1751898635886597
 10
0.2105762521721539
 20
0.1738393981155717
 10
0.2113483166654335
 20
0.1719101660320446
  0
LWPOLYLINE
  5
13F4
330
2
100
AcDbEntity
  8
Profilo
  6
Continuous
370
     0
100
AcDbPolyline
 90
        6
 70
   128
 43
0.0
 10
0.2069089458290767
 20
0.1711384705189723
 10
0.2030486180683306
 20
0.1842572640950095
 10
0.201890521328413
 20
0.190430814801279
 10
0.2003463923418538
 20
0.1952539000344622
 10
0.1995743278485742
 20
0.1977619054275816
 10
0.1991882956019362
 20
0.2012345285372534
  0
LWPOLYLINE
  5
13F5
330
2
100
AcDbEntity
  8
Profilo
  6
Continuous
370
     0
100
AcDbPolyline
 90
        2
 70
   128
 43
0.0
 10
0.2005394084651746
 20
0.1908166625578156
 10
0.1943628872245897
 20
0.1962185177510136
  0
LWPOLYLINE
  5
13F6
330
2
100
AcDbEntity
  8
Profilo
  6
Continuous
370
     0
100
AcDbPolyline
 90
        2
 70
   128
 43
0.0
 10
0.202083537451732
 20
0.1927458979909194
 10
0.2057508490891591
 20
0.1993052931041488
  0
LWPOLYLINE
  5
13F7
330
2
100
AcDbEntity
  8
Profilo
  6
Continuous
370
     0
100
AcDbPolyline
 90
        2
 70
   128
 43
0.0
 10
0.2038206825616102
 20
0.186572347284649
 10
0.2092251393089155
 20
0.193324667950935
  0
LWPOLYLINE
  5
13F8
330
2
100
AcDbEntity
  8
Profilo
  6
Continuous
370
     0
100
AcDbPolyline
 90
        3
 70
   128
 43
0.0
 10
0.2057508490891591
 20
0.1778907911852583
 10
0.2078740264456771
 20
0.1829068019714972
 10
0.2105762521721539
 20
0.1859935773246333
  0
LWPOLYLINE
  5
13F9
330
2
100
AcDbEntity
  8
Profilo
  6
Continuous
370
     0
100
AcDbPolyline
 90
        2
 70
   128
 43
0.0
 10
0.2011184568351334
 20
0.1842572640950095
 10
0.1932047904846703
 20
0.1885015793681761
  0
LWPOLYLINE
  5
13FA
330
2
100
AcDbEntity
  8
Profilo
  6
Continuous
370
     0
100
AcDbPolyline
 90
        2
 70
   128
 43
0.0
 10
0.2032416341916514
 20
0.1765403290617469
 10
0.1968721021220974
 20
0.1800129488218421
  0
LWPOLYLINE
  5
13FB
330
2
100
AcDbEntity
  8
Profilo
  6
Continuous
370
     0
100
AcDbPolyline
 90
       14
 70
   128
 43
0.0
 10
0.2138575315629412
 20
0.1925529724378627
 10
0.2125064134053511
 20
0.1989194453476131
 10
0.2101902199255141
 20
0.2033566861738363
 10
0.2130854617753117
 20
0.2064434615269715
 10
0.2148226121795398
 20
0.2074080758939472
 10
0.216752773412737
 20
0.2077939236504829
 10
0.218682934645936
 20
0.2070222314869881
 10
0.2200340475091744
 20
0.20547884381042
 10
0.2200340475091744
 20
0.203935456133852
 10
0.2211921442490938
 20
0.2021991462538049
 10
0.2221572248656924
 20
0.2004628330241811
 10
0.2217711926190526
 20
0.1981477531841174
 10
0.2179108701526564
 20
0.1962185177510136
 10
0.2150156283028588
 20
0.1927458979909194
  0
LWPOLYLINE
  5
13FC
330
2
100
AcDbEntity
  8
Profilo
  6
Continuous
370
     0
100
AcDbPolyline
 90
        2
 70
   128
 43
0.0
 10
0.2146295960562208
 20
0.1950609778309822
 10
0.2161737250427782
 20
0.2035496083773163
  0
LWPOLYLINE
  5
13FD
330
2
100
AcDbEntity
  8
Profilo
  6
Continuous
370
     0
100
AcDbPolyline
 90
        5
 70
   128
 43
0.0
 10
0.20420671480825
 20
0.2049000738504043
 10
0.2059438652124781
 20
0.2070222314869881
 10
0.2076810103223563
 20
0.2074080758939472
 10
0.2094181554322363
 20
0.2070222314869881
 10
0.2103832360488349
 20
0.2058646915669558
  0
LWPOLYLINE
  5
13FE
330
2
100
AcDbEntity
  8
Profilo
  6
Continuous
370
     0
100
AcDbPolyline
 90
        6
 70
   128
 43
0.0
 10
0.2208061120024523
 20
0.203935456133852
 10
0.2229292946533219
 20
0.2052859182573634
 10
0.2252454881331589
 20
0.2056717660138992
 10
0.2262105687497575
 20
0.2049000738504043
 10
0.2275616816129977
 20
0.2031637606207806
 10
0.2275616816129977
 20
0.2020062207007482
  0
LWPOLYLINE
  5
13FF
330
2
100
AcDbEntity
  8
Profilo
  6
Continuous
370
     0
100
AcDbPolyline
 90
       21
 70
   128
 43
0.0
 10
0.1972519049416688
 20
0.1596892488577106
 10
0.1924765081160631
 20
0.1611890534510492
 10
0.1868819462118063
 20
0.1607783554421429
 10
0.1811513628155081
 20
0.1621414825287531
 10
0.1754212395616834
 20
0.1654149116083783
 10
0.171056012815991
 20
0.1703260703927798
 10
0.1684647355078406
 20
0.1756470078944865
 10
0.1672380951745795
 20
0.1815140780441346
 10
0.1680570596440019
 20
0.1826058757102009
 10
0.169831272358457
 20
0.1841072552280121
 10
0.1735157253915878
 20
0.1853361905432811
 10
0.1782915861033372
 20
0.185746691686628
 10
0.1827943442293494
 20
0.1853384238509488
 10
0.1882517647407331
 20
0.1828836295524763
 10
0.1911166627077643
 20
0.180564663624156
 10
0.1939812333550348
 20
0.1768811949188205
 10
0.1957542008332877
 20
0.173197465305079
 10
0.1964359612421509
 20
0.1711508747994364
 10
0.1984822884708786
 20
0.1693775135900646
 10
0.1998466607936899
 20
0.16883203932532
 10
0.2017567659211457
 20
0.1680137982752861
  0
LWPOLYLINE
  5
1400
330
2
100
AcDbEntity
  8
Profilo
  6
Continuous
370
     0
100
AcDbPolyline
 90
        6
 70
   128
 43
0.0
 10
0.1991633278288622
 20
0.164329017922392
 10
0.1871572759930329
 20
0.1708757418837683
 10
0.1819730183665635
 20
0.174422203394105
 10
0.1774707180145176
 20
0.1767407755913064
 10
0.1751513583550777
 20
0.1779682711733228
 10
0.1724228769863698
 20
0.1801508205033216
  0
LWPOLYLINE
  5
1401
330
2
100
AcDbEntity
  8
Profilo
  6
Continuous
370
     0
100
AcDbPolyline
 90
        2
 70
   128
 43
0.0
 10
0.1807448017336677
 20
0.1737396578915123
 10
0.1725576532422091
 20
0.1731918862762507
  0
LWPOLYLINE
  5
1402
330
2
100
AcDbEntity
  8
Profilo
  6
Continuous
370
     0
100
AcDbPolyline
 90
        2
 70
   128
 43
0.0
 10
0.1804724903538366
 20
0.1761956974261878
 10
0.1784274785163378
 20
0.1834270711187829
  0
LWPOLYLINE
  5
1403
330
2
100
AcDbEntity
  8
Profilo
  6
Continuous
370
     0
100
AcDbPolyline
 90
        2
 70
   128
 43
0.0
 10
0.1860661970093398
 20
0.173058684944885
 10
0.1851131132921102
 20
0.1816548246914102
  0
LWPOLYLINE
  5
1404
330
2
100
AcDbEntity
  8
Profilo
  6
Continuous
370
     0
100
AcDbPolyline
 90
        3
 70
   128
 43
0.0
 10
0.1935698180389176
 20
0.168284731596203
 10
0.1915242759039186
 20
0.1733328999441133
 10
0.1912523582552064
 20
0.1774263418638036
  0
LWPOLYLINE
  5
1405
330
2
100
AcDbEntity
  8
Profilo
  6
Continuous
370
     0
100
AcDbPolyline
 90
        2
 70
   128
 43
0.0
 10
0.1857924458962552
 20
0.1695109117869906
 10
0.1771954546446457
 20
0.1669162887576805
  0
LWPOLYLINE
  5
1406
330
2
100
AcDbEntity
  8
Profilo
  6
Continuous
370
     0
100
AcDbPolyline
 90
        2
 70
   128
 43
0.0
 10
0.1927504560947062
 20
0.1655555278014509
 10
0.1857910037944945
 20
0.1635071014629297
  0
LWPOLYLINE
  5
1407
330
2
100
AcDbEntity
  8
Profilo
  6
Continuous
370
     0
100
AcDbPolyline
 90
       14
 70
   128
 43
0.0
 10
0.1889343803983516
 20
0.1843847495370437
 10
0.1834772194202125
 20
0.1879311408923528
 10
0.1787018202260997
 20
0.1894309478541994
 10
0.1785663855870636
 20
0.1936608727835676
 10
0.1791126510577152
 20
0.1955713089744569
 10
0.1802046455893427
 20
0.1972089746363865
 10
0.1821151444479154
 20
0.1980281359713692
 10
0.1841618654077619
 20
0.1978921771470121
 10
0.1852532052998628
 20
0.1968008372549113
 10
0.1872998598483511
 20
0.1963919788225548
 10
0.1892100337556703
 20
0.1958466350120141
 10
0.1905740763902122
 20
0.1939366603387605
 10
0.1892085916539097
 20
0.1898428246879522
 10
0.1896168594895888
 20
0.18534006656194
  0
LWPOLYLINE
  5
1408
330
2
100
AcDbEntity
  8
Profilo
  6
Continuous
370
     0
100
AcDbPolyline
 90
        2
 70
   128
 43
0.0
 10
0.187706884816337
 20
0.1867041091964819
 10
0.1827963806714594
 20
0.1937983414962039
  0
LWPOLYLINE
  5
1409
330
2
100
AcDbEntity
  8
Profilo
  6
Continuous
370
     0
100
AcDbPolyline
 90
        5
 70
   128
 43
0.0
 10
0.1733795032903158
 20
0.186291310702618
 10
0.1731072620655114
 20
0.1890202535889651
 10
0.1740627759559681
 20
0.1905214338727088
 10
0.1755639562397127
 20
0.1914769477631646
 10
0.1770648756150495
 20
0.1913408584846046
  0
LWPOLYLINE
  5
140A
330
2
100
AcDbEntity
  8
Profilo
  6
Continuous
370
     0
100
AcDbPolyline
 90
        6
 70
   128
 43
0.0
 10
0.1857991373385728
 20
0.1973467692936221
 10
0.1863455332634283
 20
0.1998030070690202
 10
0.1877104938144098
 20
0.2017136387503049
 10
0.1889385776245946
 20
0.2018503850368969
 10
0.1911217175512716
 20
0.2015780072457112
 10
0.1919402218782187
 20
0.2007595029187632
  0
LWPOLYLINE
  5
140B
330
2
100
AcDbEntity
  8
Profilo
  6
Continuous
370
     0
100
AcDbPolyline
 90
       21
 70
   128
 43
0.0
 10
0.2004305910071649
 20
0.1494046365487245
 10
0.1959933535305192
 20
0.1470884430688866
 10
0.1923278082173683
 20
0.1428420830615016
 10
0.1873117974311293
 20
0.1397538250883841
 10
0.180945324521379
 20
0.1380166799785059
 10
0.1743859294081487
 20
0.1384027122251448
 10
0.1687911486618931
 20
0.1403328734583429
 10
0.1637751378756542
 20
0.1436141528491302
 10
0.1635822156721742
 20
0.1449652657123694
 10
0.1637751378756542
 20
0.1472814591922065
 10
0.1655114511052789
 20
0.1507557494119629
 10
0.1685982264584132
 20
0.1544230610493891
 10
0.1720708462185092
 20
0.1573183028991867
 10
0.177665626964763
 20
0.1594414802557047
 10
0.1813311722779138
 20
0.1598275125023436
 10
0.1859613353076179
 20
0.1592484641323848
 10
0.1898198028242488
 20
0.1578973512691464
 10
0.1917490382573517
 20
0.1569322706525469
 10
0.1944499658539511
 20
0.1571252867758668
 10
0.1958004313270392
 20
0.1577043351458265
 10
0.1977296634105654
 20
0.1584763996391052
  0
LWPOLYLINE
  5
140C
330
2
100
AcDbEntity
  8
Profilo
  6
Continuous
370
     0
100
AcDbPolyline
 90
        6
 70
   128
 43
0.0
 10
0.1985013589236386
 20
0.1540370288027493
 10
0.1853825653476013
 20
0.1501767010420032
 10
0.179209014641331
 20
0.1490186043020847
 10
0.1743859294081487
 20
0.1474744753155264
 10
0.1718779240150292
 20
0.1467024108222468
 10
0.1684053009053565
 20
0.1463163785756079
  0
LWPOLYLINE
  5
140D
330
2
100
AcDbEntity
  8
Profilo
  6
Continuous
370
     0
100
AcDbPolyline
 90
        2
 70
   128
 43
0.0
 10
0.1788231668847944
 20
0.1476674914388463
 10
0.1734213116915972
 20
0.1414909701982614
  0
LWPOLYLINE
  5
140E
330
2
100
AcDbEntity
  8
Profilo
  6
Continuous
370
     0
100
AcDbPolyline
 90
        2
 70
   128
 43
0.0
 10
0.1768939314516915
 20
0.1492116204254046
 10
0.1703345363384612
 20
0.1528789320628308
  0
LWPOLYLINE
  5
140F
330
2
100
AcDbEntity
  8
Profilo
  6
Continuous
370
     0
100
AcDbPolyline
 90
        2
 70
   128
 43
0.0
 10
0.1830674821579619
 20
0.1509487655352828
 10
0.1763151614916749
 20
0.1563532222825881
  0
LWPOLYLINE
  5
1410
330
2
100
AcDbEntity
  8
Profilo
  6
Continuous
370
     0
100
AcDbPolyline
 90
        3
 70
   128
 43
0.0
 10
0.1917490382573517
 20
0.1528789320628308
 10
0.1867330274711127
 20
0.1550021094193497
 10
0.1836462521179767
 20
0.1577043351458265
  0
LWPOLYLINE
  5
1411
330
2
100
AcDbEntity
  8
Profilo
  6
Continuous
370
     0
100
AcDbPolyline
 90
        2
 70
   128
 43
0.0
 10
0.1853825653476013
 20
0.1482465398088051
 10
0.1811382500744356
 20
0.1403328734583429
  0
LWPOLYLINE
  5
1412
330
2
100
AcDbEntity
  8
Profilo
  6
Continuous
370
     0
100
AcDbPolyline
 90
        2
 70
   128
 43
0.0
 10
0.1930995003808631
 20
0.1503697171653231
 10
0.1896268806207688
 20
0.1440001850957691
  0
LWPOLYLINE
  5
1413
330
2
100
AcDbEntity
  8
Profilo
  6
Continuous
370
     0
100
AcDbPolyline
 90
       14
 70
   128
 43
0.0
 10
0.1770868570047481
 20
0.1609856145366129
 10
0.1707203840949978
 20
0.1596344963790237
 10
0.1662831432687737
 20
0.1573183028991867
 10
0.1631963679156394
 20
0.1602135447489834
 10
0.1622317535486628
 20
0.1619506951532115
 10
0.161845905792128
 20
0.1638808563864096
 10
0.1626175979556228
 20
0.1658110176196077
 10
0.1641609856321908
 20
0.167162130482847
 10
0.1657043733087589
 20
0.167162130482847
 10
0.1674406831888051
 20
0.1683202272227655
 10
0.1691769964184298
 20
0.169285307839365
 10
0.1714920762584926
 20
0.1688992755927252
 10
0.1734213116915972
 20
0.1650389531263281
 10
0.1768939314516915
 20
0.1621437112765314
  0
LWPOLYLINE
  5
1414
330
2
100
AcDbEntity
  8
Profilo
  6
Continuous
370
     0
100
AcDbPolyline
 90
        2
 70
   128
 43
0.0
 10
0.1745788516116287
 20
0.1617576790298925
 10
0.1660902210652937
 20
0.1633018080164508
  0
LWPOLYLINE
  5
1415
330
2
100
AcDbEntity
  8
Profilo
  6
Continuous
370
     0
100
AcDbPolyline
 90
        5
 70
   128
 43
0.0
 10
0.1647397555922057
 20
0.1513347977819217
 10
0.1626175979556228
 20
0.1530719481861507
 10
0.1622317535486628
 20
0.1548090932960289
 10
0.1626175979556228
 20
0.156546238405908
 10
0.1637751378756542
 20
0.1575113190225066
  0
LWPOLYLINE
  5
1416
330
2
100
AcDbEntity
  8
Profilo
  6
Continuous
370
     0
100
AcDbPolyline
 90
        6
 70
   128
 43
0.0
 10
0.1657043733087589
 20
0.1679341949761257
 10
0.1643539111852474
 20
0.1700573776269945
 10
0.1639680634287108
 20
0.1723735711068315
 10
0.1647397555922057
 20
0.1733386517234301
 10
0.1664760688218303
 20
0.1746897645866694
 10
0.1676336087418617
 20
0.1746897645866694
  0
LWPOLYLINE
  5
1417
330
2
100
AcDbEntity
  8
Profilo
  6
Continuous
370
     0
100
AcDbPolyline
 90
       21
 70
   128
 43
0.0
 10
0.2099505805848993
 20
0.1443799879153413
 10
0.2084507759915608
 20
0.1396045910897357
 10
0.2088614740004671
 20
0.1340100291854789
 10
0.2074983469138578
 20
0.1282794457891798
 10
0.2042249178342326
 20
0.1225493225353551
 10
0.1993137590498302
 20
0.1181840957896627
 10
0.1939928215481243
 20
0.1155928184815123
 10
0.1881257513984762
 20
0.1143661781482517
 10
0.187033953732409
 20
0.1151851426176735
 10
0.1855325742145988
 20
0.1169593553321286
 10
0.1843036388993289
 20
0.1206438083652594
 10
0.1838931377559829
 20
0.1254196690770097
 10
0.1843014055916621
 20
0.1299224272030219
 10
0.1867561998901346
 20
0.1353798477144057
 10
0.1890751658184539
 20
0.1382447456814368
 10
0.1927586345237904
 20
0.1411093163287065
 10
0.1964423641375328
 20
0.1428822838069594
 10
0.1984889546431736
 20
0.1435640442158235
 10
0.2002623158525454
 20
0.1456103714445502
 10
0.2008077901172909
 20
0.1469747437673625
 10
0.2016260311673248
 20
0.1488848488948182
  0
LWPOLYLINE
  5
1418
330
2
100
AcDbEntity
  8
Profilo
  6
Continuous
370
     0
100
AcDbPolyline
 90
        6
 70
   128
 43
0.0
 10
0.205310811520218
 20
0.1462914108025339
 10
0.1987640875588417
 20
0.1342853589667055
 10
0.1952176260485059
 20
0.1291011013402361
 10
0.1928990538513036
 20
0.1245988009881893
 10
0.1916715582692889
 20
0.1222794413287507
 10
0.1894890089392893
 20
0.1195509599600419
  0
LWPOLYLINE
  5
1419
330
2
100
AcDbEntity
  8
Profilo
  6
Continuous
370
     0
100
AcDbPolyline
 90
        2
 70
   128
 43
0.0
 10
0.1959001715510977
 20
0.1278728847073394
 10
0.1964479431663593
 20
0.1196857362158807
  0
LWPOLYLINE
  5
141A
330
2
100
AcDbEntity
  8
Profilo
  6
Continuous
370
     0
100
AcDbPolyline
 90
        2
 70
   128
 43
0.0
 10
0.1934441320164231
 20
0.1276005733275083
 10
0.1862127583238271
 20
0.1255555614900103
  0
LWPOLYLINE
  5
141B
330
2
100
AcDbEntity
  8
Profilo
  6
Continuous
370
     0
100
AcDbPolyline
 90
        2
 70
   128
 43
0.0
 10
0.196581144497725
 20
0.1331942799830115
 10
0.1879850047512006
 20
0.1322411962657828
  0
LWPOLYLINE
  5
141C
330
2
100
AcDbEntity
  8
Profilo
  6
Continuous
370
     0
100
AcDbPolyline
 90
        3
 70
   128
 43
0.0
 10
0.2013550978464069
 20
0.1406979010125902
 10
0.1963069294984967
 20
0.1386523588775921
 10
0.1922134875788073
 20
0.1383804412288789
  0
LWPOLYLINE
  5
141D
330
2
100
AcDbEntity
  8
Profilo
  6
Continuous
370
     0
100
AcDbPolyline
 90
        2
 70
   128
 43
0.0
 10
0.2001289176556211
 20
0.1329205288699269
 10
0.2027235406849295
 20
0.1243235376183183
  0
LWPOLYLINE
  5
141E
330
2
100
AcDbEntity
  8
Profilo
  6
Continuous
370
     0
100
AcDbPolyline
 90
        2
 70
   128
 43
0.0
 10
0.2040843016411609
 20
0.1398785390683788
 10
0.2061327279796812
 20
0.1329190867681662
  0
LWPOLYLINE
  5
141F
330
2
100
AcDbEntity
  8
Profilo
  6
Continuous
370
     0
100
AcDbPolyline
 90
       14
 70
   128
 43
0.0
 10
0.1852550799055672
 20
0.1360624633720242
 10
0.1817086885502581
 20
0.1306053023938842
 10
0.1802088815884106
 20
0.1258299031997714
 10
0.1759789566590433
 20
0.1256944685607362
 10
0.1740685204681531
 20
0.1262407340313878
 10
0.1724308548062234
 20
0.1273327285630144
 10
0.1716116934712426
 20
0.129243227421588
 10
0.1717476522955978
 20
0.1312899483814336
 10
0.1728389921876987
 20
0.1323812882735345
 10
0.1732478506200552
 20
0.1344279428220236
 10
0.1737931944305968
 20
0.1363381167293438
 10
0.1757031691038504
 20
0.1377021593638847
 10
0.1797970047546586
 20
0.1363366746275822
 10
0.1842997628806708
 20
0.1367449424632605
  0
LWPOLYLINE
  5
1420
330
2
100
AcDbEntity
  8
Profilo
  6
Continuous
370
     0
100
AcDbPolyline
 90
        2
 70
   128
 43
0.0
 10
0.182935720246129
 20
0.1348349677900087
 10
0.1758414879464061
 20
0.1299244636451311
  0
LWPOLYLINE
  5
1421
330
2
100
AcDbEntity
  8
Profilo
  6
Continuous
370
     0
100
AcDbPolyline
 90
        5
 70
   128
 43
0.0
 10
0.1833485187399928
 20
0.1205075862639879
 10
0.1806195758536466
 20
0.1202353450391844
 10
0.1791183955699021
 20
0.1211908589296402
 10
0.1781628816794454
 20
0.1226920392133843
 10
0.1782989709580063
 20
0.124192958588722
  0
LWPOLYLINE
  5
1422
330
2
100
AcDbEntity
  8
Profilo
  6
Continuous
370
     0
100
AcDbPolyline
 90
        6
 70
   128
 43
0.0
 10
0.1722930601489887
 20
0.1329272203122453
 10
0.1698368223735907
 20
0.1334736162371017
 10
0.1679261906923051
 20
0.1348385767880824
 10
0.167789444405714
 20
0.1360666605982672
 10
0.1680618221968997
 20
0.1382498005249433
 10
0.1688803265238468
 20
0.1390683048518913
  0
LWPOLYLINE
  5
1423
330
2
100
AcDbEntity
  8
Profilo
  6
Continuous
370
     0
100
AcDbPolyline
 90
       21
 70
   128
 43
0.0
 10
0.2202351928938855
 20
0.1475586739808374
 10
0.2225513863737243
 20
0.1431214365041908
 10
0.2267977463811102
 20
0.13945589119104
 10
0.2298860043542268
 20
0.134439880404801
 10
0.231623149464105
 20
0.1280734074950507
 10
0.2312371172174652
 20
0.1215140123818204
 10
0.229306955984268
 20
0.1159192316355657
 10
0.2260256765934807
 20
0.1109032208493272
 10
0.2246745637302423
 20
0.1107102986458472
 10
0.2223583702504053
 20
0.1109032208493272
 10
0.2188840800306471
 20
0.1126395340789505
 10
0.2152167683932218
 20
0.1157263094320857
 10
0.2123215265434242
 20
0.1191989291921809
 10
0.2101983491869062
 20
0.1247937099384355
 10
0.2098123169402664
 20
0.1284592552515864
 10
0.2103913653102252
 20
0.1330894182812896
 10
0.2117424781734636
 20
0.1369478857979205
 10
0.212707558790064
 20
0.1388771212310242
 10
0.212514542666745
 20
0.1415780488276237
 10
0.2119354942967844
 20
0.1429285143007117
 10
0.2111634298035048
 20
0.144857746384238
  0
LWPOLYLINE
  5
1424
330
2
100
AcDbEntity
  8
Profilo
  6
Continuous
370
     0
100
AcDbPolyline
 90
        6
 70
   128
 43
0.0
 10
0.2156028006398616
 20
0.1456294418973112
 10
0.2194631284006077
 20
0.1325106483212739
 10
0.2206212251405253
 20
0.1263370976150036
 10
0.2221653541270845
 20
0.1215140123818204
 10
0.2229374186203641
 20
0.1190060069887009
 10
0.2233234508670039
 20
0.1155333838790296
  0
LWPOLYLINE
  5
1425
330
2
100
AcDbEntity
  8
Profilo
  6
Continuous
370
     0
100
AcDbPolyline
 90
        2
 70
   128
 43
0.0
 10
0.2219723380037637
 20
0.1259512498584669
 10
0.2281488592443486
 20
0.1205493946652689
  0
LWPOLYLINE
  5
1426
330
2
100
AcDbEntity
  8
Profilo
  6
Continuous
370
     0
100
AcDbPolyline
 90
        2
 70
   128
 43
0.0
 10
0.2204282090172063
 20
0.1240220144253632
 10
0.2167608973797792
 20
0.1174626193121337
  0
LWPOLYLINE
  5
1427
330
2
100
AcDbEntity
  8
Profilo
  6
Continuous
370
     0
100
AcDbPolyline
 90
        2
 70
   128
 43
0.0
 10
0.2186910639073281
 20
0.1301955651316335
 10
0.2132866071600228
 20
0.1234432444653479
  0
LWPOLYLINE
  5
1428
330
2
100
AcDbEntity
  8
Profilo
  6
Continuous
370
     0
100
AcDbPolyline
 90
        3
 70
   128
 43
0.0
 10
0.2167608973797792
 20
0.1388771212310242
 10
0.2146377200232612
 20
0.1338611104447853
 10
0.2119354942967844
 20
0.1307743350916501
  0
LWPOLYLINE
  5
1429
330
2
100
AcDbEntity
  8
Profilo
  6
Continuous
370
     0
100
AcDbPolyline
 90
        2
 70
   128
 43
0.0
 10
0.2213932896338067
 20
0.1325106483212739
 10
0.229306955984268
 20
0.1282663330481073
  0
LWPOLYLINE
  5
142A
330
2
100
AcDbEntity
  8
Profilo
  6
Continuous
370
     0
100
AcDbPolyline
 90
        2
 70
   128
 43
0.0
 10
0.2192701122772869
 20
0.1402275833545357
 10
0.2256396443468409
 20
0.1367549635944405
  0
LWPOLYLINE
  5
142B
330
2
100
AcDbEntity
  8
Profilo
  6
Continuous
370
     0
100
AcDbPolyline
 90
       14
 70
   128
 43
0.0
 10
0.2086542149059971
 20
0.1242149399784198
 10
0.2100053330635871
 20
0.1178484670686695
 10
0.2123215265434242
 20
0.1134112262424467
 10
0.2094262846936266
 20
0.1103244508893115
 10
0.2076891342893985
 20
0.1093598365223354
 10
0.2057589730562013
 20
0.1089739887657997
 10
0.2038288118230023
 20
0.1097456809292949
 10
0.2024776989597639
 20
0.111289068605863
 10
0.2024776989597639
 20
0.1128324562824305
 10
0.2013196022198462
 20
0.1145687661624781
 10
0.2003545216032458
 20
0.1163050793921014
 10
0.2007405538498856
 20
0.1186201592321652
 10
0.2046008763162819
 20
0.1205493946652689
 10
0.2074961181660795
 20
0.1240220144253632
  0
LWPOLYLINE
  5
142C
330
2
100
AcDbEntity
  8
Profilo
  6
Continuous
370
     0
100
AcDbPolyline
 90
        2
 70
   128
 43
0.0
 10
0.2078821504127175
 20
0.1217069345853003
 10
0.2063380214261601
 20
0.1132183040389663
  0
LWPOLYLINE
  5
142D
330
2
100
AcDbEntity
  8
Profilo
  6
Continuous
370
     0
100
AcDbPolyline
 90
        5
 70
   128
 43
0.0
 10
0.2183050316606883
 20
0.1118678385658787
 10
0.2165678812564602
 20
0.1097456809292949
 10
0.214830736146582
 20
0.1093598365223354
 10
0.2130935910367038
 20
0.1097456809292949
 10
0.2121285104201034
 20
0.1109032208493272
  0
LWPOLYLINE
  5
142E
330
2
100
AcDbEntity
  8
Profilo
  6
Continuous
370
     0
100
AcDbPolyline
 90
        6
 70
   128
 43
0.0
 10
0.201705634466486
 20
0.1128324562824305
 10
0.1995824518156164
 20
0.1114819941589191
 10
0.1972662583357794
 20
0.1110961464023834
 10
0.1963011777191807
 20
0.1118678385658787
 10
0.1949500648559406
 20
0.1136041517955029
 10
0.1949500648559406
 20
0.1147616917155343
  0
LWPOLYLINE
  5
142F
330
2
100
AcDbEntity
  8
Profilo
  6
Continuous
370
     0
100
AcDbPolyline
 90
       21
 70
   128
 43
0.0
 10
0.2252598415272695
 20
0.1570786635585719
 10
0.2300352383528752
 20
0.1555788589652334
 10
0.235629800257132
 20
0.1559895569741396
 10
0.2413603836534301
 20
0.1546264298875295
 10
0.2470905069072549
 20
0.1513530008079051
 10
0.2514557336529473
 20
0.1464418420235027
 10
0.2540470109610977
 20
0.141120904521796
 10
0.2552736512943587
 20
0.1352538343721488
 10
0.2544546868249364
 20
0.1341620367060816
 10
0.2526804741104813
 20
0.1326606571882714
 10
0.2489960210773505
 20
0.1314317218730014
 10
0.2442201603656011
 20
0.1310212207296546
 10
0.2397174022395889
 20
0.1314294885653338
 10
0.2342599817282052
 20
0.1338842828638063
 10
0.231395083761174
 20
0.1362032487921274
 10
0.2285305131139053
 20
0.1398867174974621
 10
0.2267575456356505
 20
0.1435704471112045
 10
0.2260757852267874
 20
0.1456170376168462
 10
0.2240294579980597
 20
0.147390398826218
 10
0.2226650856752483
 20
0.1479358730909634
 10
0.2207549805477926
 20
0.1487541141409974
  0
LWPOLYLINE
  5
1430
330
2
100
AcDbEntity
  8
Profilo
  6
Continuous
370
     0
100
AcDbPolyline
 90
        6
 70
   128
 43
0.0
 10
0.223348418640076
 20
0.1524388944938906
 10
0.2353544704759054
 20
0.1458921705325142
 10
0.2405387281023747
 20
0.1423457090221785
 10
0.2450410284544207
 20
0.1400271368249761
 10
0.2473603881138606
 20
0.1387996412429606
 10
0.2500888694825685
 20
0.1366170919129619
  0
LWPOLYLINE
  5
1431
330
2
100
AcDbEntity
  8
Profilo
  6
Continuous
370
     0
100
AcDbPolyline
 90
        2
 70
   128
 43
0.0
 10
0.2417669447352706
 20
0.1430282545247703
 10
0.2499540932267292
 20
0.1435760261400318
  0
LWPOLYLINE
  5
1432
330
2
100
AcDbEntity
  8
Profilo
  6
Continuous
370
     0
100
AcDbPolyline
 90
        2
 70
   128
 43
0.0
 10
0.2420392561151017
 20
0.1405722149900948
 10
0.2440842679526005
 20
0.1333408412974997
  0
LWPOLYLINE
  5
1433
330
2
100
AcDbEntity
  8
Profilo
  6
Continuous
370
     0
100
AcDbPolyline
 90
        2
 70
   128
 43
0.0
 10
0.2364455494595985
 20
0.1437092274713976
 10
0.2373986331768281
 20
0.1351130877248723
  0
LWPOLYLINE
  5
1434
330
2
100
AcDbEntity
  8
Profilo
  6
Continuous
370
     0
100
AcDbPolyline
 90
        3
 70
   128
 43
0.0
 10
0.2289419284300207
 20
0.1484831808200795
 10
0.2309874705650197
 20
0.1434350124721693
 10
0.2312593882137319
 20
0.139341570552479
  0
LWPOLYLINE
  5
1435
330
2
100
AcDbEntity
  8
Profilo
  6
Continuous
370
     0
100
AcDbPolyline
 90
        2
 70
   128
 43
0.0
 10
0.2367193005726831
 20
0.1472570006292928
 10
0.2453162918242926
 20
0.149851623658602
  0
LWPOLYLINE
  5
1436
330
2
100
AcDbEntity
  8
Profilo
  6
Continuous
370
     0
100
AcDbPolyline
 90
        2
 70
   128
 43
0.0
 10
0.2297612903742321
 20
0.1512123846148325
 10
0.2367207426744438
 20
0.1532608109533529
  0
LWPOLYLINE
  5
1437
330
2
100
AcDbEntity
  8
Profilo
  6
Continuous
370
     0
100
AcDbPolyline
 90
       14
 70
   128
 43
0.0
 10
0.2335773660705867
 20
0.1323831628792398
 10
0.2390345270487257
 20
0.1288367715239298
 10
0.2438099262428404
 20
0.1273369645620832
 10
0.2439453608818747
 20
0.123107039632715
 10
0.2433990954112231
 20
0.1211966034418261
 10
0.2423071008795956
 20
0.119558937779896
 10
0.2403966020210229
 20
0.1187397764449138
 10
0.2383498810611764
 20
0.1188757352692704
 10
0.2372585411690755
 20
0.1199670751613713
 10
0.2352118866205872
 20
0.1203759335937278
 10
0.2333017127132679
 20
0.1209212774042689
 10
0.2319376700787261
 20
0.1228312520775221
 10
0.2333031548150286
 20
0.1269250877283312
 10
0.2328948869793495
 20
0.1314278458543425
  0
LWPOLYLINE
  5
1438
330
2
100
AcDbEntity
  8
Profilo
  6
Continuous
370
     0
100
AcDbPolyline
 90
        2
 70
   128
 43
0.0
 10
0.2348048616526013
 20
0.1300638032198007
 10
0.2397153657974789
 20
0.1229695709200786
  0
LWPOLYLINE
  5
1439
330
2
100
AcDbEntity
  8
Profilo
  6
Continuous
370
     0
100
AcDbPolyline
 90
        5
 70
   128
 43
0.0
 10
0.2491322431786225
 20
0.1304766017136645
 10
0.2494044844034269
 20
0.1277476588273183
 10
0.2484489705129702
 20
0.1262464785435737
 10
0.2469477902292256
 20
0.1252909646531179
 10
0.2454468708538888
 20
0.125427053931678
  0
LWPOLYLINE
  5
143A
330
2
100
AcDbEntity
  8
Profilo
  6
Continuous
370
     0
100
AcDbPolyline
 90
        6
 70
   128
 43
0.0
 10
0.2367126091303655
 20
0.1194211431226608
 10
0.23616621320551
 20
0.1169649053472632
 10
0.2348012526545284
 20
0.1150542736659781
 10
0.2335731688443436
 20
0.1149175273793856
 10
0.2313900289176667
 20
0.1151899051705714
 10
0.2305715245907196
 20
0.1160084094975198
  0
LWPOLYLINE
  5
143B
330
2
100
AcDbEntity
  8
Profilo
  6
Continuous
370
     0
100
AcDbPolyline
 90
       21
 70
   128
 43
0.0
 10
0.2220811554617734
 20
0.1673632758675581
 10
0.2265183929384191
 20
0.1696794693473969
 10
0.23018393825157
 20
0.1739258293547819
 10
0.2351999490378089
 20
0.1770140873278985
 10
0.2415664219475593
 20
0.1787512324377767
 10
0.2481258170607896
 20
0.1783652001911387
 10
0.2537205978070451
 20
0.1764350389579397
 10
0.2587366085932841
 20
0.1731537595671524
 10
0.2589295307967641
 20
0.171802646703914
 10
0.2587366085932841
 20
0.169486453224077
 10
0.2570002953636594
 20
0.1660121630043197
 10
0.2539135200105251
 20
0.1623448513668935
 10
0.2504409002504291
 20
0.1594496095170968
 10
0.2448461195041753
 20
0.1573264321605779
 10
0.2411805741910244
 20
0.1569403999139398
 10
0.2365504111613204
 20
0.1575194482838978
 10
0.2326919436446895
 20
0.1588705611471371
 10
0.2307627082115866
 20
0.1598356417637366
 10
0.2280617806149872
 20
0.1596426256404167
 10
0.2267113151418991
 20
0.159063577270457
 10
0.2247820830583729
 20
0.1582915127771782
  0
LWPOLYLINE
  5
143C
330
2
100
AcDbEntity
  8
Profilo
  6
Continuous
370
     0
100
AcDbPolyline
 90
        6
 70
   128
 43
0.0
 10
0.2240103875452997
 20
0.1627308836135333
 10
0.237129181121337
 20
0.1665912113742794
 10
0.2433027318276073
 20
0.1677493081141979
 10
0.2481258170607896
 20
0.1692934371007571
 10
0.2506338224539091
 20
0.1700655015940367
 10
0.2541064455635817
 20
0.1704515338406756
  0
LWPOLYLINE
  5
143D
330
2
100
AcDbEntity
  8
Profilo
  6
Continuous
370
     0
100
AcDbPolyline
 90
        2
 70
   128
 43
0.0
 10
0.2436885795841439
 20
0.1691004209774372
 10
0.249090434777341
 20
0.1752769422180212
  0
LWPOLYLINE
  5
143E
330
2
100
AcDbEntity
  8
Profilo
  6
Continuous
370
     0
100
AcDbPolyline
 90
        2
 70
   128
 43
0.0
 10
0.2456178150172468
 20
0.167556291990878
 10
0.2521772101304771
 20
0.1638889803534518
  0
LWPOLYLINE
  5
143F
330
2
100
AcDbEntity
  8
Profilo
  6
Continuous
370
     0
100
AcDbPolyline
 90
        2
 70
   128
 43
0.0
 10
0.2394442643109764
 20
0.1658191468809998
 10
0.2461965849772634
 20
0.1604146901336954
  0
LWPOLYLINE
  5
1440
330
2
100
AcDbEntity
  8
Profilo
  6
Continuous
370
     0
100
AcDbPolyline
 90
        3
 70
   128
 43
0.0
 10
0.2307627082115866
 20
0.1638889803534518
 10
0.2357787189978255
 20
0.1617658029969338
 10
0.2388654943509616
 20
0.159063577270457
  0
LWPOLYLINE
  5
1441
330
2
100
AcDbEntity
  8
Profilo
  6
Continuous
370
     0
100
AcDbPolyline
 90
        2
 70
   128
 43
0.0
 10
0.237129181121337
 20
0.1685213726074784
 10
0.2413734963945044
 20
0.1764350389579397
  0
LWPOLYLINE
  5
1442
330
2
100
AcDbEntity
  8
Profilo
  6
Continuous
370
     0
100
AcDbPolyline
 90
        2
 70
   128
 43
0.0
 10
0.2294122460880752
 20
0.1663981952509595
 10
0.2328848658481695
 20
0.1727677273205135
  0
LWPOLYLINE
  5
1443
330
2
100
AcDbEntity
  8
Profilo
  6
Continuous
370
     0
100
AcDbPolyline
 90
       14
 70
   128
 43
0.0
 10
0.2454248894641902
 20
0.1557822978796706
 10
0.2517913623739405
 20
0.1571334160372597
 10
0.2562286032001646
 20
0.1594496095170968
 10
0.2593153785532989
 20
0.1565543676672991
 10
0.2602799929202755
 20
0.1548172172630711
 10
0.2606658406768103
 20
0.152887056029873
 10
0.2598941485133155
 20
0.1509568947966748
 10
0.2583507608367475
 20
0.1496057819334364
 10
0.2568073731601794
 20
0.1496057819334364
 10
0.2550710632801332
 20
0.1484476851935179
 10
0.2533347500505085
 20
0.1474826045769175
 10
0.2510196702104457
 20
0.1478686368235582
 10
0.249090434777341
 20
0.1517289592899544
 10
0.2456178150172468
 20
0.1546242011397512
  0
LWPOLYLINE
  5
1444
330
2
100
AcDbEntity
  8
Profilo
  6
Continuous
370
     0
100
AcDbPolyline
 90
        2
 70
   128
 43
0.0
 10
0.2479328948573096
 20
0.1550102333863901
 10
0.2564215254036446
 20
0.1534661043998318
  0
LWPOLYLINE
  5
1445
330
2
100
AcDbEntity
  8
Profilo
  6
Continuous
370
     0
100
AcDbPolyline
 90
        5
 70
   128
 43
0.0
 10
0.2577719908767326
 20
0.1654331146343608
 10
0.2598941485133155
 20
0.1636959642301319
 10
0.2602799929202755
 20
0.1619588191202537
 10
0.2598941485133155
 20
0.1602216740103755
 10
0.2587366085932841
 20
0.1592565933937769
  0
LWPOLYLINE
  5
1446
330
2
100
AcDbEntity
  8
Profilo
  6
Continuous
370
     0
100
AcDbPolyline
 90
        6
 70
   128
 43
0.0
 10
0.2568073731601794
 20
0.1488337174401577
 10
0.2581578352836908
 20
0.146710534789289
 10
0.2585436830402275
 20
0.1443943413094511
 10
0.2577719908767326
 20
0.1434292606928524
 10
0.256035677647108
 20
0.1420781478296131
 10
0.2548781377270766
 20
0.1420781478296131
  0
LWPOLYLINE
  5
1447
330
2
100
AcDbEntity
  8
Profilo
  6
Continuous
370
     0
100
AcDbPolyline
 90
       21
 70
   128
 43
0.0
 10
0.2125611658840389
 20
0.1723879245009412
 10
0.2140609704773775
 20
0.1771633213265469
 10
0.2136502724684712
 20
0.1827578832308045
 10
0.2150133995550805
 20
0.1884884666271027
 10
0.2182868286347057
 20
0.1942185898809283
 10
0.2231979874191081
 20
0.1985838166266199
 10
0.2285189249208139
 20
0.2011750939347703
 10
0.2343859950704621
 20
0.2024017342680313
 10
0.2354777927365292
 20
0.201582769798609
 10
0.2369791722543395
 20
0.1998085570841539
 10
0.2382081075696094
 20
0.1961241040510231
 10
0.2386186087129554
 20
0.1913482433392737
 10
0.2382103408772762
 20
0.1868454852132606
 10
0.2357555465788037
 20
0.1813880647018768
 10
0.2334365806504843
 20
0.1785231667348457
 10
0.2297531119451479
 20
0.175658596087577
 10
0.2260693823314055
 20
0.1738856286093231
 10
0.2240227918257647
 20
0.17320386820046
 10
0.2222494306163929
 20
0.1711575409717323
 10
0.2217039563516474
 20
0.16979316864892
 10
0.2208857153016135
 20
0.1678830635214652
  0
LWPOLYLINE
  5
1448
330
2
100
AcDbEntity
  8
Profilo
  6
Continuous
370
     0
100
AcDbPolyline
 90
        6
 70
   128
 43
0.0
 10
0.2172009349487203
 20
0.1704765016137486
 10
0.2237476589100966
 20
0.182482553449578
 10
0.2272941204204324
 20
0.1876668110760464
 10
0.2296126926176347
 20
0.1921691114280932
 10
0.2308401881996493
 20
0.1944884710875323
 10
0.233022737529649
 20
0.1972169524562411
  0
LWPOLYLINE
  5
1449
330
2
100
AcDbEntity
  8
Profilo
  6
Continuous
370
     0
100
AcDbPolyline
 90
        2
 70
   128
 43
0.0
 10
0.2266115749178406
 20
0.1888950277089432
 10
0.226063803302579
 20
0.1970821762004018
  0
LWPOLYLINE
  5
144A
330
2
100
AcDbEntity
  8
Profilo
  6
Continuous
370
     0
100
AcDbPolyline
 90
        2
 70
   128
 43
0.0
 10
0.2290676144525152
 20
0.1891673390887742
 10
0.2362989881451112
 20
0.1912123509262722
  0
LWPOLYLINE
  5
144B
330
2
100
AcDbEntity
  8
Profilo
  6
Continuous
370
     0
100
AcDbPolyline
 90
        2
 70
   128
 43
0.0
 10
0.2259306019712133
 20
0.1835736324332711
 10
0.2345267417177377
 20
0.1845267161504997
  0
LWPOLYLINE
  5
144C
330
2
100
AcDbEntity
  8
Profilo
  6
Continuous
370
     0
100
AcDbPolyline
 90
        3
 70
   128
 43
0.0
 10
0.2211566486225314
 20
0.1760700114036924
 10
0.2262048169704416
 20
0.1781155535386913
 10
0.230298258890131
 20
0.1783874711874045
  0
LWPOLYLINE
  5
144D
330
2
100
AcDbEntity
  8
Profilo
  6
Continuous
370
     0
100
AcDbPolyline
 90
        2
 70
   128
 43
0.0
 10
0.2223828288133189
 20
0.1838473835463556
 10
0.2197882057840088
 20
0.1924443747979652
  0
LWPOLYLINE
  5
144E
330
2
100
AcDbEntity
  8
Profilo
  6
Continuous
370
     0
100
AcDbPolyline
 90
        2
 70
   128
 43
0.0
 10
0.2184274448277774
 20
0.1768893733479038
 10
0.2163790184892571
 20
0.1838488256481163
  0
LWPOLYLINE
  5
144F
330
2
100
AcDbEntity
  8
Profilo
  6
Continuous
370
     0
100
AcDbPolyline
 90
       14
 70
   128
 43
0.0
 10
0.2372566665633711
 20
0.1807054490442583
 10
0.2408030579186802
 20
0.1861626100223992
 10
0.2423028648805277
 20
0.1909380092165121
 10
0.246532789809895
 20
0.1910734438555464
 10
0.2484432260007852
 20
0.1905271783848948
 10
0.2500808916627148
 20
0.1894351838532691
 10
0.2509000529976957
 20
0.1875246849946946
 10
0.2507640941733404
 20
0.1854779640348499
 10
0.2496727542812396
 20
0.184386624142749
 10
0.2492638958488831
 20
0.1823399695942598
 10
0.2487185520383415
 20
0.1804297956869396
 10
0.2468085773650879
 20
0.1790657530523978
 10
0.2427147417142796
 20
0.1804312377887012
 10
0.2382119835882674
 20
0.180022969953022
  0
LWPOLYLINE
  5
1450
330
2
100
AcDbEntity
  8
Profilo
  6
Continuous
370
     0
100
AcDbPolyline
 90
        2
 70
   128
 43
0.0
 10
0.2395760262228093
 20
0.1819329446262738
 10
0.2466702585225322
 20
0.1868434487711515
  0
LWPOLYLINE
  5
1451
330
2
100
AcDbEntity
  8
Profilo
  6
Continuous
370
     0
100
AcDbPolyline
 90
        5
 70
   128
 43
0.0
 10
0.2391632277289455
 20
0.1962603261522951
 10
0.2418921706152934
 20
0.1965325673770986
 10
0.2433933508990362
 20
0.1955770534866428
 10
0.2443488647894929
 20
0.1940758732028982
 10
0.244212775510932
 20
0.1925749538275605
  0
LWPOLYLINE
  5
1452
330
2
100
AcDbEntity
  8
Profilo
  6
Continuous
370
     0
100
AcDbPolyline
 90
        6
 70
   128
 43
0.0
 10
0.2502186863199496
 20
0.1838406921040381
 10
0.2526749240953476
 20
0.1832942961791817
 10
0.2545855557766332
 20
0.1819293356282001
 10
0.2547223020632243
 20
0.1807012518180162
 10
0.2544499242720386
 20
0.1785181118913393
 10
0.2536314199450915
 20
0.1776996075643913
  0
LWPOLYLINE
  5
1453
330
2
100
AcDbEntity
  8
Profilo
  6
Continuous
370
     0
100
AcDbPolyline
 90
        8
 70
   129
 43
0.0
 10
0.2069089458290767
 20
0.1672800030023414
 10
0.2036276664382912
 20
0.1657366153257742
 10
0.201890521328413
 20
0.1626498399726391
 10
0.2022765535750528
 20
0.160913530092591
 10
0.2038206825616102
 20
0.1607206045395353
 10
0.2061368813357989
 20
0.1630356877291748
 10
0.2086460909389549
 20
0.1643861498526862
 10
0.2086460909389549
 20
0.1663153852857899
  0
LWPOLYLINE
  5
1454
330
2
100
AcDbEntity
  8
Profilo
  6
Continuous
370
     0
100
AcDbPolyline
 90
       10
 70
   129
 43
0.0
 10
0.2179108701526564
 20
0.1601418345795196
 10
0.2128924456519909
 20
0.1640003054457262
 10
0.2109622844187937
 20
0.1659295375292542
 10
0.2121203811587131
 20
0.1678587729623571
 10
0.2138575315629412
 20
0.1678587729623571
 10
0.216559757289418
 20
0.1668941552458057
 10
0.2184899185226152
 20
0.1651578453657576
 10
0.2196480152625346
 20
0.1632286099326548
 10
0.220613095879135
 20
0.1605276823360553
 10
0.2196480152625346
 20
0.159370142416023
  0
LWPOLYLINE
  5
1455
330
2
100
AcDbEntity
  8
Profilo
  6
Continuous
370
     0
100
AcDbPolyline
 90
        8
 70
   129
 43
0.0
 10
0.2192619830158966
 20
0.1578267547394558
 10
0.2150156283028588
 20
0.1568621370229044
 10
0.2115413327887525
 20
0.154161209426305
 10
0.2103832360488349
 20
0.1508815118696898
 10
0.2126994295286719
 20
0.1495310463966017
 10
0.2171388056593768
 20
0.1512673562766498
 10
0.2194549991392138
 20
0.153968287222825
 10
0.2202270636324952
 20
0.1568621370229044
  0
LWPOLYLINE
  5
1456
330
2
100
AcDbEntity
  8
Profilo
  6
Continuous
370
     0
100
AcDbPolyline
 90
        8
 70
   129
 43
0.0
 10
0.2072949780757165
 20
0.1501098163566175
 10
0.2030486180683306
 20
0.1530036695062726
 10
0.2016975052050922
 20
0.1560904448594078
 10
0.2016975052050922
 20
0.1580196769429358
 10
0.204399730931569
 20
0.1576338325359758
 10
0.2071019619523975
 20
0.1547399793863207
 10
0.2082600586923151
 20
0.1531965917097535
 10
0.2082600586923151
 20
0.1506885863166341
  0
LWPOLYLINE
  5
1457
330
2
100
AcDbEntity
  8
Profilo
  6
Continuous
370
     0
100
AcDbPolyline
 90
       11
 70
   129
 43
0.0
 10
0.204399730931569
 20
0.1591772202125439
 10
0.2065229135824369
 20
0.1622639922161024
 10
0.2094181554322363
 20
0.1634215354857105
 10
0.2107692682954747
 20
0.1640003054457262
 10
0.2130854617753117
 20
0.1626498399726391
 10
0.2159807089194592
 20
0.1605276823360553
 10
0.216752773412737
 20
0.1582126024959916
 10
0.2152086444261796
 20
0.1576338325359758
 10
0.2115413327887525
 20
0.1555116748993921
 10
0.2086460909389549
 20
0.1549329015898007
 10
0.2069089458290767
 20
0.1560904448594078
  0
CIRCLE
  5
1458
330
2
100
AcDbEntity
  8
Profilo
  6
Continuous
370
     0
100
AcDbCircle
 10
0.1543150567681382
 20
0.1761794523974212
 30
0.0
 40
0.003940359893541
  0
LWPOLYLINE
  5
1459
330
2
100
AcDbEntity
  8
Profilo
  6
Continuous
370
     0
100
AcDbPolyline
 90
       11
 70
   128
 43
0.0
 10
0.1500634024106047
 20
0.178152483542215
 10
0.1480894198412388
 20
0.1786078015136994
 10
0.1474820414036406
 20
0.1808843746232398
 10
0.1480894198412388
 20
0.1825538638032871
 10
0.1497597131918065
 20
0.1836162657042646
 10
0.1526447634175705
 20
0.1848304402624042
 10
0.1550742771679614
 20
0.1848304402624042
 10
0.1564408812997309
 20
0.1837680383614266
 10
0.1568964124807541
 20
0.1820985491813785
 10
0.1561371920809309
 20
0.1808843746232398
 10
0.1558335028621327
 20
0.1804290600013321
  0
LWPOLYLINE
  5
145A
330
2
100
AcDbEntity
  8
Profilo
  6
Continuous
370
     0
100
AcDbPolyline
 90
       11
 70
   128
 43
0.0
 10
0.1523420256233452
 20
0.1719277980398877
 10
0.1518867076518608
 20
0.1699538154705209
 10
0.1496101345423204
 20
0.1693464370329236
 10
0.1479406453622731
 20
0.1699538154705209
 10
0.1468782434612956
 20
0.1716241088210895
 10
0.1456640689031561
 20
0.1745091590468526
 10
0.1456640689031561
 20
0.1769386727972435
 10
0.1467264708041336
 20
0.178305276929013
 10
0.1483959599841809
 20
0.1787608081100362
 10
0.1496101345423204
 20
0.1780015877102139
 10
0.1500654491642281
 20
0.1776978984914157
  0
LWPOLYLINE
  5
145B
330
2
100
AcDbEntity
  8
Profilo
  6
Continuous
370
     0
100
AcDbPolyline
 90
       11
 70
   128
 43
0.0
 10
0.1585667111256734
 20
0.1742064212526282
 10
0.1605406936950393
 20
0.1737511032811439
 10
0.1611480721326375
 20
0.1714745301716034
 10
0.1605406936950393
 20
0.1698050409915561
 10
0.1588704003444716
 20
0.1687426390905786
 10
0.1559853501187076
 20
0.1675284645324391
 10
0.1535558363683167
 20
0.1675284645324391
 10
0.1521892322365472
 20
0.1685908664334166
 10
0.151733701055524
 20
0.1702603556134639
 10
0.1524929214553472
 20
0.1714745301716034
 10
0.1527966106741454
 20
0.1719298447935112
  0
LWPOLYLINE
  5
145C
330
2
100
AcDbEntity
  8
Profilo
  6
Continuous
370
     0
100
AcDbPolyline
 90
       11
 70
   128
 43
0.0
 10
0.1562880879129329
 20
0.1804311067549555
 10
0.1567434058844173
 20
0.1824050893243223
 10
0.1590199789939577
 20
0.1830124677619196
 10
0.160689468174005
 20
0.1824050893243223
 10
0.1617518700749825
 20
0.1807347959737538
 10
0.162966044633122
 20
0.1778497457479897
 10
0.162966044633122
 20
0.1754202319975988
 10
0.1619036427321445
 20
0.1740536278658302
 10
0.1602341535520955
 20
0.173598096684807
 10
0.1590199789939577
 20
0.1743573170846293
 10
0.1585646643720482
 20
0.1746610063034275
  0
LWPOLYLINE
  5
145D
330
2
100
AcDbEntity
  8
Profilo
  6
Continuous
370
     0
100
AcDbPolyline
 90
        9
 70
   128
 43
0.0
 10
0.1523410741987705
 20
0.1852857548843119
 10
0.1550742771679614
 20
0.1934814281273853
 10
0.1576556381749254
 20
0.1962133192084101
 10
0.1590222423066949
 20
0.1963650918655721
 10
0.1605406884006895
 20
0.1939367427492939
 10
0.1609962248760626
 20
0.1909013097035226
 10
0.1603888411441146
 20
0.1890800478663141
 10
0.1584148638690968
 20
0.1869552440643591
 10
0.1573519489561272
 20
0.184071583675749
  0
LWPOLYLINE
  5
145E
330
2
100
AcDbEntity
  8
Profilo
  6
Continuous
370
     0
100
AcDbPolyline
 90
        7
 70
   128
 43
0.0
 10
0.1620591344946822
 20
0.1916601662901769
 10
0.1653997211958194
 20
0.1925707988835699
 10
0.1673736984708372
 20
0.1925707988835699
 10
0.1685884606403833
 20
0.1921154842616612
 10
0.1690439918214048
 20
0.1905977643891994
 10
0.1669181672898139
 20
0.1881694186224978
 10
0.1620591344946822
 20
0.183312723739518
  0
LWPOLYLINE
  5
145F
330
2
100
AcDbEntity
  8
Profilo
  6
Continuous
370
     0
100
AcDbPolyline
 90
        8
 70
   128
 43
0.0
 10
0.1597814627065164
 20
0.1972757211093876
 10
0.1638812698074767
 20
0.2045607651086456
 10
0.1676773876896354
 20
0.2078997401191636
 10
0.1690439918214048
 20
0.2069891108753481
 10
0.169651370259003
 20
0.2027395032714372
 10
0.169651370259003
 20
0.1998558395332512
 10
0.1670700092520372
 20
0.1971239484522265
 10
0.1623628237134822
 20
0.1922672535692467
  0
LWPOLYLINE
  5
1460
330
2
100
AcDbEntity
  8
Profilo
  6
Continuous
370
     0
100
AcDbPolyline
 90
        6
 70
   128
 43
0.0
 10
0.1704105959531743
 20
0.200462926812321
 10
0.1749659342351579
 20
0.201221786748552
 10
0.1769399168045238
 20
0.200462926812321
 10
0.1772436060233238
 20
0.1994005249113427
 10
0.1739030246165365
 20
0.1965168611731567
 10
0.1687403026026066
 20
0.1927225681911544
  0
LWPOLYLINE
  5
1461
330
2
100
AcDbEntity
  8
Profilo
  6
Continuous
370
     0
100
AcDbPolyline
 90
        6
 70
   128
 43
0.0
 10
0.1699550594778012
 20
0.2080515127763256
 10
0.1739030246165365
 20
0.2124528930373968
 10
0.1780028317174951
 20
0.2153365567755836
 10
0.1831655537314249
 20
0.2180684445070318
 10
0.1886319596698032
 20
0.2192826190651704
 10
0.1939465289403062
 20
0.2198897063442402
  0
LWPOLYLINE
  5
1462
330
2
100
AcDbEntity
  8
Profilo
  6
Continuous
370
     0
100
AcDbPolyline
 90
        6
 70
   128
 43
0.0
 10
0.1781546736797184
 20
0.2007664721266442
 10
0.1843803106066195
 20
0.2038019051724147
 10
0.1875690500511817
 20
0.2050160797305543
 10
0.1921243883331636
 20
0.2074444254972559
 10
0.1957686642530989
 20
0.2092656873344643
 10
0.1966797319094953
 20
0.209872774613534
  0
LWPOLYLINE
  5
1463
330
2
100
AcDbEntity
  8
Profilo
  6
Continuous
370
     0
100
AcDbPolyline
 90
       17
 70
   128
 43
0.0
 10
0.2227970259035912
 20
0.2214074228671263
 10
0.2171787674142882
 20
0.2233804573614959
 10
0.2130789603133296
 20
0.2235322266690813
 10
0.2101939100875674
 20
0.2235322266690813
 10
0.2101939100875674
 20
0.2224698247681038
 10
0.2115605142193369
 20
0.2201932516585634
 10
0.2130789603133296
 20
0.2191308497575859
 10
0.214293717188526
 20
0.2177649025422852
 10
0.2152047901392722
 20
0.2170060426060534
 10
0.2123197399135082
 20
0.2159436407050759
 10
0.2100420681253423
 20
0.2136670675955363
 10
0.2091310004689459
 20
0.2116940331011659
 10
0.2097383789065441
 20
0.2109351765145116
 10
0.2121678926569332
 20
0.2109351765145116
 10
0.2156603213202954
 20
0.2112387184792581
 10
0.2196082864590307
 20
0.2115422637935813
 10
0.2206711960776504
 20
0.2115422637935813
  0
LWPOLYLINE
  5
1464
330
2
100
AcDbEntity
  8
Profilo
  6
Continuous
370
     0
100
AcDbPolyline
 90
       16
 70
   128
 43
0.0
 10
0.2103457573441405
 20
0.2148812388040984
 10
0.2071570178995783
 20
0.2127564350021434
 10
0.203512741979643
 20
0.2101763165782806
 10
0.1994129348786844
 20
0.2094174599916254
 10
0.1977426468224665
 20
0.209872774613534
 10
0.1972871103470934
 20
0.211845805758327
 10
0.1983500252600629
 20
0.2145776968393517
 10
0.2000203133162826
 20
0.2163989586765611
 10
0.1983500252600629
 20
0.2180684445070318
 10
0.1957686642530989
 20
0.2194343917223325
 10
0.1945539073779043
 20
0.2206485662804711
 10
0.1947057493401276
 20
0.2217109681814486
 10
0.1977426468224665
 20
0.2224698247681038
 10
0.2024498323610233
 20
0.2229251393900116
 10
0.2070051706430052
 20
0.2229251393900116
 10
0.2095865316499692
 20
0.222621597425265
  0
CIRCLE
  5
1465
330
2
100
AcDbEntity
  8
Profilo
  6
Continuous
370
     0
100
AcDbCircle
 10
0.182861864512625
 20
0.2094174599916254
 30
0.0
 40
0.0022967428057618
  0
CIRCLE
  5
1466
330
2
100
AcDbEntity
  8
Profilo
  6
Continuous
370
     0
100
AcDbCircle
 10
0.187720892013405
 20
0.2121493477230745
 30
0.0
 40
0.0023562032360436
  0
CIRCLE
  5
1467
330
2
100
AcDbEntity
  8
Profilo
  6
Continuous
370
     0
100
AcDbCircle
 10
0.1827100172560501
 20
0.2141223822174441
 30
0.0
 40
0.0020646618096269
  0
CIRCLE
  5
1468
330
2
100
AcDbEntity
  8
Profilo
  6
Continuous
370
     0
100
AcDbCircle
 10
0.1865061351382104
 20
0.2080515127763256
 30
0.0
 40
0.0015478018560058
  0
LWPOLYLINE
  5
1469
330
2
100
AcDbEntity
  8
Profilo
  6
Continuous
370
     0
100
AcDbPolyline
 90
        2
 70
   128
 43
0.0
 10
0.1719290420471689
 20
0.2028912759285993
 10
0.1787620521173165
 20
0.207747970811579
  0
LWPOLYLINE
  5
146A
330
2
100
AcDbEntity
  8
Profilo
  6
Continuous
370
     0
100
AcDbPolyline
 90
        2
 70
   128
 43
0.0
 10
0.1904541002769457
 20
0.213211749624052
 10
0.1940983709025312
 20
0.2145776968393517
  0
CIRCLE
  5
146B
330
2
100
AcDbEntity
  8
Profilo
  6
Continuous
370
     0
100
AcDbCircle
 10
0.1934603770451888
 20
0.1014431397418112
 30
0.0
 40
0.003940359893541
  0
LWPOLYLINE
  5
146C
330
2
100
AcDbEntity
  8
Profilo
  6
Continuous
370
     0
100
AcDbPolyline
 90
       11
 70
   128
 43
0.0
 10
0.1914873459003958
 20
0.0971914853842773
 10
0.1910320279289115
 20
0.0952175028149105
 10
0.188755454819371
 20
0.0946101243773132
 10
0.1870859656393238
 20
0.0952175028149105
 10
0.1860235637383463
 20
0.0968877961654791
 10
0.1848093891802067
 20
0.0997728463912426
 10
0.1848093891802067
 20
0.1022023601416335
 10
0.1858717910811842
 20
0.1035689642734026
 10
0.1875412802612315
 20
0.1040244954544258
 10
0.188755454819371
 20
0.1032652750546035
 10
0.1892107694412788
 20
0.1029615858358053
  0
LWPOLYLINE
  5
146D
330
2
100
AcDbEntity
  8
Profilo
  6
Continuous
370
     0
100
AcDbPolyline
 90
       11
 70
   128
 43
0.0
 10
0.1977120314027223
 20
0.0994701085970173
 10
0.1996860139720899
 20
0.099014790625533
 10
0.2002933924096863
 20
0.096738217515993
 10
0.1996860139720899
 20
0.0950687283359457
 10
0.1980157206215205
 20
0.0940063264349682
 10
0.1951306703957583
 20
0.0927921518768287
 10
0.1927011566453673
 20
0.0927921518768287
 10
0.1913345525135979
 20
0.0938545537778062
 10
0.1908790213325746
 20
0.0955240429578539
 10
0.1916382417323961
 20
0.096738217515993
 10
0.1919419309511943
 20
0.0971935321379007
  0
LWPOLYLINE
  5
146E
330
2
100
AcDbEntity
  8
Profilo
  6
Continuous
370
     0
100
AcDbPolyline
 90
       11
 70
   128
 43
0.0
 10
0.1954334081899835
 20
0.1056947940993447
 10
0.1958887261614679
 20
0.1076687766687115
 10
0.1981652992710066
 20
0.1082761551063092
 10
0.1998347884510538
 20
0.1076687766687115
 10
0.2008971903520313
 20
0.1059984833181429
 10
0.2021113649101709
 20
0.1031134330923798
 10
0.2021113649101709
 20
0.1006839193419888
 10
0.2010489630091934
 20
0.0993173152102194
 10
0.1993794738291461
 20
0.0988617840291966
 10
0.1981652992710066
 20
0.0996210044290189
 10
0.1977099846490988
 20
0.0999246936478171
  0
LWPOLYLINE
  5
146F
330
2
100
AcDbEntity
  8
Profilo
  6
Continuous
370
     0
100
AcDbPolyline
 90
       11
 70
   128
 43
0.0
 10
0.1892087226876553
 20
0.1034161708866046
 10
0.1872347401182894
 20
0.103871488858089
 10
0.1866273616806913
 20
0.1061480619676294
 10
0.1872347401182894
 20
0.1078175511476762
 10
0.1889050334688571
 20
0.1088799530486542
 10
0.1917900836946211
 20
0.1100941276067933
 10
0.194219597445012
 20
0.1100941276067933
 10
0.1955862015767815
 20
0.1090317257058158
 10
0.196041732757803
 20
0.1073622365257685
 10
0.1952825123579815
 20
0.1061480619676294
 10
0.1949788231391833
 20
0.1056927473457212
  0
LWPOLYLINE
  5
1470
330
2
100
AcDbEntity
  8
Profilo
  6
Continuous
370
     0
100
AcDbPolyline
 90
        9
 70
   128
 43
0.0
 10
0.184354074558299
 20
0.0994691571724431
 10
0.1761584013152246
 20
0.1022023601416335
 10
0.1734265102341999
 20
0.1047837211485976
 10
0.1732747375770378
 20
0.1061503252803666
 10
0.1757030866933169
 20
0.1076687713743607
 10
0.1787385197390874
 20
0.1081243078497347
 10
0.1805597815762967
 20
0.1075169241177867
 10
0.1826845853782517
 20
0.1055429468427693
 10
0.1855682457668619
 20
0.1044800319297994
  0
LWPOLYLINE
  5
1471
330
2
100
AcDbEntity
  8
Profilo
  6
Continuous
370
     0
100
AcDbPolyline
 90
        7
 70
   128
 43
0.0
 10
0.177979663152434
 20
0.1091872174683552
 10
0.1770690305590419
 20
0.1125278041694919
 10
0.1770690305590419
 20
0.1145017814445093
 10
0.1775243451809496
 20
0.1157165436140546
 10
0.1790420650534115
 20
0.1161720747950778
 10
0.1814704108201122
 20
0.114046250263486
 10
0.186327105703092
 20
0.1091872174683552
  0
LWPOLYLINE
  5
1472
330
2
100
AcDbEntity
  8
Profilo
  6
Continuous
370
     0
100
AcDbPolyline
 90
        8
 70
   128
 43
0.0
 10
0.1723641083332223
 20
0.1069095456801889
 10
0.1650790643339652
 20
0.1110093527811484
 10
0.1617400893234473
 20
0.1148054706633075
 10
0.1626507185672628
 20
0.1161720747950778
 10
0.1669003261711728
 20
0.1167794532326751
 10
0.1697839899093596
 20
0.1167794532326751
 10
0.1725158809903844
 20
0.1141980922257102
 10
0.1773725758733642
 20
0.1094909066871543
  0
LWPOLYLINE
  5
1473
330
2
100
AcDbEntity
  8
Profilo
  6
Continuous
370
     0
100
AcDbPolyline
 90
        6
 70
   128
 43
0.0
 10
0.1691769026302898
 20
0.1175386789268469
 10
0.168418042694058
 20
0.1220940172088296
 10
0.1691769026302898
 20
0.1240679997781964
 10
0.1702393045312673
 20
0.1243716889969955
 10
0.1731229682694542
 20
0.1210311075902077
 10
0.1769172612514565
 20
0.1158683855762783
  0
LWPOLYLINE
  5
1474
330
2
100
AcDbEntity
  8
Profilo
  6
Continuous
370
     0
100
AcDbPolyline
 90
        6
 70
   128
 43
0.0
 10
0.1615883166662853
 20
0.1170831424514733
 10
0.1571869364052132
 20
0.1210311075902077
 10
0.1543032726670264
 20
0.1251309146911677
 10
0.15157138493558
 20
0.1302936367050966
 10
0.1503572103774404
 20
0.1357600426434748
 10
0.1497501230983707
 20
0.1410746119139787
  0
LWPOLYLINE
  5
1475
330
2
100
AcDbEntity
  8
Profilo
  6
Continuous
370
     0
100
AcDbPolyline
 90
        6
 70
   128
 43
0.0
 10
0.1688733573159675
 20
0.1252827566533909
 10
0.1658379242701953
 20
0.1315083935802912
 10
0.1646237497120557
 20
0.1346971330248543
 10
0.162195403945355
 20
0.1392524713068353
 10
0.1603741421081457
 20
0.1428967472267715
 10
0.1597670548290777
 20
0.143807814883167
  0
LWPOLYLINE
  5
1476
330
2
100
AcDbEntity
  8
Profilo
  6
Continuous
370
     0
100
AcDbPolyline
 90
       17
 70
   128
 43
0.0
 10
0.1482324065754854
 20
0.1699251088772637
 10
0.1462593720811141
 20
0.1643068503879608
 10
0.1461076027735304
 20
0.1602070432870022
 10
0.1461076027735304
 20
0.1573219930612391
 10
0.1471700046745079
 20
0.1573219930612391
 10
0.1494465777840483
 20
0.1586885971930085
 10
0.1505089796850259
 20
0.1602070432870022
 10
0.1518749269003257
 20
0.1614218001621976
 10
0.1526337868365575
 20
0.1623328731129447
 10
0.153696188737535
 20
0.1594478228871799
 10
0.1559727618470736
 20
0.157170151099014
 10
0.157945796341445
 20
0.1562590834426185
 10
0.1587046529281002
 20
0.1568664618802158
 10
0.1587046529281002
 20
0.1592959756306058
 10
0.1584011109633527
 20
0.162788404293968
 10
0.1580975656490287
 20
0.1667363694327024
 10
0.1580975656490287
 20
0.167799279051323
  0
LWPOLYLINE
  5
1477
330
2
100
AcDbEntity
  8
Profilo
  6
Continuous
370
     0
100
AcDbPolyline
 90
       16
 70
   128
 43
0.0
 10
0.1547585906385125
 20
0.157473840317814
 10
0.1568833944404675
 20
0.1542851008732509
 10
0.1594635128643302
 20
0.1506408249533155
 10
0.1602223694509854
 20
0.1465410178523561
 10
0.1597670548290777
 20
0.1448707297961382
 10
0.157794023684283
 20
0.144415193320766
 10
0.1550621326032582
 20
0.1454781082337355
 10
0.1532408707660489
 20
0.1471483962899551
 10
0.15157138493558
 20
0.1454781082337355
 10
0.1502054377202784
 20
0.1428967472267715
 10
0.1489912631621388
 20
0.141681990351576
 10
0.1479288612611613
 20
0.1418338323138011
 10
0.1471700046745079
 20
0.1448707297961382
 10
0.1467146900525984
 20
0.149577915334695
 10
0.1467146900525984
 20
0.1541332536166769
 10
0.1470182320173459
 20
0.1567146146236418
  0
CIRCLE
  5
1478
330
2
100
AcDbEntity
  8
Profilo
  6
Continuous
370
     0
100
AcDbCircle
 10
0.1602223694509854
 20
0.1299899474862975
 30
0.0
 40
0.0022967428057618
  0
CIRCLE
  5
1479
330
2
100
AcDbEntity
  8
Profilo
  6
Continuous
370
     0
100
AcDbCircle
 10
0.1574904817195373
 20
0.1348489749870776
 30
0.0
 40
0.0023562032360436
  0
CIRCLE
  5
147A
330
2
100
AcDbEntity
  8
Profilo
  6
Continuous
370
     0
100
AcDbCircle
 10
0.1555174472251659
 20
0.1298381002297226
 30
0.0
 40
0.0020646618096269
  0
CIRCLE
  5
147B
330
2
100
AcDbEntity
  8
Profilo
  6
Continuous
370
     0
100
AcDbCircle
 10
0.1615883166662853
 20
0.133634218111883
 30
0.0
 40
0.0015478018560058
  0
LWPOLYLINE
  5
147C
330
2
100
AcDbEntity
  8
Profilo
  6
Continuous
370
     0
100
AcDbPolyline
 90
        2
 70
   128
 43
0.0
 10
0.1667485535140125
 20
0.119057125020841
 10
0.1618918586310327
 20
0.1258901350909882
  0
LWPOLYLINE
  5
147D
330
2
100
AcDbEntity
  8
Profilo
  6
Continuous
370
     0
100
AcDbPolyline
 90
        2
 70
   128
 43
0.0
 10
0.1564280798185598
 20
0.1375821832506174
 10
0.1550621326032582
 20
0.1412264538762029
  0
CIRCLE
  5
147E
330
2
100
AcDbEntity
  8
Profilo
  6
Continuous
370
     0
100
AcDbCircle
 10
0.2681966897008001
 20
0.1405884600188614
 30
0.0
 40
0.003940359893541
  0
LWPOLYLINE
  5
147F
330
2
100
AcDbEntity
  8
Profilo
  6
Continuous
370
     0
100
AcDbPolyline
 90
       11
 70
   128
 43
0.0
 10
0.2724483440583336
 20
0.1386154288740675
 10
0.2744223266276995
 20
0.1381601109025832
 10
0.2750297050652977
 20
0.1358835377930427
 10
0.2744223266276995
 20
0.1342140486129963
 10
0.2727520332771318
 20
0.1331516467120188
 10
0.2698669830513678
 20
0.1319374721538793
 10
0.2674374693009769
 20
0.1319374721538793
 10
0.2660708651692074
 20
0.1329998740548568
 10
0.2656153339881841
 20
0.1346693632349041
 10
0.2663745543880074
 20
0.1358835377930427
 10
0.2666782436068056
 20
0.1363388524149514
  0
LWPOLYLINE
  5
1480
330
2
100
AcDbEntity
  8
Profilo
  6
Continuous
370
     0
100
AcDbPolyline
 90
       11
 70
   128
 43
0.0
 10
0.2701697208455931
 20
0.1448401143763949
 10
0.2706250388170774
 20
0.1468140969457616
 10
0.2729016119266179
 20
0.1474214753833589
 10
0.2745711011066652
 20
0.1468140969457616
 10
0.2756335030076427
 20
0.1451438035951931
 10
0.2768476775657822
 20
0.1422587533694299
 10
0.2768476775657822
 20
0.139829239619039
 10
0.2757852756648047
 20
0.1384626354872696
 10
0.2741157864847574
 20
0.1380071043062463
 10
0.2729016119266179
 20
0.1387663247060686
 10
0.2724462973047101
 20
0.1390700139248668
  0
LWPOLYLINE
  5
1481
330
2
100
AcDbEntity
  8
Profilo
  6
Continuous
370
     0
100
AcDbPolyline
 90
       11
 70
   128
 43
0.0
 10
0.2639450353432666
 20
0.1425614911636552
 10
0.261971052773899
 20
0.1430168091351396
 10
0.2613636743363008
 20
0.14529338224468
 10
0.261971052773899
 20
0.1469628714247264
 10
0.2636413461244684
 20
0.1480252733257039
 10
0.2665263963502307
 20
0.1492394478838435
 10
0.2689559101006216
 20
0.1492394478838435
 10
0.2703225142323911
 20
0.148177045982866
 10
0.2707780454134143
 20
0.1465075568028187
 10
0.2700188250135911
 20
0.14529338224468
 10
0.2697151357947929
 20
0.1448380676227714
  0
LWPOLYLINE
  5
1482
330
2
100
AcDbEntity
  8
Profilo
  6
Continuous
370
     0
100
AcDbPolyline
 90
       11
 70
   128
 43
0.0
 10
0.2662236585560054
 20
0.1363368056613279
 10
0.265768340584521
 20
0.1343628230919611
 10
0.2634917674749806
 20
0.1337554446543638
 10
0.2618222782949351
 20
0.1343628230919611
 10
0.2607598763939558
 20
0.1360331164425297
 10
0.259545701835818
 20
0.1389181666682928
 10
0.259545701835818
 20
0.1413476804186837
 10
0.2606081037367955
 20
0.1427142845504532
 10
0.2622775929168428
 20
0.1431698157314756
 10
0.2634917674749806
 20
0.1424105953316532
 10
0.2639470820968901
 20
0.142106906112855
  0
LWPOLYLINE
  5
1483
330
2
100
AcDbEntity
  8
Profilo
  6
Continuous
370
     0
100
AcDbPolyline
 90
        9
 70
   128
 43
0.0
 10
0.2701706722701678
 20
0.1314821575319707
 10
0.2674374693009769
 20
0.1232864842888972
 10
0.2648561082940128
 20
0.1205545932078724
 10
0.2634895041622434
 20
0.1204028205507104
 10
0.2619710580682506
 20
0.122831169666989
 10
0.2615155215928757
 20
0.12586660271276
 10
0.2621229053248237
 20
0.1276878645499684
 10
0.2640968825998415
 20
0.1298126683519243
 10
0.265159797512811
 20
0.1326963287405336
  0
LWPOLYLINE
  5
1484
330
2
100
AcDbEntity
  8
Profilo
  6
Continuous
370
     0
100
AcDbPolyline
 90
        7
 70
   128
 43
0.0
 10
0.2604526119742561
 20
0.1251077461261056
 10
0.2571120252731189
 20
0.1241971135327136
 10
0.2551380479981011
 20
0.1241971135327136
 10
0.2539232858285567
 20
0.1246524281546213
 10
0.2534677546475335
 20
0.1261701480270832
 10
0.2555935791791244
 20
0.1285984937937847
 10
0.2604526119742561
 20
0.1334551886767645
  0
LWPOLYLINE
  5
1485
330
2
100
AcDbEntity
  8
Profilo
  6
Continuous
370
     0
100
AcDbPolyline
 90
        8
 70
   128
 43
0.0
 10
0.2627302837624219
 20
0.1194921913068949
 10
0.2586304766614615
 20
0.1122071473076369
 10
0.2548343587793029
 20
0.108868172297119
 10
0.2534677546475335
 20
0.1097788015409349
 10
0.2528603762099353
 20
0.1140284091448453
 10
0.2528603762099353
 20
0.1169120728830317
 10
0.2554417372169011
 20
0.1196439639640565
 10
0.2601489227554561
 20
0.1245006588470359
  0
LWPOLYLINE
  5
1486
330
2
100
AcDbEntity
  8
Profilo
  6
Continuous
370
     0
100
AcDbPolyline
 90
        6
 70
   128
 43
0.0
 10
0.252101150515764
 20
0.116304985603962
 10
0.2475458122337804
 20
0.115546125667731
 10
0.2455718296644145
 20
0.116304985603962
 10
0.2452681404456145
 20
0.1173673875049399
 10
0.2486087218524036
 20
0.1202510512431259
 10
0.2537714438663317
 20
0.1240453442251281
  0
LWPOLYLINE
  5
1487
330
2
100
AcDbEntity
  8
Profilo
  6
Continuous
370
     0
100
AcDbPolyline
 90
        6
 70
   128
 43
0.0
 10
0.2525566869911371
 20
0.1087163996399574
 10
0.2486087218524036
 20
0.1043150193788858
 10
0.2445089147514432
 20
0.1014313556406994
 10
0.2393461927375133
 20
0.0986994679092517
 10
0.2338797867991369
 20
0.0974852933511121
 10
0.2285652175286321
 20
0.0968782060720423
  0
LWPOLYLINE
  5
1488
330
2
100
AcDbEntity
  8
Profilo
  6
Continuous
370
     0
100
AcDbPolyline
 90
        6
 70
   128
 43
0.0
 10
0.2443570727892199
 20
0.1160014402896392
 10
0.2381314358623188
 20
0.1129660072438678
 10
0.2349426964177566
 20
0.1117518326857287
 10
0.2303873581357747
 20
0.1093234869190272
 10
0.2267430822158394
 20
0.1075022250818187
 10
0.225832014559443
 20
0.1068951378027489
  0
LWPOLYLINE
  5
1489
330
2
100
AcDbEntity
  8
Profilo
  6
Continuous
370
     0
100
AcDbPolyline
 90
       17
 70
   128
 43
0.0
 10
0.1997147205653471
 20
0.0953604895491571
 10
0.2053329790546501
 20
0.0933874550547871
 10
0.2094327861556087
 20
0.0932356857472017
 10
0.2123178363813709
 20
0.0932356857472017
 10
0.2123178363813709
 20
0.0942980876481792
 10
0.2109512322496014
 20
0.0965746607577196
 10
0.2094327861556087
 20
0.0976370626586971
 10
0.2082180292804123
 20
0.0990030098739978
 10
0.2073069563296661
 20
0.0997618698102292
 10
0.2101920065554301
 20
0.1008242717112067
 10
0.212469678343596
 20
0.1031008448207467
 10
0.2133807459999923
 20
0.1050738793151167
 10
0.2127733675623942
 20
0.1058327359017715
 10
0.210343853812005
 20
0.1058327359017715
 10
0.2068514251486428
 20
0.1055291939370249
 10
0.2029034600099075
 20
0.1052256486227017
 10
0.2018405503912879
 20
0.1052256486227017
  0
LWPOLYLINE
  5
148A
330
2
100
AcDbEntity
  8
Profilo
  6
Continuous
370
     0
100
AcDbPolyline
 90
       16
 70
   128
 43
0.0
 10
0.2121659891247978
 20
0.1018866736121842
 10
0.21535472856936
 20
0.1040114774141392
 10
0.2189990044892953
 20
0.1065915958380024
 10
0.2230988115902539
 20
0.1073504524246571
 10
0.2247690996464717
 20
0.1068951378027489
 10
0.2252246361218448
 20
0.1049221066579555
 10
0.2241617212088753
 20
0.1021902155769307
 10
0.2224914331526557
 20
0.1003689537397219
 10
0.2241617212088753
 20
0.0986994679092517
 10
0.2267430822158394
 20
0.0973335206939505
 10
0.2279578390910357
 20
0.0961193461358119
 10
0.2278059971288107
 20
0.0950569442348339
 10
0.2247690996464717
 20
0.0942980876481792
 10
0.220061914107915
 20
0.0938427730262714
 10
0.2155065758259349
 20
0.0938427730262714
 10
0.2129252148189691
 20
0.094146314991018
  0
CIRCLE
  5
148B
330
2
100
AcDbEntity
  8
Profilo
  6
Continuous
370
     0
100
AcDbCircle
 10
0.2396498819563133
 20
0.1073504524246571
 30
0.0
 40
0.0022967428057618
  0
CIRCLE
  5
148C
330
2
100
AcDbEntity
  8
Profilo
  6
Continuous
370
     0
100
AcDbCircle
 10
0.2347908544555333
 20
0.1046185646932085
 30
0.0
 40
0.0023562032360436
  0
CIRCLE
  5
148D
330
2
100
AcDbEntity
  8
Profilo
  6
Continuous
370
     0
100
AcDbCircle
 10
0.2398017292128882
 20
0.1026455301988385
 30
0.0
 40
0.0020646618096269
  0
CIRCLE
  5
148E
330
2
100
AcDbEntity
  8
Profilo
  6
Continuous
370
     0
100
AcDbCircle
 10
0.2360056113307278
 20
0.1087163996399574
 30
0.0
 40
0.0015478018560058
  0
LWPOLYLINE
  5
148F
330
2
100
AcDbEntity
  8
Profilo
  6
Continuous
370
     0
100
AcDbPolyline
 90
        2
 70
   128
 43
0.0
 10
0.2505827044217694
 20
0.1138766364876838
 10
0.2437496943516217
 20
0.1090199416047044
  0
LWPOLYLINE
  5
1490
330
2
100
AcDbEntity
  8
Profilo
  6
Continuous
370
     0
100
AcDbPolyline
 90
        2
 70
   128
 43
0.0
 10
0.2320576461919925
 20
0.103556162792231
 10
0.2284133755664071
 20
0.1021902155769307
  0
CIRCLE
  5
1491
330
2
100
AcDbEntity
  8
Profilo
  6
Continuous
370
     0
100
AcDbCircle
 10
0.2290513694237495
 20
0.2153247726744718
 30
0.0
 40
0.003940359893541
  0
LWPOLYLINE
  5
1492
330
2
100
AcDbEntity
  8
Profilo
  6
Continuous
370
     0
100
AcDbPolyline
 90
       11
 70
   128
 43
0.0
 10
0.2310244005685424
 20
0.2195764270320053
 10
0.2314797185400268
 20
0.2215504096013721
 10
0.2337562916495672
 20
0.2221577880389693
 10
0.2354257808296145
 20
0.2215504096013721
 10
0.236488182730592
 20
0.2198801162508035
 10
0.2377023572887316
 20
0.2169950660250404
 10
0.2377023572887316
 20
0.2145655522746495
 10
0.2366399553877541
 20
0.21319894814288
 10
0.2349704662077068
 20
0.2127434169618576
 10
0.2337562916495672
 20
0.2135026373616791
 10
0.2333009770276595
 20
0.2138063265804773
  0
LWPOLYLINE
  5
1493
330
2
100
AcDbEntity
  8
Profilo
  6
Continuous
370
     0
100
AcDbPolyline
 90
       11
 70
   128
 43
0.0
 10
0.224799715066216
 20
0.2172978038192657
 10
0.2228257324968483
 20
0.21775312179075
 10
0.2222183540592519
 20
0.2200296949002904
 10
0.2228257324968483
 20
0.2216991840803368
 10
0.2244960258474178
 20
0.2227615859813143
 10
0.22738107607318
 20
0.2239757605394539
 10
0.2298105898235709
 20
0.2239757605394539
 10
0.2311771939553404
 20
0.2229133586384764
 10
0.2316327251363637
 20
0.2212438694584291
 10
0.2308735047365422
 20
0.2200296949002904
 10
0.230569815517744
 20
0.2195743802783818
  0
LWPOLYLINE
  5
1494
330
2
100
AcDbEntity
  8
Profilo
  6
Continuous
370
     0
100
AcDbPolyline
 90
       11
 70
   128
 43
0.0
 10
0.2270783382789547
 20
0.2110731183169383
 10
0.2266230203074722
 20
0.2090991357475715
 10
0.2243464471979317
 20
0.2084917573099743
 10
0.2226769580178844
 20
0.2090991357475715
 10
0.2216145561169069
 20
0.2107694290981401
 10
0.2204003815587674
 20
0.2136544793239032
 10
0.2204003815587674
 20
0.2160839930742942
 10
0.2214627834597449
 20
0.2174505972060636
 10
0.2231322726397922
 20
0.217906128387086
 10
0.2243464471979317
 20
0.2171469079872646
 10
0.2248017618198395
 20
0.2168432187684664
  0
LWPOLYLINE
  5
1495
330
2
100
AcDbEntity
  8
Profilo
  6
Continuous
370
     0
100
AcDbPolyline
 90
       11
 70
   128
 43
0.0
 10
0.233303023781283
 20
0.2133517415296779
 10
0.2352770063506506
 20
0.2128964235581936
 10
0.235884384788247
 20
0.2106198504486532
 10
0.2352770063506506
 20
0.2089503612686068
 10
0.2336067130000812
 20
0.2078879593676293
 10
0.2307216627743172
 20
0.2066737848094897
 10
0.2282921490239262
 20
0.2066737848094897
 10
0.2269255448921585
 20
0.2077361867104672
 10
0.2264700137111353
 20
0.2094056758905145
 10
0.2272292341109567
 20
0.2106198504486532
 10
0.2275329233297549
 20
0.2110751650705617
  0
LWPOLYLINE
  5
1496
330
2
100
AcDbEntity
  8
Profilo
  6
Continuous
370
     0
100
AcDbPolyline
 90
        9
 70
   128
 43
0.0
 10
0.2381576719106393
 20
0.2172987552438395
 10
0.2463533451537136
 20
0.2145655522746495
 10
0.2490852362347384
 20
0.2119841912676854
 10
0.2492370088919005
 20
0.2106175871359159
 10
0.2468086597756214
 20
0.2090991410419222
 10
0.2437732267298509
 20
0.2086436045665482
 10
0.2419519648926416
 20
0.2092509882984963
 10
0.2398271610906866
 20
0.2112249655735132
 10
0.2369435007020764
 20
0.2122878804864836
  0
LWPOLYLINE
  5
1497
330
2
100
AcDbEntity
  8
Profilo
  6
Continuous
370
     0
100
AcDbPolyline
 90
        7
 70
   128
 43
0.0
 10
0.2445320833165043
 20
0.2075806949479278
 10
0.2454427159098982
 20
0.2042401082467906
 10
0.2454427159098982
 20
0.2022661309717737
 10
0.2449874012879887
 20
0.2010513688022284
 10
0.2434696814155268
 20
0.2005958376212052
 10
0.2410413356488261
 20
0.202721662152797
 10
0.2361846407658463
 20
0.2075806949479278
  0
LWPOLYLINE
  5
1498
330
2
100
AcDbEntity
  8
Profilo
  6
Continuous
370
     0
100
AcDbPolyline
 90
        8
 70
   128
 43
0.0
 10
0.2501476381357159
 20
0.2098583667360935
 10
0.2574326821349731
 20
0.2057585596351341
 10
0.260771657145491
 20
0.2019624417529755
 10
0.2598610279016755
 20
0.2005958376212052
 10
0.2556114202977655
 20
0.1999884591836078
 10
0.2527277565595787
 20
0.1999884591836078
 10
0.2499958654785539
 20
0.2025698201905728
 10
0.2451391705955741
 20
0.2072770057291287
  0
LWPOLYLINE
  5
1499
330
2
100
AcDbEntity
  8
Profilo
  6
Continuous
370
     0
100
AcDbPolyline
 90
        6
 70
   128
 43
0.0
 10
0.2533348438386485
 20
0.1992292334894356
 10
0.2540937037748803
 20
0.1946738952074538
 10
0.2533348438386485
 20
0.192699912638087
 10
0.2522724419376709
 20
0.1923962234192871
 10
0.2493887781994841
 20
0.1957368048260753
 10
0.2455944852174818
 20
0.2008995268400042
  0
LWPOLYLINE
  5
149A
330
2
100
AcDbEntity
  8
Profilo
  6
Continuous
370
     0
100
AcDbPolyline
 90
        6
 70
   128
 43
0.0
 10
0.260923429802653
 20
0.1996847699648096
 10
0.2653248100637251
 20
0.1957368048260753
 10
0.2682084738019119
 20
0.1916369977251158
 10
0.2709403615333583
 20
0.1864742757111859
 10
0.2721545360914979
 20
0.1810078697728086
 10
0.2727616233705676
 20
0.1756933005023047
  0
LWPOLYLINE
  5
149B
330
2
100
AcDbEntity
  8
Profilo
  6
Continuous
370
     0
100
AcDbPolyline
 90
        6
 70
   128
 43
0.0
 10
0.2536383891529708
 20
0.1914851557628916
 10
0.256673822198743
 20
0.1852595188359914
 10
0.2578879967568826
 20
0.1820707793914291
 10
0.2603163425235833
 20
0.1775154411094473
 10
0.2621376043607926
 20
0.1738711651895111
 10
0.2627446916398624
 20
0.1729600975331156
  0
LWPOLYLINE
  5
149C
330
2
100
AcDbEntity
  8
Profilo
  6
Continuous
370
     0
100
AcDbPolyline
 90
       17
 70
   128
 43
0.0
 10
0.2742793398934529
 20
0.1468428035390188
 10
0.2762523743878242
 20
0.1524610620283218
 10
0.2764041436954097
 20
0.1565608691292804
 10
0.2764041436954097
 20
0.1594459193550435
 10
0.2753417417944304
 20
0.1594459193550435
 10
0.2730651686848917
 20
0.158079315223274
 10
0.2720027667839124
 20
0.1565608691292804
 10
0.2706368195686126
 20
0.1553461122540858
 10
0.2698779596323808
 20
0.1544350393033378
 10
0.2688155577314033
 20
0.1573200895291027
 10
0.2665389846218646
 20
0.1595977613172685
 10
0.2645659501274933
 20
0.160508828973664
 10
0.2638070935408399
 20
0.1599014505360668
 10
0.2638070935408399
 20
0.1574719367856767
 10
0.2641106355055856
 20
0.1539795081223154
 10
0.2644141808199096
 20
0.1500315429835801
 10
0.2644141808199096
 20
0.1489686333649605
  0
LWPOLYLINE
  5
149D
330
2
100
AcDbEntity
  8
Profilo
  6
Continuous
370
     0
100
AcDbPolyline
 90
       16
 70
   128
 43
0.0
 10
0.2677531558304258
 20
0.1592940720984695
 10
0.2656283520284708
 20
0.1624828115430317
 10
0.263048233604608
 20
0.166127087462967
 10
0.2622893770179528
 20
0.1702268945639265
 10
0.2627446916398624
 20
0.1718971826201443
 10
0.2647177227846553
 20
0.1723527190955165
 10
0.2674496138656801
 20
0.171289804182547
 10
0.2692708757028894
 20
0.1696195161263283
 10
0.2709403615333583
 20
0.171289804182547
 10
0.2723063087486599
 20
0.1738711651895111
 10
0.2735204833067995
 20
0.1750859220647074
 10
0.274582885207777
 20
0.1749340801024824
 10
0.2753417417944304
 20
0.1718971826201443
 10
0.2757970564163399
 20
0.1671899970815875
 10
0.2757970564163399
 20
0.1626346587996066
 10
0.2754935144515924
 20
0.1600532977926408
  0
CIRCLE
  5
149E
330
2
100
AcDbEntity
  8
Profilo
  6
Continuous
370
     0
100
AcDbCircle
 10
0.2622893770179528
 20
0.1867779649299859
 30
0.0
 40
0.0022967428057618
  0
CIRCLE
  5
149F
330
2
100
AcDbEntity
  8
Profilo
  6
Continuous
370
     0
100
AcDbCircle
 10
0.2650212647494028
 20
0.1819189374292049
 30
0.0
 40
0.0023562032360436
  0
CIRCLE
  5
14A0
330
2
100
AcDbEntity
  8
Profilo
  6
Continuous
370
     0
100
AcDbCircle
 10
0.2669942992437724
 20
0.1869298121865599
 30
0.0
 40
0.0020646618096269
  0
CIRCLE
  5
14A1
330
2
100
AcDbEntity
  8
Profilo
  6
Continuous
370
     0
100
AcDbCircle
 10
0.260923429802653
 20
0.1831336943043995
 30
0.0
 40
0.0015478018560058
  0
LWPOLYLINE
  5
14A2
330
2
100
AcDbEntity
  8
Profilo
  6
Continuous
370
     0
100
AcDbPolyline
 90
        2
 70
   128
 43
0.0
 10
0.2557631929549275
 20
0.197710787395442
 10
0.2606198878379056
 20
0.1908777773252943
  0
LWPOLYLINE
  5
14A3
330
2
100
AcDbEntity
  8
Profilo
  6
Continuous
370
     0
100
AcDbPolyline
 90
        2
 70
   128
 43
0.0
 10
0.2660836666503803
 20
0.1791857291656651
 10
0.2674496138656801
 20
0.1755414585400796
  0
DIMENSION
  5
14AB
102
{ACAD_XDICTIONARY
360
14B5
102
}
102
{ACAD_REACTORS
330
14BC
102
}
330
2
100
AcDbEntity
  8
Text
  6
ACAD_ISO10W100
100
AcDbDimension
  2
*D20
 10
0.1490287947348567
 20
0.1165176129070728
 30
0.0
 11
0.2919006063026393
 21
0.2019249532412534
 31
0.0
 70
    35
  1
d 300 mm
 71
     5
 42
0.1499999999999999
  3
Bovelacci
100
AcDbDiametricDimension
 15
0.2734829517340833
 25
0.2002502995092107
 35
0.0
 40
0.0
1001
ACAD
1000
DSTYLE
1002
{
1070
   288
1070
     1
1002
}
  0
ENDSEC
  0
SECTION
  2
OBJECTS
  0
DICTIONARY
  5
9
330
0
100
AcDbDictionary
281
     1
  3
ACAD_2007HEADERVARS_RT
350
208
  3
ACAD_COLOR
350
184
  3
ACAD_GROUP
350
17F
  3
ACAD_LAYOUT
350
164
  3
ACAD_MATERIAL
350
B
  3
ACAD_MLINESTYLE
350
180
  3
ACAD_PLOTSETTINGS
350
181
  3
ACAD_PLOTSTYLENAME
350
8
  3
ACAD_TABLESTYLE
350
185
  3
ACAD_VISUALSTYLE
350
17A
  3
ACDBHEADERROUNDTRIPXREC
350
14CC
  3
AcDbVariableDictionary
350
18B
  3
DWGPROPS
350
14CB
  0
DICTIONARY
  5
16E
330
16D
100
AcDbDictionary
280
     1
281
     1
  3
ACAD_LAYERSTATES
360
16F
  0
DICTIONARY
  5
3
330
2
100
AcDbDictionary
280
     1
281
     1
  3
ACAD_SORTENTS
360
18A
  0
DICTIONARY
  5
14CD
330
18
100
AcDbDictionary
280
     1
281
     1
  3
ACAD_MTEXT_RT
360
14CE
  0
DICTIONARY
  5
14B5
330
14AB
100
AcDbDictionary
280
     1
281
     1
  3
ACAD_DIMASSOC
360
14BC
  0
DICTIONARY
  5
208
102
{ACAD_REACTORS
330
9
102
}
330
9
100
AcDbDictionary
281
     1
  3
DIMFXL
350
209
  0
DICTIONARY
  5
184
102
{ACAD_REACTORS
330
9
102
}
330
9
100
AcDbDictionary
281
     1
  0
DICTIONARY
  5
17F
102
{ACAD_REACTORS
330
9
102
}
330
9
100
AcDbDictionary
281
     1
  0
DICTIONARY
  5
164
102
{ACAD_REACTORS
330
9
102
}
330
9
100
AcDbDictionary
281
     1
  3
Layout1
350
168
  3
Layout2
350
16C
  3
Model
350
163
  0
DICTIONARY
  5
B
102
{ACAD_REACTORS
330
9
102
}
330
9
100
AcDbDictionary
281
     1
  3
ByBlock
350
183
  3
ByLayer
350
182
  3
Global
350
A
  0
DICTIONARY
  5
180
102
{ACAD_REACTORS
330
9
102
}
330
9
100
AcDbDictionary
281
     1
  3
Standard
350
186
  0
DICTIONARY
  5
181
102
{ACAD_REACTORS
330
9
102
}
330
9
100
AcDbDictionary
281
     1
  0
ACDBDICTIONARYWDFLT
  5
8
102
{ACAD_REACTORS
330
9
102
}
330
9
100
AcDbDictionary
281
     1
  3
Normal
350
7
100
AcDbDictionaryWithDefault
340
7
  0
DICTIONARY
  5
185
102
{ACAD_REACTORS
330
9
102
}
330
9
100
AcDbDictionary
281
     1
  3
Standard
350
187
  0
DICTIONARY
  5
17A
102
{ACAD_REACTORS
330
9
102
}
330
9
100
AcDbDictionary
281
     1
  3
2dWireframe
350
179
  3
3D Hidden
350
1BD
  3
3dWireframe
350
189
  3
Basic
350
1BC
  3
Brighten
350
1C0
  3
ColorChange
350
1C4
  3
Conceptual
350
1BE
  3
Dim
350
1BF
  3
Facepattern
350
1C3
  3
Flat
350
1B8
  3
FlatWithEdges
350
1B9
  3
Gouraud
350
1BA
  3
GouraudWithEdges
350
1BB
  3
Linepattern
350
1C2
  3
Realistic
350
188
  3
Thicken
350
1C1
  0
DICTIONARY
  5
14CC
102
{ACAD_REACTORS
330
9
102
}
330
9
100
AcDbDictionary
281
     1
  0
DICTIONARY
  5
18B
102
{ACAD_REACTORS
330
9
102
}
330
9
100
AcDbDictionary
281
     1
  3
CTABLESTYLE
350
18C
  3
DIMASSOC
350
190
  3
HIDETEXT
350
18F
  3
INDEXCTL
350
18E
  3
PROJECTNAME
350
2F9
  3
SORTENTS
350
18D
  0
XRECORD
  5
14CB
102
{ACAD_REACTORS
330
9
102
}
330
9
100
AcDbXrecord
280
     1
  1
DWGPROPS COOKIE
  2

  3

  4

  6

  7

  8
Mario
  9

300
=
301
=
302
=
303
=
304
=
305
=
306
=
307
=
308
=
309
=
 40
0.1353792361111111
 41
2454297.625402373
 42
2454305.990967882
  1

 90
        0
  0
DICTIONARY
  5
16F
102
{ACAD_REACTORS
330
16E
102
}
330
16E
100
AcDbDictionary
281
     1
  0
SORTENTSTABLE
  5
18A
102
{ACAD_REACTORS
330
3
102
}
330
3
100
AcDbSortentsTable
330
2
331
15
  5
11
331
13
  5
D
331
24
  5
18
331
11
  5
15
331
22
  5
23
331
D
  5
13
331
1E
  5
1F
331
1C
  5
1D
331
18
  5
1C
331
16
  5
12
331
14
  5
10
331
12
  5
16
331
23
  5
24
331
21
  5
22
331
10
  5
14
331
1F
  5
21
331
1D
  5
1E
  0
XRECORD
  5
14CE
102
{ACAD_REACTORS
330
14CD
102
}
330
14CD
100
AcDbXrecord
280
     1
 40
7955300.0
  1
{\fTimes New Roman|b0|i0|c238|p18;\H1.6x;\C4;Bovelacci\P\pt0.09;\H0.4375x;\T0.95;via del Commercio, 5  47100 Forli - Italy  \fTimes New Roman|b0|i0|c0|p18;\P\fTimes New Roman|b0|i0|c238|p18;tel.+39-0543721386  fax +39-0543721127\fTimes New Roman|b0|i
  1
0|c0|p18; \fTimes New Roman|b0|i0|c238|p18;www.bovelacci.it\fTimes New Roman|b0|i0|c0|p18; \fTimes New Roman|b0|i0|c238|p18;e-mail: bovelacci@bovelacci\fTimes New Roman|b0|i0|c0|p18;.it}
  0
DIMASSOC
  5
14BC
102
{ACAD_REACTORS
330
14B5
102
}
330
14B5
100
AcDbDimAssoc
330
14AB
 90
        2
 70
     0
 71
     0
  1
AcDbOsnapPointRef
 72
     3
331
13EF
 73
     2
 91
        0
 40
0.0
 10
0.0
 20
0.0
 30
0.0
 75
     0
  0
XRECORD
  5
209
102
{ACAD_REACTORS
330
208
102
}
330
208
100
AcDbXrecord
280
     1
 40
0.18
  0
LAYOUT
  5
168
102
{ACAD_XDICTIONARY
360
14D1
102
}
102
{ACAD_REACTORS
330
164
102
}
330
164
100
AcDbPlotSettings
  1

  2
C:\Documents and Settings\All Users\Dati applicazioni\Autodesk\ADT 2006\enu\Plotters\Default Windows System Printer.pc3
  4

  6

 40
0.0
 41
0.0
 42
0.0
 43
0.0
 44
0.0
 45
0.0
 46
0.0
 47
0.0
 48
0.0
 49
0.0
140
0.0
141
0.0
142
1.0
143
1.0
 70
   688
 72
     0
 73
     0
 74
     5
  7

 75
    16
147
1.0
148
0.0
149
0.0
100
AcDbLayout
  1
Layout1
 70
     1
 71
     1
 10
0.0
 20
0.0
 11
420.0
 21
297.0
 12
0.0
 22
0.0
 32
0.0
 14
1.000000000000000E+20
 24
1.000000000000000E+20
 34
1.000000000000000E+20
 15
-1.000000000000000E+20
 25
-1.000000000000000E+20
 35
-1.000000000000000E+20
146
0.0
 13
0.0
 23
0.0
 33
0.0
 16
1.0
 26
0.0
 36
0.0
 17
0.0
 27
1.0
 37
0.0
 76
     0
330
165
  0
LAYOUT
  5
16C
102
{ACAD_XDICTIONARY
360
14D3
102
}
102
{ACAD_REACTORS
330
164
102
}
330
164
100
AcDbPlotSettings
  1

  2
C:\Documents and Settings\All Users\Dati applicazioni\Autodesk\ADT 2006\enu\Plotters\Default Windows System Printer.pc3
  4

  6

 40
0.0
 41
0.0
 42
0.0
 43
0.0
 44
0.0
 45
0.0
 46
0.0
 47
0.0
 48
0.0
 49
0.0
140
0.0
141
0.0
142
1.0
143
1.0
 70
   688
 72
     0
 73
     0
 74
     5
  7

 75
    16
147
1.0
148
0.0
149
0.0
100
AcDbLayout
  1
Layout2
 70
     1
 71
     2
 10
0.0
 20
0.0
 11
12.0
 21
9.0
 12
0.0
 22
0.0
 32
0.0
 14
0.0
 24
0.0
 34
0.0
 15
0.0
 25
0.0
 35
0.0
146
0.0
 13
0.0
 23
0.0
 33
0.0
 16
1.0
 26
0.0
 36
0.0
 17
0.0
 27
1.0
 37
0.0
 76
     0
330
169
  0
LAYOUT
  5
163
102
{ACAD_XDICTIONARY
360
14CF
102
}
102
{ACAD_REACTORS
330
164
102
}
330
164
100
AcDbPlotSettings
  1

  2
C:\Documents and Settings\All Users\Dati applicazioni\Autodesk\ADT 2006\enu\Plotters\Default Windows System Printer.pc3
  4

  6

 40
0.0
 41
0.0
 42
0.0
 43
0.0
 44
0.0
 45
0.0
 46
0.0
 47
0.0
 48
0.0
 49
0.0
140
0.0
141
0.0
142
1.0
143
1.0
 70
  1712
 72
     0
 73
     0
 74
     0
  7

 75
     0
147
1.0
148
0.0
149
0.0
100
AcDbLayout
  1
Model
 70
     1
 71
     0
 10
0.0
 20
0.0
 11
12.0
 21
9.0
 12
0.0
 22
0.0
 32
0.0
 14
0.0
 24
0.0
 34
0.0
 15
0.0
 25
0.0
 35
0.0
146
0.0
 13
0.0
 23
0.0
 33
0.0
 16
1.0
 26
0.0
 36
0.0
 17
0.0
 27
1.0
 37
0.0
 76
     0
330
2
  0
MATERIAL
  5
183
102
{ACAD_XDICTIONARY
360
1B0
102
}
102
{ACAD_REACTORS
330
B
102
}
330
B
100
AcDbMaterial
  1
ByBlock
  0
MATERIAL
  5
182
102
{ACAD_XDICTIONARY
360
1AE
102
}
102
{ACAD_REACTORS
330
B
102
}
330
B
100
AcDbMaterial
  1
ByLayer
  0
MATERIAL
  5
A
102
{ACAD_XDICTIONARY
360
193
102
}
102
{ACAD_REACTORS
330
B
102
}
330
B
100
AcDbMaterial
  1
Global
  0
MLINESTYLE
  5
186
102
{ACAD_REACTORS
330
180
102
}
330
180
100
AcDbMlineStyle
  2
STANDARD
 70
     0
  3

 62
   256
 51
90.0
 52
90.0
 71
     2
 49
0.5
 62
   256
  6
BYLAYER
 49
-0.5
 62
   256
  6
BYLAYER
  0
ACDBPLACEHOLDER
  5
7
102
{ACAD_REACTORS
330
8
102
}
330
8
  0
TABLESTYLE
  5
187
102
{ACAD_XDICTIONARY
360
21A
102
}
102
{ACAD_REACTORS
330
185
102
}
330
185
100
AcDbTableStyle
  3
Standard
 70
     0
 71
     0
 40
1.5
 41
1.5
280
     0
281
     0
  7
Standard
140
4.5
170
     2
 62
     0
 63
     7
283
     0
274
    -2
284
     1
 64
     0
275
    -2
285
     1
 65
     0
276
    -2
286
     1
 66
     0
277
    -2
287
     1
 67
     0
278
    -2
288
     1
 68
     0
279
    -2
289
     1
 69
     0
  7
Standard
140
6.0
170
     5
 62
     0
 63
     7
283
     0
274
    -2
284
     1
 64
     0
275
    -2
285
     1
 65
     0
276
    -2
286
     1
 66
     0
277
    -2
287
     1
 67
     0
278
    -2
288
     1
 68
     0
279
    -2
289
     1
 69
     0
  7
Standard
140
4.5
170
     5
 62
     0
 63
     7
283
     0
274
    -2
284
     1
 64
     0
275
    -2
285
     1
 65
     0
276
    -2
286
     1
 66
     0
277
    -2
287
     1
 67
     0
278
    -2
288
     1
 68
     0
279
    -2
289
     1
 69
     0
  0
VISUALSTYLE
  5
179
102
{ACAD_REACTORS
330
17A
102
}
330
17A
100
AcDbVisualStyle
  2
2dWireframe
 70
     4
 71
     0
 72
     2
 73
     0
 90
        0
 40
-0.6
 41
-30.0
 62
     5
 63
     7
 74
     1
 91
        4
 64
     7
 65
   257
 75
     1
175
     1
 42
1.0
 92
        0
 66
   257
 43
1.0
 76
     1
 77
     6
 78
     2
 67
     7
 79
     5
170
     0
171
     0
290
     0
174
     0
 93
        1
 44
0.0
173
     0
291
     0
 45
0.0
1001
ACAD
1000
AcDbSavedByObjectVersion
1070
     0
1000
AcDbSavedByObjectVersion
1070
     0
1000
AcDbSavedByObjectVersion
1070
     0
1001
ACAD
1000
AcRTDxfName
1000
VISUALSTYLE
  0
VISUALSTYLE
  5
1BD
102
{ACAD_REACTORS
330
17A
102
}
330
17A
100
AcDbVisualStyle
  2
3D Hidden
 70
     6
 71
     1
 72
     2
 73
     2
 90
        0
 40
-0.6
 41
-30.0
 62
     5
 63
     7
 74
     2
 91
        2
 64
     7
 65
   257
 75
     2
175
     1
 42
40.0
 92
        0
 66
   257
 43
1.0
 76
     1
 77
     6
 78
     2
 67
     7
 79
     3
170
     0
171
     0
290
     0
174
     0
 93
        1
 44
0.0
173
     0
291
     0
 45
0.0
1001
ACAD
1000
AcDbSavedByObjectVersion
1070
     0
1000
AcDbSavedByObjectVersion
1070
     0
1001
ACAD
1000
AcRTDxfName
1000
VISUALSTYLE
  0
VISUALSTYLE
  5
189
102
{ACAD_REACTORS
330
17A
102
}
330
17A
100
AcDbVisualStyle
  2
3dWireframe
 70
     5
 71
     0
 72
     2
 73
     0
 90
        0
 40
-0.6
 41
-30.0
 62
     5
 63
     7
 74
     1
 91
        4
 64
     7
 65
   257
 75
     1
175
     1
 42
1.0
 92
        0
 66
   257
 43
1.0
 76
     1
 77
     6
 78
     2
 67
     7
 79
     5
170
     0
171
     0
290
     0
174
     0
 93
        1
 44
0.0
173
     0
291
     0
 45
0.0
1001
ACAD
1000
AcDbSavedByObjectVersion
1070
     0
1000
AcDbSavedByObjectVersion
1070
     0
1000
AcDbSavedByObjectVersion
1070
     0
1001
ACAD
1000
AcRTDxfName
1000
VISUALSTYLE
  0
VISUALSTYLE
  5
1BC
102
{ACAD_REACTORS
330
17A
102
}
330
17A
100
AcDbVisualStyle
  2
Basic
 70
     7
 71
     1
 72
     0
 73
     1
 90
        0
 40
-0.6
 41
-30.0
 62
     5
 63
     7
 74
     0
 91
        4
 64
     7
 65
   257
 75
     1
175
     1
 42
1.0
 92
        8
 66
     7
 43
1.0
 76
     1
 77
     6
 78
     2
 67
     7
 79
     5
170
     0
171
     0
290
     0
174
     0
 93
        1
 44
0.0
173
     0
291
     1
 45
0.0
1001
ACAD
1000
AcDbSavedByObjectVersion
1070
     0
1000
AcDbSavedByObjectVersion
1070
     0
1001
ACAD
1000
AcRTDxfName
1000
VISUALSTYLE
  0
VISUALSTYLE
  5
1C0
102
{ACAD_REACTORS
330
17A
102
}
330
17A
100
AcDbVisualStyle
  2
Brighten
 70
    12
 71
     2
 72
     2
 73
     0
 90
        0
 40
-0.6
 41
-30.0
 62
     5
 63
     7
 74
     1
 91
        4
 64
     7
 65
   257
 75
     1
175
     1
 42
1.0
 92
        8
 66
     7
 43
1.0
 76
     1
 77
     6
 78
     2
 67
     7
 79
     5
170
     0
171
     0
290
     0
174
     0
 93
        1
 44
50.0
173
     0
291
     1
 45
0.0
1001
ACAD
1000
AcDbSavedByObjectVersion
1070
     0
1000
AcDbSavedByObjectVersion
1070
     0
1001
ACAD
1000
AcRTDxfName
1000
VISUALSTYLE
  0
VISUALSTYLE
  5
1C4
102
{ACAD_REACTORS
330
17A
102
}
330
17A
100
AcDbVisualStyle
  2
ColorChange
 70
    16
 71
     2
 72
     2
 73
     3
 90
        0
 40
-0.6
 41
-30.0
 62
     5
 63
     8
 74
     1
 91
        4
 64
     7
 65
   257
 75
     1
175
     1
 42
1.0
 92
        8
 66
     8
 43
1.0
 76
     1
 77
     6
 78
     2
 67
     7
 79
     5
170
     0
171
     0
290
     0
174
     0
 93
        1
 44
0.0
173
     0
291
     1
 45
0.0
1001
ACAD
1000
AcDbSavedByObjectVersion
1070
     0
1000
AcDbSavedByObjectVersion
1070
     0
1001
ACAD
1000
AcRTDxfName
1000
VISUALSTYLE
  0
VISUALSTYLE
  5
1BE
102
{ACAD_REACTORS
330
17A
102
}
330
17A
100
AcDbVisualStyle
  2
Conceptual
 70
     9
 71
     3
 72
     2
 73
     0
 90
        0
 40
-0.6
 41
-30.0
 62
     5
 63
     7
 74
     2
 91
        2
 64
     7
 65
   257
 75
     1
175
     1
 42
40.0
 92
        8
 66
     7
 43
1.0
 76
     1
 77
     6
 78
     2
 67
     7
 79
     3
170
     0
171
     0
290
     0
174
     0
 93
        1
 44
0.0
173
     0
291
     0
 45
0.0
1001
ACAD
1000
AcDbSavedByObjectVersion
1070
     0
1000
AcDbSavedByObjectVersion
1070
     0
1001
ACAD
1000
AcRTDxfName
1000
VISUALSTYLE
  0
VISUALSTYLE
  5
1BF
102
{ACAD_REACTORS
330
17A
102
}
330
17A
100
AcDbVisualStyle
  2
Dim
 70
    11
 71
     2
 72
     2
 73
     0
 90
        0
 40
-0.6
 41
-30.0
 62
     5
 63
     7
 74
     1
 91
        4
 64
     7
 65
   257
 75
     1
175
     1
 42
1.0
 92
        8
 66
     7
 43
1.0
 76
     1
 77
     6
 78
     2
 67
     7
 79
     5
170
     0
171
     0
290
     0
174
     0
 93
        1
 44
-50.0
173
     0
291
     1
 45
0.0
1001
ACAD
1000
AcDbSavedByObjectVersion
1070
     0
1000
AcDbSavedByObjectVersion
1070
     0
1001
ACAD
1000
AcRTDxfName
1000
VISUALSTYLE
  0
VISUALSTYLE
  5
1C3
102
{ACAD_REACTORS
330
17A
102
}
330
17A
100
AcDbVisualStyle
  2
Facepattern
 70
    15
 71
     2
 72
     2
 73
     0
 90
        0
 40
-0.6
 41
-30.0
 62
     5
 63
     7
 74
     1
 91
        4
 64
     7
 65
   257
 75
     1
175
     1
 42
1.0
 92
        8
 66
     7
 43
1.0
 76
     1
 77
     6
 78
     2
 67
     7
 79
     5
170
     0
171
     0
290
     0
174
     0
 93
        1
 44
0.0
173
     0
291
     1
 45
0.0
1001
ACAD
1000
AcDbSavedByObjectVersion
1070
     0
1000
AcDbSavedByObjectVersion
1070
     0
1001
ACAD
1000
AcRTDxfName
1000
VISUALSTYLE
  0
VISUALSTYLE
  5
1B8
102
{ACAD_REACTORS
330
17A
102
}
330
17A
100
AcDbVisualStyle
  2
Flat
 70
     0
 71
     2
 72
     1
 73
     1
 90
        2
 40
-0.6
 41
30.0
 62
     5
 63
     7
 74
     0
 91
        4
 64
     7
 65
   257
 75
     1
175
     1
 42
1.0
 92
        8
 66
     7
 43
1.0
 76
     1
 77
     6
 78
     2
 67
     7
 79
     5
170
     0
171
     0
290
     0
174
     0
 93
       13
 44
0.0
173
     0
291
     1
 45
0.0
1001
ACAD
1000
AcDbSavedByObjectVersion
1070
     0
1000
AcDbSavedByObjectVersion
1070
     0
1001
ACAD
1000
AcRTDxfName
1000
VISUALSTYLE
  0
VISUALSTYLE
  5
1B9
102
{ACAD_REACTORS
330
17A
102
}
330
17A
100
AcDbVisualStyle
  2
FlatWithEdges
 70
     1
 71
     2
 72
     1
 73
     1
 90
        2
 40
-0.6
 41
30.0
 62
     5
 63
     7
 74
     1
 91
        4
 64
     7
 65
   257
 75
     1
175
     1
 42
1.0
 92
        0
 66
   257
 43
1.0
 76
     1
 77
     6
 78
     2
 67
     7
 79
     5
170
     0
171
     0
290
     0
174
     0
 93
       13
 44
0.0
173
     0
291
     1
 45
0.0
1001
ACAD
1000
AcDbSavedByObjectVersion
1070
     0
1000
AcDbSavedByObjectVersion
1070
     0
1001
ACAD
1000
AcRTDxfName
1000
VISUALSTYLE
  0
VISUALSTYLE
  5
1BA
102
{ACAD_REACTORS
330
17A
102
}
330
17A
100
AcDbVisualStyle
  2
Gouraud
 70
     2
 71
     2
 72
     2
 73
     1
 90
        2
 40
-0.6
 41
30.0
 62
     5
 63
     7
 74
     0
 91
        4
 64
     7
 65
   257
 75
     1
175
     1
 42
1.0
 92
        0
 66
     7
 43
1.0
 76
     1
 77
     6
 78
     2
 67
     7
 79
     5
170
     0
171
     0
290
     0
174
     0
 93
       13
 44
0.0
173
     0
291
     1
 45
0.0
1001
ACAD
1000
AcDbSavedByObjectVersion
1070
     0
1000
AcDbSavedByObjectVersion
1070
     0
1001
ACAD
1000
AcRTDxfName
1000
VISUALSTYLE
  0
VISUALSTYLE
  5
1BB
102
{ACAD_REACTORS
330
17A
102
}
330
17A
100
AcDbVisualStyle
  2
GouraudWithEdges
 70
     3
 71
     2
 72
     2
 73
     1
 90
        2
 40
-0.6
 41
30.0
 62
     5
 63
     7
 74
     1
 91
        4
 64
     7
 65
   257
 75
     1
175
     1
 42
1.0
 92
        0
 66
   257
 43
1.0
 76
     1
 77
     6
 78
     2
 67
     7
 79
     5
170
     0
171
     0
290
     0
174
     0
 93
       13
 44
0.0
173
     0
291
     1
 45
0.0
1001
ACAD
1000
AcDbSavedByObjectVersion
1070
     0
1000
AcDbSavedByObjectVersion
1070
     0
1001
ACAD
1000
AcRTDxfName
1000
VISUALSTYLE
  0
VISUALSTYLE
  5
1C2
102
{ACAD_REACTORS
330
17A
102
}
330
17A
100
AcDbVisualStyle
  2
Linepattern
 70
    14
 71
     2
 72
     2
 73
     0
 90
        0
 40
-0.6
 41
-30.0
 62
     5
 63
     7
 74
     1
 91
        4
 64
     7
 65
   257
 75
     7
175
     7
 42
1.0
 92
        8
 66
     7
 43
1.0
 76
     1
 77
     6
 78
     2
 67
     7
 79
     5
170
     0
171
     0
290
     0
174
     0
 93
        1
 44
0.0
173
     0
291
     1
 45
0.0
1001
ACAD
1000
AcDbSavedByObjectVersion
1070
     0
1000
AcDbSavedByObjectVersion
1070
     0
1001
ACAD
1000
AcRTDxfName
1000
VISUALSTYLE
  0
VISUALSTYLE
  5
188
102
{ACAD_REACTORS
330
17A
102
}
330
17A
100
AcDbVisualStyle
  2
Realistic
 70
     8
 71
     2
 72
     2
 73
     0
 90
        0
 40
-0.6
 41
-30.0
 62
     5
 63
     7
 74
     1
 91
        0
 64
     7
 65
   257
 75
     1
175
     1
 42
1.0
 92
        8
 66
     8
 43
1.0
 76
     1
 77
     6
 78
     2
 67
     7
 79
     5
170
     0
171
     0
290
     0
174
     0
 93
       13
 44
0.0
173
     0
291
     0
 45
0.0
1001
ACAD
1000
AcDbSavedByObjectVersion
1070
     0
1000
AcDbSavedByObjectVersion
1070
     0
1000
AcDbSavedByObjectVersion
1070
     0
1001
ACAD
1000
AcRTDxfName
1000
VISUALSTYLE
  0
VISUALSTYLE
  5
1C1
102
{ACAD_REACTORS
330
17A
102
}
330
17A
100
AcDbVisualStyle
  2
Thicken
 70
    13
 71
     2
 72
     2
 73
     0
 90
        0
 40
-0.6
 41
-30.0
 62
     5
 63
     7
 74
     1
 91
        4
 64
     7
 65
   257
 75
     1
175
     1
 42
1.0
 92
       12
 66
     7
 43
1.0
 76
     1
 77
     6
 78
     2
 67
     7
 79
     5
170
     0
171
     0
290
     0
174
     0
 93
        1
 44
0.0
173
     0
291
     1
 45
0.0
1001
ACAD
1000
AcDbSavedByObjectVersion
1070
     0
1000
AcDbSavedByObjectVersion
1070
     0
1001
ACAD
1000
AcRTDxfName
1000
VISUALSTYLE
  0
DICTIONARYVAR
  5
18C
102
{ACAD_REACTORS
330
18B
102
}
330
18B
100
DictionaryVariables
280
     0
  1
STANDARD
  0
DICTIONARYVAR
  5
190
102
{ACAD_REACTORS
330
18B
102
}
330
18B
100
DictionaryVariables
280
     0
  1
2
  0
DICTIONARYVAR
  5
18F
102
{ACAD_REACTORS
330
18B
102
}
330
18B
100
DictionaryVariables
280
     0
  1
1
  0
DICTIONARYVAR
  5
18E
102
{ACAD_REACTORS
330
18B
102
}
330
18B
100
DictionaryVariables
280
     0
  1
0
  0
DICTIONARYVAR
  5
2F9
102
{ACAD_REACTORS
330
18B
102
}
330
18B
100
DictionaryVariables
280
     0
  1

  0
DICTIONARYVAR
  5
18D
102
{ACAD_REACTORS
330
18B
102
}
330
18B
100
DictionaryVariables
280
     0
  1
127
  0
DICTIONARY
  5
14D1
330
168
100
AcDbDictionary
280
     1
281
     1
  3
ACAD_XREC_ROUNDTRIP
360
14D2
  0
DICTIONARY
  5
14D3
330
16C
100
AcDbDictionary
280
     1
281
     1
  3
ACAD_XREC_ROUNDTRIP
360
14D4
  0
DICTIONARY
  5
14CF
330
163
100
AcDbDictionary
280
     1
281
     1
  3
ACAD_XREC_ROUNDTRIP
360
14D0
  0
DICTIONARY
  5
1B0
330
183
100
AcDbDictionary
280
     1
281
     1
  3
ACAD_XREC_ROUNDTRIP
360
1B1
  0
DICTIONARY
  5
1AE
330
182
100
AcDbDictionary
280
     1
281
     1
  3
ACAD_XREC_ROUNDTRIP
360
1AF
  0
DICTIONARY
  5
193
330
A
100
AcDbDictionary
280
     1
281
     1
  3
ACAD_XREC_ROUNDTRIP
360
194
  0
DICTIONARY
  5
21A
330
187
100
AcDbDictionary
280
     1
281
     1
  3
ACAD_XREC_ROUNDTRIP
360
21B
  0
XRECORD
  5
14D2
102
{ACAD_REACTORS
330
14D1
102
}
330
14D1
100
AcDbXrecord
280
     1
102
SHADEPLOT
 70
     0
102
SHADEPLOTRESLEVEL
 70
     2
102
SHADEPLOTCUSTOMDPI
 70
   300
  0
XRECORD
  5
14D4
102
{ACAD_REACTORS
330
14D3
102
}
330
14D3
100
AcDbXrecord
280
     1
102
SHADEPLOT
 70
     0
102
SHADEPLOTRESLEVEL
 70
     2
102
SHADEPLOTCUSTOMDPI
 70
   300
  0
XRECORD
  5
14D0
102
{ACAD_REACTORS
330
14CF
102
}
330
14CF
100
AcDbXrecord
280
     1
102
SHADEPLOT
 70
     0
102
SHADEPLOTRESLEVEL
 70
     2
102
SHADEPLOTCUSTOMDPI
 70
   300
  0
XRECORD
  5
1B1
102
{ACAD_REACTORS
330
1B0
102
}
330
1B0
100
AcDbXrecord
280
     1
102
MATERIAL
148
0.0
149
0.0
149
0.0
 93
        0
 94
       63
282
     0
 72
     1
 77
     1
171
     1
175
     1
179
     1
273
     0
  0
XRECORD
  5
1AF
102
{ACAD_REACTORS
330
1AE
102
}
330
1AE
100
AcDbXrecord
280
     1
102
MATERIAL
148
0.0
149
0.0
149
0.0
 93
        0
 94
       63
282
     0
 72
     1
 77
     1
171
     1
175
     1
179
     1
273
     0
  0
XRECORD
  5
194
102
{ACAD_REACTORS
330
193
102
}
330
193
100
AcDbXrecord
280
     1
102
MATERIAL
148
0.0
149
0.0
149
0.0
 93
        0
 94
       63
282
     0
 72
     1
 77
     1
171
     1
175
     1
179
     1
273
     0
  0
XRECORD
  5
21B
102
{ACAD_REACTORS
330
21A
102
}
330
21A
100
AcDbXrecord
280
     1
102
ACAD_ROUNDTRIP_PRE2007_TABLESTYLE
 90
        4
 91
        0
  1

 92
        4
 93
        0
  2

 94
        4
 95
        0
  3

  0
ENDSEC
  0
EOF
