  0
SECTION
  2
HEADER
  9
$ACADVER
  1
AC1015
  9
$ACADMAINTVER
 70
    20
  9
$DWGCODEPAGE
  3
ANSI_1252
  9
$INSBASE
 10
0.0
 20
0.0
 30
0.0
  9
$EXTMIN
 10
0.0149999999999999
 20
0.015
 30
0.0
  9
$EXTMAX
 10
0.6907629201835047
 20
0.282
 30
0.0
  9
$LIMMIN
 10
0.0
 20
0.0
  9
$LIMMAX
 10
1.0
 20
0.5
  9
$ORTHOMODE
 70
     0
  9
$REGENMODE
 70
     1
  9
$FILLMODE
 70
     1
  9
$QTEXTMODE
 70
     0
  9
$MIRRTEXT
 70
     0
  9
$LTSCALE
 40
1.0
  9
$ATTMODE
 70
     1
  9
$TEXTSIZE
 40
0.008
  9
$TRACEWID
 40
1.0
  9
$TEXTSTYLE
  7
style1
  9
$CLAYER
  8
Sezione
  9
$CELTYPE
  6
ACAD_ISO10W100
  9
$CECOLOR
 62
   256
  9
$CELTSCALE
 40
1.0
  9
$DISPSILH
 70
     0
  9
$DIMSCALE
 40
0.001
  9
$DIMASZ
 40
1.5
  9
$DIMEXO
 40
0.0625
  9
$DIMDLI
 40
0.38
  9
$DIMRND
 40
0.0
  9
$DIMDLE
 40
0.0
  9
$DIMEXE
 40
0.18
  9
$DIMTP
 40
0.0
  9
$DIMTM
 40
0.0
  9
$DIMTXT
 40
3.0
  9
$DIMCEN
 40
0.0
  9
$DIMTSZ
 40
0.0
  9
$DIMTOL
 70
     0
  9
$DIMLIM
 70
     0
  9
$DIMTIH
 70
     1
  9
$DIMTOH
 70
     1
  9
$DIMSE1
 70
     0
  9
$DIMSE2
 70
     0
  9
$DIMTAD
 70
     0
  9
$DIMZIN
 70
     0
  9
$DIMBLK
  1
ArchTick
  9
$DIMASO
 70
     1
  9
$DIMSHO
 70
     1
  9
$DIMPOST
  1

  9
$DIMAPOST
  1

  9
$DIMALT
 70
     0
  9
$DIMALTD
 70
     2
  9
$DIMALTF
 40
25.4
  9
$DIMLFAC
 40
1.0
  9
$DIMTOFL
 70
     0
  9
$DIMTVP
 40
0.0
  9
$DIMTIX
 70
     0
  9
$DIMSOXD
 70
     0
  9
$DIMSAH
 70
     0
  9
$DIMBLK1
  1

  9
$DIMBLK2
  1

  9
$DIMSTYLE
  2
Bovelacci
  9
$DIMCLRD
 70
     5
  9
$DIMCLRE
 70
     5
  9
$DIMCLRT
 70
     4
  9
$DIMTFAC
 40
1.0
  9
$DIMGAP
 40
2.0
  9
$DIMJUST
 70
     0
  9
$DIMSD1
 70
     0
  9
$DIMSD2
 70
     0
  9
$DIMTOLJ
 70
     1
  9
$DIMTZIN
 70
     0
  9
$DIMALTZ
 70
     0
  9
$DIMALTTZ
 70
     0
  9
$DIMUPT
 70
     0
  9
$DIMDEC
 70
     2
  9
$DIMTDEC
 70
     2
  9
$DIMALTU
 70
     2
  9
$DIMALTTD
 70
     2
  9
$DIMTXSTY
  7
ROMANS
  9
$DIMAUNIT
 70
     0
  9
$DIMADEC
 70
     0
  9
$DIMALTRND
 40
0.0
  9
$DIMAZIN
 70
     0
  9
$DIMDSEP
 70
    46
  9
$DIMATFIT
 70
     3
  9
$DIMFRAC
 70
     0
  9
$DIMLDRBLK
  1

  9
$DIMLUNIT
 70
     2
  9
$DIMLWD
 70
    -2
  9
$DIMLWE
 70
    -2
  9
$DIMTMOVE
 70
     2
  9
$LUNITS
 70
     2
  9
$LUPREC
 70
     2
  9
$SKETCHINC
 40
1.0
  9
$FILLETRAD
 40
0.0
  9
$AUNITS
 70
     0
  9
$AUPREC
 70
     0
  9
$MENU
  1
.
  9
$ELEVATION
 40
0.0
  9
$PELEVATION
 40
0.0
  9
$THICKNESS
 40
0.0
  9
$LIMCHECK
 70
     0
  9
$CHAMFERA
 40
0.0
  9
$CHAMFERB
 40
0.0
  9
$CHAMFERC
 40
0.0
  9
$CHAMFERD
 40
0.0
  9
$SKPOLY
 70
     0
  9
$TDCREATE
 40
2454297.625402373
  9
$TDUCREATE
 40
2454297.542069039
  9
$TDUPDATE
 40
2454306.023845845
  9
$TDUUPDATE
 40
2454305.940512512
  9
$TDINDWG
 40
0.0903843056
  9
$TDUSRTIMER
 40
0.0903823032
  9
$USRTIMER
 70
     1
  9
$ANGBASE
 50
0.0
  9
$ANGDIR
 70
     0
  9
$PDMODE
 70
     0
  9
$PDSIZE
 40
0.0
  9
$PLINEWID
 40
0.0
  9
$SPLFRAME
 70
     0
  9
$SPLINETYPE
 70
     6
  9
$SPLINESEGS
 70
     8
  9
$HANDSEED
  5
439
  9
$SURFTAB1
 70
     6
  9
$SURFTAB2
 70
     6
  9
$SURFTYPE
 70
     6
  9
$SURFU
 70
     6
  9
$SURFV
 70
     6
  9
$UCSBASE
  2

  9
$UCSNAME
  2

  9
$UCSORG
 10
0.0
 20
0.0
 30
0.0
  9
$UCSXDIR
 10
1.0
 20
0.0
 30
0.0
  9
$UCSYDIR
 10
0.0
 20
1.0
 30
0.0
  9
$UCSORTHOREF
  2

  9
$UCSORTHOVIEW
 70
     0
  9
$UCSORGTOP
 10
0.0
 20
0.0
 30
0.0
  9
$UCSORGBOTTOM
 10
0.0
 20
0.0
 30
0.0
  9
$UCSORGLEFT
 10
0.0
 20
0.0
 30
0.0
  9
$UCSORGRIGHT
 10
0.0
 20
0.0
 30
0.0
  9
$UCSORGFRONT
 10
0.0
 20
0.0
 30
0.0
  9
$UCSORGBACK
 10
0.0
 20
0.0
 30
0.0
  9
$PUCSBASE
  2

  9
$PUCSNAME
  2

  9
$PUCSORG
 10
0.0
 20
0.0
 30
0.0
  9
$PUCSXDIR
 10
1.0
 20
0.0
 30
0.0
  9
$PUCSYDIR
 10
0.0
 20
1.0
 30
0.0
  9
$PUCSORTHOREF
  2

  9
$PUCSORTHOVIEW
 70
     0
  9
$PUCSORGTOP
 10
0.0
 20
0.0
 30
0.0
  9
$PUCSORGBOTTOM
 10
0.0
 20
0.0
 30
0.0
  9
$PUCSORGLEFT
 10
0.0
 20
0.0
 30
0.0
  9
$PUCSORGRIGHT
 10
0.0
 20
0.0
 30
0.0
  9
$PUCSORGFRONT
 10
0.0
 20
0.0
 30
0.0
  9
$PUCSORGBACK
 10
0.0
 20
0.0
 30
0.0
  9
$USERI1
 70
     0
  9
$USERI2
 70
     0
  9
$USERI3
 70
     0
  9
$USERI4
 70
     0
  9
$USERI5
 70
     0
  9
$USERR1
 40
0.0
  9
$USERR2
 40
0.0
  9
$USERR3
 40
0.0
  9
$USERR4
 40
0.0
  9
$USERR5
 40
0.0
  9
$WORLDVIEW
 70
     1
  9
$SHADEDGE
 70
     3
  9
$SHADEDIF
 70
    70
  9
$TILEMODE
 70
     1
  9
$MAXACTVP
 70
    64
  9
$PINSBASE
 10
0.0
 20
0.0
 30
0.0
  9
$PLIMCHECK
 70
     0
  9
$PEXTMIN
 10
1.000000000000000E+20
 20
1.000000000000000E+20
 30
1.000000000000000E+20
  9
$PEXTMAX
 10
-1.000000000000000E+20
 20
-1.000000000000000E+20
 30
-1.000000000000000E+20
  9
$PLIMMIN
 10
0.0
 20
0.0
  9
$PLIMMAX
 10
420.0
 20
297.0
  9
$UNITMODE
 70
     0
  9
$VISRETAIN
 70
     1
  9
$PLINEGEN
 70
     0
  9
$PSLTSCALE
 70
     1
  9
$TREEDEPTH
 70
  3020
  9
$CMLSTYLE
  2
Standard
  9
$CMLJUST
 70
     0
  9
$CMLSCALE
 40
20.0
  9
$PROXYGRAPHICS
 70
     1
  9
$MEASUREMENT
 70
     1
  9
$CELWEIGHT
370
    -1
  9
$ENDCAPS
280
     0
  9
$JOINSTYLE
280
     0
  9
$LWDISPLAY
290
     0
  9
$INSUNITS
 70
     4
  9
$HYPERLINKBASE
  1

  9
$STYLESHEET
  1

  9
$XEDIT
290
     1
  9
$CEPSNTYPE
380
     0
  9
$PSTYLEMODE
290
     1
  9
$FINGERPRINTGUID
  2
{904A8C64-524F-4709-A9C6-320D2C273A6D}
  9
$VERSIONGUID
  2
{F9A554D6-39BB-4EE7-8974-EA84E6678A88}
  9
$EXTNAMES
290
     1
  9
$PSVPSCALE
 40
0.0
  9
$OLESTARTUP
290
     0
  0
ENDSEC
  0
SECTION
  2
CLASSES
  0
CLASS
  1
ACDBDICTIONARYWDFLT
  2
AcDbDictionaryWithDefault
  3
ObjectDBX Classes
 90
        0
280
     0
281
     0
  0
CLASS
  1
TABLESTYLE
  2
AcDbTableStyle
  3
ObjectDBX Classes
 90
     2047
280
     0
281
     0
  0
CLASS
  1
SORTENTSTABLE
  2
AcDbSortentsTable
  3
ObjectDBX Classes
 90
        0
280
     0
281
     0
  0
CLASS
  1
DICTIONARYVAR
  2
AcDbDictionaryVar
  3
ObjectDBX Classes
 90
        0
280
     0
281
     0
  0
CLASS
  1
ACDBPLACEHOLDER
  2
AcDbPlaceHolder
  3
ObjectDBX Classes
 90
        0
280
     0
281
     0
  0
CLASS
  1
LAYOUT
  2
AcDbLayout
  3
ObjectDBX Classes
 90
        0
280
     0
281
     0
  0
CLASS
  1
DIMASSOC
  2
AcDbDimAssoc
  3
"AcDbDimAssoc|Product Desc:     AcDim ARX App For Dimension|Company:          Autodesk, Inc.|WEB Address:      www.autodesk.com"
 90
        0
280
     0
281
     0
  0
CLASS
  1
MATERIAL
  2
AcDbMaterial
  3
ObjectDBX Classes
 90
        0
280
     0
281
     0
  0
CLASS
  1
VISUALSTYLE
  2
AcDbVisualStyle
  3
ObjectDBX Classes
 90
     4095
280
     0
281
     0
  0
ENDSEC
  0
SECTION
  2
TABLES
  0
TABLE
  2
VPORT
  5
177
330
0
100
AcDbSymbolTable
 70
     7
  0
VPORT
  5
42E
330
177
100
AcDbSymbolTableRecord
100
AcDbViewportTableRecord
  2
*Active
 70
     0
 10
0.0
 20
0.0
 11
1.0
 21
1.0
 12
0.207367794685221
 22
0.1485922529096673
 13
0.0
 23
0.0
 14
10.0
 24
10.0
 15
10.0
 25
10.0
 16
0.0
 26
0.0
 36
1.0
 17
0.0
 27
0.0
 37
0.0
 40
0.2773204250152947
 41
1.546526867627784
 42
50.0
 43
0.0
 44
0.0
 50
0.0
 51
0.0
 71
     0
 72
  1000
 73
     1
 74
     3
 75
     0
 76
     0
 77
     0
 78
     0
281
     0
 65
     1
110
0.0
120
0.0
130
0.0
111
1.0
121
0.0
131
0.0
112
0.0
122
1.0
132
0.0
 79
     0
146
0.0
  0
ENDTAB
  0
TABLE
  2
LTYPE
  5
172
330
0
100
AcDbSymbolTable
 70
     3
  0
LTYPE
  5
173
330
172
100
AcDbSymbolTableRecord
100
AcDbLinetypeTableRecord
  2
ByBlock
 70
     0
  3

 72
    65
 73
     0
 40
0.0
  0
LTYPE
  5
174
330
172
100
AcDbSymbolTableRecord
100
AcDbLinetypeTableRecord
  2
ByLayer
 70
     0
  3

 72
    65
 73
     0
 40
0.0
  0
LTYPE
  5
C
330
172
100
AcDbSymbolTableRecord
100
AcDbLinetypeTableRecord
  2
Continuous
 70
     0
  3
Solid line
 72
    65
 73
     0
 40
0.0
  0
LTYPE
  5
14E
330
172
100
AcDbSymbolTableRecord
100
AcDbLinetypeTableRecord
  2
ACAD_ISO10W100
 70
     0
  3
ISO dash dot __ . __ . __ . __ . __ . __ . __ .
 72
    65
 73
     4
 40
18.0
 49
12.0
 74
     0
 49
-3.0
 74
     0
 49
0.0
 74
     0
 49
-3.0
 74
     0
  0
ENDTAB
  0
TABLE
  2
LAYER
  5
16D
102
{ACAD_XDICTIONARY
360
16E
102
}
330
0
100
AcDbSymbolTable
 70
     7
  0
LAYER
  5
6
330
16D
100
AcDbSymbolTableRecord
100
AcDbLayerTableRecord
  2
0
 70
     0
 62
     7
  6
Continuous
370
    -3
390
7
  0
LAYER
  5
15F
330
16D
100
AcDbSymbolTableRecord
100
AcDbLayerTableRecord
  2
Defpoints
 70
     0
 62
     7
  6
Continuous
290
     0
370
    -3
390
7
  0
LAYER
  5
28
330
16D
100
AcDbSymbolTableRecord
100
AcDbLayerTableRecord
  2
Profilo
 70
     0
 62
     1
  6
Continuous
370
    -3
390
7
1001
AcAecLayerStandard
1000

1000

  0
LAYER
  5
14D
330
16D
100
AcDbSymbolTableRecord
100
AcDbLayerTableRecord
  2
Sezione
 70
     0
 62
     2
  6
Continuous
370
    -3
390
7
1001
AcAecLayerStandard
1000

1000

  0
LAYER
  5
E
330
16D
100
AcDbSymbolTableRecord
100
AcDbLayerTableRecord
  2
Table
 70
     0
 62
     3
  6
Continuous
370
    -3
390
7
1001
AcAecLayerStandard
1000

1000

  0
LAYER
  5
19
330
16D
100
AcDbSymbolTableRecord
100
AcDbLayerTableRecord
  2
Text
 70
     0
 62
     4
  6
Continuous
370
    -3
390
7
1001
AcAecLayerStandard
1000

1000

  0
LAYER
  5
256
330
16D
100
AcDbSymbolTableRecord
100
AcDbLayerTableRecord
  2
Bovelacci
 70
     0
 62
     9
  6
Continuous
370
    -3
390
7
1001
AcAecLayerStandard
1000

1000

  0
ENDTAB
  0
TABLE
  2
STYLE
  5
170
330
0
100
AcDbSymbolTable
 70
     3
  0
STYLE
  5
1A
330
170
100
AcDbSymbolTableRecord
100
AcDbTextStyleTableRecord
  2
Standard
 70
     0
 40
0.0
 41
1.0
 50
0.0
 71
     0
 42
2.5
  3
txt
  4

  0
STYLE
  5
20
330
170
100
AcDbSymbolTableRecord
100
AcDbTextStyleTableRecord
  2
ROMANS
 70
     0
 40
0.0
 41
1.0
 50
0.0
 71
     0
 42
2.5
  3
romans
  4

  0
STYLE
  5
26
330
170
100
AcDbSymbolTableRecord
100
AcDbTextStyleTableRecord
  2
style1
 70
     0
 40
0.0
 41
1.0
 50
0.0
 71
     0
 42
0.008
  3
TIMES.TTF
  4

1001
ACAD
1000
Times New Roman
1071
       18
  0
ENDTAB
  0
TABLE
  2
VIEW
  5
175
330
0
100
AcDbSymbolTable
 70
     2
  0
ENDTAB
  0
TABLE
  2
UCS
  5
176
330
0
100
AcDbSymbolTable
 70
     0
  0
ENDTAB
  0
TABLE
  2
APPID
  5
17B
330
0
100
AcDbSymbolTable
 70
    10
  0
APPID
  5
1B
330
17B
100
AcDbSymbolTableRecord
100
AcDbRegAppTableRecord
  2
ACAD
 70
     0
  0
APPID
  5
157
330
17B
100
AcDbSymbolTableRecord
100
AcDbRegAppTableRecord
  2
ACAD_DSTYLE_DIMJOGGED_JOGANGLE_SYMBOL
 70
     0
  0
APPID
  5
F
330
17B
100
AcDbSymbolTableRecord
100
AcDbRegAppTableRecord
  2
AcAecLayerStandard
 70
     0
  0
APPID
  5
19C
330
17B
100
AcDbSymbolTableRecord
100
AcDbRegAppTableRecord
  2
ACAD_DSTYLE_DIMFLIPARROW_WHICH_SYMBOL
 70
     0
  0
APPID
  5
1A7
330
17B
100
AcDbSymbolTableRecord
100
AcDbRegAppTableRecord
  2
ACAD_DSTYLE_DIMEXT_LENGTH
 70
     0
  0
APPID
  5
1D2
330
17B
100
AcDbSymbolTableRecord
100
AcDbRegAppTableRecord
  2
ACAD_EXEMPT_FROM_CAD_STANDARDS
 70
     0
  0
APPID
  5
1D3
330
17B
100
AcDbSymbolTableRecord
100
AcDbRegAppTableRecord
  2
ACAD_DSTYLE_DIM_LINETYPE
 70
     0
  0
APPID
  5
1D4
330
17B
100
AcDbSymbolTableRecord
100
AcDbRegAppTableRecord
  2
ACAD_DSTYLE_DIM_EXT1_LINETYPE
 70
     0
  0
APPID
  5
1D5
330
17B
100
AcDbSymbolTableRecord
100
AcDbRegAppTableRecord
  2
ACAD_DSTYLE_DIM_EXT2_LINETYPE
 70
     0
  0
APPID
  5
25C
330
17B
100
AcDbSymbolTableRecord
100
AcDbRegAppTableRecord
  2
ACAD_PSEXT
 70
     0
  0
ENDTAB
  0
TABLE
  2
DIMSTYLE
  5
17C
330
0
100
AcDbSymbolTable
 70
     8
100
AcDbDimStyleTable
 71
     2
340
156
340
17D
  0
DIMSTYLE
105
17D
330
17C
100
AcDbSymbolTableRecord
100
AcDbDimStyleTableRecord
  2
ISO-25
 70
     0
 41
2.5
 42
0.625
 43
3.75
 44
1.25
 73
     0
 74
     0
 77
     1
 78
     8
140
2.5
141
2.5
143
0.03937007874016
147
0.625
171
     3
172
     1
271
     2
272
     2
274
     3
278
    44
283
     0
284
     8
340
1A
  0
DIMSTYLE
105
156
102
{ACAD_REACTORS
330
40E
102
}
330
17C
100
AcDbSymbolTableRecord
100
AcDbDimStyleTableRecord
  2
Bovelacci
 70
     0
 40
0.001
 41
1.5
140
3.0
141
0.0
147
2.0
176
     5
177
     5
178
     4
271
     2
272
     2
279
     2
340
20
342
152
1001
ACAD_DSTYLE_DIMJOGGED_JOGANGLE_SYMBOL
1070
   384
1040
0.7853981633974483
1001
ACAD_DSTYLE_DIMEXT_LENGTH
1070
   378
1040
0.18
  0
DIMSTYLE
105
257
330
17C
100
AcDbSymbolTableRecord
100
AcDbDimStyleTableRecord
  2
Dim 1-100
 70
     0
 40
0.1
 41
1.5
 42
0.0
 43
5.0
 44
1.25
 45
0.005
 46
1.25
 73
     0
 74
     0
 77
     1
 78
     9
140
2.0
141
2.5
147
1.0
172
     1
174
     1
179
     2
279
     2
289
     2
340
20
342
152
  0
DIMSTYLE
105
258
330
17C
100
AcDbSymbolTableRecord
100
AcDbDimStyleTableRecord
  2
Standard
 70
     0
 42
0.0
 73
     0
 74
     0
 77
     1
271
     2
272
     2
340
20
  0
DIMSTYLE
105
259
330
17C
100
AcDbSymbolTableRecord
100
AcDbDimStyleTableRecord
  2
Dim 1-50
 70
     0
 40
0.05
 41
1.5
 42
0.0
 43
5.0
 44
1.25
 45
0.005
 46
1.25
 73
     0
 74
     0
 77
     1
 78
     9
140
2.0
141
2.5
147
1.0
172
     1
174
     1
179
     2
279
     2
289
     2
340
20
342
152
  0
DIMSTYLE
105
25A
330
17C
100
AcDbSymbolTableRecord
100
AcDbDimStyleTableRecord
  2
Dim 1-200
 70
     0
 40
0.2
 41
1.5
 42
0.0
 43
5.0
 44
1.25
 45
0.005
 46
1.25
 73
     0
 74
     0
 77
     1
 78
     9
140
2.0
141
2.5
147
1.0
172
     1
174
     1
179
     2
271
     2
272
     2
279
     2
289
     2
340
20
342
152
  0
DIMSTYLE
105
25B
330
17C
100
AcDbSymbolTableRecord
100
AcDbDimStyleTableRecord
  2
AEC Scale - Italiano
 70
     0
 41
1.0
 42
10.0
 43
10.0
 44
10.0
 73
     0
 74
     0
 75
     1
 76
     1
 77
     1
140
10.0
141
1.0
147
10.0
173
     1
271
     0
272
     0
279
     2
340
1A
343
251
344
24B
  0
ENDTAB
  0
TABLE
  2
BLOCK_RECORD
  5
1
330
0
100
AcDbSymbolTable
 70
    12
  0
BLOCK_RECORD
  5
2
102
{ACAD_XDICTIONARY
360
3
102
}
330
1
100
AcDbSymbolTableRecord
100
AcDbBlockTableRecord
  2
*Model_Space
340
163
  0
BLOCK_RECORD
  5
165
330
1
100
AcDbSymbolTableRecord
100
AcDbBlockTableRecord
  2
*Paper_Space
340
168
  0
BLOCK_RECORD
  5
169
330
1
100
AcDbSymbolTableRecord
100
AcDbBlockTableRecord
  2
*Paper_Space0
340
16C
  0
BLOCK_RECORD
  5
152
330
1
100
AcDbSymbolTableRecord
100
AcDbBlockTableRecord
  2
_ArchTick
340
0
310
2800000020000000200000000100080000000000000400000000000000000000000000000000000000000000000080000080000000808000800000008000800080800000C0C0C000C0DCC000F0CAA6000020400000206000002080000020A0000020C0000020E00000400000004020000040400000406000004080000040A0
310
000040C0000040E00000600000006020000060400000606000006080000060A0000060C0000060E00000800000008020000080400000806000008080000080A0000080C0000080E00000A0000000A0200000A0400000A0600000A0800000A0A00000A0C00000A0E00000C0000000C0200000C0400000C0600000C0800000C0
310
A00000C0C00000C0E00000E0000000E0200000E0400000E0600000E0800000E0A00000E0C00000E0E00040000000400020004000400040006000400080004000A0004000C0004000E00040200000402020004020400040206000402080004020A0004020C0004020E000404000004040200040404000404060004040800040
310
40A0004040C0004040E00040600000406020004060400040606000406080004060A0004060C0004060E00040800000408020004080400040806000408080004080A0004080C0004080E00040A0000040A0200040A0400040A0600040A0800040A0A00040A0C00040A0E00040C0000040C0200040C0400040C0600040C08000
310
40C0A00040C0C00040C0E00040E0000040E0200040E0400040E0600040E0800040E0A00040E0C00040E0E00080000000800020008000400080006000800080008000A0008000C0008000E00080200000802020008020400080206000802080008020A0008020C0008020E00080400000804020008040400080406000804080
310
008040A0008040C0008040E00080600000806020008060400080606000806080008060A0008060C0008060E00080800000808020008080400080806000808080008080A0008080C0008080E00080A0000080A0200080A0400080A0600080A0800080A0A00080A0C00080A0E00080C0000080C0200080C0400080C0600080C0
310
800080C0A00080C0C00080C0E00080E0000080E0200080E0400080E0600080E0800080E0A00080E0C00080E0E000C0000000C0002000C0004000C0006000C0008000C000A000C000C000C000E000C0200000C0202000C0204000C0206000C0208000C020A000C020C000C020E000C0400000C0402000C0404000C0406000C0
310
408000C040A000C040C000C040E000C0600000C0602000C0604000C0606000C0608000C060A000C060C000C060E000C0800000C0802000C0804000C0806000C0808000C080A000C080C000C080E000C0A00000C0A02000C0A04000C0A06000C0A08000C0A0A000C0A0C000C0A0E000C0C00000C0C02000C0C04000C0C06000
310
C0C08000C0C0A000F0FBFF00A4A0A000808080000000FF0000FF000000FFFF00FF000000FF00FF00FFFF0000FFFFFF00000000FF000000000000000000000000000000000000000000000000000000000000FF00FF00000000000000000000000000000000000000000000000000000000FF000000FF000000000000000000
310
0000000000000000000000000000000000FF0000000000FF0000000000000000000000000000000000000000000000000000FF0000000000FF0000000000000000000000000000000000000000000000000000FF0000000000FF0000000000000000000000000000000000000000000000000000FF0000000000FF00000000
310
00000000000000000000000000000000000000000000FF0000000000FF0000000000000000000000000000000000000000000000000000FF0000000000FF0000000000000000000000000000000000000000000000000000FF0000000000FF0000000000000000000000000000000000000000000000000000FF0000000000
310
FF0000000000000000000000000000000000000000000000000000FF0000000000FF0000000000000000000000000000000000000000000000000000FF0000000000FF0000000000000000000000000000000000000000000000000000FF0000000000FF0000000000000000000000000000000000000000000000000000FF
310
0000000000FF0000000000000000000000000000000000000000000000000000FF0000000000FF0000000000000000000000000000000000000000000000000000FF0000000000FF0000000000000000000000000000000000000000000000000000FF0000000000FF00000000000000000000000000000000000000000000
310
00000000FF0000000000FF0000000000000000000000000000000000000000000000000000FF0000000000FF0000000000000000000000000000000000000000000000000000FF0000000000FF0000000000000000000000000000000000000000000000000000FF0000000000FF0000000000000000000000000000000000
310
000000000000000000FF0000000000FF0000000000000000000000000000000000000000000000000000FF0000000000FF0000000000000000000000000000000000000000000000000000FF0000000000FF0000000000000000000000000000000000000000000000000000FF0000000000FF000000000000000000000000
310
0000000000000000000000000000FF0000000000FF0000000000000000000000000000000000000000000000000000FF0000000000FF0000000000000000000000000000000000000000000000000000FF0000000000FF0000000000000000000000000000000000000000000000000000FF000000FF000000000000000000
310
00000000000000000000000000000000000000FF00FF000000000000000000000000000000000000000000000000000000000000FF000000
102
{BLKREFS
331
15D
331
211
331
318
331
354
331
429
102
}
  0
BLOCK_RECORD
  5
19E
330
1
100
AcDbSymbolTableRecord
100
AcDbBlockTableRecord
  2
*D2
340
0
  0
BLOCK_RECORD
  5
24B
330
1
100
AcDbSymbolTableRecord
100
AcDbBlockTableRecord
  2
_Arrivo
340
0
310
2800000020000000200000000100080000000000000400000000000000000000000000000000000000000000000080000080000000808000800000008000800080800000C0C0C000C0DCC000F0CAA6000020400000206000002080000020A0000020C0000020E00000400000004020000040400000406000004080000040A0
310
000040C0000040E00000600000006020000060400000606000006080000060A0000060C0000060E00000800000008020000080400000806000008080000080A0000080C0000080E00000A0000000A0200000A0400000A0600000A0800000A0A00000A0C00000A0E00000C0000000C0200000C0400000C0600000C0800000C0
310
A00000C0C00000C0E00000E0000000E0200000E0400000E0600000E0800000E0A00000E0C00000E0E00040000000400020004000400040006000400080004000A0004000C0004000E00040200000402020004020400040206000402080004020A0004020C0004020E000404000004040200040404000404060004040800040
310
40A0004040C0004040E00040600000406020004060400040606000406080004060A0004060C0004060E00040800000408020004080400040806000408080004080A0004080C0004080E00040A0000040A0200040A0400040A0600040A0800040A0A00040A0C00040A0E00040C0000040C0200040C0400040C0600040C08000
310
40C0A00040C0C00040C0E00040E0000040E0200040E0400040E0600040E0800040E0A00040E0C00040E0E00080000000800020008000400080006000800080008000A0008000C0008000E00080200000802020008020400080206000802080008020A0008020C0008020E00080400000804020008040400080406000804080
310
008040A0008040C0008040E00080600000806020008060400080606000806080008060A0008060C0008060E00080800000808020008080400080806000808080008080A0008080C0008080E00080A0000080A0200080A0400080A0600080A0800080A0A00080A0C00080A0E00080C0000080C0200080C0400080C0600080C0
310
800080C0A00080C0C00080C0E00080E0000080E0200080E0400080E0600080E0800080E0A00080E0C00080E0E000C0000000C0002000C0004000C0006000C0008000C000A000C000C000C000E000C0200000C0202000C0204000C0206000C0208000C020A000C020C000C020E000C0400000C0402000C0404000C0406000C0
310
408000C040A000C040C000C040E000C0600000C0602000C0604000C0606000C0608000C060A000C060C000C060E000C0800000C0802000C0804000C0806000C0808000C080A000C080C000C080E000C0A00000C0A02000C0A04000C0A06000C0A08000C0A0A000C0A0C000C0A0E000C0C00000C0C02000C0C04000C0C06000
310
C0C08000C0C0A000F0FBFF00A4A0A000808080000000FF0000FF000000FFFF00FF000000FF00FF00FFFF0000FFFFFF00000000000000000000000000000000000000000000000000000000000000000000000000000000000000FF0000000000000000000000000000000000000000000000000000000000000000FF000000
310
00000000000000000000000000000000000000000000000000000000FF0000000000000000000000000000000000000000000000000000000000000000FF00000000000000000000000000000000000000000000000000000000000000FF0000000000000000000000000000000000000000000000000000000000000000FF
310
0000000000000000000000000000000000000000000000000000000000000000FF00000000000000000000000000000000000000000000000000000000000000FF0000000000000000000000000000000000000000000000000000000000000000FF0000000000000000000000000000000000000000000000000000000000
310
0000FF0000000000000000000000000000000000000000000000000000000000000000FF00000000000000000000000000000000000000000000000000000000000000FF0000000000000000000000000000000000000000000000000000000000000000FF0000FF0000000000000000000000000000000000000000000000
310
000000000000FFFF000000000000000000000000000000000000000000000000000000000000FFFF00000000000000000000000000000000000000000000000000000000FFFFFFFFFFFF00000000000000000000000000000000000000000000000000000000FFFF0000000000000000000000000000000000000000000000
310
000000000000FF0000FF000000000000000000000000000000000000000000000000000000FF00000000000000000000000000000000000000000000000000000000000000FF000000000000000000000000000000000000000000000000000000000000FF0000000000000000000000000000000000000000000000000000
310
0000000000FF000000000000000000000000000000000000000000000000000000000000FF00000000000000000000000000000000000000000000000000000000000000FF000000000000000000000000000000000000000000000000000000000000FF000000000000000000000000000000000000000000000000000000
310
000000FF00000000000000000000000000000000000000000000000000000000000000FF000000000000000000000000000000000000000000000000000000000000FF00000000000000000000000000000000000000000000000000000000000000FF00000000000000000000000000000000000000000000000000000000
310
0000FF0000000000000000000000000000000000000000000000000000000000000000000000000000000000000000000000000000000000
  0
BLOCK_RECORD
  5
251
330
1
100
AcDbSymbolTableRecord
100
AcDbBlockTableRecord
  2
_Partenza
340
0
310
2800000020000000200000000100080000000000000400000000000000000000000000000000000000000000000080000080000000808000800000008000800080800000C0C0C000C0DCC000F0CAA6000020400000206000002080000020A0000020C0000020E00000400000004020000040400000406000004080000040A0
310
000040C0000040E00000600000006020000060400000606000006080000060A0000060C0000060E00000800000008020000080400000806000008080000080A0000080C0000080E00000A0000000A0200000A0400000A0600000A0800000A0A00000A0C00000A0E00000C0000000C0200000C0400000C0600000C0800000C0
310
A00000C0C00000C0E00000E0000000E0200000E0400000E0600000E0800000E0A00000E0C00000E0E00040000000400020004000400040006000400080004000A0004000C0004000E00040200000402020004020400040206000402080004020A0004020C0004020E000404000004040200040404000404060004040800040
310
40A0004040C0004040E00040600000406020004060400040606000406080004060A0004060C0004060E00040800000408020004080400040806000408080004080A0004080C0004080E00040A0000040A0200040A0400040A0600040A0800040A0A00040A0C00040A0E00040C0000040C0200040C0400040C0600040C08000
310
40C0A00040C0C00040C0E00040E0000040E0200040E0400040E0600040E0800040E0A00040E0C00040E0E00080000000800020008000400080006000800080008000A0008000C0008000E00080200000802020008020400080206000802080008020A0008020C0008020E00080400000804020008040400080406000804080
310
008040A0008040C0008040E00080600000806020008060400080606000806080008060A0008060C0008060E00080800000808020008080400080806000808080008080A0008080C0008080E00080A0000080A0200080A0400080A0600080A0800080A0A00080A0C00080A0E00080C0000080C0200080C0400080C0600080C0
310
800080C0A00080C0C00080C0E00080E0000080E0200080E0400080E0600080E0800080E0A00080E0C00080E0E000C0000000C0002000C0004000C0006000C0008000C000A000C000C000C000E000C0200000C0202000C0204000C0206000C0208000C020A000C020C000C020E000C0400000C0402000C0404000C0406000C0
310
408000C040A000C040C000C040E000C0600000C0602000C0604000C0606000C0608000C060A000C060C000C060E000C0800000C0802000C0804000C0806000C0808000C080A000C080C000C080E000C0A00000C0A02000C0A04000C0A06000C0A08000C0A0A000C0A0C000C0A0E000C0C00000C0C02000C0C04000C0C06000
310
C0C08000C0C0A000F0FBFF00A4A0A000808080000000FF0000FF000000FFFF00FF000000FF00FF00FFFF0000FFFFFF0000000000000000000000000000000000000000000000000000000000000000000000000000000000000000000000000000000000000000000000000000000000000000000000000000000000000000
310
000000000000000000000000000000000000000000000000000000000000000000000000000000000000000000000000000000000000000000000000000000000000000000000000000000000000000000000000000000000000000000000000000000000000000000000000000000000000FFFFFFFFFFFFFFFFFFFFFFFFFF
310
FFFFFFFFFFFFFFFFFFFFFFFFFFFFFFFFFF0000000000000000000000000000000000000000000000000000000000000000000000000000000000000000000000000000000000000000000000000000000000000000000000000000000000000000000000000000000000000000000000000000000000000000000000000000
310
00000000000000000000000000000000000000000000000000000000000000000000000000000000000000000000000000000000000000000000000000000000000000000000000000000000000000000000000000000000000000000000000000000000000000000000000000000000000000000000000000000000000000
310
00000000000000000000000000000000000000000000000000000000000000000000000000000000000000000000000000000000000000000000000000000000000000000000000000000000000000000000000000000000000000000000000000000000000000000000000000000000000000000000000000000000000000
310
00000000000000000000000000000000000000000000000000000000000000000000000000000000000000000000000000000000000000000000000000000000000000000000000000000000000000000000000000000000000000000000000000000000000000000000000000000000000000000000000000000000000000
310
000000000000000000000000000000000000000000000000000000000000000000000000000000000000000000000000000000000000000000000000000000000000000000000000000000000000000000000000000000FFFFFFFFFFFFFFFFFFFFFFFFFFFFFFFFFFFFFFFFFFFFFFFFFFFFFFFFFFFF00000000000000000000
310
00000000000000000000000000000000000000000000000000000000000000000000000000000000000000000000000000000000000000000000000000000000000000000000000000000000000000000000000000000000000000000000000000000000000000000000000000000000000000000000000000000000000000
310
0000000000000000000000000000000000000000000000000000000000000000000000000000000000000000000000000000000000000000
  0
BLOCK_RECORD
  5
2FE
330
1
100
AcDbSymbolTableRecord
100
AcDbBlockTableRecord
  2
*D7
340
0
  0
BLOCK_RECORD
  5
33A
330
1
100
AcDbSymbolTableRecord
100
AcDbBlockTableRecord
  2
*D9
340
0
  0
BLOCK_RECORD
  5
40F
330
1
100
AcDbSymbolTableRecord
100
AcDbBlockTableRecord
  2
*D11
340
0
  0
ENDTAB
  0
ENDSEC
  0
SECTION
  2
BLOCKS
  0
BLOCK
  5
5
330
2
100
AcDbEntity
  8
0
100
AcDbBlockBegin
  2
*Model_Space
 70
     0
 10
0.0
 20
0.0
 30
0.0
  3
*Model_Space
  1

  0
ENDBLK
  5
162
330
2
100
AcDbEntity
  8
0
100
AcDbBlockEnd
  0
BLOCK
  5
166
330
165
100
AcDbEntity
 67
     1
  8
0
100
AcDbBlockBegin
  2
*Paper_Space
 70
     0
 10
0.0
 20
0.0
 30
0.0
  3
*Paper_Space
  1

  0
ENDBLK
  5
167
330
165
100
AcDbEntity
 67
     1
  8
0
100
AcDbBlockEnd
  0
BLOCK
  5
16A
330
169
100
AcDbEntity
 67
     1
  8
0
100
AcDbBlockBegin
  2
*Paper_Space0
 70
     0
 10
0.0
 20
0.0
 30
0.0
  3
*Paper_Space0
  1

  0
ENDBLK
  5
16B
330
169
100
AcDbEntity
 67
     1
  8
0
100
AcDbBlockEnd
  0
BLOCK
  5
153
330
152
100
AcDbEntity
  8
0
 62
     1
100
AcDbBlockBegin
  2
_ArchTick
 70
     0
 10
0.0
 20
0.0
 30
0.0
  3
_ArchTick
  1

  0
LWPOLYLINE
  5
154
330
152
100
AcDbEntity
  8
0
  6
ByBlock
 62
     0
100
AcDbPolyline
 90
        2
 70
     0
 43
0.15
 10
-0.5
 20
-0.5
 10
0.5
 20
0.5
  0
ENDBLK
  5
155
330
152
100
AcDbEntity
  8
0
 62
     1
100
AcDbBlockEnd
  0
BLOCK
  5
1A5
330
19E
100
AcDbEntity
  8
0
100
AcDbBlockBegin
  2
*D2
 70
     1
 10
0.0
 20
0.0
 30
0.0
  3
*D2
  1

  0
LINE
  5
20E
330
19E
100
AcDbEntity
  8
Sezione
  6
ACAD_ISO10W100
 62
     5
370
    -2
100
AcDbLine
 10
0.2798037962738808
 20
0.1903534367689069
 30
0.0
 11
0.2529466534167379
 21
0.190353436768907
 31
0.0
  0
LINE
  5
20F
330
19E
100
AcDbEntity
  8
Sezione
  6
ACAD_ISO10W100
 62
     5
370
    -2
100
AcDbLine
 10
0.2529466534167379
 20
0.190353436768907
 30
0.0
 11
0.2507223528394369
 21
0.1883403577983203
 31
0.0
  0
MTEXT
  5
210
330
19E
100
AcDbEntity
  8
Sezione
  6
ACAD_ISO10W100
 62
     4
100
AcDbMText
 10
0.2673752248453093
 20
0.193853436768907
 30
0.0
 40
0.003
 41
0.0
 71
     5
 72
     1
  1
\A1;d 410 mm
  7
ROMANS
 73
     1
 44
1.0
1001
ACAD
1000
MTEXTBEGIN
1070
    73
1070
     1
1070
    44
1040
1.0
1070
    74
1070
     0
1000
MTEXTEND
  0
INSERT
  5
211
330
19E
100
AcDbEntity
  8
Sezione
  6
ACAD_ISO10W100
 62
     5
370
    -2
100
AcDbBlockReference
  2
_ArchTick
 10
0.2507223528394369
 20
0.1883403577983203
 30
0.0
 41
0.0015
 42
0.0015
 43
0.0015
 50
312.1463264419372
  0
POINT
  5
212
330
19E
100
AcDbEntity
  8
Defpoints
  6
ACAD_ISO10W100
 62
     0
100
AcDbPoint
 10
0.2507223528394369
 20
0.1883403577983203
 30
0.0
  0
POINT
  5
213
330
19E
100
AcDbEntity
  8
Defpoints
  6
ACAD_ISO10W100
 62
     0
100
AcDbPoint
 10
0.1747785735100222
 20
0.1196082688553671
 30
0.0
  0
ENDBLK
  5
1A6
330
19E
100
AcDbEntity
  8
0
100
AcDbBlockEnd
  0
BLOCK
  5
24C
330
24B
100
AcDbEntity
  8
0
100
AcDbBlockBegin
  2
_Arrivo
 70
     0
 10
0.0
 20
0.0
 30
0.0
  3
_Arrivo
  1

  0
LINE
  5
24D
330
24B
100
AcDbEntity
  8
0
  6
ByBlock
 62
     0
370
    -2
100
AcDbLine
 10
0.025
 20
-0.0433012701891858
 30
0.0
 11
-0.15
 21
0.2598076211353328
 31
0.0
  0
LINE
  5
24E
330
24B
100
AcDbEntity
  8
0
  6
ByBlock
 62
     0
370
    -2
100
AcDbLine
 10
0.025
 20
0.0433012701892585
 30
0.0
 11
-0.15
 21
-0.2598076211353328
 31
0.0
  0
LINE
  5
24F
330
24B
100
AcDbEntity
  8
0
  6
ByBlock
 62
     0
370
    -2
100
AcDbLine
 10
-0.05
 20
0.0
 30
0.0
 11
0.05
 21
0.0
 31
0.0
  0
ENDBLK
  5
250
330
24B
100
AcDbEntity
  8
0
100
AcDbBlockEnd
  0
BLOCK
  5
252
330
251
100
AcDbEntity
  8
0
100
AcDbBlockBegin
  2
_Partenza
 70
     0
 10
0.0
 20
0.0
 30
0.0
  3
_Partenza
  1

  0
LINE
  5
253
330
251
100
AcDbEntity
  8
0
  6
ByBlock
 62
     0
370
    -2
100
AcDbLine
 10
-0.05
 20
0.05
 30
0.0
 11
0.1
 21
0.05
 31
0.0
  0
LINE
  5
254
330
251
100
AcDbEntity
  8
0
  6
ByBlock
 62
     0
370
    -2
100
AcDbLine
 10
-0.05
 20
-0.05
 30
0.0
 11
0.1
 21
-0.05
 31
0.0
  0
ENDBLK
  5
255
330
251
100
AcDbEntity
  8
0
100
AcDbBlockEnd
  0
BLOCK
  5
305
330
2FE
100
AcDbEntity
  8
0
100
AcDbBlockBegin
  2
*D7
 70
     1
 10
0.0
 20
0.0
 30
0.0
  3
*D7
  1

  0
LINE
  5
315
330
2FE
100
AcDbEntity
  8
Text
  6
ACAD_ISO10W100
 62
     5
370
    -2
100
AcDbLine
 10
0.2815301135083527
 20
0.1950550445874022
 30
0.0
 11
0.2800301135083527
 21
0.1950550445874022
 31
0.0
  0
LINE
  5
316
330
2FE
100
AcDbEntity
  8
Text
  6
ACAD_ISO10W100
 62
     5
370
    -2
100
AcDbLine
 10
0.2800301135083527
 20
0.1950550445874022
 30
0.0
 11
0.2774233514293517
 21
0.1935701905664688
 31
0.0
  0
MTEXT
  5
317
330
2FE
100
AcDbEntity
  8
Text
  6
ACAD_ISO10W100
 62
     4
100
AcDbMText
 10
0.2959586849369241
 20
0.1950550445874023
 30
0.0
 40
0.003
 41
0.0
 71
     5
 72
     1
  1
\A1;d 155 mm
  7
ROMANS
 73
     1
 44
1.0
1001
ACAD
1000
MTEXTBEGIN
1070
    73
1070
     1
1070
    44
1040
1.0
1070
    74
1070
     0
1000
MTEXTEND
  0
INSERT
  5
318
330
2FE
100
AcDbEntity
  8
Text
  6
ACAD_ISO10W100
 62
     5
370
    -2
100
AcDbBlockReference
  2
_ArchTick
 10
0.2774233514293517
 20
0.1935701905664688
 30
0.0
 41
0.0015
 42
0.0015
 43
0.0015
 50
209.6665417139984
  0
POINT
  5
319
330
2FE
100
AcDbEntity
  8
Defpoints
  6
ACAD_ISO10W100
 62
     0
100
AcDbPoint
 10
0.2774233514293517
 20
0.1935701905664688
 30
0.0
  0
POINT
  5
31A
330
2FE
100
AcDbEntity
  8
Defpoints
  6
ACAD_ISO10W100
 62
     0
100
AcDbPoint
 10
0.1427406440142999
 20
0.1168527328182384
 30
0.0
  0
ENDBLK
  5
306
330
2FE
100
AcDbEntity
  8
0
100
AcDbBlockEnd
  0
BLOCK
  5
341
330
33A
100
AcDbEntity
  8
0
100
AcDbBlockBegin
  2
*D9
 70
     1
 10
0.0
 20
0.0
 30
0.0
  3
*D9
  1

  0
LINE
  5
351
330
33A
100
AcDbEntity
  8
Text
  6
ACAD_ISO10W100
 62
     5
370
    -2
100
AcDbLine
 10
0.2787524636959899
 20
0.1987712750328122
 30
0.0
 11
0.2772524636959899
 21
0.1987712750328122
 31
0.0
  0
LINE
  5
352
330
33A
100
AcDbEntity
  8
Text
  6
ACAD_ISO10W100
 62
     5
370
    -2
100
AcDbLine
 10
0.2772524636959899
 20
0.1987712750328122
 30
0.0
 11
0.274622579422064
 21
0.197327769332873
 31
0.0
  0
MTEXT
  5
353
330
33A
100
AcDbEntity
  8
Text
  6
ACAD_ISO10W100
 62
     4
100
AcDbMText
 10
0.2931810351245614
 20
0.1987712750328122
 30
0.0
 40
0.003
 41
0.0
 71
     5
 72
     1
  1
\A1;d 150 mm
  7
ROMANS
 73
     1
 44
1.0
1001
ACAD
1000
MTEXTBEGIN
1070
    73
1070
     1
1070
    44
1040
1.0
1070
    74
1070
     0
1000
MTEXTEND
  0
INSERT
  5
354
330
33A
100
AcDbEntity
  8
Text
  6
ACAD_ISO10W100
 62
     5
370
    -2
100
AcDbBlockReference
  2
_ArchTick
 10
0.274622579422064
 20
0.197327769332873
 30
0.0
 41
0.0015
 42
0.0015
 43
0.0015
 50
208.7617507883887
  0
POINT
  5
355
330
33A
100
AcDbEntity
  8
Defpoints
  6
ACAD_ISO10W100
 62
     0
100
AcDbPoint
 10
0.274622579422064
 20
0.197327769332873
 30
0.0
  0
POINT
  5
356
330
33A
100
AcDbEntity
  8
Defpoints
  6
ACAD_ISO10W100
 62
     0
100
AcDbPoint
 10
0.1431283657257678
 20
0.1251524843359102
 30
0.0
  0
ENDBLK
  5
342
330
33A
100
AcDbEntity
  8
0
100
AcDbBlockEnd
  0
BLOCK
  5
416
330
40F
100
AcDbEntity
  8
0
100
AcDbBlockBegin
  2
*D11
 70
     1
 10
0.0
 20
0.0
 30
0.0
  3
*D11
  1

  0
LINE
  5
426
330
40F
100
AcDbEntity
  8
Sezione
  6
ACAD_ISO10W100
 62
     5
370
    -2
100
AcDbLine
 10
0.2759037661605144
 20
0.2036876842792695
 30
0.0
 11
0.2744037661605144
 21
0.2036876842792696
 31
0.0
  0
LINE
  5
427
330
40F
100
AcDbEntity
  8
Sezione
  6
ACAD_ISO10W100
 62
     5
370
    -2
100
AcDbLine
 10
0.2744037661605144
 20
0.2036876842792696
 30
0.0
 11
0.2719719355577186
 21
0.2019309259238588
 31
0.0
  0
MTEXT
  5
428
330
40F
100
AcDbEntity
  8
Sezione
  6
ACAD_ISO10W100
 62
     4
100
AcDbMText
 10
0.2903323375890858
 20
0.2036876842792696
 30
0.0
 40
0.003
 41
0.0
 71
     5
 72
     1
  1
\A1;d 160 mm
  7
ROMANS
 73
     1
 44
1.0
1001
ACAD
1000
MTEXTBEGIN
1070
    73
1070
     1
1070
    44
1040
1.0
1070
    74
1070
     0
1000
MTEXTEND
  0
INSERT
  5
429
330
40F
100
AcDbEntity
  8
Sezione
  6
ACAD_ISO10W100
 62
     5
370
    -2
100
AcDbBlockReference
  2
_ArchTick
 10
0.2719719355577186
 20
0.2019309259238588
 30
0.0
 41
0.0015
 42
0.0015
 43
0.0015
 50
215.844407392604
  0
POINT
  5
42A
330
40F
100
AcDbEntity
  8
Defpoints
  6
ACAD_ISO10W100
 62
     0
100
AcDbPoint
 10
0.2719719355577186
 20
0.2019309259238588
 30
0.0
  0
POINT
  5
42B
330
40F
100
AcDbEntity
  8
Defpoints
  6
ACAD_ISO10W100
 62
     0
100
AcDbPoint
 10
0.1422743034086082
 20
0.1082371469686151
 30
0.0
  0
ENDBLK
  5
417
330
40F
100
AcDbEntity
  8
0
100
AcDbBlockEnd
  0
ENDSEC
  0
SECTION
  2
ENTITIES
  0
LINE
  5
D
330
2
100
AcDbEntity
  8
Table
100
AcDbLine
 10
0.02
 20
0.02
 30
0.0
 11
0.4
 21
0.02
 31
0.0
  0
LINE
  5
10
330
2
100
AcDbEntity
  8
Table
100
AcDbLine
 10
0.4
 20
0.02
 30
0.0
 11
0.4
 21
0.2769999999999999
 31
0.0
  0
LINE
  5
11
330
2
100
AcDbEntity
  8
Table
100
AcDbLine
 10
0.4
 20
0.2769999999999999
 30
0.0
 11
0.02
 21
0.277
 31
0.0
  0
LINE
  5
12
330
2
100
AcDbEntity
  8
Table
100
AcDbLine
 10
0.02
 20
0.277
 30
0.0
 11
0.02
 21
0.02
 31
0.0
  0
LINE
  5
13
330
2
100
AcDbEntity
  8
Table
 62
     2
100
AcDbLine
 10
0.015
 20
0.015
 30
0.0
 11
0.4050000000000001
 21
0.015
 31
0.0
  0
LINE
  5
14
330
2
100
AcDbEntity
  8
Table
 62
     2
100
AcDbLine
 10
0.4050000000000001
 20
0.015
 30
0.0
 11
0.4050000000000001
 21
0.2819999999999998
 31
0.0
  0
LINE
  5
15
330
2
100
AcDbEntity
  8
Table
 62
     2
100
AcDbLine
 10
0.4050000000000001
 20
0.2819999999999998
 30
0.0
 11
0.0149999999999999
 21
0.282
 31
0.0
  0
LINE
  5
16
330
2
100
AcDbEntity
  8
Table
 62
     2
100
AcDbLine
 10
0.0149999999999999
 20
0.282
 30
0.0
 11
0.015
 21
0.015
 31
0.0
  0
LINE
  5
17
330
2
100
AcDbEntity
  8
Table
100
AcDbLine
 10
0.21
 20
0.2769999999999999
 30
0.0
 11
0.21
 21
0.2532994226089223
 31
0.0
  0
MTEXT
  5
18
102
{ACAD_XDICTIONARY
360
431
102
}
330
2
100
AcDbEntity
  8
Text
100
AcDbMText
 10
0.305
 20
0.0471738284815141
 30
0.0
 40
0.005
 41
0.1900000000000001
 71
     2
 72
     5
  3
{\fTimes New Roman|b0|i0|c238|p18;\H1.6x;\C4;Bovelacci\P\H0.4375x;\T0.95;via del Commercio, 5  47100 Forli - Italy  \fTimes New Roman|b0|i0|c0|p18;\P\fTimes New Roman|b0|i0|c238|p18;tel.+39-0543721386  fax +39-0543721127\fTimes New Roman|b0|i0|c0|p18
  1
; \fTimes New Roman|b0|i0|c238|p18;www.bovelacci.it\fTimes New Roman|b0|i0|c0|p18; \fTimes New Roman|b0|i0|c238|p18;e-mail: bovelacci@bovelacci\fTimes New Roman|b0|i0|c0|p18;.it}
 73
     1
 44
1.0
1001
ACAD
1000
ACAD_MTEXT_DEFINED_HEIGHT_BEGIN
1070
    46
1040
0.0271738284815141
1000
ACAD_MTEXT_DEFINED_HEIGHT_END
1000
MTEXTBEGIN
1070
    73
1070
     1
1070
    44
1040
1.0
1070
    74
1070
     0
1000
MTEXTEND
  0
MTEXT
  5
1C
330
2
100
AcDbEntity
  8
Text
100
AcDbMText
 10
0.0219676065851835
 20
0.0500313976452307
 30
0.0
 40
0.002
 41
0.1863544980601608
 71
     1
 72
     5
  3
{\fArial|b0|i0|c0|p34;\H1.25x;Le caratteristiche tecniche indicate vengono fornite a titolo indicativo e potranno essere modificate senza preavviso. Non devono quindi essere considerate a scopo di specifica.\P\fArial|b0|i1|c0|p34;The given values are
  3
 indicative and can be changed without notice. They cannot be considered like a state.\PThis lealfet and designs embodied within are protected by copyright law and international treaties. Unauthorized repro- duction of the leaflet or any portion of i
  1
t or reproduction of any of the designs embodied therein may result in severe civil penalties and will be prosecuted to the maximum.\PAll right reserved, Bovelacci Forlì Italy.}
 73
     1
 44
1.0
1001
ACAD
1000
MTEXTBEGIN
1070
    73
1070
     1
1070
    44
1040
1.0
1070
    74
1070
     0
1000
MTEXTEND
  0
LINE
  5
1D
330
2
100
AcDbEntity
  8
Table
100
AcDbLine
 10
0.02
 20
0.0528099428524846
 30
0.0
 11
0.4
 21
0.0528099428524846
 31
0.0
  0
MTEXT
  5
1E
330
2
100
AcDbEntity
  8
Text
100
AcDbMText
 10
0.1133313047219695
 20
0.2610796890771976
 30
0.0
 40
0.003
 41
0.1103605678262056
 71
     2
 72
     5
  1
{\fTimes New Roman|b0|i0|c0|p18;Rosoni\fTimes New Roman|b0|i1|c0|p18;   Ceiling centres}
 73
     1
 44
1.0
1001
ACAD
1000
ACAD_MTEXT_DEFINED_HEIGHT_BEGIN
1070
    46
1040
0.0141952763113409
1000
ACAD_MTEXT_DEFINED_HEIGHT_END
1000
MTEXTBEGIN
1070
    73
1070
     1
1070
    44
1040
1.0
1070
    74
1070
     0
1000
MTEXTEND
  0
TEXT
  5
1F
330
2
100
AcDbEntity
  8
Text
100
AcDbText
 10
0.2180556919891047
 20
0.269976982173197
 30
0.0
 40
0.003
  1
Rosone - Ceiling centre : D 160 mm
  7
ROMANS
100
AcDbText
  0
TEXT
  5
21
330
2
100
AcDbEntity
  8
Text
100
AcDbText
 10
0.2184542410678115
 20
0.2576348370183962
 30
0.0
 40
0.003
  1
File : E - R16
  7
ROMANS
100
AcDbText
  0
LINE
  5
22
330
2
100
AcDbEntity
  8
Table
100
AcDbLine
 10
0.4
 20
0.2654452889427402
 30
0.0
 11
0.02
 21
0.2654452889427403
 31
0.0
  0
LINE
  5
23
330
2
100
AcDbEntity
  8
Table
100
AcDbLine
 10
0.4
 20
0.2532994226089223
 30
0.0
 11
0.02
 21
0.2532994226089225
 31
0.0
  0
LINE
  5
24
330
2
100
AcDbEntity
  8
Table
100
AcDbLine
 10
0.21
 20
0.0528099428524846
 30
0.0
 11
0.21
 21
0.02
 31
0.0
  0
TEXT
  5
25
330
2
100
AcDbEntity
  8
Text
100
AcDbText
 10
0.0947789320547719
 20
0.2687784133392506
 30
0.0
 40
0.005
  1
EUROSTYL
  7
style1
 72
     1
 11
0.1140561490699125
 21
0.2687784133392506
 31
0.0
100
AcDbText
  0
TEXT
  5
23F
330
2
100
AcDbEntity
  8
Text
  6
ACAD_ISO10W100
100
AcDbText
 10
0.2891749546253992
 20
0.0739501841484137
 30
0.0
 40
0.005
  1
scala 1 : 1
  7
style1
100
AcDbText
  0
CIRCLE
  5
3BB
330
2
100
AcDbEntity
  8
Profilo
  6
Continuous
370
     0
100
AcDbCircle
 10
0.2071231194831635
 20
0.155084036446237
 30
0.0
 40
0.0191334148117492
  0
LWPOLYLINE
  5
3BC
330
2
100
AcDbEntity
  8
Profilo
  6
Continuous
370
     0
100
AcDbPolyline
 90
       16
 70
   128
 43
0.0
 10
0.1988450262768544
 20
0.1774547940594567
 10
0.1966988524301309
 20
0.182051530819105
 10
0.196106584532083
 20
0.1854916710723703
 10
0.196106584532083
 20
0.188237366036612
 10
0.196106584532083
 20
0.1915025127327329
 10
0.1963293166082187
 20
0.1941739928199911
 10
0.1982596543651715
 20
0.1953613194868428
 10
0.2004869544178578
 20
0.1954355278129508
 10
0.2024915327487444
 20
0.1943224094722072
 10
0.203308210125019
 20
0.1925414227473693
 10
0.2035309422011528
 20
0.1901667694136669
 10
0.2035309422011528
 20
0.1874952827755334
 10
0.2036794337033547
 20
0.1840817194271954
 10
0.2037536742772885
 20
0.1810391977093978
 10
0.2041991384295598
 20
0.1789613776801276
 10
0.2042733790034918
 20
0.1778482593393841
  0
LWPOLYLINE
  5
3BD
330
2
100
AcDbEntity
  8
Profilo
  6
Continuous
370
     0
100
AcDbPolyline
 90
       17
 70
   128
 43
0.0
 10
0.1962025070811637
 20
0.1941389390812022
 10
0.194022174286967
 20
0.1947200804146843
 10
0.1914057687213275
 20
0.1947200804146843
 10
0.1890800817880928
 20
0.1945747950813142
 10
0.1866090407158239
 20
0.193412512414349
 10
0.1845740620606597
 20
0.1918143671963962
 10
0.183338541524527
 20
0.1900709431959487
 10
0.1822483751274268
 20
0.1878916566445138
 10
0.1816669482169515
 20
0.1852765140929658
 10
0.1816669482169515
 20
0.1843321594260571
 10
0.1829751458226041
 20
0.1844774447594281
 10
0.1849374474082501
 20
0.1841868740926861
 10
0.1869724260634124
 20
0.1831698702082164
 10
0.1892981129966453
 20
0.1812811608743979
 10
0.1908970292347045
 20
0.1795377303230742
 10
0.1933680703069735
 20
0.1767046597714706
 10
0.1944582367040736
 20
0.1751065211043942
  0
LWPOLYLINE
  5
3BE
330
2
100
AcDbEntity
  8
Profilo
  6
Continuous
370
     0
100
AcDbPolyline
 90
       16
 70
   128
 43
0.0
 10
0.185451109233099
 20
0.1650490550133495
 10
0.1806831514183993
 20
0.1667818646668037
 10
0.1778318082700933
 20
0.1687956145211306
 10
0.1758903087418075
 20
0.1707371140494155
 10
0.1735815013714119
 20
0.173045921419812
 10
0.1718499750473312
 20
0.1750924384667399
 10
0.1723753632276383
 20
0.1772969601222763
 10
0.1738978289880193
 20
0.1789243723038799
 10
0.1761023734462106
 20
0.1795547297080663
 10
0.1779391993473527
 20
0.1788728600285351
 10
0.179775828184002
 20
0.1773512219147285
 10
0.1816648545016756
 20
0.1754621955970558
 10
0.1841836076414504
 20
0.1731534411535914
 10
0.186387491393281
 20
0.1710545494282968
 10
0.1881717227489097
 20
0.1699002995183617
 10
0.1890113122891796
 20
0.1691657020046259
  0
LWPOLYLINE
  5
3BF
330
2
100
AcDbEntity
  8
Profilo
  6
Continuous
370
     0
100
AcDbPolyline
 90
       17
 70
   128
 43
0.0
 10
0.1717850939072351
 20
0.1749779838538371
 10
0.1698324368254815
 20
0.1738471847275494
 10
0.1679823587076838
 20
0.1719971066097517
 10
0.1664405819507108
 20
0.1702498653639134
 10
0.1655151500073848
 20
0.1676807175096545
 10
0.1652062621216834
 20
0.165111710982082
 10
0.165565404105489
 20
0.163005279099487
 10
0.1663355283521457
 20
0.1606934267488075
 10
0.1677735824729533
 20
0.1584331108056774
 10
0.16844134206177
 20
0.1577653512168616
 10
0.1692636452154245
 20
0.1587931188593833
 10
0.1708566664622348
 20
0.1599752111284601
 10
0.173014744012073
 20
0.1606950279918931
 10
0.1759947721911117
 20
0.1610040178156658
 10
0.1783581682709605
 20
0.1609018307647781
 10
0.1821087415683719
 20
0.1606458372649507
 10
0.1840096603091487
 20
0.1602866466281959
  0
LWPOLYLINE
  5
3C0
330
2
100
AcDbEntity
  8
Profilo
  6
Continuous
370
     0
100
AcDbPolyline
 90
       16
 70
   128
 43
0.0
 10
0.1847523618699429
 20
0.1468059432399279
 10
0.1801556251102947
 20
0.1446597693932044
 10
0.1767154848570302
 20
0.1440675014951556
 10
0.1739697898927885
 20
0.1440675014951556
 10
0.1707046431966676
 20
0.1440675014951556
 10
0.1680331631094094
 20
0.1442902335712913
 10
0.1668458364425577
 20
0.1462205713282441
 10
0.1667716281164497
 20
0.1484478713809313
 10
0.1678847464571933
 20
0.150452449711817
 10
0.1696657331820303
 20
0.1512691270880917
 10
0.1720403865157336
 20
0.1514918591642254
 10
0.1747118731538672
 20
0.1514918591642254
 10
0.178125436502206
 20
0.1516403506664273
 10
0.1811679582200027
 20
0.1517145912403611
 10
0.1832457782492738
 20
0.1521600553926324
 10
0.1843588965900155
 20
0.1522342959665662
  0
LWPOLYLINE
  5
3C1
330
2
100
AcDbEntity
  8
Profilo
  6
Continuous
370
     0
100
AcDbPolyline
 90
       17
 70
   128
 43
0.0
 10
0.1680682168481992
 20
0.1441634240442372
 10
0.1674870755147153
 20
0.1419830912500396
 10
0.1674870755147153
 20
0.1393666856844001
 10
0.1676323608480863
 20
0.1370409987511663
 10
0.1687946435150506
 20
0.1345699576788982
 10
0.1703927887330052
 20
0.1325349790237332
 10
0.1721362127334518
 20
0.1312994584875996
 10
0.1743154992848867
 20
0.1302092920904994
 10
0.1769306418364347
 20
0.129627865180025
 10
0.1778749965033426
 20
0.129627865180025
 10
0.1777297111699716
 20
0.1309360627856776
 10
0.1780202818367135
 20
0.1328983643713227
 10
0.1790372857211841
 20
0.134933343026485
 10
0.1809259950550017
 20
0.1372590299597188
 10
0.1826694256063254
 20
0.1388579461977771
 10
0.1855024961579299
 20
0.1413289872700461
 10
0.1871006348250055
 20
0.1424191536671463
  0
LWPOLYLINE
  5
3C2
330
2
100
AcDbEntity
  8
Profilo
  6
Continuous
370
     0
100
AcDbPolyline
 90
       16
 70
   128
 43
0.0
 10
0.1971581009160501
 20
0.1334120261961734
 10
0.1954252912625977
 20
0.1286440683814728
 10
0.1934115414082699
 20
0.1257927252331668
 10
0.1914700418799841
 20
0.1238512257048819
 10
0.1891612345095886
 20
0.1215424183344854
 10
0.1871147174626606
 20
0.1198108920104038
 10
0.1849101958071233
 20
0.1203362801907109
 10
0.1832827836255215
 20
0.1218587459510928
 10
0.1826524262213342
 20
0.1240632904092841
 10
0.1833342959008645
 20
0.1259001163104253
 10
0.184855934014672
 20
0.1277367451470755
 10
0.1867449603323456
 20
0.1296257714647491
 10
0.1890537147758091
 20
0.1321445246045248
 10
0.1911526065011037
 20
0.1343484083563536
 10
0.1923068564110397
 20
0.1361326397119823
 10
0.1930414539247737
 20
0.1369722292522531
  0
LWPOLYLINE
  5
3C3
330
2
100
AcDbEntity
  8
Profilo
  6
Continuous
370
     0
100
AcDbPolyline
 90
       17
 70
   128
 43
0.0
 10
0.1872291720755625
 20
0.1197460108703086
 10
0.1883599712018511
 20
0.117793353788555
 10
0.1902100493196488
 20
0.1159432756707573
 10
0.1919572905654881
 20
0.1144014989137834
 10
0.194526438419746
 20
0.1134760669704583
 10
0.1970954449473185
 20
0.1131671790847569
 10
0.1992018768299135
 20
0.1135263210685616
 10
0.201513729180593
 20
0.1142964453152192
 10
0.2037740451237222
 20
0.1157344994360268
 10
0.2044418047125389
 20
0.1164022590248435
 10
0.2034140370700163
 20
0.117224562178498
 10
0.2022319448009404
 20
0.1188175834253083
 10
0.2015121279375065
 20
0.1209756609751456
 10
0.2012031381137347
 20
0.1239556891541852
 10
0.2013053251646233
 20
0.126319085234034
 10
0.2015613186644489
 20
0.1300696585314445
 10
0.2019205093012046
 20
0.1319705772722222
  0
LWPOLYLINE
  5
3C4
330
2
100
AcDbEntity
  8
Profilo
  6
Continuous
370
     0
100
AcDbPolyline
 90
       16
 70
   128
 43
0.0
 10
0.2154012126894726
 20
0.1327132788330173
 10
0.2175473865361961
 20
0.128116542073369
 10
0.218139654434244
 20
0.1246764018201037
 10
0.218139654434244
 20
0.1219307068558611
 10
0.218139654434244
 20
0.1186655601597402
 10
0.2179169223581083
 20
0.1159940800724829
 10
0.2159865846011555
 20
0.1148067534056304
 10
0.2137592845484692
 20
0.1147325450795232
 10
0.2117547062175826
 20
0.1158456634202668
 10
0.210938028841308
 20
0.1176266501451047
 10
0.2107152967651742
 20
0.1200013034788071
 10
0.2107152967651742
 20
0.1226727901169407
 10
0.2105668052629723
 20
0.1260863534652786
 10
0.2104925646890385
 20
0.1291288751830762
 10
0.2100471005367672
 20
0.1312066952123464
 10
0.2099728599628334
 20
0.1323198135530899
  0
LWPOLYLINE
  5
3C5
330
2
100
AcDbEntity
  8
Profilo
  6
Continuous
370
     0
100
AcDbPolyline
 90
       17
 70
   128
 43
0.0
 10
0.2180437318851633
 20
0.1160291338112718
 10
0.22022406467936
 20
0.1154479924777897
 10
0.2228404702449995
 20
0.1154479924777897
 10
0.2251661571782342
 20
0.1155932778111589
 10
0.2276371982505014
 20
0.1167555604781241
 10
0.2296721769056673
 20
0.1183537056960778
 10
0.2309076974418
 20
0.1200971296965244
 10
0.2319978638389002
 20
0.1222764162479593
 10
0.2325792907493755
 20
0.1248915587995073
 10
0.2325792907493755
 20
0.1258359134664161
 10
0.2312710931437229
 20
0.1256906281330459
 10
0.2293087915580769
 20
0.125981198799787
 10
0.2272738129029146
 20
0.1269982026842576
 10
0.2249481259696817
 20
0.1288869120180761
 10
0.2233492097316225
 20
0.1306303425693998
 10
0.2208781686593535
 20
0.1334634131210025
 10
0.2197880022622534
 20
0.1350615517880798
  0
LWPOLYLINE
  5
3C6
330
2
100
AcDbEntity
  8
Profilo
  6
Continuous
370
     0
100
AcDbPolyline
 90
       16
 70
   128
 43
0.0
 10
0.2287951297332262
 20
0.1451190178791236
 10
0.2335630875479277
 20
0.1433862082256703
 10
0.2364144306962337
 20
0.1413724583713426
 10
0.2383559302245195
 20
0.1394309588430576
 10
0.2406647375949151
 20
0.137122151472662
 10
0.2423962639189958
 20
0.1350756344257341
 10
0.2418708757386887
 20
0.1328711127701977
 10
0.2403484099783077
 20
0.1312437005885941
 10
0.2381438655201164
 20
0.1306133431844077
 10
0.2363070396189743
 20
0.1312952128639389
 10
0.234470410782325
 20
0.1328168509777455
 10
0.2325813844646514
 20
0.1347058772954182
 10
0.2300626313248766
 20
0.1370146317388826
 10
0.227858747573046
 20
0.1391135234641763
 10
0.2260745162174173
 20
0.1402677733741123
 10
0.2252349266771474
 20
0.1410023708878472
  0
LWPOLYLINE
  5
3C7
330
2
100
AcDbEntity
  8
Profilo
  6
Continuous
370
     0
100
AcDbPolyline
 90
       17
 70
   128
 43
0.0
 10
0.2424611450590919
 20
0.135190089038636
 10
0.2444138021408455
 20
0.1363208881649237
 10
0.2462638802586432
 20
0.1381709662827214
 10
0.2478056570156162
 20
0.1399182075285606
 10
0.2487310889589422
 20
0.1424873553828186
 10
0.2490399768446436
 20
0.1450563619103911
 10
0.248680834860838
 20
0.1471627937929861
 10
0.2479107106141813
 20
0.1494746461436656
 10
0.2464726564933737
 20
0.1517349620867957
 10
0.245804896904557
 20
0.1524027216756124
 10
0.2449825937509025
 20
0.1513749540330898
 10
0.2433895725040922
 20
0.1501928617640139
 10
0.241231494954254
 20
0.14947304490058
 10
0.2382514667752153
 20
0.1491640550768073
 10
0.2358880706953665
 20
0.1492662421276959
 10
0.2321374973979551
 20
0.1495222356275224
 10
0.2302365786571783
 20
0.1498814262642781
  0
LWPOLYLINE
  5
3C8
330
2
100
AcDbEntity
  8
Profilo
  6
Continuous
370
     0
100
AcDbPolyline
 90
       16
 70
   128
 43
0.0
 10
0.2294938770963841
 20
0.1633621296525452
 10
0.2340906138560323
 20
0.1655083034992687
 10
0.2375307541092968
 20
0.1661005713973175
 10
0.2402764490735386
 20
0.1661005713973175
 10
0.2435415957696594
 20
0.1661005713973175
 10
0.2462130758569176
 20
0.1658778393211818
 10
0.2474004025237693
 20
0.163947501564229
 10
0.2474746108498773
 20
0.1617202015115418
 10
0.2463614925091337
 20
0.1597156231806561
 10
0.2445805057842949
 20
0.1588989458043815
 10
0.2422058524505934
 20
0.1586762137282486
 10
0.2395343658124598
 20
0.1586762137282486
 10
0.236120802464121
 20
0.1585277222260458
 10
0.2330782807463243
 20
0.158453481652112
 10
0.2310004607170532
 20
0.1580080174998407
 10
0.2298873423763115
 20
0.1579337769259078
  0
LWPOLYLINE
  5
3C9
330
2
100
AcDbEntity
  8
Profilo
  6
Continuous
370
     0
100
AcDbPolyline
 90
       17
 70
   128
 43
0.0
 10
0.2461780221181278
 20
0.1660046488482359
 10
0.2467591634516117
 20
0.1681849816424335
 10
0.2467591634516117
 20
0.170801387208073
 10
0.2466138781182407
 20
0.1731270741413069
 10
0.2454515954512764
 20
0.1755981152135758
 10
0.2438534502333218
 20
0.1776330938687399
 10
0.2421100262328752
 20
0.1788686144048735
 10
0.2399307396814403
 20
0.1799587808019737
 10
0.2373155971298923
 20
0.1805402077124481
 10
0.2363712424629844
 20
0.1805402077124481
 10
0.2365165277963554
 20
0.1792320101067964
 10
0.2362259571296135
 20
0.1772697085211504
 10
0.2352089532451429
 20
0.1752347298659881
 10
0.2333202439113235
 20
0.1729090429327543
 10
0.2315768133600016
 20
0.171310126694696
 10
0.2287437428083971
 20
0.168839085622427
 10
0.2271456041413215
 20
0.1677489192253269
  0
LWPOLYLINE
  5
3CA
330
2
100
AcDbEntity
  8
Profilo
  6
Continuous
370
     0
100
AcDbPolyline
 90
       16
 70
   128
 43
0.0
 10
0.2170881380502769
 20
0.1767560466963006
 10
0.218820947703731
 20
0.1815240045110004
 10
0.2208346975580571
 20
0.1843753476593063
 10
0.2227761970863429
 20
0.1863168471875912
 10
0.2250850044567385
 20
0.1886256545579877
 10
0.2271315215036664
 20
0.1903571808820693
 10
0.2293360431592037
 20
0.1898317927017622
 10
0.2309634553408073
 20
0.1883093269413812
 10
0.2315938127449928
 20
0.1861047824831891
 10
0.2309119430654625
 20
0.1842679565820478
 10
0.229390304951655
 20
0.1824313277453976
 10
0.2275012786339814
 20
0.180542301427724
 10
0.2251925241905179
 20
0.1780235482879492
 10
0.2230936324652233
 20
0.1758196645361195
 10
0.2219393825552873
 20
0.1740354331804908
 10
0.2212047850415533
 20
0.17319584364022
  0
LWPOLYLINE
  5
3CB
330
2
100
AcDbEntity
  8
Profilo
  6
Continuous
370
     0
100
AcDbPolyline
 90
       17
 70
   128
 43
0.0
 10
0.2270170668907645
 20
0.1904220620221645
 10
0.2258862677644759
 20
0.1923747191039181
 10
0.2240361896466782
 20
0.1942247972217158
 10
0.2222889484008408
 20
0.1957665739786897
 10
0.219719800546581
 20
0.1966920059220148
 10
0.2171507940190085
 20
0.1970008938077162
 10
0.2150443621364135
 20
0.1966417518239124
 10
0.2127325097857357
 20
0.1958716275772548
 10
0.2104721938426048
 20
0.1944335734564463
 10
0.2098044342537881
 20
0.1937658138676305
 10
0.2108322018963107
 20
0.1929435107139751
 10
0.2120142941653866
 20
0.1913504894671648
 10
0.2127341110288205
 20
0.1891924119173275
 10
0.2130431008525923
 20
0.186212383738288
 10
0.2129409138017055
 20
0.1838489876584391
 10
0.2126849203018781
 20
0.1800984143610286
 10
0.2123257296651224
 20
0.178197495620251
  0
LWPOLYLINE
  5
3CC
330
2
100
AcDbEntity
  8
Profilo
  6
Continuous
370
     0
100
AcDbPolyline
 90
        7
 70
   128
 43
0.0
 10
0.1816793630632758
 20
0.1842222946805453
 10
0.1798142679641148
 20
0.1840239734530925
 10
0.1789412526571871
 20
0.1834686818772736
 10
0.1778301290883113
 20
0.1823977642813034
 10
0.1776713971499019
 20
0.1810888664530908
 10
0.1775126652114891
 20
0.1796609719578791
 10
0.1782269589343381
 20
0.1786297133666984
  0
LWPOLYLINE
  5
3CD
330
2
100
AcDbEntity
  8
Profilo
  6
Continuous
370
     0
100
AcDbPolyline
 90
        7
 70
   128
 43
0.0
 10
0.1685278067903577
 20
0.1576964437323193
 10
0.167349219682968
 20
0.1562373880553606
 10
0.1671245550781566
 20
0.1552274225729547
 10
0.1670961251620712
 20
0.1536844864684633
 10
0.16790941526224
 20
0.1526467155082137
 10
0.1688068487125806
 20
0.1515248011977886
 10
0.1700411405907469
 20
0.1513006731899929
  0
LWPOLYLINE
  5
3CE
330
2
100
AcDbEntity
  8
Profilo
  6
Continuous
370
     0
100
AcDbPolyline
 90
        7
 70
   128
 43
0.0
 10
0.1779848612488552
 20
0.1296402800263484
 10
0.178183182476308
 20
0.1277751849271883
 10
0.178738474052126
 20
0.1269021696202606
 10
0.1798093916480971
 20
0.1257910460513839
 10
0.1811182894763105
 20
0.1256323141129746
 10
0.1825461839715205
 20
0.1254735821745626
 10
0.1835774425627021
 20
0.1261878758974116
  0
LWPOLYLINE
  5
3CF
330
2
100
AcDbEntity
  8
Profilo
  6
Continuous
370
     0
100
AcDbPolyline
 90
        7
 70
   128
 43
0.0
 10
0.2045107121970804
 20
0.1164887237534312
 10
0.2059697678740408
 20
0.1153101366460415
 10
0.2069797333564458
 20
0.1150854720412301
 10
0.2085226694609363
 20
0.1150570421251447
 10
0.2095604404211868
 20
0.1158703322253144
 10
0.210682354731611
 20
0.116767765675655
 10
0.2109064827394067
 20
0.1180020575538213
  0
LWPOLYLINE
  5
3D0
330
2
100
AcDbEntity
  8
Profilo
  6
Continuous
370
     0
100
AcDbPolyline
 90
        7
 70
   128
 43
0.0
 10
0.2325668759030512
 20
0.1259457782119287
 10
0.2344319710022122
 20
0.1261440994393815
 10
0.2353049863091399
 20
0.1266993910151995
 10
0.2364161098780157
 20
0.1277703086111706
 10
0.2365748418164251
 20
0.1290792064393832
 10
0.2367335737548379
 20
0.130507100934594
 10
0.2360192800319889
 20
0.1315383595257747
  0
LWPOLYLINE
  5
3D1
330
2
100
AcDbEntity
  8
Profilo
  6
Continuous
370
     0
100
AcDbPolyline
 90
        7
 70
   128
 43
0.0
 10
0.2457184321759693
 20
0.1524716291601539
 10
0.246897019283359
 20
0.1539306848371134
 10
0.2471216838881704
 20
0.1549406503195184
 10
0.2471501138042558
 20
0.1564835864240098
 10
0.246336823704087
 20
0.1575213573842603
 10
0.2454393902537446
 20
0.1586432716946854
 10
0.2442050983755783
 20
0.1588673997024802
  0
LWPOLYLINE
  5
3D2
330
2
100
AcDbEntity
  8
Profilo
  6
Continuous
370
     0
100
AcDbPolyline
 90
        7
 70
   128
 43
0.0
 10
0.2362613777174718
 20
0.1805277928661247
 10
0.236063056490019
 20
0.1823928879652848
 10
0.235507764914201
 20
0.1832659032722134
 10
0.2344368473182299
 20
0.1843770268410892
 10
0.2331279494900165
 20
0.1845357587794994
 10
0.2317000549948065
 20
0.1846944907179105
 10
0.2306687964036249
 20
0.1839801969950624
  0
LWPOLYLINE
  5
3D3
330
2
100
AcDbEntity
  8
Profilo
  6
Continuous
370
     0
100
AcDbPolyline
 90
        7
 70
   128
 43
0.0
 10
0.2097355267692466
 20
0.1936793491390428
 10
0.2082764710922862
 20
0.1948579362464316
 10
0.2072665056098812
 20
0.1950826008512431
 10
0.2057235695053907
 20
0.1951110307673284
 10
0.2046857985451402
 20
0.1942977406671596
 10
0.203563884234716
 20
0.1934003072168181
 10
0.2033397562269203
 20
0.1921660153386527
  0
LWPOLYLINE
  5
3D4
330
2
100
AcDbEntity
  8
Profilo
  6
Continuous
370
     0
100
AcDbPolyline
 90
        6
 70
   128
 43
0.0
 10
0.2004367462528651
 20
0.1958245384970313
 10
0.2006156070163398
 20
0.2019295817578039
 10
0.2006156070163398
 20
0.206490701403306
 10
0.2004366530638584
 20
0.2107835168104269
 10
0.2000787451588919
 20
0.2141819934907708
 10
0.1998103194073368
 20
0.2199951821130573
  0
LWPOLYLINE
  5
3D5
330
2
100
AcDbEntity
  8
Profilo
  6
Continuous
370
     0
100
AcDbPolyline
 90
        6
 70
   128
 43
0.0
 10
0.2070579285970413
 20
0.196205832248895
 10
0.2053578712256256
 20
0.2019295817578039
 10
0.203926239605765
 20
0.2085476765443643
 10
0.2030314801976884
 20
0.2135559590023787
 10
0.202136710435274
 20
0.2177593418469955
 10
0.2019577564827925
 20
0.2205317840389473
  0
LWPOLYLINE
  5
3D6
330
2
100
AcDbEntity
  8
Profilo
  6
Continuous
370
     0
100
AcDbPolyline
 90
       37
 70
   128
 43
0.0
 10
0.1929206077682628
 20
0.1979945031515701
 10
0.1914889865027364
 20
0.2030922247229622
 10
0.1889836415223178
 20
0.2064012688408047
 10
0.1859414346844494
 20
0.2088159742318701
 10
0.182093929883242
 20
0.2104257800095407
 10
0.1790517230453754
 20
0.2107835168104269
 10
0.1772621938748826
 20
0.2107835168104269
 10
0.1763674241124717
 20
0.2124827551505989
 10
0.1762779523133981
 20
0.2140031283657663
 10
0.1752937003975758
 20
0.2150763322175461
 10
0.1739515509311249
 20
0.2159706709443213
 10
0.1722514935597074
 20
0.2173121724836079
 10
0.1718935856547445
 20
0.219548019300546
 10
0.1722514935597074
 20
0.2223204614924978
 10
0.1744884127885728
 20
0.224735166883565
 10
0.1770832399224029
 20
0.2250034711219481
 10
0.1801254467602713
 20
0.224735166883565
 10
0.1805728264643078
 20
0.2236619630317852
 10
0.182093929883242
 20
0.2249140385594449
 10
0.1828097456931732
 20
0.2270604462630045
 10
0.1851361367211104
 20
0.2283125152397888
 10
0.1865677683409692
 20
0.2277759133138999
 10
0.1879993896064955
 20
0.2268815745871246
 10
0.1889836415223178
 20
0.2264344117746123
 10
0.1897889291313208
 20
0.2264344117746123
 10
0.1910415964443639
 20
0.2289385497281819
 10
0.1929206077682628
 20
0.23063779461923
 10
0.194441711187197
 20
0.2322476003968998
 10
0.1966786304160606
 20
0.2333208042486795
 10
0.1987365956924409
 20
0.2338574061745694
 10
0.2016893307312357
 20
0.2342151364245785
 10
0.2040157217591747
 20
0.2338574061745694
 10
0.2059842048821472
 20
0.2327842023227896
 10
0.2080421701585275
 20
0.2318004310335121
 10
0.2098317096833528
 20
0.23063779461923
 10
0.2111738591498055
 20
0.2291174214040626
 10
0.2078632162060443
 20
0.220442351476445
  0
LWPOLYLINE
  5
3D7
330
2
100
AcDbEntity
  8
Profilo
  6
Continuous
370
     0
100
AcDbPolyline
 90
        2
 70
   128
 43
0.0
 10
0.1932785156732275
 20
0.2201740537889382
 10
0.1898784009303944
 20
0.2256295056103402
  0
LWPOLYLINE
  5
3D8
330
2
100
AcDbEntity
  8
Profilo
  6
Continuous
370
     0
100
AcDbPolyline
 90
        6
 70
   128
 43
0.0
 10
0.1735872543614127
 20
0.1791639418626095
 10
0.1693968105310257
 20
0.1836073330104811
 10
0.166171611899887
 20
0.1868325316416189
 10
0.1630095934618114
 20
0.1897414709730561
 10
0.1603534284487948
 20
0.1918914777727897
 10
0.1560530776844877
 20
0.1958122171987545
  0
LWPOLYLINE
  5
3D9
330
2
100
AcDbEntity
  8
Profilo
  6
Continuous
370
     0
100
AcDbPolyline
 90
        6
 70
   128
 43
0.0
 10
0.1779995218988861
 20
0.1841154401952168
 10
0.1727500977115901
 20
0.1869606201910455
 10
0.1670580815829132
 20
0.190628003466592
 10
0.1628840006497713
 20
0.1935367035097698
 10
0.159279062369817
 20
0.1958762462565188
 10
0.1571921101421209
 20
0.1977101193775764
  0
LWPOLYLINE
  5
3DA
330
2
100
AcDbEntity
  8
Profilo
  6
Continuous
370
     0
100
AcDbPolyline
 90
       37
 70
   128
 43
0.0
 10
0.166738145148455
 20
0.1753836260939699
 10
0.1621212025517784
 20
0.1779759504807575
 10
0.1580098085919412
 20
0.1785442515908636
 10
0.1541511889505211
 20
0.1781005410626249
 10
0.1502922876331562
 20
0.1765182489088278
 10
0.1478881644305416
 20
0.1746200419417864
 10
0.146622776218956
 20
0.1733546537301999
 10
0.1447885354991664
 20
0.1739234989167858
 10
0.1436502031729367
 20
0.1749352990113161
 10
0.1421953622476741
 20
0.1749981975284308
 10
0.1406139262802006
 20
0.1746815475177182
 10
0.1384632193490627
 20
0.1744280102573853
 10
0.1366291577964715
 20
0.1757559135966961
 10
0.1349218242287348
 20
0.1779694053777131
 10
0.1347961104278403
 20
0.1812586006900018
 10
0.1364412105437966
 20
0.1832831402987208
 10
0.1387820953750078
 20
0.1852445856371675
 10
0.1398573103186868
 20
0.1848020611384683
 10
0.1400475417649338
 20
0.1867629947770494
 10
0.1390359605358386
 20
0.1887868924327097
 10
0.1397956209433881
 20
0.1913172457682529
 10
0.141187372230545
 20
0.1919501273342229
 10
0.1428320743138704
 20
0.1923300434607865
 10
0.1438442373749651
 20
0.1927098228078389
 10
0.1444136617040974
 20
0.1932792471369703
 10
0.1435287383277255
 20
0.1959357096165902
 10
0.1436558523914235
 20
0.1984659188510015
 10
0.143593130352055
 20
0.2006798059751998
 10
0.1444160013865611
 20
0.2030204164520843
 10
0.1454917677283424
 20
0.2048550525150542
 10
0.1473267132117039
 20
0.2071959049696484
 10
0.149224673568868
 20
0.2085879583555797
 10
0.1513754710549615
 20
0.209221016399295
 10
0.1535263036071223
 20
0.2099805862518872
 10
0.1556138072329207
 20
0.2104238736924987
 10
0.1576379164323937
 20
0.2102978504712126
 10
0.1614311391298595
 20
0.2018226716225072
  0
LWPOLYLINE
  5
3DB
330
2
100
AcDbEntity
  8
Profilo
  6
Continuous
370
     0
100
AcDbPolyline
 90
        6
 70
   128
 43
0.0
 10
0.1663826174323683
 20
0.1483976632159377
 10
0.1602775741715958
 20
0.1485765239794133
 10
0.1557164545260945
 20
0.1485765239794133
 10
0.1514236391189736
 20
0.1483975700269327
 10
0.1480251624386297
 20
0.1480396621219663
 10
0.1422119738163441
 20
0.1477712363704094
  0
LWPOLYLINE
  5
3DC
330
2
100
AcDbEntity
  8
Profilo
  6
Continuous
370
     0
100
AcDbPolyline
 90
        6
 70
   128
 43
0.0
 10
0.1660013236805055
 20
0.1550188455601148
 10
0.1602775741715958
 20
0.1533187881886991
 10
0.1536594793850354
 20
0.1518871565688385
 10
0.1486511969270227
 20
0.150992397160761
 10
0.1444478140824041
 20
0.1500976273983475
 10
0.1416753718904533
 20
0.1499186734458669
  0
LWPOLYLINE
  5
3DD
330
2
100
AcDbEntity
  8
Profilo
  6
Continuous
370
     0
100
AcDbPolyline
 90
       37
 70
   128
 43
0.0
 10
0.1642126527778304
 20
0.1408815247313363
 10
0.1591149312064383
 20
0.1394499034658099
 10
0.155805887088595
 20
0.1369445584853913
 10
0.1533911816975304
 20
0.133902351647522
 10
0.1517813759198598
 20
0.1300548468463155
 10
0.1514236391189736
 20
0.1270126400084489
 10
0.1514236391189736
 20
0.1252231108379561
 10
0.1497244007788025
 20
0.1243283410755443
 10
0.1482040275636342
 20
0.1242388692764716
 10
0.1471308237118544
 20
0.1232546173606502
 10
0.1462364849850792
 20
0.1219124678941984
 10
0.1448949834457926
 20
0.1202124105227809
 10
0.1426591366288536
 20
0.1198545026178171
 10
0.1398866944369028
 20
0.1202124105227809
 10
0.1374719890458346
 20
0.1224493297516463
 10
0.1372036848074524
 20
0.1250441568854755
 10
0.1374719890458346
 20
0.1280863637233439
 10
0.1385451928976144
 20
0.1285337434273813
 10
0.1372931173699547
 20
0.1300548468463155
 10
0.1351467096663951
 20
0.1307706626562458
 10
0.1338946406896108
 20
0.1330970536841839
 10
0.1344312426154998
 20
0.1345286853040427
 10
0.1353255813422751
 20
0.135960306569569
 10
0.1357727441547882
 20
0.1369445584853913
 10
0.1357727441547882
 20
0.1377498460943943
 10
0.1332686062012178
 20
0.1390025134074374
 10
0.1315693613101696
 20
0.1408815247313363
 10
0.1299595555325008
 20
0.1424026281502705
 10
0.128886351680721
 20
0.1446395473791332
 10
0.1283497497548302
 20
0.1466975126555153
 10
0.1279920195048212
 20
0.1496502476943083
 10
0.1283497497548302
 20
0.1519766387222482
 10
0.12942295360661
 20
0.1539451218452198
 10
0.1304067248958875
 20
0.1560030871216019
 10
0.1315693613101696
 20
0.1577926266464272
 10
0.1330897345253379
 20
0.1591347761128782
 10
0.1417648044529555
 20
0.1558241331691187
  0
LWPOLYLINE
  5
3DE
330
2
100
AcDbEntity
  8
Profilo
  6
Continuous
370
     0
100
AcDbPolyline
 90
        6
 70
   128
 43
0.0
 10
0.1830432140667901
 20
0.1215481713244862
 10
0.1785998229189202
 20
0.1173577274940992
 10
0.1753746242877816
 20
0.1141325288629614
 10
0.1724656849563444
 20
0.1109705104248849
 10
0.1703156781566099
 20
0.1083143454118674
 10
0.1663949387306451
 20
0.1040139946475612
  0
LWPOLYLINE
  5
3DF
330
2
100
AcDbEntity
  8
Profilo
  6
Continuous
370
     0
100
AcDbPolyline
 90
        6
 70
   128
 43
0.0
 10
0.1780917157341845
 20
0.1259604388619605
 10
0.1752465357383541
 20
0.1207110146746627
 10
0.1715791524628076
 20
0.1150189985459867
 10
0.1686704524196307
 20
0.1108449176128457
 10
0.1663309096728808
 20
0.1072399793328896
 10
0.1644970365518232
 20
0.1051530271051935
  0
LWPOLYLINE
  5
3E0
330
2
100
AcDbEntity
  8
Profilo
  6
Continuous
370
     0
100
AcDbPolyline
 90
       37
 70
   128
 43
0.0
 10
0.1868235298354306
 20
0.1146990621115285
 10
0.184231205448643
 20
0.1100821195148519
 10
0.1836629043385361
 20
0.1059707255550138
 10
0.1841066148667756
 20
0.1021121059135946
 10
0.1856889070205727
 20
0.0982532045962297
 10
0.1875871139876141
 20
0.0958490813936161
 10
0.1888525021991998
 20
0.0945836931820296
 10
0.1882836570126147
 20
0.0927494524622391
 10
0.1872718569180853
 20
0.0916111201360111
 10
0.1872089584009689
 20
0.0901562792107477
 10
0.1875256084116823
 20
0.0885748432432741
 10
0.1877791456720152
 20
0.0864241363121363
 10
0.1864512423327044
 20
0.0845900747595451
 10
0.1842377505516874
 20
0.0828827411918084
 10
0.1809485552393996
 20
0.0827570273909138
 10
0.1789240156306806
 20
0.0844021275068702
 10
0.1769625702922321
 20
0.0867430123380805
 10
0.1774050947909322
 20
0.0878182272817594
 10
0.175444161152352
 20
0.0880084587280082
 10
0.1734202634966908
 20
0.0869968774989122
 10
0.1708899101611467
 20
0.0877565379064617
 10
0.1702570285951767
 20
0.0891482891936185
 10
0.1698771124686131
 20
0.090792991276944
 10
0.1694973331215616
 20
0.0918051543380386
 10
0.1689279087924293
 20
0.0923745786671709
 10
0.1662714463128103
 20
0.091489655290799
 10
0.163741237078399
 20
0.0916167693544971
 10
0.1615273499542015
 20
0.0915540473151276
 10
0.1591867394773163
 20
0.0923769183496347
 10
0.1573521034143463
 20
0.093452684691416
 10
0.1550112509597521
 20
0.0952876301747766
 10
0.1536191975738208
 20
0.0971855905319416
 10
0.1529861395301046
 20
0.099336388018035
 10
0.1522265696775142
 20
0.1014872205701958
 10
0.1517832822369018
 20
0.1035747241959951
 10
0.1519093054581879
 20
0.1055988333954672
 10
0.1603844843068933
 20
0.1093920560929339
  0
LWPOLYLINE
  5
3E1
330
2
100
AcDbEntity
  8
Profilo
  6
Continuous
370
     0
100
AcDbPolyline
 90
        6
 70
   128
 43
0.0
 10
0.2138094927134619
 20
0.1143435343954418
 10
0.2136306319499872
 20
0.1082384911346693
 10
0.2136306319499872
 20
0.1036773714891671
 10
0.2138095859024669
 20
0.0993845560820471
 10
0.2141674938074334
 20
0.0959860794017033
 10
0.2144359195589902
 20
0.0901728907794167
  0
LWPOLYLINE
  5
3E2
330
2
100
AcDbEntity
  8
Profilo
  6
Continuous
370
     0
100
AcDbPolyline
 90
        6
 70
   128
 43
0.0
 10
0.2071883103692857
 20
0.113962240643579
 10
0.2088883677407014
 20
0.1082384911346693
 10
0.210319999360562
 20
0.1016203963481098
 10
0.2112147587686386
 20
0.0966121138900954
 10
0.212109528531053
 20
0.0924087310454777
 10
0.2122884824835327
 20
0.089636288853526
  0
LWPOLYLINE
  5
3E3
330
2
100
AcDbEntity
  8
Profilo
  6
Continuous
370
     0
100
AcDbPolyline
 90
       37
 70
   128
 43
0.0
 10
0.2213256311980642
 20
0.1121735697409039
 10
0.2227572524635906
 20
0.1070758481695109
 10
0.2252625974440092
 20
0.1037668040516693
 10
0.2283048042818776
 20
0.101352098660603
 10
0.232152309083085
 20
0.0997422928829334
 10
0.2351945159209516
 20
0.0993845560820471
 10
0.2369840450914444
 20
0.0993845560820471
 10
0.2378788148538553
 20
0.0976853177418752
 10
0.2379682866529289
 20
0.0961649445267078
 10
0.2389525385687512
 20
0.095091740674928
 10
0.2402946880352021
 20
0.0941974019481528
 10
0.2419947454066196
 20
0.0928559004088652
 10
0.2423526533115825
 20
0.090620053591928
 10
0.2419947454066196
 20
0.0878476113999755
 10
0.2397578261777542
 20
0.085432906008909
 10
0.2371629990439241
 20
0.085164601770526
 10
0.2341207922060557
 20
0.085432906008909
 10
0.2336734125020192
 20
0.0865061098606889
 10
0.232152309083085
 20
0.0852540343330283
 10
0.2314364932731538
 20
0.0831076266294687
 10
0.2291101022452166
 20
0.0818555576526843
 10
0.2276784706253578
 20
0.0823921595785742
 10
0.2262468493598315
 20
0.0832864983053495
 10
0.2252625974440092
 20
0.0837336611178609
 10
0.2244573098350062
 20
0.0837336611178609
 10
0.2232046425219631
 20
0.0812295231642914
 10
0.2213256311980642
 20
0.079530278273244
 10
0.21980452777913
 20
0.0779204724955735
 10
0.2175676085502664
 20
0.0768472686437936
 10
0.2155096432738861
 20
0.0763106667179046
 10
0.2125569082350913
 20
0.0759529364678955
 10
0.2102305172071523
 20
0.0763106667179046
 10
0.2082620340841798
 20
0.0773838705696844
 10
0.2062040688077995
 20
0.078367641858961
 10
0.2044145292829724
 20
0.079530278273244
 10
0.2030723798165215
 20
0.0810506514884114
 10
0.2063830227602809
 20
0.0897257214160291
  0
LWPOLYLINE
  5
3E4
330
2
100
AcDbEntity
  8
Profilo
  6
Continuous
370
     0
100
AcDbPolyline
 90
        6
 70
   128
 43
0.0
 10
0.2406589846049143
 20
0.1310041310298645
 10
0.2448494284353013
 20
0.1265607398819929
 10
0.2480746270664382
 20
0.1233355412508551
 10
0.2512366455045156
 20
0.1204266019194179
 10
0.2538928105175322
 20
0.1182765951196843
 10
0.2581931612818393
 20
0.1143558556937195
  0
LWPOLYLINE
  5
3E5
330
2
100
AcDbEntity
  8
Profilo
  6
Continuous
370
     0
100
AcDbPolyline
 90
        6
 70
   128
 43
0.0
 10
0.2362467170674409
 20
0.1260526326972572
 10
0.2414961412547369
 20
0.1232074527014285
 10
0.2471881573834138
 20
0.1195400694258811
 10
0.2513622383165539
 20
0.1166313693827033
 10
0.25496717659651
 20
0.1142918266359543
 10
0.2570541288242061
 20
0.1124579535148976
  0
LWPOLYLINE
  5
3E6
330
2
100
AcDbEntity
  8
Profilo
  6
Continuous
370
     0
100
AcDbPolyline
 90
       37
 70
   128
 43
0.0
 10
0.247508093817872
 20
0.1347844467985032
 10
0.2521250364145486
 20
0.1321921224117156
 10
0.2562364303743858
 20
0.1316238213016095
 10
0.2600950500158059
 20
0.1320675318298482
 10
0.2639539513331708
 20
0.1336498239836453
 10
0.2663580745357836
 20
0.1355480309506868
 10
0.267623462747371
 20
0.1368134191622733
 10
0.2694577034671606
 20
0.1362445739756873
 10
0.2705960357933903
 20
0.1352327738811579
 10
0.2720508767186529
 20
0.1351698753640423
 10
0.2736323126861264
 20
0.1354865253747549
 10
0.2757830196172643
 20
0.1357400626350887
 10
0.2776170811698555
 20
0.1344121592957779
 10
0.2793244147375922
 20
0.13219866751476
 10
0.2794501285384867
 20
0.1289094722024722
 10
0.2778050284225304
 20
0.1268849325937532
 10
0.2754641435913192
 20
0.1249234872553056
 10
0.2743889286476402
 20
0.1253660117540048
 10
0.2741986972013914
 20
0.1234050781154246
 10
0.2752102784304884
 20
0.1213811804597643
 10
0.2744506180229389
 20
0.1188508271242202
 10
0.2730588667357821
 20
0.1182179455582502
 10
0.2714141646524566
 20
0.1178380294316866
 10
0.270402001591362
 20
0.1174582500846351
 10
0.2698325772622296
 20
0.1168888257555028
 10
0.2707175006386016
 20
0.1142323632758838
 10
0.2705903865749035
 20
0.1117021540414725
 10
0.270653108614272
 20
0.1094882669172742
 10
0.2698302375797659
 20
0.1071476564403898
 10
0.2687544712379846
 20
0.1053130203774198
 10
0.2669195257546231
 20
0.1029721679228247
 10
0.265021565397459
 20
0.1015801145368934
 10
0.2628707679113655
 20
0.1009470564931781
 10
0.2607199353592047
 20
0.1001874866405868
 10
0.2586324317334045
 20
0.0997441991999754
 10
0.2566083225339333
 20
0.0998702224212606
 10
0.2528150998364675
 20
0.1083454012699668
  0
LWPOLYLINE
  5
3E7
330
2
100
AcDbEntity
  8
Profilo
  6
Continuous
370
     0
100
AcDbPolyline
 90
        6
 70
   128
 43
0.0
 10
0.2478636215339587
 20
0.1617704096765354
 10
0.2539686647947312
 20
0.1615915489130598
 10
0.2585297844402326
 20
0.1615915489130598
 10
0.2628225998473534
 20
0.1617705028655413
 10
0.2662210765276973
 20
0.1621284107705077
 10
0.2720342651499829
 20
0.1623968365220637
  0
LWPOLYLINE
  5
3E8
330
2
100
AcDbEntity
  8
Profilo
  6
Continuous
370
     0
100
AcDbPolyline
 90
        6
 70
   128
 43
0.0
 10
0.2482449152858215
 20
0.1551492273323583
 10
0.2539686647947312
 20
0.156849284703774
 10
0.2605867595812916
 20
0.1582809163236355
 10
0.2655950420393043
 20
0.1591756757317121
 10
0.2697984248839229
 20
0.1600704454941256
 10
0.2725708670758737
 20
0.1602493994466071
  0
LWPOLYLINE
  5
3E9
330
2
100
AcDbEntity
  8
Profilo
  6
Continuous
370
     0
100
AcDbPolyline
 90
       37
 70
   128
 43
0.0
 10
0.2500335861884966
 20
0.1692865481611368
 10
0.2551313077598887
 20
0.1707181694266632
 10
0.2584403518777321
 20
0.1732235144070827
 10
0.2608550572687966
 20
0.1762657212449511
 10
0.2624648630464672
 20
0.1801132260461576
 10
0.2628225998473534
 20
0.1831554328840242
 10
0.2628225998473534
 20
0.184944962054517
 10
0.2645218381875245
 20
0.1858397318169288
 10
0.2660422114026928
 20
0.1859292036160015
 10
0.2671154152544726
 20
0.1869134555318238
 10
0.2680097539812478
 20
0.1882556049982747
 10
0.2693512555205344
 20
0.1899556623696922
 10
0.2715871023374734
 20
0.190313570274656
 10
0.2743595445294242
 20
0.1899556623696922
 10
0.2767742499204924
 20
0.1877187431408268
 10
0.2770425541588746
 20
0.1851239160069985
 10
0.2767742499204924
 20
0.1820817091691292
 10
0.2757010460687126
 20
0.1816343294650927
 10
0.2769531215963723
 20
0.1801132260461576
 10
0.2790995292999319
 20
0.1793974102362273
 10
0.2803515982767162
 20
0.1770710192082893
 10
0.2798149963508272
 20
0.1756393875884304
 10
0.2789206576240519
 20
0.1742077663229041
 10
0.2784734948115388
 20
0.1732235144070827
 10
0.2784734948115388
 20
0.1724182267980788
 10
0.2809776327651092
 20
0.1711655594850357
 10
0.2826768776561575
 20
0.1692865481611368
 10
0.2842866834338262
 20
0.1677654447422027
 10
0.285359887285606
 20
0.1655285255133399
 10
0.2858964892114968
 20
0.1634705602369587
 10
0.2862542194615059
 20
0.1605178251981648
 10
0.2858964892114968
 20
0.1581914341702249
 10
0.284823285359717
 20
0.1562229510472533
 10
0.2838395140704395
 20
0.1541649857708721
 10
0.2826768776561575
 20
0.1523754462460468
 10
0.2811565044409892
 20
0.1510332967795958
 10
0.2724814345133715
 20
0.1543439397233553
  0
LWPOLYLINE
  5
3EA
330
2
100
AcDbEntity
  8
Profilo
  6
Continuous
370
     0
100
AcDbPolyline
 90
        6
 70
   128
 43
0.0
 10
0.2312030248995369
 20
0.1886199015679869
 10
0.2356464160474085
 20
0.1928103453983739
 10
0.2388716146785454
 20
0.1960355440295117
 10
0.2417805540099826
 20
0.1991975624675882
 10
0.2439305608097171
 20
0.2018537274806066
 10
0.2478513002356819
 20
0.206154078244912
  0
LWPOLYLINE
  5
3EB
330
2
100
AcDbEntity
  8
Profilo
  6
Continuous
370
     0
100
AcDbPolyline
 90
        6
 70
   128
 43
0.0
 10
0.2361545232321425
 20
0.1842076340305135
 10
0.2389997032279729
 20
0.1894570582178095
 10
0.2426670865035194
 20
0.1951490743464864
 10
0.2455757865466963
 20
0.1993231552796274
 10
0.2479153292934462
 20
0.2029280935595835
 10
0.249749202414502
 20
0.2050150457872796
  0
LWPOLYLINE
  5
3EC
330
2
100
AcDbEntity
  8
Profilo
  6
Continuous
370
     0
100
AcDbPolyline
 90
       37
 70
   128
 43
0.0
 10
0.2274227091308964
 20
0.1954690107809446
 10
0.230015033517684
 20
0.2000859533776222
 10
0.230583334627791
 20
0.2041973473374593
 10
0.2301396240995514
 20
0.2080559669788794
 10
0.2285573319457543
 20
0.2119148682962443
 10
0.2266591249787129
 20
0.214318991498858
 10
0.2253937367671272
 20
0.2155843797104445
 10
0.2259625819537123
 20
0.2174186204302341
 10
0.2269743820482435
 20
0.2185569527564629
 10
0.2270372805653582
 20
0.2200117936817255
 10
0.2267206305546447
 20
0.221593229649199
 10
0.2264670932943118
 20
0.223743936580337
 10
0.2277949966336226
 20
0.225577998132929
 10
0.2300084884146397
 20
0.2272853317006648
 10
0.2332976837269274
 20
0.2274110455015593
 10
0.2353222233356464
 20
0.2257659453856039
 10
0.2372836686740949
 20
0.2234250605543927
 10
0.2368411441753948
 20
0.2223498456107138
 10
0.2388020778139768
 20
0.2221596141644659
 10
0.2408259754696362
 20
0.223171195393561
 10
0.2433563288051803
 20
0.2224115349860124
 10
0.2439892103711503
 20
0.2210197836988547
 10
0.2443691264977139
 20
0.2193750816155292
 10
0.2447489058447654
 20
0.2183629185544346
 10
0.2453183301738977
 20
0.2177934942253022
 10
0.2479747926535167
 20
0.218678417601675
 10
0.250505001887928
 20
0.2185513035379762
 10
0.2527188890121272
 20
0.2186140255773455
 10
0.2550594994890107
 20
0.2177911545428394
 10
0.2568941355519807
 20
0.2167153882010572
 10
0.259234988006575
 20
0.2148804427176966
 10
0.2606270413925062
 20
0.2129824823605316
 10
0.2612600994362224
 20
0.2108316848744381
 10
0.2620196692888128
 20
0.2086808523222773
 10
0.2624629567294252
 20
0.206593348696479
 10
0.2623369335081391
 20
0.2045692394970059
 10
0.2538617546594337
 20
0.2007760167995401
  0
LWPOLYLINE
  5
3ED
330
2
100
AcDbEntity
  8
Profilo
  6
Continuous
370
     0
100
AcDbPolyline
 90
        9
 70
   128
 43
0.0
 10
0.2113023978506159
 20
0.2292032575355062
 10
0.2132627838844931
 20
0.2304224607661677
 10
0.2150924671617793
 20
0.23072726648699
 10
0.2172706669631981
 20
0.2308143538357962
 10
0.2199716363736512
 20
0.230640179138183
 10
0.2232389257214442
 20
0.2298999497750816
 10
0.2254171255228647
 20
0.2289855457143663
 10
0.2271596874348662
 20
0.2282888534747908
 10
0.2291636341513849
 20
0.2270261065697271
  0
LWPOLYLINE
  5
3EE
330
2
100
AcDbEntity
  8
Profilo
  6
Continuous
370
     0
100
AcDbPolyline
 90
        3
 70
   128
 43
0.0
 10
0.2075598031603021
 20
0.2060035716948215
 10
0.2088958642784297
 20
0.2143499710594548
 10
0.211790677173489
 20
0.2191352354865698
  0
LWPOLYLINE
  5
3EF
330
2
100
AcDbEntity
  8
Profilo
  6
Continuous
370
     0
100
AcDbPolyline
 90
        9
 70
   128
 43
0.0
 10
0.2123473779346549
 20
0.1982135972075974
 10
0.2113453269188912
 20
0.2032214342060262
 10
0.2115679968690211
 20
0.206448710286573
 10
0.2135720989005487
 20
0.2105662701014988
 10
0.2160215511866758
 20
0.213904825916828
 10
0.2183596736749016
 20
0.2151289619573008
 10
0.2209204661132609
 20
0.2153515345286155
 10
0.2235925987038523
 20
0.2155741070999285
 10
0.224149289110684
 20
0.2155741070999285
  0
LWPOLYLINE
  5
3F0
330
2
100
AcDbEntity
  8
Profilo
  6
Continuous
370
     0
100
AcDbPolyline
 90
        5
 70
   128
 43
0.0
 10
0.1940878000551093
 20
0.2070051351639822
 10
0.1915270076167519
 20
0.2114565472850026
 10
0.1879641641626288
 20
0.2149063959368641
 10
0.1839559704539079
 20
0.2167982431404031
 10
0.1806157969499203
 20
0.21690952942606
  0
LWPOLYLINE
  5
3F1
330
2
100
AcDbEntity
  8
Profilo
  6
Continuous
370
     0
100
AcDbPolyline
 90
        9
 70
   128
 43
0.0
 10
0.1576681117087672
 20
0.2104494363688167
 10
0.1581922070950212
 20
0.21269774549916
 10
0.1592704583556758
 20
0.214207057144089
 10
0.160749098151141
 20
0.2158088570493483
 10
0.1627821320468423
 20
0.2175955707254639
 10
0.1656158757030499
 20
0.2193824719771052
 10
0.1678026768654876
 20
0.2202761105153911
 10
0.1695274900171059
 20
0.2210156520530008
 10
0.1718373912289865
 20
0.2215397594658958
  0
LWPOLYLINE
  5
3F2
330
2
100
AcDbEntity
  8
Profilo
  6
Continuous
370
     0
100
AcDbPolyline
 90
        3
 70
   128
 43
0.0
 10
0.1714263528033597
 20
0.1913983671047162
 10
0.1664692950908448
 20
0.1982449005706485
 10
0.1651325439930242
 20
0.2036755353251948
  0
LWPOLYLINE
  5
3F3
330
2
100
AcDbEntity
  8
Profilo
  6
Continuous
370
     0
100
AcDbPolyline
 90
        9
 70
   128
 43
0.0
 10
0.1803200231769284
 20
0.189275349907913
 10
0.1760703906079217
 20
0.1921078683402374
 10
0.1739458132383098
 20
0.1945473485732568
 10
0.1724513729079162
 20
0.1988760171770151
 10
0.1718226817732406
 20
0.2029687569551161
 10
0.1726103891445975
 20
0.2054876541171001
 10
0.1742637602684893
 20
0.207455790389956
 10
0.1759958607690435
 20
0.2095026560394751
 10
0.1763895003307367
 20
0.2098962956011675
  0
LWPOLYLINE
  5
3F4
330
2
100
AcDbEntity
  8
Profilo
  6
Continuous
370
     0
100
AcDbPolyline
 90
        5
 70
   128
 43
0.0
 10
0.1611919957306802
 20
0.1825804346737006
 10
0.1562336183356758
 20
0.1839173046719565
 10
0.1512748961931609
 20
0.183837405281038
 10
0.1471029372548247
 20
0.1823409223158845
 10
0.1446623866325729
 20
0.1800577542681155
  0
LWPOLYLINE
  5
3F5
330
2
100
AcDbEntity
  8
Profilo
  6
Continuous
370
     0
100
AcDbPolyline
 90
        9
 70
   128
 43
0.0
 10
0.1330038983938943
 20
0.1592633148136894
 10
0.1317846951632328
 20
0.1612237008475675
 10
0.1314798894424114
 20
0.1630533841248519
 10
0.1313928020936034
 20
0.1652315839262716
 10
0.1315669767912175
 20
0.1679325533367238
 10
0.1323072061543189
 20
0.1711998426845177
 10
0.1332216102150343
 20
0.1733780424859373
 10
0.1339183024546097
 20
0.1751206043979388
 10
0.1351810493596725
 20
0.1771245511144584
  0
LWPOLYLINE
  5
3F6
330
2
100
AcDbEntity
  8
Profilo
  6
Continuous
370
     0
100
AcDbPolyline
 90
        3
 70
   128
 43
0.0
 10
0.1562035842345781
 20
0.1555207201233756
 10
0.1478571848699448
 20
0.1568567812415032
 10
0.1430719204428299
 20
0.1597515941365633
  0
LWPOLYLINE
  5
3F7
330
2
100
AcDbEntity
  8
Profilo
  6
Continuous
370
     0
100
AcDbPolyline
 90
        9
 70
   128
 43
0.0
 10
0.1639935587218039
 20
0.1603082948977284
 10
0.1589857217233734
 20
0.1593062438819647
 10
0.1557584456428275
 20
0.1595289138320955
 10
0.1516408858279017
 20
0.1615330158636222
 10
0.1483023300125725
 20
0.1639824681497485
 10
0.1470781939720988
 20
0.166320590637976
 10
0.146855621400785
 20
0.1688813830763336
 10
0.1466330488294711
 20
0.1715535156669249
 10
0.1466330488294711
 20
0.1721102060737575
  0
LWPOLYLINE
  5
3F8
330
2
100
AcDbEntity
  8
Profilo
  6
Continuous
370
     0
100
AcDbPolyline
 90
        5
 70
   128
 43
0.0
 10
0.1552020207654183
 20
0.1420487170181828
 10
0.150750608644397
 20
0.1394879245798254
 10
0.1473007599925373
 20
0.1359250811257014
 10
0.1454089127889974
 20
0.1319168874169814
 10
0.1452976265033405
 20
0.1285767139129937
  0
LWPOLYLINE
  5
3F9
330
2
100
AcDbEntity
  8
Profilo
  6
Continuous
370
     0
100
AcDbPolyline
 90
        9
 70
   128
 43
0.0
 10
0.1517577195605848
 20
0.1056290286718416
 10
0.1495094104302405
 20
0.1061531240580947
 10
0.1480000987853116
 20
0.1072313753187484
 10
0.1463982988800522
 20
0.1087100151142145
 10
0.1446115852039358
 20
0.1107430490099167
 10
0.1428246839522944
 20
0.1135767926661225
 10
0.1419310454140094
 20
0.115763593828562
 10
0.1411915038763989
 20
0.1174884069801794
 10
0.1406673964635056
 20
0.11979830819206
  0
LWPOLYLINE
  5
3FA
330
2
100
AcDbEntity
  8
Profilo
  6
Continuous
370
     0
100
AcDbPolyline
 90
        3
 70
   128
 43
0.0
 10
0.1708087888246843
 20
0.1193872697664332
 10
0.163962255358752
 20
0.1144302120539174
 10
0.1585316206042057
 20
0.1130934609560968
  0
LWPOLYLINE
  5
3FB
330
2
100
AcDbEntity
  8
Profilo
  6
Continuous
370
     0
100
AcDbPolyline
 90
        9
 70
   128
 43
0.0
 10
0.1729318060214875
 20
0.1282809401400028
 10
0.1700992875891631
 20
0.1240313075709952
 10
0.1676598073561428
 20
0.1219067302013824
 10
0.1633311387523845
 20
0.1204122898709906
 10
0.1592383989742844
 20
0.1197835987363141
 10
0.1567195018123004
 20
0.120571306107671
 10
0.1547513655394445
 20
0.1222246772315619
 10
0.1527044998899262
 20
0.1239567777321178
 10
0.152310860328233
 20
0.1243504172938102
  0
LWPOLYLINE
  5
3FC
330
2
100
AcDbEntity
  8
Profilo
  6
Continuous
370
     0
100
AcDbPolyline
 90
        5
 70
   128
 43
0.0
 10
0.179626721255699
 20
0.1091529126937537
 10
0.178289851257444
 20
0.1041945352987502
 10
0.1783697506483625
 20
0.0992358131562344
 10
0.1798662336135161
 20
0.0950638542178982
 10
0.1821494016612841
 20
0.0926233035956473
  0
LWPOLYLINE
  5
3FD
330
2
100
AcDbEntity
  8
Profilo
  6
Continuous
370
     0
100
AcDbPolyline
 90
        9
 70
   128
 43
0.0
 10
0.2029438411157111
 20
0.0809648153569678
 10
0.2009834550818321
 20
0.0797456121263063
 10
0.1991537718045477
 20
0.079440806405484
 10
0.1969755720031289
 20
0.0793537190566778
 10
0.1942746025926758
 20
0.0795278937542901
 10
0.1910073132448829
 20
0.0802681231173924
 10
0.1888291134434623
 20
0.0811825271781078
 10
0.1870865515314608
 20
0.0818792194176833
 10
0.1850826048149421
 20
0.083141966322747
  0
LWPOLYLINE
  5
3FE
330
2
100
AcDbEntity
  8
Profilo
  6
Continuous
370
     0
100
AcDbPolyline
 90
        3
 70
   128
 43
0.0
 10
0.2066864358060249
 20
0.1041645011976525
 10
0.2053503746878973
 20
0.0958181018330192
 10
0.202455561792838
 20
0.0910328374059034
  0
LWPOLYLINE
  5
3FF
330
2
100
AcDbEntity
  8
Profilo
  6
Continuous
370
     0
100
AcDbPolyline
 90
        9
 70
   128
 43
0.0
 10
0.2018988610316721
 20
0.1119544756848766
 10
0.2029009120474358
 20
0.1069466386864469
 10
0.2026782420973041
 20
0.1037193626059002
 10
0.2006741400657783
 20
0.0996018027909743
 10
0.1982246877796512
 20
0.0962632469756461
 10
0.1958865652914254
 20
0.0950391109351723
 10
0.1933257728530661
 20
0.0948165383638585
 10
0.1906536402624747
 20
0.0945939657925456
 10
0.190096949855643
 20
0.0945939657925456
  0
LWPOLYLINE
  5
400
330
2
100
AcDbEntity
  8
Profilo
  6
Continuous
370
     0
100
AcDbPolyline
 90
        5
 70
   128
 43
0.0
 10
0.2201584389112177
 20
0.1031629377284918
 10
0.2227192313495751
 20
0.0987115256074715
 10
0.2262820748036982
 20
0.0952616769556099
 10
0.2302902685124191
 20
0.0933698297520701
 10
0.2336304420164068
 20
0.0932585434664132
  0
LWPOLYLINE
  5
401
330
2
100
AcDbEntity
  8
Profilo
  6
Continuous
370
     0
100
AcDbPolyline
 90
        9
 70
   128
 43
0.0
 10
0.256578127257558
 20
0.0997186365236574
 10
0.2560540318713058
 20
0.097470327393314
 10
0.2549757806106512
 20
0.0959610157483843
 10
0.253497140815186
 20
0.0943592158431249
 10
0.2514641069194829
 20
0.0925725021670093
 10
0.2486303632632771
 20
0.0907856009153679
 10
0.2464435621008376
 20
0.0898919623770821
 10
0.2447187489492211
 20
0.0891524208394725
 10
0.2424088477373405
 20
0.0886283134265783
  0
LWPOLYLINE
  5
402
330
2
100
AcDbEntity
  8
Profilo
  6
Continuous
370
     0
100
AcDbPolyline
 90
        3
 70
   128
 43
0.0
 10
0.2428198861629673
 20
0.1187697057877569
 10
0.2477769438754823
 20
0.1119231723218255
 10
0.2491136949733028
 20
0.1064925375672783
  0
LWPOLYLINE
  5
403
330
2
100
AcDbEntity
  8
Profilo
  6
Continuous
370
     0
100
AcDbPolyline
 90
        9
 70
   128
 43
0.0
 10
0.2339262157893986
 20
0.120892722984561
 10
0.2381758483584053
 20
0.1180602045522357
 10
0.2403004257280172
 20
0.1156207243192163
 10
0.241794866058409
 20
0.111292055715458
 10
0.2424235571930864
 20
0.1071993159373571
 10
0.2416358498217295
 20
0.1046804187753739
 10
0.2399824786978377
 20
0.1027122825025171
 10
0.2382503781972818
 20
0.1006654168529989
 10
0.2378567386355903
 20
0.1002717772913056
  0
LWPOLYLINE
  5
404
330
2
100
AcDbEntity
  8
Profilo
  6
Continuous
370
     0
100
AcDbPolyline
 90
        5
 70
   128
 43
0.0
 10
0.2530542432356468
 20
0.1275876382187725
 10
0.2580126206306494
 20
0.1262507682205166
 10
0.2629713427731661
 20
0.1263306676114351
 10
0.2671433017115024
 20
0.1278271505765887
 10
0.2695838523337541
 20
0.1301103186243576
  0
LWPOLYLINE
  5
405
330
2
100
AcDbEntity
  8
Profilo
  6
Continuous
370
     0
100
AcDbPolyline
 90
        9
 70
   128
 43
0.0
 10
0.2812423405724327
 20
0.1509047580787838
 10
0.2824615438030942
 20
0.1489443720449065
 10
0.2827663495239157
 20
0.1471146887676212
 10
0.2828534368727236
 20
0.1449364889662024
 10
0.2826792621751095
 20
0.1422355195557493
 10
0.2819390328120082
 20
0.1389682302079554
 10
0.2810246287512928
 20
0.1367900304065358
 10
0.2803279365117173
 20
0.1350474684945352
 10
0.2790651896066527
 20
0.1330435217780156
  0
LWPOLYLINE
  5
406
330
2
100
AcDbEntity
  8
Profilo
  6
Continuous
370
     0
100
AcDbPolyline
 90
        3
 70
   128
 43
0.0
 10
0.2580426547317489
 20
0.1546473527690984
 10
0.2663890540963822
 20
0.1533112916509699
 10
0.2711743185234972
 20
0.1504164787559107
  0
LWPOLYLINE
  5
407
330
2
100
AcDbEntity
  8
Profilo
  6
Continuous
370
     0
100
AcDbPolyline
 90
        9
 70
   128
 43
0.0
 10
0.2502526802445231
 20
0.1498597779947457
 10
0.2552605172429536
 20
0.1508618290105093
 10
0.2584877933234995
 20
0.1506391590603785
 10
0.2626053531384254
 20
0.1486350570288509
 10
0.2659439089537545
 20
0.1461856047427247
 10
0.2671680449942282
 20
0.143847482254498
 10
0.267390617565542
 20
0.1412866898161405
 10
0.2676131901368559
 20
0.1386145572255482
 10
0.2676131901368559
 20
0.1380578668187156
  0
LWPOLYLINE
  5
408
330
2
100
AcDbEntity
  8
Profilo
  6
Continuous
370
     0
100
AcDbPolyline
 90
        5
 70
   128
 43
0.0
 10
0.2590442182009087
 20
0.1681193558742903
 10
0.26349563032193
 20
0.1706801483126478
 10
0.2669454789737897
 20
0.1742429917667717
 10
0.2688373261773296
 20
0.1782511854754917
 10
0.2689486124629865
 20
0.1815913589794803
  0
LWPOLYLINE
  5
409
330
2
100
AcDbEntity
  8
Profilo
  6
Continuous
370
     0
100
AcDbPolyline
 90
        9
 70
   128
 43
0.0
 10
0.2624885194057422
 20
0.2045390442206324
 10
0.2647368285360865
 20
0.2040149488343784
 10
0.2662461401810154
 20
0.2029366975737247
 10
0.2678479400862748
 20
0.2014580577782586
 10
0.2696346537623913
 20
0.1994250238825564
 10
0.2714215550140326
 20
0.1965912802263506
 10
0.2723151935523176
 20
0.1944044790639111
 10
0.2730547350899281
 20
0.1926796659122937
 10
0.2735788425028232
 20
0.190369764700414
  0
LWPOLYLINE
  5
40A
330
2
100
AcDbEntity
  8
Profilo
  6
Continuous
370
     0
100
AcDbPolyline
 90
        3
 70
   128
 43
0.0
 10
0.2434374501416427
 20
0.1907808031260408
 10
0.250283983607575
 20
0.1957378608385557
 10
0.2557146183621213
 20
0.1970746119363763
  0
LWPOLYLINE
  5
40B
330
2
100
AcDbEntity
  8
Profilo
  6
Continuous
370
     0
100
AcDbPolyline
 90
        9
 70
   128
 43
0.0
 10
0.2413144329448395
 20
0.1818871327524712
 10
0.244146951377164
 20
0.1861367653214788
 10
0.2465864316101842
 20
0.1882613426910907
 10
0.2509151002139425
 20
0.1897557830214834
 10
0.2550078399920426
 20
0.190384474156159
 10
0.2575267371540266
 20
0.189596766784803
 10
0.2594948734268843
 20
0.1879433956609112
 10
0.2615417390764025
 20
0.1862112951603562
 10
0.261935378638094
 20
0.1858176555986629
  0
LWPOLYLINE
  5
40C
330
2
100
AcDbEntity
  8
Profilo
  6
Continuous
370
     0
100
AcDbPolyline
 90
        5
 70
   128
 43
0.0
 10
0.234619517710628
 20
0.2010151601987194
 10
0.2359563877088848
 20
0.2059735375937238
 10
0.2358764883179645
 20
0.2109322597362387
 10
0.2343800053528109
 20
0.2151042186745758
 10
0.2320968373050429
 20
0.2175447692968267
  0
CIRCLE
  5
40D
102
{ACAD_REACTORS
330
41F
102
}
330
2
100
AcDbEntity
  8
Sezione
  6
ACAD_ISO10W100
 62
     3
 48
0.001
100
AcDbCircle
 10
0.2071231194831635
 20
0.155084036446237
 30
0.0
 40
0.08
  0
DIMENSION
  5
40E
102
{ACAD_XDICTIONARY
360
418
102
}
102
{ACAD_REACTORS
330
41F
102
}
330
2
100
AcDbEntity
  8
Sezione
  6
ACAD_ISO10W100
100
AcDbDimension
  2
*D11
 10
0.1422743034086082
 20
0.1082371469686151
 30
0.0
 11
0.2903323375890858
 21
0.2036876842792696
 31
0.0
 70
    35
  1
d 160 mm
 71
     5
 42
0.16
  3
Bovelacci
100
AcDbDiametricDimension
 15
0.2719719355577186
 25
0.2019309259238588
 35
0.0
 40
0.0
1001
ACAD
1000
DSTYLE
1002
{
1070
   288
1070
     1
1002
}
  0
ENDSEC
  0
SECTION
  2
OBJECTS
  0
DICTIONARY
  5
9
330
0
100
AcDbDictionary
281
     1
  3
ACAD_2007HEADERVARS_RT
350
208
  3
ACAD_COLOR
350
184
  3
ACAD_GROUP
350
17F
  3
ACAD_LAYOUT
350
164
  3
ACAD_MATERIAL
350
B
  3
ACAD_MLINESTYLE
350
180
  3
ACAD_PLOTSETTINGS
350
181
  3
ACAD_PLOTSTYLENAME
350
8
  3
ACAD_TABLESTYLE
350
185
  3
ACAD_VISUALSTYLE
350
17A
  3
ACDBHEADERROUNDTRIPXREC
350
430
  3
AcDbVariableDictionary
350
18B
  3
DWGPROPS
350
42F
  0
DICTIONARY
  5
16E
330
16D
100
AcDbDictionary
280
     1
281
     1
  3
ACAD_LAYERSTATES
360
16F
  0
DICTIONARY
  5
3
330
2
100
AcDbDictionary
280
     1
281
     1
  3
ACAD_SORTENTS
360
18A
  0
DICTIONARY
  5
431
330
18
100
AcDbDictionary
280
     1
281
     1
  3
ACAD_MTEXT_RT
360
432
  0
DICTIONARY
  5
418
330
40E
100
AcDbDictionary
280
     1
281
     1
  3
ACAD_DIMASSOC
360
41F
  0
DICTIONARY
  5
208
102
{ACAD_REACTORS
330
9
102
}
330
9
100
AcDbDictionary
281
     1
  3
DIMFXL
350
209
  0
DICTIONARY
  5
184
102
{ACAD_REACTORS
330
9
102
}
330
9
100
AcDbDictionary
281
     1
  0
DICTIONARY
  5
17F
102
{ACAD_REACTORS
330
9
102
}
330
9
100
AcDbDictionary
281
     1
  0
DICTIONARY
  5
164
102
{ACAD_REACTORS
330
9
102
}
330
9
100
AcDbDictionary
281
     1
  3
Layout1
350
168
  3
Layout2
350
16C
  3
Model
350
163
  0
DICTIONARY
  5
B
102
{ACAD_REACTORS
330
9
102
}
330
9
100
AcDbDictionary
281
     1
  3
ByBlock
350
183
  3
ByLayer
350
182
  3
Global
350
A
  0
DICTIONARY
  5
180
102
{ACAD_REACTORS
330
9
102
}
330
9
100
AcDbDictionary
281
     1
  3
Standard
350
186
  0
DICTIONARY
  5
181
102
{ACAD_REACTORS
330
9
102
}
330
9
100
AcDbDictionary
281
     1
  0
ACDBDICTIONARYWDFLT
  5
8
102
{ACAD_REACTORS
330
9
102
}
330
9
100
AcDbDictionary
281
     1
  3
Normal
350
7
100
AcDbDictionaryWithDefault
340
7
  0
DICTIONARY
  5
185
102
{ACAD_REACTORS
330
9
102
}
330
9
100
AcDbDictionary
281
     1
  3
Standard
350
187
  0
DICTIONARY
  5
17A
102
{ACAD_REACTORS
330
9
102
}
330
9
100
AcDbDictionary
281
     1
  3
2dWireframe
350
179
  3
3D Hidden
350
1BD
  3
3dWireframe
350
189
  3
Basic
350
1BC
  3
Brighten
350
1C0
  3
ColorChange
350
1C4
  3
Conceptual
350
1BE
  3
Dim
350
1BF
  3
Facepattern
350
1C3
  3
Flat
350
1B8
  3
FlatWithEdges
350
1B9
  3
Gouraud
350
1BA
  3
GouraudWithEdges
350
1BB
  3
Linepattern
350
1C2
  3
Realistic
350
188
  3
Thicken
350
1C1
  0
DICTIONARY
  5
430
102
{ACAD_REACTORS
330
9
102
}
330
9
100
AcDbDictionary
281
     1
  0
DICTIONARY
  5
18B
102
{ACAD_REACTORS
330
9
102
}
330
9
100
AcDbDictionary
281
     1
  3
CTABLESTYLE
350
18C
  3
DIMASSOC
350
190
  3
HIDETEXT
350
18F
  3
INDEXCTL
350
18E
  3
PROJECTNAME
350
31D
  3
SORTENTS
350
18D
  0
XRECORD
  5
42F
102
{ACAD_REACTORS
330
9
102
}
330
9
100
AcDbXrecord
280
     1
  1
DWGPROPS COOKIE
  2

  3

  4

  6

  7

  8
Mario
  9

300
=
301
=
302
=
303
=
304
=
305
=
306
=
307
=
308
=
309
=
 40
0.0903830324074074
 41
2454297.625402373
 42
2454306.023845845
  1

 90
        0
  0
DICTIONARY
  5
16F
102
{ACAD_REACTORS
330
16E
102
}
330
16E
100
AcDbDictionary
281
     1
  0
SORTENTSTABLE
  5
18A
102
{ACAD_REACTORS
330
3
102
}
330
3
100
AcDbSortentsTable
330
2
331
403
  5
404
331
3E1
  5
3E2
331
3BF
  5
3C0
331
3F2
  5
3F3
331
3D0
  5
3D1
331
401
  5
402
331
3DF
  5
3E0
331
3BD
  5
3BE
331
3F0
  5
3F1
331
3CE
  5
3CF
331
D
  5
15
331
1E
  5
22
331
3FF
  5
400
331
3DD
  5
3DE
331
3BB
  5
3BC
331
3EE
  5
3EF
331
3CC
  5
3CD
331
1C
  5
1F
331
3FD
  5
3FE
331
3DB
  5
3DC
331
3EC
  5
3ED
331
3CA
  5
3CB
331
3FB
  5
3FC
331
3D9
  5
3DA
331
40C
  5
40D
331
3EA
  5
3EB
331
3C8
  5
3C9
331
18
  5
1E
331
3F9
  5
3FA
331
40A
  5
40B
331
3E8
  5
3E9
331
3C6
  5
3C7
331
3D7
  5
3D8
331
16
  5
14
331
408
  5
409
331
3E6
  5
3E7
331
3C4
  5
3C5
331
25
  5
2AC
331
3F7
  5
3F8
331
3D5
  5
3D6
331
14
  5
12
331
406
  5
407
331
3E4
  5
3E5
331
3C2
  5
3C3
331
23
  5
23F
331
3F5
  5
3F6
331
3D3
  5
3D4
331
12
  5
18
331
404
  5
405
331
3E2
  5
3E3
331
3C0
  5
3C1
331
21
  5
24
331
3F3
  5
3F4
331
3D1
  5
3D2
331
10
  5
16
331
402
  5
403
331
3E0
  5
3E1
331
3BE
  5
3BF
331
3F1
  5
3F2
331
3CF
  5
3D0
331
1F
  5
23
331
400
  5
401
331
3DE
  5
3DF
331
3BC
  5
3BD
331
3EF
  5
3F0
331
3CD
  5
3CE
331
1D
  5
21
331
3FE
  5
3FF
331
3DC
  5
3DD
331
3ED
  5
3EE
331
3CB
  5
3CC
331
23F
  5
3BB
331
3FC
  5
3FD
331
3DA
  5
3DB
331
3EB
  5
3EC
331
3C9
  5
3CA
331
40D
  5
10
331
3FA
  5
3FB
331
3D8
  5
3D9
331
40B
  5
40C
331
3E9
  5
3EA
331
3C7
  5
3C8
331
17
  5
1C
331
3F8
  5
3F9
331
409
  5
40A
331
3E7
  5
3E8
331
3C5
  5
3C6
331
3D6
  5
3D7
331
15
  5
13
331
407
  5
408
331
3E5
  5
3E6
331
3C3
  5
3C4
331
24
  5
1D
331
3F6
  5
3F7
331
3D4
  5
3D5
331
13
  5
11
331
405
  5
406
331
3E3
  5
3E4
331
3C1
  5
3C2
331
22
  5
25
331
3F4
  5
3F5
331
3D2
  5
3D3
331
11
  5
17
  0
XRECORD
  5
432
102
{ACAD_REACTORS
330
431
102
}
330
431
100
AcDbXrecord
280
     1
 40
7955300.0
  1
{\fTimes New Roman|b0|i0|c238|p18;\H1.6x;\C4;Bovelacci\P\pt0.09;\H0.4375x;\T0.95;via del Commercio, 5  47100 Forli - Italy  \fTimes New Roman|b0|i0|c0|p18;\P\fTimes New Roman|b0|i0|c238|p18;tel.+39-0543721386  fax +39-0543721127\fTimes New Roman|b0|i
  1
0|c0|p18; \fTimes New Roman|b0|i0|c238|p18;www.bovelacci.it\fTimes New Roman|b0|i0|c0|p18; \fTimes New Roman|b0|i0|c238|p18;e-mail: bovelacci@bovelacci\fTimes New Roman|b0|i0|c0|p18;.it}
  0
DIMASSOC
  5
41F
102
{ACAD_REACTORS
330
418
102
}
330
418
100
AcDbDimAssoc
330
40E
 90
        2
 70
     0
 71
     0
  1
AcDbOsnapPointRef
 72
     3
331
40D
 73
     2
 91
        0
 40
0.0
 10
0.0
 20
0.0
 30
0.0
 75
     0
  0
XRECORD
  5
209
102
{ACAD_REACTORS
330
208
102
}
330
208
100
AcDbXrecord
280
     1
 40
0.18
  0
LAYOUT
  5
168
102
{ACAD_XDICTIONARY
360
435
102
}
102
{ACAD_REACTORS
330
164
102
}
330
164
100
AcDbPlotSettings
  1

  2
C:\Documents and Settings\All Users\Dati applicazioni\Autodesk\ADT 2006\enu\Plotters\Default Windows System Printer.pc3
  4

  6

 40
0.0
 41
0.0
 42
0.0
 43
0.0
 44
0.0
 45
0.0
 46
0.0
 47
0.0
 48
0.0
 49
0.0
140
0.0
141
0.0
142
1.0
143
1.0
 70
   688
 72
     0
 73
     0
 74
     5
  7

 75
    16
147
1.0
148
0.0
149
0.0
100
AcDbLayout
  1
Layout1
 70
     1
 71
     1
 10
0.0
 20
0.0
 11
420.0
 21
297.0
 12
0.0
 22
0.0
 32
0.0
 14
1.000000000000000E+20
 24
1.000000000000000E+20
 34
1.000000000000000E+20
 15
-1.000000000000000E+20
 25
-1.000000000000000E+20
 35
-1.000000000000000E+20
146
0.0
 13
0.0
 23
0.0
 33
0.0
 16
1.0
 26
0.0
 36
0.0
 17
0.0
 27
1.0
 37
0.0
 76
     0
330
165
  0
LAYOUT
  5
16C
102
{ACAD_XDICTIONARY
360
437
102
}
102
{ACAD_REACTORS
330
164
102
}
330
164
100
AcDbPlotSettings
  1

  2
C:\Documents and Settings\All Users\Dati applicazioni\Autodesk\ADT 2006\enu\Plotters\Default Windows System Printer.pc3
  4

  6

 40
0.0
 41
0.0
 42
0.0
 43
0.0
 44
0.0
 45
0.0
 46
0.0
 47
0.0
 48
0.0
 49
0.0
140
0.0
141
0.0
142
1.0
143
1.0
 70
   688
 72
     0
 73
     0
 74
     5
  7

 75
    16
147
1.0
148
0.0
149
0.0
100
AcDbLayout
  1
Layout2
 70
     1
 71
     2
 10
0.0
 20
0.0
 11
12.0
 21
9.0
 12
0.0
 22
0.0
 32
0.0
 14
0.0
 24
0.0
 34
0.0
 15
0.0
 25
0.0
 35
0.0
146
0.0
 13
0.0
 23
0.0
 33
0.0
 16
1.0
 26
0.0
 36
0.0
 17
0.0
 27
1.0
 37
0.0
 76
     0
330
169
  0
LAYOUT
  5
163
102
{ACAD_XDICTIONARY
360
433
102
}
102
{ACAD_REACTORS
330
164
102
}
330
164
100
AcDbPlotSettings
  1

  2
C:\Documents and Settings\All Users\Dati applicazioni\Autodesk\ADT 2006\enu\Plotters\Default Windows System Printer.pc3
  4

  6

 40
0.0
 41
0.0
 42
0.0
 43
0.0
 44
0.0
 45
0.0
 46
0.0
 47
0.0
 48
0.0
 49
0.0
140
0.0
141
0.0
142
1.0
143
1.0
 70
  1712
 72
     0
 73
     0
 74
     0
  7

 75
     0
147
1.0
148
0.0
149
0.0
100
AcDbLayout
  1
Model
 70
     1
 71
     0
 10
0.0
 20
0.0
 11
12.0
 21
9.0
 12
0.0
 22
0.0
 32
0.0
 14
0.0
 24
0.0
 34
0.0
 15
0.0
 25
0.0
 35
0.0
146
0.0
 13
0.0
 23
0.0
 33
0.0
 16
1.0
 26
0.0
 36
0.0
 17
0.0
 27
1.0
 37
0.0
 76
     0
330
2
  0
MATERIAL
  5
183
102
{ACAD_XDICTIONARY
360
1B0
102
}
102
{ACAD_REACTORS
330
B
102
}
330
B
100
AcDbMaterial
  1
ByBlock
  0
MATERIAL
  5
182
102
{ACAD_XDICTIONARY
360
1AE
102
}
102
{ACAD_REACTORS
330
B
102
}
330
B
100
AcDbMaterial
  1
ByLayer
  0
MATERIAL
  5
A
102
{ACAD_XDICTIONARY
360
193
102
}
102
{ACAD_REACTORS
330
B
102
}
330
B
100
AcDbMaterial
  1
Global
  0
MLINESTYLE
  5
186
102
{ACAD_REACTORS
330
180
102
}
330
180
100
AcDbMlineStyle
  2
STANDARD
 70
     0
  3

 62
   256
 51
90.0
 52
90.0
 71
     2
 49
0.5
 62
   256
  6
BYLAYER
 49
-0.5
 62
   256
  6
BYLAYER
  0
ACDBPLACEHOLDER
  5
7
102
{ACAD_REACTORS
330
8
102
}
330
8
  0
TABLESTYLE
  5
187
102
{ACAD_XDICTIONARY
360
21A
102
}
102
{ACAD_REACTORS
330
185
102
}
330
185
100
AcDbTableStyle
  3
Standard
 70
     0
 71
     0
 40
1.5
 41
1.5
280
     0
281
     0
  7
Standard
140
4.5
170
     2
 62
     0
 63
     7
283
     0
274
    -2
284
     1
 64
     0
275
    -2
285
     1
 65
     0
276
    -2
286
     1
 66
     0
277
    -2
287
     1
 67
     0
278
    -2
288
     1
 68
     0
279
    -2
289
     1
 69
     0
  7
Standard
140
6.0
170
     5
 62
     0
 63
     7
283
     0
274
    -2
284
     1
 64
     0
275
    -2
285
     1
 65
     0
276
    -2
286
     1
 66
     0
277
    -2
287
     1
 67
     0
278
    -2
288
     1
 68
     0
279
    -2
289
     1
 69
     0
  7
Standard
140
4.5
170
     5
 62
     0
 63
     7
283
     0
274
    -2
284
     1
 64
     0
275
    -2
285
     1
 65
     0
276
    -2
286
     1
 66
     0
277
    -2
287
     1
 67
     0
278
    -2
288
     1
 68
     0
279
    -2
289
     1
 69
     0
  0
VISUALSTYLE
  5
179
102
{ACAD_REACTORS
330
17A
102
}
330
17A
100
AcDbVisualStyle
  2
2dWireframe
 70
     4
 71
     0
 72
     2
 73
     0
 90
        0
 40
-0.6
 41
-30.0
 62
     5
 63
     7
 74
     1
 91
        4
 64
     7
 65
   257
 75
     1
175
     1
 42
1.0
 92
        0
 66
   257
 43
1.0
 76
     1
 77
     6
 78
     2
 67
     7
 79
     5
170
     0
171
     0
290
     0
174
     0
 93
        1
 44
0.0
173
     0
291
     0
 45
0.0
1001
ACAD
1000
AcDbSavedByObjectVersion
1070
     0
1000
AcDbSavedByObjectVersion
1070
     0
1000
AcDbSavedByObjectVersion
1070
     0
1001
ACAD
1000
AcRTDxfName
1000
VISUALSTYLE
  0
VISUALSTYLE
  5
1BD
102
{ACAD_REACTORS
330
17A
102
}
330
17A
100
AcDbVisualStyle
  2
3D Hidden
 70
     6
 71
     1
 72
     2
 73
     2
 90
        0
 40
-0.6
 41
-30.0
 62
     5
 63
     7
 74
     2
 91
        2
 64
     7
 65
   257
 75
     2
175
     1
 42
40.0
 92
        0
 66
   257
 43
1.0
 76
     1
 77
     6
 78
     2
 67
     7
 79
     3
170
     0
171
     0
290
     0
174
     0
 93
        1
 44
0.0
173
     0
291
     0
 45
0.0
1001
ACAD
1000
AcDbSavedByObjectVersion
1070
     0
1000
AcDbSavedByObjectVersion
1070
     0
1001
ACAD
1000
AcRTDxfName
1000
VISUALSTYLE
  0
VISUALSTYLE
  5
189
102
{ACAD_REACTORS
330
17A
102
}
330
17A
100
AcDbVisualStyle
  2
3dWireframe
 70
     5
 71
     0
 72
     2
 73
     0
 90
        0
 40
-0.6
 41
-30.0
 62
     5
 63
     7
 74
     1
 91
        4
 64
     7
 65
   257
 75
     1
175
     1
 42
1.0
 92
        0
 66
   257
 43
1.0
 76
     1
 77
     6
 78
     2
 67
     7
 79
     5
170
     0
171
     0
290
     0
174
     0
 93
        1
 44
0.0
173
     0
291
     0
 45
0.0
1001
ACAD
1000
AcDbSavedByObjectVersion
1070
     0
1000
AcDbSavedByObjectVersion
1070
     0
1000
AcDbSavedByObjectVersion
1070
     0
1001
ACAD
1000
AcRTDxfName
1000
VISUALSTYLE
  0
VISUALSTYLE
  5
1BC
102
{ACAD_REACTORS
330
17A
102
}
330
17A
100
AcDbVisualStyle
  2
Basic
 70
     7
 71
     1
 72
     0
 73
     1
 90
        0
 40
-0.6
 41
-30.0
 62
     5
 63
     7
 74
     0
 91
        4
 64
     7
 65
   257
 75
     1
175
     1
 42
1.0
 92
        8
 66
     7
 43
1.0
 76
     1
 77
     6
 78
     2
 67
     7
 79
     5
170
     0
171
     0
290
     0
174
     0
 93
        1
 44
0.0
173
     0
291
     1
 45
0.0
1001
ACAD
1000
AcDbSavedByObjectVersion
1070
     0
1000
AcDbSavedByObjectVersion
1070
     0
1001
ACAD
1000
AcRTDxfName
1000
VISUALSTYLE
  0
VISUALSTYLE
  5
1C0
102
{ACAD_REACTORS
330
17A
102
}
330
17A
100
AcDbVisualStyle
  2
Brighten
 70
    12
 71
     2
 72
     2
 73
     0
 90
        0
 40
-0.6
 41
-30.0
 62
     5
 63
     7
 74
     1
 91
        4
 64
     7
 65
   257
 75
     1
175
     1
 42
1.0
 92
        8
 66
     7
 43
1.0
 76
     1
 77
     6
 78
     2
 67
     7
 79
     5
170
     0
171
     0
290
     0
174
     0
 93
        1
 44
50.0
173
     0
291
     1
 45
0.0
1001
ACAD
1000
AcDbSavedByObjectVersion
1070
     0
1000
AcDbSavedByObjectVersion
1070
     0
1001
ACAD
1000
AcRTDxfName
1000
VISUALSTYLE
  0
VISUALSTYLE
  5
1C4
102
{ACAD_REACTORS
330
17A
102
}
330
17A
100
AcDbVisualStyle
  2
ColorChange
 70
    16
 71
     2
 72
     2
 73
     3
 90
        0
 40
-0.6
 41
-30.0
 62
     5
 63
     8
 74
     1
 91
        4
 64
     7
 65
   257
 75
     1
175
     1
 42
1.0
 92
        8
 66
     8
 43
1.0
 76
     1
 77
     6
 78
     2
 67
     7
 79
     5
170
     0
171
     0
290
     0
174
     0
 93
        1
 44
0.0
173
     0
291
     1
 45
0.0
1001
ACAD
1000
AcDbSavedByObjectVersion
1070
     0
1000
AcDbSavedByObjectVersion
1070
     0
1001
ACAD
1000
AcRTDxfName
1000
VISUALSTYLE
  0
VISUALSTYLE
  5
1BE
102
{ACAD_REACTORS
330
17A
102
}
330
17A
100
AcDbVisualStyle
  2
Conceptual
 70
     9
 71
     3
 72
     2
 73
     0
 90
        0
 40
-0.6
 41
-30.0
 62
     5
 63
     7
 74
     2
 91
        2
 64
     7
 65
   257
 75
     1
175
     1
 42
40.0
 92
        8
 66
     7
 43
1.0
 76
     1
 77
     6
 78
     2
 67
     7
 79
     3
170
     0
171
     0
290
     0
174
     0
 93
        1
 44
0.0
173
     0
291
     0
 45
0.0
1001
ACAD
1000
AcDbSavedByObjectVersion
1070
     0
1000
AcDbSavedByObjectVersion
1070
     0
1001
ACAD
1000
AcRTDxfName
1000
VISUALSTYLE
  0
VISUALSTYLE
  5
1BF
102
{ACAD_REACTORS
330
17A
102
}
330
17A
100
AcDbVisualStyle
  2
Dim
 70
    11
 71
     2
 72
     2
 73
     0
 90
        0
 40
-0.6
 41
-30.0
 62
     5
 63
     7
 74
     1
 91
        4
 64
     7
 65
   257
 75
     1
175
     1
 42
1.0
 92
        8
 66
     7
 43
1.0
 76
     1
 77
     6
 78
     2
 67
     7
 79
     5
170
     0
171
     0
290
     0
174
     0
 93
        1
 44
-50.0
173
     0
291
     1
 45
0.0
1001
ACAD
1000
AcDbSavedByObjectVersion
1070
     0
1000
AcDbSavedByObjectVersion
1070
     0
1001
ACAD
1000
AcRTDxfName
1000
VISUALSTYLE
  0
VISUALSTYLE
  5
1C3
102
{ACAD_REACTORS
330
17A
102
}
330
17A
100
AcDbVisualStyle
  2
Facepattern
 70
    15
 71
     2
 72
     2
 73
     0
 90
        0
 40
-0.6
 41
-30.0
 62
     5
 63
     7
 74
     1
 91
        4
 64
     7
 65
   257
 75
     1
175
     1
 42
1.0
 92
        8
 66
     7
 43
1.0
 76
     1
 77
     6
 78
     2
 67
     7
 79
     5
170
     0
171
     0
290
     0
174
     0
 93
        1
 44
0.0
173
     0
291
     1
 45
0.0
1001
ACAD
1000
AcDbSavedByObjectVersion
1070
     0
1000
AcDbSavedByObjectVersion
1070
     0
1001
ACAD
1000
AcRTDxfName
1000
VISUALSTYLE
  0
VISUALSTYLE
  5
1B8
102
{ACAD_REACTORS
330
17A
102
}
330
17A
100
AcDbVisualStyle
  2
Flat
 70
     0
 71
     2
 72
     1
 73
     1
 90
        2
 40
-0.6
 41
30.0
 62
     5
 63
     7
 74
     0
 91
        4
 64
     7
 65
   257
 75
     1
175
     1
 42
1.0
 92
        8
 66
     7
 43
1.0
 76
     1
 77
     6
 78
     2
 67
     7
 79
     5
170
     0
171
     0
290
     0
174
     0
 93
       13
 44
0.0
173
     0
291
     1
 45
0.0
1001
ACAD
1000
AcDbSavedByObjectVersion
1070
     0
1000
AcDbSavedByObjectVersion
1070
     0
1001
ACAD
1000
AcRTDxfName
1000
VISUALSTYLE
  0
VISUALSTYLE
  5
1B9
102
{ACAD_REACTORS
330
17A
102
}
330
17A
100
AcDbVisualStyle
  2
FlatWithEdges
 70
     1
 71
     2
 72
     1
 73
     1
 90
        2
 40
-0.6
 41
30.0
 62
     5
 63
     7
 74
     1
 91
        4
 64
     7
 65
   257
 75
     1
175
     1
 42
1.0
 92
        0
 66
   257
 43
1.0
 76
     1
 77
     6
 78
     2
 67
     7
 79
     5
170
     0
171
     0
290
     0
174
     0
 93
       13
 44
0.0
173
     0
291
     1
 45
0.0
1001
ACAD
1000
AcDbSavedByObjectVersion
1070
     0
1000
AcDbSavedByObjectVersion
1070
     0
1001
ACAD
1000
AcRTDxfName
1000
VISUALSTYLE
  0
VISUALSTYLE
  5
1BA
102
{ACAD_REACTORS
330
17A
102
}
330
17A
100
AcDbVisualStyle
  2
Gouraud
 70
     2
 71
     2
 72
     2
 73
     1
 90
        2
 40
-0.6
 41
30.0
 62
     5
 63
     7
 74
     0
 91
        4
 64
     7
 65
   257
 75
     1
175
     1
 42
1.0
 92
        0
 66
     7
 43
1.0
 76
     1
 77
     6
 78
     2
 67
     7
 79
     5
170
     0
171
     0
290
     0
174
     0
 93
       13
 44
0.0
173
     0
291
     1
 45
0.0
1001
ACAD
1000
AcDbSavedByObjectVersion
1070
     0
1000
AcDbSavedByObjectVersion
1070
     0
1001
ACAD
1000
AcRTDxfName
1000
VISUALSTYLE
  0
VISUALSTYLE
  5
1BB
102
{ACAD_REACTORS
330
17A
102
}
330
17A
100
AcDbVisualStyle
  2
GouraudWithEdges
 70
     3
 71
     2
 72
     2
 73
     1
 90
        2
 40
-0.6
 41
30.0
 62
     5
 63
     7
 74
     1
 91
        4
 64
     7
 65
   257
 75
     1
175
     1
 42
1.0
 92
        0
 66
   257
 43
1.0
 76
     1
 77
     6
 78
     2
 67
     7
 79
     5
170
     0
171
     0
290
     0
174
     0
 93
       13
 44
0.0
173
     0
291
     1
 45
0.0
1001
ACAD
1000
AcDbSavedByObjectVersion
1070
     0
1000
AcDbSavedByObjectVersion
1070
     0
1001
ACAD
1000
AcRTDxfName
1000
VISUALSTYLE
  0
VISUALSTYLE
  5
1C2
102
{ACAD_REACTORS
330
17A
102
}
330
17A
100
AcDbVisualStyle
  2
Linepattern
 70
    14
 71
     2
 72
     2
 73
     0
 90
        0
 40
-0.6
 41
-30.0
 62
     5
 63
     7
 74
     1
 91
        4
 64
     7
 65
   257
 75
     7
175
     7
 42
1.0
 92
        8
 66
     7
 43
1.0
 76
     1
 77
     6
 78
     2
 67
     7
 79
     5
170
     0
171
     0
290
     0
174
     0
 93
        1
 44
0.0
173
     0
291
     1
 45
0.0
1001
ACAD
1000
AcDbSavedByObjectVersion
1070
     0
1000
AcDbSavedByObjectVersion
1070
     0
1001
ACAD
1000
AcRTDxfName
1000
VISUALSTYLE
  0
VISUALSTYLE
  5
188
102
{ACAD_REACTORS
330
17A
102
}
330
17A
100
AcDbVisualStyle
  2
Realistic
 70
     8
 71
     2
 72
     2
 73
     0
 90
        0
 40
-0.6
 41
-30.0
 62
     5
 63
     7
 74
     1
 91
        0
 64
     7
 65
   257
 75
     1
175
     1
 42
1.0
 92
        8
 66
     8
 43
1.0
 76
     1
 77
     6
 78
     2
 67
     7
 79
     5
170
     0
171
     0
290
     0
174
     0
 93
       13
 44
0.0
173
     0
291
     0
 45
0.0
1001
ACAD
1000
AcDbSavedByObjectVersion
1070
     0
1000
AcDbSavedByObjectVersion
1070
     0
1000
AcDbSavedByObjectVersion
1070
     0
1001
ACAD
1000
AcRTDxfName
1000
VISUALSTYLE
  0
VISUALSTYLE
  5
1C1
102
{ACAD_REACTORS
330
17A
102
}
330
17A
100
AcDbVisualStyle
  2
Thicken
 70
    13
 71
     2
 72
     2
 73
     0
 90
        0
 40
-0.6
 41
-30.0
 62
     5
 63
     7
 74
     1
 91
        4
 64
     7
 65
   257
 75
     1
175
     1
 42
1.0
 92
       12
 66
     7
 43
1.0
 76
     1
 77
     6
 78
     2
 67
     7
 79
     5
170
     0
171
     0
290
     0
174
     0
 93
        1
 44
0.0
173
     0
291
     1
 45
0.0
1001
ACAD
1000
AcDbSavedByObjectVersion
1070
     0
1000
AcDbSavedByObjectVersion
1070
     0
1001
ACAD
1000
AcRTDxfName
1000
VISUALSTYLE
  0
DICTIONARYVAR
  5
18C
102
{ACAD_REACTORS
330
18B
102
}
330
18B
100
DictionaryVariables
280
     0
  1
STANDARD
  0
DICTIONARYVAR
  5
190
102
{ACAD_REACTORS
330
18B
102
}
330
18B
100
DictionaryVariables
280
     0
  1
2
  0
DICTIONARYVAR
  5
18F
102
{ACAD_REACTORS
330
18B
102
}
330
18B
100
DictionaryVariables
280
     0
  1
1
  0
DICTIONARYVAR
  5
18E
102
{ACAD_REACTORS
330
18B
102
}
330
18B
100
DictionaryVariables
280
     0
  1
0
  0
DICTIONARYVAR
  5
31D
102
{ACAD_REACTORS
330
18B
102
}
330
18B
100
DictionaryVariables
280
     0
  1

  0
DICTIONARYVAR
  5
18D
102
{ACAD_REACTORS
330
18B
102
}
330
18B
100
DictionaryVariables
280
     0
  1
127
  0
DICTIONARY
  5
435
330
168
100
AcDbDictionary
280
     1
281
     1
  3
ACAD_XREC_ROUNDTRIP
360
436
  0
DICTIONARY
  5
437
330
16C
100
AcDbDictionary
280
     1
281
     1
  3
ACAD_XREC_ROUNDTRIP
360
438
  0
DICTIONARY
  5
433
330
163
100
AcDbDictionary
280
     1
281
     1
  3
ACAD_XREC_ROUNDTRIP
360
434
  0
DICTIONARY
  5
1B0
330
183
100
AcDbDictionary
280
     1
281
     1
  3
ACAD_XREC_ROUNDTRIP
360
1B1
  0
DICTIONARY
  5
1AE
330
182
100
AcDbDictionary
280
     1
281
     1
  3
ACAD_XREC_ROUNDTRIP
360
1AF
  0
DICTIONARY
  5
193
330
A
100
AcDbDictionary
280
     1
281
     1
  3
ACAD_XREC_ROUNDTRIP
360
194
  0
DICTIONARY
  5
21A
330
187
100
AcDbDictionary
280
     1
281
     1
  3
ACAD_XREC_ROUNDTRIP
360
21B
  0
XRECORD
  5
436
102
{ACAD_REACTORS
330
435
102
}
330
435
100
AcDbXrecord
280
     1
102
SHADEPLOT
 70
     0
102
SHADEPLOTRESLEVEL
 70
     2
102
SHADEPLOTCUSTOMDPI
 70
   300
  0
XRECORD
  5
438
102
{ACAD_REACTORS
330
437
102
}
330
437
100
AcDbXrecord
280
     1
102
SHADEPLOT
 70
     0
102
SHADEPLOTRESLEVEL
 70
     2
102
SHADEPLOTCUSTOMDPI
 70
   300
  0
XRECORD
  5
434
102
{ACAD_REACTORS
330
433
102
}
330
433
100
AcDbXrecord
280
     1
102
SHADEPLOT
 70
     0
102
SHADEPLOTRESLEVEL
 70
     2
102
SHADEPLOTCUSTOMDPI
 70
   300
  0
XRECORD
  5
1B1
102
{ACAD_REACTORS
330
1B0
102
}
330
1B0
100
AcDbXrecord
280
     1
102
MATERIAL
148
0.0
149
0.0
149
0.0
 93
        0
 94
       63
282
     0
 72
     1
 77
     1
171
     1
175
     1
179
     1
273
     0
  0
XRECORD
  5
1AF
102
{ACAD_REACTORS
330
1AE
102
}
330
1AE
100
AcDbXrecord
280
     1
102
MATERIAL
148
0.0
149
0.0
149
0.0
 93
        0
 94
       63
282
     0
 72
     1
 77
     1
171
     1
175
     1
179
     1
273
     0
  0
XRECORD
  5
194
102
{ACAD_REACTORS
330
193
102
}
330
193
100
AcDbXrecord
280
     1
102
MATERIAL
148
0.0
149
0.0
149
0.0
 93
        0
 94
       63
282
     0
 72
     1
 77
     1
171
     1
175
     1
179
     1
273
     0
  0
XRECORD
  5
21B
102
{ACAD_REACTORS
330
21A
102
}
330
21A
100
AcDbXrecord
280
     1
102
ACAD_ROUNDTRIP_PRE2007_TABLESTYLE
 90
        4
 91
        0
  1

 92
        4
 93
        0
  2

 94
        4
 95
        0
  3

  0
ENDSEC
  0
EOF
