  0
SECTION
  2
HEADER
  9
$ACADVER
  1
AC1015
  9
$ACADMAINTVER
 70
    20
  9
$DWGCODEPAGE
  3
ANSI_1252
  9
$INSBASE
 10
0.0
 20
0.0
 30
0.0
  9
$EXTMIN
 10
0.0149999999999999
 20
0.015
 30
0.0
  9
$EXTMAX
 10
0.7340106547620598
 20
0.3236368153803919
 30
0.0
  9
$LIMMIN
 10
0.0
 20
0.0
  9
$LIMMAX
 10
1.0
 20
0.5
  9
$ORTHOMODE
 70
     0
  9
$REGENMODE
 70
     1
  9
$FILLMODE
 70
     1
  9
$QTEXTMODE
 70
     0
  9
$MIRRTEXT
 70
     0
  9
$LTSCALE
 40
1.0
  9
$ATTMODE
 70
     1
  9
$TEXTSIZE
 40
0.008
  9
$TRACEWID
 40
1.0
  9
$TEXTSTYLE
  7
style1
  9
$CLAYER
  8
Sezione
  9
$CELTYPE
  6
ACAD_ISO10W100
  9
$CECOLOR
 62
   256
  9
$CELTSCALE
 40
1.0
  9
$DISPSILH
 70
     0
  9
$DIMSCALE
 40
0.001
  9
$DIMASZ
 40
1.5
  9
$DIMEXO
 40
0.0625
  9
$DIMDLI
 40
0.38
  9
$DIMRND
 40
0.0
  9
$DIMDLE
 40
0.0
  9
$DIMEXE
 40
0.18
  9
$DIMTP
 40
0.0
  9
$DIMTM
 40
0.0
  9
$DIMTXT
 40
3.0
  9
$DIMCEN
 40
0.0
  9
$DIMTSZ
 40
0.0
  9
$DIMTOL
 70
     0
  9
$DIMLIM
 70
     0
  9
$DIMTIH
 70
     1
  9
$DIMTOH
 70
     1
  9
$DIMSE1
 70
     0
  9
$DIMSE2
 70
     0
  9
$DIMTAD
 70
     0
  9
$DIMZIN
 70
     0
  9
$DIMBLK
  1
ArchTick
  9
$DIMASO
 70
     1
  9
$DIMSHO
 70
     1
  9
$DIMPOST
  1

  9
$DIMAPOST
  1

  9
$DIMALT
 70
     0
  9
$DIMALTD
 70
     2
  9
$DIMALTF
 40
25.4
  9
$DIMLFAC
 40
1.0
  9
$DIMTOFL
 70
     0
  9
$DIMTVP
 40
0.0
  9
$DIMTIX
 70
     0
  9
$DIMSOXD
 70
     0
  9
$DIMSAH
 70
     0
  9
$DIMBLK1
  1

  9
$DIMBLK2
  1

  9
$DIMSTYLE
  2
Bovelacci
  9
$DIMCLRD
 70
     5
  9
$DIMCLRE
 70
     5
  9
$DIMCLRT
 70
     4
  9
$DIMTFAC
 40
1.0
  9
$DIMGAP
 40
2.0
  9
$DIMJUST
 70
     0
  9
$DIMSD1
 70
     0
  9
$DIMSD2
 70
     0
  9
$DIMTOLJ
 70
     1
  9
$DIMTZIN
 70
     0
  9
$DIMALTZ
 70
     0
  9
$DIMALTTZ
 70
     0
  9
$DIMUPT
 70
     0
  9
$DIMDEC
 70
     2
  9
$DIMTDEC
 70
     2
  9
$DIMALTU
 70
     2
  9
$DIMALTTD
 70
     2
  9
$DIMTXSTY
  7
ROMANS
  9
$DIMAUNIT
 70
     0
  9
$DIMADEC
 70
     0
  9
$DIMALTRND
 40
0.0
  9
$DIMAZIN
 70
     0
  9
$DIMDSEP
 70
    46
  9
$DIMATFIT
 70
     3
  9
$DIMFRAC
 70
     0
  9
$DIMLDRBLK
  1

  9
$DIMLUNIT
 70
     2
  9
$DIMLWD
 70
    -2
  9
$DIMLWE
 70
    -2
  9
$DIMTMOVE
 70
     2
  9
$LUNITS
 70
     2
  9
$LUPREC
 70
     2
  9
$SKETCHINC
 40
1.0
  9
$FILLETRAD
 40
0.0
  9
$AUNITS
 70
     0
  9
$AUPREC
 70
     0
  9
$MENU
  1
.
  9
$ELEVATION
 40
0.0
  9
$PELEVATION
 40
0.0
  9
$THICKNESS
 40
0.0
  9
$LIMCHECK
 70
     0
  9
$CHAMFERA
 40
0.0
  9
$CHAMFERB
 40
0.0
  9
$CHAMFERC
 40
0.0
  9
$CHAMFERD
 40
0.0
  9
$SKPOLY
 70
     0
  9
$TDCREATE
 40
2454297.625402373
  9
$TDUCREATE
 40
2454297.542069039
  9
$TDUPDATE
 40
2454306.821304248
  9
$TDUUPDATE
 40
2454306.737970914
  9
$TDINDWG
 40
0.1035053241
  9
$TDUSRTIMER
 40
0.1035033218
  9
$USRTIMER
 70
     1
  9
$ANGBASE
 50
0.0
  9
$ANGDIR
 70
     0
  9
$PDMODE
 70
     0
  9
$PDSIZE
 40
0.0
  9
$PLINEWID
 40
0.0
  9
$SPLFRAME
 70
     0
  9
$SPLINETYPE
 70
     6
  9
$SPLINESEGS
 70
     8
  9
$HANDSEED
  5
856
  9
$SURFTAB1
 70
     6
  9
$SURFTAB2
 70
     6
  9
$SURFTYPE
 70
     6
  9
$SURFU
 70
     6
  9
$SURFV
 70
     6
  9
$UCSBASE
  2

  9
$UCSNAME
  2

  9
$UCSORG
 10
0.0
 20
0.0
 30
0.0
  9
$UCSXDIR
 10
1.0
 20
0.0
 30
0.0
  9
$UCSYDIR
 10
0.0
 20
1.0
 30
0.0
  9
$UCSORTHOREF
  2

  9
$UCSORTHOVIEW
 70
     0
  9
$UCSORGTOP
 10
0.0
 20
0.0
 30
0.0
  9
$UCSORGBOTTOM
 10
0.0
 20
0.0
 30
0.0
  9
$UCSORGLEFT
 10
0.0
 20
0.0
 30
0.0
  9
$UCSORGRIGHT
 10
0.0
 20
0.0
 30
0.0
  9
$UCSORGFRONT
 10
0.0
 20
0.0
 30
0.0
  9
$UCSORGBACK
 10
0.0
 20
0.0
 30
0.0
  9
$PUCSBASE
  2

  9
$PUCSNAME
  2

  9
$PUCSORG
 10
0.0
 20
0.0
 30
0.0
  9
$PUCSXDIR
 10
1.0
 20
0.0
 30
0.0
  9
$PUCSYDIR
 10
0.0
 20
1.0
 30
0.0
  9
$PUCSORTHOREF
  2

  9
$PUCSORTHOVIEW
 70
     0
  9
$PUCSORGTOP
 10
0.0
 20
0.0
 30
0.0
  9
$PUCSORGBOTTOM
 10
0.0
 20
0.0
 30
0.0
  9
$PUCSORGLEFT
 10
0.0
 20
0.0
 30
0.0
  9
$PUCSORGRIGHT
 10
0.0
 20
0.0
 30
0.0
  9
$PUCSORGFRONT
 10
0.0
 20
0.0
 30
0.0
  9
$PUCSORGBACK
 10
0.0
 20
0.0
 30
0.0
  9
$USERI1
 70
     0
  9
$USERI2
 70
     0
  9
$USERI3
 70
     0
  9
$USERI4
 70
     0
  9
$USERI5
 70
     0
  9
$USERR1
 40
0.0
  9
$USERR2
 40
0.0
  9
$USERR3
 40
0.0
  9
$USERR4
 40
0.0
  9
$USERR5
 40
0.0
  9
$WORLDVIEW
 70
     1
  9
$SHADEDGE
 70
     3
  9
$SHADEDIF
 70
    70
  9
$TILEMODE
 70
     1
  9
$MAXACTVP
 70
    64
  9
$PINSBASE
 10
0.0
 20
0.0
 30
0.0
  9
$PLIMCHECK
 70
     0
  9
$PEXTMIN
 10
1.000000000000000E+20
 20
1.000000000000000E+20
 30
1.000000000000000E+20
  9
$PEXTMAX
 10
-1.000000000000000E+20
 20
-1.000000000000000E+20
 30
-1.000000000000000E+20
  9
$PLIMMIN
 10
0.0
 20
0.0
  9
$PLIMMAX
 10
420.0
 20
297.0
  9
$UNITMODE
 70
     0
  9
$VISRETAIN
 70
     1
  9
$PLINEGEN
 70
     0
  9
$PSLTSCALE
 70
     1
  9
$TREEDEPTH
 70
  3020
  9
$CMLSTYLE
  2
Standard
  9
$CMLJUST
 70
     0
  9
$CMLSCALE
 40
20.0
  9
$PROXYGRAPHICS
 70
     1
  9
$MEASUREMENT
 70
     1
  9
$CELWEIGHT
370
    -1
  9
$ENDCAPS
280
     0
  9
$JOINSTYLE
280
     0
  9
$LWDISPLAY
290
     0
  9
$INSUNITS
 70
     4
  9
$HYPERLINKBASE
  1

  9
$STYLESHEET
  1

  9
$XEDIT
290
     1
  9
$CEPSNTYPE
380
     0
  9
$PSTYLEMODE
290
     1
  9
$FINGERPRINTGUID
  2
{904A8C64-524F-4709-A9C6-320D2C273A6D}
  9
$VERSIONGUID
  2
{EEDC2114-8351-4732-A4FB-FA76795A973A}
  9
$EXTNAMES
290
     1
  9
$PSVPSCALE
 40
0.0
  9
$OLESTARTUP
290
     0
  0
ENDSEC
  0
SECTION
  2
CLASSES
  0
CLASS
  1
ACDBDICTIONARYWDFLT
  2
AcDbDictionaryWithDefault
  3
ObjectDBX Classes
 90
        0
280
     0
281
     0
  0
CLASS
  1
TABLESTYLE
  2
AcDbTableStyle
  3
ObjectDBX Classes
 90
     2047
280
     0
281
     0
  0
CLASS
  1
SORTENTSTABLE
  2
AcDbSortentsTable
  3
ObjectDBX Classes
 90
        0
280
     0
281
     0
  0
CLASS
  1
DICTIONARYVAR
  2
AcDbDictionaryVar
  3
ObjectDBX Classes
 90
        0
280
     0
281
     0
  0
CLASS
  1
ACDBPLACEHOLDER
  2
AcDbPlaceHolder
  3
ObjectDBX Classes
 90
        0
280
     0
281
     0
  0
CLASS
  1
LAYOUT
  2
AcDbLayout
  3
ObjectDBX Classes
 90
        0
280
     0
281
     0
  0
CLASS
  1
DIMASSOC
  2
AcDbDimAssoc
  3
"AcDbDimAssoc|Product Desc:     AcDim ARX App For Dimension|Company:          Autodesk, Inc.|WEB Address:      www.autodesk.com"
 90
        0
280
     0
281
     0
  0
CLASS
  1
MATERIAL
  2
AcDbMaterial
  3
ObjectDBX Classes
 90
        0
280
     0
281
     0
  0
CLASS
  1
VISUALSTYLE
  2
AcDbVisualStyle
  3
ObjectDBX Classes
 90
     4095
280
     0
281
     0
  0
ENDSEC
  0
SECTION
  2
TABLES
  0
TABLE
  2
VPORT
  5
177
330
0
100
AcDbSymbolTable
 70
     3
  0
VPORT
  5
84B
330
177
100
AcDbSymbolTableRecord
100
AcDbViewportTableRecord
  2
*Active
 70
     0
 10
0.0
 20
0.0
 11
1.0
 21
1.0
 12
0.2059281116244892
 22
0.1493088871068601
 13
0.0
 23
0.0
 14
10.0
 24
10.0
 15
10.0
 25
10.0
 16
0.0
 26
0.0
 36
1.0
 17
0.0
 27
0.0
 37
0.0
 40
0.2731030380784867
 41
1.546526867627784
 42
50.0
 43
0.0
 44
0.0
 50
0.0
 51
0.0
 71
     0
 72
  1000
 73
     1
 74
     3
 75
     0
 76
     0
 77
     0
 78
     0
281
     0
 65
     1
110
0.0
120
0.0
130
0.0
111
1.0
121
0.0
131
0.0
112
0.0
122
1.0
132
0.0
 79
     0
146
0.0
  0
ENDTAB
  0
TABLE
  2
LTYPE
  5
172
330
0
100
AcDbSymbolTable
 70
     2
  0
LTYPE
  5
173
330
172
100
AcDbSymbolTableRecord
100
AcDbLinetypeTableRecord
  2
ByBlock
 70
     0
  3

 72
    65
 73
     0
 40
0.0
  0
LTYPE
  5
174
330
172
100
AcDbSymbolTableRecord
100
AcDbLinetypeTableRecord
  2
ByLayer
 70
     0
  3

 72
    65
 73
     0
 40
0.0
  0
LTYPE
  5
C
330
172
100
AcDbSymbolTableRecord
100
AcDbLinetypeTableRecord
  2
Continuous
 70
     0
  3
Solid line
 72
    65
 73
     0
 40
0.0
  0
LTYPE
  5
14E
330
172
100
AcDbSymbolTableRecord
100
AcDbLinetypeTableRecord
  2
ACAD_ISO10W100
 70
     0
  3
ISO dash dot __ . __ . __ . __ . __ . __ . __ .
 72
    65
 73
     4
 40
18.0
 49
12.0
 74
     0
 49
-3.0
 74
     0
 49
0.0
 74
     0
 49
-3.0
 74
     0
  0
ENDTAB
  0
TABLE
  2
LAYER
  5
16D
102
{ACAD_XDICTIONARY
360
16E
102
}
330
0
100
AcDbSymbolTable
 70
     7
  0
LAYER
  5
6
330
16D
100
AcDbSymbolTableRecord
100
AcDbLayerTableRecord
  2
0
 70
     0
 62
     7
  6
Continuous
370
    -3
390
7
  0
LAYER
  5
15F
330
16D
100
AcDbSymbolTableRecord
100
AcDbLayerTableRecord
  2
Defpoints
 70
     0
 62
     7
  6
Continuous
290
     0
370
    -3
390
7
  0
LAYER
  5
28
330
16D
100
AcDbSymbolTableRecord
100
AcDbLayerTableRecord
  2
Profilo
 70
     0
 62
     1
  6
Continuous
370
    -3
390
7
1001
AcAecLayerStandard
1000

1000

  0
LAYER
  5
14D
330
16D
100
AcDbSymbolTableRecord
100
AcDbLayerTableRecord
  2
Sezione
 70
     0
 62
     2
  6
Continuous
370
    -3
390
7
1001
AcAecLayerStandard
1000

1000

  0
LAYER
  5
E
330
16D
100
AcDbSymbolTableRecord
100
AcDbLayerTableRecord
  2
Table
 70
     0
 62
     3
  6
Continuous
370
    -3
390
7
1001
AcAecLayerStandard
1000

1000

  0
LAYER
  5
19
330
16D
100
AcDbSymbolTableRecord
100
AcDbLayerTableRecord
  2
Text
 70
     0
 62
     4
  6
Continuous
370
    -3
390
7
1001
AcAecLayerStandard
1000

1000

  0
LAYER
  5
256
330
16D
100
AcDbSymbolTableRecord
100
AcDbLayerTableRecord
  2
Bovelacci
 70
     0
 62
     9
  6
Continuous
370
    -3
390
7
1001
AcAecLayerStandard
1000

1000

  0
ENDTAB
  0
TABLE
  2
STYLE
  5
170
330
0
100
AcDbSymbolTable
 70
     3
  0
STYLE
  5
1A
330
170
100
AcDbSymbolTableRecord
100
AcDbTextStyleTableRecord
  2
Standard
 70
     0
 40
0.0
 41
1.0
 50
0.0
 71
     0
 42
2.5
  3
txt
  4

  0
STYLE
  5
20
330
170
100
AcDbSymbolTableRecord
100
AcDbTextStyleTableRecord
  2
ROMANS
 70
     0
 40
0.0
 41
1.0
 50
0.0
 71
     0
 42
2.5
  3
romans
  4

  0
STYLE
  5
26
330
170
100
AcDbSymbolTableRecord
100
AcDbTextStyleTableRecord
  2
style1
 70
     0
 40
0.0
 41
1.0
 50
0.0
 71
     0
 42
0.008
  3
TIMES.TTF
  4

1001
ACAD
1000
Times New Roman
1071
       18
  0
ENDTAB
  0
TABLE
  2
VIEW
  5
175
330
0
100
AcDbSymbolTable
 70
     0
  0
ENDTAB
  0
TABLE
  2
UCS
  5
176
330
0
100
AcDbSymbolTable
 70
     0
  0
ENDTAB
  0
TABLE
  2
APPID
  5
17B
330
0
100
AcDbSymbolTable
 70
    10
  0
APPID
  5
1B
330
17B
100
AcDbSymbolTableRecord
100
AcDbRegAppTableRecord
  2
ACAD
 70
     0
  0
APPID
  5
157
330
17B
100
AcDbSymbolTableRecord
100
AcDbRegAppTableRecord
  2
ACAD_DSTYLE_DIMJOGGED_JOGANGLE_SYMBOL
 70
     0
  0
APPID
  5
F
330
17B
100
AcDbSymbolTableRecord
100
AcDbRegAppTableRecord
  2
AcAecLayerStandard
 70
     0
  0
APPID
  5
19C
330
17B
100
AcDbSymbolTableRecord
100
AcDbRegAppTableRecord
  2
ACAD_DSTYLE_DIMFLIPARROW_WHICH_SYMBOL
 70
     0
  0
APPID
  5
1A7
330
17B
100
AcDbSymbolTableRecord
100
AcDbRegAppTableRecord
  2
ACAD_DSTYLE_DIMEXT_LENGTH
 70
     0
  0
APPID
  5
1D2
330
17B
100
AcDbSymbolTableRecord
100
AcDbRegAppTableRecord
  2
ACAD_EXEMPT_FROM_CAD_STANDARDS
 70
     0
  0
APPID
  5
1D3
330
17B
100
AcDbSymbolTableRecord
100
AcDbRegAppTableRecord
  2
ACAD_DSTYLE_DIM_LINETYPE
 70
     0
  0
APPID
  5
1D4
330
17B
100
AcDbSymbolTableRecord
100
AcDbRegAppTableRecord
  2
ACAD_DSTYLE_DIM_EXT1_LINETYPE
 70
     0
  0
APPID
  5
1D5
330
17B
100
AcDbSymbolTableRecord
100
AcDbRegAppTableRecord
  2
ACAD_DSTYLE_DIM_EXT2_LINETYPE
 70
     0
  0
APPID
  5
25C
330
17B
100
AcDbSymbolTableRecord
100
AcDbRegAppTableRecord
  2
ACAD_PSEXT
 70
     0
  0
ENDTAB
  0
TABLE
  2
DIMSTYLE
  5
17C
330
0
100
AcDbSymbolTable
 70
     7
100
AcDbDimStyleTable
 71
     2
340
156
340
17D
  0
DIMSTYLE
105
17D
330
17C
100
AcDbSymbolTableRecord
100
AcDbDimStyleTableRecord
  2
ISO-25
 70
     0
 41
2.5
 42
0.625
 43
3.75
 44
1.25
 73
     0
 74
     0
 77
     1
 78
     8
140
2.5
141
2.5
143
0.03937007874016
147
0.625
171
     3
172
     1
271
     2
272
     2
274
     3
278
    44
283
     0
284
     8
340
1A
  0
DIMSTYLE
105
156
102
{ACAD_REACTORS
330
82C
102
}
330
17C
100
AcDbSymbolTableRecord
100
AcDbDimStyleTableRecord
  2
Bovelacci
 70
     0
 40
0.001
 41
1.5
140
3.0
141
0.0
147
2.0
176
     5
177
     5
178
     4
271
     2
272
     2
279
     2
340
20
342
152
1001
ACAD_DSTYLE_DIMJOGGED_JOGANGLE_SYMBOL
1070
   384
1040
0.7853981633974483
1001
ACAD_DSTYLE_DIMEXT_LENGTH
1070
   378
1040
0.18
  0
DIMSTYLE
105
257
330
17C
100
AcDbSymbolTableRecord
100
AcDbDimStyleTableRecord
  2
Dim 1-100
 70
     0
 40
0.1
 41
1.5
 42
0.0
 43
5.0
 44
1.25
 45
0.005
 46
1.25
 73
     0
 74
     0
 77
     1
 78
     9
140
2.0
141
2.5
147
1.0
172
     1
174
     1
179
     2
279
     2
289
     2
340
20
342
152
  0
DIMSTYLE
105
258
330
17C
100
AcDbSymbolTableRecord
100
AcDbDimStyleTableRecord
  2
Standard
 70
     0
 42
0.0
 73
     0
 74
     0
 77
     1
271
     2
272
     2
340
20
  0
DIMSTYLE
105
259
330
17C
100
AcDbSymbolTableRecord
100
AcDbDimStyleTableRecord
  2
Dim 1-50
 70
     0
 40
0.05
 41
1.5
 42
0.0
 43
5.0
 44
1.25
 45
0.005
 46
1.25
 73
     0
 74
     0
 77
     1
 78
     9
140
2.0
141
2.5
147
1.0
172
     1
174
     1
179
     2
279
     2
289
     2
340
20
342
152
  0
DIMSTYLE
105
25A
330
17C
100
AcDbSymbolTableRecord
100
AcDbDimStyleTableRecord
  2
Dim 1-200
 70
     0
 40
0.2
 41
1.5
 42
0.0
 43
5.0
 44
1.25
 45
0.005
 46
1.25
 73
     0
 74
     0
 77
     1
 78
     9
140
2.0
141
2.5
147
1.0
172
     1
174
     1
179
     2
271
     2
272
     2
279
     2
289
     2
340
20
342
152
  0
DIMSTYLE
105
25B
330
17C
100
AcDbSymbolTableRecord
100
AcDbDimStyleTableRecord
  2
AEC Scale - Italiano
 70
     0
 41
1.0
 42
10.0
 43
10.0
 44
10.0
 73
     0
 74
     0
 75
     1
 76
     1
 77
     1
140
10.0
141
1.0
147
10.0
173
     1
271
     0
272
     0
279
     2
340
1A
343
251
344
24B
  0
ENDTAB
  0
TABLE
  2
BLOCK_RECORD
  5
1
330
0
100
AcDbSymbolTable
 70
    13
  0
BLOCK_RECORD
  5
2
102
{ACAD_XDICTIONARY
360
3
102
}
330
1
100
AcDbSymbolTableRecord
100
AcDbBlockTableRecord
  2
*Model_Space
340
163
  0
BLOCK_RECORD
  5
165
330
1
100
AcDbSymbolTableRecord
100
AcDbBlockTableRecord
  2
*Paper_Space
340
168
  0
BLOCK_RECORD
  5
169
330
1
100
AcDbSymbolTableRecord
100
AcDbBlockTableRecord
  2
*Paper_Space0
340
16C
  0
BLOCK_RECORD
  5
152
330
1
100
AcDbSymbolTableRecord
100
AcDbBlockTableRecord
  2
_ArchTick
340
0
310
2800000020000000200000000100080000000000000400000000000000000000000000000000000000000000000080000080000000808000800000008000800080800000C0C0C000C0DCC000F0CAA6000020400000206000002080000020A0000020C0000020E00000400000004020000040400000406000004080000040A0
310
000040C0000040E00000600000006020000060400000606000006080000060A0000060C0000060E00000800000008020000080400000806000008080000080A0000080C0000080E00000A0000000A0200000A0400000A0600000A0800000A0A00000A0C00000A0E00000C0000000C0200000C0400000C0600000C0800000C0
310
A00000C0C00000C0E00000E0000000E0200000E0400000E0600000E0800000E0A00000E0C00000E0E00040000000400020004000400040006000400080004000A0004000C0004000E00040200000402020004020400040206000402080004020A0004020C0004020E000404000004040200040404000404060004040800040
310
40A0004040C0004040E00040600000406020004060400040606000406080004060A0004060C0004060E00040800000408020004080400040806000408080004080A0004080C0004080E00040A0000040A0200040A0400040A0600040A0800040A0A00040A0C00040A0E00040C0000040C0200040C0400040C0600040C08000
310
40C0A00040C0C00040C0E00040E0000040E0200040E0400040E0600040E0800040E0A00040E0C00040E0E00080000000800020008000400080006000800080008000A0008000C0008000E00080200000802020008020400080206000802080008020A0008020C0008020E00080400000804020008040400080406000804080
310
008040A0008040C0008040E00080600000806020008060400080606000806080008060A0008060C0008060E00080800000808020008080400080806000808080008080A0008080C0008080E00080A0000080A0200080A0400080A0600080A0800080A0A00080A0C00080A0E00080C0000080C0200080C0400080C0600080C0
310
800080C0A00080C0C00080C0E00080E0000080E0200080E0400080E0600080E0800080E0A00080E0C00080E0E000C0000000C0002000C0004000C0006000C0008000C000A000C000C000C000E000C0200000C0202000C0204000C0206000C0208000C020A000C020C000C020E000C0400000C0402000C0404000C0406000C0
310
408000C040A000C040C000C040E000C0600000C0602000C0604000C0606000C0608000C060A000C060C000C060E000C0800000C0802000C0804000C0806000C0808000C080A000C080C000C080E000C0A00000C0A02000C0A04000C0A06000C0A08000C0A0A000C0A0C000C0A0E000C0C00000C0C02000C0C04000C0C06000
310
C0C08000C0C0A000F0FBFF00A4A0A000808080000000FF0000FF000000FFFF00FF000000FF00FF00FFFF0000FFFFFF00000000FF000000000000000000000000000000000000000000000000000000000000FF00FF00000000000000000000000000000000000000000000000000000000FF000000FF000000000000000000
310
0000000000000000000000000000000000FF0000000000FF0000000000000000000000000000000000000000000000000000FF0000000000FF0000000000000000000000000000000000000000000000000000FF0000000000FF0000000000000000000000000000000000000000000000000000FF0000000000FF00000000
310
00000000000000000000000000000000000000000000FF0000000000FF0000000000000000000000000000000000000000000000000000FF0000000000FF0000000000000000000000000000000000000000000000000000FF0000000000FF0000000000000000000000000000000000000000000000000000FF0000000000
310
FF0000000000000000000000000000000000000000000000000000FF0000000000FF0000000000000000000000000000000000000000000000000000FF0000000000FF0000000000000000000000000000000000000000000000000000FF0000000000FF0000000000000000000000000000000000000000000000000000FF
310
0000000000FF0000000000000000000000000000000000000000000000000000FF0000000000FF0000000000000000000000000000000000000000000000000000FF0000000000FF0000000000000000000000000000000000000000000000000000FF0000000000FF00000000000000000000000000000000000000000000
310
00000000FF0000000000FF0000000000000000000000000000000000000000000000000000FF0000000000FF0000000000000000000000000000000000000000000000000000FF0000000000FF0000000000000000000000000000000000000000000000000000FF0000000000FF0000000000000000000000000000000000
310
000000000000000000FF0000000000FF0000000000000000000000000000000000000000000000000000FF0000000000FF0000000000000000000000000000000000000000000000000000FF0000000000FF0000000000000000000000000000000000000000000000000000FF0000000000FF000000000000000000000000
310
0000000000000000000000000000FF0000000000FF0000000000000000000000000000000000000000000000000000FF0000000000FF0000000000000000000000000000000000000000000000000000FF0000000000FF0000000000000000000000000000000000000000000000000000FF000000FF000000000000000000
310
00000000000000000000000000000000000000FF00FF000000000000000000000000000000000000000000000000000000000000FF000000
102
{BLKREFS
331
211
331
318
331
354
331
429
331
50A
331
5EC
331
6DD
331
847
102
}
  0
BLOCK_RECORD
  5
24B
330
1
100
AcDbSymbolTableRecord
100
AcDbBlockTableRecord
  2
_Arrivo
340
0
310
2800000020000000200000000100080000000000000400000000000000000000000000000000000000000000000080000080000000808000800000008000800080800000C0C0C000C0DCC000F0CAA6000020400000206000002080000020A0000020C0000020E00000400000004020000040400000406000004080000040A0
310
000040C0000040E00000600000006020000060400000606000006080000060A0000060C0000060E00000800000008020000080400000806000008080000080A0000080C0000080E00000A0000000A0200000A0400000A0600000A0800000A0A00000A0C00000A0E00000C0000000C0200000C0400000C0600000C0800000C0
310
A00000C0C00000C0E00000E0000000E0200000E0400000E0600000E0800000E0A00000E0C00000E0E00040000000400020004000400040006000400080004000A0004000C0004000E00040200000402020004020400040206000402080004020A0004020C0004020E000404000004040200040404000404060004040800040
310
40A0004040C0004040E00040600000406020004060400040606000406080004060A0004060C0004060E00040800000408020004080400040806000408080004080A0004080C0004080E00040A0000040A0200040A0400040A0600040A0800040A0A00040A0C00040A0E00040C0000040C0200040C0400040C0600040C08000
310
40C0A00040C0C00040C0E00040E0000040E0200040E0400040E0600040E0800040E0A00040E0C00040E0E00080000000800020008000400080006000800080008000A0008000C0008000E00080200000802020008020400080206000802080008020A0008020C0008020E00080400000804020008040400080406000804080
310
008040A0008040C0008040E00080600000806020008060400080606000806080008060A0008060C0008060E00080800000808020008080400080806000808080008080A0008080C0008080E00080A0000080A0200080A0400080A0600080A0800080A0A00080A0C00080A0E00080C0000080C0200080C0400080C0600080C0
310
800080C0A00080C0C00080C0E00080E0000080E0200080E0400080E0600080E0800080E0A00080E0C00080E0E000C0000000C0002000C0004000C0006000C0008000C000A000C000C000C000E000C0200000C0202000C0204000C0206000C0208000C020A000C020C000C020E000C0400000C0402000C0404000C0406000C0
310
408000C040A000C040C000C040E000C0600000C0602000C0604000C0606000C0608000C060A000C060C000C060E000C0800000C0802000C0804000C0806000C0808000C080A000C080C000C080E000C0A00000C0A02000C0A04000C0A06000C0A08000C0A0A000C0A0C000C0A0E000C0C00000C0C02000C0C04000C0C06000
310
C0C08000C0C0A000F0FBFF00A4A0A000808080000000FF0000FF000000FFFF00FF000000FF00FF00FFFF0000FFFFFF00000000000000000000000000000000000000000000000000000000000000000000000000000000000000FF0000000000000000000000000000000000000000000000000000000000000000FF000000
310
00000000000000000000000000000000000000000000000000000000FF0000000000000000000000000000000000000000000000000000000000000000FF00000000000000000000000000000000000000000000000000000000000000FF0000000000000000000000000000000000000000000000000000000000000000FF
310
0000000000000000000000000000000000000000000000000000000000000000FF00000000000000000000000000000000000000000000000000000000000000FF0000000000000000000000000000000000000000000000000000000000000000FF0000000000000000000000000000000000000000000000000000000000
310
0000FF0000000000000000000000000000000000000000000000000000000000000000FF00000000000000000000000000000000000000000000000000000000000000FF0000000000000000000000000000000000000000000000000000000000000000FF0000FF0000000000000000000000000000000000000000000000
310
000000000000FFFF000000000000000000000000000000000000000000000000000000000000FFFF00000000000000000000000000000000000000000000000000000000FFFFFFFFFFFF00000000000000000000000000000000000000000000000000000000FFFF0000000000000000000000000000000000000000000000
310
000000000000FF0000FF000000000000000000000000000000000000000000000000000000FF00000000000000000000000000000000000000000000000000000000000000FF000000000000000000000000000000000000000000000000000000000000FF0000000000000000000000000000000000000000000000000000
310
0000000000FF000000000000000000000000000000000000000000000000000000000000FF00000000000000000000000000000000000000000000000000000000000000FF000000000000000000000000000000000000000000000000000000000000FF000000000000000000000000000000000000000000000000000000
310
000000FF00000000000000000000000000000000000000000000000000000000000000FF000000000000000000000000000000000000000000000000000000000000FF00000000000000000000000000000000000000000000000000000000000000FF00000000000000000000000000000000000000000000000000000000
310
0000FF0000000000000000000000000000000000000000000000000000000000000000000000000000000000000000000000000000000000
  0
BLOCK_RECORD
  5
251
330
1
100
AcDbSymbolTableRecord
100
AcDbBlockTableRecord
  2
_Partenza
340
0
310
2800000020000000200000000100080000000000000400000000000000000000000000000000000000000000000080000080000000808000800000008000800080800000C0C0C000C0DCC000F0CAA6000020400000206000002080000020A0000020C0000020E00000400000004020000040400000406000004080000040A0
310
000040C0000040E00000600000006020000060400000606000006080000060A0000060C0000060E00000800000008020000080400000806000008080000080A0000080C0000080E00000A0000000A0200000A0400000A0600000A0800000A0A00000A0C00000A0E00000C0000000C0200000C0400000C0600000C0800000C0
310
A00000C0C00000C0E00000E0000000E0200000E0400000E0600000E0800000E0A00000E0C00000E0E00040000000400020004000400040006000400080004000A0004000C0004000E00040200000402020004020400040206000402080004020A0004020C0004020E000404000004040200040404000404060004040800040
310
40A0004040C0004040E00040600000406020004060400040606000406080004060A0004060C0004060E00040800000408020004080400040806000408080004080A0004080C0004080E00040A0000040A0200040A0400040A0600040A0800040A0A00040A0C00040A0E00040C0000040C0200040C0400040C0600040C08000
310
40C0A00040C0C00040C0E00040E0000040E0200040E0400040E0600040E0800040E0A00040E0C00040E0E00080000000800020008000400080006000800080008000A0008000C0008000E00080200000802020008020400080206000802080008020A0008020C0008020E00080400000804020008040400080406000804080
310
008040A0008040C0008040E00080600000806020008060400080606000806080008060A0008060C0008060E00080800000808020008080400080806000808080008080A0008080C0008080E00080A0000080A0200080A0400080A0600080A0800080A0A00080A0C00080A0E00080C0000080C0200080C0400080C0600080C0
310
800080C0A00080C0C00080C0E00080E0000080E0200080E0400080E0600080E0800080E0A00080E0C00080E0E000C0000000C0002000C0004000C0006000C0008000C000A000C000C000C000E000C0200000C0202000C0204000C0206000C0208000C020A000C020C000C020E000C0400000C0402000C0404000C0406000C0
310
408000C040A000C040C000C040E000C0600000C0602000C0604000C0606000C0608000C060A000C060C000C060E000C0800000C0802000C0804000C0806000C0808000C080A000C080C000C080E000C0A00000C0A02000C0A04000C0A06000C0A08000C0A0A000C0A0C000C0A0E000C0C00000C0C02000C0C04000C0C06000
310
C0C08000C0C0A000F0FBFF00A4A0A000808080000000FF0000FF000000FFFF00FF000000FF00FF00FFFF0000FFFFFF0000000000000000000000000000000000000000000000000000000000000000000000000000000000000000000000000000000000000000000000000000000000000000000000000000000000000000
310
000000000000000000000000000000000000000000000000000000000000000000000000000000000000000000000000000000000000000000000000000000000000000000000000000000000000000000000000000000000000000000000000000000000000000000000000000000000000FFFFFFFFFFFFFFFFFFFFFFFFFF
310
FFFFFFFFFFFFFFFFFFFFFFFFFFFFFFFFFF0000000000000000000000000000000000000000000000000000000000000000000000000000000000000000000000000000000000000000000000000000000000000000000000000000000000000000000000000000000000000000000000000000000000000000000000000000
310
00000000000000000000000000000000000000000000000000000000000000000000000000000000000000000000000000000000000000000000000000000000000000000000000000000000000000000000000000000000000000000000000000000000000000000000000000000000000000000000000000000000000000
310
00000000000000000000000000000000000000000000000000000000000000000000000000000000000000000000000000000000000000000000000000000000000000000000000000000000000000000000000000000000000000000000000000000000000000000000000000000000000000000000000000000000000000
310
00000000000000000000000000000000000000000000000000000000000000000000000000000000000000000000000000000000000000000000000000000000000000000000000000000000000000000000000000000000000000000000000000000000000000000000000000000000000000000000000000000000000000
310
000000000000000000000000000000000000000000000000000000000000000000000000000000000000000000000000000000000000000000000000000000000000000000000000000000000000000000000000000000FFFFFFFFFFFFFFFFFFFFFFFFFFFFFFFFFFFFFFFFFFFFFFFFFFFFFFFFFFFF00000000000000000000
310
00000000000000000000000000000000000000000000000000000000000000000000000000000000000000000000000000000000000000000000000000000000000000000000000000000000000000000000000000000000000000000000000000000000000000000000000000000000000000000000000000000000000000
310
0000000000000000000000000000000000000000000000000000000000000000000000000000000000000000000000000000000000000000
  0
BLOCK_RECORD
  5
6C3
330
1
100
AcDbSymbolTableRecord
100
AcDbBlockTableRecord
  2
*D10
340
0
  0
BLOCK_RECORD
  5
82D
330
1
100
AcDbSymbolTableRecord
100
AcDbBlockTableRecord
  2
*D12
340
0
  0
ENDTAB
  0
ENDSEC
  0
SECTION
  2
BLOCKS
  0
BLOCK
  5
5
330
2
100
AcDbEntity
  8
0
100
AcDbBlockBegin
  2
*Model_Space
 70
     0
 10
0.0
 20
0.0
 30
0.0
  3
*Model_Space
  1

  0
ENDBLK
  5
162
330
2
100
AcDbEntity
  8
0
100
AcDbBlockEnd
  0
BLOCK
  5
166
330
165
100
AcDbEntity
 67
     1
  8
0
100
AcDbBlockBegin
  2
*Paper_Space
 70
     0
 10
0.0
 20
0.0
 30
0.0
  3
*Paper_Space
  1

  0
ENDBLK
  5
167
330
165
100
AcDbEntity
 67
     1
  8
0
100
AcDbBlockEnd
  0
BLOCK
  5
16A
330
169
100
AcDbEntity
 67
     1
  8
0
100
AcDbBlockBegin
  2
*Paper_Space0
 70
     0
 10
0.0
 20
0.0
 30
0.0
  3
*Paper_Space0
  1

  0
ENDBLK
  5
16B
330
169
100
AcDbEntity
 67
     1
  8
0
100
AcDbBlockEnd
  0
BLOCK
  5
153
330
152
100
AcDbEntity
  8
0
 62
     1
100
AcDbBlockBegin
  2
_ArchTick
 70
     0
 10
0.0
 20
0.0
 30
0.0
  3
_ArchTick
  1

  0
LWPOLYLINE
  5
154
330
152
100
AcDbEntity
  8
0
  6
ByBlock
 62
     0
100
AcDbPolyline
 90
        2
 70
     0
 43
0.15
 10
-0.5
 20
-0.5
 10
0.5
 20
0.5
  0
ENDBLK
  5
155
330
152
100
AcDbEntity
  8
0
 62
     1
100
AcDbBlockEnd
  0
BLOCK
  5
24C
330
24B
100
AcDbEntity
  8
0
100
AcDbBlockBegin
  2
_Arrivo
 70
     0
 10
0.0
 20
0.0
 30
0.0
  3
_Arrivo
  1

  0
LINE
  5
24D
330
24B
100
AcDbEntity
  8
0
  6
ByBlock
 62
     0
370
    -2
100
AcDbLine
 10
0.025
 20
-0.0433012701891858
 30
0.0
 11
-0.15
 21
0.2598076211353328
 31
0.0
  0
LINE
  5
24E
330
24B
100
AcDbEntity
  8
0
  6
ByBlock
 62
     0
370
    -2
100
AcDbLine
 10
0.025
 20
0.0433012701892585
 30
0.0
 11
-0.15
 21
-0.2598076211353328
 31
0.0
  0
LINE
  5
24F
330
24B
100
AcDbEntity
  8
0
  6
ByBlock
 62
     0
370
    -2
100
AcDbLine
 10
-0.05
 20
0.0
 30
0.0
 11
0.05
 21
0.0
 31
0.0
  0
ENDBLK
  5
250
330
24B
100
AcDbEntity
  8
0
100
AcDbBlockEnd
  0
BLOCK
  5
252
330
251
100
AcDbEntity
  8
0
100
AcDbBlockBegin
  2
_Partenza
 70
     0
 10
0.0
 20
0.0
 30
0.0
  3
_Partenza
  1

  0
LINE
  5
253
330
251
100
AcDbEntity
  8
0
  6
ByBlock
 62
     0
370
    -2
100
AcDbLine
 10
-0.05
 20
0.05
 30
0.0
 11
0.1
 21
0.05
 31
0.0
  0
LINE
  5
254
330
251
100
AcDbEntity
  8
0
  6
ByBlock
 62
     0
370
    -2
100
AcDbLine
 10
-0.05
 20
-0.05
 30
0.0
 11
0.1
 21
-0.05
 31
0.0
  0
ENDBLK
  5
255
330
251
100
AcDbEntity
  8
0
100
AcDbBlockEnd
  0
BLOCK
  5
6CA
330
6C3
100
AcDbEntity
  8
0
100
AcDbBlockBegin
  2
*D10
 70
     1
 10
0.0
 20
0.0
 30
0.0
  3
*D10
  1

  0
LINE
  5
6DA
330
6C3
100
AcDbEntity
  8
Sezione
  6
ACAD_ISO10W100
 62
     5
370
    -2
100
AcDbLine
 10
0.2580272919594555
 20
0.2091457005418985
 30
0.0
 11
0.2565272919594555
 21
0.2091457005418986
 31
0.0
  0
LINE
  5
6DB
330
6C3
100
AcDbEntity
  8
Sezione
  6
ACAD_ISO10W100
 62
     5
370
    -2
100
AcDbLine
 10
0.2565272919594555
 20
0.2091457005418986
 30
0.0
 11
0.2544161538279562
 21
0.2070142466273769
 31
0.0
  0
MTEXT
  5
6DC
330
6C3
100
AcDbEntity
  8
Sezione
  6
ACAD_ISO10W100
 62
     4
100
AcDbMText
 10
0.2724558633880269
 20
0.2091457005418985
 30
0.0
 40
0.003
 41
0.0
 71
     5
 72
     1
  1
\A1;d 250 mm
  7
ROMANS
 73
     1
 44
1.0
1001
ACAD
1000
MTEXTBEGIN
1070
    73
1070
     1
1070
    44
1040
1.0
1070
    74
1070
     0
1000
MTEXTEND
  0
INSERT
  5
6DD
330
6C3
100
AcDbEntity
  8
Sezione
  6
ACAD_ISO10W100
 62
     5
370
    -2
100
AcDbBlockReference
  2
_ArchTick
 10
0.2544161538279562
 20
0.2070142466273769
 30
0.0
 41
0.0015
 42
0.0015
 43
0.0015
 50
225.2743605124572
  0
POINT
  5
6DE
330
6C3
100
AcDbEntity
  8
Defpoints
  6
ACAD_ISO10W100
 62
     0
100
AcDbPoint
 10
0.2544161538279562
 20
0.2070142466273769
 30
0.0
  0
POINT
  5
6DF
330
6C3
100
AcDbEntity
  8
Defpoints
  6
ACAD_ISO10W100
 62
     0
100
AcDbPoint
 10
0.1664520650154866
 20
0.1182036668556404
 30
0.0
  0
ENDBLK
  5
6CB
330
6C3
100
AcDbEntity
  8
0
100
AcDbBlockEnd
  0
BLOCK
  5
834
330
82D
100
AcDbEntity
  8
0
100
AcDbBlockBegin
  2
*D12
 70
     1
 10
0.0
 20
0.0
 30
0.0
  3
*D12
  1

  0
LINE
  5
844
330
82D
100
AcDbEntity
  8
Sezione
  6
ACAD_ISO10W100
 62
     5
370
    -2
100
AcDbLine
 10
0.2668759768663114
 20
0.2106523346372896
 30
0.0
 11
0.2653759768663114
 21
0.2106523346372896
 31
0.0
  0
LINE
  5
845
330
82D
100
AcDbEntity
  8
Sezione
  6
ACAD_ISO10W100
 62
     5
370
    -2
100
AcDbLine
 10
0.2653759768663114
 20
0.2106523346372896
 30
0.0
 11
0.2631789214633089
 21
0.2086095552668882
 31
0.0
  0
MTEXT
  5
846
330
82D
100
AcDbEntity
  8
Sezione
  6
ACAD_ISO10W100
 62
     4
100
AcDbMText
 10
0.2813045482948828
 20
0.2106523346372896
 30
0.0
 40
0.003
 41
0.0
 71
     5
 72
     1
  1
\A1;d 290 mm
  7
ROMANS
 73
     1
 44
1.0
1001
ACAD
1000
MTEXTBEGIN
1070
    73
1070
     1
1070
    44
1040
1.0
1070
    74
1070
     0
1000
MTEXTEND
  0
INSERT
  5
847
330
82D
100
AcDbEntity
  8
Sezione
  6
ACAD_ISO10W100
 62
     5
370
    -2
100
AcDbBlockReference
  2
_ArchTick
 10
0.2631789214633089
 20
0.2086095552668882
 30
0.0
 41
0.0015
 42
0.0015
 43
0.0015
 50
222.916082132817
  0
POINT
  5
848
330
82D
100
AcDbEntity
  8
Defpoints
  6
ACAD_ISO10W100
 62
     0
100
AcDbPoint
 10
0.2631789214633089
 20
0.2086095552668882
 30
0.0
  0
POINT
  5
849
330
82D
100
AcDbEntity
  8
Defpoints
  6
ACAD_ISO10W100
 62
     0
100
AcDbPoint
 10
0.1569879103181878
 20
0.1098752190308209
 30
0.0
  0
ENDBLK
  5
835
330
82D
100
AcDbEntity
  8
0
100
AcDbBlockEnd
  0
ENDSEC
  0
SECTION
  2
ENTITIES
  0
LINE
  5
D
330
2
100
AcDbEntity
  8
Table
100
AcDbLine
 10
0.02
 20
0.02
 30
0.0
 11
0.4
 21
0.02
 31
0.0
  0
LINE
  5
10
330
2
100
AcDbEntity
  8
Table
100
AcDbLine
 10
0.4
 20
0.02
 30
0.0
 11
0.4
 21
0.2769999999999999
 31
0.0
  0
LINE
  5
11
330
2
100
AcDbEntity
  8
Table
100
AcDbLine
 10
0.4
 20
0.2769999999999999
 30
0.0
 11
0.02
 21
0.277
 31
0.0
  0
LINE
  5
12
330
2
100
AcDbEntity
  8
Table
100
AcDbLine
 10
0.02
 20
0.277
 30
0.0
 11
0.02
 21
0.02
 31
0.0
  0
LINE
  5
13
330
2
100
AcDbEntity
  8
Table
 62
     2
100
AcDbLine
 10
0.015
 20
0.015
 30
0.0
 11
0.4050000000000001
 21
0.015
 31
0.0
  0
LINE
  5
14
330
2
100
AcDbEntity
  8
Table
 62
     2
100
AcDbLine
 10
0.4050000000000001
 20
0.015
 30
0.0
 11
0.4050000000000001
 21
0.2819999999999998
 31
0.0
  0
LINE
  5
15
330
2
100
AcDbEntity
  8
Table
 62
     2
100
AcDbLine
 10
0.4050000000000001
 20
0.2819999999999998
 30
0.0
 11
0.0149999999999999
 21
0.282
 31
0.0
  0
LINE
  5
16
330
2
100
AcDbEntity
  8
Table
 62
     2
100
AcDbLine
 10
0.0149999999999999
 20
0.282
 30
0.0
 11
0.015
 21
0.015
 31
0.0
  0
LINE
  5
17
330
2
100
AcDbEntity
  8
Table
100
AcDbLine
 10
0.21
 20
0.2769999999999999
 30
0.0
 11
0.21
 21
0.2532994226089223
 31
0.0
  0
MTEXT
  5
18
102
{ACAD_XDICTIONARY
360
84E
102
}
330
2
100
AcDbEntity
  8
Text
100
AcDbMText
 10
0.305
 20
0.0471738284815141
 30
0.0
 40
0.005
 41
0.1900000000000001
 71
     2
 72
     5
  3
{\fTimes New Roman|b0|i0|c238|p18;\H1.6x;\C4;Bovelacci\P\H0.4375x;\T0.95;via del Commercio, 5  47100 Forli - Italy  \fTimes New Roman|b0|i0|c0|p18;\P\fTimes New Roman|b0|i0|c238|p18;tel.+39-0543721386  fax +39-0543721127\fTimes New Roman|b0|i0|c0|p18
  1
; \fTimes New Roman|b0|i0|c238|p18;www.bovelacci.it\fTimes New Roman|b0|i0|c0|p18; \fTimes New Roman|b0|i0|c238|p18;e-mail: bovelacci@bovelacci\fTimes New Roman|b0|i0|c0|p18;.it}
 73
     1
 44
1.0
1001
ACAD
1000
ACAD_MTEXT_DEFINED_HEIGHT_BEGIN
1070
    46
1040
0.0271738284815141
1000
ACAD_MTEXT_DEFINED_HEIGHT_END
1000
MTEXTBEGIN
1070
    73
1070
     1
1070
    44
1040
1.0
1070
    74
1070
     0
1000
MTEXTEND
  0
MTEXT
  5
1C
330
2
100
AcDbEntity
  8
Text
100
AcDbMText
 10
0.0219676065851835
 20
0.0500313976452307
 30
0.0
 40
0.002
 41
0.1863544980601608
 71
     1
 72
     5
  3
{\fArial|b0|i0|c0|p34;\H1.25x;Le caratteristiche tecniche indicate vengono fornite a titolo indicativo e potranno essere modificate senza preavviso. Non devono quindi essere considerate a scopo di specifica.\P\fArial|b0|i1|c0|p34;The given values are
  3
 indicative and can be changed without notice. They cannot be considered like a state.\PThis lealfet and designs embodied within are protected by copyright law and international treaties. Unauthorized repro- duction of the leaflet or any portion of i
  1
t or reproduction of any of the designs embodied therein may result in severe civil penalties and will be prosecuted to the maximum.\PAll right reserved, Bovelacci Forlì Italy.}
 73
     1
 44
1.0
1001
ACAD
1000
MTEXTBEGIN
1070
    73
1070
     1
1070
    44
1040
1.0
1070
    74
1070
     0
1000
MTEXTEND
  0
LINE
  5
1D
330
2
100
AcDbEntity
  8
Table
100
AcDbLine
 10
0.02
 20
0.0528099428524846
 30
0.0
 11
0.4
 21
0.0528099428524846
 31
0.0
  0
MTEXT
  5
1E
330
2
100
AcDbEntity
  8
Text
100
AcDbMText
 10
0.1133313047219695
 20
0.2610796890771976
 30
0.0
 40
0.003
 41
0.1103605678262056
 71
     2
 72
     5
  1
{\fTimes New Roman|b0|i0|c0|p18;Rosoni\fTimes New Roman|b0|i1|c0|p18;   Ceiling centres}
 73
     1
 44
1.0
1001
ACAD
1000
ACAD_MTEXT_DEFINED_HEIGHT_BEGIN
1070
    46
1040
0.0141952763113409
1000
ACAD_MTEXT_DEFINED_HEIGHT_END
1000
MTEXTBEGIN
1070
    73
1070
     1
1070
    44
1040
1.0
1070
    74
1070
     0
1000
MTEXTEND
  0
TEXT
  5
1F
330
2
100
AcDbEntity
  8
Text
100
AcDbText
 10
0.2180556919891047
 20
0.269976982173197
 30
0.0
 40
0.003
  1
Rosone - Ceiling centre : D 290 mm
  7
ROMANS
100
AcDbText
  0
TEXT
  5
21
330
2
100
AcDbEntity
  8
Text
100
AcDbText
 10
0.2184542410678115
 20
0.2576348370183962
 30
0.0
 40
0.003
  1
File : E - R29
  7
ROMANS
100
AcDbText
  0
LINE
  5
22
330
2
100
AcDbEntity
  8
Table
100
AcDbLine
 10
0.4
 20
0.2654452889427402
 30
0.0
 11
0.02
 21
0.2654452889427403
 31
0.0
  0
LINE
  5
23
330
2
100
AcDbEntity
  8
Table
100
AcDbLine
 10
0.4
 20
0.2532994226089223
 30
0.0
 11
0.02
 21
0.2532994226089225
 31
0.0
  0
LINE
  5
24
330
2
100
AcDbEntity
  8
Table
100
AcDbLine
 10
0.21
 20
0.0528099428524846
 30
0.0
 11
0.21
 21
0.02
 31
0.0
  0
TEXT
  5
25
330
2
100
AcDbEntity
  8
Text
100
AcDbText
 10
0.0947789320547719
 20
0.2687784133392506
 30
0.0
 40
0.005
  1
EUROSTYL
  7
style1
 72
     1
 11
0.1140561490699125
 21
0.2687784133392506
 31
0.0
100
AcDbText
  0
TEXT
  5
23F
330
2
100
AcDbEntity
  8
Text
  6
ACAD_ISO10W100
100
AcDbText
 10
0.2727191750033584
 20
0.0899414580955704
 30
0.0
 40
0.005
  1
scala 1 : 2
  7
style1
100
AcDbText
  0
CIRCLE
  5
78F
330
2
100
AcDbEntity
  8
Profilo
  6
Continuous
370
     0
100
AcDbCircle
 10
0.1854841656548343
 20
0.188472923326508
 30
0.0
 40
0.0012930064119471
  0
CIRCLE
  5
790
330
2
100
AcDbEntity
  8
Profilo
  6
Continuous
370
     0
100
AcDbCircle
 10
0.1863219239246197
 20
0.1911710635331726
 30
0.0
 40
0.0012134964856566
  0
CIRCLE
  5
791
330
2
100
AcDbEntity
  8
Profilo
  6
Continuous
370
     0
100
AcDbCircle
 10
0.1880905217009479
 20
0.1934970437464351
 30
0.0
 40
0.0012134946426532
  0
CIRCLE
  5
792
330
2
100
AcDbEntity
  8
Profilo
  6
Continuous
370
     0
100
AcDbCircle
 10
0.1905107044179599
 20
0.1958230273936991
 30
0.0
 40
0.0013326491660038
  0
CIRCLE
  5
793
330
2
100
AcDbEntity
  8
Profilo
  6
Continuous
370
     0
100
AcDbCircle
 10
0.1939548187338589
 20
0.197218619642458
 30
0.0
 40
0.0013834913201447
  0
CIRCLE
  5
794
330
2
100
AcDbEntity
  8
Profilo
  6
Continuous
370
     0
100
AcDbCircle
 10
0.1969335051547973
 20
0.197962932761261
 30
0.0
 40
0.0013420312999048
  0
CIRCLE
  5
795
330
2
100
AcDbEntity
  8
Profilo
  6
Continuous
370
     0
100
AcDbCircle
 10
0.2000983649048373
 20
0.197962932761261
 30
0.0
 40
0.0015003919248662
  0
CIRCLE
  5
796
330
2
100
AcDbEntity
  8
Profilo
  6
Continuous
370
     0
100
AcDbCircle
 10
0.2034493925561838
 20
0.1980559736181128
 30
0.0
 40
0.0013420312999048
  0
LWPOLYLINE
  5
797
330
2
100
AcDbEntity
  8
Profilo
  6
Continuous
370
     0
100
AcDbPolyline
 90
       17
 70
   128
 43
0.0
 10
0.1831570641745797
 20
0.1845652691507848
 10
0.1796198686219232
 20
0.1867982153751985
 10
0.1784097745495197
 20
0.1896824338615651
 10
0.1787821103521379
 20
0.1944274385789416
 10
0.1811092118323907
 20
0.1985211676003637
 10
0.1836224812139535
 20
0.2009401921044795
 10
0.1866011730626853
 20
0.2031731348948917
 10
0.1898591194772778
 20
0.2050339211259015
 10
0.1937686508325507
 20
0.2064295099406589
 10
0.1966542560167299
 20
0.2065225507975107
 10
0.1999121970035274
 20
0.2063364725178086
 10
0.2029839700890166
 20
0.2055921559650041
 10
0.2057764940364402
 20
0.2040104888705464
 10
0.2077312597140766
 20
0.2018705835029827
 10
0.2081966821812438
 20
0.1999167598491226
 10
0.208382850082552
 20
0.1980559736181128
 10
0.2078243463786273
 20
0.1963812656668033
  0
LWPOLYLINE
  5
798
330
2
100
AcDbEntity
  8
Profilo
  6
Continuous
370
     0
100
AcDbPolyline
 90
       27
 70
   128
 43
0.0
 10
0.1842740715824307
 20
0.1814949723847178
 10
0.1812953797337007
 20
0.1813088941050175
 10
0.1790613649179968
 20
0.1817740915212699
 10
0.1766411767731915
 20
0.1836348777522797
 10
0.1754310827007897
 20
0.186891252798047
 10
0.1754310827007897
 20
0.1916362575154252
 10
0.1763619276351258
 20
0.1951717516977446
 10
0.1783166933127622
 20
0.1988933275937675
 10
0.1811092118323907
 20
0.2018705835029827
 10
0.1819469701021779
 20
0.2028940157583396
 10
0.184180990345675
 20
0.2041035297273982
 10
0.1865080918259279
 20
0.2053130402624536
 10
0.1891144424442481
 20
0.2066155882203592
 10
0.1909761268851271
 20
0.207452942196014
 10
0.1927447246614571
 20
0.2081042178919684
 10
0.1946994903390935
 20
0.2084763778853723
 10
0.1973058409574138
 20
0.2083833370285205
 10
0.2000052836680799
 20
0.2082902961716687
 10
0.2032632246548756
 20
0.2076390239097176
 10
0.2054972394705794
 20
0.2069877482137631
 10
0.2078243463786273
 20
0.2056851968218559
 10
0.2103376157601902
 20
0.2032661757517417
 10
0.2111753686021822
 20
0.2014053860867303
 10
0.2114546231680412
 20
0.1990794058734678
 10
0.210989200700874
 20
0.1963812656668033
 10
0.2099652799575737
 20
0.1942413602992396
 10
0.2089413537864784
 20
0.1930318497641842
  0
LWPOLYLINE
  5
799
330
2
100
AcDbEntity
  8
Profilo
  6
Continuous
370
     0
100
AcDbPolyline
 90
       71
 70
   128
 43
0.0
 10
0.2039148150233527
 20
0.1941483194423895
 10
0.2025185530496427
 20
0.1929388089073324
 10
0.2025185530496427
 20
0.1911710635331726
 10
0.2032632246548756
 20
0.1899615495641139
 10
0.2054972394705794
 20
0.189403314725013
 10
0.2077312597140766
 20
0.1902406687006678
 10
0.208569017983862
 20
0.1918223357951255
 10
0.208569017983862
 20
0.1938692037398389
 10
0.2075450918127684
 20
0.1955439116911485
 10
0.2059626619377466
 20
0.1963812656668033
 10
0.2043802320627284
 20
0.1965673439465036
 10
0.2028908888522591
 20
0.1962882248099515
 10
0.2012153723126866
 20
0.1952647925545964
 10
0.2004707007074538
 20
0.1935900846032869
 10
0.2002845328061455
 20
0.1916362575154252
 10
0.2007499552733127
 20
0.1898685121412654
 10
0.2018669626811655
 20
0.1885659607493583
 10
0.2041940641614184
 20
0.1872634093574493
 10
0.2061488298390566
 20
0.1871703719346008
 10
0.2088482671219276
 20
0.1871703719346008
 10
0.2116407910693494
 20
0.1881938041899559
 10
0.2141540604509122
 20
0.190147627843816
 10
0.2161088261285504
 20
0.1929388089073324
 10
0.2181668664397962
 20
0.195938622777302
 10
0.2196562096502654
 20
0.1982646064245642
 10
0.2208663037226672
 20
0.2015209849043348
 10
0.2210524716239772
 20
0.2048704008069539
 10
0.2213317207620429
 20
0.2071963810202163
 10
0.2213317207620429
 20
0.2109179569162393
 10
0.2208663037226672
 20
0.2139882536823062
 10
0.2204008812555001
 20
0.2160351181930163
 10
0.2189115380450308
 20
0.2177098261443259
 10
0.2182599476765554
 20
0.2178028635671761
 10
0.2166775178015337
 20
0.2168724721686711
 10
0.2166775178015337
 20
0.2178028635671761
 10
0.2154674237291319
 20
0.2195706123753375
 10
0.2141642484199708
 20
0.2201288472144401
 10
0.2127679864462608
 20
0.2202218880712919
 10
0.2117440602751655
 20
0.2182680609834286
 10
0.2117440602751655
 20
0.2176167852874759
 10
0.2115578923738572
 20
0.2194775715184857
 10
0.2101616358279406
 20
0.2204079663509922
 10
0.208672287189678
 20
0.2204079663509922
 10
0.2083930380516124
 20
0.2193845340956354
 10
0.2077414476831352
 20
0.2195706123753375
 10
0.2065313536107316
 20
0.2206870854875443
 10
0.2053212595383298
 20
0.2206870854875443
 10
0.2038319163278606
 20
0.2206870854875443
 10
0.2032734126239342
 20
0.2191984558159351
 10
0.2034595805252441
 20
0.217988945280878
 10
0.204390420031787
 20
0.2163142373295684
 10
0.2032734126239342
 20
0.216593353032119
 10
0.2019702318869816
 20
0.2166863938889708
 10
0.2016909827489159
 20
0.2157559990564643
 10
0.2016909827489159
 20
0.2141743319620065
 10
0.2025287410187013
 20
0.2125926614335455
 10
0.2035526617620016
 20
0.2115692291781904
 10
0.204390420031787
 20
0.2110109943390878
 10
0.2045765879330952
 20
0.2100806029405845
 10
0.2042973387950295
 20
0.2096154055243304
 10
0.203087244722626
 20
0.2099875620837327
 10
0.2024356543541506
 20
0.2110109943390878
 10
0.2016909827489159
 20
0.2122205048741449
 10
0.2008532244791306
 20
0.2120344265944428
 10
0.2002947207752042
 20
0.212499624010697
 10
0.1992707946041106
 20
0.2136160971229039
 10
0.1987122909001842
 20
0.2134300154092003
 10
0.1982468738608085
 20
0.2126857022903973
 10
0.1977814513936413
 20
0.212499624010697
 10
0.1964782760844821
 20
0.2109179569162393
 10
0.1964782760844821
 20
0.2092432489649298
  0
LWPOLYLINE
  5
79A
330
2
100
AcDbEntity
  8
Profilo
  6
Continuous
370
     0
100
AcDbPolyline
 90
       95
 70
   128
 43
0.0
 10
0.193778833373816
 20
0.2085919732689753
 10
0.1948958462094621
 20
0.2111040351959396
 10
0.1961059348540706
 20
0.212499624010697
 10
0.1973160289264724
 20
0.2145464885214089
 10
0.1975952834923331
 20
0.217895904424028
 10
0.1973160289264724
 20
0.2191054149590833
 10
0.1961990215186213
 20
0.2190123775362348
 10
0.1946165916436013
 20
0.2188262992565345
 10
0.193592665472506
 20
0.2180819827037282
 10
0.193592665472506
 20
0.2169655130255229
 10
0.193592665472506
 20
0.2165003156092705
 10
0.1918240676961795
 20
0.216593353032119
 10
0.1909863148541875
 20
0.2159420773361663
 10
0.1909863148541875
 20
0.2142673693848568
 10
0.1909863148541875
 20
0.2127787431472491
 10
0.1906139790515693
 20
0.2110109943390878
 10
0.1890315491765511
 20
0.2090571672512262
 10
0.1867975289330539
 20
0.2076615784364687
 10
0.1846565953541075
 20
0.2065451087582634
 10
0.1825156617751629
 20
0.2064520679014134
 10
0.1809332319001411
 20
0.2076615784364687
 10
0.1793508020251229
 20
0.2085919732689753
 10
0.1780476267159619
 20
0.2083128541324232
 10
0.1779545400514111
 20
0.2073824592999166
 10
0.1779545400514111
 20
0.2069172653176658
 10
0.1773960363474847
 20
0.2076615784364687
 10
0.1773960363474847
 20
0.2084989324121235
 10
0.1769306193081108
 20
0.2089641298283759
 10
0.1750689348672318
 20
0.2089641298283759
 10
0.1749758536304744
 20
0.2079406975730208
 10
0.1748827669659236
 20
0.2071963810202163
 10
0.1738588407948283
 20
0.2080337349958711
 10
0.1723694975843608
 20
0.207847656716169
 10
0.1715317393145737
 20
0.206824224460814
 10
0.1711594035119572
 20
0.2052425573663562
 10
0.1724625788211165
 20
0.2044052033907015
 10
0.1737657595580708
 20
0.2030096111419407
 10
0.1754412706698483
 20
0.2025444171596899
 10
0.1769306193081108
 20
0.2024513763028398
 10
0.1761859422750829
 20
0.2011488249109309
 10
0.1746035178278562
 20
0.2017070631840351
 10
0.1736726728935201
 20
0.2004045117921279
 10
0.174138095360689
 20
0.1993810795367729
 10
0.1744173444987547
 20
0.1990089229773705
 10
0.1740450086961365
 20
0.1981715690017157
 10
0.1744173444987547
 20
0.1955664662178996
 10
0.1744173444987547
 20
0.1943569556828443
 10
0.1740450086961365
 20
0.1940778365462904
 10
0.1733003370909019
 20
0.1941708774031422
 10
0.1729280012882854
 20
0.1949151905219452
 10
0.1730210879528362
 20
0.195938622777302
 10
0.1730210879528362
 20
0.197334215026061
 10
0.1730210879528362
 20
0.1987298038408184
 10
0.1719971617817426
 20
0.1999393143758738
 10
0.1705078131434801
 20
0.2003114709352761
 10
0.1691115565975634
 20
0.1999393143758738
 10
0.1688323020317026
 20
0.1987298038408184
 10
0.1684599662290862
 20
0.199660198673325
 10
0.1679945437619172
 20
0.2008697092083803
 10
0.1668775363540662
 20
0.2016140223271833
 10
0.1652020252422888
 20
0.2015209849043348
 10
0.1642711803079508
 20
0.2004975526489797
 10
0.1644573482092608
 20
0.1987298038408184
 10
0.1650075202496237
 20
0.196209696046591
 10
0.1656591106181009
 20
0.1952793012140862
 10
0.1672415404931209
 20
0.1947210663749818
 10
0.1677069575324965
 20
0.1934185149830746
 10
0.1694755553088247
 20
0.1893247859616526
 10
0.1709649039470855
 20
0.186068407481882
 10
0.1732920054273401
 20
0.1834633081320692
 10
0.1754329390062865
 20
0.1814164436213573
 10
0.1780392896246068
 20
0.1800208513725984
 10
0.1815764851772632
 20
0.1792765382537936
 10
0.1852998486312296
 20
0.1790904599740933
 10
0.1884647083812696
 20
0.1792765382537936
 10
0.1899540515917371
 20
0.1799278139497481
 10
0.1906056419602142
 20
0.1813234027645055
 10
0.1906056419602142
 20
0.1828120324361148
 10
0.1903263928221486
 20
0.1831841889955171
 10
0.1902333061575978
 20
0.1820677158833085
 10
0.1894886345523632
 20
0.1810442836279534
 10
0.1869753651708004
 20
0.180393007931999
 10
0.1853090541696003
 20
0.1807396979307455
 10
0.1842486803627936
 20
0.1817674467269249
 10
0.1837174187562096
 20
0.1840215429711701
 10
0.1841522827439943
 20
0.185974782844648
 10
0.1852998486312296
 20
0.1869988023143886
 10
0.1874407822101742
 20
0.1879291937128936
 10
0.1894886345523632
 20
0.1881152719925939
 10
0.1909779777628324
 20
0.1872779180169391
 10
0.1920949905984768
 20
0.1859753700590335
 10
0.193118911341777
 20
0.1845797778102728
 10
0.1935843338089442
 20
0.1824398758767124
 10
0.1928396622037114
 20
0.1802999705091505
 10
0.1909779777628324
 20
0.1789043816943931
  0
LWPOLYLINE
  5
79B
330
2
100
AcDbEntity
  8
Profilo
  6
Continuous
370
     0
100
AcDbPolyline
 90
       17
 70
   128
 43
0.0
 10
0.1878783655226781
 20
0.188969603675352
 10
0.1887516487032224
 20
0.1916908718871436
 10
0.189830406447802
 20
0.1931798689969927
 10
0.1917310733041242
 20
0.1944634853005173
 10
0.1932207856045733
 20
0.1952336564562319
 10
0.1945563865542021
 20
0.1954903790301369
 10
0.1964056847695124
 20
0.1958497920072023
 10
0.1979981343519819
 20
0.1958497920072023
 10
0.1993851093704142
 20
0.1956957564024598
 10
0.2001042812001346
 20
0.1953876886269729
 10
0.199333740729404
 20
0.1941554175250303
 10
0.198152245702804
 20
0.1936933141448026
 10
0.196354316128504
 20
0.1930258333922484
 10
0.1944536492721836
 20
0.1925637334460223
 10
0.1927070883388919
 20
0.1912287685069142
 10
0.1919879165091716
 20
0.1896884296294864
 10
0.1911660073974308
 20
0.1879427099457324
  0
CIRCLE
  5
79C
330
2
100
AcDbEntity
  8
Profilo
  6
Continuous
370
     0
100
AcDbCircle
 10
0.1964056847695124
 20
0.1878400195425701
 30
0.0
 40
0.0042305624312063
  0
LWPOLYLINE
  5
79D
330
2
100
AcDbEntity
  8
Profilo
  6
Continuous
370
     0
100
AcDbPolyline
 90
        3
 70
   128
 43
0.0
 10
0.1831289916247802
 20
0.1894455907266618
 10
0.1822891219431868
 20
0.1933200587046823
 10
0.1823537289733996
 20
0.1975819748541031
  0
LWPOLYLINE
  5
79E
330
2
100
AcDbEntity
  8
Profilo
  6
Continuous
370
     0
100
AcDbPolyline
 90
        4
 70
   128
 43
0.0
 10
0.1863592725741119
 20
0.1930617599237458
 10
0.1861654569112667
 20
0.1965487831643656
 10
0.1861654569112667
 20
0.1991963405179472
 10
0.1866176952671699
 20
0.2019084674157593
  0
LWPOLYLINE
  5
79F
330
2
100
AcDbEntity
  8
Profilo
  6
Continuous
370
     0
100
AcDbPolyline
 90
        4
 70
   128
 43
0.0
 10
0.190494030235248
 20
0.1974528288976373
 10
0.1906232388678803
 20
0.1998420840362826
 10
0.1912692928866286
 20
0.2020376168062285
 10
0.1922383766286495
 20
0.2047497471380421
  0
LWPOLYLINE
  5
7A0
330
2
100
AcDbEntity
  8
Profilo
  6
Continuous
370
     0
100
AcDbPolyline
 90
        4
 70
   128
 43
0.0
 10
0.1949518121918634
 20
0.1988734653247771
 10
0.1957270802710374
 20
0.2016501686348246
 10
0.1966961640130564
 20
0.203845704838772
 10
0.1977944563877096
 20
0.205653789437314
  0
LWPOLYLINE
  5
7A1
330
2
100
AcDbEntity
  8
Profilo
  6
Continuous
370
     0
100
AcDbPolyline
 90
        3
 70
   128
 43
0.0
 10
0.2004432849207107
 20
0.2000358064049838
 10
0.201864607018633
 20
0.202554214368098
 10
0.2028982977908666
 20
0.2039748507952378
  0
LWPOLYLINE
  5
7A2
330
2
100
AcDbEntity
  8
Profilo
  6
Continuous
370
     0
100
AcDbPolyline
 90
        4
 70
   128
 43
0.0
 10
0.2032181034045892
 20
0.1998414762178861
 10
0.2008489582331625
 20
0.2023916349657661
 10
0.1984798130617358
 20
0.2043953340682453
 10
0.1966573987093712
 20
0.2056704134421871
  0
LWPOLYLINE
  5
7A3
330
2
100
AcDbEntity
  8
Profilo
  6
Continuous
370
     0
100
AcDbPolyline
 90
        4
 70
   128
 43
0.0
 10
0.1975686058855535
 20
0.1997503996103184
 10
0.1955639424990403
 20
0.2012987088069597
 10
0.1930125591490535
 20
0.2026648682224689
 10
0.1906434139776267
 20
0.2035756377321402
  0
LWPOLYLINE
  5
7A4
330
2
100
AcDbEntity
  8
Profilo
  6
Continuous
370
     0
100
AcDbPolyline
 90
        4
 70
   128
 43
0.0
 10
0.1925569555609614
 20
0.198657473451512
 10
0.1900055667831813
 20
0.2002057860821548
 10
0.1879097870212847
 20
0.2010254789842602
 10
0.1859962454379482
 20
0.2014808654560966
  0
LWPOLYLINE
  5
7A5
330
2
100
AcDbEntity
  8
Profilo
  6
Continuous
370
     0
100
AcDbPolyline
 90
        4
 70
   128
 43
0.0
 10
0.1882742688061982
 20
0.1959251580544951
 10
0.1859962454379482
 20
0.1966537777830343
 10
0.1837182220697
 20
0.1974734706851379
 10
0.1825336494839858
 20
0.1982020869796756
  0
LWPOLYLINE
  5
7A6
330
2
100
AcDbEntity
  8
Profilo
  6
Continuous
370
     0
100
AcDbPolyline
 90
        4
 70
   128
 43
0.0
 10
0.1851761600649426
 20
0.1930106894423446
 10
0.1833537402847847
 20
0.1937393091708838
 10
0.1815313205046267
 20
0.1944679254654215
 10
0.1802556261157358
 20
0.1951054651523915
  0
LWPOLYLINE
  5
7A7
330
2
100
AcDbEntity
  8
Profilo
  6
Continuous
370
     0
100
AcDbPolyline
 90
        8
 70
   128
 43
0.0
 10
0.2097333720374797
 20
0.1920565931263368
 10
0.211801372350443
 20
0.1946801055961934
 10
0.2137103003090048
 20
0.1989731269379579
 10
0.2141875336555949
 20
0.2030276499557399
 10
0.2135512225268099
 20
0.2071616701255138
 10
0.2118809112415414
 20
0.210023684353358
 10
0.2102105999562747
 20
0.2136807010071567
 10
0.2085402886710062
 20
0.2159067139810368
  0
LWPOLYLINE
  5
7A8
330
2
100
AcDbEntity
  8
Profilo
  6
Continuous
370
     0
100
AcDbPolyline
 90
        6
 70
   128
 43
0.0
 10
0.2145852281110849
 20
0.200483634637877
 10
0.2149033836754766
 20
0.2054126606676089
 10
0.2138693780912015
 20
0.2093876796653905
 10
0.2125967612614248
 20
0.2115341920532753
 10
0.211085527758353
 20
0.2151912087070741
 10
0.2096538331463813
 20
0.2182917246929058
  0
LWPOLYLINE
  5
7A9
330
2
100
AcDbEntity
  8
Profilo
  6
Continuous
370
     0
100
AcDbPolyline
 90
        4
 70
   128
 43
0.0
 10
0.2153806115942733
 20
0.2034251494517164
 10
0.2157783060497633
 20
0.206843667781531
 10
0.2163350782874518
 20
0.21145469146728
 10
0.2168123062062468
 20
0.2136012004211615
  0
LWPOLYLINE
  5
7AA
330
2
100
AcDbEntity
  8
Profilo
  6
Continuous
370
     0
100
AcDbPolyline
 90
        2
 70
   128
 43
0.0
 10
0.2149829225665767
 20
0.2132037009251849
 10
0.2157783060497633
 20
0.2152707092930711
  0
LWPOLYLINE
  5
7AB
330
2
100
AcDbEntity
  8
Profilo
  6
Continuous
370
     0
100
AcDbPolyline
 90
       15
 70
   128
 43
0.0
 10
0.1795276069820362
 20
0.2087048077147727
 10
0.1800907623052923
 20
0.2104559977641042
 10
0.1809042040586239
 20
0.2104559977641042
 10
0.1807790608435871
 20
0.2116443067692927
 10
0.1814673593818818
 20
0.2132704098528148
 10
0.1827188132434327
 20
0.2139583778627653
 10
0.1843456967500943
 20
0.2144587154240017
 10
0.1859100140770324
 20
0.2145212589069082
 10
0.186848599045401
 20
0.2138332908969559
 10
0.1870988909032698
 20
0.2130827828381004
 10
0.1873491827611386
 20
0.2131453263210052
 10
0.1877246178340444
 20
0.2138332908969559
 10
0.1886632028024147
 20
0.2141460048774796
 10
0.1896017931985765
 20
0.2140834613945749
 10
0.1902275201293511
 20
0.2139583778627653
  0
LWPOLYLINE
  5
7AC
330
2
100
AcDbEntity
  8
Profilo
  6
Continuous
370
     0
100
AcDbPolyline
 90
        2
 70
   128
 43
0.0
 10
0.1867860274378825
 20
0.2084546372171538
 10
0.1857848654342005
 20
0.211331592788769
  0
LWPOLYLINE
  5
7AD
330
2
100
AcDbEntity
  8
Profilo
  6
Continuous
370
     0
100
AcDbPolyline
 90
        2
 70
   128
 43
0.0
 10
0.1853468587537763
 20
0.2080168397048204
 10
0.1837825468546315
 20
0.2098305732370566
  0
CIRCLE
  5
7AE
330
2
100
AcDbEntity
  8
Profilo
  6
Continuous
370
     0
100
AcDbCircle
 10
0.2100834158907483
 20
0.1592423871488545
 30
0.0
 40
0.0222217233294427
  0
CIRCLE
  5
7AF
330
2
100
AcDbEntity
  8
Profilo
  6
Continuous
370
     0
100
AcDbCircle
 10
0.2100834158907483
 20
0.1592423871488545
 30
0.0
 40
0.0271460314394813
  0
CIRCLE
  5
7B0
330
2
100
AcDbEntity
  8
Profilo
  6
Continuous
370
     0
100
AcDbCircle
 10
0.2100834158907483
 20
0.1592423871488545
 30
0.0
 40
0.0628907765777387
  0
CIRCLE
  5
7B1
330
2
100
AcDbEntity
  8
Profilo
  6
Continuous
370
     0
100
AcDbCircle
 10
0.2100834158907483
 20
0.1592423871488545
 30
0.0
 40
0.0659268446605922
  0
CIRCLE
  5
7B2
102
{ACAD_REACTORS
330
83D
102
}
330
2
100
AcDbEntity
  8
Profilo
  6
Continuous
370
     0
100
AcDbCircle
 10
0.2100834158907483
 20
0.1592423871488545
 30
0.0
 40
0.0725
  0
CIRCLE
  5
7B3
330
2
100
AcDbEntity
  8
Profilo
  6
Continuous
370
     0
100
AcDbCircle
 10
0.1808528797130948
 20
0.1346431369129387
 30
0.0
 40
0.0012930064119471
  0
CIRCLE
  5
7B4
330
2
100
AcDbEntity
  8
Profilo
  6
Continuous
370
     0
100
AcDbCircle
 10
0.1781547395064285
 20
0.1354808951827259
 30
0.0
 40
0.0012134964856566
  0
CIRCLE
  5
7B5
330
2
100
AcDbEntity
  8
Profilo
  6
Continuous
370
     0
100
AcDbCircle
 10
0.1758287592931678
 20
0.1372494929590541
 30
0.0
 40
0.0012134946426532
  0
CIRCLE
  5
7B6
330
2
100
AcDbEntity
  8
Profilo
  6
Continuous
370
     0
100
AcDbCircle
 10
0.1735027756459038
 20
0.1396696756760661
 30
0.0
 40
0.0013326491660038
  0
CIRCLE
  5
7B7
330
2
100
AcDbEntity
  8
Profilo
  6
Continuous
370
     0
100
AcDbCircle
 10
0.1721071833971448
 20
0.1431137899919651
 30
0.0
 40
0.0013834913201447
  0
CIRCLE
  5
7B8
330
2
100
AcDbEntity
  8
Profilo
  6
Continuous
370
     0
100
AcDbCircle
 10
0.1713628702783418
 20
0.1460924764129018
 30
0.0
 40
0.0013420312999048
  0
CIRCLE
  5
7B9
330
2
100
AcDbEntity
  8
Profilo
  6
Continuous
370
     0
100
AcDbCircle
 10
0.1713628702783418
 20
0.1492573361629418
 30
0.0
 40
0.0015003919248662
  0
CIRCLE
  5
7BA
330
2
100
AcDbEntity
  8
Profilo
  6
Continuous
370
     0
100
AcDbCircle
 10
0.17126982942149
 20
0.15260836381429
 30
0.0
 40
0.0013420312999048
  0
LWPOLYLINE
  5
7BB
330
2
100
AcDbEntity
  8
Profilo
  6
Continuous
370
     0
100
AcDbPolyline
 90
       17
 70
   128
 43
0.0
 10
0.1847605338888181
 20
0.1323160354326859
 10
0.1825275876644044
 20
0.1287788398800295
 10
0.1796433691780377
 20
0.1275687458076259
 10
0.1748983644606612
 20
0.1279410816102423
 10
0.1708046354392392
 20
0.1302681830904969
 10
0.1683856109351234
 20
0.1327814524720597
 10
0.1661526681447112
 20
0.1357601443207915
 10
0.1642918819137014
 20
0.1390180907353823
 10
0.1628962930989439
 20
0.1429276220906569
 10
0.1628032522420921
 20
0.1458132272748361
 10
0.1629893305217924
 20
0.1490711682616336
 10
0.1637336470745987
 20
0.1521429413471228
 10
0.1653153141690564
 20
0.1549354652945446
 10
0.1674552195366201
 20
0.1568902309721828
 10
0.1694090431904784
 20
0.15735565343935
 10
0.17126982942149
 20
0.1575418213406582
 10
0.1729445373727996
 20
0.1569833176367318
  0
LWPOLYLINE
  5
7BC
330
2
100
AcDbEntity
  8
Profilo
  6
Continuous
370
     0
100
AcDbPolyline
 90
       27
 70
   128
 43
0.0
 10
0.187830830654885
 20
0.1334330428405369
 10
0.1880169089345853
 20
0.1304543509918051
 10
0.1875517115183329
 20
0.1282203361761031
 10
0.1856909252873231
 20
0.1258001480312977
 10
0.1824345502415541
 20
0.1245900539588959
 10
0.1776895455241776
 20
0.1245900539588959
 10
0.1741540513418582
 20
0.125520898893232
 10
0.1704324754458353
 20
0.1274756645708684
 10
0.1674552195366201
 20
0.1302681830904969
 10
0.1664317872812633
 20
0.1311059413602823
 10
0.1652222733122046
 20
0.1333399616037795
 10
0.1640127627771493
 20
0.1356670630840341
 10
0.1627102148192436
 20
0.1382734137023543
 10
0.1618728608435871
 20
0.1401350981432333
 10
0.1612215851476344
 20
0.1419036959195633
 10
0.1608494251542305
 20
0.1438584615971997
 10
0.1609424660110823
 20
0.14646481221552
 10
0.1610355068679341
 20
0.1491642549261861
 10
0.1616867791298853
 20
0.1524221959129818
 10
0.1623380548258397
 20
0.1546562107286856
 10
0.1636406062177469
 20
0.1569833176367318
 10
0.1660596272878594
 20
0.1594965870182964
 10
0.1679204169528725
 20
0.1603343398602884
 10
0.170246397166135
 20
0.1606135944261474
 10
0.1729445373727996
 20
0.1601481719589802
 10
0.1750844427403615
 20
0.1591242512156782
 10
0.1762939532754186
 20
0.1581003250445846
  0
LWPOLYLINE
  5
7BD
330
2
100
AcDbEntity
  8
Profilo
  6
Continuous
370
     0
100
AcDbPolyline
 90
       71
 70
   128
 43
0.0
 10
0.1751774835972133
 20
0.1530737862814589
 10
0.1763869941322704
 20
0.1516775243077472
 10
0.1781547395064285
 20
0.1516775243077472
 10
0.1793642534754871
 20
0.1524221959129818
 10
0.1799224883145898
 20
0.1546562107286856
 10
0.179085134338935
 20
0.1568902309721828
 10
0.1775034672444773
 20
0.1577279892419664
 10
0.1754565992997639
 20
0.1577279892419664
 10
0.1737818913484543
 20
0.1567040630708728
 10
0.1729445373727996
 20
0.1551216331958528
 10
0.1727584590930975
 20
0.1535392033208328
 10
0.1730375782296514
 20
0.1520498601103654
 10
0.1740610104850064
 20
0.1503743435707928
 10
0.175735718436316
 20
0.14962967196556
 10
0.1776895455241776
 20
0.1494435040642518
 10
0.1794572908983374
 20
0.149908926531419
 10
0.1807598422902445
 20
0.15102593393927
 10
0.1820623936821535
 20
0.1533530354195246
 10
0.182155431105002
 20
0.155307801097161
 10
0.182155431105002
 20
0.158007238380032
 10
0.1811319988496469
 20
0.1607997623274556
 10
0.1791781751957868
 20
0.1633130317090185
 10
0.1763869941322704
 20
0.1652677973866567
 10
0.1733871802623008
 20
0.1673258376979024
 10
0.1710611966150368
 20
0.1688151809083717
 10
0.167804818135268
 20
0.1700252749807735
 10
0.164455402232649
 20
0.1702114428820817
 10
0.1621294220193865
 20
0.1704906920201491
 10
0.1584078461233636
 20
0.1704906920201491
 10
0.1553375493572966
 20
0.1700252749807735
 10
0.1532906848465847
 20
0.1695598525136063
 10
0.1516159768952752
 20
0.1680705093031371
 10
0.1515229394724267
 20
0.1674189189346617
 10
0.1524533308709317
 20
0.1658364890596399
 10
0.1515229394724267
 20
0.1658364890596399
 10
0.1497551906642653
 20
0.1646263949872381
 10
0.1491969558251627
 20
0.163323219678077
 10
0.1491039149683109
 20
0.161926957704367
 10
0.1510577420561743
 20
0.1609030315332717
 10
0.151709017752127
 20
0.1609030315332717
 10
0.1498482315211171
 20
0.1607168636319635
 10
0.1489178366886106
 20
0.1593206070860468
 10
0.1489178366886106
 20
0.1578312584477825
 10
0.1499412689439656
 20
0.1575520093097168
 10
0.1497551906642653
 20
0.1569004189412414
 10
0.1486387175520585
 20
0.1556903248688378
 10
0.1486387175520585
 20
0.154480230796436
 10
0.1486387175520585
 20
0.1529908875859668
 10
0.1501273472236677
 20
0.1524323838820404
 10
0.1513368577587231
 20
0.1526185517833486
 10
0.1530115657100326
 20
0.1535493912898932
 10
0.1527324500074838
 20
0.1524323838820404
 10
0.152639409150632
 20
0.151129203145086
 10
0.1535698039831386
 20
0.1508499540070204
 10
0.1551514710775963
 20
0.1508499540070204
 10
0.1567331416060573
 20
0.1516877122768075
 10
0.1577565738614124
 20
0.1527116330201078
 10
0.1583148087005151
 20
0.1535493912898932
 10
0.1592452000990183
 20
0.1537355591912014
 10
0.1597103975152725
 20
0.1534563100531357
 10
0.1593382409558701
 20
0.1522462159807322
 10
0.1583148087005151
 20
0.151594625612255
 10
0.1571052981654579
 20
0.1508499540070204
 10
0.1572913764451582
 20
0.1500121957372368
 10
0.1568261790289058
 20
0.1494536920333104
 10
0.155709705916699
 20
0.148429765862215
 10
0.1558957876304008
 20
0.1478712621582904
 10
0.1566401007492055
 20
0.1474058451189147
 10
0.1568261790289058
 20
0.1469404226517475
 10
0.1584078461233636
 20
0.1456372473425865
 10
0.1600825540746731
 20
0.1456372473425865
  0
LWPOLYLINE
  5
7BE
330
2
100
AcDbEntity
  8
Profilo
  6
Continuous
370
     0
100
AcDbPolyline
 90
       95
 70
   128
 43
0.0
 10
0.1607338297706276
 20
0.1429378046319204
 10
0.1582217678436633
 20
0.1440548174675683
 10
0.1568261790289058
 20
0.1452649061121768
 10
0.1547793145181939
 20
0.1464750001845786
 10
0.1514298986155749
 20
0.1467542547504393
 10
0.1502203880805177
 20
0.1464750001845786
 10
0.150313425503368
 20
0.1453579927767276
 10
0.1504995037830683
 20
0.1437755629017076
 10
0.1512438203358746
 20
0.1427516367306122
 10
0.1523602900140799
 20
0.1427516367306122
 10
0.1528254874303323
 20
0.1427516367306122
 10
0.1527324500074838
 20
0.140983038954284
 10
0.1533837257034365
 20
0.1401452861122919
 10
0.155058433654746
 20
0.1401452861122919
 10
0.1565470598923537
 20
0.1401452861122919
 10
0.1583148087005151
 20
0.1397729503096755
 10
0.1602686357883767
 20
0.1381905204346555
 10
0.1616642246031341
 20
0.1359565001911583
 10
0.1627806942813377
 20
0.1338155666122137
 10
0.1628737351381895
 20
0.1316746330332673
 10
0.1616642246031341
 20
0.1300922031582473
 10
0.1607338297706276
 20
0.1285097732832273
 10
0.1610129489071796
 20
0.1272065979740681
 10
0.1619433437396862
 20
0.1271135113095173
 10
0.1624085377219371
 20
0.1271135113095173
 10
0.1616642246031341
 20
0.1265550076055909
 10
0.1608268706274794
 20
0.1265550076055909
 10
0.1603616732112252
 20
0.126089590566217
 10
0.1603616732112252
 20
0.1242279061253363
 10
0.161385105466582
 20
0.1241348248885806
 10
0.1621294220193865
 20
0.1240417382240281
 10
0.1612920680437317
 20
0.1230178120529345
 10
0.1614781463234338
 20
0.1215284688424653
 10
0.1625015785787889
 20
0.1206907105726799
 10
0.1640832456732466
 20
0.1203183747700617
 10
0.1649205996489014
 20
0.1216215500792227
 10
0.1663161918976603
 20
0.122924730816177
 10
0.1667813858799112
 20
0.1246002419279545
 10
0.166874426736763
 20
0.126089590566217
 10
0.1681769781286719
 20
0.1253449135331873
 10
0.1676187398555677
 20
0.1237624890859624
 10
0.1689212912474749
 20
0.1228316441516245
 10
0.16994472350283
 20
0.1232970666187935
 10
0.1703168800622323
 20
0.1235763157568591
 10
0.1711542340378871
 20
0.1232039799542427
 10
0.1737593368217032
 20
0.1235763157568591
 10
0.1749688473567585
 20
0.1235763157568591
 10
0.1752479664933124
 20
0.1232039799542427
 10
0.1751549256364606
 20
0.1224593083490081
 10
0.1744106125176559
 20
0.1220869725463917
 10
0.1733871802623008
 20
0.1221800592109424
 10
0.1719915880135419
 20
0.1221800592109424
 10
0.1705959991987844
 20
0.1221800592109424
 10
0.1693864886637273
 20
0.1211561330398488
 10
0.1690143321043267
 20
0.1196667844015863
 10
0.1693864886637273
 20
0.1182705278556678
 10
0.1705959991987844
 20
0.1179912732898088
 10
0.1696656043662779
 20
0.1176189374871906
 10
0.1684560938312207
 20
0.1171535150200235
 10
0.1677117807124178
 20
0.1160365076121724
 10
0.167804818135268
 20
0.1143609965003932
 10
0.1688282503906231
 20
0.1134301515660571
 10
0.1705959991987844
 20
0.1136163194673653
 10
0.1731161069930118
 20
0.1141664915077299
 10
0.1740465018255166
 20
0.1148180818762071
 10
0.1746047366646193
 20
0.1164005117512271
 10
0.1759072880565282
 20
0.116865928790601
 10
0.1800010170779502
 20
0.1186345265669292
 10
0.1832573955577208
 20
0.1201238752051917
 10
0.1858624949075336
 20
0.1224509766854463
 10
0.1879093594182455
 20
0.1245919102643928
 10
0.1893049516670044
 20
0.127198260882713
 10
0.1900492647858074
 20
0.1307354564353694
 10
0.1902353430655095
 20
0.1344588198893341
 10
0.1900492647858074
 20
0.1376236796393758
 10
0.1893979890898547
 20
0.1391130228498433
 10
0.1880024002750973
 20
0.1397646132183204
 10
0.1865137706034881
 20
0.1397646132183204
 10
0.1861416140440857
 20
0.1394853640802548
 10
0.1872580871562925
 20
0.1393922774157023
 10
0.1882815194116494
 20
0.1386476058104694
 10
0.1889327951076021
 20
0.1361343364289066
 10
0.1885861051088573
 20
0.1344680254277065
 10
0.1875583563126779
 20
0.1334076516208998
 10
0.1853042600684309
 20
0.1328763900143158
 10
0.1833510201949531
 20
0.1333112540021005
 10
0.1823270007252142
 20
0.1344588198893341
 10
0.1813966093267092
 20
0.1365997534682805
 10
0.1812105310470089
 20
0.1386476058104694
 10
0.1820478850226637
 20
0.1401369490209369
 10
0.1833504329805693
 20
0.141253961856583
 10
0.18474602522933
 20
0.1422778825998833
 10
0.1868859271628904
 20
0.1427433050670505
 10
0.1890258325304523
 20
0.1419986334618176
 10
0.1904214213452098
 20
0.1401369490209369
  0
LWPOLYLINE
  5
7BF
330
2
100
AcDbEntity
  8
Profilo
  6
Continuous
370
     0
100
AcDbPolyline
 90
       17
 70
   128
 43
0.0
 10
0.1803561993642508
 20
0.1370373367807843
 10
0.1776349311524592
 20
0.1379106199613286
 10
0.1761459340426101
 20
0.1389893777059082
 10
0.1748623177390856
 20
0.1408900445622286
 10
0.1740921465833709
 20
0.1423797568626796
 10
0.1738354240094659
 20
0.1437153578123084
 10
0.1734760110323987
 20
0.1455646560276186
 10
0.1734760110323987
 20
0.1471571056100881
 10
0.173630046637143
 20
0.1485440806285204
 10
0.1739381144126282
 20
0.1492632524582408
 10
0.1751703855145708
 20
0.1484927119875102
 10
0.1756324888948002
 20
0.1473112169609102
 10
0.1762999696473526
 20
0.1455132873866102
 10
0.1767620695935805
 20
0.1436126205302898
 10
0.1780970345326887
 20
0.1418660595969964
 10
0.1796373734101164
 20
0.141146887767276
 10
0.1813830930938705
 20
0.140324978655537
  0
CIRCLE
  5
7C0
330
2
100
AcDbEntity
  8
Profilo
  6
Continuous
370
     0
100
AcDbCircle
 10
0.1814857834970327
 20
0.1455646560276186
 30
0.0
 40
0.0042305624312063
  0
LWPOLYLINE
  5
7C1
330
2
100
AcDbEntity
  8
Profilo
  6
Continuous
370
     0
100
AcDbPolyline
 90
        3
 70
   128
 43
0.0
 10
0.179880212312941
 20
0.1322879628828865
 10
0.1760057443349205
 20
0.131448093201293
 10
0.1717438281854997
 20
0.1315127002315058
  0
LWPOLYLINE
  5
7C2
330
2
100
AcDbEntity
  8
Profilo
  6
Continuous
370
     0
100
AcDbPolyline
 90
        4
 70
   128
 43
0.0
 10
0.1762640431158571
 20
0.1355182438322163
 10
0.1727770198752372
 20
0.1353244281693712
 10
0.1701294625216556
 20
0.1353244281693712
 10
0.1674173356238418
 20
0.1357766665252743
  0
LWPOLYLINE
  5
7C3
330
2
100
AcDbEntity
  8
Profilo
  6
Continuous
370
     0
100
AcDbPolyline
 90
        4
 70
   128
 43
0.0
 10
0.1718729741419638
 20
0.1396530014933542
 10
0.1694837190033203
 20
0.1397822101259866
 10
0.1672881862333744
 20
0.1404282641447349
 10
0.164576055901559
 20
0.1413973478867557
  0
LWPOLYLINE
  5
7C4
330
2
100
AcDbEntity
  8
Profilo
  6
Continuous
370
     0
100
AcDbPolyline
 90
        4
 70
   128
 43
0.0
 10
0.1704523377148257
 20
0.1441107834499679
 10
0.1676756344047765
 20
0.1448860515291436
 10
0.1654800982008309
 20
0.1458551352711627
 10
0.1636720136022889
 20
0.1469534276458141
  0
LWPOLYLINE
  5
7C5
330
2
100
AcDbEntity
  8
Profilo
  6
Continuous
370
     0
100
AcDbPolyline
 90
        3
 70
   128
 43
0.0
 10
0.1692899966346191
 20
0.1496022561788152
 10
0.1667715886715049
 20
0.1510235782767392
 10
0.165350952244365
 20
0.1520572690489729
  0
LWPOLYLINE
  5
7C6
330
2
100
AcDbEntity
  8
Profilo
  6
Continuous
370
     0
100
AcDbPolyline
 90
        4
 70
   128
 43
0.0
 10
0.1694843268217168
 20
0.1523770746626954
 10
0.1669341680738368
 20
0.1500079294912687
 10
0.1649304689713558
 20
0.147638784319842
 10
0.1636553895974158
 20
0.1458163699674756
  0
LWPOLYLINE
  5
7C7
330
2
100
AcDbEntity
  8
Profilo
  6
Continuous
370
     0
100
AcDbPolyline
 90
        4
 70
   128
 43
0.0
 10
0.1695754034292844
 20
0.1467275771436597
 10
0.1680270942326432
 20
0.1447229137571465
 10
0.1666609348171339
 20
0.1421715304071579
 10
0.1657501653074627
 20
0.139802385235733
  0
LWPOLYLINE
  5
7C8
330
2
100
AcDbEntity
  8
Profilo
  6
Continuous
370
     0
100
AcDbPolyline
 90
        4
 70
   128
 43
0.0
 10
0.1706683295880909
 20
0.1417159268190676
 10
0.169120016957448
 20
0.1391645380412857
 10
0.1683003240553427
 20
0.1370687582793909
 10
0.1678449375835063
 20
0.1351552166960545
  0
LWPOLYLINE
  5
7C9
330
2
100
AcDbEntity
  8
Profilo
  6
Continuous
370
     0
100
AcDbPolyline
 90
        4
 70
   128
 43
0.0
 10
0.1734006449851078
 20
0.1374332400643045
 10
0.1726720252565685
 20
0.1351552166960545
 10
0.1718523323544632
 20
0.1328771933278044
 10
0.1711237160599273
 20
0.131692620742092
  0
LWPOLYLINE
  5
7CA
330
2
100
AcDbEntity
  8
Profilo
  6
Continuous
370
     0
100
AcDbPolyline
 90
        4
 70
   128
 43
0.0
 10
0.1763151135972583
 20
0.1343351313230489
 10
0.175586493868719
 20
0.1325127115428909
 10
0.1748578775741814
 20
0.1306902917627312
 10
0.1742203378872114
 20
0.129414597373842
  0
LWPOLYLINE
  5
7CB
330
2
100
AcDbEntity
  8
Profilo
  6
Continuous
370
     0
100
AcDbPolyline
 90
        8
 70
   128
 43
0.0
 10
0.177269209913266
 20
0.1588923432955841
 10
0.1746456974434094
 20
0.1609603436085493
 10
0.1703526761016432
 20
0.1628692715671111
 10
0.166298153083863
 20
0.1633465049136994
 10
0.162164132914089
 20
0.1627101937849143
 10
0.1593021186862449
 20
0.1610398824996476
 10
0.1556451020324461
 20
0.1593695712143809
 10
0.153419089058566
 20
0.1576992599291124
  0
LWPOLYLINE
  5
7CC
330
2
100
AcDbEntity
  8
Profilo
  6
Continuous
370
     0
100
AcDbPolyline
 90
        6
 70
   128
 43
0.0
 10
0.1688421684017258
 20
0.1637441993691911
 10
0.1639131423719939
 20
0.1640623549335828
 10
0.1599381233742123
 20
0.1630283493493078
 10
0.1577916109863275
 20
0.161755732519531
 10
0.1541345943325287
 20
0.1602444990164592
 10
0.151034078346697
 20
0.1588128044044858
  0
LWPOLYLINE
  5
7CD
330
2
100
AcDbEntity
  8
Profilo
  6
Continuous
370
     0
100
AcDbPolyline
 90
        4
 70
   128
 43
0.0
 10
0.1659006535878864
 20
0.1645395828523778
 10
0.1624821352580719
 20
0.1649372773078695
 10
0.1578711115723228
 20
0.1654940495455563
 10
0.1557246026184413
 20
0.165971277464353
  0
LWPOLYLINE
  5
7CE
330
2
100
AcDbEntity
  8
Profilo
  6
Continuous
370
     0
100
AcDbPolyline
 90
        2
 70
   128
 43
0.0
 10
0.1561221021144179
 20
0.1641418938246829
 10
0.1540550937465317
 20
0.1649372773078695
  0
LWPOLYLINE
  5
7CF
330
2
100
AcDbEntity
  8
Profilo
  6
Continuous
370
     0
100
AcDbPolyline
 90
       15
 70
   128
 43
0.0
 10
0.1606209953248301
 20
0.1286865782401424
 10
0.1588698052754986
 20
0.1292497335633985
 10
0.1588698052754986
 20
0.1300631753167302
 10
0.1576814962703084
 20
0.1299380321016933
 10
0.1560553931867881
 20
0.1306263306399881
 10
0.1553674251768358
 20
0.1318777845015372
 10
0.1548670876156011
 20
0.1335046680082005
 10
0.1548045441326946
 20
0.1350689853351387
 10
0.1554925121426469
 20
0.1360075703035072
 10
0.1562430202015024
 20
0.136257862161376
 10
0.1561804767185959
 20
0.1365081540192449
 10
0.1554925121426469
 20
0.1368835890921506
 10
0.1551797981621232
 20
0.1378221740605209
 10
0.1552423416450279
 20
0.1387607644566809
 10
0.1553674251768358
 20
0.1393864913874573
  0
LWPOLYLINE
  5
7D0
330
2
100
AcDbEntity
  8
Profilo
  6
Continuous
370
     0
100
AcDbPolyline
 90
        2
 70
   128
 43
0.0
 10
0.1608711658224491
 20
0.135944998695987
 10
0.1579942102508338
 20
0.1349438366923067
  0
LWPOLYLINE
  5
7D1
330
2
100
AcDbEntity
  8
Profilo
  6
Continuous
370
     0
100
AcDbPolyline
 90
        2
 70
   128
 43
0.0
 10
0.1613089633347824
 20
0.1345058300118808
 10
0.1594952298025445
 20
0.1329415181127377
  0
CIRCLE
  5
7D2
330
2
100
AcDbEntity
  8
Profilo
  6
Continuous
370
     0
100
AcDbCircle
 10
0.2346826661266623
 20
0.1300118509711993
 30
0.0
 40
0.0012930064119471
  0
CIRCLE
  5
7D3
330
2
100
AcDbEntity
  8
Profilo
  6
Continuous
370
     0
100
AcDbCircle
 10
0.2338449078568769
 20
0.1273137107645347
 30
0.0
 40
0.0012134964856566
  0
CIRCLE
  5
7D4
330
2
100
AcDbEntity
  8
Profilo
  6
Continuous
370
     0
100
AcDbCircle
 10
0.2320763100805487
 20
0.124987730551274
 30
0.0
 40
0.0012134946426532
  0
CIRCLE
  5
7D5
330
2
100
AcDbEntity
  8
Profilo
  6
Continuous
370
     0
100
AcDbCircle
 10
0.2296561273635367
 20
0.12266174690401
 30
0.0
 40
0.0013326491660038
  0
CIRCLE
  5
7D6
330
2
100
AcDbEntity
  8
Profilo
  6
Continuous
370
     0
100
AcDbCircle
 10
0.2262120130476377
 20
0.1212661546552493
 30
0.0
 40
0.0013834913201447
  0
CIRCLE
  5
7D7
330
2
100
AcDbEntity
  8
Profilo
  6
Continuous
370
     0
100
AcDbCircle
 10
0.2232333266266993
 20
0.1205218415364463
 30
0.0
 40
0.0013420312999048
  0
CIRCLE
  5
7D8
330
2
100
AcDbEntity
  8
Profilo
  6
Continuous
370
     0
100
AcDbCircle
 10
0.2200684668766593
 20
0.1205218415364463
 30
0.0
 40
0.0015003919248662
  0
CIRCLE
  5
7D9
330
2
100
AcDbEntity
  8
Profilo
  6
Continuous
370
     0
100
AcDbCircle
 10
0.2167174392253128
 20
0.1204288006795963
 30
0.0
 40
0.0013420312999048
  0
LWPOLYLINE
  5
7DA
330
2
100
AcDbEntity
  8
Profilo
  6
Continuous
370
     0
100
AcDbPolyline
 90
       17
 70
   128
 43
0.0
 10
0.2370097676069169
 20
0.1339195051469243
 10
0.2405469631595734
 20
0.1316865589225088
 10
0.2417570572319769
 20
0.1288023404361439
 10
0.2413847214293587
 20
0.1240573357187674
 10
0.2390576199491059
 20
0.1199636066973436
 10
0.2365443505675431
 20
0.1175445821932296
 10
0.2335656587188113
 20
0.1153116394028174
 10
0.2303077123042188
 20
0.1134508531718058
 10
0.2263981809489459
 20
0.1120552643570484
 10
0.2235125757647667
 20
0.1119622235001983
 10
0.2202546347779692
 20
0.1121483017798986
 10
0.21718286169248
 20
0.1128926183327049
 10
0.2143903377450564
 20
0.1144742854271626
 10
0.21243557206742
 20
0.1166141907947246
 10
0.2119701496002528
 20
0.1185680144485847
 10
0.2117839816989446
 20
0.1204288006795963
 10
0.2123424854028693
 20
0.1221035086309058
  0
LWPOLYLINE
  5
7DB
330
2
100
AcDbEntity
  8
Profilo
  6
Continuous
370
     0
100
AcDbPolyline
 90
       27
 70
   128
 43
0.0
 10
0.2358927601990659
 20
0.1369898019129913
 10
0.2388714520477959
 20
0.1371758801926916
 10
0.2411054668634998
 20
0.1367106827764374
 10
0.2435256550083051
 20
0.1348498965454276
 10
0.2447357490807069
 20
0.1315935214996603
 10
0.2447357490807069
 20
0.1268485167822838
 10
0.2438049041463708
 20
0.1233130225999645
 10
0.2418501384687344
 20
0.1195914467039397
 10
0.2390576199491059
 20
0.1166141907947246
 10
0.2382198616793187
 20
0.1155907585393695
 10
0.2359858414358216
 20
0.1143812445703108
 10
0.2336587399555687
 20
0.1131717340352537
 10
0.2310523893372485
 20
0.1118691860773481
 10
0.2291907048963695
 20
0.1110318321016933
 10
0.2274221071200395
 20
0.1103805564057388
 10
0.2254673414424031
 20
0.1100083964123367
 10
0.2228609908240828
 20
0.1101014372691867
 10
0.2201615481134167
 20
0.1101944781260385
 10
0.216903607126621
 20
0.1108457503879897
 10
0.2146695923109172
 20
0.1114970260839442
 10
0.2123424854028693
 20
0.1127995774758531
 10
0.2098292160213064
 20
0.1152185985459656
 10
0.2089914631793144
 20
0.1170793882109787
 10
0.2087122086134554
 20
0.1194053684242394
 10
0.2091776310806226
 20
0.1221035086309058
 10
0.2102015518239229
 20
0.1242434139984677
 10
0.2112254779950182
 20
0.1254529245335249
  0
LWPOLYLINE
  5
7DC
330
2
100
AcDbEntity
  8
Profilo
  6
Continuous
370
     0
100
AcDbPolyline
 90
       71
 70
   128
 43
0.0
 10
0.2162520167581439
 20
0.1243364548553195
 10
0.2176482787318539
 20
0.1255459653903749
 10
0.2176482787318539
 20
0.1273137107645347
 10
0.216903607126621
 20
0.1285232247335933
 10
0.2146695923109172
 20
0.129081459572696
 10
0.21243557206742
 20
0.1282441055970412
 10
0.2115978137976346
 20
0.1266624385025835
 10
0.2115978137976346
 20
0.1246155705578701
 10
0.2126217399687282
 20
0.1229408626065588
 10
0.21420416984375
 20
0.1221035086309058
 10
0.2157865997187682
 20
0.1219174303512037
 10
0.2172759429292375
 20
0.1221965494877558
 10
0.21895145946881
 20
0.1232199817431127
 10
0.2196961310740428
 20
0.1248946896944222
 10
0.219882298975351
 20
0.1268485167822838
 10
0.2194168765081839
 20
0.1286162621564418
 10
0.2182998691003311
 20
0.1299188135483508
 10
0.2159727676200782
 20
0.1312213649402579
 10
0.2140180019424418
 20
0.1313144023631082
 10
0.211318564659569
 20
0.1313144023631082
 10
0.2085260407121472
 20
0.1302909701077514
 10
0.2060127713305844
 20
0.128337146453893
 10
0.2040580056529462
 20
0.1255459653903749
 10
0.2019999653417004
 20
0.122546151520407
 10
0.2005106221312312
 20
0.120220167873143
 10
0.1993005280588294
 20
0.1169637893933725
 10
0.1991143601575194
 20
0.1136143734907534
 10
0.1988351110194537
 20
0.1112883932774927
 10
0.1988351110194537
 20
0.1075668173814698
 10
0.1993005280588294
 20
0.1044965206154028
 10
0.1997659505259965
 20
0.1024496561046909
 10
0.2012552937364658
 20
0.1007749481533814
 10
0.2019068841049412
 20
0.1006819107305329
 10
0.2034893139799629
 20
0.1016123021290362
 10
0.2034893139799629
 20
0.1006819107305329
 10
0.2046994080523647
 20
0.0989141619223716
 10
0.2060025833615258
 20
0.0983559270832689
 10
0.2073988453352358
 20
0.0982628862264171
 10
0.2084227715063311
 20
0.1002167133142787
 10
0.2084227715063311
 20
0.1008679890102332
 10
0.2086089394076394
 20
0.0990072027792234
 10
0.210005195953556
 20
0.0980768079467168
 10
0.2114945445918186
 20
0.0980768079467168
 10
0.2117737937298842
 20
0.0991002402020719
 10
0.2124253840983614
 20
0.0989141619223716
 10
0.213635478170765
 20
0.0977976888101648
 10
0.2148455722431668
 20
0.0977976888101648
 10
0.216334915453636
 20
0.0977976888101648
 10
0.2168934191575624
 20
0.0992863184817722
 10
0.2167072512562524
 20
0.1004958290168293
 10
0.2157764117497096
 20
0.1021705369681388
 10
0.2168934191575624
 20
0.1018914212655883
 10
0.218196599894515
 20
0.1017983804087365
 10
0.2184758490325807
 20
0.102728775241243
 10
0.2184758490325807
 20
0.1043104423357025
 10
0.2176380907627953
 20
0.1058921128641618
 10
0.216614170019495
 20
0.1069155451195186
 10
0.2157764117497096
 20
0.1074737799586195
 10
0.2155902438484014
 20
0.1084041713571245
 10
0.2158694929864671
 20
0.1088693687733769
 10
0.2170795870588706
 20
0.1084972122139763
 10
0.217731177427346
 20
0.1074737799586195
 10
0.2184758490325807
 20
0.1062642694235642
 10
0.219313607302366
 20
0.1064503477032645
 10
0.2198721110062924
 20
0.1059851502870121
 10
0.2208960371773878
 20
0.1048686771748034
 10
0.2214545408813124
 20
0.105054758888507
 10
0.2219199579206881
 20
0.10579907200731
 10
0.2223853803878553
 20
0.1059851502870121
 10
0.2236885556970163
 20
0.1075668173814698
 10
0.2236885556970163
 20
0.1092415253327793
  0
LWPOLYLINE
  5
7DD
330
2
100
AcDbEntity
  8
Profilo
  6
Continuous
370
     0
100
AcDbPolyline
 90
       95
 70
   128
 43
0.0
 10
0.2263879984076806
 20
0.1098928010287338
 10
0.2252709855720345
 20
0.1073807391017695
 10
0.224060896927426
 20
0.1059851502870121
 10
0.2228508028550242
 20
0.1039382857763002
 10
0.2225715482891635
 20
0.1005888698736811
 10
0.2228508028550242
 20
0.099379359338624
 10
0.2239678102628753
 20
0.0994723967614742
 10
0.2255502401378953
 20
0.0996584750411746
 10
0.2265741663089906
 20
0.100402791593979
 10
0.2265741663089906
 20
0.1015192612721844
 10
0.2265741663089906
 20
0.1019844586884385
 10
0.2283427640853171
 20
0.1018914212655883
 10
0.2291805169273091
 20
0.1025426969615427
 10
0.2291805169273091
 20
0.1042174049128523
 10
0.2291805169273091
 20
0.10570603115046
 10
0.2295528527299273
 20
0.1074737799586195
 10
0.2311352826049455
 20
0.1094276070464811
 10
0.2333693028484427
 20
0.1108231958612386
 10
0.2355102364273891
 20
0.1119396655394439
 10
0.2376511700063337
 20
0.1120327063962957
 10
0.2392335998813555
 20
0.1108231958612386
 10
0.2408160297563737
 20
0.1098928010287338
 10
0.2421192050655347
 20
0.1101719201652859
 10
0.2422122917300855
 20
0.1111023149977907
 10
0.2422122917300855
 20
0.1115675089800433
 10
0.2427707954340119
 20
0.1108231958612386
 10
0.2427707954340119
 20
0.1099858418855838
 10
0.2432362124733858
 20
0.1095206444693314
 10
0.2450978969142648
 20
0.1095206444693314
 10
0.2451909781510222
 20
0.1105440767246865
 10
0.245284064815573
 20
0.1112883932774927
 10
0.2463079909866683
 20
0.110451039301838
 10
0.2477973341971358
 20
0.1106371175815383
 10
0.2486350924669229
 20
0.1116605498368951
 10
0.2490074282695394
 20
0.1132422169313528
 10
0.2477042529603801
 20
0.1140795709070076
 10
0.2464010722234258
 20
0.1154751631557665
 10
0.2447255611116483
 20
0.1159403571380174
 10
0.2432362124733858
 20
0.1160333979948692
 10
0.2439808895064137
 20
0.1173359493867764
 10
0.2455633139536404
 20
0.1167777111136722
 10
0.2464941588879765
 20
0.1180802625055811
 10
0.2460287364208076
 20
0.1191036947609362
 10
0.2457494872827419
 20
0.1194758513203385
 10
0.2461218230853601
 20
0.1203132052959915
 10
0.2457494872827419
 20
0.1229183080798076
 10
0.2457494872827419
 20
0.1241278186148648
 10
0.2461218230853601
 20
0.1244069377514169
 10
0.2468664946905947
 20
0.1243138968945651
 10
0.2472388304932112
 20
0.1235695837757621
 10
0.2471457438286604
 20
0.122546151520407
 10
0.2471457438286604
 20
0.1211505592716481
 10
0.2471457438286604
 20
0.1197549704568906
 10
0.248169669999754
 20
0.1185454599218335
 10
0.2496590186380165
 20
0.1181733033624311
 10
0.2510552751839332
 20
0.1185454599218335
 10
0.251334529749794
 20
0.1197549704568906
 10
0.2517068655524104
 20
0.1188245756243841
 10
0.2521722880195794
 20
0.1176150650893269
 10
0.2532892954274304
 20
0.116870751970524
 10
0.2549648065392078
 20
0.1169637893933725
 10
0.2558956514735458
 20
0.1179872216487293
 10
0.2557094835722358
 20
0.1197549704568906
 10
0.2551593115318729
 20
0.1222750782511163
 10
0.2545077211633957
 20
0.1232054730836228
 10
0.2529252912883757
 20
0.1237637079227255
 10
0.2524598742490001
 20
0.1250662593146327
 10
0.2506912764726736
 20
0.1291599883360565
 10
0.2492019278344111
 20
0.1324163668158252
 10
0.2468748263541565
 20
0.1350214661656398
 10
0.2447338927752101
 20
0.1370683306763517
 10
0.2421275421568898
 20
0.1384639229251107
 10
0.2385903466042334
 20
0.1392082360439136
 10
0.234866983150267
 20
0.1393943143236139
 10
0.231702123400227
 20
0.1392082360439136
 10
0.2302127801897595
 20
0.1385569603479592
 10
0.2295611898212824
 20
0.1371613715332017
 10
0.2295611898212824
 20
0.1356727418615943
 10
0.229840438959348
 20
0.1353005853021919
 10
0.2299335256238988
 20
0.1364170584143988
 10
0.2306781972291334
 20
0.1374404906697538
 10
0.2331914666106962
 20
0.1380917663657083
 10
0.2348577776118963
 20
0.1377450763669635
 10
0.235918151418703
 20
0.1367173275707841
 10
0.236449413025287
 20
0.1344632313265371
 10
0.2360145490375023
 20
0.1325099914530593
 10
0.234866983150267
 20
0.1314859719833187
 10
0.2327260495713224
 20
0.1305555805848154
 10
0.2306781972291334
 20
0.1303695023051151
 10
0.2291888540186642
 20
0.1312068562807699
 10
0.2280718411830198
 20
0.1325094042386755
 10
0.2270479204397195
 20
0.1339049964874345
 10
0.2265824979725524
 20
0.1360448984209949
 10
0.2273271695777852
 20
0.1381848037885586
 10
0.2291888540186642
 20
0.139580392603316
  0
LWPOLYLINE
  5
7DE
330
2
100
AcDbEntity
  8
Profilo
  6
Continuous
370
     0
100
AcDbPolyline
 90
       17
 70
   128
 43
0.0
 10
0.2322884662588185
 20
0.1295151706223553
 10
0.2314151830782742
 20
0.1267939024105636
 10
0.2303364253336946
 20
0.1253049053007146
 10
0.2284357584773724
 20
0.1240212889971918
 10
0.2269460461769233
 20
0.1232511178414753
 10
0.2256104452272944
 20
0.1229943952675722
 10
0.2237611470119842
 20
0.122634982290505
 10
0.2221686974295147
 20
0.122634982290505
 10
0.2207817224110824
 20
0.1227890178952492
 10
0.220062550581362
 20
0.1230970856707344
 10
0.2208330910520926
 20
0.124329356772677
 10
0.2220145860786926
 20
0.1247914601529064
 10
0.2238125156529926
 20
0.1254589409054588
 10
0.225713182509313
 20
0.1259210408516868
 10
0.2274597434426047
 20
0.1272560057907931
 10
0.228178915272325
 20
0.1287963446682226
 10
0.2290008243840658
 20
0.1305420643519749
  0
CIRCLE
  5
7DF
330
2
100
AcDbEntity
  8
Profilo
  6
Continuous
370
     0
100
AcDbCircle
 10
0.2237611470119842
 20
0.1306447547551389
 30
0.0
 40
0.0042305624312063
  0
LWPOLYLINE
  5
7E0
330
2
100
AcDbEntity
  8
Profilo
  6
Continuous
370
     0
100
AcDbPolyline
 90
        3
 70
   128
 43
0.0
 10
0.2370378401567164
 20
0.1290391835710455
 10
0.2378777098383098
 20
0.1251647155930268
 10
0.237813102808097
 20
0.1209027994436042
  0
LWPOLYLINE
  5
7E1
330
2
100
AcDbEntity
  8
Profilo
  6
Continuous
370
     0
100
AcDbPolyline
 90
        4
 70
   128
 43
0.0
 10
0.2338075592073847
 20
0.1254230143739615
 10
0.2340013748702299
 20
0.1219359911333434
 10
0.2340013748702299
 20
0.1192884337797601
 10
0.2335491365143267
 20
0.116576306881948
  0
LWPOLYLINE
  5
7E2
330
2
100
AcDbEntity
  8
Profilo
  6
Continuous
370
     0
100
AcDbPolyline
 90
        4
 70
   128
 43
0.0
 10
0.2296728015462486
 20
0.12103194540007
 10
0.2295435929136163
 20
0.1186426902614247
 10
0.228897538894868
 20
0.1164471574914806
 10
0.2279284551528471
 20
0.1137350271596652
  0
LWPOLYLINE
  5
7E3
330
2
100
AcDbEntity
  8
Profilo
  6
Continuous
370
     0
100
AcDbPolyline
 90
        4
 70
   128
 43
0.0
 10
0.2252150195896332
 20
0.1196113089729301
 10
0.2244397515104592
 20
0.1168346056628827
 10
0.2234706677684402
 20
0.1146390694589353
 10
0.222372375393787
 20
0.1128309848603933
  0
LWPOLYLINE
  5
7E4
330
2
100
AcDbEntity
  8
Profilo
  6
Continuous
370
     0
100
AcDbPolyline
 90
        3
 70
   128
 43
0.0
 10
0.2197235468607876
 20
0.1184489678927253
 10
0.2183022247628636
 20
0.1159305599296093
 10
0.2172685339906299
 20
0.1145099235024712
  0
LWPOLYLINE
  5
7E5
330
2
100
AcDbEntity
  8
Profilo
  6
Continuous
370
     0
100
AcDbPolyline
 90
        4
 70
   128
 43
0.0
 10
0.2169487283769074
 20
0.118643298079823
 10
0.2193178735483341
 20
0.1160931393319412
 10
0.2216870187197608
 20
0.114089440229462
 10
0.2235094330721254
 20
0.112814360855522
  0
LWPOLYLINE
  5
7E6
330
2
100
AcDbEntity
  8
Profilo
  6
Continuous
370
     0
100
AcDbPolyline
 90
        4
 70
   128
 43
0.0
 10
0.2225982258959431
 20
0.1187343746873889
 10
0.2246028892824563
 20
0.1171860654907476
 10
0.2271542726324449
 20
0.1158199060752384
 10
0.2295234178038699
 20
0.1149091365655689
  0
LWPOLYLINE
  5
7E7
330
2
100
AcDbEntity
  8
Profilo
  6
Continuous
370
     0
100
AcDbPolyline
 90
        4
 70
   128
 43
0.0
 10
0.2276098762205352
 20
0.1198273008461971
 10
0.2301612649983153
 20
0.1182789882155525
 10
0.2322570447602119
 20
0.1174592953134489
 10
0.2341705863435484
 20
0.1170039088416125
  0
LWPOLYLINE
  5
7E8
330
2
100
AcDbEntity
  8
Profilo
  6
Continuous
370
     0
100
AcDbPolyline
 90
        4
 70
   128
 43
0.0
 10
0.2318925629752984
 20
0.122559616243214
 10
0.2341705863435484
 20
0.121830996514673
 10
0.2364486097117966
 20
0.1210113036125694
 10
0.2376331822975108
 20
0.1202826873180335
  0
LWPOLYLINE
  5
7E9
330
2
100
AcDbEntity
  8
Profilo
  6
Continuous
370
     0
100
AcDbPolyline
 90
        4
 70
   128
 43
0.0
 10
0.234990671716554
 20
0.1254740848553627
 10
0.2368130914967119
 20
0.1247454651268235
 10
0.2386355112768699
 20
0.1240168488322876
 10
0.2399112056657608
 20
0.1233793091453176
  0
LWPOLYLINE
  5
7EA
330
2
100
AcDbEntity
  8
Profilo
  6
Continuous
370
     0
100
AcDbPolyline
 90
        8
 70
   128
 43
0.0
 10
0.2104334597440187
 20
0.1264281811713722
 10
0.2083654594310536
 20
0.1238046687015156
 10
0.2064565314724918
 20
0.1195116473597494
 10
0.2059792981259016
 20
0.1154571243419692
 10
0.2066156092546867
 20
0.1113231041721953
 10
0.2082859205399552
 20
0.1084610899443511
 10
0.2099562318252219
 20
0.1048040732905505
 10
0.2116265431104904
 20
0.1025780603166723
  0
LWPOLYLINE
  5
7EB
330
2
100
AcDbEntity
  8
Profilo
  6
Continuous
370
     0
100
AcDbPolyline
 90
        6
 70
   128
 43
0.0
 10
0.2055816036704117
 20
0.118001139659832
 10
0.20526344810602
 20
0.1130721136301002
 10
0.2062974536902951
 20
0.1090970946323168
 10
0.2075700705200718
 20
0.1069505822444338
 10
0.2090813040231436
 20
0.1032935655906332
 10
0.2105129986351153
 20
0.1001930496048032
  0
LWPOLYLINE
  5
7EC
330
2
100
AcDbEntity
  8
Profilo
  6
Continuous
370
     0
100
AcDbPolyline
 90
        4
 70
   128
 43
0.0
 10
0.2047862201872233
 20
0.1150596248459926
 10
0.2043885257317333
 20
0.1116411065161781
 10
0.2038317534940448
 20
0.107030082830429
 10
0.2033545255752498
 20
0.1048835738765476
  0
LWPOLYLINE
  5
7ED
330
2
100
AcDbEntity
  8
Profilo
  6
Continuous
370
     0
100
AcDbPolyline
 90
        2
 70
   128
 43
0.0
 10
0.2051839092149199
 20
0.1052810733725241
 10
0.2043885257317333
 20
0.1032140650046379
  0
LWPOLYLINE
  5
7EE
330
2
100
AcDbEntity
  8
Profilo
  6
Continuous
370
     0
100
AcDbPolyline
 90
       15
 70
   128
 43
0.0
 10
0.2406392247994604
 20
0.1097799665829363
 10
0.2400760694762043
 20
0.1080287765336049
 10
0.2392626277228727
 20
0.1080287765336049
 10
0.2393877709379095
 20
0.1068404675284146
 10
0.2386994723996147
 20
0.1052143644448943
 10
0.2374480185380638
 20
0.104526396434942
 10
0.2358211350314023
 20
0.1040260588737055
 10
0.2342568177044642
 20
0.1039635153908008
 10
0.2333182327360956
 20
0.1046514834007531
 10
0.2330679408782268
 20
0.1054019914596086
 10
0.2328176490203579
 20
0.1053394479767021
 10
0.2324422139474522
 20
0.1046514834007531
 10
0.2315036289790819
 20
0.1043387694202295
 10
0.2305650385829201
 20
0.1044013129031341
 10
0.2299393116521455
 20
0.104526396434942
  0
LWPOLYLINE
  5
7EF
330
2
100
AcDbEntity
  8
Profilo
  6
Continuous
370
     0
100
AcDbPolyline
 90
        2
 70
   128
 43
0.0
 10
0.2333808043436141
 20
0.1100301370805553
 10
0.2343819663472961
 20
0.10715318150894
  0
LWPOLYLINE
  5
7F0
330
2
100
AcDbEntity
  8
Profilo
  6
Continuous
370
     0
100
AcDbPolyline
 90
        2
 70
   128
 43
0.0
 10
0.2348199730277203
 20
0.1104679345928886
 10
0.2363842849268651
 20
0.1086542010606507
  0
CIRCLE
  5
7F1
330
2
100
AcDbEntity
  8
Profilo
  6
Continuous
370
     0
100
AcDbCircle
 10
0.2393139520684018
 20
0.1838416373847686
 30
0.0
 40
0.0012930064119471
  0
CIRCLE
  5
7F2
330
2
100
AcDbEntity
  8
Profilo
  6
Continuous
370
     0
100
AcDbCircle
 10
0.2420120922750681
 20
0.1830038791149832
 30
0.0
 40
0.0012134964856566
  0
CIRCLE
  5
7F3
330
2
100
AcDbEntity
  8
Profilo
  6
Continuous
370
     0
100
AcDbCircle
 10
0.2443380724883288
 20
0.181235281338655
 30
0.0
 40
0.0012134946426532
  0
CIRCLE
  5
7F4
330
2
100
AcDbEntity
  8
Profilo
  6
Continuous
370
     0
100
AcDbCircle
 10
0.2466640561355928
 20
0.1788150986216429
 30
0.0
 40
0.0013326491660038
  0
CIRCLE
  5
7F5
330
2
100
AcDbEntity
  8
Profilo
  6
Continuous
370
     0
100
AcDbCircle
 10
0.2480596483843518
 20
0.1753709843057422
 30
0.0
 40
0.0013834913201447
  0
CIRCLE
  5
7F6
330
2
100
AcDbEntity
  8
Profilo
  6
Continuous
370
     0
100
AcDbCircle
 10
0.2488039615031548
 20
0.1723922978848055
 30
0.0
 40
0.0013420312999048
  0
CIRCLE
  5
7F7
330
2
100
AcDbEntity
  8
Profilo
  6
Continuous
370
     0
100
AcDbCircle
 10
0.2488039615031548
 20
0.1692274381347655
 30
0.0
 40
0.0015003919248662
  0
CIRCLE
  5
7F8
330
2
100
AcDbEntity
  8
Profilo
  6
Continuous
370
     0
100
AcDbCircle
 10
0.2488970023600066
 20
0.1658764104834173
 30
0.0
 40
0.0013420312999048
  0
LWPOLYLINE
  5
7F9
330
2
100
AcDbEntity
  8
Profilo
  6
Continuous
370
     0
100
AcDbPolyline
 90
       17
 70
   128
 43
0.0
 10
0.2354062978926785
 20
0.1861687388650232
 10
0.2376392441170922
 20
0.1897059344176796
 10
0.2405234626034589
 20
0.1909160284900832
 10
0.2452684673208354
 20
0.190543692687465
 10
0.2493621963422592
 20
0.1882165912072104
 10
0.2517812208463732
 20
0.1857033218256475
 10
0.2540141636367854
 20
0.1827246299769175
 10
0.2558749498677952
 20
0.179466683562325
 10
0.2572705386825527
 20
0.1755571522070522
 10
0.2573635795394045
 20
0.1726715470228711
 10
0.2571775012597042
 20
0.1694136060360737
 10
0.2564331847068979
 20
0.1663418329505863
 10
0.2548515176124402
 20
0.1635493090031627
 10
0.2527116122448765
 20
0.1615945433255263
 10
0.2507577885910182
 20
0.1611291208583591
 10
0.2488970023600066
 20
0.1609429529570491
 10
0.247222294408697
 20
0.1615014566609755
  0
LWPOLYLINE
  5
7FA
330
2
100
AcDbEntity
  8
Profilo
  6
Continuous
370
     0
100
AcDbPolyline
 90
       27
 70
   128
 43
0.0
 10
0.2323360011266116
 20
0.1850517314571704
 10
0.2321499228469113
 20
0.1880304233059021
 10
0.2326151202631637
 20
0.1902644381216042
 10
0.2344759064941753
 20
0.1926846262664114
 10
0.2377322815399425
 20
0.1938947203388132
 10
0.242477286257319
 20
0.1938947203388132
 10
0.2460127804396384
 20
0.192963875404477
 10
0.2497343563356613
 20
0.1910091097268388
 10
0.2527116122448783
 20
0.1882165912072104
 10
0.2537350445002333
 20
0.187378832937425
 10
0.254944558469292
 20
0.1851448126939278
 10
0.2561540690043473
 20
0.1828177112136732
 10
0.257456616962253
 20
0.1802113605953547
 10
0.2582939709379095
 20
0.178349676154474
 10
0.2589452466338622
 20
0.1765810783781457
 10
0.2593174066272661
 20
0.1746263127005076
 10
0.2592243657704143
 20
0.172019962082189
 10
0.2591313249135625
 20
0.1693205193715229
 10
0.2584800526516113
 20
0.1660625783847273
 10
0.2578287769556569
 20
0.1638285635690234
 10
0.2565262255637497
 20
0.1615014566609755
 10
0.2541072044936372
 20
0.1589881872794127
 10
0.2522464148286241
 20
0.1581504344374206
 10
0.2499204346153634
 20
0.1578711798715616
 10
0.247222294408697
 20
0.1583366023387288
 10
0.2450823890411351
 20
0.1593605230820291
 10
0.243872878506078
 20
0.1603844492531245
  0
LWPOLYLINE
  5
7FB
330
2
100
AcDbEntity
  8
Profilo
  6
Continuous
370
     0
100
AcDbPolyline
 90
       71
 70
   128
 43
0.0
 10
0.2449893481842833
 20
0.1654109880162501
 10
0.2437798376492262
 20
0.1668072499899601
 10
0.2420120922750681
 20
0.1668072499899601
 10
0.2408025783060095
 20
0.1660625783847273
 10
0.2402443434669068
 20
0.1638285635690234
 10
0.2410816974425616
 20
0.1615945433255263
 10
0.2426633645370193
 20
0.1607567850557409
 10
0.2447102324817327
 20
0.1607567850557409
 10
0.2463849404330423
 20
0.1617807112268345
 10
0.247222294408697
 20
0.1633631411018544
 10
0.2474083726883991
 20
0.1649455709768744
 10
0.2471292535518452
 20
0.1664349141873437
 10
0.2461058212964902
 20
0.1681104307269145
 10
0.2444311133451806
 20
0.1688551023321491
 10
0.242477286257319
 20
0.1690412702334573
 10
0.2407095408831592
 20
0.1685758477662901
 10
0.239406989491252
 20
0.1674588403584373
 10
0.2381044380993431
 20
0.1651317388781827
 10
0.2380114006764946
 20
0.1631769732005462
 10
0.2380114006764946
 20
0.1604775359176752
 10
0.2390348329318497
 20
0.1576850119702516
 10
0.2409886565857098
 20
0.1551717425886906
 10
0.2437798376492262
 20
0.1532169769110524
 10
0.2467796515191958
 20
0.1511589365998048
 10
0.2491056351664598
 20
0.1496695933893374
 10
0.2523620136462286
 20
0.1484594993169338
 10
0.2557114295488476
 20
0.1482733314156256
 10
0.2580374097621101
 20
0.1479940822775582
 10
0.261758985658133
 20
0.1479940822775582
 10
0.2648292824242
 20
0.1484594993169338
 10
0.2668761469349119
 20
0.1489249217841028
 10
0.2685508548862214
 20
0.1504142649945702
 10
0.2686438923090699
 20
0.1510658553630474
 10
0.2677135009105649
 20
0.1526482852380674
 10
0.2686438923090699
 20
0.1526482852380674
 10
0.2704116411172313
 20
0.153858379310471
 10
0.2709698759563339
 20
0.1551615546196302
 10
0.2710629168131857
 20
0.156557816593342
 10
0.2691090897253223
 20
0.1575817427644356
 10
0.2684578140293696
 20
0.1575817427644356
 10
0.2703186002603795
 20
0.1577679106657456
 10
0.271248995092886
 20
0.1591641672116623
 10
0.271248995092886
 20
0.1606535158499248
 10
0.270225562837531
 20
0.1609327649879905
 10
0.2704116411172313
 20
0.1615843553564676
 10
0.2715281142294381
 20
0.1627944494288712
 10
0.2715281142294381
 20
0.164004543501273
 10
0.2715281142294381
 20
0.1654938867117422
 10
0.2700394845578289
 20
0.1660523904156669
 10
0.2688299740227735
 20
0.1658662225143587
 10
0.267155266071464
 20
0.1649353830078159
 10
0.2674343817740128
 20
0.1660523904156669
 10
0.2675274226308646
 20
0.1673555711526212
 10
0.266597027798358
 20
0.1676348202906869
 10
0.2650153607039003
 20
0.1676348202906869
 10
0.2634336901754393
 20
0.1667970620209015
 10
0.2624102579200842
 20
0.1657731412776012
 10
0.2618520230809815
 20
0.1649353830078159
 10
0.2609216316824783
 20
0.1647492151065076
 10
0.2604564342662241
 20
0.1650284642445733
 10
0.2608285908256265
 20
0.1662385583169769
 10
0.2618520230809815
 20
0.1668901486854523
 10
0.2630615336160387
 20
0.1676348202906869
 10
0.2628754553363384
 20
0.1684725785604723
 10
0.2633406527525908
 20
0.1690310822643987
 10
0.2644571258647976
 20
0.1700550084354923
 10
0.2642710441510958
 20
0.1706135121394187
 10
0.2635267310322911
 20
0.1710789291787925
 10
0.2633406527525908
 20
0.1715443516459615
 10
0.261758985658133
 20
0.1728475269551207
 10
0.2600842777068235
 20
0.1728475269551207
  0
LWPOLYLINE
  5
7FC
330
2
100
AcDbEntity
  8
Profilo
  6
Continuous
370
     0
100
AcDbPolyline
 90
       95
 70
   128
 43
0.0
 10
0.259433002010869
 20
0.1755469696657869
 10
0.2619450639378333
 20
0.1744299568301407
 10
0.2633406527525908
 20
0.1732198681855322
 10
0.2653875172633027
 20
0.1720097741131287
 10
0.2687369331659217
 20
0.1717305195472697
 10
0.2699464437009789
 20
0.1720097741131287
 10
0.2698534062781286
 20
0.1731267815209815
 10
0.2696673279984283
 20
0.1747092113960015
 10
0.268923011445622
 20
0.1757331375670951
 10
0.2678065417674167
 20
0.1757331375670951
 10
0.2673413443511643
 20
0.1757331375670951
 10
0.2674343817740128
 20
0.1775017353434233
 10
0.2667831060780601
 20
0.1783394881854153
 10
0.2651083981267506
 20
0.1783394881854153
 10
0.2636197718891429
 20
0.1783394881854153
 10
0.2618520230809815
 20
0.1787118239880335
 10
0.2598981959931199
 20
0.1802942538630517
 10
0.2585026071783625
 20
0.1825282741065489
 10
0.2573861375001589
 20
0.1846692076854953
 10
0.2572930966433071
 20
0.18681014126444
 10
0.2585026071783625
 20
0.18839257113946
 10
0.259433002010869
 20
0.18997500101448
 10
0.2591538828743169
 20
0.191278176323641
 10
0.2582234880418104
 20
0.1913712629881917
 10
0.2577582940595595
 20
0.1913712629881917
 10
0.2585026071783625
 20
0.1919297666921164
 10
0.259339961154019
 20
0.1919297666921164
 10
0.2598051585702714
 20
0.192395183731492
 10
0.2598051585702714
 20
0.194256868172371
 10
0.2587817263149146
 20
0.1943499494091284
 10
0.2580374097621101
 20
0.1944430360736792
 10
0.2588747637377649
 20
0.1954669622447746
 10
0.2586886854580646
 20
0.196956305455242
 10
0.2576652532027077
 20
0.1977940637250292
 10
0.25608358610825
 20
0.1981663995276456
 10
0.2552462321325952
 20
0.1968632242184846
 10
0.2538506398838363
 20
0.195560043481532
 10
0.2533854459015854
 20
0.1938845323697545
 10
0.2532924050447336
 20
0.192395183731492
 10
0.2519898536528264
 20
0.1931398607645199
 10
0.2525480919259306
 20
0.1947222852117448
 10
0.2512455405340217
 20
0.1956531301460828
 10
0.2502221082786666
 20
0.1951877076789138
 10
0.2498499517192643
 20
0.1949084585408482
 10
0.2490125977436095
 20
0.1952807943434664
 10
0.2464074949597934
 20
0.1949084585408482
 10
0.2451979844247381
 20
0.1949084585408482
 10
0.244918865288186
 20
0.1952807943434664
 10
0.245011906145036
 20
0.196025465948701
 10
0.2457562192638407
 20
0.1963978017513156
 10
0.2467796515191958
 20
0.1963047150867666
 10
0.2481752437679547
 20
0.1963047150867666
 10
0.2495708325827122
 20
0.1963047150867666
 10
0.2507803431177693
 20
0.1973286412578602
 10
0.2511524996771699
 20
0.1988179898961227
 10
0.2507803431177693
 20
0.2002142464420395
 10
0.2495708325827122
 20
0.2004935010079002
 10
0.2505012274152187
 20
0.2008658368105166
 10
0.2517107379502759
 20
0.2013312592776838
 10
0.2524550510690788
 20
0.2024482666855366
 10
0.2523620136462286
 20
0.2041237777973141
 10
0.2513385813908735
 20
0.2050546227316502
 10
0.2495708325827122
 20
0.204868454830342
 10
0.2470507247884865
 20
0.2043182827899773
 10
0.24612032995598
 20
0.2036666924215019
 10
0.2455620951168773
 20
0.2020842625464819
 10
0.2442595437249684
 20
0.2016188455071063
 10
0.2401658147035464
 20
0.1998502477307781
 10
0.2369094362237758
 20
0.1983608990925155
 10
0.234304336873963
 20
0.1960337976122627
 10
0.2322574723632511
 20
0.1938928640333163
 10
0.2308618801144922
 20
0.191286513414996
 10
0.2301175669956892
 20
0.1877493178623396
 10
0.2299314887159889
 20
0.1840259544083732
 10
0.2301175669956892
 20
0.1808610946583332
 10
0.2307688426916419
 20
0.1793717514478658
 10
0.2321644315063993
 20
0.1787201610793886
 10
0.2336530611780085
 20
0.1787201610793886
 10
0.2340252177374109
 20
0.1789994102174543
 10
0.2329087446252041
 20
0.179092496882005
 10
0.2318853123698472
 20
0.1798371684872396
 10
0.2312340366738945
 20
0.1823504378688025
 10
0.2315807266726393
 20
0.1840167488700008
 10
0.2326084754688187
 20
0.1850771226768074
 10
0.2348625717130657
 20
0.1856083842833932
 10
0.2368158115865435
 20
0.1851735202956085
 10
0.2378398310562824
 20
0.1840259544083732
 10
0.2387702224547874
 20
0.1818850208294286
 10
0.2389563007344877
 20
0.1798371684872396
 10
0.2381189467588329
 20
0.1783478252767704
 10
0.2368163988009273
 20
0.177230812441126
 10
0.2354208065521666
 20
0.1762068916978258
 10
0.2332809046186079
 20
0.1757414692306568
 10
0.2311409992510442
 20
0.1764861408358914
 10
0.2297454104362868
 20
0.1783478252767704
  0
LWPOLYLINE
  5
7FD
330
2
100
AcDbEntity
  8
Profilo
  6
Continuous
370
     0
100
AcDbPolyline
 90
       17
 70
   128
 43
0.0
 10
0.2398106324172458
 20
0.1814474375169229
 10
0.2425319006290374
 20
0.1805741543363805
 10
0.2440208977388865
 20
0.179495396591799
 10
0.245304514042411
 20
0.1775947297354786
 10
0.2460746851981257
 20
0.1761050174350295
 10
0.2463314077720307
 20
0.1747694164854007
 10
0.2466908207490979
 20
0.1729201182700905
 10
0.2466908207490979
 20
0.1713276686876192
 10
0.2465367851443536
 20
0.1699406936691886
 10
0.2462287173688684
 20
0.1692215218394682
 10
0.2449964462669258
 20
0.1699920623101988
 10
0.2445343428866964
 20
0.1711735573367971
 10
0.243866862134144
 20
0.1729714869110989
 10
0.2434047621879161
 20
0.1748721537674193
 10
0.2420697972488079
 20
0.1766187147007109
 10
0.2405294583713802
 20
0.1773378865304313
 10
0.2387837386876261
 20
0.178159795642172
  0
CIRCLE
  5
7FE
330
2
100
AcDbEntity
  8
Profilo
  6
Continuous
370
     0
100
AcDbCircle
 10
0.2386810482844639
 20
0.1729201182700905
 30
0.0
 40
0.0042305624312063
  0
LWPOLYLINE
  5
7FF
330
2
100
AcDbEntity
  8
Profilo
  6
Continuous
370
     0
100
AcDbPolyline
 90
        3
 70
   128
 43
0.0
 10
0.2402866194685556
 20
0.1861968114148208
 10
0.244161087446576
 20
0.187036681096416
 10
0.2484230035959969
 20
0.1869720740662032
  0
LWPOLYLINE
  5
800
330
2
100
AcDbEntity
  8
Profilo
  6
Continuous
370
     0
100
AcDbPolyline
 90
        4
 70
   128
 43
0.0
 10
0.2439027886656395
 20
0.1829665304654909
 10
0.2473898119062594
 20
0.1831603461283361
 10
0.250037369259841
 20
0.1831603461283361
 10
0.2527494961576548
 20
0.1827081077724329
  0
LWPOLYLINE
  5
801
330
2
100
AcDbEntity
  8
Profilo
  6
Continuous
370
     0
100
AcDbPolyline
 90
        4
 70
   128
 43
0.0
 10
0.2482938576395328
 20
0.1788317728043548
 10
0.2506831127781781
 20
0.1787025641717225
 10
0.2528786455481222
 20
0.1780565101529724
 10
0.2555907758799376
 20
0.1770874264109533
  0
LWPOLYLINE
  5
802
330
2
100
AcDbEntity
  8
Profilo
  6
Continuous
370
     0
100
AcDbPolyline
 90
        4
 70
   128
 43
0.0
 10
0.2497144940666709
 20
0.1743739908477394
 10
0.2524911973767201
 20
0.1735987227685655
 10
0.2546867335806657
 20
0.1726296390265446
 10
0.2564948181792077
 20
0.1715313466518932
  0
LWPOLYLINE
  5
803
330
2
100
AcDbEntity
  8
Profilo
  6
Continuous
370
     0
100
AcDbPolyline
 90
        3
 70
   128
 43
0.0
 10
0.2508768351468775
 20
0.1688825181188921
 10
0.2533952431099917
 20
0.1674611960209699
 10
0.2548158795371316
 20
0.1664275052487362
  0
LWPOLYLINE
  5
804
330
2
100
AcDbEntity
  8
Profilo
  6
Continuous
370
     0
100
AcDbPolyline
 90
        4
 70
   128
 43
0.0
 10
0.2506825049597798
 20
0.1661076996350136
 10
0.2532326637076598
 20
0.1684768448064385
 10
0.2552363628101408
 20
0.170845989977867
 10
0.2565114421840808
 20
0.1726684043302317
  0
LWPOLYLINE
  5
805
330
2
100
AcDbEntity
  8
Profilo
  6
Continuous
370
     0
100
AcDbPolyline
 90
        4
 70
   128
 43
0.0
 10
0.2505914283522121
 20
0.1717571971540493
 10
0.2521397375488534
 20
0.1737618605405625
 10
0.2535058969643626
 20
0.1763132438905494
 10
0.2544166664740339
 20
0.1786823890619761
  0
LWPOLYLINE
  5
806
330
2
100
AcDbEntity
  8
Profilo
  6
Continuous
370
     0
100
AcDbPolyline
 90
        4
 70
   128
 43
0.0
 10
0.2494985021934057
 20
0.1767688474786414
 10
0.2510468148240486
 20
0.1793202362564216
 10
0.2518665077261539
 20
0.1814160160183164
 10
0.2523218941979903
 20
0.1833295576016528
  0
LWPOLYLINE
  5
807
330
2
100
AcDbEntity
  8
Profilo
  6
Continuous
370
     0
100
AcDbPolyline
 90
        4
 70
   128
 43
0.0
 10
0.2467661867963888
 20
0.1810515342334028
 10
0.2474948065249281
 20
0.1833295576016528
 10
0.2483144994270334
 20
0.1856075809699028
 10
0.2490431157215693
 20
0.1867921535556171
  0
LWPOLYLINE
  5
808
330
2
100
AcDbEntity
  8
Profilo
  6
Continuous
370
     0
100
AcDbPolyline
 90
        4
 70
   128
 43
0.0
 10
0.2438517181842383
 20
0.1841496429746584
 10
0.2445803379127776
 20
0.1859720627548182
 10
0.2453089542073152
 20
0.1877944825349761
 10
0.2459464938942852
 20
0.1890701769238671
  0
LWPOLYLINE
  5
809
330
2
100
AcDbEntity
  8
Profilo
  6
Continuous
370
     0
100
AcDbPolyline
 90
        8
 70
   128
 43
0.0
 10
0.2428976218682306
 20
0.1595924310021232
 10
0.2455211343380872
 20
0.1575244306891598
 10
0.2498141556798534
 20
0.1556155027305962
 10
0.2538686786976336
 20
0.1551382693840079
 10
0.2580026988674076
 20
0.1557745805127929
 10
0.2608647130952517
 20
0.1574448917980614
 10
0.2645217297490505
 20
0.1591152030833282
 10
0.2667477427229306
 20
0.1607855143685967
  0
LWPOLYLINE
  5
80A
330
2
100
AcDbEntity
  8
Profilo
  6
Continuous
370
     0
100
AcDbPolyline
 90
        6
 70
   128
 43
0.0
 10
0.2513246633797708
 20
0.1547405749285179
 10
0.2562536894095027
 20
0.1544224193641245
 10
0.2602287084072843
 20
0.1554564249484013
 10
0.2623752207951691
 20
0.1567290417781762
 10
0.2660322374489679
 20
0.1582402752812481
 10
0.2691327534347996
 20
0.1596719698932215
  0
LWPOLYLINE
  5
80B
330
2
100
AcDbEntity
  8
Profilo
  6
Continuous
370
     0
100
AcDbPolyline
 90
        4
 70
   128
 43
0.0
 10
0.2542661781936102
 20
0.1539451914453295
 10
0.2576846965234247
 20
0.1535474969898395
 10
0.2622957202091738
 20
0.152990724752151
 10
0.2644422291630553
 20
0.152513496833356
  0
LWPOLYLINE
  5
80C
330
2
100
AcDbEntity
  8
Profilo
  6
Continuous
370
     0
100
AcDbPolyline
 90
        2
 70
   128
 43
0.0
 10
0.2640447296670787
 20
0.1543428804730261
 10
0.2661117380349649
 20
0.1535474969898395
  0
LWPOLYLINE
  5
80D
330
2
100
AcDbEntity
  8
Profilo
  6
Continuous
370
     0
100
AcDbPolyline
 90
       15
 70
   128
 43
0.0
 10
0.2595458364566665
 20
0.1897981960575649
 10
0.2612970265059979
 20
0.1892350407343088
 10
0.2612970265059979
 20
0.1884215989809771
 10
0.2624853355111882
 20
0.1885467421960158
 10
0.2641114385947085
 20
0.187858443657721
 10
0.2647994066046608
 20
0.1866069897961701
 10
0.2652997441658955
 20
0.1849801062895068
 10
0.265362287648802
 20
0.1834157889625704
 10
0.2646743196388497
 20
0.1824772039942019
 10
0.2639238115799942
 20
0.182226912136333
 10
0.2639863550629007
 20
0.1819766202784624
 10
0.2646743196388497
 20
0.1816011852055584
 10
0.2649870336193734
 20
0.1806626002371882
 10
0.2649244901364687
 20
0.1797240098410263
 10
0.2647994066046608
 20
0.1790982829102518
  0
LWPOLYLINE
  5
80E
330
2
100
AcDbEntity
  8
Profilo
  6
Continuous
370
     0
100
AcDbPolyline
 90
        2
 70
   128
 43
0.0
 10
0.2592956659590475
 20
0.1825397756017203
 10
0.2621726215306628
 20
0.1835409376054006
  0
LWPOLYLINE
  5
80F
330
2
100
AcDbEntity
  8
Profilo
  6
Continuous
370
     0
100
AcDbPolyline
 90
        2
 70
   128
 43
0.0
 10
0.2588578684467142
 20
0.1839789442858265
 10
0.2606716019789521
 20
0.1855432561849714
  0
LWPOLYLINE
  5
810
330
2
100
AcDbEntity
  8
Profilo
  6
Continuous
370
     0
100
AcDbPolyline
 90
       26
 70
   128
 43
0.0
 10
0.2210109544288075
 20
0.2160098851445142
 10
0.2222204460160932
 20
0.2185140591683194
 10
0.2235163317981106
 20
0.2185140591683194
 10
0.2246394346184581
 20
0.2177368998180341
 10
0.2253305718929359
 20
0.2181686534864141
 10
0.2261944921290853
 20
0.2184277077478431
 10
0.2282679093803119
 20
0.2184277077478431
 10
0.2298229723187342
 20
0.2180823054999393
 10
0.2319827783369026
 20
0.2173051461496541
 10
0.2336242354700546
 20
0.2161825879854667
 10
0.233969801393396
 20
0.2149736749668015
 10
0.2347473328626071
 20
0.2142828704709941
 10
0.2368207501138355
 20
0.2143692218914704
 10
0.2382894188575244
 20
0.2137647653821378
 10
0.2383758076244626
 20
0.2121240986950926
 10
0.238462201819196
 20
0.2105697868625253
 10
0.2387213789755991
 20
0.2102243846146216
 10
0.2397580876012133
 20
0.2099653303531926
 10
0.2413995393065738
 20
0.2095335766848126
 10
0.2413995393065738
 20
0.2071157540814838
 10
0.2406220078373626
 20
0.2053023879874875
 10
0.2410539733832306
 20
0.2046115834916801
 10
0.242436247932188
 20
0.2045252320712038
 10
0.24416409383228
 20
0.2045252320712038
 10
0.2451144082631609
 20
0.2040071269823475
 10
0.2457191567707004
 20
0.2035753733139675
  0
LWPOLYLINE
  5
811
330
2
100
AcDbEntity
  8
Profilo
  6
Continuous
370
     0
100
AcDbPolyline
 90
        6
 70
   128
 43
0.0
 10
0.219887857036255
 20
0.196667311185886
 10
0.2222204460160932
 20
0.1997759382850223
 10
0.2239482919161853
 20
0.2034026704730131
 10
0.2260217091674137
 20
0.207547507749862
 10
0.2269720235982964
 20
0.2104834354420489
 10
0.2281815151855804
 20
0.2138511168026141
  0
LWPOLYLINE
  5
812
330
2
100
AcDbEntity
  8
Profilo
  6
Continuous
370
     0
100
AcDbPolyline
 90
        7
 70
   128
 43
0.0
 10
0.2252441776982026
 20
0.1874277778749519
 10
0.225157783503471
 20
0.1922634196476082
 10
0.2254169606598741
 20
0.1977898693500734
 10
0.2264536692854884
 20
0.2036617247344438
 10
0.2277495550675057
 20
0.2082383156796727
 10
0.2289590466547915
 20
0.2113469427788089
 10
0.229563795162331
 20
0.2129876094658542
  0
LWPOLYLINE
  5
813
330
2
100
AcDbEntity
  8
Profilo
  6
Continuous
370
     0
100
AcDbPolyline
 90
        6
 70
   128
 43
0.0
 10
0.2255033548546075
 20
0.2173051461496541
 10
0.2267128464418915
 20
0.2153190772147052
 10
0.2280087322239106
 20
0.2144555698779452
 10
0.2298229723187342
 20
0.2135920625411853
 10
0.2313780352571546
 20
0.2135920625411853
 10
0.2331058811572466
 20
0.2143692218914704
  0
LWPOLYLINE
  5
814
330
2
100
AcDbEntity
  8
Profilo
  6
Continuous
370
     0
100
AcDbPolyline
 90
       18
 70
   128
 43
0.0
 10
0.226108103362147
 20
0.1928678761569408
 10
0.2268856348313564
 20
0.1954584016012223
 10
0.2285270865367168
 20
0.1989124309482623
 10
0.2297527963720307
 20
0.2023349224186756
 10
0.2312052468676897
 20
0.2028845653841568
 10
0.2321982454694191
 20
0.2020666478612142
 10
0.2329330927677817
 20
0.2005530976353075
 10
0.2335378412753213
 20
0.2020210580473986
 10
0.2337106242369928
 20
0.2039207755618712
 10
0.2337106242369928
 20
0.2056477902353912
 10
0.234488155706204
 20
0.2072884569224364
 10
0.2353520813701466
 20
0.207892913431769
 10
0.236216001606296
 20
0.207892913431769
 10
0.2365615729574324
 20
0.2071157540814838
 10
0.2365615729574324
 20
0.2082383156796727
 10
0.236734355919104
 20
0.2093608738438601
 10
0.2375118873883133
 20
0.2102243846146216
 10
0.2381166358958529
 20
0.2103970840215726
  0
LWPOLYLINE
  5
815
330
2
100
AcDbEntity
  8
Profilo
  6
Continuous
370
     0
100
AcDbPolyline
 90
        2
 70
   128
 43
0.0
 10
0.2369071388807737
 20
0.2020210580473986
 10
0.2380302417011213
 20
0.2072021055019601
  0
LWPOLYLINE
  5
816
330
2
100
AcDbEntity
  8
Profilo
  6
Continuous
370
     0
100
AcDbPolyline
 90
        3
 70
   128
 43
0.0
 10
0.2377710645447182
 20
0.2027118659772075
 10
0.2382894188575244
 20
0.2045252320712038
 10
0.2387213789755991
 20
0.2070294026610075
  0
LWPOLYLINE
  5
817
330
2
100
AcDbEntity
  8
Profilo
  6
Continuous
370
     0
100
AcDbPolyline
 90
       26
 70
   128
 43
0.0
 10
0.1533159178950887
 20
0.1701699256869137
 10
0.1508117438712835
 20
0.1713794172741995
 10
0.1508117438712835
 20
0.1726753030562168
 10
0.1515889032215687
 20
0.1737984058765626
 10
0.1511571495531887
 20
0.1744895431510404
 10
0.1508980952917598
 20
0.1753534633871897
 10
0.1508980952917598
 20
0.1774268806384182
 10
0.1512434975396635
 20
0.1789819435768404
 10
0.1520206568899487
 20
0.1811417495950071
 10
0.1531432150541361
 20
0.1827832067281608
 10
0.1543521280728013
 20
0.1831287726515022
 10
0.1550429325686087
 20
0.1839063041207133
 10
0.1549565811481324
 20
0.1859797213719417
 10
0.155561037657465
 20
0.1874483901156306
 10
0.1572017043445102
 20
0.1875347788825689
 10
0.1587560161770776
 20
0.1876211730773022
 10
0.1591014184249813
 20
0.1878803502337053
 10
0.1593604726864102
 20
0.1889170588593195
 10
0.1597922263547902
 20
0.19055851056468
 10
0.1622100489581191
 20
0.19055851056468
 10
0.1640234150521154
 20
0.1897809790954671
 10
0.1647142195479228
 20
0.1902129446413369
 10
0.1648005709683991
 20
0.1915952191902942
 10
0.1648005709683991
 20
0.1933230650903844
 10
0.1653186760572554
 20
0.1942733795212671
 10
0.1657504297256354
 20
0.1948781280288067
  0
LWPOLYLINE
  5
818
330
2
100
AcDbEntity
  8
Profilo
  6
Continuous
370
     0
100
AcDbPolyline
 90
        6
 70
   128
 43
0.0
 10
0.1726584918537168
 20
0.1690468282943612
 10
0.1695498647545806
 20
0.1713794172741995
 10
0.165923132566588
 20
0.1731072631742915
 10
0.1617782952897391
 20
0.1751806804255199
 10
0.1588423675975539
 20
0.1761309948564008
 10
0.1554746862369887
 20
0.1773404864436866
  0
LWPOLYLINE
  5
819
330
2
100
AcDbEntity
  8
Profilo
  6
Continuous
370
     0
100
AcDbPolyline
 90
        7
 70
   128
 43
0.0
 10
0.1818980251646509
 20
0.1744031489563088
 10
0.1770623833919946
 20
0.1743167547615755
 10
0.1715359336895295
 20
0.1745759319179804
 10
0.1656640783051591
 20
0.1756126405435946
 10
0.1610874873599302
 20
0.1769085263256119
 10
0.1579788602607939
 20
0.1781180179128977
 10
0.1563381935737487
 20
0.1787227664204373
  0
LWPOLYLINE
  5
81A
330
2
100
AcDbEntity
  8
Profilo
  6
Continuous
370
     0
100
AcDbPolyline
 90
        6
 70
   128
 43
0.0
 10
0.1520206568899487
 20
0.1746623261127119
 10
0.1540067258248976
 20
0.1758718176999977
 10
0.1548702331616576
 20
0.1771677034820151
 10
0.1557337404984176
 20
0.1789819435768404
 10
0.1557337404984176
 20
0.1805370065152608
 10
0.1549565811481324
 20
0.1822648524153528
  0
LWPOLYLINE
  5
81B
330
2
100
AcDbEntity
  8
Profilo
  6
Continuous
370
     0
100
AcDbPolyline
 90
       18
 70
   128
 43
0.0
 10
0.176457926882662
 20
0.1752670746202515
 10
0.1738674014383805
 20
0.1760446060894626
 10
0.1704133720913405
 20
0.1776860577948231
 10
0.1669908806209273
 20
0.1789117676301352
 10
0.1664412376554443
 20
0.180364218125796
 10
0.1672591551783868
 20
0.1813572167275254
 10
0.1687727054042953
 20
0.1820920640258879
 10
0.1673047449922043
 20
0.1826968125334275
 10
0.1654050274777317
 20
0.1828695954950991
 10
0.1636780128042117
 20
0.1828695954950991
 10
0.1620373461171665
 20
0.1836471269643102
 10
0.1614328896078339
 20
0.1845110526282529
 10
0.1614328896078339
 20
0.1853749728644022
 10
0.1622100489581191
 20
0.1857205442155386
 10
0.1610874873599302
 20
0.1857205442155386
 10
0.1599649291957428
 20
0.1858933271772102
 10
0.1591014184249813
 20
0.1866708586464195
 10
0.1589287190180302
 20
0.1872756071539591
  0
LWPOLYLINE
  5
81C
330
2
100
AcDbEntity
  8
Profilo
  6
Continuous
370
     0
100
AcDbPolyline
 90
        2
 70
   128
 43
0.0
 10
0.1673047449922043
 20
0.18606611013888
 10
0.1621236975376428
 20
0.1871892129592275
  0
LWPOLYLINE
  5
81D
330
2
100
AcDbEntity
  8
Profilo
  6
Continuous
370
     0
100
AcDbPolyline
 90
        3
 70
   128
 43
0.0
 10
0.1666139370623954
 20
0.1869300358028244
 10
0.1648005709683991
 20
0.1874483901156306
 10
0.1622964003785954
 20
0.1878803502337053
  0
LWPOLYLINE
  5
81E
330
2
100
AcDbEntity
  8
Profilo
  6
Continuous
370
     0
100
AcDbPolyline
 90
       26
 70
   128
 43
0.0
 10
0.1991558773526891
 20
0.1024748891531949
 10
0.1979463857654033
 20
0.0999707151293897
 10
0.196650499983386
 20
0.0999707151293897
 10
0.1955273971630385
 20
0.1007478744796749
 10
0.1948362598885625
 20
0.1003161208112949
 10
0.1939723396524131
 20
0.100057066549866
 10
0.1918989224011847
 20
0.100057066549866
 10
0.1903438594627624
 20
0.1004024687977697
 10
0.1881840534445958
 20
0.1011796281480549
 10
0.186542596311442
 20
0.1023021863122423
 10
0.1861970303881006
 20
0.1035110993309075
 10
0.1854194989188895
 20
0.1042019038267149
 10
0.1833460816676611
 20
0.1041155524062386
 10
0.1818774129239722
 20
0.1047200089155712
 10
0.181791024157034
 20
0.1063606756026164
 10
0.1817046299623006
 20
0.1079149874351838
 10
0.1814454528058975
 20
0.1082603896830875
 10
0.1804087441802833
 20
0.1085194439445164
 10
0.1787672924749228
 20
0.1089511976128964
 10
0.1787672924749228
 20
0.1113690202162253
 10
0.179544823944134
 20
0.1131823863102216
 10
0.179112858398266
 20
0.113873190806029
 10
0.1777305838493086
 20
0.1139595422265053
 10
0.1760027379492166
 20
0.1139595422265053
 10
0.1750524235183357
 20
0.1144776473153616
 10
0.1744476750107962
 20
0.1149094009837416
  0
LWPOLYLINE
  5
81F
330
2
100
AcDbEntity
  8
Profilo
  6
Continuous
370
     0
100
AcDbPolyline
 90
        6
 70
   128
 43
0.0
 10
0.2002789747452416
 20
0.1218174631118231
 10
0.1979463857654033
 20
0.1187088360126868
 10
0.1962185398653113
 20
0.1150821038246942
 10
0.1941451226140829
 20
0.1109372665478453
 10
0.1931948081832002
 20
0.1080013388556601
 10
0.1919853165959162
 20
0.1046336574950949
  0
LWPOLYLINE
  5
820
330
2
100
AcDbEntity
  8
Profilo
  6
Continuous
370
     0
100
AcDbPolyline
 90
        7
 70
   128
 43
0.0
 10
0.194922654083294
 20
0.1310569964227571
 10
0.1950090482780273
 20
0.1262213546501009
 10
0.1947498711216224
 20
0.1206949049476357
 10
0.1937131624960082
 20
0.1148230495632653
 10
0.1924172767139909
 20
0.1102464586180364
 10
0.1912077851267051
 20
0.1071378315189001
 10
0.1906030366191656
 20
0.1054971648318549
  0
LWPOLYLINE
  5
821
330
2
100
AcDbEntity
  8
Profilo
  6
Continuous
370
     0
100
AcDbPolyline
 90
        6
 70
   128
 43
0.0
 10
0.1946634769268891
 20
0.1011796281480549
 10
0.1934539853396051
 20
0.1031656970830038
 10
0.192158099557586
 20
0.1040292044197638
 10
0.1903438594627624
 20
0.1048927117565238
 10
0.188788796524342
 20
0.1048927117565238
 10
0.18706095062425
 20
0.1041155524062386
  0
LWPOLYLINE
  5
822
330
2
100
AcDbEntity
  8
Profilo
  6
Continuous
370
     0
100
AcDbPolyline
 90
       18
 70
   128
 43
0.0
 10
0.1940587284193496
 20
0.1256168981407683
 10
0.1932811969501402
 20
0.123026372696485
 10
0.1916397452447798
 20
0.1195723433494468
 10
0.1904140354094677
 20
0.1161498518790335
 10
0.1889615849138069
 20
0.1156002089135505
 10
0.1879685863120775
 20
0.1164181264364931
 10
0.1872337390137149
 20
0.1179316766624016
 10
0.1866289905061753
 20
0.1164637162503105
 10
0.1864562075445038
 20
0.1145639987358379
 10
0.1864562075445038
 20
0.1128369840623179
 10
0.1856786760752926
 20
0.1111963173752727
 10
0.18481475041135
 20
0.1105918608659383
 10
0.1839508301752006
 20
0.1105918608659383
 10
0.1836052588240642
 20
0.1113690202162253
 10
0.1836052588240642
 20
0.1102464586180364
 10
0.1834324758623926
 20
0.109123900453849
 10
0.1826549443931833
 20
0.1082603896830875
 10
0.1820501958856437
 20
0.1080876902761364
  0
LWPOLYLINE
  5
823
330
2
100
AcDbEntity
  8
Profilo
  6
Continuous
370
     0
100
AcDbPolyline
 90
        2
 70
   128
 43
0.0
 10
0.1832596929007229
 20
0.1164637162503105
 10
0.1821365900803753
 20
0.111282668795749
  0
LWPOLYLINE
  5
824
330
2
100
AcDbEntity
  8
Profilo
  6
Continuous
370
     0
100
AcDbPolyline
 90
        3
 70
   128
 43
0.0
 10
0.1823957672367784
 20
0.1157729083205016
 10
0.1818774129239722
 20
0.1139595422265053
 10
0.1814454528058975
 20
0.1114553716367016
  0
LWPOLYLINE
  5
825
330
2
100
AcDbEntity
  8
Profilo
  6
Continuous
370
     0
100
AcDbPolyline
 90
       26
 70
   128
 43
0.0
 10
0.2668509138864079
 20
0.1483148486107953
 10
0.2693550879102131
 20
0.1471053570235096
 10
0.2693550879102131
 20
0.1458094712414922
 10
0.2685779285599279
 20
0.1446863684211447
 10
0.2690096822283079
 20
0.1439952311466669
 10
0.2692687364897368
 20
0.1431313109105176
 10
0.2692687364897368
 20
0.1410578936592891
 10
0.2689233342418331
 20
0.1395028307208687
 10
0.2681461748915479
 20
0.1373430247027002
 10
0.2670236167273605
 20
0.1357015675695482
 10
0.2658147037086953
 20
0.1353560016462051
 10
0.2651238992128879
 20
0.134578470176994
 10
0.2652102506333642
 20
0.1325050529257655
 10
0.2646057941240316
 20
0.1310363841820766
 10
0.2629651274369864
 20
0.1309499954151384
 10
0.261410815604419
 20
0.1308636012204068
 10
0.2610654133565153
 20
0.130604424064002
 10
0.2608063590950864
 20
0.1295677154383877
 10
0.2603746054267064
 20
0.1279262637330291
 10
0.2579567828233775
 20
0.1279262637330291
 10
0.2561434167293812
 20
0.1287037952022402
 10
0.2554526122335738
 20
0.1282718296563704
 10
0.2553662608130975
 20
0.1268895551074148
 10
0.2553662608130975
 20
0.1251617092073228
 10
0.2548481557242412
 20
0.1242113947764419
 10
0.2544164020558612
 20
0.1236066462689024
  0
LWPOLYLINE
  5
826
330
2
100
AcDbEntity
  8
Profilo
  6
Continuous
370
     0
100
AcDbPolyline
 90
        6
 70
   128
 43
0.0
 10
0.2475083399277798
 20
0.1494379460033478
 10
0.250616967026916
 20
0.1471053570235096
 10
0.2542436992149086
 20
0.1453775111234176
 10
0.2583885364917575
 20
0.1433040938721891
 10
0.2613244641839427
 20
0.1423537794413064
 10
0.2646921455445079
 20
0.1411442878540224
  0
LWPOLYLINE
  5
827
330
2
100
AcDbEntity
  8
Profilo
  6
Continuous
370
     0
100
AcDbPolyline
 90
        7
 70
   128
 43
0.0
 10
0.2382688066168457
 20
0.1440816253414002
 10
0.243104448389502
 20
0.1441680195361318
 10
0.2486308980919671
 20
0.1439088423797287
 10
0.2545027534763375
 20
0.1428721337541144
 10
0.2590793444215664
 20
0.1415762479720971
 10
0.2621879715207027
 20
0.1403667563848113
 10
0.2638286382077479
 20
0.1397620078772718
  0
LWPOLYLINE
  5
828
330
2
100
AcDbEntity
  8
Profilo
  6
Continuous
370
     0
100
AcDbPolyline
 90
        6
 70
   128
 43
0.0
 10
0.2681461748915479
 20
0.1438224481849953
 10
0.266160105956599
 20
0.1426129565977113
 10
0.265296598619839
 20
0.1413170708156922
 10
0.264433091283079
 20
0.1395028307208687
 10
0.264433091283079
 20
0.1379477677824464
 10
0.2652102506333642
 20
0.1362199218823544
  0
LWPOLYLINE
  5
829
330
2
100
AcDbEntity
  8
Profilo
  6
Continuous
370
     0
100
AcDbPolyline
 90
       18
 70
   128
 43
0.0
 10
0.2437089048988346
 20
0.1432176996774558
 10
0.2462994303431161
 20
0.1424401682082464
 10
0.249753459690156
 20
0.140798716502886
 10
0.2531759511605693
 20
0.1395730066675721
 10
0.2537255941260523
 20
0.1381205561719113
 10
0.2529076766031097
 20
0.1371275575701837
 10
0.2513941263772013
 20
0.1363927102718193
 10
0.2528620867892923
 20
0.1357879617642798
 10
0.2547618043037649
 20
0.1356151788026082
 10
0.2564888189772849
 20
0.1356151788026082
 10
0.2581294856643301
 20
0.1348376473333989
 10
0.2587339421736627
 20
0.1339737216694544
 10
0.2587339421736627
 20
0.1331098014333051
 10
0.2579567828233775
 20
0.1327642300821704
 10
0.2590793444215664
 20
0.1327642300821704
 10
0.2602019025857538
 20
0.1325914471204989
 10
0.2610654133565153
 20
0.1318139156512877
 10
0.2612381127634664
 20
0.1312091671437482
  0
LWPOLYLINE
  5
82A
330
2
100
AcDbEntity
  8
Profilo
  6
Continuous
370
     0
100
AcDbPolyline
 90
        2
 70
   128
 43
0.0
 10
0.2528620867892923
 20
0.1324186641588273
 10
0.2580431342438538
 20
0.1312955613384815
  0
LWPOLYLINE
  5
82B
330
2
100
AcDbEntity
  8
Profilo
  6
Continuous
370
     0
100
AcDbPolyline
 90
        3
 70
   128
 43
0.0
 10
0.2535528947191012
 20
0.1315547384948846
 10
0.2553662608130975
 20
0.1310363841820766
 10
0.2578704314029012
 20
0.130604424064002
  0
DIMENSION
  5
82C
102
{ACAD_XDICTIONARY
360
836
102
}
102
{ACAD_REACTORS
330
83D
102
}
330
2
100
AcDbEntity
  8
Sezione
  6
ACAD_ISO10W100
100
AcDbDimension
  2
*D12
 10
0.1569879103181878
 20
0.1098752190308209
 30
0.0
 11
0.2813045482948828
 21
0.2106523346372896
 31
0.0
 70
    35
  1
d 290 mm
 71
     5
 42
0.145
  3
Bovelacci
100
AcDbDiametricDimension
 15
0.2631789214633089
 25
0.2086095552668882
 35
0.0
 40
0.0
1001
ACAD
1000
DSTYLE
1002
{
1070
   288
1070
     1
1002
}
  0
ENDSEC
  0
SECTION
  2
OBJECTS
  0
DICTIONARY
  5
9
330
0
100
AcDbDictionary
281
     1
  3
ACAD_2007HEADERVARS_RT
350
208
  3
ACAD_COLOR
350
184
  3
ACAD_GROUP
350
17F
  3
ACAD_LAYOUT
350
164
  3
ACAD_MATERIAL
350
B
  3
ACAD_MLINESTYLE
350
180
  3
ACAD_PLOTSETTINGS
350
181
  3
ACAD_PLOTSTYLENAME
350
8
  3
ACAD_TABLESTYLE
350
185
  3
ACAD_VISUALSTYLE
350
17A
  3
ACDBHEADERROUNDTRIPXREC
350
84D
  3
AcDbVariableDictionary
350
18B
  3
DWGPROPS
350
84C
  0
DICTIONARY
  5
16E
330
16D
100
AcDbDictionary
280
     1
281
     1
  3
ACAD_LAYERSTATES
360
16F
  0
DICTIONARY
  5
3
330
2
100
AcDbDictionary
280
     1
281
     1
  3
ACAD_SORTENTS
360
18A
  0
DICTIONARY
  5
84E
330
18
100
AcDbDictionary
280
     1
281
     1
  3
ACAD_MTEXT_RT
360
84F
  0
DICTIONARY
  5
836
330
82C
100
AcDbDictionary
280
     1
281
     1
  3
ACAD_DIMASSOC
360
83D
  0
DICTIONARY
  5
208
102
{ACAD_REACTORS
330
9
102
}
330
9
100
AcDbDictionary
281
     1
  3
DIMFXL
350
209
  0
DICTIONARY
  5
184
102
{ACAD_REACTORS
330
9
102
}
330
9
100
AcDbDictionary
281
     1
  0
DICTIONARY
  5
17F
102
{ACAD_REACTORS
330
9
102
}
330
9
100
AcDbDictionary
281
     1
  0
DICTIONARY
  5
164
102
{ACAD_REACTORS
330
9
102
}
330
9
100
AcDbDictionary
281
     1
  3
Layout1
350
168
  3
Layout2
350
16C
  3
Model
350
163
  0
DICTIONARY
  5
B
102
{ACAD_REACTORS
330
9
102
}
330
9
100
AcDbDictionary
281
     1
  3
ByBlock
350
183
  3
ByLayer
350
182
  3
Global
350
A
  0
DICTIONARY
  5
180
102
{ACAD_REACTORS
330
9
102
}
330
9
100
AcDbDictionary
281
     1
  3
Standard
350
186
  0
DICTIONARY
  5
181
102
{ACAD_REACTORS
330
9
102
}
330
9
100
AcDbDictionary
281
     1
  0
ACDBDICTIONARYWDFLT
  5
8
102
{ACAD_REACTORS
330
9
102
}
330
9
100
AcDbDictionary
281
     1
  3
Normal
350
7
100
AcDbDictionaryWithDefault
340
7
  0
DICTIONARY
  5
185
102
{ACAD_REACTORS
330
9
102
}
330
9
100
AcDbDictionary
281
     1
  3
Standard
350
187
  0
DICTIONARY
  5
17A
102
{ACAD_REACTORS
330
9
102
}
330
9
100
AcDbDictionary
281
     1
  3
2dWireframe
350
179
  3
3D Hidden
350
1BD
  3
3dWireframe
350
189
  3
Basic
350
1BC
  3
Brighten
350
1C0
  3
ColorChange
350
1C4
  3
Conceptual
350
1BE
  3
Dim
350
1BF
  3
Facepattern
350
1C3
  3
Flat
350
1B8
  3
FlatWithEdges
350
1B9
  3
Gouraud
350
1BA
  3
GouraudWithEdges
350
1BB
  3
Linepattern
350
1C2
  3
Realistic
350
188
  3
Thicken
350
1C1
  0
DICTIONARY
  5
84D
102
{ACAD_REACTORS
330
9
102
}
330
9
100
AcDbDictionary
281
     1
  0
DICTIONARY
  5
18B
102
{ACAD_REACTORS
330
9
102
}
330
9
100
AcDbDictionary
281
     1
  3
CTABLESTYLE
350
18C
  3
DIMASSOC
350
190
  3
HIDETEXT
350
18F
  3
INDEXCTL
350
18E
  3
PROJECTNAME
350
31D
  3
SORTENTS
350
18D
  0
XRECORD
  5
84C
102
{ACAD_REACTORS
330
9
102
}
330
9
100
AcDbXrecord
280
     1
  1
DWGPROPS COOKIE
  2

  3

  4

  6

  7

  8
Mario
  9

300
=
301
=
302
=
303
=
304
=
305
=
306
=
307
=
308
=
309
=
 40
0.1035037037037037
 41
2454297.625402373
 42
2454306.821304248
  1

 90
        0
  0
DICTIONARY
  5
16F
102
{ACAD_REACTORS
330
16E
102
}
330
16E
100
AcDbDictionary
281
     1
  0
SORTENTSTABLE
  5
18A
102
{ACAD_REACTORS
330
3
102
}
330
3
100
AcDbSortentsTable
330
2
331
23F
  5
3BB
331
1E
  5
22
331
24
  5
1D
331
16
  5
14
331
12
  5
18
331
1D
  5
21
331
23
  5
23F
331
15
  5
13
331
11
  5
17
331
D
  5
15
331
1C
  5
1F
331
18
  5
1E
331
22
  5
25
331
14
  5
12
331
10
  5
16
331
1F
  5
23
331
25
  5
2AC
331
17
  5
1C
331
21
  5
24
331
13
  5
11
  0
XRECORD
  5
84F
102
{ACAD_REACTORS
330
84E
102
}
330
84E
100
AcDbXrecord
280
     1
 40
7955300.0
  1
{\fTimes New Roman|b0|i0|c238|p18;\H1.6x;\C4;Bovelacci\P\pt0.09;\H0.4375x;\T0.95;via del Commercio, 5  47100 Forli - Italy  \fTimes New Roman|b0|i0|c0|p18;\P\fTimes New Roman|b0|i0|c238|p18;tel.+39-0543721386  fax +39-0543721127\fTimes New Roman|b0|i
  1
0|c0|p18; \fTimes New Roman|b0|i0|c238|p18;www.bovelacci.it\fTimes New Roman|b0|i0|c0|p18; \fTimes New Roman|b0|i0|c238|p18;e-mail: bovelacci@bovelacci\fTimes New Roman|b0|i0|c0|p18;.it}
  0
DIMASSOC
  5
83D
102
{ACAD_REACTORS
330
836
102
}
330
836
100
AcDbDimAssoc
330
82C
 90
        2
 70
     0
 71
     0
  1
AcDbOsnapPointRef
 72
     3
331
7B2
 73
     2
 91
        0
 40
0.0
 10
0.0
 20
0.0
 30
0.0
 75
     0
  0
XRECORD
  5
209
102
{ACAD_REACTORS
330
208
102
}
330
208
100
AcDbXrecord
280
     1
 40
0.18
  0
LAYOUT
  5
168
102
{ACAD_XDICTIONARY
360
852
102
}
102
{ACAD_REACTORS
330
164
102
}
330
164
100
AcDbPlotSettings
  1

  2
C:\Documents and Settings\All Users\Dati applicazioni\Autodesk\ADT 2006\enu\Plotters\Default Windows System Printer.pc3
  4

  6

 40
0.0
 41
0.0
 42
0.0
 43
0.0
 44
0.0
 45
0.0
 46
0.0
 47
0.0
 48
0.0
 49
0.0
140
0.0
141
0.0
142
1.0
143
1.0
 70
   688
 72
     0
 73
     0
 74
     5
  7

 75
    16
147
1.0
148
0.0
149
0.0
100
AcDbLayout
  1
Layout1
 70
     1
 71
     1
 10
0.0
 20
0.0
 11
420.0
 21
297.0
 12
0.0
 22
0.0
 32
0.0
 14
1.000000000000000E+20
 24
1.000000000000000E+20
 34
1.000000000000000E+20
 15
-1.000000000000000E+20
 25
-1.000000000000000E+20
 35
-1.000000000000000E+20
146
0.0
 13
0.0
 23
0.0
 33
0.0
 16
1.0
 26
0.0
 36
0.0
 17
0.0
 27
1.0
 37
0.0
 76
     0
330
165
  0
LAYOUT
  5
16C
102
{ACAD_XDICTIONARY
360
854
102
}
102
{ACAD_REACTORS
330
164
102
}
330
164
100
AcDbPlotSettings
  1

  2
C:\Documents and Settings\All Users\Dati applicazioni\Autodesk\ADT 2006\enu\Plotters\Default Windows System Printer.pc3
  4

  6

 40
0.0
 41
0.0
 42
0.0
 43
0.0
 44
0.0
 45
0.0
 46
0.0
 47
0.0
 48
0.0
 49
0.0
140
0.0
141
0.0
142
1.0
143
1.0
 70
   688
 72
     0
 73
     0
 74
     5
  7

 75
    16
147
1.0
148
0.0
149
0.0
100
AcDbLayout
  1
Layout2
 70
     1
 71
     2
 10
0.0
 20
0.0
 11
12.0
 21
9.0
 12
0.0
 22
0.0
 32
0.0
 14
0.0
 24
0.0
 34
0.0
 15
0.0
 25
0.0
 35
0.0
146
0.0
 13
0.0
 23
0.0
 33
0.0
 16
1.0
 26
0.0
 36
0.0
 17
0.0
 27
1.0
 37
0.0
 76
     0
330
169
  0
LAYOUT
  5
163
102
{ACAD_XDICTIONARY
360
850
102
}
102
{ACAD_REACTORS
330
164
102
}
330
164
100
AcDbPlotSettings
  1

  2
C:\Documents and Settings\All Users\Dati applicazioni\Autodesk\ADT 2006\enu\Plotters\Default Windows System Printer.pc3
  4

  6

 40
0.0
 41
0.0
 42
0.0
 43
0.0
 44
0.0
 45
0.0
 46
0.0
 47
0.0
 48
0.0
 49
0.0
140
0.0
141
0.0
142
1.0
143
1.0
 70
  1712
 72
     0
 73
     0
 74
     0
  7

 75
     0
147
1.0
148
0.0
149
0.0
100
AcDbLayout
  1
Model
 70
     1
 71
     0
 10
0.0
 20
0.0
 11
12.0
 21
9.0
 12
0.0
 22
0.0
 32
0.0
 14
0.0
 24
0.0
 34
0.0
 15
0.0
 25
0.0
 35
0.0
146
0.0
 13
0.0
 23
0.0
 33
0.0
 16
1.0
 26
0.0
 36
0.0
 17
0.0
 27
1.0
 37
0.0
 76
     0
330
2
  0
MATERIAL
  5
183
102
{ACAD_XDICTIONARY
360
1B0
102
}
102
{ACAD_REACTORS
330
B
102
}
330
B
100
AcDbMaterial
  1
ByBlock
  0
MATERIAL
  5
182
102
{ACAD_XDICTIONARY
360
1AE
102
}
102
{ACAD_REACTORS
330
B
102
}
330
B
100
AcDbMaterial
  1
ByLayer
  0
MATERIAL
  5
A
102
{ACAD_XDICTIONARY
360
193
102
}
102
{ACAD_REACTORS
330
B
102
}
330
B
100
AcDbMaterial
  1
Global
  0
MLINESTYLE
  5
186
102
{ACAD_REACTORS
330
180
102
}
330
180
100
AcDbMlineStyle
  2
STANDARD
 70
     0
  3

 62
   256
 51
90.0
 52
90.0
 71
     2
 49
0.5
 62
   256
  6
BYLAYER
 49
-0.5
 62
   256
  6
BYLAYER
  0
ACDBPLACEHOLDER
  5
7
102
{ACAD_REACTORS
330
8
102
}
330
8
  0
TABLESTYLE
  5
187
102
{ACAD_XDICTIONARY
360
21A
102
}
102
{ACAD_REACTORS
330
185
102
}
330
185
100
AcDbTableStyle
  3
Standard
 70
     0
 71
     0
 40
1.5
 41
1.5
280
     0
281
     0
  7
Standard
140
4.5
170
     2
 62
     0
 63
     7
283
     0
274
    -2
284
     1
 64
     0
275
    -2
285
     1
 65
     0
276
    -2
286
     1
 66
     0
277
    -2
287
     1
 67
     0
278
    -2
288
     1
 68
     0
279
    -2
289
     1
 69
     0
  7
Standard
140
6.0
170
     5
 62
     0
 63
     7
283
     0
274
    -2
284
     1
 64
     0
275
    -2
285
     1
 65
     0
276
    -2
286
     1
 66
     0
277
    -2
287
     1
 67
     0
278
    -2
288
     1
 68
     0
279
    -2
289
     1
 69
     0
  7
Standard
140
4.5
170
     5
 62
     0
 63
     7
283
     0
274
    -2
284
     1
 64
     0
275
    -2
285
     1
 65
     0
276
    -2
286
     1
 66
     0
277
    -2
287
     1
 67
     0
278
    -2
288
     1
 68
     0
279
    -2
289
     1
 69
     0
  0
VISUALSTYLE
  5
179
102
{ACAD_REACTORS
330
17A
102
}
330
17A
100
AcDbVisualStyle
  2
2dWireframe
 70
     4
 71
     0
 72
     2
 73
     0
 90
        0
 40
-0.6
 41
-30.0
 62
     5
 63
     7
 74
     1
 91
        4
 64
     7
 65
   257
 75
     1
175
     1
 42
1.0
 92
        0
 66
   257
 43
1.0
 76
     1
 77
     6
 78
     2
 67
     7
 79
     5
170
     0
171
     0
290
     0
174
     0
 93
        1
 44
0.0
173
     0
291
     0
 45
0.0
1001
ACAD
1000
AcDbSavedByObjectVersion
1070
     0
1000
AcDbSavedByObjectVersion
1070
     0
1000
AcDbSavedByObjectVersion
1070
     0
1001
ACAD
1000
AcRTDxfName
1000
VISUALSTYLE
  0
VISUALSTYLE
  5
1BD
102
{ACAD_REACTORS
330
17A
102
}
330
17A
100
AcDbVisualStyle
  2
3D Hidden
 70
     6
 71
     1
 72
     2
 73
     2
 90
        0
 40
-0.6
 41
-30.0
 62
     5
 63
     7
 74
     2
 91
        2
 64
     7
 65
   257
 75
     2
175
     1
 42
40.0
 92
        0
 66
   257
 43
1.0
 76
     1
 77
     6
 78
     2
 67
     7
 79
     3
170
     0
171
     0
290
     0
174
     0
 93
        1
 44
0.0
173
     0
291
     0
 45
0.0
1001
ACAD
1000
AcDbSavedByObjectVersion
1070
     0
1000
AcDbSavedByObjectVersion
1070
     0
1001
ACAD
1000
AcRTDxfName
1000
VISUALSTYLE
  0
VISUALSTYLE
  5
189
102
{ACAD_REACTORS
330
17A
102
}
330
17A
100
AcDbVisualStyle
  2
3dWireframe
 70
     5
 71
     0
 72
     2
 73
     0
 90
        0
 40
-0.6
 41
-30.0
 62
     5
 63
     7
 74
     1
 91
        4
 64
     7
 65
   257
 75
     1
175
     1
 42
1.0
 92
        0
 66
   257
 43
1.0
 76
     1
 77
     6
 78
     2
 67
     7
 79
     5
170
     0
171
     0
290
     0
174
     0
 93
        1
 44
0.0
173
     0
291
     0
 45
0.0
1001
ACAD
1000
AcDbSavedByObjectVersion
1070
     0
1000
AcDbSavedByObjectVersion
1070
     0
1000
AcDbSavedByObjectVersion
1070
     0
1001
ACAD
1000
AcRTDxfName
1000
VISUALSTYLE
  0
VISUALSTYLE
  5
1BC
102
{ACAD_REACTORS
330
17A
102
}
330
17A
100
AcDbVisualStyle
  2
Basic
 70
     7
 71
     1
 72
     0
 73
     1
 90
        0
 40
-0.6
 41
-30.0
 62
     5
 63
     7
 74
     0
 91
        4
 64
     7
 65
   257
 75
     1
175
     1
 42
1.0
 92
        8
 66
     7
 43
1.0
 76
     1
 77
     6
 78
     2
 67
     7
 79
     5
170
     0
171
     0
290
     0
174
     0
 93
        1
 44
0.0
173
     0
291
     1
 45
0.0
1001
ACAD
1000
AcDbSavedByObjectVersion
1070
     0
1000
AcDbSavedByObjectVersion
1070
     0
1001
ACAD
1000
AcRTDxfName
1000
VISUALSTYLE
  0
VISUALSTYLE
  5
1C0
102
{ACAD_REACTORS
330
17A
102
}
330
17A
100
AcDbVisualStyle
  2
Brighten
 70
    12
 71
     2
 72
     2
 73
     0
 90
        0
 40
-0.6
 41
-30.0
 62
     5
 63
     7
 74
     1
 91
        4
 64
     7
 65
   257
 75
     1
175
     1
 42
1.0
 92
        8
 66
     7
 43
1.0
 76
     1
 77
     6
 78
     2
 67
     7
 79
     5
170
     0
171
     0
290
     0
174
     0
 93
        1
 44
50.0
173
     0
291
     1
 45
0.0
1001
ACAD
1000
AcDbSavedByObjectVersion
1070
     0
1000
AcDbSavedByObjectVersion
1070
     0
1001
ACAD
1000
AcRTDxfName
1000
VISUALSTYLE
  0
VISUALSTYLE
  5
1C4
102
{ACAD_REACTORS
330
17A
102
}
330
17A
100
AcDbVisualStyle
  2
ColorChange
 70
    16
 71
     2
 72
     2
 73
     3
 90
        0
 40
-0.6
 41
-30.0
 62
     5
 63
     8
 74
     1
 91
        4
 64
     7
 65
   257
 75
     1
175
     1
 42
1.0
 92
        8
 66
     8
 43
1.0
 76
     1
 77
     6
 78
     2
 67
     7
 79
     5
170
     0
171
     0
290
     0
174
     0
 93
        1
 44
0.0
173
     0
291
     1
 45
0.0
1001
ACAD
1000
AcDbSavedByObjectVersion
1070
     0
1000
AcDbSavedByObjectVersion
1070
     0
1001
ACAD
1000
AcRTDxfName
1000
VISUALSTYLE
  0
VISUALSTYLE
  5
1BE
102
{ACAD_REACTORS
330
17A
102
}
330
17A
100
AcDbVisualStyle
  2
Conceptual
 70
     9
 71
     3
 72
     2
 73
     0
 90
        0
 40
-0.6
 41
-30.0
 62
     5
 63
     7
 74
     2
 91
        2
 64
     7
 65
   257
 75
     1
175
     1
 42
40.0
 92
        8
 66
     7
 43
1.0
 76
     1
 77
     6
 78
     2
 67
     7
 79
     3
170
     0
171
     0
290
     0
174
     0
 93
        1
 44
0.0
173
     0
291
     0
 45
0.0
1001
ACAD
1000
AcDbSavedByObjectVersion
1070
     0
1000
AcDbSavedByObjectVersion
1070
     0
1001
ACAD
1000
AcRTDxfName
1000
VISUALSTYLE
  0
VISUALSTYLE
  5
1BF
102
{ACAD_REACTORS
330
17A
102
}
330
17A
100
AcDbVisualStyle
  2
Dim
 70
    11
 71
     2
 72
     2
 73
     0
 90
        0
 40
-0.6
 41
-30.0
 62
     5
 63
     7
 74
     1
 91
        4
 64
     7
 65
   257
 75
     1
175
     1
 42
1.0
 92
        8
 66
     7
 43
1.0
 76
     1
 77
     6
 78
     2
 67
     7
 79
     5
170
     0
171
     0
290
     0
174
     0
 93
        1
 44
-50.0
173
     0
291
     1
 45
0.0
1001
ACAD
1000
AcDbSavedByObjectVersion
1070
     0
1000
AcDbSavedByObjectVersion
1070
     0
1001
ACAD
1000
AcRTDxfName
1000
VISUALSTYLE
  0
VISUALSTYLE
  5
1C3
102
{ACAD_REACTORS
330
17A
102
}
330
17A
100
AcDbVisualStyle
  2
Facepattern
 70
    15
 71
     2
 72
     2
 73
     0
 90
        0
 40
-0.6
 41
-30.0
 62
     5
 63
     7
 74
     1
 91
        4
 64
     7
 65
   257
 75
     1
175
     1
 42
1.0
 92
        8
 66
     7
 43
1.0
 76
     1
 77
     6
 78
     2
 67
     7
 79
     5
170
     0
171
     0
290
     0
174
     0
 93
        1
 44
0.0
173
     0
291
     1
 45
0.0
1001
ACAD
1000
AcDbSavedByObjectVersion
1070
     0
1000
AcDbSavedByObjectVersion
1070
     0
1001
ACAD
1000
AcRTDxfName
1000
VISUALSTYLE
  0
VISUALSTYLE
  5
1B8
102
{ACAD_REACTORS
330
17A
102
}
330
17A
100
AcDbVisualStyle
  2
Flat
 70
     0
 71
     2
 72
     1
 73
     1
 90
        2
 40
-0.6
 41
30.0
 62
     5
 63
     7
 74
     0
 91
        4
 64
     7
 65
   257
 75
     1
175
     1
 42
1.0
 92
        8
 66
     7
 43
1.0
 76
     1
 77
     6
 78
     2
 67
     7
 79
     5
170
     0
171
     0
290
     0
174
     0
 93
       13
 44
0.0
173
     0
291
     1
 45
0.0
1001
ACAD
1000
AcDbSavedByObjectVersion
1070
     0
1000
AcDbSavedByObjectVersion
1070
     0
1001
ACAD
1000
AcRTDxfName
1000
VISUALSTYLE
  0
VISUALSTYLE
  5
1B9
102
{ACAD_REACTORS
330
17A
102
}
330
17A
100
AcDbVisualStyle
  2
FlatWithEdges
 70
     1
 71
     2
 72
     1
 73
     1
 90
        2
 40
-0.6
 41
30.0
 62
     5
 63
     7
 74
     1
 91
        4
 64
     7
 65
   257
 75
     1
175
     1
 42
1.0
 92
        0
 66
   257
 43
1.0
 76
     1
 77
     6
 78
     2
 67
     7
 79
     5
170
     0
171
     0
290
     0
174
     0
 93
       13
 44
0.0
173
     0
291
     1
 45
0.0
1001
ACAD
1000
AcDbSavedByObjectVersion
1070
     0
1000
AcDbSavedByObjectVersion
1070
     0
1001
ACAD
1000
AcRTDxfName
1000
VISUALSTYLE
  0
VISUALSTYLE
  5
1BA
102
{ACAD_REACTORS
330
17A
102
}
330
17A
100
AcDbVisualStyle
  2
Gouraud
 70
     2
 71
     2
 72
     2
 73
     1
 90
        2
 40
-0.6
 41
30.0
 62
     5
 63
     7
 74
     0
 91
        4
 64
     7
 65
   257
 75
     1
175
     1
 42
1.0
 92
        0
 66
     7
 43
1.0
 76
     1
 77
     6
 78
     2
 67
     7
 79
     5
170
     0
171
     0
290
     0
174
     0
 93
       13
 44
0.0
173
     0
291
     1
 45
0.0
1001
ACAD
1000
AcDbSavedByObjectVersion
1070
     0
1000
AcDbSavedByObjectVersion
1070
     0
1001
ACAD
1000
AcRTDxfName
1000
VISUALSTYLE
  0
VISUALSTYLE
  5
1BB
102
{ACAD_REACTORS
330
17A
102
}
330
17A
100
AcDbVisualStyle
  2
GouraudWithEdges
 70
     3
 71
     2
 72
     2
 73
     1
 90
        2
 40
-0.6
 41
30.0
 62
     5
 63
     7
 74
     1
 91
        4
 64
     7
 65
   257
 75
     1
175
     1
 42
1.0
 92
        0
 66
   257
 43
1.0
 76
     1
 77
     6
 78
     2
 67
     7
 79
     5
170
     0
171
     0
290
     0
174
     0
 93
       13
 44
0.0
173
     0
291
     1
 45
0.0
1001
ACAD
1000
AcDbSavedByObjectVersion
1070
     0
1000
AcDbSavedByObjectVersion
1070
     0
1001
ACAD
1000
AcRTDxfName
1000
VISUALSTYLE
  0
VISUALSTYLE
  5
1C2
102
{ACAD_REACTORS
330
17A
102
}
330
17A
100
AcDbVisualStyle
  2
Linepattern
 70
    14
 71
     2
 72
     2
 73
     0
 90
        0
 40
-0.6
 41
-30.0
 62
     5
 63
     7
 74
     1
 91
        4
 64
     7
 65
   257
 75
     7
175
     7
 42
1.0
 92
        8
 66
     7
 43
1.0
 76
     1
 77
     6
 78
     2
 67
     7
 79
     5
170
     0
171
     0
290
     0
174
     0
 93
        1
 44
0.0
173
     0
291
     1
 45
0.0
1001
ACAD
1000
AcDbSavedByObjectVersion
1070
     0
1000
AcDbSavedByObjectVersion
1070
     0
1001
ACAD
1000
AcRTDxfName
1000
VISUALSTYLE
  0
VISUALSTYLE
  5
188
102
{ACAD_REACTORS
330
17A
102
}
330
17A
100
AcDbVisualStyle
  2
Realistic
 70
     8
 71
     2
 72
     2
 73
     0
 90
        0
 40
-0.6
 41
-30.0
 62
     5
 63
     7
 74
     1
 91
        0
 64
     7
 65
   257
 75
     1
175
     1
 42
1.0
 92
        8
 66
     8
 43
1.0
 76
     1
 77
     6
 78
     2
 67
     7
 79
     5
170
     0
171
     0
290
     0
174
     0
 93
       13
 44
0.0
173
     0
291
     0
 45
0.0
1001
ACAD
1000
AcDbSavedByObjectVersion
1070
     0
1000
AcDbSavedByObjectVersion
1070
     0
1000
AcDbSavedByObjectVersion
1070
     0
1001
ACAD
1000
AcRTDxfName
1000
VISUALSTYLE
  0
VISUALSTYLE
  5
1C1
102
{ACAD_REACTORS
330
17A
102
}
330
17A
100
AcDbVisualStyle
  2
Thicken
 70
    13
 71
     2
 72
     2
 73
     0
 90
        0
 40
-0.6
 41
-30.0
 62
     5
 63
     7
 74
     1
 91
        4
 64
     7
 65
   257
 75
     1
175
     1
 42
1.0
 92
       12
 66
     7
 43
1.0
 76
     1
 77
     6
 78
     2
 67
     7
 79
     5
170
     0
171
     0
290
     0
174
     0
 93
        1
 44
0.0
173
     0
291
     1
 45
0.0
1001
ACAD
1000
AcDbSavedByObjectVersion
1070
     0
1000
AcDbSavedByObjectVersion
1070
     0
1001
ACAD
1000
AcRTDxfName
1000
VISUALSTYLE
  0
DICTIONARYVAR
  5
18C
102
{ACAD_REACTORS
330
18B
102
}
330
18B
100
DictionaryVariables
280
     0
  1
STANDARD
  0
DICTIONARYVAR
  5
190
102
{ACAD_REACTORS
330
18B
102
}
330
18B
100
DictionaryVariables
280
     0
  1
2
  0
DICTIONARYVAR
  5
18F
102
{ACAD_REACTORS
330
18B
102
}
330
18B
100
DictionaryVariables
280
     0
  1
1
  0
DICTIONARYVAR
  5
18E
102
{ACAD_REACTORS
330
18B
102
}
330
18B
100
DictionaryVariables
280
     0
  1
0
  0
DICTIONARYVAR
  5
31D
102
{ACAD_REACTORS
330
18B
102
}
330
18B
100
DictionaryVariables
280
     0
  1

  0
DICTIONARYVAR
  5
18D
102
{ACAD_REACTORS
330
18B
102
}
330
18B
100
DictionaryVariables
280
     0
  1
127
  0
DICTIONARY
  5
852
330
168
100
AcDbDictionary
280
     1
281
     1
  3
ACAD_XREC_ROUNDTRIP
360
853
  0
DICTIONARY
  5
854
330
16C
100
AcDbDictionary
280
     1
281
     1
  3
ACAD_XREC_ROUNDTRIP
360
855
  0
DICTIONARY
  5
850
330
163
100
AcDbDictionary
280
     1
281
     1
  3
ACAD_XREC_ROUNDTRIP
360
851
  0
DICTIONARY
  5
1B0
330
183
100
AcDbDictionary
280
     1
281
     1
  3
ACAD_XREC_ROUNDTRIP
360
1B1
  0
DICTIONARY
  5
1AE
330
182
100
AcDbDictionary
280
     1
281
     1
  3
ACAD_XREC_ROUNDTRIP
360
1AF
  0
DICTIONARY
  5
193
330
A
100
AcDbDictionary
280
     1
281
     1
  3
ACAD_XREC_ROUNDTRIP
360
194
  0
DICTIONARY
  5
21A
330
187
100
AcDbDictionary
280
     1
281
     1
  3
ACAD_XREC_ROUNDTRIP
360
21B
  0
XRECORD
  5
853
102
{ACAD_REACTORS
330
852
102
}
330
852
100
AcDbXrecord
280
     1
102
SHADEPLOT
 70
     0
102
SHADEPLOTRESLEVEL
 70
     2
102
SHADEPLOTCUSTOMDPI
 70
   300
  0
XRECORD
  5
855
102
{ACAD_REACTORS
330
854
102
}
330
854
100
AcDbXrecord
280
     1
102
SHADEPLOT
 70
     0
102
SHADEPLOTRESLEVEL
 70
     2
102
SHADEPLOTCUSTOMDPI
 70
   300
  0
XRECORD
  5
851
102
{ACAD_REACTORS
330
850
102
}
330
850
100
AcDbXrecord
280
     1
102
SHADEPLOT
 70
     0
102
SHADEPLOTRESLEVEL
 70
     2
102
SHADEPLOTCUSTOMDPI
 70
   300
  0
XRECORD
  5
1B1
102
{ACAD_REACTORS
330
1B0
102
}
330
1B0
100
AcDbXrecord
280
     1
102
MATERIAL
148
0.0
149
0.0
149
0.0
 93
        0
 94
       63
282
     0
 72
     1
 77
     1
171
     1
175
     1
179
     1
273
     0
  0
XRECORD
  5
1AF
102
{ACAD_REACTORS
330
1AE
102
}
330
1AE
100
AcDbXrecord
280
     1
102
MATERIAL
148
0.0
149
0.0
149
0.0
 93
        0
 94
       63
282
     0
 72
     1
 77
     1
171
     1
175
     1
179
     1
273
     0
  0
XRECORD
  5
194
102
{ACAD_REACTORS
330
193
102
}
330
193
100
AcDbXrecord
280
     1
102
MATERIAL
148
0.0
149
0.0
149
0.0
 93
        0
 94
       63
282
     0
 72
     1
 77
     1
171
     1
175
     1
179
     1
273
     0
  0
XRECORD
  5
21B
102
{ACAD_REACTORS
330
21A
102
}
330
21A
100
AcDbXrecord
280
     1
102
ACAD_ROUNDTRIP_PRE2007_TABLESTYLE
 90
        4
 91
        0
  1

 92
        4
 93
        0
  2

 94
        4
 95
        0
  3

  0
ENDSEC
  0
EOF
