  0
SECTION
  2
HEADER
  9
$ACADVER
  1
AC1015
  9
$ACADMAINTVER
 70
    20
  9
$DWGCODEPAGE
  3
ANSI_1252
  9
$INSBASE
 10
0.0
 20
0.0
 30
0.0
  9
$EXTMIN
 10
0.0149999999999999
 20
0.015
 30
0.0
  9
$EXTMAX
 10
0.7766547495330717
 20
0.3713140370193231
 30
0.0
  9
$LIMMIN
 10
0.0
 20
0.0
  9
$LIMMAX
 10
1.0
 20
0.5
  9
$ORTHOMODE
 70
     0
  9
$REGENMODE
 70
     1
  9
$FILLMODE
 70
     1
  9
$QTEXTMODE
 70
     0
  9
$MIRRTEXT
 70
     0
  9
$LTSCALE
 40
1.0
  9
$ATTMODE
 70
     1
  9
$TEXTSIZE
 40
0.008
  9
$TRACEWID
 40
1.0
  9
$TEXTSTYLE
  7
style1
  9
$CLAYER
  8
Sezione
  9
$CELTYPE
  6
ACAD_ISO10W100
  9
$CECOLOR
 62
   256
  9
$CELTSCALE
 40
1.0
  9
$DISPSILH
 70
     0
  9
$DIMSCALE
 40
0.001
  9
$DIMASZ
 40
1.5
  9
$DIMEXO
 40
0.0625
  9
$DIMDLI
 40
0.38
  9
$DIMRND
 40
0.0
  9
$DIMDLE
 40
0.0
  9
$DIMEXE
 40
0.18
  9
$DIMTP
 40
0.0
  9
$DIMTM
 40
0.0
  9
$DIMTXT
 40
3.0
  9
$DIMCEN
 40
0.0
  9
$DIMTSZ
 40
0.0
  9
$DIMTOL
 70
     0
  9
$DIMLIM
 70
     0
  9
$DIMTIH
 70
     1
  9
$DIMTOH
 70
     1
  9
$DIMSE1
 70
     0
  9
$DIMSE2
 70
     0
  9
$DIMTAD
 70
     0
  9
$DIMZIN
 70
     0
  9
$DIMBLK
  1
ArchTick
  9
$DIMASO
 70
     1
  9
$DIMSHO
 70
     1
  9
$DIMPOST
  1

  9
$DIMAPOST
  1

  9
$DIMALT
 70
     0
  9
$DIMALTD
 70
     2
  9
$DIMALTF
 40
25.4
  9
$DIMLFAC
 40
1.0
  9
$DIMTOFL
 70
     0
  9
$DIMTVP
 40
0.0
  9
$DIMTIX
 70
     0
  9
$DIMSOXD
 70
     0
  9
$DIMSAH
 70
     0
  9
$DIMBLK1
  1

  9
$DIMBLK2
  1

  9
$DIMSTYLE
  2
Bovelacci
  9
$DIMCLRD
 70
     5
  9
$DIMCLRE
 70
     5
  9
$DIMCLRT
 70
     4
  9
$DIMTFAC
 40
1.0
  9
$DIMGAP
 40
2.0
  9
$DIMJUST
 70
     0
  9
$DIMSD1
 70
     0
  9
$DIMSD2
 70
     0
  9
$DIMTOLJ
 70
     1
  9
$DIMTZIN
 70
     0
  9
$DIMALTZ
 70
     0
  9
$DIMALTTZ
 70
     0
  9
$DIMUPT
 70
     0
  9
$DIMDEC
 70
     2
  9
$DIMTDEC
 70
     2
  9
$DIMALTU
 70
     2
  9
$DIMALTTD
 70
     2
  9
$DIMTXSTY
  7
ROMANS
  9
$DIMAUNIT
 70
     0
  9
$DIMADEC
 70
     0
  9
$DIMALTRND
 40
0.0
  9
$DIMAZIN
 70
     0
  9
$DIMDSEP
 70
    46
  9
$DIMATFIT
 70
     3
  9
$DIMFRAC
 70
     0
  9
$DIMLDRBLK
  1

  9
$DIMLUNIT
 70
     2
  9
$DIMLWD
 70
    -2
  9
$DIMLWE
 70
    -2
  9
$DIMTMOVE
 70
     2
  9
$LUNITS
 70
     2
  9
$LUPREC
 70
     2
  9
$SKETCHINC
 40
1.0
  9
$FILLETRAD
 40
0.0
  9
$AUNITS
 70
     0
  9
$AUPREC
 70
     0
  9
$MENU
  1
.
  9
$ELEVATION
 40
0.0
  9
$PELEVATION
 40
0.0
  9
$THICKNESS
 40
0.0
  9
$LIMCHECK
 70
     0
  9
$CHAMFERA
 40
0.0
  9
$CHAMFERB
 40
0.0
  9
$CHAMFERC
 40
0.0
  9
$CHAMFERD
 40
0.0
  9
$SKPOLY
 70
     0
  9
$TDCREATE
 40
2454297.625402373
  9
$TDUCREATE
 40
2454297.542069039
  9
$TDUPDATE
 40
2454306.841761239
  9
$TDUUPDATE
 40
2454306.758427905
  9
$TDINDWG
 40
0.1239621412
  9
$TDUSRTIMER
 40
0.1239601389
  9
$USRTIMER
 70
     1
  9
$ANGBASE
 50
0.0
  9
$ANGDIR
 70
     0
  9
$PDMODE
 70
     0
  9
$PDSIZE
 40
0.0
  9
$PLINEWID
 40
0.0
  9
$SPLFRAME
 70
     0
  9
$SPLINETYPE
 70
     6
  9
$SPLINESEGS
 70
     8
  9
$HANDSEED
  5
BCA
  9
$SURFTAB1
 70
     6
  9
$SURFTAB2
 70
     6
  9
$SURFTYPE
 70
     6
  9
$SURFU
 70
     6
  9
$SURFV
 70
     6
  9
$UCSBASE
  2

  9
$UCSNAME
  2

  9
$UCSORG
 10
0.0
 20
0.0
 30
0.0
  9
$UCSXDIR
 10
1.0
 20
0.0
 30
0.0
  9
$UCSYDIR
 10
0.0
 20
1.0
 30
0.0
  9
$UCSORTHOREF
  2

  9
$UCSORTHOVIEW
 70
     0
  9
$UCSORGTOP
 10
0.0
 20
0.0
 30
0.0
  9
$UCSORGBOTTOM
 10
0.0
 20
0.0
 30
0.0
  9
$UCSORGLEFT
 10
0.0
 20
0.0
 30
0.0
  9
$UCSORGRIGHT
 10
0.0
 20
0.0
 30
0.0
  9
$UCSORGFRONT
 10
0.0
 20
0.0
 30
0.0
  9
$UCSORGBACK
 10
0.0
 20
0.0
 30
0.0
  9
$PUCSBASE
  2

  9
$PUCSNAME
  2

  9
$PUCSORG
 10
0.0
 20
0.0
 30
0.0
  9
$PUCSXDIR
 10
1.0
 20
0.0
 30
0.0
  9
$PUCSYDIR
 10
0.0
 20
1.0
 30
0.0
  9
$PUCSORTHOREF
  2

  9
$PUCSORTHOVIEW
 70
     0
  9
$PUCSORGTOP
 10
0.0
 20
0.0
 30
0.0
  9
$PUCSORGBOTTOM
 10
0.0
 20
0.0
 30
0.0
  9
$PUCSORGLEFT
 10
0.0
 20
0.0
 30
0.0
  9
$PUCSORGRIGHT
 10
0.0
 20
0.0
 30
0.0
  9
$PUCSORGFRONT
 10
0.0
 20
0.0
 30
0.0
  9
$PUCSORGBACK
 10
0.0
 20
0.0
 30
0.0
  9
$USERI1
 70
     0
  9
$USERI2
 70
     0
  9
$USERI3
 70
     0
  9
$USERI4
 70
     0
  9
$USERI5
 70
     0
  9
$USERR1
 40
0.0
  9
$USERR2
 40
0.0
  9
$USERR3
 40
0.0
  9
$USERR4
 40
0.0
  9
$USERR5
 40
0.0
  9
$WORLDVIEW
 70
     1
  9
$SHADEDGE
 70
     3
  9
$SHADEDIF
 70
    70
  9
$TILEMODE
 70
     1
  9
$MAXACTVP
 70
    64
  9
$PINSBASE
 10
0.0
 20
0.0
 30
0.0
  9
$PLIMCHECK
 70
     0
  9
$PEXTMIN
 10
1.000000000000000E+20
 20
1.000000000000000E+20
 30
1.000000000000000E+20
  9
$PEXTMAX
 10
-1.000000000000000E+20
 20
-1.000000000000000E+20
 30
-1.000000000000000E+20
  9
$PLIMMIN
 10
0.0
 20
0.0
  9
$PLIMMAX
 10
420.0
 20
297.0
  9
$UNITMODE
 70
     0
  9
$VISRETAIN
 70
     1
  9
$PLINEGEN
 70
     0
  9
$PSLTSCALE
 70
     1
  9
$TREEDEPTH
 70
  3020
  9
$CMLSTYLE
  2
Standard
  9
$CMLJUST
 70
     0
  9
$CMLSCALE
 40
20.0
  9
$PROXYGRAPHICS
 70
     1
  9
$MEASUREMENT
 70
     1
  9
$CELWEIGHT
370
    -1
  9
$ENDCAPS
280
     0
  9
$JOINSTYLE
280
     0
  9
$LWDISPLAY
290
     0
  9
$INSUNITS
 70
     4
  9
$HYPERLINKBASE
  1

  9
$STYLESHEET
  1

  9
$XEDIT
290
     1
  9
$CEPSNTYPE
380
     0
  9
$PSTYLEMODE
290
     1
  9
$FINGERPRINTGUID
  2
{904A8C64-524F-4709-A9C6-320D2C273A6D}
  9
$VERSIONGUID
  2
{5733CD7E-4B29-4027-B3CD-B24446E16501}
  9
$EXTNAMES
290
     1
  9
$PSVPSCALE
 40
0.0
  9
$OLESTARTUP
290
     0
  0
ENDSEC
  0
SECTION
  2
CLASSES
  0
CLASS
  1
ACDBDICTIONARYWDFLT
  2
AcDbDictionaryWithDefault
  3
ObjectDBX Classes
 90
        0
280
     0
281
     0
  0
CLASS
  1
TABLESTYLE
  2
AcDbTableStyle
  3
ObjectDBX Classes
 90
     2047
280
     0
281
     0
  0
CLASS
  1
SORTENTSTABLE
  2
AcDbSortentsTable
  3
ObjectDBX Classes
 90
        0
280
     0
281
     0
  0
CLASS
  1
DICTIONARYVAR
  2
AcDbDictionaryVar
  3
ObjectDBX Classes
 90
        0
280
     0
281
     0
  0
CLASS
  1
ACDBPLACEHOLDER
  2
AcDbPlaceHolder
  3
ObjectDBX Classes
 90
        0
280
     0
281
     0
  0
CLASS
  1
LAYOUT
  2
AcDbLayout
  3
ObjectDBX Classes
 90
        0
280
     0
281
     0
  0
CLASS
  1
DIMASSOC
  2
AcDbDimAssoc
  3
"AcDbDimAssoc|Product Desc:     AcDim ARX App For Dimension|Company:          Autodesk, Inc.|WEB Address:      www.autodesk.com"
 90
        0
280
     0
281
     0
  0
CLASS
  1
MATERIAL
  2
AcDbMaterial
  3
ObjectDBX Classes
 90
        0
280
     0
281
     0
  0
CLASS
  1
VISUALSTYLE
  2
AcDbVisualStyle
  3
ObjectDBX Classes
 90
     4095
280
     0
281
     0
  0
ENDSEC
  0
SECTION
  2
TABLES
  0
TABLE
  2
VPORT
  5
177
330
0
100
AcDbSymbolTable
 70
     9
  0
VPORT
  5
BBF
330
177
100
AcDbSymbolTableRecord
100
AcDbViewportTableRecord
  2
*Active
 70
     0
 10
0.0
 20
0.0
 11
1.0
 21
1.0
 12
0.2120756552430598
 22
0.1490582482346923
 13
0.0
 23
0.0
 14
10.0
 24
10.0
 15
10.0
 25
10.0
 16
0.0
 26
0.0
 36
1.0
 17
0.0
 27
0.0
 37
0.0
 40
0.2706406405485189
 41
1.546526867627784
 42
50.0
 43
0.0
 44
0.0
 50
0.0
 51
0.0
 71
     0
 72
  1000
 73
     1
 74
     3
 75
     0
 76
     0
 77
     0
 78
     0
281
     0
 65
     1
110
0.0
120
0.0
130
0.0
111
1.0
121
0.0
131
0.0
112
0.0
122
1.0
132
0.0
 79
     0
146
0.0
  0
ENDTAB
  0
TABLE
  2
LTYPE
  5
172
330
0
100
AcDbSymbolTable
 70
     3
  0
LTYPE
  5
173
330
172
100
AcDbSymbolTableRecord
100
AcDbLinetypeTableRecord
  2
ByBlock
 70
     0
  3

 72
    65
 73
     0
 40
0.0
  0
LTYPE
  5
174
330
172
100
AcDbSymbolTableRecord
100
AcDbLinetypeTableRecord
  2
ByLayer
 70
     0
  3

 72
    65
 73
     0
 40
0.0
  0
LTYPE
  5
C
330
172
100
AcDbSymbolTableRecord
100
AcDbLinetypeTableRecord
  2
Continuous
 70
     0
  3
Solid line
 72
    65
 73
     0
 40
0.0
  0
LTYPE
  5
14E
330
172
100
AcDbSymbolTableRecord
100
AcDbLinetypeTableRecord
  2
ACAD_ISO10W100
 70
     0
  3
ISO dash dot __ . __ . __ . __ . __ . __ . __ .
 72
    65
 73
     4
 40
18.0
 49
12.0
 74
     0
 49
-3.0
 74
     0
 49
0.0
 74
     0
 49
-3.0
 74
     0
  0
ENDTAB
  0
TABLE
  2
LAYER
  5
16D
102
{ACAD_XDICTIONARY
360
16E
102
}
330
0
100
AcDbSymbolTable
 70
     7
  0
LAYER
  5
6
330
16D
100
AcDbSymbolTableRecord
100
AcDbLayerTableRecord
  2
0
 70
     0
 62
     7
  6
Continuous
370
    -3
390
7
  0
LAYER
  5
15F
330
16D
100
AcDbSymbolTableRecord
100
AcDbLayerTableRecord
  2
Defpoints
 70
     0
 62
     7
  6
Continuous
290
     0
370
    -3
390
7
  0
LAYER
  5
28
330
16D
100
AcDbSymbolTableRecord
100
AcDbLayerTableRecord
  2
Profilo
 70
     0
 62
     1
  6
Continuous
370
    -3
390
7
1001
AcAecLayerStandard
1000

1000

  0
LAYER
  5
14D
330
16D
100
AcDbSymbolTableRecord
100
AcDbLayerTableRecord
  2
Sezione
 70
     0
 62
     2
  6
Continuous
370
    -3
390
7
1001
AcAecLayerStandard
1000

1000

  0
LAYER
  5
E
330
16D
100
AcDbSymbolTableRecord
100
AcDbLayerTableRecord
  2
Table
 70
     0
 62
     3
  6
Continuous
370
    -3
390
7
1001
AcAecLayerStandard
1000

1000

  0
LAYER
  5
19
330
16D
100
AcDbSymbolTableRecord
100
AcDbLayerTableRecord
  2
Text
 70
     0
 62
     4
  6
Continuous
370
    -3
390
7
1001
AcAecLayerStandard
1000

1000

  0
LAYER
  5
256
330
16D
100
AcDbSymbolTableRecord
100
AcDbLayerTableRecord
  2
Bovelacci
 70
     0
 62
     9
  6
Continuous
370
    -3
390
7
1001
AcAecLayerStandard
1000

1000

  0
ENDTAB
  0
TABLE
  2
STYLE
  5
170
330
0
100
AcDbSymbolTable
 70
     3
  0
STYLE
  5
1A
330
170
100
AcDbSymbolTableRecord
100
AcDbTextStyleTableRecord
  2
Standard
 70
     0
 40
0.0
 41
1.0
 50
0.0
 71
     0
 42
2.5
  3
txt
  4

  0
STYLE
  5
20
330
170
100
AcDbSymbolTableRecord
100
AcDbTextStyleTableRecord
  2
ROMANS
 70
     0
 40
0.0
 41
1.0
 50
0.0
 71
     0
 42
2.5
  3
romans
  4

  0
STYLE
  5
26
330
170
100
AcDbSymbolTableRecord
100
AcDbTextStyleTableRecord
  2
style1
 70
     0
 40
0.0
 41
1.0
 50
0.0
 71
     0
 42
0.008
  3
TIMES.TTF
  4

1001
ACAD
1000
Times New Roman
1071
       18
  0
ENDTAB
  0
TABLE
  2
VIEW
  5
175
330
0
100
AcDbSymbolTable
 70
     2
  0
ENDTAB
  0
TABLE
  2
UCS
  5
176
330
0
100
AcDbSymbolTable
 70
     0
  0
ENDTAB
  0
TABLE
  2
APPID
  5
17B
330
0
100
AcDbSymbolTable
 70
    10
  0
APPID
  5
1B
330
17B
100
AcDbSymbolTableRecord
100
AcDbRegAppTableRecord
  2
ACAD
 70
     0
  0
APPID
  5
157
330
17B
100
AcDbSymbolTableRecord
100
AcDbRegAppTableRecord
  2
ACAD_DSTYLE_DIMJOGGED_JOGANGLE_SYMBOL
 70
     0
  0
APPID
  5
F
330
17B
100
AcDbSymbolTableRecord
100
AcDbRegAppTableRecord
  2
AcAecLayerStandard
 70
     0
  0
APPID
  5
19C
330
17B
100
AcDbSymbolTableRecord
100
AcDbRegAppTableRecord
  2
ACAD_DSTYLE_DIMFLIPARROW_WHICH_SYMBOL
 70
     0
  0
APPID
  5
1A7
330
17B
100
AcDbSymbolTableRecord
100
AcDbRegAppTableRecord
  2
ACAD_DSTYLE_DIMEXT_LENGTH
 70
     0
  0
APPID
  5
1D2
330
17B
100
AcDbSymbolTableRecord
100
AcDbRegAppTableRecord
  2
ACAD_EXEMPT_FROM_CAD_STANDARDS
 70
     0
  0
APPID
  5
1D3
330
17B
100
AcDbSymbolTableRecord
100
AcDbRegAppTableRecord
  2
ACAD_DSTYLE_DIM_LINETYPE
 70
     0
  0
APPID
  5
1D4
330
17B
100
AcDbSymbolTableRecord
100
AcDbRegAppTableRecord
  2
ACAD_DSTYLE_DIM_EXT1_LINETYPE
 70
     0
  0
APPID
  5
1D5
330
17B
100
AcDbSymbolTableRecord
100
AcDbRegAppTableRecord
  2
ACAD_DSTYLE_DIM_EXT2_LINETYPE
 70
     0
  0
APPID
  5
25C
330
17B
100
AcDbSymbolTableRecord
100
AcDbRegAppTableRecord
  2
ACAD_PSEXT
 70
     0
  0
ENDTAB
  0
TABLE
  2
DIMSTYLE
  5
17C
330
0
100
AcDbSymbolTable
 70
     8
100
AcDbDimStyleTable
 71
     2
340
156
340
17D
  0
DIMSTYLE
105
17D
330
17C
100
AcDbSymbolTableRecord
100
AcDbDimStyleTableRecord
  2
ISO-25
 70
     0
 41
2.5
 42
0.625
 43
3.75
 44
1.25
 73
     0
 74
     0
 77
     1
 78
     8
140
2.5
141
2.5
143
0.03937007874016
147
0.625
171
     3
172
     1
271
     2
272
     2
274
     3
278
    44
283
     0
284
     8
340
1A
  0
DIMSTYLE
105
156
102
{ACAD_REACTORS
330
BA1
102
}
330
17C
100
AcDbSymbolTableRecord
100
AcDbDimStyleTableRecord
  2
Bovelacci
 70
     0
 40
0.001
 41
1.5
140
3.0
141
0.0
147
2.0
176
     5
177
     5
178
     4
271
     2
272
     2
279
     2
340
20
342
152
1001
ACAD_DSTYLE_DIMJOGGED_JOGANGLE_SYMBOL
1070
   384
1040
0.7853981633974483
1001
ACAD_DSTYLE_DIMEXT_LENGTH
1070
   378
1040
0.18
  0
DIMSTYLE
105
257
330
17C
100
AcDbSymbolTableRecord
100
AcDbDimStyleTableRecord
  2
Dim 1-100
 70
     0
 40
0.1
 41
1.5
 42
0.0
 43
5.0
 44
1.25
 45
0.005
 46
1.25
 73
     0
 74
     0
 77
     1
 78
     9
140
2.0
141
2.5
147
1.0
172
     1
174
     1
179
     2
279
     2
289
     2
340
20
342
152
  0
DIMSTYLE
105
258
330
17C
100
AcDbSymbolTableRecord
100
AcDbDimStyleTableRecord
  2
Standard
 70
     0
 42
0.0
 73
     0
 74
     0
 77
     1
271
     2
272
     2
340
20
  0
DIMSTYLE
105
259
330
17C
100
AcDbSymbolTableRecord
100
AcDbDimStyleTableRecord
  2
Dim 1-50
 70
     0
 40
0.05
 41
1.5
 42
0.0
 43
5.0
 44
1.25
 45
0.005
 46
1.25
 73
     0
 74
     0
 77
     1
 78
     9
140
2.0
141
2.5
147
1.0
172
     1
174
     1
179
     2
279
     2
289
     2
340
20
342
152
  0
DIMSTYLE
105
25A
330
17C
100
AcDbSymbolTableRecord
100
AcDbDimStyleTableRecord
  2
Dim 1-200
 70
     0
 40
0.2
 41
1.5
 42
0.0
 43
5.0
 44
1.25
 45
0.005
 46
1.25
 73
     0
 74
     0
 77
     1
 78
     9
140
2.0
141
2.5
147
1.0
172
     1
174
     1
179
     2
271
     2
272
     2
279
     2
289
     2
340
20
342
152
  0
DIMSTYLE
105
25B
330
17C
100
AcDbSymbolTableRecord
100
AcDbDimStyleTableRecord
  2
AEC Scale - Italiano
 70
     0
 41
1.0
 42
10.0
 43
10.0
 44
10.0
 73
     0
 74
     0
 75
     1
 76
     1
 77
     1
140
10.0
141
1.0
147
10.0
173
     1
271
     0
272
     0
279
     2
340
1A
343
251
344
24B
  0
ENDTAB
  0
TABLE
  2
BLOCK_RECORD
  5
1
330
0
100
AcDbSymbolTable
 70
    20
  0
BLOCK_RECORD
  5
2
102
{ACAD_XDICTIONARY
360
3
102
}
330
1
100
AcDbSymbolTableRecord
100
AcDbBlockTableRecord
  2
*Model_Space
340
163
  0
BLOCK_RECORD
  5
165
330
1
100
AcDbSymbolTableRecord
100
AcDbBlockTableRecord
  2
*Paper_Space
340
168
  0
BLOCK_RECORD
  5
169
330
1
100
AcDbSymbolTableRecord
100
AcDbBlockTableRecord
  2
*Paper_Space0
340
16C
  0
BLOCK_RECORD
  5
152
330
1
100
AcDbSymbolTableRecord
100
AcDbBlockTableRecord
  2
_ArchTick
340
0
310
2800000020000000200000000100080000000000000400000000000000000000000000000000000000000000000080000080000000808000800000008000800080800000C0C0C000C0DCC000F0CAA6000020400000206000002080000020A0000020C0000020E00000400000004020000040400000406000004080000040A0
310
000040C0000040E00000600000006020000060400000606000006080000060A0000060C0000060E00000800000008020000080400000806000008080000080A0000080C0000080E00000A0000000A0200000A0400000A0600000A0800000A0A00000A0C00000A0E00000C0000000C0200000C0400000C0600000C0800000C0
310
A00000C0C00000C0E00000E0000000E0200000E0400000E0600000E0800000E0A00000E0C00000E0E00040000000400020004000400040006000400080004000A0004000C0004000E00040200000402020004020400040206000402080004020A0004020C0004020E000404000004040200040404000404060004040800040
310
40A0004040C0004040E00040600000406020004060400040606000406080004060A0004060C0004060E00040800000408020004080400040806000408080004080A0004080C0004080E00040A0000040A0200040A0400040A0600040A0800040A0A00040A0C00040A0E00040C0000040C0200040C0400040C0600040C08000
310
40C0A00040C0C00040C0E00040E0000040E0200040E0400040E0600040E0800040E0A00040E0C00040E0E00080000000800020008000400080006000800080008000A0008000C0008000E00080200000802020008020400080206000802080008020A0008020C0008020E00080400000804020008040400080406000804080
310
008040A0008040C0008040E00080600000806020008060400080606000806080008060A0008060C0008060E00080800000808020008080400080806000808080008080A0008080C0008080E00080A0000080A0200080A0400080A0600080A0800080A0A00080A0C00080A0E00080C0000080C0200080C0400080C0600080C0
310
800080C0A00080C0C00080C0E00080E0000080E0200080E0400080E0600080E0800080E0A00080E0C00080E0E000C0000000C0002000C0004000C0006000C0008000C000A000C000C000C000E000C0200000C0202000C0204000C0206000C0208000C020A000C020C000C020E000C0400000C0402000C0404000C0406000C0
310
408000C040A000C040C000C040E000C0600000C0602000C0604000C0606000C0608000C060A000C060C000C060E000C0800000C0802000C0804000C0806000C0808000C080A000C080C000C080E000C0A00000C0A02000C0A04000C0A06000C0A08000C0A0A000C0A0C000C0A0E000C0C00000C0C02000C0C04000C0C06000
310
C0C08000C0C0A000F0FBFF00A4A0A000808080000000FF0000FF000000FFFF00FF000000FF00FF00FFFF0000FFFFFF00000000FF000000000000000000000000000000000000000000000000000000000000FF00FF00000000000000000000000000000000000000000000000000000000FF000000FF000000000000000000
310
0000000000000000000000000000000000FF0000000000FF0000000000000000000000000000000000000000000000000000FF0000000000FF0000000000000000000000000000000000000000000000000000FF0000000000FF0000000000000000000000000000000000000000000000000000FF0000000000FF00000000
310
00000000000000000000000000000000000000000000FF0000000000FF0000000000000000000000000000000000000000000000000000FF0000000000FF0000000000000000000000000000000000000000000000000000FF0000000000FF0000000000000000000000000000000000000000000000000000FF0000000000
310
FF0000000000000000000000000000000000000000000000000000FF0000000000FF0000000000000000000000000000000000000000000000000000FF0000000000FF0000000000000000000000000000000000000000000000000000FF0000000000FF0000000000000000000000000000000000000000000000000000FF
310
0000000000FF0000000000000000000000000000000000000000000000000000FF0000000000FF0000000000000000000000000000000000000000000000000000FF0000000000FF0000000000000000000000000000000000000000000000000000FF0000000000FF00000000000000000000000000000000000000000000
310
00000000FF0000000000FF0000000000000000000000000000000000000000000000000000FF0000000000FF0000000000000000000000000000000000000000000000000000FF0000000000FF0000000000000000000000000000000000000000000000000000FF0000000000FF0000000000000000000000000000000000
310
000000000000000000FF0000000000FF0000000000000000000000000000000000000000000000000000FF0000000000FF0000000000000000000000000000000000000000000000000000FF0000000000FF0000000000000000000000000000000000000000000000000000FF0000000000FF000000000000000000000000
310
0000000000000000000000000000FF0000000000FF0000000000000000000000000000000000000000000000000000FF0000000000FF0000000000000000000000000000000000000000000000000000FF0000000000FF0000000000000000000000000000000000000000000000000000FF000000FF000000000000000000
310
00000000000000000000000000000000000000FF00FF000000000000000000000000000000000000000000000000000000000000FF000000
102
{BLKREFS
331
211
331
318
331
354
331
429
331
50A
331
5EC
331
6DD
331
847
331
9CD
331
A12
331
BBC
102
}
  0
BLOCK_RECORD
  5
24B
330
1
100
AcDbSymbolTableRecord
100
AcDbBlockTableRecord
  2
_Arrivo
340
0
310
2800000020000000200000000100080000000000000400000000000000000000000000000000000000000000000080000080000000808000800000008000800080800000C0C0C000C0DCC000F0CAA6000020400000206000002080000020A0000020C0000020E00000400000004020000040400000406000004080000040A0
310
000040C0000040E00000600000006020000060400000606000006080000060A0000060C0000060E00000800000008020000080400000806000008080000080A0000080C0000080E00000A0000000A0200000A0400000A0600000A0800000A0A00000A0C00000A0E00000C0000000C0200000C0400000C0600000C0800000C0
310
A00000C0C00000C0E00000E0000000E0200000E0400000E0600000E0800000E0A00000E0C00000E0E00040000000400020004000400040006000400080004000A0004000C0004000E00040200000402020004020400040206000402080004020A0004020C0004020E000404000004040200040404000404060004040800040
310
40A0004040C0004040E00040600000406020004060400040606000406080004060A0004060C0004060E00040800000408020004080400040806000408080004080A0004080C0004080E00040A0000040A0200040A0400040A0600040A0800040A0A00040A0C00040A0E00040C0000040C0200040C0400040C0600040C08000
310
40C0A00040C0C00040C0E00040E0000040E0200040E0400040E0600040E0800040E0A00040E0C00040E0E00080000000800020008000400080006000800080008000A0008000C0008000E00080200000802020008020400080206000802080008020A0008020C0008020E00080400000804020008040400080406000804080
310
008040A0008040C0008040E00080600000806020008060400080606000806080008060A0008060C0008060E00080800000808020008080400080806000808080008080A0008080C0008080E00080A0000080A0200080A0400080A0600080A0800080A0A00080A0C00080A0E00080C0000080C0200080C0400080C0600080C0
310
800080C0A00080C0C00080C0E00080E0000080E0200080E0400080E0600080E0800080E0A00080E0C00080E0E000C0000000C0002000C0004000C0006000C0008000C000A000C000C000C000E000C0200000C0202000C0204000C0206000C0208000C020A000C020C000C020E000C0400000C0402000C0404000C0406000C0
310
408000C040A000C040C000C040E000C0600000C0602000C0604000C0606000C0608000C060A000C060C000C060E000C0800000C0802000C0804000C0806000C0808000C080A000C080C000C080E000C0A00000C0A02000C0A04000C0A06000C0A08000C0A0A000C0A0C000C0A0E000C0C00000C0C02000C0C04000C0C06000
310
C0C08000C0C0A000F0FBFF00A4A0A000808080000000FF0000FF000000FFFF00FF000000FF00FF00FFFF0000FFFFFF00000000000000000000000000000000000000000000000000000000000000000000000000000000000000FF0000000000000000000000000000000000000000000000000000000000000000FF000000
310
00000000000000000000000000000000000000000000000000000000FF0000000000000000000000000000000000000000000000000000000000000000FF00000000000000000000000000000000000000000000000000000000000000FF0000000000000000000000000000000000000000000000000000000000000000FF
310
0000000000000000000000000000000000000000000000000000000000000000FF00000000000000000000000000000000000000000000000000000000000000FF0000000000000000000000000000000000000000000000000000000000000000FF0000000000000000000000000000000000000000000000000000000000
310
0000FF0000000000000000000000000000000000000000000000000000000000000000FF00000000000000000000000000000000000000000000000000000000000000FF0000000000000000000000000000000000000000000000000000000000000000FF0000FF0000000000000000000000000000000000000000000000
310
000000000000FFFF000000000000000000000000000000000000000000000000000000000000FFFF00000000000000000000000000000000000000000000000000000000FFFFFFFFFFFF00000000000000000000000000000000000000000000000000000000FFFF0000000000000000000000000000000000000000000000
310
000000000000FF0000FF000000000000000000000000000000000000000000000000000000FF00000000000000000000000000000000000000000000000000000000000000FF000000000000000000000000000000000000000000000000000000000000FF0000000000000000000000000000000000000000000000000000
310
0000000000FF000000000000000000000000000000000000000000000000000000000000FF00000000000000000000000000000000000000000000000000000000000000FF000000000000000000000000000000000000000000000000000000000000FF000000000000000000000000000000000000000000000000000000
310
000000FF00000000000000000000000000000000000000000000000000000000000000FF000000000000000000000000000000000000000000000000000000000000FF00000000000000000000000000000000000000000000000000000000000000FF00000000000000000000000000000000000000000000000000000000
310
0000FF0000000000000000000000000000000000000000000000000000000000000000000000000000000000000000000000000000000000
  0
BLOCK_RECORD
  5
251
330
1
100
AcDbSymbolTableRecord
100
AcDbBlockTableRecord
  2
_Partenza
340
0
310
2800000020000000200000000100080000000000000400000000000000000000000000000000000000000000000080000080000000808000800000008000800080800000C0C0C000C0DCC000F0CAA6000020400000206000002080000020A0000020C0000020E00000400000004020000040400000406000004080000040A0
310
000040C0000040E00000600000006020000060400000606000006080000060A0000060C0000060E00000800000008020000080400000806000008080000080A0000080C0000080E00000A0000000A0200000A0400000A0600000A0800000A0A00000A0C00000A0E00000C0000000C0200000C0400000C0600000C0800000C0
310
A00000C0C00000C0E00000E0000000E0200000E0400000E0600000E0800000E0A00000E0C00000E0E00040000000400020004000400040006000400080004000A0004000C0004000E00040200000402020004020400040206000402080004020A0004020C0004020E000404000004040200040404000404060004040800040
310
40A0004040C0004040E00040600000406020004060400040606000406080004060A0004060C0004060E00040800000408020004080400040806000408080004080A0004080C0004080E00040A0000040A0200040A0400040A0600040A0800040A0A00040A0C00040A0E00040C0000040C0200040C0400040C0600040C08000
310
40C0A00040C0C00040C0E00040E0000040E0200040E0400040E0600040E0800040E0A00040E0C00040E0E00080000000800020008000400080006000800080008000A0008000C0008000E00080200000802020008020400080206000802080008020A0008020C0008020E00080400000804020008040400080406000804080
310
008040A0008040C0008040E00080600000806020008060400080606000806080008060A0008060C0008060E00080800000808020008080400080806000808080008080A0008080C0008080E00080A0000080A0200080A0400080A0600080A0800080A0A00080A0C00080A0E00080C0000080C0200080C0400080C0600080C0
310
800080C0A00080C0C00080C0E00080E0000080E0200080E0400080E0600080E0800080E0A00080E0C00080E0E000C0000000C0002000C0004000C0006000C0008000C000A000C000C000C000E000C0200000C0202000C0204000C0206000C0208000C020A000C020C000C020E000C0400000C0402000C0404000C0406000C0
310
408000C040A000C040C000C040E000C0600000C0602000C0604000C0606000C0608000C060A000C060C000C060E000C0800000C0802000C0804000C0806000C0808000C080A000C080C000C080E000C0A00000C0A02000C0A04000C0A06000C0A08000C0A0A000C0A0C000C0A0E000C0C00000C0C02000C0C04000C0C06000
310
C0C08000C0C0A000F0FBFF00A4A0A000808080000000FF0000FF000000FFFF00FF000000FF00FF00FFFF0000FFFFFF0000000000000000000000000000000000000000000000000000000000000000000000000000000000000000000000000000000000000000000000000000000000000000000000000000000000000000
310
000000000000000000000000000000000000000000000000000000000000000000000000000000000000000000000000000000000000000000000000000000000000000000000000000000000000000000000000000000000000000000000000000000000000000000000000000000000000FFFFFFFFFFFFFFFFFFFFFFFFFF
310
FFFFFFFFFFFFFFFFFFFFFFFFFFFFFFFFFF0000000000000000000000000000000000000000000000000000000000000000000000000000000000000000000000000000000000000000000000000000000000000000000000000000000000000000000000000000000000000000000000000000000000000000000000000000
310
00000000000000000000000000000000000000000000000000000000000000000000000000000000000000000000000000000000000000000000000000000000000000000000000000000000000000000000000000000000000000000000000000000000000000000000000000000000000000000000000000000000000000
310
00000000000000000000000000000000000000000000000000000000000000000000000000000000000000000000000000000000000000000000000000000000000000000000000000000000000000000000000000000000000000000000000000000000000000000000000000000000000000000000000000000000000000
310
00000000000000000000000000000000000000000000000000000000000000000000000000000000000000000000000000000000000000000000000000000000000000000000000000000000000000000000000000000000000000000000000000000000000000000000000000000000000000000000000000000000000000
310
000000000000000000000000000000000000000000000000000000000000000000000000000000000000000000000000000000000000000000000000000000000000000000000000000000000000000000000000000000FFFFFFFFFFFFFFFFFFFFFFFFFFFFFFFFFFFFFFFFFFFFFFFFFFFFFFFFFFFF00000000000000000000
310
00000000000000000000000000000000000000000000000000000000000000000000000000000000000000000000000000000000000000000000000000000000000000000000000000000000000000000000000000000000000000000000000000000000000000000000000000000000000000000000000000000000000000
310
0000000000000000000000000000000000000000000000000000000000000000000000000000000000000000000000000000000000000000
  0
BLOCK_RECORD
  5
6C3
330
1
100
AcDbSymbolTableRecord
100
AcDbBlockTableRecord
  2
*D10
340
0
  0
BLOCK_RECORD
  5
82D
330
1
100
AcDbSymbolTableRecord
100
AcDbBlockTableRecord
  2
*D12
340
0
  0
BLOCK_RECORD
  5
9B3
330
1
100
AcDbSymbolTableRecord
100
AcDbBlockTableRecord
  2
*D15
340
0
  0
BLOCK_RECORD
  5
9F8
330
1
100
AcDbSymbolTableRecord
100
AcDbBlockTableRecord
  2
*D17
340
0
  0
BLOCK_RECORD
  5
BA2
330
1
100
AcDbSymbolTableRecord
100
AcDbBlockTableRecord
  2
*D19
340
0
  0
ENDTAB
  0
ENDSEC
  0
SECTION
  2
BLOCKS
  0
BLOCK
  5
5
330
2
100
AcDbEntity
  8
0
100
AcDbBlockBegin
  2
*Model_Space
 70
     0
 10
0.0
 20
0.0
 30
0.0
  3
*Model_Space
  1

  0
ENDBLK
  5
162
330
2
100
AcDbEntity
  8
0
100
AcDbBlockEnd
  0
BLOCK
  5
166
330
165
100
AcDbEntity
 67
     1
  8
0
100
AcDbBlockBegin
  2
*Paper_Space
 70
     0
 10
0.0
 20
0.0
 30
0.0
  3
*Paper_Space
  1

  0
ENDBLK
  5
167
330
165
100
AcDbEntity
 67
     1
  8
0
100
AcDbBlockEnd
  0
BLOCK
  5
16A
330
169
100
AcDbEntity
 67
     1
  8
0
100
AcDbBlockBegin
  2
*Paper_Space0
 70
     0
 10
0.0
 20
0.0
 30
0.0
  3
*Paper_Space0
  1

  0
ENDBLK
  5
16B
330
169
100
AcDbEntity
 67
     1
  8
0
100
AcDbBlockEnd
  0
BLOCK
  5
153
330
152
100
AcDbEntity
  8
0
 62
     1
100
AcDbBlockBegin
  2
_ArchTick
 70
     0
 10
0.0
 20
0.0
 30
0.0
  3
_ArchTick
  1

  0
LWPOLYLINE
  5
154
330
152
100
AcDbEntity
  8
0
  6
ByBlock
 62
     0
100
AcDbPolyline
 90
        2
 70
     0
 43
0.15
 10
-0.5
 20
-0.5
 10
0.5
 20
0.5
  0
ENDBLK
  5
155
330
152
100
AcDbEntity
  8
0
 62
     1
100
AcDbBlockEnd
  0
BLOCK
  5
24C
330
24B
100
AcDbEntity
  8
0
100
AcDbBlockBegin
  2
_Arrivo
 70
     0
 10
0.0
 20
0.0
 30
0.0
  3
_Arrivo
  1

  0
LINE
  5
24D
330
24B
100
AcDbEntity
  8
0
  6
ByBlock
 62
     0
370
    -2
100
AcDbLine
 10
0.025
 20
-0.0433012701891858
 30
0.0
 11
-0.15
 21
0.2598076211353328
 31
0.0
  0
LINE
  5
24E
330
24B
100
AcDbEntity
  8
0
  6
ByBlock
 62
     0
370
    -2
100
AcDbLine
 10
0.025
 20
0.0433012701892585
 30
0.0
 11
-0.15
 21
-0.2598076211353328
 31
0.0
  0
LINE
  5
24F
330
24B
100
AcDbEntity
  8
0
  6
ByBlock
 62
     0
370
    -2
100
AcDbLine
 10
-0.05
 20
0.0
 30
0.0
 11
0.05
 21
0.0
 31
0.0
  0
ENDBLK
  5
250
330
24B
100
AcDbEntity
  8
0
100
AcDbBlockEnd
  0
BLOCK
  5
252
330
251
100
AcDbEntity
  8
0
100
AcDbBlockBegin
  2
_Partenza
 70
     0
 10
0.0
 20
0.0
 30
0.0
  3
_Partenza
  1

  0
LINE
  5
253
330
251
100
AcDbEntity
  8
0
  6
ByBlock
 62
     0
370
    -2
100
AcDbLine
 10
-0.05
 20
0.05
 30
0.0
 11
0.1
 21
0.05
 31
0.0
  0
LINE
  5
254
330
251
100
AcDbEntity
  8
0
  6
ByBlock
 62
     0
370
    -2
100
AcDbLine
 10
-0.05
 20
-0.05
 30
0.0
 11
0.1
 21
-0.05
 31
0.0
  0
ENDBLK
  5
255
330
251
100
AcDbEntity
  8
0
100
AcDbBlockEnd
  0
BLOCK
  5
6CA
330
6C3
100
AcDbEntity
  8
0
100
AcDbBlockBegin
  2
*D10
 70
     1
 10
0.0
 20
0.0
 30
0.0
  3
*D10
  1

  0
LINE
  5
6DA
330
6C3
100
AcDbEntity
  8
Sezione
  6
ACAD_ISO10W100
 62
     5
370
    -2
100
AcDbLine
 10
0.2580272919594555
 20
0.2091457005418985
 30
0.0
 11
0.2565272919594555
 21
0.2091457005418986
 31
0.0
  0
LINE
  5
6DB
330
6C3
100
AcDbEntity
  8
Sezione
  6
ACAD_ISO10W100
 62
     5
370
    -2
100
AcDbLine
 10
0.2565272919594555
 20
0.2091457005418986
 30
0.0
 11
0.2544161538279562
 21
0.2070142466273769
 31
0.0
  0
MTEXT
  5
6DC
330
6C3
100
AcDbEntity
  8
Sezione
  6
ACAD_ISO10W100
 62
     4
100
AcDbMText
 10
0.2724558633880269
 20
0.2091457005418985
 30
0.0
 40
0.003
 41
0.0
 71
     5
 72
     1
  1
\A1;d 250 mm
  7
ROMANS
 73
     1
 44
1.0
1001
ACAD
1000
MTEXTBEGIN
1070
    73
1070
     1
1070
    44
1040
1.0
1070
    74
1070
     0
1000
MTEXTEND
  0
INSERT
  5
6DD
330
6C3
100
AcDbEntity
  8
Sezione
  6
ACAD_ISO10W100
 62
     5
370
    -2
100
AcDbBlockReference
  2
_ArchTick
 10
0.2544161538279562
 20
0.2070142466273769
 30
0.0
 41
0.0015
 42
0.0015
 43
0.0015
 50
225.2743605124572
  0
POINT
  5
6DE
330
6C3
100
AcDbEntity
  8
Defpoints
  6
ACAD_ISO10W100
 62
     0
100
AcDbPoint
 10
0.2544161538279562
 20
0.2070142466273769
 30
0.0
  0
POINT
  5
6DF
330
6C3
100
AcDbEntity
  8
Defpoints
  6
ACAD_ISO10W100
 62
     0
100
AcDbPoint
 10
0.1664520650154866
 20
0.1182036668556404
 30
0.0
  0
ENDBLK
  5
6CB
330
6C3
100
AcDbEntity
  8
0
100
AcDbBlockEnd
  0
BLOCK
  5
834
330
82D
100
AcDbEntity
  8
0
100
AcDbBlockBegin
  2
*D12
 70
     1
 10
0.0
 20
0.0
 30
0.0
  3
*D12
  1

  0
LINE
  5
844
330
82D
100
AcDbEntity
  8
Sezione
  6
ACAD_ISO10W100
 62
     5
370
    -2
100
AcDbLine
 10
0.2668759768663114
 20
0.2106523346372896
 30
0.0
 11
0.2653759768663114
 21
0.2106523346372896
 31
0.0
  0
LINE
  5
845
330
82D
100
AcDbEntity
  8
Sezione
  6
ACAD_ISO10W100
 62
     5
370
    -2
100
AcDbLine
 10
0.2653759768663114
 20
0.2106523346372896
 30
0.0
 11
0.2631789214633089
 21
0.2086095552668882
 31
0.0
  0
MTEXT
  5
846
330
82D
100
AcDbEntity
  8
Sezione
  6
ACAD_ISO10W100
 62
     4
100
AcDbMText
 10
0.2813045482948828
 20
0.2106523346372896
 30
0.0
 40
0.003
 41
0.0
 71
     5
 72
     1
  1
\A1;d 290 mm
  7
ROMANS
 73
     1
 44
1.0
1001
ACAD
1000
MTEXTBEGIN
1070
    73
1070
     1
1070
    44
1040
1.0
1070
    74
1070
     0
1000
MTEXTEND
  0
INSERT
  5
847
330
82D
100
AcDbEntity
  8
Sezione
  6
ACAD_ISO10W100
 62
     5
370
    -2
100
AcDbBlockReference
  2
_ArchTick
 10
0.2631789214633089
 20
0.2086095552668882
 30
0.0
 41
0.0015
 42
0.0015
 43
0.0015
 50
222.916082132817
  0
POINT
  5
848
330
82D
100
AcDbEntity
  8
Defpoints
  6
ACAD_ISO10W100
 62
     0
100
AcDbPoint
 10
0.2631789214633089
 20
0.2086095552668882
 30
0.0
  0
POINT
  5
849
330
82D
100
AcDbEntity
  8
Defpoints
  6
ACAD_ISO10W100
 62
     0
100
AcDbPoint
 10
0.1569879103181878
 20
0.1098752190308209
 30
0.0
  0
ENDBLK
  5
835
330
82D
100
AcDbEntity
  8
0
100
AcDbBlockEnd
  0
BLOCK
  5
9BA
330
9B3
100
AcDbEntity
  8
0
100
AcDbBlockBegin
  2
*D15
 70
     1
 10
0.0
 20
0.0
 30
0.0
  3
*D15
  1

  0
LINE
  5
9CA
330
9B3
100
AcDbEntity
  8
Sezione
  6
ACAD_ISO10W100
 62
     5
370
    -2
100
AcDbLine
 10
0.2720801551691272
 20
0.2106523321067409
 30
0.0
 11
0.2705801551691272
 21
0.2106523321067409
 31
0.0
  0
LINE
  5
9CB
330
9B3
100
AcDbEntity
  8
Sezione
  6
ACAD_ISO10W100
 62
     5
370
    -2
100
AcDbLine
 10
0.2705801551691272
 20
0.2106523321067409
 30
0.0
 11
0.268259040554878
 21
0.2087516935436473
 31
0.0
  0
MTEXT
  5
9CC
330
9B3
100
AcDbEntity
  8
Sezione
  6
ACAD_ISO10W100
 62
     4
100
AcDbMText
 10
0.2865087265976987
 20
0.2106523321067409
 30
0.0
 40
0.003
 41
0.0
 71
     5
 72
     1
  1
\A1;d 310 mm
  7
ROMANS
 73
     1
 44
1.0
1001
ACAD
1000
MTEXTBEGIN
1070
    73
1070
     1
1070
    44
1040
1.0
1070
    74
1070
     0
1000
MTEXTEND
  0
INSERT
  5
9CD
330
9B3
100
AcDbEntity
  8
Sezione
  6
ACAD_ISO10W100
 62
     5
370
    -2
100
AcDbBlockReference
  2
_ArchTick
 10
0.268259040554878
 20
0.2087516935436473
 30
0.0
 41
0.0015
 42
0.0015
 43
0.0015
 50
219.3122411371381
  0
POINT
  5
9CE
330
9B3
100
AcDbEntity
  8
Defpoints
  6
ACAD_ISO10W100
 62
     0
100
AcDbPoint
 10
0.268259040554878
 20
0.2087516935436473
 30
0.0
  0
POINT
  5
9CF
330
9B3
100
AcDbEntity
  8
Defpoints
  6
ACAD_ISO10W100
 62
     0
100
AcDbPoint
 10
0.1483347854853323
 20
0.1105520344504785
 30
0.0
  0
ENDBLK
  5
9BB
330
9B3
100
AcDbEntity
  8
0
100
AcDbBlockEnd
  0
BLOCK
  5
9FF
330
9F8
100
AcDbEntity
  8
0
100
AcDbBlockBegin
  2
*D17
 70
     1
 10
0.0
 20
0.0
 30
0.0
  3
*D17
  1

  0
LINE
  5
A0F
330
9F8
100
AcDbEntity
  8
Sezione
  6
ACAD_ISO10W100
 62
     5
370
    -2
100
AcDbLine
 10
0.270541626019994
 20
0.2147084216870797
 30
0.0
 11
0.2690416260199941
 21
0.2147084216870796
 31
0.0
  0
LINE
  5
A10
330
9F8
100
AcDbEntity
  8
Sezione
  6
ACAD_ISO10W100
 62
     5
370
    -2
100
AcDbLine
 10
0.2690416260199941
 20
0.2147084216870796
 30
0.0
 11
0.266907749695741
 21
0.2125997320862155
 31
0.0
  0
MTEXT
  5
A11
330
9F8
100
AcDbEntity
  8
Sezione
  6
ACAD_ISO10W100
 62
     4
100
AcDbMText
 10
0.2849701974485655
 20
0.2147084216870797
 30
0.0
 40
0.003
 41
0.0
 71
     5
 72
     1
  1
\A1;d 320 mm
  7
ROMANS
 73
     1
 44
1.0
1001
ACAD
1000
MTEXTBEGIN
1070
    73
1070
     1
1070
    44
1040
1.0
1070
    74
1070
     0
1000
MTEXTEND
  0
INSERT
  5
A12
330
9F8
100
AcDbEntity
  8
Sezione
  6
ACAD_ISO10W100
 62
     5
370
    -2
100
AcDbBlockReference
  2
_ArchTick
 10
0.266907749695741
 20
0.2125997320862155
 30
0.0
 41
0.0015
 42
0.0015
 43
0.0015
 50
224.6598577317865
  0
POINT
  5
A13
330
9F8
100
AcDbEntity
  8
Defpoints
  6
ACAD_ISO10W100
 62
     0
100
AcDbPoint
 10
0.266907749695741
 20
0.2125997320862155
 30
0.0
  0
POINT
  5
A14
330
9F8
100
AcDbEntity
  8
Defpoints
  6
ACAD_ISO10W100
 62
     0
100
AcDbPoint
 10
0.1531010124022461
 20
0.1001362867067971
 30
0.0
  0
ENDBLK
  5
A00
330
9F8
100
AcDbEntity
  8
0
100
AcDbBlockEnd
  0
BLOCK
  5
BA9
330
BA2
100
AcDbEntity
  8
0
100
AcDbBlockBegin
  2
*D19
 70
     1
 10
0.0
 20
0.0
 30
0.0
  3
*D19
  1

  0
LINE
  5
BB9
330
BA2
100
AcDbEntity
  8
Sezione
  6
ACAD_ISO10W100
 62
     5
370
    -2
100
AcDbLine
 10
0.2721196718501769
 20
0.2115475428616256
 30
0.0
 11
0.2706196718501769
 21
0.2115475428616256
 31
0.0
  0
LINE
  5
BBA
330
BA2
100
AcDbEntity
  8
Sezione
  6
ACAD_ISO10W100
 62
     5
370
    -2
100
AcDbLine
 10
0.2706196718501769
 20
0.2115475428616256
 30
0.0
 11
0.26845501015967
 21
0.2094704680517903
 31
0.0
  0
MTEXT
  5
BBB
330
BA2
100
AcDbEntity
  8
Sezione
  6
ACAD_ISO10W100
 62
     4
100
AcDbMText
 10
0.2865482432787483
 20
0.2115475428616256
 30
0.0
 40
0.003
 41
0.0
 71
     5
 72
     1
  1
\A1;d 330 mm
  7
ROMANS
 73
     1
 44
1.0
1001
ACAD
1000
MTEXTBEGIN
1070
    73
1070
     1
1070
    44
1040
1.0
1070
    74
1070
     0
1000
MTEXTEND
  0
INSERT
  5
BBC
330
BA2
100
AcDbEntity
  8
Sezione
  6
ACAD_ISO10W100
 62
     5
370
    -2
100
AcDbBlockReference
  2
_ArchTick
 10
0.26845501015967
 20
0.2094704680517903
 30
0.0
 41
0.0015
 42
0.0015
 43
0.0015
 50
223.817077498188
  0
POINT
  5
BBD
330
BA2
100
AcDbEntity
  8
Defpoints
  6
ACAD_ISO10W100
 62
     0
100
AcDbPoint
 10
0.26845501015967
 20
0.2094704680517903
 30
0.0
  0
POINT
  5
BBE
330
BA2
100
AcDbEntity
  8
Defpoints
  6
ACAD_ISO10W100
 62
     0
100
AcDbPoint
 10
0.1493986171817919
 20
0.0952313535108543
 30
0.0
  0
ENDBLK
  5
BAA
330
BA2
100
AcDbEntity
  8
0
100
AcDbBlockEnd
  0
ENDSEC
  0
SECTION
  2
ENTITIES
  0
LINE
  5
D
330
2
100
AcDbEntity
  8
Table
100
AcDbLine
 10
0.02
 20
0.02
 30
0.0
 11
0.4
 21
0.02
 31
0.0
  0
LINE
  5
10
330
2
100
AcDbEntity
  8
Table
100
AcDbLine
 10
0.4
 20
0.02
 30
0.0
 11
0.4
 21
0.2769999999999999
 31
0.0
  0
LINE
  5
11
330
2
100
AcDbEntity
  8
Table
100
AcDbLine
 10
0.4
 20
0.2769999999999999
 30
0.0
 11
0.02
 21
0.277
 31
0.0
  0
LINE
  5
12
330
2
100
AcDbEntity
  8
Table
100
AcDbLine
 10
0.02
 20
0.277
 30
0.0
 11
0.02
 21
0.02
 31
0.0
  0
LINE
  5
13
330
2
100
AcDbEntity
  8
Table
 62
     2
100
AcDbLine
 10
0.015
 20
0.015
 30
0.0
 11
0.4050000000000001
 21
0.015
 31
0.0
  0
LINE
  5
14
330
2
100
AcDbEntity
  8
Table
 62
     2
100
AcDbLine
 10
0.4050000000000001
 20
0.015
 30
0.0
 11
0.4050000000000001
 21
0.2819999999999998
 31
0.0
  0
LINE
  5
15
330
2
100
AcDbEntity
  8
Table
 62
     2
100
AcDbLine
 10
0.4050000000000001
 20
0.2819999999999998
 30
0.0
 11
0.0149999999999999
 21
0.282
 31
0.0
  0
LINE
  5
16
330
2
100
AcDbEntity
  8
Table
 62
     2
100
AcDbLine
 10
0.0149999999999999
 20
0.282
 30
0.0
 11
0.015
 21
0.015
 31
0.0
  0
LINE
  5
17
330
2
100
AcDbEntity
  8
Table
100
AcDbLine
 10
0.21
 20
0.2769999999999999
 30
0.0
 11
0.21
 21
0.2532994226089223
 31
0.0
  0
MTEXT
  5
18
102
{ACAD_XDICTIONARY
360
BC2
102
}
330
2
100
AcDbEntity
  8
Text
100
AcDbMText
 10
0.305
 20
0.0471738284815141
 30
0.0
 40
0.005
 41
0.1900000000000001
 71
     2
 72
     5
  3
{\fTimes New Roman|b0|i0|c238|p18;\H1.6x;\C4;Bovelacci\P\H0.4375x;\T0.95;via del Commercio, 5  47100 Forli - Italy  \fTimes New Roman|b0|i0|c0|p18;\P\fTimes New Roman|b0|i0|c238|p18;tel.+39-0543721386  fax +39-0543721127\fTimes New Roman|b0|i0|c0|p18
  1
; \fTimes New Roman|b0|i0|c238|p18;www.bovelacci.it\fTimes New Roman|b0|i0|c0|p18; \fTimes New Roman|b0|i0|c238|p18;e-mail: bovelacci@bovelacci\fTimes New Roman|b0|i0|c0|p18;.it}
 73
     1
 44
1.0
1001
ACAD
1000
ACAD_MTEXT_DEFINED_HEIGHT_BEGIN
1070
    46
1040
0.0271738284815141
1000
ACAD_MTEXT_DEFINED_HEIGHT_END
1000
MTEXTBEGIN
1070
    73
1070
     1
1070
    44
1040
1.0
1070
    74
1070
     0
1000
MTEXTEND
  0
MTEXT
  5
1C
330
2
100
AcDbEntity
  8
Text
100
AcDbMText
 10
0.0219676065851835
 20
0.0500313976452307
 30
0.0
 40
0.002
 41
0.1863544980601608
 71
     1
 72
     5
  3
{\fArial|b0|i0|c0|p34;\H1.25x;Le caratteristiche tecniche indicate vengono fornite a titolo indicativo e potranno essere modificate senza preavviso. Non devono quindi essere considerate a scopo di specifica.\P\fArial|b0|i1|c0|p34;The given values are
  3
 indicative and can be changed without notice. They cannot be considered like a state.\PThis lealfet and designs embodied within are protected by copyright law and international treaties. Unauthorized repro- duction of the leaflet or any portion of i
  1
t or reproduction of any of the designs embodied therein may result in severe civil penalties and will be prosecuted to the maximum.\PAll right reserved, Bovelacci Forlì Italy.}
 73
     1
 44
1.0
1001
ACAD
1000
MTEXTBEGIN
1070
    73
1070
     1
1070
    44
1040
1.0
1070
    74
1070
     0
1000
MTEXTEND
  0
LINE
  5
1D
330
2
100
AcDbEntity
  8
Table
100
AcDbLine
 10
0.02
 20
0.0528099428524846
 30
0.0
 11
0.4
 21
0.0528099428524846
 31
0.0
  0
MTEXT
  5
1E
330
2
100
AcDbEntity
  8
Text
100
AcDbMText
 10
0.1133313047219695
 20
0.2610796890771976
 30
0.0
 40
0.003
 41
0.1103605678262056
 71
     2
 72
     5
  1
{\fTimes New Roman|b0|i0|c0|p18;Rosoni\fTimes New Roman|b0|i1|c0|p18;   Ceiling centres}
 73
     1
 44
1.0
1001
ACAD
1000
ACAD_MTEXT_DEFINED_HEIGHT_BEGIN
1070
    46
1040
0.0141952763113409
1000
ACAD_MTEXT_DEFINED_HEIGHT_END
1000
MTEXTBEGIN
1070
    73
1070
     1
1070
    44
1040
1.0
1070
    74
1070
     0
1000
MTEXTEND
  0
TEXT
  5
1F
330
2
100
AcDbEntity
  8
Text
100
AcDbText
 10
0.2180556919891047
 20
0.269976982173197
 30
0.0
 40
0.003
  1
Rosone - Ceiling centre : D 330 mm
  7
ROMANS
100
AcDbText
  0
TEXT
  5
21
330
2
100
AcDbEntity
  8
Text
100
AcDbText
 10
0.2184542410678115
 20
0.2576348370183962
 30
0.0
 40
0.003
  1
File : E - R33
  7
ROMANS
100
AcDbText
  0
LINE
  5
22
330
2
100
AcDbEntity
  8
Table
100
AcDbLine
 10
0.4
 20
0.2654452889427402
 30
0.0
 11
0.02
 21
0.2654452889427403
 31
0.0
  0
LINE
  5
23
330
2
100
AcDbEntity
  8
Table
100
AcDbLine
 10
0.4
 20
0.2532994226089223
 30
0.0
 11
0.02
 21
0.2532994226089225
 31
0.0
  0
LINE
  5
24
330
2
100
AcDbEntity
  8
Table
100
AcDbLine
 10
0.21
 20
0.0528099428524846
 30
0.0
 11
0.21
 21
0.02
 31
0.0
  0
TEXT
  5
25
330
2
100
AcDbEntity
  8
Text
100
AcDbText
 10
0.0947789320547719
 20
0.2687784133392506
 30
0.0
 40
0.005
  1
EUROSTYL
  7
style1
 72
     1
 11
0.1140561490699125
 21
0.2687784133392506
 31
0.0
100
AcDbText
  0
TEXT
  5
23F
330
2
100
AcDbEntity
  8
Text
  6
ACAD_ISO10W100
100
AcDbText
 10
0.279790072709841
 20
0.0798448468098327
 30
0.0
 40
0.005
  1
scala 1 : 2
  7
style1
100
AcDbText
  0
CIRCLE
  5
AE4
330
2
100
AcDbEntity
  8
Profilo
  6
Continuous
370
     0
100
AcDbCircle
 10
0.208926813670731
 20
0.1523509107813223
 30
0.0
 40
0.0647380467296346
  0
CIRCLE
  5
AE5
330
2
100
AcDbEntity
  8
Profilo
  6
Continuous
370
     0
100
AcDbCircle
 10
0.208926813670731
 20
0.1523509107813223
 30
0.0
 40
0.0168391105712682
  0
CIRCLE
  5
AE6
330
2
100
AcDbEntity
  8
Profilo
  6
Continuous
370
     0
100
AcDbCircle
 10
0.208926813670731
 20
0.1523509107813223
 30
0.0
 40
0.0149953643289984
  0
CIRCLE
  5
AE7
330
2
100
AcDbEntity
  8
Profilo
  6
Continuous
370
     0
100
AcDbCircle
 10
0.208926813670731
 20
0.1523509107813223
 30
0.0
 40
0.0123179365137397
  0
CIRCLE
  5
AE8
330
2
100
AcDbEntity
  8
Profilo
  6
Continuous
370
     0
100
AcDbCircle
 10
0.208926813670731
 20
0.1523509107813223
 30
0.0
 40
0.0096221031177108
  0
CIRCLE
  5
AE9
330
2
100
AcDbEntity
  8
Profilo
  6
Continuous
370
     0
100
AcDbCircle
 10
0.208926813670731
 20
0.1523509107813223
 30
0.0
 40
0.0070693186998137
  0
CIRCLE
  5
AEA
330
2
100
AcDbEntity
  8
Profilo
  6
Continuous
370
     0
100
AcDbCircle
 10
0.208926813670731
 20
0.1523509107813223
 30
0.0
 40
0.0556545824910283
  0
CIRCLE
  5
AEB
102
{ACAD_REACTORS
330
BB2
102
}
330
2
100
AcDbEntity
  8
Profilo
  6
Continuous
370
     0
100
AcDbCircle
 10
0.208926813670731
 20
0.1523509107813223
 30
0.0
 40
0.0825
  0
LWPOLYLINE
  5
AEC
330
2
100
AcDbEntity
  8
Profilo
  6
Continuous
370
     0
100
AcDbPolyline
 90
       14
 70
   128
 43
0.0
 10
0.2030132282256043
 20
0.2168743590805138
 10
0.2033132894068645
 20
0.2208732542266008
 10
0.2040134357641021
 20
0.2231726172269337
 10
0.2055137416704034
 20
0.225072090712658
 10
0.2066028709842753
 20
0.2261115725657887
 10
0.2080934636036631
 20
0.2271370204062053
 10
0.2096147243419921
 20
0.2281034325527302
 10
0.2113777099382299
 20
0.2269983447607575
 10
0.21281522861392
 20
0.2258718697418753
 10
0.2141154973336781
 20
0.224872145955354
 10
0.215215718064002
 20
0.2230726431396146
 10
0.2155157792452622
 20
0.2211731696538903
 10
0.2158158404265225
 20
0.2180740276243402
 10
0.2158158404265225
 20
0.2167743884105286
  0
LWPOLYLINE
  5
AED
330
2
100
AcDbEntity
  8
Profilo
  6
Continuous
370
     0
100
AcDbPolyline
 90
        7
 70
   128
 43
0.0
 10
0.1981949659124507
 20
0.2243836147639759
 10
0.1991124328692229
 20
0.2255719508972525
 10
0.2000896126123905
 20
0.2264797593826049
 10
0.2015374623110795
 20
0.2273348303849667
 10
0.2033476206022267
 20
0.2263871559347421
 10
0.2043358298880771
 20
0.2255691733549427
 10
0.2051413857951678
 20
0.224746535753203
  0
LWPOLYLINE
  5
AEE
330
2
100
AcDbEntity
  8
Profilo
  6
Continuous
370
     0
100
AcDbPolyline
 90
        7
 70
   128
 43
0.0
 10
0.1995125180452002
 20
0.2233725619842382
 10
0.2002126590009914
 20
0.2241723375961222
 10
0.2008729844449226
 20
0.2245911938393108
 10
0.20172136541422
 20
0.2248904848138886
 10
0.2029132096323336
 20
0.2244722564407451
 10
0.2036133505881248
 20
0.2240723669261366
 10
0.2041763404147281
 20
0.223476317981645
  0
LWPOLYLINE
  5
AEF
330
2
100
AcDbEntity
  8
Profilo
  6
Continuous
370
     0
100
AcDbPolyline
 90
        5
 70
   128
 43
0.0
 10
0.2076918751551242
 20
0.2173921636825584
 10
0.2087804341614705
 20
0.2196671508440657
 10
0.2094731535291461
 20
0.2223377900268213
 10
0.210165878298268
 20
0.2194693248334418
 10
0.2109575575756095
 20
0.2172932523859135
  0
LWPOLYLINE
  5
AF0
330
2
100
AcDbEntity
  8
Profilo
  6
Continuous
370
     0
100
AcDbPolyline
 90
       13
 70
   128
 43
0.0
 10
0.2187009422959856
 20
0.1671797947310001
 10
0.22402353892862
 20
0.1783518776305475
 10
0.2282816183953076
 20
0.187041274681899
 10
0.2314751806960464
 20
0.1934253215648785
 10
0.2344913162671978
 20
0.1957306717332508
 10
0.2380397158227689
 20
0.1960853430928977
 10
0.2414106940502025
 20
0.1948440001687999
 10
0.2431848965287122
 20
0.1925386500004276
 10
0.2437171551116857
 20
0.1882826176059968
 10
0.2424752166175976
 20
0.1857999317578012
 10
0.2387493957338835
 20
0.1818985707230174
 10
0.2337816363560832
 20
0.1769331990266261
 10
0.2222493418515568
 20
0.1645197766203141
  0
LWPOLYLINE
  5
AF1
330
2
100
AcDbEntity
  8
Profilo
  6
Continuous
370
     0
100
AcDbPolyline
 90
       10
 70
   128
 43
0.0
 10
0.222604184507839
 20
0.1638104373183535
 10
0.2327171191901345
 20
0.1742731809159401
 10
0.2398139183012804
 20
0.1815439027807038
 10
0.243894576439825
 20
0.1849132601933503
 10
0.2456687735168883
 20
0.1852679281356639
 10
0.2456687735168883
 20
0.1842039208913897
 10
0.2449590936057737
 20
0.1822532386653313
 10
0.2424752166175976
 20
0.179947888496959
 10
0.2367977773286809
 20
0.1749825202179009
 10
0.2229590217626713
 20
0.1629237623365693
  0
LWPOLYLINE
  5
AF2
330
2
100
AcDbEntity
  8
Profilo
  6
Continuous
370
     0
100
AcDbPolyline
 90
        5
 70
   128
 43
0.0
 10
0.243894576439825
 20
0.1875732783040362
 10
0.2483300718332055
 20
0.1879279496636832
 10
0.2490397517443201
 20
0.1879279496636832
 10
0.2486849144894878
 20
0.1857999317578012
 10
0.2474429759953998
 20
0.1822532386653313
  0
LWPOLYLINE
  5
AF3
330
2
100
AcDbEntity
  8
Profilo
  6
Continuous
370
     0
100
AcDbPolyline
 90
       12
 70
   128
 43
0.0
 10
0.2194106222070984
 20
0.1666477911088628
 10
0.2277493598123323
 20
0.1827852422874683
 10
0.2309429167116248
 20
0.1888146212281341
 10
0.2332493777731097
 20
0.1921839786407806
 10
0.2355558388345929
 20
0.1936026572447021
 10
0.2383945584790512
 20
0.1937799929245254
 10
0.2401687555561127
 20
0.1927159822629179
 10
0.2414106940502025
 20
0.1905879677743691
 10
0.2414106940502025
 20
0.1879279496636832
 10
0.2394590756449981
 20
0.1847359245135269
 10
0.2336042204293884
 20
0.1783518776305475
 10
0.2213622406123028
 20
0.1650517802424514
  0
LWPOLYLINE
  5
AF4
330
2
100
AcDbEntity
  8
Profilo
  6
Continuous
370
     0
100
AcDbPolyline
 90
       13
 70
   128
 43
0.0
 10
0.2122821628477303
 20
0.1697914102431048
 10
0.2129242299057685
 20
0.1821499385179876
 10
0.213532894084054
 20
0.1918073910691902
 10
0.2140402919559465
 20
0.1989276047016859
 10
0.2159446185621763
 20
0.202211695650363
 10
0.2190871854314713
 20
0.2038972829816381
 10
0.2226766045912731
 20
0.2040404491797383
 10
0.225197973262935
 20
0.2025895412380945
 10
0.2273184291587056
 20
0.1988611665606132
 10
0.2271211103452517
 20
0.1960921946341056
 10
0.2251718869206718
 20
0.191061997100975
 10
0.2224824411928241
 20
0.1845735126095071
 10
0.2165784014310452
 20
0.1686917876758618
  0
LWPOLYLINE
  5
AF5
330
2
100
AcDbEntity
  8
Profilo
  6
Continuous
370
     0
100
AcDbPolyline
 90
       10
 70
   128
 43
0.0
 10
0.2171776856972321
 20
0.1681722360188296
 10
0.2225169004319485
 20
0.1817086032380584
 10
0.226291103078099
 20
0.1911417017981545
 10
0.228771742351942
 20
0.1958161824121811
 10
0.2302751611725677
 20
0.1968228086920651
 10
0.230682339116868
 20
0.1958397941766363
 10
0.2307731741420762
 20
0.1937660160492816
 10
0.2293605903466587
 20
0.1906856116420428
 10
0.2260154845665421
 20
0.1839255475635133
 10
0.2178448283997663
 20
0.1674888454897803
  0
LWPOLYLINE
  5
AF6
330
2
100
AcDbEntity
  8
Profilo
  6
Continuous
370
     0
100
AcDbPolyline
 90
        5
 70
   128
 43
0.0
 10
0.2277537974911914
 20
0.1982737187007531
 10
0.2317159340484116
 20
0.2002987829120773
 10
0.2323715927929248
 20
0.2005703656563433
 10
0.2328581231121698
 20
0.1984685431296704
 10
0.2330679822430144
 20
0.1947165566877342
  0
LWPOLYLINE
  5
AF7
330
2
100
AcDbEntity
  8
Profilo
  6
Continuous
370
     0
100
AcDbPolyline
 90
       12
 70
   128
 43
0.0
 10
0.2131414105643918
 20
0.169571485729656
 10
0.2146698643581966
 20
0.1876716433088321
 10
0.2153129827853191
 20
0.1944641844215422
 10
0.2161544776930226
 20
0.1984597092084266
 10
0.2177424650626902
 20
0.2006530417694263
 10
0.2202972366141067
 20
0.2019032095514626
 10
0.2223435602323038
 20
0.2015991477059722
 10
0.2243053176762297
 20
0.2001083879608184
 10
0.2253232625369803
 20
0.1976508516722464
 10
0.2247417373777998
 20
0.1939549529387858
 10
0.221775625451839
 20
0.1858163065990983
 10
0.2155552377806826
 20
0.1688438159864831
  0
LWPOLYLINE
  5
AF8
330
2
100
AcDbEntity
  8
Profilo
  6
Continuous
370
     0
100
AcDbPolyline
 90
       13
 70
   128
 43
0.0
 10
0.2053525619035919
 20
0.1697478678106745
 10
0.2012163504978004
 20
0.1814113675613798
 10
0.1980829357840934
 20
0.1905666160065385
 10
0.1958269225007199
 20
0.1973390084079001
 10
0.1963295236789941
 20
0.2011018670603046
 10
0.1985878305435984
 20
0.2038617549719082
 10
0.2018492341068561
 20
0.2053676345363502
 10
0.2047339134476742
 20
0.204992056403037
 10
0.2081197464680911
 20
0.2023589506893511
 10
0.2089970873359201
 20
0.1997252435595496
 10
0.2091212129671123
 20
0.1943320115036369
 10
0.2091195246213966
 20
0.1873082271626603
 10
0.2097425761358418
 20
0.1703760483546339
  0
LWPOLYLINE
  5
AF9
330
2
100
AcDbEntity
  8
Profilo
  6
Continuous
370
     0
100
AcDbPolyline
 90
       10
 70
   128
 43
0.0
 10
0.2104950664149305
 20
0.1701253813725658
 10
0.2102477141588095
 20
0.1846745830117837
 10
0.2101247322003241
 20
0.1948339545226891
 10
0.2106276977670698
 20
0.2001019110388822
 10
0.2116314564443427
 20
0.2016072459303146
 10
0.2123838231820001
 20
0.2008548791926563
 10
0.2132613443343649
 20
0.1989737190850494
 10
0.2131351068094587
 20
0.1955872240860108
 10
0.2126315965697005
 20
0.1880616226838327
 10
0.2113729481363686
 20
0.1697493153093486
  0
LWPOLYLINE
  5
AFA
330
2
100
AcDbEntity
  8
Profilo
  6
Continuous
370
     0
100
AcDbPolyline
 90
        5
 70
   128
 43
0.0
 10
0.2087467809229244
 20
0.2019828278830273
 10
0.2116323592700058
 20
0.2053699872771073
 10
0.2121341787476274
 20
0.2058718067547285
 10
0.2133880068102523
 20
0.2041161630338824
 10
0.2150177144157388
 20
0.200730089166423
  0
LWPOLYLINE
  5
AFB
330
2
100
AcDbEntity
  8
Profilo
  6
Continuous
370
     0
100
AcDbPolyline
 90
       12
 70
   128
 43
0.0
 10
0.2062305647500422
 20
0.1698735039194656
 10
0.2007160414977795
 20
0.1871807829861207
 10
0.1987108125020855
 20
0.1937023834610037
 10
0.1979592312844807
 20
0.197715793192845
 10
0.1985869882804414
 20
0.2003498647111201
 10
0.2004688709291751
 20
0.202482537883353
 10
0.2024757868676057
 20
0.2029847155136282
 10
0.2048587034739084
 20
0.2023581651692985
 10
0.206739620318052
 20
0.2004772483251536
 10
0.2076167203388393
 20
0.1968401430871525
 10
0.2079909153553834
 20
0.1881859324189619
 10
0.2087391174651361
 20
0.1701249564215872
  0
LWPOLYLINE
  5
AFC
330
2
100
AcDbEntity
  8
Profilo
  6
Continuous
370
     0
100
AcDbPolyline
 90
       13
 70
   128
 43
0.0
 10
0.1989671083903295
 20
0.1670557963743335
 10
0.190682319212389
 20
0.1762486054937047
 10
0.1842838595923768
 20
0.1835078462495776
 10
0.1796078927253186
 20
0.1889013820685878
 10
0.1786322520023342
 20
0.1925701473052901
 10
0.1796624921137175
 20
0.1959841678811265
 10
0.1820993609526218
 20
0.1986235042990565
 10
0.1849081846826392
 20
0.199380434340247
 10
0.1890439324429958
 20
0.1982434640661017
 10
0.1908623657980952
 20
0.1961459797689042
 10
0.1930409434829132
 20
0.191210783880952
 10
0.1957272695546577
 20
0.1847210071856165
 10
0.2027825584002303
 20
0.169316145236148
  0
LWPOLYLINE
  5
AFD
330
2
100
AcDbEntity
  8
Profilo
  6
Continuous
370
     0
100
AcDbPolyline
 90
       10
 70
   128
 43
0.0
 10
0.2035736948685722
 20
0.1693725247047624
 10
0.1977774327603543
 20
0.1827195767032392
 10
0.193775989085575
 20
0.1920585489473507
 10
0.192224708997083
 20
0.1971179827402649
 10
0.1925759943714846
 20
0.1988928526519194
 10
0.1935590088869132
 20
0.1984856747076191
 10
0.1950896215257354
 20
0.1970835221933842
 10
0.1962689487901577
 20
0.193906499767496
 10
0.1986836889604346
 20
0.186761065635404
 10
0.2045286660748433
 20
0.1693610357564546
  0
LWPOLYLINE
  5
AFE
330
2
100
AcDbEntity
  8
Profilo
  6
Continuous
370
     0
100
AcDbPolyline
 90
        5
 70
   128
 43
0.0
 10
0.1897671727085106
 20
0.1981359276010155
 10
0.1911368896999444
 20
0.2023695178647793
 10
0.1914084724442093
 20
0.203025176609293
 10
0.19323871429366
 20
0.2018829925358221
 10
0.1960401621641881
 20
0.1993783302943242
  0
LWPOLYLINE
  5
AFF
330
2
100
AcDbEntity
  8
Profilo
  6
Continuous
370
     0
100
AcDbPolyline
 90
       12
 70
   128
 43
0.0
 10
0.1997301983923096
 20
0.1675078661466955
 10
0.1880122342698576
 20
0.1813873903538061
 10
0.1836639357884968
 20
0.1866451956370163
 10
0.1814336998728623
 20
0.190065485063792
 10
0.1810056561831124
 20
0.1927392820286027
 10
0.1819281503552033
 20
0.1954297804332901
 10
0.1835901238549786
 20
0.1966617455473731
 10
0.1860314221715404
 20
0.196994791214099
 10
0.1884889584601128
 20
0.1959768463533484
 10
0.1906911531336333
 20
0.1929522509128516
 10
0.1943486872935003
 20
0.1851000010397741
 10
0.201951572195423
 20
0.1687001595300857
  0
LWPOLYLINE
  5
B00
330
2
100
AcDbEntity
  8
Profilo
  6
Continuous
370
     0
100
AcDbPolyline
 90
       13
 70
   128
 43
0.0
 10
0.1940979297210534
 20
0.1621250394065765
 10
0.1829258468215065
 20
0.1674476360392119
 10
0.1742364497701543
 20
0.1717057155058987
 10
0.1678524028871744
 20
0.1748992778066372
 10
0.1655470527188039
 20
0.1779154133777885
 10
0.1651923813591554
 20
0.1814638129333608
 10
0.1664337242832536
 20
0.184834791160793
 10
0.1687390744516259
 20
0.1866089936393034
 10
0.172995106846056
 20
0.1871412522222768
 10
0.1754777926942526
 20
0.1858993137281886
 10
0.1793791537290359
 20
0.1821734928444754
 10
0.1843445254254272
 20
0.1772057334666739
 10
0.1967579478317403
 20
0.1656734389621488
  0
LWPOLYLINE
  5
B01
330
2
100
AcDbEntity
  8
Profilo
  6
Continuous
370
     0
100
AcDbPolyline
 90
       10
 70
   128
 43
0.0
 10
0.1974672871336998
 20
0.1660282816184297
 10
0.1870045435361141
 20
0.1761412163007254
 10
0.1797338216713504
 20
0.1832380154118709
 10
0.1763644642587041
 20
0.1873186735504169
 10
0.1760097963163896
 20
0.1890928706274799
 10
0.1770738035606636
 20
0.1890928706274799
 10
0.1790244857867231
 20
0.1883831907163651
 10
0.1813298359550954
 20
0.1858993137281886
 10
0.1862952042341528
 20
0.1802218744392725
 10
0.1983539621154853
 20
0.1663831188732634
  0
LWPOLYLINE
  5
B02
330
2
100
AcDbEntity
  8
Profilo
  6
Continuous
370
     0
100
AcDbPolyline
 90
        5
 70
   128
 43
0.0
 10
0.1737044461480173
 20
0.1873186735504169
 10
0.1733497747883705
 20
0.1917541689437976
 10
0.1733497747883705
 20
0.1924638488549122
 10
0.1754777926942526
 20
0.1921090116000785
 10
0.1790244857867231
 20
0.1908670731059901
  0
LWPOLYLINE
  5
B03
330
2
100
AcDbEntity
  8
Profilo
  6
Continuous
370
     0
100
AcDbPolyline
 90
       12
 70
   128
 43
0.0
 10
0.1946299333431904
 20
0.16283471931769
 10
0.1784924821645861
 20
0.171173456922924
 10
0.172463103223919
 20
0.1743670138222164
 10
0.1690937458112727
 20
0.1766734748837002
 10
0.1676750672073519
 20
0.178979935945184
 10
0.1674977315275277
 20
0.1818186555896417
 10
0.1685617421891357
 20
0.1835928526667048
 10
0.1706897566776855
 20
0.184834791160793
 10
0.1733497747883705
 20
0.184834791160793
 10
0.1765417999385266
 20
0.18288317275559
 10
0.1829258468215065
 20
0.17702831753998
 10
0.1962259442096033
 20
0.1647863377228942
  0
LWPOLYLINE
  5
B04
330
2
100
AcDbEntity
  8
Profilo
  6
Continuous
370
     0
100
AcDbPolyline
 90
       13
 70
   128
 43
0.0
 10
0.1914863142089482
 20
0.155706259958321
 10
0.1791277859340659
 20
0.1563483270163601
 10
0.1694703333828633
 20
0.1569569911946442
 10
0.1623501197503681
 20
0.1574643890665379
 10
0.1590660288016912
 20
0.1593687156727677
 10
0.1573804414704158
 20
0.1625112825420618
 10
0.1572372752723157
 20
0.1661007017018639
 10
0.1586881832139595
 20
0.1686220703735262
 10
0.1624165578914403
 20
0.1707425262692968
 10
0.165185529817949
 20
0.1705452074558427
 10
0.170215727351078
 20
0.1685959840312634
 10
0.1767042118425464
 20
0.1659065383034146
 10
0.1925859367761922
 20
0.1600024985416368
  0
LWPOLYLINE
  5
B05
330
2
100
AcDbEntity
  8
Profilo
  6
Continuous
370
     0
100
AcDbPolyline
 90
       10
 70
   128
 43
0.0
 10
0.1931054884332239
 20
0.1606017828078226
 10
0.1795691212139945
 20
0.1659409975425388
 10
0.1701360226538997
 20
0.1697152001886908
 10
0.1654615420398733
 20
0.1721958394625327
 10
0.1644549157599882
 20
0.173699258283158
 10
0.1654379302754168
 20
0.1741064362274582
 10
0.1675117084027724
 20
0.1741972712526667
 10
0.1705921128100114
 20
0.1727846874572505
 10
0.1773521768885404
 20
0.1694395816771321
 10
0.1937888789622735
 20
0.1612689255103574
  0
LWPOLYLINE
  5
B06
330
2
100
AcDbEntity
  8
Profilo
  6
Continuous
370
     0
100
AcDbPolyline
 90
        5
 70
   128
 43
0.0
 10
0.1630040057513009
 20
0.1711778946017821
 10
0.1609789415399769
 20
0.175140031159003
 10
0.1607073587957102
 20
0.1757956899035165
 10
0.1628091813223824
 20
0.1762822202227603
 10
0.1665611677643197
 20
0.1764920793536062
  0
LWPOLYLINE
  5
B07
330
2
100
AcDbEntity
  8
Profilo
  6
Continuous
370
     0
100
AcDbPolyline
 90
       12
 70
   128
 43
0.0
 10
0.1917062387223984
 20
0.1565655076749834
 10
0.1736060811432216
 20
0.1580939614687882
 10
0.1668135400305106
 20
0.1587370798959109
 10
0.1628180152436267
 20
0.1595785748036136
 10
0.1606246826826274
 20
0.1611665621732814
 10
0.1593745149005914
 20
0.1637213337246979
 10
0.1596785767460818
 20
0.165767657342895
 10
0.1611693364912361
 20
0.1677294147868213
 10
0.1636268727798067
 20
0.1687473596475719
 10
0.1673227715132681
 20
0.1681658344883903
 10
0.1754614178529563
 20
0.1651997225624291
 10
0.1924339084655708
 20
0.158979334891274
  0
LWPOLYLINE
  5
B08
330
2
100
AcDbEntity
  8
Profilo
  6
Continuous
370
     0
100
AcDbPolyline
 90
       13
 70
   128
 43
0.0
 10
0.1915298566413794
 20
0.1487766590141835
 10
0.1798663568906742
 20
0.1446404476083924
 10
0.1707111084455148
 20
0.1415070328946848
 10
0.1639387160441539
 20
0.1392510196113112
 10
0.1601758573917495
 20
0.1397536207895846
 10
0.1574159694801465
 20
0.14201192765419
 10
0.155910089915704
 20
0.145273331217447
 10
0.1562856680490159
 20
0.1481580105582652
 10
0.158918773762702
 20
0.151543843578682
 10
0.1615524808925051
 20
0.1524211844465109
 10
0.1669457129484171
 20
0.1525453100777034
 10
0.1739694972893935
 20
0.1525436217319869
 10
0.1909016760974203
 20
0.1531666732464332
  0
LWPOLYLINE
  5
B09
330
2
100
AcDbEntity
  8
Profilo
  6
Continuous
370
     0
100
AcDbPolyline
 90
       10
 70
   128
 43
0.0
 10
0.1911523430794875
 20
0.1539191635255221
 10
0.1766031414402696
 20
0.1536718112694002
 10
0.1664437699293642
 20
0.1535488293109144
 10
0.1611758134131718
 20
0.1540517948776605
 10
0.15967047852174
 20
0.1550555535549336
 10
0.1604228452593974
 20
0.1558079202925915
 10
0.1623040053670037
 20
0.1566854414449568
 10
0.1656905003660418
 20
0.1565592039200492
 10
0.1732161017682208
 20
0.1560556936802924
 10
0.1915284091427056
 20
0.1547970452469605
  0
LWPOLYLINE
  5
B0A
330
2
100
AcDbEntity
  8
Profilo
  6
Continuous
370
     0
100
AcDbPolyline
 90
        5
 70
   128
 43
0.0
 10
0.1592948965690264
 20
0.1521708780335154
 10
0.1559077371749462
 20
0.1550564563805976
 10
0.1554059176973246
 20
0.1555582758582188
 10
0.1571615614181712
 20
0.1568121039208441
 10
0.1605476352856299
 20
0.1584418115263304
  0
LWPOLYLINE
  5
B0B
330
2
100
AcDbEntity
  8
Profilo
  6
Continuous
370
     0
100
AcDbPolyline
 90
       12
 70
   128
 43
0.0
 10
0.1914042205325883
 20
0.1496546618606327
 10
0.1740969414659335
 20
0.1441401386083702
 10
0.1675753409910501
 20
0.1421349096126767
 10
0.1635619312592083
 20
0.1413833283950709
 10
0.1609278597409338
 20
0.1420110853910319
 10
0.1587951865686998
 20
0.143892968039766
 10
0.1582930089384258
 20
0.1458998839781962
 10
0.1589195592827546
 20
0.1482828005844987
 10
0.1608004761269
 20
0.1501637174286436
 10
0.1644375813649008
 20
0.15104081744943
 10
0.1730917920330912
 20
0.1514150124659741
 10
0.1911527680304668
 20
0.1521632145757281
  0
LWPOLYLINE
  5
B0C
330
2
100
AcDbEntity
  8
Profilo
  6
Continuous
370
     0
100
AcDbPolyline
 90
       13
 70
   128
 43
0.0
 10
0.1942219280777204
 20
0.1423912055009202
 10
0.1850291189583493
 20
0.1341064163229806
 10
0.1777698782024759
 20
0.1277079567029679
 10
0.1723763423834657
 20
0.1230319898359093
 10
0.1687075771467639
 20
0.1220563491129254
 10
0.1652935565709266
 20
0.1230865892243085
 10
0.1626542201529963
 20
0.1255234580632121
 10
0.1618972901118065
 20
0.1283322817932297
 10
0.1630342603859509
 20
0.1324680295535874
 10
0.1651317446831497
 20
0.1342864629086866
 10
0.1700669405711024
 20
0.1364650405935035
 10
0.1765567172664364
 20
0.1391513666652495
 10
0.1919615792159048
 20
0.1462066555108212
  0
LWPOLYLINE
  5
B0D
330
2
100
AcDbEntity
  8
Profilo
  6
Continuous
370
     0
100
AcDbPolyline
 90
       10
 70
   128
 43
0.0
 10
0.1919051997472911
 20
0.1469977919791636
 10
0.1785581477488149
 20
0.1412015298709448
 10
0.1692191755047026
 20
0.1372000861961659
 10
0.1641597417117888
 20
0.1356488061076739
 10
0.1623848718001339
 20
0.1360000914820749
 10
0.1627920497444342
 20
0.1369831059975037
 10
0.1641942022586689
 20
0.138513718636327
 10
0.1673712246845567
 20
0.1396930459007495
 10
0.17451665881665
 20
0.1421077860710251
 10
0.1919166886955994
 20
0.1479527631854347
  0
LWPOLYLINE
  5
B0E
330
2
100
AcDbEntity
  8
Profilo
  6
Continuous
370
     0
100
AcDbPolyline
 90
        5
 70
   128
 43
0.0
 10
0.1631417968510382
 20
0.1331912698191018
 10
0.158908206587274
 20
0.1345609868105346
 10
0.1582525478427608
 20
0.1348325695548002
 10
0.1593947319162317
 20
0.1366628114042516
 10
0.1618993941577289
 20
0.1394642592747799
  0
LWPOLYLINE
  5
B0F
330
2
100
AcDbEntity
  8
Profilo
  6
Continuous
370
     0
100
AcDbPolyline
 90
       12
 70
   128
 43
0.0
 10
0.1937698583053573
 20
0.1431542955029001
 10
0.1798903340982483
 20
0.1314363313804489
 10
0.1746325288150372
 20
0.1270880328990875
 10
0.1712122393882611
 20
0.1248577969834534
 10
0.1685384424234508
 20
0.1244297532937038
 10
0.1658479440187632
 20
0.1253522474657942
 10
0.1646159789046797
 20
0.12701422096557
 10
0.1642829332379547
 20
0.1294555192821316
 10
0.1653008780987053
 20
0.1319130555707035
 10
0.1683254735392021
 20
0.1341152502442244
 10
0.1761777234122788
 20
0.1377727844040912
 10
0.1925775649219672
 20
0.1453756693060137
  0
LWPOLYLINE
  5
B10
330
2
100
AcDbEntity
  8
Profilo
  6
Continuous
370
     0
100
AcDbPolyline
 90
       13
 70
   128
 43
0.0
 10
0.1991526850454781
 20
0.1375220268316446
 10
0.1938300884128419
 20
0.1263499439320972
 10
0.1895720089461561
 20
0.1176605468807456
 10
0.1863784466454172
 20
0.1112764999977662
 10
0.1833623110742659
 20
0.1089711498293939
 10
0.179813911518693
 20
0.108616478469747
 10
0.1764429332912611
 20
0.1098578213938448
 10
0.1746687308127515
 20
0.1121631715622171
 10
0.1741364722297762
 20
0.1164192039566478
 10
0.1753784107238661
 20
0.1189018898048435
 10
0.1791042316075784
 20
0.1228032508396273
 10
0.1840719909853805
 20
0.1277686225360186
 10
0.1956042854899052
 20
0.1401820449423305
  0
LWPOLYLINE
  5
B11
330
2
100
AcDbEntity
  8
Profilo
  6
Continuous
370
     0
100
AcDbPolyline
 90
       10
 70
   128
 43
0.0
 10
0.1952494428336247
 20
0.1408913842442911
 10
0.1851365081513292
 20
0.1304286406467046
 10
0.1780397090401833
 20
0.1231579187819409
 10
0.1739590509016369
 20
0.1197885613692944
 10
0.1721848538245736
 20
0.1194338934269807
 10
0.1721848538245736
 20
0.120497900671255
 10
0.1728945337356882
 20
0.1224485828973136
 10
0.1753784107238661
 20
0.1247539330656857
 10
0.181055850012781
 20
0.129719301344744
 10
0.1948946055787906
 20
0.1417780592260753
  0
LWPOLYLINE
  5
B12
330
2
100
AcDbEntity
  8
Profilo
  6
Continuous
370
     0
100
AcDbPolyline
 90
        5
 70
   128
 43
0.0
 10
0.1739590509016369
 20
0.1171285432586084
 10
0.1695235555082564
 20
0.1167738718989615
 10
0.1688138755971418
 20
0.1167738718989615
 10
0.1691687128519759
 20
0.1189018898048435
 10
0.1704106513460639
 20
0.1224485828973136
  0
LWPOLYLINE
  5
B13
330
2
100
AcDbEntity
  8
Profilo
  6
Continuous
370
     0
100
AcDbPolyline
 90
       12
 70
   128
 43
0.0
 10
0.1984430051343635
 20
0.1380540304537818
 10
0.1901042675291296
 20
0.1219165792751764
 10
0.1869107106298371
 20
0.1158872003345106
 10
0.184604249568354
 20
0.112517842921864
 10
0.1822977885068691
 20
0.1110991643179426
 10
0.1794590688624125
 20
0.1109218286381193
 10
0.1776848717853492
 20
0.1119858392997268
 10
0.1764429332912611
 20
0.1141138537882755
 10
0.1764429332912611
 20
0.1167738718989615
 10
0.1783945516964638
 20
0.1199658970491177
 10
0.1842494069120735
 20
0.1263499439320972
 10
0.1964913867291591
 20
0.1396500413201933
  0
LWPOLYLINE
  5
B14
330
2
100
AcDbEntity
  8
Profilo
  6
Continuous
370
     0
100
AcDbPolyline
 90
       13
 70
   128
 43
0.0
 10
0.2055714644937316
 20
0.1349104113195398
 10
0.2049293974356934
 20
0.122551883044657
 10
0.2043207332574097
 20
0.1128944304934542
 10
0.2038133353855154
 20
0.1057742168609586
 10
0.2019090087792856
 20
0.1024901259122817
 10
0.1987664419099924
 20
0.1008045385810063
 10
0.1951770227501905
 20
0.1006613723829064
 10
0.1926556540785269
 20
0.1021122803245502
 10
0.1905351981827563
 20
0.1058406550020314
 10
0.1907325169962102
 20
0.108609626928539
 10
0.1926817404207901
 20
0.1136398244616694
 10
0.1953711861486378
 20
0.1201283089531375
 10
0.2012752259104167
 20
0.1360100338867827
  0
LWPOLYLINE
  5
B15
330
2
100
AcDbEntity
  8
Profilo
  6
Continuous
370
     0
100
AcDbPolyline
 90
       10
 70
   128
 43
0.0
 10
0.2006759416442316
 20
0.1365295855438151
 10
0.1953367269095152
 20
0.1229932183245863
 10
0.1915625242633629
 20
0.1135601197644902
 10
0.1890818849895217
 20
0.1088856391504635
 10
0.1875784661688959
 20
0.1078790128705793
 10
0.1871712882245957
 20
0.1088620273860081
 10
0.1870804531993875
 20
0.1109358055133631
 10
0.1884930369948032
 20
0.1140162099206015
 10
0.1918381427749216
 20
0.1207762739991312
 10
0.2000087989416956
 20
0.1372129760728644
  0
LWPOLYLINE
  5
B16
330
2
100
AcDbEntity
  8
Profilo
  6
Continuous
370
     0
100
AcDbPolyline
 90
        5
 70
   128
 43
0.0
 10
0.1900998298502723
 20
0.1064281028618916
 10
0.1861376932930503
 20
0.1044030386505672
 10
0.1854820345485371
 20
0.1041314559063013
 10
0.1849955042292939
 20
0.106233278432974
 10
0.1847856450984475
 20
0.1099852648749104
  0
LWPOLYLINE
  5
B17
330
2
100
AcDbEntity
  8
Profilo
  6
Continuous
370
     0
100
AcDbPolyline
 90
       12
 70
   128
 43
0.0
 10
0.2047122167770701
 20
0.1351303358329889
 10
0.2031837629832653
 20
0.1170301782538123
 10
0.2025406445561428
 20
0.1102376371411022
 10
0.2016991496484393
 20
0.1062421123542178
 10
0.2001111622787717
 20
0.1040487797932181
 10
0.1975563907273552
 20
0.1027986120111819
 10
0.1955100671091581
 20
0.1031026738566725
 10
0.1935483096652322
 20
0.1045934336018259
 10
0.1925303648044816
 20
0.1070509698903981
 10
0.1931118899636639
 20
0.1107468686238588
 10
0.1960780018896246
 20
0.1188855149635464
 10
0.2022983895607793
 20
0.1358580055761618
  0
LWPOLYLINE
  5
B18
330
2
100
AcDbEntity
  8
Profilo
  6
Continuous
370
     0
100
AcDbPolyline
 90
       13
 70
   128
 43
0.0
 10
0.2125010654378701
 20
0.1349539537519701
 10
0.2166372768436615
 20
0.1232904540012649
 10
0.2197706915573685
 20
0.1141352055561062
 10
0.222026704840742
 20
0.1073628131547448
 10
0.2215241036624695
 20
0.10359995450234
 10
0.2192657967978635
 20
0.1008400665907369
 10
0.2160043932346058
 20
0.0993341870262947
 10
0.2131197138937877
 20
0.0997097651596078
 10
0.2097338808733709
 20
0.1023428708732941
 10
0.2088565400055435
 20
0.1049765780030953
 10
0.2087324143743496
 20
0.1103698100590078
 10
0.2087341027200671
 20
0.1173935943999848
 10
0.2081110512056201
 20
0.1343257732080108
  0
LWPOLYLINE
  5
B19
330
2
100
AcDbEntity
  8
Profilo
  6
Continuous
370
     0
100
AcDbPolyline
 90
       10
 70
   128
 43
0.0
 10
0.2073585609265314
 20
0.1345764401900789
 10
0.2076059131826542
 20
0.1200272385508611
 10
0.2077288951411396
 20
0.109867867039956
 10
0.2072259295743921
 20
0.1045999105237625
 10
0.2062221708971192
 20
0.1030945756323305
 10
0.2054698041594618
 20
0.1038469423699886
 10
0.204592283007097
 20
0.1057281024775955
 10
0.204718520532005
 20
0.1091145974766339
 10
0.2052220307717614
 20
0.1166401988788119
 10
0.2064806792050933
 20
0.1349525062532966
  0
LWPOLYLINE
  5
B1A
330
2
100
AcDbEntity
  8
Profilo
  6
Continuous
370
     0
100
AcDbPolyline
 90
        5
 70
   128
 43
0.0
 10
0.2091068464185375
 20
0.1027189936796173
 10
0.2062212680714561
 20
0.0993318342855374
 10
0.2057194485938345
 20
0.0988300148079165
 10
0.2044656205312096
 20
0.1005856585287623
 10
0.2028359129257231
 20
0.1039717323962219
  0
LWPOLYLINE
  5
B1B
330
2
100
AcDbEntity
  8
Profilo
  6
Continuous
370
     0
100
AcDbPolyline
 90
       12
 70
   128
 43
0.0
 10
0.2116230625914215
 20
0.134828317643179
 10
0.2171375858436841
 20
0.1175210385765242
 10
0.2191428148393764
 20
0.1109994381016413
 10
0.219894396056983
 20
0.1069860283697996
 10
0.2192666390610223
 20
0.1043519568515245
 10
0.2173847564122868
 20
0.1022192836792917
 10
0.215377840473858
 20
0.1017171060490167
 10
0.2129949238675552
 20
0.1023436563933464
 10
0.2111140070234099
 20
0.1042245732374913
 10
0.2102369070026244
 20
0.1078616784754924
 10
0.2098627119860803
 20
0.1165158891436832
 10
0.2091145098763258
 20
0.1345768651410575
  0
LWPOLYLINE
  5
B1C
330
2
100
AcDbEntity
  8
Profilo
  6
Continuous
370
     0
100
AcDbPolyline
 90
       13
 70
   128
 43
0.0
 10
0.2188865189511342
 20
0.1376460251883111
 10
0.2271713081290729
 20
0.12845321606894
 10
0.2335697677490851
 20
0.1211939753130671
 10
0.2382457346161451
 20
0.1158004394940568
 10
0.2392213753391277
 20
0.1121316742573546
 10
0.2381911352277444
 20
0.1087176536815182
 10
0.2357542663888419
 20
0.1060783172635882
 10
0.2329454426588244
 20
0.1053213872223977
 10
0.2288096948984661
 20
0.1064583574965427
 10
0.2269912615433667
 20
0.1085558417937404
 10
0.2248126838585505
 20
0.1134910376816926
 10
0.2221263577868042
 20
0.1199808143770282
 10
0.2150710689412316
 20
0.1353856763264962
  0
LWPOLYLINE
  5
B1D
330
2
100
AcDbEntity
  8
Profilo
  6
Continuous
370
     0
100
AcDbPolyline
 90
       10
 70
   128
 43
0.0
 10
0.2142799324728897
 20
0.1353292968578825
 10
0.2200761945811094
 20
0.1219822448594052
 10
0.2240776382558869
 20
0.1126432726152944
 10
0.2256289183443789
 20
0.1075838388223795
 10
0.225277632969979
 20
0.1058089689107253
 10
0.2242946184545504
 20
0.1062161468550253
 10
0.2227640058157265
 20
0.1076182993692605
 10
0.2215846785513043
 20
0.1107953217951487
 10
0.219169938381029
 20
0.1179407559272405
 10
0.2133249612666186
 20
0.1353407858061906
  0
LWPOLYLINE
  5
B1E
330
2
100
AcDbEntity
  8
Profilo
  6
Continuous
370
     0
100
AcDbPolyline
 90
        5
 70
   128
 43
0.0
 10
0.2280864546329513
 20
0.1065658939616289
 10
0.2267167376415193
 20
0.1023323036978654
 10
0.2264451548972526
 20
0.1016766449533522
 10
0.2246149130478019
 20
0.1028188290268224
 10
0.2218134651772738
 20
0.1053234912683209
  0
LWPOLYLINE
  5
B1F
330
2
100
AcDbEntity
  8
Profilo
  6
Continuous
370
     0
100
AcDbPolyline
 90
       12
 70
   128
 43
0.0
 10
0.218123428949154
 20
0.1371939554159491
 10
0.2298413930716043
 20
0.1233144312088386
 10
0.2341896915529651
 20
0.1180566259256284
 10
0.2364199274685996
 20
0.1146363364988527
 10
0.2368479711583495
 20
0.111962539534042
 10
0.2359254769862586
 20
0.1092720411293542
 10
0.2342635034864833
 20
0.1080400760152715
 10
0.2318222051699215
 20
0.1077070303485456
 10
0.2293646688813491
 20
0.1087249752092967
 10
0.2271624742078286
 20
0.1117495706497935
 10
0.2235049400479616
 20
0.1196018205228706
 10
0.2159020551460407
 20
0.136001662032559
  0
LWPOLYLINE
  5
B20
330
2
100
AcDbEntity
  8
Profilo
  6
Continuous
370
     0
100
AcDbPolyline
 90
       13
 70
   128
 43
0.0
 10
0.2237556976204085
 20
0.1425767821560684
 10
0.2349277805199572
 20
0.1372541855234332
 10
0.2436171775713076
 20
0.1329961060567464
 10
0.2500012244542875
 20
0.1298025437560077
 10
0.2523065746226598
 20
0.1267864081848564
 10
0.2526612459823065
 20
0.1232380086292844
 10
0.2514199030582083
 20
0.1198670304018521
 10
0.249114552889836
 20
0.1180928279233417
 10
0.2448585204954059
 20
0.117560569340368
 10
0.2423758346472093
 20
0.1188025078344563
 10
0.238474473612426
 20
0.1225283287181695
 10
0.2335091019160347
 20
0.1274960880959712
 10
0.2210956795097234
 20
0.1390283826004963
  0
LWPOLYLINE
  5
B21
330
2
100
AcDbEntity
  8
Profilo
  6
Continuous
370
     0
100
AcDbPolyline
 90
       10
 70
   128
 43
0.0
 10
0.2203863402077621
 20
0.1386735399442154
 10
0.2308490838053496
 20
0.1285606052619195
 10
0.2381198056701133
 20
0.121463806150774
 10
0.2414891630827596
 20
0.1173831480122282
 10
0.2418438310250723
 20
0.1156089509351652
 10
0.2407798237807983
 20
0.1156089509351652
 10
0.2388291415547405
 20
0.1163186308462798
 10
0.2365237913863682
 20
0.1188025078344563
 10
0.2315584231073091
 20
0.1244799471233726
 10
0.2194996652259784
 20
0.1383187026893815
  0
LWPOLYLINE
  5
B22
330
2
100
AcDbEntity
  8
Profilo
  6
Continuous
370
     0
100
AcDbPolyline
 90
        5
 70
   128
 43
0.0
 10
0.2441491811934446
 20
0.1173831480122282
 10
0.2445038525530914
 20
0.1129476526188475
 10
0.2445038525530914
 20
0.1122379727077327
 10
0.2423758346472093
 20
0.1125928099625666
 10
0.2388291415547405
 20
0.1138347484566548
  0
LWPOLYLINE
  5
B23
330
2
100
AcDbEntity
  8
Profilo
  6
Continuous
370
     0
100
AcDbPolyline
 90
       12
 70
   128
 43
0.0
 10
0.2232236939982715
 20
0.1418671022449549
 10
0.2393611451768776
 20
0.1335283646397211
 10
0.2453905241175429
 20
0.1303348077404287
 10
0.2487598815301892
 20
0.1280283466789447
 10
0.2501785601341118
 20
0.1257218856174609
 10
0.2503558958139342
 20
0.1228831659730034
 10
0.2492918851523262
 20
0.1211089688959404
 10
0.2471638706637782
 20
0.1198670304018521
 10
0.2445038525530914
 20
0.1198670304018521
 10
0.2413118274029353
 20
0.1218186488070549
 10
0.2349277805199572
 20
0.1276735040226651
 10
0.2216276831318604
 20
0.1399154838397507
  0
LWPOLYLINE
  5
B24
330
2
100
AcDbEntity
  8
Profilo
  6
Continuous
370
     0
100
AcDbPolyline
 90
       13
 70
   128
 43
0.0
 10
0.2263673131325137
 20
0.1489955616043237
 10
0.238725841407396
 20
0.1483534945462845
 10
0.2483832939585986
 20
0.1477448303680002
 10
0.2555035075910956
 20
0.1472374324961065
 10
0.2587875985397725
 20
0.1453331058898768
 10
0.2604731858710461
 20
0.1421905390205826
 10
0.260616352069148
 20
0.138601119860781
 10
0.2591654441275042
 20
0.1360797511891185
 10
0.2554370694500216
 20
0.1339592952933477
 10
0.2526680975235147
 20
0.134156614106802
 10
0.2476378999903839
 20
0.1361058375313813
 10
0.2411494154989155
 20
0.13879528325923
 10
0.2252676905652697
 20
0.1446993230210081
  0
LWPOLYLINE
  5
B25
330
2
100
AcDbEntity
  8
Profilo
  6
Continuous
370
     0
100
AcDbPolyline
 90
       10
 70
   128
 43
0.0
 10
0.224748138908238
 20
0.1441000387548219
 10
0.2382845061274674
 20
0.1387608240201059
 10
0.247717604687564
 20
0.1349866213739539
 10
0.2523920853015904
 20
0.132505982100112
 10
0.2533987115814738
 20
0.1310025632794864
 10
0.2524156970660452
 20
0.1305953853351864
 10
0.2503419189386913
 20
0.130504550309978
 10
0.2472615145314523
 20
0.1319171341053942
 10
0.2405014504529215
 20
0.1352622398855126
 10
0.2240647483791884
 20
0.1434328960522875
  0
LWPOLYLINE
  5
B26
330
2
100
AcDbEntity
  8
Profilo
  6
Continuous
370
     0
100
AcDbPolyline
 90
        5
 70
   128
 43
0.0
 10
0.2548496215901628
 20
0.1335239269608625
 10
0.2568746858014868
 20
0.1295617904036415
 10
0.2571462685457517
 20
0.128906131659128
 10
0.2550444460190795
 20
0.1284196013398839
 10
0.251292459577144
 20
0.128209742209038
  0
LWPOLYLINE
  5
B27
330
2
100
AcDbEntity
  8
Profilo
  6
Continuous
370
     0
100
AcDbPolyline
 90
       12
 70
   128
 43
0.0
 10
0.2261473886190652
 20
0.1481363138876612
 10
0.2442475461982421
 20
0.1466078600938565
 10
0.2510400873109513
 20
0.1459647416667336
 10
0.2550356120978352
 20
0.1451232467590308
 10
0.2572289446588363
 20
0.143535259389363
 10
0.2584791124408723
 20
0.1409804878379468
 10
0.2581750505953819
 20
0.1389341642197499
 10
0.2566842908502276
 20
0.1369724067758233
 10
0.2542267545616552
 20
0.1359544619150723
 10
0.2505308558281956
 20
0.1365359870742544
 10
0.2423922094885074
 20
0.1395020990002151
 10
0.2254197188758928
 20
0.1457224866713707
  0
LWPOLYLINE
  5
B28
330
2
100
AcDbEntity
  8
Profilo
  6
Continuous
370
     0
100
AcDbPolyline
 90
       13
 70
   128
 43
0.0
 10
0.2263237707000842
 20
0.155925162548461
 10
0.2379872704507895
 20
0.160061373954252
 10
0.2471425188959471
 20
0.1631947886679597
 10
0.2539149112973098
 20
0.1654508019513334
 10
0.2576777699497141
 20
0.1649482007730598
 10
0.2604376578613172
 20
0.1626898939084544
 10
0.2619435374257597
 20
0.1594284903451972
 10
0.261567959292446
 20
0.1565438110043791
 10
0.2589348535787599
 20
0.1531579779839624
 10
0.2563011464489586
 20
0.1522806371161336
 10
0.2509079143930466
 20
0.1521565114849412
 10
0.2438841300520684
 20
0.1521581998306573
 10
0.2269519512440434
 20
0.1515351483162115
  0
LWPOLYLINE
  5
B29
330
2
100
AcDbEntity
  8
Profilo
  6
Continuous
370
     0
100
AcDbPolyline
 90
       10
 70
   128
 43
0.0
 10
0.2267012842619744
 20
0.1507826580371225
 10
0.2412504859011924
 20
0.1510300102932442
 10
0.2514098574120978
 20
0.15115299225173
 10
0.2566778139282919
 20
0.1506500266849839
 10
0.2581831488197237
 20
0.1496462680077106
 10
0.2574307820820645
 20
0.1488939012700525
 10
0.2555496219744582
 20
0.1480163801176877
 10
0.2521631269754201
 20
0.1481426176425948
 10
0.2446375255732411
 20
0.1486461278823521
 10
0.2263252181987581
 20
0.149904776315684
  0
LWPOLYLINE
  5
B2A
330
2
100
AcDbEntity
  8
Profilo
  6
Continuous
370
     0
100
AcDbPolyline
 90
        5
 70
   128
 43
0.0
 10
0.2585587307724355
 20
0.1525309435291287
 10
0.2619458901665157
 20
0.1496453651820468
 10
0.2624477096441373
 20
0.1491435457044257
 10
0.2606920659232907
 20
0.1478897176418008
 10
0.257305992055832
 20
0.1462600100363141
  0
LWPOLYLINE
  5
B2B
330
2
100
AcDbEntity
  8
Profilo
  6
Continuous
370
     0
100
AcDbPolyline
 90
       12
 70
   128
 43
0.0
 10
0.2264494068088754
 20
0.1550471597020118
 10
0.2437566858755302
 20
0.1605616829542746
 10
0.2502782863504118
 20
0.1625669119499677
 10
0.2542916960822537
 20
0.1633184931675733
 10
0.2569257676005299
 20
0.1626907361716121
 10
0.2590584407727621
 20
0.1608088535228784
 10
0.2595606184030361
 20
0.1588019375844483
 10
0.2589340680587073
 20
0.1564190209781457
 10
0.257053151214562
 20
0.1545381041340008
 10
0.2534160459765611
 20
0.1536610041132149
 10
0.2447618353083707
 20
0.1532868090966704
 10
0.2267008593109969
 20
0.1525386069869165
  0
LWPOLYLINE
  5
B2C
330
2
100
AcDbEntity
  8
Profilo
  6
Continuous
370
     0
100
AcDbPolyline
 90
       13
 70
   128
 43
0.0
 10
0.2236316992637433
 20
0.1623106160617245
 10
0.2328245083831144
 20
0.1705954052396636
 10
0.240083749138986
 20
0.1769938648596765
 10
0.2454772849579963
 20
0.1816698317267358
 10
0.2491460501946998
 20
0.1826454724497195
 10
0.2525600707705353
 20
0.1816152323383362
 10
0.2551994071884656
 20
0.1791783634994324
 10
0.2559563372296554
 20
0.1763695397694152
 10
0.254819366955511
 20
0.1722337920090573
 10
0.252721882658314
 20
0.1704153586539576
 10
0.2477866867703613
 20
0.168236780969141
 10
0.2412969100750255
 20
0.1655504548973952
 10
0.2258920481255571
 20
0.1584951660518232
  0
LWPOLYLINE
  5
B2D
330
2
100
AcDbEntity
  8
Profilo
  6
Continuous
370
     0
100
AcDbPolyline
 90
       10
 70
   128
 43
0.0
 10
0.2259484275941708
 20
0.1577040295834813
 10
0.2392954795926487
 20
0.1635002916917001
 10
0.2486344518367594
 20
0.1675017353664783
 10
0.2536938856296731
 20
0.169053015454971
 10
0.255468755541328
 20
0.1687017300805695
 10
0.2550615775970277
 20
0.1677187155651407
 10
0.253659425082793
 20
0.1661881029263179
 10
0.2504824026569052
 20
0.1650087756618952
 10
0.2433369685248137
 20
0.1625940354916195
 10
0.2259369386458625
 20
0.15674905837721
  0
LWPOLYLINE
  5
B2E
330
2
100
AcDbEntity
  8
Profilo
  6
Continuous
370
     0
100
AcDbPolyline
 90
        5
 70
   128
 43
0.0
 10
0.2547118304904237
 20
0.1715105517435429
 10
0.2589454207541879
 20
0.1701408347521098
 10
0.2596010794987011
 20
0.1698692520078444
 10
0.2584588954252303
 20
0.1680390101583928
 10
0.255954233183733
 20
0.1652375622878648
  0
LWPOLYLINE
  5
B2F
330
2
100
AcDbEntity
  8
Profilo
  6
Continuous
370
     0
100
AcDbPolyline
 90
       12
 70
   128
 43
0.0
 10
0.2240837690361046
 20
0.1615475260597445
 10
0.2379632932432154
 20
0.1732654901821955
 10
0.2432210985264247
 20
0.1776137886635567
 10
0.2466413879532008
 20
0.1798440245791912
 10
0.2493151849180111
 20
0.1802720682689407
 10
0.2520056833226987
 20
0.1793495740968505
 10
0.2532376484367822
 20
0.1776876005970744
 10
0.2535706941035072
 20
0.1752463022805131
 10
0.2525527492427566
 20
0.1727887659919411
 10
0.2495281538022598
 20
0.1705865713184198
 10
0.2416759039291831
 20
0.166929037158553
 10
0.2252760624194947
 20
0.1593261522566309
  0
LWPOLYLINE
  5
B30
330
2
100
AcDbEntity
  8
Profilo
  6
Continuous
370
     0
100
AcDbPolyline
 90
       14
 70
   128
 43
0.0
 10
0.1892808504822618
 20
0.2140945906492453
 10
0.1887142521499392
 20
0.2180644981332689
 10
0.1889037343980364
 20
0.2204606140750608
 10
0.1899606333345882
 20
0.2226382003473742
 10
0.1908008415387831
 20
0.2238875103004791
 10
0.1920361439573991
 20
0.2252094170918035
 10
0.1933140884204822
 20
0.226480261149982
 10
0.195273417602301
 20
0.2257799994861862
 10
0.196919486720893
 20
0.2249888848497766
 10
0.1984042669430335
 20
0.2242920533889065
 10
0.1998656050365466
 20
0.2227711368837242
 10
0.2005669816055313
 20
0.2209805763167654
 10
0.2015262514494895
 20
0.2180183947898675
 10
0.2018056354633981
 20
0.2167491404186522
  0
LWPOLYLINE
  5
B31
330
2
100
AcDbEntity
  8
Profilo
  6
Continuous
370
     0
100
AcDbPolyline
 90
        7
 70
   128
 43
0.0
 10
0.1829609684645017
 20
0.2203925001372865
 10
0.1836015284119812
 20
0.2217502819077137
 10
0.1843607102460587
 20
0.222846931094711
 10
0.1855908950335876
 20
0.2239932558992957
 10
0.1875624548235525
 20
0.2234568680757847
 10
0.188703402400722
 20
0.2228704452593397
 10
0.1896669676257406
 20
0.2222402111755426
  0
LWPOLYLINE
  5
B32
330
2
100
AcDbEntity
  8
Profilo
  6
Continuous
370
     0
100
AcDbPolyline
 90
        7
 70
   128
 43
0.0
 10
0.1844650634217014
 20
0.2196883199716649
 10
0.1849769073556648
 20
0.2206199068836626
 10
0.1855317530466831
 20
0.2211709209520126
 10
0.1862959606278161
 20
0.2216455915003603
 10
0.1875498469279133
 20
0.2214933523503979
 10
0.1883195834022247
 20
0.2212533216398946
 10
0.1889975437435258
 20
0.220792234159354
  0
LWPOLYLINE
  5
B33
330
2
100
AcDbEntity
  8
Profilo
  6
Continuous
370
     0
100
AcDbPolyline
 90
        5
 70
   128
 43
0.0
 10
0.1937388005632961
 20
0.2156060600574743
 10
0.1943128546734135
 20
0.2180618672921688
 10
0.1944152701664622
 20
0.2208189826023446
 10
0.195708434640787
 20
0.2181664958797145
 10
0.1969493961485447
 20
0.2162114864394999
  0
LWPOLYLINE
  5
B34
330
2
100
AcDbEntity
  8
Profilo
  6
Continuous
370
     0
100
AcDbPolyline
 90
       14
 70
   128
 43
0.0
 10
0.1764670961426924
 20
0.2084277563705243
 10
0.1750603318050774
 20
0.2121830477307667
 10
0.1747302899647077
 20
0.214563876895671
 10
0.1752943625118956
 20
0.2169177544406934
 10
0.1758463624046096
 20
0.2183184761488736
 10
0.1767686132542995
 20
0.2198750309987374
 10
0.1777434861793761
 20
0.2213908837128508
 10
0.1798075428918721
 20
0.2211281916343458
 10
0.1815851940908548
 20
0.2207094290215466
 10
0.1831850591424052
 20
0.2203480729509656
 10
0.1849391840540155
 20
0.2191768591217455
 10
0.1860090804218831
 20
0.2175789360955979
 10
0.1875827045367878
 20
0.2148922233873216
 10
0.1881284088786277
 20
0.2137127027824257
  0
LWPOLYLINE
  5
B35
330
2
100
AcDbEntity
  8
Profilo
  6
Continuous
370
     0
100
AcDbPolyline
 90
        7
 70
   128
 43
0.0
 10
0.168941105079432
 20
0.2132198364151072
 10
0.1692748061464057
 20
0.214683575456166
 10
0.1697804915726017
 20
0.2159177872476622
 10
0.1707354893755577
 20
0.217301764980656
 10
0.172776262719793
 20
0.2172017446823337
 10
0.1740165991476452
 20
0.2168743021083779
 10
0.1750931184515958
 20
0.2164659405878268
  0
LWPOLYLINE
  5
B36
330
2
100
AcDbEntity
  8
Profilo
  6
Continuous
370
     0
100
AcDbPolyline
 90
        7
 70
   128
 43
0.0
 10
0.1705614130525646
 20
0.2128554555455062
 10
0.1708610267112218
 20
0.2138752937889971
 10
0.1712844486814817
 20
0.2145327008770805
 10
0.1719287493773121
 20
0.2151605559319158
 10
0.1731860474295952
 20
0.2152814245385853
 10
0.1739893874003886
 20
0.2152124762014352
 10
0.174750617584327
 20
0.2149079101229738
  0
LWPOLYLINE
  5
B37
330
2
100
AcDbEntity
  8
Profilo
  6
Continuous
370
     0
100
AcDbPolyline
 90
        5
 70
   128
 43
0.0
 10
0.1804959005841073
 20
0.2108622159552862
 10
0.1805286076658222
 20
0.2133840124463074
 10
0.1800359304496157
 20
0.2160986842363131
 10
0.1818690676955731
 20
0.2137862033155554
 10
0.1835012854528738
 20
0.2121436709512422
  0
LWPOLYLINE
  5
B38
330
2
100
AcDbEntity
  8
Profilo
  6
Continuous
370
     0
100
AcDbPolyline
 90
       14
 70
   128
 43
0.0
 10
0.1651711221183492
 20
0.2001388311169895
 10
0.1629899705123625
 20
0.2035039131031525
 10
0.1621558369731664
 20
0.2057581305655198
 10
0.1622007077256055
 20
0.208178234685393
 10
0.162438688405359
 20
0.2096648719583642
 10
0.1630047642613994
 20
0.2113832920919743
 10
0.1636309816739865
 20
0.2130732738738599
 10
0.1657032529193176
 20
0.2132604345702755
 10
0.1675293652043444
 20
0.21323360485544
 10
0.1691695071736162
 20
0.2132246207833899
 10
0.1711343979720268
 20
0.2124578742870756
 10
0.17252278697372
 20
0.2111273059064781
 10
0.1746371844449157
 20
0.2088416897169957
 10
0.1754236925861692
 20
0.2078070559509611
  0
LWPOLYLINE
  5
B39
330
2
100
AcDbEntity
  8
Profilo
  6
Continuous
370
     0
100
AcDbPolyline
 90
        7
 70
   128
 43
0.0
 10
0.1567909289871682
 20
0.203201009381244
 10
0.1568021676826266
 20
0.2047022628822036
 10
0.157030711412441
 20
0.2060163269065562
 10
0.157665867594962
 20
0.207573244307345
 10
0.1596804302000476
 20
0.2079142683721963
 10
0.1609621587257514
 20
0.2078611168915617
 10
0.1621012952624463
 20
0.2076937224650964
  0
LWPOLYLINE
  5
B3A
330
2
100
AcDbEntity
  8
Profilo
  6
Continuous
370
     0
100
AcDbPolyline
 90
        7
 70
   128
 43
0.0
 10
0.158451686176253
 20
0.2031934658521458
 10
0.1585250599579219
 20
0.2042538689243332
 10
0.1587972594666939
 20
0.2049869294073667
 10
0.1592915264927734
 20
0.2057386111641363
 10
0.1604934464377039
 20
0.2061269358457254
 10
0.1612928266207932
 20
0.2062322938295432
 10
0.1621017323700147
 20
0.206098490324489
  0
LWPOLYLINE
  5
B3B
330
2
100
AcDbEntity
  8
Profilo
  6
Continuous
370
     0
100
AcDbPolyline
 90
        5
 70
   128
 43
0.0
 10
0.1685823985021588
 20
0.2033824482538086
 10
0.1680722292086815
 20
0.2058523176000117
 10
0.1670074963222782
 20
0.2083976108340877
 10
0.1692948908796328
 20
0.206533264752919
 10
0.171242044198225
 20
0.2052800124523189
  0
LWPOLYLINE
  5
B3C
330
2
100
AcDbEntity
  8
Profilo
  6
Continuous
370
     0
100
AcDbPolyline
 90
       14
 70
   128
 43
0.0
 10
0.155921115600037
 20
0.1896153958210176
 10
0.1530675649505988
 20
0.1924329209394483
 10
0.1517683428697961
 20
0.194455121996121
 10
0.1512919137209726
 20
0.1968282913119523
 10
0.1512047474756771
 20
0.1983313306431091
 10
0.1513881792601877
 20
0.2001312646449046
 10
0.1516364599300632
 20
0.2019163538247213
 10
0.1536200486079619
 20
0.2025446158699073
 10
0.1554092349981626
 20
0.2029109735806819
 10
0.1570129626695599
 20
0.2032547815923869
 10
0.1590967432448561
 20
0.2029283546429685
 10
0.1607387053537395
 20
0.2019273568065773
 10
0.1632950093054571
 20
0.200149710008629
 10
0.1642855449995803
 20
0.1993083414064427
  0
LWPOLYLINE
  5
B3D
330
2
100
AcDbEntity
  8
Profilo
  6
Continuous
370
     0
100
AcDbPolyline
 90
        7
 70
   128
 43
0.0
 10
0.1470785689178338
 20
0.1908044882526738
 10
0.1467668197328682
 20
0.1922730592683528
 10
0.146707535315503
 20
0.1936055313522604
 10
0.1469931506804196
 20
0.1952625886935728
 10
0.1488873038379676
 20
0.1960287112153462
 10
0.1501504922601996
 20
0.1962523361321937
 10
0.1512989812712424
 20
0.19633373597715
  0
LWPOLYLINE
  5
B3E
330
2
100
AcDbEntity
  8
Profilo
  6
Continuous
370
     0
100
AcDbPolyline
 90
        7
 70
   128
 43
0.0
 10
0.1487021201625083
 20
0.1911541347911152
 10
0.1485458231907071
 20
0.1922055194228967
 10
0.1486540724914889
 20
0.192979956207432
 10
0.1489751944710166
 20
0.1938203168626236
 10
0.1500655358678076
 20
0.1944579399886133
 10
0.1508235781342788
 20
0.1947326778711725
 10
0.1516423359149839
 20
0.1947758934427099
  0
LWPOLYLINE
  5
B3F
330
2
100
AcDbEntity
  8
Profilo
  6
Continuous
370
     0
100
AcDbPolyline
 90
        5
 70
   128
 43
0.0
 10
0.1585553564338959
 20
0.1935165025775977
 10
0.1575261657143768
 20
0.1958189564334169
 10
0.1559391628841793
 20
0.1980758560288281
 10
0.1585738587256857
 20
0.196746819537932
 10
0.1607449008804975
 20
0.195941447985731
  0
LWPOLYLINE
  5
B40
330
2
100
AcDbEntity
  8
Profilo
  6
Continuous
370
     0
100
AcDbPolyline
 90
       14
 70
   128
 43
0.0
 10
0.1491495966119083
 20
0.17734951462109
 10
0.1457570757758924
 20
0.1794877385287047
 10
0.144053515334
 20
0.1811833673057879
 10
0.1430780635814
 20
0.1833986350579572
 10
0.142669826207807
 20
0.184847795998683
 10
0.1424620368544138
 20
0.186645080955223
 10
0.1423207714533987
 20
0.1884418087469066
 10
0.1441229271618868
 20
0.1894817953058932
 10
0.1457915272901935
 20
0.1902242099628997
 10
0.1472838521402169
 20
0.1909047339778473
 10
0.1493890872286538
 20
0.1910338899366823
 10
0.1512078461214257
 20
0.1904092681907978
 10
0.1540865266220108
 20
0.1892227115729432
 10
0.1552347735208477
 20
0.1886139495953294
  0
LWPOLYLINE
  5
B41
330
2
100
AcDbEntity
  8
Profilo
  6
Continuous
370
     0
100
AcDbPolyline
 90
        7
 70
   128
 43
0.0
 10
0.1402581640337579
 20
0.176609920579625
 10
0.1396380040137729
 20
0.1779771403615297
 10
0.1392936635226943
 20
0.179265715591285
 10
0.1392163830129817
 20
0.1809454307135282
 10
0.1409015582265449
 20
0.1821008286545898
 10
0.1420871412586149
 20
0.1825907735163486
 10
0.1431912806743031
 20
0.182917161466446
  0
LWPOLYLINE
  5
B42
330
2
100
AcDbEntity
  8
Profilo
  6
Continuous
370
     0
100
AcDbPolyline
 90
        7
 70
   128
 43
0.0
 10
0.1417685938822688
 20
0.1773004081020726
 10
0.1413899344296872
 20
0.1782936127165963
 10
0.1413291719054849
 20
0.1790732139993131
 10
0.1414621335315994
 20
0.1799629592226837
 10
0.1423899132283644
 20
0.1808200662443698
 10
0.1430711723643408
 20
0.1812513375876314
 10
0.1438614979726876
 20
0.1814695515236659
  0
LWPOLYLINE
  5
B43
330
2
100
AcDbEntity
  8
Profilo
  6
Continuous
370
     0
100
AcDbPolyline
 90
        5
 70
   128
 43
0.0
 10
0.1508836277221736
 20
0.1817256995812622
 10
0.1493835393907942
 20
0.183753077763393
 10
0.1473484731053156
 20
0.1856160536034217
 10
0.1502072747816792
 20
0.1848844709719946
 10
0.1525006902544914
 20
0.1845646384468675
  0
LWPOLYLINE
  5
B44
330
2
100
AcDbEntity
  8
Profilo
  6
Continuous
370
     0
100
AcDbPolyline
 90
       14
 70
   128
 43
0.0
 10
0.1451731938558453
 20
0.1639147264895675
 10
0.1414003333370277
 20
0.1652736682129114
 10
0.1393720911269369
 20
0.1665634389933447
 10
0.1379432278103752
 20
0.1685172217238539
 10
0.1372330080343509
 20
0.169844743119187
 10
0.1366437135422773
 20
0.1715553399834423
 10
0.1361195074835176
 20
0.1732796933923733
 10
0.1376559634246184
 20
0.1746827758495244
 10
0.1391259554035475
 20
0.1757665329685356
 10
0.1404370979808098
 20
0.1767519524401352
 10
0.1424653491294528
 20
0.1773306521181349
 10
0.1443758616616926
 20
0.1771116130813774
 10
0.1474423148103613
 20
0.1765716287123044
 10
0.1486945821651071
 20
0.176223938392746
  0
LWPOLYLINE
  5
B45
330
2
100
AcDbEntity
  8
Profilo
  6
Continuous
370
     0
100
AcDbPolyline
 90
        7
 70
   128
 43
0.0
 10
0.1366486288869844
 20
0.1612810285703604
 10
0.1357490560252562
 20
0.1624829674410446
 10
0.1351357604391201
 20
0.1636673934710529
 10
0.1346991976055212
 20
0.1652912247619799
 10
0.1360965979550512
 20
0.1667818729987382
 10
0.1371491390520605
 20
0.1675152285282072
 10
0.1381573005404792
 20
0.1680713430456532
  0
LWPOLYLINE
  5
B46
330
2
100
AcDbEntity
  8
Profilo
  6
Continuous
370
     0
100
AcDbPolyline
 90
        7
 70
   128
 43
0.0
 10
0.1379753113183374
 20
0.1622800706476863
 10
0.1373919950801286
 20
0.1631686541010448
 10
0.137165061919041
 20
0.1639169665924279
 10
0.1371036460538815
 20
0.1648144928862135
 10
0.1378254821031528
 20
0.165851006431868
 10
0.1383981031886013
 20
0.1664186454671446
 10
0.1391230418775274
 20
0.1668016543265546
  0
LWPOLYLINE
  5
B47
330
2
100
AcDbEntity
  8
Profilo
  6
Continuous
370
     0
100
AcDbPolyline
 90
        5
 70
   128
 43
0.0
 10
0.145925933875038
 20
0.1685613641083743
 10
0.1440250903949451
 20
0.1702188686662894
 10
0.1416371180918807
 20
0.1716008100712047
 10
0.1445863512140444
 20
0.1715008892899964
 10
0.1468949024462969
 20
0.1716815508053499
  0
LWPOLYLINE
  5
B48
330
2
100
AcDbEntity
  8
Profilo
  6
Continuous
370
     0
100
AcDbPolyline
 90
       14
 70
   128
 43
0.0
 10
0.1441778395052671
 20
0.1499392271877855
 10
0.1402010540682744
 20
0.1504553441222302
 10
0.1379429684414999
 20
0.1512789486577978
 10
0.1361275056215914
 20
0.1528798896576418
 10
0.1351485125305099
 20
0.1540236980825705
 10
0.1342052676552515
 20
0.1555676212463606
 10
0.1333226322314418
 20
0.1571389714236185
 10
0.1345215454329977
 20
0.1588395432026517
 10
0.1357241940713931
 20
0.1602139675052922
 10
0.1367928468062118
 20
0.1614582053142669
 10
0.1386492752455897
 20
0.1624593893576665
 10
0.1405622079746719
 20
0.1626561750519504
 10
0.1436730498303103
 20
0.1627880120006074
 10
0.1449707830112523
 20
0.1627176509520168
  0
LWPOLYLINE
  5
B49
330
2
100
AcDbEntity
  8
Profilo
  6
Continuous
370
     0
100
AcDbPolyline
 90
        7
 70
   128
 43
0.0
 10
0.1364187413292662
 20
0.1455345741783935
 10
0.1352818186530058
 20
0.146515030812123
 10
0.1344282449917907
 20
0.147539925197616
 10
0.1336528130272001
 20
0.1490319441108221
 10
0.1346970976254518
 20
0.1507881415884628
 10
0.1355673811355196
 20
0.1517306168961501
 10
0.1364324241859615
 20
0.1524904546841859
  0
LWPOLYLINE
  5
B4A
330
2
100
AcDbEntity
  8
Profilo
  6
Continuous
370
     0
100
AcDbPolyline
 90
        7
 70
   128
 43
0.0
 10
0.137499642147473
 20
0.1467954567134175
 10
0.136738944342626
 20
0.1475378698309213
 10
0.1363564516870477
 20
0.1482199032705631
 10
0.1361035300682101
 20
0.1490832433027951
 10
0.1365856702185869
 20
0.1502506971510253
 10
0.1370228781279746
 20
0.1509281617079128
 10
0.1376485325700972
 20
0.1514580564221162
  0
LWPOLYLINE
  5
B4B
330
2
100
AcDbEntity
  8
Profilo
  6
Continuous
370
     0
100
AcDbPolyline
 90
        5
 70
   128
 43
0.0
 10
0.1439140911467003
 20
0.1546390458545383
 10
0.1417013738463874
 20
0.1558491737172935
 10
0.1390721544565878
 20
0.1566854626429192
 10
0.1419739161615965
 20
0.157221875896605
 10
0.1441896578634394
 20
0.157894583920772
  0
LWPOLYLINE
  5
B4C
330
2
100
AcDbEntity
  8
Profilo
  6
Continuous
370
     0
100
AcDbPolyline
 90
       14
 70
   128
 43
0.0
 10
0.1462100752233499
 20
0.1360764955304435
 10
0.1422153149353365
 20
0.1357256546217572
 10
0.1398329714661042
 20
0.1360445820797467
 10
0.1377157981665658
 20
0.1372178231270908
 10
0.1365138083892934
 20
0.1381244353709173
 10
0.135260718212876
 20
0.1394294927030505
 10
0.1340609244754547
 20
0.1407743650607771
 10
0.1348662350886571
 20
0.1426929093153546
 10
0.1357453058728355
 20
0.1442937342487959
 10
0.1365214997510528
 20
0.145738611218069
 10
0.1381193009506121
 20
0.1471154653737353
 10
0.1399452072681969
 20
0.1477188743187076
 10
0.1429549783230879
 20
0.1485163680359015
 10
0.1442374967690121
 20
0.1487266262627102
  0
LWPOLYLINE
  5
B4D
330
2
100
AcDbEntity
  8
Profilo
  6
Continuous
370
     0
100
AcDbPolyline
 90
        7
 70
   128
 43
0.0
 10
0.1395792506473007
 20
0.1301068441101655
 10
0.1382581393972512
 20
0.1308199734444465
 10
0.1372041998166765
 20
0.1316374132630469
 10
0.1361261570579275
 20
0.1329278546524104
 10
0.1367684963177258
 20
0.1348674835287522
 10
0.1374158287511719
 20
0.1359750095167566
 10
0.1380973049120245
 20
0.1369030414049126
  0
LWPOLYLINE
  5
B4E
330
2
100
AcDbEntity
  8
Profilo
  6
Continuous
370
     0
100
AcDbPolyline
 90
        7
 70
   128
 43
0.0
 10
0.1403638281314367
 20
0.1315706096369201
 10
0.1394613181438513
 20
0.1321321380063276
 10
0.1389411509252469
 20
0.1327160012686164
 10
0.1385085498865259
 20
0.1335047862189211
 10
0.1387284498004371
 20
0.1347485915253155
 10
0.1390098011778427
 20
0.1355042041140817
 10
0.1395069164668132
 20
0.1361562073951779
  0
LWPOLYLINE
  5
B4F
330
2
100
AcDbEntity
  8
Profilo
  6
Continuous
370
     0
100
AcDbPolyline
 90
        5
 70
   128
 43
0.0
 10
0.144942171067135
 20
0.1406097369477582
 10
0.1425210441483059
 20
0.1413159038814517
 10
0.1397735170482708
 20
0.1415674363870938
 10
0.1424921241838747
 20
0.1427151015881119
 10
0.1445114507359498
 20
0.1438484010415436
  0
LWPOLYLINE
  5
B50
330
2
100
AcDbEntity
  8
Profilo
  6
Continuous
370
     0
100
AcDbPolyline
 90
       14
 70
   128
 43
0.0
 10
0.1511748759265838
 20
0.1229747374425192
 10
0.1473489313387599
 20
0.1217733436216603
 10
0.1449537257599067
 20
0.1215726813085985
 10
0.1426338386511556
 20
0.1222633629560329
 10
0.141265055893762
 20
0.1228903868378628
 10
0.1397607135201251
 20
0.1238955553079557
 10
0.1382998624907792
 20
0.1249510651094219
 10
0.1386739150863931
 20
0.1269978728425085
 10
0.1391883036435033
 20
0.1287502456120521
 10
0.1396357447020513
 20
0.1303282009004057
 10
0.1409002072535292
 20
0.1320163449982832
 10
0.1425537098095555
 20
0.1329981624623178
 10
0.1453216765142925
 20
0.1344240230281833
 10
0.1465290110880845
 20
0.134905069089391
  0
LWPOLYLINE
  5
B51
330
2
100
AcDbEntity
  8
Profilo
  6
Continuous
370
     0
100
AcDbPolyline
 90
        7
 70
   128
 43
0.0
 10
0.1459823749380302
 20
0.1157192218769764
 10
0.1445388488079342
 20
0.1161316787767242
 10
0.1433338243514179
 20
0.1167034414510333
 10
0.1420035788797513
 20
0.1177319657114102
 10
0.1422139377312166
 20
0.1197643310959382
 10
0.1426080505429115
 20
0.1209851210799871
 10
0.1430740947462998
 20
0.1220379533286065
  0
LWPOLYLINE
  5
B52
330
2
100
AcDbEntity
  8
Profilo
  6
Continuous
370
     0
100
AcDbPolyline
 90
        7
 70
   128
 43
0.0
 10
0.1464339431169326
 20
0.1173174263462891
 10
0.1454318213105605
 20
0.1176718135251408
 10
0.1447983019699477
 20
0.1181302058128492
 10
0.1442062494551124
 20
0.1188075529736219
 10
0.1441536268569845
 20
0.1200695507844439
 10
0.1442659660247001
 20
0.1208679798002411
 10
0.1446112976021101
 20
0.1216116046994557
  0
LWPOLYLINE
  5
B53
330
2
100
AcDbEntity
  8
Profilo
  6
Continuous
370
     0
100
AcDbPolyline
 90
        5
 70
   128
 43
0.0
 10
0.1489621017618912
 20
0.1271294322800582
 10
0.1464457744283811
 20
0.1272986187037185
 10
0.1437084109316511
 20
0.1269536334089716
 10
0.1461167444497042
 20
0.1286588870080607
 10
0.1478452343867569
 20
0.1301997860678864
  0
LWPOLYLINE
  5
B54
330
2
100
AcDbEntity
  8
Profilo
  6
Continuous
370
     0
100
AcDbPolyline
 90
       14
 70
   128
 43
0.0
 10
0.1588400930520656
 20
0.1112465765706456
 10
0.1553618610811258
 20
0.1092508056774243
 10
0.1530657905434389
 20
0.1085399363400498
 10
0.1506516649683112
 20
0.1087157630813778
 10
0.1491800919912392
 20
0.1090338796613839
 10
0.1474948387978176
 20
0.1096921587089394
 10
0.1458412382470597
 20
0.1104089514889435
 10
0.1457665425414443
 20
0.1124883162458036
 10
0.1458921966342574
 20
0.1143102978483679
 10
0.1459899630265334
 20
0.11594754802029
 10
0.146861962066372
 20
0.1178680463185994
 10
0.1482657449190561
 20
0.1191823636082897
 10
0.1506624802268996
 20
0.1211699193674972
 10
0.1517381773057448
 20
0.121899260083926
  0
LWPOLYLINE
  5
B55
330
2
100
AcDbEntity
  8
Profilo
  6
Continuous
370
     0
100
AcDbPolyline
 90
        7
 70
   128
 43
0.0
 10
0.1553287112261817
 20
0.1030444567037565
 10
0.1538302678935186
 20
0.1031369551427518
 10
0.1525305041653591
 20
0.1034363056855874
 10
0.1510102567805681
 20
0.1041548201656852
 10
0.150778799077603
 20
0.1061848909118306
 10
0.1509012639904967
 20
0.1074618621090806
 10
0.1511300845274412
 20
0.108590265452357
  0
LWPOLYLINE
  5
B56
330
2
100
AcDbEntity
  8
Profilo
  6
Continuous
370
     0
100
AcDbPolyline
 90
        7
 70
   128
 43
0.0
 10
0.155426155273687
 20
0.104702369850919
 10
0.154371279750416
 20
0.1048330450886047
 10
0.1536540309480554
 20
0.105144532487826
 10
0.1529302106746805
 20
0.1056787698586463
 10
0.1526075261387161
 20
0.1068999505588715
 10
0.1525456002421154
 20
0.1077038623483113
 10
0.1527230007872138
 20
0.1085043377918367
  0
LWPOLYLINE
  5
B57
330
2
100
AcDbEntity
  8
Profilo
  6
Continuous
370
     0
100
AcDbPolyline
 90
        5
 70
   128
 43
0.0
 10
0.1557859157395143
 20
0.1148284559154172
 10
0.1532920486607412
 20
0.1144527508599112
 10
0.1506928448420621
 20
0.1135273788937341
 10
0.1526782937439309
 20
0.1157104851278539
 10
0.1540351247975831
 20
0.1175869330666226
  0
LWPOLYLINE
  5
B58
330
2
100
AcDbEntity
  8
Profilo
  6
Continuous
370
     0
100
AcDbPolyline
 90
       14
 70
   128
 43
0.0
 10
0.1688473095662843
 20
0.1014404086822771
 10
0.1658794284734127
 20
0.0987435807455203
 10
0.1637898546833353
 20
0.0975557438439742
 10
0.1613943724706159
 20
0.0972084942161887
 10
0.1598888183907376
 20
0.0972028287166511
 10
0.1581014549438313
 20
0.0974834379450302
 10
0.1563324253955702
 20
0.0978279972698372
 10
0.1558124740769013
 20
0.0998426902654878
 10
0.1555435182596921
 20
0.101649086866324
 10
0.1552870385378527
 20
0.1032690759234485
 10
0.1557258003601064
 20
0.1053321280562413
 10
0.1568142241834494
 20
0.1069174891558802
 10
0.1587276594151847
 20
0.1093738042101387
 10
0.1596214205992277
 20
0.1103173364204925
  0
LWPOLYLINE
  5
B59
330
2
100
AcDbEntity
  8
Profilo
  6
Continuous
370
     0
100
AcDbPolyline
 90
        7
 70
   128
 43
0.0
 10
0.1671812352146281
 20
0.0926752065230158
 10
0.1656979402242329
 20
0.0924434213770558
 10
0.164364212731775
 20
0.0924563624897393
 10
0.1627250485119391
 20
0.09283127025104
 10
0.1620625969594878
 20
0.0947641225069747
 10
0.1619076876503633
 20
0.0960375651634939
 10
0.1618885851268723
 20
0.0971887767152259
  0
LWPOLYLINE
  5
B5A
330
2
100
AcDbEntity
  8
Profilo
  6
Continuous
370
     0
100
AcDbPolyline
 90
        7
 70
   128
 43
0.0
 10
0.1669199987553762
 20
0.0943153061719048
 10
0.1658616943222642
 20
0.0942161592395456
 10
0.1650942538149898
 20
0.0943661769456855
 10
0.1642725108145897
 20
0.0947323241808561
 10
0.1636948527110524
 20
0.0958555867181869
 10
0.1634615573362347
 20
0.0966273912594787
 10
0.1634627317966992
 20
0.0974472879052403
  0
LWPOLYLINE
  5
B5B
330
2
100
AcDbEntity
  8
Profilo
  6
Continuous
370
     0
100
AcDbPolyline
 90
        5
 70
   128
 43
0.0
 10
0.165094539042535
 20
0.1042819878370927
 10
0.1627397426713681
 20
0.1033789588532497
 10
0.1604002344124942
 20
0.1019164695803037
 10
0.1618699613141951
 20
0.1044753488282951
 10
0.1627916895723873
 20
0.1065996050259121
  0
LWPOLYLINE
  5
B5C
330
2
100
AcDbEntity
  8
Profilo
  6
Continuous
370
     0
100
AcDbPolyline
 90
       14
 70
   128
 43
0.0
 10
0.1807285991472577
 20
0.0940147592891008
 10
0.178409843753794
 20
0.0907429749858223
 10
0.1766244728593556
 20
0.089133712453435
 10
0.174359644094924
 20
0.0882796234631912
 10
0.1728905069477113
 20
0.0879504407965714
 10
0.1710846083755858
 20
0.0878402592301298
 10
0.1692828676853629
 20
0.0877964738886619
 10
0.1683419730994173
 20
0.0896522903177968
 10
0.1676909834472755
 20
0.0913586368195156
 10
0.1670922503180573
 20
0.0928856158740197
 10
0.1670772589075663
 20
0.0949947558164844
 10
0.1677994302132848
 20
0.0967770310030551
 10
0.1691400952641066
 20
0.0995872507904255
 10
0.1698101292737256
 20
0.1007008559772088
  0
LWPOLYLINE
  5
B5D
330
2
100
AcDbEntity
  8
Profilo
  6
Continuous
370
     0
100
AcDbPolyline
 90
        7
 70
   128
 43
0.0
 10
0.1809857360548038
 20
0.085096325948612
 10
0.1795869466318634
 20
0.0845510952335111
 10
0.1782816189903231
 20
0.0842770218039964
 10
0.1766001834325616
 20
0.0842907925762615
 10
0.1755377135289542
 20
0.086036048318709
 10
0.1751126733849371
 20
0.0872464176712085
 10
0.1748465410137778
 20
0.0883666080587169
  0
LWPOLYLINE
  5
B5E
330
2
100
AcDbEntity
  8
Profilo
  6
Continuous
370
     0
100
AcDbPolyline
 90
        7
 70
   128
 43
0.0
 10
0.1803780342152859
 20
0.0866419228624853
 10
0.1793657860114044
 20
0.0863175897604444
 10
0.1785840384643873
 20
0.0862991231122965
 10
0.1777027965263589
 20
0.0864800595740442
 10
0.1768971755061495
 20
0.0874528814406517
 10
0.176503419285552
 20
0.0881564900112439
 10
0.1763283127449166
 20
0.0889574704033354
  0
LWPOLYLINE
  5
B5F
330
2
100
AcDbEntity
  8
Profilo
  6
Continuous
370
     0
100
AcDbPolyline
 90
        5
 70
   128
 43
0.0
 10
0.176452710791096
 20
0.0959831691708697
 10
0.174347092788683
 20
0.0945950408903296
 10
0.1723766728956222
 20
0.0926638186835775
 10
0.1732619550007157
 20
0.0954788205957946
 10
0.1737054814745225
 20
0.0977515571934003
  0
LWPOLYLINE
  5
B60
330
2
100
AcDbEntity
  8
Profilo
  6
Continuous
370
     0
100
AcDbPolyline
 90
       14
 70
   128
 43
0.0
 10
0.1939284058992841
 20
0.0893168435037252
 10
0.192367198630315
 20
0.0856230878316192
 10
0.1909695125902424
 20
0.0836676469958384
 10
0.1889412381499473
 20
0.0823466548950681
 10
0.1875772131555752
 20
0.081709347276997
 10
0.185837221268351
 20
0.0812135268833236
 10
0.1840870168283501
 20
0.0807834442294839
 10
0.1827691741602373
 20
0.0823936081784687
 10
0.1817665902257741
 20
0.0839201177151175
 10
0.1808535997848553
 20
0.085282686923528
 10
0.1803855561233123
 20
0.0873392936360956
 10
0.1807077069837867
 20
0.0892351457027307
 10
0.1814129138459606
 20
0.0922678674692905
 10
0.1818278906355554
 20
0.0934994746916526
  0
LWPOLYLINE
  5
B61
330
2
100
AcDbEntity
  8
Profilo
  6
Continuous
370
     0
100
AcDbPolyline
 90
        7
 70
   128
 43
0.0
 10
0.196096730630023
 20
0.0806621950128833
 10
0.1948478526133113
 20
0.0798290131108993
 10
0.1936319604924395
 20
0.0792807405081397
 10
0.1919868756546517
 20
0.0789327303853634
 10
0.1905740673117308
 20
0.0804087833955192
 10
0.1898987707375568
 20
0.081499483918305
 10
0.1893980525726201
 20
0.082536274284072
  0
LWPOLYLINE
  5
B62
330
2
100
AcDbEntity
  8
Profilo
  6
Continuous
370
     0
100
AcDbPolyline
 90
        7
 70
   128
 43
0.0
 10
0.1951709788728427
 20
0.0820410187978559
 10
0.1942521184991723
 20
0.0815066649815143
 10
0.1934926175588609
 20
0.0813205774590218
 10
0.1925930825767965
 20
0.0813078427594917
 10
0.1915971685834363
 20
0.0820847358861072
 10
0.1910613631203057
 20
0.0826872485312436
 10
0.1907181633657935
 20
0.0834318597167567
  0
LWPOLYLINE
  5
B63
330
2
100
AcDbEntity
  8
Profilo
  6
Continuous
370
     0
100
AcDbPolyline
 90
        5
 70
   128
 43
0.0
 10
0.1893293354979356
 20
0.0903200434541062
 10
0.1875713522218429
 20
0.0885117232124733
 10
0.1860621553388305
 20
0.0862020698759036
 10
0.186321597840003
 20
0.0891415680915809
 10
0.1862661837244532
 20
0.0914565144518368
  0
LWPOLYLINE
  5
B64
330
2
100
AcDbEntity
  8
Profilo
  6
Continuous
370
     0
100
AcDbPolyline
 90
       14
 70
   128
 43
0.0
 10
0.2078295215291704
 20
0.087566330646916
 10
0.2070988627014358
 20
0.0836233195158957
 10
0.2061542157615463
 20
0.081413134616886
 10
0.2044573355039505
 20
0.079687007528044
 10
0.203262202955151
 20
0.0787713747544262
 10
0.2016694778396126
 20
0.0779130995440643
 10
0.2000526472642359
 20
0.0771168297647439
 10
0.1984194773724398
 20
0.0784060517568926
 10
0.1971121788661387
 20
0.0796813464391313
 10
0.1959276215318204
 20
0.0808157935796498
 10
0.1950284108206462
 20
0.0827237024181948
 10
0.1949354778196857
 20
0.0846444834293466
 10
0.1949722518041176
 20
0.0877579004759197
 10
0.1951127675202202
 20
0.089049921148976
  0
LWPOLYLINE
  5
B65
330
2
100
AcDbEntity
  8
Profilo
  6
Continuous
370
     0
100
AcDbPolyline
 90
        7
 70
   128
 43
0.0
 10
0.2118076456286124
 20
0.0795801487502019
 10
0.2107670751661628
 20
0.0784979743210563
 10
0.2096974723301642
 20
0.0777011391625957
 10
0.2081656605509849
 20
0.0770076207113335
 10
0.2064685751166415
 20
0.0781454523909579
 10
0.2055745982295811
 20
0.0790654841398111
 10
0.204862707295751
 20
0.0799703953186432
  0
LWPOLYLINE
  5
B66
330
2
100
AcDbEntity
  8
Profilo
  6
Continuous
370
     0
100
AcDbPolyline
 90
        7
 70
   128
 43
0.0
 10
0.2106071310770365
 20
0.080727727138541
 10
0.2098246234234099
 20
0.0800083383984592
 10
0.2091228825096487
 20
0.0796633312473525
 10
0.2082471157395482
 20
0.079457520846941
 10
0.207107476604488
 20
0.0800021585744186
 10
0.2064546755667751
 20
0.0804754024724575
 10
0.2059594302374681
 20
0.0811288272599334
  0
LWPOLYLINE
  5
B67
330
2
100
AcDbEntity
  8
Profilo
  6
Continuous
370
     0
100
AcDbPolyline
 90
        5
 70
   128
 43
0.0
 10
0.2031223165031025
 20
0.0875574121512061
 10
0.2017941692974622
 20
0.0854134549931756
 10
0.200816763793396
 20
0.0828333673498109
 10
0.2004382354476422
 20
0.085759914199401
 10
0.1998864718451907
 20
0.0880088260033795
  0
LWPOLYLINE
  5
B68
330
2
100
AcDbEntity
  8
Profilo
  6
Continuous
370
     0
100
AcDbPolyline
 90
       14
 70
   128
 43
0.0
 10
0.2217819453200435
 20
0.0888450727543024
 10
0.2219159997282594
 20
0.0848371769825121
 10
0.2214685625295623
 20
0.0824755938097072
 10
0.2201824206895643
 20
0.0804250435170154
 10
0.2192120636560246
 20
0.0792738995586924
 10
0.217841079368388
 20
0.0780933015265741
 10
0.2164332238583617
 20
0.0769680773116637
 10
0.2145610919518849
 20
0.0778760747594908
 10
0.2130102066989425
 20
0.0788405232253661
 10
0.2116094710556366
 20
0.0796938028105495
 10
0.2103211393882848
 20
0.0813638020782698
 10
0.2098174679697266
 20
0.0832196984486517
 10
0.2091840895657758
 20
0.0862682308544548
 10
0.2090435738496733
 20
0.0875602515275112
  0
LWPOLYLINE
  5
B69
330
2
100
AcDbEntity
  8
Profilo
  6
Continuous
370
     0
100
AcDbPolyline
 90
        7
 70
   128
 43
0.0
 10
0.2273838561266662
 20
0.0819007824412029
 10
0.2266002491367916
 20
0.0806202167584521
 10
0.2257269490254996
 20
0.0796120781706813
 10
0.2243800361212365
 20
0.0786054795429237
 10
0.2224780274242057
 20
0.0793518861472866
 10
0.2214071715899136
 20
0.0800582294601727
 10
0.2205173951160461
 20
0.0807889488110843
  0
LWPOLYLINE
  5
B6A
330
2
100
AcDbEntity
  8
Profilo
  6
Continuous
370
     0
100
AcDbPolyline
 90
        7
 70
   128
 43
0.0
 10
0.2259647135068502
 20
0.0827634559429114
 10
0.2253551477614561
 20
0.0818926700970326
 10
0.2247439794994436
 20
0.0814048754682495
 10
0.2239329308221322
 20
0.081015612832538
 10
0.2227028548047092
 20
0.0813025285060622
 10
0.2219635824434013
 20
0.0816243752983039
 10
0.2213394486604722
 20
0.0821560602709099
  0
LWPOLYLINE
  5
B6B
330
2
100
AcDbEntity
  8
Profilo
  6
Continuous
370
     0
100
AcDbPolyline
 90
        5
 70
   128
 43
0.0
 10
0.2171867093445925
 20
0.0878244528314488
 10
0.2163505008966107
 20
0.0854451078108928
 10
0.2159505891665525
 20
0.0827152278913755
 10
0.2149517895386159
 20
0.0854919812968147
 10
0.213929476302072
 20
0.0875697019280477
  0
LWPOLYLINE
  5
B6C
330
2
100
AcDbEntity
  8
Profilo
  6
Continuous
370
     0
100
AcDbPolyline
 90
       14
 70
   128
 43
0.0
 10
0.2351332774424474
 20
0.0930932772661628
 10
0.2361257768514762
 20
0.0892079016054352
 10
0.2361964710600922
 20
0.0868053451632842
 10
0.2353812062006861
 20
0.0845262531194059
 10
0.2346809974988204
 20
0.0831934241884643
 10
0.2335958597406356
 20
0.081745706786431
 10
0.2324628090548896
 20
0.0803441423696229
 10
0.2304392539409537
 20
0.0808284583216348
 10
0.2287172996121125
 20
0.0814369640327898
 10
0.2271658825016943
 20
0.0819691776575869
 10
0.2255486708350523
 20
0.083323180044795
 10
0.2246578121146376
 20
0.0850274121228084
 10
0.2233838973925235
 20
0.0878685139007467
 10
0.2229689206029286
 20
0.0891001211231087
  0
LWPOLYLINE
  5
B6D
330
2
100
AcDbEntity
  8
Profilo
  6
Continuous
370
     0
100
AcDbPolyline
 90
        7
 70
   128
 43
0.0
 10
0.2420970358330098
 20
0.0875155858336939
 10
0.2416070329076403
 20
0.0860965067254168
 10
0.2409708700636552
 20
0.0849242041482345
 10
0.2398718361847256
 20
0.0836515927770616
 10
0.2378538400377497
 20
0.0839716731629142
 10
0.2366561772848668
 20
0.0844313002115668
 10
0.2356301202299642
 20
0.0849536601098455
  0
LWPOLYLINE
  5
B6E
330
2
100
AcDbEntity
  8
Profilo
  6
Continuous
370
     0
100
AcDbPolyline
 90
        7
 70
   128
 43
0.0
 10
0.2405256226765925
 20
0.0880530167946248
 10
0.240117501456202
 20
0.0870715508212932
 10
0.239625483394605
 20
0.0864637774495308
 10
0.2389170765448179
 20
0.0859092640667308
 10
0.2376540806324756
 20
0.0859250418282915
 10
0.2368629045015453
 20
0.086080442316438
 10
0.2361390660670088
 20
0.0864655264757802
  0
LWPOLYLINE
  5
B6F
330
2
100
AcDbEntity
  8
Profilo
  6
Continuous
370
     0
100
AcDbPolyline
 90
        5
 70
   128
 43
0.0
 10
0.2308648786445875
 20
0.0911086789694205
 10
0.2305597091319128
 20
0.0886052016150482
 10
0.2307559906038903
 20
0.0858531755703712
 10
0.229183622454287
 20
0.088350297628561
 10
0.2277385618143721
 20
0.0901596751795527
  0
LWPOLYLINE
  5
B70
330
2
100
AcDbEntity
  8
Profilo
  6
Continuous
370
     0
100
AcDbPolyline
 90
       14
 70
   128
 43
0.0
 10
0.2472592244452783
 20
0.1001123028610627
 10
0.2490637606858377
 20
0.0965311231590086
 10
0.2496492807191428
 20
0.0941999343164968
 10
0.2493430137190526
 20
0.0917988683323748
 10
0.2489456943295341
 20
0.0903466760282925
 10
0.2481971429363299
 20
0.088699532913041
 10
0.2473918772656343
 20
0.0870871638887381
 10
0.2453115181323471
 20
0.0871251522692972
 10
0.2434990113982089
 20
0.0873492621749839
 10
0.2418694553604852
 20
0.0875355241218122
 10
0.2399989827146834
 20
0.0885102179817477
 10
0.2387625922560606
 20
0.0899830977695428
 10
0.2369077080523345
 20
0.0924839221581375
 10
0.2362376740427154
 20
0.0935975273449208
  0
LWPOLYLINE
  5
B71
330
2
100
AcDbEntity
  8
Profilo
  6
Continuous
370
     0
100
AcDbPolyline
 90
        7
 70
   128
 43
0.0
 10
0.2552592128170992
 20
0.096162016961448
 10
0.2550857259484258
 20
0.0946707789895544
 10
0.2547164466392885
 20
0.0933891279885489
 10
0.2539166813883826
 20
0.0919100097672708
 10
0.2518770570484525
 20
0.0917887973315145
 10
0.2506085887561969
 20
0.0919802164659773
 10
0.2494942284077664
 20
0.0922697919433409
  0
LWPOLYLINE
  5
B72
330
2
100
AcDbEntity
  8
Profilo
  6
Continuous
370
     0
100
AcDbPolyline
 90
        7
 70
   128
 43
0.0
 10
0.2536090066567744
 20
0.0963490757071797
 10
0.253421413256059
 20
0.0953028218644873
 10
0.253071551612599
 20
0.0946034885571176
 10
0.2524989109072944
 20
0.0939096528567115
 10
0.2512620513851749
 20
0.0936535549557139
 10
0.2504559660011752
 20
0.0936352427856545
 10
0.249666268795742
 20
0.0938557200244326
  0
LWPOLYLINE
  5
B73
330
2
100
AcDbEntity
  8
Profilo
  6
Continuous
370
     0
100
AcDbPolyline
 90
        5
 70
   128
 43
0.0
 10
0.2435172484088128
 20
0.0972565238010647
 10
0.2437573872186864
 20
0.0947459739315515
 10
0.244540683989221
 20
0.0921004834409066
 10
0.2424682695050651
 20
0.0942012114997579
 10
0.2406680308912319
 20
0.0956576414872026
  0
LWPOLYLINE
  5
B74
330
2
100
AcDbEntity
  8
Profilo
  6
Continuous
370
     0
100
AcDbPolyline
 90
       14
 70
   128
 43
0.0
 10
0.257592790523706
 20
0.1095739477032713
 10
0.2601249854867855
 20
0.1064644159425633
 10
0.2611979530787811
 20
0.1043135984990362
 10
0.2614150046425399
 20
0.1019028297514949
 10
0.2613391527784334
 20
0.100399176972415
 10
0.2609621891814009
 20
0.0986296267253464
 10
0.2605223618535289
 20
0.0968818456771057
 10
0.2584824739818098
 20
0.096471730191758
 10
0.2566641656428063
 20
0.0963009651618667
 10
0.2550326669069797
 20
0.0961325660291079
 10
0.252996394504055
 20
0.0966823757601746
 10
0.2514722845509199
 20
0.0978550330358624
 10
0.2491231631893922
 20
0.0998986442661697
 10
0.2482294020053493
 20
0.1008421764765234
  0
LWPOLYLINE
  5
B75
330
2
100
AcDbEntity
  8
Profilo
  6
Continuous
370
     0
100
AcDbPolyline
 90
        7
 70
   128
 43
0.0
 10
0.2662549383118675
 20
0.1074357783147492
 10
0.2664060795530527
 20
0.105942110109413
 10
0.2663209508688338
 20
0.1046110392609386
 10
0.2658578503802089
 20
0.1029945761136602
 10
0.2638919684145801
 20
0.1024377386150731
 10
0.2626120067504965
 20
0.1023519992893658
 10
0.2614614493599077
 20
0.1023952501183328
  0
LWPOLYLINE
  5
B76
330
2
100
AcDbEntity
  8
Profilo
  6
Continuous
370
     0
100
AcDbPolyline
 90
        7
 70
   128
 43
0.0
 10
0.2646031009536198
 20
0.1072637181862322
 10
0.2646448070315015
 20
0.1062015981410356
 10
0.2644534609477835
 20
0.1054434049462581
 10
0.264043362429897
 20
0.104642689914454
 10
0.262890473474584
 20
0.1041266912041162
 10
0.2621071704941713
 20
0.1039355226325706
 10
0.2612885398814817
 20
0.103981083680142
  0
LWPOLYLINE
  5
B77
330
2
100
AcDbEntity
  8
Profilo
  6
Continuous
370
     0
100
AcDbPolyline
 90
        5
 70
   128
 43
0.0
 10
0.2545522078891924
 20
0.1059805209348927
 10
0.2553264263977598
 20
0.1035802890718611
 10
0.2566601123804333
 20
0.1011650343303395
 10
0.2541845553596802
 20
0.1027711406806118
 10
0.2521133159286903
 20
0.1038065220570024
  0
LWPOLYLINE
  5
B78
330
2
100
AcDbEntity
  8
Profilo
  6
Continuous
370
     0
100
AcDbPolyline
 90
       14
 70
   128
 43
0.0
 10
0.2656507896128371
 20
0.1210357957958298
 10
0.2687922406762955
 20
0.1185433102256023
 10
0.2703024850548978
 20
0.1166734340142574
 10
0.2710327060926195
 20
0.1143656873705549
 10
0.2712818685027876
 20
0.112880883249237
 10
0.2712941191007592
 20
0.1110716680731903
 10
0.2712402959527291
 20
0.1092701993003084
 10
0.269336262232287
 20
0.1084311564933383
 10
0.2675971743654455
 20
0.1078735013108751
 10
0.2660400199991224
 20
0.1073583152548147
 10
0.2639331616734812
 20
0.1074575323650575
 10
0.2621925979133159
 20
0.1082751349777418
 10
0.2594590816979911
 20
0.1097659760599431
 10
0.258383384619146
 20
0.1104953167763719
  0
LWPOLYLINE
  5
B79
330
2
100
AcDbEntity
  8
Profilo
  6
Continuous
370
     0
100
AcDbPolyline
 90
        7
 70
   128
 43
0.0
 10
0.2745700644140505
 20
0.1208097213426031
 10
0.2750387665686379
 20
0.1193834651690128
 10
0.2752417690319977
 20
0.1180652138665651
 10
0.2751369873698025
 20
0.1163869898134835
 10
0.2733367702342671
 20
0.115420564354619
 10
0.2721051647831928
 20
0.1150616756443193
 10
0.2709722091352771
 20
0.1148565794641971
  0
LWPOLYLINE
  5
B7A
330
2
100
AcDbEntity
  8
Profilo
  6
Continuous
370
     0
100
AcDbPolyline
 90
        7
 70
   128
 43
0.0
 10
0.272993833936866
 20
0.1202865876802157
 10
0.2732628893634962
 20
0.1192582649853667
 10
0.2732390059697288
 20
0.118476664174298
 10
0.2730106253901652
 20
0.1176065103560521
 10
0.271995614807865
 20
0.1168547383625782
 10
0.2712717206078248
 20
0.1164996522194832
 10
0.2704624348454856
 20
0.1163681666919009
  0
LWPOLYLINE
  5
B7B
330
2
100
AcDbEntity
  8
Profilo
  6
Continuous
370
     0
100
AcDbPolyline
 90
        5
 70
   128
 43
0.0
 10
0.2634537746449004
 20
0.1168727459609531
 10
0.2647258712551829
 20
0.1146950642786523
 10
0.2665475847757308
 20
0.1126229799136046
 10
0.2637846395132872
 20
0.1136593648074183
 10
0.2615392481189163
 20
0.1142252842903384
  0
LWPOLYLINE
  5
B7C
330
2
100
AcDbEntity
  8
Profilo
  6
Continuous
370
     0
100
AcDbPolyline
 90
       14
 70
   128
 43
0.0
 10
0.2710564386310863
 20
0.1339619038608594
 10
0.2746602550346686
 20
0.1322030103361775
 10
0.2765371588512502
 20
0.1307015086904392
 10
0.2777464050387934
 20
0.1286046918187587
 10
0.2783089311658606
 20
0.1272081641456745
 10
0.2787098231344907
 20
0.1254438809314834
 10
0.2790445208768844
 20
0.1236729591115916
 10
0.2773653718083056
 20
0.1224442216921238
 10
0.2757868222294223
 20
0.1215257516936314
 10
0.2743768230401194
 20
0.1206878682416626
 10
0.2722978931454639
 20
0.1203318534492787
 10
0.2704222624051961
 20
0.1207561712094902
 10
0.2674321675162175
 20
0.1216245320715328
 10
0.2662248329424255
 20
0.1221055781327404
  0
LWPOLYLINE
  5
B7D
330
2
100
AcDbEntity
  8
Profilo
  6
Continuous
370
     0
100
AcDbPolyline
 90
        7
 70
   128
 43
0.0
 10
0.2798157850687091
 20
0.1356584953330973
 10
0.2805801321448751
 20
0.13436634134476
 10
0.2810617735862481
 20
0.1331225495541104
 10
0.2813202102245504
 20
0.1314610364867358
 10
0.2797698340715682
 20
0.1301302120479456
 10
0.2786441733355644
 20
0.129514955190271
 10
0.2775817951772286
 20
0.1290711020704939
  0
LWPOLYLINE
  5
B7E
330
2
100
AcDbEntity
  8
Profilo
  6
Continuous
370
     0
100
AcDbPolyline
 90
        7
 70
   128
 43
0.0
 10
0.2783888642578465
 20
0.1348087492854715
 10
0.2788726883005096
 20
0.1338623071672826
 10
0.279017384357641
 20
0.1330938455251613
 10
0.2789814005384739
 20
0.1321949403459083
 10
0.2781517290959115
 20
0.1312425470921787
 10
0.2775210921644871
 20
0.1307401468109353
 10
0.2767589925552889
 20
0.1304377628253337
  0
LWPOLYLINE
  5
B7F
330
2
100
AcDbEntity
  8
Profilo
  6
Continuous
370
     0
100
AcDbPolyline
 90
        5
 70
   128
 43
0.0
 10
0.2698057213078205
 20
0.1294238905428658
 10
0.2715162141961552
 20
0.1275705850164408
 10
0.273740773955046
 20
0.1259385593898205
 10
0.2708196327005907
 20
0.1263567626213999
 10
0.2685050813488661
 20
0.1264267584448024
  0
LWPOLYLINE
  5
B80
330
2
100
AcDbEntity
  8
Profilo
  6
Continuous
370
     0
100
AcDbPolyline
 90
       14
 70
   128
 43
0.0
 10
0.2735569754383079
 20
0.1477478614515766
 10
0.2774546467323369
 20
0.1468048038787848
 10
0.2796104480504631
 20
0.1457418853468085
 10
0.2812421763800788
 20
0.1439540430736252
 10
0.2820917631275466
 20
0.142711091930639
 10
0.2828625512039412
 20
0.1410742366005393
 10
0.2835701197423142
 20
0.1394166680696974
 10
0.2821943704698055
 20
0.1378556904338227
 10
0.2808501704027571
 20
0.1366193522556245
 10
0.2796532563854646
 20
0.1354979499067209
 10
0.2776994633731042
 20
0.1347033500677199
 10
0.2757764680615349
 20
0.1347145423485866
 10
0.2726696080126594
 20
0.1349198194016751
 10
0.2713870895667351
 20
0.1351300776284838
  0
LWPOLYLINE
  5
B81
330
2
100
AcDbEntity
  8
Profilo
  6
Continuous
370
     0
100
AcDbPolyline
 90
        7
 70
   128
 43
0.0
 10
0.281746816208231
 20
0.1512877881176633
 10
0.282771068186205
 20
0.1501901559989477
 10
0.2835088275870984
 20
0.1490789820418517
 10
0.284118398315923
 20
0.1475118704645752
 10
0.2828903570112881
 20
0.1458788749175121
 10
0.2819232756352883
 20
0.1450360186393184
 10
0.2809811505884675
 20
0.1443741626584601
  0
LWPOLYLINE
  5
B82
330
2
100
AcDbEntity
  8
Profilo
  6
Continuous
370
     0
100
AcDbPolyline
 90
        7
 70
   128
 43
0.0
 10
0.2805359262948979
 20
0.150151162865561
 10
0.2812118958790907
 20
0.1493308559055839
 10
0.2815184055603075
 20
0.1486114658447119
 10
0.2816765010649279
 20
0.1477258411115723
 10
0.2810709632766442
 20
0.1466173594476223
 10
0.280563071495846
 20
0.1459911367070038
 10
0.279883792970502
 20
0.1455319934024736
  0
LWPOLYLINE
  5
B83
330
2
100
AcDbEntity
  8
Profilo
  6
Continuous
370
     0
100
AcDbPolyline
 90
        5
 70
   128
 43
0.0
 10
0.2733110379116765
 20
0.1430470771095759
 10
0.2753799463316811
 20
0.1416048062456414
 10
0.2779033343870096
 20
0.1404891510618827
 10
0.2749605864589855
 20
0.1402696179129187
 10
0.2726851009986748
 20
0.1398404171498963
  0
LWPOLYLINE
  5
B84
330
2
100
AcDbEntity
  8
Profilo
  6
Continuous
370
     0
100
AcDbPolyline
 90
       14
 70
   128
 43
0.0
 10
0.2730354777125433
 20
0.1617490525130309
 10
0.2770447531192604
 20
0.1616659272160996
 10
0.2793786490652967
 20
0.1610912926870914
 10
0.2813565617338282
 20
0.1596960225300555
 10
0.2824534833696326
 20
0.1586647669311724
 10
0.2835581263600091
 20
0.1572318770211653
 10
0.2846054805759128
 20
0.1557651678416205
 10
0.2835974596064212
 20
0.1539449395686903
 10
0.2825504623523718
 20
0.1524485430099077
 10
0.2816225998762639
 20
0.1510960572915547
 10
0.2798853009359718
 20
0.1499000270112741
 10
0.2780048581766141
 20
0.1494975704741821
 10
0.2749265062907003
 20
0.1490301651914631
 10
0.2736287731097582
 20
0.1489598041428725
  0
LWPOLYLINE
  5
B85
330
2
100
AcDbEntity
  8
Profilo
  6
Continuous
370
     0
100
AcDbPolyline
 90
        7
 70
   128
 43
0.0
 10
0.2802728649627193
 20
0.1669667913364059
 10
0.2815091289583854
 20
0.1661150051452528
 10
0.2824685095091742
 20
0.1651884062809629
 10
0.2834007114787305
 20
0.1637889725894186
 10
0.2825524268689778
 20
0.1619301629909191
 10
0.2817891445032898
 20
0.1608991183150073
 10
0.2810113252880768
 20
0.1600502071231325
  0
LWPOLYLINE
  5
B86
330
2
100
AcDbEntity
  8
Profilo
  6
Continuous
370
     0
100
AcDbPolyline
 90
        7
 70
   128
 43
0.0
 10
0.2793346258134555
 20
0.1655964342133474
 10
0.2801711333527075
 20
0.1649406190533249
 10
0.2806251246059771
 20
0.1643039384534039
 10
0.2809699070642995
 20
0.1634730049945981
 10
0.2806168172042676
 20
0.162260266291045
 10
0.2802554190292849
 20
0.1615395025704062
 10
0.2796907238966763
 20
0.1609450689775663
  0
LWPOLYLINE
  5
B87
330
2
100
AcDbEntity
  8
Profilo
  6
Continuous
370
     0
100
AcDbPolyline
 90
        5
 70
   128
 43
0.0
 10
0.2738058197479515
 20
0.1571053005983085
 10
0.2761364038413332
 20
0.156141503379493
 10
0.2788406293721767
 20
0.155594385435027
 10
0.2760138743930687
 20
0.1547473810315715
 10
0.2738838539952758
 20
0.1538390526327806
  0
LWPOLYLINE
  5
B88
330
2
100
AcDbEntity
  8
Profilo
  6
Continuous
370
     0
100
AcDbPolyline
 90
       14
 70
   128
 43
0.0
 10
0.269516330107846
 20
0.1753107969123948
 10
0.273449740365223
 20
0.1760914907378213
 10
0.2758526005586718
 20
0.1760320094836973
 10
0.2780842125680303
 20
0.1750945527246204
 10
0.2793771782556218
 20
0.1743232130354859
 10
0.2807640242814728
 20
0.1731612888852207
 10
0.2821021910558224
 20
0.1719540207480782
 10
0.2815090323295464
 20
0.1699596536890964
 10
0.2808081943164415
 20
0.1682731685896928
 10
0.280192769199656
 20
0.1667528402309007
 10
0.2787531984990108
 20
0.1652113045559542
 10
0.2770032357053305
 20
0.1644140176212794
 10
0.2740973322952211
 20
0.1632957853542892
 10
0.2728450649404752
 20
0.1629480950347308
  0
LWPOLYLINE
  5
B89
330
2
100
AcDbEntity
  8
Profilo
  6
Continuous
370
     0
100
AcDbPolyline
 90
        7
 70
   128
 43
0.0
 10
0.275462851654235
 20
0.1819623722247774
 10
0.2768533213371645
 20
0.1813962605367926
 10
0.2779894634695688
 20
0.1806975634983625
 10
0.2792007079518282
 20
0.1795312436566081
 10
0.2787718448825092
 20
0.1775335358775795
 10
0.2782480517622254
 20
0.1763625133070713
 10
0.2776709083406394
 20
0.1753662410480151
  0
LWPOLYLINE
  5
B8A
330
2
100
AcDbEntity
  8
Profilo
  6
Continuous
370
     0
100
AcDbPolyline
 90
        7
 70
   128
 43
0.0
 10
0.2748411342888821
 20
0.1804223596067942
 10
0.2757990656203692
 20
0.1799617014347228
 10
0.2763793103192636
 20
0.1794375007729854
 10
0.2768946580867352
 20
0.178700112113531
 10
0.276810526244379
 20
0.1774398226842908
 10
0.2766125202522085
 20
0.1766582200941373
 10
0.2761888130291226
 20
0.1759562912671233
  0
LWPOLYLINE
  5
B8B
330
2
100
AcDbEntity
  8
Profilo
  6
Continuous
370
     0
100
AcDbPolyline
 90
        5
 70
   128
 43
0.0
 10
0.2712669313678918
 20
0.1709412141033235
 10
0.2737502156127024
 20
0.1705009566163952
 10
0.2765088320387693
 20
0.1705479585382271
 10
0.2739302459296882
 20
0.169113087864808
 10
0.272045287980866
 20
0.1677681042566416
  0
LWPOLYLINE
  5
B8C
330
2
100
AcDbEntity
  8
Profilo
  6
Continuous
370
     0
100
AcDbPolyline
 90
       14
 70
   128
 43
0.0
 10
0.2631640840549601
 20
0.1877989625543503
 10
0.2668377072710333
 20
0.1894069711265367
 10
0.2691971766398362
 20
0.189865424424631
 10
0.2715781402927229
 20
0.1894296154996591
 10
0.2730066923935781
 20
0.1889542587068547
 10
0.2746108940761034
 20
0.1881176305982118
 10
0.2761773022177956
 20
0.1872262540197823
 10
0.2760267411775273
 20
0.1851510025618471
 10
0.2757048328119342
 20
0.1833532870906769
 10
0.2754306216489359
 20
0.1817362049557793
 10
0.2743560919139323
 20
0.1799212443810335
 10
0.2728184354012177
 20
0.1787664072997207
 10
0.2702208572806899
 20
0.1770496353464379
 10
0.269072610381853
 20
0.1764408733688241
  0
LWPOLYLINE
  5
B8D
330
2
100
AcDbEntity
  8
Profilo
  6
Continuous
370
     0
100
AcDbPolyline
 90
        7
 70
   128
 43
0.0
 10
0.2675416871591367
 20
0.1955733540868284
 10
0.2690213457123522
 20
0.1953193876553542
 10
0.2702811246829921
 20
0.1948812627397549
 10
0.2717147752321658
 20
0.1940025925673196
 10
0.2717253868637546
 20
0.1919593972032165
 10
0.271465574973025
 20
0.1907031524520108
 10
0.2711160939300108
 20
0.1896061037093296
  0
LWPOLYLINE
  5
B8E
330
2
100
AcDbEntity
  8
Profilo
  6
Continuous
370
     0
100
AcDbPolyline
 90
        7
 70
   128
 43
0.0
 10
0.2672655623907096
 20
0.1939356952523365
 10
0.2683001257100356
 20
0.1936917339323574
 10
0.2689794922573304
 20
0.1933045242491393
 10
0.2696413082451119
 20
0.1926951598632038
 10
0.2698300683318742
 20
0.1914462494412765
 10
0.2698047130626421
 20
0.1906403548500351
 10
0.2695418058279135
 20
0.1898637522006604
  0
LWPOLYLINE
  5
B8F
330
2
100
AcDbEntity
  8
Profilo
  6
Continuous
370
     0
100
AcDbPolyline
 90
        5
 70
   128
 43
0.0
 10
0.2658130883703773
 20
0.18390786568664
 10
0.2683329571553015
 20
0.1840117338823765
 10
0.2710169746384909
 20
0.1846506579128804
 10
0.2688071292200046
 20
0.1826950139274425
 10
0.26725537225886
 20
0.1809762650485765
  0
LWPOLYLINE
  5
B90
330
2
100
AcDbEntity
  8
Profilo
  6
Continuous
370
     0
100
AcDbPolyline
 90
       14
 70
   128
 43
0.0
 10
0.254275763519304
 20
0.1986296166930789
 10
0.2575178251554289
 20
0.2009897513183629
 10
0.2597235775342627
 20
0.2019447024019909
 10
0.2621425616165194
 20
0.2020309192520889
 10
0.2636399026221239
 20
0.2018737725109249
 10
0.2653864492735907
 20
0.2014015602444191
 10
0.2671078552788577
 20
0.200867755002816
 10
0.2674069319915036
 20
0.1988086555976241
 10
0.2674790053508219
 20
0.1969837689321021
 10
0.267558829950829
 20
0.195345545984469
 10
0.2668995849976214
 20
0.1933420260492153
 10
0.2656461338754247
 20
0.1918836377196774
 10
0.2634783409103937
 20
0.1896486004285824
 10
0.2624878052162706
 20
0.1888072318263961
  0
LWPOLYLINE
  5
B91
330
2
100
AcDbEntity
  8
Profilo
  6
Continuous
370
     0
100
AcDbPolyline
 90
        7
 70
   128
 43
0.0
 10
0.2568797563254735
 20
0.2071633025382095
 10
0.2583794165595489
 20
0.2072333565513182
 10
0.2597039265039007
 20
0.2070762899926621
 10
0.2612929472136977
 20
0.2065263551302372
 10
0.2617425373580953
 20
0.2045332097254366
 10
0.2617588552121704
 20
0.203250483401884
 10
0.2616533778928787
 20
0.2021039549555033
  0
LWPOLYLINE
  5
B92
330
2
100
AcDbEntity
  8
Profilo
  6
Continuous
370
     0
100
AcDbPolyline
 90
        7
 70
   128
 43
0.0
 10
0.2569621354412532
 20
0.2055045725941825
 10
0.258024955717441
 20
0.2054887154864744
 10
0.2587716776884462
 20
0.2052566022762102
 10
0.2595490161165046
 20
0.20480375536522
 10
0.2600018419205201
 20
0.2036246216138708
 10
0.2601503229584354
 20
0.2028321177569404
 10
0.2600605089621597
 20
0.202017154361958
  0
LWPOLYLINE
  5
B93
330
2
100
AcDbEntity
  8
Profilo
  6
Continuous
370
     0
100
AcDbPolyline
 90
        5
 70
   128
 43
0.0
 10
0.2576993063924608
 20
0.19539894913162
 10
0.2601379334537484
 20
0.19604208624863
 10
0.2626218503196177
 20
0.1972430570102526
 10
0.2608840755074278
 20
0.1948580834520128
 10
0.2597380779648097
 20
0.1928459360897708
  0
LWPOLYLINE
  5
B94
330
2
100
AcDbEntity
  8
Profilo
  6
Continuous
370
     0
100
AcDbPolyline
 90
       14
 70
   128
 43
0.0
 10
0.2432669764904665
 20
0.2072963299784611
 10
0.2459258813478304
 20
0.2102982333848656
 10
0.2478747782069784
 20
0.2117050298027088
 10
0.2502186737114267
 20
0.2123092410237892
 10
0.2517147896205334
 20
0.2124776523412264
 10
0.2535220146606663
 20
0.2123919360376133
 10
0.2553179274979072
 20
0.2122406622726522
 10
0.2560526574687837
 20
0.2102939961198656
 10
0.2565153424828356
 20
0.2085272679322557
 10
0.2569454703362703
 20
0.2069445056561645
 10
0.2567323357261727
 20
0.2048461087258229
 10
0.2558216999758569
 20
0.2031523617654668
 10
0.2541850557560386
 20
0.2005035669962258
 10
0.2533985476147852
 20
0.1994689332301912
  0
LWPOLYLINE
  5
B95
330
2
100
AcDbEntity
  8
Profilo
  6
Continuous
370
     0
100
AcDbPolyline
 90
        7
 70
   128
 43
0.0
 10
0.2439755991891425
 20
0.2161902844706365
 10
0.2454251386582849
 20
0.2165810832805346
 10
0.2467524469634381
 20
0.2167124193365376
 10
0.2484225369915376
 20
0.2165169341270812
 10
0.2492900833132756
 20
0.2146670359454895
 10
0.2495817679074348
 20
0.2134178069068315
 10
0.2497252263140863
 20
0.2122754091526295
  0
LWPOLYLINE
  5
B96
330
2
100
AcDbEntity
  8
Profilo
  6
Continuous
370
     0
100
AcDbPolyline
 90
        7
 70
   128
 43
0.0
 10
0.2444126302332328
 20
0.2145880437857112
 10
0.2454540111714076
 20
0.2148010323510067
 10
0.2462331726766811
 20
0.2147348689694331
 10
0.24708968606407
 20
0.2144597141516429
 10
0.2477854039540227
 20
0.2134054920545718
 10
0.2481007784907772
 20
0.2126634355314977
 10
0.2481882573355991
 20
0.21184821817349
  0
LWPOLYLINE
  5
B97
330
2
100
AcDbEntity
  8
Profilo
  6
Continuous
370
     0
100
AcDbPolyline
 90
        5
 70
   128
 43
0.0
 10
0.2473049768616082
 20
0.2048771541477984
 10
0.249548334708213
 20
0.206029487809286
 10
0.2517160057647894
 20
0.2077363492439969
 10
0.2505315579777159
 20
0.2050335648258308
 10
0.2498449054250326
 20
0.2028221047545301
  0
LWPOLYLINE
  5
B98
330
2
100
AcDbEntity
  8
Profilo
  6
Continuous
370
     0
100
AcDbPolyline
 90
       14
 70
   128
 43
0.0
 10
0.2306524816145277
 20
0.2133938565296324
 10
0.2326039022571611
 20
0.21689716305025
 10
0.2342048153455327
 20
0.2186900245653518
 10
0.2363640243234373
 20
0.2197839779122495
 10
0.2377889584189497
 20
0.2202700725622604
 10
0.2395723580134585
 20
0.2205748602206301
 10
0.2413588027944177
 20
0.2208131913254316
 10
0.2424948308666805
 20
0.2190699823707908
 10
0.2433264928984462
 20
0.2174440229075683
 10
0.2440868117049347
 20
0.2159907295079351
 10
0.2443297533754332
 20
0.2138955742907677
 10
0.2438045133125841
 20
0.2120456664249951
 10
0.2427755455026979
 20
0.2091069688770938
 10
0.2422298411608581
 20
0.2079274482721979
  0
LWPOLYLINE
  5
B99
330
2
100
AcDbEntity
  8
Profilo
  6
Continuous
370
     0
100
AcDbPolyline
 90
        7
 70
   128
 43
0.0
 10
0.2294325997958977
 20
0.2222322082417189
 10
0.2307642396455776
 20
0.2229254785303972
 10
0.2320322828503803
 20
0.2233390760730502
 10
0.2337053506432404
 20
0.2235071811876904
 10
0.2349502876405227
 20
0.2218870294122647
 10
0.2355037001273272
 20
0.2207297102199305
 10
0.2358893863042693
 20
0.2196448604072096
  0
LWPOLYLINE
  5
B9A
330
2
100
AcDbEntity
  8
Profilo
  6
Continuous
370
     0
100
AcDbPolyline
 90
        7
 70
   128
 43
0.0
 10
0.2302038476824022
 20
0.2207613758095599
 10
0.2311750954673069
 20
0.2211932509392654
 10
0.2319502637808376
 20
0.2212961311125694
 10
0.2328459025135091
 20
0.2212115343214465
 10
0.2337519814940997
 20
0.220331518132229
 10
0.2342195029668685
 20
0.2196746066812935
 10
0.2344801842392299
 20
0.2188972540178721
  0
LWPOLYLINE
  5
B9B
330
2
100
AcDbEntity
  8
Profilo
  6
Continuous
370
     0
100
AcDbPolyline
 90
        5
 70
   128
 43
0.0
 10
0.2351161270742152
 20
0.2118992904028869
 10
0.2370593187865431
 20
0.2135069387675678
 10
0.2388093861444143
 20
0.2156398799317202
 10
0.2382336488445615
 20
0.2127456638490921
 10
0.2380384483920168
 20
0.2104382964838054
  0
LWPOLYLINE
  5
B9C
330
2
100
AcDbEntity
  8
Profilo
  6
Continuous
370
     0
100
AcDbPolyline
 90
       14
 70
   128
 43
0.0
 10
0.2170221186518826
 20
0.2166370827819741
 10
0.2181748088193841
 20
0.2204779816975462
 10
0.2193528812202543
 20
0.2225730760980831
 10
0.2212264414595967
 20
0.2241056195281389
 10
0.2225135654069094
 20
0.2248866682651442
 10
0.224189749772861
 20
0.2255677083533385
 10
0.2258831943250716
 20
0.2261845002303283
 10
0.2273674010886659
 20
0.2247262589871146
 10
0.2285291525458662
 20
0.2233170963056557
 10
0.2295841106430509
 20
0.2220612261666275
 10
0.2302717689116431
 20
0.2200672797919912
 10
0.2301564841778372
 20
0.2181477106565809
 10
0.2297833061690577
 20
0.2150565205612315
 10
0.2295039221551491
 20
0.2137872661900162
  0
LWPOLYLINE
  5
B9D
330
2
100
AcDbEntity
  8
Profilo
  6
Continuous
370
     0
100
AcDbPolyline
 90
        7
 70
   128
 43
0.0
 10
0.2139307726339845
 20
0.2250065602110369
 10
0.2150822468648421
 20
0.2259698854303114
 10
0.2162317326783667
 20
0.2266464050982005
 10
0.2178295474454744
 20
0.2271702401286122
 10
0.2193936632479563
 20
0.2258555912557021
 10
0.2201829266745969
 20
0.2248442968688573
 10
0.2207928063648553
 20
0.2238677213691363
  0
LWPOLYLINE
  5
B9E
330
2
100
AcDbEntity
  8
Profilo
  6
Continuous
370
     0
100
AcDbPolyline
 90
        7
 70
   128
 43
0.0
 10
0.2150001746689105
 20
0.223735910521459
 10
0.2158558748335875
 20
0.2243664782145044
 10
0.2165908039465725
 20
0.2246335913801254
 10
0.2174836889528178
 20
0.2247435082676001
 10
0.2185577617779484
 20
0.2240788465651761
 10
0.2191555694022774
 20
0.2235377966357204
 10
0.2195772639356091
 20
0.2228346568134613
  0
LWPOLYLINE
  5
B9F
330
2
100
AcDbEntity
  8
Profilo
  6
Continuous
370
     0
100
AcDbPolyline
 90
        5
 70
   128
 43
0.0
 10
0.2217026940994065
 20
0.2161370106101414
 10
0.2232548581926913
 20
0.218124801827256
 10
0.2245054906472634
 20
0.2205840887626079
 10
0.2245653846708868
 20
0.2176337713428515
 10
0.2248707636746918
 20
0.2153383866171248
  0
DIMENSION
  5
BA1
102
{ACAD_XDICTIONARY
360
BAB
102
}
102
{ACAD_REACTORS
330
BB2
102
}
330
2
100
AcDbEntity
  8
Sezione
  6
ACAD_ISO10W100
100
AcDbDimension
  2
*D19
 10
0.1493986171817919
 20
0.0952313535108543
 30
0.0
 11
0.2865482432787483
 21
0.2115475428616256
 31
0.0
 70
    35
  1
d 330 mm
 71
     5
 42
0.1650000000000001
  3
Bovelacci
100
AcDbDiametricDimension
 15
0.26845501015967
 25
0.2094704680517903
 35
0.0
 40
0.0
1001
ACAD
1000
DSTYLE
1002
{
1070
   288
1070
     1
1002
}
  0
ENDSEC
  0
SECTION
  2
OBJECTS
  0
DICTIONARY
  5
9
330
0
100
AcDbDictionary
281
     1
  3
ACAD_2007HEADERVARS_RT
350
208
  3
ACAD_COLOR
350
184
  3
ACAD_GROUP
350
17F
  3
ACAD_LAYOUT
350
164
  3
ACAD_MATERIAL
350
B
  3
ACAD_MLINESTYLE
350
180
  3
ACAD_PLOTSETTINGS
350
181
  3
ACAD_PLOTSTYLENAME
350
8
  3
ACAD_TABLESTYLE
350
185
  3
ACAD_VISUALSTYLE
350
17A
  3
ACDBHEADERROUNDTRIPXREC
350
BC1
  3
AcDbVariableDictionary
350
18B
  3
DWGPROPS
350
BC0
  0
DICTIONARY
  5
16E
330
16D
100
AcDbDictionary
280
     1
281
     1
  3
ACAD_LAYERSTATES
360
16F
  0
DICTIONARY
  5
3
330
2
100
AcDbDictionary
280
     1
281
     1
  3
ACAD_SORTENTS
360
18A
  0
DICTIONARY
  5
BC2
330
18
100
AcDbDictionary
280
     1
281
     1
  3
ACAD_MTEXT_RT
360
BC3
  0
DICTIONARY
  5
BAB
330
BA1
100
AcDbDictionary
280
     1
281
     1
  3
ACAD_DIMASSOC
360
BB2
  0
DICTIONARY
  5
208
102
{ACAD_REACTORS
330
9
102
}
330
9
100
AcDbDictionary
281
     1
  3
DIMFXL
350
209
  0
DICTIONARY
  5
184
102
{ACAD_REACTORS
330
9
102
}
330
9
100
AcDbDictionary
281
     1
  0
DICTIONARY
  5
17F
102
{ACAD_REACTORS
330
9
102
}
330
9
100
AcDbDictionary
281
     1
  0
DICTIONARY
  5
164
102
{ACAD_REACTORS
330
9
102
}
330
9
100
AcDbDictionary
281
     1
  3
Layout1
350
168
  3
Layout2
350
16C
  3
Model
350
163
  0
DICTIONARY
  5
B
102
{ACAD_REACTORS
330
9
102
}
330
9
100
AcDbDictionary
281
     1
  3
ByBlock
350
183
  3
ByLayer
350
182
  3
Global
350
A
  0
DICTIONARY
  5
180
102
{ACAD_REACTORS
330
9
102
}
330
9
100
AcDbDictionary
281
     1
  3
Standard
350
186
  0
DICTIONARY
  5
181
102
{ACAD_REACTORS
330
9
102
}
330
9
100
AcDbDictionary
281
     1
  0
ACDBDICTIONARYWDFLT
  5
8
102
{ACAD_REACTORS
330
9
102
}
330
9
100
AcDbDictionary
281
     1
  3
Normal
350
7
100
AcDbDictionaryWithDefault
340
7
  0
DICTIONARY
  5
185
102
{ACAD_REACTORS
330
9
102
}
330
9
100
AcDbDictionary
281
     1
  3
Standard
350
187
  0
DICTIONARY
  5
17A
102
{ACAD_REACTORS
330
9
102
}
330
9
100
AcDbDictionary
281
     1
  3
2dWireframe
350
179
  3
3D Hidden
350
1BD
  3
3dWireframe
350
189
  3
Basic
350
1BC
  3
Brighten
350
1C0
  3
ColorChange
350
1C4
  3
Conceptual
350
1BE
  3
Dim
350
1BF
  3
Facepattern
350
1C3
  3
Flat
350
1B8
  3
FlatWithEdges
350
1B9
  3
Gouraud
350
1BA
  3
GouraudWithEdges
350
1BB
  3
Linepattern
350
1C2
  3
Realistic
350
188
  3
Thicken
350
1C1
  0
DICTIONARY
  5
BC1
102
{ACAD_REACTORS
330
9
102
}
330
9
100
AcDbDictionary
281
     1
  0
DICTIONARY
  5
18B
102
{ACAD_REACTORS
330
9
102
}
330
9
100
AcDbDictionary
281
     1
  3
CTABLESTYLE
350
18C
  3
DIMASSOC
350
190
  3
HIDETEXT
350
18F
  3
INDEXCTL
350
18E
  3
PROJECTNAME
350
31D
  3
SORTENTS
350
18D
  0
XRECORD
  5
BC0
102
{ACAD_REACTORS
330
9
102
}
330
9
100
AcDbXrecord
280
     1
  1
DWGPROPS COOKIE
  2

  3

  4

  6

  7

  8
Mario
  9

300
=
301
=
302
=
303
=
304
=
305
=
306
=
307
=
308
=
309
=
 40
0.1239608796296296
 41
2454297.625402373
 42
2454306.841761239
  1

 90
        0
  0
DICTIONARY
  5
16F
102
{ACAD_REACTORS
330
16E
102
}
330
16E
100
AcDbDictionary
281
     1
  0
SORTENTSTABLE
  5
18A
102
{ACAD_REACTORS
330
3
102
}
330
3
100
AcDbSortentsTable
330
2
331
23F
  5
3BB
331
1E
  5
22
331
24
  5
1D
331
16
  5
14
331
12
  5
18
331
1D
  5
21
331
23
  5
23F
331
15
  5
13
331
11
  5
17
331
D
  5
15
331
1C
  5
1F
331
18
  5
1E
331
22
  5
25
331
14
  5
12
331
10
  5
16
331
1F
  5
23
331
25
  5
2AC
331
17
  5
1C
331
21
  5
24
331
13
  5
11
  0
XRECORD
  5
BC3
102
{ACAD_REACTORS
330
BC2
102
}
330
BC2
100
AcDbXrecord
280
     1
 40
7955300.0
  1
{\fTimes New Roman|b0|i0|c238|p18;\H1.6x;\C4;Bovelacci\P\pt0.09;\H0.4375x;\T0.95;via del Commercio, 5  47100 Forli - Italy  \fTimes New Roman|b0|i0|c0|p18;\P\fTimes New Roman|b0|i0|c238|p18;tel.+39-0543721386  fax +39-0543721127\fTimes New Roman|b0|i
  1
0|c0|p18; \fTimes New Roman|b0|i0|c238|p18;www.bovelacci.it\fTimes New Roman|b0|i0|c0|p18; \fTimes New Roman|b0|i0|c238|p18;e-mail: bovelacci@bovelacci\fTimes New Roman|b0|i0|c0|p18;.it}
  0
DIMASSOC
  5
BB2
102
{ACAD_REACTORS
330
BAB
102
}
330
BAB
100
AcDbDimAssoc
330
BA1
 90
        2
 70
     0
 71
     0
  1
AcDbOsnapPointRef
 72
     3
331
AEB
 73
     2
 91
        0
 40
0.0
 10
0.0
 20
0.0
 30
0.0
 75
     0
  0
XRECORD
  5
209
102
{ACAD_REACTORS
330
208
102
}
330
208
100
AcDbXrecord
280
     1
 40
0.18
  0
LAYOUT
  5
168
102
{ACAD_XDICTIONARY
360
BC6
102
}
102
{ACAD_REACTORS
330
164
102
}
330
164
100
AcDbPlotSettings
  1

  2
C:\Documents and Settings\All Users\Dati applicazioni\Autodesk\ADT 2006\enu\Plotters\Default Windows System Printer.pc3
  4

  6

 40
0.0
 41
0.0
 42
0.0
 43
0.0
 44
0.0
 45
0.0
 46
0.0
 47
0.0
 48
0.0
 49
0.0
140
0.0
141
0.0
142
1.0
143
1.0
 70
   688
 72
     0
 73
     0
 74
     5
  7

 75
    16
147
1.0
148
0.0
149
0.0
100
AcDbLayout
  1
Layout1
 70
     1
 71
     1
 10
0.0
 20
0.0
 11
420.0
 21
297.0
 12
0.0
 22
0.0
 32
0.0
 14
1.000000000000000E+20
 24
1.000000000000000E+20
 34
1.000000000000000E+20
 15
-1.000000000000000E+20
 25
-1.000000000000000E+20
 35
-1.000000000000000E+20
146
0.0
 13
0.0
 23
0.0
 33
0.0
 16
1.0
 26
0.0
 36
0.0
 17
0.0
 27
1.0
 37
0.0
 76
     0
330
165
  0
LAYOUT
  5
16C
102
{ACAD_XDICTIONARY
360
BC8
102
}
102
{ACAD_REACTORS
330
164
102
}
330
164
100
AcDbPlotSettings
  1

  2
C:\Documents and Settings\All Users\Dati applicazioni\Autodesk\ADT 2006\enu\Plotters\Default Windows System Printer.pc3
  4

  6

 40
0.0
 41
0.0
 42
0.0
 43
0.0
 44
0.0
 45
0.0
 46
0.0
 47
0.0
 48
0.0
 49
0.0
140
0.0
141
0.0
142
1.0
143
1.0
 70
   688
 72
     0
 73
     0
 74
     5
  7

 75
    16
147
1.0
148
0.0
149
0.0
100
AcDbLayout
  1
Layout2
 70
     1
 71
     2
 10
0.0
 20
0.0
 11
12.0
 21
9.0
 12
0.0
 22
0.0
 32
0.0
 14
0.0
 24
0.0
 34
0.0
 15
0.0
 25
0.0
 35
0.0
146
0.0
 13
0.0
 23
0.0
 33
0.0
 16
1.0
 26
0.0
 36
0.0
 17
0.0
 27
1.0
 37
0.0
 76
     0
330
169
  0
LAYOUT
  5
163
102
{ACAD_XDICTIONARY
360
BC4
102
}
102
{ACAD_REACTORS
330
164
102
}
330
164
100
AcDbPlotSettings
  1

  2
C:\Documents and Settings\All Users\Dati applicazioni\Autodesk\ADT 2006\enu\Plotters\Default Windows System Printer.pc3
  4

  6

 40
0.0
 41
0.0
 42
0.0
 43
0.0
 44
0.0
 45
0.0
 46
0.0
 47
0.0
 48
0.0
 49
0.0
140
0.0
141
0.0
142
1.0
143
1.0
 70
  1712
 72
     0
 73
     0
 74
     0
  7

 75
     0
147
1.0
148
0.0
149
0.0
100
AcDbLayout
  1
Model
 70
     1
 71
     0
 10
0.0
 20
0.0
 11
12.0
 21
9.0
 12
0.0
 22
0.0
 32
0.0
 14
0.0
 24
0.0
 34
0.0
 15
0.0
 25
0.0
 35
0.0
146
0.0
 13
0.0
 23
0.0
 33
0.0
 16
1.0
 26
0.0
 36
0.0
 17
0.0
 27
1.0
 37
0.0
 76
     0
330
2
  0
MATERIAL
  5
183
102
{ACAD_XDICTIONARY
360
1B0
102
}
102
{ACAD_REACTORS
330
B
102
}
330
B
100
AcDbMaterial
  1
ByBlock
  0
MATERIAL
  5
182
102
{ACAD_XDICTIONARY
360
1AE
102
}
102
{ACAD_REACTORS
330
B
102
}
330
B
100
AcDbMaterial
  1
ByLayer
  0
MATERIAL
  5
A
102
{ACAD_XDICTIONARY
360
193
102
}
102
{ACAD_REACTORS
330
B
102
}
330
B
100
AcDbMaterial
  1
Global
  0
MLINESTYLE
  5
186
102
{ACAD_REACTORS
330
180
102
}
330
180
100
AcDbMlineStyle
  2
STANDARD
 70
     0
  3

 62
   256
 51
90.0
 52
90.0
 71
     2
 49
0.5
 62
   256
  6
BYLAYER
 49
-0.5
 62
   256
  6
BYLAYER
  0
ACDBPLACEHOLDER
  5
7
102
{ACAD_REACTORS
330
8
102
}
330
8
  0
TABLESTYLE
  5
187
102
{ACAD_XDICTIONARY
360
21A
102
}
102
{ACAD_REACTORS
330
185
102
}
330
185
100
AcDbTableStyle
  3
Standard
 70
     0
 71
     0
 40
1.5
 41
1.5
280
     0
281
     0
  7
Standard
140
4.5
170
     2
 62
     0
 63
     7
283
     0
274
    -2
284
     1
 64
     0
275
    -2
285
     1
 65
     0
276
    -2
286
     1
 66
     0
277
    -2
287
     1
 67
     0
278
    -2
288
     1
 68
     0
279
    -2
289
     1
 69
     0
  7
Standard
140
6.0
170
     5
 62
     0
 63
     7
283
     0
274
    -2
284
     1
 64
     0
275
    -2
285
     1
 65
     0
276
    -2
286
     1
 66
     0
277
    -2
287
     1
 67
     0
278
    -2
288
     1
 68
     0
279
    -2
289
     1
 69
     0
  7
Standard
140
4.5
170
     5
 62
     0
 63
     7
283
     0
274
    -2
284
     1
 64
     0
275
    -2
285
     1
 65
     0
276
    -2
286
     1
 66
     0
277
    -2
287
     1
 67
     0
278
    -2
288
     1
 68
     0
279
    -2
289
     1
 69
     0
  0
VISUALSTYLE
  5
179
102
{ACAD_REACTORS
330
17A
102
}
330
17A
100
AcDbVisualStyle
  2
2dWireframe
 70
     4
 71
     0
 72
     2
 73
     0
 90
        0
 40
-0.6
 41
-30.0
 62
     5
 63
     7
 74
     1
 91
        4
 64
     7
 65
   257
 75
     1
175
     1
 42
1.0
 92
        0
 66
   257
 43
1.0
 76
     1
 77
     6
 78
     2
 67
     7
 79
     5
170
     0
171
     0
290
     0
174
     0
 93
        1
 44
0.0
173
     0
291
     0
 45
0.0
1001
ACAD
1000
AcDbSavedByObjectVersion
1070
     0
1000
AcDbSavedByObjectVersion
1070
     0
1000
AcDbSavedByObjectVersion
1070
     0
1001
ACAD
1000
AcRTDxfName
1000
VISUALSTYLE
  0
VISUALSTYLE
  5
1BD
102
{ACAD_REACTORS
330
17A
102
}
330
17A
100
AcDbVisualStyle
  2
3D Hidden
 70
     6
 71
     1
 72
     2
 73
     2
 90
        0
 40
-0.6
 41
-30.0
 62
     5
 63
     7
 74
     2
 91
        2
 64
     7
 65
   257
 75
     2
175
     1
 42
40.0
 92
        0
 66
   257
 43
1.0
 76
     1
 77
     6
 78
     2
 67
     7
 79
     3
170
     0
171
     0
290
     0
174
     0
 93
        1
 44
0.0
173
     0
291
     0
 45
0.0
1001
ACAD
1000
AcDbSavedByObjectVersion
1070
     0
1000
AcDbSavedByObjectVersion
1070
     0
1001
ACAD
1000
AcRTDxfName
1000
VISUALSTYLE
  0
VISUALSTYLE
  5
189
102
{ACAD_REACTORS
330
17A
102
}
330
17A
100
AcDbVisualStyle
  2
3dWireframe
 70
     5
 71
     0
 72
     2
 73
     0
 90
        0
 40
-0.6
 41
-30.0
 62
     5
 63
     7
 74
     1
 91
        4
 64
     7
 65
   257
 75
     1
175
     1
 42
1.0
 92
        0
 66
   257
 43
1.0
 76
     1
 77
     6
 78
     2
 67
     7
 79
     5
170
     0
171
     0
290
     0
174
     0
 93
        1
 44
0.0
173
     0
291
     0
 45
0.0
1001
ACAD
1000
AcDbSavedByObjectVersion
1070
     0
1000
AcDbSavedByObjectVersion
1070
     0
1000
AcDbSavedByObjectVersion
1070
     0
1001
ACAD
1000
AcRTDxfName
1000
VISUALSTYLE
  0
VISUALSTYLE
  5
1BC
102
{ACAD_REACTORS
330
17A
102
}
330
17A
100
AcDbVisualStyle
  2
Basic
 70
     7
 71
     1
 72
     0
 73
     1
 90
        0
 40
-0.6
 41
-30.0
 62
     5
 63
     7
 74
     0
 91
        4
 64
     7
 65
   257
 75
     1
175
     1
 42
1.0
 92
        8
 66
     7
 43
1.0
 76
     1
 77
     6
 78
     2
 67
     7
 79
     5
170
     0
171
     0
290
     0
174
     0
 93
        1
 44
0.0
173
     0
291
     1
 45
0.0
1001
ACAD
1000
AcDbSavedByObjectVersion
1070
     0
1000
AcDbSavedByObjectVersion
1070
     0
1001
ACAD
1000
AcRTDxfName
1000
VISUALSTYLE
  0
VISUALSTYLE
  5
1C0
102
{ACAD_REACTORS
330
17A
102
}
330
17A
100
AcDbVisualStyle
  2
Brighten
 70
    12
 71
     2
 72
     2
 73
     0
 90
        0
 40
-0.6
 41
-30.0
 62
     5
 63
     7
 74
     1
 91
        4
 64
     7
 65
   257
 75
     1
175
     1
 42
1.0
 92
        8
 66
     7
 43
1.0
 76
     1
 77
     6
 78
     2
 67
     7
 79
     5
170
     0
171
     0
290
     0
174
     0
 93
        1
 44
50.0
173
     0
291
     1
 45
0.0
1001
ACAD
1000
AcDbSavedByObjectVersion
1070
     0
1000
AcDbSavedByObjectVersion
1070
     0
1001
ACAD
1000
AcRTDxfName
1000
VISUALSTYLE
  0
VISUALSTYLE
  5
1C4
102
{ACAD_REACTORS
330
17A
102
}
330
17A
100
AcDbVisualStyle
  2
ColorChange
 70
    16
 71
     2
 72
     2
 73
     3
 90
        0
 40
-0.6
 41
-30.0
 62
     5
 63
     8
 74
     1
 91
        4
 64
     7
 65
   257
 75
     1
175
     1
 42
1.0
 92
        8
 66
     8
 43
1.0
 76
     1
 77
     6
 78
     2
 67
     7
 79
     5
170
     0
171
     0
290
     0
174
     0
 93
        1
 44
0.0
173
     0
291
     1
 45
0.0
1001
ACAD
1000
AcDbSavedByObjectVersion
1070
     0
1000
AcDbSavedByObjectVersion
1070
     0
1001
ACAD
1000
AcRTDxfName
1000
VISUALSTYLE
  0
VISUALSTYLE
  5
1BE
102
{ACAD_REACTORS
330
17A
102
}
330
17A
100
AcDbVisualStyle
  2
Conceptual
 70
     9
 71
     3
 72
     2
 73
     0
 90
        0
 40
-0.6
 41
-30.0
 62
     5
 63
     7
 74
     2
 91
        2
 64
     7
 65
   257
 75
     1
175
     1
 42
40.0
 92
        8
 66
     7
 43
1.0
 76
     1
 77
     6
 78
     2
 67
     7
 79
     3
170
     0
171
     0
290
     0
174
     0
 93
        1
 44
0.0
173
     0
291
     0
 45
0.0
1001
ACAD
1000
AcDbSavedByObjectVersion
1070
     0
1000
AcDbSavedByObjectVersion
1070
     0
1001
ACAD
1000
AcRTDxfName
1000
VISUALSTYLE
  0
VISUALSTYLE
  5
1BF
102
{ACAD_REACTORS
330
17A
102
}
330
17A
100
AcDbVisualStyle
  2
Dim
 70
    11
 71
     2
 72
     2
 73
     0
 90
        0
 40
-0.6
 41
-30.0
 62
     5
 63
     7
 74
     1
 91
        4
 64
     7
 65
   257
 75
     1
175
     1
 42
1.0
 92
        8
 66
     7
 43
1.0
 76
     1
 77
     6
 78
     2
 67
     7
 79
     5
170
     0
171
     0
290
     0
174
     0
 93
        1
 44
-50.0
173
     0
291
     1
 45
0.0
1001
ACAD
1000
AcDbSavedByObjectVersion
1070
     0
1000
AcDbSavedByObjectVersion
1070
     0
1001
ACAD
1000
AcRTDxfName
1000
VISUALSTYLE
  0
VISUALSTYLE
  5
1C3
102
{ACAD_REACTORS
330
17A
102
}
330
17A
100
AcDbVisualStyle
  2
Facepattern
 70
    15
 71
     2
 72
     2
 73
     0
 90
        0
 40
-0.6
 41
-30.0
 62
     5
 63
     7
 74
     1
 91
        4
 64
     7
 65
   257
 75
     1
175
     1
 42
1.0
 92
        8
 66
     7
 43
1.0
 76
     1
 77
     6
 78
     2
 67
     7
 79
     5
170
     0
171
     0
290
     0
174
     0
 93
        1
 44
0.0
173
     0
291
     1
 45
0.0
1001
ACAD
1000
AcDbSavedByObjectVersion
1070
     0
1000
AcDbSavedByObjectVersion
1070
     0
1001
ACAD
1000
AcRTDxfName
1000
VISUALSTYLE
  0
VISUALSTYLE
  5
1B8
102
{ACAD_REACTORS
330
17A
102
}
330
17A
100
AcDbVisualStyle
  2
Flat
 70
     0
 71
     2
 72
     1
 73
     1
 90
        2
 40
-0.6
 41
30.0
 62
     5
 63
     7
 74
     0
 91
        4
 64
     7
 65
   257
 75
     1
175
     1
 42
1.0
 92
        8
 66
     7
 43
1.0
 76
     1
 77
     6
 78
     2
 67
     7
 79
     5
170
     0
171
     0
290
     0
174
     0
 93
       13
 44
0.0
173
     0
291
     1
 45
0.0
1001
ACAD
1000
AcDbSavedByObjectVersion
1070
     0
1000
AcDbSavedByObjectVersion
1070
     0
1001
ACAD
1000
AcRTDxfName
1000
VISUALSTYLE
  0
VISUALSTYLE
  5
1B9
102
{ACAD_REACTORS
330
17A
102
}
330
17A
100
AcDbVisualStyle
  2
FlatWithEdges
 70
     1
 71
     2
 72
     1
 73
     1
 90
        2
 40
-0.6
 41
30.0
 62
     5
 63
     7
 74
     1
 91
        4
 64
     7
 65
   257
 75
     1
175
     1
 42
1.0
 92
        0
 66
   257
 43
1.0
 76
     1
 77
     6
 78
     2
 67
     7
 79
     5
170
     0
171
     0
290
     0
174
     0
 93
       13
 44
0.0
173
     0
291
     1
 45
0.0
1001
ACAD
1000
AcDbSavedByObjectVersion
1070
     0
1000
AcDbSavedByObjectVersion
1070
     0
1001
ACAD
1000
AcRTDxfName
1000
VISUALSTYLE
  0
VISUALSTYLE
  5
1BA
102
{ACAD_REACTORS
330
17A
102
}
330
17A
100
AcDbVisualStyle
  2
Gouraud
 70
     2
 71
     2
 72
     2
 73
     1
 90
        2
 40
-0.6
 41
30.0
 62
     5
 63
     7
 74
     0
 91
        4
 64
     7
 65
   257
 75
     1
175
     1
 42
1.0
 92
        0
 66
     7
 43
1.0
 76
     1
 77
     6
 78
     2
 67
     7
 79
     5
170
     0
171
     0
290
     0
174
     0
 93
       13
 44
0.0
173
     0
291
     1
 45
0.0
1001
ACAD
1000
AcDbSavedByObjectVersion
1070
     0
1000
AcDbSavedByObjectVersion
1070
     0
1001
ACAD
1000
AcRTDxfName
1000
VISUALSTYLE
  0
VISUALSTYLE
  5
1BB
102
{ACAD_REACTORS
330
17A
102
}
330
17A
100
AcDbVisualStyle
  2
GouraudWithEdges
 70
     3
 71
     2
 72
     2
 73
     1
 90
        2
 40
-0.6
 41
30.0
 62
     5
 63
     7
 74
     1
 91
        4
 64
     7
 65
   257
 75
     1
175
     1
 42
1.0
 92
        0
 66
   257
 43
1.0
 76
     1
 77
     6
 78
     2
 67
     7
 79
     5
170
     0
171
     0
290
     0
174
     0
 93
       13
 44
0.0
173
     0
291
     1
 45
0.0
1001
ACAD
1000
AcDbSavedByObjectVersion
1070
     0
1000
AcDbSavedByObjectVersion
1070
     0
1001
ACAD
1000
AcRTDxfName
1000
VISUALSTYLE
  0
VISUALSTYLE
  5
1C2
102
{ACAD_REACTORS
330
17A
102
}
330
17A
100
AcDbVisualStyle
  2
Linepattern
 70
    14
 71
     2
 72
     2
 73
     0
 90
        0
 40
-0.6
 41
-30.0
 62
     5
 63
     7
 74
     1
 91
        4
 64
     7
 65
   257
 75
     7
175
     7
 42
1.0
 92
        8
 66
     7
 43
1.0
 76
     1
 77
     6
 78
     2
 67
     7
 79
     5
170
     0
171
     0
290
     0
174
     0
 93
        1
 44
0.0
173
     0
291
     1
 45
0.0
1001
ACAD
1000
AcDbSavedByObjectVersion
1070
     0
1000
AcDbSavedByObjectVersion
1070
     0
1001
ACAD
1000
AcRTDxfName
1000
VISUALSTYLE
  0
VISUALSTYLE
  5
188
102
{ACAD_REACTORS
330
17A
102
}
330
17A
100
AcDbVisualStyle
  2
Realistic
 70
     8
 71
     2
 72
     2
 73
     0
 90
        0
 40
-0.6
 41
-30.0
 62
     5
 63
     7
 74
     1
 91
        0
 64
     7
 65
   257
 75
     1
175
     1
 42
1.0
 92
        8
 66
     8
 43
1.0
 76
     1
 77
     6
 78
     2
 67
     7
 79
     5
170
     0
171
     0
290
     0
174
     0
 93
       13
 44
0.0
173
     0
291
     0
 45
0.0
1001
ACAD
1000
AcDbSavedByObjectVersion
1070
     0
1000
AcDbSavedByObjectVersion
1070
     0
1000
AcDbSavedByObjectVersion
1070
     0
1001
ACAD
1000
AcRTDxfName
1000
VISUALSTYLE
  0
VISUALSTYLE
  5
1C1
102
{ACAD_REACTORS
330
17A
102
}
330
17A
100
AcDbVisualStyle
  2
Thicken
 70
    13
 71
     2
 72
     2
 73
     0
 90
        0
 40
-0.6
 41
-30.0
 62
     5
 63
     7
 74
     1
 91
        4
 64
     7
 65
   257
 75
     1
175
     1
 42
1.0
 92
       12
 66
     7
 43
1.0
 76
     1
 77
     6
 78
     2
 67
     7
 79
     5
170
     0
171
     0
290
     0
174
     0
 93
        1
 44
0.0
173
     0
291
     1
 45
0.0
1001
ACAD
1000
AcDbSavedByObjectVersion
1070
     0
1000
AcDbSavedByObjectVersion
1070
     0
1001
ACAD
1000
AcRTDxfName
1000
VISUALSTYLE
  0
DICTIONARYVAR
  5
18C
102
{ACAD_REACTORS
330
18B
102
}
330
18B
100
DictionaryVariables
280
     0
  1
STANDARD
  0
DICTIONARYVAR
  5
190
102
{ACAD_REACTORS
330
18B
102
}
330
18B
100
DictionaryVariables
280
     0
  1
2
  0
DICTIONARYVAR
  5
18F
102
{ACAD_REACTORS
330
18B
102
}
330
18B
100
DictionaryVariables
280
     0
  1
1
  0
DICTIONARYVAR
  5
18E
102
{ACAD_REACTORS
330
18B
102
}
330
18B
100
DictionaryVariables
280
     0
  1
0
  0
DICTIONARYVAR
  5
31D
102
{ACAD_REACTORS
330
18B
102
}
330
18B
100
DictionaryVariables
280
     0
  1

  0
DICTIONARYVAR
  5
18D
102
{ACAD_REACTORS
330
18B
102
}
330
18B
100
DictionaryVariables
280
     0
  1
127
  0
DICTIONARY
  5
BC6
330
168
100
AcDbDictionary
280
     1
281
     1
  3
ACAD_XREC_ROUNDTRIP
360
BC7
  0
DICTIONARY
  5
BC8
330
16C
100
AcDbDictionary
280
     1
281
     1
  3
ACAD_XREC_ROUNDTRIP
360
BC9
  0
DICTIONARY
  5
BC4
330
163
100
AcDbDictionary
280
     1
281
     1
  3
ACAD_XREC_ROUNDTRIP
360
BC5
  0
DICTIONARY
  5
1B0
330
183
100
AcDbDictionary
280
     1
281
     1
  3
ACAD_XREC_ROUNDTRIP
360
1B1
  0
DICTIONARY
  5
1AE
330
182
100
AcDbDictionary
280
     1
281
     1
  3
ACAD_XREC_ROUNDTRIP
360
1AF
  0
DICTIONARY
  5
193
330
A
100
AcDbDictionary
280
     1
281
     1
  3
ACAD_XREC_ROUNDTRIP
360
194
  0
DICTIONARY
  5
21A
330
187
100
AcDbDictionary
280
     1
281
     1
  3
ACAD_XREC_ROUNDTRIP
360
21B
  0
XRECORD
  5
BC7
102
{ACAD_REACTORS
330
BC6
102
}
330
BC6
100
AcDbXrecord
280
     1
102
SHADEPLOT
 70
     0
102
SHADEPLOTRESLEVEL
 70
     2
102
SHADEPLOTCUSTOMDPI
 70
   300
  0
XRECORD
  5
BC9
102
{ACAD_REACTORS
330
BC8
102
}
330
BC8
100
AcDbXrecord
280
     1
102
SHADEPLOT
 70
     0
102
SHADEPLOTRESLEVEL
 70
     2
102
SHADEPLOTCUSTOMDPI
 70
   300
  0
XRECORD
  5
BC5
102
{ACAD_REACTORS
330
BC4
102
}
330
BC4
100
AcDbXrecord
280
     1
102
SHADEPLOT
 70
     0
102
SHADEPLOTRESLEVEL
 70
     2
102
SHADEPLOTCUSTOMDPI
 70
   300
  0
XRECORD
  5
1B1
102
{ACAD_REACTORS
330
1B0
102
}
330
1B0
100
AcDbXrecord
280
     1
102
MATERIAL
148
0.0
149
0.0
149
0.0
 93
        0
 94
       63
282
     0
 72
     1
 77
     1
171
     1
175
     1
179
     1
273
     0
  0
XRECORD
  5
1AF
102
{ACAD_REACTORS
330
1AE
102
}
330
1AE
100
AcDbXrecord
280
     1
102
MATERIAL
148
0.0
149
0.0
149
0.0
 93
        0
 94
       63
282
     0
 72
     1
 77
     1
171
     1
175
     1
179
     1
273
     0
  0
XRECORD
  5
194
102
{ACAD_REACTORS
330
193
102
}
330
193
100
AcDbXrecord
280
     1
102
MATERIAL
148
0.0
149
0.0
149
0.0
 93
        0
 94
       63
282
     0
 72
     1
 77
     1
171
     1
175
     1
179
     1
273
     0
  0
XRECORD
  5
21B
102
{ACAD_REACTORS
330
21A
102
}
330
21A
100
AcDbXrecord
280
     1
102
ACAD_ROUNDTRIP_PRE2007_TABLESTYLE
 90
        4
 91
        0
  1

 92
        4
 93
        0
  2

 94
        4
 95
        0
  3

  0
ENDSEC
  0
EOF
