  0
SECTION
  2
HEADER
  9
$ACADVER
  1
AC1015
  9
$ACADMAINTVER
 70
    20
  9
$DWGCODEPAGE
  3
ANSI_1252
  9
$INSBASE
 10
0.0
 20
0.0
 30
0.0
  9
$EXTMIN
 10
0.0149999999999999
 20
-0.0204515658674481
 30
0.0
  9
$EXTMAX
 10
1.094458303957087
 20
0.4148579169273883
 30
0.0
  9
$LIMMIN
 10
0.0
 20
0.0
  9
$LIMMAX
 10
1.0
 20
0.5
  9
$ORTHOMODE
 70
     0
  9
$REGENMODE
 70
     1
  9
$FILLMODE
 70
     1
  9
$QTEXTMODE
 70
     0
  9
$MIRRTEXT
 70
     0
  9
$LTSCALE
 40
1.0
  9
$ATTMODE
 70
     1
  9
$TEXTSIZE
 40
0.008
  9
$TRACEWID
 40
1.0
  9
$TEXTSTYLE
  7
style1
  9
$CLAYER
  8
Sezione
  9
$CELTYPE
  6
ACAD_ISO10W100
  9
$CECOLOR
 62
   256
  9
$CELTSCALE
 40
1.0
  9
$DISPSILH
 70
     0
  9
$DIMSCALE
 40
0.001
  9
$DIMASZ
 40
1.5
  9
$DIMEXO
 40
0.0625
  9
$DIMDLI
 40
0.38
  9
$DIMRND
 40
0.0
  9
$DIMDLE
 40
0.0
  9
$DIMEXE
 40
0.18
  9
$DIMTP
 40
0.0
  9
$DIMTM
 40
0.0
  9
$DIMTXT
 40
3.0
  9
$DIMCEN
 40
0.0
  9
$DIMTSZ
 40
0.0
  9
$DIMTOL
 70
     0
  9
$DIMLIM
 70
     0
  9
$DIMTIH
 70
     1
  9
$DIMTOH
 70
     1
  9
$DIMSE1
 70
     0
  9
$DIMSE2
 70
     0
  9
$DIMTAD
 70
     0
  9
$DIMZIN
 70
     0
  9
$DIMBLK
  1
ArchTick
  9
$DIMASO
 70
     1
  9
$DIMSHO
 70
     1
  9
$DIMPOST
  1

  9
$DIMAPOST
  1

  9
$DIMALT
 70
     0
  9
$DIMALTD
 70
     2
  9
$DIMALTF
 40
25.4
  9
$DIMLFAC
 40
1.0
  9
$DIMTOFL
 70
     0
  9
$DIMTVP
 40
0.0
  9
$DIMTIX
 70
     0
  9
$DIMSOXD
 70
     0
  9
$DIMSAH
 70
     0
  9
$DIMBLK1
  1

  9
$DIMBLK2
  1

  9
$DIMSTYLE
  2
Bovelacci
  9
$DIMCLRD
 70
     5
  9
$DIMCLRE
 70
     5
  9
$DIMCLRT
 70
     4
  9
$DIMTFAC
 40
1.0
  9
$DIMGAP
 40
2.0
  9
$DIMJUST
 70
     0
  9
$DIMSD1
 70
     0
  9
$DIMSD2
 70
     0
  9
$DIMTOLJ
 70
     1
  9
$DIMTZIN
 70
     0
  9
$DIMALTZ
 70
     0
  9
$DIMALTTZ
 70
     0
  9
$DIMUPT
 70
     0
  9
$DIMDEC
 70
     2
  9
$DIMTDEC
 70
     2
  9
$DIMALTU
 70
     2
  9
$DIMALTTD
 70
     2
  9
$DIMTXSTY
  7
ROMANS
  9
$DIMAUNIT
 70
     0
  9
$DIMADEC
 70
     0
  9
$DIMALTRND
 40
0.0
  9
$DIMAZIN
 70
     0
  9
$DIMDSEP
 70
    46
  9
$DIMATFIT
 70
     3
  9
$DIMFRAC
 70
     0
  9
$DIMLDRBLK
  1

  9
$DIMLUNIT
 70
     2
  9
$DIMLWD
 70
    -2
  9
$DIMLWE
 70
    -2
  9
$DIMTMOVE
 70
     2
  9
$LUNITS
 70
     2
  9
$LUPREC
 70
     2
  9
$SKETCHINC
 40
1.0
  9
$FILLETRAD
 40
0.0
  9
$AUNITS
 70
     0
  9
$AUPREC
 70
     0
  9
$MENU
  1
.
  9
$ELEVATION
 40
0.0
  9
$PELEVATION
 40
0.0
  9
$THICKNESS
 40
0.0
  9
$LIMCHECK
 70
     0
  9
$CHAMFERA
 40
0.0
  9
$CHAMFERB
 40
0.0
  9
$CHAMFERC
 40
0.0
  9
$CHAMFERD
 40
0.0
  9
$SKPOLY
 70
     0
  9
$TDCREATE
 40
2454297.625402373
  9
$TDUCREATE
 40
2454297.542069039
  9
$TDUPDATE
 40
2454306.866297014
  9
$TDUUPDATE
 40
2454306.782963680
  9
$TDINDWG
 40
0.1484977315
  9
$TDUSRTIMER
 40
0.1484957292
  9
$USRTIMER
 70
     1
  9
$ANGBASE
 50
0.0
  9
$ANGDIR
 70
     0
  9
$PDMODE
 70
     0
  9
$PDSIZE
 40
0.0
  9
$PLINEWID
 40
0.0
  9
$SPLFRAME
 70
     0
  9
$SPLINETYPE
 70
     6
  9
$SPLINESEGS
 70
     8
  9
$HANDSEED
  5
11B1
  9
$SURFTAB1
 70
     6
  9
$SURFTAB2
 70
     6
  9
$SURFTYPE
 70
     6
  9
$SURFU
 70
     6
  9
$SURFV
 70
     6
  9
$UCSBASE
  2

  9
$UCSNAME
  2

  9
$UCSORG
 10
0.0
 20
0.0
 30
0.0
  9
$UCSXDIR
 10
1.0
 20
0.0
 30
0.0
  9
$UCSYDIR
 10
0.0
 20
1.0
 30
0.0
  9
$UCSORTHOREF
  2

  9
$UCSORTHOVIEW
 70
     0
  9
$UCSORGTOP
 10
0.0
 20
0.0
 30
0.0
  9
$UCSORGBOTTOM
 10
0.0
 20
0.0
 30
0.0
  9
$UCSORGLEFT
 10
0.0
 20
0.0
 30
0.0
  9
$UCSORGRIGHT
 10
0.0
 20
0.0
 30
0.0
  9
$UCSORGFRONT
 10
0.0
 20
0.0
 30
0.0
  9
$UCSORGBACK
 10
0.0
 20
0.0
 30
0.0
  9
$PUCSBASE
  2

  9
$PUCSNAME
  2

  9
$PUCSORG
 10
0.0
 20
0.0
 30
0.0
  9
$PUCSXDIR
 10
1.0
 20
0.0
 30
0.0
  9
$PUCSYDIR
 10
0.0
 20
1.0
 30
0.0
  9
$PUCSORTHOREF
  2

  9
$PUCSORTHOVIEW
 70
     0
  9
$PUCSORGTOP
 10
0.0
 20
0.0
 30
0.0
  9
$PUCSORGBOTTOM
 10
0.0
 20
0.0
 30
0.0
  9
$PUCSORGLEFT
 10
0.0
 20
0.0
 30
0.0
  9
$PUCSORGRIGHT
 10
0.0
 20
0.0
 30
0.0
  9
$PUCSORGFRONT
 10
0.0
 20
0.0
 30
0.0
  9
$PUCSORGBACK
 10
0.0
 20
0.0
 30
0.0
  9
$USERI1
 70
     0
  9
$USERI2
 70
     0
  9
$USERI3
 70
     0
  9
$USERI4
 70
     0
  9
$USERI5
 70
     0
  9
$USERR1
 40
0.0
  9
$USERR2
 40
0.0
  9
$USERR3
 40
0.0
  9
$USERR4
 40
0.0
  9
$USERR5
 40
0.0
  9
$WORLDVIEW
 70
     1
  9
$SHADEDGE
 70
     3
  9
$SHADEDIF
 70
    70
  9
$TILEMODE
 70
     1
  9
$MAXACTVP
 70
    64
  9
$PINSBASE
 10
0.0
 20
0.0
 30
0.0
  9
$PLIMCHECK
 70
     0
  9
$PEXTMIN
 10
1.000000000000000E+20
 20
1.000000000000000E+20
 30
1.000000000000000E+20
  9
$PEXTMAX
 10
-1.000000000000000E+20
 20
-1.000000000000000E+20
 30
-1.000000000000000E+20
  9
$PLIMMIN
 10
0.0
 20
0.0
  9
$PLIMMAX
 10
420.0
 20
297.0
  9
$UNITMODE
 70
     0
  9
$VISRETAIN
 70
     1
  9
$PLINEGEN
 70
     0
  9
$PSLTSCALE
 70
     1
  9
$TREEDEPTH
 70
  3020
  9
$CMLSTYLE
  2
Standard
  9
$CMLJUST
 70
     0
  9
$CMLSCALE
 40
20.0
  9
$PROXYGRAPHICS
 70
     1
  9
$MEASUREMENT
 70
     1
  9
$CELWEIGHT
370
    -1
  9
$ENDCAPS
280
     0
  9
$JOINSTYLE
280
     0
  9
$LWDISPLAY
290
     0
  9
$INSUNITS
 70
     4
  9
$HYPERLINKBASE
  1

  9
$STYLESHEET
  1

  9
$XEDIT
290
     1
  9
$CEPSNTYPE
380
     0
  9
$PSTYLEMODE
290
     1
  9
$FINGERPRINTGUID
  2
{904A8C64-524F-4709-A9C6-320D2C273A6D}
  9
$VERSIONGUID
  2
{7C62E2EB-6522-456F-A3E2-AF3BA36452B3}
  9
$EXTNAMES
290
     1
  9
$PSVPSCALE
 40
0.0
  9
$OLESTARTUP
290
     0
  0
ENDSEC
  0
SECTION
  2
CLASSES
  0
CLASS
  1
ACDBDICTIONARYWDFLT
  2
AcDbDictionaryWithDefault
  3
ObjectDBX Classes
 90
        0
280
     0
281
     0
  0
CLASS
  1
TABLESTYLE
  2
AcDbTableStyle
  3
ObjectDBX Classes
 90
     2047
280
     0
281
     0
  0
CLASS
  1
SORTENTSTABLE
  2
AcDbSortentsTable
  3
ObjectDBX Classes
 90
        0
280
     0
281
     0
  0
CLASS
  1
DICTIONARYVAR
  2
AcDbDictionaryVar
  3
ObjectDBX Classes
 90
        0
280
     0
281
     0
  0
CLASS
  1
ACDBPLACEHOLDER
  2
AcDbPlaceHolder
  3
ObjectDBX Classes
 90
        0
280
     0
281
     0
  0
CLASS
  1
LAYOUT
  2
AcDbLayout
  3
ObjectDBX Classes
 90
        0
280
     0
281
     0
  0
CLASS
  1
DIMASSOC
  2
AcDbDimAssoc
  3
"AcDbDimAssoc|Product Desc:     AcDim ARX App For Dimension|Company:          Autodesk, Inc.|WEB Address:      www.autodesk.com"
 90
        0
280
     0
281
     0
  0
CLASS
  1
MATERIAL
  2
AcDbMaterial
  3
ObjectDBX Classes
 90
        0
280
     0
281
     0
  0
CLASS
  1
VISUALSTYLE
  2
AcDbVisualStyle
  3
ObjectDBX Classes
 90
     4095
280
     0
281
     0
  0
ENDSEC
  0
SECTION
  2
TABLES
  0
TABLE
  2
VPORT
  5
177
330
0
100
AcDbSymbolTable
 70
    19
  0
VPORT
  5
11A6
330
177
100
AcDbSymbolTableRecord
100
AcDbViewportTableRecord
  2
*Active
 70
     0
 10
0.0
 20
0.0
 11
1.0
 21
1.0
 12
0.2100039585341506
 22
0.1487561642782705
 13
0.0
 23
0.0
 14
10.0
 24
10.0
 15
10.0
 25
10.0
 16
0.0
 26
0.0
 36
1.0
 17
0.0
 27
0.0
 37
0.0
 40
0.2740775448347648
 41
1.546526867627784
 42
50.0
 43
0.0
 44
0.0
 50
0.0
 51
0.0
 71
     0
 72
  1000
 73
     1
 74
     3
 75
     0
 76
     0
 77
     0
 78
     0
281
     0
 65
     1
110
0.0
120
0.0
130
0.0
111
1.0
121
0.0
131
0.0
112
0.0
122
1.0
132
0.0
 79
     0
146
0.0
  0
ENDTAB
  0
TABLE
  2
LTYPE
  5
172
330
0
100
AcDbSymbolTable
 70
     3
  0
LTYPE
  5
173
330
172
100
AcDbSymbolTableRecord
100
AcDbLinetypeTableRecord
  2
ByBlock
 70
     0
  3

 72
    65
 73
     0
 40
0.0
  0
LTYPE
  5
174
330
172
100
AcDbSymbolTableRecord
100
AcDbLinetypeTableRecord
  2
ByLayer
 70
     0
  3

 72
    65
 73
     0
 40
0.0
  0
LTYPE
  5
C
330
172
100
AcDbSymbolTableRecord
100
AcDbLinetypeTableRecord
  2
Continuous
 70
     0
  3
Solid line
 72
    65
 73
     0
 40
0.0
  0
LTYPE
  5
14E
330
172
100
AcDbSymbolTableRecord
100
AcDbLinetypeTableRecord
  2
ACAD_ISO10W100
 70
     0
  3
ISO dash dot __ . __ . __ . __ . __ . __ . __ .
 72
    65
 73
     4
 40
18.0
 49
12.0
 74
     0
 49
-3.0
 74
     0
 49
0.0
 74
     0
 49
-3.0
 74
     0
  0
ENDTAB
  0
TABLE
  2
LAYER
  5
16D
102
{ACAD_XDICTIONARY
360
16E
102
}
330
0
100
AcDbSymbolTable
 70
     7
  0
LAYER
  5
6
330
16D
100
AcDbSymbolTableRecord
100
AcDbLayerTableRecord
  2
0
 70
     0
 62
     7
  6
Continuous
370
    -3
390
7
  0
LAYER
  5
15F
330
16D
100
AcDbSymbolTableRecord
100
AcDbLayerTableRecord
  2
Defpoints
 70
     0
 62
     7
  6
Continuous
290
     0
370
    -3
390
7
  0
LAYER
  5
28
330
16D
100
AcDbSymbolTableRecord
100
AcDbLayerTableRecord
  2
Profilo
 70
     0
 62
     1
  6
Continuous
370
    -3
390
7
1001
AcAecLayerStandard
1000

1000

  0
LAYER
  5
14D
330
16D
100
AcDbSymbolTableRecord
100
AcDbLayerTableRecord
  2
Sezione
 70
     0
 62
     2
  6
Continuous
370
    -3
390
7
1001
AcAecLayerStandard
1000

1000

  0
LAYER
  5
E
330
16D
100
AcDbSymbolTableRecord
100
AcDbLayerTableRecord
  2
Table
 70
     0
 62
     3
  6
Continuous
370
    -3
390
7
1001
AcAecLayerStandard
1000

1000

  0
LAYER
  5
19
330
16D
100
AcDbSymbolTableRecord
100
AcDbLayerTableRecord
  2
Text
 70
     0
 62
     4
  6
Continuous
370
    -3
390
7
1001
AcAecLayerStandard
1000

1000

  0
LAYER
  5
256
330
16D
100
AcDbSymbolTableRecord
100
AcDbLayerTableRecord
  2
Bovelacci
 70
     0
 62
     9
  6
Continuous
370
    -3
390
7
1001
AcAecLayerStandard
1000

1000

  0
ENDTAB
  0
TABLE
  2
STYLE
  5
170
330
0
100
AcDbSymbolTable
 70
     3
  0
STYLE
  5
1A
330
170
100
AcDbSymbolTableRecord
100
AcDbTextStyleTableRecord
  2
Standard
 70
     0
 40
0.0
 41
1.0
 50
0.0
 71
     0
 42
2.5
  3
txt
  4

  0
STYLE
  5
20
330
170
100
AcDbSymbolTableRecord
100
AcDbTextStyleTableRecord
  2
ROMANS
 70
     0
 40
0.0
 41
1.0
 50
0.0
 71
     0
 42
2.5
  3
romans
  4

  0
STYLE
  5
26
330
170
100
AcDbSymbolTableRecord
100
AcDbTextStyleTableRecord
  2
style1
 70
     0
 40
0.0
 41
1.0
 50
0.0
 71
     0
 42
0.008
  3
TIMES.TTF
  4

1001
ACAD
1000
Times New Roman
1071
       18
  0
ENDTAB
  0
TABLE
  2
VIEW
  5
175
330
0
100
AcDbSymbolTable
 70
     5
  0
ENDTAB
  0
TABLE
  2
UCS
  5
176
330
0
100
AcDbSymbolTable
 70
     0
  0
ENDTAB
  0
TABLE
  2
APPID
  5
17B
330
0
100
AcDbSymbolTable
 70
    10
  0
APPID
  5
1B
330
17B
100
AcDbSymbolTableRecord
100
AcDbRegAppTableRecord
  2
ACAD
 70
     0
  0
APPID
  5
157
330
17B
100
AcDbSymbolTableRecord
100
AcDbRegAppTableRecord
  2
ACAD_DSTYLE_DIMJOGGED_JOGANGLE_SYMBOL
 70
     0
  0
APPID
  5
F
330
17B
100
AcDbSymbolTableRecord
100
AcDbRegAppTableRecord
  2
AcAecLayerStandard
 70
     0
  0
APPID
  5
19C
330
17B
100
AcDbSymbolTableRecord
100
AcDbRegAppTableRecord
  2
ACAD_DSTYLE_DIMFLIPARROW_WHICH_SYMBOL
 70
     0
  0
APPID
  5
1A7
330
17B
100
AcDbSymbolTableRecord
100
AcDbRegAppTableRecord
  2
ACAD_DSTYLE_DIMEXT_LENGTH
 70
     0
  0
APPID
  5
1D2
330
17B
100
AcDbSymbolTableRecord
100
AcDbRegAppTableRecord
  2
ACAD_EXEMPT_FROM_CAD_STANDARDS
 70
     0
  0
APPID
  5
1D3
330
17B
100
AcDbSymbolTableRecord
100
AcDbRegAppTableRecord
  2
ACAD_DSTYLE_DIM_LINETYPE
 70
     0
  0
APPID
  5
1D4
330
17B
100
AcDbSymbolTableRecord
100
AcDbRegAppTableRecord
  2
ACAD_DSTYLE_DIM_EXT1_LINETYPE
 70
     0
  0
APPID
  5
1D5
330
17B
100
AcDbSymbolTableRecord
100
AcDbRegAppTableRecord
  2
ACAD_DSTYLE_DIM_EXT2_LINETYPE
 70
     0
  0
APPID
  5
25C
330
17B
100
AcDbSymbolTableRecord
100
AcDbRegAppTableRecord
  2
ACAD_PSEXT
 70
     0
  0
ENDTAB
  0
TABLE
  2
DIMSTYLE
  5
17C
330
0
100
AcDbSymbolTable
 70
     8
100
AcDbDimStyleTable
 71
     2
340
156
340
17D
  0
DIMSTYLE
105
17D
330
17C
100
AcDbSymbolTableRecord
100
AcDbDimStyleTableRecord
  2
ISO-25
 70
     0
 41
2.5
 42
0.625
 43
3.75
 44
1.25
 73
     0
 74
     0
 77
     1
 78
     8
140
2.5
141
2.5
143
0.03937007874016
147
0.625
171
     3
172
     1
271
     2
272
     2
274
     3
278
    44
283
     0
284
     8
340
1A
  0
DIMSTYLE
105
156
102
{ACAD_REACTORS
330
1186
102
}
330
17C
100
AcDbSymbolTableRecord
100
AcDbDimStyleTableRecord
  2
Bovelacci
 70
     0
 40
0.001
 41
1.5
140
3.0
141
0.0
147
2.0
176
     5
177
     5
178
     4
271
     2
272
     2
279
     2
340
20
342
152
1001
ACAD_DSTYLE_DIMJOGGED_JOGANGLE_SYMBOL
1070
   384
1040
0.7853981633974483
1001
ACAD_DSTYLE_DIMEXT_LENGTH
1070
   378
1040
0.18
  0
DIMSTYLE
105
257
330
17C
100
AcDbSymbolTableRecord
100
AcDbDimStyleTableRecord
  2
Dim 1-100
 70
     0
 40
0.1
 41
1.5
 42
0.0
 43
5.0
 44
1.25
 45
0.005
 46
1.25
 73
     0
 74
     0
 77
     1
 78
     9
140
2.0
141
2.5
147
1.0
172
     1
174
     1
179
     2
279
     2
289
     2
340
20
342
152
  0
DIMSTYLE
105
258
330
17C
100
AcDbSymbolTableRecord
100
AcDbDimStyleTableRecord
  2
Standard
 70
     0
 42
0.0
 73
     0
 74
     0
 77
     1
271
     2
272
     2
340
20
  0
DIMSTYLE
105
259
330
17C
100
AcDbSymbolTableRecord
100
AcDbDimStyleTableRecord
  2
Dim 1-50
 70
     0
 40
0.05
 41
1.5
 42
0.0
 43
5.0
 44
1.25
 45
0.005
 46
1.25
 73
     0
 74
     0
 77
     1
 78
     9
140
2.0
141
2.5
147
1.0
172
     1
174
     1
179
     2
279
     2
289
     2
340
20
342
152
  0
DIMSTYLE
105
25A
330
17C
100
AcDbSymbolTableRecord
100
AcDbDimStyleTableRecord
  2
Dim 1-200
 70
     0
 40
0.2
 41
1.5
 42
0.0
 43
5.0
 44
1.25
 45
0.005
 46
1.25
 73
     0
 74
     0
 77
     1
 78
     9
140
2.0
141
2.5
147
1.0
172
     1
174
     1
179
     2
271
     2
272
     2
279
     2
289
     2
340
20
342
152
  0
DIMSTYLE
105
25B
330
17C
100
AcDbSymbolTableRecord
100
AcDbDimStyleTableRecord
  2
AEC Scale - Italiano
 70
     0
 41
1.0
 42
10.0
 43
10.0
 44
10.0
 73
     0
 74
     0
 75
     1
 76
     1
 77
     1
140
10.0
141
1.0
147
10.0
173
     1
271
     0
272
     0
279
     2
340
1A
343
251
344
24B
  0
ENDTAB
  0
TABLE
  2
BLOCK_RECORD
  5
1
330
0
100
AcDbSymbolTable
 70
    26
  0
BLOCK_RECORD
  5
2
102
{ACAD_XDICTIONARY
360
3
102
}
330
1
100
AcDbSymbolTableRecord
100
AcDbBlockTableRecord
  2
*Model_Space
340
163
  0
BLOCK_RECORD
  5
165
330
1
100
AcDbSymbolTableRecord
100
AcDbBlockTableRecord
  2
*Paper_Space
340
168
  0
BLOCK_RECORD
  5
169
330
1
100
AcDbSymbolTableRecord
100
AcDbBlockTableRecord
  2
*Paper_Space0
340
16C
  0
BLOCK_RECORD
  5
152
330
1
100
AcDbSymbolTableRecord
100
AcDbBlockTableRecord
  2
_ArchTick
340
0
310
2800000020000000200000000100080000000000000400000000000000000000000000000000000000000000000080000080000000808000800000008000800080800000C0C0C000C0DCC000F0CAA6000020400000206000002080000020A0000020C0000020E00000400000004020000040400000406000004080000040A0
310
000040C0000040E00000600000006020000060400000606000006080000060A0000060C0000060E00000800000008020000080400000806000008080000080A0000080C0000080E00000A0000000A0200000A0400000A0600000A0800000A0A00000A0C00000A0E00000C0000000C0200000C0400000C0600000C0800000C0
310
A00000C0C00000C0E00000E0000000E0200000E0400000E0600000E0800000E0A00000E0C00000E0E00040000000400020004000400040006000400080004000A0004000C0004000E00040200000402020004020400040206000402080004020A0004020C0004020E000404000004040200040404000404060004040800040
310
40A0004040C0004040E00040600000406020004060400040606000406080004060A0004060C0004060E00040800000408020004080400040806000408080004080A0004080C0004080E00040A0000040A0200040A0400040A0600040A0800040A0A00040A0C00040A0E00040C0000040C0200040C0400040C0600040C08000
310
40C0A00040C0C00040C0E00040E0000040E0200040E0400040E0600040E0800040E0A00040E0C00040E0E00080000000800020008000400080006000800080008000A0008000C0008000E00080200000802020008020400080206000802080008020A0008020C0008020E00080400000804020008040400080406000804080
310
008040A0008040C0008040E00080600000806020008060400080606000806080008060A0008060C0008060E00080800000808020008080400080806000808080008080A0008080C0008080E00080A0000080A0200080A0400080A0600080A0800080A0A00080A0C00080A0E00080C0000080C0200080C0400080C0600080C0
310
800080C0A00080C0C00080C0E00080E0000080E0200080E0400080E0600080E0800080E0A00080E0C00080E0E000C0000000C0002000C0004000C0006000C0008000C000A000C000C000C000E000C0200000C0202000C0204000C0206000C0208000C020A000C020C000C020E000C0400000C0402000C0404000C0406000C0
310
408000C040A000C040C000C040E000C0600000C0602000C0604000C0606000C0608000C060A000C060C000C060E000C0800000C0802000C0804000C0806000C0808000C080A000C080C000C080E000C0A00000C0A02000C0A04000C0A06000C0A08000C0A0A000C0A0C000C0A0E000C0C00000C0C02000C0C04000C0C06000
310
C0C08000C0C0A000F0FBFF00A4A0A000808080000000FF0000FF000000FFFF00FF000000FF00FF00FFFF0000FFFFFF00000000FF000000000000000000000000000000000000000000000000000000000000FF00FF00000000000000000000000000000000000000000000000000000000FF000000FF000000000000000000
310
0000000000000000000000000000000000FF0000000000FF0000000000000000000000000000000000000000000000000000FF0000000000FF0000000000000000000000000000000000000000000000000000FF0000000000FF0000000000000000000000000000000000000000000000000000FF0000000000FF00000000
310
00000000000000000000000000000000000000000000FF0000000000FF0000000000000000000000000000000000000000000000000000FF0000000000FF0000000000000000000000000000000000000000000000000000FF0000000000FF0000000000000000000000000000000000000000000000000000FF0000000000
310
FF0000000000000000000000000000000000000000000000000000FF0000000000FF0000000000000000000000000000000000000000000000000000FF0000000000FF0000000000000000000000000000000000000000000000000000FF0000000000FF0000000000000000000000000000000000000000000000000000FF
310
0000000000FF0000000000000000000000000000000000000000000000000000FF0000000000FF0000000000000000000000000000000000000000000000000000FF0000000000FF0000000000000000000000000000000000000000000000000000FF0000000000FF00000000000000000000000000000000000000000000
310
00000000FF0000000000FF0000000000000000000000000000000000000000000000000000FF0000000000FF0000000000000000000000000000000000000000000000000000FF0000000000FF0000000000000000000000000000000000000000000000000000FF0000000000FF0000000000000000000000000000000000
310
000000000000000000FF0000000000FF0000000000000000000000000000000000000000000000000000FF0000000000FF0000000000000000000000000000000000000000000000000000FF0000000000FF0000000000000000000000000000000000000000000000000000FF0000000000FF000000000000000000000000
310
0000000000000000000000000000FF0000000000FF0000000000000000000000000000000000000000000000000000FF0000000000FF0000000000000000000000000000000000000000000000000000FF0000000000FF0000000000000000000000000000000000000000000000000000FF000000FF000000000000000000
310
00000000000000000000000000000000000000FF00FF000000000000000000000000000000000000000000000000000000000000FF000000
102
{BLKREFS
331
211
331
318
331
354
331
429
331
50A
331
5EC
331
6DD
331
847
331
9CD
331
A12
331
BBC
331
CB8
331
F31
331
11A1
102
}
  0
BLOCK_RECORD
  5
24B
330
1
100
AcDbSymbolTableRecord
100
AcDbBlockTableRecord
  2
_Arrivo
340
0
310
2800000020000000200000000100080000000000000400000000000000000000000000000000000000000000000080000080000000808000800000008000800080800000C0C0C000C0DCC000F0CAA6000020400000206000002080000020A0000020C0000020E00000400000004020000040400000406000004080000040A0
310
000040C0000040E00000600000006020000060400000606000006080000060A0000060C0000060E00000800000008020000080400000806000008080000080A0000080C0000080E00000A0000000A0200000A0400000A0600000A0800000A0A00000A0C00000A0E00000C0000000C0200000C0400000C0600000C0800000C0
310
A00000C0C00000C0E00000E0000000E0200000E0400000E0600000E0800000E0A00000E0C00000E0E00040000000400020004000400040006000400080004000A0004000C0004000E00040200000402020004020400040206000402080004020A0004020C0004020E000404000004040200040404000404060004040800040
310
40A0004040C0004040E00040600000406020004060400040606000406080004060A0004060C0004060E00040800000408020004080400040806000408080004080A0004080C0004080E00040A0000040A0200040A0400040A0600040A0800040A0A00040A0C00040A0E00040C0000040C0200040C0400040C0600040C08000
310
40C0A00040C0C00040C0E00040E0000040E0200040E0400040E0600040E0800040E0A00040E0C00040E0E00080000000800020008000400080006000800080008000A0008000C0008000E00080200000802020008020400080206000802080008020A0008020C0008020E00080400000804020008040400080406000804080
310
008040A0008040C0008040E00080600000806020008060400080606000806080008060A0008060C0008060E00080800000808020008080400080806000808080008080A0008080C0008080E00080A0000080A0200080A0400080A0600080A0800080A0A00080A0C00080A0E00080C0000080C0200080C0400080C0600080C0
310
800080C0A00080C0C00080C0E00080E0000080E0200080E0400080E0600080E0800080E0A00080E0C00080E0E000C0000000C0002000C0004000C0006000C0008000C000A000C000C000C000E000C0200000C0202000C0204000C0206000C0208000C020A000C020C000C020E000C0400000C0402000C0404000C0406000C0
310
408000C040A000C040C000C040E000C0600000C0602000C0604000C0606000C0608000C060A000C060C000C060E000C0800000C0802000C0804000C0806000C0808000C080A000C080C000C080E000C0A00000C0A02000C0A04000C0A06000C0A08000C0A0A000C0A0C000C0A0E000C0C00000C0C02000C0C04000C0C06000
310
C0C08000C0C0A000F0FBFF00A4A0A000808080000000FF0000FF000000FFFF00FF000000FF00FF00FFFF0000FFFFFF00000000000000000000000000000000000000000000000000000000000000000000000000000000000000FF0000000000000000000000000000000000000000000000000000000000000000FF000000
310
00000000000000000000000000000000000000000000000000000000FF0000000000000000000000000000000000000000000000000000000000000000FF00000000000000000000000000000000000000000000000000000000000000FF0000000000000000000000000000000000000000000000000000000000000000FF
310
0000000000000000000000000000000000000000000000000000000000000000FF00000000000000000000000000000000000000000000000000000000000000FF0000000000000000000000000000000000000000000000000000000000000000FF0000000000000000000000000000000000000000000000000000000000
310
0000FF0000000000000000000000000000000000000000000000000000000000000000FF00000000000000000000000000000000000000000000000000000000000000FF0000000000000000000000000000000000000000000000000000000000000000FF0000FF0000000000000000000000000000000000000000000000
310
000000000000FFFF000000000000000000000000000000000000000000000000000000000000FFFF00000000000000000000000000000000000000000000000000000000FFFFFFFFFFFF00000000000000000000000000000000000000000000000000000000FFFF0000000000000000000000000000000000000000000000
310
000000000000FF0000FF000000000000000000000000000000000000000000000000000000FF00000000000000000000000000000000000000000000000000000000000000FF000000000000000000000000000000000000000000000000000000000000FF0000000000000000000000000000000000000000000000000000
310
0000000000FF000000000000000000000000000000000000000000000000000000000000FF00000000000000000000000000000000000000000000000000000000000000FF000000000000000000000000000000000000000000000000000000000000FF000000000000000000000000000000000000000000000000000000
310
000000FF00000000000000000000000000000000000000000000000000000000000000FF000000000000000000000000000000000000000000000000000000000000FF00000000000000000000000000000000000000000000000000000000000000FF00000000000000000000000000000000000000000000000000000000
310
0000FF0000000000000000000000000000000000000000000000000000000000000000000000000000000000000000000000000000000000
  0
BLOCK_RECORD
  5
251
330
1
100
AcDbSymbolTableRecord
100
AcDbBlockTableRecord
  2
_Partenza
340
0
310
2800000020000000200000000100080000000000000400000000000000000000000000000000000000000000000080000080000000808000800000008000800080800000C0C0C000C0DCC000F0CAA6000020400000206000002080000020A0000020C0000020E00000400000004020000040400000406000004080000040A0
310
000040C0000040E00000600000006020000060400000606000006080000060A0000060C0000060E00000800000008020000080400000806000008080000080A0000080C0000080E00000A0000000A0200000A0400000A0600000A0800000A0A00000A0C00000A0E00000C0000000C0200000C0400000C0600000C0800000C0
310
A00000C0C00000C0E00000E0000000E0200000E0400000E0600000E0800000E0A00000E0C00000E0E00040000000400020004000400040006000400080004000A0004000C0004000E00040200000402020004020400040206000402080004020A0004020C0004020E000404000004040200040404000404060004040800040
310
40A0004040C0004040E00040600000406020004060400040606000406080004060A0004060C0004060E00040800000408020004080400040806000408080004080A0004080C0004080E00040A0000040A0200040A0400040A0600040A0800040A0A00040A0C00040A0E00040C0000040C0200040C0400040C0600040C08000
310
40C0A00040C0C00040C0E00040E0000040E0200040E0400040E0600040E0800040E0A00040E0C00040E0E00080000000800020008000400080006000800080008000A0008000C0008000E00080200000802020008020400080206000802080008020A0008020C0008020E00080400000804020008040400080406000804080
310
008040A0008040C0008040E00080600000806020008060400080606000806080008060A0008060C0008060E00080800000808020008080400080806000808080008080A0008080C0008080E00080A0000080A0200080A0400080A0600080A0800080A0A00080A0C00080A0E00080C0000080C0200080C0400080C0600080C0
310
800080C0A00080C0C00080C0E00080E0000080E0200080E0400080E0600080E0800080E0A00080E0C00080E0E000C0000000C0002000C0004000C0006000C0008000C000A000C000C000C000E000C0200000C0202000C0204000C0206000C0208000C020A000C020C000C020E000C0400000C0402000C0404000C0406000C0
310
408000C040A000C040C000C040E000C0600000C0602000C0604000C0606000C0608000C060A000C060C000C060E000C0800000C0802000C0804000C0806000C0808000C080A000C080C000C080E000C0A00000C0A02000C0A04000C0A06000C0A08000C0A0A000C0A0C000C0A0E000C0C00000C0C02000C0C04000C0C06000
310
C0C08000C0C0A000F0FBFF00A4A0A000808080000000FF0000FF000000FFFF00FF000000FF00FF00FFFF0000FFFFFF0000000000000000000000000000000000000000000000000000000000000000000000000000000000000000000000000000000000000000000000000000000000000000000000000000000000000000
310
000000000000000000000000000000000000000000000000000000000000000000000000000000000000000000000000000000000000000000000000000000000000000000000000000000000000000000000000000000000000000000000000000000000000000000000000000000000000FFFFFFFFFFFFFFFFFFFFFFFFFF
310
FFFFFFFFFFFFFFFFFFFFFFFFFFFFFFFFFF0000000000000000000000000000000000000000000000000000000000000000000000000000000000000000000000000000000000000000000000000000000000000000000000000000000000000000000000000000000000000000000000000000000000000000000000000000
310
00000000000000000000000000000000000000000000000000000000000000000000000000000000000000000000000000000000000000000000000000000000000000000000000000000000000000000000000000000000000000000000000000000000000000000000000000000000000000000000000000000000000000
310
00000000000000000000000000000000000000000000000000000000000000000000000000000000000000000000000000000000000000000000000000000000000000000000000000000000000000000000000000000000000000000000000000000000000000000000000000000000000000000000000000000000000000
310
00000000000000000000000000000000000000000000000000000000000000000000000000000000000000000000000000000000000000000000000000000000000000000000000000000000000000000000000000000000000000000000000000000000000000000000000000000000000000000000000000000000000000
310
000000000000000000000000000000000000000000000000000000000000000000000000000000000000000000000000000000000000000000000000000000000000000000000000000000000000000000000000000000FFFFFFFFFFFFFFFFFFFFFFFFFFFFFFFFFFFFFFFFFFFFFFFFFFFFFFFFFFFF00000000000000000000
310
00000000000000000000000000000000000000000000000000000000000000000000000000000000000000000000000000000000000000000000000000000000000000000000000000000000000000000000000000000000000000000000000000000000000000000000000000000000000000000000000000000000000000
310
0000000000000000000000000000000000000000000000000000000000000000000000000000000000000000000000000000000000000000
  0
BLOCK_RECORD
  5
6C3
330
1
100
AcDbSymbolTableRecord
100
AcDbBlockTableRecord
  2
*D10
340
0
  0
BLOCK_RECORD
  5
82D
330
1
100
AcDbSymbolTableRecord
100
AcDbBlockTableRecord
  2
*D12
340
0
  0
BLOCK_RECORD
  5
9B3
330
1
100
AcDbSymbolTableRecord
100
AcDbBlockTableRecord
  2
*D15
340
0
  0
BLOCK_RECORD
  5
9F8
330
1
100
AcDbSymbolTableRecord
100
AcDbBlockTableRecord
  2
*D17
340
0
  0
BLOCK_RECORD
  5
BA2
330
1
100
AcDbSymbolTableRecord
100
AcDbBlockTableRecord
  2
*D19
340
0
  0
BLOCK_RECORD
  5
C9E
330
1
100
AcDbSymbolTableRecord
100
AcDbBlockTableRecord
  2
*D21
340
0
  0
BLOCK_RECORD
  5
F17
330
1
100
AcDbSymbolTableRecord
100
AcDbBlockTableRecord
  2
*D23
340
0
  0
BLOCK_RECORD
  5
1187
330
1
100
AcDbSymbolTableRecord
100
AcDbBlockTableRecord
  2
*D25
340
0
  0
ENDTAB
  0
ENDSEC
  0
SECTION
  2
BLOCKS
  0
BLOCK
  5
5
330
2
100
AcDbEntity
  8
0
100
AcDbBlockBegin
  2
*Model_Space
 70
     0
 10
0.0
 20
0.0
 30
0.0
  3
*Model_Space
  1

  0
ENDBLK
  5
162
330
2
100
AcDbEntity
  8
0
100
AcDbBlockEnd
  0
BLOCK
  5
166
330
165
100
AcDbEntity
 67
     1
  8
0
100
AcDbBlockBegin
  2
*Paper_Space
 70
     0
 10
0.0
 20
0.0
 30
0.0
  3
*Paper_Space
  1

  0
ENDBLK
  5
167
330
165
100
AcDbEntity
 67
     1
  8
0
100
AcDbBlockEnd
  0
BLOCK
  5
16A
330
169
100
AcDbEntity
 67
     1
  8
0
100
AcDbBlockBegin
  2
*Paper_Space0
 70
     0
 10
0.0
 20
0.0
 30
0.0
  3
*Paper_Space0
  1

  0
ENDBLK
  5
16B
330
169
100
AcDbEntity
 67
     1
  8
0
100
AcDbBlockEnd
  0
BLOCK
  5
153
330
152
100
AcDbEntity
  8
0
 62
     1
100
AcDbBlockBegin
  2
_ArchTick
 70
     0
 10
0.0
 20
0.0
 30
0.0
  3
_ArchTick
  1

  0
LWPOLYLINE
  5
154
330
152
100
AcDbEntity
  8
0
  6
ByBlock
 62
     0
100
AcDbPolyline
 90
        2
 70
     0
 43
0.15
 10
-0.5
 20
-0.5
 10
0.5
 20
0.5
  0
ENDBLK
  5
155
330
152
100
AcDbEntity
  8
0
 62
     1
100
AcDbBlockEnd
  0
BLOCK
  5
24C
330
24B
100
AcDbEntity
  8
0
100
AcDbBlockBegin
  2
_Arrivo
 70
     0
 10
0.0
 20
0.0
 30
0.0
  3
_Arrivo
  1

  0
LINE
  5
24D
330
24B
100
AcDbEntity
  8
0
  6
ByBlock
 62
     0
370
    -2
100
AcDbLine
 10
0.025
 20
-0.0433012701891858
 30
0.0
 11
-0.15
 21
0.2598076211353328
 31
0.0
  0
LINE
  5
24E
330
24B
100
AcDbEntity
  8
0
  6
ByBlock
 62
     0
370
    -2
100
AcDbLine
 10
0.025
 20
0.0433012701892585
 30
0.0
 11
-0.15
 21
-0.2598076211353328
 31
0.0
  0
LINE
  5
24F
330
24B
100
AcDbEntity
  8
0
  6
ByBlock
 62
     0
370
    -2
100
AcDbLine
 10
-0.05
 20
0.0
 30
0.0
 11
0.05
 21
0.0
 31
0.0
  0
ENDBLK
  5
250
330
24B
100
AcDbEntity
  8
0
100
AcDbBlockEnd
  0
BLOCK
  5
252
330
251
100
AcDbEntity
  8
0
100
AcDbBlockBegin
  2
_Partenza
 70
     0
 10
0.0
 20
0.0
 30
0.0
  3
_Partenza
  1

  0
LINE
  5
253
330
251
100
AcDbEntity
  8
0
  6
ByBlock
 62
     0
370
    -2
100
AcDbLine
 10
-0.05
 20
0.05
 30
0.0
 11
0.1
 21
0.05
 31
0.0
  0
LINE
  5
254
330
251
100
AcDbEntity
  8
0
  6
ByBlock
 62
     0
370
    -2
100
AcDbLine
 10
-0.05
 20
-0.05
 30
0.0
 11
0.1
 21
-0.05
 31
0.0
  0
ENDBLK
  5
255
330
251
100
AcDbEntity
  8
0
100
AcDbBlockEnd
  0
BLOCK
  5
6CA
330
6C3
100
AcDbEntity
  8
0
100
AcDbBlockBegin
  2
*D10
 70
     1
 10
0.0
 20
0.0
 30
0.0
  3
*D10
  1

  0
LINE
  5
6DA
330
6C3
100
AcDbEntity
  8
Sezione
  6
ACAD_ISO10W100
 62
     5
370
    -2
100
AcDbLine
 10
0.2580272919594555
 20
0.2091457005418985
 30
0.0
 11
0.2565272919594555
 21
0.2091457005418986
 31
0.0
  0
LINE
  5
6DB
330
6C3
100
AcDbEntity
  8
Sezione
  6
ACAD_ISO10W100
 62
     5
370
    -2
100
AcDbLine
 10
0.2565272919594555
 20
0.2091457005418986
 30
0.0
 11
0.2544161538279562
 21
0.2070142466273769
 31
0.0
  0
MTEXT
  5
6DC
330
6C3
100
AcDbEntity
  8
Sezione
  6
ACAD_ISO10W100
 62
     4
100
AcDbMText
 10
0.2724558633880269
 20
0.2091457005418985
 30
0.0
 40
0.003
 41
0.0
 71
     5
 72
     1
  1
\A1;d 250 mm
  7
ROMANS
 73
     1
 44
1.0
1001
ACAD
1000
MTEXTBEGIN
1070
    73
1070
     1
1070
    44
1040
1.0
1070
    74
1070
     0
1000
MTEXTEND
  0
INSERT
  5
6DD
330
6C3
100
AcDbEntity
  8
Sezione
  6
ACAD_ISO10W100
 62
     5
370
    -2
100
AcDbBlockReference
  2
_ArchTick
 10
0.2544161538279562
 20
0.2070142466273769
 30
0.0
 41
0.0015
 42
0.0015
 43
0.0015
 50
225.2743605124572
  0
POINT
  5
6DE
330
6C3
100
AcDbEntity
  8
Defpoints
  6
ACAD_ISO10W100
 62
     0
100
AcDbPoint
 10
0.2544161538279562
 20
0.2070142466273769
 30
0.0
  0
POINT
  5
6DF
330
6C3
100
AcDbEntity
  8
Defpoints
  6
ACAD_ISO10W100
 62
     0
100
AcDbPoint
 10
0.1664520650154866
 20
0.1182036668556404
 30
0.0
  0
ENDBLK
  5
6CB
330
6C3
100
AcDbEntity
  8
0
100
AcDbBlockEnd
  0
BLOCK
  5
834
330
82D
100
AcDbEntity
  8
0
100
AcDbBlockBegin
  2
*D12
 70
     1
 10
0.0
 20
0.0
 30
0.0
  3
*D12
  1

  0
LINE
  5
844
330
82D
100
AcDbEntity
  8
Sezione
  6
ACAD_ISO10W100
 62
     5
370
    -2
100
AcDbLine
 10
0.2668759768663114
 20
0.2106523346372896
 30
0.0
 11
0.2653759768663114
 21
0.2106523346372896
 31
0.0
  0
LINE
  5
845
330
82D
100
AcDbEntity
  8
Sezione
  6
ACAD_ISO10W100
 62
     5
370
    -2
100
AcDbLine
 10
0.2653759768663114
 20
0.2106523346372896
 30
0.0
 11
0.2631789214633089
 21
0.2086095552668882
 31
0.0
  0
MTEXT
  5
846
330
82D
100
AcDbEntity
  8
Sezione
  6
ACAD_ISO10W100
 62
     4
100
AcDbMText
 10
0.2813045482948828
 20
0.2106523346372896
 30
0.0
 40
0.003
 41
0.0
 71
     5
 72
     1
  1
\A1;d 290 mm
  7
ROMANS
 73
     1
 44
1.0
1001
ACAD
1000
MTEXTBEGIN
1070
    73
1070
     1
1070
    44
1040
1.0
1070
    74
1070
     0
1000
MTEXTEND
  0
INSERT
  5
847
330
82D
100
AcDbEntity
  8
Sezione
  6
ACAD_ISO10W100
 62
     5
370
    -2
100
AcDbBlockReference
  2
_ArchTick
 10
0.2631789214633089
 20
0.2086095552668882
 30
0.0
 41
0.0015
 42
0.0015
 43
0.0015
 50
222.916082132817
  0
POINT
  5
848
330
82D
100
AcDbEntity
  8
Defpoints
  6
ACAD_ISO10W100
 62
     0
100
AcDbPoint
 10
0.2631789214633089
 20
0.2086095552668882
 30
0.0
  0
POINT
  5
849
330
82D
100
AcDbEntity
  8
Defpoints
  6
ACAD_ISO10W100
 62
     0
100
AcDbPoint
 10
0.1569879103181878
 20
0.1098752190308209
 30
0.0
  0
ENDBLK
  5
835
330
82D
100
AcDbEntity
  8
0
100
AcDbBlockEnd
  0
BLOCK
  5
9BA
330
9B3
100
AcDbEntity
  8
0
100
AcDbBlockBegin
  2
*D15
 70
     1
 10
0.0
 20
0.0
 30
0.0
  3
*D15
  1

  0
LINE
  5
9CA
330
9B3
100
AcDbEntity
  8
Sezione
  6
ACAD_ISO10W100
 62
     5
370
    -2
100
AcDbLine
 10
0.2720801551691272
 20
0.2106523321067409
 30
0.0
 11
0.2705801551691272
 21
0.2106523321067409
 31
0.0
  0
LINE
  5
9CB
330
9B3
100
AcDbEntity
  8
Sezione
  6
ACAD_ISO10W100
 62
     5
370
    -2
100
AcDbLine
 10
0.2705801551691272
 20
0.2106523321067409
 30
0.0
 11
0.268259040554878
 21
0.2087516935436473
 31
0.0
  0
MTEXT
  5
9CC
330
9B3
100
AcDbEntity
  8
Sezione
  6
ACAD_ISO10W100
 62
     4
100
AcDbMText
 10
0.2865087265976987
 20
0.2106523321067409
 30
0.0
 40
0.003
 41
0.0
 71
     5
 72
     1
  1
\A1;d 310 mm
  7
ROMANS
 73
     1
 44
1.0
1001
ACAD
1000
MTEXTBEGIN
1070
    73
1070
     1
1070
    44
1040
1.0
1070
    74
1070
     0
1000
MTEXTEND
  0
INSERT
  5
9CD
330
9B3
100
AcDbEntity
  8
Sezione
  6
ACAD_ISO10W100
 62
     5
370
    -2
100
AcDbBlockReference
  2
_ArchTick
 10
0.268259040554878
 20
0.2087516935436473
 30
0.0
 41
0.0015
 42
0.0015
 43
0.0015
 50
219.3122411371381
  0
POINT
  5
9CE
330
9B3
100
AcDbEntity
  8
Defpoints
  6
ACAD_ISO10W100
 62
     0
100
AcDbPoint
 10
0.268259040554878
 20
0.2087516935436473
 30
0.0
  0
POINT
  5
9CF
330
9B3
100
AcDbEntity
  8
Defpoints
  6
ACAD_ISO10W100
 62
     0
100
AcDbPoint
 10
0.1483347854853323
 20
0.1105520344504785
 30
0.0
  0
ENDBLK
  5
9BB
330
9B3
100
AcDbEntity
  8
0
100
AcDbBlockEnd
  0
BLOCK
  5
9FF
330
9F8
100
AcDbEntity
  8
0
100
AcDbBlockBegin
  2
*D17
 70
     1
 10
0.0
 20
0.0
 30
0.0
  3
*D17
  1

  0
LINE
  5
A0F
330
9F8
100
AcDbEntity
  8
Sezione
  6
ACAD_ISO10W100
 62
     5
370
    -2
100
AcDbLine
 10
0.270541626019994
 20
0.2147084216870797
 30
0.0
 11
0.2690416260199941
 21
0.2147084216870796
 31
0.0
  0
LINE
  5
A10
330
9F8
100
AcDbEntity
  8
Sezione
  6
ACAD_ISO10W100
 62
     5
370
    -2
100
AcDbLine
 10
0.2690416260199941
 20
0.2147084216870796
 30
0.0
 11
0.266907749695741
 21
0.2125997320862155
 31
0.0
  0
MTEXT
  5
A11
330
9F8
100
AcDbEntity
  8
Sezione
  6
ACAD_ISO10W100
 62
     4
100
AcDbMText
 10
0.2849701974485655
 20
0.2147084216870797
 30
0.0
 40
0.003
 41
0.0
 71
     5
 72
     1
  1
\A1;d 320 mm
  7
ROMANS
 73
     1
 44
1.0
1001
ACAD
1000
MTEXTBEGIN
1070
    73
1070
     1
1070
    44
1040
1.0
1070
    74
1070
     0
1000
MTEXTEND
  0
INSERT
  5
A12
330
9F8
100
AcDbEntity
  8
Sezione
  6
ACAD_ISO10W100
 62
     5
370
    -2
100
AcDbBlockReference
  2
_ArchTick
 10
0.266907749695741
 20
0.2125997320862155
 30
0.0
 41
0.0015
 42
0.0015
 43
0.0015
 50
224.6598577317865
  0
POINT
  5
A13
330
9F8
100
AcDbEntity
  8
Defpoints
  6
ACAD_ISO10W100
 62
     0
100
AcDbPoint
 10
0.266907749695741
 20
0.2125997320862155
 30
0.0
  0
POINT
  5
A14
330
9F8
100
AcDbEntity
  8
Defpoints
  6
ACAD_ISO10W100
 62
     0
100
AcDbPoint
 10
0.1531010124022461
 20
0.1001362867067971
 30
0.0
  0
ENDBLK
  5
A00
330
9F8
100
AcDbEntity
  8
0
100
AcDbBlockEnd
  0
BLOCK
  5
BA9
330
BA2
100
AcDbEntity
  8
0
100
AcDbBlockBegin
  2
*D19
 70
     1
 10
0.0
 20
0.0
 30
0.0
  3
*D19
  1

  0
LINE
  5
BB9
330
BA2
100
AcDbEntity
  8
Sezione
  6
ACAD_ISO10W100
 62
     5
370
    -2
100
AcDbLine
 10
0.2721196718501769
 20
0.2115475428616256
 30
0.0
 11
0.2706196718501769
 21
0.2115475428616256
 31
0.0
  0
LINE
  5
BBA
330
BA2
100
AcDbEntity
  8
Sezione
  6
ACAD_ISO10W100
 62
     5
370
    -2
100
AcDbLine
 10
0.2706196718501769
 20
0.2115475428616256
 30
0.0
 11
0.26845501015967
 21
0.2094704680517903
 31
0.0
  0
MTEXT
  5
BBB
330
BA2
100
AcDbEntity
  8
Sezione
  6
ACAD_ISO10W100
 62
     4
100
AcDbMText
 10
0.2865482432787483
 20
0.2115475428616256
 30
0.0
 40
0.003
 41
0.0
 71
     5
 72
     1
  1
\A1;d 330 mm
  7
ROMANS
 73
     1
 44
1.0
1001
ACAD
1000
MTEXTBEGIN
1070
    73
1070
     1
1070
    44
1040
1.0
1070
    74
1070
     0
1000
MTEXTEND
  0
INSERT
  5
BBC
330
BA2
100
AcDbEntity
  8
Sezione
  6
ACAD_ISO10W100
 62
     5
370
    -2
100
AcDbBlockReference
  2
_ArchTick
 10
0.26845501015967
 20
0.2094704680517903
 30
0.0
 41
0.0015
 42
0.0015
 43
0.0015
 50
223.817077498188
  0
POINT
  5
BBD
330
BA2
100
AcDbEntity
  8
Defpoints
  6
ACAD_ISO10W100
 62
     0
100
AcDbPoint
 10
0.26845501015967
 20
0.2094704680517903
 30
0.0
  0
POINT
  5
BBE
330
BA2
100
AcDbEntity
  8
Defpoints
  6
ACAD_ISO10W100
 62
     0
100
AcDbPoint
 10
0.1493986171817919
 20
0.0952313535108543
 30
0.0
  0
ENDBLK
  5
BAA
330
BA2
100
AcDbEntity
  8
0
100
AcDbBlockEnd
  0
BLOCK
  5
CA5
330
C9E
100
AcDbEntity
  8
0
100
AcDbBlockBegin
  2
*D21
 70
     1
 10
0.0
 20
0.0
 30
0.0
  3
*D21
  1

  0
LINE
  5
CB5
330
C9E
100
AcDbEntity
  8
Sezione
  6
ACAD_ISO10W100
 62
     5
370
    -2
100
AcDbLine
 10
0.2517131923565132
 20
0.1920875998421381
 30
0.0
 11
0.2502131923565132
 21
0.1920875998421381
 31
0.0
  0
LINE
  5
CB6
330
C9E
100
AcDbEntity
  8
Sezione
  6
ACAD_ISO10W100
 62
     5
370
    -2
100
AcDbLine
 10
0.2502131923565132
 20
0.1920875998421381
 30
0.0
 11
0.2477847082184422
 21
0.1903262183414014
 31
0.0
  0
MTEXT
  5
CB7
330
C9E
100
AcDbEntity
  8
Sezione
  6
ACAD_ISO10W100
 62
     4
100
AcDbMText
 10
0.2661417637850846
 20
0.1920875998421381
 30
0.0
 40
0.003
 41
0.0
 71
     5
 72
     1
  1
\A1;d 380 mm
  7
ROMANS
 73
     1
 44
1.0
1001
ACAD
1000
MTEXTBEGIN
1070
    73
1070
     1
1070
    44
1040
1.0
1070
    74
1070
     0
1000
MTEXTEND
  0
INSERT
  5
CB8
330
C9E
100
AcDbEntity
  8
Sezione
  6
ACAD_ISO10W100
 62
     5
370
    -2
100
AcDbBlockReference
  2
_ArchTick
 10
0.2477847082184422
 20
0.1903262183414014
 30
0.0
 41
0.0015
 42
0.0015
 43
0.0015
 50
215.9534071794428
  0
POINT
  5
CB9
330
C9E
100
AcDbEntity
  8
Defpoints
  6
ACAD_ISO10W100
 62
     0
100
AcDbPoint
 10
0.2477847082184422
 20
0.1903262183414014
 30
0.0
  0
POINT
  5
CBA
330
C9E
100
AcDbEntity
  8
Defpoints
  6
ACAD_ISO10W100
 62
     0
100
AcDbPoint
 10
0.1708827105128607
 20
0.1345491374847382
 30
0.0
  0
ENDBLK
  5
CA6
330
C9E
100
AcDbEntity
  8
0
100
AcDbBlockEnd
  0
BLOCK
  5
F1E
330
F17
100
AcDbEntity
  8
0
100
AcDbBlockBegin
  2
*D23
 70
     1
 10
0.0
 20
0.0
 30
0.0
  3
*D23
  1

  0
LINE
  5
F2E
330
F17
100
AcDbEntity
  8
Sezione
  6
ACAD_ISO10W100
 62
     5
370
    -2
100
AcDbLine
 10
0.2503579376781857
 20
0.1980055183402467
 30
0.0
 11
0.2488579376781857
 21
0.1980055183402467
 31
0.0
  0
LINE
  5
F2F
330
F17
100
AcDbEntity
  8
Sezione
  6
ACAD_ISO10W100
 62
     5
370
    -2
100
AcDbLine
 10
0.2488579376781857
 20
0.1980055183402467
 30
0.0
 11
0.2466795059210188
 21
0.1959428901431722
 31
0.0
  0
MTEXT
  5
F30
330
F17
100
AcDbEntity
  8
Sezione
  6
ACAD_ISO10W100
 62
     4
100
AcDbMText
 10
0.2647865091067571
 20
0.1980055183402467
 30
0.0
 40
0.003
 41
0.0
 71
     5
 72
     1
  1
\A1;d 400 mm
  7
ROMANS
 73
     1
 44
1.0
1001
ACAD
1000
MTEXTBEGIN
1070
    73
1070
     1
1070
    44
1040
1.0
1070
    74
1070
     0
1000
MTEXTEND
  0
INSERT
  5
F31
330
F17
100
AcDbEntity
  8
Sezione
  6
ACAD_ISO10W100
 62
     5
370
    -2
100
AcDbBlockReference
  2
_ArchTick
 10
0.2466795059210188
 20
0.1959428901431722
 30
0.0
 41
0.0015
 42
0.0015
 43
0.0015
 50
223.4359082248928
  0
POINT
  5
F32
330
F17
100
AcDbEntity
  8
Defpoints
  6
ACAD_ISO10W100
 62
     0
100
AcDbPoint
 10
0.2466795059210188
 20
0.1959428901431722
 30
0.0
  0
POINT
  5
F33
330
F17
100
AcDbEntity
  8
Defpoints
  6
ACAD_ISO10W100
 62
     0
100
AcDbPoint
 10
0.1740651140154545
 20
0.127188616907357
 30
0.0
  0
ENDBLK
  5
F1F
330
F17
100
AcDbEntity
  8
0
100
AcDbBlockEnd
  0
BLOCK
  5
118E
330
1187
100
AcDbEntity
  8
0
100
AcDbBlockBegin
  2
*D25
 70
     1
 10
0.0
 20
0.0
 30
0.0
  3
*D25
  1

  0
LINE
  5
119E
330
1187
100
AcDbEntity
  8
Sezione
  6
ACAD_ISO10W100
 62
     5
370
    -2
100
AcDbLine
 10
0.2487233430377668
 20
0.2056018570955785
 30
0.0
 11
0.2472233430377668
 21
0.2056018570955785
 31
0.0
  0
LINE
  5
119F
330
1187
100
AcDbEntity
  8
Sezione
  6
ACAD_ISO10W100
 62
     5
370
    -2
100
AcDbLine
 10
0.2472233430377668
 20
0.2056018570955785
 30
0.0
 11
0.2451694762350893
 21
0.203415162979599
 31
0.0
  0
MTEXT
  5
11A0
330
1187
100
AcDbEntity
  8
Sezione
  6
ACAD_ISO10W100
 62
     4
100
AcDbMText
 10
0.2631519144663382
 20
0.2056018570955785
 30
0.0
 40
0.003
 41
0.0
 71
     5
 72
     1
  1
\A1;d 410 mm
  7
ROMANS
 73
     1
 44
1.0
1001
ACAD
1000
MTEXTBEGIN
1070
    73
1070
     1
1070
    44
1040
1.0
1070
    74
1070
     0
1000
MTEXTEND
  0
INSERT
  5
11A1
330
1187
100
AcDbEntity
  8
Sezione
  6
ACAD_ISO10W100
 62
     5
370
    -2
100
AcDbBlockReference
  2
_ArchTick
 10
0.2451694762350893
 20
0.203415162979599
 30
0.0
 41
0.0015
 42
0.0015
 43
0.0015
 50
226.7940921288566
  0
POINT
  5
11A2
330
1187
100
AcDbEntity
  8
Defpoints
  6
ACAD_ISO10W100
 62
     0
100
AcDbPoint
 10
0.2451694762350893
 20
0.203415162979599
 30
0.0
  0
POINT
  5
11A3
330
1187
100
AcDbEntity
  8
Defpoints
  6
ACAD_ISO10W100
 62
     0
100
AcDbPoint
 10
0.1750322086303928
 20
0.1287419903171205
 30
0.0
  0
ENDBLK
  5
118F
330
1187
100
AcDbEntity
  8
0
100
AcDbBlockEnd
  0
ENDSEC
  0
SECTION
  2
ENTITIES
  0
LINE
  5
D
330
2
100
AcDbEntity
  8
Table
100
AcDbLine
 10
0.02
 20
0.02
 30
0.0
 11
0.4
 21
0.02
 31
0.0
  0
LINE
  5
10
330
2
100
AcDbEntity
  8
Table
100
AcDbLine
 10
0.4
 20
0.02
 30
0.0
 11
0.4
 21
0.2769999999999999
 31
0.0
  0
LINE
  5
11
330
2
100
AcDbEntity
  8
Table
100
AcDbLine
 10
0.4
 20
0.2769999999999999
 30
0.0
 11
0.02
 21
0.277
 31
0.0
  0
LINE
  5
12
330
2
100
AcDbEntity
  8
Table
100
AcDbLine
 10
0.02
 20
0.277
 30
0.0
 11
0.02
 21
0.02
 31
0.0
  0
LINE
  5
13
330
2
100
AcDbEntity
  8
Table
 62
     2
100
AcDbLine
 10
0.015
 20
0.015
 30
0.0
 11
0.4050000000000001
 21
0.015
 31
0.0
  0
LINE
  5
14
330
2
100
AcDbEntity
  8
Table
 62
     2
100
AcDbLine
 10
0.4050000000000001
 20
0.015
 30
0.0
 11
0.4050000000000001
 21
0.2819999999999998
 31
0.0
  0
LINE
  5
15
330
2
100
AcDbEntity
  8
Table
 62
     2
100
AcDbLine
 10
0.4050000000000001
 20
0.2819999999999998
 30
0.0
 11
0.0149999999999999
 21
0.282
 31
0.0
  0
LINE
  5
16
330
2
100
AcDbEntity
  8
Table
 62
     2
100
AcDbLine
 10
0.0149999999999999
 20
0.282
 30
0.0
 11
0.015
 21
0.015
 31
0.0
  0
LINE
  5
17
330
2
100
AcDbEntity
  8
Table
100
AcDbLine
 10
0.21
 20
0.2769999999999999
 30
0.0
 11
0.21
 21
0.2532994226089223
 31
0.0
  0
MTEXT
  5
18
102
{ACAD_XDICTIONARY
360
11A9
102
}
330
2
100
AcDbEntity
  8
Text
100
AcDbMText
 10
0.305
 20
0.0471738284815141
 30
0.0
 40
0.005
 41
0.1900000000000001
 71
     2
 72
     5
  3
{\fTimes New Roman|b0|i0|c238|p18;\H1.6x;\C4;Bovelacci\P\H0.4375x;\T0.95;via del Commercio, 5  47100 Forli - Italy  \fTimes New Roman|b0|i0|c0|p18;\P\fTimes New Roman|b0|i0|c238|p18;tel.+39-0543721386  fax +39-0543721127\fTimes New Roman|b0|i0|c0|p18
  1
; \fTimes New Roman|b0|i0|c238|p18;www.bovelacci.it\fTimes New Roman|b0|i0|c0|p18; \fTimes New Roman|b0|i0|c238|p18;e-mail: bovelacci@bovelacci\fTimes New Roman|b0|i0|c0|p18;.it}
 73
     1
 44
1.0
1001
ACAD
1000
ACAD_MTEXT_DEFINED_HEIGHT_BEGIN
1070
    46
1040
0.0271738284815141
1000
ACAD_MTEXT_DEFINED_HEIGHT_END
1000
MTEXTBEGIN
1070
    73
1070
     1
1070
    44
1040
1.0
1070
    74
1070
     0
1000
MTEXTEND
  0
MTEXT
  5
1C
330
2
100
AcDbEntity
  8
Text
100
AcDbMText
 10
0.0219676065851835
 20
0.0500313976452307
 30
0.0
 40
0.002
 41
0.1863544980601608
 71
     1
 72
     5
  3
{\fArial|b0|i0|c0|p34;\H1.25x;Le caratteristiche tecniche indicate vengono fornite a titolo indicativo e potranno essere modificate senza preavviso. Non devono quindi essere considerate a scopo di specifica.\P\fArial|b0|i1|c0|p34;The given values are
  3
 indicative and can be changed without notice. They cannot be considered like a state.\PThis lealfet and designs embodied within are protected by copyright law and international treaties. Unauthorized repro- duction of the leaflet or any portion of i
  1
t or reproduction of any of the designs embodied therein may result in severe civil penalties and will be prosecuted to the maximum.\PAll right reserved, Bovelacci Forlì Italy.}
 73
     1
 44
1.0
1001
ACAD
1000
MTEXTBEGIN
1070
    73
1070
     1
1070
    44
1040
1.0
1070
    74
1070
     0
1000
MTEXTEND
  0
LINE
  5
1D
330
2
100
AcDbEntity
  8
Table
100
AcDbLine
 10
0.02
 20
0.0528099428524846
 30
0.0
 11
0.4
 21
0.0528099428524846
 31
0.0
  0
MTEXT
  5
1E
330
2
100
AcDbEntity
  8
Text
100
AcDbMText
 10
0.1133313047219695
 20
0.2610796890771976
 30
0.0
 40
0.003
 41
0.1103605678262056
 71
     2
 72
     5
  1
{\fTimes New Roman|b0|i0|c0|p18;Rosoni\fTimes New Roman|b0|i1|c0|p18;   Ceiling centres}
 73
     1
 44
1.0
1001
ACAD
1000
ACAD_MTEXT_DEFINED_HEIGHT_BEGIN
1070
    46
1040
0.0141952763113409
1000
ACAD_MTEXT_DEFINED_HEIGHT_END
1000
MTEXTBEGIN
1070
    73
1070
     1
1070
    44
1040
1.0
1070
    74
1070
     0
1000
MTEXTEND
  0
TEXT
  5
1F
330
2
100
AcDbEntity
  8
Text
100
AcDbText
 10
0.2180556919891047
 20
0.269976982173197
 30
0.0
 40
0.003
  1
Rosone - Ceiling centre : D 410 mm
  7
ROMANS
100
AcDbText
  0
TEXT
  5
21
330
2
100
AcDbEntity
  8
Text
100
AcDbText
 10
0.2184542410678115
 20
0.2576348370183962
 30
0.0
 40
0.003
  1
File : E - R41
  7
ROMANS
100
AcDbText
  0
LINE
  5
22
330
2
100
AcDbEntity
  8
Table
100
AcDbLine
 10
0.4
 20
0.2654452889427402
 30
0.0
 11
0.02
 21
0.2654452889427403
 31
0.0
  0
LINE
  5
23
330
2
100
AcDbEntity
  8
Table
100
AcDbLine
 10
0.4
 20
0.2532994226089223
 30
0.0
 11
0.02
 21
0.2532994226089225
 31
0.0
  0
LINE
  5
24
330
2
100
AcDbEntity
  8
Table
100
AcDbLine
 10
0.21
 20
0.0528099428524846
 30
0.0
 11
0.21
 21
0.02
 31
0.0
  0
TEXT
  5
25
330
2
100
AcDbEntity
  8
Text
100
AcDbText
 10
0.0947789320547719
 20
0.2687784133392506
 30
0.0
 40
0.005
  1
EUROSTYL
  7
style1
 72
     1
 11
0.1140561490699125
 21
0.2687784133392506
 31
0.0
100
AcDbText
  0
TEXT
  5
23F
330
2
100
AcDbEntity
  8
Text
  6
ACAD_ISO10W100
100
AcDbText
 10
0.2693054777903039
 20
0.0953837817154628
 30
0.0
 40
0.005
  1
scala 1 : 4
  7
style1
100
AcDbText
  0
CIRCLE
  5
1066
330
2
100
AcDbEntity
  8
Profilo
  6
Continuous
370
     0
100
AcDbCircle
 10
0.2101008424327411
 20
0.1660785766483598
 30
0.0
 40
0.0050568108571937
  0
LWPOLYLINE
  5
1067
330
2
100
AcDbEntity
  8
Profilo
  6
Continuous
370
     0
100
AcDbPolyline
 90
       91
 70
   128
 43
0.0
 10
0.2076562676584448
 20
0.1751076601598979
 10
0.2080429232417362
 20
0.1757356717601847
 10
0.2079945902991565
 20
0.1761704488928356
 10
0.2073662779603138
 20
0.1764119915578498
 10
0.2069312920868915
 20
0.1764119915578498
 10
0.2064479732708895
 20
0.176653534222864
 10
0.2064963062134701
 20
0.1769916932826331
 10
0.2067379656214703
 20
0.177426470415284
 10
0.2072212817850234
 20
0.1777163229558009
 10
0.2076079373683148
 20
0.1780544820155708
 10
0.2080912561843169
 20
0.1780544820155708
 10
0.2085262420577383
 20
0.1780544820155708
 10
0.2087678988132895
 20
0.1782477164832076
 10
0.2090578911638712
 20
0.1786341854184802
 10
0.2092512176292915
 20
0.1788757280834944
 10
0.2093962138045828
 20
0.1790206526756276
 10
0.2100245261434255
 20
0.1789240362808718
 10
0.2101211893761352
 20
0.1786341854184802
 10
0.2104595120168469
 20
0.177861247547935
 10
0.2108461676001383
 20
0.1771366195528924
 10
0.2108461676001383
 20
0.1764602997552272
 10
0.2110878270081393
 20
0.1759289062278214
 10
0.2115711431716916
 20
0.1760738308199546
 10
0.2116194761142713
 20
0.1767018424202414
 10
0.211716139346982
 20
0.1776197048829208
 10
0.2120061290451138
 20
0.1788274182079909
 10
0.2122961213956946
 20
0.1792621953406418
 10
0.2128277705018275
 20
0.179600356078537
 10
0.2132144260851181
 20
0.179503738005656
 10
0.2136010790159606
 20
0.179165578945886
 10
0.2138910713665414
 20
0.1790689625511311
 10
0.2140843978319626
 20
0.1793588134135228
 10
0.2149060366362265
 20
0.1797935905461737
 10
0.2156310148602287
 20
0.1798902069409286
 10
0.2165009866070724
 20
0.1800351332111879
 10
0.2171293015983648
 20
0.1801800578033202
 10
0.217854277169919
 20
0.1808563776009854
 10
0.21814426686805
 20
0.1811462301415022
 10
0.2184342592186308
 20
0.1810496120686221
 10
0.2184342592186308
 20
0.1806631448114747
 10
0.2181925998106298
 20
0.1798418987435512
 10
0.2181925998106298
 20
0.1794554298082785
 10
0.2181925998106298
 20
0.179165578945886
 10
0.2177092809946277
 20
0.1789240362808718
 10
0.2174192912964967
 20
0.178730801813236
 10
0.2167426460150734
 20
0.1782477164832076
 10
0.216597649839783
 20
0.1780544820155708
 10
0.2166459827823628
 20
0.177523088488165
 10
0.216839309247784
 20
0.1771849277502698
 10
0.2168876421903647
 20
0.176653534222864
 10
0.216839309247784
 20
0.1765086079526047
 10
0.216066000733651
 20
0.1758805963523179
 10
0.21582434132565
 20
0.1755907454899262
 10
0.2156310148602287
 20
0.1751076601598979
 10
0.2159693375009404
 20
0.1751076601598979
 10
0.2162593271990714
 20
0.1751076601598979
 10
0.2166459827823628
 20
0.1753008946275346
 10
0.2169359724804947
 20
0.1753492028249121
 10
0.2172742951212063
 20
0.175445820897793
 10
0.2174676215866267
 20
0.1753492028249121
 10
0.2176609507044978
 20
0.1751559683572753
 10
0.2176609507044978
 20
0.1749144256922611
 10
0.2177092809946277
 20
0.174576266632492
 10
0.2179992733452094
 20
0.1744796485596111
 10
0.2184825895087616
 20
0.1744796485596111
 10
0.2187725818593424
 20
0.1744796485596111
 10
0.2192075677327638
 20
0.1744796485596111
 10
0.2195458903734755
 20
0.1741897976972194
 10
0.2196908865487659
 20
0.1739482550322043
 10
0.2199808762468978
 20
0.1738033287619459
 10
0.22041586212032
 20
0.1738033287619459
 10
0.2205125253530298
 20
0.1740448714269601
 10
0.220705851818451
 20
0.1742864140919743
 10
0.2210925074017425
 20
0.1742864140919743
 10
0.2213341668097435
 20
0.1739965632295827
 10
0.2213341668097435
 20
0.1735617860969317
 10
0.2213341668097435
 20
0.1728854662992675
 10
0.2208991809363212
 20
0.1724506891666165
 10
0.2203675291777394
 20
0.1722091465016023
 10
0.2197875497814765
 20
0.1721608383042249
 10
0.2191592347901841
 20
0.1719192956392107
 10
0.2189659083247637
 20
0.1717743693689514
 10
0.2189659083247637
 20
0.1712912840389239
 10
0.2185309224513414
 20
0.1711463594467907
 10
0.2179509404026287
 20
0.1711463594467907
 10
0.2170809686557851
 20
0.1710014331765323
 10
0.216597649839783
 20
0.1710014331765323
 10
0.2162109969089414
 20
0.1707598905115172
 10
0.2160157129354738
 20
0.1703814027408929
 10
0.2160905544626299
 20
0.1698203584148813
 10
0.216307660141652
 20
0.1695038673109436
  0
LWPOLYLINE
  5
1068
330
2
100
AcDbEntity
  8
Profilo
  6
Continuous
370
     0
100
AcDbPolyline
 90
       91
 70
   128
 43
0.0
 10
0.201071758921203
 20
0.1636340018740635
 10
0.2004437473209162
 20
0.1640206574573549
 10
0.2000089701882652
 20
0.1639723245147752
 10
0.1997674275232519
 20
0.1633440121759325
 10
0.1997674275232519
 20
0.1629090263025102
 10
0.1995258848582368
 20
0.1624257074865082
 10
0.1991877257984678
 20
0.1624740404290889
 10
0.1987529486658168
 20
0.162715699837089
 10
0.1984630961253
 20
0.1631990160006421
 10
0.19812493706553
 20
0.1635856715839335
 10
0.19812493706553
 20
0.1640689903999356
 10
0.19812493706553
 20
0.164503976273357
 10
0.1979317025978933
 20
0.1647456330289082
 10
0.1975452336626207
 20
0.1650356253794899
 10
0.1973036909976065
 20
0.1652289518449103
 10
0.1971587664054732
 20
0.1653739480202015
 10
0.197255382800229
 20
0.1660022603590442
 10
0.1975452336626207
 20
0.1660989235917539
 10
0.1983181715331668
 20
0.1664372462324656
 10
0.1990427995282085
 20
0.166823901815757
 10
0.1997191193258736
 20
0.166823901815757
 10
0.2002505128532794
 20
0.167065561223758
 10
0.2001055882611462
 20
0.1675488773873103
 10
0.1994775766608594
 20
0.16759721032989
 10
0.198559714198181
 20
0.1676938735626007
 10
0.19735200087311
 20
0.1679838632607325
 10
0.196917223740459
 20
0.1682738556113134
 10
0.1965790630025639
 20
0.1688055047174463
 10
0.1966756810754448
 20
0.1691921603007368
 10
0.1970138401352148
 20
0.1695788132315793
 10
0.1971104565299697
 20
0.1698688055821601
 10
0.1968206056675781
 20
0.1700621320475814
 10
0.196385828534928
 20
0.1708837708518452
 10
0.1962892121401722
 20
0.1716087490758474
 10
0.1961442858699138
 20
0.1724787208226911
 10
0.1959993612777806
 20
0.1731070358139836
 10
0.1953230414801155
 20
0.1738320113855377
 10
0.1950331889395986
 20
0.1741220010836687
 10
0.1951298070124796
 20
0.1744119934342495
 10
0.1955162742696261
 20
0.1744119934342495
 10
0.1963375203375497
 20
0.1741703340262485
 10
0.1967239892728232
 20
0.1741703340262485
 10
0.1970138401352148
 20
0.1741703340262485
 10
0.197255382800229
 20
0.1736870152102464
 10
0.1974486172678649
 20
0.1733970255121154
 10
0.1979317025978933
 20
0.1727203802306921
 10
0.19812493706553
 20
0.1725753840554017
 10
0.1986563305929358
 20
0.1726237169979815
 10
0.198994491330831
 20
0.1728170434634028
 10
0.1995258848582368
 20
0.1728653764059834
 10
0.1996708111284961
 20
0.1728170434634028
 10
0.200298822728783
 20
0.1720437349492697
 10
0.2005886735911746
 20
0.1718020755412687
 10
0.201071758921203
 20
0.1716087490758474
 10
0.201071758921203
 20
0.1719470717165591
 10
0.201071758921203
 20
0.1722370614146901
 10
0.2008785244535662
 20
0.1726237169979815
 10
0.2008302162561888
 20
0.1729137066961134
 10
0.2007335981833078
 20
0.173252029336825
 10
0.2008302162561888
 20
0.1734453558022454
 10
0.2010234507238255
 20
0.1736386849201165
 10
0.2012649933888397
 20
0.1736386849201165
 10
0.2016031524486097
 20
0.1736870152102464
 10
0.2016997705214898
 20
0.1739770075608281
 10
0.2016997705214898
 20
0.1744603237243804
 10
0.2016997705214898
 20
0.1747503160749612
 10
0.2016997705214898
 20
0.1751853019483825
 10
0.2019896213838823
 20
0.1755236245890942
 10
0.2022311640488965
 20
0.1756686207643846
 10
0.2023760903191549
 20
0.1759586104625165
 10
0.2023760903191549
 20
0.1763935963359388
 10
0.2021345476541407
 20
0.1764902595686485
 10
0.2018930049891265
 20
0.1766835860340697
 10
0.2018930049891265
 20
0.1770702416173612
 10
0.2021828558515182
 20
0.1773119010253622
 10
0.2026176329841691
 20
0.1773119010253622
 10
0.2032939527818334
 20
0.1773119010253622
 10
0.2037287299144843
 20
0.1768769151519399
 10
0.2039702725794985
 20
0.1763452633933581
 10
0.204018580776876
 20
0.1757652839970952
 10
0.2042601234418901
 20
0.1751369690058028
 10
0.2044050497121495
 20
0.1749436425403824
 10
0.2048881350421769
 20
0.1749436425403824
 10
0.2050330596343111
 20
0.1745086566669601
 10
0.2050330596343111
 20
0.1739286746182474
 10
0.2051779859045695
 20
0.1730587028714038
 10
0.2051779859045695
 20
0.1725753840554017
 10
0.2054195285695837
 20
0.1721887311245601
 10
0.205798016340208
 20
0.1719934471510925
 10
0.2063590606662196
 20
0.1720682886782486
 10
0.2066755517701573
 20
0.1722853943572707
  0
LWPOLYLINE
  5
1069
330
2
100
AcDbEntity
  8
Profilo
  6
Continuous
370
     0
100
AcDbPolyline
 90
       91
 70
   128
 43
0.0
 10
0.2125454172070373
 20
0.1570494931368217
 10
0.2121587616237459
 20
0.1564214815365349
 10
0.2122070945663257
 20
0.1559867044038839
 10
0.2128354069051683
 20
0.1557451617388706
 10
0.2132703927785906
 20
0.1557451617388706
 10
0.2137537115945927
 20
0.1555036190738564
 10
0.213705378652012
 20
0.1551654600140865
 10
0.2134637192440119
 20
0.1547306828814355
 10
0.2129804030804587
 20
0.1544408303409187
 10
0.2125937474971673
 20
0.1541026712811487
 10
0.2121104286811652
 20
0.1541026712811487
 10
0.2116754428077439
 20
0.1541026712811487
 10
0.2114337860521926
 20
0.1539094368135129
 10
0.211143793701611
 20
0.1535229678782394
 10
0.2109504672361906
 20
0.1532814252132252
 10
0.2108054710608993
 20
0.153136500621092
 10
0.2101771587220567
 20
0.1532331170158477
 10
0.2100804954893469
 20
0.1535229678782394
 10
0.2097421728486353
 20
0.1542959057487855
 10
0.2093555172653438
 20
0.1550205337438272
 10
0.2093555172653438
 20
0.1556968535414923
 10
0.2091138578573428
 20
0.1562282470688981
 10
0.2086305416937906
 20
0.1560833224767658
 10
0.2085822087512108
 20
0.1554553108764781
 10
0.2084855455185002
 20
0.1545374484137997
 10
0.2081955558203692
 20
0.1533297350887287
 10
0.2079055634697875
 20
0.1528949579560778
 10
0.2073739143636555
 20
0.1525567972181826
 10
0.2069872587803641
 20
0.1526534152910636
 10
0.2066006058495216
 20
0.1529915743508335
 10
0.2063106134989407
 20
0.1530881907455884
 10
0.2061172870335195
 20
0.1527983398831968
 10
0.2052956482292565
 20
0.1523635627505467
 10
0.2045706700052534
 20
0.152266946355791
 10
0.2037006982584097
 20
0.1521220200855325
 10
0.2030723832671173
 20
0.1519770954933993
 10
0.202347407695564
 20
0.1513007756957342
 10
0.2020574179974321
 20
0.1510109231552173
 10
0.2017674256468513
 20
0.1511075412280983
 10
0.2017674256468513
 20
0.1514940084852448
 10
0.2020090850548524
 20
0.1523152545531693
 10
0.2020090850548524
 20
0.1527017234884419
 10
0.2020090850548524
 20
0.1529915743508335
 10
0.2024924038708544
 20
0.1532331170158477
 10
0.2027823935689854
 20
0.1534263514834836
 10
0.2034590388504087
 20
0.1539094368135129
 10
0.2036040350256991
 20
0.1541026712811487
 10
0.2035557020831193
 20
0.1546340648085546
 10
0.2033623756176981
 20
0.1549722255464497
 10
0.2033140426751183
 20
0.1555036190738564
 10
0.2033623756176981
 20
0.1556485453441149
 10
0.2041356841318311
 20
0.1562765569444017
 10
0.2043773435398322
 20
0.1565664078067933
 10
0.2045706700052534
 20
0.1570494931368217
 10
0.2042323473645418
 20
0.1570494931368217
 10
0.2039423576664108
 20
0.1570494931368217
 10
0.2035557020831193
 20
0.1568562586691849
 10
0.2032657123849875
 20
0.1568079504718075
 10
0.2029273897442758
 20
0.1567113323989265
 10
0.2027340632788555
 20
0.1568079504718075
 10
0.2025407341609844
 20
0.1570011849394443
 10
0.2025407341609844
 20
0.1572427276044584
 10
0.2024924038708544
 20
0.1575808866642284
 10
0.2022024115202727
 20
0.1576775047371085
 10
0.2017190953567214
 20
0.1576775047371085
 10
0.2014291030061397
 20
0.1576775047371085
 10
0.2009941171327183
 20
0.1576775047371085
 10
0.2006557944920067
 20
0.157967355599501
 10
0.2005107983167162
 20
0.1582088982645152
 10
0.2002208086185853
 20
0.1583538245347736
 10
0.199785822745163
 20
0.1583538245347736
 10
0.1996891595124523
 20
0.1581122818697594
 10
0.1994958330470311
 20
0.1578707392047452
 10
0.1991091774637397
 20
0.1578707392047452
 10
0.1988675180557386
 20
0.1581605900671369
 10
0.1988675180557386
 20
0.1585953671997878
 10
0.1988675180557386
 20
0.159271686997453
 10
0.1993025039291609
 20
0.159706464130103
 10
0.1998341556877428
 20
0.1599480067951172
 10
0.2004141350840056
 20
0.1599963149924947
 10
0.2010424500752981
 20
0.1602378576575089
 10
0.2012357765407193
 20
0.1603827839277682
 10
0.2012357765407193
 20
0.1608658692577957
 10
0.2016707624141416
 20
0.1610107938499298
 10
0.2022507444628534
 20
0.1610107938499298
 10
0.2031207162096971
 20
0.1611557201201882
 10
0.2036040350256991
 20
0.1611557201201882
 10
0.2039906879565407
 20
0.1613972627852024
 10
0.2041859719300083
 20
0.1617757505558267
 10
0.2041111304028522
 20
0.1623367948818383
 10
0.2038940247238301
 20
0.162653285985776
  0
LWPOLYLINE
  5
106A
330
2
100
AcDbEntity
  8
Profilo
  6
Continuous
370
     0
100
AcDbPolyline
 90
       91
 70
   128
 43
0.0
 10
0.2191299259442792
 20
0.168523151422656
 10
0.219757937544566
 20
0.1681364958393646
 10
0.2201927146772169
 20
0.1681848287819444
 10
0.2204342573422311
 20
0.168813141120787
 10
0.2204342573422311
 20
0.1692481269942093
 10
0.2206758000072453
 20
0.1697314458102114
 10
0.2210139590670144
 20
0.1696831128676307
 10
0.2214487361996653
 20
0.1694414534596306
 10
0.2217385887401821
 20
0.1689581372960774
 10
0.2220767477999521
 20
0.168571481712786
 10
0.2220767477999521
 20
0.168088162896784
 10
0.2220767477999521
 20
0.1676531770233626
 10
0.2222699822675889
 20
0.1674115202678114
 10
0.2226564512028615
 20
0.1671215279172297
 10
0.2228979938678757
 20
0.1669282014518093
 10
0.2230429184600089
 20
0.166783205276518
 10
0.2229463020652531
 20
0.1661548929376754
 10
0.2226564512028615
 20
0.1660582297049656
 10
0.2218835133323163
 20
0.165719907064254
 10
0.2211588853372737
 20
0.1653332514809626
 10
0.2204825655396085
 20
0.1653332514809626
 10
0.2199511720122027
 20
0.1650915920729615
 10
0.2200960966043359
 20
0.1646082759094093
 10
0.2207241082046227
 20
0.1645599429668295
 10
0.2216419706673021
 20
0.1644632797341189
 10
0.2228496839923721
 20
0.1641732900359879
 10
0.2232844611250231
 20
0.1638832976854062
 10
0.2236226218629183
 20
0.1633516485792742
 10
0.2235260037900373
 20
0.1629649929959828
 10
0.2231878447302673
 20
0.1625783400651403
 10
0.2230912283355124
 20
0.1622883477145595
 10
0.2233810791979041
 20
0.1620950212491382
 10
0.223815856330555
 20
0.1612733824448752
 10
0.2239124727253099
 20
0.1605484042208721
 10
0.2240573989955692
 20
0.1596784324740285
 10
0.2242023235877015
 20
0.159050117482736
 10
0.2248786433853667
 20
0.1583251419111827
 10
0.2251684959258835
 20
0.1580351522130509
 10
0.2250718778530034
 20
0.1577451598624701
 10
0.224685410595856
 20
0.1577451598624701
 10
0.2238641645279324
 20
0.1579868192704711
 10
0.2234776955926598
 20
0.1579868192704711
 10
0.2231878447302673
 20
0.1579868192704711
 10
0.2229463020652531
 20
0.1584701380864731
 10
0.2227530675976173
 20
0.1587601277846041
 10
0.2222699822675889
 20
0.1594367730660274
 10
0.2220767477999521
 20
0.1595817692413178
 10
0.2215453542725463
 20
0.1595334362987381
 10
0.2212071935346511
 20
0.1593401098333168
 10
0.2206758000072453
 20
0.1592917768907361
 10
0.220530873736986
 20
0.1593401098333168
 10
0.2199028621366992
 20
0.1601134183474498
 10
0.2196130112743075
 20
0.1603550777554509
 10
0.2191299259442792
 20
0.1605484042208721
 10
0.2191299259442792
 20
0.1602100815801605
 10
0.2191299259442792
 20
0.1599200918820295
 10
0.2193231604119159
 20
0.1595334362987381
 10
0.2193714686092933
 20
0.1592434466006062
 10
0.2194680866821743
 20
0.1589051239598945
 10
0.2193714686092933
 20
0.1587117974944742
 10
0.2191782341416566
 20
0.1585184683766031
 10
0.2189366914766424
 20
0.1585184683766031
 10
0.2185985324168733
 20
0.1584701380864731
 10
0.2185019143439923
 20
0.1581801457358914
 10
0.2185019143439923
 20
0.1576968295723401
 10
0.2185019143439923
 20
0.1574068372217584
 10
0.2185019143439923
 20
0.156971851348337
 10
0.2182120634815998
 20
0.1566335287076254
 10
0.2179705208165856
 20
0.156488532532335
 10
0.2178255945463272
 20
0.156198542834204
 10
0.2178255945463272
 20
0.1557635569607817
 10
0.2180671372113414
 20
0.1556668937280711
 10
0.2183086798763556
 20
0.1554735672626498
 10
0.2183086798763556
 20
0.1550869116793584
 10
0.218018829013964
 20
0.1548452522713574
 10
0.217584051881313
 20
0.1548452522713574
 10
0.2169077320836488
 20
0.1548452522713574
 10
0.2164729549509978
 20
0.1552802381447796
 10
0.2162314122859836
 20
0.1558118899033615
 10
0.2161831040886062
 20
0.1563918692996243
 10
0.215941561423592
 20
0.1570201842909168
 10
0.2157966351533327
 20
0.1572135107563372
 10
0.2153135498233052
 20
0.1572135107563372
 10
0.215168625231172
 20
0.1576484966297594
 10
0.215168625231172
 20
0.1582284786784721
 10
0.2150236989609127
 20
0.1590984504253158
 10
0.2150236989609127
 20
0.1595817692413178
 10
0.2147821562958985
 20
0.1599684221721594
 10
0.2144036685252741
 20
0.160163706145627
 10
0.2138426241992626
 20
0.1600888646184709
 10
0.2135261330953249
 20
0.1598717589394488
  0
LWPOLYLINE
  5
106B
330
2
100
AcDbEntity
  8
Profilo
  6
Continuous
370
     0
100
AcDbPolyline
 90
       12
 70
   128
 43
0.0
 10
0.2066755517701573
 20
0.1722853943572707
 10
0.2072166373451996
 20
0.1724081016989033
 10
0.20758687956834
 20
0.172426604710134
 10
0.2080681957846462
 20
0.172519119766286
 10
0.2083458754626637
 20
0.1727596622685307
 10
0.2085495093485035
 20
0.1732962563067114
 10
0.2085495093485035
 20
0.1738698546892275
 10
0.2084014124592475
 20
0.1743879457161784
 10
0.2082533155699915
 20
0.1745544744953759
 10
0.2079941473400186
 20
0.1747395062858049
 10
0.2076424165649229
 20
0.1748505260313119
 10
0.2076562676584448
 20
0.1751076601598979
  0
LWPOLYLINE
  5
106C
330
2
100
AcDbEntity
  8
Profilo
  6
Continuous
370
     0
100
AcDbPolyline
 90
       12
 70
   128
 43
0.0
 10
0.2038940247238301
 20
0.162653285985776
 10
0.2037713173821976
 20
0.1631943715608183
 10
0.2037528143709668
 20
0.1635646137839587
 10
0.2036602993148149
 20
0.1640459300002649
 10
0.2034197568125702
 20
0.1643236096782824
 10
0.2028831627743894
 20
0.1645272435641222
 10
0.2023095643918733
 20
0.1645272435641222
 10
0.2017914733649233
 20
0.1643791466748662
 10
0.201624944585725
 20
0.1642310497856102
 10
0.2014399127952959
 20
0.1639718815556373
 10
0.201328893049789
 20
0.1636201507805416
 10
0.201071758921203
 20
0.1636340018740635
  0
LWPOLYLINE
  5
106D
330
2
100
AcDbEntity
  8
Profilo
  6
Continuous
370
     0
100
AcDbPolyline
 90
       12
 70
   128
 43
0.0
 10
0.2135261330953249
 20
0.1598717589394488
 10
0.2129850475202826
 20
0.1597490515978163
 10
0.2126148052971422
 20
0.1597305485865855
 10
0.212133489080836
 20
0.1596380335304336
 10
0.2118558094028184
 20
0.1593974910281889
 10
0.2116521755169796
 20
0.1588608969900082
 10
0.2116521755169796
 20
0.158287298607492
 10
0.2118002724062356
 20
0.157769207580542
 10
0.2119483692954915
 20
0.1576026788013437
 10
0.2122075375254635
 20
0.1574176470109146
 10
0.2125592683005593
 20
0.1573066272654077
 10
0.2125454172070373
 20
0.1570494931368217
  0
LWPOLYLINE
  5
106E
330
2
100
AcDbEntity
  8
Profilo
  6
Continuous
370
     0
100
AcDbPolyline
 90
       12
 70
   128
 43
0.0
 10
0.216307660141652
 20
0.1695038673109436
 10
0.2164303674832846
 20
0.1689627817359013
 10
0.2164488704945153
 20
0.1685925395127609
 10
0.2165413855506673
 20
0.1681112232964547
 10
0.216781928052912
 20
0.1678335436184372
 10
0.2173185220910927
 20
0.1676299097325983
 10
0.2178921204736088
 20
0.1676299097325983
 10
0.2184102115005588
 20
0.1677780066218543
 10
0.2185767402797571
 20
0.1679261035111102
 10
0.2187617720701862
 20
0.1681852717410822
 10
0.2188727918156932
 20
0.168537002516178
 10
0.2191299259442792
 20
0.168523151422656
  0
LWPOLYLINE
  5
106F
330
2
100
AcDbEntity
  8
Profilo
  6
Continuous
370
     0
100
AcDbPolyline
 90
        4
 70
   128
 43
0.0
 10
0.2114853178493847
 20
0.1717105066267627
 10
0.2123894743708954
 20
0.1742925711342565
 10
0.2133969650366838
 20
0.1759709113860025
 10
0.214611118686129
 20
0.1774168681814493
  0
LWPOLYLINE
  5
1070
330
2
100
AcDbEntity
  8
Profilo
  6
Continuous
370
     0
100
AcDbPolyline
 90
        3
 70
   128
 43
0.0
 10
0.2125444729348631
 20
0.1715039411305382
 10
0.2132677986825611
 20
0.1740860056380321
 10
0.2144561201221613
 20
0.1763065801076021
  0
LWPOLYLINE
  5
1071
330
2
100
AcDbEntity
  8
Profilo
  6
Continuous
370
     0
100
AcDbPolyline
 90
        3
 70
   128
 43
0.0
 10
0.2130094686267654
 20
0.172459304662686
 10
0.2135519636006515
 20
0.1736986959619074
 10
0.2143269537680394
 20
0.1748348036739554
  0
LWPOLYLINE
  5
1072
330
2
100
AcDbEntity
  8
Profilo
  6
Continuous
370
     0
100
AcDbPolyline
 90
        4
 70
   128
 43
0.0
 10
0.2133194657546999
 20
0.1709100659581891
 10
0.2142752866958997
 20
0.1727433324297606
 10
0.2151536110075654
 20
0.1735179517820081
 10
0.2161352694635097
 20
0.1742667498179314
  0
LWPOLYLINE
  5
1073
330
2
100
AcDbEntity
  8
Profilo
  6
Continuous
370
     0
100
AcDbPolyline
 90
        4
 70
   128
 43
0.0
 10
0.2103486634819234
 20
0.1721752785737366
 10
0.2099094999998661
 20
0.1738536188254825
 10
0.2095220062423975
 20
0.1746798791322551
 10
0.209212009114462
 20
0.1750155478538547
  0
LWPOLYLINE
  5
1074
330
2
100
AcDbEntity
  8
Profilo
  6
Continuous
370
     0
100
AcDbPolyline
 90
        3
 70
   128
 43
0.0
 10
0.2112269877935899
 20
0.1725367669335352
 10
0.2112269877935899
 20
0.1736212336910582
 10
0.2109686550853436
 20
0.1749380855830046
  0
LWPOLYLINE
  5
1075
330
2
100
AcDbEntity
  8
Profilo
  6
Continuous
370
     0
100
AcDbPolyline
 90
        4
 70
   128
 43
0.0
 10
0.2044689124543382
 20
0.1674630520650034
 10
0.2018868479468443
 20
0.1683672085865141
 10
0.2002085076950983
 20
0.1693746992523025
 10
0.1987625508996515
 20
0.1705888529017477
  0
LWPOLYLINE
  5
1076
330
2
100
AcDbEntity
  8
Profilo
  6
Continuous
370
     0
100
AcDbPolyline
 90
        3
 70
   128
 43
0.0
 10
0.2046754779505635
 20
0.1685222071504818
 10
0.2020934134430687
 20
0.1692455328981798
 10
0.1998728389734996
 20
0.17043385433778
  0
LWPOLYLINE
  5
1077
330
2
100
AcDbEntity
  8
Profilo
  6
Continuous
370
     0
100
AcDbPolyline
 90
        3
 70
   128
 43
0.0
 10
0.2037201144184149
 20
0.1689872028423841
 10
0.2024807231191934
 20
0.1695296978162702
 10
0.2013446154071454
 20
0.1703046879836582
  0
LWPOLYLINE
  5
1078
330
2
100
AcDbEntity
  8
Profilo
  6
Continuous
370
     0
100
AcDbPolyline
 90
        4
 70
   128
 43
0.0
 10
0.2052693531229117
 20
0.1692971999703187
 10
0.2034360866513403
 20
0.1702530209115184
 10
0.2026614672990927
 20
0.1711313452231841
 10
0.2019126692631694
 20
0.1721130036791284
  0
LWPOLYLINE
  5
1079
330
2
100
AcDbEntity
  8
Profilo
  6
Continuous
370
     0
100
AcDbPolyline
 90
        4
 70
   128
 43
0.0
 10
0.2040041405073643
 20
0.1663263976975421
 10
0.2023258002556183
 20
0.1658872342154848
 10
0.2014995399488457
 20
0.1654997404580162
 10
0.2011638712272461
 20
0.1651897433300807
  0
LWPOLYLINE
  5
107A
330
2
100
AcDbEntity
  8
Profilo
  6
Continuous
370
     0
100
AcDbPolyline
 90
        3
 70
   128
 43
0.0
 10
0.2036426521475656
 20
0.1672047220092087
 10
0.2025581853900427
 20
0.1672047220092087
 10
0.2012413334980962
 20
0.1669463893009623
  0
LWPOLYLINE
  5
107B
330
2
100
AcDbEntity
  8
Profilo
  6
Continuous
370
     0
100
AcDbPolyline
 90
        4
 70
   128
 43
0.0
 10
0.2087163670160974
 20
0.1604466466699569
 10
0.2078122104945868
 20
0.157864582162463
 10
0.2068047198287983
 20
0.1561862419107171
 10
0.2055905661793531
 20
0.1547402851152703
  0
LWPOLYLINE
  5
107C
330
2
100
AcDbEntity
  8
Profilo
  6
Continuous
370
     0
100
AcDbPolyline
 90
        3
 70
   128
 43
0.0
 10
0.2076572119306199
 20
0.1606532121661822
 10
0.2069338861829211
 20
0.1580711476586875
 10
0.2057455647433208
 20
0.1558505731891183
  0
LWPOLYLINE
  5
107D
330
2
100
AcDbEntity
  8
Profilo
  6
Continuous
370
     0
100
AcDbPolyline
 90
        3
 70
   128
 43
0.0
 10
0.2071922162387167
 20
0.1596978486340345
 10
0.2066497212648315
 20
0.1584584573348121
 10
0.2058747310974436
 20
0.1573223496227641
  0
LWPOLYLINE
  5
107E
330
2
100
AcDbEntity
  8
Profilo
  6
Continuous
370
     0
100
AcDbPolyline
 90
        4
 70
   128
 43
0.0
 10
0.2068822191107822
 20
0.1612470873385304
 10
0.2059263981695825
 20
0.1594138208669599
 10
0.2050480738579168
 20
0.1586392015147114
 10
0.2040664154019733
 20
0.1578904034787881
  0
LWPOLYLINE
  5
107F
330
2
100
AcDbEntity
  8
Profilo
  6
Continuous
370
     0
100
AcDbPolyline
 90
        4
 70
   128
 43
0.0
 10
0.2098530213835588
 20
0.159981874722983
 10
0.2102921848656161
 20
0.158303534471237
 10
0.2106796786230847
 20
0.1574772741644644
 10
0.2109896757510201
 20
0.1571416054428648
  0
LWPOLYLINE
  5
1080
330
2
100
AcDbEntity
  8
Profilo
  6
Continuous
370
     0
100
AcDbPolyline
 90
        3
 70
   128
 43
0.0
 10
0.2089746970718922
 20
0.1596203863631843
 10
0.2089746970718922
 20
0.1585359196056614
 10
0.2092330297801386
 20
0.157219067713715
  0
LWPOLYLINE
  5
1081
330
2
100
AcDbEntity
  8
Profilo
  6
Continuous
370
     0
100
AcDbPolyline
 90
        4
 70
   128
 43
0.0
 10
0.215732772411144
 20
0.1646941012317161
 10
0.2183148369186378
 20
0.1637899447102055
 10
0.2199931771703838
 20
0.162782454044417
 10
0.2214391339658306
 20
0.1615683003949718
  0
LWPOLYLINE
  5
1082
330
2
100
AcDbEntity
  8
Profilo
  6
Continuous
370
     0
100
AcDbPolyline
 90
        3
 70
   128
 43
0.0
 10
0.2155262069149195
 20
0.1636349461462386
 10
0.2181082714224134
 20
0.1629116203985398
 10
0.2203288458919834
 20
0.1617232989589395
  0
LWPOLYLINE
  5
1083
330
2
100
AcDbEntity
  8
Profilo
  6
Continuous
370
     0
100
AcDbPolyline
 90
        3
 70
   128
 43
0.0
 10
0.2164815704470673
 20
0.1631699504543355
 10
0.2177209617462887
 20
0.1626274554804493
 10
0.2188570694583367
 20
0.1618524653130614
  0
LWPOLYLINE
  5
1084
330
2
100
AcDbEntity
  8
Profilo
  6
Continuous
370
     0
100
AcDbPolyline
 90
        4
 70
   128
 43
0.0
 10
0.2149323317425704
 20
0.1628599533264009
 10
0.2167655982141419
 20
0.1619041323852012
 10
0.2175402175663894
 20
0.1610258080735355
 10
0.2182890156023127
 20
0.160044149617592
  0
LWPOLYLINE
  5
1085
330
2
100
AcDbEntity
  8
Profilo
  6
Continuous
370
     0
100
AcDbPolyline
 90
        4
 70
   128
 43
0.0
 10
0.2161975443581179
 20
0.1658307555991775
 10
0.2178758846098638
 20
0.1662699190812348
 10
0.2187021449166364
 20
0.1666574128387034
 10
0.219037813638236
 20
0.1669674099666388
  0
LWPOLYLINE
  5
1086
330
2
100
AcDbEntity
  8
Profilo
  6
Continuous
370
     0
100
AcDbPolyline
 90
        3
 70
   128
 43
0.0
 10
0.2165590327179165
 20
0.1649524312875109
 10
0.2176434994754395
 20
0.1649524312875109
 10
0.2189603513673859
 20
0.1652107639957573
  0
LWPOLYLINE
  5
1087
330
2
100
AcDbEntity
  8
Profilo
  6
Continuous
370
     0
100
AcDbPolyline
 90
        2
 70
   128
 43
0.0
 10
0.2052770863846627
 20
0.1783064475177659
 10
0.1984094848613349
 20
0.1950061608938184
  0
LWPOLYLINE
  5
1088
330
2
100
AcDbEntity
  8
Profilo
  6
Continuous
370
     0
100
AcDbPolyline
 90
        2
 70
   128
 43
0.0
 10
0.2020378839046426
 20
0.1771910325395155
 10
0.1918787902198211
 20
0.190793500824176
  0
LWPOLYLINE
  5
1089
330
2
100
AcDbEntity
  8
Profilo
  6
Continuous
370
     0
100
AcDbPolyline
 90
        2
 70
   128
 43
0.0
 10
0.1990109796491532
 20
0.1731357993210149
 10
0.1842946202629392
 20
0.1822054962997112
  0
LWPOLYLINE
  5
108A
330
2
100
AcDbEntity
  8
Profilo
  6
Continuous
370
     0
100
AcDbPolyline
 90
        2
 70
   128
 43
0.0
 10
0.1966070392856967
 20
0.1704657283121093
 10
0.1817819396784852
 20
0.175067779245828
  0
LWPOLYLINE
  5
108B
330
2
100
AcDbEntity
  8
Profilo
  6
Continuous
370
     0
100
AcDbPolyline
 90
        2
 70
   128
 43
0.0
 10
0.1969828786432082
 20
0.1669202858776869
 10
0.1837723251047745
 20
0.1675769156340195
  0
LWPOLYLINE
  5
108C
330
2
100
AcDbEntity
  8
Profilo
  6
Continuous
370
     0
100
AcDbPolyline
 90
        2
 70
   128
 43
0.0
 10
0.1969808235664025
 20
0.1652695319294856
 10
0.1822385079638051
 20
0.1641469591112238
  0
LWPOLYLINE
  5
108D
330
2
100
AcDbEntity
  8
Profilo
  6
Continuous
370
     0
100
AcDbPolyline
 90
        2
 70
   128
 43
0.0
 10
0.1981999866216464
 20
0.1604965448163335
 10
0.1833562807743494
 20
0.1532713852162545
  0
LWPOLYLINE
  5
108E
330
2
100
AcDbEntity
  8
Profilo
  6
Continuous
370
     0
100
AcDbPolyline
 90
        2
 70
   128
 43
0.0
 10
0.1988675180557386
 20
0.1589667282775603
 10
0.1834269082004605
 20
0.1488801955819711
  0
LWPOLYLINE
  5
108F
330
2
100
AcDbEntity
  8
Profilo
  6
Continuous
370
     0
100
AcDbPolyline
 90
        2
 70
   128
 43
0.0
 10
0.1999620687575518
 20
0.1577122921221486
 10
0.1857927688501215
 20
0.1456726795243738
  0
LWPOLYLINE
  5
1090
330
2
100
AcDbEntity
  8
Profilo
  6
Continuous
370
     0
100
AcDbPolyline
 90
        2
 70
   128
 43
0.0
 10
0.2010905895088753
 20
0.1565075374854378
 10
0.1889533136148973
 20
0.1432367234419985
  0
LWPOLYLINE
  5
1091
330
2
100
AcDbEntity
  8
Profilo
  6
Continuous
370
     0
100
AcDbPolyline
 90
        2
 70
   128
 43
0.0
 10
0.2067063485763736
 20
0.1528990938386289
 10
0.2024863473800336
 20
0.1355161655288269
  0
LWPOLYLINE
  5
1092
330
2
100
AcDbEntity
  8
Profilo
  6
Continuous
370
     0
100
AcDbPolyline
 90
        2
 70
   128
 43
0.0
 10
0.2084371103627962
 20
0.153039349523654
 10
0.2064848230387497
 20
0.135758324869612
  0
LWPOLYLINE
  5
1093
330
2
100
AcDbEntity
  8
Profilo
  6
Continuous
370
     0
100
AcDbPolyline
 90
        2
 70
   128
 43
0.0
 10
0.21008447788582
 20
0.1529336468040502
 10
0.2103160642650632
 20
0.1353473208208981
  0
LWPOLYLINE
  5
1094
330
2
100
AcDbEntity
  8
Profilo
  6
Continuous
370
     0
100
AcDbPolyline
 90
        2
 70
   128
 43
0.0
 10
0.2133540031279244
 20
0.1533425492496166
 10
0.2181694493695039
 20
0.1355629203776835
  0
LWPOLYLINE
  5
1095
330
2
100
AcDbEntity
  8
Profilo
  6
Continuous
370
     0
100
AcDbPolyline
 90
        2
 70
   128
 43
0.0
 10
0.2149245984808195
 20
0.1538507057789545
 10
0.2208107507438024
 20
0.1395375492357685
  0
LWPOLYLINE
  5
1096
330
2
100
AcDbEntity
  8
Profilo
  6
Continuous
370
     0
100
AcDbPolyline
 90
        2
 70
   128
 43
0.0
 10
0.2164191203192631
 20
0.1545517031364784
 10
0.2249657875507571
 20
0.1394789651830431
  0
LWPOLYLINE
  5
1097
330
2
100
AcDbEntity
  8
Profilo
  6
Continuous
370
     0
100
AcDbPolyline
 90
        2
 70
   128
 43
0.0
 10
0.2202187537983518
 20
0.1576870739219184
 10
0.2347001738002712
 20
0.1460247497067709
  0
LWPOLYLINE
  5
1098
330
2
100
AcDbEntity
  8
Profilo
  6
Continuous
370
     0
100
AcDbPolyline
 90
        2
 70
   128
 43
0.0
 10
0.2211907052163289
 20
0.1590213539757056
 10
0.2368736403665084
 20
0.1493559560457028
  0
LWPOLYLINE
  5
1099
330
2
100
AcDbEntity
  8
Profilo
  6
Continuous
370
     0
100
AcDbPolyline
 90
        2
 70
   128
 43
0.0
 10
0.2235228444117681
 20
0.1635085165617792
 10
0.2409038604824429
 20
0.1604295276946378
  0
LWPOLYLINE
  5
109A
330
2
100
AcDbEntity
  8
Profilo
  6
Continuous
370
     0
100
AcDbPolyline
 90
        2
 70
   128
 43
0.0
 10
0.223218806222274
 20
0.1652368674190326
 10
0.241789463287625
 20
0.1643138140444503
  0
LWPOLYLINE
  5
109B
330
2
100
AcDbEntity
  8
Profilo
  6
Continuous
370
     0
100
AcDbPolyline
 90
        2
 70
   128
 43
0.0
 10
0.2232208612990805
 20
0.166887621367234
 10
0.239192619872397
 20
0.1681038117214201
  0
LWPOLYLINE
  5
109C
330
2
100
AcDbEntity
  8
Profilo
  6
Continuous
370
     0
100
AcDbPolyline
 90
        2
 70
   128
 43
0.0
 10
0.2226074705405185
 20
0.1701250197511318
 10
0.2402138294179998
 20
0.1761031012534689
  0
LWPOLYLINE
  5
109D
330
2
100
AcDbEntity
  8
Profilo
  6
Continuous
370
     0
100
AcDbPolyline
 90
        2
 70
   128
 43
0.0
 10
0.2220016982438357
 20
0.171660608480387
 10
0.238719973437604
 20
0.1797982129139192
  0
LWPOLYLINE
  5
109E
330
2
100
AcDbEntity
  8
Profilo
  6
Continuous
370
     0
100
AcDbPolyline
 90
        2
 70
   128
 43
0.0
 10
0.2213341668097435
 20
0.1731904250191601
 10
0.2367747766650226
 20
0.1832769577147485
  0
LWPOLYLINE
  5
109F
330
2
100
AcDbEntity
  8
Profilo
  6
Continuous
370
     0
100
AcDbPolyline
 90
        2
 70
   128
 43
0.0
 10
0.2202396161079303
 20
0.1744448611745718
 10
0.2325113500066793
 20
0.1848721174969839
  0
LWPOLYLINE
  5
10A0
330
2
100
AcDbEntity
  8
Profilo
  6
Continuous
370
     0
100
AcDbPolyline
 90
        2
 70
   128
 43
0.0
 10
0.2191110953566069
 20
0.1756496158112827
 10
0.2316597025243627
 20
0.1893701766424057
  0
LWPOLYLINE
  5
10A1
330
2
100
AcDbEntity
  8
Profilo
  6
Continuous
370
     0
100
AcDbPolyline
 90
        2
 70
   128
 43
0.0
 10
0.2178404775342111
 20
0.1767034294429325
 10
0.2285704929310803
 20
0.191888557066833
  0
LWPOLYLINE
  5
10A2
330
2
100
AcDbEntity
  8
Profilo
  6
Continuous
370
     0
100
AcDbPolyline
 90
        2
 70
   128
 43
0.0
 10
0.2155590181604055
 20
0.1798806120850543
 10
0.2215715537793672
 20
0.1956709043691588
  0
LWPOLYLINE
  5
10A3
330
2
100
AcDbEntity
  8
Profilo
  6
Continuous
370
     0
100
AcDbPolyline
 90
        2
 70
   128
 43
0.0
 10
0.2134953362891085
 20
0.1792580594580916
 10
0.2177722016723207
 20
0.1968752213706358
  0
LWPOLYLINE
  5
10A4
330
2
100
AcDbEntity
  8
Profilo
  6
Continuous
370
     0
100
AcDbPolyline
 90
        2
 70
   128
 43
0.0
 10
0.2101172069796631
 20
0.1792235064926703
 10
0.2098723777141274
 20
0.1978154776093096
  0
LWPOLYLINE
  5
10A5
330
2
100
AcDbEntity
  8
Profilo
  6
Continuous
370
     0
100
AcDbPolyline
 90
        2
 70
   128
 43
0.0
 10
0.2113989408174941
 20
0.1832648752711367
 10
0.2116100386974296
 20
0.1982456572440226
  0
LWPOLYLINE
  5
10A6
330
2
100
AcDbEntity
  8
Profilo
  6
Continuous
370
     0
100
AcDbPolyline
 90
        2
 70
   128
 43
0.0
 10
0.2148764697768835
 20
0.1811542062717749
 10
0.219904562610032
 20
0.1957213806645822
  0
LWPOLYLINE
  5
10A7
330
2
100
AcDbEntity
  8
Profilo
  6
Continuous
370
     0
100
AcDbPolyline
 90
        2
 70
   128
 43
0.0
 10
0.2172447733535119
 20
0.1821010717766355
 10
0.2226372199709612
 20
0.1958670520225415
  0
LWPOLYLINE
  5
10A8
330
2
100
AcDbEntity
  8
Profilo
  6
Continuous
370
     0
100
AcDbPolyline
 90
        2
 70
   128
 43
0.0
 10
0.2184107081157247
 20
0.1829751032806416
 10
0.2242045993716282
 20
0.1959601289120599
  0
LWPOLYLINE
  5
10A9
330
2
100
AcDbEntity
  8
Profilo
  6
Continuous
370
     0
100
AcDbPolyline
 90
        2
 70
   128
 43
0.0
 10
0.2130182614982754
 20
0.1817004747031844
 10
0.2163746360311389
 20
0.198684588995273
  0
LWPOLYLINE
  5
10AA
330
2
100
AcDbEntity
  8
Profilo
  6
Continuous
370
     0
100
AcDbPolyline
 90
        2
 70
   128
 43
0.0
 10
0.2060245490155124
 20
0.1828248524058055
 10
0.2020096394779758
 20
0.1958007942403926
  0
LWPOLYLINE
  5
10AB
330
2
100
AcDbEntity
  8
Profilo
  6
Continuous
370
     0
100
AcDbPolyline
 90
        2
 70
   128
 43
0.0
 10
0.2119439011999757
 20
0.1835244711085727
 10
0.2128185008540599
 20
0.1982830539706838
  0
LWPOLYLINE
  5
10AC
330
2
100
AcDbEntity
  8
Profilo
  6
Continuous
370
     0
100
AcDbPolyline
 90
        2
 70
   128
 43
0.0
 10
0.2127826804647963
 20
0.1847160181217607
 10
0.2142990729431959
 20
0.1990321657639623
  0
LWPOLYLINE
  5
10AD
330
2
100
AcDbEntity
  8
Profilo
  6
Continuous
370
     0
100
AcDbPolyline
 90
        2
 70
   128
 43
0.0
 10
0.2080480408624474
 20
0.1818374166612634
 10
0.2061947096990764
 20
0.197330854725993
  0
LWPOLYLINE
  5
10AE
330
2
100
AcDbEntity
  8
Profilo
  6
Continuous
370
     0
100
AcDbPolyline
 90
        2
 70
   128
 43
0.0
 10
0.2010491732144146
 20
0.180745587391172
 10
0.1930495413686479
 20
0.192088862913275
  0
LWPOLYLINE
  5
10AF
330
2
100
AcDbEntity
  8
Profilo
  6
Continuous
370
     0
100
AcDbPolyline
 90
        2
 70
   128
 43
0.0
 10
0.2051031733512874
 20
0.1810820605379363
 10
0.2006086156269342
 20
0.1958225909962231
  0
LWPOLYLINE
  5
10B0
330
2
100
AcDbEntity
  8
Profilo
  6
Continuous
370
     0
100
AcDbPolyline
 90
        2
 70
   128
 43
0.0
 10
0.2064626176129574
 20
0.1832401447380495
 10
0.2031825717439109
 20
0.1958246953167196
  0
LWPOLYLINE
  5
10B1
330
2
100
AcDbEntity
  8
Profilo
  6
Continuous
370
     0
100
AcDbPolyline
 90
        2
 70
   128
 43
0.0
 10
0.2068921358218256
 20
0.1846325703367729
 10
0.2044426904040533
 20
0.1962022980455645
  0
LWPOLYLINE
  5
10B2
330
2
100
AcDbEntity
  8
Profilo
  6
Continuous
370
     0
100
AcDbPolyline
 90
        2
 70
   128
 43
0.0
 10
0.2032787627470292
 20
0.1804317735605839
 10
0.1971461308674858
 20
0.1936910382988522
  0
LWPOLYLINE
  5
10B3
330
2
100
AcDbEntity
  8
Profilo
  6
Continuous
370
     0
100
AcDbPolyline
 90
        2
 70
   128
 43
0.0
 10
0.1969598378630941
 20
0.1772306131739584
 10
0.1866001320745418
 20
0.1849827264443123
  0
LWPOLYLINE
  5
10B4
330
2
100
AcDbEntity
  8
Profilo
  6
Continuous
370
     0
100
AcDbPolyline
 90
        2
 70
   128
 43
0.0
 10
0.2013374688203022
 20
0.1812759245112322
 10
0.1942207466581029
 20
0.1924003558370194
  0
LWPOLYLINE
  5
10B5
330
2
100
AcDbEntity
  8
Profilo
  6
Continuous
370
     0
100
AcDbPolyline
 90
        2
 70
   128
 43
0.0
 10
0.1991772773234732
 20
0.1776211395415331
 10
0.1895381742027169
 20
0.1880226534300772
  0
LWPOLYLINE
  5
10B6
330
2
100
AcDbEntity
  8
Profilo
  6
Continuous
370
     0
100
AcDbPolyline
 90
        2
 70
   128
 43
0.0
 10
0.1941568355978145
 20
0.1726239999208124
 10
0.1822536184088887
 20
0.1766778815839326
  0
LWPOLYLINE
  5
10B7
330
2
100
AcDbEntity
  8
Profilo
  6
Continuous
370
     0
100
AcDbPolyline
 90
        2
 70
   128
 43
0.0
 10
0.1972388166502821
 20
0.1752790939079415
 10
0.1859104490577259
 20
0.183828947092281
  0
LWPOLYLINE
  5
10B8
330
2
100
AcDbEntity
  8
Profilo
  6
Continuous
370
     0
100
AcDbPolyline
 90
        2
 70
   128
 43
0.0
 10
0.1970701400948469
 20
0.1778240819894482
 10
0.1870010428422226
 20
0.1860924024319529
  0
LWPOLYLINE
  5
10B9
330
2
100
AcDbEntity
  8
Profilo
  6
Continuous
370
     0
100
AcDbPolyline
 90
        2
 70
   128
 43
0.0
 10
0.1965991803933704
 20
0.1792030424309824
 10
0.1875605260685722
 20
0.1873547267593744
  0
LWPOLYLINE
  5
10BA
330
2
100
AcDbEntity
  8
Profilo
  6
Continuous
370
     0
100
AcDbPolyline
 90
        2
 70
   128
 43
0.0
 10
0.1950836134286762
 20
0.1742733466412715
 10
0.1830986789249058
 20
0.1809656456255143
  0
LWPOLYLINE
  5
10BB
330
2
100
AcDbEntity
  8
Profilo
  6
Continuous
370
     0
100
AcDbPolyline
 90
        2
 70
   128
 43
0.0
 10
0.1940783473044654
 20
0.1732225075691306
 10
0.1824835515383487
 20
0.1777644519924201
  0
LWPOLYLINE
  5
10BC
330
2
100
AcDbEntity
  8
Profilo
  6
Continuous
370
     0
100
AcDbPolyline
 90
        2
 70
   128
 43
0.0
 10
0.1932043158004601
 20
0.1743884423313434
 10
0.1824948901004699
 20
0.1791669656612312
  0
LWPOLYLINE
  5
10BD
330
2
100
AcDbEntity
  8
Profilo
  6
Continuous
370
     0
100
AcDbPolyline
 90
        2
 70
   128
 43
0.0
 10
0.1944789443779164
 20
0.1689959957138941
 10
0.1806807486019242
 20
0.1717227739317949
  0
LWPOLYLINE
  5
10BE
330
2
100
AcDbEntity
  8
Profilo
  6
Continuous
370
     0
100
AcDbPolyline
 90
        2
 70
   128
 43
0.0
 10
0.1933545666752954
 20
0.1620022832311311
 10
0.1814559408914009
 20
0.1583207079934866
  0
LWPOLYLINE
  5
10BF
330
2
100
AcDbEntity
  8
Profilo
  6
Continuous
370
     0
100
AcDbPolyline
 90
        2
 70
   128
 43
0.0
 10
0.1942873166339982
 20
0.1659618423988663
 10
0.1834614596892932
 20
0.1661589228182353
  0
LWPOLYLINE
  5
10C0
330
2
100
AcDbEntity
  8
Profilo
  6
Continuous
370
     0
100
AcDbPolyline
 90
        2
 70
   128
 43
0.0
 10
0.192654947972529
 20
0.1679216354155945
 10
0.1832547891849776
 20
0.1684786926683629
  0
LWPOLYLINE
  5
10C1
330
2
100
AcDbEntity
  8
Profilo
  6
Continuous
370
     0
100
AcDbPolyline
 90
        2
 70
   128
 43
0.0
 10
0.1914634009593401
 20
0.168760414680415
 10
0.1810134296402967
 20
0.1698672947087391
  0
LWPOLYLINE
  5
10C2
330
2
100
AcDbEntity
  8
Profilo
  6
Continuous
370
     0
100
AcDbPolyline
 90
        2
 70
   128
 43
0.0
 10
0.1943420024198383
 20
0.1640257750780661
 10
0.1811685954686588
 20
0.1624499669502385
  0
LWPOLYLINE
  5
10C3
330
2
100
AcDbEntity
  8
Profilo
  6
Continuous
370
     0
100
AcDbPolyline
 90
        2
 70
   128
 43
0.0
 10
0.1950973585431646
 20
0.1610809075669061
 10
0.181551286683475
 20
0.1569505540437478
  0
LWPOLYLINE
  5
10C4
330
2
100
AcDbEntity
  8
Profilo
  6
Continuous
370
     0
100
AcDbPolyline
 90
        2
 70
   128
 43
0.0
 10
0.1929392743430513
 20
0.1624403518285761
 10
0.1813789386755973
 20
0.1594272580344212
  0
LWPOLYLINE
  5
10C5
330
2
100
AcDbEntity
  8
Profilo
  6
Continuous
370
     0
100
AcDbPolyline
 90
        2
 70
   128
 43
0.0
 10
0.1915468487443279
 20
0.1628698700374443
 10
0.1812904775084112
 20
0.1606984774032253
  0
LWPOLYLINE
  5
10C6
330
2
100
AcDbEntity
  8
Profilo
  6
Continuous
370
     0
100
AcDbPolyline
 90
        2
 70
   128
 43
0.0
 10
0.1989488059071425
 20
0.1529375720787128
 10
0.1914175776936293
 20
0.1428730508575365
  0
LWPOLYLINE
  5
10C7
330
2
100
AcDbEntity
  8
Profilo
  6
Continuous
370
     0
100
AcDbPolyline
 90
        2
 70
   128
 43
0.0
 10
0.197376045990862
 20
0.156689179405446
 10
0.1847458631638847
 20
0.1478595265761234
  0
LWPOLYLINE
  5
10C8
330
2
100
AcDbEntity
  8
Profilo
  6
Continuous
370
     0
100
AcDbPolyline
 90
        2
 70
   128
 43
0.0
 10
0.1949034945698686
 20
0.1573152030359209
 10
0.1828247537720839
 20
0.1495879727794137
  0
LWPOLYLINE
  5
10C9
330
2
100
AcDbEntity
  8
Profilo
  6
Continuous
370
     0
100
AcDbPolyline
 90
        2
 70
   128
 43
0.0
 10
0.1934464907048126
 20
0.1572934159539246
 10
0.1834258801407378
 20
0.1515188120920116
  0
LWPOLYLINE
  5
10CA
330
2
100
AcDbEntity
  8
Profilo
  6
Continuous
370
     0
100
AcDbPolyline
 90
        2
 70
   128
 43
0.0
 10
0.1985582795395677
 20
0.1551550115390919
 10
0.1868334104156952
 20
0.1442895525517364
  0
LWPOLYLINE
  5
10CB
330
2
100
AcDbEntity
  8
Profilo
  6
Continuous
370
     0
100
AcDbPolyline
 90
        2
 70
   128
 43
0.0
 10
0.2035554191602884
 20
0.1501345698134323
 10
0.1996382307082713
 20
0.1386327183068897
  0
LWPOLYLINE
  5
10CC
330
2
100
AcDbEntity
  8
Profilo
  6
Continuous
370
     0
100
AcDbPolyline
 90
        2
 70
   128
 43
0.0
 10
0.1991732366692957
 20
0.1372673787391773
 10
0.1991028935019265
 20
0.1370608334898246
  0
LWPOLYLINE
  5
10CD
330
2
100
AcDbEntity
  8
Profilo
  6
Continuous
370
     0
100
AcDbPolyline
 90
        2
 70
   128
 43
0.0
 10
0.2009003251731594
 20
0.1532165508659008
 10
0.1924639719096692
 20
0.1420385681743931
  0
LWPOLYLINE
  5
10CE
330
2
100
AcDbEntity
  8
Profilo
  6
Continuous
370
     0
100
AcDbPolyline
 90
        2
 70
   128
 43
0.0
 10
0.2019060724398294
 20
0.1510613476442958
 10
0.1960291646316188
 20
0.140536660189066
  0
LWPOLYLINE
  5
10CF
330
2
100
AcDbEntity
  8
Profilo
  6
Continuous
370
     0
100
AcDbPolyline
 90
        2
 70
   128
 43
0.0
 10
0.208802744047988
 20
0.1488922780255829
 10
0.2086180456296853
 20
0.135784961475652
  0
LWPOLYLINE
  5
10D0
330
2
100
AcDbEntity
  8
Profilo
  6
Continuous
370
     0
100
AcDbPolyline
 90
        2
 70
   128
 43
0.0
 10
0.2053252150885987
 20
0.1510029470249446
 10
0.200297122255451
 20
0.1364357726321373
  0
LWPOLYLINE
  5
10D1
330
2
100
AcDbEntity
  8
Profilo
  6
Continuous
370
     0
100
AcDbPolyline
 90
        2
 70
   128
 43
0.0
 10
0.2029569115119703
 20
0.150056081520085
 10
0.1994771331249607
 20
0.1411728112841412
  0
LWPOLYLINE
  5
10D2
330
2
100
AcDbEntity
  8
Profilo
  6
Continuous
370
     0
100
AcDbPolyline
 90
        2
 70
   128
 43
0.0
 10
0.2017909767497583
 20
0.1491820500160789
 10
0.1983517599330753
 20
0.1414742217976722
  0
LWPOLYLINE
  5
10D3
330
2
100
AcDbEntity
  8
Profilo
  6
Continuous
370
     0
100
AcDbPolyline
 90
        2
 70
   128
 43
0.0
 10
0.2071834233672067
 20
0.1504566785935352
 10
0.2041961387183795
 20
0.1353402535933145
  0
LWPOLYLINE
  5
10D4
330
2
100
AcDbEntity
  8
Profilo
  6
Continuous
370
     0
100
AcDbPolyline
 90
        2
 70
   128
 43
0.0
 10
0.2082577836655064
 20
0.1486326821881468
 10
0.2075003003063109
 20
0.1358503984642078
  0
LWPOLYLINE
  5
10D5
330
2
100
AcDbEntity
  8
Profilo
  6
Continuous
370
     0
100
AcDbPolyline
 90
        2
 70
   128
 43
0.0
 10
0.2121536440030347
 20
0.1503197366354562
 10
0.2139409810822528
 20
0.1353779944984063
  0
LWPOLYLINE
  5
10D6
330
2
100
AcDbEntity
  8
Profilo
  6
Continuous
370
     0
100
AcDbPolyline
 90
        2
 70
   128
 43
0.0
 10
0.2191525116510675
 20
0.1514115659055476
 10
0.2263967043942179
 20
0.1411394839141432
  0
LWPOLYLINE
  5
10D7
330
2
100
AcDbEntity
  8
Profilo
  6
Continuous
370
     0
100
AcDbPolyline
 90
        2
 70
   128
 43
0.0
 10
0.2150985115141948
 20
0.1510750927587833
 10
0.2194301022951794
 20
0.1368690351763043
  0
LWPOLYLINE
  5
10D8
330
2
100
AcDbEntity
  8
Profilo
  6
Continuous
370
     0
100
AcDbPolyline
 90
        2
 70
   128
 43
0.0
 10
0.2137390672525248
 20
0.1489170085586701
 10
0.2170570471628173
 20
0.1361869164602244
  0
LWPOLYLINE
  5
10D9
330
2
100
AcDbEntity
  8
Profilo
  6
Continuous
370
     0
100
AcDbPolyline
 90
        2
 70
   128
 43
0.0
 10
0.2133095490436565
 20
0.1475245829599466
 10
0.2157963657182238
 20
0.1357783355940477
  0
LWPOLYLINE
  5
10DA
330
2
100
AcDbEntity
  8
Profilo
  6
Continuous
370
     0
100
AcDbPolyline
 90
        2
 70
   128
 43
0.0
 10
0.216922922118453
 20
0.1517253797361356
 10
0.22262541051595
 20
0.1393961213011837
  0
LWPOLYLINE
  5
10DB
330
2
100
AcDbEntity
  8
Profilo
  6
Continuous
370
     0
100
AcDbPolyline
 90
        2
 70
   128
 43
0.0
 10
0.2194902396756548
 20
0.1533537802064807
 10
0.2273140522371229
 20
0.1421623794837731
  0
LWPOLYLINE
  5
10DC
330
2
100
AcDbEntity
  8
Profilo
  6
Continuous
370
     0
100
AcDbPolyline
 90
        2
 70
   128
 43
0.0
 10
0.2210244075420089
 20
0.1545360137551864
 10
0.2313636324519237
 20
0.1433790015155648
  0
LWPOLYLINE
  5
10DD
330
2
100
AcDbEntity
  8
Profilo
  6
Continuous
370
     0
100
AcDbPolyline
 90
        2
 70
   128
 43
0.0
 10
0.2260448492676685
 20
0.1595331533759071
 10
0.2394867867484969
 20
0.1549552293570934
  0
LWPOLYLINE
  5
10DE
330
2
100
AcDbEntity
  8
Profilo
  6
Continuous
370
     0
100
AcDbPolyline
 90
        2
 70
   128
 43
0.0
 10
0.2229628682152001
 20
0.1568780593887781
 10
0.23526330821075
 20
0.1475945544878748
  0
LWPOLYLINE
  5
10DF
330
2
100
AcDbEntity
  8
Profilo
  6
Continuous
370
     0
100
AcDbPolyline
 90
        2
 70
   128
 43
0.0
 10
0.2236025044721117
 20
0.1529541108657372
 10
0.2328075586863258
 20
0.1446523555951388
  0
LWPOLYLINE
  5
10E0
330
2
100
AcDbEntity
  8
Profilo
  6
Continuous
370
     0
100
AcDbPolyline
 90
        2
 70
   128
 43
0.0
 10
0.2251180714368059
 20
0.1578838066554481
 10
0.2379531572546965
 20
0.1507167894510813
  0
LWPOLYLINE
  5
10E1
330
2
100
AcDbEntity
  8
Profilo
  6
Continuous
370
     0
100
AcDbPolyline
 90
        2
 70
   128
 43
0.0
 10
0.2251764720561562
 20
0.1613029493042174
 10
0.2396023868924129
 20
0.1563236144624794
  0
LWPOLYLINE
  5
10E2
330
2
100
AcDbEntity
  8
Profilo
  6
Continuous
370
     0
100
AcDbPolyline
 90
        2
 70
   128
 43
0.0
 10
0.2261233375610168
 20
0.158934645727589
 10
0.2393679185223156
 20
0.1537464430330856
  0
LWPOLYLINE
  5
10E3
330
2
100
AcDbEntity
  8
Profilo
  6
Continuous
370
     0
100
AcDbPolyline
 90
        2
 70
   128
 43
0.0
 10
0.2269973690650229
 20
0.157768710965377
 10
0.2389264740075081
 20
0.1524459693105741
  0
LWPOLYLINE
  5
10E4
330
2
100
AcDbEntity
  8
Profilo
  6
Continuous
370
     0
100
AcDbPolyline
 90
        2
 70
   128
 43
0.0
 10
0.2268471181901868
 20
0.1701548700655894
 10
0.241159921337073
 20
0.1745834202699478
  0
LWPOLYLINE
  5
10E5
330
2
100
AcDbEntity
  8
Profilo
  6
Continuous
370
     0
100
AcDbPolyline
 90
        2
 70
   128
 43
0.0
 10
0.2259143682314839
 20
0.1661953108978532
 10
0.2413223404965095
 20
0.1659148148917521
  0
LWPOLYLINE
  5
10E6
330
2
100
AcDbEntity
  8
Profilo
  6
Continuous
370
     0
100
AcDbPolyline
 90
        2
 70
   128
 43
0.0
 10
0.227546736892954
 20
0.1642355178811251
 10
0.2423053197550651
 20
0.1633609182270418
  0
LWPOLYLINE
  5
10E7
330
2
100
AcDbEntity
  8
Profilo
  6
Continuous
370
     0
100
AcDbPolyline
 90
        2
 70
   128
 43
0.0
 10
0.228738283906142
 20
0.1633967386163054
 10
0.2422477741680939
 20
0.161965788759386
  0
LWPOLYLINE
  5
10E8
330
2
100
AcDbEntity
  8
Profilo
  6
Continuous
370
     0
100
AcDbPolyline
 90
        2
 70
   128
 43
0.0
 10
0.2258596824456447
 20
0.1681313782186534
 10
0.241058069855459
 20
0.1699494153064788
  0
LWPOLYLINE
  5
10E9
330
2
100
AcDbEntity
  8
Profilo
  6
Continuous
370
     0
100
AcDbPolyline
 90
        2
 70
   128
 43
0.0
 10
0.2272624105224308
 20
0.1697168014681435
 10
0.2415689230811102
 20
0.1734456606852611
  0
LWPOLYLINE
  5
10EA
330
2
100
AcDbEntity
  8
Profilo
  6
Continuous
370
     0
100
AcDbPolyline
 90
        2
 70
   128
 43
0.0
 10
0.2286548361211542
 20
0.1692872832592752
 10
0.2417875840576436
 20
0.1720676381704241
  0
LWPOLYLINE
  5
10EB
330
2
100
AcDbEntity
  8
Profilo
  6
Continuous
370
     0
100
AcDbPolyline
 90
        2
 70
   128
 43
0.0
 10
0.2212528789583397
 20
0.1792195812180067
 10
0.2302291434421555
 20
0.1912152082024806
  0
LWPOLYLINE
  5
10EC
330
2
100
AcDbEntity
  8
Profilo
  6
Continuous
370
     0
100
AcDbPolyline
 90
        2
 70
   128
 43
0.0
 10
0.222825638874621
 20
0.1754679738912735
 10
0.2354558217015974
 20
0.1842976267205961
  0
LWPOLYLINE
  5
10ED
330
2
100
AcDbEntity
  8
Profilo
  6
Continuous
370
     0
100
AcDbPolyline
 90
        2
 70
   128
 43
0.0
 10
0.2252981902956135
 20
0.1748419502607986
 10
0.2374749515164245
 20
0.182631887912989
  0
LWPOLYLINE
  5
10EE
330
2
100
AcDbEntity
  8
Profilo
  6
Continuous
370
     0
100
AcDbPolyline
 90
        2
 70
   128
 43
0.0
 10
0.2267551941606696
 20
0.1748637373427958
 10
0.2383515053827061
 20
0.1815463744075253
  0
LWPOLYLINE
  5
10EF
330
2
100
AcDbEntity
  8
Profilo
  6
Continuous
370
     0
100
AcDbPolyline
 90
        2
 70
   128
 43
0.0
 10
0.2216434053259144
 20
0.1770021417576276
 10
0.2317928301738936
 20
0.1864076334749239
  0
LWPOLYLINE
  5
10F0
330
2
100
AcDbEntity
  8
Profilo
  6
Continuous
370
     0
100
AcDbPolyline
 90
        2
 70
   128
 43
0.0
 10
0.2182956124256528
 20
0.1810958056524247
 10
0.2260856965288855
 20
0.1950467137000088
  0
LWPOLYLINE
  5
10F1
330
2
100
AcDbEntity
  8
Profilo
  6
Continuous
370
     0
100
AcDbPolyline
 90
       10
 70
   128
 43
0.0
 10
0.2363490669136716
 20
0.1894010579228648
 10
0.2363706720335426
 20
0.1893835858118126
 10
0.2377469513799104
 20
0.1872558704141117
 10
0.2384151751328138
 20
0.1855490070640638
 10
0.2392318936424607
 20
0.183471088361017
 10
0.2402342305980403
 20
0.1823579172676436
 10
0.2414593070362869
 20
0.1813189579161197
 10
0.242610136096161
 20
0.1800202599853095
 10
0.243166988781506
 20
0.1783876083771111
 10
0.2432795096678868
 20
0.1771414378147841
  0
LWPOLYLINE
  5
10F2
330
2
100
AcDbEntity
  8
Profilo
  6
Continuous
370
     0
100
AcDbPolyline
 90
        2
 70
   128
 43
0.0
 10
0.2435882905312141
 20
0.1737216849629916
 10
0.2436081340381939
 20
0.1735019178153382
  0
LWPOLYLINE
  5
10F3
330
2
100
AcDbEntity
  8
Profilo
  6
Continuous
370
     0
100
AcDbPolyline
 90
       12
 70
   128
 43
0.0
 10
0.2441044852223611
 20
0.1680048207502559
 10
0.2442434802797102
 20
0.1664654483337412
 10
0.2443919723840047
 20
0.1624951377650835
 10
0.2439451061873576
 20
0.1607753897678171
 10
0.2428685218534055
 20
0.1595137951907438
 10
0.2421260507221303
 20
0.1589201046121945
 10
0.2417176927935323
 20
0.1580666737762336
 10
0.2415320743476004
 20
0.1561000718468984
 10
0.2413062235411676
 20
0.1534144552521565
 10
0.2406008760990783
 20
0.1513365365491096
 10
0.239709910211058
 20
0.1497409916508995
 10
0.2388009911720088
 20
0.1487975675659799
  0
LWPOLYLINE
  5
10F4
330
2
100
AcDbEntity
  8
Profilo
  6
Continuous
370
     0
100
AcDbPolyline
 90
       15
 70
   128
 43
0.0
 10
0.2373148654311894
 20
0.1460396410789525
 10
0.2370741388886328
 20
0.1455851542448049
 10
0.2354778255585233
 20
0.1441009261203064
 10
0.2340671333267954
 20
0.1431732835424951
 10
0.2333617858847052
 20
0.1425424879320846
 10
0.2325079436858717
 20
0.1418003738698353
 10
0.2317283488654098
 20
0.1410953648394483
 10
0.2309487540449489
 20
0.1410582598075861
 10
0.2301320355353003
 20
0.1411324715494356
 10
0.2292781959889165
 20
0.1411324715494356
 10
0.2289069590970536
 20
0.1410211530975979
 10
0.22823362672559
 20
0.1403054963612201
 10
0.22763965035106
 20
0.139600487330834
 10
0.2267115607738539
 20
0.1384502112055975
 10
0.225614374343194
 20
0.137430062069848
  0
LWPOLYLINE
  5
10F5
330
2
100
AcDbEntity
  8
Profilo
  6
Continuous
370
     0
100
AcDbPolyline
 90
       16
 70
   128
 43
0.0
 10
0.217180275056811
 20
0.1341980878401657
 10
0.2156116227988081
 20
0.1336635765109663
 10
0.2131243435806782
 20
0.1332925194798421
 10
0.211045424943598
 20
0.1332925194798421
 10
0.2096347300594195
 20
0.1334780479954042
 10
0.2084467773103586
 20
0.1338491050265292
 10
0.2078528009358287
 20
0.1339233167683788
 10
0.2069874179273592
 20
0.1338804725474717
 10
0.2059850809717796
 20
0.1336578373219214
 10
0.2047228808443471
 20
0.133398098742635
 10
0.2034978044060995
 20
0.133398098742635
 10
0.2024583437613341
 20
0.1335465205482097
 10
0.2010476515296062
 20
0.1338062608056213
 10
0.1999339435064682
 20
0.1341031060948968
 10
0.1995627092670551
 20
0.1342886346104589
 10
0.1987727412327089
 20
0.1348809373255343
  0
LWPOLYLINE
  5
10F6
330
2
100
AcDbEntity
  8
Profilo
  6
Continuous
370
     0
100
AcDbPolyline
 90
       21
 70
   128
 43
0.0
 10
0.1909795489082446
 20
0.1407365970507105
 10
0.1904873916266245
 20
0.1411301355988072
 10
0.1892251888467413
 20
0.1412785574043819
 10
0.1877402492366409
 20
0.1413527691462314
 10
0.1865522938351294
 20
0.1417609312092186
 10
0.1857727016671182
 20
0.1423917284977553
 10
0.1849188594682838
 20
0.1436533213967034
 10
0.1837309067192239
 20
0.1454343948104765
 10
0.1828399408312027
 20
0.1461022988090005
 10
0.1820974696999276
 20
0.146918622934974
 10
0.1812807511902799
 20
0.1478833722227736
 10
0.1808723932616809
 20
0.1487368030587345
 10
0.1808352695724951
 20
0.1493304936372838
 10
0.1809837643292393
 20
0.1505178764725076
 10
0.1814663696362109
 20
0.1513342005984811
 10
0.1815406170145834
 20
0.1524102666599923
 10
0.1813549985686524
 20
0.153412119301528
 10
0.1808352695724951
 20
0.154117128331915
 10
0.1801299221304049
 20
0.1548963474260264
 10
0.179721561549357
 20
0.1552674044571506
 10
0.1797083379148852
 20
0.1554574329272816
  0
LWPOLYLINE
  5
10F7
330
2
100
AcDbEntity
  8
Profilo
  6
Continuous
370
     0
100
AcDbPolyline
 90
       22
 70
   128
 43
0.0
 10
0.1788531062844347
 20
0.167747424660689
 10
0.1788337122900003
 20
0.1680261234631909
 10
0.1790935781143048
 20
0.1695474566195515
 10
0.1789822070467455
 20
0.1706606277129249
 10
0.17864809649652
 20
0.1716995870644488
 10
0.17864809649652
 20
0.1729982866733842
 10
0.1789450833575596
 20
0.1738517175093451
 10
0.1796133071104622
 20
0.1748164651190195
 10
0.1800587887282479
 20
0.1760038479542433
 10
0.1805413966876692
 20
0.1777849213680155
 10
0.1805413966876692
 20
0.1791578327188014
 10
0.1807307975271968
 20
0.1809862225578102
 10
0.1812134054866181
 20
0.1818767584256332
 10
0.1820301213438169
 20
0.1826188724878824
 10
0.1829582109210239
 20
0.1836207268075433
 10
0.1840719162917113
 20
0.1845854744172176
 10
0.1847401400446147
 20
0.1855502237050163
 10
0.185222748004036
 20
0.1868860283458148
 10
0.1858538480677527
 20
0.1882960447284628
 10
0.1865963191990278
 20
0.1894092158218362
 10
0.1875615298129709
 20
0.1904110684633718
 10
0.1877595738889504
 20
0.1905605971696661
  0
LWPOLYLINE
  5
10F8
330
2
100
AcDbEntity
  8
Profilo
  6
Continuous
370
     0
100
AcDbPolyline
 90
       16
 70
   128
 43
0.0
 10
0.1909282800183094
 20
0.1929530571602188
 10
0.1916512442156435
 20
0.1934989149476286
 10
0.1926907022079591
 20
0.1941668172680283
 10
0.1933960496500475
 20
0.1943152390736021
 10
0.1944726339839997
 20
0.1943523457835904
 10
0.196143192040032
 20
0.195354198425126
 10
0.1970712816172382
 20
0.1964302644866372
 10
0.198259234366299
 20
0.1973208003544612
 10
0.1991130765651334
 20
0.1978402808692853
 10
0.2000411661423405
 20
0.1980258093848474
 10
0.2009321293779109
 20
0.19798870267486
 10
0.202268576883716
 20
0.1977289640955736
 10
0.2031224190825505
 20
0.1977660691274358
 10
0.2044217428991697
 20
0.1982855496422599
 10
0.2051642140304457
 20
0.1990647687363712
 10
0.2051986443975213
 20
0.1990787910151955
  0
LWPOLYLINE
  5
10F9
330
2
100
AcDbEntity
  8
Profilo
  6
Continuous
370
     0
100
AcDbPolyline
 90
       17
 70
   128
 43
0.0
 10
0.208522595951786
 20
0.2004325196986362
 10
0.2085513819781521
 20
0.2004442432357986
 10
0.2109272874762738
 20
0.2009637237506236
 10
0.2128948376982453
 20
0.2011863572980478
 10
0.2150851247504359
 20
0.2011121455561974
 10
0.2167185617697314
 20
0.2007039834932111
 10
0.2182406277214683
 20
0.1998876576891123
 10
0.2192058383354114
 20
0.1990713335631388
 10
0.2200968042234317
 20
0.1985518530483138
 10
0.2215817464859828
 20
0.1984034295646139
 10
0.2239576519841044
 20
0.1980323725334888
 10
0.2255168416250273
 20
0.1976242104705025
 10
0.2275586365729225
 20
0.1964368276352787
 10
0.2292663183181407
 20
0.1951752347363306
 10
0.2312847478346232
 20
0.1935765299278945
 10
0.2322870847902028
 20
0.1926859923819463
 10
0.2327541916738429
 20
0.1923082419508749
  0
LWPOLYLINE
  5
10FA
330
2
100
AcDbEntity
  8
Profilo
  6
Continuous
370
     0
100
AcDbPolyline
 90
      422
 70
   129
 43
0.0
 10
0.1821589534892487
 20
0.2047928737625354
 10
0.1828530837205946
 20
0.2056758882720854
 10
0.1835472139519396
 20
0.206495828758407
 10
0.1845568584070696
 20
0.2070634815424474
 10
0.1854402992946449
 20
0.2071265538875497
 10
0.1861975313097677
 20
0.2066850474718373
 10
0.1867023535373322
 20
0.206306611723102
 10
0.1873964837686772
 20
0.206306611723102
 10
0.1883430264400303
 20
0.206495828758407
 10
0.1890371566713762
 20
0.2066850474718373
 10
0.1900468011265053
 20
0.2068111921620409
 10
0.190740934010301
 20
0.207000409197346
 10
0.1913088580216424
 20
0.2076311343264886
 10
0.1915612678091998
 20
0.2085141471579116
 10
0.1921291944729919
 20
0.2092079446321557
 10
0.1925709149167796
 20
0.2097755974161969
 10
0.193138838928121
 20
0.2103432485221121
 10
0.1932650451481255
 20
0.2110370459963561
 10
0.1935174549356828
 20
0.212046205196108
 10
0.1940222771632474
 20
0.2131815090860644
 10
0.1945902038270395
 20
0.2140645235956135
 10
0.1952843340583845
 20
0.2146952487247561
 10
0.1962308767297376
 20
0.2150106104502648
 10
0.19717741674864
 20
0.215199827485569
 10
0.1983763692075504
 20
0.215199827485569
 10
0.1999539403264725
 20
0.2148844657600612
 10
0.2005849687740406
 20
0.2146952487247561
 10
0.2019732292367315
 20
0.2143798853211222
 10
0.2029197719080837
 20
0.2143798853211222
 10
0.2050652670383473
 20
0.2142537406309185
 10
0.2063904257172613
 20
0.2146952487247561
 10
0.2072107621686099
 20
0.2155151892110777
 10
0.2081573021875132
 20
0.2165243484108305
 10
0.2095455653026539
 20
0.2170289288497694
 10
0.2104921053215571
 20
0.2169027841595658
 10
0.2113124417729058
 20
0.2166504947791593
 10
0.2120065720042517
 20
0.2166504947791593
 10
0.2134579369031693
 20
0.2166504947791593
 10
0.2138996573469569
 20
0.2166504947791593
 10
0.2150355080220905
 20
0.2160197696500167
 10
0.2154141240296514
 20
0.2155151892110777
 10
0.2156665338172088
 20
0.2147583210698575
 10
0.2154772258134283
 20
0.2141906682858171
 10
0.2150986098058674
 20
0.213812234215207
 10
0.2150355080220905
 20
0.2133707261213694
 10
0.2151170231132644
 20
0.2129603472546612
 10
0.2153462319213055
 20
0.2127007009722738
 10
0.2158504918294861
 20
0.2126701557328027
 10
0.2186344661391635
 20
0.2126293739280757
 10
0.2199951411226078
 20
0.2125538163296134
 10
0.2222024622082328
 20
0.2122515892920153
 10
0.2253381009817579
 20
0.2116855038771463
 10
0.226573537889422
 20
0.2113767925628033
 10
0.2269741135299341
 20
0.2114025752822427
 10
0.2274432311290235
 20
0.2116583350260831
 10
0.2277417617159214
 20
0.2120632885132067
 10
0.2282108819674615
 20
0.2124256159357313
 10
0.2287652943988725
 20
0.2126813756795726
 10
0.2292983864377645
 20
0.2127453156155327
 10
0.2300233885338168
 20
0.2126600618082105
 10
0.2304498600429712
 20
0.2122977360638111
 10
0.2308550085071577
 20
0.2118501548339643
 10
0.2310042724743821
 20
0.2113812614108807
 10
0.2312388339263771
 20
0.2107205481799167
 10
0.2313454518036657
 20
0.210294280821432
 10
0.2318450487048729
 20
0.2100800009825051
 10
0.2327406404655674
 20
0.2101652547898273
 10
0.2337428501035497
 20
0.2105062683409907
 10
0.23495829549611
 20
0.2106767759556351
 10
0.2362163869786054
 20
0.2106767759556351
 10
0.237111978739299
 20
0.2102078808544262
 10
0.2379435987126399
 20
0.2094832276875022
 10
0.2383061010868914
 20
0.2089077665857343
 10
0.2383700702217943
 20
0.2082896810974945
 10
0.2382634523445066
 20
0.2076715939311286
 10
0.2378796269252881
 20
0.2070535067647627
 10
0.2376024220358071
 20
0.20664855327764
 10
0.2375597732934214
 20
0.2061583459831943
 10
0.2377943347454163
 20
0.2057533924960707
 10
0.2382634523445066
 20
0.205284499072988
 10
0.2390311031829446
 20
0.2047303518425822
 10
0.2404250558031791
 20
0.2036541263591526
 10
0.2417257933756103
 20
0.2024392658977837
 10
0.2428559465882989
 20
0.2013309714369721
 10
0.2435596229869343
 20
0.2003292446548456
 10
0.2439860971485386
 20
0.2000734849110043
 10
0.2448390401668474
 20
0.2000734849110043
 10
0.2454147782956753
 20
0.2000521710396431
 10
0.2457772780174761
 20
0.1996045914879215
 10
0.2461397803917276
 20
0.1990078165147916
 10
0.2463530161463048
 20
0.1988586244496345
 10
0.2469927234100373
 20
0.1989012505142335
 10
0.2475258127964794
 20
0.1989012505142335
 10
0.2480589021829225
 20
0.1986881168349911
 10
0.2485066993894947
 20
0.1981552834759473
 10
0.2488970286159358
 20
0.1971447851320843
 10
0.2490676156281273
 20
0.1963988180937982
 10
0.2494514410473467
 20
0.1957167909914722
 10
0.2501124740084961
 20
0.1951626437610664
 10
0.2503043867181054
 20
0.1945871843374246
 10
0.2503043867181054
 20
0.1939264711064607
 10
0.2501551200984311
 20
0.1929034304529721
 10
0.2498779125565012
 20
0.1920082696714037
 10
0.2498992382539189
 20
0.1910278550825123
 10
0.2498992382539189
 20
0.1899195606217016
 10
0.2500698252661104
 20
0.188789953967654
 10
0.2507095351822919
 20
0.1879161070574476
 10
0.2512639476137028
 20
0.1871062000832014
 10
0.2520102727547222
 20
0.186829126467999
 10
0.2524367442638766
 20
0.1869143802753211
 10
0.2528845414704488
 20
0.1873406459556807
 10
0.2532896899346362
 20
0.1875750935062851
 10
0.2538441023660463
 20
0.1875750935062851
 10
0.2544838096297779
 20
0.187532465763561
 10
0.2549102837913821
 20
0.1872127660837596
 10
0.2552727835131829
 20
0.1867012465960779
 10
0.2556352858874344
 20
0.1859339656864306
 10
0.2556139628424665
 20
0.1854224445206228
 10
0.2557256840334157
 20
0.1845951924417085
 10
0.2560028915753465
 20
0.1842754927619071
 10
0.2561948042849558
 20
0.1838705392747836
 10
0.2566212757941102
 20
0.1834442719162989
 10
0.2568131885037204
 20
0.1828048708785709
 10
0.2568558345936553
 20
0.1818457701610424
 10
0.2570903960456503
 20
0.1812276829946765
 10
0.2576874545669963
 20
0.1807801034429549
 10
0.2581992209084714
 20
0.1803751499558322
 10
0.2584764284504022
 20
0.1797357489181043
 10
0.2586256950700756
 20
0.1790750356871403
 10
0.2586896642049785
 20
0.178201188776934
 10
0.2587536359923321
 20
0.177561787739206
 10
0.25905216657923
 20
0.1771142081874845
 10
0.2593506971661288
 20
0.1766453147644017
 10
0.2596279020556089
 20
0.1759206599193516
 10
0.2594786380883844
 20
0.1749615592018231
 10
0.259073489624198
 20
0.1744500397141414
 10
0.258604687666649
 20
0.1737335439150377
 10
0.2582421852923984
 20
0.1732859643633161
 10
0.2580715956277562
 20
0.1727318171329112
 10
0.2580502725827882
 20
0.1715808966075015
 10
0.2580076264928532
 20
0.1700889608528041
 10
0.257794390738276
 20
0.1695774413651215
 10
0.257815713783244
 20
0.1690659201993146
 10
0.2579010086155646
 20
0.1684691469043108
 10
0.2584456335067422
 20
0.1656918392130143
 10
0.2586091278678282
 20
0.1634040272909719
 10
0.2584456335067422
 20
0.1611162153689295
 10
0.2582276419094454
 20
0.1592641773860562
 10
0.2579006531872743
 20
0.1571942515945349
 10
0.2579006531872743
 20
0.1559414017291906
 10
0.2578461559510625
 20
0.1538714776157953
 10
0.2578461559510625
 20
0.1530544016896192
 10
0.2580641475483594
 20
0.1516926095980765
 10
0.2582327346133066
 20
0.1508876916907978
 10
0.258119859606639
 20
0.1503799949728951
 10
0.2577812319341852
 20
0.1497782812765614
 10
0.2574426042617324
 20
0.1495150320588293
 10
0.2570099154099479
 20
0.1491765675802278
 10
0.256295035062819
 20
0.1490637455279849
 10
0.2555801547156902
 20
0.1491953709759136
 10
0.255034590857238
 20
0.1495526388502019
 10
0.2546959631847852
 20
0.1502483712030916
 10
0.2541880216761054
 20
0.1506056390773799
 10
0.253736518996984
 20
0.1506808526601241
 10
0.2531157024816366
 20
0.1506808526601241
 10
0.2526641998025161
 20
0.1503423881815226
 10
0.2523255747825122
 20
0.1497594778808747
 10
0.2524008247869576
 20
0.1491953709759136
 10
0.252701827457189
 20
0.1487064776536976
 10
0.2529840163000827
 20
0.1481423707487356
 10
0.2529840163000827
 20
0.1475406570524028
 10
0.2530142621866069
 20
0.1467036651333656
 10
0.2527885121732716
 20
0.1461207548327187
 10
0.2524122594985956
 20
0.1456130597929411
 10
0.2517161929788028
 20
0.1453874156884564
 10
0.2511330014656785
 20
0.1453874156884564
 10
0.2503428711141042
 20
0.1453874156884564
 10
0.2496844295965337
 20
0.1451053630750384
 10
0.2493458019240808
 20
0.1445036493787047
 10
0.2491953019151909
 20
0.1438455238171875
 10
0.2494398657558632
 20
0.1429805592249965
 10
0.2498161184305383
 20
0.1424916675809048
 10
0.2502864349369949
 20
0.1419463640716304
 10
0.2508131876205617
 20
0.1416831131757731
 10
0.2513399403041276
 20
0.1415138809364719
 10
0.2520171929965835
 20
0.1411190062708111
 10
0.2522429456623696
 20
0.1402164348872484
 10
0.2521488818305881
 20
0.1396147211909148
 10
0.2517538179810259
 20
0.1390506142859537
 10
0.2511330014656785
 20
0.1384112921201223
 10
0.2504369349458857
 20
0.1382044530894485
 10
0.2496091795920892
 20
0.1379412038717173
 10
0.2491388630856317
 20
0.1376779529758599
 10
0.2489131130722972
 20
0.1369634189054095
 10
0.2489131130722972
 20
0.1363993120004484
 10
0.2487597271978856
 20
0.1356930812947324
 10
0.2484210995254319
 20
0.1355802609206157
 10
0.2479884106736474
 20
0.1354110286813145
 10
0.2478567218396437
 20
0.1351289743897713
 10
0.2475933441716354
 20
0.1351289743897713
 10
0.2472170914969594
 20
0.1349785455461568
 10
0.2469349026540657
 20
0.1346024742761828
 10
0.2468408414747341
 20
0.1340947792364052
 10
0.2466715276385072
 20
0.1338503317362337
 10
0.2462200249593867
 20
0.1336999028926192
 10
0.2457685222802652
 20
0.1336810994969334
 10
0.2453546446033679
 20
0.1336999028926192
 10
0.2449031419242473
 20
0.1332674214355868
 10
0.2446962030857973
 20
0.1325528856870103
 10
0.2443199504111213
 20
0.1319699753863633
 10
0.2438872615593377
 20
0.1312178328464152
 10
0.2435221783513066
 20
0.1308962989754948
 10
0.2429013618359592
 20
0.1305202277055207
 10
0.242336984150171
 20
0.1304262090489646
 10
0.2416221038030422
 20
0.1304262090489646
 10
0.2411141622943624
 20
0.1307646735275661
 10
0.2408507872788039
 20
0.1313287804325282
 10
0.2404933457790142
 20
0.1316484415154439
 10
0.2398913430910037
 20
0.1319116907331751
 10
0.2391576515689886
 20
0.1318740839418026
 10
0.2388942739009803
 20
0.131535619463201
 10
0.2385368350536412
 20
0.1307458701318803
 10
0.2383487100425281
 20
0.1301817632269192
 10
0.2381041462018567
 20
0.1297304783742
 10
0.2373892658547279
 20
0.1297304783742
 10
0.2367872631667165
 20
0.1300313343833047
 10
0.2358654439811385
 20
0.1304450141227765
 10
0.2351505662864595
 20
0.1305014243098349
 10
0.2341911220986592
 20
0.1304450141227765
 10
0.2335891194106479
 20
0.1300877462484883
 10
0.2329683028953005
 20
0.1296928699047023
 10
0.2326673002250699
 20
0.1288843171776958
 10
0.2326673002250699
 20
0.1280757644506883
 10
0.2328178002339607
 20
0.1275492643370998
 10
0.2335266780869034
 20
0.1267853917002445
 10
0.2337524281002388
 20
0.1262024813995967
 10
0.2338088669297971
 20
0.1255067490467069
 10
0.2336771780957934
 20
0.1248486251633148
 10
0.2331880504144506
 20
0.1242281063931693
 10
0.2324919838946577
 20
0.1235511791140914
 10
0.2321345450473178
 20
0.1231939112398032
 10
0.2318523535519743
 20
0.1223665534389847
 10
0.2313444146957444
 20
0.1216708227642201
 10
0.2306483481759516
 20
0.1212007328376899
 10
0.2295948401563699
 20
0.1209938938070171
 10
0.2287670874550232
 20
0.1210503039940755
 10
0.2274125794176607
 20
0.1209562870156445
 10
0.2264907602320827
 20
0.1209374836199578
 10
0.2256441937033999
 20
0.1212195362333758
 10
0.2252115021991656
 20
0.1215956075033507
 10
0.2245906856838182
 20
0.1217460363469652
 10
0.2238381829869169
 20
0.1215580007119782
 10
0.2235371803166855
 20
0.1209562870156445
 10
0.2231609276420103
 20
0.1201665360061986
 10
0.222558924953999
 20
0.1198280732057214
 10
0.2215430419366395
 20
0.1198280732057214
 10
0.2209222280737419
 20
0.120429786902056
 10
0.2204330977399493
 20
0.1208622683590884
 10
0.2198651498565578
 20
0.1211297498092091
 10
0.2195220289339268
 20
0.1214595132073438
 10
0.2193900615926809
 20
0.1218156584157047
 10
0.2191393201961276
 20
0.1222377573105681
 10
0.2188225938027273
 20
0.1224488067579993
 10
0.2179779927394403
 20
0.1224883769561503
 10
0.2175161004139534
 20
0.1224883769561503
 10
0.2170937985560855
 20
0.1222509473766181
 10
0.2158620352915701
 20
0.1217219250404752
 10
0.2148986601729774
 20
0.1214713053948929
 10
0.2136317572518225
 20
0.1214053517083905
 10
0.2128399425945453
 20
0.1212338741372355
 10
0.2125100202627532
 20
0.1212074940051345
 10
0.2123493878951406
 20
0.1208628791967524
 10
0.2122057603840117
 20
0.1203408512874925
 10
0.2118009938726146
 20
0.1196100091939022
 10
0.2111108104867618
 20
0.1184599612937277
 10
0.2098304463822247
 20
0.1172335335136195
 10
0.2086567770760244
 20
0.1172335335136195
 10
0.2069496231683408
 20
0.1172335335136195
 10
0.2035886640783682
 20
0.1179267318970777
 10
0.2018281614452926
 20
0.1190998355628324
 10
0.2004410998899697
 20
0.12053955308785
 10
0.1990006896092522
 20
0.1213393980218881
 10
0.1976136254014795
 20
0.121872627418539
 10
0.1957464279700662
 20
0.1222992102646082
 10
0.1951062432653483
 20
0.1219792722909937
 10
0.1944660612130793
 20
0.1213393980218881
 10
0.1937458123072968
 20
0.1203310829192378
 10
0.1925187942757027
 20
0.1200111449456233
 10
0.1913984763473451
 20
0.1200644690599758
 10
0.1902781557665385
 20
0.1205976967785006
 10
0.1899580634141786
 20
0.1219307694310635
 10
0.1899580634141786
 20
0.1226772902507481
 10
0.1893178813619096
 20
0.1236904266078217
 10
0.1884109556826754
 20
0.1239037180308563
 10
0.1873973325526545
 20
0.1236371024934683
 10
0.1867038017749927
 20
0.1228372592375563
 10
0.1857435273703647
 20
0.1224106763914862
 10
0.184623209442007
 20
0.1226772902507481
 10
0.1838229812135594
 20
0.1236371024934683
 10
0.1831294477834477
 20
0.1243836233131538
 10
0.1825426144565716
 20
0.1256633735294893
 10
0.1824359170057859
 20
0.1264632167854022
 10
0.1818490836789106
 20
0.1266231857722094
 10
0.1808888092742826
 20
0.1272630617194402
 10
0.1795017477189589
 20
0.1285961343720022
 10
0.1787015194905104
 20
0.1295026225003698
 10
0.178808216941297
 20
0.1311556331265481
 10
0.1779546399874556
 20
0.1314755711001635
 10
0.1769943655828277
 20
0.132488705779111
 10
0.1762474860797729
 20
0.1331819041625691
 10
0.1756606501004478
 20
0.1338751008679012
 10
0.1745310724693931
 20
0.1360711193277363
 10
0.1742685488902609
 20
0.1367533528394923
 10
0.174032276608064
 20
0.1371994287908097
 10
0.1737697530289317
 20
0.1367533528394923
 10
0.1732447058706699
 20
0.1362023185317999
 10
0.1726934047630237
 20
0.1358087209196083
 10
0.1721683576047619
 20
0.1357824817500458
 10
0.1716695617434318
 20
0.1358612009368593
 10
0.1712495250778021
 20
0.1363859960749892
 10
0.1709607475492874
 20
0.1365696752963038
 10
0.1705144569342742
 20
0.1370157512476203
 10
0.1702256820582102
 20
0.1374093471816867
 10
0.1700681663192611
 20
0.1380391023543178
 10
0.1698843992833794
 20
0.1384851783056343
 10
0.1698844205029788
 20
0.1400943999262764
 10
0.1701731953790428
 20
0.1411177493548478
 10
0.1702257006253589
 20
0.1422198196483587
 10
0.1701731953790428
 20
0.1435318083327467
 10
0.1697269047640297
 20
0.1442140418445027
 10
0.1692018576057679
 20
0.1446076394566952
 10
0.1686505591505716
 20
0.1442665218617537
 10
0.1675479569352802
 20
0.1439778842840632
 10
0.1667866374948197
 20
0.1439778842840632
 10
0.165906925951842
 20
0.1443021484650931
 10
0.1651718578083141
 20
0.1453517404194783
 10
0.1651193525619981
 20
0.1462176514744237
 10
0.1651981117576975
 20
0.1472672434288097
 10
0.1652243630546302
 20
0.147923236092878
 10
0.1650931012650654
 20
0.1486054712827601
 10
0.1645155488604857
 20
0.149025306386389
 10
0.1638067346663412
 20
0.1492614639468285
 10
0.1628616481899989
 20
0.1497075415762711
 10
0.162179085292788
 20
0.1505209742920906
 10
0.1619165617136566
 20
0.151439365364287
 10
0.1619700881531942
 20
0.1527618406546231
 10
0.1623113682755752
 20
0.1535752733704426
 10
0.162941425926471
 20
0.1542575085603247
 10
0.1634402217878001
 20
0.1551234196152701
 10
0.1640965307356286
 20
0.156068051535155
 10
0.1645165700537081
 20
0.1569339642682256
 10
0.1647528396834561
 20
0.1579573153749231
 10
0.1650475586998086
 20
0.158779756268168
 10
0.1652313230832405
 20
0.1591995913717968
 10
0.1656513624013201
 20
0.1593570314235489
 10
0.1662289148058997
 20
0.1593570314235489
 10
0.1669377290000442
 20
0.1593570314235489
 10
0.1674627761583061
 20
0.1593570314235489
 10
0.1679615720196352
 20
0.1596981473403644
 10
0.16825034954815
 20
0.1603803808521204
 10
0.1684078626346483
 20
0.1612200544156294
 10
0.1683553573883323
 20
0.1618498079101352
 10
0.1678565641794529
 20
0.1622958838614518
 10
0.1673052630718077
 20
0.1624533222350787
 10
0.1664651870880975
 20
0.1624795630827663
 10
0.1658088754878193
 20
0.1626894814736434
 10
0.1649643407357804
 20
0.1629328247672673
 10
0.1645180501207681
 20
0.1633264207013337
 10
0.1644917961713848
 20
0.1637462574830878
 10
0.1638617385204899
 20
0.1639561758739648
 10
0.1633891966085432
 20
0.1639299350262763
 10
0.1627591389576484
 20
0.1641398534171533
 10
0.1622865970457017
 20
0.1648220869289102
 10
0.1622078378500023
 20
0.1657667188487942
 10
0.1623390996395688
 20
0.1665801515646147
 10
0.1627328876607148
 20
0.1671574267199957
 10
0.1634679531517928
 20
0.1679183794185651
 10
0.164258178991564
 20
0.1686345546957079
 10
0.1645469565200788
 20
0.1692643098683389
 10
0.1644681999768291
 20
0.1699203042105325
 10
0.1643106842378801
 20
0.1704975776877874
 10
0.1643106842378801
 20
0.1712322912167953
 10
0.1645469565200788
 20
0.1718620463894264
 10
0.1649413068606105
 20
0.1729710624441817
 10
0.165203830439741
 20
0.1734696184127492
 10
0.1651775791428083
 20
0.1741518519245052
 10
0.1651250738964913
 20
0.1748865654535122
 10
0.1648362990204273
 20
0.1759361557297722
 10
0.1644687649486638
 20
0.1778516587391036
 10
0.1644158247005594
 20
0.181613881751752
 10
0.164888369264955
 20
0.1845527358677809
 10
0.1654921729664673
 20
0.1865469580639248
 10
0.1665685212323762
 20
0.1888560570073218
 10
0.1677761312878498
 20
0.1904042032521492
 10
0.1692462649224549
 20
0.1916112319020361
 10
0.1702176026957298
 20
0.1918736303101632
 10
0.1708739116435591
 20
0.1919523494969767
 10
0.1712700470828912
 20
0.1920658344087726
 10
0.17184759948747
 20
0.1927480695986546
 10
0.1730027042966276
 20
0.1939288590789782
 10
0.1736852671938394
 20
0.1948210109816121
 10
0.1742890708953508
 20
0.195608202849744
 10
0.1742628195984182
 20
0.196185478005125
 10
0.1739477907729698
 20
0.1967889923300684
 10
0.173764023737089
 20
0.197864823454016
 10
0.1739537561328577
 20
0.1990296875238034
 10
0.1745575598343692
 20
0.199528243492371
 10
0.1752138687821976
 20
0.1998431202396239
 10
0.1760539447659077
 20
0.1997906402223738
 10
0.1766840024168035
 20
0.1994495243055584
 10
0.1776815941394618
 20
0.1991084067106169
 10
0.1786529319127377
 20
0.1993183251014939
 10
0.1791254738246835
 20
0.2002367161736903
 10
0.1791517277740668
 20
0.201207588941262
 10
0.1786529319127377
 20
0.201732384079392
 10
0.1781541360514085
 20
0.2022571792175229
 10
0.1779703690155259
 20
0.2032018094592817
 10
0.1783379030872894
 20
0.2039365229882887
 10
0.1789942120351187
 20
0.2044613181264187
 10
0.1797555314755792
 20
0.2048286748909217
 10
0.1808056284445536
 20
0.2049336349254228
 10
0.181409432146066
 20
0.2048811549081727
  0
LWPOLYLINE
  5
10FB
330
2
100
AcDbEntity
  8
Profilo
  6
Continuous
370
     0
100
AcDbPolyline
 90
       62
 70
   128
 43
0.0
 10
0.2036611794069385
 20
0.2116504562270877
 10
0.2050818342405947
 20
0.2112362982218618
 10
0.2067984547420689
 20
0.2112362982218618
 10
0.2081599148506914
 20
0.2112362982218618
 10
0.205022639515561
 20
0.2103488182204857
 10
0.2036611794069385
 20
0.2088105175376834
 10
0.2030692427664027
 20
0.2073905465148557
 10
0.2025364955460009
 20
0.2055564191649281
 10
0.2025956902710337
 20
0.2024798177993236
 10
0.2033652110866706
 20
0.2004090277731948
 10
0.2037203741319722
 20
0.1994623804246432
 10
0.2041347319023075
 20
0.1991073880884676
 10
0.2049634447905282
 20
0.1992257194265682
 10
0.2054369972858963
 20
0.1989298927594428
 10
0.2057329656061642
 20
0.1980424110799416
 10
0.2067392626694859
 20
0.1975690874056654
 10
0.2067984547420689
 20
0.1963266133899885
 10
0.2070944257147875
 20
0.1951433050433618
 10
0.2074495887600882
 20
0.1943741547019603
 10
0.2079823333280411
 20
0.1950841393743116
 10
0.208515077895993
 20
0.1959124553847625
 10
0.2089886303913619
 20
0.1965632760661887
 10
0.2091070171889795
 20
0.1976282530747156
 10
0.2091070171889795
 20
0.1985749004232672
 10
0.2086926594186442
 20
0.1993440507646688
 10
0.2083966910983763
 20
0.1998765384298692
 10
0.208515077895993
 20
0.2003498621041445
 10
0.2085742726210276
 20
0.2010006811074455
 10
0.208278301648309
 20
0.2014740047817217
 10
0.2070352309897538
 20
0.2020064941250474
 10
0.2059697418538491
 20
0.2021248254631479
 10
0.2068576494671026
 20
0.2021248254631479
 10
0.2075087834851228
 20
0.2023023207921727
 10
0.2078639465304244
 20
0.2033081338097745
 10
0.2081007201256586
 20
0.2045506061473262
 10
0.2076271702827395
 20
0.2054380878268284
 10
0.2071536177873705
 20
0.2058522458320534
 10
0.2067392626694859
 20
0.206621396173455
 10
0.2067984547420689
 20
0.2073905465148557
 10
0.2069168441921363
 20
0.2082188625253075
 10
0.2075087834851228
 20
0.2088105175376834
 10
0.208219109575726
 20
0.2092838395338336
 10
0.2088702409412946
 20
0.2098754945462104
 10
0.2104092825725683
 20
0.2104671478804611
 10
0.2094621802342811
 20
0.2094021708719342
 10
0.2085742726210276
 20
0.2086921861995838
 10
0.2084558831709602
 20
0.2073905465148557
 10
0.2084558831709602
 20
0.2064439008444302
 10
0.2089886303913619
 20
0.2055564191649281
 10
0.2098173432795827
 20
0.2055564191649281
 10
0.210468477297602
 20
0.2059114115011037
 10
0.2108236403429036
 20
0.2065030648353544
 10
0.2108828324154874
 20
0.2075088778529563
 10
0.2114155769834403
 20
0.2085146891924329
 10
0.2122442925241099
 20
0.2093430052028839
 10
0.2133097816600147
 20
0.2099938258843109
 10
0.2141384972006852
 20
0.2105854792185608
 10
0.2152631810616237
 20
0.210881305885687
 10
0.2159735071522268
 20
0.2111771342309376
 10
0.2168614147654804
 20
0.2112362982218618
 10
0.2179269039013851
 20
0.2112362982218618
 10
0.2185188431943716
 20
0.2115912922361626
  0
LWPOLYLINE
  5
10FC
330
2
100
AcDbEntity
  8
Profilo
  6
Continuous
370
     0
100
AcDbPolyline
 90
        5
 70
   128
 43
0.0
 10
0.2049634447905282
 20
0.202361486461223
 10
0.2041347319023075
 20
0.2041364481421003
 10
0.2043715054975417
 20
0.2057930801630031
 10
0.2049634447905282
 20
0.2075088778529563
 10
0.2057921603311978
 20
0.2091063442048088
  0
LWPOLYLINE
  5
10FD
330
2
100
AcDbEntity
  8
Profilo
  6
Continuous
370
     0
100
AcDbPolyline
 90
       88
 70
   128
 43
0.0
 10
0.2129546186147131
 20
0.2050239298216025
 10
0.2118891294788083
 20
0.2046689374854268
 10
0.2107052508928371
 20
0.2040772841511761
 10
0.2099949248022339
 20
0.2029531397954737
 10
0.2098173432795827
 20
0.202183989454073
 10
0.2102317010499179
 20
0.2011781781145964
 10
0.2108236403429036
 20
0.2011781781145964
 10
0.2114747717084731
 20
0.2011781781145964
 10
0.2122442925241099
 20
0.2020064941250474
 10
0.2131913948623971
 20
0.2024798177993236
 10
0.2140793024756515
 20
0.203012305464524
 10
0.2156183441069253
 20
0.2029531397954737
 10
0.2170389962881316
 20
0.2028939758045495
 10
0.2182228748741029
 20
0.2028348101354992
 10
0.2199986901006108
 20
0.2020064941250474
 10
0.2215969238044684
 20
0.2007640201093705
 10
0.2228399971154733
 20
0.2002315307660448
 10
0.2233727416834261
 20
0.2006456887712699
 10
0.2233135469583924
 20
0.2011781781145964
 10
0.2228991891880572
 20
0.2017698314488471
 10
0.2225440261427556
 20
0.202183989454073
 10
0.2228399971154733
 20
0.202361486461223
 10
0.2239646809764118
 20
0.2020064941250474
 10
0.2254445278826518
 20
0.2010598467764958
 10
0.2265692117435902
 20
0.2006456887712699
 10
0.2282266401724806
 20
0.1989298927594428
 10
0.2293513240334191
 20
0.1976282530747156
 10
0.2299432606739549
 20
0.1976282530747156
 10
0.2301208421966061
 20
0.1956166287176372
 10
0.2304760052419077
 20
0.1949066440452859
 10
0.2313047207825782
 20
0.1947883127071862
 10
0.2321926283958318
 20
0.1949658097143362
 10
0.2325477914411334
 20
0.1959716210538128
 10
0.232606986166167
 20
0.1968591027333141
 10
0.2324885993685504
 20
0.1978649140727907
 10
0.2321334363232488
 20
0.198752395752292
 10
0.2320150468731814
 20
0.1992848850956185
 10
0.232843762413852
 20
0.1979832454108913
 10
0.2333765069818039
 20
0.1960899523919134
 10
0.2332581175317365
 20
0.1949658097143362
 10
0.2330213439365023
 20
0.1937233356986593
 10
0.2333173122567702
 20
0.1934275090315339
 10
0.2333173122567702
 20
0.1930725166953583
 10
0.2326846817294452
 20
0.1922139021298771
 10
0.2319286380118912
 20
0.192091358696893
 10
0.2312134605903706
 20
0.1918258490441776
 10
0.2306617510054361
 20
0.1910293200860317
 10
0.230988689331058
 20
0.1905799952838406
 10
0.2316221315080602
 20
0.190518723567349
 10
0.2319899387821671
 20
0.1904370290641103
 10
0.2318060364713386
 20
0.1898855852938065
 10
0.2314790981457166
 20
0.1890890563356614
 10
0.2312338924121624
 20
0.1882925273775163
 10
0.2310091238052996
 20
0.1873734549863862
 10
0.2314995299675084
 20
0.1869037073974481
 10
0.2317243012268202
 20
0.1868628584677027
 10
0.2319097950076054
 20
0.1856306579360413
 10
0.2323389030519873
 20
0.1850996386306106
 10
0.2328497436884387
 20
0.1844256514273236
 10
0.2331766820140606
 20
0.1843235324592126
 10
0.2335036203396825
 20
0.1846707382932918
 10
0.233421885095165
 20
0.1855898106844219
 10
0.2338918594355812
 20
0.1864271868941863
 10
0.2342392322354456
 20
0.1871011724193482
 10
0.2344435690205158
 20
0.1878772785907471
 10
0.2344435690205158
 20
0.1885716885807803
 10
0.2348726744124479
 20
0.1892048268543228
 10
0.2354652502934167
 20
0.1892660985708144
 10
0.2359965254041096
 20
0.1891435551378303
 10
0.2365278005148017
 20
0.1895316082235298
 10
0.2367117028256302
 20
0.1907978847706139
 10
0.2368547388404245
 20
0.19204373853095
 10
0.2368630542709473
 20
0.1938200678840712
 10
0.2374474712159387
 20
0.1937366197397353
 10
0.2381539539065969
 20
0.1941637093796914
 10
0.2381988651887701
 20
0.1956559253813398
 10
0.2378649137855389
 20
0.197658677489155
 10
0.2368630542709473
 20
0.199160742409079
 10
0.2351932919498934
 20
0.2007462554733389
 10
0.2337739925181497
 20
0.2019145278159192
 10
0.2316032991135746
 20
0.2034165927358432
 10
0.2299335341400708
 20
0.2043345223235401
 10
0.2281802833050968
 20
0.2049186576557672
 10
0.2261765669283617
 20
0.2054193465217836
 10
0.2238941205034388
 20
0.2060044216042635
 10
0.2220021571470525
 20
0.2062538279651446
 10
0.2183286757968137
 20
0.206671067008699
 10
0.215323102557937
 20
0.2065876188643631
  0
LWPOLYLINE
  5
10FE
330
2
100
AcDbEntity
  8
Profilo
  6
Continuous
370
     0
100
AcDbPolyline
 90
        8
 70
   128
 43
0.0
 10
0.2366960772431064
 20
0.1949048920823148
 10
0.2357777088948847
 20
0.1978255737778268
 10
0.2340244554074609
 20
0.1999952238524399
 10
0.2317702761414146
 20
0.2015807369166999
 10
0.2292656286811594
 20
0.202999353692288
 10
0.2260095899005217
 20
0.2041676260348674
 10
0.2239223850098666
 20
0.2048352111895565
 10
0.2209168091185401
 20
0.2054193465217836
  0
CIRCLE
  5
10FF
330
2
100
AcDbEntity
  8
Profilo
  6
Continuous
370
     0
100
AcDbCircle
 10
0.2328999731327164
 20
0.2054086149095199
 30
0.0
 40
0.0008320371915331
  0
LWPOLYLINE
  5
1100
330
2
100
AcDbEntity
  8
Profilo
  6
Continuous
370
     0
100
AcDbPolyline
 90
        2
 70
   128
 43
0.0
 10
0.2156143946089823
 20
0.2098903123939485
 10
0.2156793769797582
 20
0.2082015560175242
  0
LWPOLYLINE
  5
1101
330
2
100
AcDbEntity
  8
Profilo
  6
Continuous
370
     0
100
AcDbPolyline
 90
        2
 70
   128
 43
0.0
 10
0.2171090130088693
 20
0.2098253605483408
 10
0.2171090130088693
 20
0.2080716523263088
  0
LWPOLYLINE
  5
1102
330
2
100
AcDbEntity
  8
Profilo
  6
Continuous
370
     0
100
AcDbPolyline
 90
        2
 70
   128
 43
0.0
 10
0.2186686137795313
 20
0.2098253605483408
 10
0.2186036287563056
 20
0.208266507863132
  0
LWPOLYLINE
  5
1103
330
2
100
AcDbEntity
  8
Profilo
  6
Continuous
370
     0
100
AcDbPolyline
 90
        2
 70
   128
 43
0.0
 10
0.2203581819441949
 20
0.2097604070246079
 10
0.2202282145501933
 20
0.2083314613868649
  0
LWPOLYLINE
  5
1104
330
2
100
AcDbEntity
  8
Profilo
  6
Continuous
370
     0
100
AcDbPolyline
 90
        2
 70
   128
 43
0.0
 10
0.2222426998736342
 20
0.2095005996421778
 10
0.2218527976916311
 20
0.2081366041719165
  0
LWPOLYLINE
  5
1105
330
2
100
AcDbEntity
  8
Profilo
  6
Continuous
370
     0
100
AcDbPolyline
 90
        2
 70
   128
 43
0.0
 10
0.2236073508795195
 20
0.2091108868904071
 10
0.2235423658562938
 20
0.2076819395745381
  0
LWPOLYLINE
  5
1106
330
2
100
AcDbEntity
  8
Profilo
  6
Continuous
370
     0
100
AcDbPolyline
 90
        2
 70
   128
 43
0.0
 10
0.2251019666269567
 20
0.208851077829851
 10
0.2249070168621801
 20
0.2076169877289304
  0
LWPOLYLINE
  5
1107
330
2
100
AcDbEntity
  8
Profilo
  6
Continuous
370
     0
100
AcDbPolyline
 90
        2
 70
   128
 43
0.0
 10
0.2264016352620661
 20
0.2083964132324726
 10
0.2260767181032888
 20
0.2071623231315519
  0
LWPOLYLINE
  5
1108
330
2
100
AcDbEntity
  8
Profilo
  6
Continuous
370
     0
100
AcDbPolyline
 90
       12
 70
   128
 43
0.0
 10
0.2428050725986885
 20
0.1925989178085085
 10
0.2432527637072637
 20
0.1926948042186928
 10
0.2433167195799175
 20
0.1933340525470041
 10
0.2428690284713415
 20
0.1937815263768224
 10
0.2423573841425632
 20
0.1940052641307933
 10
0.2414620072303135
 20
0.1939093760424838
 10
0.2410143187741891
 20
0.1934299406353136
 10
0.2408864070288814
 20
0.1924710681428462
 10
0.2411742058033726
 20
0.1917998565590569
 10
0.2421015633043995
 20
0.1913523827292386
 10
0.2436364962907351
 20
0.1913523827292386
 10
0.2442760523648211
 20
0.1917359317262254
  0
LWPOLYLINE
  5
1109
330
2
100
AcDbEntity
  8
Profilo
  6
Continuous
370
     0
100
AcDbPolyline
 90
        8
 70
   128
 43
0.0
 10
0.2370458876444541
 20
0.2043013894146214
 10
0.238101154238338
 20
0.2034384033323383
 10
0.239732021033654
 20
0.2020320570100535
 10
0.2406913538185584
 20
0.2010092596847545
 10
0.2417786010012186
 20
0.1998266511164414
 10
0.2422902453299969
 20
0.1981965687183099
 10
0.2425460661681615
 20
0.1965025598092217
 10
0.2425140882318342
 20
0.1950962134869359
  0
LWPOLYLINE
  5
110A
330
2
100
AcDbEntity
  8
Profilo
  6
Continuous
370
     0
100
AcDbPolyline
 90
        4
 70
   128
 43
0.0
 10
0.2435373768893916
 20
0.1986120792926494
 10
0.2439850679979667
 20
0.1971098465601803
 10
0.243857156252659
 20
0.1957035002378945
 10
0.2436333106983719
 20
0.1943291154929624
  0
LWPOLYLINE
  5
110B
330
2
100
AcDbEntity
  8
Profilo
  6
Continuous
370
     0
100
AcDbPolyline
 90
        9
 70
   128
 43
0.0
 10
0.2481189244723341
 20
0.1953696338230307
 10
0.2483107920902938
 20
0.1931642279294187
 10
0.2482468362176409
 20
0.1909268587803287
 10
0.2486305688011123
 20
0.1884977151327448
 10
0.2498457250766304
 20
0.1865480085704573
 10
0.251444613935619
 20
0.1854293231568497
 10
0.253363282157876
 20
0.184694188418354
 10
0.2546423916535971
 20
0.1852375486583558
 10
0.2546423916535971
 20
0.1858448354093144
  0
LWPOLYLINE
  5
110C
330
2
100
AcDbEntity
  8
Profilo
  6
Continuous
370
     0
100
AcDbPolyline
 90
       18
 70
   128
 43
0.0
 10
0.2380758339513296
 20
0.1932341285669831
 10
0.2388399649887134
 20
0.1928723448571049
 10
0.2387193129988585
 20
0.1917467992666503
 10
0.2385986583565529
 20
0.1900986786980389
 10
0.2387997458904616
 20
0.1884907576246223
 10
0.2394834413837916
 20
0.1874858054853766
 10
0.2403280079652301
 20
0.1871240234536237
 10
0.2405290954991388
 20
0.185998477863169
 10
0.2407703994788495
 20
0.1848729322727153
 10
0.2413736594281257
 20
0.1839081779505401
 10
0.242499746435076
 20
0.1832650095211735
 10
0.2431432254826049
 20
0.1828630279942248
 10
0.2434649650063685
 20
0.1818178797160356
 10
0.2438671374217369
 20
0.1805717389962468
 10
0.2447117040031745
 20
0.1795265890399315
 10
0.2458780074559259
 20
0.1790844113740392
 10
0.2468834424730204
 20
0.1788834206105648
 10
0.2484921400918418
 20
0.1781598565470589
  0
LWPOLYLINE
  5
110D
330
2
100
AcDbEntity
  8
Profilo
  6
Continuous
370
     0
100
AcDbPolyline
 90
       74
 70
   128
 43
0.0
 10
0.2554055943335074
 20
0.1810062358819467
 10
0.2544133472974526
 20
0.17978906464183
 10
0.2549094721417049
 20
0.1786169745638481
 10
0.2558115120081723
 20
0.1781661696550082
 10
0.255901716525309
 20
0.1776252057781508
 10
0.2549996766588416
 20
0.1768588377687487
 10
0.2541427363984914
 20
0.1768588377687487
 10
0.2528798758110264
 20
0.1768588377687487
 10
0.251707222393148
 20
0.1768588377687487
 10
0.2502639554238595
 20
0.1768588377687487
 10
0.2489108929717068
 20
0.1768588377687487
 10
0.2482794640041996
 20
0.1768588377687487
 10
0.2483696685213363
 20
0.1773998033237313
 10
0.2479637481942207
 20
0.1777604459083023
 10
0.2471970124510081
 20
0.1780309295248567
 10
0.2461596658088352
 20
0.1781210901709994
 10
0.2453478278070538
 20
0.1781210901709994
 10
0.2439496630963331
 20
0.1776252057781508
 10
0.2431378250945526
 20
0.1770391590610342
 10
0.2426417002502994
 20
0.176002310791329
 10
0.2422357825756345
 20
0.1752810239440609
 10
0.2413788423152852
 20
0.1746949789050695
 10
0.2407474133477772
 20
0.1743343346423732
 10
0.240476799796367
 20
0.1737933707655158
 10
0.2413337400567164
 20
0.1736130477951051
 10
0.2423259870927712
 20
0.1736130477951051
 10
0.2434986405106496
 20
0.1737933707655158
 10
0.2437241518034918
 20
0.1736130477951051
 10
0.2426417002502994
 20
0.172576199525399
 10
0.242100475799929
 20
0.1720352339704173
 10
0.241739660383832
 20
0.1715393495775687
 10
0.2417847626423999
 20
0.1708180627303005
 10
0.2417847626423999
 20
0.1705475807918714
 10
0.2410180268991873
 20
0.169916454590746
 10
0.2403414956731114
 20
0.1692853283896215
 10
0.2397100640531544
 20
0.1688796046429156
 10
0.238898226051373
 20
0.1676624334027988
 10
0.2392590441199198
 20
0.1670313088797995
 10
0.2401610866388379
 20
0.1669411482336559
 10
0.2409278223820506
 20
0.1669411482336559
 10
0.2424161916099079
 20
0.1673919514643706
 10
0.2430476205774159
 20
0.1675722727566561
 10
0.2434986405106496
 20
0.1675722727566561
 10
0.243679049544923
 20
0.1673919514643706
 10
0.2440849672195879
 20
0.167977996503362
 10
0.2444457852881356
 20
0.1684738808962097
 10
0.2445810920638411
 20
0.1685189620583446
 10
0.2455282341888774
 20
0.1672116301720851
 10
0.2466106857420689
 20
0.1669862277176656
 10
0.2469715038106157
 20
0.1673017908182278
 10
0.2473323192267127
 20
0.1679329170193532
 10
0.2473774214852815
 20
0.1685640432204786
 10
0.247242114709576
 20
0.169510730844041
 10
0.247242114709576
 20
0.1704574201457286
 10
0.247512728260987
 20
0.1714041077692919
 10
0.247873543677084
 20
0.1722155552627028
 10
0.2485951771617287
 20
0.1728016003016933
 10
0.2490461997474123
 20
0.1729819232721049
 10
0.2492266061292359
 20
0.1730270027561137
 10
0.249497219680646
 20
0.172576199525399
 10
0.2501737509067228
 20
0.1723057159088456
 10
0.2508953843913666
 20
0.1724860388792563
 10
0.2513915065831691
 20
0.1730270027561137
 10
0.2529700803281631
 20
0.1734778076649536
 10
0.253962327364218
 20
0.1732524052105332
 10
0.2550898785235285
 20
0.1724860388792563
 10
0.255540901109212
 20
0.1724409577171223
 10
0.2561272278181512
 20
0.1718098315159969
 10
0.2564429436281301
 20
0.1716745913858454
 10
0.2563978413695622
 20
0.1726663601715418
 10
0.2566684522685216
 20
0.1734778076649536
 10
0.257119474854206
 20
0.1741089321879529
 10
0.2573449834945976
 20
0.1746048182589267
 10
0.2574802902703031
 20
0.174875300197355
  0
LWPOLYLINE
  5
110E
330
2
100
AcDbEntity
  8
Profilo
  6
Continuous
370
     0
100
AcDbPolyline
 90
        7
 70
   128
 43
0.0
 10
0.2515819100487704
 20
0.1698890659052495
 10
0.2535672290328073
 20
0.1694921925921767
 10
0.254361356626422
 20
0.167904701018008
 10
0.2550987615783358
 20
0.1654100718809238
 10
0.2552689321558885
 20
0.1620083035027963
 10
0.2544180819205728
 20
0.1591734981991485
 10
0.2528298267333433
 20
0.1566788673839382
  0
LWPOLYLINE
  5
110F
330
2
100
AcDbEntity
  8
Profilo
  6
Continuous
370
     0
100
AcDbPolyline
 90
       10
 70
   128
 43
0.0
 10
0.2479516132358022
 20
0.1673944367681644
 10
0.2489159114069706
 20
0.1660904258921744
 10
0.250560889235901
 20
0.1660904258921744
 10
0.2518655285621749
 20
0.1668841708401948
 10
0.2522625923589823
 20
0.1675078293830604
 10
0.2527163787974906
 20
0.1659770332772784
 10
0.2529999973108961
 20
0.1634824041401933
 10
0.2526596561557897
 20
0.1602507238453467
 10
0.2518088059204739
 20
0.1586065368027939
 10
0.2504474439524982
 20
0.1561686031340946
  0
LWPOLYLINE
  5
1110
330
2
100
AcDbEntity
  8
Profilo
  6
Continuous
370
     0
100
AcDbPolyline
 90
       59
 70
   128
 43
0.0
 10
0.2541344634071674
 20
0.1578127901766474
 10
0.2533970611077034
 20
0.1567355645304492
 10
0.2519222512038759
 20
0.1558284252894068
 10
0.2502205507332444
 20
0.1557717298210209
 10
0.2487457408294169
 20
0.1557717298210209
 10
0.2476112720806958
 20
0.1566788673839382
 10
0.2465335286261254
 20
0.1567922599988342
 10
0.2457394010325107
 20
0.1559985150508128
 10
0.2452288892998515
 20
0.1566221719155533
 10
0.2445482096420886
 20
0.1573592213951888
 10
0.2438108046901757
 20
0.1573025259268038
 10
0.2431868476741137
 20
0.1559418179043027
 10
0.2428465065190073
 20
0.1547511996432077
 10
0.2432435703158147
 20
0.1532771006839358
 10
0.2436973594067728
 20
0.1525967466726853
 10
0.2447183802196422
 20
0.1520864807447165
 10
0.2453990598774052
 20
0.1514061284115912
 10
0.2473276562197411
 20
0.1512360403283094
 10
0.2458528463159135
 20
0.1509525596301325
 10
0.2440944232035802
 20
0.1509525596301325
 10
0.2436819088859448
 20
0.1507636631167884
 10
0.2435702566586944
 20
0.1502056696228483
 10
0.2432632117075277
 20
0.1501498702734539
 10
0.2428166027985235
 20
0.1505683645548464
 10
0.2421187750519795
 20
0.150903162329337
 10
0.2415046851496481
 20
0.1510984592131529
 10
0.2410022501270177
 20
0.1508194624661828
 10
0.240723116906441
 20
0.1500940709240596
 10
0.2407510312894781
 20
0.1493407788681774
 10
0.241113902354269
 20
0.1486990855110822
 10
0.2412813806951464
 20
0.1481968913665356
 10
0.2409743357439806
 20
0.1479457934552001
 10
0.2404439863383123
 20
0.1479178929414403
 10
0.2399415513156828
 20
0.1480015928045936
 10
0.2393832875269775
 20
0.1481689908527758
 10
0.238825026390721
 20
0.1487827836961112
 10
0.2384621553259301
 20
0.1490059827718121
 10
0.2378201536930113
 20
0.1489780822580532
 10
0.237261889904306
 20
0.1484758881135065
 10
0.2370385854498034
 20
0.1477783954070179
 10
0.2370106737192161
 20
0.1469693040017405
 10
0.2371781520600926
 20
0.1461602125964639
 10
0.2376526753521349
 20
0.1457417166369453
 10
0.2384063292123049
 20
0.1449326252316688
 10
0.2385738075531814
 20
0.1448489270466399
 10
0.2383225887156417
 20
0.1442351325251802
 10
0.2380434581475139
 20
0.1438166382437868
 10
0.2380713725305519
 20
0.143202843722327
 10
0.2387971120076839
 20
0.1430354456741448
 10
0.2397182468611803
 20
0.1430075468385102
 10
0.2408068574031041
 20
0.1430354456741448
 10
0.241867556214439
 20
0.1430354456741448
 10
0.2423979056201073
 20
0.1431191455372981
 10
0.2426098098448204
 20
0.1413827069042898
 10
0.2426811474856221
 20
0.1400992211806987
 10
0.2436798956764496
 20
0.1388870390075504
 10
0.2453920361899966
 20
0.1383166005352602
 10
0.2472468519851469
 20
0.1374609428268244
 10
0.247389529919201
 20
0.1359635414175305
  0
LWPOLYLINE
  5
1111
330
2
100
AcDbEntity
  8
Profilo
  6
Continuous
370
     0
100
AcDbPolyline
 90
        4
 70
   128
 43
0.0
 10
0.2554508530866206
 20
0.1567132454619412
 10
0.2540954087344343
 20
0.1545741003517892
 10
0.2517412161914194
 20
0.1529340901634856
 10
0.2491016704327471
 20
0.1515792975332014
  0
LWPOLYLINE
  5
1112
330
2
100
AcDbEntity
  8
Profilo
  6
Continuous
370
     0
100
AcDbPolyline
 90
        4
 70
   128
 43
0.0
 10
0.2564496012774482
 20
0.1564993314543636
 10
0.2555935310206747
 20
0.1545027968013474
 10
0.2550941569252609
 20
0.1522923464626274
 10
0.2551654945660626
 20
0.1508662502819015
  0
LWPOLYLINE
  5
1113
330
2
100
AcDbEntity
  8
Profilo
  6
Continuous
370
     0
100
AcDbPolyline
 90
        6
 70
   128
 43
0.0
 10
0.2493156860076038
 20
0.146160130368317
 10
0.2479602443078663
 20
0.1445914254085804
 10
0.247389529919201
 20
0.1428088047631418
 10
0.2473181922783985
 20
0.140527049195854
 10
0.2482456001759745
 20
0.1393861722512727
 10
0.2500290783303232
 20
0.1390296477865601
  0
LWPOLYLINE
  5
1114
330
2
100
AcDbEntity
  8
Profilo
  6
Continuous
370
     0
100
AcDbPolyline
 90
        3
 70
   128
 43
0.0
 10
0.2461054258602662
 20
0.146873179297743
 10
0.2439652515445578
 20
0.1466592652901645
 10
0.2422531136834607
 20
0.14694448452631
  0
LWPOLYLINE
  5
1115
330
2
100
AcDbEntity
  8
Profilo
  6
Continuous
370
     0
100
AcDbPolyline
 90
        3
 70
   128
 43
0.0
 10
0.243608558035648
 20
0.144805339416158
 10
0.2409690096245258
 20
0.1446627289590231
 10
0.239042853536124
 20
0.1453044726598812
  0
LWPOLYLINE
  5
1116
330
2
100
AcDbEntity
  8
Profilo
  6
Continuous
370
     0
100
AcDbPolyline
 90
        4
 70
   128
 43
0.0
 10
0.2449639997353854
 20
0.1446627289590231
 10
0.2438939139037552
 20
0.1437357677001446
 10
0.2431805215810368
 20
0.1425948890774381
 10
0.2432518618742883
 20
0.1413114033538471
  0
LWPOLYLINE
  5
1117
330
2
100
AcDbEntity
  8
Profilo
  6
Continuous
370
     0
100
AcDbPolyline
 90
       10
 70
   128
 43
0.0
 10
0.2452493556034927
 20
0.157568903170377
 10
0.2452493556034927
 20
0.1594228290443843
 10
0.2456773920581039
 20
0.1605637059889647
 10
0.2464621220216259
 20
0.1612767549183908
 10
0.24660479995568
 20
0.161775888162114
 10
0.24660479995568
 20
0.1634159000285428
 10
0.24660479995568
 20
0.1642002525084106
 10
0.24660479995568
 20
0.1649846066664046
 10
0.2460340882194645
 20
0.1656976539177045
 10
0.2457487296989065
 20
0.166054178382418
  0
LWPOLYLINE
  5
1118
330
2
100
AcDbEntity
  8
Profilo
  6
Continuous
370
     0
100
AcDbPolyline
 90
        8
 70
   128
 43
0.0
 10
0.2536089892044666
 20
0.1824378296016523
 10
0.2506562978597957
 20
0.1834215870164425
 10
0.2487272081617728
 20
0.1849562478451404
 10
0.2474280222725502
 20
0.186569609401272
 10
0.2463650556165264
 20
0.1885764729164431
 10
0.2451052400415783
 20
0.1920392982110054
 10
0.2450265020654783
 20
0.1938494115857193
 10
0.2451052400415783
 20
0.1954234227781332
  0
LWPOLYLINE
  5
1119
330
2
100
AcDbEntity
  8
Profilo
  6
Continuous
370
     0
100
AcDbPolyline
 90
       51
 70
   128
 43
0.0
 10
0.2194930482660187
 20
0.1226079047976974
 10
0.2201780301975633
 20
0.1233548015174842
 10
0.2208007432146095
 20
0.1243506632511567
 10
0.2208630147815587
 20
0.1254087649797081
 10
0.2208007432146095
 20
0.1264668683863847
 10
0.2202403017645134
 20
0.1269025567411556
 10
0.2194930482660187
 20
0.1270892817601651
 10
0.2181230790980289
 20
0.1272760051010485
 10
0.2178739954826803
 20
0.1282096251617187
 10
0.2182476222319272
 20
0.1292054868953921
 10
0.2189326068159225
 20
0.1297656585961694
 10
0.2196798603144172
 20
0.1298901419421757
 10
0.2198044034483164
 20
0.130450313642953
 10
0.2194930482660187
 20
0.1320063470774028
 10
0.2196175887474681
 20
0.1328777254650698
 10
0.2203648448984126
 20
0.1331889321519605
 10
0.2204271164653626
 20
0.1336868638578598
 10
0.2203648448984126
 20
0.1343092772316393
 10
0.2198666750152665
 20
0.1349316906054198
 10
0.2195553198329678
 20
0.1356785856470805
 10
0.2201780301975633
 20
0.1361765173529806
 10
0.2207384716476595
 20
0.1363009990208609
 10
0.2209875579154588
 20
0.1369856540676445
 10
0.2205516595992609
 20
0.1374835840954186
 10
0.2199912181491648
 20
0.1382927224882077
 10
0.2193685051321195
 20
0.1384172041560888
 10
0.2194930482660187
 20
0.1391641008758747
 10
0.2204893880323118
 20
0.1395375492357685
 10
0.2214857277986049
 20
0.1395375492357685
 10
0.2222952555164985
 20
0.1395375492357685
 10
0.2227311538326964
 20
0.139350824216759
 10
0.2234784099836409
 20
0.1391641008758747
 10
0.2238520367328878
 20
0.1383549624830856
 10
0.2241011230006862
 20
0.1379815158013179
 10
0.2248483764991809
 20
0.138043755796195
 10
0.2253465463823279
 20
0.1379815158013179
 10
0.2255956326501254
 20
0.1374835840954186
 10
0.2260315309663232
 20
0.1362387573478577
 10
0.2264674292825202
 20
0.1359897923339711
 10
0.2270901422995655
 20
0.13586531066609
 10
0.2277128553166108
 20
0.1356785856470805
 10
0.2287714666498539
 20
0.1350561722733009
 10
0.2291450960515506
 20
0.134682723913408
 10
0.2288337382168031
 20
0.1331889321519605
 10
0.2291450960515506
 20
0.1321308304234091
 10
0.2285223830345053
 20
0.1311972103627389
 10
0.22783739845051
 20
0.130014623610056
 10
0.22783739845051
 20
0.128707556867618
 10
0.2280864847183084
 20
0.1270270400871619
 10
0.2291450960515506
 20
0.1244129032460347
 10
0.2297678090685968
 20
0.124039456564267
  0
LWPOLYLINE
  5
111A
330
2
100
AcDbEntity
  8
Profilo
  6
Continuous
370
     0
100
AcDbPolyline
 90
        8
 70
   128
 43
0.0
 10
0.2298923495500462
 20
0.1343715172265173
 10
0.2310132324502376
 20
0.135491862306197
 10
0.2335663560853698
 20
0.1367989307267602
 10
0.2354967667034558
 20
0.1369856540676445
 10
0.2380498876861381
 20
0.1373591024275375
 10
0.2401671103526226
 20
0.1366744473807547
 10
0.2424711477199573
 20
0.1356163439740782
 10
0.2439033884548971
 20
0.1340603105396275
  0
LWPOLYLINE
  5
111B
330
2
100
AcDbEntity
  8
Profilo
  6
Continuous
370
     0
100
AcDbPolyline
 90
        9
 70
   128
 43
0.0
 10
0.2289582813507023
 20
0.1260934200264917
 10
0.2288960097837522
 20
0.1292677285683953
 10
0.2302037073847929
 20
0.1321308304234091
 10
0.2322586584843291
 20
0.1341225522126307
 10
0.2347495105525112
 20
0.1354296206331939
 10
0.237489446236042
 20
0.1357408273200845
 10
0.2400425698711741
 20
0.1356163439740782
 10
0.2418484347029111
 20
0.1343092772316393
 10
0.2427825055547048
 20
0.1327532437971896
  0
LWPOLYLINE
  5
111C
330
2
100
AcDbEntity
  8
Profilo
  6
Continuous
370
     0
100
AcDbPolyline
 90
        6
 70
   128
 43
0.0
 10
0.2301414358178437
 20
0.127898418474829
 10
0.231200047151086
 20
0.1312594503576169
 10
0.233690899219269
 20
0.1331889321519605
 10
0.2354344951365066
 20
0.1337491038527377
 10
0.2378630729852897
 20
0.1337491038527377
 10
0.2394198568541279
 20
0.1331889321519605
  0
LWPOLYLINE
  5
111D
330
2
100
AcDbEntity
  8
Profilo
  6
Continuous
370
     0
100
AcDbPolyline
 90
        5
 70
   128
 43
0.0
 10
0.2310755040171877
 20
0.1280851434938385
 10
0.2318850317350813
 20
0.1303880719699498
 10
0.2336286276523198
 20
0.1316328987175098
 10
0.235559035617956
 20
0.1322553120912903
 10
0.2374271746690919
 20
0.1317573820635162
  0
LWPOLYLINE
  5
111E
330
2
100
AcDbEntity
  8
Profilo
  6
Continuous
370
     0
100
AcDbPolyline
 90
       18
 70
   128
 43
0.0
 10
0.2267787871172668
 20
0.1369234123946413
 10
0.2277128553166108
 20
0.1383549624830856
 10
0.2288337382168031
 20
0.1387284108429786
 10
0.2295809943677476
 20
0.1394753075627645
 10
0.2304527910001415
 20
0.1402222026044261
 10
0.2316359454672829
 20
0.1402844442774292
 10
0.2321341153504299
 20
0.1402844442774292
 10
0.2327568283674752
 20
0.1409068576512088
 10
0.2334418129514706
 20
0.141404789357109
 10
0.2343758838032635
 20
0.1419027193848822
 10
0.2352476804356582
 20
0.1419027193848822
 10
0.2358081218857535
 20
0.141840477711879
 10
0.2358081218857535
 20
0.1416537543709956
 10
0.2366799185181483
 20
0.1412803060111026
 10
0.2373026315351936
 20
0.1420894427257665
 10
0.2389216869709818
 20
0.1420894427257665
 10
0.2402293819195727
 20
0.1420894427257665
 10
0.2411011812044164
 20
0.1422139260717728
  0
LWPOLYLINE
  5
111F
330
2
100
AcDbEntity
  8
Profilo
  6
Continuous
370
     0
100
AcDbPolyline
 90
       22
 70
   128
 43
0.0
 10
0.2186614070730783
 20
0.1266935244005171
 10
0.2182146602366775
 20
0.1260409030904811
 10
0.2184208510842467
 20
0.1255256749455506
 10
0.2185926767905553
 20
0.1249760989288758
 10
0.2187301373556014
 20
0.124701310920538
 10
0.2178022811939879
 20
0.1242891297470948
 10
0.2160496642945473
 20
0.1238425990237805
 10
0.2147781593727682
 20
0.1233960683004661
 10
0.2113760209976698
 20
0.1228121444120463
 10
0.2094515783919206
 20
0.1228121444120463
 10
0.2064961868532231
 20
0.1227777948621752
 10
0.2051215865076594
 20
0.1229838854488977
 10
0.2043655560523545
 20
0.1235678110154427
 10
0.203746983509645
 20
0.1233960683004661
 10
0.2028878602830053
 20
0.123052582870513
 10
0.2018569086976081
 20
0.1231899777137445
 10
0.2003104826457358
 20
0.1236021588871877
 10
0.19910770535403
 20
0.124014341738757
 10
0.1983516748987251
 20
0.1242891297470948
 10
0.1963585046629026
 20
0.1245295682055615
 10
0.1950182668061497
 20
0.124666963048793
 10
0.1942622363508448
 20
0.1247700083421542
  0
LWPOLYLINE
  5
1120
330
2
100
AcDbEntity
  8
Profilo
  6
Continuous
370
     0
100
AcDbPolyline
 90
       76
 70
   128
 43
0.0
 10
0.2195502324340071
 20
0.1354574204594269
 10
0.2189721468869923
 20
0.1355729812124061
 10
0.2182399089075382
 20
0.1355729812124061
 10
0.2177003634579711
 20
0.1354959401510446
 10
0.2172378955508503
 20
0.1349951757693829
 10
0.2171608180084048
 20
0.1343018078952544
 10
0.217276435648297
 20
0.1336854827606125
 10
0.2174305907331879
 20
0.1333387988235487
 10
0.2170452030209615
 20
0.1327995130721432
 10
0.2156192618545996
 20
0.1319905844450354
 10
0.2145787110529138
 20
0.131759462939076
 10
0.2131527725390025
 20
0.1312972182490321
 10
0.2118809891099804
 20
0.1312972182490321
 10
0.2108404383082947
 20
0.1314127790020122
 10
0.2094915746843782
 20
0.1319135450617991
 10
0.20833540889525
 20
0.1325683915661838
 10
0.2075260907208998
 20
0.1327995130721432
 10
0.2068709302838902
 20
0.1327609933805255
 10
0.2065626174616595
 20
0.1318365040004376
 10
0.2068709302838902
 20
0.1313357379406507
 10
0.2070636228137781
 20
0.1306423717446473
 10
0.2066396950041049
 20
0.1303342091773264
 10
0.2054835292149759
 20
0.1303342091773264
 10
0.2042502832309516
 20
0.1304112502386879
 10
0.203595122793943
 20
0.1306038520530296
 10
0.2025160318948087
 20
0.1312201771876705
 10
0.2017837939153546
 20
0.1315668611247353
 10
0.2007432431136689
 20
0.1319905844450354
 10
0.2001651575666541
 20
0.1324143094434608
 10
0.1999339249393186
 20
0.1330691559478455
 10
0.1997797698544277
 20
0.1336854827606125
 10
0.19974122975698
 20
0.1343403292649982
 10
0.1993558420447536
 20
0.1346484918323182
 10
0.1987777564977398
 20
0.1347255328936797
 10
0.1987392190527419
 20
0.13591966514947
 10
0.1980335347495128
 20
0.1366206533912749
 10
0.1985345427540812
 20
0.1372369785259168
 10
0.1993438582759817
 20
0.1372754998956597
 10
0.1996136310007648
 20
0.137968866091663
 10
0.1996521710982124
 20
0.1390089162247302
 10
0.1996521710982124
 20
0.1399719269745611
 10
0.1996521710982124
 20
0.1408578949849052
 10
0.1994594759158739
 20
0.141204578921969
 10
0.1988428529238622
 20
0.1414742217976722
 10
0.198149152389405
 20
0.1414742217976722
 10
0.1973783743125033
 20
0.1413201396749492
 10
0.196569056138153
 20
0.1408964146765229
 10
0.1957597406162525
 20
0.1403571306032435
 10
0.1954899678914694
 20
0.1402030484805204
 10
0.1949118849969054
 20
0.1401645287889027
 10
0.1945264946322291
 20
0.1406652931705644
 10
0.1945264946322291
 20
0.1415897825506515
 10
0.194256721907446
 20
0.1420520272406954
 10
0.193986949182662
 20
0.1422831487466548
 10
0.1931390935633148
 20
0.1419364664877162
 10
0.1924839331263053
 20
0.1413201396749492
 10
0.1918673101342936
 20
0.1410119771076282
 10
0.1907496817901624
 20
0.1406652931705644
 10
0.1904028315229338
 20
0.1401645287889027
 10
0.1902486764380429
 20
0.1395096822845171
 10
0.1902101363405952
 20
0.139201518039071
 10
0.1899403636158121
 20
0.139355600161794
 10
0.1875509518426597
 20
0.1394711609147742
 10
0.1861635507737453
 20
0.1395096822845171
 10
0.1848917673447241
 20
0.1397022840988588
 10
0.1838897539880362
 20
0.1393170804701763
 10
0.1830804384661357
 20
0.1380844268446423
 10
0.1826565106564617
 20
0.1367747338358728
 10
0.183196053453579
 20
0.1365050909601696
 10
0.1841209892678215
 20
0.1366976944526365
 10
0.1850073823321665
 20
0.1365821320215311
 10
0.1858552406039644
 20
0.1358502444557849
 10
0.1866260186808661
 20
0.1343864710024175
 10
0.1867030962233116
 20
0.1334619816223296
 10
0.1868572513082025
 20
0.1328456548095626
 10
0.186664556125864
 20
0.1320752475521986
  0
LWPOLYLINE
  5
1121
330
2
100
AcDbEntity
  8
Profilo
  6
Continuous
370
     0
100
AcDbPolyline
 90
       14
 70
   129
 43
0.0
 10
0.1921370828590767
 20
0.1333078994996065
 10
0.1914819197696165
 20
0.1333464208693503
 10
0.1904413689679307
 20
0.1333464208693503
 10
0.1897091309884766
 20
0.133230858438245
 10
0.1889768903565718
 20
0.1324989725506239
 10
0.1887456577292354
 20
0.1315744831705369
 10
0.1888227352716809
 20
0.1306499937904489
 10
0.1894393582636926
 20
0.1298795865330841
 10
0.1903257539804883
 20
0.129571422287638
 10
0.1912121470448333
 20
0.1296869847187433
 10
0.1920600053166312
 20
0.1302262687920227
 10
0.1924839331263053
 20
0.1310351974191314
 10
0.1925610106687507
 20
0.1318826457378569
 10
0.1923683154864122
 20
0.1326530529952218
  0
LWPOLYLINE
  5
1122
330
2
100
AcDbEntity
  8
Profilo
  6
Continuous
370
     0
100
AcDbPolyline
 90
       10
 70
   128
 43
0.0
 10
0.2186949287352631
 20
0.1312257301047904
 10
0.2166523672293392
 20
0.1301856799717233
 10
0.2125287041200439
 20
0.1287604262099736
 10
0.2075186452939528
 20
0.1279514975828658
 10
0.2031637469048722
 20
0.1280285386442274
 10
0.2003504073220457
 20
0.1286063440872506
 10
0.1978068378115525
 20
0.1297619549732979
 10
0.1967662896623174
 20
0.1312642497964082
 10
0.1966892094674213
 20
0.1329206267422424
 10
0.1971902174719906
 20
0.1341918000593941
  0
LWPOLYLINE
  5
1123
330
2
100
AcDbEntity
  8
Profilo
  6
Continuous
370
     0
100
AcDbPolyline
 90
        3
 70
   128
 43
0.0
 10
0.2073112502341159
 20
0.1205364703713955
 10
0.2052780837058359
 20
0.1205364703713955
 10
0.2025671923490115
 20
0.1209675405249236
  0
LWPOLYLINE
  5
1124
330
2
100
AcDbEntity
  8
Profilo
  6
Continuous
370
     0
100
AcDbPolyline
 90
        4
 70
   128
 43
0.0
 10
0.2099605278315728
 20
0.1190585150798354
 10
0.2077425279825391
 20
0.1185658627566076
 10
0.2058941947750119
 20
0.1185658627566076
 10
0.2047851948504951
 20
0.118750607587584
  0
LWPOLYLINE
  5
1125
330
2
100
AcDbEntity
  8
Profilo
  6
Continuous
370
     0
100
AcDbPolyline
 90
        4
 70
   128
 43
0.0
 10
0.1946809680111103
 20
0.1285420668480749
 10
0.1932023014450887
 20
0.1274335995403425
 10
0.1921549126274895
 20
0.1258940620790819
 10
0.1920316904136543
 20
0.1252782470945773
  0
LWPOLYLINE
  5
1126
330
2
100
AcDbEntity
  8
Profilo
  6
Continuous
370
     0
100
AcDbPolyline
 90
        3
 70
   128
 43
0.0
 10
0.1879653547046436
 20
0.1290347191713027
 10
0.1863634659247859
 20
0.1273104368790666
 10
0.1860554103901988
 20
0.1262635500629087
  0
LWPOLYLINE
  5
1127
330
2
100
AcDbEntity
  8
Profilo
  6
Continuous
370
     0
100
AcDbPolyline
 90
        2
 70
   128
 43
0.0
 10
0.1893208017092807
 20
0.1272488547093661
 10
0.1884582435599844
 20
0.1255245724171291
  0
LWPOLYLINE
  5
1128
330
2
100
AcDbEntity
  8
Profilo
  6
Continuous
370
     0
100
AcDbPolyline
 90
        6
 70
   128
 43
0.0
 10
0.1853160771071867
 20
0.1345770540318404
 10
0.1857473548556099
 20
0.1329759344008793
 10
0.1857473548556099
 20
0.1316827239402957
 10
0.1850080215725995
 20
0.1306358371241386
 10
0.1834061327927419
 20
0.1295889519861068
 10
0.1821122995474722
 20
0.1294657893248309
  0
LWPOLYLINE
  5
1129
330
2
100
AcDbEntity
  8
Profilo
  6
Continuous
370
     0
100
AcDbPolyline
 90
       13
 70
   128
 43
0.0
 10
0.1808800747566712
 20
0.1306974192938392
 10
0.1821122995474722
 20
0.1308821641248156
 10
0.1828516328304834
 20
0.131744304431871
 10
0.1830980772581547
 20
0.1326064464170517
 10
0.1827900217235658
 20
0.1337764942163594
 10
0.1821122995474722
 20
0.1340844017086117
 10
0.1811265191843416
 20
0.1338996568776353
 10
0.180448797008248
 20
0.1332838418931316
 10
0.1796478526183192
 20
0.1334070045544075
 10
0.1781691860522976
 20
0.1345154718621399
 10
0.1773066305554511
 20
0.1353776138473205
 10
0.1765672972724399
 20
0.1364860811550529
 10
0.1757663528825111
 20
0.1373482214621083
  0
LWPOLYLINE
  5
112A
330
2
100
AcDbEntity
  8
Profilo
  6
Continuous
370
     0
100
AcDbPolyline
 90
       15
 70
   128
 43
0.0
 10
0.1673078014663876
 20
0.1483258704106268
 10
0.1688480791393276
 20
0.1483258704106268
 10
0.1706348012399381
 20
0.1477100554261231
 10
0.1718054122713726
 20
0.1467247507796666
 10
0.1729144121958894
 20
0.1450004684874296
 10
0.1743314676549934
 20
0.1433377683648932
 10
0.1753172480181249
 20
0.1410592532578531
 10
0.1767343034772288
 20
0.139334970965617
 10
0.1781513589363337
 20
0.1380417588269082
 10
0.1791371366470154
 20
0.137364361672703
 10
0.1797532477161914
 20
0.1366253840269235
 10
0.1793835810746858
 20
0.1359479868727184
 10
0.1788290811124273
 20
0.1359479868727184
 10
0.1791371366470154
 20
0.1355784988888916
 10
0.1796916366092738
 20
0.1355784988888916
  0
LWPOLYLINE
  5
112B
330
2
100
AcDbEntity
  8
Profilo
  6
Continuous
370
     0
100
AcDbPolyline
 90
       74
 70
   128
 43
0.0
 10
0.1854214722050589
 20
0.1398892037804201
 10
0.1849901944566357
 20
0.140936088918452
 10
0.1841892500667077
 20
0.1416134860726571
 10
0.1832034723560261
 20
0.1416750682423576
 10
0.1824641390730148
 20
0.1417366487339321
 10
0.1823409168591796
 20
0.1425987907191136
 10
0.1823409168591796
 20
0.1432761861951927
 10
0.181848025351389
 20
0.1441383281803742
 10
0.1812319142822138
 20
0.1444462356726256
 10
0.180430969892285
 20
0.1445078161642009
 10
0.1798764699300257
 20
0.1449388879958543
 10
0.1799380810369442
 20
0.1458010283029097
 10
0.1799380810369442
 20
0.147032658271918
 10
0.1794451921816034
 20
0.1474021479338708
 10
0.1787058588985921
 20
0.1477716359176976
 10
0.1782129700432513
 20
0.1488801032254309
 10
0.1779665256155809
 20
0.1495575003796351
 10
0.1791371366470154
 20
0.1498654078718874
 10
0.1800613032507785
 20
0.1502964780254156
 10
0.1799380810369442
 20
0.1512202005021715
 10
0.1801845254646146
 20
0.1525749948105809
 10
0.1803077476784489
 20
0.1530676454556835
 10
0.1800613032507785
 20
0.1538682052711645
 10
0.1796300255023562
 20
0.154299277102817
 10
0.1783981587922945
 20
0.1547455997385761
 10
0.1791374920753057
 20
0.1551150894005281
 10
0.1800616586790697
 20
0.1556693238934573
 10
0.1802464919998226
 20
0.1563467193695364
 10
0.1801848808929041
 20
0.1570241165237415
 10
0.1793839365029761
 20
0.1573320240159929
 10
0.1794455476098937
 20
0.1580710016617733
 10
0.1798152142513993
 20
0.1583789091540256
 10
0.1798152142513993
 20
0.1589947241385293
 10
0.1798152142513993
 20
0.1598568661237109
 10
0.1798152142513993
 20
0.1607190064307663
 10
0.1794455476098937
 20
0.1612116587539941
 10
0.1784597698992121
 20
0.1610884960927182
 10
0.1776588255092832
 20
0.1612116587539941
 10
0.1777204366162008
 20
0.1618274737384987
 10
0.1783981587922945
 20
0.1619506363997746
 10
0.1798152142513993
 20
0.1626280335539788
 10
0.1802464919998226
 20
0.1629359410462311
 10
0.1809858252828329
 20
0.1636749186920107
 10
0.1820332141004321
 20
0.1639212456926876
 10
0.182649327822058
 20
0.1645986411687675
 10
0.1832038277843164
 20
0.1652760383229718
 10
0.1836351055327396
 20
0.1667539936145318
 10
0.1838199388534924
 20
0.1678624609222642
 10
0.1831422166773988
 20
0.168601440246169
 10
0.1819099918865969
 20
0.168601440246169
 10
0.1808009919620801
 20
0.168231950584217
 10
0.180492936427493
 20
0.1671234832764837
 10
0.1798768253583169
 20
0.1666924131229565
 10
0.1789526587545529
 20
0.1661997607997277
 10
0.1779668810438713
 20
0.1660765981384519
 10
0.1773507699746961
 20
0.1661997607997277
 10
0.1783981587922945
 20
0.1663845056307042
 10
0.1789526587545529
 20
0.1668155757842323
 10
0.1790758809683881
 20
0.1673698085990355
 10
0.1788910476476353
 20
0.1677392982609883
 10
0.1780284921507889
 20
0.1679240430919647
 10
0.1769194922262729
 20
0.1680472057532406
 10
0.1759337145155904
 20
0.1689093477384212
 10
0.1749553397926578
 20
0.1712931853550604
 10
0.1747392420446081
 20
0.1737123290530772
 10
0.1749553397926578
 20
0.1764770625503641
 10
0.1753875379412051
 20
0.1789826028591362
 10
0.1764248129672303
 20
0.1815313414732847
 10
0.1777671329971762
 20
0.1844877806659219
 10
0.1794094822482286
 20
0.1868205243969329
 10
0.1814408106287084
 20
0.1892396664168253
 10
0.1829967218415218
 20
0.1906652339880342
 10
0.1846390737450241
 20
0.1916588101148421
 10
0.185978884557338
 20
0.1922635947807522
  0
LWPOLYLINE
  5
112C
330
2
100
AcDbEntity
  8
Profilo
  6
Continuous
370
     0
100
AcDbPolyline
 90
       14
 70
   128
 43
0.0
 10
0.1858515881804141
 20
0.1895602873874987
 10
0.1839491264272146
 20
0.1884736877325278
 10
0.1822640912994773
 20
0.1866264710040769
 10
0.1807964774923034
 20
0.1846162646630053
 10
0.1794919336542273
 20
0.1823344100863159
 10
0.1784048111367129
 20
0.1794549246925169
 10
0.1776981825613086
 20
0.177336058050323
 10
0.1770459106422706
 20
0.1742392537324057
 10
0.1771546239550013
 20
0.1717944078649703
 10
0.1775351152446616
 20
0.1706534805766261
 10
0.1781330305073343
 20
0.1698385308353972
 10
0.1781330305073343
 20
0.1691865723849152
 10
0.1774807585882963
 20
0.1688605931596737
 10
0.1765567060398787
 20
0.1689692534607959
  0
LWPOLYLINE
  5
112D
330
2
100
AcDbEntity
  8
Profilo
  6
Continuous
370
     0
100
AcDbPolyline
 90
       10
 70
   128
 43
0.0
 10
0.1672494290008322
 20
0.1551506774069818
 10
0.1696420926775959
 20
0.1560389528398226
 10
0.1707358808017778
 20
0.1581571499099609
 10
0.1714878583135935
 20
0.160685318062323
 10
0.1713511351296271
 20
0.1629401732786205
 10
0.1705991549653616
 20
0.1652633550508077
 10
0.1697104542695786
 20
0.1665616049221227
 10
0.1688217509213468
 20
0.1674498803549634
 10
0.167522875368765
 20
0.1679281830274534
 10
0.1669076210409157
 20
0.1684748139339617
  0
LWPOLYLINE
  5
112E
330
2
100
AcDbEntity
  8
Profilo
  6
Continuous
370
     0
100
AcDbPolyline
 90
        3
 70
   128
 43
0.0
 10
0.1721714768858762
 20
0.1606169898283073
 10
0.1733336266020418
 20
0.1588404389626267
 10
0.1746325021546236
 20
0.1580888199978191
  0
LWPOLYLINE
  5
112F
330
2
100
AcDbEntity
  8
Profilo
  6
Continuous
370
     0
100
AcDbPolyline
 90
        7
 70
   128
 43
0.0
 10
0.1710093271697106
 20
0.1682014976416449
 10
0.1716929457419933
 20
0.1654683414309826
 10
0.1725816464377754
 20
0.163691790565302
 10
0.1738121603983744
 20
0.1616419234073055
 10
0.1750426717065228
 20
0.1607536479744648
 10
0.1764099061986375
 20
0.1606169898283073
 10
0.1774353327308358
 20
0.1606169898283073
  0
LWPOLYLINE
  5
1130
330
2
100
AcDbEntity
  8
Profilo
  6
Continuous
370
     0
100
AcDbPolyline
 90
        5
 70
   128
 43
0.0
 10
0.1721031152938934
 20
0.1707296674721322
 10
0.172855095458158
 20
0.1676548667351375
 10
0.1738121603983744
 20
0.1653316849629495
 10
0.1756579286868218
 20
0.1630768297466528
 10
0.1768200784029865
 20
0.1624618706061288
  0
LWPOLYLINE
  5
1131
330
2
100
AcDbEntity
  8
Profilo
  6
Continuous
370
     0
100
AcDbPolyline
 90
        8
 70
   128
 43
0.0
 10
0.1736754372144071
 20
0.1692264312206432
 10
0.1747008637466063
 20
0.1674498803549634
 10
0.1759997366467383
 20
0.1655366713431244
 10
0.177366971138853
 20
0.1647850523783169
 10
0.1790076546513513
 20
0.1643750796179678
 10
0.1804432507354496
 20
0.1647167241443003
 10
0.1812635924916988
 20
0.1655366713431244
 10
0.182083934247947
 20
0.1666982630682811
  0
LWPOLYLINE
  5
1132
330
2
100
AcDbEntity
  8
Profilo
  6
Continuous
370
     0
100
AcDbPolyline
 90
       11
 70
   129
 43
0.0
 10
0.1706002318600319
 20
0.154593836785227
 10
0.1711471272483473
 20
0.155687100276367
 10
0.172719446516413
 20
0.156097073036716
 10
0.1741550452529612
 20
0.1563703893290328
 10
0.1752488333771431
 20
0.1566437039432235
 10
0.175932451949425
 20
0.156097073036716
 10
0.1757957261130087
 20
0.1553454557500337
 10
0.1744968532128777
 20
0.1546621666973688
 10
0.173129618720762
 20
0.1543205221710354
 10
0.1716940199842138
 20
0.153978877644703
 10
0.1709420424723982
 20
0.1540472058787196
  0
LWPOLYLINE
  5
1133
330
2
100
AcDbEntity
  8
Profilo
  6
Continuous
370
     0
100
AcDbPolyline
 90
        4
 70
   128
 43
0.0
 10
0.1706389072324264
 20
0.14433297227339
 10
0.1716197858680912
 20
0.1426738213861841
 10
0.1717329659065001
 20
0.1411277946138022
 10
0.1715443342774519
 20
0.1395063512054956
  0
LWPOLYLINE
  5
1134
330
2
100
AcDbEntity
  8
Profilo
  6
Continuous
370
     0
100
AcDbPolyline
 90
        6
 70
   128
 43
0.0
 10
0.1713179768530821
 20
0.1452002560349549
 10
0.1722234038981076
 20
0.1438804774922201
 10
0.1732420109815429
 20
0.1419196617394432
 10
0.1738456290115602
 20
0.1400342626225893
 10
0.1743360670031677
 20
0.1384882358502074
 10
0.1746001502228562
 20
0.1376586595675419
  0
LWPOLYLINE
  5
1135
330
2
100
AcDbEntity
  8
Profilo
  6
Continuous
370
     0
100
AcDbPolyline
 90
        3
 70
   128
 43
0.0
 10
0.1750151392762742
 20
0.1400342626225893
 10
0.1760714695025793
 20
0.1385259433291067
 10
0.177165528176654
 20
0.1376209520886426
  0
LWPOLYLINE
  5
1136
330
2
100
AcDbEntity
  8
Profilo
  6
Continuous
370
     0
100
AcDbPolyline
 90
        4
 70
   128
 43
0.0
 10
0.1734784397582869
 20
0.1502052886883706
 10
0.1752877925616794
 20
0.1511698131073594
 10
0.1771574567715248
 20
0.15092868158308
 10
0.1779415103603137
 20
0.1506875500588015
  0
LWPOLYLINE
  5
1137
330
2
100
AcDbEntity
  8
Profilo
  6
Continuous
370
     0
100
AcDbPolyline
 90
        4
 70
   128
 43
0.0
 10
0.1754084153745854
 20
0.1529180120435328
 10
0.176855897086809
 20
0.1528577287429317
 10
0.1780018217667676
 20
0.1524960322955769
 10
0.1786049384837476
 20
0.1517123577783915
  0
LWPOLYLINE
  5
1138
330
2
100
AcDbEntity
  8
Profilo
  6
Continuous
370
     0
100
AcDbPolyline
 90
        5
 70
   128
 43
0.0
 10
0.2284732410946972
 20
0.1224271455146687
 10
0.2258975345008816
 20
0.125478370267193
 10
0.2253251543736621
 20
0.1291970492806208
 10
0.2260883278766217
 20
0.1326296750295545
 10
0.227614672230092
 20
0.1341552874058162
  0
LWPOLYLINE
  5
1139
330
2
100
AcDbEntity
  8
Profilo
  6
Continuous
370
     0
100
AcDbPolyline
 90
        5
 70
   128
 43
0.0
 10
0.2245619808707016
 20
0.1224271455146687
 10
0.2241803941192222
 20
0.125478370267193
 10
0.2236080139920018
 20
0.1268132804671261
 10
0.2224632563900108
 20
0.1279574884907281
 10
0.2212231007739263
 20
0.1287202955179224
  0
LWPOLYLINE
  5
113A
330
2
100
AcDbEntity
  8
Profilo
  6
Continuous
370
     0
100
AcDbPolyline
 90
        4
 70
   128
 43
0.0
 10
0.2207461160083515
 20
0.1218550423419308
 10
0.2219862716244361
 20
0.1233806530400673
 10
0.2223678583759163
 20
0.1252876680908636
 10
0.2217954782486959
 20
0.1265272272026311
  0
LWPOLYLINE
  5
113B
330
2
100
AcDbEntity
  8
Profilo
  6
Continuous
370
     0
100
AcDbPolyline
 90
       11
 70
   129
 43
0.0
 10
0.2239126929578319
 20
0.1285240857338595
 10
0.222924769415159
 20
0.1293469595834712
 10
0.2222990856541944
 20
0.130531897389912
 10
0.2221014993541894
 20
0.1316510056911334
 10
0.2222990856541944
 20
0.132737199239746
 10
0.2227601159334549
 20
0.133263838637747
 10
0.2234187325127204
 20
0.1333296681429664
 10
0.2240114861078339
 20
0.132868858250183
 10
0.224143209423687
 20
0.1318155811323062
 10
0.224110279257836
 20
0.1305648121425208
 10
0.224143209423687
 20
0.1294127890886897
  0
LWPOLYLINE
  5
113C
330
2
100
AcDbEntity
  8
Profilo
  6
Continuous
370
     0
100
AcDbPolyline
 90
        4
 70
   128
 43
0.0
 10
0.2233199393627183
 20
0.1347120961431888
 10
0.2230894228968623
 20
0.137049058681585
 10
0.2225625322859006
 20
0.1379377620364161
 10
0.2219697760383363
 20
0.1385302309396364
  0
LWPOLYLINE
  5
113D
330
2
100
AcDbEntity
  8
Profilo
  6
Continuous
370
     0
100
AcDbPolyline
 90
        3
 70
   128
 43
0.0
 10
0.2214758155932248
 20
0.1325067942933548
 10
0.2212782292932207
 20
0.13431711743375
 10
0.2207842688481092
 20
0.1353045650464083
  0
LWPOLYLINE
  5
113E
330
2
100
AcDbEntity
  8
Profilo
  6
Continuous
370
     0
100
AcDbPolyline
 90
        3
 70
   128
 43
0.0
 10
0.2224308089700475
 20
0.1344816911967975
 10
0.2221014993541894
 20
0.1364895045309743
 10
0.22167339924078
 20
0.1372465471972414
  0
LWPOLYLINE
  5
113F
330
2
100
AcDbEntity
  8
Profilo
  6
Continuous
370
     0
100
AcDbPolyline
 90
       19
 70
   128
 43
0.0
 10
0.1670777093925215
 20
0.1729791124119736
 10
0.1661866824981528
 20
0.175725128097972
 10
0.1658896717650631
 20
0.1792133098681087
 10
0.1658896717650631
 20
0.1805492101620575
 10
0.166260935181425
 20
0.1831467922956039
 10
0.1669292040259762
 20
0.1854475073242437
 10
0.1680429889701624
 20
0.1864865405132877
 10
0.168934018516981
 20
0.1871544898211991
 10
0.1696765426972551
 20
0.1875255737023308
 10
0.1708645803247135
 20
0.1873029233736519
 10
0.1714585964859925
 20
0.1881935230102422
 10
0.1716071018525378
 20
0.1886388236676008
 10
0.1725723840826285
 20
0.1886388236676008
 10
0.1732406529271797
 20
0.1896036400804178
 10
0.1731664002439075
 20
0.1908653219200146
 10
0.1730921502130851
 20
0.1912364058011472
 10
0.1747999539710001
 20
0.1933144721792334
 10
0.1761364943125532
 20
0.194724587571283
 10
0.1772502792567394
 20
0.1960604878652327
  0
LWPOLYLINE
  5
1140
330
2
100
AcDbEntity
  8
Profilo
  6
Continuous
370
     0
100
AcDbPolyline
 90
        9
 70
   128
 43
0.0
 10
0.1755424754988244
 20
0.1961347029633335
 10
0.1770275238593726
 20
0.1961347029633335
 10
0.1785125695674701
 20
0.1961347029633335
 10
0.1802946260086582
 20
0.1970253025999237
 10
0.1817796743692055
 20
0.1981385525651936
 10
0.1826707012635742
 20
0.1994002360829164
 10
0.1828192066301195
 20
0.2014783024610035
 10
0.1828934593133917
 20
0.203111068181732
 10
0.1824479432137576
 20
0.2039274510420962
  0
LWPOLYLINE
  5
1141
330
2
100
AcDbEntity
  8
Profilo
  6
Continuous
370
     0
100
AcDbPolyline
 90
        7
 70
   128
 43
0.0
 10
0.1800718679588407
 20
0.2034079352866377
 10
0.1809628975056592
 20
0.2027399843006003
 10
0.1812599055862991
 20
0.2014040856847767
 10
0.1811856555554767
 20
0.2002166189432807
 10
0.1803688786919304
 20
0.1992518025304636
 10
0.1796263545116563
 20
0.1982127693414205
 10
0.1785125695674701
 20
0.197841687138414
  0
LWPOLYLINE
  5
1142
330
2
100
AcDbEntity
  8
Profilo
  6
Continuous
370
     0
100
AcDbPolyline
 90
       12
 70
   128
 43
0.0
 10
0.1679687389393401
 20
0.1740923623772427
 10
0.168934018516981
 20
0.1754282609930663
 10
0.16826574701998
 20
0.1765415109583362
 10
0.1684142523865244
 20
0.1781742766790656
 10
0.1690082712002532
 20
0.1794359601967875
 10
0.1686370077838921
 20
0.1802523430571518
 10
0.1687855131504365
 20
0.1815140248967494
 10
0.1691567739143478
 20
0.1822561926590128
 10
0.1692310265976209
 20
0.1832952258480559
 10
0.1692310265976209
 20
0.1842600405827478
 10
0.1697507927280775
 20
0.1850764251212381
 10
0.1700478034611672
 20
0.1863381069608348
  0
LWPOLYLINE
  5
1143
330
2
100
AcDbEntity
  8
Profilo
  6
Continuous
370
     0
100
AcDbPolyline
 90
       10
 70
   128
 43
0.0
 10
0.1717556072190822
 20
0.1874513569261048
 10
0.1712358410886257
 20
0.1854475073242437
 10
0.1702705615109847
 20
0.1826272748620193
 10
0.1695280373307106
 20
0.1795101769730144
 10
0.1692310265976209
 20
0.1763930774058834
 10
0.1686370077838921
 20
0.1738697120485638
 10
0.1675974755229781
 20
0.1720885127753825
 10
0.1666321959453372
 20
0.1715689953417979
 10
0.1659639244483353
 20
0.1718658624467036
 10
0.1658896717650631
 20
0.1723111631040614
  0
LWPOLYLINE
  5
1144
330
2
100
AcDbEntity
  8
Profilo
  6
Continuous
370
     0
100
AcDbPolyline
 90
       24
 70
   128
 43
0.0
 10
0.1664094378955196
 20
0.1694167138656101
 10
0.1684885050697975
 20
0.1699362296210695
 10
0.1694537846474375
 20
0.1714947785655719
 10
0.1704190642250793
 20
0.173572844943659
 10
0.1708645803247135
 20
0.1765415109583362
 10
0.1708645803247135
 20
0.1789164427632029
 10
0.1709388303555359
 20
0.1806234252601583
 10
0.1718298599023544
 20
0.1831467922956039
 10
0.1722011206662666
 20
0.1847795580163324
 10
0.1730178975298129
 20
0.1864123237370608
 10
0.1740574297907269
 20
0.1879708726815642
 10
0.17509696205164
 20
0.1898262887309715
 10
0.1765820104121882
 20
0.1921270054377374
 10
0.1783640642009256
 20
0.1940566382633716
 10
0.1802946260086582
 20
0.1953183201029692
 10
0.1817054216859333
 20
0.1964315700682392
 10
0.1826707012635742
 20
0.1965057868444652
 10
0.1846755131021291
 20
0.1961347029633335
 10
0.1843785050214892
 20
0.1950214546761887
 10
0.1851210292017633
 20
0.1940566382633716
 10
0.1864575695433164
 20
0.1938339879346927
 10
0.1872000937235905
 20
0.1939082047109187
 10
0.1875713544875026
 20
0.1950214546761887
 10
0.1875713544875026
 20
0.1960604878652327
  0
LWPOLYLINE
  5
1145
330
2
100
AcDbEntity
  8
Profilo
  6
Continuous
370
     0
100
AcDbPolyline
 90
       39
 70
   128
 43
0.0
 10
0.1867545802764061
 20
0.1930176050743285
 10
0.1858635507295876
 20
0.1917559215566057
 10
0.1858635507295876
 20
0.1907168883675626
 10
0.1868288329596783
 20
0.1905684564932349
 10
0.1874971044566802
 20
0.1909395386962415
 10
0.1881653733012314
 20
0.1899747222834244
 10
0.1883881313510489
 20
0.188341956562695
 10
0.1897246743450518
 20
0.1879708726815642
 10
0.1903186931587806
 20
0.188341956562695
 10
0.1917294861836067
 20
0.1884903901151479
 10
0.1929175238110652
 20
0.1884903901151479
 10
0.1932887845749764
 20
0.189455206527965
 10
0.1927690184445208
 20
0.1901231558358772
 10
0.1918037388668789
 20
0.1905684564932349
 10
0.1919522442334243
 20
0.1910137554724675
 10
0.1924720103638808
 20
0.1912364058011472
 10
0.1923977576806086
 20
0.1917559215566057
 10
0.1917294861836067
 20
0.1922754389901903
 10
0.1907642066059658
 20
0.1930918218505545
 10
0.1900959351089639
 20
0.193462904053561
 10
0.1900216824256917
 20
0.1937597711584668
 10
0.1907642066059658
 20
0.1936855543822399
 10
0.1913582254196946
 20
0.1938339879346927
 10
0.1915809808170623
 20
0.1942792869139253
 10
0.1921007495999687
 20
0.1942792869139253
 10
0.192546263047153
 20
0.1950214546761887
 10
0.1917294861836067
 20
0.1957636207603269
 10
0.1909869620033326
 20
0.1959862710890058
 10
0.190838459289238
 20
0.1971737361523765
 10
0.1910612146866048
 20
0.197767470362188
 10
0.1909869620033326
 20
0.1979901190127417
 10
0.1901701877922361
 20
0.1986580699987782
 10
0.1888336447982333
 20
0.1987322867750051
 10
0.187422851773408
 20
0.1993260193066896
 10
0.1866803275931339
 20
0.1994002360829164
 10
0.1857893006987652
 20
0.1994002360829164
 10
0.184304252338217
 20
0.1994002360829164
 10
0.1837844862077604
 20
0.1991033689780107
 10
0.1828192066301195
 20
0.1988807186493319
  0
LWPOLYLINE
  5
1146
330
2
100
AcDbEntity
  8
Profilo
  6
Continuous
370
     0
100
AcDbPolyline
 90
       18
 70
   128
 43
0.0
 10
0.1917369607875026
 20
0.1971097576195316
 10
0.1936646181625647
 20
0.1978103867424891
 10
0.1954754483805656
 20
0.1983942451840165
 10
0.1972278663462621
 20
0.1986277882250026
 10
0.1992139359736296
 20
0.1985694028842876
 10
0.1995060051925037
 20
0.1988613312659887
 10
0.2002069734397622
 20
0.1986861735657176
 10
0.2007911118775114
 20
0.1982774745025865
 10
0.2017257344388899
 20
0.1988613312659887
 10
0.2018425615959494
 20
0.1999122757894883
 10
0.2012000082534451
 20
0.2009048349722721
 10
0.1999733164731934
 20
0.2015470770763902
 10
0.1990386965642647
 20
0.2016638494359454
 10
0.1993307657831389
 20
0.2023644785589037
 10
0.2002069734397622
 20
0.2037073514641045
 10
0.2007326969727563
 20
0.2050502243693052
 10
0.2010247661916304
 20
0.2059260111925337
 10
0.2013752503152606
 20
0.2071521134163036
  0
LWPOLYLINE
  5
1147
330
2
100
AcDbEntity
  8
Profilo
  6
Continuous
370
     0
100
AcDbPolyline
 90
        9
 70
   128
 43
0.0
 10
0.1959427596612553
 20
0.2109471890909197
 10
0.1963516560371889
 20
0.2117645905734332
 10
0.197461520660382
 20
0.2117645905734332
 10
0.1979872468458268
 20
0.2110639614504758
 10
0.1981040740028863
 20
0.2099546315862612
 10
0.1976951776269518
 20
0.2091372301037476
 10
0.1968189673178786
 20
0.2090204577441916
 10
0.1953586212235061
 20
0.2089036870627615
 10
0.1943655864098233
 20
0.209604316185719
  0
LWPOLYLINE
  5
1148
330
2
100
AcDbEntity
  8
Profilo
  6
Continuous
370
     0
100
AcDbPolyline
 90
       23
 70
   128
 43
0.0
 10
0.1957675175994407
 20
0.2110055744316347
 10
0.1955922781900758
 20
0.211647818213878
 10
0.196118001723069
 20
0.2128155350969329
 10
0.1969357971273879
 20
0.2132242358381901
 10
0.1981624862551907
 20
0.213107463478634
 10
0.1987466273453897
 20
0.2126403773966618
 10
0.1990971088165692
 20
0.2120565189551343
 10
0.1993307657831389
 20
0.2108888037502047
 10
0.1996812472543183
 20
0.2103049453086773
 10
0.2003238005968226
 20
0.2097210885452751
 10
0.1999733164731934
 20
0.2090204577441916
 10
0.1995644200972588
 20
0.2076191994982758
 10
0.2005574549109417
 20
0.2069769557160334
 10
0.2010247661916304
 20
0.2074440417980047
 10
0.2019593887530089
 20
0.2073272711165747
 10
0.2025435271907581
 20
0.2073856564572897
 10
0.2028940113143882
 20
0.2079695148988171
 10
0.2032444954380166
 20
0.2087869147032054
 10
0.2035365646568916
 20
0.2090788447630318
 10
0.2038870461280711
 20
0.209604316185719
 10
0.2038286338757658
 20
0.2105384883496625
 10
0.2033029076903219
 20
0.2119397482737043
 10
0.2027187692525727
 20
0.2128155350969329
  0
LWPOLYLINE
  5
1149
330
2
100
AcDbEntity
  8
Profilo
  6
Continuous
370
     0
100
AcDbPolyline
 90
        4
 70
   128
 43
0.0
 10
0.1999733164731934
 20
0.2138664796204325
 10
0.2014336652200148
 20
0.2129323057783638
 10
0.2021346308148235
 20
0.2118229759141491
 10
0.2026603543478176
 20
0.2107720313906486
  0
LWPOLYLINE
  5
114A
330
2
100
AcDbEntity
  8
Profilo
  6
Continuous
370
     0
100
AcDbPolyline
 90
       25
 70
   128
 43
0.0
 10
0.184143158444316
 20
0.206042783552089
 10
0.1845520548202506
 20
0.2052837674102904
 10
0.1844352276631902
 20
0.2041744375460758
 10
0.1842015706966213
 20
0.2032402653821323
 10
0.1845520548202506
 20
0.2027731793001601
 10
0.1847857117868203
 20
0.2037657384829447
 10
0.1853698502245686
 20
0.2046999106468882
 10
0.1864797121953119
 20
0.204583138287333
 10
0.1867133691618816
 20
0.2039408945050897
 10
0.1867133691618816
 20
0.2030651076818612
 10
0.1862460578811928
 20
0.2020725501772026
 10
0.1860124009146231
 20
0.2012551486946891
 10
0.186538127100067
 20
0.2008464479534319
 10
0.1867717814141869
 20
0.2017222347766604
 10
0.1874727496614454
 20
0.2024228638996187
 10
0.1885241993798834
 20
0.2020725501772026
 10
0.1884073695703732
 20
0.2007296772720019
 10
0.1884657844751283
 20
0.2000290481490436
 10
0.1888162685987575
 20
0.1995619603889461
 10
0.19027661469313
 20
0.1990364889662589
 10
0.1921458598158869
 20
0.1990364889662589
 10
0.193489378753199
 20
0.1990364889662589
 10
0.1953586212235061
 20
0.1998538904487733
 10
0.1968189673178786
 20
0.2005545195717308
 10
0.1980456590981312
 20
0.201079990994418
  0
LWPOLYLINE
  5
114B
330
2
100
AcDbEntity
  8
Profilo
  6
Continuous
370
     0
100
AcDbPolyline
 90
        6
 70
   128
 43
0.0
 10
0.1886410265369429
 20
0.2034738084231184
 10
0.1907439259738188
 20
0.202714793959445
 10
0.1931973068818751
 20
0.2031818800414173
 10
0.1945408284716379
 20
0.2043495952463469
 10
0.1957675175994407
 20
0.2059843982113739
 10
0.1960595868183148
 20
0.2077943571985469
  0
LWPOLYLINE
  5
114C
330
2
100
AcDbEntity
  8
Profilo
  6
Continuous
370
     0
100
AcDbPolyline
 90
        6
 70
   128
 43
0.0
 10
0.1894588192888111
 20
0.2022477078774728
 10
0.191654506729054
 20
0.2020289038123292
 10
0.1942557139764736
 20
0.2027947818090999
 10
0.196118001723069
 20
0.204466367605903
 10
0.1971694514415079
 20
0.2062179412523601
 10
0.1971694514415079
 20
0.208086285580248
  0
LWPOLYLINE
  5
114D
330
2
100
AcDbEntity
  8
Profilo
  6
Continuous
370
     0
100
AcDbPolyline
 90
        8
 70
   128
 43
0.0
 10
0.1895756490983213
 20
0.201021605653703
 10
0.191853787944563
 20
0.201021605653703
 10
0.1945408284716379
 20
0.2017806217955015
 10
0.1960011745660104
 20
0.2027731793001601
 10
0.1977535898792562
 20
0.2047582959876041
 10
0.1983961432217605
 20
0.2065682549747762
 10
0.1985713852835751
 20
0.2084949863215043
 10
0.1985713852835751
 20
0.2090788447630318
  0
LWPOLYLINE
  5
114E
330
2
100
AcDbEntity
  8
Profilo
  6
Continuous
370
     0
100
AcDbPolyline
 90
        5
 70
   128
 43
0.0
 10
0.1888260932732892
 20
0.2051453875074189
 10
0.1912482495407977
 20
0.204733303665252
 10
0.1932065904566213
 20
0.2052484093070238
 10
0.194391904018004
 20
0.2063816407120464
 10
0.1950103253710669
 20
0.207875444220372
  0
LWPOLYLINE
  5
114F
330
2
100
AcDbEntity
  8
Profilo
  6
Continuous
370
     0
100
AcDbPolyline
 90
        4
 70
   128
 43
0.0
 10
0.1851405353185305
 20
0.1975368288001079
 10
0.1862757255336325
 20
0.1971721217956918
 10
0.1865595217611826
 20
0.196078000782446
 10
0.1865595217611826
 20
0.1952270183315184
  0
LWPOLYLINE
  5
1150
330
2
100
AcDbEntity
  8
Profilo
  6
Continuous
370
     0
100
AcDbPolyline
 90
        3
 70
   128
 43
0.0
 10
0.186235182836489
 20
0.1982662428089384
 10
0.1877352546734272
 20
0.1977799673624262
 10
0.1898029216179156
 20
0.1966047996023653
  0
LWPOLYLINE
  5
1151
330
2
100
AcDbEntity
  8
Profilo
  6
Continuous
370
     0
100
AcDbPolyline
 90
        7
 70
   128
 43
0.0
 10
0.1872082022630188
 20
0.1970505533535957
 10
0.1880595962505698
 20
0.19624009259795
 10
0.1881812216895486
 20
0.1949838797692002
 10
0.1881812216895486
 20
0.1937276669404503
 10
0.1885055632666921
 20
0.1920257003604701
 10
0.1889109875856718
 20
0.1907289658364383
 10
0.1897218362236295
 20
0.1898779817073856
  0
LWPOLYLINE
  5
1152
330
2
100
AcDbEntity
  8
Profilo
  6
Continuous
370
     0
100
AcDbPolyline
 90
        5
 70
   128
 43
0.0
 10
0.1885866486609782
 20
0.193241391493938
 10
0.1888299021913848
 20
0.1921877938540993
 10
0.1894785826932219
 20
0.1914178564718617
 10
0.1902083485893442
 20
0.1908505342785344
 10
0.1909786545301601
 20
0.190364258832023
  0
LWPOLYLINE
  5
1153
330
2
100
AcDbEntity
  8
Profilo
  6
Continuous
370
     0
100
AcDbPolyline
 90
        3
 70
   128
 43
0.0
 10
0.1653496992710579
 20
0.1668871780410049
 10
0.167542222338537
 20
0.1654601739944094
 10
0.1689699141218508
 20
0.1637273819280071
  0
LWPOLYLINE
  5
1154
330
2
100
AcDbEntity
  8
Profilo
  6
Continuous
370
     0
100
AcDbPolyline
 90
        2
 70
   128
 43
0.0
 10
0.1810682289447332
 20
0.1941272034386151
 10
0.1820622769942881
 20
0.1923693485685919
  0
LWPOLYLINE
  5
1155
330
2
100
AcDbEntity
  8
Profilo
  6
Continuous
370
     0
100
AcDbPolyline
 90
        2
 70
   128
 43
0.0
 10
0.1800741808951773
 20
0.193515776752167
 10
0.1810682289447332
 20
0.1916814933365724
  0
LWPOLYLINE
  5
1156
330
2
100
AcDbEntity
  8
Profilo
  6
Continuous
370
     0
100
AcDbPolyline
 90
        2
 70
   128
 43
0.0
 10
0.177550828358032
 20
0.1909936364264276
 10
0.1782390144490904
 20
0.1899236367884239
  0
LWPOLYLINE
  5
1157
330
2
100
AcDbEntity
  8
Profilo
  6
Continuous
370
     0
100
AcDbPolyline
 90
        2
 70
   128
 43
0.0
 10
0.1750274758208876
 20
0.1875543552319526
 10
0.1763273831764911
 20
0.1868664983218079
  0
LWPOLYLINE
  5
1158
330
2
100
AcDbEntity
  8
Profilo
  6
Continuous
370
     0
100
AcDbPolyline
 90
        2
 70
   128
 43
0.0
 10
0.1744157519038918
 20
0.1864843555939498
 10
0.1757921267384566
 20
0.1857965003619294
  0
LWPOLYLINE
  5
1159
330
2
100
AcDbEntity
  8
Profilo
  6
Continuous
370
     0
100
AcDbPolyline
 90
        2
 70
   128
 43
0.0
 10
0.1720453290197712
 20
0.1807522197104497
 10
0.173421703854336
 20
0.1802936501151454
  0
LWPOLYLINE
  5
115A
330
2
100
AcDbEntity
  8
Profilo
  6
Continuous
370
     0
100
AcDbPolyline
 90
        2
 70
   128
 43
0.0
 10
0.2411259152999907
 20
0.1901814992234562
 10
0.2425094756214108
 20
0.1902416247802642
  0
LWPOLYLINE
  5
115B
330
2
100
AcDbEntity
  8
Profilo
  6
Continuous
370
     0
100
AcDbPolyline
 90
        2
 70
   128
 43
0.0
 10
0.2415469996833428
 20
0.1886783535907409
 10
0.2428102475284968
 20
0.1891593597233346
  0
LWPOLYLINE
  5
115C
330
2
100
AcDbEntity
  8
Profilo
  6
Continuous
370
     0
100
AcDbPolyline
 90
        2
 70
   128
 43
0.0
 10
0.2428102475284968
 20
0.186393572363264
 10
0.2441938078499168
 20
0.1871150824012176
  0
LWPOLYLINE
  5
115D
330
2
100
AcDbEntity
  8
Profilo
  6
Continuous
370
     0
100
AcDbPolyline
 90
        2
 70
   128
 43
0.0
 10
0.2431711769999412
 20
0.1855518112116935
 10
0.2443141176737313
 20
0.1861530684579041
  0
LWPOLYLINE
  5
115E
330
2
100
AcDbEntity
  8
Profilo
  6
Continuous
370
     0
100
AcDbPolyline
 90
        2
 70
   128
 43
0.0
 10
0.2457578302546075
 20
0.1817638843515022
 10
0.24684061601649
 20
0.1826657710598808
  0
LWPOLYLINE
  5
115F
330
2
100
AcDbEntity
  8
Profilo
  6
Continuous
370
     0
100
AcDbPolyline
 90
        2
 70
   128
 43
0.0
 10
0.2465398414569533
 20
0.1809822487567406
 10
0.2473820102236566
 20
0.1819442610219272
  0
LWPOLYLINE
  5
1160
330
2
100
AcDbEntity
  8
Profilo
  6
Continuous
370
     0
100
AcDbPolyline
 90
        2
 70
   128
 43
0.0
 10
0.2475023173950213
 20
0.180320864275595
 10
0.2481640214260024
 20
0.1813430037757165
  0
LWPOLYLINE
  5
1161
330
2
100
AcDbEntity
  8
Profilo
  6
Continuous
370
     0
100
AcDbPolyline
 90
        2
 70
   128
 43
0.0
 10
0.2505100550330397
 20
0.1786974675292637
 10
0.2510514492402054
 20
0.180140485927044
  0
LWPOLYLINE
  5
1162
330
2
100
AcDbEntity
  8
Profilo
  6
Continuous
370
     0
100
AcDbPolyline
 90
        2
 70
   128
 43
0.0
 10
0.251652995706829
 20
0.1781563341617359
 10
0.251893615354458
 20
0.1795993542376423
  0
LWPOLYLINE
  5
1163
330
2
100
AcDbEntity
  8
Profilo
  6
Continuous
370
     0
100
AcDbPolyline
 90
        2
 70
   128
 43
0.0
 10
0.1746721058844916
 20
0.1487830270243017
 10
0.1764878166103605
 20
0.1494635908012335
  0
LWPOLYLINE
  5
1164
330
2
100
AcDbEntity
  8
Profilo
  6
Continuous
370
     0
100
AcDbPolyline
 90
        2
 70
   128
 43
0.0
 10
0.175428650915082
 20
0.1470438077374191
 10
0.1769417436287144
 20
0.1478756075363082
  0
LWPOLYLINE
  5
1165
330
2
100
AcDbEntity
  8
Profilo
  6
Continuous
370
     0
100
AcDbPolyline
 90
        2
 70
   128
 43
0.0
 10
0.176790434622597
 20
0.1456070604944511
 10
0.1782278715069445
 20
0.1465144799824437
  0
LWPOLYLINE
  5
1166
330
2
100
AcDbEntity
  8
Profilo
  6
Continuous
370
     0
100
AcDbPolyline
 90
        2
 70
   128
 43
0.0
 10
0.1772443616409509
 20
0.1444727869735222
 10
0.1789844191899856
 20
0.1456070604944511
  0
LWPOLYLINE
  5
1167
330
2
100
AcDbEntity
  8
Profilo
  6
Continuous
370
     0
100
AcDbPolyline
 90
        2
 70
   128
 43
0.0
 10
0.1777739444885897
 20
0.1436409871746339
 10
0.1791357281961039
 20
0.1446996426845838
  0
LWPOLYLINE
  5
1168
330
2
100
AcDbEntity
  8
Profilo
  6
Continuous
370
     0
100
AcDbPolyline
 90
        2
 70
   128
 43
0.0
 10
0.1788331101838674
 20
0.1422042399316651
 10
0.1800435822328126
 20
0.1432628954416158
  0
LWPOLYLINE
  5
1169
330
2
100
AcDbEntity
  8
Profilo
  6
Continuous
370
     0
100
AcDbPolyline
 90
        2
 70
   128
 43
0.0
 10
0.1795896552144587
 20
0.1415236761547333
 10
0.1807244740865705
 20
0.1427335676866405
  0
LWPOLYLINE
  5
116A
330
2
100
AcDbEntity
  8
Profilo
  6
Continuous
370
     0
100
AcDbPolyline
 90
        2
 70
   128
 43
0.0
 10
0.1799679290559792
 20
0.1407674926886971
 10
0.1809514389219719
 20
0.1416749121766906
  0
LWPOLYLINE
  5
116B
330
2
100
AcDbEntity
  8
Profilo
  6
Continuous
370
     0
100
AcDbPolyline
 90
        2
 70
   128
 43
0.0
 10
0.1999878704659457
 20
0.1249244663649786
 10
0.2006425587668685
 20
0.1264116765184039
  0
LWPOLYLINE
  5
116C
330
2
100
AcDbEntity
  8
Profilo
  6
Continuous
370
     0
100
AcDbPolyline
 90
        2
 70
   128
 43
0.0
 10
0.2008211084337423
 20
0.1245675357939059
 10
0.2014162784107398
 20
0.1260547459473321
  0
LWPOLYLINE
  5
116D
330
2
100
AcDbEntity
  8
Profilo
  6
Continuous
370
     0
100
AcDbPolyline
 90
        2
 70
   128
 43
0.0
 10
0.2018328987208635
 20
0.1242700930919706
 10
0.2022495163785374
 20
0.1254598622215867
  0
LWPOLYLINE
  5
116E
330
2
100
AcDbEntity
  8
Profilo
  6
Continuous
370
     0
100
AcDbPolyline
 90
        2
 70
   128
 43
0.0
 10
0.2059990912122975
 20
0.123794186782625
 10
0.2059990912122975
 20
0.125519350090724
  0
LWPOLYLINE
  5
116F
330
2
100
AcDbEntity
  8
Profilo
  6
Continuous
370
     0
100
AcDbPolyline
 90
        2
 70
   128
 43
0.0
 10
0.207248949490217
 20
0.123794186782625
 10
0.2071894311662925
 20
0.1262332112328685
  0
LWPOLYLINE
  5
1170
330
2
100
AcDbEntity
  8
Profilo
  6
Continuous
370
     0
100
AcDbPolyline
 90
        2
 70
   128
 43
0.0
 10
0.2081417031294892
 20
0.1239726520681613
 10
0.2080226691340892
 20
0.1255788396379857
  0
LWPOLYLINE
  5
1171
330
2
100
AcDbEntity
  8
Profilo
  6
Continuous
370
     0
100
AcDbPolyline
 90
        2
 70
   128
 43
0.0
 10
0.2118317596393249
 20
0.1242106052228341
 10
0.2118317596393249
 20
0.1259357702090583
  0
LWPOLYLINE
  5
1172
330
2
100
AcDbEntity
  8
Profilo
  6
Continuous
370
     0
100
AcDbPolyline
 90
        2
 70
   128
 43
0.0
 10
0.2127245159310469
 20
0.1241511173536968
 10
0.2127245159310469
 20
0.125638327507123
  0
LWPOLYLINE
  5
1173
330
2
100
AcDbEntity
  8
Profilo
  6
Continuous
370
     0
100
AcDbPolyline
 90
        2
 70
   128
 43
0.0
 10
0.2158194024638851
 20
0.125102931650514
 10
0.2157003684684851
 20
0.1265901418039402
  0
LWPOLYLINE
  5
1174
330
2
100
AcDbEntity
  8
Profilo
  6
Continuous
370
     0
100
AcDbPolyline
 90
        2
 70
   128
 43
0.0
 10
0.2307119327056153
 20
0.1370764758952151
 10
0.2304738647148161
 20
0.1392180593216484
  0
LWPOLYLINE
  5
1175
330
2
100
AcDbEntity
  8
Profilo
  6
Continuous
370
     0
100
AcDbPolyline
 90
        2
 70
   128
 43
0.0
 10
0.231664204668812
 20
0.1371954533116141
 10
0.2314856550019373
 20
0.1392775471907858
  0
LWPOLYLINE
  5
1176
330
2
100
AcDbEntity
  8
Profilo
  6
Continuous
370
     0
100
AcDbPolyline
 90
        2
 70
   128
 43
0.0
 10
0.2341044029007273
 20
0.1382067554775687
 10
0.2338663349099281
 20
0.1402888510348646
  0
LWPOLYLINE
  5
1177
330
2
100
AcDbEntity
  8
Profilo
  6
Continuous
370
     0
100
AcDbPolyline
 90
        2
 70
   128
 43
0.0
 10
0.2349971591924485
 20
0.138504198179504
 10
0.2348781251970493
 20
0.1408242468914736
  0
LWPOLYLINE
  5
1178
330
2
100
AcDbEntity
  8
Profilo
  6
Continuous
370
     0
100
AcDbPolyline
 90
        2
 70
   128
 43
0.0
 10
0.2376754254151638
 20
0.1390395940361121
 10
0.2377349410866385
 20
0.1411216879152829
  0
LWPOLYLINE
  5
1179
330
2
100
AcDbEntity
  8
Profilo
  6
Continuous
370
     0
100
AcDbPolyline
 90
        2
 70
   128
 43
0.0
 10
0.2408893459434012
 20
0.1388016392033141
 10
0.2413654819249995
 20
0.1410622000461464
  0
LWPOLYLINE
  5
117A
330
2
100
AcDbEntity
  8
Profilo
  6
Continuous
370
     0
100
AcDbPolyline
 90
        2
 70
   128
 43
0.0
 10
0.2414249975964742
 20
0.1382662450248312
 10
0.2418416179065979
 20
0.1404078267731384
  0
LWPOLYLINE
  5
117B
330
2
100
AcDbEntity
  8
Profilo
  6
Continuous
370
     0
100
AcDbPolyline
 90
        2
 70
   128
 43
0.0
 10
0.2446389181247124
 20
0.1361246615983979
 10
0.245234088101709
 20
0.1373144290498879
  0
LWPOLYLINE
  5
117C
330
2
100
AcDbEntity
  8
Profilo
  6
Continuous
370
     0
100
AcDbPolyline
 90
        2
 70
   128
 43
0.0
 10
0.2452936064256344
 20
0.1354702883253899
 10
0.2461863600649057
 20
0.1367195453241433
  0
LWPOLYLINE
  5
117D
330
2
100
AcDbEntity
  8
Profilo
  6
Continuous
370
     0
100
AcDbPolyline
 90
        2
 70
   128
 43
0.0
 10
0.2481292080207034
 20
0.1642831519057245
 10
0.2522205828570296
 20
0.1632370236022708
  0
LWPOLYLINE
  5
117E
330
2
100
AcDbEntity
  8
Profilo
  6
Continuous
370
     0
100
AcDbPolyline
 90
        2
 70
   128
 43
0.0
 10
0.2483195027358569
 20
0.163141920876673
 10
0.2516496934066694
 20
0.1625713062012098
  0
LWPOLYLINE
  5
117F
330
2
100
AcDbEntity
  8
Profilo
  6
Continuous
370
     0
100
AcDbPolyline
 90
        2
 70
   128
 43
0.0
 10
0.2481292080207034
 20
0.1620006915257467
 10
0.2516496934066694
 20
0.1616202806233548
  0
LWPOLYLINE
  5
1180
330
2
100
AcDbEntity
  8
Profilo
  6
Continuous
370
     0
100
AcDbPolyline
 90
        2
 70
   128
 43
0.0
 10
0.2479389106530991
 20
0.1612398697209628
 10
0.2515545447228673
 20
0.1606692550454997
  0
LWPOLYLINE
  5
1181
330
2
100
AcDbEntity
  8
Profilo
  6
Continuous
370
     0
100
AcDbPolyline
 90
        2
 70
   128
 43
0.0
 10
0.2475583159178925
 20
0.1600986403700365
 10
0.250888506588705
 20
0.159908434918841
  0
LWPOLYLINE
  5
1182
330
2
100
AcDbEntity
  8
Profilo
  6
Continuous
370
     0
100
AcDbPolyline
 90
        2
 70
   128
 43
0.0
 10
0.2467019830685757
 20
0.1592427175177801
 10
0.2501273197707405
 20
0.1586721011641917
  0
LWPOLYLINE
  5
1183
330
2
100
AcDbEntity
  8
Profilo
  6
Continuous
370
     0
100
AcDbPolyline
 90
        2
 70
   128
 43
0.0
 10
0.2464165370171703
 20
0.158291691939925
 10
0.2496515790041816
 20
0.1575308718132654
  0
CIRCLE
  5
1184
102
{ACAD_REACTORS
330
1197
102
}
330
2
100
AcDbEntity
  8
Sezione
  6
ACAD_ISO10W100
 62
     3
 48
0.001
100
AcDbCircle
 10
0.2101008424327411
 20
0.1660785766483598
 30
0.0
 40
0.0512233321410593
  0
DIMENSION
  5
1186
102
{ACAD_XDICTIONARY
360
1190
102
}
102
{ACAD_REACTORS
330
1197
102
}
330
2
100
AcDbEntity
  8
Sezione
  6
ACAD_ISO10W100
100
AcDbDimension
  2
*D25
 10
0.1750322086303928
 20
0.1287419903171205
 30
0.0
 11
0.2631519144663382
 21
0.2056018570955785
 31
0.0
 70
    35
  1
d 410 mm
 71
     5
 42
0.1024466642821187
  3
Bovelacci
100
AcDbDiametricDimension
 15
0.2451694762350893
 25
0.203415162979599
 35
0.0
 40
0.0
1001
ACAD
1000
DSTYLE
1002
{
1070
   288
1070
     1
1002
}
  0
ENDSEC
  0
SECTION
  2
OBJECTS
  0
DICTIONARY
  5
9
330
0
100
AcDbDictionary
281
     1
  3
ACAD_2007HEADERVARS_RT
350
208
  3
ACAD_COLOR
350
184
  3
ACAD_GROUP
350
17F
  3
ACAD_LAYOUT
350
164
  3
ACAD_MATERIAL
350
B
  3
ACAD_MLINESTYLE
350
180
  3
ACAD_PLOTSETTINGS
350
181
  3
ACAD_PLOTSTYLENAME
350
8
  3
ACAD_TABLESTYLE
350
185
  3
ACAD_VISUALSTYLE
350
17A
  3
ACDBHEADERROUNDTRIPXREC
350
11A8
  3
AcDbVariableDictionary
350
18B
  3
DWGPROPS
350
11A7
  0
DICTIONARY
  5
16E
330
16D
100
AcDbDictionary
280
     1
281
     1
  3
ACAD_LAYERSTATES
360
16F
  0
DICTIONARY
  5
3
330
2
100
AcDbDictionary
280
     1
281
     1
  3
ACAD_SORTENTS
360
18A
  0
DICTIONARY
  5
11A9
330
18
100
AcDbDictionary
280
     1
281
     1
  3
ACAD_MTEXT_RT
360
11AA
  0
DICTIONARY
  5
1190
330
1186
100
AcDbDictionary
280
     1
281
     1
  3
ACAD_DIMASSOC
360
1197
  0
DICTIONARY
  5
208
102
{ACAD_REACTORS
330
9
102
}
330
9
100
AcDbDictionary
281
     1
  3
DIMFXL
350
209
  0
DICTIONARY
  5
184
102
{ACAD_REACTORS
330
9
102
}
330
9
100
AcDbDictionary
281
     1
  0
DICTIONARY
  5
17F
102
{ACAD_REACTORS
330
9
102
}
330
9
100
AcDbDictionary
281
     1
  0
DICTIONARY
  5
164
102
{ACAD_REACTORS
330
9
102
}
330
9
100
AcDbDictionary
281
     1
  3
Layout1
350
168
  3
Layout2
350
16C
  3
Model
350
163
  0
DICTIONARY
  5
B
102
{ACAD_REACTORS
330
9
102
}
330
9
100
AcDbDictionary
281
     1
  3
ByBlock
350
183
  3
ByLayer
350
182
  3
Global
350
A
  0
DICTIONARY
  5
180
102
{ACAD_REACTORS
330
9
102
}
330
9
100
AcDbDictionary
281
     1
  3
Standard
350
186
  0
DICTIONARY
  5
181
102
{ACAD_REACTORS
330
9
102
}
330
9
100
AcDbDictionary
281
     1
  0
ACDBDICTIONARYWDFLT
  5
8
102
{ACAD_REACTORS
330
9
102
}
330
9
100
AcDbDictionary
281
     1
  3
Normal
350
7
100
AcDbDictionaryWithDefault
340
7
  0
DICTIONARY
  5
185
102
{ACAD_REACTORS
330
9
102
}
330
9
100
AcDbDictionary
281
     1
  3
Standard
350
187
  0
DICTIONARY
  5
17A
102
{ACAD_REACTORS
330
9
102
}
330
9
100
AcDbDictionary
281
     1
  3
2dWireframe
350
179
  3
3D Hidden
350
1BD
  3
3dWireframe
350
189
  3
Basic
350
1BC
  3
Brighten
350
1C0
  3
ColorChange
350
1C4
  3
Conceptual
350
1BE
  3
Dim
350
1BF
  3
Facepattern
350
1C3
  3
Flat
350
1B8
  3
FlatWithEdges
350
1B9
  3
Gouraud
350
1BA
  3
GouraudWithEdges
350
1BB
  3
Linepattern
350
1C2
  3
Realistic
350
188
  3
Thicken
350
1C1
  0
DICTIONARY
  5
11A8
102
{ACAD_REACTORS
330
9
102
}
330
9
100
AcDbDictionary
281
     1
  0
DICTIONARY
  5
18B
102
{ACAD_REACTORS
330
9
102
}
330
9
100
AcDbDictionary
281
     1
  3
CTABLESTYLE
350
18C
  3
DIMASSOC
350
190
  3
HIDETEXT
350
18F
  3
INDEXCTL
350
18E
  3
PROJECTNAME
350
31D
  3
SORTENTS
350
18D
  0
XRECORD
  5
11A7
102
{ACAD_REACTORS
330
9
102
}
330
9
100
AcDbXrecord
280
     1
  1
DWGPROPS COOKIE
  2

  3

  4

  6

  7

  8
Mario
  9

300
=
301
=
302
=
303
=
304
=
305
=
306
=
307
=
308
=
309
=
 40
0.1484962847222222
 41
2454297.625402373
 42
2454306.866297014
  1

 90
        0
  0
DICTIONARY
  5
16F
102
{ACAD_REACTORS
330
16E
102
}
330
16E
100
AcDbDictionary
281
     1
  0
SORTENTSTABLE
  5
18A
102
{ACAD_REACTORS
330
3
102
}
330
3
100
AcDbSortentsTable
330
2
331
10FC
  5
10FD
331
106A
  5
106B
331
111D
  5
111E
331
1083
  5
1084
331
113E
  5
113F
331
10A4
  5
10A5
331
110F
  5
1110
331
115F
  5
1160
331
10C5
  5
10C6
331
1096
  5
1097
331
1178
  5
1179
331
10E6
  5
10E7
331
10B7
  5
10B8
331
10F8
  5
10F9
331
1066
  5
1067
331
23F
  5
1066
331
1119
  5
111A
331
107F
  5
1080
331
113A
  5
113B
331
10A0
  5
10A1
331
110B
  5
110C
331
115B
  5
115C
331
10C1
  5
10C2
331
112C
  5
112D
331
1092
  5
1093
331
1174
  5
1175
331
10E2
  5
10E3
331
114D
  5
114E
331
10B3
  5
10B4
331
1E
  5
23
331
10F4
  5
10F5
331
10D4
  5
10D5
331
1115
  5
1116
331
107B
  5
107C
331
1136
  5
1137
331
109C
  5
109D
331
1107
  5
1108
331
1075
  5
1076
331
1157
  5
1158
331
10BD
  5
10BE
331
1128
  5
1129
331
108E
  5
108F
331
1170
  5
1171
331
10DE
  5
10DF
331
1149
  5
114A
331
10AF
  5
10B0
331
10F0
  5
10F1
331
10D0
  5
10D1
331
1183
  5
1184
331
1111
  5
1112
331
1132
  5
1133
331
1098
  5
1099
331
1103
  5
1104
331
1071
  5
1072
331
1153
  5
1154
331
10B9
  5
10BA
331
1124
  5
1125
331
108A
  5
108B
331
24
  5
1E
331
116C
  5
116D
331
10DA
  5
10DB
331
1145
  5
1146
331
10AB
  5
10AC
331
16
  5
15
331
1166
  5
1167
331
10CC
  5
10CD
331
117F
  5
1180
331
10ED
  5
10EE
331
10FF
  5
1100
331
106D
  5
106E
331
1120
  5
1121
331
1086
  5
1087
331
1168
  5
1169
331
1141
  5
1142
331
10A7
  5
10A8
331
12
  5
1C
331
1162
  5
1163
331
10C8
  5
10C9
331
117B
  5
117C
331
10E9
  5
10EA
331
10FB
  5
10FC
331
1069
  5
106A
331
111C
  5
111D
331
1082
  5
1083
331
113D
  5
113E
331
10A3
  5
10A4
331
110E
  5
110F
331
115E
  5
115F
331
10C4
  5
10C5
331
112F
  5
1130
331
1095
  5
1096
331
1177
  5
1178
331
10E5
  5
10E6
331
10B6
  5
10B7
331
10F7
  5
10F8
331
10D7
  5
10D8
331
1118
  5
1119
331
107E
  5
107F
331
1139
  5
113A
331
109F
  5
10A0
331
110A
  5
110B
331
115A
  5
115B
331
10C0
  5
10C1
331
112B
  5
112C
331
1091
  5
1092
331
1173
  5
1174
331
10E1
  5
10E2
331
114C
  5
114D
331
10B2
  5
10B3
331
1D
  5
22
331
10F3
  5
10F4
331
10D3
  5
10D4
331
1114
  5
1115
331
107A
  5
107B
331
1135
  5
1136
331
109B
  5
109C
331
1106
  5
1107
331
1074
  5
1075
331
1156
  5
1157
331
10BC
  5
10BD
331
1127
  5
1128
331
108D
  5
108E
331
116F
  5
1170
331
10DD
  5
10DE
331
1148
  5
1149
331
10AE
  5
10AF
331
10CF
  5
10D0
331
1182
  5
1183
331
1110
  5
1111
331
1131
  5
1132
331
1102
  5
1103
331
1070
  5
1071
331
1152
  5
1153
331
10B8
  5
10B9
331
1123
  5
1124
331
1089
  5
108A
331
23
  5
2AC
331
116B
  5
116C
331
10D9
  5
10DA
331
1144
  5
1145
331
10AA
  5
10AB
331
15
  5
14
331
1165
  5
1166
331
10CB
  5
10CC
331
117E
  5
117F
331
10EC
  5
10ED
331
10FE
  5
10FF
331
106C
  5
106D
331
111F
  5
1120
331
1085
  5
1086
331
1140
  5
1141
331
10A6
  5
10A7
331
11
  5
18
331
1161
  5
1162
331
10C7
  5
10C8
331
117A
  5
117B
331
10E8
  5
10E9
331
10FA
  5
10FB
331
1068
  5
1069
331
111B
  5
111C
331
1081
  5
1082
331
113C
  5
113D
331
10A2
  5
10A3
331
110D
  5
110E
331
D
  5
16
331
115D
  5
115E
331
10C3
  5
10C4
331
112E
  5
112F
331
1094
  5
1095
331
1176
  5
1177
331
10E4
  5
10E5
331
114F
  5
1150
331
10B5
  5
10B6
331
10F6
  5
10F7
331
10D6
  5
10D7
331
1117
  5
1118
331
107D
  5
107E
331
1138
  5
1139
331
109E
  5
109F
331
1109
  5
110A
331
1077
  5
1078
331
1159
  5
115A
331
10BF
  5
10C0
331
112A
  5
112B
331
1090
  5
1091
331
1172
  5
1173
331
10E0
  5
10E1
331
114B
  5
114C
331
10B1
  5
10B2
331
1C
  5
21
331
10F2
  5
10F3
331
10D2
  5
10D3
331
1113
  5
1114
331
1079
  5
107A
331
1134
  5
1135
331
109A
  5
109B
331
1105
  5
1106
331
1073
  5
1074
331
1155
  5
1156
331
10BB
  5
10BC
331
1126
  5
1127
331
108C
  5
108D
331
116E
  5
116F
331
10DC
  5
10DD
331
1147
  5
1148
331
10AD
  5
10AE
331
18
  5
1F
331
10CE
  5
10CF
331
1181
  5
1182
331
10EF
  5
10F0
331
1130
  5
1131
331
1101
  5
1102
331
106F
  5
1070
331
1151
  5
1152
331
1122
  5
1123
331
1088
  5
1089
331
22
  5
23F
331
116A
  5
116B
331
10D8
  5
10D9
331
1143
  5
1144
331
10A9
  5
10AA
331
14
  5
13
331
1164
  5
1165
331
10CA
  5
10CB
331
117D
  5
117E
331
10EB
  5
10EC
331
10FD
  5
10FE
331
106B
  5
106C
331
111E
  5
111F
331
1084
  5
1085
331
113F
  5
1140
331
10A5
  5
10A6
331
10
  5
17
331
1160
  5
1161
331
10C6
  5
10C7
331
1097
  5
1098
331
1179
  5
117A
331
10E7
  5
10E8
331
10F9
  5
10FA
331
1067
  5
1068
331
111A
  5
111B
331
1080
  5
1081
331
113B
  5
113C
331
10A1
  5
10A2
331
110C
  5
110D
331
115C
  5
115D
331
10C2
  5
10C3
331
112D
  5
112E
331
1093
  5
1094
331
1175
  5
1176
331
10E3
  5
10E4
331
114E
  5
114F
331
10B4
  5
10B5
331
1F
  5
24
331
10F5
  5
10F6
331
10D5
  5
10D6
331
1116
  5
1117
331
107C
  5
107D
331
1137
  5
1138
331
109D
  5
109E
331
1108
  5
1109
331
1076
  5
1077
331
1158
  5
1159
331
10BE
  5
10BF
331
1129
  5
112A
331
108F
  5
1090
331
1171
  5
1172
331
10DF
  5
10E0
331
114A
  5
114B
331
10B0
  5
10B1
331
10F1
  5
10F2
331
10D1
  5
10D2
331
1112
  5
1113
331
1078
  5
1079
331
1184
  5
11
331
1133
  5
1134
331
1099
  5
109A
331
1104
  5
1105
331
1072
  5
1073
331
1154
  5
1155
331
10BA
  5
10BB
331
1125
  5
1126
331
108B
  5
108C
331
25
  5
3BB
331
116D
  5
116E
331
10DB
  5
10DC
331
1146
  5
1147
331
10AC
  5
10AD
331
17
  5
1D
331
1167
  5
1168
331
10CD
  5
10CE
331
1180
  5
1181
331
10EE
  5
10EF
331
1100
  5
1101
331
106E
  5
106F
331
1150
  5
1151
331
1121
  5
1122
331
1087
  5
1088
331
21
  5
25
331
1169
  5
116A
331
1142
  5
1143
331
10A8
  5
10A9
331
13
  5
12
331
1163
  5
1164
331
10C9
  5
10CA
331
117C
  5
117D
331
10EA
  5
10EB
  0
XRECORD
  5
11AA
102
{ACAD_REACTORS
330
11A9
102
}
330
11A9
100
AcDbXrecord
280
     1
 40
7955300.0
  1
{\fTimes New Roman|b0|i0|c238|p18;\H1.6x;\C4;Bovelacci\P\pt0.09;\H0.4375x;\T0.95;via del Commercio, 5  47100 Forli - Italy  \fTimes New Roman|b0|i0|c0|p18;\P\fTimes New Roman|b0|i0|c238|p18;tel.+39-0543721386  fax +39-0543721127\fTimes New Roman|b0|i
  1
0|c0|p18; \fTimes New Roman|b0|i0|c238|p18;www.bovelacci.it\fTimes New Roman|b0|i0|c0|p18; \fTimes New Roman|b0|i0|c238|p18;e-mail: bovelacci@bovelacci\fTimes New Roman|b0|i0|c0|p18;.it}
  0
DIMASSOC
  5
1197
102
{ACAD_REACTORS
330
1190
102
}
330
1190
100
AcDbDimAssoc
330
1186
 90
        2
 70
     0
 71
     0
  1
AcDbOsnapPointRef
 72
     3
331
1184
 73
     2
 91
        0
 40
0.0
 10
0.0
 20
0.0
 30
0.0
 75
     0
  0
XRECORD
  5
209
102
{ACAD_REACTORS
330
208
102
}
330
208
100
AcDbXrecord
280
     1
 40
0.18
  0
LAYOUT
  5
168
102
{ACAD_XDICTIONARY
360
11AD
102
}
102
{ACAD_REACTORS
330
164
102
}
330
164
100
AcDbPlotSettings
  1

  2
C:\Documents and Settings\All Users\Dati applicazioni\Autodesk\ADT 2006\enu\Plotters\Default Windows System Printer.pc3
  4

  6

 40
0.0
 41
0.0
 42
0.0
 43
0.0
 44
0.0
 45
0.0
 46
0.0
 47
0.0
 48
0.0
 49
0.0
140
0.0
141
0.0
142
1.0
143
1.0
 70
   688
 72
     0
 73
     0
 74
     5
  7

 75
    16
147
1.0
148
0.0
149
0.0
100
AcDbLayout
  1
Layout1
 70
     1
 71
     1
 10
0.0
 20
0.0
 11
420.0
 21
297.0
 12
0.0
 22
0.0
 32
0.0
 14
1.000000000000000E+20
 24
1.000000000000000E+20
 34
1.000000000000000E+20
 15
-1.000000000000000E+20
 25
-1.000000000000000E+20
 35
-1.000000000000000E+20
146
0.0
 13
0.0
 23
0.0
 33
0.0
 16
1.0
 26
0.0
 36
0.0
 17
0.0
 27
1.0
 37
0.0
 76
     0
330
165
  0
LAYOUT
  5
16C
102
{ACAD_XDICTIONARY
360
11AF
102
}
102
{ACAD_REACTORS
330
164
102
}
330
164
100
AcDbPlotSettings
  1

  2
C:\Documents and Settings\All Users\Dati applicazioni\Autodesk\ADT 2006\enu\Plotters\Default Windows System Printer.pc3
  4

  6

 40
0.0
 41
0.0
 42
0.0
 43
0.0
 44
0.0
 45
0.0
 46
0.0
 47
0.0
 48
0.0
 49
0.0
140
0.0
141
0.0
142
1.0
143
1.0
 70
   688
 72
     0
 73
     0
 74
     5
  7

 75
    16
147
1.0
148
0.0
149
0.0
100
AcDbLayout
  1
Layout2
 70
     1
 71
     2
 10
0.0
 20
0.0
 11
12.0
 21
9.0
 12
0.0
 22
0.0
 32
0.0
 14
0.0
 24
0.0
 34
0.0
 15
0.0
 25
0.0
 35
0.0
146
0.0
 13
0.0
 23
0.0
 33
0.0
 16
1.0
 26
0.0
 36
0.0
 17
0.0
 27
1.0
 37
0.0
 76
     0
330
169
  0
LAYOUT
  5
163
102
{ACAD_XDICTIONARY
360
11AB
102
}
102
{ACAD_REACTORS
330
164
102
}
330
164
100
AcDbPlotSettings
  1

  2
C:\Documents and Settings\All Users\Dati applicazioni\Autodesk\ADT 2006\enu\Plotters\Default Windows System Printer.pc3
  4

  6

 40
0.0
 41
0.0
 42
0.0
 43
0.0
 44
0.0
 45
0.0
 46
0.0
 47
0.0
 48
0.0
 49
0.0
140
0.0
141
0.0
142
1.0
143
1.0
 70
  1712
 72
     0
 73
     0
 74
     0
  7

 75
     0
147
1.0
148
0.0
149
0.0
100
AcDbLayout
  1
Model
 70
     1
 71
     0
 10
0.0
 20
0.0
 11
12.0
 21
9.0
 12
0.0
 22
0.0
 32
0.0
 14
0.0
 24
0.0
 34
0.0
 15
0.0
 25
0.0
 35
0.0
146
0.0
 13
0.0
 23
0.0
 33
0.0
 16
1.0
 26
0.0
 36
0.0
 17
0.0
 27
1.0
 37
0.0
 76
     0
330
2
  0
MATERIAL
  5
183
102
{ACAD_XDICTIONARY
360
1B0
102
}
102
{ACAD_REACTORS
330
B
102
}
330
B
100
AcDbMaterial
  1
ByBlock
  0
MATERIAL
  5
182
102
{ACAD_XDICTIONARY
360
1AE
102
}
102
{ACAD_REACTORS
330
B
102
}
330
B
100
AcDbMaterial
  1
ByLayer
  0
MATERIAL
  5
A
102
{ACAD_XDICTIONARY
360
193
102
}
102
{ACAD_REACTORS
330
B
102
}
330
B
100
AcDbMaterial
  1
Global
  0
MLINESTYLE
  5
186
102
{ACAD_REACTORS
330
180
102
}
330
180
100
AcDbMlineStyle
  2
STANDARD
 70
     0
  3

 62
   256
 51
90.0
 52
90.0
 71
     2
 49
0.5
 62
   256
  6
BYLAYER
 49
-0.5
 62
   256
  6
BYLAYER
  0
ACDBPLACEHOLDER
  5
7
102
{ACAD_REACTORS
330
8
102
}
330
8
  0
TABLESTYLE
  5
187
102
{ACAD_XDICTIONARY
360
21A
102
}
102
{ACAD_REACTORS
330
185
102
}
330
185
100
AcDbTableStyle
  3
Standard
 70
     0
 71
     0
 40
1.5
 41
1.5
280
     0
281
     0
  7
Standard
140
4.5
170
     2
 62
     0
 63
     7
283
     0
274
    -2
284
     1
 64
     0
275
    -2
285
     1
 65
     0
276
    -2
286
     1
 66
     0
277
    -2
287
     1
 67
     0
278
    -2
288
     1
 68
     0
279
    -2
289
     1
 69
     0
  7
Standard
140
6.0
170
     5
 62
     0
 63
     7
283
     0
274
    -2
284
     1
 64
     0
275
    -2
285
     1
 65
     0
276
    -2
286
     1
 66
     0
277
    -2
287
     1
 67
     0
278
    -2
288
     1
 68
     0
279
    -2
289
     1
 69
     0
  7
Standard
140
4.5
170
     5
 62
     0
 63
     7
283
     0
274
    -2
284
     1
 64
     0
275
    -2
285
     1
 65
     0
276
    -2
286
     1
 66
     0
277
    -2
287
     1
 67
     0
278
    -2
288
     1
 68
     0
279
    -2
289
     1
 69
     0
  0
VISUALSTYLE
  5
179
102
{ACAD_REACTORS
330
17A
102
}
330
17A
100
AcDbVisualStyle
  2
2dWireframe
 70
     4
 71
     0
 72
     2
 73
     0
 90
        0
 40
-0.6
 41
-30.0
 62
     5
 63
     7
 74
     1
 91
        4
 64
     7
 65
   257
 75
     1
175
     1
 42
1.0
 92
        0
 66
   257
 43
1.0
 76
     1
 77
     6
 78
     2
 67
     7
 79
     5
170
     0
171
     0
290
     0
174
     0
 93
        1
 44
0.0
173
     0
291
     0
 45
0.0
1001
ACAD
1000
AcDbSavedByObjectVersion
1070
     0
1000
AcDbSavedByObjectVersion
1070
     0
1000
AcDbSavedByObjectVersion
1070
     0
1001
ACAD
1000
AcRTDxfName
1000
VISUALSTYLE
  0
VISUALSTYLE
  5
1BD
102
{ACAD_REACTORS
330
17A
102
}
330
17A
100
AcDbVisualStyle
  2
3D Hidden
 70
     6
 71
     1
 72
     2
 73
     2
 90
        0
 40
-0.6
 41
-30.0
 62
     5
 63
     7
 74
     2
 91
        2
 64
     7
 65
   257
 75
     2
175
     1
 42
40.0
 92
        0
 66
   257
 43
1.0
 76
     1
 77
     6
 78
     2
 67
     7
 79
     3
170
     0
171
     0
290
     0
174
     0
 93
        1
 44
0.0
173
     0
291
     0
 45
0.0
1001
ACAD
1000
AcDbSavedByObjectVersion
1070
     0
1000
AcDbSavedByObjectVersion
1070
     0
1001
ACAD
1000
AcRTDxfName
1000
VISUALSTYLE
  0
VISUALSTYLE
  5
189
102
{ACAD_REACTORS
330
17A
102
}
330
17A
100
AcDbVisualStyle
  2
3dWireframe
 70
     5
 71
     0
 72
     2
 73
     0
 90
        0
 40
-0.6
 41
-30.0
 62
     5
 63
     7
 74
     1
 91
        4
 64
     7
 65
   257
 75
     1
175
     1
 42
1.0
 92
        0
 66
   257
 43
1.0
 76
     1
 77
     6
 78
     2
 67
     7
 79
     5
170
     0
171
     0
290
     0
174
     0
 93
        1
 44
0.0
173
     0
291
     0
 45
0.0
1001
ACAD
1000
AcDbSavedByObjectVersion
1070
     0
1000
AcDbSavedByObjectVersion
1070
     0
1000
AcDbSavedByObjectVersion
1070
     0
1001
ACAD
1000
AcRTDxfName
1000
VISUALSTYLE
  0
VISUALSTYLE
  5
1BC
102
{ACAD_REACTORS
330
17A
102
}
330
17A
100
AcDbVisualStyle
  2
Basic
 70
     7
 71
     1
 72
     0
 73
     1
 90
        0
 40
-0.6
 41
-30.0
 62
     5
 63
     7
 74
     0
 91
        4
 64
     7
 65
   257
 75
     1
175
     1
 42
1.0
 92
        8
 66
     7
 43
1.0
 76
     1
 77
     6
 78
     2
 67
     7
 79
     5
170
     0
171
     0
290
     0
174
     0
 93
        1
 44
0.0
173
     0
291
     1
 45
0.0
1001
ACAD
1000
AcDbSavedByObjectVersion
1070
     0
1000
AcDbSavedByObjectVersion
1070
     0
1001
ACAD
1000
AcRTDxfName
1000
VISUALSTYLE
  0
VISUALSTYLE
  5
1C0
102
{ACAD_REACTORS
330
17A
102
}
330
17A
100
AcDbVisualStyle
  2
Brighten
 70
    12
 71
     2
 72
     2
 73
     0
 90
        0
 40
-0.6
 41
-30.0
 62
     5
 63
     7
 74
     1
 91
        4
 64
     7
 65
   257
 75
     1
175
     1
 42
1.0
 92
        8
 66
     7
 43
1.0
 76
     1
 77
     6
 78
     2
 67
     7
 79
     5
170
     0
171
     0
290
     0
174
     0
 93
        1
 44
50.0
173
     0
291
     1
 45
0.0
1001
ACAD
1000
AcDbSavedByObjectVersion
1070
     0
1000
AcDbSavedByObjectVersion
1070
     0
1001
ACAD
1000
AcRTDxfName
1000
VISUALSTYLE
  0
VISUALSTYLE
  5
1C4
102
{ACAD_REACTORS
330
17A
102
}
330
17A
100
AcDbVisualStyle
  2
ColorChange
 70
    16
 71
     2
 72
     2
 73
     3
 90
        0
 40
-0.6
 41
-30.0
 62
     5
 63
     8
 74
     1
 91
        4
 64
     7
 65
   257
 75
     1
175
     1
 42
1.0
 92
        8
 66
     8
 43
1.0
 76
     1
 77
     6
 78
     2
 67
     7
 79
     5
170
     0
171
     0
290
     0
174
     0
 93
        1
 44
0.0
173
     0
291
     1
 45
0.0
1001
ACAD
1000
AcDbSavedByObjectVersion
1070
     0
1000
AcDbSavedByObjectVersion
1070
     0
1001
ACAD
1000
AcRTDxfName
1000
VISUALSTYLE
  0
VISUALSTYLE
  5
1BE
102
{ACAD_REACTORS
330
17A
102
}
330
17A
100
AcDbVisualStyle
  2
Conceptual
 70
     9
 71
     3
 72
     2
 73
     0
 90
        0
 40
-0.6
 41
-30.0
 62
     5
 63
     7
 74
     2
 91
        2
 64
     7
 65
   257
 75
     1
175
     1
 42
40.0
 92
        8
 66
     7
 43
1.0
 76
     1
 77
     6
 78
     2
 67
     7
 79
     3
170
     0
171
     0
290
     0
174
     0
 93
        1
 44
0.0
173
     0
291
     0
 45
0.0
1001
ACAD
1000
AcDbSavedByObjectVersion
1070
     0
1000
AcDbSavedByObjectVersion
1070
     0
1001
ACAD
1000
AcRTDxfName
1000
VISUALSTYLE
  0
VISUALSTYLE
  5
1BF
102
{ACAD_REACTORS
330
17A
102
}
330
17A
100
AcDbVisualStyle
  2
Dim
 70
    11
 71
     2
 72
     2
 73
     0
 90
        0
 40
-0.6
 41
-30.0
 62
     5
 63
     7
 74
     1
 91
        4
 64
     7
 65
   257
 75
     1
175
     1
 42
1.0
 92
        8
 66
     7
 43
1.0
 76
     1
 77
     6
 78
     2
 67
     7
 79
     5
170
     0
171
     0
290
     0
174
     0
 93
        1
 44
-50.0
173
     0
291
     1
 45
0.0
1001
ACAD
1000
AcDbSavedByObjectVersion
1070
     0
1000
AcDbSavedByObjectVersion
1070
     0
1001
ACAD
1000
AcRTDxfName
1000
VISUALSTYLE
  0
VISUALSTYLE
  5
1C3
102
{ACAD_REACTORS
330
17A
102
}
330
17A
100
AcDbVisualStyle
  2
Facepattern
 70
    15
 71
     2
 72
     2
 73
     0
 90
        0
 40
-0.6
 41
-30.0
 62
     5
 63
     7
 74
     1
 91
        4
 64
     7
 65
   257
 75
     1
175
     1
 42
1.0
 92
        8
 66
     7
 43
1.0
 76
     1
 77
     6
 78
     2
 67
     7
 79
     5
170
     0
171
     0
290
     0
174
     0
 93
        1
 44
0.0
173
     0
291
     1
 45
0.0
1001
ACAD
1000
AcDbSavedByObjectVersion
1070
     0
1000
AcDbSavedByObjectVersion
1070
     0
1001
ACAD
1000
AcRTDxfName
1000
VISUALSTYLE
  0
VISUALSTYLE
  5
1B8
102
{ACAD_REACTORS
330
17A
102
}
330
17A
100
AcDbVisualStyle
  2
Flat
 70
     0
 71
     2
 72
     1
 73
     1
 90
        2
 40
-0.6
 41
30.0
 62
     5
 63
     7
 74
     0
 91
        4
 64
     7
 65
   257
 75
     1
175
     1
 42
1.0
 92
        8
 66
     7
 43
1.0
 76
     1
 77
     6
 78
     2
 67
     7
 79
     5
170
     0
171
     0
290
     0
174
     0
 93
       13
 44
0.0
173
     0
291
     1
 45
0.0
1001
ACAD
1000
AcDbSavedByObjectVersion
1070
     0
1000
AcDbSavedByObjectVersion
1070
     0
1001
ACAD
1000
AcRTDxfName
1000
VISUALSTYLE
  0
VISUALSTYLE
  5
1B9
102
{ACAD_REACTORS
330
17A
102
}
330
17A
100
AcDbVisualStyle
  2
FlatWithEdges
 70
     1
 71
     2
 72
     1
 73
     1
 90
        2
 40
-0.6
 41
30.0
 62
     5
 63
     7
 74
     1
 91
        4
 64
     7
 65
   257
 75
     1
175
     1
 42
1.0
 92
        0
 66
   257
 43
1.0
 76
     1
 77
     6
 78
     2
 67
     7
 79
     5
170
     0
171
     0
290
     0
174
     0
 93
       13
 44
0.0
173
     0
291
     1
 45
0.0
1001
ACAD
1000
AcDbSavedByObjectVersion
1070
     0
1000
AcDbSavedByObjectVersion
1070
     0
1001
ACAD
1000
AcRTDxfName
1000
VISUALSTYLE
  0
VISUALSTYLE
  5
1BA
102
{ACAD_REACTORS
330
17A
102
}
330
17A
100
AcDbVisualStyle
  2
Gouraud
 70
     2
 71
     2
 72
     2
 73
     1
 90
        2
 40
-0.6
 41
30.0
 62
     5
 63
     7
 74
     0
 91
        4
 64
     7
 65
   257
 75
     1
175
     1
 42
1.0
 92
        0
 66
     7
 43
1.0
 76
     1
 77
     6
 78
     2
 67
     7
 79
     5
170
     0
171
     0
290
     0
174
     0
 93
       13
 44
0.0
173
     0
291
     1
 45
0.0
1001
ACAD
1000
AcDbSavedByObjectVersion
1070
     0
1000
AcDbSavedByObjectVersion
1070
     0
1001
ACAD
1000
AcRTDxfName
1000
VISUALSTYLE
  0
VISUALSTYLE
  5
1BB
102
{ACAD_REACTORS
330
17A
102
}
330
17A
100
AcDbVisualStyle
  2
GouraudWithEdges
 70
     3
 71
     2
 72
     2
 73
     1
 90
        2
 40
-0.6
 41
30.0
 62
     5
 63
     7
 74
     1
 91
        4
 64
     7
 65
   257
 75
     1
175
     1
 42
1.0
 92
        0
 66
   257
 43
1.0
 76
     1
 77
     6
 78
     2
 67
     7
 79
     5
170
     0
171
     0
290
     0
174
     0
 93
       13
 44
0.0
173
     0
291
     1
 45
0.0
1001
ACAD
1000
AcDbSavedByObjectVersion
1070
     0
1000
AcDbSavedByObjectVersion
1070
     0
1001
ACAD
1000
AcRTDxfName
1000
VISUALSTYLE
  0
VISUALSTYLE
  5
1C2
102
{ACAD_REACTORS
330
17A
102
}
330
17A
100
AcDbVisualStyle
  2
Linepattern
 70
    14
 71
     2
 72
     2
 73
     0
 90
        0
 40
-0.6
 41
-30.0
 62
     5
 63
     7
 74
     1
 91
        4
 64
     7
 65
   257
 75
     7
175
     7
 42
1.0
 92
        8
 66
     7
 43
1.0
 76
     1
 77
     6
 78
     2
 67
     7
 79
     5
170
     0
171
     0
290
     0
174
     0
 93
        1
 44
0.0
173
     0
291
     1
 45
0.0
1001
ACAD
1000
AcDbSavedByObjectVersion
1070
     0
1000
AcDbSavedByObjectVersion
1070
     0
1001
ACAD
1000
AcRTDxfName
1000
VISUALSTYLE
  0
VISUALSTYLE
  5
188
102
{ACAD_REACTORS
330
17A
102
}
330
17A
100
AcDbVisualStyle
  2
Realistic
 70
     8
 71
     2
 72
     2
 73
     0
 90
        0
 40
-0.6
 41
-30.0
 62
     5
 63
     7
 74
     1
 91
        0
 64
     7
 65
   257
 75
     1
175
     1
 42
1.0
 92
        8
 66
     8
 43
1.0
 76
     1
 77
     6
 78
     2
 67
     7
 79
     5
170
     0
171
     0
290
     0
174
     0
 93
       13
 44
0.0
173
     0
291
     0
 45
0.0
1001
ACAD
1000
AcDbSavedByObjectVersion
1070
     0
1000
AcDbSavedByObjectVersion
1070
     0
1000
AcDbSavedByObjectVersion
1070
     0
1001
ACAD
1000
AcRTDxfName
1000
VISUALSTYLE
  0
VISUALSTYLE
  5
1C1
102
{ACAD_REACTORS
330
17A
102
}
330
17A
100
AcDbVisualStyle
  2
Thicken
 70
    13
 71
     2
 72
     2
 73
     0
 90
        0
 40
-0.6
 41
-30.0
 62
     5
 63
     7
 74
     1
 91
        4
 64
     7
 65
   257
 75
     1
175
     1
 42
1.0
 92
       12
 66
     7
 43
1.0
 76
     1
 77
     6
 78
     2
 67
     7
 79
     5
170
     0
171
     0
290
     0
174
     0
 93
        1
 44
0.0
173
     0
291
     1
 45
0.0
1001
ACAD
1000
AcDbSavedByObjectVersion
1070
     0
1000
AcDbSavedByObjectVersion
1070
     0
1001
ACAD
1000
AcRTDxfName
1000
VISUALSTYLE
  0
DICTIONARYVAR
  5
18C
102
{ACAD_REACTORS
330
18B
102
}
330
18B
100
DictionaryVariables
280
     0
  1
STANDARD
  0
DICTIONARYVAR
  5
190
102
{ACAD_REACTORS
330
18B
102
}
330
18B
100
DictionaryVariables
280
     0
  1
2
  0
DICTIONARYVAR
  5
18F
102
{ACAD_REACTORS
330
18B
102
}
330
18B
100
DictionaryVariables
280
     0
  1
1
  0
DICTIONARYVAR
  5
18E
102
{ACAD_REACTORS
330
18B
102
}
330
18B
100
DictionaryVariables
280
     0
  1
0
  0
DICTIONARYVAR
  5
31D
102
{ACAD_REACTORS
330
18B
102
}
330
18B
100
DictionaryVariables
280
     0
  1

  0
DICTIONARYVAR
  5
18D
102
{ACAD_REACTORS
330
18B
102
}
330
18B
100
DictionaryVariables
280
     0
  1
127
  0
DICTIONARY
  5
11AD
330
168
100
AcDbDictionary
280
     1
281
     1
  3
ACAD_XREC_ROUNDTRIP
360
11AE
  0
DICTIONARY
  5
11AF
330
16C
100
AcDbDictionary
280
     1
281
     1
  3
ACAD_XREC_ROUNDTRIP
360
11B0
  0
DICTIONARY
  5
11AB
330
163
100
AcDbDictionary
280
     1
281
     1
  3
ACAD_XREC_ROUNDTRIP
360
11AC
  0
DICTIONARY
  5
1B0
330
183
100
AcDbDictionary
280
     1
281
     1
  3
ACAD_XREC_ROUNDTRIP
360
1B1
  0
DICTIONARY
  5
1AE
330
182
100
AcDbDictionary
280
     1
281
     1
  3
ACAD_XREC_ROUNDTRIP
360
1AF
  0
DICTIONARY
  5
193
330
A
100
AcDbDictionary
280
     1
281
     1
  3
ACAD_XREC_ROUNDTRIP
360
194
  0
DICTIONARY
  5
21A
330
187
100
AcDbDictionary
280
     1
281
     1
  3
ACAD_XREC_ROUNDTRIP
360
21B
  0
XRECORD
  5
11AE
102
{ACAD_REACTORS
330
11AD
102
}
330
11AD
100
AcDbXrecord
280
     1
102
SHADEPLOT
 70
     0
102
SHADEPLOTRESLEVEL
 70
     2
102
SHADEPLOTCUSTOMDPI
 70
   300
  0
XRECORD
  5
11B0
102
{ACAD_REACTORS
330
11AF
102
}
330
11AF
100
AcDbXrecord
280
     1
102
SHADEPLOT
 70
     0
102
SHADEPLOTRESLEVEL
 70
     2
102
SHADEPLOTCUSTOMDPI
 70
   300
  0
XRECORD
  5
11AC
102
{ACAD_REACTORS
330
11AB
102
}
330
11AB
100
AcDbXrecord
280
     1
102
SHADEPLOT
 70
     0
102
SHADEPLOTRESLEVEL
 70
     2
102
SHADEPLOTCUSTOMDPI
 70
   300
  0
XRECORD
  5
1B1
102
{ACAD_REACTORS
330
1B0
102
}
330
1B0
100
AcDbXrecord
280
     1
102
MATERIAL
148
0.0
149
0.0
149
0.0
 93
        0
 94
       63
282
     0
 72
     1
 77
     1
171
     1
175
     1
179
     1
273
     0
  0
XRECORD
  5
1AF
102
{ACAD_REACTORS
330
1AE
102
}
330
1AE
100
AcDbXrecord
280
     1
102
MATERIAL
148
0.0
149
0.0
149
0.0
 93
        0
 94
       63
282
     0
 72
     1
 77
     1
171
     1
175
     1
179
     1
273
     0
  0
XRECORD
  5
194
102
{ACAD_REACTORS
330
193
102
}
330
193
100
AcDbXrecord
280
     1
102
MATERIAL
148
0.0
149
0.0
149
0.0
 93
        0
 94
       63
282
     0
 72
     1
 77
     1
171
     1
175
     1
179
     1
273
     0
  0
XRECORD
  5
21B
102
{ACAD_REACTORS
330
21A
102
}
330
21A
100
AcDbXrecord
280
     1
102
ACAD_ROUNDTRIP_PRE2007_TABLESTYLE
 90
        4
 91
        0
  1

 92
        4
 93
        0
  2

 94
        4
 95
        0
  3

  0
ENDSEC
  0
EOF
