  0
SECTION
  2
HEADER
  9
$ACADVER
  1
AC1015
  9
$ACADMAINTVER
 70
    20
  9
$DWGCODEPAGE
  3
ANSI_1252
  9
$INSBASE
 10
0.0
 20
0.0
 30
0.0
  9
$EXTMIN
 10
0.0149999999999999
 20
0.015
 30
0.0
  9
$EXTMAX
 10
1.063378756195318
 20
0.5493500262159778
 30
0.0
  9
$LIMMIN
 10
0.0
 20
0.0
  9
$LIMMAX
 10
1.0
 20
0.5
  9
$ORTHOMODE
 70
     0
  9
$REGENMODE
 70
     1
  9
$FILLMODE
 70
     1
  9
$QTEXTMODE
 70
     0
  9
$MIRRTEXT
 70
     0
  9
$LTSCALE
 40
1.0
  9
$ATTMODE
 70
     1
  9
$TEXTSIZE
 40
0.008
  9
$TRACEWID
 40
1.0
  9
$TEXTSTYLE
  7
style1
  9
$CLAYER
  8
Sezione
  9
$CELTYPE
  6
ACAD_ISO10W100
  9
$CECOLOR
 62
   256
  9
$CELTSCALE
 40
1.0
  9
$DISPSILH
 70
     0
  9
$DIMSCALE
 40
0.001
  9
$DIMASZ
 40
1.5
  9
$DIMEXO
 40
0.0625
  9
$DIMDLI
 40
0.38
  9
$DIMRND
 40
0.0
  9
$DIMDLE
 40
0.0
  9
$DIMEXE
 40
0.18
  9
$DIMTP
 40
0.0
  9
$DIMTM
 40
0.0
  9
$DIMTXT
 40
3.0
  9
$DIMCEN
 40
0.0
  9
$DIMTSZ
 40
0.0
  9
$DIMTOL
 70
     0
  9
$DIMLIM
 70
     0
  9
$DIMTIH
 70
     1
  9
$DIMTOH
 70
     1
  9
$DIMSE1
 70
     0
  9
$DIMSE2
 70
     0
  9
$DIMTAD
 70
     0
  9
$DIMZIN
 70
     0
  9
$DIMBLK
  1
ArchTick
  9
$DIMASO
 70
     1
  9
$DIMSHO
 70
     1
  9
$DIMPOST
  1

  9
$DIMAPOST
  1

  9
$DIMALT
 70
     0
  9
$DIMALTD
 70
     2
  9
$DIMALTF
 40
25.4
  9
$DIMLFAC
 40
1.0
  9
$DIMTOFL
 70
     0
  9
$DIMTVP
 40
0.0
  9
$DIMTIX
 70
     0
  9
$DIMSOXD
 70
     0
  9
$DIMSAH
 70
     0
  9
$DIMBLK1
  1

  9
$DIMBLK2
  1

  9
$DIMSTYLE
  2
Bovelacci
  9
$DIMCLRD
 70
     5
  9
$DIMCLRE
 70
     5
  9
$DIMCLRT
 70
     4
  9
$DIMTFAC
 40
1.0
  9
$DIMGAP
 40
2.0
  9
$DIMJUST
 70
     0
  9
$DIMSD1
 70
     0
  9
$DIMSD2
 70
     0
  9
$DIMTOLJ
 70
     1
  9
$DIMTZIN
 70
     0
  9
$DIMALTZ
 70
     0
  9
$DIMALTTZ
 70
     0
  9
$DIMUPT
 70
     0
  9
$DIMDEC
 70
     2
  9
$DIMTDEC
 70
     2
  9
$DIMALTU
 70
     2
  9
$DIMALTTD
 70
     2
  9
$DIMTXSTY
  7
ROMANS
  9
$DIMAUNIT
 70
     0
  9
$DIMADEC
 70
     0
  9
$DIMALTRND
 40
0.0
  9
$DIMAZIN
 70
     0
  9
$DIMDSEP
 70
    46
  9
$DIMATFIT
 70
     3
  9
$DIMFRAC
 70
     0
  9
$DIMLDRBLK
  1

  9
$DIMLUNIT
 70
     2
  9
$DIMLWD
 70
    -2
  9
$DIMLWE
 70
    -2
  9
$DIMTMOVE
 70
     2
  9
$LUNITS
 70
     2
  9
$LUPREC
 70
     2
  9
$SKETCHINC
 40
1.0
  9
$FILLETRAD
 40
0.0
  9
$AUNITS
 70
     0
  9
$AUPREC
 70
     0
  9
$MENU
  1
.
  9
$ELEVATION
 40
0.0
  9
$PELEVATION
 40
0.0
  9
$THICKNESS
 40
0.0
  9
$LIMCHECK
 70
     0
  9
$CHAMFERA
 40
0.0
  9
$CHAMFERB
 40
0.0
  9
$CHAMFERC
 40
0.0
  9
$CHAMFERD
 40
0.0
  9
$SKPOLY
 70
     0
  9
$TDCREATE
 40
2454297.625402373
  9
$TDUCREATE
 40
2454297.542069039
  9
$TDUPDATE
 40
2454306.927473774
  9
$TDUUPDATE
 40
2454306.844140440
  9
$TDINDWG
 40
0.1942892940
  9
$TDUSRTIMER
 40
0.1942872917
  9
$USRTIMER
 70
     1
  9
$ANGBASE
 50
0.0
  9
$ANGDIR
 70
     0
  9
$PDMODE
 70
     0
  9
$PDSIZE
 40
0.0
  9
$PLINEWID
 40
0.0
  9
$SPLFRAME
 70
     0
  9
$SPLINETYPE
 70
     6
  9
$SPLINESEGS
 70
     8
  9
$HANDSEED
  5
2441
  9
$SURFTAB1
 70
     6
  9
$SURFTAB2
 70
     6
  9
$SURFTYPE
 70
     6
  9
$SURFU
 70
     6
  9
$SURFV
 70
     6
  9
$UCSBASE
  2

  9
$UCSNAME
  2

  9
$UCSORG
 10
0.0
 20
0.0
 30
0.0
  9
$UCSXDIR
 10
1.0
 20
0.0
 30
0.0
  9
$UCSYDIR
 10
0.0
 20
1.0
 30
0.0
  9
$UCSORTHOREF
  2

  9
$UCSORTHOVIEW
 70
     0
  9
$UCSORGTOP
 10
0.0
 20
0.0
 30
0.0
  9
$UCSORGBOTTOM
 10
0.0
 20
0.0
 30
0.0
  9
$UCSORGLEFT
 10
0.0
 20
0.0
 30
0.0
  9
$UCSORGRIGHT
 10
0.0
 20
0.0
 30
0.0
  9
$UCSORGFRONT
 10
0.0
 20
0.0
 30
0.0
  9
$UCSORGBACK
 10
0.0
 20
0.0
 30
0.0
  9
$PUCSBASE
  2

  9
$PUCSNAME
  2

  9
$PUCSORG
 10
0.0
 20
0.0
 30
0.0
  9
$PUCSXDIR
 10
1.0
 20
0.0
 30
0.0
  9
$PUCSYDIR
 10
0.0
 20
1.0
 30
0.0
  9
$PUCSORTHOREF
  2

  9
$PUCSORTHOVIEW
 70
     0
  9
$PUCSORGTOP
 10
0.0
 20
0.0
 30
0.0
  9
$PUCSORGBOTTOM
 10
0.0
 20
0.0
 30
0.0
  9
$PUCSORGLEFT
 10
0.0
 20
0.0
 30
0.0
  9
$PUCSORGRIGHT
 10
0.0
 20
0.0
 30
0.0
  9
$PUCSORGFRONT
 10
0.0
 20
0.0
 30
0.0
  9
$PUCSORGBACK
 10
0.0
 20
0.0
 30
0.0
  9
$USERI1
 70
     0
  9
$USERI2
 70
     0
  9
$USERI3
 70
     0
  9
$USERI4
 70
     0
  9
$USERI5
 70
     0
  9
$USERR1
 40
0.0
  9
$USERR2
 40
0.0
  9
$USERR3
 40
0.0
  9
$USERR4
 40
0.0
  9
$USERR5
 40
0.0
  9
$WORLDVIEW
 70
     1
  9
$SHADEDGE
 70
     3
  9
$SHADEDIF
 70
    70
  9
$TILEMODE
 70
     1
  9
$MAXACTVP
 70
    64
  9
$PINSBASE
 10
0.0
 20
0.0
 30
0.0
  9
$PLIMCHECK
 70
     0
  9
$PEXTMIN
 10
1.000000000000000E+20
 20
1.000000000000000E+20
 30
1.000000000000000E+20
  9
$PEXTMAX
 10
-1.000000000000000E+20
 20
-1.000000000000000E+20
 30
-1.000000000000000E+20
  9
$PLIMMIN
 10
0.0
 20
0.0
  9
$PLIMMAX
 10
420.0
 20
297.0
  9
$UNITMODE
 70
     0
  9
$VISRETAIN
 70
     1
  9
$PLINEGEN
 70
     0
  9
$PSLTSCALE
 70
     1
  9
$TREEDEPTH
 70
  3020
  9
$CMLSTYLE
  2
Standard
  9
$CMLJUST
 70
     0
  9
$CMLSCALE
 40
20.0
  9
$PROXYGRAPHICS
 70
     1
  9
$MEASUREMENT
 70
     1
  9
$CELWEIGHT
370
    -1
  9
$ENDCAPS
280
     0
  9
$JOINSTYLE
280
     0
  9
$LWDISPLAY
290
     0
  9
$INSUNITS
 70
     4
  9
$HYPERLINKBASE
  1

  9
$STYLESHEET
  1

  9
$XEDIT
290
     1
  9
$CEPSNTYPE
380
     0
  9
$PSTYLEMODE
290
     1
  9
$FINGERPRINTGUID
  2
{904A8C64-524F-4709-A9C6-320D2C273A6D}
  9
$VERSIONGUID
  2
{3D50ECB0-0054-4FA7-AA52-13FE33762943}
  9
$EXTNAMES
290
     1
  9
$PSVPSCALE
 40
0.0
  9
$OLESTARTUP
290
     0
  0
ENDSEC
  0
SECTION
  2
CLASSES
  0
CLASS
  1
ACDBDICTIONARYWDFLT
  2
AcDbDictionaryWithDefault
  3
ObjectDBX Classes
 90
        0
280
     0
281
     0
  0
CLASS
  1
TABLESTYLE
  2
AcDbTableStyle
  3
ObjectDBX Classes
 90
     2047
280
     0
281
     0
  0
CLASS
  1
SORTENTSTABLE
  2
AcDbSortentsTable
  3
ObjectDBX Classes
 90
        0
280
     0
281
     0
  0
CLASS
  1
DICTIONARYVAR
  2
AcDbDictionaryVar
  3
ObjectDBX Classes
 90
        0
280
     0
281
     0
  0
CLASS
  1
ACDBPLACEHOLDER
  2
AcDbPlaceHolder
  3
ObjectDBX Classes
 90
        0
280
     0
281
     0
  0
CLASS
  1
LAYOUT
  2
AcDbLayout
  3
ObjectDBX Classes
 90
        0
280
     0
281
     0
  0
CLASS
  1
DIMASSOC
  2
AcDbDimAssoc
  3
"AcDbDimAssoc|Product Desc:     AcDim ARX App For Dimension|Company:          Autodesk, Inc.|WEB Address:      www.autodesk.com"
 90
        0
280
     0
281
     0
  0
CLASS
  1
MATERIAL
  2
AcDbMaterial
  3
ObjectDBX Classes
 90
        0
280
     0
281
     0
  0
CLASS
  1
VISUALSTYLE
  2
AcDbVisualStyle
  3
ObjectDBX Classes
 90
     4095
280
     0
281
     0
  0
ENDSEC
  0
SECTION
  2
TABLES
  0
TABLE
  2
VPORT
  5
177
330
0
100
AcDbSymbolTable
 70
     3
  0
VPORT
  5
2436
330
177
100
AcDbSymbolTableRecord
100
AcDbViewportTableRecord
  2
*Active
 70
     0
 10
0.0
 20
0.0
 11
1.0
 21
1.0
 12
0.2116076697906238
 22
0.1487277730873582
 13
0.0
 23
0.0
 14
10.0
 24
10.0
 15
10.0
 25
10.0
 16
0.0
 26
0.0
 36
1.0
 17
0.0
 27
0.0
 37
0.0
 40
0.2769361677776176
 41
1.546526867627784
 42
50.0
 43
0.0
 44
0.0
 50
0.0
 51
0.0
 71
     0
 72
  1000
 73
     1
 74
     3
 75
     0
 76
     0
 77
     0
 78
     0
281
     0
 65
     1
110
0.0
120
0.0
130
0.0
111
1.0
121
0.0
131
0.0
112
0.0
122
1.0
132
0.0
 79
     0
146
0.0
  0
ENDTAB
  0
TABLE
  2
LTYPE
  5
172
330
0
100
AcDbSymbolTable
 70
     2
  0
LTYPE
  5
173
330
172
100
AcDbSymbolTableRecord
100
AcDbLinetypeTableRecord
  2
ByBlock
 70
     0
  3

 72
    65
 73
     0
 40
0.0
  0
LTYPE
  5
174
330
172
100
AcDbSymbolTableRecord
100
AcDbLinetypeTableRecord
  2
ByLayer
 70
     0
  3

 72
    65
 73
     0
 40
0.0
  0
LTYPE
  5
C
330
172
100
AcDbSymbolTableRecord
100
AcDbLinetypeTableRecord
  2
Continuous
 70
     0
  3
Solid line
 72
    65
 73
     0
 40
0.0
  0
LTYPE
  5
14E
330
172
100
AcDbSymbolTableRecord
100
AcDbLinetypeTableRecord
  2
ACAD_ISO10W100
 70
     0
  3
ISO dash dot __ . __ . __ . __ . __ . __ . __ .
 72
    65
 73
     4
 40
18.0
 49
12.0
 74
     0
 49
-3.0
 74
     0
 49
0.0
 74
     0
 49
-3.0
 74
     0
  0
ENDTAB
  0
TABLE
  2
LAYER
  5
16D
102
{ACAD_XDICTIONARY
360
16E
102
}
330
0
100
AcDbSymbolTable
 70
     7
  0
LAYER
  5
6
330
16D
100
AcDbSymbolTableRecord
100
AcDbLayerTableRecord
  2
0
 70
     0
 62
     7
  6
Continuous
370
    -3
390
7
  0
LAYER
  5
15F
330
16D
100
AcDbSymbolTableRecord
100
AcDbLayerTableRecord
  2
Defpoints
 70
     0
 62
     7
  6
Continuous
290
     0
370
    -3
390
7
  0
LAYER
  5
28
330
16D
100
AcDbSymbolTableRecord
100
AcDbLayerTableRecord
  2
Profilo
 70
     0
 62
     1
  6
Continuous
370
    -3
390
7
1001
AcAecLayerStandard
1000

1000

  0
LAYER
  5
14D
330
16D
100
AcDbSymbolTableRecord
100
AcDbLayerTableRecord
  2
Sezione
 70
     0
 62
     2
  6
Continuous
370
    -3
390
7
1001
AcAecLayerStandard
1000

1000

  0
LAYER
  5
E
330
16D
100
AcDbSymbolTableRecord
100
AcDbLayerTableRecord
  2
Table
 70
     0
 62
     3
  6
Continuous
370
    -3
390
7
1001
AcAecLayerStandard
1000

1000

  0
LAYER
  5
19
330
16D
100
AcDbSymbolTableRecord
100
AcDbLayerTableRecord
  2
Text
 70
     0
 62
     4
  6
Continuous
370
    -3
390
7
1001
AcAecLayerStandard
1000

1000

  0
LAYER
  5
256
330
16D
100
AcDbSymbolTableRecord
100
AcDbLayerTableRecord
  2
Bovelacci
 70
     0
 62
     9
  6
Continuous
370
    -3
390
7
1001
AcAecLayerStandard
1000

1000

  0
ENDTAB
  0
TABLE
  2
STYLE
  5
170
330
0
100
AcDbSymbolTable
 70
     3
  0
STYLE
  5
1A
330
170
100
AcDbSymbolTableRecord
100
AcDbTextStyleTableRecord
  2
Standard
 70
     0
 40
0.0
 41
1.0
 50
0.0
 71
     0
 42
2.5
  3
txt
  4

  0
STYLE
  5
20
330
170
100
AcDbSymbolTableRecord
100
AcDbTextStyleTableRecord
  2
ROMANS
 70
     0
 40
0.0
 41
1.0
 50
0.0
 71
     0
 42
2.5
  3
romans
  4

  0
STYLE
  5
26
330
170
100
AcDbSymbolTableRecord
100
AcDbTextStyleTableRecord
  2
style1
 70
     0
 40
0.0
 41
1.0
 50
0.0
 71
     0
 42
0.008
  3
TIMES.TTF
  4

1001
ACAD
1000
Times New Roman
1071
       18
  0
ENDTAB
  0
TABLE
  2
VIEW
  5
175
330
0
100
AcDbSymbolTable
 70
     1
  0
ENDTAB
  0
TABLE
  2
UCS
  5
176
330
0
100
AcDbSymbolTable
 70
     0
  0
ENDTAB
  0
TABLE
  2
APPID
  5
17B
330
0
100
AcDbSymbolTable
 70
    11
  0
APPID
  5
1B
330
17B
100
AcDbSymbolTableRecord
100
AcDbRegAppTableRecord
  2
ACAD
 70
     0
  0
APPID
  5
157
330
17B
100
AcDbSymbolTableRecord
100
AcDbRegAppTableRecord
  2
ACAD_DSTYLE_DIMJOGGED_JOGANGLE_SYMBOL
 70
     0
  0
APPID
  5
F
330
17B
100
AcDbSymbolTableRecord
100
AcDbRegAppTableRecord
  2
AcAecLayerStandard
 70
     0
  0
APPID
  5
19C
330
17B
100
AcDbSymbolTableRecord
100
AcDbRegAppTableRecord
  2
ACAD_DSTYLE_DIMFLIPARROW_WHICH_SYMBOL
 70
     0
  0
APPID
  5
1A7
330
17B
100
AcDbSymbolTableRecord
100
AcDbRegAppTableRecord
  2
ACAD_DSTYLE_DIMEXT_LENGTH
 70
     0
  0
APPID
  5
1D2
330
17B
100
AcDbSymbolTableRecord
100
AcDbRegAppTableRecord
  2
ACAD_EXEMPT_FROM_CAD_STANDARDS
 70
     0
  0
APPID
  5
1D3
330
17B
100
AcDbSymbolTableRecord
100
AcDbRegAppTableRecord
  2
ACAD_DSTYLE_DIM_LINETYPE
 70
     0
  0
APPID
  5
1D4
330
17B
100
AcDbSymbolTableRecord
100
AcDbRegAppTableRecord
  2
ACAD_DSTYLE_DIM_EXT1_LINETYPE
 70
     0
  0
APPID
  5
1D5
330
17B
100
AcDbSymbolTableRecord
100
AcDbRegAppTableRecord
  2
ACAD_DSTYLE_DIM_EXT2_LINETYPE
 70
     0
  0
APPID
  5
25C
330
17B
100
AcDbSymbolTableRecord
100
AcDbRegAppTableRecord
  2
ACAD_PSEXT
 70
     0
  0
APPID
  5
21C6
330
17B
100
AcDbSymbolTableRecord
100
AcDbRegAppTableRecord
  2
DCO15
 70
     0
  0
ENDTAB
  0
TABLE
  2
DIMSTYLE
  5
17C
330
0
100
AcDbSymbolTable
 70
     7
100
AcDbDimStyleTable
 71
     2
340
156
340
17D
  0
DIMSTYLE
105
17D
330
17C
100
AcDbSymbolTableRecord
100
AcDbDimStyleTableRecord
  2
ISO-25
 70
     0
 41
2.5
 42
0.625
 43
3.75
 44
1.25
 73
     0
 74
     0
 77
     1
 78
     8
140
2.5
141
2.5
143
0.03937007874016
147
0.625
171
     3
172
     1
271
     2
272
     2
274
     3
278
    44
283
     0
284
     8
340
1A
  0
DIMSTYLE
105
156
102
{ACAD_REACTORS
330
2413
102
}
330
17C
100
AcDbSymbolTableRecord
100
AcDbDimStyleTableRecord
  2
Bovelacci
 70
     0
 40
0.001
 41
1.5
140
3.0
141
0.0
147
2.0
176
     5
177
     5
178
     4
271
     2
272
     2
279
     2
340
20
342
152
1001
ACAD_DSTYLE_DIMJOGGED_JOGANGLE_SYMBOL
1070
   384
1040
0.7853981633974483
1001
ACAD_DSTYLE_DIMEXT_LENGTH
1070
   378
1040
0.18
  0
DIMSTYLE
105
257
330
17C
100
AcDbSymbolTableRecord
100
AcDbDimStyleTableRecord
  2
Dim 1-100
 70
     0
 40
0.1
 41
1.5
 42
0.0
 43
5.0
 44
1.25
 45
0.005
 46
1.25
 73
     0
 74
     0
 77
     1
 78
     9
140
2.0
141
2.5
147
1.0
172
     1
174
     1
179
     2
279
     2
289
     2
340
20
342
152
  0
DIMSTYLE
105
258
330
17C
100
AcDbSymbolTableRecord
100
AcDbDimStyleTableRecord
  2
Standard
 70
     0
 42
0.0
 73
     0
 74
     0
 77
     1
271
     2
272
     2
340
20
  0
DIMSTYLE
105
259
330
17C
100
AcDbSymbolTableRecord
100
AcDbDimStyleTableRecord
  2
Dim 1-50
 70
     0
 40
0.05
 41
1.5
 42
0.0
 43
5.0
 44
1.25
 45
0.005
 46
1.25
 73
     0
 74
     0
 77
     1
 78
     9
140
2.0
141
2.5
147
1.0
172
     1
174
     1
179
     2
279
     2
289
     2
340
20
342
152
  0
DIMSTYLE
105
25A
330
17C
100
AcDbSymbolTableRecord
100
AcDbDimStyleTableRecord
  2
Dim 1-200
 70
     0
 40
0.2
 41
1.5
 42
0.0
 43
5.0
 44
1.25
 45
0.005
 46
1.25
 73
     0
 74
     0
 77
     1
 78
     9
140
2.0
141
2.5
147
1.0
172
     1
174
     1
179
     2
271
     2
272
     2
279
     2
289
     2
340
20
342
152
  0
DIMSTYLE
105
25B
330
17C
100
AcDbSymbolTableRecord
100
AcDbDimStyleTableRecord
  2
AEC Scale - Italiano
 70
     0
 41
1.0
 42
10.0
 43
10.0
 44
10.0
 73
     0
 74
     0
 75
     1
 76
     1
 77
     1
140
10.0
141
1.0
147
10.0
173
     1
271
     0
272
     0
279
     2
340
1A
343
251
344
24B
  0
ENDTAB
  0
TABLE
  2
BLOCK_RECORD
  5
1
330
0
100
AcDbSymbolTable
 70
    24
  0
BLOCK_RECORD
  5
2
102
{ACAD_XDICTIONARY
360
3
102
}
330
1
100
AcDbSymbolTableRecord
100
AcDbBlockTableRecord
  2
*Model_Space
340
163
  0
BLOCK_RECORD
  5
165
330
1
100
AcDbSymbolTableRecord
100
AcDbBlockTableRecord
  2
*Paper_Space
340
168
  0
BLOCK_RECORD
  5
169
330
1
100
AcDbSymbolTableRecord
100
AcDbBlockTableRecord
  2
*Paper_Space0
340
16C
  0
BLOCK_RECORD
  5
152
330
1
100
AcDbSymbolTableRecord
100
AcDbBlockTableRecord
  2
_ArchTick
340
0
310
2800000020000000200000000100080000000000000400000000000000000000000000000000000000000000000080000080000000808000800000008000800080800000C0C0C000C0DCC000F0CAA6000020400000206000002080000020A0000020C0000020E00000400000004020000040400000406000004080000040A0
310
000040C0000040E00000600000006020000060400000606000006080000060A0000060C0000060E00000800000008020000080400000806000008080000080A0000080C0000080E00000A0000000A0200000A0400000A0600000A0800000A0A00000A0C00000A0E00000C0000000C0200000C0400000C0600000C0800000C0
310
A00000C0C00000C0E00000E0000000E0200000E0400000E0600000E0800000E0A00000E0C00000E0E00040000000400020004000400040006000400080004000A0004000C0004000E00040200000402020004020400040206000402080004020A0004020C0004020E000404000004040200040404000404060004040800040
310
40A0004040C0004040E00040600000406020004060400040606000406080004060A0004060C0004060E00040800000408020004080400040806000408080004080A0004080C0004080E00040A0000040A0200040A0400040A0600040A0800040A0A00040A0C00040A0E00040C0000040C0200040C0400040C0600040C08000
310
40C0A00040C0C00040C0E00040E0000040E0200040E0400040E0600040E0800040E0A00040E0C00040E0E00080000000800020008000400080006000800080008000A0008000C0008000E00080200000802020008020400080206000802080008020A0008020C0008020E00080400000804020008040400080406000804080
310
008040A0008040C0008040E00080600000806020008060400080606000806080008060A0008060C0008060E00080800000808020008080400080806000808080008080A0008080C0008080E00080A0000080A0200080A0400080A0600080A0800080A0A00080A0C00080A0E00080C0000080C0200080C0400080C0600080C0
310
800080C0A00080C0C00080C0E00080E0000080E0200080E0400080E0600080E0800080E0A00080E0C00080E0E000C0000000C0002000C0004000C0006000C0008000C000A000C000C000C000E000C0200000C0202000C0204000C0206000C0208000C020A000C020C000C020E000C0400000C0402000C0404000C0406000C0
310
408000C040A000C040C000C040E000C0600000C0602000C0604000C0606000C0608000C060A000C060C000C060E000C0800000C0802000C0804000C0806000C0808000C080A000C080C000C080E000C0A00000C0A02000C0A04000C0A06000C0A08000C0A0A000C0A0C000C0A0E000C0C00000C0C02000C0C04000C0C06000
310
C0C08000C0C0A000F0FBFF00A4A0A000808080000000FF0000FF000000FFFF00FF000000FF00FF00FFFF0000FFFFFF00000000FF000000000000000000000000000000000000000000000000000000000000FF00FF00000000000000000000000000000000000000000000000000000000FF000000FF000000000000000000
310
0000000000000000000000000000000000FF0000000000FF0000000000000000000000000000000000000000000000000000FF0000000000FF0000000000000000000000000000000000000000000000000000FF0000000000FF0000000000000000000000000000000000000000000000000000FF0000000000FF00000000
310
00000000000000000000000000000000000000000000FF0000000000FF0000000000000000000000000000000000000000000000000000FF0000000000FF0000000000000000000000000000000000000000000000000000FF0000000000FF0000000000000000000000000000000000000000000000000000FF0000000000
310
FF0000000000000000000000000000000000000000000000000000FF0000000000FF0000000000000000000000000000000000000000000000000000FF0000000000FF0000000000000000000000000000000000000000000000000000FF0000000000FF0000000000000000000000000000000000000000000000000000FF
310
0000000000FF0000000000000000000000000000000000000000000000000000FF0000000000FF0000000000000000000000000000000000000000000000000000FF0000000000FF0000000000000000000000000000000000000000000000000000FF0000000000FF00000000000000000000000000000000000000000000
310
00000000FF0000000000FF0000000000000000000000000000000000000000000000000000FF0000000000FF0000000000000000000000000000000000000000000000000000FF0000000000FF0000000000000000000000000000000000000000000000000000FF0000000000FF0000000000000000000000000000000000
310
000000000000000000FF0000000000FF0000000000000000000000000000000000000000000000000000FF0000000000FF0000000000000000000000000000000000000000000000000000FF0000000000FF0000000000000000000000000000000000000000000000000000FF0000000000FF000000000000000000000000
310
0000000000000000000000000000FF0000000000FF0000000000000000000000000000000000000000000000000000FF0000000000FF0000000000000000000000000000000000000000000000000000FF0000000000FF0000000000000000000000000000000000000000000000000000FF000000FF000000000000000000
310
00000000000000000000000000000000000000FF00FF000000000000000000000000000000000000000000000000000000000000FF000000
102
{BLKREFS
331
6DD
331
847
331
9CD
331
A12
331
BBC
331
CB8
331
F31
331
11A1
331
12E0
331
1533
331
1534
331
153F
331
1540
331
1844
331
1B9F
331
1D11
331
1E8A
331
21AC
331
2410
331
242E
102
}
  0
BLOCK_RECORD
  5
24B
330
1
100
AcDbSymbolTableRecord
100
AcDbBlockTableRecord
  2
_Arrivo
340
0
310
2800000020000000200000000100080000000000000400000000000000000000000000000000000000000000000080000080000000808000800000008000800080800000C0C0C000C0DCC000F0CAA6000020400000206000002080000020A0000020C0000020E00000400000004020000040400000406000004080000040A0
310
000040C0000040E00000600000006020000060400000606000006080000060A0000060C0000060E00000800000008020000080400000806000008080000080A0000080C0000080E00000A0000000A0200000A0400000A0600000A0800000A0A00000A0C00000A0E00000C0000000C0200000C0400000C0600000C0800000C0
310
A00000C0C00000C0E00000E0000000E0200000E0400000E0600000E0800000E0A00000E0C00000E0E00040000000400020004000400040006000400080004000A0004000C0004000E00040200000402020004020400040206000402080004020A0004020C0004020E000404000004040200040404000404060004040800040
310
40A0004040C0004040E00040600000406020004060400040606000406080004060A0004060C0004060E00040800000408020004080400040806000408080004080A0004080C0004080E00040A0000040A0200040A0400040A0600040A0800040A0A00040A0C00040A0E00040C0000040C0200040C0400040C0600040C08000
310
40C0A00040C0C00040C0E00040E0000040E0200040E0400040E0600040E0800040E0A00040E0C00040E0E00080000000800020008000400080006000800080008000A0008000C0008000E00080200000802020008020400080206000802080008020A0008020C0008020E00080400000804020008040400080406000804080
310
008040A0008040C0008040E00080600000806020008060400080606000806080008060A0008060C0008060E00080800000808020008080400080806000808080008080A0008080C0008080E00080A0000080A0200080A0400080A0600080A0800080A0A00080A0C00080A0E00080C0000080C0200080C0400080C0600080C0
310
800080C0A00080C0C00080C0E00080E0000080E0200080E0400080E0600080E0800080E0A00080E0C00080E0E000C0000000C0002000C0004000C0006000C0008000C000A000C000C000C000E000C0200000C0202000C0204000C0206000C0208000C020A000C020C000C020E000C0400000C0402000C0404000C0406000C0
310
408000C040A000C040C000C040E000C0600000C0602000C0604000C0606000C0608000C060A000C060C000C060E000C0800000C0802000C0804000C0806000C0808000C080A000C080C000C080E000C0A00000C0A02000C0A04000C0A06000C0A08000C0A0A000C0A0C000C0A0E000C0C00000C0C02000C0C04000C0C06000
310
C0C08000C0C0A000F0FBFF00A4A0A000808080000000FF0000FF000000FFFF00FF000000FF00FF00FFFF0000FFFFFF00000000000000000000000000000000000000000000000000000000000000000000000000000000000000FF0000000000000000000000000000000000000000000000000000000000000000FF000000
310
00000000000000000000000000000000000000000000000000000000FF0000000000000000000000000000000000000000000000000000000000000000FF00000000000000000000000000000000000000000000000000000000000000FF0000000000000000000000000000000000000000000000000000000000000000FF
310
0000000000000000000000000000000000000000000000000000000000000000FF00000000000000000000000000000000000000000000000000000000000000FF0000000000000000000000000000000000000000000000000000000000000000FF0000000000000000000000000000000000000000000000000000000000
310
0000FF0000000000000000000000000000000000000000000000000000000000000000FF00000000000000000000000000000000000000000000000000000000000000FF0000000000000000000000000000000000000000000000000000000000000000FF0000FF0000000000000000000000000000000000000000000000
310
000000000000FFFF000000000000000000000000000000000000000000000000000000000000FFFF00000000000000000000000000000000000000000000000000000000FFFFFFFFFFFF00000000000000000000000000000000000000000000000000000000FFFF0000000000000000000000000000000000000000000000
310
000000000000FF0000FF000000000000000000000000000000000000000000000000000000FF00000000000000000000000000000000000000000000000000000000000000FF000000000000000000000000000000000000000000000000000000000000FF0000000000000000000000000000000000000000000000000000
310
0000000000FF000000000000000000000000000000000000000000000000000000000000FF00000000000000000000000000000000000000000000000000000000000000FF000000000000000000000000000000000000000000000000000000000000FF000000000000000000000000000000000000000000000000000000
310
000000FF00000000000000000000000000000000000000000000000000000000000000FF000000000000000000000000000000000000000000000000000000000000FF00000000000000000000000000000000000000000000000000000000000000FF00000000000000000000000000000000000000000000000000000000
310
0000FF0000000000000000000000000000000000000000000000000000000000000000000000000000000000000000000000000000000000
  0
BLOCK_RECORD
  5
251
330
1
100
AcDbSymbolTableRecord
100
AcDbBlockTableRecord
  2
_Partenza
340
0
310
2800000020000000200000000100080000000000000400000000000000000000000000000000000000000000000080000080000000808000800000008000800080800000C0C0C000C0DCC000F0CAA6000020400000206000002080000020A0000020C0000020E00000400000004020000040400000406000004080000040A0
310
000040C0000040E00000600000006020000060400000606000006080000060A0000060C0000060E00000800000008020000080400000806000008080000080A0000080C0000080E00000A0000000A0200000A0400000A0600000A0800000A0A00000A0C00000A0E00000C0000000C0200000C0400000C0600000C0800000C0
310
A00000C0C00000C0E00000E0000000E0200000E0400000E0600000E0800000E0A00000E0C00000E0E00040000000400020004000400040006000400080004000A0004000C0004000E00040200000402020004020400040206000402080004020A0004020C0004020E000404000004040200040404000404060004040800040
310
40A0004040C0004040E00040600000406020004060400040606000406080004060A0004060C0004060E00040800000408020004080400040806000408080004080A0004080C0004080E00040A0000040A0200040A0400040A0600040A0800040A0A00040A0C00040A0E00040C0000040C0200040C0400040C0600040C08000
310
40C0A00040C0C00040C0E00040E0000040E0200040E0400040E0600040E0800040E0A00040E0C00040E0E00080000000800020008000400080006000800080008000A0008000C0008000E00080200000802020008020400080206000802080008020A0008020C0008020E00080400000804020008040400080406000804080
310
008040A0008040C0008040E00080600000806020008060400080606000806080008060A0008060C0008060E00080800000808020008080400080806000808080008080A0008080C0008080E00080A0000080A0200080A0400080A0600080A0800080A0A00080A0C00080A0E00080C0000080C0200080C0400080C0600080C0
310
800080C0A00080C0C00080C0E00080E0000080E0200080E0400080E0600080E0800080E0A00080E0C00080E0E000C0000000C0002000C0004000C0006000C0008000C000A000C000C000C000E000C0200000C0202000C0204000C0206000C0208000C020A000C020C000C020E000C0400000C0402000C0404000C0406000C0
310
408000C040A000C040C000C040E000C0600000C0602000C0604000C0606000C0608000C060A000C060C000C060E000C0800000C0802000C0804000C0806000C0808000C080A000C080C000C080E000C0A00000C0A02000C0A04000C0A06000C0A08000C0A0A000C0A0C000C0A0E000C0C00000C0C02000C0C04000C0C06000
310
C0C08000C0C0A000F0FBFF00A4A0A000808080000000FF0000FF000000FFFF00FF000000FF00FF00FFFF0000FFFFFF0000000000000000000000000000000000000000000000000000000000000000000000000000000000000000000000000000000000000000000000000000000000000000000000000000000000000000
310
000000000000000000000000000000000000000000000000000000000000000000000000000000000000000000000000000000000000000000000000000000000000000000000000000000000000000000000000000000000000000000000000000000000000000000000000000000000000FFFFFFFFFFFFFFFFFFFFFFFFFF
310
FFFFFFFFFFFFFFFFFFFFFFFFFFFFFFFFFF0000000000000000000000000000000000000000000000000000000000000000000000000000000000000000000000000000000000000000000000000000000000000000000000000000000000000000000000000000000000000000000000000000000000000000000000000000
310
00000000000000000000000000000000000000000000000000000000000000000000000000000000000000000000000000000000000000000000000000000000000000000000000000000000000000000000000000000000000000000000000000000000000000000000000000000000000000000000000000000000000000
310
00000000000000000000000000000000000000000000000000000000000000000000000000000000000000000000000000000000000000000000000000000000000000000000000000000000000000000000000000000000000000000000000000000000000000000000000000000000000000000000000000000000000000
310
00000000000000000000000000000000000000000000000000000000000000000000000000000000000000000000000000000000000000000000000000000000000000000000000000000000000000000000000000000000000000000000000000000000000000000000000000000000000000000000000000000000000000
310
000000000000000000000000000000000000000000000000000000000000000000000000000000000000000000000000000000000000000000000000000000000000000000000000000000000000000000000000000000FFFFFFFFFFFFFFFFFFFFFFFFFFFFFFFFFFFFFFFFFFFFFFFFFFFFFFFFFFFF00000000000000000000
310
00000000000000000000000000000000000000000000000000000000000000000000000000000000000000000000000000000000000000000000000000000000000000000000000000000000000000000000000000000000000000000000000000000000000000000000000000000000000000000000000000000000000000
310
0000000000000000000000000000000000000000000000000000000000000000000000000000000000000000000000000000000000000000
  0
BLOCK_RECORD
  5
12F0
102
{ACAD_XDICTIONARY
360
1378
102
}
330
1
100
AcDbSymbolTableRecord
100
AcDbBlockTableRecord
  2
A$C06B82C3B
340
0
1001
ACAD
1000
DesignCenter Data
1002
{
1070
     1
1070
     4
1002
}
  0
BLOCK_RECORD
  5
2192
330
1
100
AcDbSymbolTableRecord
100
AcDbBlockTableRecord
  2
*D20
340
0
  0
BLOCK_RECORD
  5
23F6
330
1
100
AcDbSymbolTableRecord
100
AcDbBlockTableRecord
  2
*D22
340
0
  0
BLOCK_RECORD
  5
2414
330
1
100
AcDbSymbolTableRecord
100
AcDbBlockTableRecord
  2
*D23
340
0
  0
ENDTAB
  0
ENDSEC
  0
SECTION
  2
BLOCKS
  0
BLOCK
  5
5
330
2
100
AcDbEntity
  8
0
100
AcDbBlockBegin
  2
*Model_Space
 70
     0
 10
0.0
 20
0.0
 30
0.0
  3
*Model_Space
  1

  0
ENDBLK
  5
162
330
2
100
AcDbEntity
  8
0
100
AcDbBlockEnd
  0
BLOCK
  5
166
330
165
100
AcDbEntity
 67
     1
  8
0
100
AcDbBlockBegin
  2
*Paper_Space
 70
     0
 10
0.0
 20
0.0
 30
0.0
  3
*Paper_Space
  1

  0
ENDBLK
  5
167
330
165
100
AcDbEntity
 67
     1
  8
0
100
AcDbBlockEnd
  0
BLOCK
  5
16A
330
169
100
AcDbEntity
 67
     1
  8
0
100
AcDbBlockBegin
  2
*Paper_Space0
 70
     0
 10
0.0
 20
0.0
 30
0.0
  3
*Paper_Space0
  1

  0
ENDBLK
  5
16B
330
169
100
AcDbEntity
 67
     1
  8
0
100
AcDbBlockEnd
  0
BLOCK
  5
153
330
152
100
AcDbEntity
  8
0
 62
     1
100
AcDbBlockBegin
  2
_ArchTick
 70
     0
 10
0.0
 20
0.0
 30
0.0
  3
_ArchTick
  1

  0
LWPOLYLINE
  5
154
330
152
100
AcDbEntity
  8
0
  6
ByBlock
 62
     0
100
AcDbPolyline
 90
        2
 70
     0
 43
0.15
 10
-0.5
 20
-0.5
 10
0.5
 20
0.5
  0
ENDBLK
  5
155
330
152
100
AcDbEntity
  8
0
 62
     1
100
AcDbBlockEnd
  0
BLOCK
  5
24C
330
24B
100
AcDbEntity
  8
0
100
AcDbBlockBegin
  2
_Arrivo
 70
     0
 10
0.0
 20
0.0
 30
0.0
  3
_Arrivo
  1

  0
LINE
  5
24D
330
24B
100
AcDbEntity
  8
0
  6
ByBlock
 62
     0
370
    -2
100
AcDbLine
 10
0.025
 20
-0.0433012701891858
 30
0.0
 11
-0.15
 21
0.2598076211353328
 31
0.0
  0
LINE
  5
24E
330
24B
100
AcDbEntity
  8
0
  6
ByBlock
 62
     0
370
    -2
100
AcDbLine
 10
0.025
 20
0.0433012701892585
 30
0.0
 11
-0.15
 21
-0.2598076211353328
 31
0.0
  0
LINE
  5
24F
330
24B
100
AcDbEntity
  8
0
  6
ByBlock
 62
     0
370
    -2
100
AcDbLine
 10
-0.05
 20
0.0
 30
0.0
 11
0.05
 21
0.0
 31
0.0
  0
ENDBLK
  5
250
330
24B
100
AcDbEntity
  8
0
100
AcDbBlockEnd
  0
BLOCK
  5
252
330
251
100
AcDbEntity
  8
0
100
AcDbBlockBegin
  2
_Partenza
 70
     0
 10
0.0
 20
0.0
 30
0.0
  3
_Partenza
  1

  0
LINE
  5
253
330
251
100
AcDbEntity
  8
0
  6
ByBlock
 62
     0
370
    -2
100
AcDbLine
 10
-0.05
 20
0.05
 30
0.0
 11
0.1
 21
0.05
 31
0.0
  0
LINE
  5
254
330
251
100
AcDbEntity
  8
0
  6
ByBlock
 62
     0
370
    -2
100
AcDbLine
 10
-0.05
 20
-0.05
 30
0.0
 11
0.1
 21
-0.05
 31
0.0
  0
ENDBLK
  5
255
330
251
100
AcDbEntity
  8
0
100
AcDbBlockEnd
  0
BLOCK
  5
137A
330
12F0
100
AcDbEntity
  8
0
100
AcDbBlockBegin
  2
A$C06B82C3B
 70
     0
 10
0.0
 20
0.0
 30
0.0
  3
A$C06B82C3B
  1

  0
CIRCLE
  5
12F1
330
12F0
100
AcDbEntity
  8
0
  6
Continuous
370
     0
100
AcDbCircle
 10
0.2100000128891679
 20
0.2099999738693725
 30
0.0
 40
0.190353501069441
  0
CIRCLE
  5
12F2
330
12F0
100
AcDbEntity
  8
0
  6
Continuous
370
     0
100
AcDbCircle
 10
0.2100000128891679
 20
0.2099999738693725
 30
0.0
 40
0.1762215365181566
  0
CIRCLE
  5
12F3
330
12F0
100
AcDbEntity
  8
0
  6
Continuous
370
     0
100
AcDbCircle
 10
0.2100000128891679
 20
0.2099999738693725
 30
0.0
 40
0.21
  0
CIRCLE
  5
12F4
330
12F0
100
AcDbEntity
  8
0
  6
Continuous
370
     0
100
AcDbCircle
 10
0.2100000128891679
 20
0.2099999738693725
 30
0.0
 40
0.0142627512571157
  0
LWPOLYLINE
  5
12F5
330
12F0
100
AcDbEntity
  8
0
  6
Continuous
370
     0
100
AcDbPolyline
 90
        9
 70
   128
 43
0.0
 10
0.1775311812878222
 20
0.3976650651396838
 10
0.1764864628582323
 20
0.4056706834829508
 10
0.1761382233816988
 20
0.4103696324400321
 10
0.1803170857085234
 20
0.4112398089736118
 10
0.1837994576907427
 20
0.4117619192180122
 10
0.1895453862704066
 20
0.4121099855071914
 10
0.1904159735701895
 20
0.4081071763355571
 10
0.1911124525232495
 20
0.4014938375631835
 10
0.1912865722615144
 20
0.3997534917031107
  0
LWPOLYLINE
  5
12F6
330
12F0
100
AcDbEntity
  8
0
  6
Continuous
370
     0
100
AcDbPolyline
 90
        9
 70
   128
 43
0.0
 10
0.1528075761770253
 20
0.3916629494312022
 10
0.1507051347651398
 20
0.3994578902112717
 10
0.1497336938595133
 20
0.4040684969610541
 10
0.1537592870569284
 20
0.4054878971706746
 10
0.1571409970490407
 20
0.4064695036392223
 10
0.16278926481694
 20
0.4075803216289931
 10
0.1641856065386555
 20
0.4037292655001839
 10
0.165757342939834
 20
0.3972677658804766
 10
0.1661618744936568
 20
0.3955661561667387
  0
LWPOLYLINE
  5
12F7
330
12F0
100
AcDbEntity
  8
0
  6
Continuous
370
     0
100
AcDbPolyline
 90
        9
 70
   128
 43
0.0
 10
0.1291045714542669
 20
0.3824190536201452
 10
0.125981925176891
 20
0.3898642159341286
 10
0.1244046182281479
 20
0.3943042040899378
 10
0.1282051054901778
 20
0.3962474987452306
 10
0.1314258067972602
 20
0.3976710846472411
 10
0.1368756202812626
 20
0.3995248317642605
 10
0.1387727986738127
 20
0.3958942508661245
 10
0.1411917448497917
 20
0.3896998960128765
 10
0.1418194693440142
 20
0.3880673877111267
  0
LWPOLYLINE
  5
12F8
330
12F0
100
AcDbEntity
  8
0
  6
Continuous
370
     0
100
AcDbPolyline
 90
        9
 70
   128
 43
0.0
 10
0.1068451478003673
 20
0.3700983352462508
 10
0.1027580203542904
 20
0.377060859996277
 10
0.1006029944423012
 20
0.381250997864285
 10
0.1041105559837199
 20
0.3836835088260901
 10
0.107112775114647
 20
0.3855236702374185
 10
0.1122668822640236
 20
0.3880872663204648
 10
0.114631042134043
 20
0.3847419484551419
 10
0.1178540319330068
 20
0.3789252767774531
 10
0.1186937476091571
 20
0.3773910020370134
  0
LWPOLYLINE
  5
12F9
330
12F0
100
AcDbEntity
  8
0
  6
Continuous
370
     0
100
AcDbPolyline
 90
        9
 70
   128
 43
0.0
 10
0.0864265251577585
 20
0.3549206578207862
 10
0.0814478514290862
 20
0.3612762985877466
 10
0.0787535630423015
 20
0.3651418130584325
 10
0.0819056063443036
 20
0.3680201321110097
 10
0.0846357686275638
 20
0.3702440313076742
 10
0.0894021942781293
 20
0.3734717289239135
 10
0.0921911471367345
 20
0.3704713713679606
 10
0.0961606662293661
 20
0.3651361815097225
 10
0.0971973883413106
 20
0.3637275194996814
  0
LWPOLYLINE
  5
12FA
330
12F0
100
AcDbEntity
  8
0
  6
Continuous
370
     0
100
AcDbPolyline
 90
        9
 70
   128
 43
0.0
 10
0.0682130743312257
 20
0.337156867356974
 10
0.0624316988705971
 20
0.3427922075808123
 10
0.0592462276491048
 20
0.3462641184568724
 10
0.0619865044242971
 20
0.3495368819285396
 10
0.064395890049262
 20
0.3521048333766892
 10
0.0686895772223686
 20
0.3559390341856954
 10
0.0718535541397181
 20
0.353337178390781
 10
0.0764987663637768
 20
0.3485786769414041
 10
0.0777139945808614
 20
0.3473207652687016
  0
LWPOLYLINE
  5
12FB
330
12F0
100
AcDbEntity
  8
0
  6
Continuous
370
     0
100
AcDbPolyline
 90
        9
 70
   128
 43
0.0
 10
0.0525298147822575
 20
0.317123959116472
 10
0.0460489063717269
 20
0.3219384360173922
 10
0.0424290971249412
 20
0.3249547869669911
 10
0.0447087070693506
 20
0.3285635923160619
 10
0.0467543204924645
 20
0.3314297708612716
 10
0.0504986482387864
 20
0.3358020534587726
 10
0.0539811879718392
 20
0.3336451296031946
 10
0.0592191994051312
 20
0.3295482321337743
 10
0.0605912479510415
 20
0.3284635182620121
  0
LWPOLYLINE
  5
12FC
330
12F0
100
AcDbEntity
  8
0
  6
Continuous
370
     0
100
AcDbPolyline
 90
        9
 70
   128
 43
0.0
 10
0.0396566146490436
 20
0.2951794208214213
 10
0.0325918252527302
 20
0.2990871199450691
 10
0.0286022735624165
 20
0.3015940841140523
 10
0.0303805369825838
 20
0.3054745321235792
 10
0.0320258741838479
 20
0.3085877907418073
 10
0.0351540248860473
 20
0.313420131641271
 10
0.038892981430763
 20
0.3117466300823306
 10
0.0446303196351749
 20
0.3083844458252667
 10
0.0461347042711004
 20
0.3074922864991834
  0
LWPOLYLINE
  5
12FD
330
12F0
100
AcDbEntity
  8
0
  6
Continuous
370
     0
100
AcDbPolyline
 90
        9
 70
   128
 43
0.0
 10
0.0298231964929343
 20
0.2717148532775742
 10
0.022300597444989
 20
0.2746460416405103
 10
0.0180124969555706
 20
0.2765988821938929
 10
0.0192576806986295
 20
0.2806817261772174
 10
0.0204733805967159
 20
0.2839865086946673
 10
0.0229295323313998
 20
0.2891926746582598
 10
0.0268581839196642
 20
0.2880324590709211
 10
0.0329924659590155
 20
0.2854649862839338
 10
0.0346023409054901
 20
0.284781302107838
  0
LWPOLYLINE
  5
12FE
330
12F0
100
AcDbEntity
  8
0
  6
Continuous
370
     0
100
AcDbPolyline
 90
        9
 70
   128
 43
0.0
 10
0.0232050378938844
 20
0.2471489822486337
 10
0.0153588701525287
 20
0.2490513527250826
 10
0.0108487421188315
 20
0.2504152211769259
 10
0.0115386258513901
 20
0.2546276026864387
 10
0.0123029942528099
 20
0.2580649351807942
 10
0.0140433169340923
 20
0.2635520220535614
 10
0.0180915566852349
 20
0.2629257965124676
 10
0.0245133161512108
 20
0.2611988518082633
 10
0.026199953151675
 20
0.2607358431424771
  0
LWPOLYLINE
  5
12FF
330
12F0
100
AcDbEntity
  8
0
  6
Continuous
370
     0
100
AcDbPolyline
 90
        9
 70
   128
 43
0.0
 10
0.0199202400488829
 20
0.2219201862850895
 10
0.0118905186633356
 20
0.2227597910288317
 10
0.0072388464269686
 20
0.2235103491142993
 10
0.0073611191574763
 20
0.2277770981021714
 10
0.0076605158899987
 20
0.2312856412936401
 10
0.0086539534183991
 20
0.2369557318803448
 10
0.0127495403981612
 20
0.2368746713951122
 10
0.0193441808409602
 20
0.2360190721428505
 10
0.0210774818181818
 20
0.2357850013879812
  0
LWPOLYLINE
  5
1300
330
12F0
100
AcDbEntity
  8
0
  6
Continuous
370
     0
100
AcDbPolyline
 90
        9
 70
   128
 43
0.0
 10
0.0200274202532853
 20
0.1964786738485902
 10
0.0119574357919063
 20
0.1962405300930818
 10
0.0072472285541245
 20
0.1963643840853599
 10
0.0067997083228093
 20
0.2006093603148233
 10
0.0066287906446511
 20
0.2041265041670321
 10
0.0068576151039394
 20
0.2098784155668287
 10
0.0109274634656415
 20
0.2103439666637374
 10
0.0175773033703273
 20
0.2103749810523432
 10
0.0193263375273069
 20
0.2103740252065567
  0
LWPOLYLINE
  5
1301
330
12F0
100
AcDbEntity
  8
0
  6
Continuous
370
     0
100
AcDbPolyline
 90
        9
 70
   128
 43
0.0
 10
0.0235246658738148
 20
0.1712784493312895
 10
0.0155584274004923
 20
0.1699668067574897
 10
0.0108737389210418
 20
0.1694617464791505
 10
0.0098644117370306
 20
0.1736091982488226
 10
0.0092262296782088
 20
0.1770721792464087
 10
0.0086863576904932
 20
0.1828032684641005
 10
0.0126578408936986
 20
0.1838071233727962
 10
0.0192442137096371
 20
0.1847241979497713
 10
0.0209777694904076
 20
0.1849563740701594
  0
LWPOLYLINE
  5
1302
330
12F0
100
AcDbEntity
  8
0
  6
Continuous
370
     0
100
AcDbPolyline
 90
        9
 70
   128
 43
0.0
 10
0.0303495684795116
 20
0.1467692113367
 10
0.0226292337085319
 20
0.1444074762374114
 10
0.0180536623643093
 20
0.1432825145010863
 10
0.0165005396951159
 20
0.1472584304358832
 10
0.0154064816295865
 20
0.1506054516009047
 10
0.0141075472232721
 20
0.1562134472136325
 10
0.0179097940561377
 20
0.1577376921194879
 10
0.0243151658043921
 20
0.1595244616672797
 10
0.026002307864978
 20
0.1599856265654722
  0
LWPOLYLINE
  5
1303
330
12F0
100
AcDbEntity
  8
0
  6
Continuous
370
     0
100
AcDbPolyline
 90
        9
 70
   128
 43
0.0
 10
0.0403803375216967
 20
0.1233883277974694
 10
0.0330436760099459
 20
0.1200186453914895
 10
0.0286588729799853
 20
0.1182938571660177
 10
0.0265896703364348
 20
0.1220272869518908
 10
0.0250592597562971
 20
0.1251986206123643
 10
0.0230244424466406
 20
0.1305834478055612
 10
0.026589601724357
 20
0.1326008825221212
 10
0.0326996683943328
 20
0.1352254620958213
 10
0.0343102896446936
 20
0.1359073862732849
  0
LWPOLYLINE
  5
1304
330
12F0
100
AcDbEntity
  8
0
  6
Continuous
370
     0
100
AcDbPolyline
 90
        9
 70
   128
 43
0.0
 10
0.0534379736891814
 20
0.1015530311342623
 10
0.0466159083351414
 20
0.0972355334839552
 10
0.0425001205333935
 20
0.0949416976560773
 10
0.0399517628856785
 20
0.0983660181500525
 10
0.0380123100039924
 20
0.1013050717816775
 10
0.0352779211540905
 20
0.1063706381865117
 10
0.0385423725248834
 20
0.1088452615434665
 10
0.0442480998321102
 20
0.1122608154584021
 10
0.0457534586978738
 20
0.1131513299620365
  0
LWPOLYLINE
  5
1305
330
12F0
100
AcDbEntity
  8
0
  6
Continuous
370
     0
100
AcDbPolyline
 90
        9
 70
   128
 43
0.0
 10
0.0692894631552114
 20
0.081652972733318
 10
0.0631037338767477
 20
0.0764647056865364
 10
0.0593304076340395
 20
0.0736427558109441
 10
0.056348370484752
 20
0.0766968599326816
 10
0.0540344848841379
 20
0.0793511860537741
 10
0.0506493197277926
 20
0.0840070965177483
 10
0.0535548089796194
 20
0.086894748802667
 10
0.0587543780851227
 20
0.0910403264183107
 10
0.060127611401672
 20
0.0921235399957024
  0
LWPOLYLINE
  5
1306
330
12F0
100
AcDbEntity
  8
0
  6
Continuous
370
     0
100
AcDbPolyline
 90
        9
 70
   128
 43
0.0
 10
0.0876519357147423
 20
0.0640432696082431
 10
0.0822129269973645
 20
0.0580768179133493
 10
0.0788493974098898
 20
0.0547771117524256
 10
0.0754868952826087
 20
0.057406498941523
 10
0.0728398683064242
 20
0.0597287310395682
 10
0.06886433519605
 20
0.0638919007301499
 10
0.071359013804372
 20
0.0671410517195987
 10
0.0759596382742877
 20
0.0719426751051913
 10
0.077176240660556
 20
0.0731992577843865
  0
LWPOLYLINE
  5
1307
330
12F0
100
AcDbEntity
  8
0
  6
Continuous
370
     0
100
AcDbPolyline
 90
        9
 70
   128
 43
0.0
 10
0.1081977126099254
 20
0.0490381673284865
 10
0.1036024836930558
 20
0.0424000024573239
 10
0.1007087730259819
 20
0.0386814233456825
 10
0.0970258098508303
 20
0.0408391721254553
 10
0.0940928777581753
 20
0.0427878699136528
 10
0.0895979201763062
 20
0.0463840069690864
 10
0.0916372705422645
 20
0.0499366754866841
 10
0.0955568521239343
 20
0.0553086595591541
 10
0.0965951132815128
 20
0.0567161875924782
  0
LWPOLYLINE
  5
1308
330
12F0
100
AcDbEntity
  8
0
  6
Continuous
370
     0
100
AcDbPolyline
 90
        9
 70
   128
 43
0.0
 10
0.1305601539653373
 20
0.036905432299708
 10
0.1268907068178535
 20
0.0297140124616639
 10
0.1245184534065906
 20
0.0256429185316467
 10
0.1205807517486761
 20
0.0272905238240036
 10
0.117414252782229
 20
0.0288309127441533
 10
0.1124800833534003
 20
0.0317958440134926
 10
0.1140277132214002
 20
0.0355886326053785
 10
0.1171963068886441
 20
0.0414351141816898
 10
0.1180376990225795
 20
0.0429684701980388
  0
LWPOLYLINE
  5
1309
330
12F0
100
AcDbEntity
  8
0
  6
Continuous
370
     0
100
AcDbPolyline
 90
        9
 70
   128
 43
0.0
 10
0.1543402014852084
 20
0.0278615734659269
 10
0.1516620174783902
 20
0.0202452297183768
 10
0.1498535542412646
 20
0.015894269737613
 10
0.1457313824799584
 20
0.0170023299870774
 10
0.1423878228887893
 20
0.0181069217624099
 10
0.1371024919833523
 20
0.0203877379769111
 10
0.1381307838617331
 20
0.0243529642408102
 10
0.140491845985494
 20
0.0305696127187289
 10
0.1411213544332241
 20
0.0322014339436673
  0
LWPOLYLINE
  5
130A
330
12F0
100
AcDbEntity
  8
0
  6
Continuous
370
     0
100
AcDbPolyline
 90
        9
 70
   128
 43
0.0
 10
0.1791134996581895
 20
0.0220679787022835
 10
0.1774743710490867
 20
0.0141626248798392
 10
0.1762619700554033
 20
0.009609441832259
 10
0.172028888443446
 20
0.0101581836774311
 10
0.1685679341276653
 20
0.0108072668415461
 10
0.1630257586008419
 20
0.0123632667818274
 10
0.163516362596674
 20
0.0164301711611241
 10
0.165027759967419
 20
0.0229060503012839
 10
0.1654341511357806
 20
0.0246072168463929
  0
LWPOLYLINE
  5
130B
330
12F0
100
AcDbEntity
  8
0
  6
Continuous
370
     0
100
AcDbPolyline
 90
        9
 70
   128
 43
0.0
 10
0.2044379683914918
 20
0.0196280348445885
 10
0.2038671454689655
 20
0.0115747421734937
 10
0.203272442043179
 20
0.0069005877184462
 10
0.1990039900222164
 20
0.0068802188480994
 10
0.1954874017935886
 20
0.0070622104965565
 10
0.1897872818989512
 20
0.0078656273068223
 10
0.189731443172306
 20
0.0119616357965189
 10
0.1903662048681447
 20
0.0185811833822491
 10
0.1905422266971115
 20
0.0203213378902305
  0
LWPOLYLINE
  5
130C
330
12F0
100
AcDbEntity
  8
0
  6
Continuous
370
     0
100
AcDbPolyline
 90
        9
 70
   128
 43
0.0
 10
0.22986169194062
 20
0.0205852827487849
 10
0.2303693610532491
 20
0.0125277624275402
 10
0.2304029676920827
 20
0.007816046962013
 10
0.2261753158895523
 20
0.0072269308591188
 10
0.2226658473483205
 20
0.0069385833466384
 10
0.2169095018604246
 20
0.0069750800348771
 10
0.2163082168547028
 20
0.011027099266439
 10
0.2160550155381386
 20
0.0176721893142524
 10
0.215997526914002
 20
0.0194202786866882
  0
LWPOLYLINE
  5
130D
330
12F0
100
AcDbEntity
  8
0
  6
Continuous
370
     0
100
AcDbPolyline
 90
        9
 70
   128
 43
0.0
 10
0.2549309833565445
 20
0.0249226403033464
 10
0.2565080851369821
 20
0.0170046789729704
 10
0.2571694021291755
 20
0.0123394831710666
 10
0.2530579930916446
 20
0.011192132626439
 10
0.2496182707870709
 20
0.0104385915212131
 10
0.2439084218275198
 20
0.0097075168031573
 10
0.242772420487892
 20
0.013643238397405
 10
0.2416357745424165
 20
0.0201952891179715
 10
0.2413458013510379
 20
0.0219201186585956
  0
LWPOLYLINE
  5
130E
330
12F0
100
AcDbEntity
  8
0
  6
Continuous
370
     0
100
AcDbPolyline
 90
        9
 70
   128
 43
0.0
 10
0.279198480540046
 20
0.0325627072599577
 10
0.2818168715696601
 20
0.0249256011279701
 10
0.2830940976978127
 20
0.0203901755192941
 10
0.2791722996169597
 20
0.0187050650305824
 10
0.2758637054750572
 20
0.0174997772914871
 10
0.270302245433804
 20
0.0160141772127993
 10
0.2686517997310887
 20
0.0197633681246447
 10
0.2666519926305249
 20
0.0261054580176356
 10
0.2661347094503768
 20
0.0277762481024339
  0
LWPOLYLINE
  5
130F
330
12F0
100
AcDbEntity
  8
0
  6
Continuous
370
     0
100
AcDbPolyline
 90
        9
 70
   128
 43
0.0
 10
0.302231129428975
 20
0.0433691464427799
 10
0.3058440844578101
 20
0.0361491798490334
 10
0.3077144275914101
 20
0.0318244592110197
 10
0.3040522250468989
 20
0.0296316596148181
 10
0.3009338010085116
 20
0.0279961336301095
 10
0.2956199742717409
 20
0.0257825187593887
 10
0.2934845364486058
 20
0.0292782745881883
 10
0.2906572547980417
 20
0.0352972289092168
 10
0.2899218925597218
 20
0.0368841642495425
  0
LWPOLYLINE
  5
1310
330
12F0
100
AcDbEntity
  8
0
  6
Continuous
370
     0
100
AcDbPolyline
 90
        9
 70
   128
 43
0.0
 10
0.3236179118582534
 20
0.0571491166885867
 10
0.3281609576182305
 20
0.0504751301079924
 10
0.3305910414397495
 20
0.0464382891828805
 10
0.3272537865227427
 20
0.0437769310399289
 10
0.3243811809387118
 20
0.0417403528095512
 10
0.3194098128704325
 20
0.0388382251566082
 10
0.3168274898654175
 20
0.0420181640567811
 10
0.3132231865728876
 20
0.047606574423396
 10
0.3122828678329625
 20
0.0490813361205084
  0
LWPOLYLINE
  5
1311
330
12F0
100
AcDbEntity
  8
0
  6
Continuous
370
     0
100
AcDbPolyline
 90
        9
 70
   128
 43
0.0
 10
0.3429771801887753
 20
0.0736567141018902
 10
0.3483692459206757
 20
0.0676478049830855
 10
0.3513157055267477
 20
0.0639708812928177
 10
0.3483629516302997
 20
0.0608884566022283
 10
0.3457874262153311
 20
0.0584871689129507
 10
0.341247230996494
 20
0.0549483170145031
 10
0.3382641044248018
 20
0.0577556929010416
 10
0.3339470983679469
 20
0.0628138339978594
 10
0.3328186031366051
 20
0.0641501048943365
  0
LWPOLYLINE
  5
1312
330
12F0
100
AcDbEntity
  8
0
  6
Continuous
370
     0
100
AcDbPolyline
 90
        9
 70
   128
 43
0.0
 10
0.3599634678185417
 20
0.092597360215775
 10
0.3661083319816427
 20
0.0873607576843405
 10
0.3695185877307985
 20
0.0841093660192787
 10
0.3670030268181463
 20
0.080660880722677
 10
0.3647705418842797
 20
0.0779377346102006
 10
0.3607425394061252
 20
0.0738253093622152
 10
0.3574118432320965
 20
0.076210024545917
 10
0.3524591714862737
 20
0.0806476337252348
 10
0.351162637787656
 20
0.0818215680352702
  0
LWPOLYLINE
  5
1313
330
12F0
100
AcDbEntity
  8
0
  6
Continuous
370
     0
100
AcDbPolyline
 90
        9
 70
   128
 43
0.0
 10
0.3742736540423976
 20
0.1136330587516294
 10
0.3810616613901345
 20
0.109262210103795
 10
0.3848748571877358
 20
0.106494371625228
 10
0.3828413795029597
 20
0.1027413640244283
 10
0.3809917737967261
 20
0.0997449540956445
 10
0.3775478438589026
 20
0.0951323418240957
 10
0.3739290144346725
 20
0.0970518410060119
 10
0.3684290575445175
 20
0.1007897290268964
 10
0.3669876220531911
 20
0.101780377864916
  0
LWPOLYLINE
  5
1314
330
12F0
100
AcDbEntity
  8
0
  6
Continuous
370
     0
100
AcDbPolyline
 90
        9
 70
   128
 43
0.0
 10
0.3856523732481598
 20
0.1363884271707327
 10
0.3929623916285969
 20
0.1329613303041679
 10
0.397110480905301
 20
0.1307264371553174
 10
0.3955953739058593
 20
0.1267358797598667
 10
0.394161653684911
 20
0.1235196770209405
 10
0.3913632532987456
 20
0.1184891899010889
 10
0.3875208687211184
 20
0.119909219572845
 10
0.3815717735476305
 20
0.1228806837350102
 10
0.3800111587140868
 20
0.1236703689490319
  0
LWPOLYLINE
  5
1315
330
12F0
100
AcDbEntity
  8
0
  6
Continuous
370
     0
100
AcDbPolyline
 90
        9
 70
   128
 43
0.0
 10
0.3938965719220313
 20
0.1604573953845633
 10
0.4015981538839987
 20
0.1580352069240405
 10
0.4060071138883891
 20
0.1563731408260942
 10
0.4050374146945827
 20
0.1522162452272528
 10
0.4040451647302242
 20
0.1488376428922517
 10
0.4019422314169035
 20
0.1434790500859257
 10
0.3979448591296943
 20
0.1443742697843877
 10
0.3916527874171862
 20
0.1465262842394672
 10
0.390000842450096
 20
0.1471009138781376
  0
LWPOLYLINE
  5
1316
330
12F0
100
AcDbEntity
  8
0
  6
Continuous
370
     0
100
AcDbPolyline
 90
        9
 70
   128
 43
0.0
 10
0.3988591321433716
 20
0.1854104520851418
 10
0.4068148427743025
 20
0.1840363960411206
 10
0.411405995510652
 20
0.1829768166029719
 10
0.4109990084275666
 20
0.1787277627011789
 10
0.4104659354439164
 20
0.1752470520088138
 10
0.409095996098241
 20
0.1696559777315904
 10
0.405014969304613
 20
0.1700104122400301
 10
0.3984922032218527
 20
0.1713045742390893
 10
0.396778407118294
 20
0.171653894022894
  0
LWPOLYLINE
  5
1317
330
12F0
100
AcDbEntity
  8
0
  6
Continuous
370
     0
100
AcDbPolyline
 90
        9
 70
   128
 43
0.0
 10
0.4004514969074649
 20
0.2108023093844959
 10
0.4085193663626754
 20
0.2105009058196359
 10
0.4132107826016415
 20
0.2100627212614583
 10
0.4133737703234104
 20
0.205797333524254
 10
0.4133093870204974
 20
0.2022766278392893
 10
0.4126968882425394
 20
0.1965528449440992
 10
0.4086050329623098
 20
0.1963601693703172
 10
0.4019679714245683
 20
0.1967733845618227
 10
0.4002229069166106
 20
0.1968911608709458
  0
LWPOLYLINE
  5
1318
330
12F0
100
AcDbEntity
  8
0
  6
Continuous
370
     0
100
AcDbPolyline
 90
        9
 70
   128
 43
0.0
 10
0.3986452504273749
 20
0.2361798489875753
 10
0.4066813073853019
 20
0.2369564764556298
 10
0.4113892686929575
 20
0.2371475061912473
 10
0.4121193226998301
 20
0.2329419005638513
 10
0.412524777999213
 20
0.229444026962641
 10
0.4126806498441767
 20
0.2236896764908476
 10
0.4086509853317608
 20
0.2229533291350236
 10
0.4020180668594157
 20
0.2224782236840959
 10
0.4002728746645446
 20
0.2223623547975073
  0
LWPOLYLINE
  5
1319
330
12F0
100
AcDbEntity
  8
0
  6
Continuous
370
     0
100
AcDbPolyline
 90
        9
 70
   128
 43
0.0
 10
0.3934726252143221
 20
0.2610902080989579
 10
0.4013334660481788
 20
0.2629310076643616
 10
0.4059739587434521
 20
0.2637478427636139
 10
0.40725805120438
 20
0.25967706837808
 10
0.4081261097466396
 20
0.2562644464979051
 10
0.4090475706777604
 20
0.2505822149700005
 10
0.4051520063918411
 20
0.249315335968145
 10
0.3986415955721725
 20
0.2479603881428094
 10
0.3969274186864453
 20
0.2476129417435366
  0
LWPOLYLINE
  5
131A
330
12F0
100
AcDbEntity
  8
0
  6
Continuous
370
     0
100
AcDbPolyline
 90
        9
 70
   128
 43
0.0
 10
0.3850259268877849
 20
0.2850888607701627
 10
0.3925712747066612
 20
0.2879609833210619
 10
0.3970614890874699
 20
0.2893890473422544
 10
0.3988767053420652
 20
0.2855257472639288
 10
0.4001918766019515
 20
0.2822592754230868
 10
0.4018624831270828
 20
0.2767505623953035
 10
0.398170535504633
 20
0.2749757592332145
 10
0.3918988107729504
 20
0.2727651481095137
 10
0.3902462387235061
 20
0.2721923243867845
  0
LWPOLYLINE
  5
131B
330
12F0
100
AcDbEntity
  8
0
  6
Continuous
370
     0
100
AcDbPolyline
 90
        9
 70
   128
 43
0.0
 10
0.3734558869794995
 20
0.3077475504757334
 10
0.3805510948728141
 20
0.311599742917167
 10
0.3848109029571631
 20
0.3136135520240071
 10
0.3871248504283606
 20
0.3100266669343128
 10
0.3888636651435817
 20
0.3069646354001883
 10
0.3912536052497017
 20
0.3017277439870085
 10
0.3878311571835091
 20
0.2994766880691611
 10
0.3819100376162261
 20
0.2964498620549669
 10
0.3803485605904377
 20
0.2956618830616833
  0
LWPOLYLINE
  5
131C
330
12F0
100
AcDbEntity
  8
0
  6
Continuous
370
     0
100
AcDbPolyline
 90
        9
 70
   128
 43
0.0
 10
0.3589689731257301
 20
0.3286619323610828
 10
0.3654874269405397
 20
0.3334254522276705
 10
0.3694408123522414
 20
0.3359890699489405
 10
0.3722121985925994
 20
0.332742607897277
 10
0.3743436275733707
 20
0.3299396586951371
 10
0.3774102527226723
 20
0.3250680413478939
 10
0.374318377879554
 20
0.3223809028204698
 10
0.3688535259956254
 20
0.3185918756977148
 10
0.3674110085880073
 20
0.317602802937678
  0
LWPOLYLINE
  5
131D
330
12F0
100
AcDbEntity
  8
0
  6
Continuous
370
     0
100
AcDbPolyline
 90
        9
 70
   128
 43
0.0
 10
0.3418237046473997
 20
0.3474587887859925
 10
0.3476490824209542
 20
0.3530486309528662
 10
0.3512254969036803
 20
0.3561163094695967
 10
0.3544048664600865
 20
0.3532682036481862
 10
0.3568908743057477
 20
0.3507743554729465
 10
0.3605794604997889
 20
0.3463549463186126
 10
0.3578733334595725
 20
0.3432796772322924
 10
0.352962269670332
 20
0.3387960642797445
 10
0.3516644536382003
 20
0.3376235477797902
  0
LWPOLYLINE
  5
131E
330
12F0
100
AcDbEntity
  8
0
  6
Continuous
370
     0
100
AcDbPolyline
 90
        9
 70
   128
 43
0.0
 10
0.3223260392666809
 20
0.3638026894022541
 10
0.3273543869946067
 20
0.3701191030035211
 10
0.3304900093471872
 20
0.3736360995199064
 10
0.3340206262945813
 20
0.3712371744446034
 10
0.3368168501362376
 20
0.3690969300760311
 10
0.3410615744670018
 20
0.3652085935756641
 10
0.3387894861308247
 20
0.3618000721801504
 10
0.3345198484859359
 20
0.3567018835771663
 10
0.3333898933871282
 20
0.3553668469220134
  0
LWPOLYLINE
  5
131F
330
12F0
100
AcDbEntity
  8
0
  6
Continuous
370
     0
100
AcDbPolyline
 90
        9
 70
   128
 43
0.0
 10
0.300823913284205
 20
0.3774019769161789
 10
0.3049654999821705
 20
0.3843322454014846
 10
0.3076043749494417
 20
0.3882357990313689
 10
0.3114232353447583
 20
0.3863288635769777
 10
0.314479776501706
 20
0.3845804157265338
 10
0.3192048917629506
 20
0.381292539337096
 10
0.3174073876010048
 20
0.3776115907774393
 10
0.3138553678853881
 20
0.3719898038204192
 10
0.3129134377954123
 20
0.3705160707708064
  0
LWPOLYLINE
  5
1320
330
12F0
100
AcDbEntity
  8
0
  6
Continuous
370
     0
100
AcDbPolyline
 90
        9
 70
   128
 43
0.0
 10
0.2777010326475207
 20
0.3880139717199053
 10
0.2808819516027867
 20
0.39543442428395
 10
0.2829769883984348
 20
0.3996548760203335
 10
0.287015944587452
 20
0.39827395949521
 10
0.2902782590103357
 20
0.3969485092562052
 10
0.2953994454082896
 20
0.3943197652097616
 10
0.2941086019249219
 20
0.3904320761002129
 10
0.2913375860145564
 20
0.3843870117105847
 10
0.2906004896981784
 20
0.3828008810676948
  0
LWPOLYLINE
  5
1321
330
12F0
100
AcDbEntity
  8
0
  6
Continuous
370
     0
100
AcDbPolyline
 90
        9
 70
   128
 43
0.0
 10
0.2533700257093798
 20
0.3954493025147609
 10
0.2555335133478351
 20
0.4032275210057427
 10
0.2570473259906123
 20
0.4076895567874033
 10
0.2612343027044481
 20
0.4068593016796563
 10
0.2646441743151087
 20
0.4059805017430076
 10
0.2700700441571691
 20
0.4040578000393414
 10
0.2693088964849259
 20
0.4000327462841593
 10
0.2673683332243755
 20
0.3936722787791691
 10
0.2668492241828311
 20
0.3920020550819014
  0
LWPOLYLINE
  5
1322
330
12F0
100
AcDbEntity
  8
0
  6
Continuous
370
     0
100
AcDbPolyline
 90
        9
 70
   128
 43
0.0
 10
0.228265079865011
 20
0.399575285646561
 10
0.2293725286984873
 20
0.4075724675712423
 10
0.2302781031659222
 20
0.4121964622639495
 10
0.234538383705928
 20
0.4119316844956434
 10
0.2380349632646919
 20
0.4115152170670396
 10
0.2436686917749888
 20
0.4103328683636019
 10
0.243450822612111
 20
0.4062422771424056
 10
0.2423753413987342
 20
0.3996799092153597
 10
0.2420834831451621
 20
0.3979553976451608
  0
LWPOLYLINE
  5
1323
330
12F0
100
AcDbEntity
  8
0
  6
Continuous
370
     0
100
AcDbPolyline
 90
        9
 70
   128
 43
0.0
 10
0.2028341934677478
 20
0.400318292848576
 10
0.202865841045579
 20
0.4083917283060519
 10
0.2031470173398482
 20
0.413095166614971
 10
0.2074045768988597
 20
0.4134005911516531
 10
0.2109254678606618
 20
0.4134538881022252
 10
0.2166665210204677
 20
0.4130329914396374
 10
0.2169958182473266
 20
0.4089498594496775
 10
0.2168046110688522
 20
0.4023026967117005
 10
0.2167452118207045
 20
0.4005546712183942
  0
LWPOLYLINE
  5
1324
330
12F0
100
AcDbEntity
  8
0
  6
Continuous
370
     0
100
AcDbPolyline
 90
        7
 70
   128
 43
0.0
 10
0.2204147824743643
 20
0.218646497073113
 10
0.2158801622524784
 20
0.215980357585483
 10
0.2124125195356576
 20
0.2154471340122104
 10
0.2094783541798257
 20
0.2154471340122104
 10
0.2065442002155322
 20
0.2170468119391167
 10
0.2044102679884965
 20
0.2191797206463857
 10
0.2030765574987114
 20
0.2213126293536547
  0
LWPOLYLINE
  5
1325
330
12F0
100
AcDbEntity
  8
0
  6
Continuous
370
     0
100
AcDbPolyline
 90
        7
 70
   128
 43
0.0
 10
0.2013534896854274
 20
0.2204147434545689
 10
0.2040196291730574
 20
0.215880123232683
 10
0.2045528527463318
 20
0.212412480515864
 10
0.2045528527463318
 20
0.2094783151600285
 10
0.2029531748194237
 20
0.2065441611957386
 10
0.2008202661121565
 20
0.2044102289686993
 10
0.1986873574048857
 20
0.2030765184789143
  0
LWPOLYLINE
  5
1326
330
12F0
100
AcDbEntity
  8
0
  6
Continuous
370
     0
100
AcDbPolyline
 90
        7
 70
   128
 43
0.0
 10
0.1995852433039715
 20
0.2013534506656338
 10
0.2041198635258574
 20
0.204019590153262
 10
0.2075875062426782
 20
0.2045528137265364
 10
0.2105216715985136
 20
0.2045528137265364
 10
0.2134558255628036
 20
0.2029531357996283
 10
0.2155897577898429
 20
0.2008202270923593
 10
0.2169234682796244
 20
0.1986873183850903
  0
LWPOLYLINE
  5
1327
330
12F0
100
AcDbEntity
  8
0
  6
Continuous
370
     0
100
AcDbPolyline
 90
        7
 70
   128
 43
0.0
 10
0.2186465360929084
 20
0.1995852042841761
 10
0.2159803966052784
 20
0.204119824506062
 10
0.215447173032004
 20
0.2075874672228828
 10
0.215447173032004
 20
0.2105216325787165
 10
0.2170468509589121
 20
0.2134557865430082
 10
0.2191797596661828
 20
0.2155897187700457
 10
0.2213126683734501
 20
0.2169234292598307
  0
LWPOLYLINE
  5
1328
330
12F0
100
AcDbEntity
  8
0
  6
Continuous
370
     0
100
AcDbPolyline
 90
       15
 70
   128
 43
0.0
 10
0.1964080050497898
 20
0.2173134309328421
 10
0.1905396857296644
 20
0.2162469765792067
 10
0.1873387759975635
 20
0.2167802001524812
 10
0.1841378776570081
 20
0.2199795632133838
 10
0.1841378776570081
 20
0.2245119996216456
 10
0.186005076899324
 20
0.2306441139568154
 10
0.1908064301059298
 20
0.2351765431579888
 10
0.1950742945600048
 20
0.2375760636518951
 10
0.1998756477666106
 20
0.2386425180055287
 10
0.2036100348597003
 20
0.238109294432256
 10
0.2073444219527864
 20
0.235976385724987
 10
0.2086781324425715
 20
0.2327770226640844
 10
0.2086781324425715
 20
0.2301108831764544
 10
0.2073444219527864
 20
0.22691152011555
 10
0.2052104897257507
 20
0.2239787688412846
  0
LWPOLYLINE
  5
1329
330
12F0
100
AcDbEntity
  8
0
  6
Continuous
370
     0
100
AcDbPolyline
 90
       15
 70
   128
 43
0.0
 10
0.1988443404822675
 20
0.1993331887644398
 10
0.198045188446283
 20
0.1934225329163368
 10
0.1965489271875995
 20
0.190543062003492
 10
0.1925170201160355
 20
0.1884874843357025
 10
0.1882064169352659
 20
0.1898880842117787
 10
0.1829514259358937
 20
0.1935588237594228
 10
0.1801245293463118
 20
0.1995257796625651
 10
0.1791612923905958
 20
0.2043262525732459
 10
0.1796307337650766
 20
0.2092221633464195
 10
0.1812918485944195
 20
0.212609001379727
 10
0.1844743543944709
 20
0.2155015095209798
 10
0.1879292686884532
 20
0.2157812860161456
 10
0.1904649180215152
 20
0.2149574036050943
 10
0.1930955539016636
 20
0.2127003119959383
 10
0.195225344788728
 20
0.2097645518620599
  0
LWPOLYLINE
  5
132A
330
12F0
100
AcDbEntity
  8
0
  6
Continuous
370
     0
100
AcDbPolyline
 90
       15
 70
   128
 43
0.0
 10
0.216697436013721
 20
0.1960940810603642
 10
0.2220718522134319
 20
0.1935075492040674
 10
0.2243480216316165
 20
0.1911947147370405
 10
0.225057064362467
 20
0.1867249348109272
 10
0.2223929650847367
 20
0.1830581167307183
 10
0.2172780027942345
 20
0.1791946441998426
 10
0.2107295314125821
 20
0.1783499965561823
 10
0.2058663537806566
 20
0.1789173314831504
 10
0.2013551312992057
 20
0.1808767163932234
 10
0.1986473696298674
 20
0.1835031209854722
 10
0.1968798792906057
 20
0.1874236980367705
 10
0.1976814232627219
 20
0.1907959724809398
 10
0.1992485407341036
 20
0.1929529246358061
 10
0.2022080736098459
 20
0.1947573283665296
 10
0.2056582889940159
 20
0.1958756800952414
  0
LWPOLYLINE
  5
132B
330
12F0
100
AcDbEntity
  8
0
  6
Continuous
370
     0
100
AcDbPolyline
 90
       15
 70
   128
 43
0.0
 10
0.2252949204240835
 20
0.2120724445744262
 10
0.2294156443411737
 20
0.2163845358223533
 10
0.2323186556644501
 20
0.2178345964242218
 10
0.2367887752431557
 20
0.2171276981754424
 10
0.2394528745208859
 20
0.2134608800952353
 10
0.2415466449735497
 20
0.2074023832089064
 10
0.2403263636749173
 20
0.2009134063534645
 10
0.2382839915607739
 20
0.1964635657106566
 10
0.2350264613619437
 20
0.1927786214089515
 10
0.2316918577875135
 20
0.1910149906818627
 10
0.2274169828830139
 20
0.1905455324138252
 10
0.2244574500072751
 20
0.1923499361445486
 10
0.2228903325358935
 20
0.1945068882994149
 10
0.2220887885637737
 20
0.1978791627435843
 10
0.2220913480526363
 20
0.2015061022571842
  0
LWPOLYLINE
  5
132C
330
12F0
100
AcDbEntity
  8
0
  6
Continuous
370
     0
100
AcDbPolyline
 90
       15
 70
   128
 43
0.0
 10
0.2127553624759777
 20
0.225186724014792
 10
0.2099276937152865
 20
0.2304382748249001
 10
0.2094456839646099
 20
0.2336472960296287
 10
0.2114993270671768
 20
0.2376801888114084
 10
0.2158099302479499
 20
0.2390807886874846
 10
0.2222189138428412
 20
0.2391999042218771
 10
0.2280132099061021
 20
0.2360341436166617
 10
0.2316141321538119
 20
0.2327166559279181
 10
0.2341120902530029
 20
0.2284798501927394
 10
0.2347589535743388
 20
0.2247634618675462
 10
0.2338844259249662
 20
0.2205527436503019
 10
0.2312537900448213
 20
0.2182956520411458
 10
0.2287181407117593
 20
0.2174717696300945
 10
0.2252632264177734
 20
0.2177515461252604
 10
0.2218145928847086
 20
0.2188747662910923
  0
LWPOLYLINE
  5
132D
330
12F0
100
AcDbEntity
  8
0
  6
Continuous
370
     0
100
AcDbPolyline
 90
       18
 70
   128
 43
0.0
 10
0.22498831620792
 20
0.2423999114347648
 10
0.2335169823592658
 20
0.2504982489582836
 10
0.2467364126155509
 20
0.2662686896454875
 10
0.2591029694217681
 20
0.2837440389436914
 10
0.2693373710816935
 20
0.3012193954489835
 10
0.2799981923793382
 20
0.3174160632889365
 10
0.2855418299343313
 20
0.3259406207581197
 10
0.2893797205892028
 20
0.3310553610052995
 10
0.2919383181562978
 20
0.3323340424635503
 10
0.2940704846941351
 20
0.3314815881580504
 10
0.2940704846941351
 20
0.3293504523942978
 10
0.2936440536648774
 20
0.3272193094234588
 10
0.2898061630100059
 20
0.322530796329028
 10
0.2761603017244631
 20
0.3046292198780733
 10
0.2608087049303478
 20
0.2824653574854405
 10
0.2522800387789985
 20
0.2701047412273283
 10
0.2411927750605578
 20
0.2513507032637854
 10
0.2343698444177882
 20
0.2360064897293323
  0
LWPOLYLINE
  5
132E
330
12F0
100
AcDbEntity
  8
0
  6
Continuous
370
     0
100
AcDbPolyline
 90
       12
 70
   128
 43
0.0
 10
0.1669934114401492
 20
0.3297766795470487
 10
0.1721106065743392
 20
0.3412848342925709
 10
0.1814921347842038
 20
0.3523667690924324
 10
0.1908736629940683
 20
0.3583339636451122
 10
0.1994023291454212
 20
0.3621700152269529
 10
0.2049459553088688
 20
0.3634486966852055
 10
0.2083574263260246
 20
0.3634486966852055
 10
0.2156067879980554
 20
0.3613175609214529
 10
0.2283997872250758
 20
0.3540716777034341
 10
0.2347962754470423
 20
0.3493831718160915
 10
0.2433249415983916
 20
0.3374487827107302
 10
0.2463099701947478
 20
0.3323340424635503
  0
LWPOLYLINE
  5
132F
330
12F0
100
AcDbEntity
  8
0
  6
Continuous
370
     0
100
AcDbPolyline
 90
       39
 70
   128
 43
0.0
 10
0.1947115650404853
 20
0.2436785928930156
 10
0.1776542327377903
 20
0.2590228064274669
 10
0.166566980410888
 20
0.2760719357800099
 10
0.1631555093937322
 20
0.2858751819145304
 10
0.1644348138730542
 20
0.290989914954622
 10
0.166566980410888
 20
0.2935472850782119
 10
0.166566980410888
 20
0.2969571095073036
 10
0.1635819404229934
 20
0.2990882524781426
 10
0.1605969118266372
 20
0.3012193954489835
 10
0.1605969118266372
 20
0.3054816741835751
 10
0.1593176073473188
 20
0.307186582794575
 10
0.1571854522010234
 20
0.3123013230417566
 10
0.1588911763180576
 20
0.3157111474708465
 10
0.1623026473352169
 20
0.3165636017763482
 10
0.1657141069608272
 20
0.3161373746235973
 10
0.1682727045279257
 20
0.3140062388598448
 10
0.1695520090072442
 20
0.3178422904416873
 10
0.1691255779779865
 20
0.3221045691762789
 10
0.1712577445158203
 20
0.3246619392998688
 10
0.1755220775914949
 20
0.3250881664526179
 10
0.1768013706792715
 20
0.3233832578416163
 10
0.1785071061878511
 20
0.3276455365762078
 10
0.1806392727256884
 20
0.3302029066997978
 10
0.1844771633805599
 20
0.3331865039761386
 10
0.1857564678598784
 20
0.3319078153107995
 10
0.1895943699062954
 20
0.3344651854343894
 10
0.1955644270990042
 20
0.3348914125871402
 10
0.1998287601746788
 20
0.3336127311288894
 10
0.201534495683255
 20
0.3310553610052995
 10
0.201534495683255
 20
0.3267930822707079
 10
0.2023873577417738
 20
0.3250881664526179
 10
0.2019609267125162
 20
0.321678342023528
 10
0.2006816336247397
 20
0.3191209718999381
 10
0.2002551912039365
 20
0.3174160632889365
 10
0.2028137887710315
 20
0.3169898361361856
 10
0.2032402311918346
 20
0.3140062388598448
 10
0.2019609267125162
 20
0.3110226415835058
 10
0.1981230246660992
 20
0.307186582794575
 10
0.196417300549065
 20
0.3033505312127342
  0
LWPOLYLINE
  5
1330
330
12F0
100
AcDbEntity
  8
0
  6
Continuous
370
     0
100
AcDbPolyline
 90
       19
 70
   128
 43
0.0
 10
0.2062252597881908
 20
0.2423999114347648
 10
0.1972701626075839
 20
0.2543343005401244
 10
0.1930058295319057
 20
0.2632850923691468
 10
0.1891679388770342
 20
0.2743670199619199
 10
0.1878886343977157
 20
0.2841702660964405
 10
0.1895943699062954
 20
0.2935472850782119
 10
0.1925793985026516
 20
0.2999407067836444
 10
0.1976965936368415
 20
0.3042029927253242
 10
0.2036666622210923
 20
0.307186582794575
 10
0.2075045642675093
 20
0.3076128171544141
 10
0.2139010524894758
 20
0.306334128489075
 10
0.2177389545358927
 20
0.3016456226017343
 10
0.2228561496700827
 20
0.2935472850782119
 10
0.2258411896579808
 20
0.2816128959728505
 10
0.2258411896579808
 20
0.2730883385036691
 10
0.2241354541494012
 20
0.2620064037038077
 10
0.221150414161503
 20
0.2534818462346244
 10
0.2164596500565707
 20
0.2462359630166055
 10
0.2130481904309604
 20
0.2423999114347648
  0
LWPOLYLINE
  5
1331
330
12F0
100
AcDbEntity
  8
0
  6
Continuous
370
     0
100
AcDbPolyline
 90
       11
 70
   128
 43
0.0
 10
0.2087838573552858
 20
0.2492195602929463
 10
0.2057988287589296
 20
0.2522031575692853
 10
0.2049459553088688
 20
0.2568916706637161
 10
0.205372397729672
 20
0.2598752679400551
 10
0.2066516908174485
 20
0.2624326308565585
 10
0.2087838573552858
 20
0.2637113195218958
 10
0.2109160238931231
 20
0.2628588580093094
 10
0.2134746214602181
 20
0.2598752679400551
 10
0.2130481904309604
 20
0.255612981998377
 10
0.2130481904309604
 20
0.2509244761110345
 10
0.2117688859516384
 20
0.2496457874456954
  0
LWPOLYLINE
  5
1332
330
12F0
100
AcDbEntity
  8
0
  6
Continuous
370
     0
100
AcDbPolyline
 90
       11
 70
   128
 43
0.0
 10
0.2057988287589296
 20
0.2475146516819429
 10
0.2023873577417738
 20
0.2530556118747871
 10
0.2011080646539973
 20
0.2620064037038077
 10
0.2028137887710315
 20
0.2671211439509875
 10
0.2057988287589296
 20
0.2713834226855791
 10
0.2083574263260246
 20
0.2730883385036691
 10
0.2121953283724416
 20
0.2705309683800774
 10
0.2151803569687942
 20
0.2671211439509875
 10
0.2181653855651504
 20
0.2581703521219669
 10
0.2168860924773739
 20
0.2534818462346244
 10
0.2134746214602181
 20
0.2483671059874446
  0
LWPOLYLINE
  5
1333
330
12F0
100
AcDbEntity
  8
0
  6
Continuous
370
     0
100
AcDbPolyline
 90
        8
 70
   128
 43
0.0
 10
0.1968437315783227
 20
0.2632850923691468
 10
0.1981230246660992
 20
0.2701047412273283
 10
0.2023873577417738
 20
0.274793247114669
 10
0.2075045642675093
 20
0.2777768443910098
 10
0.2104895928638619
 20
0.2769243900855098
 10
0.2147539259395366
 20
0.2752194742674199
 10
0.2173125235066315
 20
0.2713834226855791
 10
0.2198711210737265
 20
0.2637113195218958
  0
LWPOLYLINE
  5
1334
330
12F0
100
AcDbEntity
  8
0
  6
Continuous
370
     0
100
AcDbPolyline
 90
       11
 70
   128
 43
0.0
 10
0.1959908581282619
 20
0.2683998254092383
 10
0.1976965936368415
 20
0.2816128959728505
 10
0.2002551912039365
 20
0.2867276362200322
 10
0.2032402311918346
 20
0.2897112334963712
 10
0.2066516908174485
 20
0.291842376467212
 10
0.2079309952967669
 20
0.291842376467212
 10
0.2104895928638619
 20
0.2905636878018729
 10
0.2139010524894758
 20
0.2871538633727812
 10
0.2160332190273131
 20
0.2828915846381896
 10
0.2190182590152112
 20
0.2773506172382589
 10
0.2202975521029877
 20
0.2709571955328283
  0
LWPOLYLINE
  5
1335
330
12F0
100
AcDbEntity
  8
0
  6
Continuous
370
     0
100
AcDbPolyline
 90
       12
 70
   128
 43
0.0
 10
0.1947115650404853
 20
0.2709571955328283
 10
0.1951379960697465
 20
0.2828915846381896
 10
0.1972701626075839
 20
0.2905636878018729
 10
0.2002551912039365
 20
0.2956784280490528
 10
0.2040930932503535
 20
0.2982357981726427
 10
0.2066516908174485
 20
0.2995144796308935
 10
0.2083574263260246
 20
0.2995144796308935
 10
0.2121953283724416
 20
0.2969571095073036
 10
0.2164596500565707
 20
0.290989914954622
 10
0.2185918165944081
 20
0.2863014090672813
 10
0.2207239831322454
 20
0.2799079873618506
 10
0.2207239831322454
 20
0.2752194742674199
  0
LWPOLYLINE
  5
1336
330
12F0
100
AcDbEntity
  8
0
  6
Continuous
370
     0
100
AcDbPolyline
 90
       48
 70
   128
 43
0.0
 10
0.2177389545358927
 20
0.3037767583654851
 10
0.2164596500565707
 20
0.3084652714599159
 10
0.2130481904309604
 20
0.3118750958890057
 10
0.2104895928638619
 20
0.3157111474708465
 10
0.2096367194138011
 20
0.3186947447471873
 10
0.2117688859516384
 20
0.3195471990526872
 10
0.2134746214602181
 20
0.3199734334125263
 10
0.2121953283724416
 20
0.3238094849943671
 10
0.2100631618346043
 20
0.3272193094234588
 10
0.2100631618346043
 20
0.3306291338525486
 10
0.2126217594016992
 20
0.3348914125871402
 10
0.2156067879980554
 20
0.3361701012524793
 10
0.2194446900444689
 20
0.3357438740997285
 10
0.2228561496700827
 20
0.3344651854343894
 10
0.22498831620792
 20
0.3323340424635503
 10
0.2262676206872385
 20
0.3323340424635503
 10
0.2266940517164961
 20
0.3340389582816403
 10
0.2279733448042727
 20
0.3353176397398911
 10
0.2305319537629131
 20
0.3336127311288894
 10
0.2335169823592658
 20
0.3259406207581197
 10
0.2347962754470423
 20
0.3259406207581197
 10
0.235222717867849
 20
0.3284979908817096
 10
0.2373548844056827
 20
0.3297766795470487
 10
0.2390606085227205
 20
0.3280717637289587
 10
0.2411927750605578
 20
0.3229570234817789
 10
0.2407663440312966
 20
0.3191209718999381
 10
0.2420456485106186
 20
0.3161373746235973
 10
0.2437513726276528
 20
0.3161373746235973
 10
0.2454571081362289
 20
0.3178422904416873
 10
0.2475892746740662
 20
0.3203996605652772
 10
0.2501478722411612
 20
0.3203996605652772
 10
0.2531329008375174
 20
0.3195471990526872
 10
0.254838636346097
 20
0.3144324660125956
 10
0.2535593432583205
 20
0.3105964144307549
 10
0.2522800387789985
 20
0.3097439529181667
 10
0.254838636346097
 20
0.308891498612665
 10
0.254838636346097
 20
0.3067603556418259
 10
0.2531329008375174
 20
0.3046292198780733
 10
0.2497214412119035
 20
0.3029243040599852
 10
0.2480157057033274
 20
0.3007931610891443
 10
0.2484421367325851
 20
0.2978095710198918
 10
0.2501478722411612
 20
0.2965308823545527
 10
0.2522800387789985
 20
0.2965308823545527
 10
0.2527064698082597
 20
0.2939735122309628
 10
0.251000745691222
 20
0.2863014090672813
 10
0.2471628436448086
 20
0.2730883385036691
 10
0.2437513726276528
 20
0.2641375466746467
 10
0.2403399130020389
 20
0.258596579274716
  0
LWPOLYLINE
  5
1337
330
12F0
100
AcDbEntity
  8
0
  6
Continuous
370
     0
100
AcDbPolyline
 90
        8
 70
   128
 43
0.0
 10
0.2283997872250758
 20
0.2573178978164652
 10
0.2330905513300117
 20
0.2722358769910791
 10
0.2335169823592658
 20
0.2841702660964405
 10
0.2326641203007504
 20
0.2973833366600544
 10
0.2292526492835947
 20
0.3101701800709158
 10
0.2254147472371777
 20
0.3182685175944364
 10
0.2185918165944081
 20
0.3250881664526179
 10
0.2151803569687942
 20
0.3272193094234588
  0
LWPOLYLINE
  5
1338
330
12F0
100
AcDbEntity
  8
0
  6
Continuous
370
     0
100
AcDbPolyline
 90
        7
 70
   128
 43
0.0
 10
0.1955644270990042
 20
0.2487933331401955
 10
0.1874622033684581
 20
0.2637113195218958
 10
0.1831978702927834
 20
0.2773506172382589
 10
0.1814921347842038
 20
0.291842376467212
 10
0.1831978702927834
 20
0.3050554470308242
 10
0.1878886343977157
 20
0.3148586931653465
 10
0.1938587029819665
 20
0.3229570234817789
  0
LWPOLYLINE
  5
1339
330
12F0
100
AcDbEntity
  8
0
  6
Continuous
370
     0
100
AcDbPolyline
 90
       11
 70
   128
 43
0.0
 10
0.2488685791533882
 20
0.321678342023528
 10
0.2475892746740662
 20
0.3293504523942978
 10
0.2475892746740662
 20
0.3344651854343894
 10
0.2484421367325851
 20
0.3391536985288184
 10
0.251000745691222
 20
0.3429897501106609
 10
0.2578236763339916
 20
0.3455471202342508
 10
0.2646466069767612
 20
0.3438422044161608
 10
0.2689109286608939
 20
0.340432379987071
 10
0.2727488307073074
 20
0.3361701012524793
 10
0.2727488307073074
 20
0.3267930822707079
 10
0.27061666416947
 20
0.3191209718999381
  0
LWPOLYLINE
  5
133A
330
12F0
100
AcDbEntity
  8
0
  6
Continuous
370
     0
100
AcDbPolyline
 90
        9
 70
   128
 43
0.0
 10
0.2727488307073074
 20
0.3319078153107995
 10
0.2787188992915617
 20
0.3374487827107302
 10
0.282130358917172
 20
0.3374487827107302
 10
0.2893797205892028
 20
0.338727464168981
 10
0.2962026512319724
 20
0.3374487827107302
 10
0.3013198577577079
 20
0.3327602768233877
 10
0.3025991508454844
 20
0.326366855117957
 10
0.3038784553248028
 20
0.3212521148707772
 10
0.2940704846941351
 20
0.3101701800709158
  0
LWPOLYLINE
  5
133B
330
12F0
100
AcDbEntity
  8
0
  6
Continuous
370
     0
100
AcDbPolyline
 90
        9
 70
   128
 43
0.0
 10
0.3004669843076471
 20
0.3152849203180974
 10
0.3047313173833217
 20
0.3144324660125956
 10
0.305584179441837
 20
0.3101701800709158
 10
0.309422081488254
 20
0.308891498612665
 10
0.3153921500725047
 20
0.3076128171544141
 10
0.3188036096981221
 20
0.3042029927253242
 10
0.3192300407273762
 20
0.2990882524781426
 10
0.3158185811017659
 20
0.292694830772712
 10
0.3115542480260913
 20
0.2897112334963712
  0
LWPOLYLINE
  5
133C
330
12F0
100
AcDbEntity
  8
0
  6
Continuous
370
     0
100
AcDbPolyline
 90
       18
 70
   128
 43
0.0
 10
0.1838174815823876
 20
0.2342668287332721
 10
0.1787510076896019
 20
0.24488059617277
 10
0.1678374559143378
 20
0.2623263556408446
 10
0.1550388873047694
 20
0.2794878299913179
 10
0.1415814396660089
 20
0.2946215065232671
 10
0.1294718681295208
 20
0.3097655957022418
 10
0.1230776104150699
 20
0.3176721414503998
 10
0.1193991768087414
 20
0.3229027340247352
 10
0.1189737286056029
 20
0.3257312392144893
 10
0.1204433365227224
 20
0.3274956272267993
 10
0.1224701670779495
 20
0.3268370700584793
 10
0.1243652300525539
 20
0.3257729506539206
 10
0.1276382975478362
 20
0.320674069513247
 10
0.1404469054433583
 20
0.3021641928677266
 10
0.1567820868979659
 20
0.2807149465608347
 10
0.1659022287555522
 20
0.2687840625575841
 10
0.1803122258575094
 20
0.2524441317063903
 10
0.192797038606816
 20
0.2412135163108893
  0
LWPOLYLINE
  5
133D
330
12F0
100
AcDbEntity
  8
0
  6
Continuous
370
     0
100
AcDbPolyline
 90
       12
 70
   128
 43
0.0
 10
0.0827958257359924
 20
0.2061113029022223
 10
0.0734322204347251
 20
0.2145342600700122
 10
0.0657917257802154
 20
0.2268811297905238
 10
0.0630156381669451
 20
0.2376474578528409
 10
0.0620028390933101
 20
0.246944106501477
 10
0.0624998154551406
 20
0.252611542589122
 10
0.0635540179752603
 20
0.2558560443301392
 10
0.0678210244855109
 20
0.2620920398189845
 10
0.0786655231064977
 20
0.2720198040431789
 10
0.0851011807472517
 20
0.2766543978506686
 10
0.0990869620540238
 20
0.281077712318174
 10
0.1048737936602286
 20
0.2823361015578722
  0
LWPOLYLINE
  5
133E
330
12F0
100
AcDbEntity
  8
0
  6
Continuous
370
     0
100
AcDbPolyline
 90
       39
 70
   128
 43
0.0
 10
0.1732453526040522
 20
0.2058670615442288
 10
0.1533811327744558
 20
0.1943861972546017
 10
0.133740297816626
 20
0.1891100643905261
 10
0.1233626541794237
 20
0.1888949323051161
 10
0.1188935808176232
 20
0.1916921625975796
 10
0.1171202529920343
 20
0.1945102443063095
 10
0.1138773172493259
 20
0.1955639380027332
 10
0.1109280517546018
 20
0.1933835556662764
 10
0.1079787897800592
 20
0.1912031841638182
 10
0.1039251218152621
 20
0.1925203007275691
 10
0.1019083305459887
 20
0.1918304556008418
 10
0.0963850513299036
 20
0.1913831972133994
 10
0.0936692133270718
 20
0.1940591309463304
 10
0.0939126836251027
 20
0.1975670555546784
 10
0.0953722487360871
 20
0.2006798350280299
 10
0.0981897294213105
 20
0.2024546487484748
 10
0.0949367543926449
 20
0.2048567447399438
 10
0.0907513119928751
 20
0.2057683012945706
 10
0.0889779841672862
 20
0.2085863830033005
 10
0.0898903694463016
 20
0.2127737161962386
 10
0.09190715719539
 20
0.2134635504889637
 10
0.0883805904906509
 20
0.2164029179232241
 10
0.086607262665062
 20
0.2192209996319576
 10
0.0849556664683036
 20
0.2237930328108621
 10
0.0865670984808773
 20
0.2246145871441403
 10
0.08532087191535
 20
0.2290549197233833
 10
0.0867603549342419
 20
0.234864492952827
 10
0.0892942046574347
 20
0.2385249804111069
 10
0.0922535094381125
 20
0.2393569604525201
 10
0.0963071774029132
 20
0.2380398438887674
 10
0.0981921975713824
 20
0.2383241159452556
 10
0.1013033588791181
 20
0.2368648622397043
 10
0.1033402390948304
 20
0.2348579113832265
 10
0.1048299255838607
 20
0.2339254948054439
 10
0.1060259418249032
 20
0.2362271542605416
 10
0.1089952894117196
 20
0.2357107428409115
 10
0.111437532218293
 20
0.233572069716768
 10
0.1138998639713051
 20
0.2287366006094213
 10
0.1170210680851795
 20
0.2259289554428268
  0
LWPOLYLINE
  5
133F
330
12F0
100
AcDbEntity
  8
0
  6
Continuous
370
     0
100
AcDbPolyline
 90
       19
 70
   128
 43
0.0
 10
0.1780193782822756
 20
0.2164221016596759
 10
0.1639018225405308
 20
0.2115932271830427
 10
0.1540713622554825
 20
0.2103035522120482
 10
0.1423458493703542
 20
0.2100780052525035
 10
0.1326270814281827
 20
0.2118906840467289
 10
0.1242361076822078
 20
0.2164105931391837
 10
0.1190780268728026
 20
0.2212251999962582
 10
0.1166056523136518
 20
0.2274090605646464
 10
0.1156129421864555
 20
0.2340089132300775
 10
0.1163935461761482
 20
0.2377906886409988
 10
0.1195862749285403
 20
0.2434789739178047
 10
0.1252312859594724
 20
0.2456802076705333
 10
0.1345145628923738
 20
0.248044425527107
 10
0.1467872695041769
 20
0.2471954382079584
 10
0.1548946054337783
 20
0.2445612050804549
 10
0.1649070504782841
 20
0.2395144480262345
 10
0.1720919583227314
 20
0.2340412731668397
 10
0.1775336769485172
 20
0.2273409903448158
 10
0.1801277798023299
 20
0.2229110943077117
  0
LWPOLYLINE
  5
1340
330
12F0
100
AcDbEntity
  8
0
  6
Continuous
370
     0
100
AcDbPolyline
 90
       11
 70
   128
 43
0.0
 10
0.1723241569268552
 20
0.2209628599412863
 10
0.1685641627302239
 20
0.2190459113061553
 10
0.1638415694099109
 20
0.2196836106784285
 10
0.1611357777333957
 20
0.2210111637843148
 10
0.1590989043720334
 20
0.2230181124136798
 10
0.1585416748795793
 20
0.2254410598214207
 10
0.1600112896510488
 20
0.2272054456066179
 10
0.163639502558361
 20
0.2287168364597338
 10
0.1675614029425389
 20
0.2269941576597425
 10
0.1720204370183857
 20
0.225545329662328
 10
0.1728412153807781
 20
0.223933502272839
  0
LWPOLYLINE
  5
1341
330
12F0
100
AcDbEntity
  8
0
  6
Continuous
370
     0
100
AcDbPolyline
 90
       11
 70
   128
 43
0.0
 10
0.1730231968060671
 20
0.217597083308739
 10
0.1666992279880119
 20
0.2160648324324654
 10
0.1577911957881106
 20
0.2176140991933639
 10
0.1534538864867514
 20
0.2208168808880622
 10
0.1503226466071012
 20
0.2249729391837061
 10
0.1494918254385737
 20
0.2279331580342365
 10
0.1531100059142822
 20
0.2307929489552869
 10
0.1572753662219597
 20
0.2325781861567542
 10
0.1667104996819191
 20
0.2326511702663652
 10
0.1707742104528549
 20
0.2299856622415675
 10
0.1745844149739746
 20
0.2251606188423576
  0
LWPOLYLINE
  5
1342
330
12F0
100
AcDbEntity
  8
0
  6
Continuous
370
     0
100
AcDbPolyline
 90
        8
 70
   128
 43
0.0
 10
0.1552573392105714
 20
0.2139536139621931
 10
0.149166791030062
 20
0.2172776813824235
 10
0.1460255083442767
 20
0.2227821311391125
 10
0.1447692424927886
 20
0.2285708660133991
 10
0.14650239927985
 20
0.2311463740439628
 10
0.1494416219684353
 20
0.2346751478414681
 10
0.1538805739521898
 20
0.2359231136001423
 10
0.1619678277896952
 20
0.2359856742287292
  0
LWPOLYLINE
  5
1343
330
12F0
100
AcDbEntity
  8
0
  6
Continuous
370
     0
100
AcDbPolyline
 90
       11
 70
   128
 43
0.0
 10
0.1501293866335586
 20
0.214723022541019
 10
0.1380901110338293
 20
0.2204283367635593
 10
0.1340163541225898
 20
0.2244422493105151
 10
0.1321012125760745
 20
0.2282031733051681
 10
0.1311285741664392
 20
0.2321062236076159
 10
0.1315239009915281
 20
0.2333229144689994
 10
0.1335306563090093
 20
0.2353611488296572
 10
0.1378277910516594
 20
0.2375519460402522
 10
0.1425403347114873
 20
0.2382626403561367
 10
0.1487325359489197
 20
0.2393893289961717
 10
0.1552083646282014
 20
0.2386303330643695
  0
LWPOLYLINE
  5
1344
330
12F0
100
AcDbEntity
  8
0
  6
Continuous
370
     0
100
AcDbPolyline
 90
       12
 70
   128
 43
0.0
 10
0.1473018598080315
 20
0.2142966133427322
 10
0.1360833557163445
 20
0.2183901024029016
 10
0.1294456277038662
 20
0.2227887235427133
 10
0.1255036452275995
 20
0.227208196098795
 10
0.1242574186620686
 20
0.2316485286780381
 10
0.1238319704589301
 20
0.2344770338677922
 10
0.1243590717189881
 20
0.2360992847383016
 10
0.1279772521946966
 20
0.2389590756593502
 10
0.1349701393279048
 20
0.2411707220591026
 10
0.1400880490987788
 20
0.2417497049413235
 10
0.1468274301681802
 20
0.2418018398617772
 10
0.1512864710983734
 20
0.2403530096372481
  0
LWPOLYLINE
  5
1345
330
12F0
100
AcDbEntity
  8
0
  6
Continuous
370
     0
100
AcDbPolyline
 90
       48
 70
   128
 43
0.0
 10
0.1232044554042488
 20
0.2463387648388533
 10
0.1183500876489667
 20
0.2465709042019988
 10
0.1140529529063201
 20
0.2443801069914055
 10
0.1096140009225621
 20
0.2431321412327296
 10
0.1065128789007801
 20
0.2432429926432338
 10
0.1063610223737186
 20
0.2455342263901983
 10
0.1064827506683841
 20
0.2472881909214841
 10
0.1024391255097221
 20
0.24725691602419
 10
0.0985373140719829
 20
0.2462827988409799
 10
0.0952943783292746
 20
0.2473364925374035
 10
0.0920313604944738
 20
0.2510869799899176
 10
0.091737679871958
 20
0.2543210474159121
 10
0.093329022938093
 20
0.2578393977323952
 10
0.095599327125516
 20
0.2606887521113066
 10
0.0982850402301168
 20
0.2620580035955111
 10
0.0986803670552092
 20
0.2632746944568947
 10
0.0971906701916474
 20
0.2642071024277879
 10
0.0963698951634235
 20
0.265818916756162
 10
0.0987820132577824
 20
0.2677254527442692
 10
0.1070010483846069
 20
0.2681935711548711
 10
0.1073963716895179
 20
0.2694102511822542
 10
0.1050959461240488
 20
0.2706060928544787
 10
0.1045387166315947
 20
0.2730290402622177
 10
0.1066872856700023
 20
0.2741244323369596
 10
0.1122105684062688
 20
0.2745717015584042
 10
0.1157270958250542
 20
0.2729807364191892
 10
0.1189599922818089
 20
0.273275445017811
 10
0.1194870900216855
 20
0.2748976850543183
 10
0.1183927199832162
 20
0.2770467838865969
 10
0.1166193921576272
 20
0.2798648655953286
 10
0.1174100422876272
 20
0.2822982364840918
 10
0.1191432059290349
 20
0.2848737422875409
 10
0.1245347073759823
 20
0.2849154537269722
 10
0.1277876859248294
 20
0.2825133685695036
 10
0.1282030981761757
 20
0.28103325261368
 10
0.1298044805282643
 20
0.2832032006351177
 10
0.1318313179378414
 20
0.282544641239685
 10
0.1333310472330069
 20
0.2802638332008538
 10
0.1338983195315961
 20
0.2764924943320697
 10
0.1353980556811116
 20
0.2742116840661293
 10
0.1383673928933966
 20
0.2736952640396062
 10
0.1401105993409395
 20
0.2749223783820121
 10
0.1407694750359667
 20
0.2769501892616493
 10
0.1433334529915555
 20
0.2765654784416807
 10
0.150102958959188
 20
0.2725724281449953
 10
0.1614833588638902
 20
0.2648393030428178
 10
0.1689418652387608
 20
0.2588288545135207
 10
0.1731574393911046
 20
0.2538721105146457
  0
LWPOLYLINE
  5
1346
330
12F0
100
AcDbEntity
  8
0
  6
Continuous
370
     0
100
AcDbPolyline
 90
        8
 70
   128
 43
0.0
 10
0.1706838359441853
 20
0.2421212417880927
 10
0.157945520465244
 20
0.2511923326431784
 10
0.146727016373557
 20
0.2552858217033442
 10
0.1338970906438241
 20
0.2585577650371231
 10
0.1206818773749596
 20
0.2592646152144731
 10
0.1117939237469691
 20
0.258117077385279
 10
0.1031996507414945
 20
0.2537354721300904
 10
0.1001186143319828
 20
0.2511495406185045
  0
LWPOLYLINE
  5
1347
330
12F0
100
AcDbEntity
  8
0
  6
Continuous
370
     0
100
AcDbPolyline
 90
        7
 70
   128
 43
0.0
 10
0.1686444944327547
 20
0.2082587232206769
 10
0.1519529214494674
 20
0.2051629618590596
 10
0.1376634270885723
 20
0.2053221148854813
 10
0.1233538437812384
 20
0.208178063895108
 10
0.1113145681815055
 20
0.2138833781176483
 10
0.1034406528894536
 20
0.2213739295416559
 10
0.097583535721018
 20
0.229554323865278
  0
LWPOLYLINE
  5
1348
330
12F0
100
AcDbEntity
  8
0
  6
Continuous
370
     0
100
AcDbPolyline
 90
       11
 70
   128
 43
0.0
 10
0.1157986206495813
 20
0.2814766907577049
 10
0.1081066832626369
 20
0.2826308123836085
 10
0.1032422830757476
 20
0.2842113518146885
 10
0.0990467910154926
 20
0.2864713020574694
 10
0.0961891428119195
 20
0.2900900889103219
 10
0.0958653408113577
 20
0.2973693523874541
 10
0.099595213629943
 20
0.3033314970737226
 10
0.1041558972425314
 20
0.3063334143025695
 10
0.1093955421624173
 20
0.3086663594889654
 10
0.1183136171684537
 20
0.30576870126702
 10
0.124951352035282
 20
0.3013700779000956
  0
LWPOLYLINE
  5
1349
330
12F0
100
AcDbEntity
  8
0
  6
Continuous
370
     0
100
AcDbPolyline
 90
        9
 70
   128
 43
0.0
 10
0.1134492169815644
 20
0.3073492406981
 10
0.110024296479402
 20
0.3147393664197384
 10
0.1110784954793402
 20
0.3179838573267552
 10
0.1121025731012288
 20
0.3252735442849115
 10
0.1154270729544251
 20
0.3313674026319546
 10
0.1214674108104461
 20
0.3347853272460685
 10
0.1279432394897313
 20
0.3340263313142646
 10
0.133202973356056
 20
0.3336624805174555
 10
0.140711690055415
 20
0.320910039953814
  0
LWPOLYLINE
  5
134A
330
12F0
100
AcDbEntity
  8
0
  6
Continuous
370
     0
100
AcDbPolyline
 90
        9
 70
   128
 43
0.0
 10
0.1378239100992644
 20
0.3285740142509183
 10
0.1399523937114146
 20
0.3323662131428602
 10
0.1442696174005
 20
0.3318602143702502
 10
0.1466716926887237
 20
0.3351151418194042
 10
0.1497326436719781
 20
0.3403978801481955
 10
0.1540297784146283
 20
0.3425886773587905
 10
0.1590259598908332
 20
0.3414136957097238
 10
0.1640522662652692
 20
0.3361935288435234
 10
0.1655720845068735
 20
0.331215924821489
  0
LWPOLYLINE
  5
134B
330
12F0
100
AcDbEntity
  8
0
  6
Continuous
370
     0
100
AcDbPolyline
 90
       18
 70
   128
 43
0.0
 10
0.1788300153113162
 20
0.1925977774099312
 10
0.167170096091116
 20
0.1910591089127073
 10
0.1472057198997376
 20
0.1860707405363317
 10
0.1269292126854573
 20
0.1792017656837785
 10
0.1083776509829555
 20
0.1710795356499783
 10
0.0902327028865635
 20
0.1642424296512903
 10
0.0807371967312136
 20
0.1606043861880763
 10
0.0746259090822718
 20
0.1587223299331377
 10
0.071804370065184
 20
0.1591917608195103
 10
0.0705804711702633
 20
0.1611346668859603
 10
0.0718331213428307
 20
0.1628587919361557
 10
0.0734307657012145
 20
0.1643322729468916
 10
0.0792915233156464
 20
0.1658695041917877
 10
0.1008535396291883
 20
0.1723313477482442
 10
0.1263008337746498
 20
0.1812388468901495
 10
0.1404660575762051
 20
0.186225771318421
 10
0.1604591892814468
 20
0.1948811766421023
 10
0.1749981585464652
 20
0.2032844881475579
  0
LWPOLYLINE
  5
134C
330
12F0
100
AcDbEntity
  8
0
  6
Continuous
370
     0
100
AcDbPolyline
 90
       12
 70
   128
 43
0.0
 10
0.1743901031662211
 20
0.0878199373629336
 10
0.1634858816986089
 20
0.0815174564328895
 10
0.1493822681013945
 20
0.0780663067749714
 10
0.1382850233907824
 20
0.0787530688988358
 10
0.1291304129881503
 20
0.0806626621633164
 10
0.1238939351079189
 20
0.0828866488362969
 10
0.1211339970792195
 20
0.0848918611888045
 10
0.1165217904607445
 20
0.0908770541183532
 10
0.1104310599724449
 20
0.1042586330592208
 10
0.1080120269124194
 20
0.1118114754436412
 10
0.10812704896788
 20
0.12647962323285
 10
0.1087184789913351
 20
0.1323720908012404
  0
LWPOLYLINE
  5
134D
330
12F0
100
AcDbEntity
  8
0
  6
Continuous
370
     0
100
AcDbPolyline
 90
       39
 70
   128
 43
0.0
 10
0.2025728314366937
 20
0.1737670745562685
 10
0.2073534007246991
 20
0.1513272966706011
 10
0.2063019494802347
 20
0.1310173378789016
 10
0.2032996840064633
 20
0.1210811328035248
 10
0.1992583402913368
 20
0.1176951831585366
 10
0.196030196884088
 20
0.1168794833140154
 10
0.1940259523717635
 20
0.1141208774030459
 10
0.1951882460420719
 20
0.1106421840398059
 10
0.196350530496435
 20
0.1071634973723459
 10
0.19384522591508
 20
0.1037152414412983
 10
0.1938780848417778
 20
0.1015839850950044
 10
0.1925966657031743
 20
0.0961928239626317
 10
0.1892124613924508
 20
0.0944368175321344
 10
0.1859514632947281
 20
0.0957523798645656
 10
0.1834420645164982
 20
0.0981024105313306
 10
0.1826247657755146
 20
0.1013304414980176
 10
0.1793350121639285
 20
0.0989789668831432
 10
0.1771746975321733
 20
0.0952800610819793
 10
0.1739465541249281
 20
0.0944643612374581
 10
0.1702461061625193
 20
0.0966260483201645
 10
0.170213256451774
 20
0.0987572979706766
 10
0.1663279828560711
 20
0.0963116482158828
 10
0.1630998394488223
 20
0.0954959483713633
 10
0.1582412062086682
 20
0.0953380229972787
 10
0.1579578214836772
 20
0.0971244601641867
 10
0.1533497090620805
 20
0.0973113664959229
 10
0.1482693013012763
 20
0.1004756530591013
 10
0.1455709734769215
 20
0.1040166401819622
 10
0.1456941889058711
 20
0.1070882022491055
 10
0.1481994934872261
 20
0.1105364581801531
 10
0.1485116379622972
 20
0.112417063791204
 10
0.150860872424225
 20
0.1149250198320537
 10
0.1533990267163219
 20
0.1162420261125909
 10
0.1547461460199244
 20
0.1173706695868475
 10
0.1529267271408905
 20
0.1192194005133782
 10
0.1543354424531529
 20
0.1218838379802083
 10
0.1571241359957156
 20
0.1235456625750011
 10
0.1624838427570729
 20
0.1243932371040408
 10
0.1661185771023063
 20
0.1264940685445754
  0
LWPOLYLINE
  5
134E
330
12F0
100
AcDbEntity
  8
0
  6
Continuous
370
     0
100
AcDbPolyline
 90
       19
 70
   128
 43
0.0
 10
0.1940096468212964
 20
0.1815691295584827
 10
0.1942396147154355
 20
0.1666503318991559
 10
0.1924283892098941
 20
0.1569024771036211
 10
0.1890195143662296
 20
0.145681153823789
 10
0.1842922899285177
 20
0.1369982047947857
 10
0.1774006474462126
 20
0.1304146432582111
 10
0.1712277495929299
 20
0.1269968122329192
 10
0.1645825429482634
 20
0.1265563623041945
 10
0.1579989457644259
 20
0.1276517055029202
 10
0.1546434835153967
 20
0.1295627368848499
 10
0.1502202101792633
 20
0.1343569791889596
 10
0.1498711168168327
 20
0.1404059223526719
 10
0.1504913023541547
 20
0.1499654268683645
 10
0.1550912121863064
 20
0.1613751129544756
 10
0.1601018213490128
 20
0.1682716248165707
 10
0.167995588205585
 20
0.1762344922239584
 10
0.175421145447391
 20
0.181376441603664
 10
0.1834750766202688
 20
0.1844813223034354
 10
0.1884897799798537
 20
0.185579547567718
  0
LWPOLYLINE
  5
134F
330
12F0
100
AcDbEntity
  8
0
  6
Continuous
370
     0
100
AcDbPolyline
 90
       11
 70
   128
 43
0.0
 10
0.1879312088830964
 20
0.1775558236530336
 10
0.188592433268429
 20
0.1733874869654954
 10
0.1865265835314957
 20
0.1690930937577359
 10
0.1844278698881325
 20
0.1669299694227035
 10
0.1818897198322524
 20
0.1656129689728231
 10
0.1794131665285476
 20
0.1658317441584227
 10
0.1781892718698436
 20
0.1677746560555295
 10
0.1778730331978906
 20
0.1716923370422929
 10
0.180723331965062
 20
0.1748899489338793
 10
0.183479166580927
 20
0.1786830298749659
 10
0.1852657399854393
 20
0.1789655544296042
  0
LWPOLYLINE
  5
1350
330
12F0
100
AcDbEntity
  8
0
  6
Continuous
370
     0
100
AcDbPolyline
 90
       11
 70
   128
 43
0.0
 10
0.1913482678842975
 20
0.1771805679065821
 10
0.1908513112280978
 20
0.1706926245929096
 10
0.1866251376434604
 20
0.1626993322797645
 10
0.1822388089584628
 20
0.1595640199784558
 10
0.1773185562980117
 20
0.1578703265297978
 10
0.1742464830101937
 20
0.1579949265754745
 10
0.1726447394751957
 20
0.1623197446889914
 10
0.1722340451243766
 20
0.1668329063865687
 10
0.1750802496946697
 20
0.1758288048759677
 10
0.1788710541593339
 20
0.1788699362067003
 10
0.1846373610746283
 20
0.1810026356359753
  0
LWPOLYLINE
  5
1351
330
12F0
100
AcDbEntity
  8
0
  6
Continuous
370
     0
100
AcDbPolyline
 90
        8
 70
   128
 43
0.0
 10
0.189323461231595
 20
0.1591583393262468
 10
0.1842800023581468
 20
0.1543930771146637
 10
0.178074249814383
 20
0.1531065082663207
 10
0.1721806282935247
 20
0.1537005458941518
 10
0.1702667494994081
 20
0.1561447517008396
 10
0.1678189559457834
 20
0.1600305696643964
 10
0.1680037815790776
 20
0.1646379065018948
 10
0.1704433817592097
 20
0.1723486742604016
  0
LWPOLYLINE
  5
1352
330
12F0
100
AcDbEntity
  8
0
  6
Continuous
370
     0
100
AcDbPolyline
 90
       11
 70
   128
 43
0.0
 10
0.1870070856963686
 20
0.1545191269391033
 10
0.177860668667229
 20
0.1448321344815202
 10
0.1727843508670794
 20
0.1421981286162292
 10
0.1686156883101688
 20
0.1415389101976885
 10
0.1646031050886378
 20
0.1418199849735621
 10
0.1635681260238897
 20
0.1425719412796979
 10
0.162249771450103
 20
0.1451103280569619
 10
0.1614940871496806
 20
0.149874139624659
 10
0.1622744327670879
 20
0.1545756516020784
 10
0.163116383609104
 20
0.1608129508762878
 10
0.1658393727504439
 20
0.1667372872985417
  0
LWPOLYLINE
  5
1353
330
12F0
100
AcDbEntity
  8
0
  6
Continuous
370
     0
100
AcDbPolyline
 90
       12
 70
   128
 43
0.0
 10
0.1865388711018667
 20
0.1516982214378579
 10
0.1791790232410122
 20
0.1422937477042563
 10
0.172944515183385
 20
0.1373401419086111
 10
0.1675232074336428
 20
0.1349567859134381
 10
0.1629150950120461
 20
0.1351436922451725
 10
0.1600935559949583
 20
0.1356131231315451
 10
0.1587135869806104
 20
0.1366157293077989
 10
0.1571118434456124
 20
0.1409405474213159
 10
0.1571693636892952
 20
0.1482746146201403
 10
0.158200239341216
 20
0.1533209516075988
 10
0.1602332393674039
 20
0.1597465944658704
 10
0.1629890782194891
 20
0.1635396812376139
  0
LWPOLYLINE
  5
1354
330
12F0
100
AcDbEntity
  8
0
  6
Continuous
370
     0
100
AcDbPolyline
 90
       48
 70
   128
 43
0.0
 10
0.1486184666442689
 20
0.1386817973024765
 10
0.1468976068569318
 20
0.1341367542245972
 10
0.1476532911573507
 20
0.1293729426569036
 10
0.1474684655240601
 20
0.1247656058194035
 10
0.1464047401613975
 20
0.1218505184824554
 10
0.1441787211284229
 20
0.1224141245087491
 10
0.1425482178433412
 20
0.123071899844307
 10
0.1413284131452989
 20
0.1192165193129444
 10
0.1410491275969185
 20
0.1152046573556031
 10
0.139044883084594
 20
0.1124460514446354
 10
0.1344696295896952
 20
0.1105017014300777
 10
0.1313030963867874
 20
0.1112217763559115
 10
0.1284486984430053
 20
0.113822463588578
 10
0.1264403639700191
 20
0.116862150106078
 10
0.1259680594148591
 20
0.119839537033302
 10
0.1249330803501074
 20
0.1205914933394378
 10
0.123585966026237
 20
0.1194628373387409
 10
0.1217994060739009
 20
0.1191803119189796
 10
0.120731568082455
 20
0.1220635245714074
 10
0.1228261825492076
 20
0.1300249480306892
 10
0.1217912127004083
 20
0.1307768976410432
 10
0.1199430290915586
 20
0.1289585983160535
 10
0.1174664757878503
 20
0.1291773735016494
 10
0.1170886403637254
 20
0.1315592788529365
 10
0.1183700502863764
 20
0.1369504466810909
 10
0.1209698147828177
 20
0.1398032277319814
 10
0.1216885501958806
 20
0.1429689649390475
 10
0.1203085903974852
 20
0.1439715644195196
 10
0.1179264970088631
 20
0.1435948647249603
 10
0.1146983536016144
 20
0.1427791648804408
 10
0.112628404688067
 20
0.1442830707969307
 10
0.1107145301301706
 20
0.1467272824342735
 10
0.1123409257661975
 20
0.1518677945616549
 10
0.1156306701618348
 20
0.1542192758723093
 10
0.1171667135318337
 20
0.1541569754169067
 10
0.1155978246873097
 20
0.1563505313534765
 10
0.1168504790960973
 20
0.1580746622343287
 10
0.1194830982830126
 20
0.1587961811082685
 10
0.1232451514700301
 20
0.1581702813223557
 10
0.1258777748931656
 20
0.1588918060269541
 10
0.1272864951851602
 20
0.1615562309673457
 10
0.126658120510573
 20
0.1635933180043718
 10
0.1249331615466218
 20
0.1648465740507454
 10
0.1260913560403231
 20
0.1671661798117547
 10
0.1319808649323981
 20
0.1723704421732979
 10
0.1428522409254888
 20
0.1808041785845091
 10
0.1508733223876213
 20
0.1860403089347926
 10
0.1568901501214803
 20
0.1885178400698866
  0
LWPOLYLINE
  5
1355
330
12F0
100
AcDbEntity
  8
0
  6
Continuous
370
     0
100
AcDbPolyline
 90
        8
 70
   128
 43
0.0
 10
0.1673015048935546
 20
0.1825340852577905
 10
0.1547380288632176
 20
0.173222348546659
 10
0.1473781810023666
 20
0.1638178748130556
 10
0.1403017128867745
 20
0.1526269764389791
 10
0.1355457329351921
 20
0.1402769904626737
 10
0.1338905775490779
 20
0.1314694355573369
 10
0.135401955365868
 20
0.1219418057261627
 10
0.1369092297698273
 20
0.1182124691885828
  0
LWPOLYLINE
  5
1356
330
12F0
100
AcDbEntity
  8
0
  6
Continuous
370
     0
100
AcDbPolyline
 90
        7
 70
   128
 43
0.0
 10
0.1988764826508955
 20
0.1701304625147237
 10
0.1966627469520716
 20
0.1532991903904843
 10
0.1920956868306618
 20
0.1397582546538611
 10
0.1849576134904609
 20
0.1270315689829963
 10
0.1758111964613213
 20
0.1173445765254115
 10
0.1662540850813627
 20
0.1121707457654057
 10
0.156664119010923
 20
0.1091281771823489
  0
LWPOLYLINE
  5
1357
330
12F0
100
AcDbEntity
  8
0
  6
Continuous
370
     0
100
AcDbPolyline
 90
       11
 70
   128
 43
0.0
 10
0.1129117844333258
 20
0.1424966461564611
 10
0.1094372101681777
 20
0.1355378221776515
 10
0.1064308455177958
 20
0.1313999162265258
 10
0.1029850267665147
 20
0.1281081291950183
 10
0.0986602940901733
 20
0.1265086108862814
 10
0.091637242805433
 20
0.1284500730046254
 10
0.0871195003382645
 20
0.133839796884672
 10
0.0856738361386462
 20
0.1391049081926052
 10
0.0850742127417021
 20
0.1448090263462784
 10
0.0905858862096558
 20
0.1523951940591086
 10
0.0968203985034996
 20
0.1573488056854088
  0
LWPOLYLINE
  5
1358
330
12F0
100
AcDbEntity
  8
0
  6
Continuous
370
     0
100
AcDbPolyline
 90
        9
 70
   128
 43
0.0
 10
0.0875795215592738
 20
0.1482572881079811
 10
0.0794927356959185
 20
0.1472836695851604
 10
0.0767328068831752
 20
0.1492888752418864
 10
0.0701163599885923
 20
0.1525154680911207
 10
0.0653480832506901
 20
0.1575603611304732
 10
0.0639640108235078
 20
0.164361260600323
 10
0.0666869999648512
 20
0.1702855970225751
 10
0.0686583897867017
 20
0.1751754651104935
 10
0.0831070025494647
 20
0.1783759582025119
  0
LWPOLYLINE
  5
1359
330
12F0
100
AcDbEntity
  8
0
  6
Continuous
370
     0
100
AcDbPolyline
 90
        9
 70
   128
 43
0.0
 10
0.0749257567710231
 20
0.1779978145598466
 10
0.0719768989121547
 20
0.1811939766726684
 10
0.0737922278305305
 20
0.1851435381746071
 10
0.0714388899557719
 20
0.1884338754273518
 10
0.0673605931170691
 20
0.1929774687264682
 10
0.0666049088166467
 20
0.1977412802941636
 10
0.0692662877536492
 20
0.2021298419460624
 10
0.0757841755565316
 20
0.2052970231012363
 10
0.0809878079622416
 20
0.2052042919094212
  0
LWPOLYLINE
  5
135A
330
12F0
100
AcDbEntity
  8
0
  6
Continuous
370
     0
100
AcDbPolyline
 90
       18
 70
   128
 43
0.0
 10
0.2169184262635859
 20
0.1749779701146341
 10
0.2147786737722086
 20
0.1634132532464356
 10
0.2133535624970122
 20
0.1428845125733548
 10
0.2136205604750216
 20
0.1214777782961356
 10
0.2156125124372465
 20
0.1013242875388513
 10
0.2165078893260599
 20
0.0819546344680031
 10
0.2170336014961229
 20
0.0717996542070285
 10
0.2169350516203785
 20
0.065405886898402
 10
0.2156166928103715
 20
0.0628675059517949
 10
0.2133906737773969
 20
0.0623038999255012
 10
0.2121380236048296
 20
0.0640280249756966
 10
0.2112303591456417
 20
0.0660028057266651
 10
0.2115794390559031
 20
0.0720517480252543
 10
0.2120968901081284
 20
0.0945552636186484
 10
0.2114890013571333
 20
0.121509647149999
 10
0.2111234492671592
 20
0.1365226199492486
 10
0.2090698871005898
 20
0.1582118854768843
 10
0.2055706515184567
 20
0.1746360330008087
  0
LWPOLYLINE
  5
135B
330
12F0
100
AcDbEntity
  8
0
  6
Continuous
370
     0
100
AcDbPolyline
 90
       12
 70
   128
 43
0.0
 10
0.3151960654972505
 20
0.1383772295288405
 10
0.3178204913106732
 20
0.1260591249328353
 10
0.316744473397911
 20
0.1115793274234686
 10
0.3126620865985465
 20
0.1012374416958845
 10
0.308017025289594
 20
0.0931209865893869
 10
0.3042837276164398
 20
0.0888280498561702
 10
0.3015237895877441
 20
0.0868228375036626
 10
0.2944062826241343
 20
0.0842858946745046
 10
0.2797975055450621
 20
0.0826284010589067
 10
0.2718668032533067
 20
0.0826617205566578
 10
0.2579521094862649
 20
0.0873038199748919
 10
0.2525308017365191
 20
0.0896871759700649
  0
LWPOLYLINE
  5
135C
330
12F0
100
AcDbEntity
  8
0
  6
Continuous
370
     0
100
AcDbPolyline
 90
       39
 70
   128
 43
0.0
 10
0.2421644225960406
 20
0.1917397229080641
 10
0.2649831967312011
 20
0.1893520417643515
 10
0.2839741990824365
 20
0.1820759297850465
 10
0.2924963406135994
 20
0.1761501494146848
 10
0.2944677261992261
 20
0.1712602871574233
 10
0.2942459516785796
 20
0.167938075220162
 10
0.2962501961909076
 20
0.1651794693091908
 10
0.2999177986787913
 20
0.1652099009107281
 10
0.3035853919507225
 20
0.1652403258164856
 10
0.306090696532074
 20
0.161792069885438
 10
0.3081277957348796
 20
0.1611647261514175
 10
0.3128591143694734
 20
0.1582800637202268
 10
0.313483399083406
 20
0.1545188583287835
 10
0.3112245211237336
 20
0.1518239959561977
 10
0.3082140622764733
 20
0.1501636153095109
 10
0.3048914631903585
 20
0.1503838344432164
 10
0.3061112586724519
 20
0.1465284472160721
 10
0.3089615532034031
 20
0.1433308411551426
 10
0.3087397786827566
 20
0.1400086292178795
 10
0.3055403907893712
 20
0.1371572921150967
 10
0.3035033008025216
 20
0.1377846425448972
 10
0.3046286363695252
 20
0.1333337804375975
 10
0.3044068618488787
 20
0.1300115685003326
 10
0.3030556575643466
 20
0.1253419320725583
 10
0.3012690841598378
 20
0.1256244566271949
 10
0.2996673406248398
 20
0.1212996385136797
 10
0.295087992933059
 20
0.1174457019304231
 10
0.2908864849016268
 20
0.1159736648677967
 10
0.2880033314439778
 20
0.1170400145824341
 10
0.2854980268626264
 20
0.1204882705134817
 10
0.2838059225891527
 20
0.121366276644057
 10
0.282146668026428
 20
0.1243755324251445
 10
0.2816784534319261
 20
0.1271964379263899
 10
0.2810213324594208
 20
0.1288263945324459
 10
0.2787008535113635
 20
0.1276673136259951
 10
0.2766021398679967
 20
0.1298304379610257
 10
0.2758834044549339
 20
0.1329961751680919
 10
0.2767335536501712
 20
0.1383554741423829
 10
0.2758587389017286
 20
0.1424615045438635
  0
LWPOLYLINE
  5
135D
330
12F0
100
AcDbEntity
  8
0
  6
Continuous
370
     0
100
AcDbPolyline
 90
       19
 70
   128
 43
0.0
 10
0.2320980577735625
 20
0.1860066179660826
 10
0.2463577414902041
 20
0.1816151684179701
 10
0.2550688028515395
 20
0.1768803378079244
 10
0.2646875152198902
 20
0.1701707255817837
 10
0.2714846977871055
 20
0.1629916891650502
 10
0.2756164022407042
 20
0.1544029152759662
 10
0.2769594223676997
 20
0.1474759726774586
 10
0.2753248333581801
 20
0.1410198990827744
 10
0.2722486566575277
 20
0.1350970057435034
 10
0.2693942629499624
 20
0.1324963126801819
 10
0.2634678009343112
 20
0.1297710320976186
 10
0.2576070383401507
 20
0.1313082508160796
 10
0.2487070571486463
 20
0.1348521316658129
 10
0.2392772511582954
 20
0.1427526927871429
 10
0.234266641995589
 20
0.1496492046492381
 10
0.2291328131677126
 20
0.1596172844091334
 10
0.2265371520841057
 20
0.1682683587536182
 10
0.2260730366662145
 20
0.1768875633791147
 10
0.2265781909321198
 20
0.1819961999568491
  0
LWPOLYLINE
  5
135E
330
12F0
100
AcDbEntity
  8
0
  6
Continuous
370
     0
100
AcDbPolyline
 90
       11
 70
   128
 43
0.0
 10
0.2340365978846677
 20
0.1789855002276557
 10
0.2382052512256294
 20
0.1783262751133349
 10
0.241651079192863
 20
0.1750344947776092
 10
0.2430597945051254
 20
0.1723700573107791
 10
0.243528004863407
 20
0.1695491576401906
 10
0.24255464023922
 20
0.1672614207330447
 10
0.2403286169700252
 20
0.1666978205374061
 10
0.236504957814887
 20
0.1676076896911897
 10
0.2343446389469115
 20
0.1713066013230104
 10
0.2315888043310466
 20
0.1750996822640971
 10
0.2318721890560376
 20
0.1768861194310087
  0
LWPOLYLINE
  5
135F
330
12F0
100
AcDbEntity
  8
0
  6
Continuous
370
     0
100
AcDbPolyline
 90
       11
 70
   128
 43
0.0
 10
0.2354494166097609
 20
0.1821193560544216
 10
0.2414662493233521
 20
0.1796418374457626
 10
0.247762362605588
 20
0.1731524443533274
 10
0.2493887716937912
 20
0.1680119330910727
 10
0.2494791281960467
 20
0.1628091146776356
 10
0.2484113036567734
 20
0.1599259028903326
 10
0.2438031912351768
 20
0.1597389965585982
 10
0.2393840078597051
 20
0.160743046682958
 10
0.2317079255631178
 20
0.1662298335991412
 10
0.2299870607960521
 20
0.1707748641505819
 10
0.2297406299381492
 20
0.1769179882848721
  0
LWPOLYLINE
  5
1360
330
12F0
100
AcDbEntity
  8
0
  6
Continuous
370
     0
100
AcDbPolyline
 90
        8
 70
   128
 43
0.0
 10
0.251963874873244
 20
0.1746244755852988
 10
0.2549373940490973
 20
0.1683553141530058
 10
0.254243310737067
 20
0.1620557211191737
 10
0.2518571181718343
 20
0.1566341216894819
 10
0.2489411192396638
 20
0.1555692159229522
 10
0.2444890769374943
 20
0.1544420097010199
 10
0.240164353477109
 20
0.1560415347055386
 10
0.2335848554698821
 20
0.1607444906310657
  0
LWPOLYLINE
  5
1361
330
12F0
100
AcDbEntity
  8
0
  6
Continuous
370
     0
100
AcDbPolyline
 90
       11
 70
   128
 43
0.0
 10
0.2556602286387743
 20
0.1709878760701908
 10
0.2620467076392146
 20
0.1592956712600983
 10
0.2629831276122658
 20
0.1536538535618259
 10
0.2623218940109808
 20
0.1494855101785059
 10
0.2608146196070251
 20
0.1457561736409278
 10
0.2597796405422734
 20
0.145004217334792
 10
0.2569580972889689
 20
0.1445347922790745
 10
0.2521939239638975
 20
0.145288192533318
 10
0.2479636604185948
 20
0.147483192417992
 10
0.2422918134183867
 20
0.1502113667274258
 10
0.2374988845794483
 20
0.1546318039289698
  0
LWPOLYLINE
  5
1362
330
12F0
100
AcDbEntity
  8
0
  6
Continuous
370
     0
100
AcDbPolyline
 90
       12
 70
   128
 43
0.0
 10
0.2581983829308712
 20
0.1696708697896536
 10
0.2648682508925226
 20
0.1597650963158141
 10
0.2676528410222545
 20
0.1523049784274253
 10
0.268244271045706
 20
0.1464125108590348
 10
0.266642527510708
 20
0.1420876927455179
 10
0.2653241687007011
 20
0.1395493117989108
 10
0.2639441996863532
 20
0.138546705622657
 10
0.2593360872647601
 20
0.1383597992909226
 10
0.2523787495971881
 20
0.1406808556958196
 10
0.2478979560173755
 20
0.1432206805905345
 10
0.2424150380632888
 20
0.1471398113560607
 10
0.2396591992112
 20
0.1509328981278042
  0
LWPOLYLINE
  5
1363
330
12F0
100
AcDbEntity
  8
0
  6
Continuous
370
     0
100
AcDbPolyline
 90
       48
 70
   128
 43
0.0
 10
0.2588596885127181
 20
0.1295841257658842
 10
0.2626505064295514
 20
0.1265429953002765
 10
0.2674146797546228
 20
0.1257895950460348
 10
0.2717394032150118
 20
0.1241900700415161
 10
0.2741831068079747
 20
0.1222775955766035
 10
0.2729592079130505
 20
0.1203346895101535
 10
0.2718297731694363
 20
0.1189872524932038
 10
0.2751195175650736
 20
0.1166357711825511
 10
0.2788487210413457
 20
0.1151304213179518
 10
0.2808529655536738
 20
0.1123718154069841
 10
0.2812883212214778
 20
0.1074196535594467
 10
0.2796249766980914
 20
0.104630616912063
 10
0.2762695186852824
 20
0.1027195796994764
 10
0.2727579955327783
 20
0.1017488549035246
 10
0.2697803821600431
 20
0.102219729738005
 10
0.2687454030952949
 20
0.1014677734318674
 10
0.2694025375199693
 20
0.099837817690938
 10
0.2691191577747105
 20
0.098051393050465
 10
0.2660470795071603
 20
0.0979267804783514
 10
0.259122587314117
 20
0.1023790923644156
 10
0.2580876174653177
 20
0.1016271427540598
 10
0.2592458027430631
 20
0.0993075302972688
 10
0.2582724381188797
 20
0.0970197933901247
 10
0.2558903539462065
 20
0.0973964997804639
 10
0.2511590260956602
 20
0.1002811555158747
 10
0.249249241498422
 20
0.1036352363070012
 10
0.2464605479558557
 20
0.105297060901794
 10
0.2450805881574602
 20
0.1042944614213219
 10
0.2447027435173865
 20
0.101912549374255
 10
0.2444809689967364
 20
0.0985903374369919
 10
0.2424110200831926
 20
0.097086431520502
 10
0.2394950169147982
 20
0.0960215315846292
 10
0.2351086832500684
 20
0.0991568313594993
 10
0.2338888785520297
 20
0.1030122118908618
 10
0.2344227933115306
 20
0.1044538240477344
 10
0.2318517843289562
 20
0.1036395681513209
 10
0.2305991299201722
 20
0.1053636990321731
 10
0.2307264487619562
 20
0.1080904302586241
 10
0.2324842532004254
 20
0.1114749417861613
 10
0.2326115678059892
 20
0.1142016788432673
 10
0.2305128676147952
 20
0.1163648040434246
 10
0.2283813042606901
 20
0.1163966787279431
 10
0.2266563452967425
 20
0.1151434226815712
 10
0.2248081709038416
 20
0.1169617287023445
 10
0.2216785816085611
 20
0.1241711900248336
 10
0.217017061572065
 20
0.1371166508812979
 10
0.2145158561673241
 20
0.1463632059365966
 10
0.2140188860589553
 20
0.1528511483851442
  0
LWPOLYLINE
  5
1364
330
12F0
100
AcDbEntity
  8
0
  6
Continuous
370
     0
100
AcDbPolyline
 90
        8
 70
   128
 43
0.0
 10
0.2229270606239524
 20
0.1609038532574764
 10
0.2279007208993029
 20
0.1460777926206198
 10
0.2345705888609544
 20
0.1361720191467821
 10
0.2430270167749455
 20
0.1259837202531795
 10
0.2533028727839195
 20
0.1176441589818875
 10
0.2611678841266283
 20
0.1133483285218019
 10
0.27069623999272
 20
0.1118415347090984
 10
0.2747088232142545
 20
0.1121226094849721
  0
LWPOLYLINE
  5
1365
330
12F0
100
AcDbEntity
  8
0
  6
Continuous
370
     0
100
AcDbPolyline
 90
        7
 70
   128
 43
0.0
 10
0.2444808115834398
 20
0.1871005113860455
 10
0.259804220662744
 20
0.1797939745009849
 10
0.2712711166399444
 20
0.1712660629498525
 10
0.2811691280088446
 20
0.1605445896314936
 10
0.2875556070092884
 20
0.1488523848214029
 10
0.2895229026342605
 20
0.1381642301356702
 10
0.2894530948202068
 20
0.1281034250146166
  0
LWPOLYLINE
  5
1366
330
12F0
100
AcDbEntity
  8
0
  6
Continuous
370
     0
100
AcDbPolyline
 90
       11
 70
   128
 43
0.0
 10
0.2441975800355287
 20
0.0968039061007389
 10
0.2497421124301766
 20
0.0913489947342026
 10
0.252748477080555
 20
0.0872110887830769
 10
0.2548143360334443
 20
0.0829167022710973
 10
0.254999152450786
 20
0.0783093587378172
 10
0.2509824700526408
 20
0.0722299848376924
 10
0.2444604788369276
 20
0.0695988726992702
 10
0.2390063256126567
 20
0.0698509732132759
 10
0.2333960930530061
 20
0.0710433669216979
 10
0.227884419585056
 20
0.0786295346345263
 10
0.2250998252191039
 20
0.0860896583535719
  0
LWPOLYLINE
  5
1367
330
12F0
100
AcDbEntity
  8
0
  6
Continuous
370
     0
100
AcDbPolyline
 90
        9
 70
   128
 43
0.0
 10
0.2308907842354344
 20
0.0744916286834005
 10
0.2293177962143034
 20
0.0664997736225814
 10
0.2265578674015565
 20
0.0644945679658555
 10
0.221444600714058
 20
0.0591990250563849
 10
0.2151731437690749
 20
0.0562230820772687
 10
0.2082774021101592
 20
0.0570083444895921
 10
0.2034844732712244
 20
0.0614287816911379
 10
0.1994431253198776
 20
0.0648147371667846
 10
0.200864142398192
 20
0.0795451912420511
  0
LWPOLYLINE
  5
1368
330
12F0
100
AcDbEntity
  8
0
  6
Continuous
370
     0
100
AcDbPolyline
 90
        9
 70
   128
 43
0.0
 10
0.1986956343929478
 20
0.0716475113211512
 10
0.1947446563960255
 20
0.0698306492484875
 10
0.1915493676792579
 20
0.0727776112699541
 10
0.1876928495974184
 20
0.0715562240774457
 10
0.1821113725516348
 20
0.0690815808385654
 10
0.1773471992265634
 20
0.0698349810928054
 10
0.1739958403903649
 20
0.0737222430044717
 10
0.1729978102129727
 20
0.0808998354730957
 10
0.1746940136630535
 20
0.0858201284667715
  0
LWPOLYLINE
  5
1369
330
12F0
100
AcDbEntity
  8
0
  6
Continuous
370
     0
100
AcDbPolyline
 90
       18
 70
   128
 43
0.0
 10
0.2454458250806297
 20
0.2057573816542586
 10
0.2557833045336473
 20
0.2001486620566659
 10
0.2748669135192046
 20
0.1924495709508473
 10
0.2953084345588195
 20
0.1860884564319409
 10
0.3150910902779351
 20
0.1817551441857841
 10
0.3337894117243571
 20
0.1766211462363927
 10
0.3436098258691054
 20
0.1739830667432418
 10
0.3496602063452485
 20
0.1719135574852899
 10
0.3516669548083833
 20
0.1698753208975176
 10
0.3515150982813253
 20
0.1675840871505531
 10
0.3494882677260982
 20
0.1669255299822349
 10
0.3473296558815555
 20
0.1666725305959282
 10
0.3416846415164549
 20
0.1688737512875455
 10
0.3204424275407014
 20
0.1763198452341701
 10
0.2946194374857427
 20
0.1840710712604405
 10
0.2802282900679245
 20
0.1883626742942823
 10
0.2589659871457357
 20
0.1931119722577019
 10
0.2422643713563133
 20
0.1948593421582742
  0
LWPOLYLINE
  5
136A
330
12F0
100
AcDbEntity
  8
0
  6
Continuous
370
     0
100
AcDbPolyline
 90
       12
 70
   128
 43
0.0
 10
0.3106246586062298
 20
0.2879147200058192
 10
0.3231508644274896
 20
0.2866041936185564
 10
0.3365894623821148
 20
0.28110633626547
 10
0.3451636532954971
 20
0.2740279372541909
 10
0.3514474579293676
 20
0.2671020988657311
 10
0.3543766309574714
 20
0.2622249313800697
 10
0.3554308334775911
 20
0.2589804296390508
 10
0.3556441788773945
 20
0.2514273198135672
 10
0.3527061885967555
 20
0.2370213534821239
 10
0.3502237780858195
 20
0.2294891036798035
 10
0.3415090023392793
 20
0.2176899311102183
 10
0.3375670198630125
 20
0.2132704585541347
  0
LWPOLYLINE
  5
136B
330
12F0
100
AcDbEntity
  8
0
  6
Continuous
370
     0
100
AcDbPolyline
 90
       39
 70
   128
 43
0.0
 10
0.2373058927685676
 20
0.2349474174452872
 10
0.2466281014776968
 20
0.2559115272298396
 10
0.2594166376556579
 20
0.2717246015123802
 10
0.2676858762526209
 20
0.2779984729090064
 10
0.2729456032645991
 20
0.2783623214787028
 10
0.276036682480246
 20
0.2771247814281637
 10
0.279279618222958
 20
0.2781784751245873
 10
0.280384027547381
 20
0.2816759762519094
 10
0.2814884403919855
 20
0.285173466545233
 10
0.2855421083567862
 20
0.2864905831089839
 10
0.2867682459758782
 20
0.2882341197050238
 10
0.2909737808422648
 20
0.2918424614088497
 10
0.2947438143248533
 20
0.2912739150687678
 10
0.2966087490670617
 20
0.2882928361950743
 10
0.2972575819559573
 20
0.2849166338543938
 10
0.2960214015307301
 20
0.2818247057973107
 10
0.3000650302095735
 20
0.2817934200660179
 10
0.3039869237394051
 20
0.2835160966388948
 10
0.3070780029550519
 20
0.2822785565883556
 10
0.308801120456156
 20
0.2783546462627466
 10
0.3075749793168825
 20
0.2766111205007089
 10
0.3121557485417412
 20
0.2763059861939521
 10
0.3152468277573916
 20
0.2750684461434112
 10
0.3192703708239612
 20
0.2723403774900266
 10
0.3184495924615689
 20
0.2707285501005394
 10
0.3220677729372774
 20
0.267868759179489
 10
0.3243179881782581
 20
0.2623226088173727
 10
0.3244196412351812
 20
0.2578718527571091
 10
0.3225145389746231
 20
0.2554593310575051
 10
0.3184608710098224
 20
0.2541422144937524
 10
0.3171029485812333
 20
0.2528042465137279
 10
0.3137282384035558
 20
0.2521561128264338
 10
0.3109007115780287
 20
0.2525825220247189
 10
0.3091474691786971
 20
0.2524612471331906
 10
0.3095327531976508
 20
0.2498961648107638
 10
0.3068269615211356
 20
0.248568611704874
 10
0.3035940650643845
 20
0.2488633203034975
 10
0.2987597794011911
 20
0.2513279746964425
 10
0.29458437980756
 20
0.2517648096028626
  0
LWPOLYLINE
  5
136C
330
12F0
100
AcDbEntity
  8
0
  6
Continuous
370
     0
100
AcDbPolyline
 90
       19
 70
   128
 43
0.0
 10
0.2396477217805177
 20
0.2236021087278566
 10
0.2482307230920853
 20
0.2358068413065695
 10
0.2554256805970212
 20
0.2426284098541238
 10
0.2647792466123313
 20
0.2497029647268665
 10
0.2737073609043215
 20
0.2539490252438572
 10
0.2831525371704195
 20
0.2552244325952895
 10
0.2901554671097593
 20
0.2543611776565839
 10
0.2957904421889062
 20
0.250811554669923
 10
0.3004728576163416
 20
0.2460556620757881
 10
0.3020642075368229
 20
0.2425373139864177
 10
0.3028247259142454
 20
0.2360587556534064
 10
0.2995516687934909
 20
0.2309598659058434
 10
0.2934309923805856
 20
0.2235906002073662
 10
0.2830031419390799
 20
0.2170637294244351
 10
0.2748958060094786
 20
0.2144294962969315
 10
0.2638291584448567
 20
0.2126272409837284
 10
0.2547993944301083
 20
0.2128319495881179
 10
0.2464586241542683
 20
0.2150540303028929
 10
0.2417561233005756
 20
0.2171131160798207
  0
LWPOLYLINE
  5
136D
330
12F0
100
AcDbEntity
  8
0
  6
Continuous
370
     0
100
AcDbPolyline
 90
       11
 70
   128
 43
0.0
 10
0.2469242433959344
 20
0.2232761252319424
 10
0.2488393884626312
 20
0.2270370383925915
 10
0.2530348770027011
 20
0.2292969994693763
 10
0.2560042245895175
 20
0.2298134108890082
 10
0.2588317445606982
 20
0.2293869994636104
 10
0.2607067254432103
 20
0.2277543251120786
 10
0.2605548620618023
 20
0.2254630891380014
 10
0.2585079494144828
 20
0.222107738213591
 10
0.2543225001603666
 20
0.2211961794318515
 10
0.2498634660845234
 20
0.219747351434437
 10
0.2482520340719496
 20
0.2205689057677151
  0
LWPOLYLINE
  5
136E
330
12F0
100
AcDbEntity
  8
0
  6
Continuous
370
     0
100
AcDbPolyline
 90
       11
 70
   128
 43
0.0
 10
0.2443803543867844
 20
0.2255882103951769
 10
0.2485959181646038
 20
0.2305449630009377
 10
0.2567133037546831
 20
0.234527589816599
 10
0.2621048085358026
 20
0.2344858914382843
 10
0.2670809045857503
 20
0.232964066270144
 10
0.2694930260142776
 20
0.2310575433431499
 10
0.2682467994487467
 20
0.2266172107639068
 10
0.2659262882710074
 20
0.2227245861695941
 10
0.2583360039409825
 20
0.2171197084834233
 10
0.2534816465602283
 20
0.2168875605133884
 10
0.2475630369988728
 20
0.2185515205962147
  0
LWPOLYLINE
  5
136F
330
12F0
100
AcDbEntity
  8
0
  6
Continuous
370
     0
100
AcDbPolyline
 90
        8
 70
   128
 43
0.0
 10
0.25661165755211
 20
0.2389783481039771
 10
0.2634928523424378
 20
0.2398690554694429
 10
0.269269637808339
 20
0.2372622617075848
 10
0.2736885112201826
 20
0.2333174913588181
 10
0.2738002035630593
 20
0.2302151375935999
 10
0.2734964836545899
 20
0.2256326678725582
 10
0.2706388319308353
 20
0.2220138918537078
 10
0.2641328783533261
 20
0.2172097107047701
  0
LWPOLYLINE
  5
1370
330
12F0
100
AcDbEntity
  8
0
  6
Continuous
370
     0
100
AcDbPolyline
 90
       11
 70
   128
 43
0.0
 10
0.2612125053488796
 20
0.2413700183873129
 10
0.2743059834687287
 20
0.2438308308688359
 10
0.279961040639968
 20
0.2429780016382619
 10
0.2837210383567807
 20
0.2410610421691306
 10
0.2868020747662925
 20
0.2384751106575464
 10
0.2871974015913814
 20
0.2372584197961629
 10
0.2867719465338965
 20
0.2344299123792961
 10
0.2845832097911263
 20
0.2301317277758539
 10
0.2811884175213564
 20
0.2267868003324658
 10
0.2768410724542214
 20
0.22223560550872
 10
0.2711558903847582
 20
0.2190432495221532
  0
LWPOLYLINE
  5
1371
330
12F0
100
AcDbEntity
  8
0
  6
Continuous
370
     0
100
AcDbPolyline
 90
       12
 70
   128
 43
0.0
 10
0.2632493855645883
 20
0.2433769692437906
 10
0.2747314385262136
 20
0.2466593382857027
 10
0.2826869179287534
 20
0.2470023376662418
 10
0.2884737495349583
 20
0.2457439484265418
 10
0.2920919300106668
 20
0.2428841575054932
 10
0.2940986784738016
 20
0.2408459209177227
 10
0.2946257797338596
 20
0.2392236700472132
 10
0.2933795531683288
 20
0.234783337467972
 10
0.2890221617748807
 20
0.2288837620171797
 10
0.2852220033940647
 20
0.2254071231401262
 10
0.2798003737147212
 20
0.2214036363013054
 10
0.275341332784528
 20
0.2199548060767782
  0
LWPOLYLINE
  5
1372
330
12F0
100
AcDbEntity
  8
0
  6
Continuous
370
     0
100
AcDbPolyline
 90
       48
 70
   128
 43
0.0
 10
0.3015784993487181
 20
0.2316184230741633
 10
0.3056422134538188
 20
0.2342839441600759
 10
0.307830950196589
 20
0.2385821287635146
 10
0.3106886019203436
 20
0.2422009047823685
 10
0.3132626191618897
 20
0.2439340178973825
 10
0.3147322270790091
 20
0.2421696298850744
 10
0.3156647013044598
 20
0.2406790926753413
 10
0.3189176798533069
 20
0.2430811778328117
 10
0.3215017399009845
 20
0.2461626824088689
 10
0.3247446756436964
 20
0.2472163761052926
 10
0.3295889937384935
 20
0.2461001217802821
 10
0.3317275234909438
 20
0.2436563274104966
 10
0.33250813433499
 20
0.2398745542266862
 10
0.3323462281474434
 20
0.2362349267915658
 10
0.3309782664329006
 20
0.2335485565164976
 10
0.3313735932579895
 20
0.2323318656551141
 10
0.3331268389914861
 20
0.2324531536077572
 10
0.3347382606295319
 20
0.2316316078813667
 10
0.3339074498355323
 20
0.2286713804239468
 10
0.3275332638386423
 20
0.2234616370387687
 10
0.3279285871435533
 20
0.2222449570113873
 10
0.3304925686193236
 20
0.2226296569973538
 10
0.3323675495018356
 20
0.220996982645822
 10
0.3312731759431848
 20
0.2188478946475456
 10
0.3270676445969762
 20
0.2152395421097157
 10
0.3232875683082525
 20
0.2144596969887562
 10
0.3208453255016792
 20
0.2123210238646127
 10
0.3213724232415558
 20
0.2106987838281053
 10
0.3235209958001448
 20
0.2096033809193649
 10
0.3266120750157917
 20
0.208365840868824
 10
0.3274027251457916
 20
0.2059324699800626
 10
0.327514410634322
 20
0.2028301139877317
 10
0.3231771117074942
 20
0.1996273236861405
 10
0.3191334865488286
 20
0.1996585985834347
 10
0.317927420647301
 20
0.2006118643503765
 10
0.3179073385552087
 20
0.1979150705942842
 10
0.3158805011456351
 20
0.1972565111988515
 10
0.3133265693303499
 20
0.1982202049010428
 10
0.3106508990318843
 20
0.2009378478462924
 10
0.3080969603622528
 20
0.2019015393213692
 10
0.3053911720199025
 20
0.2005739992765942
 10
0.3047021680924793
 20
0.1985566118779829
 10
0.3053610437875101
 20
0.1965288009983456
 10
0.3030606147018595
 20
0.1953329701601216
 10
0.2952369132544703
 20
0.1945843999364544
 10
0.2814845594395905
 20
0.1941513983345686
 10
0.2719176480244805
 20
0.1946299532873077
 10
0.2655936758722603
 20
0.19616219110247
  0
LWPOLYLINE
  5
1373
330
12F0
100
AcDbEntity
  8
0
  6
Continuous
370
     0
100
AcDbPolyline
 90
        8
 70
   128
 43
0.0
 10
0.2606878757590714
 20
0.2071227912270394
 10
0.2763252428880705
 20
0.2072715185453262
 10
0.2878072958496958
 20
0.2105538875872419
 10
0.3001101238395485
 20
0.2154480709575264
 10
0.3112169320681737
 20
0.2226439246169125
 10
0.3177329317859865
 20
0.2287965102880101
 10
0.3221104017513489
 20
0.2373928903288931
 10
0.3230830401609843
 20
0.2412959406313444
  0
LWPOLYLINE
  5
1374
330
12F0
100
AcDbEntity
  8
0
  6
Continuous
370
     0
100
AcDbPolyline
 90
        7
 70
   128
 43
0.0
 10
0.2424338486797453
 20
0.2357168390852227
 10
0.2541179720130984
 20
0.2480324230744397
 10
0.265771963593874
 20
0.2563028196194086
 10
0.2790273443810918
 20
0.2624032703700543
 10
0.2921208225009408
 20
0.2648640828515774
 10
0.3028937894430506
 20
0.2634322707387859
 10
0.3124406119117253
 20
0.2602569198028419
  0
LWPOLYLINE
  5
1375
330
12F0
100
AcDbEntity
  8
0
  6
Continuous
370
     0
100
AcDbPolyline
 90
       11
 70
   128
 43
0.0
 10
0.328223500174019
 20
0.2075442843084332
 10
0.3351247839107856
 20
0.2111317876571039
 10
0.339989184097675
 20
0.2127123270881839
 10
0.3447117738978065
 20
0.2133500372944592
 10
0.3491507294017389
 20
0.2121020607017829
 10
0.3536913344424164
 20
0.2064033388828417
 10
0.3541782646639468
 20
0.1993874982730368
 10
0.3522530767911149
 20
0.1942781936513409
 10
0.3493853857814031
 20
0.1893110153374451
 10
0.3404673107753666
 20
0.1864133571154997
 10
0.3325118245184804
 20
0.1860703555078497
  0
LWPOLYLINE
  5
1376
330
12F0
100
AcDbEntity
  8
0
  6
Continuous
370
     0
100
AcDbPolyline
 90
        9
 70
   128
 43
0.0
 10
0.345331710962256
 20
0.1879938965465797
 10
0.3524463367646575
 20
0.1840282770086538
 10
0.3535005357645957
 20
0.180783786101637
 10
0.3569568100527576
 20
0.1742843677454644
 10
0.3578491132396806
 20
0.1674002407964359
 10
0.3549713829440151
 20
0.1610846601874911
 10
0.3492862008745518
 20
0.1578923042009297
 10
0.3448171206584014
 20
0.1550950716813535
 10
0.3312467447486291
 20
0.1609984998775697
  0
LWPOLYLINE
  5
1377
330
12F0
100
AcDbEntity
  8
0
  6
Continuous
370
     0
100
AcDbPolyline
 90
        9
 70
   128
 43
0.0
 10
0.3380877788749572
 20
0.1564956088968507
 10
0.3385947980429229
 20
0.1521765642702526
 10
0.3348046720937176
 20
0.1500483254611335
 10
0.3347745507156681
 20
0.1460031294099977
 10
0.3354033050326528
 20
0.1399301224792228
 10
0.3332145682898826
 20
0.1356319378757806
 10
0.3284819356836124
 20
0.133645836208462
 10
0.3213472313093035
 20
0.1349146511562953
 10
0.3171919102875797
 20
0.138048290652808
  0
ENDBLK
  5
137B
330
12F0
100
AcDbEntity
  8
0
100
AcDbBlockEnd
  0
BLOCK
  5
2199
330
2192
100
AcDbEntity
  8
0
100
AcDbBlockBegin
  2
*D20
 70
     1
 10
0.0
 20
0.0
 30
0.0
  3
*D20
  1

  0
LINE
  5
21A9
330
2192
100
AcDbEntity
  8
Sezione
  6
ACAD_ISO10W100
 62
     5
370
    -2
100
AcDbLine
 10
0.2558514754556142
 20
0.211046886970545
 30
0.0
 11
0.2543514754556142
 21
0.211046886970545
 31
0.0
  0
LINE
  5
21AA
330
2192
100
AcDbEntity
  8
Sezione
  6
ACAD_ISO10W100
 62
     5
370
    -2
100
AcDbLine
 10
0.2543514754556142
 20
0.211046886970545
 30
0.0
 11
0.252220121576662
 21
0.2089356478456055
 31
0.0
  0
MTEXT
  5
21AB
330
2192
100
AcDbEntity
  8
Sezione
  6
ACAD_ISO10W100
 62
     4
100
AcDbMText
 10
0.2702800468841856
 20
0.211046886970545
 30
0.0
 40
0.003
 41
0.0
 71
     5
 72
     1
  1
\A1;d 500 mm
  7
ROMANS
 73
     1
 44
1.0
1001
ACAD
1000
MTEXTBEGIN
1070
    73
1070
     1
1070
    44
1040
1.0
1070
    74
1070
     0
1000
MTEXTEND
  0
INSERT
  5
21AC
330
2192
100
AcDbEntity
  8
Sezione
  6
ACAD_ISO10W100
 62
     5
370
    -2
100
AcDbBlockReference
  2
_ArchTick
 10
0.252220121576662
 20
0.2089356478456055
 30
0.0
 41
0.0015
 42
0.0015
 43
0.0015
 50
224.7283543638229
  0
POINT
  5
21AD
330
2192
100
AcDbEntity
  8
Defpoints
  6
ACAD_ISO10W100
 62
     0
100
AcDbPoint
 10
0.252220121576662
 20
0.2089356478456055
 30
0.0
  0
POINT
  5
21AE
330
2192
100
AcDbEntity
  8
Defpoints
  6
ACAD_ISO10W100
 62
     0
100
AcDbPoint
 10
0.1634137099536523
 20
0.1209673509731266
 30
0.0
  0
ENDBLK
  5
219A
330
2192
100
AcDbEntity
  8
0
100
AcDbBlockEnd
  0
BLOCK
  5
23FD
330
23F6
100
AcDbEntity
  8
0
100
AcDbBlockBegin
  2
*D22
 70
     1
 10
0.0
 20
0.0
 30
0.0
  3
*D22
  1

  0
LINE
  5
240D
330
23F6
100
AcDbEntity
  8
Sezione
  6
ACAD_ISO10W100
 62
     5
370
    -2
100
AcDbLine
 10
0.2631158902053683
 20
0.2072725814460036
 30
0.0
 11
0.2616158902053683
 21
0.2072725814460035
 31
0.0
  0
LINE
  5
240E
330
23F6
100
AcDbEntity
  8
Sezione
  6
ACAD_ISO10W100
 62
     5
370
    -2
100
AcDbLine
 10
0.2616158902053683
 20
0.2072725814460035
 30
0.0
 11
0.2592455289467454
 21
0.2054337265023988
 31
0.0
  0
MTEXT
  5
240F
330
23F6
100
AcDbEntity
  8
Sezione
  6
ACAD_ISO10W100
 62
     4
100
AcDbMText
 10
0.2710444616339398
 20
0.2072725814460036
 30
0.0
 40
0.003
 41
0.0
 71
     5
 72
     1
  1
\A1;\U+22050.13
  7
ROMANS
 73
     1
 44
1.0
1001
ACAD
1000
MTEXTBEGIN
1070
    73
1070
     1
1070
    44
1040
1.0
1070
    74
1070
     0
1000
MTEXTEND
  0
INSERT
  5
2410
330
23F6
100
AcDbEntity
  8
Sezione
  6
ACAD_ISO10W100
 62
     5
370
    -2
100
AcDbBlockReference
  2
_ArchTick
 10
0.2592455289467454
 20
0.2054337265023988
 30
0.0
 41
0.0015
 42
0.0015
 43
0.0015
 50
217.8032336898647
  0
POINT
  5
2411
330
23F6
100
AcDbEntity
  8
Defpoints
  6
ACAD_ISO10W100
 62
     0
100
AcDbPoint
 10
0.2592455289467454
 20
0.2054337265023988
 30
0.0
  0
POINT
  5
2412
330
23F6
100
AcDbEntity
  8
Defpoints
  6
ACAD_ISO10W100
 62
     0
100
AcDbPoint
 10
0.1585051754552694
 20
0.1272823913991999
 30
0.0
  0
ENDBLK
  5
23FE
330
23F6
100
AcDbEntity
  8
0
100
AcDbBlockEnd
  0
BLOCK
  5
241B
330
2414
100
AcDbEntity
  8
0
100
AcDbBlockBegin
  2
*D23
 70
     1
 10
0.0
 20
0.0
 30
0.0
  3
*D23
  1

  0
LINE
  5
242B
330
2414
100
AcDbEntity
  8
Sezione
  6
ACAD_ISO10W100
 62
     5
370
    -2
100
AcDbLine
 10
0.2676079008573378
 20
0.2007091560846723
 30
0.0
 11
0.2661079008573378
 21
0.2007091560846723
 31
0.0
  0
LINE
  5
242C
330
2414
100
AcDbEntity
  8
Sezione
  6
ACAD_ISO10W100
 62
     5
370
    -2
100
AcDbLine
 10
0.2661079008573378
 20
0.2007091560846723
 30
0.0
 11
0.2635356514795252
 21
0.1991652865505656
 31
0.0
  0
MTEXT
  5
242D
330
2414
100
AcDbEntity
  8
Sezione
  6
ACAD_ISO10W100
 62
     4
100
AcDbMText
 10
0.2820364722859093
 20
0.2007091560846723
 30
0.0
 40
0.003
 41
0.0
 71
     5
 72
     1
  1
\A1;d 510 mm
  7
ROMANS
 73
     1
 44
1.0
1001
ACAD
1000
MTEXTBEGIN
1070
    73
1070
     1
1070
    44
1040
1.0
1070
    74
1070
     0
1000
MTEXTEND
  0
INSERT
  5
242E
330
2414
100
AcDbEntity
  8
Sezione
  6
ACAD_ISO10W100
 62
     5
370
    -2
100
AcDbBlockReference
  2
_ArchTick
 10
0.2635356514795252
 20
0.1991652865505656
 30
0.0
 41
0.0015
 42
0.0015
 43
0.0015
 50
210.9722710083541
  0
POINT
  5
242F
330
2414
100
AcDbEntity
  8
Defpoints
  6
ACAD_ISO10W100
 62
     0
100
AcDbPoint
 10
0.2635356514795252
 20
0.1991652865505656
 30
0.0
  0
POINT
  5
2430
330
2414
100
AcDbEntity
  8
Defpoints
  6
ACAD_ISO10W100
 62
     0
100
AcDbPoint
 10
0.1542150529224896
 20
0.1335508313510331
 30
0.0
  0
ENDBLK
  5
241C
330
2414
100
AcDbEntity
  8
0
100
AcDbBlockEnd
  0
ENDSEC
  0
SECTION
  2
ENTITIES
  0
LINE
  5
D
330
2
100
AcDbEntity
  8
Table
100
AcDbLine
 10
0.02
 20
0.02
 30
0.0
 11
0.4
 21
0.02
 31
0.0
  0
LINE
  5
10
330
2
100
AcDbEntity
  8
Table
100
AcDbLine
 10
0.4
 20
0.02
 30
0.0
 11
0.4
 21
0.2769999999999999
 31
0.0
  0
LINE
  5
11
330
2
100
AcDbEntity
  8
Table
100
AcDbLine
 10
0.4
 20
0.2769999999999999
 30
0.0
 11
0.02
 21
0.277
 31
0.0
  0
LINE
  5
12
330
2
100
AcDbEntity
  8
Table
100
AcDbLine
 10
0.02
 20
0.277
 30
0.0
 11
0.02
 21
0.02
 31
0.0
  0
LINE
  5
13
330
2
100
AcDbEntity
  8
Table
 62
     2
100
AcDbLine
 10
0.015
 20
0.015
 30
0.0
 11
0.4050000000000001
 21
0.015
 31
0.0
  0
LINE
  5
14
330
2
100
AcDbEntity
  8
Table
 62
     2
100
AcDbLine
 10
0.4050000000000001
 20
0.015
 30
0.0
 11
0.4050000000000001
 21
0.2819999999999998
 31
0.0
  0
LINE
  5
15
330
2
100
AcDbEntity
  8
Table
 62
     2
100
AcDbLine
 10
0.4050000000000001
 20
0.2819999999999998
 30
0.0
 11
0.0149999999999999
 21
0.282
 31
0.0
  0
LINE
  5
16
330
2
100
AcDbEntity
  8
Table
 62
     2
100
AcDbLine
 10
0.0149999999999999
 20
0.282
 30
0.0
 11
0.015
 21
0.015
 31
0.0
  0
LINE
  5
17
330
2
100
AcDbEntity
  8
Table
100
AcDbLine
 10
0.21
 20
0.2769999999999999
 30
0.0
 11
0.21
 21
0.2532994226089223
 31
0.0
  0
MTEXT
  5
18
102
{ACAD_XDICTIONARY
360
2439
102
}
330
2
100
AcDbEntity
  8
Text
100
AcDbMText
 10
0.305
 20
0.0471738284815141
 30
0.0
 40
0.005
 41
0.1900000000000001
 71
     2
 72
     5
  3
{\fTimes New Roman|b0|i0|c238|p18;\H1.6x;\C4;Bovelacci\P\H0.4375x;\T0.95;via del Commercio, 5  47100 Forli - Italy  \fTimes New Roman|b0|i0|c0|p18;\P\fTimes New Roman|b0|i0|c238|p18;tel.+39-0543721386  fax +39-0543721127\fTimes New Roman|b0|i0|c0|p18
  1
; \fTimes New Roman|b0|i0|c238|p18;www.bovelacci.it\fTimes New Roman|b0|i0|c0|p18; \fTimes New Roman|b0|i0|c238|p18;e-mail: bovelacci@bovelacci\fTimes New Roman|b0|i0|c0|p18;.it}
 73
     1
 44
1.0
1001
ACAD
1000
ACAD_MTEXT_DEFINED_HEIGHT_BEGIN
1070
    46
1040
0.0271738284815141
1000
ACAD_MTEXT_DEFINED_HEIGHT_END
1000
MTEXTBEGIN
1070
    73
1070
     1
1070
    44
1040
1.0
1070
    74
1070
     0
1000
MTEXTEND
  0
MTEXT
  5
1C
330
2
100
AcDbEntity
  8
Text
100
AcDbMText
 10
0.0219676065851835
 20
0.0500313976452307
 30
0.0
 40
0.002
 41
0.1863544980601608
 71
     1
 72
     5
  3
{\fArial|b0|i0|c0|p34;\H1.25x;Le caratteristiche tecniche indicate vengono fornite a titolo indicativo e potranno essere modificate senza preavviso. Non devono quindi essere considerate a scopo di specifica.\P\fArial|b0|i1|c0|p34;The given values are
  3
 indicative and can be changed without notice. They cannot be considered like a state.\PThis lealfet and designs embodied within are protected by copyright law and international treaties. Unauthorized repro- duction of the leaflet or any portion of i
  1
t or reproduction of any of the designs embodied therein may result in severe civil penalties and will be prosecuted to the maximum.\PAll right reserved, Bovelacci Forlì Italy.}
 73
     1
 44
1.0
1001
ACAD
1000
MTEXTBEGIN
1070
    73
1070
     1
1070
    44
1040
1.0
1070
    74
1070
     0
1000
MTEXTEND
  0
LINE
  5
1D
330
2
100
AcDbEntity
  8
Table
100
AcDbLine
 10
0.02
 20
0.0528099428524846
 30
0.0
 11
0.4
 21
0.0528099428524846
 31
0.0
  0
MTEXT
  5
1E
330
2
100
AcDbEntity
  8
Text
100
AcDbMText
 10
0.1133313047219695
 20
0.2610796890771976
 30
0.0
 40
0.003
 41
0.1103605678262056
 71
     2
 72
     5
  1
{\fTimes New Roman|b0|i0|c0|p18;Rosoni\fTimes New Roman|b0|i1|c0|p18;   Ceiling centres}
 73
     1
 44
1.0
1001
ACAD
1000
ACAD_MTEXT_DEFINED_HEIGHT_BEGIN
1070
    46
1040
0.0141952763113409
1000
ACAD_MTEXT_DEFINED_HEIGHT_END
1000
MTEXTBEGIN
1070
    73
1070
     1
1070
    44
1040
1.0
1070
    74
1070
     0
1000
MTEXTEND
  0
TEXT
  5
1F
330
2
100
AcDbEntity
  8
Text
100
AcDbText
 10
0.2180556919891047
 20
0.269976982173197
 30
0.0
 40
0.003
  1
Rosone - Ceiling centre : D 510 mm
  7
ROMANS
100
AcDbText
  0
TEXT
  5
21
330
2
100
AcDbEntity
  8
Text
100
AcDbText
 10
0.2184542410678115
 20
0.2576348370183962
 30
0.0
 40
0.003
  1
File : E - R51
  7
ROMANS
100
AcDbText
  0
LINE
  5
22
330
2
100
AcDbEntity
  8
Table
100
AcDbLine
 10
0.4
 20
0.2654452889427402
 30
0.0
 11
0.02
 21
0.2654452889427403
 31
0.0
  0
LINE
  5
23
330
2
100
AcDbEntity
  8
Table
100
AcDbLine
 10
0.4
 20
0.2532994226089223
 30
0.0
 11
0.02
 21
0.2532994226089225
 31
0.0
  0
LINE
  5
24
330
2
100
AcDbEntity
  8
Table
100
AcDbLine
 10
0.21
 20
0.0528099428524846
 30
0.0
 11
0.21
 21
0.02
 31
0.0
  0
TEXT
  5
25
330
2
100
AcDbEntity
  8
Text
100
AcDbText
 10
0.0947789320547719
 20
0.2687784133392506
 30
0.0
 40
0.005
  1
EUROSTYL
  7
style1
 72
     1
 11
0.1140561490699125
 21
0.2687784133392506
 31
0.0
100
AcDbText
  0
TEXT
  5
23F
330
2
100
AcDbEntity
  8
Text
  6
ACAD_ISO10W100
100
AcDbText
 10
0.2867708647101614
 20
0.087418603731841
 30
0.0
 40
0.005
  1
scala 1 : 4
  7
style1
100
AcDbText
  0
CIRCLE
  5
22E1
330
2
100
AcDbEntity
  8
Profilo
  6
Continuous
370
     0
100
AcDbCircle
 10
0.2088753522010074
 20
0.1663580589507994
 30
0.0
 40
0.0115740562209003
  0
CIRCLE
  5
22E2
102
{ACAD_REACTORS
330
2424
102
}
330
2
100
AcDbEntity
  8
Profilo
  6
Continuous
370
     0
100
AcDbCircle
 10
0.2088753522010074
 20
0.1663580589507994
 30
0.0
 40
0.06375
  0
LWPOLYLINE
  5
22E3
330
2
100
AcDbEntity
  8
Profilo
  6
Continuous
370
     0
100
AcDbPolyline
 90
       10
 70
   128
 43
0.0
 10
0.2158216519358223
 20
0.176757659786009
 10
0.2168695365249298
 20
0.1779883500375126
 10
0.2181602344375553
 20
0.1790204120863092
 10
0.2195606493555275
 20
0.1795338646623497
 10
0.2215903897355438
 20
0.1792135343781618
 10
0.2222313617981739
 20
0.1781457622241793
 10
0.2222167120538123
 20
0.1762559630276701
 10
0.2214422938444351
 20
0.1749658858923018
 10
0.2199672093624394
 20
0.1739706831415864
 10
0.218971529960807
 20
0.1734546529684422
  0
LWPOLYLINE
  5
22E4
330
2
100
AcDbEntity
  8
Profilo
  6
Continuous
370
     0
100
AcDbPolyline
 90
        3
 70
   128
 43
0.0
 10
0.2166762804556668
 20
0.176116997515124
 10
0.2188128504097846
 20
0.1770779917727052
 10
0.2206289343325865
 20
0.1782525401205806
  0
LWPOLYLINE
  5
22E5
330
2
100
AcDbEntity
  8
Profilo
  6
Continuous
370
     0
100
AcDbPolyline
 90
        4
 70
   128
 43
0.0
 10
0.2184923643784695
 20
0.1744085630902574
 10
0.2191333337501109
 20
0.1757966655284278
 10
0.2199879622699554
 20
0.176757659786009
 10
0.2208425907898008
 20
0.1777186540435893
  0
LWPOLYLINE
  5
22E6
330
2
100
AcDbEntity
  8
Profilo
  6
Continuous
370
     0
100
AcDbPolyline
 90
       10
 70
   128
 43
0.0
 10
0.2113131414098466
 20
0.1786242711334924
 10
0.211810295764534
 20
0.1801622887389997
 10
0.2126077921014162
 20
0.1816097184495147
 10
0.2137051169869983
 20
0.1826200023629789
 10
0.2157029376730501
 20
0.1831008037852084
 10
0.2167037373554961
 20
0.1823596003357364
 10
0.2174133975995249
 20
0.18060804732307
 10
0.2171916196124557
 20
0.1791198144438908
 10
0.2162096668553572
 20
0.1776358765992076
 10
0.2154872552331084
 20
0.1767780968731294
  0
LWPOLYLINE
  5
22E7
330
2
100
AcDbEntity
  8
Profilo
  6
Continuous
370
     0
100
AcDbPolyline
 90
        3
 70
   128
 43
0.0
 10
0.2123478860440406
 20
0.1783594285495409
 10
0.2139540627134546
 20
0.1800649013985109
 10
0.2151824252858101
 20
0.1818450278060986
  0
LWPOLYLINE
  5
22E8
330
2
100
AcDbEntity
  8
Profilo
  6
Continuous
370
     0
100
AcDbPolyline
 90
        4
 70
   128
 43
0.0
 10
0.2146795183593189
 20
0.1774760261808097
 10
0.2147404930372319
 20
0.1790037539716456
 10
0.2151623102536422
 20
0.1802186490724569
 10
0.2155841274700534
 20
0.1814335441732673
  0
LWPOLYLINE
  5
22E9
330
2
100
AcDbEntity
  8
Profilo
  6
Continuous
370
     0
100
AcDbPolyline
 90
       10
 70
   128
 43
0.0
 10
0.2064334995754398
 20
0.1786234628696508
 10
0.2063042364519201
 20
0.1802346585908878
 10
0.2064871196250917
 20
0.1818770979106785
 10
0.2071142967117283
 20
0.1832304065939876
 10
0.2087760476146552
 20
0.1844391420645761
 10
0.2099843122375353
 20
0.1841373488257705
 10
0.2113102431308866
 20
0.1827907000652569
 10
0.2116748690542347
 20
0.1813308814072589
 10
0.2113355414278781
 20
0.179584124553531
 10
0.2109963782058233
 20
0.1785151844620214
  0
LWPOLYLINE
  5
22EA
330
2
100
AcDbEntity
  8
Profilo
  6
Continuous
370
     0
100
AcDbPolyline
 90
        3
 70
   128
 43
0.0
 10
0.2074908298334095
 20
0.178774759855236
 10
0.2083220873802296
 20
0.1809650685144886
 10
0.2087757215356318
 20
0.1830797648731195
  0
LWPOLYLINE
  5
22EB
330
2
100
AcDbEntity
  8
Profilo
  6
Continuous
370
     0
100
AcDbPolyline
 90
        4
 70
   128
 43
0.0
 10
0.209983040657463
 20
0.1788508795452175
 10
0.2094547377996725
 20
0.1802856499814502
 10
0.2093795258652329
 20
0.1815694891594439
 10
0.2093043139307942
 20
0.1828533283374385
  0
LWPOLYLINE
  5
22EC
330
2
100
AcDbEntity
  8
Profilo
  6
Continuous
370
     0
100
AcDbPolyline
 90
       10
 70
   128
 43
0.0
 10
0.201925607667826
 20
0.1767553580453274
 10
0.2011896062048835
 20
0.1781944419392623
 10
0.2007300339090681
 20
0.1797818443706391
 10
0.200791581170694
 20
0.1812721488445337
 10
0.2018642757793336
 20
0.1830247993452978
 10
0.2030960580067602
 20
0.1832083616020037
 10
0.2048363985905159
 20
0.1824716321600313
 10
0.2057319174327934
 20
0.1812624718806048
 10
0.206086874492279
 20
0.1795188239144207
 10
0.2061825941964535
 20
0.178401459896447
  0
LWPOLYLINE
  5
22ED
330
2
100
AcDbEntity
  8
Profilo
  6
Continuous
370
     0
100
AcDbPolyline
 90
        3
 70
   128
 43
0.0
 10
0.2028445546025197
 20
0.1772997610059039
 10
0.2027743416006102
 20
0.1796414508372661
 10
0.2023841856511033
 20
0.1817687737961096
  0
LWPOLYLINE
  5
22EE
330
2
100
AcDbEntity
  8
Profilo
  6
Continuous
370
     0
100
AcDbPolyline
 90
        4
 70
   128
 43
0.0
 10
0.2051179274293324
 20
0.1783238142218246
 10
0.2040807763568586
 20
0.1794471965107653
 10
0.2035199856067904
 20
0.1806045268891239
 10
0.2029591948567222
 20
0.1817618572674833
  0
LWPOLYLINE
  5
22EF
330
2
100
AcDbEntity
  8
Profilo
  6
Continuous
370
     0
100
AcDbPolyline
 90
       10
 70
   128
 43
0.0
 10
0.1984757513657987
 20
0.1733043586856133
 10
0.1972450611142951
 20
0.1743522432747218
 10
0.1962129990654984
 20
0.1756429411873472
 10
0.1956995464894571
 20
0.1770433561053195
 10
0.1960198767736459
 20
0.1790730964853349
 10
0.1970876489276274
 20
0.1797140685479659
 10
0.1989774481241366
 20
0.1796994188036043
 10
0.2002675252595059
 20
0.1789250005942271
 10
0.2012627280102204
 20
0.1774499161122314
 10
0.2017787581833645
 20
0.176454236710599
  0
LWPOLYLINE
  5
22F0
330
2
100
AcDbEntity
  8
Profilo
  6
Continuous
370
     0
100
AcDbPolyline
 90
        3
 70
   128
 43
0.0
 10
0.1991164136366828
 20
0.1741589872054587
 10
0.1981554193791024
 20
0.1762955571595766
 10
0.1969808710312271
 20
0.1781116410823784
  0
LWPOLYLINE
  5
22F1
330
2
100
AcDbEntity
  8
Profilo
  6
Continuous
370
     0
100
AcDbPolyline
 90
        4
 70
   128
 43
0.0
 10
0.2008248480615493
 20
0.1759750711282606
 10
0.199436745623379
 20
0.1766160404999029
 10
0.1984757513657987
 20
0.1774706690197474
 10
0.1975147571082174
 20
0.1783252975395919
  0
LWPOLYLINE
  5
22F2
330
2
100
AcDbEntity
  8
Profilo
  6
Continuous
370
     0
100
AcDbPolyline
 90
       10
 70
   128
 43
0.0
 10
0.1966091400183152
 20
0.1687958481596377
 10
0.1950711224128079
 20
0.1692930025143251
 10
0.1936236927022921
 20
0.1700904988512082
 10
0.1926134087888287
 20
0.1711878237367903
 10
0.1921326073665992
 20
0.1731856444228421
 10
0.1928738108160712
 20
0.1741864441052872
 10
0.1946253638287376
 20
0.174896104349316
 10
0.196113596707916
 20
0.1746743263622468
 10
0.1975975345525991
 20
0.1736923736051492
 10
0.1984553142786774
 20
0.1729699619829004
  0
LWPOLYLINE
  5
22F3
330
2
100
AcDbEntity
  8
Profilo
  6
Continuous
370
     0
100
AcDbPolyline
 90
        3
 70
   128
 43
0.0
 10
0.1968739826022659
 20
0.1698305927938317
 10
0.1951685097532967
 20
0.1714367694632457
 10
0.1933883833457082
 20
0.1726651320356021
  0
LWPOLYLINE
  5
22F4
330
2
100
AcDbEntity
  8
Profilo
  6
Continuous
370
     0
100
AcDbPolyline
 90
        4
 70
   128
 43
0.0
 10
0.197757384970997
 20
0.1721622251091108
 10
0.1962296571801621
 20
0.1722231997870238
 10
0.1950147620793508
 20
0.1726450170034341
 10
0.1937998669785395
 20
0.1730668342198454
  0
LWPOLYLINE
  5
22F5
330
2
100
AcDbEntity
  8
Profilo
  6
Continuous
370
     0
100
AcDbPolyline
 90
       10
 70
   128
 43
0.0
 10
0.1966099482821559
 20
0.1639162063252308
 10
0.1949987525609189
 20
0.163786943201712
 10
0.1933563132411282
 20
0.1639698263748828
 10
0.1920030045578192
 20
0.1645970034615203
 10
0.1907942690872315
 20
0.1662587543644463
 10
0.1910960623260372
 20
0.1674670189873264
 10
0.1924427110865499
 20
0.1687929498806786
 10
0.1939025297445478
 20
0.1691575758040267
 10
0.1956492865982757
 20
0.1688182481776701
 10
0.1967182266897853
 20
0.1684790849556152
  0
LWPOLYLINE
  5
22F6
330
2
100
AcDbEntity
  8
Profilo
  6
Continuous
370
     0
100
AcDbPolyline
 90
        3
 70
   128
 43
0.0
 10
0.1964586512965716
 20
0.1649735365832015
 10
0.1942683426373191
 20
0.1658047941300207
 10
0.1921536462786873
 20
0.1662584282854238
  0
LWPOLYLINE
  5
22F7
330
2
100
AcDbEntity
  8
Profilo
  6
Continuous
370
     0
100
AcDbPolyline
 90
        4
 70
   128
 43
0.0
 10
0.1963825316065901
 20
0.1674657474072549
 10
0.1949477611703574
 20
0.1669374445494636
 10
0.1936639219923628
 20
0.166862232615024
 10
0.1923800828143683
 20
0.1667870206805853
  0
LWPOLYLINE
  5
22F8
330
2
100
AcDbEntity
  8
Profilo
  6
Continuous
370
     0
100
AcDbPolyline
 90
       10
 70
   128
 43
0.0
 10
0.1984780531064794
 20
0.159408314417617
 10
0.1970389692125454
 20
0.1586723129546745
 10
0.1954515667811676
 20
0.1582127406588591
 10
0.193961262307274
 20
0.158274287920485
 10
0.1922086118065089
 20
0.1593469825291247
 10
0.192025049549803
 20
0.1605787647565522
 10
0.1927617789917764
 20
0.162319105340307
 10
0.1939709392712028
 20
0.1632146241825854
 10
0.195714587237386
 20
0.163569581242071
 10
0.1968319512553607
 20
0.1636653009462454
  0
LWPOLYLINE
  5
22F9
330
2
100
AcDbEntity
  8
Profilo
  6
Continuous
370
     0
100
AcDbPolyline
 90
        3
 70
   128
 43
0.0
 10
0.1979336501459028
 20
0.1603272613523108
 10
0.1955919603145415
 20
0.1602570483504013
 10
0.1934646373556981
 20
0.1598668924008952
  0
LWPOLYLINE
  5
22FA
330
2
100
AcDbEntity
  8
Profilo
  6
Continuous
370
     0
100
AcDbPolyline
 90
        4
 70
   128
 43
0.0
 10
0.1969095969299821
 20
0.1626006341791244
 10
0.1957862146410423
 20
0.1615634831066506
 10
0.1946288842626838
 20
0.1610026923565815
 10
0.1934715538843244
 20
0.1604419016065133
  0
LWPOLYLINE
  5
22FB
330
2
100
AcDbEntity
  8
Profilo
  6
Continuous
370
     0
100
AcDbPolyline
 90
       10
 70
   128
 43
0.0
 10
0.2019290524661934
 20
0.1559584581155897
 10
0.200881167877085
 20
0.1547277678640861
 10
0.1995904699644595
 20
0.1536957058152895
 10
0.1981900550464872
 20
0.153182253239249
 10
0.1961603146664719
 20
0.1535025835234369
 10
0.1955193426038409
 20
0.1545703556774194
 10
0.1955339923482025
 20
0.1564601548739286
 10
0.1963084105575805
 20
0.1577502320092969
 10
0.1977834950395754
 20
0.1587454347600123
 10
0.1987791744412086
 20
0.1592614649331565
  0
LWPOLYLINE
  5
22FC
330
2
100
AcDbEntity
  8
Profilo
  6
Continuous
370
     0
100
AcDbPolyline
 90
        3
 70
   128
 43
0.0
 10
0.201074423946348
 20
0.1565991203864747
 10
0.1989378539922311
 20
0.1556381261288935
 10
0.1971217700694292
 20
0.1544635777810182
  0
LWPOLYLINE
  5
22FD
330
2
100
AcDbEntity
  8
Profilo
  6
Continuous
370
     0
100
AcDbPolyline
 90
        4
 70
   128
 43
0.0
 10
0.1992583400235461
 20
0.1583075548113413
 10
0.1986173706519048
 20
0.1569194523731709
 10
0.1977627421320602
 20
0.1559584581155897
 10
0.1969081136122148
 20
0.1549974638580094
  0
LWPOLYLINE
  5
22FE
330
2
100
AcDbEntity
  8
Profilo
  6
Continuous
370
     0
100
AcDbPolyline
 90
       10
 70
   128
 43
0.0
 10
0.2064375629921691
 20
0.1540918467681063
 10
0.2059404086374816
 20
0.152553829162599
 10
0.2051429123005994
 20
0.151106399452084
 10
0.2040455874150173
 20
0.1500961155386198
 10
0.2020477667289655
 20
0.1496153141163912
 10
0.2010469670465196
 20
0.1503565175658623
 10
0.2003373068024907
 20
0.1521080705785287
 10
0.20055908478956
 20
0.1535963034577079
 10
0.2015410375466584
 20
0.1550802413023911
 10
0.2022634491689064
 20
0.1559380210284693
  0
LWPOLYLINE
  5
22FF
330
2
100
AcDbEntity
  8
Profilo
  6
Continuous
370
     0
100
AcDbPolyline
 90
        3
 70
   128
 43
0.0
 10
0.205402818357975
 20
0.1543566893520578
 10
0.203796641688561
 20
0.1526512165030887
 10
0.2025682791162056
 20
0.1508710900955001
  0
LWPOLYLINE
  5
2300
330
2
100
AcDbEntity
  8
Profilo
  6
Continuous
370
     0
100
AcDbPolyline
 90
        4
 70
   128
 43
0.0
 10
0.2030711860426968
 20
0.155240091720789
 10
0.2030102113647838
 20
0.1537123639299531
 10
0.2025883941483735
 20
0.1524974688291427
 10
0.2021665769319623
 20
0.1512825737283314
  0
LWPOLYLINE
  5
2301
330
2
100
AcDbEntity
  8
Profilo
  6
Continuous
370
     0
100
AcDbPolyline
 90
       10
 70
   128
 43
0.0
 10
0.2113172048265759
 20
0.1540926550319479
 10
0.2114464679500956
 20
0.1524814593107109
 10
0.211263584776924
 20
0.1508390199909202
 10
0.2106364076902873
 20
0.1494857113076111
 10
0.2089746567873605
 20
0.1482769758370226
 10
0.2077663921644803
 20
0.1485787690758282
 10
0.206440461271129
 20
0.1499254178363418
 10
0.206075835347781
 20
0.1513852364943398
 10
0.2064151629741366
 20
0.1531319933480677
 10
0.2067543261961924
 20
0.1542009334395773
  0
LWPOLYLINE
  5
2302
330
2
100
AcDbEntity
  8
Profilo
  6
Continuous
370
     0
100
AcDbPolyline
 90
        3
 70
   128
 43
0.0
 10
0.2102598745686053
 20
0.1539413580463627
 10
0.2094286170217861
 20
0.1517510493871101
 10
0.2089749828663829
 20
0.1496363530284792
  0
LWPOLYLINE
  5
2303
330
2
100
AcDbEntity
  8
Profilo
  6
Continuous
370
     0
100
AcDbPolyline
 90
        4
 70
   128
 43
0.0
 10
0.2077676637445527
 20
0.1538652383563812
 10
0.2082959666023432
 20
0.1524304679201485
 10
0.2083711785367828
 20
0.1511466287421548
 10
0.2084463904712215
 20
0.1498627895641602
  0
LWPOLYLINE
  5
2304
330
2
100
AcDbEntity
  8
Profilo
  6
Continuous
370
     0
100
AcDbPolyline
 90
       10
 70
   128
 43
0.0
 10
0.2158250967341897
 20
0.1559607598562704
 10
0.2165610981971322
 20
0.1545216759623365
 10
0.2170206704929476
 20
0.1529342735309596
 10
0.2169591232313217
 20
0.151443969057065
 10
0.215886428622682
 20
0.1496913185563009
 10
0.2146546463952554
 20
0.149507756299595
 10
0.2129143058114997
 20
0.1502444857415675
 10
0.2120187869692223
 20
0.1514536460209939
 10
0.2116638299097366
 20
0.153197293987178
 10
0.2115681102055622
 20
0.1543146580051518
  0
LWPOLYLINE
  5
2305
330
2
100
AcDbEntity
  8
Profilo
  6
Continuous
370
     0
100
AcDbPolyline
 90
        3
 70
   128
 43
0.0
 10
0.214906149799496
 20
0.1554163568956948
 10
0.2149763628014054
 20
0.1530746670643326
 10
0.2153665187509115
 20
0.1509473441054892
  0
LWPOLYLINE
  5
2306
330
2
100
AcDbEntity
  8
Profilo
  6
Continuous
370
     0
100
AcDbPolyline
 90
        4
 70
   128
 43
0.0
 10
0.2126327769726832
 20
0.1543923036797741
 10
0.213669928045157
 20
0.1532689213908334
 10
0.2142307187952253
 20
0.1521115910124748
 10
0.2147915095452935
 20
0.1509542606341154
  0
LWPOLYLINE
  5
2307
330
2
100
AcDbEntity
  8
Profilo
  6
Continuous
370
     0
100
AcDbPolyline
 90
       10
 70
   128
 43
0.0
 10
0.219274953036217
 20
0.1594117592159854
 10
0.2205056432877206
 20
0.1583638746268769
 10
0.2215377053365173
 20
0.1570731767142515
 10
0.2220511579125586
 20
0.1556727617962792
 10
0.2217308276283698
 20
0.1536430214162638
 10
0.2206630554743874
 20
0.1530020493536328
 10
0.218773256277879
 20
0.1530166990979944
 10
0.2174831791425098
 20
0.1537911173073716
 10
0.2164879763917953
 20
0.1552662017893673
 10
0.2159719462186502
 20
0.1562618811909997
  0
LWPOLYLINE
  5
2308
330
2
100
AcDbEntity
  8
Profilo
  6
Continuous
370
     0
100
AcDbPolyline
 90
        3
 70
   128
 43
0.0
 10
0.2186342907653329
 20
0.15855713069614
 10
0.2195952850229133
 20
0.1564205607420221
 10
0.2207698333707886
 20
0.1546044768192203
  0
LWPOLYLINE
  5
2309
330
2
100
AcDbEntity
  8
Profilo
  6
Continuous
370
     0
100
AcDbPolyline
 90
        4
 70
   128
 43
0.0
 10
0.2169258563404663
 20
0.1567410467733381
 10
0.2183139587786367
 20
0.1561000774016958
 10
0.219274953036217
 20
0.1552454488818513
 10
0.2202359472937982
 20
0.1543908203620068
  0
LWPOLYLINE
  5
230A
330
2
100
AcDbEntity
  8
Profilo
  6
Continuous
370
     0
100
AcDbPolyline
 90
       10
 70
   128
 43
0.0
 10
0.2211415643837005
 20
0.163920269741961
 10
0.2226795819892078
 20
0.1634231153872736
 10
0.2241270116997236
 20
0.1626256190503905
 10
0.225137295613187
 20
0.1615282941648084
 10
0.2256180970354165
 20
0.1595304734787566
 10
0.2248768935859444
 20
0.1585296737963107
 10
0.223125340573278
 20
0.1578200135522827
 10
0.2216371076940997
 20
0.1580417915393519
 10
0.2201531698494166
 20
0.1590237442964495
 10
0.2192953901233383
 20
0.1597461559186983
  0
LWPOLYLINE
  5
230B
330
2
100
AcDbEntity
  8
Profilo
  6
Continuous
370
     0
100
AcDbPolyline
 90
        3
 70
   128
 43
0.0
 10
0.2208767217997498
 20
0.162885525107767
 10
0.222582194648719
 20
0.161279348438353
 10
0.2243623210563075
 20
0.1600509858659966
  0
LWPOLYLINE
  5
230C
330
2
100
AcDbEntity
  8
Profilo
  6
Continuous
370
     0
100
AcDbPolyline
 90
        4
 70
   128
 43
0.0
 10
0.2199933194310186
 20
0.1605538927924879
 10
0.2215210472218536
 20
0.1604929181145749
 10
0.2227359423226649
 20
0.1600711008981646
 10
0.2239508374234762
 20
0.1596492836817533
  0
LWPOLYLINE
  5
230D
330
2
100
AcDbEntity
  8
Profilo
  6
Continuous
370
     0
100
AcDbPolyline
 90
       10
 70
   128
 43
0.0
 10
0.2211407561198597
 20
0.1687999115763679
 10
0.2227519518410967
 20
0.1689291746998867
 10
0.2243943911608874
 20
0.1687462915267159
 10
0.2257476998441956
 20
0.1681191144400784
 10
0.2269564353147841
 20
0.1664573635371525
 10
0.2266546420759785
 20
0.1652490989142723
 10
0.2253079933154658
 20
0.163923168020921
 10
0.223848174657467
 20
0.163558542097572
 10
0.222101417803739
 20
0.1638978697239286
 10
0.2210324777122294
 20
0.1642370329459835
  0
LWPOLYLINE
  5
230E
330
2
100
AcDbEntity
  8
Profilo
  6
Continuous
370
     0
100
AcDbPolyline
 90
        3
 70
   128
 43
0.0
 10
0.2212920531054441
 20
0.1677425813183972
 10
0.2234823617646966
 20
0.166911323771578
 10
0.2255970581233284
 20
0.1664576896161749
  0
LWPOLYLINE
  5
230F
330
2
100
AcDbEntity
  8
Profilo
  6
Continuous
370
     0
100
AcDbPolyline
 90
        4
 70
   128
 43
0.0
 10
0.2213681727954255
 20
0.1652503704943438
 10
0.2228029432316583
 20
0.1657786733521351
 10
0.2240867824096528
 20
0.1658538852865747
 10
0.2253706215876465
 20
0.1659290972210134
  0
LWPOLYLINE
  5
2310
330
2
100
AcDbEntity
  8
Profilo
  6
Continuous
370
     0
100
AcDbPolyline
 90
       10
 70
   128
 43
0.0
 10
0.2192726512955363
 20
0.1733078034839817
 10
0.2207117351894703
 20
0.1740438049469242
 10
0.2222991376208481
 20
0.1745033772427396
 10
0.2237894420947417
 20
0.1744418299811137
 10
0.2255420925955067
 20
0.173369135372474
 10
0.2257256548522126
 20
0.1721373531450465
 10
0.2249889254102393
 20
0.1703970125612917
 10
0.2237797651308129
 20
0.1695014937190133
 10
0.2220361171646297
 20
0.1691465366595277
 10
0.220918753146655
 20
0.1690508169553533
  0
LWPOLYLINE
  5
2311
330
2
100
AcDbEntity
  8
Profilo
  6
Continuous
370
     0
100
AcDbPolyline
 90
        3
 70
   128
 43
0.0
 10
0.2198170542561129
 20
0.1723888565492879
 10
0.2221587440874742
 20
0.1724590695511974
 10
0.2242860670463176
 20
0.1728492255007035
  0
LWPOLYLINE
  5
2312
330
2
100
AcDbEntity
  8
Profilo
  6
Continuous
370
     0
100
AcDbPolyline
 90
        4
 70
   128
 43
0.0
 10
0.2208411074720336
 20
0.1701154837224743
 10
0.2219644897609734
 20
0.1711526347949481
 10
0.2231218201393319
 20
0.1717134255450172
 10
0.2242791505176913
 20
0.1722742162950854
  0
LWPOLYLINE
  5
2313
330
2
100
AcDbEntity
  8
Profilo
  6
Continuous
370
     0
100
AcDbPolyline
 90
       24
 70
   129
 43
0.0
 10
0.2025621397897148
 20
0.1846157676031532
 10
0.2005665319147476
 20
0.1890206188671966
 10
0.1991529742062794
 20
0.1929268089446559
 10
0.1981551689233005
 20
0.1982458746541142
 10
0.1982383204847937
 20
0.2038973822896339
 10
0.1988203733422824
 20
0.2085515658494781
 10
0.1998194864459362
 20
0.2112299412114369
 10
0.200817291728915
 20
0.212393487952651
 10
0.2018982458823983
 20
0.2125597072131737
 10
0.2028128996038832
 20
0.2123103766198822
 10
0.2043096088738454
 20
0.2113130525442057
 10
0.2062220651873194
 20
0.2084041882449312
 10
0.2073030220317915
 20
0.2059939851322399
 10
0.2083839761852748
 20
0.2024202386833493
 10
0.2094649303387572
 20
0.1979322760865363
 10
0.2093817814682528
 20
0.1958545148999071
 10
0.2091323294747611
 20
0.1920314361552167
 10
0.2092154810362552
 20
0.1885407993365884
 10
0.208799728610765
 20
0.1858812656306046
 10
0.2085502766172724
 20
0.1854657140742819
 10
0.2070535700382989
 20
0.185631935037313
 10
0.2054737118978331
 20
0.1854657140742819
 10
0.2043927577443498
 20
0.1851332721482206
 10
0.2030623515973748
 20
0.1847177205918979
  0
LWPOLYLINE
  5
2314
330
2
100
AcDbEntity
  8
Profilo
  6
Continuous
370
     0
100
AcDbPolyline
 90
        5
 70
   128
 43
0.0
 10
0.2042264573123513
 20
0.1855488254070516
 10
0.2040601568803537
 20
0.1898705653383252
 10
0.2033949524613718
 20
0.1950234117872618
 10
0.2025634503013802
 20
0.2022540177203191
 10
0.2019813974438915
 20
0.2079055253558388
  0
LWPOLYLINE
  5
2315
330
2
100
AcDbEntity
  8
Profilo
  6
Continuous
370
     0
100
AcDbPolyline
 90
        6
 70
   128
 43
0.0
 10
0.2067209691743037
 20
0.1859643769633743
 10
0.2057231638913248
 20
0.1897874557080639
 10
0.2048916590403444
 20
0.1939429763788156
 10
0.2040601568803537
 20
0.1989296001622127
 10
0.2033949524613718
 20
0.2030020112027031
 10
0.2023139983078876
 20
0.208570407505454
  0
LWPOLYLINE
  5
2316
330
2
100
AcDbEntity
  8
Profilo
  6
Continuous
370
     0
100
AcDbPolyline
 90
        9
 70
   128
 43
0.0
 10
0.2065546687423052
 20
0.2084041882449312
 10
0.2078019233277861
 20
0.2107312783223445
 10
0.2089660290427626
 20
0.2123103766198822
 10
0.2099638343257406
 20
0.2128921491392359
 10
0.2109616396087195
 20
0.2128090395089746
 10
0.212125745323696
 20
0.2122272669896208
 10
0.2127909470516891
 20
0.2112299412114369
 10
0.2135393003411754
 20
0.2096508429138992
 10
0.2140382043281597
 20
0.2077393043928077
  0
LWPOLYLINE
  5
2317
330
2
100
AcDbEntity
  8
Profilo
  6
Continuous
370
     0
100
AcDbPolyline
 90
        6
 70
   128
 43
0.0
 10
0.2043927577443498
 20
0.2115623831374982
 10
0.2049748106018376
 20
0.2126428185459435
 10
0.2056400150208195
 20
0.2128921491392359
 10
0.2065546687423052
 20
0.2129752604720048
 10
0.2073861709022959
 20
0.2128090395089746
 10
0.2080513753212778
 20
0.212144155656852
  0
LWPOLYLINE
  5
2318
330
2
100
AcDbEntity
  8
Profilo
  6
Continuous
370
     0
100
AcDbPolyline
 90
        6
 70
   128
 43
0.0
 10
0.2127909470516891
 20
0.2115623831374982
 10
0.213788752334668
 20
0.2123103766198822
 10
0.2146202544946587
 20
0.212393487952651
 10
0.2153686104751347
 20
0.2122272669896208
 10
0.216116963764621
 20
0.2117286041005284
 10
0.2166158650606156
 20
0.2112299412114369
  0
LWPOLYLINE
  5
2319
330
2
100
AcDbEntity
  8
Profilo
  6
Continuous
370
     0
100
AcDbPolyline
 90
       24
 70
   129
 43
0.0
 10
0.1960557818556139
 20
0.1808100204904599
 10
0.1925264169842307
 20
0.1841158863458181
 10
0.1897256257230411
 20
0.1871837902927591
 10
0.1867682555219941
 20
0.1917161226832886
 10
0.1846823392077561
 20
0.1969692556405354
 10
0.1834390069900915
 20
0.2014919025573467
 10
0.1833370972605448
 20
0.2043487427664699
 10
0.1838136790782747
 20
0.2058055633363212
 10
0.1847487411391184
 20
0.2063727931547115
 10
0.1856891856789686
 20
0.2064924645483035
 10
0.1874536241400668
 20
0.2061438230881876
 10
0.1903336775592384
 20
0.2041882482455228
 10
0.1922546962632352
 20
0.2023751751959935
 10
0.1946209812386859
 20
0.1994871272431629
 10
0.1973371215875459
 20
0.1957544537029754
 10
0.1980554268304702
 20
0.1938030329740401
 10
0.1992879921355581
 20
0.1901755076255618
 10
0.2007006230402122
 20
0.18698240043836
 10
0.201334277370806
 20
0.1843662101161774
 10
0.2012628384755728
 20
0.1838868293935076
 10
0.199816451892421
 20
0.1834676327282414
 10
0.198420463300836
 20
0.1827094790467789
 10
0.1975490119001768
 20
0.1819886795098584
 10
0.1964789015869584
 20
0.1810956355415045
  0
LWPOLYLINE
  5
231A
330
2
100
AcDbEntity
  8
Profilo
  6
Continuous
370
     0
100
AcDbPolyline
 90
        5
 70
   128
 43
0.0
 10
0.1972363449873869
 20
0.182308960240239
 10
0.195428845151326
 20
0.1862380868874591
 10
0.1928423674381636
 20
0.1907441335455242
 10
0.1893071265147674
 20
0.1971061402741261
 10
0.186606641452896
 20
0.2021047105210927
  0
LWPOLYLINE
  5
231B
330
2
100
AcDbEntity
  8
Profilo
  6
Continuous
370
     0
100
AcDbPolyline
 90
        6
 70
   128
 43
0.0
 10
0.1993819487443518
 20
0.183647488179236
 10
0.1969970679697561
 20
0.1867977088321122
 10
0.194638608743205
 20
0.190318706196346
 10
0.1919621026110065
 20
0.1946075437455554
 10
0.1897890896283969
 20
0.1981153982435575
 10
0.1866594852005048
 20
0.2028462623708955
  0
LWPOLYLINE
  5
231C
330
2
100
AcDbEntity
  8
Profilo
  6
Continuous
370
     0
100
AcDbPolyline
 90
        9
 70
   128
 43
0.0
 10
0.1906409631761297
 20
0.2043155301155612
 10
0.1909027373412395
 20
0.2069427846741989
 10
0.1913739360284423
 20
0.2088471652417609
 10
0.1920731532022555
 20
0.2097664965154908
 10
0.1930268097592021
 20
0.2100715567796596
 10
0.1943249379075103
 20
0.2099795530270947
 10
0.1953211642209758
 20
0.2093127058338682
 10
0.1966168472647634
 20
0.2081401916423917
 10
0.1978092885693754
 20
0.2065650826173087
  0
LWPOLYLINE
  5
231D
330
2
100
AcDbEntity
  8
Profilo
  6
Continuous
370
     0
100
AcDbPolyline
 90
        6
 70
   128
 43
0.0
 10
0.1874350289924425
 20
0.2064059942153207
 10
0.187559310983763
 20
0.2076269283607057
 10
0.1880784650441618
 20
0.2081118425029576
 10
0.188891689566685
 20
0.2085386501877859
 10
0.1897235074022032
 20
0.2087032841427721
 10
0.1905925161844908
 20
0.2083435742705786
  0
LWPOLYLINE
  5
231E
330
2
100
AcDbEntity
  8
Profilo
  6
Continuous
370
     0
100
AcDbPolyline
 90
        6
 70
   128
 43
0.0
 10
0.1951939442036488
 20
0.2096198421251045
 10
0.1958295513687989
 20
0.2106927415444539
 10
0.1965659538655609
 20
0.2110877285043233
 10
0.1973209546476187
 20
0.2112205437939447
 10
0.1982031729608535
 20
0.2110462217625322
 10
0.1988549276829565
 20
0.2107764385860393
  0
LWPOLYLINE
  5
231F
330
2
100
AcDbEntity
  8
Profilo
  6
Continuous
370
     0
100
AcDbPolyline
 90
       24
 70
   129
 43
0.0
 10
0.1915010872969041
 20
0.1748040932407109
 10
0.1869752792370014
 20
0.1765076855786549
 10
0.18321364950337
 20
0.1782702428297742
 10
0.1787469471887371
 20
0.1813258353806109
 10
0.1748095248487318
 20
0.1853808517866129
 10
0.1719300936152188
 20
0.1890834300652038
 10
0.170742675884981
 20
0.1916838070969742
 10
0.1706254789759378
 20
0.1932121137698128
 10
0.1712722942217382
 20
0.1940939985481715
 10
0.1720953554239117
 20
0.1945644530437975
 10
0.1738589033151183
 20
0.1949175717011007
 10
0.1772680918146681
 20
0.1942130048575128
 10
0.179736714694585
 20
0.1932730858073881
 10
0.1830280850549157
 20
0.1915104154712164
 10
0.1869659038529137
 20
0.1891012966973775
 10
0.1883763077474838
 20
0.1875733025424437
 10
0.190903243456686
 20
0.1846935884408845
 10
0.1934302934547962
 20
0.1822841325087718
 10
0.1950168864137321
 20
0.1801095768311176
 10
0.1951343365409621
 20
0.1796393483115304
 10
0.1939584691993894
 20
0.1786985529102265
 10
0.1929588767650867
 20
0.177463888535655
 10
0.1924295986932756
 20
0.1764644665833071
 10
0.1917826988084257
 20
0.1752298880516407
  0
LWPOLYLINE
  5
2320
330
2
100
AcDbEntity
  8
Profilo
  6
Continuous
370
     0
100
AcDbPolyline
 90
        5
 70
   128
 43
0.0
 10
0.1920181660028324
 20
0.1766407149473907
 10
0.1888446422277235
 20
0.1795790543961384
 10
0.1847306590057305
 20
0.1827522965070567
 10
0.1790298877024763
 20
0.1872771461785081
 10
0.1746220948069346
 20
0.1908617920289728
  0
LWPOLYLINE
  5
2321
330
2
100
AcDbEntity
  8
Profilo
  6
Continuous
370
     0
100
AcDbPolyline
 90
        6
 70
   128
 43
0.0
 10
0.1934882129327602
 20
0.178698440524135
 10
0.1900793331454822
 20
0.1806962105476175
 10
0.1865529735811147
 20
0.1830466446745491
 10
0.1824389372727473
 20
0.1859847593511146
 10
0.1790889372547011
 20
0.188394018258087
 10
0.1743871364566121
 20
0.1915671190320161
  0
LWPOLYLINE
  5
2322
330
2
100
AcDbEntity
  8
Profilo
  6
Continuous
370
     0
100
AcDbPolyline
 90
        9
 70
   128
 43
0.0
 10
0.177503278043845
 20
0.1944481910866898
 10
0.1767397190449329
 20
0.1969756344361204
 10
0.1764462749756626
 20
0.1989153725955475
 10
0.1767404545640177
 20
0.2000323027709887
 10
0.1775047768290547
 20
0.2006790902697462
 10
0.1787392991676753
 20
0.2010908620212815
 10
0.1799148836412026
 20
0.2008560148531966
 10
0.1815606404412704
 20
0.2002685894245662
 10
0.1832650806843907
 20
0.199269705966161
  0
LWPOLYLINE
  5
2323
330
2
100
AcDbEntity
  8
Profilo
  6
Continuous
370
     0
100
AcDbPolyline
 90
        6
 70
   128
 43
0.0
 10
0.1737413950920259
 20
0.1951526701845567
 10
0.1733889854106185
 20
0.196328226911042
 10
0.1736830526128821
 20
0.1969749008198531
 10
0.1742710418747877
 20
0.1976804272557471
 10
0.1749765386608222
 20
0.1981508521015136
 10
0.1759170530968972
 20
0.1981510787765142
  0
LWPOLYLINE
  5
2324
330
2
100
AcDbEntity
  8
Profilo
  6
Continuous
370
     0
100
AcDbPolyline
 90
        6
 70
   128
 43
0.0
 10
0.1796798117009337
 20
0.2010910867934645
 10
0.1798564553191544
 20
0.2023255529390402
 10
0.1803856475480612
 20
0.2029722823419353
 10
0.1810323511067309
 20
0.2033839139603371
 10
0.1819141247028537
 20
0.2035604717356534
 10
0.1826195091027967
 20
0.2035606403147907
  0
LWPOLYLINE
  5
2325
330
2
100
AcDbEntity
  8
Profilo
  6
Continuous
370
     0
100
AcDbPolyline
 90
       24
 70
   129
 43
0.0
 10
0.1895914670717409
 20
0.167512333833814
 10
0.184758229073887
 20
0.1673542961639949
 10
0.1806084348955008
 20
0.1675431733554304
 10
0.1753124154039276
 20
0.1686568397997259
 10
0.170122923896598
 20
0.1708964001654845
 10
0.1660457609504298
 20
0.1732152258268955
 10
0.1639536088049609
 20
0.1751632558507017
 10
0.1632604753361542
 20
0.1765303777897225
 10
0.1635205720091322
 20
0.1775926585648511
 10
0.1641009462666667
 20
0.1783422737302318
 10
0.1655951194081466
 20
0.1793433933904092
 10
0.1690144249433882
 20
0.1799970984609194
 10
0.1716548265438802
 20
0.180073427565193
 10
0.1753702009880791
 20
0.1797044854257155
 10
0.1799302010196349
 20
0.1789856879128269
 10
0.1818179823582464
 20
0.1781137435906819
 10
0.1852545854165641
 20
0.1764202511033301
 10
0.1885113340536848
 20
0.1751612642501985
 10
0.190809321245466
 20
0.1737593996065996
 10
0.191097779677976
 20
0.1733699113195699
 10
0.1903714467214726
 20
0.1720507447537451
 10
0.1899204293312473
 20
0.1705275361448331
 10
0.1898139023767995
 20
0.1694016447095199
 10
0.1896886975636254
 20
0.1680134850045041
  0
LWPOLYLINE
  5
2326
330
2
100
AcDbEntity
  8
Profilo
  6
Continuous
370
     0
100
AcDbPolyline
 90
        5
 70
   128
 43
0.0
 10
0.1893663408061772
 20
0.1694070284915694
 10
0.1853099333187154
 20
0.1709072451968872
 10
0.1802947612400891
 20
0.1722645854147833
 10
0.1732963503102787
 20
0.1742634106844691
 10
0.1678522960926689
 20
0.1758884023025951
  0
LWPOLYLINE
  5
2327
330
2
100
AcDbEntity
  8
Profilo
  6
Continuous
370
     0
100
AcDbPolyline
 90
        6
 70
   128
 43
0.0
 10
0.1899370295899945
 20
0.1718706816403308
 10
0.1860231218360737
 20
0.1724118586581758
 10
0.1818657182110379
 20
0.1732338972587184
 10
0.1769404764606182
 20
0.1743739877372075
 10
0.1729234965420567
 20
0.17531786322455
 10
0.1673653059233495
 20
0.1764501248164698
  0
LWPOLYLINE
  5
2328
330
2
100
AcDbEntity
  8
Profilo
  6
Continuous
370
     0
100
AcDbPolyline
 90
        9
 70
   128
 43
0.0
 10
0.1691417068134275
 20
0.1803043840778107
 10
0.1674690595863999
 20
0.1823472358794154
 10
0.1664556469601242
 20
0.1840270240797046
 10
0.1663000027874379
 20
0.1851715106626421
 10
0.1667586296243138
 20
0.1860615578624472
 10
0.167741601318165
 20
0.186914416601631
 10
0.1689175718723583
 20
0.1871473228111335
 10
0.1706628508747197
 20
0.1872344163418338
 10
0.1726198044801221
 20
0.1869638294017475
  0
LWPOLYLINE
  5
2329
330
2
100
AcDbEntity
  8
Profilo
  6
Continuous
370
     0
100
AcDbPolyline
 90
        6
 70
   128
 43
0.0
 10
0.1653965876713372
 20
0.1795156276172543
 10
0.1646211374965953
 20
0.1804668390696802
 10
0.1646453487749047
 20
0.1811768225045485
 10
0.1649185867412028
 20
0.1820536576872562
 10
0.1653903569874253
 20
0.1827582555054474
 10
0.166259192280179
 20
0.1831183842184261
  0
LWPOLYLINE
  5
232A
330
2
100
AcDbEntity
  8
Profilo
  6
Continuous
370
     0
100
AcDbPolyline
 90
        6
 70
   128
 43
0.0
 10
0.168610435581122
 20
0.1872745428284606
 10
0.1683012232628172
 20
0.188482639420062
 10
0.1685426405041563
 20
0.1892826525770086
 10
0.1689825920850141
 20
0.1899104333417385
 10
0.1697296789273115
 20
0.1904109916029923
 10
0.1703813046245295
 20
0.1906810862731143
  0
LWPOLYLINE
  5
232B
330
2
100
AcDbEntity
  8
Profilo
  6
Continuous
370
     0
100
AcDbPolyline
 90
       24
 70
   129
 43
0.0
 10
0.1906176435486544
 20
0.1600448465395068
 10
0.1862127922846111
 20
0.1580492386645387
 10
0.1823066022071509
 20
0.1566356809560705
 10
0.1769875364976925
 20
0.1556378756730925
 10
0.1713360288621728
 20
0.1557210272345857
 10
0.1666818453023295
 20
0.1563030800920744
 10
0.1640034699403707
 20
0.1573021931957281
 10
0.1628399231991557
 20
0.158299998478707
 10
0.162673703938633
 20
0.1593809526321894
 10
0.1629230345319246
 20
0.1602956063536742
 10
0.163920358607601
 20
0.1617923156236365
 10
0.1668292229068764
 20
0.1637047719371105
 10
0.1692394260195678
 20
0.1647857287815826
 10
0.1728131724684574
 20
0.1658666829350659
 10
0.1773011350652704
 20
0.1669476370885492
 10
0.1793788962519005
 20
0.1668644882180439
 10
0.1832019749965901
 20
0.1666150362245522
 10
0.1866926118152192
 20
0.1666981877860463
 10
0.1893521455212022
 20
0.1662824353605561
 10
0.1897676970775248
 20
0.1660329833670635
 10
0.1896014761144946
 20
0.1645362767880909
 10
0.1897676970775248
 20
0.1629564186476242
 10
0.1901001390035861
 20
0.1618754644941409
 10
0.1905156905599097
 20
0.1605450583471668
  0
LWPOLYLINE
  5
232C
330
2
100
AcDbEntity
  8
Profilo
  6
Continuous
370
     0
100
AcDbPolyline
 90
        5
 70
   128
 43
0.0
 10
0.189684585744756
 20
0.1617091640621433
 10
0.1853628458134815
 20
0.1615428636301448
 10
0.1802099993645459
 20
0.1608776592111629
 10
0.1729793934314885
 20
0.1600461570511713
 10
0.1673278857959688
 20
0.1594641041936835
  0
LWPOLYLINE
  5
232D
330
2
100
AcDbEntity
  8
Profilo
  6
Continuous
370
     0
100
AcDbPolyline
 90
        6
 70
   128
 43
0.0
 10
0.1892690341884333
 20
0.1642036759240948
 10
0.1854459554437429
 20
0.1632058706411159
 10
0.1812904347729911
 20
0.1623743657901364
 10
0.176303810989594
 20
0.1615428636301448
 10
0.1722313999491045
 20
0.1608776592111629
 10
0.1666630036463537
 20
0.1597967050576796
  0
LWPOLYLINE
  5
232E
330
2
100
AcDbEntity
  8
Profilo
  6
Continuous
370
     0
100
AcDbPolyline
 90
        9
 70
   128
 43
0.0
 10
0.1668292229068764
 20
0.1640373754920963
 10
0.1645021328294622
 20
0.1652846300775781
 10
0.1629230345319246
 20
0.1664487357925537
 10
0.1623412620125717
 20
0.1674465410755326
 10
0.1624243716428331
 20
0.1684443463585115
 10
0.1630061441621868
 20
0.1696084520734871
 10
0.1640034699403707
 20
0.1702736538014811
 10
0.1655825682379084
 20
0.1710220070909674
 10
0.167494106758999
 20
0.1715209110779507
  0
LWPOLYLINE
  5
232F
330
2
100
AcDbEntity
  8
Profilo
  6
Continuous
370
     0
100
AcDbPolyline
 90
        6
 70
   128
 43
0.0
 10
0.1636710280143094
 20
0.1618754644941409
 10
0.1625905926058633
 20
0.1624575173516296
 10
0.1623412620125717
 20
0.1631227217706115
 10
0.162258150679802
 20
0.1640373754920963
 10
0.1624243716428331
 20
0.1648688776520879
 10
0.1630892554949557
 20
0.1655340820710698
  0
LWPOLYLINE
  5
2330
330
2
100
AcDbEntity
  8
Profilo
  6
Continuous
370
     0
100
AcDbPolyline
 90
        6
 70
   128
 43
0.0
 10
0.1636710280143094
 20
0.1702736538014811
 10
0.1629230345319246
 20
0.1712714590844591
 10
0.1628399231991557
 20
0.1721029612444507
 10
0.1630061441621868
 20
0.1728513172249257
 10
0.1635048070512783
 20
0.1735996705144129
 10
0.1640034699403707
 20
0.1740985718104067
  0
LWPOLYLINE
  5
2331
330
2
100
AcDbEntity
  8
Profilo
  6
Continuous
370
     0
100
AcDbPolyline
 90
       24
 70
   129
 43
0.0
 10
0.1944233906613477
 20
0.153538488605405
 10
0.1911175248059887
 20
0.1500091237340226
 10
0.1880496208590476
 20
0.1472083324728322
 10
0.183517288468519
 20
0.144250962271786
 10
0.1782641555112723
 20
0.1421650459575481
 10
0.17374150859446
 20
0.1409217137398826
 10
0.1708846683853369
 20
0.1408198040103368
 10
0.1694278478154865
 20
0.1412963858280667
 10
0.1688606179970962
 20
0.1422314478889104
 10
0.1687409466035041
 20
0.1431718924287606
 10
0.1690895880636201
 20
0.1449363308898588
 10
0.1710451629062848
 20
0.1478163843090294
 10
0.1728582359558142
 20
0.1497374030130272
 10
0.1757462839086439
 20
0.1521036879884778
 10
0.1794789574488313
 20
0.1548198283373379
 10
0.1814303781777675
 20
0.1555381335802612
 10
0.185057903526245
 20
0.1567706988853501
 10
0.1882510107134476
 20
0.1581833297900033
 10
0.1908672010356303
 20
0.158816984120598
 10
0.1913465817583
 20
0.1587455452253639
 10
0.1917657784235662
 20
0.157299158642213
 10
0.1925239321050278
 20
0.1559031700506279
 10
0.1932447316419492
 20
0.1550317186499688
 10
0.1941377756103031
 20
0.1539616083367503
  0
LWPOLYLINE
  5
2332
330
2
100
AcDbEntity
  8
Profilo
  6
Continuous
370
     0
100
AcDbPolyline
 90
        5
 70
   128
 43
0.0
 10
0.1929244509115677
 20
0.1547190517371779
 10
0.1889953242643476
 20
0.1529115519011179
 10
0.1844892776062825
 20
0.1503250741879556
 10
0.1781272708776815
 20
0.1467898332645585
 10
0.1731287006307149
 20
0.1440893482026879
  0
LWPOLYLINE
  5
2333
330
2
100
AcDbEntity
  8
Profilo
  6
Continuous
370
     0
100
AcDbPolyline
 90
        6
 70
   128
 43
0.0
 10
0.1915859229725707
 20
0.1568646554941437
 10
0.1884357023196954
 20
0.1544797747195481
 10
0.1849147049554616
 20
0.1521213154929961
 10
0.1806258674062513
 20
0.1494448093607976
 10
0.1771180129082501
 20
0.147271796378188
 10
0.1723871487809112
 20
0.1441421919502959
  0
LWPOLYLINE
  5
2334
330
2
100
AcDbEntity
  8
Profilo
  6
Continuous
370
     0
100
AcDbPolyline
 90
        9
 70
   128
 43
0.0
 10
0.1709178810362455
 20
0.1481236699259216
 10
0.1682906264776078
 20
0.1483854440910315
 10
0.1663862459100467
 20
0.1488566427782334
 10
0.1654669146363159
 20
0.1495558599520474
 10
0.1651618543721471
 20
0.150509516508994
 10
0.165253858124712
 20
0.1518076446573022
 10
0.1659207053179386
 20
0.1528038709707677
 10
0.167093219509415
 20
0.1540995540145553
 10
0.1686683285344981
 20
0.1552919953191674
  0
LWPOLYLINE
  5
2335
330
2
100
AcDbEntity
  8
Profilo
  6
Continuous
370
     0
100
AcDbPolyline
 90
        6
 70
   128
 43
0.0
 10
0.1688274169364869
 20
0.1449177357422344
 10
0.1676064827911019
 20
0.145042017733555
 10
0.1671215686488501
 20
0.1455611717939538
 10
0.1666947609640217
 20
0.1463743963164761
 10
0.1665301270090356
 20
0.1472062141519943
 10
0.1668898368812282
 20
0.1480752229342828
  0
LWPOLYLINE
  5
2336
330
2
100
AcDbEntity
  8
Profilo
  6
Continuous
370
     0
100
AcDbPolyline
 90
        6
 70
   128
 43
0.0
 10
0.1656135690267022
 20
0.1526766509534407
 10
0.1645406696073537
 20
0.1533122581185908
 10
0.1641456826474834
 20
0.1540486606153528
 10
0.1640128673578629
 20
0.1548036613974097
 10
0.1641871893892755
 20
0.1556858797106446
 10
0.1644569725657683
 20
0.1563376344327485
  0
LWPOLYLINE
  5
2337
330
2
100
AcDbEntity
  8
Profilo
  6
Continuous
370
     0
100
AcDbPolyline
 90
       24
 70
   129
 43
0.0
 10
0.2004293179110959
 20
0.148983794046696
 10
0.1987257255731518
 20
0.1444579859867934
 10
0.1969631683220334
 20
0.140696356253162
 10
0.1939075757711959
 20
0.136229653938529
 10
0.1898525593651939
 20
0.1322922315985238
 10
0.186149981086603
 20
0.1294128003650108
 10
0.1835496040548326
 20
0.1282253826347721
 10
0.1820212973819939
 20
0.1281081857257298
 10
0.1811394126036352
 20
0.1287550009715301
 10
0.1806689581080101
 20
0.1295780621737037
 10
0.1803158394507061
 20
0.1313416100649094
 10
0.1810204062942948
 20
0.1347507985644591
 10
0.1819603253444195
 20
0.137219421444376
 10
0.1837229956805913
 20
0.1405107918047077
 10
0.1861321144544292
 20
0.1444486106027056
 10
0.1876601086093639
 20
0.1458590144972758
 10
0.1905398227109223
 20
0.148385950206477
 10
0.1929492786430358
 20
0.1509130002045873
 10
0.1951238343206891
 20
0.152499593163524
 10
0.1955940628402764
 20
0.1526170432907532
 10
0.1965348582415811
 20
0.1514411759491805
 10
0.1977695226161518
 20
0.1504415835148787
 10
0.1987689445685006
 20
0.1499123054430675
 10
0.2000035231001669
 20
0.1492654055582177
  0
LWPOLYLINE
  5
2338
330
2
100
AcDbEntity
  8
Profilo
  6
Continuous
370
     0
100
AcDbPolyline
 90
        5
 70
   128
 43
0.0
 10
0.1985926962044169
 20
0.1495008727526244
 10
0.1956543567556683
 20
0.1463273489775154
 10
0.19248111464475
 20
0.1422133657555225
 10
0.1879562649732987
 20
0.1365125944522683
 10
0.184371619122834
 20
0.1321048015567257
  0
LWPOLYLINE
  5
2339
330
2
100
AcDbEntity
  8
Profilo
  6
Continuous
370
     0
100
AcDbPolyline
 90
        6
 70
   128
 43
0.0
 10
0.1965349706276718
 20
0.1509709196825522
 10
0.1945372006041892
 20
0.1475620398952733
 10
0.1921867664772576
 20
0.1440356803309066
 10
0.1892486518006922
 20
0.1399216440225393
 10
0.1868393928937206
 20
0.1365716440044922
 10
0.1836662921197916
 20
0.1318698432064032
  0
LWPOLYLINE
  5
233A
330
2
100
AcDbEntity
  8
Profilo
  6
Continuous
370
     0
100
AcDbPolyline
 90
        9
 70
   128
 43
0.0
 10
0.180785220065117
 20
0.1349859847936361
 10
0.1782577767156863
 20
0.1342224257947249
 10
0.1763180385562593
 20
0.1339289817254536
 10
0.1752011083808189
 20
0.1342231613138087
 10
0.1745543208820606
 20
0.1349874835788467
 10
0.1741425491305253
 20
0.1362220059174672
 10
0.174377396298611
 20
0.1373975903909945
 10
0.1749648217272406
 20
0.1390433471910624
 10
0.1759637051856457
 20
0.1407477874341827
  0
LWPOLYLINE
  5
233B
330
2
100
AcDbEntity
  8
Profilo
  6
Continuous
370
     0
100
AcDbPolyline
 90
        6
 70
   128
 43
0.0
 10
0.18008074096725
 20
0.1312241018418179
 10
0.1789051842407656
 20
0.1308716921604105
 10
0.1782585103319536
 20
0.131165759362674
 10
0.1775529838960597
 20
0.1317537486245788
 10
0.1770825590502931
 20
0.1324592454106142
 10
0.1770823323752935
 20
0.1333997598466892
  0
LWPOLYLINE
  5
233C
330
2
100
AcDbEntity
  8
Profilo
  6
Continuous
370
     0
100
AcDbPolyline
 90
        6
 70
   128
 43
0.0
 10
0.1741423243583422
 20
0.1371625184507257
 10
0.1729078582127665
 20
0.1373391620689464
 10
0.1722611288098714
 20
0.1378683542978532
 10
0.1718494971914706
 20
0.1385150578565228
 10
0.1716729394161534
 20
0.1393968314526448
 10
0.1716727708370169
 20
0.1401022158525886
  0
LWPOLYLINE
  5
233D
330
2
100
AcDbEntity
  8
Profilo
  6
Continuous
370
     0
100
AcDbPolyline
 90
       24
 70
   129
 43
0.0
 10
0.2077210773179927
 20
0.147074173821532
 10
0.2078791149878119
 20
0.1422409358236789
 10
0.2076902377963763
 20
0.1380911416452919
 10
0.2065765713520817
 20
0.1327951221537187
 10
0.2043370109863232
 20
0.1276056306463891
 10
0.2020181853249112
 20
0.1235284677002209
 10
0.2000701553011051
 20
0.121436315554752
 10
0.1987030333620843
 20
0.1207431820859461
 10
0.1976407525869566
 20
0.1210032787589241
 10
0.1968911374215758
 20
0.1215836530164587
 10
0.1958900177613976
 20
0.1230778261579386
 10
0.1952363126908883
 20
0.1264971316931802
 10
0.1951599835866138
 20
0.1291375332936713
 10
0.1955289257260913
 20
0.1328529077378702
 10
0.1962477232389799
 20
0.1374129077694259
 10
0.1971196675611258
 20
0.1393006891080375
 10
0.1988131600484766
 20
0.1427372921663561
 10
0.2000721469016091
 20
0.1459940408034759
 10
0.2014740115452072
 20
0.1482920279952571
 10
0.2018634998322377
 20
0.1485804864277671
 10
0.2031826663980616
 20
0.1478541534712645
 10
0.2047058750069737
 20
0.1474031360810393
 10
0.2058317664422877
 20
0.1472966091265915
 10
0.2072199261473027
 20
0.1471714043134173
  0
LWPOLYLINE
  5
233E
330
2
100
AcDbEntity
  8
Profilo
  6
Continuous
370
     0
100
AcDbPolyline
 90
        5
 70
   128
 43
0.0
 10
0.2058263826602382
 20
0.1468490475559683
 10
0.2043261659549196
 20
0.1427926400685064
 10
0.2029688257370243
 20
0.1377774679898811
 10
0.2009700004673376
 20
0.1307790570600698
 10
0.1993450088492126
 20
0.1253350028424609
  0
LWPOLYLINE
  5
233F
330
2
100
AcDbEntity
  8
Profilo
  6
Continuous
370
     0
100
AcDbPolyline
 90
        6
 70
   128
 43
0.0
 10
0.2033627295114759
 20
0.1474197363397856
 10
0.2028215524936319
 20
0.1435058285858657
 10
0.2019995138930892
 20
0.139348424960829
 10
0.2008594234146002
 20
0.1344231832104101
 10
0.1999155479272567
 20
0.1304062032918478
 10
0.1987832863353378
 20
0.1248480126731406
  0
LWPOLYLINE
  5
2340
330
2
100
AcDbEntity
  8
Profilo
  6
Continuous
370
     0
100
AcDbPolyline
 90
        9
 70
   128
 43
0.0
 10
0.1949290270739961
 20
0.1266244135632186
 10
0.1928861752723923
 20
0.124951766336191
 10
0.1912063870721021
 20
0.1239383537099152
 10
0.1900619004891646
 20
0.1237827095372299
 10
0.1891718532893605
 20
0.1242413363741048
 10
0.1883189945501766
 20
0.125224308067956
 10
0.1880860883406741
 20
0.1264002786221503
 10
0.1879989948099738
 20
0.1281455576245107
 10
0.1882695817500601
 20
0.1301025112299132
  0
LWPOLYLINE
  5
2341
330
2
100
AcDbEntity
  8
Profilo
  6
Continuous
370
     0
100
AcDbPolyline
 90
        6
 70
   128
 43
0.0
 10
0.1957177835345525
 20
0.1228792944211292
 10
0.1947665720821266
 20
0.1221038442463873
 10
0.1940565886472592
 20
0.1221280555246957
 10
0.1931797534645505
 20
0.1224012934909939
 10
0.1924751556463602
 20
0.1228730637372173
 10
0.1921150269333807
 20
0.123741899029971
  0
LWPOLYLINE
  5
2342
330
2
100
AcDbEntity
  8
Profilo
  6
Continuous
370
     0
100
AcDbPolyline
 90
        6
 70
   128
 43
0.0
 10
0.1879588683233462
 20
0.1260931423309139
 10
0.1867507717317456
 20
0.1257839300126091
 10
0.1859507585747982
 20
0.1260253472539483
 10
0.1853229778100682
 20
0.1264652988348061
 10
0.1848224195488144
 20
0.1272123856771035
 10
0.1845523248786933
 20
0.1278640113743215
  0
LWPOLYLINE
  5
2343
330
2
100
AcDbEntity
  8
Profilo
  6
Continuous
370
     0
100
AcDbPolyline
 90
       24
 70
   129
 43
0.0
 10
0.2151885646123
 20
0.1481003502984455
 10
0.2171841724872681
 20
0.1436954990344021
 10
0.2185977301957362
 20
0.1397893089569429
 10
0.2195955354787151
 20
0.1344702432474845
 10
0.219512383917221
 20
0.1288187356119648
 10
0.2189303310597332
 20
0.1241645520521206
 10
0.2179312179560786
 20
0.1214861766901618
 10
0.2169334126731006
 20
0.1203226299489477
 10
0.2158524585196173
 20
0.120156410688425
 10
0.2149378047981325
 20
0.1204057412817165
 10
0.2134410955281702
 20
0.121403065357393
 10
0.2115286392146962
 20
0.1243119296566675
 10
0.2104476823702241
 20
0.1267221327693588
 10
0.2093667282167408
 20
0.1302958792182494
 10
0.2082857740632584
 20
0.1347838418150624
 10
0.2083689229337629
 20
0.1368616030016916
 10
0.2086183749272545
 20
0.140684681746382
 10
0.2085352233657605
 20
0.1441753185650103
 10
0.2089509757912507
 20
0.1468348522709941
 10
0.2092004277847432
 20
0.1472504038273168
 10
0.2106971343637158
 20
0.1470841828642857
 10
0.2122769925041825
 20
0.1472504038273168
 10
0.2133579466576658
 20
0.1475828457533781
 10
0.2146883528046408
 20
0.1479983973097008
  0
LWPOLYLINE
  5
2344
330
2
100
AcDbEntity
  8
Profilo
  6
Continuous
370
     0
100
AcDbPolyline
 90
        5
 70
   128
 43
0.0
 10
0.2135242470896634
 20
0.1471672924945471
 10
0.2136905475216619
 20
0.1428455525632735
 10
0.2143557519406438
 20
0.1376927061143369
 10
0.2151872541006354
 20
0.1304621001812796
 10
0.2157693069581232
 20
0.1248105925457599
  0
LWPOLYLINE
  5
2345
330
2
100
AcDbEntity
  8
Profilo
  6
Continuous
370
     0
100
AcDbPolyline
 90
        6
 70
   128
 43
0.0
 10
0.211029735227712
 20
0.1467517409382244
 10
0.2120275405106908
 20
0.1429286621935348
 10
0.2128590453616712
 20
0.1387731415227831
 10
0.2136905475216619
 20
0.133786517739386
 10
0.2143557519406438
 20
0.1297141066988956
 10
0.2154367060941271
 20
0.1241457103961456
  0
LWPOLYLINE
  5
2346
330
2
100
AcDbEntity
  8
Profilo
  6
Continuous
370
     0
100
AcDbPolyline
 90
        9
 70
   128
 43
0.0
 10
0.2111960356597105
 20
0.1243119296566675
 10
0.2099487810742295
 20
0.1219848395792542
 10
0.208784675359253
 20
0.1204057412817165
 10
0.2077868700762742
 20
0.1198239687623628
 10
0.2067890647932962
 20
0.1199070783926242
 10
0.2056249590783197
 20
0.1204888509119779
 10
0.2049597573503266
 20
0.1214861766901618
 10
0.2042114040608403
 20
0.1230652749876995
 10
0.203712500073856
 20
0.124976813508791
  0
LWPOLYLINE
  5
2347
330
2
100
AcDbEntity
  8
Profilo
  6
Continuous
370
     0
100
AcDbPolyline
 90
        6
 70
   128
 43
0.0
 10
0.2133579466576658
 20
0.1211537347641005
 10
0.2127758938001771
 20
0.1200732993556552
 10
0.2121106893811953
 20
0.1198239687623628
 10
0.2111960356597105
 20
0.1197408574295939
 10
0.2103645334997197
 20
0.1199070783926242
 10
0.2096993290807378
 20
0.1205719622447467
  0
LWPOLYLINE
  5
2348
330
2
100
AcDbEntity
  8
Profilo
  6
Continuous
370
     0
100
AcDbPolyline
 90
        6
 70
   128
 43
0.0
 10
0.2049597573503266
 20
0.1211537347641005
 10
0.2039619520673477
 20
0.1204057412817165
 10
0.203130449907357
 20
0.1203226299489477
 10
0.202382093926881
 20
0.1204888509119779
 10
0.2016337406373947
 20
0.1209875138010703
 10
0.2011348393414001
 20
0.1214861766901618
  0
LWPOLYLINE
  5
2349
330
2
100
AcDbEntity
  8
Profilo
  6
Continuous
370
     0
100
AcDbPolyline
 90
       24
 70
   129
 43
0.0
 10
0.2216949225464018
 20
0.1519060974111388
 10
0.225224287417785
 20
0.1486002315557806
 10
0.2280250786789746
 20
0.1455323276088396
 10
0.2309824488800216
 20
0.140999995218311
 10
0.2330683651942595
 20
0.1357468622610634
 10
0.2343116974119241
 20
0.131224215344252
 10
0.2344136071414709
 20
0.1283673751351289
 10
0.2339370253237409
 20
0.1269105545652776
 10
0.2330019632628972
 20
0.1263433247468872
 10
0.232061518723047
 20
0.1262236533532952
 10
0.2302970802619488
 20
0.1265722948134111
 10
0.2274170268427773
 20
0.1285278696560759
 10
0.2254960081387805
 20
0.1303409427056053
 10
0.2231297231633298
 20
0.1332289906584358
 10
0.2204135828144698
 20
0.1369616641986233
 10
0.2196952775715455
 20
0.1389130849275586
 10
0.2184627122664566
 20
0.1425406102760369
 10
0.2170500813618035
 20
0.1457337174632387
 10
0.2164164270312097
 20
0.1483499077854213
 10
0.2164878659264429
 20
0.1488292885080911
 10
0.2179342525095946
 20
0.1492484851733582
 10
0.2193302411011797
 20
0.1500066388548198
 10
0.2202016925018388
 20
0.1507274383917403
 10
0.2212718028150573
 20
0.1516204823600942
  0
LWPOLYLINE
  5
234A
330
2
100
AcDbEntity
  8
Profilo
  6
Continuous
370
     0
100
AcDbPolyline
 90
        5
 70
   128
 43
0.0
 10
0.2205143594146288
 20
0.1504071576613597
 10
0.2223218592506897
 20
0.1464780310141396
 10
0.224908336963852
 20
0.1419719843560745
 10
0.2284435778872491
 20
0.1356099776274726
 10
0.2311440629491197
 20
0.130611407380506
  0
LWPOLYLINE
  5
234B
330
2
100
AcDbEntity
  8
Profilo
  6
Continuous
370
     0
100
AcDbPolyline
 90
        6
 70
   128
 43
0.0
 10
0.2183687556576639
 20
0.1490686297223627
 10
0.2207536364322586
 20
0.1459184090694865
 10
0.2231120956588106
 20
0.1423974117052535
 10
0.2257886017910091
 20
0.1381085741560433
 10
0.2279616147736188
 20
0.1346007196580412
 10
0.2310912192015109
 20
0.1298698555307032
  0
LWPOLYLINE
  5
234C
330
2
100
AcDbEntity
  8
Profilo
  6
Continuous
370
     0
100
AcDbPolyline
 90
        9
 70
   128
 43
0.0
 10
0.2271097412258851
 20
0.1284005877860375
 10
0.2268479670607761
 20
0.1257733332273998
 10
0.2263767683735733
 20
0.1238689526598387
 10
0.2256775511997602
 20
0.1229496213861079
 10
0.2247238946428136
 20
0.1226445611219391
 10
0.2234257664945054
 20
0.122736564874504
 10
0.2224295401810399
 20
0.1234034120677305
 10
0.2211338571372523
 20
0.124575926259207
 10
0.2199414158326403
 20
0.1261510352842901
  0
LWPOLYLINE
  5
234D
330
2
100
AcDbEntity
  8
Profilo
  6
Continuous
370
     0
100
AcDbPolyline
 90
        6
 70
   128
 43
0.0
 10
0.2303156754095732
 20
0.126310123686278
 10
0.2301913934182527
 20
0.125089189540893
 10
0.2296722393578539
 20
0.1246042753986412
 10
0.2288590148353307
 20
0.1241774677138128
 10
0.2280271969998124
 20
0.1240128337588267
 10
0.2271581882175249
 20
0.1243725436310201
  0
LWPOLYLINE
  5
234E
330
2
100
AcDbEntity
  8
Profilo
  6
Continuous
370
     0
100
AcDbPolyline
 90
        6
 70
   128
 43
0.0
 10
0.2225567601983669
 20
0.1230962757764942
 10
0.2219211530332168
 20
0.1220233763571448
 10
0.2211847505364548
 20
0.1216283893972754
 10
0.220429749754397
 20
0.121495574107654
 10
0.2195475314411621
 20
0.1216698961390665
 10
0.2188957767190591
 20
0.1219396793155594
  0
LWPOLYLINE
  5
234F
330
2
100
AcDbEntity
  8
Profilo
  6
Continuous
370
     0
100
AcDbPolyline
 90
       24
 70
   129
 43
0.0
 10
0.2262496171051116
 20
0.1579120246608878
 10
0.2307754251650143
 20
0.1562084323229438
 10
0.2345370548986456
 20
0.1544458750718245
 10
0.2390037572132777
 20
0.1513902825209878
 10
0.2429411795532839
 20
0.1473352661149858
 10
0.2458206107867968
 20
0.143632687836394
 10
0.2470080285170346
 20
0.1410323108046245
 10
0.2471252254260769
 20
0.1395040041317859
 10
0.2464784101802775
 20
0.1386221193534272
 10
0.2456553489781039
 20
0.1381516648578012
 10
0.2438918010868973
 20
0.1377985462004971
 10
0.2404826125873476
 20
0.1385031130440859
 10
0.2380139897074307
 20
0.1394430320942106
 10
0.234722619347099
 20
0.1412057024303823
 10
0.230784800549102
 20
0.1436148212042212
 10
0.2293743966545318
 20
0.145142815359155
 10
0.2268474609453297
 20
0.1480225294607143
 10
0.2243204109472194
 20
0.1504319853928269
 10
0.2227338179882836
 20
0.1526065410704811
 10
0.2226163678610535
 20
0.1530767695900683
 10
0.2237922352026262
 20
0.1540175649913722
 10
0.2247918276369289
 20
0.1552522293659437
 10
0.2253211057087401
 20
0.1562516513182917
 10
0.2259680055935891
 20
0.157486229849958
  0
LWPOLYLINE
  5
2350
330
2
100
AcDbEntity
  8
Profilo
  6
Continuous
370
     0
100
AcDbPolyline
 90
        5
 70
   128
 43
0.0
 10
0.2257325383991833
 20
0.156075402954208
 10
0.2289060621742922
 20
0.1531370635054603
 10
0.2330200453962852
 20
0.149963821394542
 10
0.2387208166995385
 20
0.1454389717230906
 10
0.2431286095950811
 20
0.1418543258726259
  0
LWPOLYLINE
  5
2351
330
2
100
AcDbEntity
  8
Profilo
  6
Continuous
370
     0
100
AcDbPolyline
 90
        6
 70
   128
 43
0.0
 10
0.2242624914692555
 20
0.1540176773774637
 10
0.2276713712565335
 20
0.1520199073539812
 10
0.231197730820901
 20
0.1496694732270496
 10
0.2353117671292675
 20
0.1467313585504841
 10
0.2386617671473146
 20
0.1443220996435117
 10
0.2433635679454036
 20
0.1411489988695826
  0
LWPOLYLINE
  5
2352
330
2
100
AcDbEntity
  8
Profilo
  6
Continuous
370
     0
100
AcDbPolyline
 90
        9
 70
   128
 43
0.0
 10
0.2402474263581706
 20
0.138267926814909
 10
0.2410109853570819
 20
0.1357404834654783
 10
0.2413044294263531
 20
0.1338007453060512
 10
0.241010249837998
 20
0.13268381513061
 10
0.2402459275729609
 20
0.1320370276318525
 10
0.2390114052343404
 20
0.1316252558803173
 10
0.2378358207608131
 20
0.1318601030484021
 10
0.2361900639607444
 20
0.1324475284770326
 10
0.234485623717624
 20
0.1334464119354377
  0
LWPOLYLINE
  5
2353
330
2
100
AcDbEntity
  8
Profilo
  6
Continuous
370
     0
100
AcDbPolyline
 90
        6
 70
   128
 43
0.0
 10
0.2440093093099898
 20
0.137563447717042
 10
0.2443617189913962
 20
0.1363878909905567
 10
0.2440676517891336
 20
0.1357412170817456
 10
0.243479662527228
 20
0.1350356906458516
 10
0.2427741657411926
 20
0.1345652658000851
 10
0.2418336513051185
 20
0.1345650391250845
  0
LWPOLYLINE
  5
2354
330
2
100
AcDbEntity
  8
Profilo
  6
Continuous
370
     0
100
AcDbPolyline
 90
        6
 70
   128
 43
0.0
 10
0.2380708927010811
 20
0.1316250311081342
 10
0.2378942490828613
 20
0.1303905649625585
 10
0.2373650568539545
 20
0.1297438355596634
 10
0.2367183532952848
 20
0.1293322039412617
 10
0.2358365796991619
 20
0.1291556461659453
 10
0.2351311952992181
 20
0.129155477586808
  0
LWPOLYLINE
  5
2355
330
2
100
AcDbEntity
  8
Profilo
  6
Continuous
370
     0
100
AcDbPolyline
 90
       24
 70
   129
 43
0.0
 10
0.2281592373302748
 20
0.1652037840677838
 10
0.2329924753281287
 20
0.1653618217376038
 10
0.2371422695065148
 20
0.1651729445461683
 10
0.2424382889980881
 20
0.1640592781018728
 10
0.2476277805054177
 20
0.1618197177361142
 10
0.2517049434515859
 20
0.1595008920747032
 10
0.2537970955970548
 20
0.157552862050897
 10
0.2544902290658615
 20
0.1561857401118754
 10
0.2542301323928835
 20
0.1551234593367476
 10
0.253649758135349
 20
0.1543738441713669
 10
0.252155584993869
 20
0.1533727245111895
 10
0.2487362794586274
 20
0.1527190194406793
 10
0.2460958778581355
 20
0.1526426903364058
 10
0.2423805034139366
 20
0.1530116324758832
 10
0.2378205033823808
 20
0.1537304299887718
 10
0.2359327220437692
 20
0.1546023743109168
 10
0.2324961189854515
 20
0.1562958667982686
 10
0.2292393703483309
 20
0.1575548536514002
 10
0.2269413831565497
 20
0.1589567182949991
 10
0.2266529247240396
 20
0.1593462065820288
 10
0.2273792576805431
 20
0.1606653731478536
 10
0.2278302750707684
 20
0.1621885817567656
 10
0.2279368020252162
 20
0.1633144731920788
 10
0.2280620068383903
 20
0.1647026328970946
  0
LWPOLYLINE
  5
2356
330
2
100
AcDbEntity
  8
Profilo
  6
Continuous
370
     0
100
AcDbPolyline
 90
        5
 70
   128
 43
0.0
 10
0.2283843635958385
 20
0.1633090894100293
 10
0.2324407710833003
 20
0.1618088727047116
 10
0.2374559431619265
 20
0.1604515324868154
 10
0.244454354091737
 20
0.1584527072171296
 10
0.2498984083093467
 20
0.1568277155990037
  0
LWPOLYLINE
  5
2357
330
2
100
AcDbEntity
  8
Profilo
  6
Continuous
370
     0
100
AcDbPolyline
 90
        6
 70
   128
 43
0.0
 10
0.2278136748120212
 20
0.1608454362612679
 10
0.2317275825659419
 20
0.1603042592434229
 10
0.2358849861909777
 20
0.1594822206428803
 10
0.2408102279413966
 20
0.1583421301643912
 10
0.2448272078599589
 20
0.1573982546770487
 10
0.2503853984786661
 20
0.1562659930851289
  0
LWPOLYLINE
  5
2358
330
2
100
AcDbEntity
  8
Profilo
  6
Continuous
370
     0
100
AcDbPolyline
 90
        9
 70
   128
 43
0.0
 10
0.2486089975885881
 20
0.152411733823788
 10
0.2502816448156158
 20
0.1503688820221833
 10
0.2512950574418915
 20
0.1486890938218941
 10
0.2514507016145777
 20
0.1475446072389566
 10
0.2509920747777019
 20
0.1466545600391516
 10
0.2500091030838507
 20
0.1458017012999677
 10
0.2488331325296573
 20
0.1455687950904652
 10
0.247087853527296
 20
0.1454817015597649
 10
0.2451308999218935
 20
0.1457522884998512
  0
LWPOLYLINE
  5
2359
330
2
100
AcDbEntity
  8
Profilo
  6
Continuous
370
     0
100
AcDbPolyline
 90
        6
 70
   128
 43
0.0
 10
0.2523541167306784
 20
0.1532004902843445
 10
0.2531295669054203
 20
0.1522492788319185
 10
0.253105355627111
 20
0.1515392953970502
 10
0.2528321176608128
 20
0.1506624602143425
 10
0.2523603474145903
 20
0.1499578623961513
 10
0.2514915121218366
 20
0.1495977336831717
  0
LWPOLYLINE
  5
235A
330
2
100
AcDbEntity
  8
Profilo
  6
Continuous
370
     0
100
AcDbPolyline
 90
        6
 70
   128
 43
0.0
 10
0.2491402688208937
 20
0.1454415750731381
 10
0.2494494811391985
 20
0.1442334784815367
 10
0.2492080638978593
 20
0.1434334653245901
 10
0.2487681123170016
 20
0.1428056845598593
 10
0.2480210254747042
 20
0.1423051262986064
 10
0.2473693997774862
 20
0.1420350316284844
  0
LWPOLYLINE
  5
235B
330
2
100
AcDbEntity
  8
Profilo
  6
Continuous
370
     0
100
AcDbPolyline
 90
       24
 70
   129
 43
0.0
 10
0.2271330608533613
 20
0.1726712713620919
 10
0.2315379121174046
 20
0.17466687923706
 10
0.2354441021948648
 20
0.1760804369455282
 10
0.2407631679043223
 20
0.1770782422285062
 10
0.2464146755398429
 20
0.176995090667013
 10
0.2510688590996861
 20
0.1764130378095243
 10
0.2537472344616449
 20
0.1754139247058706
 10
0.2549107812028599
 20
0.1744161194228917
 10
0.2550770004633827
 20
0.1733351652694093
 10
0.2548276698700911
 20
0.1724205115479245
 10
0.2538303457944147
 20
0.1709238022779622
 10
0.2509214814951393
 20
0.1690113459644882
 10
0.2485112783824479
 20
0.1679303891200161
 10
0.2449375319335583
 20
0.1668494349665328
 10
0.2404495693367452
 20
0.1657684808130495
 10
0.2383718081501152
 20
0.1658516296835548
 10
0.2345487294054256
 20
0.1661010816770465
 10
0.2310580925867964
 20
0.1660179301155524
 10
0.2283985588808135
 20
0.1664336825410426
 10
0.2279830073244908
 20
0.1666831345345352
 10
0.228149228287521
 20
0.1681798411135078
 10
0.2279830073244908
 20
0.1697596992539745
 10
0.2276505653984286
 20
0.1708406534074578
 10
0.227235013842106
 20
0.1721710595544319
  0
LWPOLYLINE
  5
235C
330
2
100
AcDbEntity
  8
Profilo
  6
Continuous
370
     0
100
AcDbPolyline
 90
        5
 70
   128
 43
0.0
 10
0.2280661186572597
 20
0.1710069538394554
 10
0.2323878585885342
 20
0.1711732542714539
 10
0.2375407050374698
 20
0.1718384586904358
 10
0.2447713109705272
 20
0.1726699608504274
 10
0.2504228186060469
 20
0.1732520137079152
  0
LWPOLYLINE
  5
235D
330
2
100
AcDbEntity
  8
Profilo
  6
Continuous
370
     0
100
AcDbPolyline
 90
        6
 70
   128
 43
0.0
 10
0.2284816702135823
 20
0.1685124419775039
 10
0.2323047489582728
 20
0.1695102472604828
 10
0.2364602696290245
 20
0.1703417521114623
 10
0.2414468934124216
 20
0.1711732542714539
 10
0.2455193044529111
 20
0.1718384586904358
 10
0.251087700755662
 20
0.1729194128439191
  0
LWPOLYLINE
  5
235E
330
2
100
AcDbEntity
  8
Profilo
  6
Continuous
370
     0
100
AcDbPolyline
 90
        9
 70
   128
 43
0.0
 10
0.2509214814951393
 20
0.1686787424095024
 10
0.2532485715725534
 20
0.1674314878240206
 10
0.2548276698700911
 20
0.166267382109045
 10
0.255409442389444
 20
0.1652695768260661
 10
0.2553263327591826
 20
0.1642717715430872
 10
0.2547445602398288
 20
0.1631076658281116
 10
0.2537472344616449
 20
0.1624424641001176
 10
0.2521681361641073
 20
0.1616941108106313
 10
0.2502565976430167
 20
0.161195206823648
  0
LWPOLYLINE
  5
235F
330
2
100
AcDbEntity
  8
Profilo
  6
Continuous
370
     0
100
AcDbPolyline
 90
        6
 70
   128
 43
0.0
 10
0.2540796763877062
 20
0.1708406534074578
 10
0.2551601117961524
 20
0.1702586005499691
 10
0.255409442389444
 20
0.1695933961309872
 10
0.2554925537222137
 20
0.1686787424095024
 10
0.2553263327591826
 20
0.1678472402495108
 10
0.25466144890706
 20
0.1671820358305289
  0
LWPOLYLINE
  5
2360
330
2
100
AcDbEntity
  8
Profilo
  6
Continuous
370
     0
100
AcDbPolyline
 90
        6
 70
   128
 43
0.0
 10
0.2540796763877062
 20
0.1624424641001176
 10
0.2548276698700911
 20
0.1614446588171396
 10
0.2549107812028599
 20
0.160613156657148
 10
0.2547445602398288
 20
0.159864800676673
 10
0.2542458973507373
 20
0.1591164473871858
 10
0.2537472344616449
 20
0.158617546091192
  0
LWPOLYLINE
  5
2361
330
2
100
AcDbEntity
  8
Profilo
  6
Continuous
370
     0
100
AcDbPolyline
 90
       24
 70
   129
 43
0.0
 10
0.2233273137406679
 20
0.1791776292961937
 10
0.226633179596027
 20
0.1827069941675761
 10
0.229701083542968
 20
0.1855077854287666
 10
0.2342334159334967
 20
0.1884651556298127
 10
0.2394865488907434
 20
0.1905510719440506
 10
0.2440091958075548
 20
0.1917944041617161
 10
0.2468660360166788
 20
0.1918963138912619
 10
0.2483228565865292
 20
0.191419732073532
 10
0.2488900864049195
 20
0.1904846700126883
 10
0.2490097577985115
 20
0.1895442254728381
 10
0.2486611163383956
 20
0.1877797870117399
 10
0.2467055414957309
 20
0.1848997335925684
 10
0.2448924684462015
 20
0.1829787148885715
 10
0.2420044204933718
 20
0.1806124299131209
 10
0.2382717469531843
 20
0.1778962895642608
 10
0.2363203262242481
 20
0.1771779843213375
 10
0.2326928008757707
 20
0.1759454190162486
 10
0.229499693688568
 20
0.1745327881115954
 10
0.2268835033663854
 20
0.1738991337810007
 10
0.2264041226437157
 20
0.1739705726762348
 10
0.2259849259784494
 20
0.1754169592593857
 10
0.2252267722969878
 20
0.1768129478509708
 10
0.2245059727600664
 20
0.1776843992516299
 10
0.2236129287917126
 20
0.1787545095648493
  0
LWPOLYLINE
  5
2362
330
2
100
AcDbEntity
  8
Profilo
  6
Continuous
370
     0
100
AcDbPolyline
 90
        5
 70
   128
 43
0.0
 10
0.2248262534904479
 20
0.1779970661644208
 10
0.228755380137668
 20
0.1798045660004808
 10
0.2332614267957322
 20
0.1823910437136431
 10
0.2396234335243341
 20
0.1859262846370402
 10
0.2446220037713007
 20
0.1886267696989108
  0
LWPOLYLINE
  5
2363
330
2
100
AcDbEntity
  8
Profilo
  6
Continuous
370
     0
100
AcDbPolyline
 90
        6
 70
   128
 43
0.0
 10
0.226164781429445
 20
0.175851462407455
 10
0.2293150020823202
 20
0.1782363431820506
 10
0.2328359994465541
 20
0.1805948024086026
 10
0.2371248369957644
 20
0.1832713085408011
 10
0.2406326914937655
 20
0.1854443215234107
 10
0.2453635556211045
 20
0.1885739259513028
  0
LWPOLYLINE
  5
2364
330
2
100
AcDbEntity
  8
Profilo
  6
Continuous
370
     0
100
AcDbPolyline
 90
        9
 70
   128
 43
0.0
 10
0.2468328233657702
 20
0.1845924479756771
 10
0.2494600779244078
 20
0.1843306738105672
 10
0.251364458491969
 20
0.1838594751233653
 10
0.2522837897656998
 20
0.1831602579495513
 10
0.2525888500298685
 20
0.1822066013926047
 10
0.2524968462773036
 20
0.1809084732442965
 10
0.2518299990840762
 20
0.179912246930831
 10
0.2506574848926006
 20
0.1786165638870434
 10
0.2490823758675176
 20
0.1774241225824313
  0
LWPOLYLINE
  5
2365
330
2
100
AcDbEntity
  8
Profilo
  6
Continuous
370
     0
100
AcDbPolyline
 90
        6
 70
   128
 43
0.0
 10
0.2489232874655287
 20
0.1877983821593643
 10
0.2501442216109138
 20
0.1876741001680438
 10
0.2506291357531656
 20
0.1871549461076449
 10
0.251055943437994
 20
0.1863417215851226
 10
0.2512205773929801
 20
0.1855099037496044
 10
0.2508608675207875
 20
0.1846408949673159
  0
LWPOLYLINE
  5
2366
330
2
100
AcDbEntity
  8
Profilo
  6
Continuous
370
     0
100
AcDbPolyline
 90
        6
 70
   128
 43
0.0
 10
0.2521371353753135
 20
0.180039466948158
 10
0.253210034794662
 20
0.1794038597830079
 10
0.2536050217545323
 20
0.1786674572862459
 10
0.2537378370441528
 20
0.177912456504189
 10
0.2535635150127402
 20
0.1770302381909541
 10
0.2532937318362474
 20
0.1763784834688502
  0
LWPOLYLINE
  5
2367
330
2
100
AcDbEntity
  8
Profilo
  6
Continuous
370
     0
100
AcDbPolyline
 90
       24
 70
   129
 43
0.0
 10
0.2173213864909189
 20
0.1837323238549027
 10
0.2190249788288638
 20
0.1882581319148053
 10
0.2207875360799822
 20
0.1920197616484367
 10
0.2238431286308189
 20
0.1964864639630697
 10
0.2278981450368209
 20
0.2004238863030749
 10
0.2316007233154127
 20
0.2033033175365879
 10
0.2342011003471831
 20
0.2044907352668266
 10
0.2357294070200209
 20
0.2046079321758689
 10
0.2366112917983805
 20
0.2039611169300686
 10
0.2370817462940056
 20
0.203138055727895
 10
0.2374348649513096
 20
0.2013745078366893
 10
0.2367302981077208
 20
0.1979653193371396
 10
0.2357903790575961
 20
0.1954966964572227
 10
0.2340277087214244
 20
0.192205326096891
 10
0.2316185899475864
 20
0.1882675072988931
 10
0.2300905957926518
 20
0.1868571034043229
 10
0.2272108816910934
 20
0.1843301676951217
 10
0.2248014257589799
 20
0.1818031176970114
 10
0.2226268700813265
 20
0.1802165247380747
 10
0.2221566415617384
 20
0.1800990746108455
 10
0.2212158461604345
 20
0.1812749419524182
 10
0.2199811817858639
 20
0.18227453438672
 10
0.2189817598335151
 20
0.1828038124585312
 10
0.2177471813018488
 20
0.1834507123433811
  0
LWPOLYLINE
  5
2368
330
2
100
AcDbEntity
  8
Profilo
  6
Continuous
370
     0
100
AcDbPolyline
 90
        5
 70
   128
 43
0.0
 10
0.2191580081975988
 20
0.1832152451489744
 10
0.2220963476463473
 20
0.1863887689240833
 10
0.2252695897572656
 20
0.1905027521460763
 10
0.2297944394287161
 20
0.1962035234493304
 10
0.2333790852791817
 20
0.2006113163448731
  0
LWPOLYLINE
  5
2369
330
2
100
AcDbEntity
  8
Profilo
  6
Continuous
370
     0
100
AcDbPolyline
 90
        6
 70
   128
 43
0.0
 10
0.221215733774343
 20
0.1817451982190465
 10
0.2232135037978256
 20
0.1851540780063254
 10
0.225563937924758
 20
0.1886804375706921
 10
0.2285020526013226
 20
0.1927944738790595
 10
0.230911311508295
 20
0.1961444738971065
 10
0.2340844122822241
 20
0.2008462746951956
  0
LWPOLYLINE
  5
236A
330
2
100
AcDbEntity
  8
Profilo
  6
Continuous
370
     0
100
AcDbPolyline
 90
        9
 70
   128
 43
0.0
 10
0.2369654843368987
 20
0.1977301331079626
 10
0.2394929276863293
 20
0.1984936921068738
 10
0.2414326658457564
 20
0.1987871361761451
 10
0.2425495960211967
 20
0.19849295658779
 10
0.2431963835199551
 20
0.197728634322752
 10
0.2436081552714895
 20
0.1964941119841315
 10
0.2433733081034046
 20
0.1953185275106042
 10
0.2427858826747751
 20
0.1936727707105363
 10
0.241786999216369
 20
0.191968330467416
  0
LWPOLYLINE
  5
236B
330
2
100
AcDbEntity
  8
Profilo
  6
Continuous
370
     0
100
AcDbPolyline
 90
        6
 70
   128
 43
0.0
 10
0.2376699634347648
 20
0.2014920160597808
 10
0.23884552016125
 20
0.2018444257411882
 10
0.2394921940700621
 20
0.2015503585389247
 10
0.240197720505956
 20
0.2009623692770199
 10
0.2406681453517225
 20
0.2002568724909846
 10
0.2406683720267222
 20
0.1993163580549095
  0
LWPOLYLINE
  5
236C
330
2
100
AcDbEntity
  8
Profilo
  6
Continuous
370
     0
100
AcDbPolyline
 90
        6
 70
   128
 43
0.0
 10
0.2436083800436735
 20
0.195553599450873
 10
0.2448428461892482
 20
0.1953769558326523
 10
0.2454895755921442
 20
0.1948477636037456
 10
0.2459012072105451
 20
0.1942010600450759
 10
0.2460777649858614
 20
0.1933192864489539
 10
0.2460779335649987
 20
0.1926139020490101
  0
LWPOLYLINE
  5
236D
330
2
100
AcDbEntity
  8
Profilo
  6
Continuous
370
     0
100
AcDbPolyline
 90
       24
 70
   129
 43
0.0
 10
0.2100296270840229
 20
0.1856419440800667
 10
0.2098715894142038
 20
0.1904751820779207
 10
0.2100604666056394
 20
0.1946249762563068
 10
0.2111741330499339
 20
0.19992099574788
 10
0.2134136934156925
 20
0.2051104872552096
 10
0.2157325190771044
 20
0.2091876502013779
 10
0.2176805491009106
 20
0.2112798023468467
 10
0.2190476710399314
 20
0.2119729358156526
 10
0.2201099518150591
 20
0.2117128391426746
 10
0.2208595669804398
 20
0.21113246488514
 10
0.2218606866406181
 20
0.2096382917436601
 10
0.2225143917111274
 20
0.2062189862084185
 10
0.2225907208154019
 20
0.2035785846079274
 10
0.2222217786759244
 20
0.1998632101637285
 10
0.2215029811630358
 20
0.1953032101321728
 10
0.2206310368408899
 20
0.1934154287935612
 10
0.2189375443535391
 20
0.1899788257352426
 10
0.2176785575004065
 20
0.1867220770981228
 10
0.2162766928568085
 20
0.1844240899063416
 10
0.2158872045697779
 20
0.1841356314738316
 10
0.2145680380039541
 20
0.1848619644303342
 10
0.213044829395042
 20
0.1853129818205594
 10
0.2119189379597279
 20
0.1854195087750072
 10
0.210530778254713
 20
0.1855447135881814
  0
LWPOLYLINE
  5
236E
330
2
100
AcDbEntity
  8
Profilo
  6
Continuous
370
     0
100
AcDbPolyline
 90
        5
 70
   128
 43
0.0
 10
0.2119243217417774
 20
0.1858670703456304
 10
0.2134245384470961
 20
0.1899234778330923
 10
0.2147818786649913
 20
0.1949386499117176
 10
0.2167807039346781
 20
0.201937060841529
 10
0.2184056955528031
 20
0.2073811150591378
  0
LWPOLYLINE
  5
236F
330
2
100
AcDbEntity
  8
Profilo
  6
Continuous
370
     0
100
AcDbPolyline
 90
        6
 70
   128
 43
0.0
 10
0.2143879748905397
 20
0.1852963815618132
 10
0.2149291519083838
 20
0.189210289315733
 10
0.2157511905089264
 20
0.1933676929407697
 10
0.2168912809874155
 20
0.1982929346911886
 10
0.2178351564747589
 20
0.2023099146097509
 10
0.2189674180666778
 20
0.2078681052284581
  0
LWPOLYLINE
  5
2370
330
2
100
AcDbEntity
  8
Profilo
  6
Continuous
370
     0
100
AcDbPolyline
 90
        9
 70
   128
 43
0.0
 10
0.2228216773280196
 20
0.2060917043383801
 10
0.2248645291296234
 20
0.2077643515654077
 10
0.2265443173299135
 20
0.2087777641916835
 10
0.2276888039128511
 20
0.2089334083643688
 10
0.2285788511126552
 20
0.2084747815274939
 10
0.229431709851839
 20
0.2074918098336427
 10
0.2296646160613416
 20
0.2063158392794484
 10
0.2297517095920418
 20
0.204570560277088
 10
0.2294811226519555
 20
0.2026136066716855
  0
LWPOLYLINE
  5
2371
330
2
100
AcDbEntity
  8
Profilo
  6
Continuous
370
     0
100
AcDbPolyline
 90
        6
 70
   128
 43
0.0
 10
0.2220329208674632
 20
0.2098368234804695
 10
0.2229841323198891
 20
0.2106122736552114
 10
0.2236941157547574
 20
0.210588062376903
 10
0.2245709509374651
 20
0.2103148244106048
 10
0.2252755487556555
 20
0.2098430541643814
 10
0.225635677468635
 20
0.2089742188716277
  0
LWPOLYLINE
  5
2372
330
2
100
AcDbEntity
  8
Profilo
  6
Continuous
370
     0
100
AcDbPolyline
 90
        6
 70
   128
 43
0.0
 10
0.2297918360786695
 20
0.2066229755706848
 10
0.2309999326702701
 20
0.2069321878889896
 10
0.2317999458272175
 20
0.2066907706476504
 10
0.2324277265919474
 20
0.2062508190667927
 10
0.2329282848532013
 20
0.2055037322244952
 10
0.2331983795233223
 20
0.2048521065272773
  0
CIRCLE
  5
2373
330
2
100
AcDbEntity
  8
Profilo
  6
Continuous
370
     0
100
AcDbCircle
 10
0.2088753522010074
 20
0.1663580589507994
 30
0.0
 40
0.0586069423698385
  0
CIRCLE
  5
2374
330
2
100
AcDbEntity
  8
Profilo
  6
Continuous
370
     0
100
AcDbCircle
 10
0.2088753522010074
 20
0.1663580589507994
 30
0.0
 40
0.048632398441927
  0
LWPOLYLINE
  5
2375
330
2
100
AcDbEntity
  8
Profilo
  6
Continuous
370
     0
100
AcDbPolyline
 90
        6
 70
   128
 43
0.0
 10
0.1686444854841187
 20
0.134047640092027
 10
0.1641972259196129
 20
0.130280517677593
 10
0.1712073121372328
 20
0.1228592887344193
 10
0.1746369797726683
 20
0.1265887397544583
 10
0.1715465103245806
 20
0.1295270931947063
 10
0.1723002834891374
 20
0.130318189071988
  0
LWPOLYLINE
  5
2376
330
2
100
AcDbEntity
  8
Profilo
  6
Continuous
370
     0
100
AcDbPolyline
 90
        6
 70
   128
 43
0.0
 10
0.1712073121372328
 20
0.1338969545144459
 10
0.1670238739702134
 20
0.1300921624081253
 10
0.1711696237423026
 20
0.1258353152715708
 10
0.1718480201169981
 20
0.1265887397544583
 10
0.1687198622739792
 20
0.1297531215610774
 10
0.1721872183043458
 20
0.1329928461564866
  0
LWPOLYLINE
  5
2377
330
2
100
AcDbEntity
  8
Profilo
  6
Continuous
370
     0
100
AcDbPolyline
 90
        6
 70
   128
 43
0.0
 10
0.1757209603268532
 20
0.1268198229876665
 10
0.1720940827327593
 20
0.1222574674735843
 10
0.1804172820536372
 20
0.1163464353411727
 10
0.1830534697867052
 20
0.1206733209690174
 10
0.1794491385236294
 20
0.1229522940920267
 10
0.1800340929987452
 20
0.1238752431332528
  0
LWPOLYLINE
  5
2378
330
2
100
AcDbEntity
  8
Profilo
  6
Continuous
370
     0
100
AcDbPolyline
 90
        6
 70
   128
 43
0.0
 10
0.1782639402823052
 20
0.1271720154682334
 10
0.1749031638238425
 20
0.1226241830762216
 10
0.179799723855186
 20
0.1192579257217978
 10
0.1803180992087854
 20
0.1201292219317025
 10
0.1766327077759393
 20
0.1226225277082988
 10
0.1794014006178783
 20
0.126476449508546
  0
LWPOLYLINE
  5
2379
330
2
100
AcDbEntity
  8
Profilo
  6
Continuous
370
     0
100
AcDbPolyline
 90
        6
 70
   128
 43
0.0
 10
0.1840715398561135
 20
0.1211114381180713
 10
0.1814044231043961
 20
0.115929178268148
 10
0.1907208796463356
 20
0.1117555005964028
 10
0.1924622802608451
 20
0.11651354104392
 10
0.1884825996118891
 20
0.1180455541906358
 10
0.1888762559251318
 20
0.1190648879817482
  0
LWPOLYLINE
  5
237A
330
2
100
AcDbEntity
  8
Profilo
  6
Continuous
370
     0
100
AcDbPolyline
 90
        6
 70
   128
 43
0.0
 10
0.1864969478203355
 20
0.1219529740972705
 10
0.1840879858249829
 20
0.1168368720679378
 10
0.1895471840595993
 20
0.114490567877956
 10
0.1898856175179717
 20
0.1154462523901605
 10
0.1857846200212712
 20
0.1171726657940011
 10
0.1877482503615675
 20
0.1214926807456063
  0
LWPOLYLINE
  5
237B
330
2
100
AcDbEntity
  8
Profilo
  6
Continuous
370
     0
100
AcDbPolyline
 90
        6
 70
   128
 43
0.0
 10
0.19337531598365
 20
0.1171418555124803
 10
0.1917704558753415
 20
0.1115388426665038
 10
0.2017221434381642
 20
0.1092629115477253
 10
0.2025018358850885
 20
0.1142692579888569
 10
0.1982997427457609
 20
0.1149954367532133
 10
0.1984869729057777
 20
0.1160719828682681
  0
LWPOLYLINE
  5
237C
330
2
100
AcDbEntity
  8
Profilo
  6
Continuous
370
     0
100
AcDbPolyline
 90
        6
 70
   128
 43
0.0
 10
0.1955899448887624
 20
0.1184403952345689
 10
0.1942253724150391
 20
0.1129526324997607
 10
0.2000374149263249
 20
0.111716448628419
 10
0.2001829006814613
 20
0.112719795023074
 10
0.1958238961548386
 20
0.1136129709552323
 10
0.1969070027807311
 20
0.1182330633062978
  0
LWPOLYLINE
  5
237D
330
2
100
AcDbEntity
  8
Profilo
  6
Continuous
370
     0
100
AcDbPolyline
 90
        6
 70
   128
 43
0.0
 10
0.203274749810499
 20
0.1150636240042588
 10
0.2027938202195467
 20
0.1092551788036944
 10
0.2129983010311833
 20
0.1089644569944193
 10
0.2127863221670441
 20
0.1140267183430248
 10
0.2085233006201279
 20
0.113919156082354
 10
0.2084969094768687
 20
0.1150115434578838
  0
LWPOLYLINE
  5
237E
330
2
100
AcDbEntity
  8
Profilo
  6
Continuous
370
     0
100
AcDbPolyline
 90
        6
 70
   128
 43
0.0
 10
0.2051934927096561
 20
0.1167692653159473
 10
0.204925749512467
 20
0.1111207335199891
 10
0.2108672827661446
 20
0.1110421758202038
 10
0.2108142298820641
 20
0.1120546260580448
 10
0.2063647324249191
 20
0.1120802402683478
 10
0.2065256921561889
 20
0.1168228624607994
  0
LWPOLYLINE
  5
237F
330
2
100
AcDbEntity
  8
Profilo
  6
Continuous
370
     0
100
AcDbPolyline
 90
        6
 70
   128
 43
0.0
 10
0.2133894116463622
 20
0.1149566088647835
 10
0.2140508944272361
 20
0.1091659466012744
 10
0.2241160160128355
 20
0.1108716063775945
 10
0.2229205120665019
 20
0.1157952427689952
 10
0.2187603876393163
 20
0.1148580730406532
 10
0.2185213893896152
 20
0.1159243218424339
  0
LWPOLYLINE
  5
2380
330
2
100
AcDbEntity
  8
Profilo
  6
Continuous
370
     0
100
AcDbPolyline
 90
        6
 70
   128
 43
0.0
 10
0.2149385323259918
 20
0.1170038049269972
 10
0.215777907626252
 20
0.1114115739790742
 10
0.2216206018314337
 20
0.1124936613791918
 10
0.221371049100719
 20
0.113476307565368
 10
0.2170020504050236
 20
0.112633375714078
 10
0.2162346776494641
 20
0.1173162714367535
  0
LWPOLYLINE
  5
2381
330
2
100
AcDbEntity
  8
Profilo
  6
Continuous
370
     0
100
AcDbPolyline
 90
        6
 70
   128
 43
0.0
 10
0.2233306007092533
 20
0.1168249226258469
 10
0.2251090754496494
 20
0.1112745752027402
 10
0.2346480408312614
 20
0.1149110690159973
 10
0.2325149543489444
 20
0.1195068678648787
 10
0.2286175982902008
 20
0.117776105575955
 10
0.2281751775027643
 20
0.1187752404604934
  0
LWPOLYLINE
  5
2382
330
2
100
AcDbEntity
  8
Profilo
  6
Continuous
370
     0
100
AcDbPolyline
 90
        6
 70
   128
 43
0.0
 10
0.2244505673303947
 20
0.1191350008419965
 10
0.2263648044060429
 20
0.1138139770412792
 10
0.231884128101044
 20
0.1160151255293556
 10
0.2314476656951849
 20
0.1169302051220054
 10
0.2273270639306522
 20
0.1152511206074462
 10
0.2256608483929123
 20
0.1196943288039207
  0
LWPOLYLINE
  5
2383
330
2
100
AcDbEntity
  8
Profilo
  6
Continuous
370
     0
100
AcDbPolyline
 90
        6
 70
   128
 43
0.0
 10
0.2327162826785689
 20
0.1205967670373764
 10
0.2355434035915942
 20
0.1155000311934706
 10
0.2441896356791173
 20
0.1209276106257897
 10
0.2412009399780843
 20
0.125018957959744
 10
0.2377161254954578
 20
0.1225611153343784
 10
0.2370872841530329
 20
0.1234547401083839
  0
LWPOLYLINE
  5
2384
330
2
100
AcDbEntity
  8
Profilo
  6
Continuous
370
     0
100
AcDbPolyline
 90
        6
 70
   128
 43
0.0
 10
0.2333640555520566
 20
0.1230809523971217
 10
0.236279591345792
 20
0.1182356197042063
 10
0.2412634400162861
 20
0.1214712403782625
 10
0.2406568409407694
 20
0.1222835873818242
 10
0.2369429885223497
 20
0.1198328764802488
 10
0.2344419619311204
 20
0.1238656471513113
  0
LWPOLYLINE
  5
2385
330
2
100
AcDbEntity
  8
Profilo
  6
Continuous
370
     0
100
AcDbPolyline
 90
        6
 70
   128
 43
0.0
 10
0.2411857710597807
 20
0.1261271922339107
 10
0.2449528934742138
 20
0.1216799326694049
 10
0.2523741224173874
 20
0.1286900188870239
 10
0.2486446713973494
 20
0.1321196865224594
 10
0.2457063179571004
 20
0.1290292170743716
 10
0.2449152220798187
 20
0.1297829902389294
  0
LWPOLYLINE
  5
2386
330
2
100
AcDbEntity
  8
Profilo
  6
Continuous
370
     0
100
AcDbPolyline
 90
        6
 70
   128
 43
0.0
 10
0.2413364566373608
 20
0.1286900188870239
 10
0.2451412487436815
 20
0.1245065807200054
 10
0.249398095880236
 20
0.1286523304920937
 10
0.2486446713973494
 20
0.12933072686679
 10
0.2454802895907302
 20
0.1262025690237711
 10
0.2422405649953201
 20
0.1296699250541378
  0
LWPOLYLINE
  5
2387
330
2
100
AcDbEntity
  8
Profilo
  6
Continuous
370
     0
100
AcDbPolyline
 90
        6
 70
   128
 43
0.0
 10
0.2484135881641403
 20
0.1332036670766443
 10
0.2529759436782233
 20
0.1295767894825504
 10
0.258886975810634
 20
0.1378999888034282
 10
0.2545600901827902
 20
0.1405361765364963
 10
0.2522811170597801
 20
0.1369318452734205
 10
0.2513581680185539
 20
0.1375167997485371
  0
LWPOLYLINE
  5
2388
330
2
100
AcDbEntity
  8
Profilo
  6
Continuous
370
     0
100
AcDbPolyline
 90
        6
 70
   128
 43
0.0
 10
0.2480613956835733
 20
0.1357466470320963
 10
0.2526092280755852
 20
0.1323858705736345
 10
0.2559754854300089
 20
0.1372824306049771
 10
0.2551041892201042
 20
0.1378008059585773
 10
0.2526108834435079
 20
0.1341154145257304
 10
0.2487569616432617
 20
0.1368841073676694
  0
LWPOLYLINE
  5
2389
330
2
100
AcDbEntity
  8
Profilo
  6
Continuous
370
     0
100
AcDbPolyline
 90
        6
 70
   128
 43
0.0
 10
0.2541219730337363
 20
0.1415542466059054
 10
0.2593042328836597
 20
0.138887129854188
 10
0.2634779105554039
 20
0.1482035863961266
 10
0.2587198701078868
 20
0.1499449870106362
 10
0.257187856961171
 20
0.1459653063616801
 10
0.2561685231700586
 20
0.1463589626749229
  0
LWPOLYLINE
  5
238A
330
2
100
AcDbEntity
  8
Profilo
  6
Continuous
370
     0
100
AcDbPolyline
 90
        6
 70
   128
 43
0.0
 10
0.2532804370545372
 20
0.1439796545701275
 10
0.2583965390838689
 20
0.1415706925747748
 10
0.2607428432738508
 20
0.1470298908093903
 10
0.2597871587616463
 20
0.1473683242677637
 10
0.2580607453578056
 20
0.1432673267710622
 10
0.2537407304062014
 20
0.1452309571113595
  0
LWPOLYLINE
  5
238B
330
2
100
AcDbEntity
  8
Profilo
  6
Continuous
370
     0
100
AcDbPolyline
 90
        6
 70
   128
 43
0.0
 10
0.2580915556393264
 20
0.1508580227334419
 10
0.2636945684853038
 20
0.1492531626251334
 10
0.2659704996040824
 20
0.1592048501879553
 10
0.2609641531629507
 20
0.1599845426348805
 10
0.2602379743985934
 20
0.1557824494955529
 10
0.2591614282835386
 20
0.1559696796555687
  0
LWPOLYLINE
  5
238C
330
2
100
AcDbEntity
  8
Profilo
  6
Continuous
370
     0
100
AcDbPolyline
 90
        6
 70
   128
 43
0.0
 10
0.2567930159172378
 20
0.1530726516385534
 10
0.262280778652046
 20
0.1517080791648311
 10
0.2635169625233877
 20
0.1575201216761168
 10
0.2625136161287336
 20
0.1576656074312523
 10
0.2616204401965745
 20
0.1533066029046297
 10
0.257000347845509
 20
0.1543897095305231
  0
LWPOLYLINE
  5
238D
330
2
100
AcDbEntity
  8
Profilo
  6
Continuous
370
     0
100
AcDbPolyline
 90
        6
 70
   128
 43
0.0
 10
0.2601697871475479
 20
0.1607574565602909
 10
0.2659782323481123
 20
0.1602765269693378
 10
0.2662689541573875
 20
0.1704810077809753
 10
0.2612066928087828
 20
0.1702690289168351
 10
0.2613142550694527
 20
0.1660060073699199
 10
0.2602218676939239
 20
0.1659796162266598
  0
LWPOLYLINE
  5
238E
330
2
100
AcDbEntity
  8
Profilo
  6
Continuous
370
     0
100
AcDbPolyline
 90
        6
 70
   128
 43
0.0
 10
0.2584641458358603
 20
0.1626761994594472
 10
0.2641126776318177
 20
0.1624084562622581
 10
0.2641912353316038
 20
0.1683499895159366
 10
0.2631787850937628
 20
0.1682969366318552
 10
0.2631531708834589
 20
0.1638474391747111
 10
0.2584105486910082
 20
0.16400839890598
  0
LWPOLYLINE
  5
238F
330
2
100
AcDbEntity
  8
Profilo
  6
Continuous
370
     0
100
AcDbPolyline
 90
        6
 70
   128
 43
0.0
 10
0.2602768022870241
 20
0.1708721183961532
 10
0.2660674645505332
 20
0.1715336011770272
 10
0.2643618047742122
 20
0.1815987227626266
 10
0.2594381683828115
 20
0.1804032188162929
 10
0.2603753381111535
 20
0.1762430943891073
 10
0.2593090893093728
 20
0.1760040961394071
  0
LWPOLYLINE
  5
2390
330
2
100
AcDbEntity
  8
Profilo
  6
Continuous
370
     0
100
AcDbPolyline
 90
        6
 70
   128
 43
0.0
 10
0.2582296062248104
 20
0.1724212390757829
 10
0.2638218371727325
 20
0.1732606143760431
 10
0.2627397497726149
 20
0.1791033085812257
 10
0.2617571035864388
 20
0.1788537558505101
 10
0.2626000354377287
 20
0.1744847571548147
 10
0.2579171397150541
 20
0.1737173843992552
  0
LWPOLYLINE
  5
2391
330
2
100
AcDbEntity
  8
Profilo
  6
Continuous
370
     0
100
AcDbPolyline
 90
        6
 70
   128
 43
0.0
 10
0.2584084885259599
 20
0.1808133074590443
 10
0.2639588359490665
 20
0.1825917821994405
 10
0.2603223421358094
 20
0.1921307475810534
 10
0.255726543286928
 20
0.1899976610987364
 10
0.2574573055758518
 20
0.1861003050399927
 10
0.2564581706913134
 20
0.1856578842525554
  0
LWPOLYLINE
  5
2392
330
2
100
AcDbEntity
  8
Profilo
  6
Continuous
370
     0
100
AcDbPolyline
 90
        6
 70
   128
 43
0.0
 10
0.2560984103098103
 20
0.1819332740801858
 10
0.2614194341105276
 20
0.183847511155834
 10
0.2592182856224521
 20
0.1893668348508359
 10
0.2583032060298014
 20
0.1889303724449769
 10
0.2599822905443605
 20
0.1848097706804432
 10
0.255539082347886
 20
0.1831435551427034
  0
LWPOLYLINE
  5
2393
330
2
100
AcDbEntity
  8
Profilo
  6
Continuous
370
     0
100
AcDbPolyline
 90
        6
 70
   128
 43
0.0
 10
0.2546366441144303
 20
0.1901989894283609
 10
0.2597333799583361
 20
0.1930261103413853
 10
0.254305800526017
 20
0.2016723424289084
 10
0.2502144531920636
 20
0.1986836467278754
 10
0.2526722958174292
 20
0.1951988322452489
 10
0.2517786710434238
 20
0.194569990902824
  0
LWPOLYLINE
  5
2394
330
2
100
AcDbEntity
  8
Profilo
  6
Continuous
370
     0
100
AcDbPolyline
 90
        6
 70
   128
 43
0.0
 10
0.2521524587546851
 20
0.1908467623018477
 10
0.2569977914476005
 20
0.193762298095584
 10
0.2537621707735451
 20
0.198746146766078
 10
0.2529498237699825
 20
0.1981395476905614
 10
0.2554005346715589
 20
0.1944256952721408
 10
0.2513677640004954
 20
0.1919246686809115
  0
LWPOLYLINE
  5
2395
330
2
100
AcDbEntity
  8
Profilo
  6
Continuous
370
     0
100
AcDbPolyline
 90
        6
 70
   128
 43
0.0
 10
0.249106218917897
 20
0.1986684778095717
 10
0.2535534784824027
 20
0.2024356002240057
 10
0.2465433922647828
 20
0.2098568291671794
 10
0.2431137246293473
 20
0.2061273781471404
 10
0.2462041940774351
 20
0.2031890247068924
 10
0.2454504209128783
 20
0.2023979288296107
  0
LWPOLYLINE
  5
2396
330
2
100
AcDbEntity
  8
Profilo
  6
Continuous
370
     0
100
AcDbPolyline
 90
        6
 70
   128
 43
0.0
 10
0.2465433922647828
 20
0.1988191633871528
 10
0.2507268304318022
 20
0.2026239554934734
 10
0.2465810806597131
 20
0.2068808026300271
 10
0.2459026842850176
 20
0.2061273781471404
 10
0.2490308421280365
 20
0.2029629963405213
 10
0.2455634860976699
 20
0.1997232717451121
  0
LWPOLYLINE
  5
2397
330
2
100
AcDbEntity
  8
Profilo
  6
Continuous
370
     0
100
AcDbPolyline
 90
        6
 70
   128
 43
0.0
 10
0.2420297440751624
 20
0.2058962949139322
 10
0.2456566216692564
 20
0.2104586504280144
 10
0.2373334223483785
 20
0.2163696825604251
 10
0.2346972346153104
 20
0.2120427969325813
 10
0.2383015658783862
 20
0.209763823809572
 10
0.2377166114032705
 20
0.2088408747683459
  0
LWPOLYLINE
  5
2398
330
2
100
AcDbEntity
  8
Profilo
  6
Continuous
370
     0
100
AcDbPolyline
 90
        6
 70
   128
 43
0.0
 10
0.2394867641197105
 20
0.2055441024333644
 10
0.2428475405781731
 20
0.2100919348253771
 10
0.2379509805468296
 20
0.2134581921798009
 10
0.2374326051932303
 20
0.2125868959698962
 10
0.2411179966260764
 20
0.2100935901932999
 10
0.2383493037841373
 20
0.2062396683930527
  0
LWPOLYLINE
  5
2399
330
2
100
AcDbEntity
  8
Profilo
  6
Continuous
370
     0
100
AcDbPolyline
 90
        6
 70
   128
 43
0.0
 10
0.2336791645459022
 20
0.2116046797835274
 10
0.2363462812976196
 20
0.2167869396334507
 10
0.2270298247556801
 20
0.2209606173051959
 10
0.2252884241411706
 20
0.2162025768576787
 10
0.2292681047901266
 20
0.2146705637109629
 10
0.2288744484768839
 20
0.2136512299198505
  0
LWPOLYLINE
  5
239A
330
2
100
AcDbEntity
  8
Profilo
  6
Continuous
370
     0
100
AcDbPolyline
 90
        6
 70
   128
 43
0.0
 10
0.2312537565816801
 20
0.2107631438043283
 10
0.2336627185770328
 20
0.2158792458336609
 10
0.2282035203424164
 20
0.2182255500236427
 10
0.2278650868840439
 20
0.2172698655114382
 10
0.2319660843807445
 20
0.2155434521075976
 10
0.2300024540404482
 20
0.2112234371559924
  0
LWPOLYLINE
  5
239B
330
2
100
AcDbEntity
  8
Profilo
  6
Continuous
370
     0
100
AcDbPolyline
 90
        6
 70
   128
 43
0.0
 10
0.2243753884183657
 20
0.2155742623891184
 10
0.2259802485266742
 20
0.2211772752350949
 10
0.2160285609638515
 20
0.2234532063538734
 10
0.2152488685169271
 20
0.2184468599127418
 10
0.2194509616562548
 20
0.2177206811483845
 10
0.219263731496238
 20
0.2166441350333306
  0
LWPOLYLINE
  5
239C
330
2
100
AcDbEntity
  8
Profilo
  6
Continuous
370
     0
100
AcDbPolyline
 90
        6
 70
   128
 43
0.0
 10
0.2221607595132533
 20
0.2142757226670298
 10
0.2235253319869765
 20
0.219763485401838
 10
0.2177132894756908
 20
0.2209996692731797
 10
0.2175678037205544
 20
0.2199963228785247
 10
0.221926808247177
 20
0.2191031469463656
 10
0.2208437016212845
 20
0.2144830545953009
  0
LWPOLYLINE
  5
239D
330
2
100
AcDbEntity
  8
Profilo
  6
Continuous
370
     0
100
AcDbPolyline
 90
        6
 70
   128
 43
0.0
 10
0.2144759545915167
 20
0.2176524938973399
 10
0.2149568841824698
 20
0.2234609390979043
 10
0.2047524033708323
 20
0.2237516609071795
 10
0.2049643822349716
 20
0.2186893995585739
 10
0.2092274037818877
 20
0.2187969618192447
 10
0.2092537949251469
 20
0.2177045744437149
  0
LWPOLYLINE
  5
239E
330
2
100
AcDbEntity
  8
Profilo
  6
Continuous
370
     0
100
AcDbPolyline
 90
        6
 70
   128
 43
0.0
 10
0.2125572116923604
 20
0.2159468525856514
 10
0.2128249548895496
 20
0.2215953843816096
 10
0.206883421635871
 20
0.2216739420813949
 10
0.2069364745199516
 20
0.2206614918435539
 10
0.2113859719770965
 20
0.2206358776332509
 10
0.2112250122458268
 20
0.2158932554407993
  0
LWPOLYLINE
  5
239F
330
2
100
AcDbEntity
  8
Profilo
  6
Continuous
370
     0
100
AcDbPolyline
 90
        6
 70
   128
 43
0.0
 10
0.2043612927556535
 20
0.2177595090368152
 10
0.2036998099747795
 20
0.2235501713003243
 10
0.1936346883891802
 20
0.2218445115240033
 10
0.1948301923355138
 20
0.2169208751326035
 10
0.1989903167626994
 20
0.2178580448609455
 10
0.1992293150124005
 20
0.2167917960591648
  0
LWPOLYLINE
  5
23A0
330
2
100
AcDbEntity
  8
Profilo
  6
Continuous
370
     0
100
AcDbPolyline
 90
        6
 70
   128
 43
0.0
 10
0.2028121720760239
 20
0.2157123129746015
 10
0.2019727967757636
 20
0.2213045439225236
 10
0.1961301025705819
 20
0.2202224565224069
 10
0.1963796553012975
 20
0.2192398103362307
 10
0.200748653996992
 20
0.2200827421875198
 10
0.2015160267525515
 20
0.2153998464648452
  0
LWPOLYLINE
  5
23A1
330
2
100
AcDbEntity
  8
Profilo
  6
Continuous
370
     0
100
AcDbPolyline
 90
        6
 70
   128
 43
0.0
 10
0.1944201036927624
 20
0.2158911952757518
 10
0.1926416289523663
 20
0.2214415426988585
 10
0.1831026635707542
 20
0.2178050488856014
 10
0.1852357500530712
 20
0.21320925003672
 10
0.1891331061118149
 20
0.2149400123256437
 10
0.1895755268992523
 20
0.2139408774411053
  0
LWPOLYLINE
  5
23A2
330
2
100
AcDbEntity
  8
Profilo
  6
Continuous
370
     0
100
AcDbPolyline
 90
        6
 70
   128
 43
0.0
 10
0.193300137071621
 20
0.2135811170596022
 10
0.1913858999959728
 20
0.2189021408603196
 10
0.1858665763009717
 20
0.216700992372244
 10
0.1863030387068307
 20
0.2157859127795934
 10
0.1904236404713635
 20
0.2174649972941525
 10
0.1920898560091033
 20
0.213021789097678
  0
LWPOLYLINE
  5
23A3
330
2
100
AcDbEntity
  8
Profilo
  6
Continuous
370
     0
100
AcDbPolyline
 90
        6
 70
   128
 43
0.0
 10
0.1850344217234468
 20
0.2121193508642223
 10
0.1822073008104215
 20
0.2172160867081281
 10
0.1735610687228983
 20
0.2117885072758081
 10
0.1765497644239313
 20
0.2076971599418547
 10
0.1800345789065578
 20
0.2101550025672203
 10
0.1806634202489827
 20
0.2092613777932148
  0
LWPOLYLINE
  5
23A4
330
2
100
AcDbEntity
  8
Profilo
  6
Continuous
370
     0
100
AcDbPolyline
 90
        6
 70
   128
 43
0.0
 10
0.184386648849959
 20
0.209635165504477
 10
0.1814711130562237
 20
0.2144804981973924
 10
0.1764872643857296
 20
0.2112448775233362
 10
0.1770938634612462
 20
0.2104325305197745
 10
0.1808077158796659
 20
0.21288324142135
 10
0.1833087424708952
 20
0.2088504707502874
  0
LWPOLYLINE
  5
23A5
330
2
100
AcDbEntity
  8
Profilo
  6
Continuous
370
     0
100
AcDbPolyline
 90
        6
 70
   128
 43
0.0
 10
0.176564933342235
 20
0.206588925667688
 10
0.1727978109278019
 20
0.2110361852321947
 10
0.1653765819846282
 20
0.2040260990145748
 10
0.1691060330046663
 20
0.2005964313791393
 10
0.1720443864449153
 20
0.2036869008272271
 10
0.1728354823221969
 20
0.2029331276626702
  0
LWPOLYLINE
  5
23A6
330
2
100
AcDbEntity
  8
Profilo
  6
Continuous
370
     0
100
AcDbPolyline
 90
        6
 70
   128
 43
0.0
 10
0.1764142477646549
 20
0.2040260990145748
 10
0.1726094556583342
 20
0.2082095371815933
 10
0.1683526085217797
 20
0.204063787409505
 10
0.1691060330046663
 20
0.2033853910348087
 10
0.1722704148112855
 20
0.2065135488778276
 10
0.1755101394066956
 20
0.2030461928474609
  0
LWPOLYLINE
  5
23A7
330
2
100
AcDbEntity
  8
Profilo
  6
Continuous
370
     0
100
AcDbPolyline
 90
        6
 70
   128
 43
0.0
 10
0.1693371162378745
 20
0.1995124508249544
 10
0.1647747607237924
 20
0.2031393284190484
 10
0.1588637285913816
 20
0.1948161290981705
 10
0.1631906142192254
 20
0.1921799413651024
 10
0.1654695873422347
 20
0.1957842726281782
 10
0.1663925363834617
 20
0.1951993181530616
  0
LWPOLYLINE
  5
23A8
330
2
100
AcDbEntity
  8
Profilo
  6
Continuous
370
     0
100
AcDbPolyline
 90
        6
 70
   128
 43
0.0
 10
0.1696893087184423
 20
0.1969694708695024
 10
0.1651414763264305
 20
0.2003302473279642
 10
0.1617752189720059
 20
0.1954336872966216
 10
0.1626465151819114
 20
0.1949153119430214
 10
0.1651398209585078
 20
0.1986007033758683
 10
0.168993742758754
 20
0.1958320105339293
  0
LWPOLYLINE
  5
23A9
330
2
100
AcDbEntity
  8
Profilo
  6
Continuous
370
     0
100
AcDbPolyline
 90
        6
 70
   128
 43
0.0
 10
0.1636287313682794
 20
0.1911618712956942
 10
0.158446471518356
 20
0.1938289880474107
 10
0.1542727938466117
 20
0.1845125315054721
 10
0.1590308342941289
 20
0.1827711308909625
 10
0.1605628474408447
 20
0.1867508115399186
 10
0.1615821812319562
 20
0.1863571552266758
  0
LWPOLYLINE
  5
23AA
330
2
100
AcDbEntity
  8
Profilo
  6
Continuous
370
     0
100
AcDbPolyline
 90
        6
 70
   128
 43
0.0
 10
0.1644702673474785
 20
0.1887364633314712
 10
0.1593541653181467
 20
0.1911454253268239
 10
0.157007861128164
 20
0.1856862270922084
 10
0.1579635456403694
 20
0.185347793633835
 10
0.15968995904421
 20
0.1894487911305356
 10
0.1640099739958143
 20
0.1874851607902392
  0
LWPOLYLINE
  5
23AB
330
2
100
AcDbEntity
  8
Profilo
  6
Continuous
370
     0
100
AcDbPolyline
 90
        6
 70
   128
 43
0.0
 10
0.1596591487626884
 20
0.1818580951681568
 10
0.1540561359167119
 20
0.1834629552764653
 10
0.1517802047979333
 20
0.1735112677136434
 10
0.1567865512390649
 20
0.1727315752667182
 10
0.1575127300034222
 20
0.1769336684060458
 10
0.1585892761184771
 20
0.17674643824603
  0
LWPOLYLINE
  5
23AC
330
2
100
AcDbEntity
  8
Profilo
  6
Continuous
370
     0
100
AcDbPolyline
 90
        6
 70
   128
 43
0.0
 10
0.160957688484777
 20
0.1796434662630453
 10
0.1554699257499696
 20
0.1810080387367676
 10
0.1542337418786279
 20
0.1751959962254819
 10
0.1552370882732821
 20
0.1750505104703464
 10
0.1561302642054412
 20
0.179409514996969
 10
0.1607503565565058
 20
0.1783264083710756
  0
LWPOLYLINE
  5
23AD
330
2
100
AcDbEntity
  8
Profilo
  6
Continuous
370
     0
100
AcDbPolyline
 90
        6
 70
   128
 43
0.0
 10
0.1575809172544678
 20
0.1719586613413078
 10
0.1517724720539033
 20
0.1724395909322609
 10
0.1514817502446282
 20
0.1622351101206234
 10
0.1565440115932328
 20
0.1624470889847636
 10
0.1564364493325629
 20
0.1667101105316788
 10
0.1575288367080918
 20
0.1667365016749389
  0
LWPOLYLINE
  5
23AE
330
2
100
AcDbEntity
  8
Profilo
  6
Continuous
370
     0
100
AcDbPolyline
 90
        6
 70
   128
 43
0.0
 10
0.1592865585661554
 20
0.1700399184421515
 10
0.153638026770198
 20
0.1703076616393406
 10
0.1535594690704118
 20
0.1643661283856621
 10
0.1545719193082529
 20
0.1644191812697435
 10
0.1545975335185568
 20
0.1688686787268876
 10
0.1593401557110075
 20
0.1687077189956188
  0
LWPOLYLINE
  5
23AF
330
2
100
AcDbEntity
  8
Profilo
  6
Continuous
370
     0
100
AcDbPolyline
 90
        6
 70
   128
 43
0.0
 10
0.1574739021149916
 20
0.1618439995054455
 10
0.1516832398514825
 20
0.1611825167245715
 10
0.1533888996278034
 20
0.1511173951389721
 10
0.1583125360192041
 20
0.1523128990853058
 10
0.1573753662908621
 20
0.1564730235124914
 10
0.1584416150926429
 20
0.1567120217621916
  0
LWPOLYLINE
  5
23B0
330
2
100
AcDbEntity
  8
Profilo
  6
Continuous
370
     0
100
AcDbPolyline
 90
        6
 70
   128
 43
0.0
 10
0.1595210981772053
 20
0.1602948788258158
 10
0.1539288672292831
 20
0.1594555035255547
 10
0.1550109546294007
 20
0.153612809320373
 10
0.1559936008155769
 20
0.1538623620510886
 10
0.155150668964287
 20
0.158231360746784
 10
0.1598335646869615
 20
0.1589987335023435
  0
LWPOLYLINE
  5
23B1
330
2
100
AcDbEntity
  8
Profilo
  6
Continuous
370
     0
100
AcDbPolyline
 90
        6
 70
   128
 43
0.0
 10
0.1593422158760558
 20
0.1519028104425544
 10
0.1537918684529491
 20
0.1501243357021582
 10
0.1574283622662063
 20
0.1405853703205453
 10
0.1620241611150877
 20
0.1427184568028623
 10
0.160293398826163
 20
0.146615812861606
 10
0.1612925337107023
 20
0.1470582336490434
  0
LWPOLYLINE
  5
23B2
330
2
100
AcDbEntity
  8
Profilo
  6
Continuous
370
     0
100
AcDbPolyline
 90
        6
 70
   128
 43
0.0
 10
0.1616522940922054
 20
0.1507828438214129
 10
0.1563312702914881
 20
0.1488686067457638
 10
0.1585324187795636
 20
0.1433492830507628
 10
0.1594474983722143
 20
0.1437857454566218
 10
0.1577684138576552
 20
0.1479063472211555
 10
0.1622116220541296
 20
0.1495725627588953
  0
LWPOLYLINE
  5
23B3
330
2
100
AcDbEntity
  8
Profilo
  6
Continuous
370
     0
100
AcDbPolyline
 90
        6
 70
   128
 43
0.0
 10
0.1631140602875853
 20
0.1425171284732378
 10
0.1580173244436787
 20
0.1396900075602134
 10
0.1634449038759986
 20
0.1310437754726894
 10
0.1675362512099521
 20
0.1340324711737233
 10
0.1650784085845864
 20
0.1375172856563489
 10
0.1659720333585919
 20
0.1381461269987747
  0
LWPOLYLINE
  5
23B4
330
2
100
AcDbEntity
  8
Profilo
  6
Continuous
370
     0
100
AcDbPolyline
 90
        6
 70
   128
 43
0.0
 10
0.1655982456473306
 20
0.1418693555997501
 10
0.1607529129544152
 20
0.1389538198060147
 10
0.1639885336284705
 20
0.1339699711355207
 10
0.1648008806320322
 20
0.1345765702110373
 10
0.1623501697304568
 20
0.1382904226294579
 10
0.1663829404015202
 20
0.1407914492206863
  0
LWPOLYLINE
  5
23B5
330
2
100
AcDbEntity
  8
Profilo
  6
Continuous
370
     0
100
AcDbPolyline
 90
        2
 70
   128
 43
0.0
 10
0.1612925337107023
 20
0.1470582336490434
 10
0.1631140602875853
 20
0.1425171284732378
  0
LWPOLYLINE
  5
23B6
330
2
100
AcDbEntity
  8
Profilo
  6
Continuous
370
     0
100
AcDbPolyline
 90
        2
 70
   128
 43
0.0
 10
0.1622116220541296
 20
0.1495725627588953
 10
0.1655982456473306
 20
0.1418693555997501
  0
LWPOLYLINE
  5
23B7
330
2
100
AcDbEntity
  8
Profilo
  6
Continuous
370
     0
100
AcDbPolyline
 90
        2
 70
   128
 43
0.0
 10
0.1659720333585919
 20
0.1381461269987747
 10
0.1686444854841187
 20
0.134047640092027
  0
LWPOLYLINE
  5
23B8
330
2
100
AcDbEntity
  8
Profilo
  6
Continuous
370
     0
100
AcDbPolyline
 90
        2
 70
   128
 43
0.0
 10
0.1663829404015202
 20
0.1407914492206872
 10
0.1712073121372328
 20
0.1338969545144459
  0
LWPOLYLINE
  5
23B9
330
2
100
AcDbEntity
  8
Profilo
  6
Continuous
370
     0
100
AcDbPolyline
 90
        2
 70
   128
 43
0.0
 10
0.1723002834891374
 20
0.130318189071988
 10
0.1757209603268532
 20
0.1268198229876665
  0
LWPOLYLINE
  5
23BA
330
2
100
AcDbEntity
  8
Profilo
  6
Continuous
370
     0
100
AcDbPolyline
 90
        2
 70
   128
 43
0.0
 10
0.1721872183043458
 20
0.1329928461564866
 10
0.1782639402823052
 20
0.1271720154682334
  0
LWPOLYLINE
  5
23BB
330
2
100
AcDbEntity
  8
Profilo
  6
Continuous
370
     0
100
AcDbPolyline
 90
        2
 70
   128
 43
0.0
 10
0.1800340929987452
 20
0.1238752431332528
 10
0.1840715398561135
 20
0.1211114381180713
  0
LWPOLYLINE
  5
23BC
330
2
100
AcDbEntity
  8
Profilo
  6
Continuous
370
     0
100
AcDbPolyline
 90
        2
 70
   128
 43
0.0
 10
0.1794014006178783
 20
0.126476449508546
 10
0.1864969478203355
 20
0.1219529740972705
  0
LWPOLYLINE
  5
23BD
330
2
100
AcDbEntity
  8
Profilo
  6
Continuous
370
     0
100
AcDbPolyline
 90
        2
 70
   128
 43
0.0
 10
0.1888762559251318
 20
0.1190648879817482
 10
0.19337531598365
 20
0.1171418555124803
  0
LWPOLYLINE
  5
23BE
330
2
100
AcDbEntity
  8
Profilo
  6
Continuous
370
     0
100
AcDbPolyline
 90
        2
 70
   128
 43
0.0
 10
0.1877482503615675
 20
0.1214926807456063
 10
0.1955899448887624
 20
0.1184403952345689
  0
LWPOLYLINE
  5
23BF
330
2
100
AcDbEntity
  8
Profilo
  6
Continuous
370
     0
100
AcDbPolyline
 90
        2
 70
   128
 43
0.0
 10
0.1984869729057777
 20
0.1160719828682681
 10
0.203274749810499
 20
0.1150636240042588
  0
LWPOLYLINE
  5
23C0
330
2
100
AcDbEntity
  8
Profilo
  6
Continuous
370
     0
100
AcDbPolyline
 90
        2
 70
   128
 43
0.0
 10
0.1969070027807311
 20
0.1182330633062978
 10
0.2051934927096561
 20
0.1167692653159473
  0
LWPOLYLINE
  5
23C1
330
2
100
AcDbEntity
  8
Profilo
  6
Continuous
370
     0
100
AcDbPolyline
 90
        2
 70
   128
 43
0.0
 10
0.2084969094768687
 20
0.1150115434578838
 10
0.2133894116463622
 20
0.1149566088647826
  0
LWPOLYLINE
  5
23C2
330
2
100
AcDbEntity
  8
Profilo
  6
Continuous
370
     0
100
AcDbPolyline
 90
        2
 70
   128
 43
0.0
 10
0.2065256921561889
 20
0.1168228624607994
 10
0.2149385323259909
 20
0.1170038049269972
  0
LWPOLYLINE
  5
23C3
330
2
100
AcDbEntity
  8
Profilo
  6
Continuous
370
     0
100
AcDbPolyline
 90
        2
 70
   128
 43
0.0
 10
0.2185213893896152
 20
0.1159243218424339
 10
0.2233306007092533
 20
0.1168249226258469
  0
LWPOLYLINE
  5
23C4
330
2
100
AcDbEntity
  8
Profilo
  6
Continuous
370
     0
100
AcDbPolyline
 90
        2
 70
   128
 43
0.0
 10
0.2162346776494641
 20
0.1173162714367535
 10
0.2244505673303947
 20
0.1191350008419965
  0
LWPOLYLINE
  5
23C5
330
2
100
AcDbEntity
  8
Profilo
  6
Continuous
370
     0
100
AcDbPolyline
 90
        2
 70
   128
 43
0.0
 10
0.2281751775027643
 20
0.1187752404604934
 10
0.2327162826785689
 20
0.1205967670373764
  0
LWPOLYLINE
  5
23C6
330
2
100
AcDbEntity
  8
Profilo
  6
Continuous
370
     0
100
AcDbPolyline
 90
        2
 70
   128
 43
0.0
 10
0.2256608483929123
 20
0.1196943288039207
 10
0.2333640555520566
 20
0.1230809523971217
  0
LWPOLYLINE
  5
23C7
330
2
100
AcDbEntity
  8
Profilo
  6
Continuous
370
     0
100
AcDbPolyline
 90
        2
 70
   128
 43
0.0
 10
0.2370872841530329
 20
0.1234547401083839
 10
0.2411857710597807
 20
0.1261271922339107
  0
LWPOLYLINE
  5
23C8
330
2
100
AcDbEntity
  8
Profilo
  6
Continuous
370
     0
100
AcDbPolyline
 90
        2
 70
   128
 43
0.0
 10
0.2344419619311204
 20
0.1238656471513113
 10
0.2413364566373608
 20
0.1286900188870239
  0
LWPOLYLINE
  5
23C9
330
2
100
AcDbEntity
  8
Profilo
  6
Continuous
370
     0
100
AcDbPolyline
 90
        2
 70
   128
 43
0.0
 10
0.2449152220798187
 20
0.1297829902389294
 10
0.2484135881641403
 20
0.1332036670766443
  0
LWPOLYLINE
  5
23CA
330
2
100
AcDbEntity
  8
Profilo
  6
Continuous
370
     0
100
AcDbPolyline
 90
        2
 70
   128
 43
0.0
 10
0.2422405649953201
 20
0.1296699250541378
 10
0.2480613956835733
 20
0.1357466470320963
  0
LWPOLYLINE
  5
23CB
330
2
100
AcDbEntity
  8
Profilo
  6
Continuous
370
     0
100
AcDbPolyline
 90
        2
 70
   128
 43
0.0
 10
0.2513581680185539
 20
0.1375167997485371
 10
0.2541219730337363
 20
0.1415542466059045
  0
LWPOLYLINE
  5
23CC
330
2
100
AcDbEntity
  8
Profilo
  6
Continuous
370
     0
100
AcDbPolyline
 90
        2
 70
   128
 43
0.0
 10
0.2487569616432617
 20
0.1368841073676694
 10
0.2532804370545372
 20
0.1439796545701275
  0
LWPOLYLINE
  5
23CD
330
2
100
AcDbEntity
  8
Profilo
  6
Continuous
370
     0
100
AcDbPolyline
 90
        2
 70
   128
 43
0.0
 10
0.2561685231700586
 20
0.1463589626749229
 10
0.2580915556393273
 20
0.1508580227334419
  0
LWPOLYLINE
  5
23CE
330
2
100
AcDbEntity
  8
Profilo
  6
Continuous
370
     0
100
AcDbPolyline
 90
        2
 70
   128
 43
0.0
 10
0.2537407304062014
 20
0.1452309571113595
 10
0.2567930159172387
 20
0.1530726516385534
  0
LWPOLYLINE
  5
23CF
330
2
100
AcDbEntity
  8
Profilo
  6
Continuous
370
     0
100
AcDbPolyline
 90
        2
 70
   128
 43
0.0
 10
0.2591614282835386
 20
0.1559696796555687
 10
0.2601697871475479
 20
0.1607574565602909
  0
LWPOLYLINE
  5
23D0
330
2
100
AcDbEntity
  8
Profilo
  6
Continuous
370
     0
100
AcDbPolyline
 90
        2
 70
   128
 43
0.0
 10
0.257000347845509
 20
0.1543897095305231
 10
0.2584641458358603
 20
0.1626761994594472
  0
LWPOLYLINE
  5
23D1
330
2
100
AcDbEntity
  8
Profilo
  6
Continuous
370
     0
100
AcDbPolyline
 90
        2
 70
   128
 43
0.0
 10
0.260221867693923
 20
0.1659796162266598
 10
0.2602768022870241
 20
0.1708721183961532
  0
LWPOLYLINE
  5
23D2
330
2
100
AcDbEntity
  8
Profilo
  6
Continuous
370
     0
100
AcDbPolyline
 90
        2
 70
   128
 43
0.0
 10
0.2584105486910073
 20
0.16400839890598
 10
0.2582296062248104
 20
0.1724212390757829
  0
LWPOLYLINE
  5
23D3
330
2
100
AcDbEntity
  8
Profilo
  6
Continuous
370
     0
100
AcDbPolyline
 90
        2
 70
   128
 43
0.0
 10
0.2593090893093728
 20
0.1760040961394071
 10
0.2584084885259599
 20
0.1808133074590443
  0
LWPOLYLINE
  5
23D4
330
2
100
AcDbEntity
  8
Profilo
  6
Continuous
370
     0
100
AcDbPolyline
 90
        2
 70
   128
 43
0.0
 10
0.2579171397150533
 20
0.1737173843992552
 10
0.2560984103098103
 20
0.1819332740801858
  0
LWPOLYLINE
  5
23D5
330
2
100
AcDbEntity
  8
Profilo
  6
Continuous
370
     0
100
AcDbPolyline
 90
        2
 70
   128
 43
0.0
 10
0.2564581706913134
 20
0.1856578842525554
 10
0.2546366441144303
 20
0.1901989894283609
  0
LWPOLYLINE
  5
23D6
330
2
100
AcDbEntity
  8
Profilo
  6
Continuous
370
     0
100
AcDbPolyline
 90
        2
 70
   128
 43
0.0
 10
0.255539082347886
 20
0.1831435551427034
 10
0.2521524587546851
 20
0.1908467623018477
  0
LWPOLYLINE
  5
23D7
330
2
100
AcDbEntity
  8
Profilo
  6
Continuous
370
     0
100
AcDbPolyline
 90
        2
 70
   128
 43
0.0
 10
0.2517786710434238
 20
0.194569990902824
 10
0.249106218917897
 20
0.1986684778095717
  0
LWPOLYLINE
  5
23D8
330
2
100
AcDbEntity
  8
Profilo
  6
Continuous
370
     0
100
AcDbPolyline
 90
        2
 70
   128
 43
0.0
 10
0.2513677640004954
 20
0.1919246686809115
 10
0.2465433922647828
 20
0.1988191633871528
  0
LWPOLYLINE
  5
23D9
330
2
100
AcDbEntity
  8
Profilo
  6
Continuous
370
     0
100
AcDbPolyline
 90
        2
 70
   128
 43
0.0
 10
0.2454504209128783
 20
0.2023979288296107
 10
0.2420297440751633
 20
0.2058962949139322
  0
LWPOLYLINE
  5
23DA
330
2
100
AcDbEntity
  8
Profilo
  6
Continuous
370
     0
100
AcDbPolyline
 90
        2
 70
   128
 43
0.0
 10
0.2455634860976699
 20
0.1997232717451121
 10
0.2394867641197105
 20
0.2055441024333644
  0
LWPOLYLINE
  5
23DB
330
2
100
AcDbEntity
  8
Profilo
  6
Continuous
370
     0
100
AcDbPolyline
 90
        2
 70
   128
 43
0.0
 10
0.2377166114032705
 20
0.2088408747683459
 10
0.2336791645459022
 20
0.2116046797835274
  0
LWPOLYLINE
  5
23DC
330
2
100
AcDbEntity
  8
Profilo
  6
Continuous
370
     0
100
AcDbPolyline
 90
        2
 70
   128
 43
0.0
 10
0.2383493037841373
 20
0.2062396683930527
 10
0.2312537565816801
 20
0.2107631438043283
  0
LWPOLYLINE
  5
23DD
330
2
100
AcDbEntity
  8
Profilo
  6
Continuous
370
     0
100
AcDbPolyline
 90
        2
 70
   128
 43
0.0
 10
0.2288744484768839
 20
0.2136512299198505
 10
0.2243753884183657
 20
0.2155742623891184
  0
LWPOLYLINE
  5
23DE
330
2
100
AcDbEntity
  8
Profilo
  6
Continuous
370
     0
100
AcDbPolyline
 90
        2
 70
   128
 43
0.0
 10
0.2300024540404482
 20
0.2112234371559924
 10
0.2221607595132533
 20
0.2142757226670298
  0
LWPOLYLINE
  5
23DF
330
2
100
AcDbEntity
  8
Profilo
  6
Continuous
370
     0
100
AcDbPolyline
 90
        2
 70
   128
 43
0.0
 10
0.219263731496238
 20
0.2166441350333306
 10
0.2144759545915167
 20
0.2176524938973399
  0
LWPOLYLINE
  5
23E0
330
2
100
AcDbEntity
  8
Profilo
  6
Continuous
370
     0
100
AcDbPolyline
 90
        2
 70
   128
 43
0.0
 10
0.2208437016212845
 20
0.2144830545953009
 10
0.2125572116923604
 20
0.2159468525856514
  0
LWPOLYLINE
  5
23E1
330
2
100
AcDbEntity
  8
Profilo
  6
Continuous
370
     0
100
AcDbPolyline
 90
        2
 70
   128
 43
0.0
 10
0.2092537949251469
 20
0.2177045744437149
 10
0.2043612927556535
 20
0.2177595090368161
  0
LWPOLYLINE
  5
23E2
330
2
100
AcDbEntity
  8
Profilo
  6
Continuous
370
     0
100
AcDbPolyline
 90
        2
 70
   128
 43
0.0
 10
0.2112250122458268
 20
0.2158932554407993
 10
0.2028121720760247
 20
0.2157123129746015
  0
LWPOLYLINE
  5
23E3
330
2
100
AcDbEntity
  8
Profilo
  6
Continuous
370
     0
100
AcDbPolyline
 90
        2
 70
   128
 43
0.0
 10
0.1992293150124005
 20
0.2167917960591648
 10
0.1944201036927624
 20
0.2158911952757518
  0
LWPOLYLINE
  5
23E4
330
2
100
AcDbEntity
  8
Profilo
  6
Continuous
370
     0
100
AcDbPolyline
 90
        2
 70
   128
 43
0.0
 10
0.2015160267525515
 20
0.2153998464648452
 10
0.193300137071621
 20
0.2135811170596022
  0
LWPOLYLINE
  5
23E5
330
2
100
AcDbEntity
  8
Profilo
  6
Continuous
370
     0
100
AcDbPolyline
 90
        2
 70
   128
 43
0.0
 10
0.1895755268992523
 20
0.2139408774411053
 10
0.1850344217234468
 20
0.2121193508642223
  0
LWPOLYLINE
  5
23E6
330
2
100
AcDbEntity
  8
Profilo
  6
Continuous
370
     0
100
AcDbPolyline
 90
        2
 70
   128
 43
0.0
 10
0.1920898560091033
 20
0.213021789097678
 10
0.184386648849959
 20
0.209635165504477
  0
LWPOLYLINE
  5
23E7
330
2
100
AcDbEntity
  8
Profilo
  6
Continuous
370
     0
100
AcDbPolyline
 90
        2
 70
   128
 43
0.0
 10
0.1806634202489827
 20
0.2092613777932148
 10
0.176564933342235
 20
0.206588925667688
  0
LWPOLYLINE
  5
23E8
330
2
100
AcDbEntity
  8
Profilo
  6
Continuous
370
     0
100
AcDbPolyline
 90
        2
 70
   128
 43
0.0
 10
0.1833087424708952
 20
0.2088504707502865
 10
0.1764142477646549
 20
0.2040260990145748
  0
LWPOLYLINE
  5
23E9
330
2
100
AcDbEntity
  8
Profilo
  6
Continuous
370
     0
100
AcDbPolyline
 90
        2
 70
   128
 43
0.0
 10
0.1728354823221969
 20
0.2029331276626693
 10
0.1693371162378745
 20
0.1995124508249544
  0
LWPOLYLINE
  5
23EA
330
2
100
AcDbEntity
  8
Profilo
  6
Continuous
370
     0
100
AcDbPolyline
 90
        2
 70
   128
 43
0.0
 10
0.1755101394066956
 20
0.2030461928474609
 10
0.1696893087184423
 20
0.1969694708695024
  0
LWPOLYLINE
  5
23EB
330
2
100
AcDbEntity
  8
Profilo
  6
Continuous
370
     0
100
AcDbPolyline
 90
        2
 70
   128
 43
0.0
 10
0.1663925363834617
 20
0.1951993181530616
 10
0.1636287313682794
 20
0.1911618712956942
  0
LWPOLYLINE
  5
23EC
330
2
100
AcDbEntity
  8
Profilo
  6
Continuous
370
     0
100
AcDbPolyline
 90
        2
 70
   128
 43
0.0
 10
0.168993742758754
 20
0.1958320105339293
 10
0.1644702673474785
 20
0.1887364633314712
  0
LWPOLYLINE
  5
23ED
330
2
100
AcDbEntity
  8
Profilo
  6
Continuous
370
     0
100
AcDbPolyline
 90
        2
 70
   128
 43
0.0
 10
0.1615821812319562
 20
0.1863571552266758
 10
0.1596591487626884
 20
0.1818580951681568
  0
LWPOLYLINE
  5
23EE
330
2
100
AcDbEntity
  8
Profilo
  6
Continuous
370
     0
100
AcDbPolyline
 90
        2
 70
   128
 43
0.0
 10
0.1640099739958143
 20
0.1874851607902392
 10
0.160957688484777
 20
0.1796434662630453
  0
LWPOLYLINE
  5
23EF
330
2
100
AcDbEntity
  8
Profilo
  6
Continuous
370
     0
100
AcDbPolyline
 90
        2
 70
   128
 43
0.0
 10
0.1585892761184771
 20
0.17674643824603
 10
0.1575809172544678
 20
0.1719586613413078
  0
LWPOLYLINE
  5
23F0
330
2
100
AcDbEntity
  8
Profilo
  6
Continuous
370
     0
100
AcDbPolyline
 90
        2
 70
   128
 43
0.0
 10
0.1607503565565067
 20
0.1783264083710756
 10
0.1592865585661554
 20
0.1700399184421515
  0
LWPOLYLINE
  5
23F1
330
2
100
AcDbEntity
  8
Profilo
  6
Continuous
370
     0
100
AcDbPolyline
 90
        2
 70
   128
 43
0.0
 10
0.1575288367080927
 20
0.1667365016749389
 10
0.1574739021149916
 20
0.1618439995054455
  0
LWPOLYLINE
  5
23F2
330
2
100
AcDbEntity
  8
Profilo
  6
Continuous
370
     0
100
AcDbPolyline
 90
        2
 70
   128
 43
0.0
 10
0.1593401557110083
 20
0.1687077189956188
 10
0.1595210981772053
 20
0.1602948788258158
  0
LWPOLYLINE
  5
23F3
330
2
100
AcDbEntity
  8
Profilo
  6
Continuous
370
     0
100
AcDbPolyline
 90
        2
 70
   128
 43
0.0
 10
0.1584416150926429
 20
0.1567120217621916
 10
0.1593422158760558
 20
0.1519028104425544
  0
LWPOLYLINE
  5
23F4
330
2
100
AcDbEntity
  8
Profilo
  6
Continuous
370
     0
100
AcDbPolyline
 90
        2
 70
   128
 43
0.0
 10
0.1598335646869615
 20
0.1589987335023435
 10
0.1616522940922054
 20
0.1507828438214129
  0
DIMENSION
  5
2413
102
{ACAD_XDICTIONARY
360
241D
102
}
102
{ACAD_REACTORS
330
2424
102
}
330
2
100
AcDbEntity
  8
Sezione
  6
ACAD_ISO10W100
100
AcDbDimension
  2
*D23
 10
0.1542150529224896
 20
0.1335508313510331
 30
0.0
 11
0.2820364722859093
 21
0.2007091560846723
 31
0.0
 70
    35
  1
d 510 mm
 71
     5
 42
0.1275
  3
Bovelacci
100
AcDbDiametricDimension
 15
0.2635356514795252
 25
0.1991652865505656
 35
0.0
 40
0.0
1001
ACAD
1000
DSTYLE
1002
{
1070
   288
1070
     1
1002
}
  0
ENDSEC
  0
SECTION
  2
OBJECTS
  0
DICTIONARY
  5
9
330
0
100
AcDbDictionary
281
     1
  3
ACAD_2007HEADERVARS_RT
350
208
  3
ACAD_COLOR
350
184
  3
ACAD_GROUP
350
17F
  3
ACAD_LAYOUT
350
164
  3
ACAD_MATERIAL
350
B
  3
ACAD_MLINESTYLE
350
180
  3
ACAD_PLOTSETTINGS
350
181
  3
ACAD_PLOTSTYLENAME
350
8
  3
ACAD_TABLESTYLE
350
185
  3
ACAD_VISUALSTYLE
350
17A
  3
ACDBHEADERROUNDTRIPXREC
350
2438
  3
AcDbVariableDictionary
350
18B
  3
ASE_INDEX_DICTIONARY
350
2433
  3
DWGPROPS
350
2437
  0
DICTIONARY
  5
16E
330
16D
100
AcDbDictionary
280
     1
281
     1
  3
ACAD_LAYERSTATES
360
16F
  0
DICTIONARY
  5
3
330
2
100
AcDbDictionary
280
     1
281
     1
  3
ACAD_SORTENTS
360
18A
  0
DICTIONARY
  5
1378
330
12F0
100
AcDbDictionary
280
     1
281
     1
  3
ACAD_SORTENTS
360
1379
  0
DICTIONARY
  5
2439
330
18
100
AcDbDictionary
280
     1
281
     1
  3
ACAD_MTEXT_RT
360
243A
  0
DICTIONARY
  5
241D
330
2413
100
AcDbDictionary
280
     1
281
     1
  3
ACAD_DIMASSOC
360
2424
  0
DICTIONARY
  5
208
102
{ACAD_REACTORS
330
9
102
}
330
9
100
AcDbDictionary
281
     1
  3
DIMFXL
350
209
  0
DICTIONARY
  5
184
102
{ACAD_REACTORS
330
9
102
}
330
9
100
AcDbDictionary
281
     1
  0
DICTIONARY
  5
17F
102
{ACAD_REACTORS
330
9
102
}
330
9
100
AcDbDictionary
281
     1
  0
DICTIONARY
  5
164
102
{ACAD_REACTORS
330
9
102
}
330
9
100
AcDbDictionary
281
     1
  3
Layout1
350
168
  3
Layout2
350
16C
  3
Model
350
163
  0
DICTIONARY
  5
B
102
{ACAD_REACTORS
330
9
102
}
330
9
100
AcDbDictionary
281
     1
  3
ByBlock
350
183
  3
ByLayer
350
182
  3
Global
350
A
  0
DICTIONARY
  5
180
102
{ACAD_REACTORS
330
9
102
}
330
9
100
AcDbDictionary
281
     1
  3
Standard
350
186
  0
DICTIONARY
  5
181
102
{ACAD_REACTORS
330
9
102
}
330
9
100
AcDbDictionary
281
     1
  0
ACDBDICTIONARYWDFLT
  5
8
102
{ACAD_REACTORS
330
9
102
}
330
9
100
AcDbDictionary
281
     1
  3
Normal
350
7
100
AcDbDictionaryWithDefault
340
7
  0
DICTIONARY
  5
185
102
{ACAD_REACTORS
330
9
102
}
330
9
100
AcDbDictionary
281
     1
  3
Standard
350
187
  0
DICTIONARY
  5
17A
102
{ACAD_REACTORS
330
9
102
}
330
9
100
AcDbDictionary
281
     1
  3
2dWireframe
350
179
  3
3D Hidden
350
1BD
  3
3dWireframe
350
189
  3
Basic
350
1BC
  3
Brighten
350
1C0
  3
ColorChange
350
1C4
  3
Conceptual
350
1BE
  3
Dim
350
1BF
  3
Facepattern
350
1C3
  3
Flat
350
1B8
  3
FlatWithEdges
350
1B9
  3
Gouraud
350
1BA
  3
GouraudWithEdges
350
1BB
  3
Linepattern
350
1C2
  3
Realistic
350
188
  3
Thicken
350
1C1
  0
DICTIONARY
  5
2438
102
{ACAD_REACTORS
330
9
102
}
330
9
100
AcDbDictionary
281
     1
  0
DICTIONARY
  5
18B
102
{ACAD_REACTORS
330
9
102
}
330
9
100
AcDbDictionary
281
     1
  3
CTABLESTYLE
350
18C
  3
DIMASSOC
350
190
  3
HIDETEXT
350
18F
  3
INDEXCTL
350
18E
  3
PROJECTNAME
350
31D
  3
SORTENTS
350
18D
  0
DICTIONARY
  5
2433
102
{ACAD_REACTORS
330
9
102
}
330
9
100
AcDbDictionary
281
     1
  3
ASEBlockHierarchyIndexRecord
350
2434
1001
DCO15
1040
1598721029.734
  0
XRECORD
  5
2437
102
{ACAD_REACTORS
330
9
102
}
330
9
100
AcDbXrecord
280
     1
  1
DWGPROPS COOKIE
  2

  3

  4

  6

  7

  8
Mario
  9

300
=
301
=
302
=
303
=
304
=
305
=
306
=
307
=
308
=
309
=
 40
0.1942878472222222
 41
2454297.625402373
 42
2454306.927473774
  1

 90
        0
  0
DICTIONARY
  5
16F
102
{ACAD_REACTORS
330
16E
102
}
330
16E
100
AcDbDictionary
281
     1
  0
SORTENTSTABLE
  5
18A
102
{ACAD_REACTORS
330
3
102
}
330
3
100
AcDbSortentsTable
330
2
331
10
  5
18
331
21
  5
23F
331
23F
  5
1CA6
331
11
  5
1C
331
22
  5
2AC
331
1C
  5
22
331
17
  5
1E
331
12
  5
1D
331
23
  5
3BB
331
D
  5
17
331
1D
  5
23
331
18
  5
21
331
24
  5
1F
331
1E
  5
24
331
25
  5
1066
331
1F
  5
25
  0
SORTENTSTABLE
  5
1379
102
{ACAD_REACTORS
330
1378
102
}
330
1378
100
AcDbSortentsTable
330
12F0
  0
XRECORD
  5
243A
102
{ACAD_REACTORS
330
2439
102
}
330
2439
100
AcDbXrecord
280
     1
 40
7955300.0
  1
{\fTimes New Roman|b0|i0|c238|p18;\H1.6x;\C4;Bovelacci\P\pt0.09;\H0.4375x;\T0.95;via del Commercio, 5  47100 Forli - Italy  \fTimes New Roman|b0|i0|c0|p18;\P\fTimes New Roman|b0|i0|c238|p18;tel.+39-0543721386  fax +39-0543721127\fTimes New Roman|b0|i
  1
0|c0|p18; \fTimes New Roman|b0|i0|c238|p18;www.bovelacci.it\fTimes New Roman|b0|i0|c0|p18; \fTimes New Roman|b0|i0|c238|p18;e-mail: bovelacci@bovelacci\fTimes New Roman|b0|i0|c0|p18;.it}
  0
DIMASSOC
  5
2424
102
{ACAD_REACTORS
330
241D
102
}
330
241D
100
AcDbDimAssoc
330
2413
 90
        2
 70
     0
 71
     0
  1
AcDbOsnapPointRef
 72
     3
331
22E2
 73
     2
 91
        0
 40
0.0
 10
0.0
 20
0.0
 30
0.0
 75
     0
  0
XRECORD
  5
209
102
{ACAD_REACTORS
330
208
102
}
330
208
100
AcDbXrecord
280
     1
 40
0.18
  0
LAYOUT
  5
168
102
{ACAD_XDICTIONARY
360
243D
102
}
102
{ACAD_REACTORS
330
164
102
}
330
164
100
AcDbPlotSettings
  1

  2
C:\Documents and Settings\All Users\Dati applicazioni\Autodesk\ADT 2006\enu\Plotters\Default Windows System Printer.pc3
  4

  6

 40
0.0
 41
0.0
 42
0.0
 43
0.0
 44
0.0
 45
0.0
 46
0.0
 47
0.0
 48
0.0
 49
0.0
140
0.0
141
0.0
142
1.0
143
1.0
 70
   688
 72
     0
 73
     0
 74
     5
  7

 75
    16
147
1.0
148
0.0
149
0.0
100
AcDbLayout
  1
Layout1
 70
     1
 71
     1
 10
0.0
 20
0.0
 11
420.0
 21
297.0
 12
0.0
 22
0.0
 32
0.0
 14
1.000000000000000E+20
 24
1.000000000000000E+20
 34
1.000000000000000E+20
 15
-1.000000000000000E+20
 25
-1.000000000000000E+20
 35
-1.000000000000000E+20
146
0.0
 13
0.0
 23
0.0
 33
0.0
 16
1.0
 26
0.0
 36
0.0
 17
0.0
 27
1.0
 37
0.0
 76
     0
330
165
  0
LAYOUT
  5
16C
102
{ACAD_XDICTIONARY
360
243F
102
}
102
{ACAD_REACTORS
330
164
102
}
330
164
100
AcDbPlotSettings
  1

  2
C:\Documents and Settings\All Users\Dati applicazioni\Autodesk\ADT 2006\enu\Plotters\Default Windows System Printer.pc3
  4

  6

 40
0.0
 41
0.0
 42
0.0
 43
0.0
 44
0.0
 45
0.0
 46
0.0
 47
0.0
 48
0.0
 49
0.0
140
0.0
141
0.0
142
1.0
143
1.0
 70
   688
 72
     0
 73
     0
 74
     5
  7

 75
    16
147
1.0
148
0.0
149
0.0
100
AcDbLayout
  1
Layout2
 70
     1
 71
     2
 10
0.0
 20
0.0
 11
12.0
 21
9.0
 12
0.0
 22
0.0
 32
0.0
 14
0.0
 24
0.0
 34
0.0
 15
0.0
 25
0.0
 35
0.0
146
0.0
 13
0.0
 23
0.0
 33
0.0
 16
1.0
 26
0.0
 36
0.0
 17
0.0
 27
1.0
 37
0.0
 76
     0
330
169
  0
LAYOUT
  5
163
102
{ACAD_XDICTIONARY
360
243B
102
}
102
{ACAD_REACTORS
330
164
102
}
330
164
100
AcDbPlotSettings
  1

  2
C:\Documents and Settings\All Users\Dati applicazioni\Autodesk\ADT 2006\enu\Plotters\Default Windows System Printer.pc3
  4

  6

 40
0.0
 41
0.0
 42
0.0
 43
0.0
 44
0.0
 45
0.0
 46
0.0
 47
0.0
 48
0.0
 49
0.0
140
0.0
141
0.0
142
1.0
143
1.0
 70
  1712
 72
     0
 73
     0
 74
     0
  7

 75
     0
147
1.0
148
0.0
149
0.0
100
AcDbLayout
  1
Model
 70
     1
 71
     0
 10
0.0
 20
0.0
 11
12.0
 21
9.0
 12
0.0
 22
0.0
 32
0.0
 14
0.0
 24
0.0
 34
0.0
 15
0.0
 25
0.0
 35
0.0
146
0.0
 13
0.0
 23
0.0
 33
0.0
 16
1.0
 26
0.0
 36
0.0
 17
0.0
 27
1.0
 37
0.0
 76
     0
330
2
  0
MATERIAL
  5
183
102
{ACAD_XDICTIONARY
360
1B0
102
}
102
{ACAD_REACTORS
330
B
102
}
330
B
100
AcDbMaterial
  1
ByBlock
  0
MATERIAL
  5
182
102
{ACAD_XDICTIONARY
360
1AE
102
}
102
{ACAD_REACTORS
330
B
102
}
330
B
100
AcDbMaterial
  1
ByLayer
  0
MATERIAL
  5
A
102
{ACAD_XDICTIONARY
360
193
102
}
102
{ACAD_REACTORS
330
B
102
}
330
B
100
AcDbMaterial
  1
Global
  0
MLINESTYLE
  5
186
102
{ACAD_REACTORS
330
180
102
}
330
180
100
AcDbMlineStyle
  2
STANDARD
 70
     0
  3

 62
   256
 51
90.0
 52
90.0
 71
     2
 49
0.5
 62
   256
  6
BYLAYER
 49
-0.5
 62
   256
  6
BYLAYER
  0
ACDBPLACEHOLDER
  5
7
102
{ACAD_REACTORS
330
8
102
}
330
8
  0
TABLESTYLE
  5
187
102
{ACAD_XDICTIONARY
360
21A
102
}
102
{ACAD_REACTORS
330
185
102
}
330
185
100
AcDbTableStyle
  3
Standard
 70
     0
 71
     0
 40
1.5
 41
1.5
280
     0
281
     0
  7
Standard
140
4.5
170
     2
 62
     0
 63
     7
283
     0
274
    -2
284
     1
 64
     0
275
    -2
285
     1
 65
     0
276
    -2
286
     1
 66
     0
277
    -2
287
     1
 67
     0
278
    -2
288
     1
 68
     0
279
    -2
289
     1
 69
     0
  7
Standard
140
6.0
170
     5
 62
     0
 63
     7
283
     0
274
    -2
284
     1
 64
     0
275
    -2
285
     1
 65
     0
276
    -2
286
     1
 66
     0
277
    -2
287
     1
 67
     0
278
    -2
288
     1
 68
     0
279
    -2
289
     1
 69
     0
  7
Standard
140
4.5
170
     5
 62
     0
 63
     7
283
     0
274
    -2
284
     1
 64
     0
275
    -2
285
     1
 65
     0
276
    -2
286
     1
 66
     0
277
    -2
287
     1
 67
     0
278
    -2
288
     1
 68
     0
279
    -2
289
     1
 69
     0
  0
VISUALSTYLE
  5
179
102
{ACAD_REACTORS
330
17A
102
}
330
17A
100
AcDbVisualStyle
  2
2dWireframe
 70
     4
 71
     0
 72
     2
 73
     0
 90
        0
 40
-0.6
 41
-30.0
 62
     5
 63
     7
 74
     1
 91
        4
 64
     7
 65
   257
 75
     1
175
     1
 42
1.0
 92
        0
 66
   257
 43
1.0
 76
     1
 77
     6
 78
     2
 67
     7
 79
     5
170
     0
171
     0
290
     0
174
     0
 93
        1
 44
0.0
173
     0
291
     0
 45
0.0
1001
ACAD
1000
AcDbSavedByObjectVersion
1070
     0
1000
AcDbSavedByObjectVersion
1070
     0
1000
AcDbSavedByObjectVersion
1070
     0
1001
ACAD
1000
AcRTDxfName
1000
VISUALSTYLE
  0
VISUALSTYLE
  5
1BD
102
{ACAD_REACTORS
330
17A
102
}
330
17A
100
AcDbVisualStyle
  2
3D Hidden
 70
     6
 71
     1
 72
     2
 73
     2
 90
        0
 40
-0.6
 41
-30.0
 62
     5
 63
     7
 74
     2
 91
        2
 64
     7
 65
   257
 75
     2
175
     1
 42
40.0
 92
        0
 66
   257
 43
1.0
 76
     1
 77
     6
 78
     2
 67
     7
 79
     3
170
     0
171
     0
290
     0
174
     0
 93
        1
 44
0.0
173
     0
291
     0
 45
0.0
1001
ACAD
1000
AcDbSavedByObjectVersion
1070
     0
1000
AcDbSavedByObjectVersion
1070
     0
1001
ACAD
1000
AcRTDxfName
1000
VISUALSTYLE
  0
VISUALSTYLE
  5
189
102
{ACAD_REACTORS
330
17A
102
}
330
17A
100
AcDbVisualStyle
  2
3dWireframe
 70
     5
 71
     0
 72
     2
 73
     0
 90
        0
 40
-0.6
 41
-30.0
 62
     5
 63
     7
 74
     1
 91
        4
 64
     7
 65
   257
 75
     1
175
     1
 42
1.0
 92
        0
 66
   257
 43
1.0
 76
     1
 77
     6
 78
     2
 67
     7
 79
     5
170
     0
171
     0
290
     0
174
     0
 93
        1
 44
0.0
173
     0
291
     0
 45
0.0
1001
ACAD
1000
AcDbSavedByObjectVersion
1070
     0
1000
AcDbSavedByObjectVersion
1070
     0
1000
AcDbSavedByObjectVersion
1070
     0
1001
ACAD
1000
AcRTDxfName
1000
VISUALSTYLE
  0
VISUALSTYLE
  5
1BC
102
{ACAD_REACTORS
330
17A
102
}
330
17A
100
AcDbVisualStyle
  2
Basic
 70
     7
 71
     1
 72
     0
 73
     1
 90
        0
 40
-0.6
 41
-30.0
 62
     5
 63
     7
 74
     0
 91
        4
 64
     7
 65
   257
 75
     1
175
     1
 42
1.0
 92
        8
 66
     7
 43
1.0
 76
     1
 77
     6
 78
     2
 67
     7
 79
     5
170
     0
171
     0
290
     0
174
     0
 93
        1
 44
0.0
173
     0
291
     1
 45
0.0
1001
ACAD
1000
AcDbSavedByObjectVersion
1070
     0
1000
AcDbSavedByObjectVersion
1070
     0
1001
ACAD
1000
AcRTDxfName
1000
VISUALSTYLE
  0
VISUALSTYLE
  5
1C0
102
{ACAD_REACTORS
330
17A
102
}
330
17A
100
AcDbVisualStyle
  2
Brighten
 70
    12
 71
     2
 72
     2
 73
     0
 90
        0
 40
-0.6
 41
-30.0
 62
     5
 63
     7
 74
     1
 91
        4
 64
     7
 65
   257
 75
     1
175
     1
 42
1.0
 92
        8
 66
     7
 43
1.0
 76
     1
 77
     6
 78
     2
 67
     7
 79
     5
170
     0
171
     0
290
     0
174
     0
 93
        1
 44
50.0
173
     0
291
     1
 45
0.0
1001
ACAD
1000
AcDbSavedByObjectVersion
1070
     0
1000
AcDbSavedByObjectVersion
1070
     0
1001
ACAD
1000
AcRTDxfName
1000
VISUALSTYLE
  0
VISUALSTYLE
  5
1C4
102
{ACAD_REACTORS
330
17A
102
}
330
17A
100
AcDbVisualStyle
  2
ColorChange
 70
    16
 71
     2
 72
     2
 73
     3
 90
        0
 40
-0.6
 41
-30.0
 62
     5
 63
     8
 74
     1
 91
        4
 64
     7
 65
   257
 75
     1
175
     1
 42
1.0
 92
        8
 66
     8
 43
1.0
 76
     1
 77
     6
 78
     2
 67
     7
 79
     5
170
     0
171
     0
290
     0
174
     0
 93
        1
 44
0.0
173
     0
291
     1
 45
0.0
1001
ACAD
1000
AcDbSavedByObjectVersion
1070
     0
1000
AcDbSavedByObjectVersion
1070
     0
1001
ACAD
1000
AcRTDxfName
1000
VISUALSTYLE
  0
VISUALSTYLE
  5
1BE
102
{ACAD_REACTORS
330
17A
102
}
330
17A
100
AcDbVisualStyle
  2
Conceptual
 70
     9
 71
     3
 72
     2
 73
     0
 90
        0
 40
-0.6
 41
-30.0
 62
     5
 63
     7
 74
     2
 91
        2
 64
     7
 65
   257
 75
     1
175
     1
 42
40.0
 92
        8
 66
     7
 43
1.0
 76
     1
 77
     6
 78
     2
 67
     7
 79
     3
170
     0
171
     0
290
     0
174
     0
 93
        1
 44
0.0
173
     0
291
     0
 45
0.0
1001
ACAD
1000
AcDbSavedByObjectVersion
1070
     0
1000
AcDbSavedByObjectVersion
1070
     0
1001
ACAD
1000
AcRTDxfName
1000
VISUALSTYLE
  0
VISUALSTYLE
  5
1BF
102
{ACAD_REACTORS
330
17A
102
}
330
17A
100
AcDbVisualStyle
  2
Dim
 70
    11
 71
     2
 72
     2
 73
     0
 90
        0
 40
-0.6
 41
-30.0
 62
     5
 63
     7
 74
     1
 91
        4
 64
     7
 65
   257
 75
     1
175
     1
 42
1.0
 92
        8
 66
     7
 43
1.0
 76
     1
 77
     6
 78
     2
 67
     7
 79
     5
170
     0
171
     0
290
     0
174
     0
 93
        1
 44
-50.0
173
     0
291
     1
 45
0.0
1001
ACAD
1000
AcDbSavedByObjectVersion
1070
     0
1000
AcDbSavedByObjectVersion
1070
     0
1001
ACAD
1000
AcRTDxfName
1000
VISUALSTYLE
  0
VISUALSTYLE
  5
1C3
102
{ACAD_REACTORS
330
17A
102
}
330
17A
100
AcDbVisualStyle
  2
Facepattern
 70
    15
 71
     2
 72
     2
 73
     0
 90
        0
 40
-0.6
 41
-30.0
 62
     5
 63
     7
 74
     1
 91
        4
 64
     7
 65
   257
 75
     1
175
     1
 42
1.0
 92
        8
 66
     7
 43
1.0
 76
     1
 77
     6
 78
     2
 67
     7
 79
     5
170
     0
171
     0
290
     0
174
     0
 93
        1
 44
0.0
173
     0
291
     1
 45
0.0
1001
ACAD
1000
AcDbSavedByObjectVersion
1070
     0
1000
AcDbSavedByObjectVersion
1070
     0
1001
ACAD
1000
AcRTDxfName
1000
VISUALSTYLE
  0
VISUALSTYLE
  5
1B8
102
{ACAD_REACTORS
330
17A
102
}
330
17A
100
AcDbVisualStyle
  2
Flat
 70
     0
 71
     2
 72
     1
 73
     1
 90
        2
 40
-0.6
 41
30.0
 62
     5
 63
     7
 74
     0
 91
        4
 64
     7
 65
   257
 75
     1
175
     1
 42
1.0
 92
        8
 66
     7
 43
1.0
 76
     1
 77
     6
 78
     2
 67
     7
 79
     5
170
     0
171
     0
290
     0
174
     0
 93
       13
 44
0.0
173
     0
291
     1
 45
0.0
1001
ACAD
1000
AcDbSavedByObjectVersion
1070
     0
1000
AcDbSavedByObjectVersion
1070
     0
1001
ACAD
1000
AcRTDxfName
1000
VISUALSTYLE
  0
VISUALSTYLE
  5
1B9
102
{ACAD_REACTORS
330
17A
102
}
330
17A
100
AcDbVisualStyle
  2
FlatWithEdges
 70
     1
 71
     2
 72
     1
 73
     1
 90
        2
 40
-0.6
 41
30.0
 62
     5
 63
     7
 74
     1
 91
        4
 64
     7
 65
   257
 75
     1
175
     1
 42
1.0
 92
        0
 66
   257
 43
1.0
 76
     1
 77
     6
 78
     2
 67
     7
 79
     5
170
     0
171
     0
290
     0
174
     0
 93
       13
 44
0.0
173
     0
291
     1
 45
0.0
1001
ACAD
1000
AcDbSavedByObjectVersion
1070
     0
1000
AcDbSavedByObjectVersion
1070
     0
1001
ACAD
1000
AcRTDxfName
1000
VISUALSTYLE
  0
VISUALSTYLE
  5
1BA
102
{ACAD_REACTORS
330
17A
102
}
330
17A
100
AcDbVisualStyle
  2
Gouraud
 70
     2
 71
     2
 72
     2
 73
     1
 90
        2
 40
-0.6
 41
30.0
 62
     5
 63
     7
 74
     0
 91
        4
 64
     7
 65
   257
 75
     1
175
     1
 42
1.0
 92
        0
 66
     7
 43
1.0
 76
     1
 77
     6
 78
     2
 67
     7
 79
     5
170
     0
171
     0
290
     0
174
     0
 93
       13
 44
0.0
173
     0
291
     1
 45
0.0
1001
ACAD
1000
AcDbSavedByObjectVersion
1070
     0
1000
AcDbSavedByObjectVersion
1070
     0
1001
ACAD
1000
AcRTDxfName
1000
VISUALSTYLE
  0
VISUALSTYLE
  5
1BB
102
{ACAD_REACTORS
330
17A
102
}
330
17A
100
AcDbVisualStyle
  2
GouraudWithEdges
 70
     3
 71
     2
 72
     2
 73
     1
 90
        2
 40
-0.6
 41
30.0
 62
     5
 63
     7
 74
     1
 91
        4
 64
     7
 65
   257
 75
     1
175
     1
 42
1.0
 92
        0
 66
   257
 43
1.0
 76
     1
 77
     6
 78
     2
 67
     7
 79
     5
170
     0
171
     0
290
     0
174
     0
 93
       13
 44
0.0
173
     0
291
     1
 45
0.0
1001
ACAD
1000
AcDbSavedByObjectVersion
1070
     0
1000
AcDbSavedByObjectVersion
1070
     0
1001
ACAD
1000
AcRTDxfName
1000
VISUALSTYLE
  0
VISUALSTYLE
  5
1C2
102
{ACAD_REACTORS
330
17A
102
}
330
17A
100
AcDbVisualStyle
  2
Linepattern
 70
    14
 71
     2
 72
     2
 73
     0
 90
        0
 40
-0.6
 41
-30.0
 62
     5
 63
     7
 74
     1
 91
        4
 64
     7
 65
   257
 75
     7
175
     7
 42
1.0
 92
        8
 66
     7
 43
1.0
 76
     1
 77
     6
 78
     2
 67
     7
 79
     5
170
     0
171
     0
290
     0
174
     0
 93
        1
 44
0.0
173
     0
291
     1
 45
0.0
1001
ACAD
1000
AcDbSavedByObjectVersion
1070
     0
1000
AcDbSavedByObjectVersion
1070
     0
1001
ACAD
1000
AcRTDxfName
1000
VISUALSTYLE
  0
VISUALSTYLE
  5
188
102
{ACAD_REACTORS
330
17A
102
}
330
17A
100
AcDbVisualStyle
  2
Realistic
 70
     8
 71
     2
 72
     2
 73
     0
 90
        0
 40
-0.6
 41
-30.0
 62
     5
 63
     7
 74
     1
 91
        0
 64
     7
 65
   257
 75
     1
175
     1
 42
1.0
 92
        8
 66
     8
 43
1.0
 76
     1
 77
     6
 78
     2
 67
     7
 79
     5
170
     0
171
     0
290
     0
174
     0
 93
       13
 44
0.0
173
     0
291
     0
 45
0.0
1001
ACAD
1000
AcDbSavedByObjectVersion
1070
     0
1000
AcDbSavedByObjectVersion
1070
     0
1000
AcDbSavedByObjectVersion
1070
     0
1001
ACAD
1000
AcRTDxfName
1000
VISUALSTYLE
  0
VISUALSTYLE
  5
1C1
102
{ACAD_REACTORS
330
17A
102
}
330
17A
100
AcDbVisualStyle
  2
Thicken
 70
    13
 71
     2
 72
     2
 73
     0
 90
        0
 40
-0.6
 41
-30.0
 62
     5
 63
     7
 74
     1
 91
        4
 64
     7
 65
   257
 75
     1
175
     1
 42
1.0
 92
       12
 66
     7
 43
1.0
 76
     1
 77
     6
 78
     2
 67
     7
 79
     5
170
     0
171
     0
290
     0
174
     0
 93
        1
 44
0.0
173
     0
291
     1
 45
0.0
1001
ACAD
1000
AcDbSavedByObjectVersion
1070
     0
1000
AcDbSavedByObjectVersion
1070
     0
1001
ACAD
1000
AcRTDxfName
1000
VISUALSTYLE
  0
DICTIONARYVAR
  5
18C
102
{ACAD_REACTORS
330
18B
102
}
330
18B
100
DictionaryVariables
280
     0
  1
STANDARD
  0
DICTIONARYVAR
  5
190
102
{ACAD_REACTORS
330
18B
102
}
330
18B
100
DictionaryVariables
280
     0
  1
2
  0
DICTIONARYVAR
  5
18F
102
{ACAD_REACTORS
330
18B
102
}
330
18B
100
DictionaryVariables
280
     0
  1
1
  0
DICTIONARYVAR
  5
18E
102
{ACAD_REACTORS
330
18B
102
}
330
18B
100
DictionaryVariables
280
     0
  1
0
  0
DICTIONARYVAR
  5
31D
102
{ACAD_REACTORS
330
18B
102
}
330
18B
100
DictionaryVariables
280
     0
  1

  0
DICTIONARYVAR
  5
18D
102
{ACAD_REACTORS
330
18B
102
}
330
18B
100
DictionaryVariables
280
     0
  1
127
  0
XRECORD
  5
2434
102
{ACAD_REACTORS
330
2433
102
}
330
2433
100
AcDbXrecord
280
     1
330
21AC
330
2410
330
242E
  0
DICTIONARY
  5
243D
330
168
100
AcDbDictionary
280
     1
281
     1
  3
ACAD_XREC_ROUNDTRIP
360
243E
  0
DICTIONARY
  5
243F
330
16C
100
AcDbDictionary
280
     1
281
     1
  3
ACAD_XREC_ROUNDTRIP
360
2440
  0
DICTIONARY
  5
243B
330
163
100
AcDbDictionary
280
     1
281
     1
  3
ACAD_XREC_ROUNDTRIP
360
243C
  0
DICTIONARY
  5
1B0
330
183
100
AcDbDictionary
280
     1
281
     1
  3
ACAD_XREC_ROUNDTRIP
360
1B1
  0
DICTIONARY
  5
1AE
330
182
100
AcDbDictionary
280
     1
281
     1
  3
ACAD_XREC_ROUNDTRIP
360
1AF
  0
DICTIONARY
  5
193
330
A
100
AcDbDictionary
280
     1
281
     1
  3
ACAD_XREC_ROUNDTRIP
360
194
  0
DICTIONARY
  5
21A
330
187
100
AcDbDictionary
280
     1
281
     1
  3
ACAD_XREC_ROUNDTRIP
360
21B
  0
XRECORD
  5
243E
102
{ACAD_REACTORS
330
243D
102
}
330
243D
100
AcDbXrecord
280
     1
102
SHADEPLOT
 70
     0
102
SHADEPLOTRESLEVEL
 70
     2
102
SHADEPLOTCUSTOMDPI
 70
   300
  0
XRECORD
  5
2440
102
{ACAD_REACTORS
330
243F
102
}
330
243F
100
AcDbXrecord
280
     1
102
SHADEPLOT
 70
     0
102
SHADEPLOTRESLEVEL
 70
     2
102
SHADEPLOTCUSTOMDPI
 70
   300
  0
XRECORD
  5
243C
102
{ACAD_REACTORS
330
243B
102
}
330
243B
100
AcDbXrecord
280
     1
102
SHADEPLOT
 70
     0
102
SHADEPLOTRESLEVEL
 70
     2
102
SHADEPLOTCUSTOMDPI
 70
   300
  0
XRECORD
  5
1B1
102
{ACAD_REACTORS
330
1B0
102
}
330
1B0
100
AcDbXrecord
280
     1
102
MATERIAL
148
0.0
149
0.0
149
0.0
 93
        0
 94
       63
282
     0
 72
     1
 77
     1
171
     1
175
     1
179
     1
273
     0
  0
XRECORD
  5
1AF
102
{ACAD_REACTORS
330
1AE
102
}
330
1AE
100
AcDbXrecord
280
     1
102
MATERIAL
148
0.0
149
0.0
149
0.0
 93
        0
 94
       63
282
     0
 72
     1
 77
     1
171
     1
175
     1
179
     1
273
     0
  0
XRECORD
  5
194
102
{ACAD_REACTORS
330
193
102
}
330
193
100
AcDbXrecord
280
     1
102
MATERIAL
148
0.0
149
0.0
149
0.0
 93
        0
 94
       63
282
     0
 72
     1
 77
     1
171
     1
175
     1
179
     1
273
     0
  0
XRECORD
  5
21B
102
{ACAD_REACTORS
330
21A
102
}
330
21A
100
AcDbXrecord
280
     1
102
ACAD_ROUNDTRIP_PRE2007_TABLESTYLE
 90
        4
 91
        0
  1

 92
        4
 93
        0
  2

 94
        4
 95
        0
  3

  0
ENDSEC
  0
EOF
