  0
SECTION
  2
HEADER
  9
$ACADVER
  1
AC1015
  9
$ACADMAINTVER
 70
    20
  9
$DWGCODEPAGE
  3
ANSI_1252
  9
$INSBASE
 10
0.0
 20
0.0
 30
0.0
  9
$EXTMIN
 10
0.0149999999999999
 20
0.015
 30
0.0
  9
$EXTMAX
 10
1.083588826760349
 20
0.6791217612350078
 30
0.0
  9
$LIMMIN
 10
0.0
 20
0.0
  9
$LIMMAX
 10
1.0
 20
0.5
  9
$ORTHOMODE
 70
     0
  9
$REGENMODE
 70
     1
  9
$FILLMODE
 70
     1
  9
$QTEXTMODE
 70
     0
  9
$MIRRTEXT
 70
     0
  9
$LTSCALE
 40
1.0
  9
$ATTMODE
 70
     1
  9
$TEXTSIZE
 40
0.008
  9
$TRACEWID
 40
1.0
  9
$TEXTSTYLE
  7
style1
  9
$CLAYER
  8
Sezione
  9
$CELTYPE
  6
ACAD_ISO10W100
  9
$CECOLOR
 62
   256
  9
$CELTSCALE
 40
1.0
  9
$DISPSILH
 70
     0
  9
$DIMSCALE
 40
0.001
  9
$DIMASZ
 40
1.5
  9
$DIMEXO
 40
0.0625
  9
$DIMDLI
 40
0.38
  9
$DIMRND
 40
0.0
  9
$DIMDLE
 40
0.0
  9
$DIMEXE
 40
0.18
  9
$DIMTP
 40
0.0
  9
$DIMTM
 40
0.0
  9
$DIMTXT
 40
3.0
  9
$DIMCEN
 40
0.0
  9
$DIMTSZ
 40
0.0
  9
$DIMTOL
 70
     0
  9
$DIMLIM
 70
     0
  9
$DIMTIH
 70
     1
  9
$DIMTOH
 70
     1
  9
$DIMSE1
 70
     0
  9
$DIMSE2
 70
     0
  9
$DIMTAD
 70
     0
  9
$DIMZIN
 70
     0
  9
$DIMBLK
  1
ArchTick
  9
$DIMASO
 70
     1
  9
$DIMSHO
 70
     1
  9
$DIMPOST
  1

  9
$DIMAPOST
  1

  9
$DIMALT
 70
     0
  9
$DIMALTD
 70
     2
  9
$DIMALTF
 40
25.4
  9
$DIMLFAC
 40
1.0
  9
$DIMTOFL
 70
     0
  9
$DIMTVP
 40
0.0
  9
$DIMTIX
 70
     0
  9
$DIMSOXD
 70
     0
  9
$DIMSAH
 70
     0
  9
$DIMBLK1
  1

  9
$DIMBLK2
  1

  9
$DIMSTYLE
  2
Bovelacci
  9
$DIMCLRD
 70
     5
  9
$DIMCLRE
 70
     5
  9
$DIMCLRT
 70
     4
  9
$DIMTFAC
 40
1.0
  9
$DIMGAP
 40
2.0
  9
$DIMJUST
 70
     0
  9
$DIMSD1
 70
     0
  9
$DIMSD2
 70
     0
  9
$DIMTOLJ
 70
     1
  9
$DIMTZIN
 70
     0
  9
$DIMALTZ
 70
     0
  9
$DIMALTTZ
 70
     0
  9
$DIMUPT
 70
     0
  9
$DIMDEC
 70
     2
  9
$DIMTDEC
 70
     2
  9
$DIMALTU
 70
     2
  9
$DIMALTTD
 70
     2
  9
$DIMTXSTY
  7
ROMANS
  9
$DIMAUNIT
 70
     0
  9
$DIMADEC
 70
     0
  9
$DIMALTRND
 40
0.0
  9
$DIMAZIN
 70
     0
  9
$DIMDSEP
 70
    46
  9
$DIMATFIT
 70
     3
  9
$DIMFRAC
 70
     0
  9
$DIMLDRBLK
  1

  9
$DIMLUNIT
 70
     2
  9
$DIMLWD
 70
    -2
  9
$DIMLWE
 70
    -2
  9
$DIMTMOVE
 70
     2
  9
$LUNITS
 70
     2
  9
$LUPREC
 70
     2
  9
$SKETCHINC
 40
1.0
  9
$FILLETRAD
 40
0.0
  9
$AUNITS
 70
     0
  9
$AUPREC
 70
     0
  9
$MENU
  1
.
  9
$ELEVATION
 40
0.0
  9
$PELEVATION
 40
0.0
  9
$THICKNESS
 40
0.0
  9
$LIMCHECK
 70
     0
  9
$CHAMFERA
 40
0.0
  9
$CHAMFERB
 40
0.0
  9
$CHAMFERC
 40
0.0
  9
$CHAMFERD
 40
0.0
  9
$SKPOLY
 70
     0
  9
$TDCREATE
 40
2454297.625402373
  9
$TDUCREATE
 40
2454297.542069039
  9
$TDUPDATE
 40
2454306.931088495
  9
$TDUUPDATE
 40
2454306.847755162
  9
$TDINDWG
 40
0.1979042014
  9
$TDUSRTIMER
 40
0.1979021991
  9
$USRTIMER
 70
     1
  9
$ANGBASE
 50
0.0
  9
$ANGDIR
 70
     0
  9
$PDMODE
 70
     0
  9
$PDSIZE
 40
0.0
  9
$PLINEWID
 40
0.0
  9
$SPLFRAME
 70
     0
  9
$SPLINETYPE
 70
     6
  9
$SPLINESEGS
 70
     8
  9
$HANDSEED
  5
277A
  9
$SURFTAB1
 70
     6
  9
$SURFTAB2
 70
     6
  9
$SURFTYPE
 70
     6
  9
$SURFU
 70
     6
  9
$SURFV
 70
     6
  9
$UCSBASE
  2

  9
$UCSNAME
  2

  9
$UCSORG
 10
0.0
 20
0.0
 30
0.0
  9
$UCSXDIR
 10
1.0
 20
0.0
 30
0.0
  9
$UCSYDIR
 10
0.0
 20
1.0
 30
0.0
  9
$UCSORTHOREF
  2

  9
$UCSORTHOVIEW
 70
     0
  9
$UCSORGTOP
 10
0.0
 20
0.0
 30
0.0
  9
$UCSORGBOTTOM
 10
0.0
 20
0.0
 30
0.0
  9
$UCSORGLEFT
 10
0.0
 20
0.0
 30
0.0
  9
$UCSORGRIGHT
 10
0.0
 20
0.0
 30
0.0
  9
$UCSORGFRONT
 10
0.0
 20
0.0
 30
0.0
  9
$UCSORGBACK
 10
0.0
 20
0.0
 30
0.0
  9
$PUCSBASE
  2

  9
$PUCSNAME
  2

  9
$PUCSORG
 10
0.0
 20
0.0
 30
0.0
  9
$PUCSXDIR
 10
1.0
 20
0.0
 30
0.0
  9
$PUCSYDIR
 10
0.0
 20
1.0
 30
0.0
  9
$PUCSORTHOREF
  2

  9
$PUCSORTHOVIEW
 70
     0
  9
$PUCSORGTOP
 10
0.0
 20
0.0
 30
0.0
  9
$PUCSORGBOTTOM
 10
0.0
 20
0.0
 30
0.0
  9
$PUCSORGLEFT
 10
0.0
 20
0.0
 30
0.0
  9
$PUCSORGRIGHT
 10
0.0
 20
0.0
 30
0.0
  9
$PUCSORGFRONT
 10
0.0
 20
0.0
 30
0.0
  9
$PUCSORGBACK
 10
0.0
 20
0.0
 30
0.0
  9
$USERI1
 70
     0
  9
$USERI2
 70
     0
  9
$USERI3
 70
     0
  9
$USERI4
 70
     0
  9
$USERI5
 70
     0
  9
$USERR1
 40
0.0
  9
$USERR2
 40
0.0
  9
$USERR3
 40
0.0
  9
$USERR4
 40
0.0
  9
$USERR5
 40
0.0
  9
$WORLDVIEW
 70
     1
  9
$SHADEDGE
 70
     3
  9
$SHADEDIF
 70
    70
  9
$TILEMODE
 70
     1
  9
$MAXACTVP
 70
    64
  9
$PINSBASE
 10
0.0
 20
0.0
 30
0.0
  9
$PLIMCHECK
 70
     0
  9
$PEXTMIN
 10
1.000000000000000E+20
 20
1.000000000000000E+20
 30
1.000000000000000E+20
  9
$PEXTMAX
 10
-1.000000000000000E+20
 20
-1.000000000000000E+20
 30
-1.000000000000000E+20
  9
$PLIMMIN
 10
0.0
 20
0.0
  9
$PLIMMAX
 10
420.0
 20
297.0
  9
$UNITMODE
 70
     0
  9
$VISRETAIN
 70
     1
  9
$PLINEGEN
 70
     0
  9
$PSLTSCALE
 70
     1
  9
$TREEDEPTH
 70
  3020
  9
$CMLSTYLE
  2
Standard
  9
$CMLJUST
 70
     0
  9
$CMLSCALE
 40
20.0
  9
$PROXYGRAPHICS
 70
     1
  9
$MEASUREMENT
 70
     1
  9
$CELWEIGHT
370
    -1
  9
$ENDCAPS
280
     0
  9
$JOINSTYLE
280
     0
  9
$LWDISPLAY
290
     0
  9
$INSUNITS
 70
     4
  9
$HYPERLINKBASE
  1

  9
$STYLESHEET
  1

  9
$XEDIT
290
     1
  9
$CEPSNTYPE
380
     0
  9
$PSTYLEMODE
290
     1
  9
$FINGERPRINTGUID
  2
{904A8C64-524F-4709-A9C6-320D2C273A6D}
  9
$VERSIONGUID
  2
{1B51D9E1-FDAB-454C-B89C-EEF09387FD8A}
  9
$EXTNAMES
290
     1
  9
$PSVPSCALE
 40
0.0
  9
$OLESTARTUP
290
     0
  0
ENDSEC
  0
SECTION
  2
CLASSES
  0
CLASS
  1
ACDBDICTIONARYWDFLT
  2
AcDbDictionaryWithDefault
  3
ObjectDBX Classes
 90
        0
280
     0
281
     0
  0
CLASS
  1
TABLESTYLE
  2
AcDbTableStyle
  3
ObjectDBX Classes
 90
     2047
280
     0
281
     0
  0
CLASS
  1
SORTENTSTABLE
  2
AcDbSortentsTable
  3
ObjectDBX Classes
 90
        0
280
     0
281
     0
  0
CLASS
  1
DICTIONARYVAR
  2
AcDbDictionaryVar
  3
ObjectDBX Classes
 90
        0
280
     0
281
     0
  0
CLASS
  1
ACDBPLACEHOLDER
  2
AcDbPlaceHolder
  3
ObjectDBX Classes
 90
        0
280
     0
281
     0
  0
CLASS
  1
LAYOUT
  2
AcDbLayout
  3
ObjectDBX Classes
 90
        0
280
     0
281
     0
  0
CLASS
  1
DIMASSOC
  2
AcDbDimAssoc
  3
"AcDbDimAssoc|Product Desc:     AcDim ARX App For Dimension|Company:          Autodesk, Inc.|WEB Address:      www.autodesk.com"
 90
        0
280
     0
281
     0
  0
CLASS
  1
MATERIAL
  2
AcDbMaterial
  3
ObjectDBX Classes
 90
        0
280
     0
281
     0
  0
CLASS
  1
VISUALSTYLE
  2
AcDbVisualStyle
  3
ObjectDBX Classes
 90
     4095
280
     0
281
     0
  0
ENDSEC
  0
SECTION
  2
TABLES
  0
TABLE
  2
VPORT
  5
177
330
0
100
AcDbSymbolTable
 70
     4
  0
VPORT
  5
276F
330
177
100
AcDbSymbolTableRecord
100
AcDbViewportTableRecord
  2
*Active
 70
     0
 10
0.0
 20
0.0
 11
1.0
 21
1.0
 12
0.2097575622608103
 22
0.1489484704407033
 13
0.0
 23
0.0
 14
10.0
 24
10.0
 15
10.0
 25
10.0
 16
0.0
 26
0.0
 36
1.0
 17
0.0
 27
0.0
 37
0.0
 40
0.2715177803288296
 41
1.546526867627784
 42
50.0
 43
0.0
 44
0.0
 50
0.0
 51
0.0
 71
     0
 72
  1000
 73
     1
 74
     3
 75
     0
 76
     0
 77
     0
 78
     0
281
     0
 65
     1
110
0.0
120
0.0
130
0.0
111
1.0
121
0.0
131
0.0
112
0.0
122
1.0
132
0.0
 79
     0
146
0.0
  0
ENDTAB
  0
TABLE
  2
LTYPE
  5
172
330
0
100
AcDbSymbolTable
 70
     2
  0
LTYPE
  5
173
330
172
100
AcDbSymbolTableRecord
100
AcDbLinetypeTableRecord
  2
ByBlock
 70
     0
  3

 72
    65
 73
     0
 40
0.0
  0
LTYPE
  5
174
330
172
100
AcDbSymbolTableRecord
100
AcDbLinetypeTableRecord
  2
ByLayer
 70
     0
  3

 72
    65
 73
     0
 40
0.0
  0
LTYPE
  5
C
330
172
100
AcDbSymbolTableRecord
100
AcDbLinetypeTableRecord
  2
Continuous
 70
     0
  3
Solid line
 72
    65
 73
     0
 40
0.0
  0
LTYPE
  5
14E
330
172
100
AcDbSymbolTableRecord
100
AcDbLinetypeTableRecord
  2
ACAD_ISO10W100
 70
     0
  3
ISO dash dot __ . __ . __ . __ . __ . __ . __ .
 72
    65
 73
     4
 40
18.0
 49
12.0
 74
     0
 49
-3.0
 74
     0
 49
0.0
 74
     0
 49
-3.0
 74
     0
  0
ENDTAB
  0
TABLE
  2
LAYER
  5
16D
102
{ACAD_XDICTIONARY
360
16E
102
}
330
0
100
AcDbSymbolTable
 70
     7
  0
LAYER
  5
6
330
16D
100
AcDbSymbolTableRecord
100
AcDbLayerTableRecord
  2
0
 70
     0
 62
     7
  6
Continuous
370
    -3
390
7
  0
LAYER
  5
15F
330
16D
100
AcDbSymbolTableRecord
100
AcDbLayerTableRecord
  2
Defpoints
 70
     0
 62
     7
  6
Continuous
290
     0
370
    -3
390
7
  0
LAYER
  5
28
330
16D
100
AcDbSymbolTableRecord
100
AcDbLayerTableRecord
  2
Profilo
 70
     0
 62
     1
  6
Continuous
370
    -3
390
7
1001
AcAecLayerStandard
1000

1000

  0
LAYER
  5
14D
330
16D
100
AcDbSymbolTableRecord
100
AcDbLayerTableRecord
  2
Sezione
 70
     0
 62
     2
  6
Continuous
370
    -3
390
7
1001
AcAecLayerStandard
1000

1000

  0
LAYER
  5
E
330
16D
100
AcDbSymbolTableRecord
100
AcDbLayerTableRecord
  2
Table
 70
     0
 62
     3
  6
Continuous
370
    -3
390
7
1001
AcAecLayerStandard
1000

1000

  0
LAYER
  5
19
330
16D
100
AcDbSymbolTableRecord
100
AcDbLayerTableRecord
  2
Text
 70
     0
 62
     4
  6
Continuous
370
    -3
390
7
1001
AcAecLayerStandard
1000

1000

  0
LAYER
  5
256
330
16D
100
AcDbSymbolTableRecord
100
AcDbLayerTableRecord
  2
Bovelacci
 70
     0
 62
     9
  6
Continuous
370
    -3
390
7
1001
AcAecLayerStandard
1000

1000

  0
ENDTAB
  0
TABLE
  2
STYLE
  5
170
330
0
100
AcDbSymbolTable
 70
     3
  0
STYLE
  5
1A
330
170
100
AcDbSymbolTableRecord
100
AcDbTextStyleTableRecord
  2
Standard
 70
     0
 40
0.0
 41
1.0
 50
0.0
 71
     0
 42
2.5
  3
txt
  4

  0
STYLE
  5
20
330
170
100
AcDbSymbolTableRecord
100
AcDbTextStyleTableRecord
  2
ROMANS
 70
     0
 40
0.0
 41
1.0
 50
0.0
 71
     0
 42
2.5
  3
romans
  4

  0
STYLE
  5
26
330
170
100
AcDbSymbolTableRecord
100
AcDbTextStyleTableRecord
  2
style1
 70
     0
 40
0.0
 41
1.0
 50
0.0
 71
     0
 42
0.008
  3
TIMES.TTF
  4

1001
ACAD
1000
Times New Roman
1071
       18
  0
ENDTAB
  0
TABLE
  2
VIEW
  5
175
330
0
100
AcDbSymbolTable
 70
     1
  0
ENDTAB
  0
TABLE
  2
UCS
  5
176
330
0
100
AcDbSymbolTable
 70
     0
  0
ENDTAB
  0
TABLE
  2
APPID
  5
17B
330
0
100
AcDbSymbolTable
 70
    11
  0
APPID
  5
1B
330
17B
100
AcDbSymbolTableRecord
100
AcDbRegAppTableRecord
  2
ACAD
 70
     0
  0
APPID
  5
157
330
17B
100
AcDbSymbolTableRecord
100
AcDbRegAppTableRecord
  2
ACAD_DSTYLE_DIMJOGGED_JOGANGLE_SYMBOL
 70
     0
  0
APPID
  5
F
330
17B
100
AcDbSymbolTableRecord
100
AcDbRegAppTableRecord
  2
AcAecLayerStandard
 70
     0
  0
APPID
  5
19C
330
17B
100
AcDbSymbolTableRecord
100
AcDbRegAppTableRecord
  2
ACAD_DSTYLE_DIMFLIPARROW_WHICH_SYMBOL
 70
     0
  0
APPID
  5
1A7
330
17B
100
AcDbSymbolTableRecord
100
AcDbRegAppTableRecord
  2
ACAD_DSTYLE_DIMEXT_LENGTH
 70
     0
  0
APPID
  5
1D2
330
17B
100
AcDbSymbolTableRecord
100
AcDbRegAppTableRecord
  2
ACAD_EXEMPT_FROM_CAD_STANDARDS
 70
     0
  0
APPID
  5
1D3
330
17B
100
AcDbSymbolTableRecord
100
AcDbRegAppTableRecord
  2
ACAD_DSTYLE_DIM_LINETYPE
 70
     0
  0
APPID
  5
1D4
330
17B
100
AcDbSymbolTableRecord
100
AcDbRegAppTableRecord
  2
ACAD_DSTYLE_DIM_EXT1_LINETYPE
 70
     0
  0
APPID
  5
1D5
330
17B
100
AcDbSymbolTableRecord
100
AcDbRegAppTableRecord
  2
ACAD_DSTYLE_DIM_EXT2_LINETYPE
 70
     0
  0
APPID
  5
25C
330
17B
100
AcDbSymbolTableRecord
100
AcDbRegAppTableRecord
  2
ACAD_PSEXT
 70
     0
  0
APPID
  5
21C6
330
17B
100
AcDbSymbolTableRecord
100
AcDbRegAppTableRecord
  2
DCO15
 70
     0
  0
ENDTAB
  0
TABLE
  2
DIMSTYLE
  5
17C
330
0
100
AcDbSymbolTable
 70
     7
100
AcDbDimStyleTable
 71
     2
340
156
340
17D
  0
DIMSTYLE
105
17D
330
17C
100
AcDbSymbolTableRecord
100
AcDbDimStyleTableRecord
  2
ISO-25
 70
     0
 41
2.5
 42
0.625
 43
3.75
 44
1.25
 73
     0
 74
     0
 77
     1
 78
     8
140
2.5
141
2.5
143
0.03937007874016
147
0.625
171
     3
172
     1
271
     2
272
     2
274
     3
278
    44
283
     0
284
     8
340
1A
  0
DIMSTYLE
105
156
102
{ACAD_REACTORS
330
2751
102
}
330
17C
100
AcDbSymbolTableRecord
100
AcDbDimStyleTableRecord
  2
Bovelacci
 70
     0
 40
0.001
 41
1.5
140
3.0
141
0.0
147
2.0
176
     5
177
     5
178
     4
271
     2
272
     2
279
     2
340
20
342
152
1001
ACAD_DSTYLE_DIMJOGGED_JOGANGLE_SYMBOL
1070
   384
1040
0.7853981633974483
1001
ACAD_DSTYLE_DIMEXT_LENGTH
1070
   378
1040
0.18
  0
DIMSTYLE
105
257
330
17C
100
AcDbSymbolTableRecord
100
AcDbDimStyleTableRecord
  2
Dim 1-100
 70
     0
 40
0.1
 41
1.5
 42
0.0
 43
5.0
 44
1.25
 45
0.005
 46
1.25
 73
     0
 74
     0
 77
     1
 78
     9
140
2.0
141
2.5
147
1.0
172
     1
174
     1
179
     2
279
     2
289
     2
340
20
342
152
  0
DIMSTYLE
105
258
330
17C
100
AcDbSymbolTableRecord
100
AcDbDimStyleTableRecord
  2
Standard
 70
     0
 42
0.0
 73
     0
 74
     0
 77
     1
271
     2
272
     2
340
20
  0
DIMSTYLE
105
259
330
17C
100
AcDbSymbolTableRecord
100
AcDbDimStyleTableRecord
  2
Dim 1-50
 70
     0
 40
0.05
 41
1.5
 42
0.0
 43
5.0
 44
1.25
 45
0.005
 46
1.25
 73
     0
 74
     0
 77
     1
 78
     9
140
2.0
141
2.5
147
1.0
172
     1
174
     1
179
     2
279
     2
289
     2
340
20
342
152
  0
DIMSTYLE
105
25A
330
17C
100
AcDbSymbolTableRecord
100
AcDbDimStyleTableRecord
  2
Dim 1-200
 70
     0
 40
0.2
 41
1.5
 42
0.0
 43
5.0
 44
1.25
 45
0.005
 46
1.25
 73
     0
 74
     0
 77
     1
 78
     9
140
2.0
141
2.5
147
1.0
172
     1
174
     1
179
     2
271
     2
272
     2
279
     2
289
     2
340
20
342
152
  0
DIMSTYLE
105
25B
330
17C
100
AcDbSymbolTableRecord
100
AcDbDimStyleTableRecord
  2
AEC Scale - Italiano
 70
     0
 41
1.0
 42
10.0
 43
10.0
 44
10.0
 73
     0
 74
     0
 75
     1
 76
     1
 77
     1
140
10.0
141
1.0
147
10.0
173
     1
271
     0
272
     0
279
     2
340
1A
343
251
344
24B
  0
ENDTAB
  0
TABLE
  2
BLOCK_RECORD
  5
1
330
0
100
AcDbSymbolTable
 70
    26
  0
BLOCK_RECORD
  5
2
102
{ACAD_XDICTIONARY
360
3
102
}
330
1
100
AcDbSymbolTableRecord
100
AcDbBlockTableRecord
  2
*Model_Space
340
163
  0
BLOCK_RECORD
  5
165
330
1
100
AcDbSymbolTableRecord
100
AcDbBlockTableRecord
  2
*Paper_Space
340
168
  0
BLOCK_RECORD
  5
169
330
1
100
AcDbSymbolTableRecord
100
AcDbBlockTableRecord
  2
*Paper_Space0
340
16C
  0
BLOCK_RECORD
  5
152
330
1
100
AcDbSymbolTableRecord
100
AcDbBlockTableRecord
  2
_ArchTick
340
0
310
2800000020000000200000000100080000000000000400000000000000000000000000000000000000000000000080000080000000808000800000008000800080800000C0C0C000C0DCC000F0CAA6000020400000206000002080000020A0000020C0000020E00000400000004020000040400000406000004080000040A0
310
000040C0000040E00000600000006020000060400000606000006080000060A0000060C0000060E00000800000008020000080400000806000008080000080A0000080C0000080E00000A0000000A0200000A0400000A0600000A0800000A0A00000A0C00000A0E00000C0000000C0200000C0400000C0600000C0800000C0
310
A00000C0C00000C0E00000E0000000E0200000E0400000E0600000E0800000E0A00000E0C00000E0E00040000000400020004000400040006000400080004000A0004000C0004000E00040200000402020004020400040206000402080004020A0004020C0004020E000404000004040200040404000404060004040800040
310
40A0004040C0004040E00040600000406020004060400040606000406080004060A0004060C0004060E00040800000408020004080400040806000408080004080A0004080C0004080E00040A0000040A0200040A0400040A0600040A0800040A0A00040A0C00040A0E00040C0000040C0200040C0400040C0600040C08000
310
40C0A00040C0C00040C0E00040E0000040E0200040E0400040E0600040E0800040E0A00040E0C00040E0E00080000000800020008000400080006000800080008000A0008000C0008000E00080200000802020008020400080206000802080008020A0008020C0008020E00080400000804020008040400080406000804080
310
008040A0008040C0008040E00080600000806020008060400080606000806080008060A0008060C0008060E00080800000808020008080400080806000808080008080A0008080C0008080E00080A0000080A0200080A0400080A0600080A0800080A0A00080A0C00080A0E00080C0000080C0200080C0400080C0600080C0
310
800080C0A00080C0C00080C0E00080E0000080E0200080E0400080E0600080E0800080E0A00080E0C00080E0E000C0000000C0002000C0004000C0006000C0008000C000A000C000C000C000E000C0200000C0202000C0204000C0206000C0208000C020A000C020C000C020E000C0400000C0402000C0404000C0406000C0
310
408000C040A000C040C000C040E000C0600000C0602000C0604000C0606000C0608000C060A000C060C000C060E000C0800000C0802000C0804000C0806000C0808000C080A000C080C000C080E000C0A00000C0A02000C0A04000C0A06000C0A08000C0A0A000C0A0C000C0A0E000C0C00000C0C02000C0C04000C0C06000
310
C0C08000C0C0A000F0FBFF00A4A0A000808080000000FF0000FF000000FFFF00FF000000FF00FF00FFFF0000FFFFFF00000000FF000000000000000000000000000000000000000000000000000000000000FF00FF00000000000000000000000000000000000000000000000000000000FF000000FF000000000000000000
310
0000000000000000000000000000000000FF0000000000FF0000000000000000000000000000000000000000000000000000FF0000000000FF0000000000000000000000000000000000000000000000000000FF0000000000FF0000000000000000000000000000000000000000000000000000FF0000000000FF00000000
310
00000000000000000000000000000000000000000000FF0000000000FF0000000000000000000000000000000000000000000000000000FF0000000000FF0000000000000000000000000000000000000000000000000000FF0000000000FF0000000000000000000000000000000000000000000000000000FF0000000000
310
FF0000000000000000000000000000000000000000000000000000FF0000000000FF0000000000000000000000000000000000000000000000000000FF0000000000FF0000000000000000000000000000000000000000000000000000FF0000000000FF0000000000000000000000000000000000000000000000000000FF
310
0000000000FF0000000000000000000000000000000000000000000000000000FF0000000000FF0000000000000000000000000000000000000000000000000000FF0000000000FF0000000000000000000000000000000000000000000000000000FF0000000000FF00000000000000000000000000000000000000000000
310
00000000FF0000000000FF0000000000000000000000000000000000000000000000000000FF0000000000FF0000000000000000000000000000000000000000000000000000FF0000000000FF0000000000000000000000000000000000000000000000000000FF0000000000FF0000000000000000000000000000000000
310
000000000000000000FF0000000000FF0000000000000000000000000000000000000000000000000000FF0000000000FF0000000000000000000000000000000000000000000000000000FF0000000000FF0000000000000000000000000000000000000000000000000000FF0000000000FF000000000000000000000000
310
0000000000000000000000000000FF0000000000FF0000000000000000000000000000000000000000000000000000FF0000000000FF0000000000000000000000000000000000000000000000000000FF0000000000FF0000000000000000000000000000000000000000000000000000FF000000FF000000000000000000
310
00000000000000000000000000000000000000FF00FF000000000000000000000000000000000000000000000000000000000000FF000000
102
{BLKREFS
331
6DD
331
847
331
9CD
331
A12
331
BBC
331
CB8
331
F31
331
11A1
331
12E0
331
1533
331
1534
331
153F
331
1540
331
1844
331
1B9F
331
1D11
331
1E8A
331
21AC
331
2410
331
242E
331
276C
102
}
  0
BLOCK_RECORD
  5
24B
330
1
100
AcDbSymbolTableRecord
100
AcDbBlockTableRecord
  2
_Arrivo
340
0
310
2800000020000000200000000100080000000000000400000000000000000000000000000000000000000000000080000080000000808000800000008000800080800000C0C0C000C0DCC000F0CAA6000020400000206000002080000020A0000020C0000020E00000400000004020000040400000406000004080000040A0
310
000040C0000040E00000600000006020000060400000606000006080000060A0000060C0000060E00000800000008020000080400000806000008080000080A0000080C0000080E00000A0000000A0200000A0400000A0600000A0800000A0A00000A0C00000A0E00000C0000000C0200000C0400000C0600000C0800000C0
310
A00000C0C00000C0E00000E0000000E0200000E0400000E0600000E0800000E0A00000E0C00000E0E00040000000400020004000400040006000400080004000A0004000C0004000E00040200000402020004020400040206000402080004020A0004020C0004020E000404000004040200040404000404060004040800040
310
40A0004040C0004040E00040600000406020004060400040606000406080004060A0004060C0004060E00040800000408020004080400040806000408080004080A0004080C0004080E00040A0000040A0200040A0400040A0600040A0800040A0A00040A0C00040A0E00040C0000040C0200040C0400040C0600040C08000
310
40C0A00040C0C00040C0E00040E0000040E0200040E0400040E0600040E0800040E0A00040E0C00040E0E00080000000800020008000400080006000800080008000A0008000C0008000E00080200000802020008020400080206000802080008020A0008020C0008020E00080400000804020008040400080406000804080
310
008040A0008040C0008040E00080600000806020008060400080606000806080008060A0008060C0008060E00080800000808020008080400080806000808080008080A0008080C0008080E00080A0000080A0200080A0400080A0600080A0800080A0A00080A0C00080A0E00080C0000080C0200080C0400080C0600080C0
310
800080C0A00080C0C00080C0E00080E0000080E0200080E0400080E0600080E0800080E0A00080E0C00080E0E000C0000000C0002000C0004000C0006000C0008000C000A000C000C000C000E000C0200000C0202000C0204000C0206000C0208000C020A000C020C000C020E000C0400000C0402000C0404000C0406000C0
310
408000C040A000C040C000C040E000C0600000C0602000C0604000C0606000C0608000C060A000C060C000C060E000C0800000C0802000C0804000C0806000C0808000C080A000C080C000C080E000C0A00000C0A02000C0A04000C0A06000C0A08000C0A0A000C0A0C000C0A0E000C0C00000C0C02000C0C04000C0C06000
310
C0C08000C0C0A000F0FBFF00A4A0A000808080000000FF0000FF000000FFFF00FF000000FF00FF00FFFF0000FFFFFF00000000000000000000000000000000000000000000000000000000000000000000000000000000000000FF0000000000000000000000000000000000000000000000000000000000000000FF000000
310
00000000000000000000000000000000000000000000000000000000FF0000000000000000000000000000000000000000000000000000000000000000FF00000000000000000000000000000000000000000000000000000000000000FF0000000000000000000000000000000000000000000000000000000000000000FF
310
0000000000000000000000000000000000000000000000000000000000000000FF00000000000000000000000000000000000000000000000000000000000000FF0000000000000000000000000000000000000000000000000000000000000000FF0000000000000000000000000000000000000000000000000000000000
310
0000FF0000000000000000000000000000000000000000000000000000000000000000FF00000000000000000000000000000000000000000000000000000000000000FF0000000000000000000000000000000000000000000000000000000000000000FF0000FF0000000000000000000000000000000000000000000000
310
000000000000FFFF000000000000000000000000000000000000000000000000000000000000FFFF00000000000000000000000000000000000000000000000000000000FFFFFFFFFFFF00000000000000000000000000000000000000000000000000000000FFFF0000000000000000000000000000000000000000000000
310
000000000000FF0000FF000000000000000000000000000000000000000000000000000000FF00000000000000000000000000000000000000000000000000000000000000FF000000000000000000000000000000000000000000000000000000000000FF0000000000000000000000000000000000000000000000000000
310
0000000000FF000000000000000000000000000000000000000000000000000000000000FF00000000000000000000000000000000000000000000000000000000000000FF000000000000000000000000000000000000000000000000000000000000FF000000000000000000000000000000000000000000000000000000
310
000000FF00000000000000000000000000000000000000000000000000000000000000FF000000000000000000000000000000000000000000000000000000000000FF00000000000000000000000000000000000000000000000000000000000000FF00000000000000000000000000000000000000000000000000000000
310
0000FF0000000000000000000000000000000000000000000000000000000000000000000000000000000000000000000000000000000000
  0
BLOCK_RECORD
  5
251
330
1
100
AcDbSymbolTableRecord
100
AcDbBlockTableRecord
  2
_Partenza
340
0
310
2800000020000000200000000100080000000000000400000000000000000000000000000000000000000000000080000080000000808000800000008000800080800000C0C0C000C0DCC000F0CAA6000020400000206000002080000020A0000020C0000020E00000400000004020000040400000406000004080000040A0
310
000040C0000040E00000600000006020000060400000606000006080000060A0000060C0000060E00000800000008020000080400000806000008080000080A0000080C0000080E00000A0000000A0200000A0400000A0600000A0800000A0A00000A0C00000A0E00000C0000000C0200000C0400000C0600000C0800000C0
310
A00000C0C00000C0E00000E0000000E0200000E0400000E0600000E0800000E0A00000E0C00000E0E00040000000400020004000400040006000400080004000A0004000C0004000E00040200000402020004020400040206000402080004020A0004020C0004020E000404000004040200040404000404060004040800040
310
40A0004040C0004040E00040600000406020004060400040606000406080004060A0004060C0004060E00040800000408020004080400040806000408080004080A0004080C0004080E00040A0000040A0200040A0400040A0600040A0800040A0A00040A0C00040A0E00040C0000040C0200040C0400040C0600040C08000
310
40C0A00040C0C00040C0E00040E0000040E0200040E0400040E0600040E0800040E0A00040E0C00040E0E00080000000800020008000400080006000800080008000A0008000C0008000E00080200000802020008020400080206000802080008020A0008020C0008020E00080400000804020008040400080406000804080
310
008040A0008040C0008040E00080600000806020008060400080606000806080008060A0008060C0008060E00080800000808020008080400080806000808080008080A0008080C0008080E00080A0000080A0200080A0400080A0600080A0800080A0A00080A0C00080A0E00080C0000080C0200080C0400080C0600080C0
310
800080C0A00080C0C00080C0E00080E0000080E0200080E0400080E0600080E0800080E0A00080E0C00080E0E000C0000000C0002000C0004000C0006000C0008000C000A000C000C000C000E000C0200000C0202000C0204000C0206000C0208000C020A000C020C000C020E000C0400000C0402000C0404000C0406000C0
310
408000C040A000C040C000C040E000C0600000C0602000C0604000C0606000C0608000C060A000C060C000C060E000C0800000C0802000C0804000C0806000C0808000C080A000C080C000C080E000C0A00000C0A02000C0A04000C0A06000C0A08000C0A0A000C0A0C000C0A0E000C0C00000C0C02000C0C04000C0C06000
310
C0C08000C0C0A000F0FBFF00A4A0A000808080000000FF0000FF000000FFFF00FF000000FF00FF00FFFF0000FFFFFF0000000000000000000000000000000000000000000000000000000000000000000000000000000000000000000000000000000000000000000000000000000000000000000000000000000000000000
310
000000000000000000000000000000000000000000000000000000000000000000000000000000000000000000000000000000000000000000000000000000000000000000000000000000000000000000000000000000000000000000000000000000000000000000000000000000000000FFFFFFFFFFFFFFFFFFFFFFFFFF
310
FFFFFFFFFFFFFFFFFFFFFFFFFFFFFFFFFF0000000000000000000000000000000000000000000000000000000000000000000000000000000000000000000000000000000000000000000000000000000000000000000000000000000000000000000000000000000000000000000000000000000000000000000000000000
310
00000000000000000000000000000000000000000000000000000000000000000000000000000000000000000000000000000000000000000000000000000000000000000000000000000000000000000000000000000000000000000000000000000000000000000000000000000000000000000000000000000000000000
310
00000000000000000000000000000000000000000000000000000000000000000000000000000000000000000000000000000000000000000000000000000000000000000000000000000000000000000000000000000000000000000000000000000000000000000000000000000000000000000000000000000000000000
310
00000000000000000000000000000000000000000000000000000000000000000000000000000000000000000000000000000000000000000000000000000000000000000000000000000000000000000000000000000000000000000000000000000000000000000000000000000000000000000000000000000000000000
310
000000000000000000000000000000000000000000000000000000000000000000000000000000000000000000000000000000000000000000000000000000000000000000000000000000000000000000000000000000FFFFFFFFFFFFFFFFFFFFFFFFFFFFFFFFFFFFFFFFFFFFFFFFFFFFFFFFFFFF00000000000000000000
310
00000000000000000000000000000000000000000000000000000000000000000000000000000000000000000000000000000000000000000000000000000000000000000000000000000000000000000000000000000000000000000000000000000000000000000000000000000000000000000000000000000000000000
310
0000000000000000000000000000000000000000000000000000000000000000000000000000000000000000000000000000000000000000
  0
BLOCK_RECORD
  5
12F0
102
{ACAD_XDICTIONARY
360
1378
102
}
330
1
100
AcDbSymbolTableRecord
100
AcDbBlockTableRecord
  2
A$C06B82C3B
340
0
1001
ACAD
1000
DesignCenter Data
1002
{
1070
     1
1070
     4
1002
}
  0
BLOCK_RECORD
  5
2192
330
1
100
AcDbSymbolTableRecord
100
AcDbBlockTableRecord
  2
*D20
340
0
  0
BLOCK_RECORD
  5
23F6
330
1
100
AcDbSymbolTableRecord
100
AcDbBlockTableRecord
  2
*D22
340
0
  0
BLOCK_RECORD
  5
2414
330
1
100
AcDbSymbolTableRecord
100
AcDbBlockTableRecord
  2
*D23
340
0
  0
BLOCK_RECORD
  5
2752
330
1
100
AcDbSymbolTableRecord
100
AcDbBlockTableRecord
  2
*D25
340
0
  0
ENDTAB
  0
ENDSEC
  0
SECTION
  2
BLOCKS
  0
BLOCK
  5
5
330
2
100
AcDbEntity
  8
0
100
AcDbBlockBegin
  2
*Model_Space
 70
     0
 10
0.0
 20
0.0
 30
0.0
  3
*Model_Space
  1

  0
ENDBLK
  5
162
330
2
100
AcDbEntity
  8
0
100
AcDbBlockEnd
  0
BLOCK
  5
166
330
165
100
AcDbEntity
 67
     1
  8
0
100
AcDbBlockBegin
  2
*Paper_Space
 70
     0
 10
0.0
 20
0.0
 30
0.0
  3
*Paper_Space
  1

  0
ENDBLK
  5
167
330
165
100
AcDbEntity
 67
     1
  8
0
100
AcDbBlockEnd
  0
BLOCK
  5
16A
330
169
100
AcDbEntity
 67
     1
  8
0
100
AcDbBlockBegin
  2
*Paper_Space0
 70
     0
 10
0.0
 20
0.0
 30
0.0
  3
*Paper_Space0
  1

  0
ENDBLK
  5
16B
330
169
100
AcDbEntity
 67
     1
  8
0
100
AcDbBlockEnd
  0
BLOCK
  5
153
330
152
100
AcDbEntity
  8
0
 62
     1
100
AcDbBlockBegin
  2
_ArchTick
 70
     0
 10
0.0
 20
0.0
 30
0.0
  3
_ArchTick
  1

  0
LWPOLYLINE
  5
154
330
152
100
AcDbEntity
  8
0
  6
ByBlock
 62
     0
100
AcDbPolyline
 90
        2
 70
     0
 43
0.15
 10
-0.5
 20
-0.5
 10
0.5
 20
0.5
  0
ENDBLK
  5
155
330
152
100
AcDbEntity
  8
0
 62
     1
100
AcDbBlockEnd
  0
BLOCK
  5
24C
330
24B
100
AcDbEntity
  8
0
100
AcDbBlockBegin
  2
_Arrivo
 70
     0
 10
0.0
 20
0.0
 30
0.0
  3
_Arrivo
  1

  0
LINE
  5
24D
330
24B
100
AcDbEntity
  8
0
  6
ByBlock
 62
     0
370
    -2
100
AcDbLine
 10
0.025
 20
-0.0433012701891858
 30
0.0
 11
-0.15
 21
0.2598076211353328
 31
0.0
  0
LINE
  5
24E
330
24B
100
AcDbEntity
  8
0
  6
ByBlock
 62
     0
370
    -2
100
AcDbLine
 10
0.025
 20
0.0433012701892585
 30
0.0
 11
-0.15
 21
-0.2598076211353328
 31
0.0
  0
LINE
  5
24F
330
24B
100
AcDbEntity
  8
0
  6
ByBlock
 62
     0
370
    -2
100
AcDbLine
 10
-0.05
 20
0.0
 30
0.0
 11
0.05
 21
0.0
 31
0.0
  0
ENDBLK
  5
250
330
24B
100
AcDbEntity
  8
0
100
AcDbBlockEnd
  0
BLOCK
  5
252
330
251
100
AcDbEntity
  8
0
100
AcDbBlockBegin
  2
_Partenza
 70
     0
 10
0.0
 20
0.0
 30
0.0
  3
_Partenza
  1

  0
LINE
  5
253
330
251
100
AcDbEntity
  8
0
  6
ByBlock
 62
     0
370
    -2
100
AcDbLine
 10
-0.05
 20
0.05
 30
0.0
 11
0.1
 21
0.05
 31
0.0
  0
LINE
  5
254
330
251
100
AcDbEntity
  8
0
  6
ByBlock
 62
     0
370
    -2
100
AcDbLine
 10
-0.05
 20
-0.05
 30
0.0
 11
0.1
 21
-0.05
 31
0.0
  0
ENDBLK
  5
255
330
251
100
AcDbEntity
  8
0
100
AcDbBlockEnd
  0
BLOCK
  5
137A
330
12F0
100
AcDbEntity
  8
0
100
AcDbBlockBegin
  2
A$C06B82C3B
 70
     0
 10
0.0
 20
0.0
 30
0.0
  3
A$C06B82C3B
  1

  0
CIRCLE
  5
12F1
330
12F0
100
AcDbEntity
  8
0
  6
Continuous
370
     0
100
AcDbCircle
 10
0.2100000128891679
 20
0.2099999738693725
 30
0.0
 40
0.190353501069441
  0
CIRCLE
  5
12F2
330
12F0
100
AcDbEntity
  8
0
  6
Continuous
370
     0
100
AcDbCircle
 10
0.2100000128891679
 20
0.2099999738693725
 30
0.0
 40
0.1762215365181566
  0
CIRCLE
  5
12F3
330
12F0
100
AcDbEntity
  8
0
  6
Continuous
370
     0
100
AcDbCircle
 10
0.2100000128891679
 20
0.2099999738693725
 30
0.0
 40
0.21
  0
CIRCLE
  5
12F4
330
12F0
100
AcDbEntity
  8
0
  6
Continuous
370
     0
100
AcDbCircle
 10
0.2100000128891679
 20
0.2099999738693725
 30
0.0
 40
0.0142627512571157
  0
LWPOLYLINE
  5
12F5
330
12F0
100
AcDbEntity
  8
0
  6
Continuous
370
     0
100
AcDbPolyline
 90
        9
 70
   128
 43
0.0
 10
0.1775311812878222
 20
0.3976650651396838
 10
0.1764864628582323
 20
0.4056706834829508
 10
0.1761382233816988
 20
0.4103696324400321
 10
0.1803170857085234
 20
0.4112398089736118
 10
0.1837994576907427
 20
0.4117619192180122
 10
0.1895453862704066
 20
0.4121099855071914
 10
0.1904159735701895
 20
0.4081071763355571
 10
0.1911124525232495
 20
0.4014938375631835
 10
0.1912865722615144
 20
0.3997534917031107
  0
LWPOLYLINE
  5
12F6
330
12F0
100
AcDbEntity
  8
0
  6
Continuous
370
     0
100
AcDbPolyline
 90
        9
 70
   128
 43
0.0
 10
0.1528075761770253
 20
0.3916629494312022
 10
0.1507051347651398
 20
0.3994578902112717
 10
0.1497336938595133
 20
0.4040684969610541
 10
0.1537592870569284
 20
0.4054878971706746
 10
0.1571409970490407
 20
0.4064695036392223
 10
0.16278926481694
 20
0.4075803216289931
 10
0.1641856065386555
 20
0.4037292655001839
 10
0.165757342939834
 20
0.3972677658804766
 10
0.1661618744936568
 20
0.3955661561667387
  0
LWPOLYLINE
  5
12F7
330
12F0
100
AcDbEntity
  8
0
  6
Continuous
370
     0
100
AcDbPolyline
 90
        9
 70
   128
 43
0.0
 10
0.1291045714542669
 20
0.3824190536201452
 10
0.125981925176891
 20
0.3898642159341286
 10
0.1244046182281479
 20
0.3943042040899378
 10
0.1282051054901778
 20
0.3962474987452306
 10
0.1314258067972602
 20
0.3976710846472411
 10
0.1368756202812626
 20
0.3995248317642605
 10
0.1387727986738127
 20
0.3958942508661245
 10
0.1411917448497917
 20
0.3896998960128765
 10
0.1418194693440142
 20
0.3880673877111267
  0
LWPOLYLINE
  5
12F8
330
12F0
100
AcDbEntity
  8
0
  6
Continuous
370
     0
100
AcDbPolyline
 90
        9
 70
   128
 43
0.0
 10
0.1068451478003673
 20
0.3700983352462508
 10
0.1027580203542904
 20
0.377060859996277
 10
0.1006029944423012
 20
0.381250997864285
 10
0.1041105559837199
 20
0.3836835088260901
 10
0.107112775114647
 20
0.3855236702374185
 10
0.1122668822640236
 20
0.3880872663204648
 10
0.114631042134043
 20
0.3847419484551419
 10
0.1178540319330068
 20
0.3789252767774531
 10
0.1186937476091571
 20
0.3773910020370134
  0
LWPOLYLINE
  5
12F9
330
12F0
100
AcDbEntity
  8
0
  6
Continuous
370
     0
100
AcDbPolyline
 90
        9
 70
   128
 43
0.0
 10
0.0864265251577585
 20
0.3549206578207862
 10
0.0814478514290862
 20
0.3612762985877466
 10
0.0787535630423015
 20
0.3651418130584325
 10
0.0819056063443036
 20
0.3680201321110097
 10
0.0846357686275638
 20
0.3702440313076742
 10
0.0894021942781293
 20
0.3734717289239135
 10
0.0921911471367345
 20
0.3704713713679606
 10
0.0961606662293661
 20
0.3651361815097225
 10
0.0971973883413106
 20
0.3637275194996814
  0
LWPOLYLINE
  5
12FA
330
12F0
100
AcDbEntity
  8
0
  6
Continuous
370
     0
100
AcDbPolyline
 90
        9
 70
   128
 43
0.0
 10
0.0682130743312257
 20
0.337156867356974
 10
0.0624316988705971
 20
0.3427922075808123
 10
0.0592462276491048
 20
0.3462641184568724
 10
0.0619865044242971
 20
0.3495368819285396
 10
0.064395890049262
 20
0.3521048333766892
 10
0.0686895772223686
 20
0.3559390341856954
 10
0.0718535541397181
 20
0.353337178390781
 10
0.0764987663637768
 20
0.3485786769414041
 10
0.0777139945808614
 20
0.3473207652687016
  0
LWPOLYLINE
  5
12FB
330
12F0
100
AcDbEntity
  8
0
  6
Continuous
370
     0
100
AcDbPolyline
 90
        9
 70
   128
 43
0.0
 10
0.0525298147822575
 20
0.317123959116472
 10
0.0460489063717269
 20
0.3219384360173922
 10
0.0424290971249412
 20
0.3249547869669911
 10
0.0447087070693506
 20
0.3285635923160619
 10
0.0467543204924645
 20
0.3314297708612716
 10
0.0504986482387864
 20
0.3358020534587726
 10
0.0539811879718392
 20
0.3336451296031946
 10
0.0592191994051312
 20
0.3295482321337743
 10
0.0605912479510415
 20
0.3284635182620121
  0
LWPOLYLINE
  5
12FC
330
12F0
100
AcDbEntity
  8
0
  6
Continuous
370
     0
100
AcDbPolyline
 90
        9
 70
   128
 43
0.0
 10
0.0396566146490436
 20
0.2951794208214213
 10
0.0325918252527302
 20
0.2990871199450691
 10
0.0286022735624165
 20
0.3015940841140523
 10
0.0303805369825838
 20
0.3054745321235792
 10
0.0320258741838479
 20
0.3085877907418073
 10
0.0351540248860473
 20
0.313420131641271
 10
0.038892981430763
 20
0.3117466300823306
 10
0.0446303196351749
 20
0.3083844458252667
 10
0.0461347042711004
 20
0.3074922864991834
  0
LWPOLYLINE
  5
12FD
330
12F0
100
AcDbEntity
  8
0
  6
Continuous
370
     0
100
AcDbPolyline
 90
        9
 70
   128
 43
0.0
 10
0.0298231964929343
 20
0.2717148532775742
 10
0.022300597444989
 20
0.2746460416405103
 10
0.0180124969555706
 20
0.2765988821938929
 10
0.0192576806986295
 20
0.2806817261772174
 10
0.0204733805967159
 20
0.2839865086946673
 10
0.0229295323313998
 20
0.2891926746582598
 10
0.0268581839196642
 20
0.2880324590709211
 10
0.0329924659590155
 20
0.2854649862839338
 10
0.0346023409054901
 20
0.284781302107838
  0
LWPOLYLINE
  5
12FE
330
12F0
100
AcDbEntity
  8
0
  6
Continuous
370
     0
100
AcDbPolyline
 90
        9
 70
   128
 43
0.0
 10
0.0232050378938844
 20
0.2471489822486337
 10
0.0153588701525287
 20
0.2490513527250826
 10
0.0108487421188315
 20
0.2504152211769259
 10
0.0115386258513901
 20
0.2546276026864387
 10
0.0123029942528099
 20
0.2580649351807942
 10
0.0140433169340923
 20
0.2635520220535614
 10
0.0180915566852349
 20
0.2629257965124676
 10
0.0245133161512108
 20
0.2611988518082633
 10
0.026199953151675
 20
0.2607358431424771
  0
LWPOLYLINE
  5
12FF
330
12F0
100
AcDbEntity
  8
0
  6
Continuous
370
     0
100
AcDbPolyline
 90
        9
 70
   128
 43
0.0
 10
0.0199202400488829
 20
0.2219201862850895
 10
0.0118905186633356
 20
0.2227597910288317
 10
0.0072388464269686
 20
0.2235103491142993
 10
0.0073611191574763
 20
0.2277770981021714
 10
0.0076605158899987
 20
0.2312856412936401
 10
0.0086539534183991
 20
0.2369557318803448
 10
0.0127495403981612
 20
0.2368746713951122
 10
0.0193441808409602
 20
0.2360190721428505
 10
0.0210774818181818
 20
0.2357850013879812
  0
LWPOLYLINE
  5
1300
330
12F0
100
AcDbEntity
  8
0
  6
Continuous
370
     0
100
AcDbPolyline
 90
        9
 70
   128
 43
0.0
 10
0.0200274202532853
 20
0.1964786738485902
 10
0.0119574357919063
 20
0.1962405300930818
 10
0.0072472285541245
 20
0.1963643840853599
 10
0.0067997083228093
 20
0.2006093603148233
 10
0.0066287906446511
 20
0.2041265041670321
 10
0.0068576151039394
 20
0.2098784155668287
 10
0.0109274634656415
 20
0.2103439666637374
 10
0.0175773033703273
 20
0.2103749810523432
 10
0.0193263375273069
 20
0.2103740252065567
  0
LWPOLYLINE
  5
1301
330
12F0
100
AcDbEntity
  8
0
  6
Continuous
370
     0
100
AcDbPolyline
 90
        9
 70
   128
 43
0.0
 10
0.0235246658738148
 20
0.1712784493312895
 10
0.0155584274004923
 20
0.1699668067574897
 10
0.0108737389210418
 20
0.1694617464791505
 10
0.0098644117370306
 20
0.1736091982488226
 10
0.0092262296782088
 20
0.1770721792464087
 10
0.0086863576904932
 20
0.1828032684641005
 10
0.0126578408936986
 20
0.1838071233727962
 10
0.0192442137096371
 20
0.1847241979497713
 10
0.0209777694904076
 20
0.1849563740701594
  0
LWPOLYLINE
  5
1302
330
12F0
100
AcDbEntity
  8
0
  6
Continuous
370
     0
100
AcDbPolyline
 90
        9
 70
   128
 43
0.0
 10
0.0303495684795116
 20
0.1467692113367
 10
0.0226292337085319
 20
0.1444074762374114
 10
0.0180536623643093
 20
0.1432825145010863
 10
0.0165005396951159
 20
0.1472584304358832
 10
0.0154064816295865
 20
0.1506054516009047
 10
0.0141075472232721
 20
0.1562134472136325
 10
0.0179097940561377
 20
0.1577376921194879
 10
0.0243151658043921
 20
0.1595244616672797
 10
0.026002307864978
 20
0.1599856265654722
  0
LWPOLYLINE
  5
1303
330
12F0
100
AcDbEntity
  8
0
  6
Continuous
370
     0
100
AcDbPolyline
 90
        9
 70
   128
 43
0.0
 10
0.0403803375216967
 20
0.1233883277974694
 10
0.0330436760099459
 20
0.1200186453914895
 10
0.0286588729799853
 20
0.1182938571660177
 10
0.0265896703364348
 20
0.1220272869518908
 10
0.0250592597562971
 20
0.1251986206123643
 10
0.0230244424466406
 20
0.1305834478055612
 10
0.026589601724357
 20
0.1326008825221212
 10
0.0326996683943328
 20
0.1352254620958213
 10
0.0343102896446936
 20
0.1359073862732849
  0
LWPOLYLINE
  5
1304
330
12F0
100
AcDbEntity
  8
0
  6
Continuous
370
     0
100
AcDbPolyline
 90
        9
 70
   128
 43
0.0
 10
0.0534379736891814
 20
0.1015530311342623
 10
0.0466159083351414
 20
0.0972355334839552
 10
0.0425001205333935
 20
0.0949416976560773
 10
0.0399517628856785
 20
0.0983660181500525
 10
0.0380123100039924
 20
0.1013050717816775
 10
0.0352779211540905
 20
0.1063706381865117
 10
0.0385423725248834
 20
0.1088452615434665
 10
0.0442480998321102
 20
0.1122608154584021
 10
0.0457534586978738
 20
0.1131513299620365
  0
LWPOLYLINE
  5
1305
330
12F0
100
AcDbEntity
  8
0
  6
Continuous
370
     0
100
AcDbPolyline
 90
        9
 70
   128
 43
0.0
 10
0.0692894631552114
 20
0.081652972733318
 10
0.0631037338767477
 20
0.0764647056865364
 10
0.0593304076340395
 20
0.0736427558109441
 10
0.056348370484752
 20
0.0766968599326816
 10
0.0540344848841379
 20
0.0793511860537741
 10
0.0506493197277926
 20
0.0840070965177483
 10
0.0535548089796194
 20
0.086894748802667
 10
0.0587543780851227
 20
0.0910403264183107
 10
0.060127611401672
 20
0.0921235399957024
  0
LWPOLYLINE
  5
1306
330
12F0
100
AcDbEntity
  8
0
  6
Continuous
370
     0
100
AcDbPolyline
 90
        9
 70
   128
 43
0.0
 10
0.0876519357147423
 20
0.0640432696082431
 10
0.0822129269973645
 20
0.0580768179133493
 10
0.0788493974098898
 20
0.0547771117524256
 10
0.0754868952826087
 20
0.057406498941523
 10
0.0728398683064242
 20
0.0597287310395682
 10
0.06886433519605
 20
0.0638919007301499
 10
0.071359013804372
 20
0.0671410517195987
 10
0.0759596382742877
 20
0.0719426751051913
 10
0.077176240660556
 20
0.0731992577843865
  0
LWPOLYLINE
  5
1307
330
12F0
100
AcDbEntity
  8
0
  6
Continuous
370
     0
100
AcDbPolyline
 90
        9
 70
   128
 43
0.0
 10
0.1081977126099254
 20
0.0490381673284865
 10
0.1036024836930558
 20
0.0424000024573239
 10
0.1007087730259819
 20
0.0386814233456825
 10
0.0970258098508303
 20
0.0408391721254553
 10
0.0940928777581753
 20
0.0427878699136528
 10
0.0895979201763062
 20
0.0463840069690864
 10
0.0916372705422645
 20
0.0499366754866841
 10
0.0955568521239343
 20
0.0553086595591541
 10
0.0965951132815128
 20
0.0567161875924782
  0
LWPOLYLINE
  5
1308
330
12F0
100
AcDbEntity
  8
0
  6
Continuous
370
     0
100
AcDbPolyline
 90
        9
 70
   128
 43
0.0
 10
0.1305601539653373
 20
0.036905432299708
 10
0.1268907068178535
 20
0.0297140124616639
 10
0.1245184534065906
 20
0.0256429185316467
 10
0.1205807517486761
 20
0.0272905238240036
 10
0.117414252782229
 20
0.0288309127441533
 10
0.1124800833534003
 20
0.0317958440134926
 10
0.1140277132214002
 20
0.0355886326053785
 10
0.1171963068886441
 20
0.0414351141816898
 10
0.1180376990225795
 20
0.0429684701980388
  0
LWPOLYLINE
  5
1309
330
12F0
100
AcDbEntity
  8
0
  6
Continuous
370
     0
100
AcDbPolyline
 90
        9
 70
   128
 43
0.0
 10
0.1543402014852084
 20
0.0278615734659269
 10
0.1516620174783902
 20
0.0202452297183768
 10
0.1498535542412646
 20
0.015894269737613
 10
0.1457313824799584
 20
0.0170023299870774
 10
0.1423878228887893
 20
0.0181069217624099
 10
0.1371024919833523
 20
0.0203877379769111
 10
0.1381307838617331
 20
0.0243529642408102
 10
0.140491845985494
 20
0.0305696127187289
 10
0.1411213544332241
 20
0.0322014339436673
  0
LWPOLYLINE
  5
130A
330
12F0
100
AcDbEntity
  8
0
  6
Continuous
370
     0
100
AcDbPolyline
 90
        9
 70
   128
 43
0.0
 10
0.1791134996581895
 20
0.0220679787022835
 10
0.1774743710490867
 20
0.0141626248798392
 10
0.1762619700554033
 20
0.009609441832259
 10
0.172028888443446
 20
0.0101581836774311
 10
0.1685679341276653
 20
0.0108072668415461
 10
0.1630257586008419
 20
0.0123632667818274
 10
0.163516362596674
 20
0.0164301711611241
 10
0.165027759967419
 20
0.0229060503012839
 10
0.1654341511357806
 20
0.0246072168463929
  0
LWPOLYLINE
  5
130B
330
12F0
100
AcDbEntity
  8
0
  6
Continuous
370
     0
100
AcDbPolyline
 90
        9
 70
   128
 43
0.0
 10
0.2044379683914918
 20
0.0196280348445885
 10
0.2038671454689655
 20
0.0115747421734937
 10
0.203272442043179
 20
0.0069005877184462
 10
0.1990039900222164
 20
0.0068802188480994
 10
0.1954874017935886
 20
0.0070622104965565
 10
0.1897872818989512
 20
0.0078656273068223
 10
0.189731443172306
 20
0.0119616357965189
 10
0.1903662048681447
 20
0.0185811833822491
 10
0.1905422266971115
 20
0.0203213378902305
  0
LWPOLYLINE
  5
130C
330
12F0
100
AcDbEntity
  8
0
  6
Continuous
370
     0
100
AcDbPolyline
 90
        9
 70
   128
 43
0.0
 10
0.22986169194062
 20
0.0205852827487849
 10
0.2303693610532491
 20
0.0125277624275402
 10
0.2304029676920827
 20
0.007816046962013
 10
0.2261753158895523
 20
0.0072269308591188
 10
0.2226658473483205
 20
0.0069385833466384
 10
0.2169095018604246
 20
0.0069750800348771
 10
0.2163082168547028
 20
0.011027099266439
 10
0.2160550155381386
 20
0.0176721893142524
 10
0.215997526914002
 20
0.0194202786866882
  0
LWPOLYLINE
  5
130D
330
12F0
100
AcDbEntity
  8
0
  6
Continuous
370
     0
100
AcDbPolyline
 90
        9
 70
   128
 43
0.0
 10
0.2549309833565445
 20
0.0249226403033464
 10
0.2565080851369821
 20
0.0170046789729704
 10
0.2571694021291755
 20
0.0123394831710666
 10
0.2530579930916446
 20
0.011192132626439
 10
0.2496182707870709
 20
0.0104385915212131
 10
0.2439084218275198
 20
0.0097075168031573
 10
0.242772420487892
 20
0.013643238397405
 10
0.2416357745424165
 20
0.0201952891179715
 10
0.2413458013510379
 20
0.0219201186585956
  0
LWPOLYLINE
  5
130E
330
12F0
100
AcDbEntity
  8
0
  6
Continuous
370
     0
100
AcDbPolyline
 90
        9
 70
   128
 43
0.0
 10
0.279198480540046
 20
0.0325627072599577
 10
0.2818168715696601
 20
0.0249256011279701
 10
0.2830940976978127
 20
0.0203901755192941
 10
0.2791722996169597
 20
0.0187050650305824
 10
0.2758637054750572
 20
0.0174997772914871
 10
0.270302245433804
 20
0.0160141772127993
 10
0.2686517997310887
 20
0.0197633681246447
 10
0.2666519926305249
 20
0.0261054580176356
 10
0.2661347094503768
 20
0.0277762481024339
  0
LWPOLYLINE
  5
130F
330
12F0
100
AcDbEntity
  8
0
  6
Continuous
370
     0
100
AcDbPolyline
 90
        9
 70
   128
 43
0.0
 10
0.302231129428975
 20
0.0433691464427799
 10
0.3058440844578101
 20
0.0361491798490334
 10
0.3077144275914101
 20
0.0318244592110197
 10
0.3040522250468989
 20
0.0296316596148181
 10
0.3009338010085116
 20
0.0279961336301095
 10
0.2956199742717409
 20
0.0257825187593887
 10
0.2934845364486058
 20
0.0292782745881883
 10
0.2906572547980417
 20
0.0352972289092168
 10
0.2899218925597218
 20
0.0368841642495425
  0
LWPOLYLINE
  5
1310
330
12F0
100
AcDbEntity
  8
0
  6
Continuous
370
     0
100
AcDbPolyline
 90
        9
 70
   128
 43
0.0
 10
0.3236179118582534
 20
0.0571491166885867
 10
0.3281609576182305
 20
0.0504751301079924
 10
0.3305910414397495
 20
0.0464382891828805
 10
0.3272537865227427
 20
0.0437769310399289
 10
0.3243811809387118
 20
0.0417403528095512
 10
0.3194098128704325
 20
0.0388382251566082
 10
0.3168274898654175
 20
0.0420181640567811
 10
0.3132231865728876
 20
0.047606574423396
 10
0.3122828678329625
 20
0.0490813361205084
  0
LWPOLYLINE
  5
1311
330
12F0
100
AcDbEntity
  8
0
  6
Continuous
370
     0
100
AcDbPolyline
 90
        9
 70
   128
 43
0.0
 10
0.3429771801887753
 20
0.0736567141018902
 10
0.3483692459206757
 20
0.0676478049830855
 10
0.3513157055267477
 20
0.0639708812928177
 10
0.3483629516302997
 20
0.0608884566022283
 10
0.3457874262153311
 20
0.0584871689129507
 10
0.341247230996494
 20
0.0549483170145031
 10
0.3382641044248018
 20
0.0577556929010416
 10
0.3339470983679469
 20
0.0628138339978594
 10
0.3328186031366051
 20
0.0641501048943365
  0
LWPOLYLINE
  5
1312
330
12F0
100
AcDbEntity
  8
0
  6
Continuous
370
     0
100
AcDbPolyline
 90
        9
 70
   128
 43
0.0
 10
0.3599634678185417
 20
0.092597360215775
 10
0.3661083319816427
 20
0.0873607576843405
 10
0.3695185877307985
 20
0.0841093660192787
 10
0.3670030268181463
 20
0.080660880722677
 10
0.3647705418842797
 20
0.0779377346102006
 10
0.3607425394061252
 20
0.0738253093622152
 10
0.3574118432320965
 20
0.076210024545917
 10
0.3524591714862737
 20
0.0806476337252348
 10
0.351162637787656
 20
0.0818215680352702
  0
LWPOLYLINE
  5
1313
330
12F0
100
AcDbEntity
  8
0
  6
Continuous
370
     0
100
AcDbPolyline
 90
        9
 70
   128
 43
0.0
 10
0.3742736540423976
 20
0.1136330587516294
 10
0.3810616613901345
 20
0.109262210103795
 10
0.3848748571877358
 20
0.106494371625228
 10
0.3828413795029597
 20
0.1027413640244283
 10
0.3809917737967261
 20
0.0997449540956445
 10
0.3775478438589026
 20
0.0951323418240957
 10
0.3739290144346725
 20
0.0970518410060119
 10
0.3684290575445175
 20
0.1007897290268964
 10
0.3669876220531911
 20
0.101780377864916
  0
LWPOLYLINE
  5
1314
330
12F0
100
AcDbEntity
  8
0
  6
Continuous
370
     0
100
AcDbPolyline
 90
        9
 70
   128
 43
0.0
 10
0.3856523732481598
 20
0.1363884271707327
 10
0.3929623916285969
 20
0.1329613303041679
 10
0.397110480905301
 20
0.1307264371553174
 10
0.3955953739058593
 20
0.1267358797598667
 10
0.394161653684911
 20
0.1235196770209405
 10
0.3913632532987456
 20
0.1184891899010889
 10
0.3875208687211184
 20
0.119909219572845
 10
0.3815717735476305
 20
0.1228806837350102
 10
0.3800111587140868
 20
0.1236703689490319
  0
LWPOLYLINE
  5
1315
330
12F0
100
AcDbEntity
  8
0
  6
Continuous
370
     0
100
AcDbPolyline
 90
        9
 70
   128
 43
0.0
 10
0.3938965719220313
 20
0.1604573953845633
 10
0.4015981538839987
 20
0.1580352069240405
 10
0.4060071138883891
 20
0.1563731408260942
 10
0.4050374146945827
 20
0.1522162452272528
 10
0.4040451647302242
 20
0.1488376428922517
 10
0.4019422314169035
 20
0.1434790500859257
 10
0.3979448591296943
 20
0.1443742697843877
 10
0.3916527874171862
 20
0.1465262842394672
 10
0.390000842450096
 20
0.1471009138781376
  0
LWPOLYLINE
  5
1316
330
12F0
100
AcDbEntity
  8
0
  6
Continuous
370
     0
100
AcDbPolyline
 90
        9
 70
   128
 43
0.0
 10
0.3988591321433716
 20
0.1854104520851418
 10
0.4068148427743025
 20
0.1840363960411206
 10
0.411405995510652
 20
0.1829768166029719
 10
0.4109990084275666
 20
0.1787277627011789
 10
0.4104659354439164
 20
0.1752470520088138
 10
0.409095996098241
 20
0.1696559777315904
 10
0.405014969304613
 20
0.1700104122400301
 10
0.3984922032218527
 20
0.1713045742390893
 10
0.396778407118294
 20
0.171653894022894
  0
LWPOLYLINE
  5
1317
330
12F0
100
AcDbEntity
  8
0
  6
Continuous
370
     0
100
AcDbPolyline
 90
        9
 70
   128
 43
0.0
 10
0.4004514969074649
 20
0.2108023093844959
 10
0.4085193663626754
 20
0.2105009058196359
 10
0.4132107826016415
 20
0.2100627212614583
 10
0.4133737703234104
 20
0.205797333524254
 10
0.4133093870204974
 20
0.2022766278392893
 10
0.4126968882425394
 20
0.1965528449440992
 10
0.4086050329623098
 20
0.1963601693703172
 10
0.4019679714245683
 20
0.1967733845618227
 10
0.4002229069166106
 20
0.1968911608709458
  0
LWPOLYLINE
  5
1318
330
12F0
100
AcDbEntity
  8
0
  6
Continuous
370
     0
100
AcDbPolyline
 90
        9
 70
   128
 43
0.0
 10
0.3986452504273749
 20
0.2361798489875753
 10
0.4066813073853019
 20
0.2369564764556298
 10
0.4113892686929575
 20
0.2371475061912473
 10
0.4121193226998301
 20
0.2329419005638513
 10
0.412524777999213
 20
0.229444026962641
 10
0.4126806498441767
 20
0.2236896764908476
 10
0.4086509853317608
 20
0.2229533291350236
 10
0.4020180668594157
 20
0.2224782236840959
 10
0.4002728746645446
 20
0.2223623547975073
  0
LWPOLYLINE
  5
1319
330
12F0
100
AcDbEntity
  8
0
  6
Continuous
370
     0
100
AcDbPolyline
 90
        9
 70
   128
 43
0.0
 10
0.3934726252143221
 20
0.2610902080989579
 10
0.4013334660481788
 20
0.2629310076643616
 10
0.4059739587434521
 20
0.2637478427636139
 10
0.40725805120438
 20
0.25967706837808
 10
0.4081261097466396
 20
0.2562644464979051
 10
0.4090475706777604
 20
0.2505822149700005
 10
0.4051520063918411
 20
0.249315335968145
 10
0.3986415955721725
 20
0.2479603881428094
 10
0.3969274186864453
 20
0.2476129417435366
  0
LWPOLYLINE
  5
131A
330
12F0
100
AcDbEntity
  8
0
  6
Continuous
370
     0
100
AcDbPolyline
 90
        9
 70
   128
 43
0.0
 10
0.3850259268877849
 20
0.2850888607701627
 10
0.3925712747066612
 20
0.2879609833210619
 10
0.3970614890874699
 20
0.2893890473422544
 10
0.3988767053420652
 20
0.2855257472639288
 10
0.4001918766019515
 20
0.2822592754230868
 10
0.4018624831270828
 20
0.2767505623953035
 10
0.398170535504633
 20
0.2749757592332145
 10
0.3918988107729504
 20
0.2727651481095137
 10
0.3902462387235061
 20
0.2721923243867845
  0
LWPOLYLINE
  5
131B
330
12F0
100
AcDbEntity
  8
0
  6
Continuous
370
     0
100
AcDbPolyline
 90
        9
 70
   128
 43
0.0
 10
0.3734558869794995
 20
0.3077475504757334
 10
0.3805510948728141
 20
0.311599742917167
 10
0.3848109029571631
 20
0.3136135520240071
 10
0.3871248504283606
 20
0.3100266669343128
 10
0.3888636651435817
 20
0.3069646354001883
 10
0.3912536052497017
 20
0.3017277439870085
 10
0.3878311571835091
 20
0.2994766880691611
 10
0.3819100376162261
 20
0.2964498620549669
 10
0.3803485605904377
 20
0.2956618830616833
  0
LWPOLYLINE
  5
131C
330
12F0
100
AcDbEntity
  8
0
  6
Continuous
370
     0
100
AcDbPolyline
 90
        9
 70
   128
 43
0.0
 10
0.3589689731257301
 20
0.3286619323610828
 10
0.3654874269405397
 20
0.3334254522276705
 10
0.3694408123522414
 20
0.3359890699489405
 10
0.3722121985925994
 20
0.332742607897277
 10
0.3743436275733707
 20
0.3299396586951371
 10
0.3774102527226723
 20
0.3250680413478939
 10
0.374318377879554
 20
0.3223809028204698
 10
0.3688535259956254
 20
0.3185918756977148
 10
0.3674110085880073
 20
0.317602802937678
  0
LWPOLYLINE
  5
131D
330
12F0
100
AcDbEntity
  8
0
  6
Continuous
370
     0
100
AcDbPolyline
 90
        9
 70
   128
 43
0.0
 10
0.3418237046473997
 20
0.3474587887859925
 10
0.3476490824209542
 20
0.3530486309528662
 10
0.3512254969036803
 20
0.3561163094695967
 10
0.3544048664600865
 20
0.3532682036481862
 10
0.3568908743057477
 20
0.3507743554729465
 10
0.3605794604997889
 20
0.3463549463186126
 10
0.3578733334595725
 20
0.3432796772322924
 10
0.352962269670332
 20
0.3387960642797445
 10
0.3516644536382003
 20
0.3376235477797902
  0
LWPOLYLINE
  5
131E
330
12F0
100
AcDbEntity
  8
0
  6
Continuous
370
     0
100
AcDbPolyline
 90
        9
 70
   128
 43
0.0
 10
0.3223260392666809
 20
0.3638026894022541
 10
0.3273543869946067
 20
0.3701191030035211
 10
0.3304900093471872
 20
0.3736360995199064
 10
0.3340206262945813
 20
0.3712371744446034
 10
0.3368168501362376
 20
0.3690969300760311
 10
0.3410615744670018
 20
0.3652085935756641
 10
0.3387894861308247
 20
0.3618000721801504
 10
0.3345198484859359
 20
0.3567018835771663
 10
0.3333898933871282
 20
0.3553668469220134
  0
LWPOLYLINE
  5
131F
330
12F0
100
AcDbEntity
  8
0
  6
Continuous
370
     0
100
AcDbPolyline
 90
        9
 70
   128
 43
0.0
 10
0.300823913284205
 20
0.3774019769161789
 10
0.3049654999821705
 20
0.3843322454014846
 10
0.3076043749494417
 20
0.3882357990313689
 10
0.3114232353447583
 20
0.3863288635769777
 10
0.314479776501706
 20
0.3845804157265338
 10
0.3192048917629506
 20
0.381292539337096
 10
0.3174073876010048
 20
0.3776115907774393
 10
0.3138553678853881
 20
0.3719898038204192
 10
0.3129134377954123
 20
0.3705160707708064
  0
LWPOLYLINE
  5
1320
330
12F0
100
AcDbEntity
  8
0
  6
Continuous
370
     0
100
AcDbPolyline
 90
        9
 70
   128
 43
0.0
 10
0.2777010326475207
 20
0.3880139717199053
 10
0.2808819516027867
 20
0.39543442428395
 10
0.2829769883984348
 20
0.3996548760203335
 10
0.287015944587452
 20
0.39827395949521
 10
0.2902782590103357
 20
0.3969485092562052
 10
0.2953994454082896
 20
0.3943197652097616
 10
0.2941086019249219
 20
0.3904320761002129
 10
0.2913375860145564
 20
0.3843870117105847
 10
0.2906004896981784
 20
0.3828008810676948
  0
LWPOLYLINE
  5
1321
330
12F0
100
AcDbEntity
  8
0
  6
Continuous
370
     0
100
AcDbPolyline
 90
        9
 70
   128
 43
0.0
 10
0.2533700257093798
 20
0.3954493025147609
 10
0.2555335133478351
 20
0.4032275210057427
 10
0.2570473259906123
 20
0.4076895567874033
 10
0.2612343027044481
 20
0.4068593016796563
 10
0.2646441743151087
 20
0.4059805017430076
 10
0.2700700441571691
 20
0.4040578000393414
 10
0.2693088964849259
 20
0.4000327462841593
 10
0.2673683332243755
 20
0.3936722787791691
 10
0.2668492241828311
 20
0.3920020550819014
  0
LWPOLYLINE
  5
1322
330
12F0
100
AcDbEntity
  8
0
  6
Continuous
370
     0
100
AcDbPolyline
 90
        9
 70
   128
 43
0.0
 10
0.228265079865011
 20
0.399575285646561
 10
0.2293725286984873
 20
0.4075724675712423
 10
0.2302781031659222
 20
0.4121964622639495
 10
0.234538383705928
 20
0.4119316844956434
 10
0.2380349632646919
 20
0.4115152170670396
 10
0.2436686917749888
 20
0.4103328683636019
 10
0.243450822612111
 20
0.4062422771424056
 10
0.2423753413987342
 20
0.3996799092153597
 10
0.2420834831451621
 20
0.3979553976451608
  0
LWPOLYLINE
  5
1323
330
12F0
100
AcDbEntity
  8
0
  6
Continuous
370
     0
100
AcDbPolyline
 90
        9
 70
   128
 43
0.0
 10
0.2028341934677478
 20
0.400318292848576
 10
0.202865841045579
 20
0.4083917283060519
 10
0.2031470173398482
 20
0.413095166614971
 10
0.2074045768988597
 20
0.4134005911516531
 10
0.2109254678606618
 20
0.4134538881022252
 10
0.2166665210204677
 20
0.4130329914396374
 10
0.2169958182473266
 20
0.4089498594496775
 10
0.2168046110688522
 20
0.4023026967117005
 10
0.2167452118207045
 20
0.4005546712183942
  0
LWPOLYLINE
  5
1324
330
12F0
100
AcDbEntity
  8
0
  6
Continuous
370
     0
100
AcDbPolyline
 90
        7
 70
   128
 43
0.0
 10
0.2204147824743643
 20
0.218646497073113
 10
0.2158801622524784
 20
0.215980357585483
 10
0.2124125195356576
 20
0.2154471340122104
 10
0.2094783541798257
 20
0.2154471340122104
 10
0.2065442002155322
 20
0.2170468119391167
 10
0.2044102679884965
 20
0.2191797206463857
 10
0.2030765574987114
 20
0.2213126293536547
  0
LWPOLYLINE
  5
1325
330
12F0
100
AcDbEntity
  8
0
  6
Continuous
370
     0
100
AcDbPolyline
 90
        7
 70
   128
 43
0.0
 10
0.2013534896854274
 20
0.2204147434545689
 10
0.2040196291730574
 20
0.215880123232683
 10
0.2045528527463318
 20
0.212412480515864
 10
0.2045528527463318
 20
0.2094783151600285
 10
0.2029531748194237
 20
0.2065441611957386
 10
0.2008202661121565
 20
0.2044102289686993
 10
0.1986873574048857
 20
0.2030765184789143
  0
LWPOLYLINE
  5
1326
330
12F0
100
AcDbEntity
  8
0
  6
Continuous
370
     0
100
AcDbPolyline
 90
        7
 70
   128
 43
0.0
 10
0.1995852433039715
 20
0.2013534506656338
 10
0.2041198635258574
 20
0.204019590153262
 10
0.2075875062426782
 20
0.2045528137265364
 10
0.2105216715985136
 20
0.2045528137265364
 10
0.2134558255628036
 20
0.2029531357996283
 10
0.2155897577898429
 20
0.2008202270923593
 10
0.2169234682796244
 20
0.1986873183850903
  0
LWPOLYLINE
  5
1327
330
12F0
100
AcDbEntity
  8
0
  6
Continuous
370
     0
100
AcDbPolyline
 90
        7
 70
   128
 43
0.0
 10
0.2186465360929084
 20
0.1995852042841761
 10
0.2159803966052784
 20
0.204119824506062
 10
0.215447173032004
 20
0.2075874672228828
 10
0.215447173032004
 20
0.2105216325787165
 10
0.2170468509589121
 20
0.2134557865430082
 10
0.2191797596661828
 20
0.2155897187700457
 10
0.2213126683734501
 20
0.2169234292598307
  0
LWPOLYLINE
  5
1328
330
12F0
100
AcDbEntity
  8
0
  6
Continuous
370
     0
100
AcDbPolyline
 90
       15
 70
   128
 43
0.0
 10
0.1964080050497898
 20
0.2173134309328421
 10
0.1905396857296644
 20
0.2162469765792067
 10
0.1873387759975635
 20
0.2167802001524812
 10
0.1841378776570081
 20
0.2199795632133838
 10
0.1841378776570081
 20
0.2245119996216456
 10
0.186005076899324
 20
0.2306441139568154
 10
0.1908064301059298
 20
0.2351765431579888
 10
0.1950742945600048
 20
0.2375760636518951
 10
0.1998756477666106
 20
0.2386425180055287
 10
0.2036100348597003
 20
0.238109294432256
 10
0.2073444219527864
 20
0.235976385724987
 10
0.2086781324425715
 20
0.2327770226640844
 10
0.2086781324425715
 20
0.2301108831764544
 10
0.2073444219527864
 20
0.22691152011555
 10
0.2052104897257507
 20
0.2239787688412846
  0
LWPOLYLINE
  5
1329
330
12F0
100
AcDbEntity
  8
0
  6
Continuous
370
     0
100
AcDbPolyline
 90
       15
 70
   128
 43
0.0
 10
0.1988443404822675
 20
0.1993331887644398
 10
0.198045188446283
 20
0.1934225329163368
 10
0.1965489271875995
 20
0.190543062003492
 10
0.1925170201160355
 20
0.1884874843357025
 10
0.1882064169352659
 20
0.1898880842117787
 10
0.1829514259358937
 20
0.1935588237594228
 10
0.1801245293463118
 20
0.1995257796625651
 10
0.1791612923905958
 20
0.2043262525732459
 10
0.1796307337650766
 20
0.2092221633464195
 10
0.1812918485944195
 20
0.212609001379727
 10
0.1844743543944709
 20
0.2155015095209798
 10
0.1879292686884532
 20
0.2157812860161456
 10
0.1904649180215152
 20
0.2149574036050943
 10
0.1930955539016636
 20
0.2127003119959383
 10
0.195225344788728
 20
0.2097645518620599
  0
LWPOLYLINE
  5
132A
330
12F0
100
AcDbEntity
  8
0
  6
Continuous
370
     0
100
AcDbPolyline
 90
       15
 70
   128
 43
0.0
 10
0.216697436013721
 20
0.1960940810603642
 10
0.2220718522134319
 20
0.1935075492040674
 10
0.2243480216316165
 20
0.1911947147370405
 10
0.225057064362467
 20
0.1867249348109272
 10
0.2223929650847367
 20
0.1830581167307183
 10
0.2172780027942345
 20
0.1791946441998426
 10
0.2107295314125821
 20
0.1783499965561823
 10
0.2058663537806566
 20
0.1789173314831504
 10
0.2013551312992057
 20
0.1808767163932234
 10
0.1986473696298674
 20
0.1835031209854722
 10
0.1968798792906057
 20
0.1874236980367705
 10
0.1976814232627219
 20
0.1907959724809398
 10
0.1992485407341036
 20
0.1929529246358061
 10
0.2022080736098459
 20
0.1947573283665296
 10
0.2056582889940159
 20
0.1958756800952414
  0
LWPOLYLINE
  5
132B
330
12F0
100
AcDbEntity
  8
0
  6
Continuous
370
     0
100
AcDbPolyline
 90
       15
 70
   128
 43
0.0
 10
0.2252949204240835
 20
0.2120724445744262
 10
0.2294156443411737
 20
0.2163845358223533
 10
0.2323186556644501
 20
0.2178345964242218
 10
0.2367887752431557
 20
0.2171276981754424
 10
0.2394528745208859
 20
0.2134608800952353
 10
0.2415466449735497
 20
0.2074023832089064
 10
0.2403263636749173
 20
0.2009134063534645
 10
0.2382839915607739
 20
0.1964635657106566
 10
0.2350264613619437
 20
0.1927786214089515
 10
0.2316918577875135
 20
0.1910149906818627
 10
0.2274169828830139
 20
0.1905455324138252
 10
0.2244574500072751
 20
0.1923499361445486
 10
0.2228903325358935
 20
0.1945068882994149
 10
0.2220887885637737
 20
0.1978791627435843
 10
0.2220913480526363
 20
0.2015061022571842
  0
LWPOLYLINE
  5
132C
330
12F0
100
AcDbEntity
  8
0
  6
Continuous
370
     0
100
AcDbPolyline
 90
       15
 70
   128
 43
0.0
 10
0.2127553624759777
 20
0.225186724014792
 10
0.2099276937152865
 20
0.2304382748249001
 10
0.2094456839646099
 20
0.2336472960296287
 10
0.2114993270671768
 20
0.2376801888114084
 10
0.2158099302479499
 20
0.2390807886874846
 10
0.2222189138428412
 20
0.2391999042218771
 10
0.2280132099061021
 20
0.2360341436166617
 10
0.2316141321538119
 20
0.2327166559279181
 10
0.2341120902530029
 20
0.2284798501927394
 10
0.2347589535743388
 20
0.2247634618675462
 10
0.2338844259249662
 20
0.2205527436503019
 10
0.2312537900448213
 20
0.2182956520411458
 10
0.2287181407117593
 20
0.2174717696300945
 10
0.2252632264177734
 20
0.2177515461252604
 10
0.2218145928847086
 20
0.2188747662910923
  0
LWPOLYLINE
  5
132D
330
12F0
100
AcDbEntity
  8
0
  6
Continuous
370
     0
100
AcDbPolyline
 90
       18
 70
   128
 43
0.0
 10
0.22498831620792
 20
0.2423999114347648
 10
0.2335169823592658
 20
0.2504982489582836
 10
0.2467364126155509
 20
0.2662686896454875
 10
0.2591029694217681
 20
0.2837440389436914
 10
0.2693373710816935
 20
0.3012193954489835
 10
0.2799981923793382
 20
0.3174160632889365
 10
0.2855418299343313
 20
0.3259406207581197
 10
0.2893797205892028
 20
0.3310553610052995
 10
0.2919383181562978
 20
0.3323340424635503
 10
0.2940704846941351
 20
0.3314815881580504
 10
0.2940704846941351
 20
0.3293504523942978
 10
0.2936440536648774
 20
0.3272193094234588
 10
0.2898061630100059
 20
0.322530796329028
 10
0.2761603017244631
 20
0.3046292198780733
 10
0.2608087049303478
 20
0.2824653574854405
 10
0.2522800387789985
 20
0.2701047412273283
 10
0.2411927750605578
 20
0.2513507032637854
 10
0.2343698444177882
 20
0.2360064897293323
  0
LWPOLYLINE
  5
132E
330
12F0
100
AcDbEntity
  8
0
  6
Continuous
370
     0
100
AcDbPolyline
 90
       12
 70
   128
 43
0.0
 10
0.1669934114401492
 20
0.3297766795470487
 10
0.1721106065743392
 20
0.3412848342925709
 10
0.1814921347842038
 20
0.3523667690924324
 10
0.1908736629940683
 20
0.3583339636451122
 10
0.1994023291454212
 20
0.3621700152269529
 10
0.2049459553088688
 20
0.3634486966852055
 10
0.2083574263260246
 20
0.3634486966852055
 10
0.2156067879980554
 20
0.3613175609214529
 10
0.2283997872250758
 20
0.3540716777034341
 10
0.2347962754470423
 20
0.3493831718160915
 10
0.2433249415983916
 20
0.3374487827107302
 10
0.2463099701947478
 20
0.3323340424635503
  0
LWPOLYLINE
  5
132F
330
12F0
100
AcDbEntity
  8
0
  6
Continuous
370
     0
100
AcDbPolyline
 90
       39
 70
   128
 43
0.0
 10
0.1947115650404853
 20
0.2436785928930156
 10
0.1776542327377903
 20
0.2590228064274669
 10
0.166566980410888
 20
0.2760719357800099
 10
0.1631555093937322
 20
0.2858751819145304
 10
0.1644348138730542
 20
0.290989914954622
 10
0.166566980410888
 20
0.2935472850782119
 10
0.166566980410888
 20
0.2969571095073036
 10
0.1635819404229934
 20
0.2990882524781426
 10
0.1605969118266372
 20
0.3012193954489835
 10
0.1605969118266372
 20
0.3054816741835751
 10
0.1593176073473188
 20
0.307186582794575
 10
0.1571854522010234
 20
0.3123013230417566
 10
0.1588911763180576
 20
0.3157111474708465
 10
0.1623026473352169
 20
0.3165636017763482
 10
0.1657141069608272
 20
0.3161373746235973
 10
0.1682727045279257
 20
0.3140062388598448
 10
0.1695520090072442
 20
0.3178422904416873
 10
0.1691255779779865
 20
0.3221045691762789
 10
0.1712577445158203
 20
0.3246619392998688
 10
0.1755220775914949
 20
0.3250881664526179
 10
0.1768013706792715
 20
0.3233832578416163
 10
0.1785071061878511
 20
0.3276455365762078
 10
0.1806392727256884
 20
0.3302029066997978
 10
0.1844771633805599
 20
0.3331865039761386
 10
0.1857564678598784
 20
0.3319078153107995
 10
0.1895943699062954
 20
0.3344651854343894
 10
0.1955644270990042
 20
0.3348914125871402
 10
0.1998287601746788
 20
0.3336127311288894
 10
0.201534495683255
 20
0.3310553610052995
 10
0.201534495683255
 20
0.3267930822707079
 10
0.2023873577417738
 20
0.3250881664526179
 10
0.2019609267125162
 20
0.321678342023528
 10
0.2006816336247397
 20
0.3191209718999381
 10
0.2002551912039365
 20
0.3174160632889365
 10
0.2028137887710315
 20
0.3169898361361856
 10
0.2032402311918346
 20
0.3140062388598448
 10
0.2019609267125162
 20
0.3110226415835058
 10
0.1981230246660992
 20
0.307186582794575
 10
0.196417300549065
 20
0.3033505312127342
  0
LWPOLYLINE
  5
1330
330
12F0
100
AcDbEntity
  8
0
  6
Continuous
370
     0
100
AcDbPolyline
 90
       19
 70
   128
 43
0.0
 10
0.2062252597881908
 20
0.2423999114347648
 10
0.1972701626075839
 20
0.2543343005401244
 10
0.1930058295319057
 20
0.2632850923691468
 10
0.1891679388770342
 20
0.2743670199619199
 10
0.1878886343977157
 20
0.2841702660964405
 10
0.1895943699062954
 20
0.2935472850782119
 10
0.1925793985026516
 20
0.2999407067836444
 10
0.1976965936368415
 20
0.3042029927253242
 10
0.2036666622210923
 20
0.307186582794575
 10
0.2075045642675093
 20
0.3076128171544141
 10
0.2139010524894758
 20
0.306334128489075
 10
0.2177389545358927
 20
0.3016456226017343
 10
0.2228561496700827
 20
0.2935472850782119
 10
0.2258411896579808
 20
0.2816128959728505
 10
0.2258411896579808
 20
0.2730883385036691
 10
0.2241354541494012
 20
0.2620064037038077
 10
0.221150414161503
 20
0.2534818462346244
 10
0.2164596500565707
 20
0.2462359630166055
 10
0.2130481904309604
 20
0.2423999114347648
  0
LWPOLYLINE
  5
1331
330
12F0
100
AcDbEntity
  8
0
  6
Continuous
370
     0
100
AcDbPolyline
 90
       11
 70
   128
 43
0.0
 10
0.2087838573552858
 20
0.2492195602929463
 10
0.2057988287589296
 20
0.2522031575692853
 10
0.2049459553088688
 20
0.2568916706637161
 10
0.205372397729672
 20
0.2598752679400551
 10
0.2066516908174485
 20
0.2624326308565585
 10
0.2087838573552858
 20
0.2637113195218958
 10
0.2109160238931231
 20
0.2628588580093094
 10
0.2134746214602181
 20
0.2598752679400551
 10
0.2130481904309604
 20
0.255612981998377
 10
0.2130481904309604
 20
0.2509244761110345
 10
0.2117688859516384
 20
0.2496457874456954
  0
LWPOLYLINE
  5
1332
330
12F0
100
AcDbEntity
  8
0
  6
Continuous
370
     0
100
AcDbPolyline
 90
       11
 70
   128
 43
0.0
 10
0.2057988287589296
 20
0.2475146516819429
 10
0.2023873577417738
 20
0.2530556118747871
 10
0.2011080646539973
 20
0.2620064037038077
 10
0.2028137887710315
 20
0.2671211439509875
 10
0.2057988287589296
 20
0.2713834226855791
 10
0.2083574263260246
 20
0.2730883385036691
 10
0.2121953283724416
 20
0.2705309683800774
 10
0.2151803569687942
 20
0.2671211439509875
 10
0.2181653855651504
 20
0.2581703521219669
 10
0.2168860924773739
 20
0.2534818462346244
 10
0.2134746214602181
 20
0.2483671059874446
  0
LWPOLYLINE
  5
1333
330
12F0
100
AcDbEntity
  8
0
  6
Continuous
370
     0
100
AcDbPolyline
 90
        8
 70
   128
 43
0.0
 10
0.1968437315783227
 20
0.2632850923691468
 10
0.1981230246660992
 20
0.2701047412273283
 10
0.2023873577417738
 20
0.274793247114669
 10
0.2075045642675093
 20
0.2777768443910098
 10
0.2104895928638619
 20
0.2769243900855098
 10
0.2147539259395366
 20
0.2752194742674199
 10
0.2173125235066315
 20
0.2713834226855791
 10
0.2198711210737265
 20
0.2637113195218958
  0
LWPOLYLINE
  5
1334
330
12F0
100
AcDbEntity
  8
0
  6
Continuous
370
     0
100
AcDbPolyline
 90
       11
 70
   128
 43
0.0
 10
0.1959908581282619
 20
0.2683998254092383
 10
0.1976965936368415
 20
0.2816128959728505
 10
0.2002551912039365
 20
0.2867276362200322
 10
0.2032402311918346
 20
0.2897112334963712
 10
0.2066516908174485
 20
0.291842376467212
 10
0.2079309952967669
 20
0.291842376467212
 10
0.2104895928638619
 20
0.2905636878018729
 10
0.2139010524894758
 20
0.2871538633727812
 10
0.2160332190273131
 20
0.2828915846381896
 10
0.2190182590152112
 20
0.2773506172382589
 10
0.2202975521029877
 20
0.2709571955328283
  0
LWPOLYLINE
  5
1335
330
12F0
100
AcDbEntity
  8
0
  6
Continuous
370
     0
100
AcDbPolyline
 90
       12
 70
   128
 43
0.0
 10
0.1947115650404853
 20
0.2709571955328283
 10
0.1951379960697465
 20
0.2828915846381896
 10
0.1972701626075839
 20
0.2905636878018729
 10
0.2002551912039365
 20
0.2956784280490528
 10
0.2040930932503535
 20
0.2982357981726427
 10
0.2066516908174485
 20
0.2995144796308935
 10
0.2083574263260246
 20
0.2995144796308935
 10
0.2121953283724416
 20
0.2969571095073036
 10
0.2164596500565707
 20
0.290989914954622
 10
0.2185918165944081
 20
0.2863014090672813
 10
0.2207239831322454
 20
0.2799079873618506
 10
0.2207239831322454
 20
0.2752194742674199
  0
LWPOLYLINE
  5
1336
330
12F0
100
AcDbEntity
  8
0
  6
Continuous
370
     0
100
AcDbPolyline
 90
       48
 70
   128
 43
0.0
 10
0.2177389545358927
 20
0.3037767583654851
 10
0.2164596500565707
 20
0.3084652714599159
 10
0.2130481904309604
 20
0.3118750958890057
 10
0.2104895928638619
 20
0.3157111474708465
 10
0.2096367194138011
 20
0.3186947447471873
 10
0.2117688859516384
 20
0.3195471990526872
 10
0.2134746214602181
 20
0.3199734334125263
 10
0.2121953283724416
 20
0.3238094849943671
 10
0.2100631618346043
 20
0.3272193094234588
 10
0.2100631618346043
 20
0.3306291338525486
 10
0.2126217594016992
 20
0.3348914125871402
 10
0.2156067879980554
 20
0.3361701012524793
 10
0.2194446900444689
 20
0.3357438740997285
 10
0.2228561496700827
 20
0.3344651854343894
 10
0.22498831620792
 20
0.3323340424635503
 10
0.2262676206872385
 20
0.3323340424635503
 10
0.2266940517164961
 20
0.3340389582816403
 10
0.2279733448042727
 20
0.3353176397398911
 10
0.2305319537629131
 20
0.3336127311288894
 10
0.2335169823592658
 20
0.3259406207581197
 10
0.2347962754470423
 20
0.3259406207581197
 10
0.235222717867849
 20
0.3284979908817096
 10
0.2373548844056827
 20
0.3297766795470487
 10
0.2390606085227205
 20
0.3280717637289587
 10
0.2411927750605578
 20
0.3229570234817789
 10
0.2407663440312966
 20
0.3191209718999381
 10
0.2420456485106186
 20
0.3161373746235973
 10
0.2437513726276528
 20
0.3161373746235973
 10
0.2454571081362289
 20
0.3178422904416873
 10
0.2475892746740662
 20
0.3203996605652772
 10
0.2501478722411612
 20
0.3203996605652772
 10
0.2531329008375174
 20
0.3195471990526872
 10
0.254838636346097
 20
0.3144324660125956
 10
0.2535593432583205
 20
0.3105964144307549
 10
0.2522800387789985
 20
0.3097439529181667
 10
0.254838636346097
 20
0.308891498612665
 10
0.254838636346097
 20
0.3067603556418259
 10
0.2531329008375174
 20
0.3046292198780733
 10
0.2497214412119035
 20
0.3029243040599852
 10
0.2480157057033274
 20
0.3007931610891443
 10
0.2484421367325851
 20
0.2978095710198918
 10
0.2501478722411612
 20
0.2965308823545527
 10
0.2522800387789985
 20
0.2965308823545527
 10
0.2527064698082597
 20
0.2939735122309628
 10
0.251000745691222
 20
0.2863014090672813
 10
0.2471628436448086
 20
0.2730883385036691
 10
0.2437513726276528
 20
0.2641375466746467
 10
0.2403399130020389
 20
0.258596579274716
  0
LWPOLYLINE
  5
1337
330
12F0
100
AcDbEntity
  8
0
  6
Continuous
370
     0
100
AcDbPolyline
 90
        8
 70
   128
 43
0.0
 10
0.2283997872250758
 20
0.2573178978164652
 10
0.2330905513300117
 20
0.2722358769910791
 10
0.2335169823592658
 20
0.2841702660964405
 10
0.2326641203007504
 20
0.2973833366600544
 10
0.2292526492835947
 20
0.3101701800709158
 10
0.2254147472371777
 20
0.3182685175944364
 10
0.2185918165944081
 20
0.3250881664526179
 10
0.2151803569687942
 20
0.3272193094234588
  0
LWPOLYLINE
  5
1338
330
12F0
100
AcDbEntity
  8
0
  6
Continuous
370
     0
100
AcDbPolyline
 90
        7
 70
   128
 43
0.0
 10
0.1955644270990042
 20
0.2487933331401955
 10
0.1874622033684581
 20
0.2637113195218958
 10
0.1831978702927834
 20
0.2773506172382589
 10
0.1814921347842038
 20
0.291842376467212
 10
0.1831978702927834
 20
0.3050554470308242
 10
0.1878886343977157
 20
0.3148586931653465
 10
0.1938587029819665
 20
0.3229570234817789
  0
LWPOLYLINE
  5
1339
330
12F0
100
AcDbEntity
  8
0
  6
Continuous
370
     0
100
AcDbPolyline
 90
       11
 70
   128
 43
0.0
 10
0.2488685791533882
 20
0.321678342023528
 10
0.2475892746740662
 20
0.3293504523942978
 10
0.2475892746740662
 20
0.3344651854343894
 10
0.2484421367325851
 20
0.3391536985288184
 10
0.251000745691222
 20
0.3429897501106609
 10
0.2578236763339916
 20
0.3455471202342508
 10
0.2646466069767612
 20
0.3438422044161608
 10
0.2689109286608939
 20
0.340432379987071
 10
0.2727488307073074
 20
0.3361701012524793
 10
0.2727488307073074
 20
0.3267930822707079
 10
0.27061666416947
 20
0.3191209718999381
  0
LWPOLYLINE
  5
133A
330
12F0
100
AcDbEntity
  8
0
  6
Continuous
370
     0
100
AcDbPolyline
 90
        9
 70
   128
 43
0.0
 10
0.2727488307073074
 20
0.3319078153107995
 10
0.2787188992915617
 20
0.3374487827107302
 10
0.282130358917172
 20
0.3374487827107302
 10
0.2893797205892028
 20
0.338727464168981
 10
0.2962026512319724
 20
0.3374487827107302
 10
0.3013198577577079
 20
0.3327602768233877
 10
0.3025991508454844
 20
0.326366855117957
 10
0.3038784553248028
 20
0.3212521148707772
 10
0.2940704846941351
 20
0.3101701800709158
  0
LWPOLYLINE
  5
133B
330
12F0
100
AcDbEntity
  8
0
  6
Continuous
370
     0
100
AcDbPolyline
 90
        9
 70
   128
 43
0.0
 10
0.3004669843076471
 20
0.3152849203180974
 10
0.3047313173833217
 20
0.3144324660125956
 10
0.305584179441837
 20
0.3101701800709158
 10
0.309422081488254
 20
0.308891498612665
 10
0.3153921500725047
 20
0.3076128171544141
 10
0.3188036096981221
 20
0.3042029927253242
 10
0.3192300407273762
 20
0.2990882524781426
 10
0.3158185811017659
 20
0.292694830772712
 10
0.3115542480260913
 20
0.2897112334963712
  0
LWPOLYLINE
  5
133C
330
12F0
100
AcDbEntity
  8
0
  6
Continuous
370
     0
100
AcDbPolyline
 90
       18
 70
   128
 43
0.0
 10
0.1838174815823876
 20
0.2342668287332721
 10
0.1787510076896019
 20
0.24488059617277
 10
0.1678374559143378
 20
0.2623263556408446
 10
0.1550388873047694
 20
0.2794878299913179
 10
0.1415814396660089
 20
0.2946215065232671
 10
0.1294718681295208
 20
0.3097655957022418
 10
0.1230776104150699
 20
0.3176721414503998
 10
0.1193991768087414
 20
0.3229027340247352
 10
0.1189737286056029
 20
0.3257312392144893
 10
0.1204433365227224
 20
0.3274956272267993
 10
0.1224701670779495
 20
0.3268370700584793
 10
0.1243652300525539
 20
0.3257729506539206
 10
0.1276382975478362
 20
0.320674069513247
 10
0.1404469054433583
 20
0.3021641928677266
 10
0.1567820868979659
 20
0.2807149465608347
 10
0.1659022287555522
 20
0.2687840625575841
 10
0.1803122258575094
 20
0.2524441317063903
 10
0.192797038606816
 20
0.2412135163108893
  0
LWPOLYLINE
  5
133D
330
12F0
100
AcDbEntity
  8
0
  6
Continuous
370
     0
100
AcDbPolyline
 90
       12
 70
   128
 43
0.0
 10
0.0827958257359924
 20
0.2061113029022223
 10
0.0734322204347251
 20
0.2145342600700122
 10
0.0657917257802154
 20
0.2268811297905238
 10
0.0630156381669451
 20
0.2376474578528409
 10
0.0620028390933101
 20
0.246944106501477
 10
0.0624998154551406
 20
0.252611542589122
 10
0.0635540179752603
 20
0.2558560443301392
 10
0.0678210244855109
 20
0.2620920398189845
 10
0.0786655231064977
 20
0.2720198040431789
 10
0.0851011807472517
 20
0.2766543978506686
 10
0.0990869620540238
 20
0.281077712318174
 10
0.1048737936602286
 20
0.2823361015578722
  0
LWPOLYLINE
  5
133E
330
12F0
100
AcDbEntity
  8
0
  6
Continuous
370
     0
100
AcDbPolyline
 90
       39
 70
   128
 43
0.0
 10
0.1732453526040522
 20
0.2058670615442288
 10
0.1533811327744558
 20
0.1943861972546017
 10
0.133740297816626
 20
0.1891100643905261
 10
0.1233626541794237
 20
0.1888949323051161
 10
0.1188935808176232
 20
0.1916921625975796
 10
0.1171202529920343
 20
0.1945102443063095
 10
0.1138773172493259
 20
0.1955639380027332
 10
0.1109280517546018
 20
0.1933835556662764
 10
0.1079787897800592
 20
0.1912031841638182
 10
0.1039251218152621
 20
0.1925203007275691
 10
0.1019083305459887
 20
0.1918304556008418
 10
0.0963850513299036
 20
0.1913831972133994
 10
0.0936692133270718
 20
0.1940591309463304
 10
0.0939126836251027
 20
0.1975670555546784
 10
0.0953722487360871
 20
0.2006798350280299
 10
0.0981897294213105
 20
0.2024546487484748
 10
0.0949367543926449
 20
0.2048567447399438
 10
0.0907513119928751
 20
0.2057683012945706
 10
0.0889779841672862
 20
0.2085863830033005
 10
0.0898903694463016
 20
0.2127737161962386
 10
0.09190715719539
 20
0.2134635504889637
 10
0.0883805904906509
 20
0.2164029179232241
 10
0.086607262665062
 20
0.2192209996319576
 10
0.0849556664683036
 20
0.2237930328108621
 10
0.0865670984808773
 20
0.2246145871441403
 10
0.08532087191535
 20
0.2290549197233833
 10
0.0867603549342419
 20
0.234864492952827
 10
0.0892942046574347
 20
0.2385249804111069
 10
0.0922535094381125
 20
0.2393569604525201
 10
0.0963071774029132
 20
0.2380398438887674
 10
0.0981921975713824
 20
0.2383241159452556
 10
0.1013033588791181
 20
0.2368648622397043
 10
0.1033402390948304
 20
0.2348579113832265
 10
0.1048299255838607
 20
0.2339254948054439
 10
0.1060259418249032
 20
0.2362271542605416
 10
0.1089952894117196
 20
0.2357107428409115
 10
0.111437532218293
 20
0.233572069716768
 10
0.1138998639713051
 20
0.2287366006094213
 10
0.1170210680851795
 20
0.2259289554428268
  0
LWPOLYLINE
  5
133F
330
12F0
100
AcDbEntity
  8
0
  6
Continuous
370
     0
100
AcDbPolyline
 90
       19
 70
   128
 43
0.0
 10
0.1780193782822756
 20
0.2164221016596759
 10
0.1639018225405308
 20
0.2115932271830427
 10
0.1540713622554825
 20
0.2103035522120482
 10
0.1423458493703542
 20
0.2100780052525035
 10
0.1326270814281827
 20
0.2118906840467289
 10
0.1242361076822078
 20
0.2164105931391837
 10
0.1190780268728026
 20
0.2212251999962582
 10
0.1166056523136518
 20
0.2274090605646464
 10
0.1156129421864555
 20
0.2340089132300775
 10
0.1163935461761482
 20
0.2377906886409988
 10
0.1195862749285403
 20
0.2434789739178047
 10
0.1252312859594724
 20
0.2456802076705333
 10
0.1345145628923738
 20
0.248044425527107
 10
0.1467872695041769
 20
0.2471954382079584
 10
0.1548946054337783
 20
0.2445612050804549
 10
0.1649070504782841
 20
0.2395144480262345
 10
0.1720919583227314
 20
0.2340412731668397
 10
0.1775336769485172
 20
0.2273409903448158
 10
0.1801277798023299
 20
0.2229110943077117
  0
LWPOLYLINE
  5
1340
330
12F0
100
AcDbEntity
  8
0
  6
Continuous
370
     0
100
AcDbPolyline
 90
       11
 70
   128
 43
0.0
 10
0.1723241569268552
 20
0.2209628599412863
 10
0.1685641627302239
 20
0.2190459113061553
 10
0.1638415694099109
 20
0.2196836106784285
 10
0.1611357777333957
 20
0.2210111637843148
 10
0.1590989043720334
 20
0.2230181124136798
 10
0.1585416748795793
 20
0.2254410598214207
 10
0.1600112896510488
 20
0.2272054456066179
 10
0.163639502558361
 20
0.2287168364597338
 10
0.1675614029425389
 20
0.2269941576597425
 10
0.1720204370183857
 20
0.225545329662328
 10
0.1728412153807781
 20
0.223933502272839
  0
LWPOLYLINE
  5
1341
330
12F0
100
AcDbEntity
  8
0
  6
Continuous
370
     0
100
AcDbPolyline
 90
       11
 70
   128
 43
0.0
 10
0.1730231968060671
 20
0.217597083308739
 10
0.1666992279880119
 20
0.2160648324324654
 10
0.1577911957881106
 20
0.2176140991933639
 10
0.1534538864867514
 20
0.2208168808880622
 10
0.1503226466071012
 20
0.2249729391837061
 10
0.1494918254385737
 20
0.2279331580342365
 10
0.1531100059142822
 20
0.2307929489552869
 10
0.1572753662219597
 20
0.2325781861567542
 10
0.1667104996819191
 20
0.2326511702663652
 10
0.1707742104528549
 20
0.2299856622415675
 10
0.1745844149739746
 20
0.2251606188423576
  0
LWPOLYLINE
  5
1342
330
12F0
100
AcDbEntity
  8
0
  6
Continuous
370
     0
100
AcDbPolyline
 90
        8
 70
   128
 43
0.0
 10
0.1552573392105714
 20
0.2139536139621931
 10
0.149166791030062
 20
0.2172776813824235
 10
0.1460255083442767
 20
0.2227821311391125
 10
0.1447692424927886
 20
0.2285708660133991
 10
0.14650239927985
 20
0.2311463740439628
 10
0.1494416219684353
 20
0.2346751478414681
 10
0.1538805739521898
 20
0.2359231136001423
 10
0.1619678277896952
 20
0.2359856742287292
  0
LWPOLYLINE
  5
1343
330
12F0
100
AcDbEntity
  8
0
  6
Continuous
370
     0
100
AcDbPolyline
 90
       11
 70
   128
 43
0.0
 10
0.1501293866335586
 20
0.214723022541019
 10
0.1380901110338293
 20
0.2204283367635593
 10
0.1340163541225898
 20
0.2244422493105151
 10
0.1321012125760745
 20
0.2282031733051681
 10
0.1311285741664392
 20
0.2321062236076159
 10
0.1315239009915281
 20
0.2333229144689994
 10
0.1335306563090093
 20
0.2353611488296572
 10
0.1378277910516594
 20
0.2375519460402522
 10
0.1425403347114873
 20
0.2382626403561367
 10
0.1487325359489197
 20
0.2393893289961717
 10
0.1552083646282014
 20
0.2386303330643695
  0
LWPOLYLINE
  5
1344
330
12F0
100
AcDbEntity
  8
0
  6
Continuous
370
     0
100
AcDbPolyline
 90
       12
 70
   128
 43
0.0
 10
0.1473018598080315
 20
0.2142966133427322
 10
0.1360833557163445
 20
0.2183901024029016
 10
0.1294456277038662
 20
0.2227887235427133
 10
0.1255036452275995
 20
0.227208196098795
 10
0.1242574186620686
 20
0.2316485286780381
 10
0.1238319704589301
 20
0.2344770338677922
 10
0.1243590717189881
 20
0.2360992847383016
 10
0.1279772521946966
 20
0.2389590756593502
 10
0.1349701393279048
 20
0.2411707220591026
 10
0.1400880490987788
 20
0.2417497049413235
 10
0.1468274301681802
 20
0.2418018398617772
 10
0.1512864710983734
 20
0.2403530096372481
  0
LWPOLYLINE
  5
1345
330
12F0
100
AcDbEntity
  8
0
  6
Continuous
370
     0
100
AcDbPolyline
 90
       48
 70
   128
 43
0.0
 10
0.1232044554042488
 20
0.2463387648388533
 10
0.1183500876489667
 20
0.2465709042019988
 10
0.1140529529063201
 20
0.2443801069914055
 10
0.1096140009225621
 20
0.2431321412327296
 10
0.1065128789007801
 20
0.2432429926432338
 10
0.1063610223737186
 20
0.2455342263901983
 10
0.1064827506683841
 20
0.2472881909214841
 10
0.1024391255097221
 20
0.24725691602419
 10
0.0985373140719829
 20
0.2462827988409799
 10
0.0952943783292746
 20
0.2473364925374035
 10
0.0920313604944738
 20
0.2510869799899176
 10
0.091737679871958
 20
0.2543210474159121
 10
0.093329022938093
 20
0.2578393977323952
 10
0.095599327125516
 20
0.2606887521113066
 10
0.0982850402301168
 20
0.2620580035955111
 10
0.0986803670552092
 20
0.2632746944568947
 10
0.0971906701916474
 20
0.2642071024277879
 10
0.0963698951634235
 20
0.265818916756162
 10
0.0987820132577824
 20
0.2677254527442692
 10
0.1070010483846069
 20
0.2681935711548711
 10
0.1073963716895179
 20
0.2694102511822542
 10
0.1050959461240488
 20
0.2706060928544787
 10
0.1045387166315947
 20
0.2730290402622177
 10
0.1066872856700023
 20
0.2741244323369596
 10
0.1122105684062688
 20
0.2745717015584042
 10
0.1157270958250542
 20
0.2729807364191892
 10
0.1189599922818089
 20
0.273275445017811
 10
0.1194870900216855
 20
0.2748976850543183
 10
0.1183927199832162
 20
0.2770467838865969
 10
0.1166193921576272
 20
0.2798648655953286
 10
0.1174100422876272
 20
0.2822982364840918
 10
0.1191432059290349
 20
0.2848737422875409
 10
0.1245347073759823
 20
0.2849154537269722
 10
0.1277876859248294
 20
0.2825133685695036
 10
0.1282030981761757
 20
0.28103325261368
 10
0.1298044805282643
 20
0.2832032006351177
 10
0.1318313179378414
 20
0.282544641239685
 10
0.1333310472330069
 20
0.2802638332008538
 10
0.1338983195315961
 20
0.2764924943320697
 10
0.1353980556811116
 20
0.2742116840661293
 10
0.1383673928933966
 20
0.2736952640396062
 10
0.1401105993409395
 20
0.2749223783820121
 10
0.1407694750359667
 20
0.2769501892616493
 10
0.1433334529915555
 20
0.2765654784416807
 10
0.150102958959188
 20
0.2725724281449953
 10
0.1614833588638902
 20
0.2648393030428178
 10
0.1689418652387608
 20
0.2588288545135207
 10
0.1731574393911046
 20
0.2538721105146457
  0
LWPOLYLINE
  5
1346
330
12F0
100
AcDbEntity
  8
0
  6
Continuous
370
     0
100
AcDbPolyline
 90
        8
 70
   128
 43
0.0
 10
0.1706838359441853
 20
0.2421212417880927
 10
0.157945520465244
 20
0.2511923326431784
 10
0.146727016373557
 20
0.2552858217033442
 10
0.1338970906438241
 20
0.2585577650371231
 10
0.1206818773749596
 20
0.2592646152144731
 10
0.1117939237469691
 20
0.258117077385279
 10
0.1031996507414945
 20
0.2537354721300904
 10
0.1001186143319828
 20
0.2511495406185045
  0
LWPOLYLINE
  5
1347
330
12F0
100
AcDbEntity
  8
0
  6
Continuous
370
     0
100
AcDbPolyline
 90
        7
 70
   128
 43
0.0
 10
0.1686444944327547
 20
0.2082587232206769
 10
0.1519529214494674
 20
0.2051629618590596
 10
0.1376634270885723
 20
0.2053221148854813
 10
0.1233538437812384
 20
0.208178063895108
 10
0.1113145681815055
 20
0.2138833781176483
 10
0.1034406528894536
 20
0.2213739295416559
 10
0.097583535721018
 20
0.229554323865278
  0
LWPOLYLINE
  5
1348
330
12F0
100
AcDbEntity
  8
0
  6
Continuous
370
     0
100
AcDbPolyline
 90
       11
 70
   128
 43
0.0
 10
0.1157986206495813
 20
0.2814766907577049
 10
0.1081066832626369
 20
0.2826308123836085
 10
0.1032422830757476
 20
0.2842113518146885
 10
0.0990467910154926
 20
0.2864713020574694
 10
0.0961891428119195
 20
0.2900900889103219
 10
0.0958653408113577
 20
0.2973693523874541
 10
0.099595213629943
 20
0.3033314970737226
 10
0.1041558972425314
 20
0.3063334143025695
 10
0.1093955421624173
 20
0.3086663594889654
 10
0.1183136171684537
 20
0.30576870126702
 10
0.124951352035282
 20
0.3013700779000956
  0
LWPOLYLINE
  5
1349
330
12F0
100
AcDbEntity
  8
0
  6
Continuous
370
     0
100
AcDbPolyline
 90
        9
 70
   128
 43
0.0
 10
0.1134492169815644
 20
0.3073492406981
 10
0.110024296479402
 20
0.3147393664197384
 10
0.1110784954793402
 20
0.3179838573267552
 10
0.1121025731012288
 20
0.3252735442849115
 10
0.1154270729544251
 20
0.3313674026319546
 10
0.1214674108104461
 20
0.3347853272460685
 10
0.1279432394897313
 20
0.3340263313142646
 10
0.133202973356056
 20
0.3336624805174555
 10
0.140711690055415
 20
0.320910039953814
  0
LWPOLYLINE
  5
134A
330
12F0
100
AcDbEntity
  8
0
  6
Continuous
370
     0
100
AcDbPolyline
 90
        9
 70
   128
 43
0.0
 10
0.1378239100992644
 20
0.3285740142509183
 10
0.1399523937114146
 20
0.3323662131428602
 10
0.1442696174005
 20
0.3318602143702502
 10
0.1466716926887237
 20
0.3351151418194042
 10
0.1497326436719781
 20
0.3403978801481955
 10
0.1540297784146283
 20
0.3425886773587905
 10
0.1590259598908332
 20
0.3414136957097238
 10
0.1640522662652692
 20
0.3361935288435234
 10
0.1655720845068735
 20
0.331215924821489
  0
LWPOLYLINE
  5
134B
330
12F0
100
AcDbEntity
  8
0
  6
Continuous
370
     0
100
AcDbPolyline
 90
       18
 70
   128
 43
0.0
 10
0.1788300153113162
 20
0.1925977774099312
 10
0.167170096091116
 20
0.1910591089127073
 10
0.1472057198997376
 20
0.1860707405363317
 10
0.1269292126854573
 20
0.1792017656837785
 10
0.1083776509829555
 20
0.1710795356499783
 10
0.0902327028865635
 20
0.1642424296512903
 10
0.0807371967312136
 20
0.1606043861880763
 10
0.0746259090822718
 20
0.1587223299331377
 10
0.071804370065184
 20
0.1591917608195103
 10
0.0705804711702633
 20
0.1611346668859603
 10
0.0718331213428307
 20
0.1628587919361557
 10
0.0734307657012145
 20
0.1643322729468916
 10
0.0792915233156464
 20
0.1658695041917877
 10
0.1008535396291883
 20
0.1723313477482442
 10
0.1263008337746498
 20
0.1812388468901495
 10
0.1404660575762051
 20
0.186225771318421
 10
0.1604591892814468
 20
0.1948811766421023
 10
0.1749981585464652
 20
0.2032844881475579
  0
LWPOLYLINE
  5
134C
330
12F0
100
AcDbEntity
  8
0
  6
Continuous
370
     0
100
AcDbPolyline
 90
       12
 70
   128
 43
0.0
 10
0.1743901031662211
 20
0.0878199373629336
 10
0.1634858816986089
 20
0.0815174564328895
 10
0.1493822681013945
 20
0.0780663067749714
 10
0.1382850233907824
 20
0.0787530688988358
 10
0.1291304129881503
 20
0.0806626621633164
 10
0.1238939351079189
 20
0.0828866488362969
 10
0.1211339970792195
 20
0.0848918611888045
 10
0.1165217904607445
 20
0.0908770541183532
 10
0.1104310599724449
 20
0.1042586330592208
 10
0.1080120269124194
 20
0.1118114754436412
 10
0.10812704896788
 20
0.12647962323285
 10
0.1087184789913351
 20
0.1323720908012404
  0
LWPOLYLINE
  5
134D
330
12F0
100
AcDbEntity
  8
0
  6
Continuous
370
     0
100
AcDbPolyline
 90
       39
 70
   128
 43
0.0
 10
0.2025728314366937
 20
0.1737670745562685
 10
0.2073534007246991
 20
0.1513272966706011
 10
0.2063019494802347
 20
0.1310173378789016
 10
0.2032996840064633
 20
0.1210811328035248
 10
0.1992583402913368
 20
0.1176951831585366
 10
0.196030196884088
 20
0.1168794833140154
 10
0.1940259523717635
 20
0.1141208774030459
 10
0.1951882460420719
 20
0.1106421840398059
 10
0.196350530496435
 20
0.1071634973723459
 10
0.19384522591508
 20
0.1037152414412983
 10
0.1938780848417778
 20
0.1015839850950044
 10
0.1925966657031743
 20
0.0961928239626317
 10
0.1892124613924508
 20
0.0944368175321344
 10
0.1859514632947281
 20
0.0957523798645656
 10
0.1834420645164982
 20
0.0981024105313306
 10
0.1826247657755146
 20
0.1013304414980176
 10
0.1793350121639285
 20
0.0989789668831432
 10
0.1771746975321733
 20
0.0952800610819793
 10
0.1739465541249281
 20
0.0944643612374581
 10
0.1702461061625193
 20
0.0966260483201645
 10
0.170213256451774
 20
0.0987572979706766
 10
0.1663279828560711
 20
0.0963116482158828
 10
0.1630998394488223
 20
0.0954959483713633
 10
0.1582412062086682
 20
0.0953380229972787
 10
0.1579578214836772
 20
0.0971244601641867
 10
0.1533497090620805
 20
0.0973113664959229
 10
0.1482693013012763
 20
0.1004756530591013
 10
0.1455709734769215
 20
0.1040166401819622
 10
0.1456941889058711
 20
0.1070882022491055
 10
0.1481994934872261
 20
0.1105364581801531
 10
0.1485116379622972
 20
0.112417063791204
 10
0.150860872424225
 20
0.1149250198320537
 10
0.1533990267163219
 20
0.1162420261125909
 10
0.1547461460199244
 20
0.1173706695868475
 10
0.1529267271408905
 20
0.1192194005133782
 10
0.1543354424531529
 20
0.1218838379802083
 10
0.1571241359957156
 20
0.1235456625750011
 10
0.1624838427570729
 20
0.1243932371040408
 10
0.1661185771023063
 20
0.1264940685445754
  0
LWPOLYLINE
  5
134E
330
12F0
100
AcDbEntity
  8
0
  6
Continuous
370
     0
100
AcDbPolyline
 90
       19
 70
   128
 43
0.0
 10
0.1940096468212964
 20
0.1815691295584827
 10
0.1942396147154355
 20
0.1666503318991559
 10
0.1924283892098941
 20
0.1569024771036211
 10
0.1890195143662296
 20
0.145681153823789
 10
0.1842922899285177
 20
0.1369982047947857
 10
0.1774006474462126
 20
0.1304146432582111
 10
0.1712277495929299
 20
0.1269968122329192
 10
0.1645825429482634
 20
0.1265563623041945
 10
0.1579989457644259
 20
0.1276517055029202
 10
0.1546434835153967
 20
0.1295627368848499
 10
0.1502202101792633
 20
0.1343569791889596
 10
0.1498711168168327
 20
0.1404059223526719
 10
0.1504913023541547
 20
0.1499654268683645
 10
0.1550912121863064
 20
0.1613751129544756
 10
0.1601018213490128
 20
0.1682716248165707
 10
0.167995588205585
 20
0.1762344922239584
 10
0.175421145447391
 20
0.181376441603664
 10
0.1834750766202688
 20
0.1844813223034354
 10
0.1884897799798537
 20
0.185579547567718
  0
LWPOLYLINE
  5
134F
330
12F0
100
AcDbEntity
  8
0
  6
Continuous
370
     0
100
AcDbPolyline
 90
       11
 70
   128
 43
0.0
 10
0.1879312088830964
 20
0.1775558236530336
 10
0.188592433268429
 20
0.1733874869654954
 10
0.1865265835314957
 20
0.1690930937577359
 10
0.1844278698881325
 20
0.1669299694227035
 10
0.1818897198322524
 20
0.1656129689728231
 10
0.1794131665285476
 20
0.1658317441584227
 10
0.1781892718698436
 20
0.1677746560555295
 10
0.1778730331978906
 20
0.1716923370422929
 10
0.180723331965062
 20
0.1748899489338793
 10
0.183479166580927
 20
0.1786830298749659
 10
0.1852657399854393
 20
0.1789655544296042
  0
LWPOLYLINE
  5
1350
330
12F0
100
AcDbEntity
  8
0
  6
Continuous
370
     0
100
AcDbPolyline
 90
       11
 70
   128
 43
0.0
 10
0.1913482678842975
 20
0.1771805679065821
 10
0.1908513112280978
 20
0.1706926245929096
 10
0.1866251376434604
 20
0.1626993322797645
 10
0.1822388089584628
 20
0.1595640199784558
 10
0.1773185562980117
 20
0.1578703265297978
 10
0.1742464830101937
 20
0.1579949265754745
 10
0.1726447394751957
 20
0.1623197446889914
 10
0.1722340451243766
 20
0.1668329063865687
 10
0.1750802496946697
 20
0.1758288048759677
 10
0.1788710541593339
 20
0.1788699362067003
 10
0.1846373610746283
 20
0.1810026356359753
  0
LWPOLYLINE
  5
1351
330
12F0
100
AcDbEntity
  8
0
  6
Continuous
370
     0
100
AcDbPolyline
 90
        8
 70
   128
 43
0.0
 10
0.189323461231595
 20
0.1591583393262468
 10
0.1842800023581468
 20
0.1543930771146637
 10
0.178074249814383
 20
0.1531065082663207
 10
0.1721806282935247
 20
0.1537005458941518
 10
0.1702667494994081
 20
0.1561447517008396
 10
0.1678189559457834
 20
0.1600305696643964
 10
0.1680037815790776
 20
0.1646379065018948
 10
0.1704433817592097
 20
0.1723486742604016
  0
LWPOLYLINE
  5
1352
330
12F0
100
AcDbEntity
  8
0
  6
Continuous
370
     0
100
AcDbPolyline
 90
       11
 70
   128
 43
0.0
 10
0.1870070856963686
 20
0.1545191269391033
 10
0.177860668667229
 20
0.1448321344815202
 10
0.1727843508670794
 20
0.1421981286162292
 10
0.1686156883101688
 20
0.1415389101976885
 10
0.1646031050886378
 20
0.1418199849735621
 10
0.1635681260238897
 20
0.1425719412796979
 10
0.162249771450103
 20
0.1451103280569619
 10
0.1614940871496806
 20
0.149874139624659
 10
0.1622744327670879
 20
0.1545756516020784
 10
0.163116383609104
 20
0.1608129508762878
 10
0.1658393727504439
 20
0.1667372872985417
  0
LWPOLYLINE
  5
1353
330
12F0
100
AcDbEntity
  8
0
  6
Continuous
370
     0
100
AcDbPolyline
 90
       12
 70
   128
 43
0.0
 10
0.1865388711018667
 20
0.1516982214378579
 10
0.1791790232410122
 20
0.1422937477042563
 10
0.172944515183385
 20
0.1373401419086111
 10
0.1675232074336428
 20
0.1349567859134381
 10
0.1629150950120461
 20
0.1351436922451725
 10
0.1600935559949583
 20
0.1356131231315451
 10
0.1587135869806104
 20
0.1366157293077989
 10
0.1571118434456124
 20
0.1409405474213159
 10
0.1571693636892952
 20
0.1482746146201403
 10
0.158200239341216
 20
0.1533209516075988
 10
0.1602332393674039
 20
0.1597465944658704
 10
0.1629890782194891
 20
0.1635396812376139
  0
LWPOLYLINE
  5
1354
330
12F0
100
AcDbEntity
  8
0
  6
Continuous
370
     0
100
AcDbPolyline
 90
       48
 70
   128
 43
0.0
 10
0.1486184666442689
 20
0.1386817973024765
 10
0.1468976068569318
 20
0.1341367542245972
 10
0.1476532911573507
 20
0.1293729426569036
 10
0.1474684655240601
 20
0.1247656058194035
 10
0.1464047401613975
 20
0.1218505184824554
 10
0.1441787211284229
 20
0.1224141245087491
 10
0.1425482178433412
 20
0.123071899844307
 10
0.1413284131452989
 20
0.1192165193129444
 10
0.1410491275969185
 20
0.1152046573556031
 10
0.139044883084594
 20
0.1124460514446354
 10
0.1344696295896952
 20
0.1105017014300777
 10
0.1313030963867874
 20
0.1112217763559115
 10
0.1284486984430053
 20
0.113822463588578
 10
0.1264403639700191
 20
0.116862150106078
 10
0.1259680594148591
 20
0.119839537033302
 10
0.1249330803501074
 20
0.1205914933394378
 10
0.123585966026237
 20
0.1194628373387409
 10
0.1217994060739009
 20
0.1191803119189796
 10
0.120731568082455
 20
0.1220635245714074
 10
0.1228261825492076
 20
0.1300249480306892
 10
0.1217912127004083
 20
0.1307768976410432
 10
0.1199430290915586
 20
0.1289585983160535
 10
0.1174664757878503
 20
0.1291773735016494
 10
0.1170886403637254
 20
0.1315592788529365
 10
0.1183700502863764
 20
0.1369504466810909
 10
0.1209698147828177
 20
0.1398032277319814
 10
0.1216885501958806
 20
0.1429689649390475
 10
0.1203085903974852
 20
0.1439715644195196
 10
0.1179264970088631
 20
0.1435948647249603
 10
0.1146983536016144
 20
0.1427791648804408
 10
0.112628404688067
 20
0.1442830707969307
 10
0.1107145301301706
 20
0.1467272824342735
 10
0.1123409257661975
 20
0.1518677945616549
 10
0.1156306701618348
 20
0.1542192758723093
 10
0.1171667135318337
 20
0.1541569754169067
 10
0.1155978246873097
 20
0.1563505313534765
 10
0.1168504790960973
 20
0.1580746622343287
 10
0.1194830982830126
 20
0.1587961811082685
 10
0.1232451514700301
 20
0.1581702813223557
 10
0.1258777748931656
 20
0.1588918060269541
 10
0.1272864951851602
 20
0.1615562309673457
 10
0.126658120510573
 20
0.1635933180043718
 10
0.1249331615466218
 20
0.1648465740507454
 10
0.1260913560403231
 20
0.1671661798117547
 10
0.1319808649323981
 20
0.1723704421732979
 10
0.1428522409254888
 20
0.1808041785845091
 10
0.1508733223876213
 20
0.1860403089347926
 10
0.1568901501214803
 20
0.1885178400698866
  0
LWPOLYLINE
  5
1355
330
12F0
100
AcDbEntity
  8
0
  6
Continuous
370
     0
100
AcDbPolyline
 90
        8
 70
   128
 43
0.0
 10
0.1673015048935546
 20
0.1825340852577905
 10
0.1547380288632176
 20
0.173222348546659
 10
0.1473781810023666
 20
0.1638178748130556
 10
0.1403017128867745
 20
0.1526269764389791
 10
0.1355457329351921
 20
0.1402769904626737
 10
0.1338905775490779
 20
0.1314694355573369
 10
0.135401955365868
 20
0.1219418057261627
 10
0.1369092297698273
 20
0.1182124691885828
  0
LWPOLYLINE
  5
1356
330
12F0
100
AcDbEntity
  8
0
  6
Continuous
370
     0
100
AcDbPolyline
 90
        7
 70
   128
 43
0.0
 10
0.1988764826508955
 20
0.1701304625147237
 10
0.1966627469520716
 20
0.1532991903904843
 10
0.1920956868306618
 20
0.1397582546538611
 10
0.1849576134904609
 20
0.1270315689829963
 10
0.1758111964613213
 20
0.1173445765254115
 10
0.1662540850813627
 20
0.1121707457654057
 10
0.156664119010923
 20
0.1091281771823489
  0
LWPOLYLINE
  5
1357
330
12F0
100
AcDbEntity
  8
0
  6
Continuous
370
     0
100
AcDbPolyline
 90
       11
 70
   128
 43
0.0
 10
0.1129117844333258
 20
0.1424966461564611
 10
0.1094372101681777
 20
0.1355378221776515
 10
0.1064308455177958
 20
0.1313999162265258
 10
0.1029850267665147
 20
0.1281081291950183
 10
0.0986602940901733
 20
0.1265086108862814
 10
0.091637242805433
 20
0.1284500730046254
 10
0.0871195003382645
 20
0.133839796884672
 10
0.0856738361386462
 20
0.1391049081926052
 10
0.0850742127417021
 20
0.1448090263462784
 10
0.0905858862096558
 20
0.1523951940591086
 10
0.0968203985034996
 20
0.1573488056854088
  0
LWPOLYLINE
  5
1358
330
12F0
100
AcDbEntity
  8
0
  6
Continuous
370
     0
100
AcDbPolyline
 90
        9
 70
   128
 43
0.0
 10
0.0875795215592738
 20
0.1482572881079811
 10
0.0794927356959185
 20
0.1472836695851604
 10
0.0767328068831752
 20
0.1492888752418864
 10
0.0701163599885923
 20
0.1525154680911207
 10
0.0653480832506901
 20
0.1575603611304732
 10
0.0639640108235078
 20
0.164361260600323
 10
0.0666869999648512
 20
0.1702855970225751
 10
0.0686583897867017
 20
0.1751754651104935
 10
0.0831070025494647
 20
0.1783759582025119
  0
LWPOLYLINE
  5
1359
330
12F0
100
AcDbEntity
  8
0
  6
Continuous
370
     0
100
AcDbPolyline
 90
        9
 70
   128
 43
0.0
 10
0.0749257567710231
 20
0.1779978145598466
 10
0.0719768989121547
 20
0.1811939766726684
 10
0.0737922278305305
 20
0.1851435381746071
 10
0.0714388899557719
 20
0.1884338754273518
 10
0.0673605931170691
 20
0.1929774687264682
 10
0.0666049088166467
 20
0.1977412802941636
 10
0.0692662877536492
 20
0.2021298419460624
 10
0.0757841755565316
 20
0.2052970231012363
 10
0.0809878079622416
 20
0.2052042919094212
  0
LWPOLYLINE
  5
135A
330
12F0
100
AcDbEntity
  8
0
  6
Continuous
370
     0
100
AcDbPolyline
 90
       18
 70
   128
 43
0.0
 10
0.2169184262635859
 20
0.1749779701146341
 10
0.2147786737722086
 20
0.1634132532464356
 10
0.2133535624970122
 20
0.1428845125733548
 10
0.2136205604750216
 20
0.1214777782961356
 10
0.2156125124372465
 20
0.1013242875388513
 10
0.2165078893260599
 20
0.0819546344680031
 10
0.2170336014961229
 20
0.0717996542070285
 10
0.2169350516203785
 20
0.065405886898402
 10
0.2156166928103715
 20
0.0628675059517949
 10
0.2133906737773969
 20
0.0623038999255012
 10
0.2121380236048296
 20
0.0640280249756966
 10
0.2112303591456417
 20
0.0660028057266651
 10
0.2115794390559031
 20
0.0720517480252543
 10
0.2120968901081284
 20
0.0945552636186484
 10
0.2114890013571333
 20
0.121509647149999
 10
0.2111234492671592
 20
0.1365226199492486
 10
0.2090698871005898
 20
0.1582118854768843
 10
0.2055706515184567
 20
0.1746360330008087
  0
LWPOLYLINE
  5
135B
330
12F0
100
AcDbEntity
  8
0
  6
Continuous
370
     0
100
AcDbPolyline
 90
       12
 70
   128
 43
0.0
 10
0.3151960654972505
 20
0.1383772295288405
 10
0.3178204913106732
 20
0.1260591249328353
 10
0.316744473397911
 20
0.1115793274234686
 10
0.3126620865985465
 20
0.1012374416958845
 10
0.308017025289594
 20
0.0931209865893869
 10
0.3042837276164398
 20
0.0888280498561702
 10
0.3015237895877441
 20
0.0868228375036626
 10
0.2944062826241343
 20
0.0842858946745046
 10
0.2797975055450621
 20
0.0826284010589067
 10
0.2718668032533067
 20
0.0826617205566578
 10
0.2579521094862649
 20
0.0873038199748919
 10
0.2525308017365191
 20
0.0896871759700649
  0
LWPOLYLINE
  5
135C
330
12F0
100
AcDbEntity
  8
0
  6
Continuous
370
     0
100
AcDbPolyline
 90
       39
 70
   128
 43
0.0
 10
0.2421644225960406
 20
0.1917397229080641
 10
0.2649831967312011
 20
0.1893520417643515
 10
0.2839741990824365
 20
0.1820759297850465
 10
0.2924963406135994
 20
0.1761501494146848
 10
0.2944677261992261
 20
0.1712602871574233
 10
0.2942459516785796
 20
0.167938075220162
 10
0.2962501961909076
 20
0.1651794693091908
 10
0.2999177986787913
 20
0.1652099009107281
 10
0.3035853919507225
 20
0.1652403258164856
 10
0.306090696532074
 20
0.161792069885438
 10
0.3081277957348796
 20
0.1611647261514175
 10
0.3128591143694734
 20
0.1582800637202268
 10
0.313483399083406
 20
0.1545188583287835
 10
0.3112245211237336
 20
0.1518239959561977
 10
0.3082140622764733
 20
0.1501636153095109
 10
0.3048914631903585
 20
0.1503838344432164
 10
0.3061112586724519
 20
0.1465284472160721
 10
0.3089615532034031
 20
0.1433308411551426
 10
0.3087397786827566
 20
0.1400086292178795
 10
0.3055403907893712
 20
0.1371572921150967
 10
0.3035033008025216
 20
0.1377846425448972
 10
0.3046286363695252
 20
0.1333337804375975
 10
0.3044068618488787
 20
0.1300115685003326
 10
0.3030556575643466
 20
0.1253419320725583
 10
0.3012690841598378
 20
0.1256244566271949
 10
0.2996673406248398
 20
0.1212996385136797
 10
0.295087992933059
 20
0.1174457019304231
 10
0.2908864849016268
 20
0.1159736648677967
 10
0.2880033314439778
 20
0.1170400145824341
 10
0.2854980268626264
 20
0.1204882705134817
 10
0.2838059225891527
 20
0.121366276644057
 10
0.282146668026428
 20
0.1243755324251445
 10
0.2816784534319261
 20
0.1271964379263899
 10
0.2810213324594208
 20
0.1288263945324459
 10
0.2787008535113635
 20
0.1276673136259951
 10
0.2766021398679967
 20
0.1298304379610257
 10
0.2758834044549339
 20
0.1329961751680919
 10
0.2767335536501712
 20
0.1383554741423829
 10
0.2758587389017286
 20
0.1424615045438635
  0
LWPOLYLINE
  5
135D
330
12F0
100
AcDbEntity
  8
0
  6
Continuous
370
     0
100
AcDbPolyline
 90
       19
 70
   128
 43
0.0
 10
0.2320980577735625
 20
0.1860066179660826
 10
0.2463577414902041
 20
0.1816151684179701
 10
0.2550688028515395
 20
0.1768803378079244
 10
0.2646875152198902
 20
0.1701707255817837
 10
0.2714846977871055
 20
0.1629916891650502
 10
0.2756164022407042
 20
0.1544029152759662
 10
0.2769594223676997
 20
0.1474759726774586
 10
0.2753248333581801
 20
0.1410198990827744
 10
0.2722486566575277
 20
0.1350970057435034
 10
0.2693942629499624
 20
0.1324963126801819
 10
0.2634678009343112
 20
0.1297710320976186
 10
0.2576070383401507
 20
0.1313082508160796
 10
0.2487070571486463
 20
0.1348521316658129
 10
0.2392772511582954
 20
0.1427526927871429
 10
0.234266641995589
 20
0.1496492046492381
 10
0.2291328131677126
 20
0.1596172844091334
 10
0.2265371520841057
 20
0.1682683587536182
 10
0.2260730366662145
 20
0.1768875633791147
 10
0.2265781909321198
 20
0.1819961999568491
  0
LWPOLYLINE
  5
135E
330
12F0
100
AcDbEntity
  8
0
  6
Continuous
370
     0
100
AcDbPolyline
 90
       11
 70
   128
 43
0.0
 10
0.2340365978846677
 20
0.1789855002276557
 10
0.2382052512256294
 20
0.1783262751133349
 10
0.241651079192863
 20
0.1750344947776092
 10
0.2430597945051254
 20
0.1723700573107791
 10
0.243528004863407
 20
0.1695491576401906
 10
0.24255464023922
 20
0.1672614207330447
 10
0.2403286169700252
 20
0.1666978205374061
 10
0.236504957814887
 20
0.1676076896911897
 10
0.2343446389469115
 20
0.1713066013230104
 10
0.2315888043310466
 20
0.1750996822640971
 10
0.2318721890560376
 20
0.1768861194310087
  0
LWPOLYLINE
  5
135F
330
12F0
100
AcDbEntity
  8
0
  6
Continuous
370
     0
100
AcDbPolyline
 90
       11
 70
   128
 43
0.0
 10
0.2354494166097609
 20
0.1821193560544216
 10
0.2414662493233521
 20
0.1796418374457626
 10
0.247762362605588
 20
0.1731524443533274
 10
0.2493887716937912
 20
0.1680119330910727
 10
0.2494791281960467
 20
0.1628091146776356
 10
0.2484113036567734
 20
0.1599259028903326
 10
0.2438031912351768
 20
0.1597389965585982
 10
0.2393840078597051
 20
0.160743046682958
 10
0.2317079255631178
 20
0.1662298335991412
 10
0.2299870607960521
 20
0.1707748641505819
 10
0.2297406299381492
 20
0.1769179882848721
  0
LWPOLYLINE
  5
1360
330
12F0
100
AcDbEntity
  8
0
  6
Continuous
370
     0
100
AcDbPolyline
 90
        8
 70
   128
 43
0.0
 10
0.251963874873244
 20
0.1746244755852988
 10
0.2549373940490973
 20
0.1683553141530058
 10
0.254243310737067
 20
0.1620557211191737
 10
0.2518571181718343
 20
0.1566341216894819
 10
0.2489411192396638
 20
0.1555692159229522
 10
0.2444890769374943
 20
0.1544420097010199
 10
0.240164353477109
 20
0.1560415347055386
 10
0.2335848554698821
 20
0.1607444906310657
  0
LWPOLYLINE
  5
1361
330
12F0
100
AcDbEntity
  8
0
  6
Continuous
370
     0
100
AcDbPolyline
 90
       11
 70
   128
 43
0.0
 10
0.2556602286387743
 20
0.1709878760701908
 10
0.2620467076392146
 20
0.1592956712600983
 10
0.2629831276122658
 20
0.1536538535618259
 10
0.2623218940109808
 20
0.1494855101785059
 10
0.2608146196070251
 20
0.1457561736409278
 10
0.2597796405422734
 20
0.145004217334792
 10
0.2569580972889689
 20
0.1445347922790745
 10
0.2521939239638975
 20
0.145288192533318
 10
0.2479636604185948
 20
0.147483192417992
 10
0.2422918134183867
 20
0.1502113667274258
 10
0.2374988845794483
 20
0.1546318039289698
  0
LWPOLYLINE
  5
1362
330
12F0
100
AcDbEntity
  8
0
  6
Continuous
370
     0
100
AcDbPolyline
 90
       12
 70
   128
 43
0.0
 10
0.2581983829308712
 20
0.1696708697896536
 10
0.2648682508925226
 20
0.1597650963158141
 10
0.2676528410222545
 20
0.1523049784274253
 10
0.268244271045706
 20
0.1464125108590348
 10
0.266642527510708
 20
0.1420876927455179
 10
0.2653241687007011
 20
0.1395493117989108
 10
0.2639441996863532
 20
0.138546705622657
 10
0.2593360872647601
 20
0.1383597992909226
 10
0.2523787495971881
 20
0.1406808556958196
 10
0.2478979560173755
 20
0.1432206805905345
 10
0.2424150380632888
 20
0.1471398113560607
 10
0.2396591992112
 20
0.1509328981278042
  0
LWPOLYLINE
  5
1363
330
12F0
100
AcDbEntity
  8
0
  6
Continuous
370
     0
100
AcDbPolyline
 90
       48
 70
   128
 43
0.0
 10
0.2588596885127181
 20
0.1295841257658842
 10
0.2626505064295514
 20
0.1265429953002765
 10
0.2674146797546228
 20
0.1257895950460348
 10
0.2717394032150118
 20
0.1241900700415161
 10
0.2741831068079747
 20
0.1222775955766035
 10
0.2729592079130505
 20
0.1203346895101535
 10
0.2718297731694363
 20
0.1189872524932038
 10
0.2751195175650736
 20
0.1166357711825511
 10
0.2788487210413457
 20
0.1151304213179518
 10
0.2808529655536738
 20
0.1123718154069841
 10
0.2812883212214778
 20
0.1074196535594467
 10
0.2796249766980914
 20
0.104630616912063
 10
0.2762695186852824
 20
0.1027195796994764
 10
0.2727579955327783
 20
0.1017488549035246
 10
0.2697803821600431
 20
0.102219729738005
 10
0.2687454030952949
 20
0.1014677734318674
 10
0.2694025375199693
 20
0.099837817690938
 10
0.2691191577747105
 20
0.098051393050465
 10
0.2660470795071603
 20
0.0979267804783514
 10
0.259122587314117
 20
0.1023790923644156
 10
0.2580876174653177
 20
0.1016271427540598
 10
0.2592458027430631
 20
0.0993075302972688
 10
0.2582724381188797
 20
0.0970197933901247
 10
0.2558903539462065
 20
0.0973964997804639
 10
0.2511590260956602
 20
0.1002811555158747
 10
0.249249241498422
 20
0.1036352363070012
 10
0.2464605479558557
 20
0.105297060901794
 10
0.2450805881574602
 20
0.1042944614213219
 10
0.2447027435173865
 20
0.101912549374255
 10
0.2444809689967364
 20
0.0985903374369919
 10
0.2424110200831926
 20
0.097086431520502
 10
0.2394950169147982
 20
0.0960215315846292
 10
0.2351086832500684
 20
0.0991568313594993
 10
0.2338888785520297
 20
0.1030122118908618
 10
0.2344227933115306
 20
0.1044538240477344
 10
0.2318517843289562
 20
0.1036395681513209
 10
0.2305991299201722
 20
0.1053636990321731
 10
0.2307264487619562
 20
0.1080904302586241
 10
0.2324842532004254
 20
0.1114749417861613
 10
0.2326115678059892
 20
0.1142016788432673
 10
0.2305128676147952
 20
0.1163648040434246
 10
0.2283813042606901
 20
0.1163966787279431
 10
0.2266563452967425
 20
0.1151434226815712
 10
0.2248081709038416
 20
0.1169617287023445
 10
0.2216785816085611
 20
0.1241711900248336
 10
0.217017061572065
 20
0.1371166508812979
 10
0.2145158561673241
 20
0.1463632059365966
 10
0.2140188860589553
 20
0.1528511483851442
  0
LWPOLYLINE
  5
1364
330
12F0
100
AcDbEntity
  8
0
  6
Continuous
370
     0
100
AcDbPolyline
 90
        8
 70
   128
 43
0.0
 10
0.2229270606239524
 20
0.1609038532574764
 10
0.2279007208993029
 20
0.1460777926206198
 10
0.2345705888609544
 20
0.1361720191467821
 10
0.2430270167749455
 20
0.1259837202531795
 10
0.2533028727839195
 20
0.1176441589818875
 10
0.2611678841266283
 20
0.1133483285218019
 10
0.27069623999272
 20
0.1118415347090984
 10
0.2747088232142545
 20
0.1121226094849721
  0
LWPOLYLINE
  5
1365
330
12F0
100
AcDbEntity
  8
0
  6
Continuous
370
     0
100
AcDbPolyline
 90
        7
 70
   128
 43
0.0
 10
0.2444808115834398
 20
0.1871005113860455
 10
0.259804220662744
 20
0.1797939745009849
 10
0.2712711166399444
 20
0.1712660629498525
 10
0.2811691280088446
 20
0.1605445896314936
 10
0.2875556070092884
 20
0.1488523848214029
 10
0.2895229026342605
 20
0.1381642301356702
 10
0.2894530948202068
 20
0.1281034250146166
  0
LWPOLYLINE
  5
1366
330
12F0
100
AcDbEntity
  8
0
  6
Continuous
370
     0
100
AcDbPolyline
 90
       11
 70
   128
 43
0.0
 10
0.2441975800355287
 20
0.0968039061007389
 10
0.2497421124301766
 20
0.0913489947342026
 10
0.252748477080555
 20
0.0872110887830769
 10
0.2548143360334443
 20
0.0829167022710973
 10
0.254999152450786
 20
0.0783093587378172
 10
0.2509824700526408
 20
0.0722299848376924
 10
0.2444604788369276
 20
0.0695988726992702
 10
0.2390063256126567
 20
0.0698509732132759
 10
0.2333960930530061
 20
0.0710433669216979
 10
0.227884419585056
 20
0.0786295346345263
 10
0.2250998252191039
 20
0.0860896583535719
  0
LWPOLYLINE
  5
1367
330
12F0
100
AcDbEntity
  8
0
  6
Continuous
370
     0
100
AcDbPolyline
 90
        9
 70
   128
 43
0.0
 10
0.2308907842354344
 20
0.0744916286834005
 10
0.2293177962143034
 20
0.0664997736225814
 10
0.2265578674015565
 20
0.0644945679658555
 10
0.221444600714058
 20
0.0591990250563849
 10
0.2151731437690749
 20
0.0562230820772687
 10
0.2082774021101592
 20
0.0570083444895921
 10
0.2034844732712244
 20
0.0614287816911379
 10
0.1994431253198776
 20
0.0648147371667846
 10
0.200864142398192
 20
0.0795451912420511
  0
LWPOLYLINE
  5
1368
330
12F0
100
AcDbEntity
  8
0
  6
Continuous
370
     0
100
AcDbPolyline
 90
        9
 70
   128
 43
0.0
 10
0.1986956343929478
 20
0.0716475113211512
 10
0.1947446563960255
 20
0.0698306492484875
 10
0.1915493676792579
 20
0.0727776112699541
 10
0.1876928495974184
 20
0.0715562240774457
 10
0.1821113725516348
 20
0.0690815808385654
 10
0.1773471992265634
 20
0.0698349810928054
 10
0.1739958403903649
 20
0.0737222430044717
 10
0.1729978102129727
 20
0.0808998354730957
 10
0.1746940136630535
 20
0.0858201284667715
  0
LWPOLYLINE
  5
1369
330
12F0
100
AcDbEntity
  8
0
  6
Continuous
370
     0
100
AcDbPolyline
 90
       18
 70
   128
 43
0.0
 10
0.2454458250806297
 20
0.2057573816542586
 10
0.2557833045336473
 20
0.2001486620566659
 10
0.2748669135192046
 20
0.1924495709508473
 10
0.2953084345588195
 20
0.1860884564319409
 10
0.3150910902779351
 20
0.1817551441857841
 10
0.3337894117243571
 20
0.1766211462363927
 10
0.3436098258691054
 20
0.1739830667432418
 10
0.3496602063452485
 20
0.1719135574852899
 10
0.3516669548083833
 20
0.1698753208975176
 10
0.3515150982813253
 20
0.1675840871505531
 10
0.3494882677260982
 20
0.1669255299822349
 10
0.3473296558815555
 20
0.1666725305959282
 10
0.3416846415164549
 20
0.1688737512875455
 10
0.3204424275407014
 20
0.1763198452341701
 10
0.2946194374857427
 20
0.1840710712604405
 10
0.2802282900679245
 20
0.1883626742942823
 10
0.2589659871457357
 20
0.1931119722577019
 10
0.2422643713563133
 20
0.1948593421582742
  0
LWPOLYLINE
  5
136A
330
12F0
100
AcDbEntity
  8
0
  6
Continuous
370
     0
100
AcDbPolyline
 90
       12
 70
   128
 43
0.0
 10
0.3106246586062298
 20
0.2879147200058192
 10
0.3231508644274896
 20
0.2866041936185564
 10
0.3365894623821148
 20
0.28110633626547
 10
0.3451636532954971
 20
0.2740279372541909
 10
0.3514474579293676
 20
0.2671020988657311
 10
0.3543766309574714
 20
0.2622249313800697
 10
0.3554308334775911
 20
0.2589804296390508
 10
0.3556441788773945
 20
0.2514273198135672
 10
0.3527061885967555
 20
0.2370213534821239
 10
0.3502237780858195
 20
0.2294891036798035
 10
0.3415090023392793
 20
0.2176899311102183
 10
0.3375670198630125
 20
0.2132704585541347
  0
LWPOLYLINE
  5
136B
330
12F0
100
AcDbEntity
  8
0
  6
Continuous
370
     0
100
AcDbPolyline
 90
       39
 70
   128
 43
0.0
 10
0.2373058927685676
 20
0.2349474174452872
 10
0.2466281014776968
 20
0.2559115272298396
 10
0.2594166376556579
 20
0.2717246015123802
 10
0.2676858762526209
 20
0.2779984729090064
 10
0.2729456032645991
 20
0.2783623214787028
 10
0.276036682480246
 20
0.2771247814281637
 10
0.279279618222958
 20
0.2781784751245873
 10
0.280384027547381
 20
0.2816759762519094
 10
0.2814884403919855
 20
0.285173466545233
 10
0.2855421083567862
 20
0.2864905831089839
 10
0.2867682459758782
 20
0.2882341197050238
 10
0.2909737808422648
 20
0.2918424614088497
 10
0.2947438143248533
 20
0.2912739150687678
 10
0.2966087490670617
 20
0.2882928361950743
 10
0.2972575819559573
 20
0.2849166338543938
 10
0.2960214015307301
 20
0.2818247057973107
 10
0.3000650302095735
 20
0.2817934200660179
 10
0.3039869237394051
 20
0.2835160966388948
 10
0.3070780029550519
 20
0.2822785565883556
 10
0.308801120456156
 20
0.2783546462627466
 10
0.3075749793168825
 20
0.2766111205007089
 10
0.3121557485417412
 20
0.2763059861939521
 10
0.3152468277573916
 20
0.2750684461434112
 10
0.3192703708239612
 20
0.2723403774900266
 10
0.3184495924615689
 20
0.2707285501005394
 10
0.3220677729372774
 20
0.267868759179489
 10
0.3243179881782581
 20
0.2623226088173727
 10
0.3244196412351812
 20
0.2578718527571091
 10
0.3225145389746231
 20
0.2554593310575051
 10
0.3184608710098224
 20
0.2541422144937524
 10
0.3171029485812333
 20
0.2528042465137279
 10
0.3137282384035558
 20
0.2521561128264338
 10
0.3109007115780287
 20
0.2525825220247189
 10
0.3091474691786971
 20
0.2524612471331906
 10
0.3095327531976508
 20
0.2498961648107638
 10
0.3068269615211356
 20
0.248568611704874
 10
0.3035940650643845
 20
0.2488633203034975
 10
0.2987597794011911
 20
0.2513279746964425
 10
0.29458437980756
 20
0.2517648096028626
  0
LWPOLYLINE
  5
136C
330
12F0
100
AcDbEntity
  8
0
  6
Continuous
370
     0
100
AcDbPolyline
 90
       19
 70
   128
 43
0.0
 10
0.2396477217805177
 20
0.2236021087278566
 10
0.2482307230920853
 20
0.2358068413065695
 10
0.2554256805970212
 20
0.2426284098541238
 10
0.2647792466123313
 20
0.2497029647268665
 10
0.2737073609043215
 20
0.2539490252438572
 10
0.2831525371704195
 20
0.2552244325952895
 10
0.2901554671097593
 20
0.2543611776565839
 10
0.2957904421889062
 20
0.250811554669923
 10
0.3004728576163416
 20
0.2460556620757881
 10
0.3020642075368229
 20
0.2425373139864177
 10
0.3028247259142454
 20
0.2360587556534064
 10
0.2995516687934909
 20
0.2309598659058434
 10
0.2934309923805856
 20
0.2235906002073662
 10
0.2830031419390799
 20
0.2170637294244351
 10
0.2748958060094786
 20
0.2144294962969315
 10
0.2638291584448567
 20
0.2126272409837284
 10
0.2547993944301083
 20
0.2128319495881179
 10
0.2464586241542683
 20
0.2150540303028929
 10
0.2417561233005756
 20
0.2171131160798207
  0
LWPOLYLINE
  5
136D
330
12F0
100
AcDbEntity
  8
0
  6
Continuous
370
     0
100
AcDbPolyline
 90
       11
 70
   128
 43
0.0
 10
0.2469242433959344
 20
0.2232761252319424
 10
0.2488393884626312
 20
0.2270370383925915
 10
0.2530348770027011
 20
0.2292969994693763
 10
0.2560042245895175
 20
0.2298134108890082
 10
0.2588317445606982
 20
0.2293869994636104
 10
0.2607067254432103
 20
0.2277543251120786
 10
0.2605548620618023
 20
0.2254630891380014
 10
0.2585079494144828
 20
0.222107738213591
 10
0.2543225001603666
 20
0.2211961794318515
 10
0.2498634660845234
 20
0.219747351434437
 10
0.2482520340719496
 20
0.2205689057677151
  0
LWPOLYLINE
  5
136E
330
12F0
100
AcDbEntity
  8
0
  6
Continuous
370
     0
100
AcDbPolyline
 90
       11
 70
   128
 43
0.0
 10
0.2443803543867844
 20
0.2255882103951769
 10
0.2485959181646038
 20
0.2305449630009377
 10
0.2567133037546831
 20
0.234527589816599
 10
0.2621048085358026
 20
0.2344858914382843
 10
0.2670809045857503
 20
0.232964066270144
 10
0.2694930260142776
 20
0.2310575433431499
 10
0.2682467994487467
 20
0.2266172107639068
 10
0.2659262882710074
 20
0.2227245861695941
 10
0.2583360039409825
 20
0.2171197084834233
 10
0.2534816465602283
 20
0.2168875605133884
 10
0.2475630369988728
 20
0.2185515205962147
  0
LWPOLYLINE
  5
136F
330
12F0
100
AcDbEntity
  8
0
  6
Continuous
370
     0
100
AcDbPolyline
 90
        8
 70
   128
 43
0.0
 10
0.25661165755211
 20
0.2389783481039771
 10
0.2634928523424378
 20
0.2398690554694429
 10
0.269269637808339
 20
0.2372622617075848
 10
0.2736885112201826
 20
0.2333174913588181
 10
0.2738002035630593
 20
0.2302151375935999
 10
0.2734964836545899
 20
0.2256326678725582
 10
0.2706388319308353
 20
0.2220138918537078
 10
0.2641328783533261
 20
0.2172097107047701
  0
LWPOLYLINE
  5
1370
330
12F0
100
AcDbEntity
  8
0
  6
Continuous
370
     0
100
AcDbPolyline
 90
       11
 70
   128
 43
0.0
 10
0.2612125053488796
 20
0.2413700183873129
 10
0.2743059834687287
 20
0.2438308308688359
 10
0.279961040639968
 20
0.2429780016382619
 10
0.2837210383567807
 20
0.2410610421691306
 10
0.2868020747662925
 20
0.2384751106575464
 10
0.2871974015913814
 20
0.2372584197961629
 10
0.2867719465338965
 20
0.2344299123792961
 10
0.2845832097911263
 20
0.2301317277758539
 10
0.2811884175213564
 20
0.2267868003324658
 10
0.2768410724542214
 20
0.22223560550872
 10
0.2711558903847582
 20
0.2190432495221532
  0
LWPOLYLINE
  5
1371
330
12F0
100
AcDbEntity
  8
0
  6
Continuous
370
     0
100
AcDbPolyline
 90
       12
 70
   128
 43
0.0
 10
0.2632493855645883
 20
0.2433769692437906
 10
0.2747314385262136
 20
0.2466593382857027
 10
0.2826869179287534
 20
0.2470023376662418
 10
0.2884737495349583
 20
0.2457439484265418
 10
0.2920919300106668
 20
0.2428841575054932
 10
0.2940986784738016
 20
0.2408459209177227
 10
0.2946257797338596
 20
0.2392236700472132
 10
0.2933795531683288
 20
0.234783337467972
 10
0.2890221617748807
 20
0.2288837620171797
 10
0.2852220033940647
 20
0.2254071231401262
 10
0.2798003737147212
 20
0.2214036363013054
 10
0.275341332784528
 20
0.2199548060767782
  0
LWPOLYLINE
  5
1372
330
12F0
100
AcDbEntity
  8
0
  6
Continuous
370
     0
100
AcDbPolyline
 90
       48
 70
   128
 43
0.0
 10
0.3015784993487181
 20
0.2316184230741633
 10
0.3056422134538188
 20
0.2342839441600759
 10
0.307830950196589
 20
0.2385821287635146
 10
0.3106886019203436
 20
0.2422009047823685
 10
0.3132626191618897
 20
0.2439340178973825
 10
0.3147322270790091
 20
0.2421696298850744
 10
0.3156647013044598
 20
0.2406790926753413
 10
0.3189176798533069
 20
0.2430811778328117
 10
0.3215017399009845
 20
0.2461626824088689
 10
0.3247446756436964
 20
0.2472163761052926
 10
0.3295889937384935
 20
0.2461001217802821
 10
0.3317275234909438
 20
0.2436563274104966
 10
0.33250813433499
 20
0.2398745542266862
 10
0.3323462281474434
 20
0.2362349267915658
 10
0.3309782664329006
 20
0.2335485565164976
 10
0.3313735932579895
 20
0.2323318656551141
 10
0.3331268389914861
 20
0.2324531536077572
 10
0.3347382606295319
 20
0.2316316078813667
 10
0.3339074498355323
 20
0.2286713804239468
 10
0.3275332638386423
 20
0.2234616370387687
 10
0.3279285871435533
 20
0.2222449570113873
 10
0.3304925686193236
 20
0.2226296569973538
 10
0.3323675495018356
 20
0.220996982645822
 10
0.3312731759431848
 20
0.2188478946475456
 10
0.3270676445969762
 20
0.2152395421097157
 10
0.3232875683082525
 20
0.2144596969887562
 10
0.3208453255016792
 20
0.2123210238646127
 10
0.3213724232415558
 20
0.2106987838281053
 10
0.3235209958001448
 20
0.2096033809193649
 10
0.3266120750157917
 20
0.208365840868824
 10
0.3274027251457916
 20
0.2059324699800626
 10
0.327514410634322
 20
0.2028301139877317
 10
0.3231771117074942
 20
0.1996273236861405
 10
0.3191334865488286
 20
0.1996585985834347
 10
0.317927420647301
 20
0.2006118643503765
 10
0.3179073385552087
 20
0.1979150705942842
 10
0.3158805011456351
 20
0.1972565111988515
 10
0.3133265693303499
 20
0.1982202049010428
 10
0.3106508990318843
 20
0.2009378478462924
 10
0.3080969603622528
 20
0.2019015393213692
 10
0.3053911720199025
 20
0.2005739992765942
 10
0.3047021680924793
 20
0.1985566118779829
 10
0.3053610437875101
 20
0.1965288009983456
 10
0.3030606147018595
 20
0.1953329701601216
 10
0.2952369132544703
 20
0.1945843999364544
 10
0.2814845594395905
 20
0.1941513983345686
 10
0.2719176480244805
 20
0.1946299532873077
 10
0.2655936758722603
 20
0.19616219110247
  0
LWPOLYLINE
  5
1373
330
12F0
100
AcDbEntity
  8
0
  6
Continuous
370
     0
100
AcDbPolyline
 90
        8
 70
   128
 43
0.0
 10
0.2606878757590714
 20
0.2071227912270394
 10
0.2763252428880705
 20
0.2072715185453262
 10
0.2878072958496958
 20
0.2105538875872419
 10
0.3001101238395485
 20
0.2154480709575264
 10
0.3112169320681737
 20
0.2226439246169125
 10
0.3177329317859865
 20
0.2287965102880101
 10
0.3221104017513489
 20
0.2373928903288931
 10
0.3230830401609843
 20
0.2412959406313444
  0
LWPOLYLINE
  5
1374
330
12F0
100
AcDbEntity
  8
0
  6
Continuous
370
     0
100
AcDbPolyline
 90
        7
 70
   128
 43
0.0
 10
0.2424338486797453
 20
0.2357168390852227
 10
0.2541179720130984
 20
0.2480324230744397
 10
0.265771963593874
 20
0.2563028196194086
 10
0.2790273443810918
 20
0.2624032703700543
 10
0.2921208225009408
 20
0.2648640828515774
 10
0.3028937894430506
 20
0.2634322707387859
 10
0.3124406119117253
 20
0.2602569198028419
  0
LWPOLYLINE
  5
1375
330
12F0
100
AcDbEntity
  8
0
  6
Continuous
370
     0
100
AcDbPolyline
 90
       11
 70
   128
 43
0.0
 10
0.328223500174019
 20
0.2075442843084332
 10
0.3351247839107856
 20
0.2111317876571039
 10
0.339989184097675
 20
0.2127123270881839
 10
0.3447117738978065
 20
0.2133500372944592
 10
0.3491507294017389
 20
0.2121020607017829
 10
0.3536913344424164
 20
0.2064033388828417
 10
0.3541782646639468
 20
0.1993874982730368
 10
0.3522530767911149
 20
0.1942781936513409
 10
0.3493853857814031
 20
0.1893110153374451
 10
0.3404673107753666
 20
0.1864133571154997
 10
0.3325118245184804
 20
0.1860703555078497
  0
LWPOLYLINE
  5
1376
330
12F0
100
AcDbEntity
  8
0
  6
Continuous
370
     0
100
AcDbPolyline
 90
        9
 70
   128
 43
0.0
 10
0.345331710962256
 20
0.1879938965465797
 10
0.3524463367646575
 20
0.1840282770086538
 10
0.3535005357645957
 20
0.180783786101637
 10
0.3569568100527576
 20
0.1742843677454644
 10
0.3578491132396806
 20
0.1674002407964359
 10
0.3549713829440151
 20
0.1610846601874911
 10
0.3492862008745518
 20
0.1578923042009297
 10
0.3448171206584014
 20
0.1550950716813535
 10
0.3312467447486291
 20
0.1609984998775697
  0
LWPOLYLINE
  5
1377
330
12F0
100
AcDbEntity
  8
0
  6
Continuous
370
     0
100
AcDbPolyline
 90
        9
 70
   128
 43
0.0
 10
0.3380877788749572
 20
0.1564956088968507
 10
0.3385947980429229
 20
0.1521765642702526
 10
0.3348046720937176
 20
0.1500483254611335
 10
0.3347745507156681
 20
0.1460031294099977
 10
0.3354033050326528
 20
0.1399301224792228
 10
0.3332145682898826
 20
0.1356319378757806
 10
0.3284819356836124
 20
0.133645836208462
 10
0.3213472313093035
 20
0.1349146511562953
 10
0.3171919102875797
 20
0.138048290652808
  0
ENDBLK
  5
137B
330
12F0
100
AcDbEntity
  8
0
100
AcDbBlockEnd
  0
BLOCK
  5
2199
330
2192
100
AcDbEntity
  8
0
100
AcDbBlockBegin
  2
*D20
 70
     1
 10
0.0
 20
0.0
 30
0.0
  3
*D20
  1

  0
LINE
  5
21A9
330
2192
100
AcDbEntity
  8
Sezione
  6
ACAD_ISO10W100
 62
     5
370
    -2
100
AcDbLine
 10
0.2558514754556142
 20
0.211046886970545
 30
0.0
 11
0.2543514754556142
 21
0.211046886970545
 31
0.0
  0
LINE
  5
21AA
330
2192
100
AcDbEntity
  8
Sezione
  6
ACAD_ISO10W100
 62
     5
370
    -2
100
AcDbLine
 10
0.2543514754556142
 20
0.211046886970545
 30
0.0
 11
0.252220121576662
 21
0.2089356478456055
 31
0.0
  0
MTEXT
  5
21AB
330
2192
100
AcDbEntity
  8
Sezione
  6
ACAD_ISO10W100
 62
     4
100
AcDbMText
 10
0.2702800468841856
 20
0.211046886970545
 30
0.0
 40
0.003
 41
0.0
 71
     5
 72
     1
  1
\A1;d 500 mm
  7
ROMANS
 73
     1
 44
1.0
1001
ACAD
1000
MTEXTBEGIN
1070
    73
1070
     1
1070
    44
1040
1.0
1070
    74
1070
     0
1000
MTEXTEND
  0
INSERT
  5
21AC
330
2192
100
AcDbEntity
  8
Sezione
  6
ACAD_ISO10W100
 62
     5
370
    -2
100
AcDbBlockReference
  2
_ArchTick
 10
0.252220121576662
 20
0.2089356478456055
 30
0.0
 41
0.0015
 42
0.0015
 43
0.0015
 50
224.7283543638229
  0
POINT
  5
21AD
330
2192
100
AcDbEntity
  8
Defpoints
  6
ACAD_ISO10W100
 62
     0
100
AcDbPoint
 10
0.252220121576662
 20
0.2089356478456055
 30
0.0
  0
POINT
  5
21AE
330
2192
100
AcDbEntity
  8
Defpoints
  6
ACAD_ISO10W100
 62
     0
100
AcDbPoint
 10
0.1634137099536523
 20
0.1209673509731266
 30
0.0
  0
ENDBLK
  5
219A
330
2192
100
AcDbEntity
  8
0
100
AcDbBlockEnd
  0
BLOCK
  5
23FD
330
23F6
100
AcDbEntity
  8
0
100
AcDbBlockBegin
  2
*D22
 70
     1
 10
0.0
 20
0.0
 30
0.0
  3
*D22
  1

  0
LINE
  5
240D
330
23F6
100
AcDbEntity
  8
Sezione
  6
ACAD_ISO10W100
 62
     5
370
    -2
100
AcDbLine
 10
0.2631158902053683
 20
0.2072725814460036
 30
0.0
 11
0.2616158902053683
 21
0.2072725814460035
 31
0.0
  0
LINE
  5
240E
330
23F6
100
AcDbEntity
  8
Sezione
  6
ACAD_ISO10W100
 62
     5
370
    -2
100
AcDbLine
 10
0.2616158902053683
 20
0.2072725814460035
 30
0.0
 11
0.2592455289467454
 21
0.2054337265023988
 31
0.0
  0
MTEXT
  5
240F
330
23F6
100
AcDbEntity
  8
Sezione
  6
ACAD_ISO10W100
 62
     4
100
AcDbMText
 10
0.2710444616339398
 20
0.2072725814460036
 30
0.0
 40
0.003
 41
0.0
 71
     5
 72
     1
  1
\A1;\U+22050.13
  7
ROMANS
 73
     1
 44
1.0
1001
ACAD
1000
MTEXTBEGIN
1070
    73
1070
     1
1070
    44
1040
1.0
1070
    74
1070
     0
1000
MTEXTEND
  0
INSERT
  5
2410
330
23F6
100
AcDbEntity
  8
Sezione
  6
ACAD_ISO10W100
 62
     5
370
    -2
100
AcDbBlockReference
  2
_ArchTick
 10
0.2592455289467454
 20
0.2054337265023988
 30
0.0
 41
0.0015
 42
0.0015
 43
0.0015
 50
217.8032336898647
  0
POINT
  5
2411
330
23F6
100
AcDbEntity
  8
Defpoints
  6
ACAD_ISO10W100
 62
     0
100
AcDbPoint
 10
0.2592455289467454
 20
0.2054337265023988
 30
0.0
  0
POINT
  5
2412
330
23F6
100
AcDbEntity
  8
Defpoints
  6
ACAD_ISO10W100
 62
     0
100
AcDbPoint
 10
0.1585051754552694
 20
0.1272823913991999
 30
0.0
  0
ENDBLK
  5
23FE
330
23F6
100
AcDbEntity
  8
0
100
AcDbBlockEnd
  0
BLOCK
  5
241B
330
2414
100
AcDbEntity
  8
0
100
AcDbBlockBegin
  2
*D23
 70
     1
 10
0.0
 20
0.0
 30
0.0
  3
*D23
  1

  0
LINE
  5
242B
330
2414
100
AcDbEntity
  8
Sezione
  6
ACAD_ISO10W100
 62
     5
370
    -2
100
AcDbLine
 10
0.2676079008573378
 20
0.2007091560846723
 30
0.0
 11
0.2661079008573378
 21
0.2007091560846723
 31
0.0
  0
LINE
  5
242C
330
2414
100
AcDbEntity
  8
Sezione
  6
ACAD_ISO10W100
 62
     5
370
    -2
100
AcDbLine
 10
0.2661079008573378
 20
0.2007091560846723
 30
0.0
 11
0.2635356514795252
 21
0.1991652865505656
 31
0.0
  0
MTEXT
  5
242D
330
2414
100
AcDbEntity
  8
Sezione
  6
ACAD_ISO10W100
 62
     4
100
AcDbMText
 10
0.2820364722859093
 20
0.2007091560846723
 30
0.0
 40
0.003
 41
0.0
 71
     5
 72
     1
  1
\A1;d 510 mm
  7
ROMANS
 73
     1
 44
1.0
1001
ACAD
1000
MTEXTBEGIN
1070
    73
1070
     1
1070
    44
1040
1.0
1070
    74
1070
     0
1000
MTEXTEND
  0
INSERT
  5
242E
330
2414
100
AcDbEntity
  8
Sezione
  6
ACAD_ISO10W100
 62
     5
370
    -2
100
AcDbBlockReference
  2
_ArchTick
 10
0.2635356514795252
 20
0.1991652865505656
 30
0.0
 41
0.0015
 42
0.0015
 43
0.0015
 50
210.9722710083541
  0
POINT
  5
242F
330
2414
100
AcDbEntity
  8
Defpoints
  6
ACAD_ISO10W100
 62
     0
100
AcDbPoint
 10
0.2635356514795252
 20
0.1991652865505656
 30
0.0
  0
POINT
  5
2430
330
2414
100
AcDbEntity
  8
Defpoints
  6
ACAD_ISO10W100
 62
     0
100
AcDbPoint
 10
0.1542150529224896
 20
0.1335508313510331
 30
0.0
  0
ENDBLK
  5
241C
330
2414
100
AcDbEntity
  8
0
100
AcDbBlockEnd
  0
BLOCK
  5
2759
330
2752
100
AcDbEntity
  8
0
100
AcDbBlockBegin
  2
*D25
 70
     1
 10
0.0
 20
0.0
 30
0.0
  3
*D25
  1

  0
LINE
  5
2769
330
2752
100
AcDbEntity
  8
Sezione
  6
ACAD_ISO10W100
 62
     5
370
    -2
100
AcDbLine
 10
0.2636607640225997
 20
0.2055303332418715
 30
0.0
 11
0.2621607640225998
 21
0.2055303332418715
 31
0.0
  0
LINE
  5
276A
330
2752
100
AcDbEntity
  8
Sezione
  6
ACAD_ISO10W100
 62
     5
370
    -2
100
AcDbLine
 10
0.2621607640225998
 20
0.2055303332418715
 30
0.0
 11
0.2599242728201685
 21
0.2035308065225082
 31
0.0
  0
MTEXT
  5
276B
330
2752
100
AcDbEntity
  8
Sezione
  6
ACAD_ISO10W100
 62
     4
100
AcDbMText
 10
0.2780893354511711
 20
0.2055303332418715
 30
0.0
 40
0.003
 41
0.0
 71
     5
 72
     1
  1
\A1;d 530 mm
  7
ROMANS
 73
     1
 44
1.0
1001
ACAD
1000
MTEXTBEGIN
1070
    73
1070
     1
1070
    44
1040
1.0
1070
    74
1070
     0
1000
MTEXTEND
  0
INSERT
  5
276C
330
2752
100
AcDbEntity
  8
Sezione
  6
ACAD_ISO10W100
 62
     5
370
    -2
100
AcDbBlockReference
  2
_ArchTick
 10
0.2599242728201685
 20
0.2035308065225082
 30
0.0
 41
0.0015
 42
0.0015
 43
0.0015
 50
221.7981889599028
  0
POINT
  5
276D
330
2752
100
AcDbEntity
  8
Defpoints
  6
ACAD_ISO10W100
 62
     0
100
AcDbPoint
 10
0.2599242728201685
 20
0.2035308065225082
 30
0.0
  0
POINT
  5
276E
330
2752
100
AcDbEntity
  8
Defpoints
  6
ACAD_ISO10W100
 62
     0
100
AcDbPoint
 10
0.1611459113794554
 20
0.1152183764172968
 30
0.0
  0
ENDBLK
  5
275A
330
2752
100
AcDbEntity
  8
0
100
AcDbBlockEnd
  0
ENDSEC
  0
SECTION
  2
ENTITIES
  0
LINE
  5
D
330
2
100
AcDbEntity
  8
Table
100
AcDbLine
 10
0.02
 20
0.02
 30
0.0
 11
0.4
 21
0.02
 31
0.0
  0
LINE
  5
10
330
2
100
AcDbEntity
  8
Table
100
AcDbLine
 10
0.4
 20
0.02
 30
0.0
 11
0.4
 21
0.2769999999999999
 31
0.0
  0
LINE
  5
11
330
2
100
AcDbEntity
  8
Table
100
AcDbLine
 10
0.4
 20
0.2769999999999999
 30
0.0
 11
0.02
 21
0.277
 31
0.0
  0
LINE
  5
12
330
2
100
AcDbEntity
  8
Table
100
AcDbLine
 10
0.02
 20
0.277
 30
0.0
 11
0.02
 21
0.02
 31
0.0
  0
LINE
  5
13
330
2
100
AcDbEntity
  8
Table
 62
     2
100
AcDbLine
 10
0.015
 20
0.015
 30
0.0
 11
0.4050000000000001
 21
0.015
 31
0.0
  0
LINE
  5
14
330
2
100
AcDbEntity
  8
Table
 62
     2
100
AcDbLine
 10
0.4050000000000001
 20
0.015
 30
0.0
 11
0.4050000000000001
 21
0.2819999999999998
 31
0.0
  0
LINE
  5
15
330
2
100
AcDbEntity
  8
Table
 62
     2
100
AcDbLine
 10
0.4050000000000001
 20
0.2819999999999998
 30
0.0
 11
0.0149999999999999
 21
0.282
 31
0.0
  0
LINE
  5
16
330
2
100
AcDbEntity
  8
Table
 62
     2
100
AcDbLine
 10
0.0149999999999999
 20
0.282
 30
0.0
 11
0.015
 21
0.015
 31
0.0
  0
LINE
  5
17
330
2
100
AcDbEntity
  8
Table
100
AcDbLine
 10
0.21
 20
0.2769999999999999
 30
0.0
 11
0.21
 21
0.2532994226089223
 31
0.0
  0
MTEXT
  5
18
102
{ACAD_XDICTIONARY
360
2772
102
}
330
2
100
AcDbEntity
  8
Text
100
AcDbMText
 10
0.305
 20
0.0471738284815141
 30
0.0
 40
0.005
 41
0.1900000000000001
 71
     2
 72
     5
  3
{\fTimes New Roman|b0|i0|c238|p18;\H1.6x;\C4;Bovelacci\P\H0.4375x;\T0.95;via del Commercio, 5  47100 Forli - Italy  \fTimes New Roman|b0|i0|c0|p18;\P\fTimes New Roman|b0|i0|c238|p18;tel.+39-0543721386  fax +39-0543721127\fTimes New Roman|b0|i0|c0|p18
  1
; \fTimes New Roman|b0|i0|c238|p18;www.bovelacci.it\fTimes New Roman|b0|i0|c0|p18; \fTimes New Roman|b0|i0|c238|p18;e-mail: bovelacci@bovelacci\fTimes New Roman|b0|i0|c0|p18;.it}
 73
     1
 44
1.0
1001
ACAD
1000
ACAD_MTEXT_DEFINED_HEIGHT_BEGIN
1070
    46
1040
0.0271738284815141
1000
ACAD_MTEXT_DEFINED_HEIGHT_END
1000
MTEXTBEGIN
1070
    73
1070
     1
1070
    44
1040
1.0
1070
    74
1070
     0
1000
MTEXTEND
  0
MTEXT
  5
1C
330
2
100
AcDbEntity
  8
Text
100
AcDbMText
 10
0.0219676065851835
 20
0.0500313976452307
 30
0.0
 40
0.002
 41
0.1863544980601608
 71
     1
 72
     5
  3
{\fArial|b0|i0|c0|p34;\H1.25x;Le caratteristiche tecniche indicate vengono fornite a titolo indicativo e potranno essere modificate senza preavviso. Non devono quindi essere considerate a scopo di specifica.\P\fArial|b0|i1|c0|p34;The given values are
  3
 indicative and can be changed without notice. They cannot be considered like a state.\PThis lealfet and designs embodied within are protected by copyright law and international treaties. Unauthorized repro- duction of the leaflet or any portion of i
  1
t or reproduction of any of the designs embodied therein may result in severe civil penalties and will be prosecuted to the maximum.\PAll right reserved, Bovelacci Forlì Italy.}
 73
     1
 44
1.0
1001
ACAD
1000
MTEXTBEGIN
1070
    73
1070
     1
1070
    44
1040
1.0
1070
    74
1070
     0
1000
MTEXTEND
  0
LINE
  5
1D
330
2
100
AcDbEntity
  8
Table
100
AcDbLine
 10
0.02
 20
0.0528099428524846
 30
0.0
 11
0.4
 21
0.0528099428524846
 31
0.0
  0
MTEXT
  5
1E
330
2
100
AcDbEntity
  8
Text
100
AcDbMText
 10
0.1133313047219695
 20
0.2610796890771976
 30
0.0
 40
0.003
 41
0.1103605678262056
 71
     2
 72
     5
  1
{\fTimes New Roman|b0|i0|c0|p18;Rosoni\fTimes New Roman|b0|i1|c0|p18;   Ceiling centres}
 73
     1
 44
1.0
1001
ACAD
1000
ACAD_MTEXT_DEFINED_HEIGHT_BEGIN
1070
    46
1040
0.0141952763113409
1000
ACAD_MTEXT_DEFINED_HEIGHT_END
1000
MTEXTBEGIN
1070
    73
1070
     1
1070
    44
1040
1.0
1070
    74
1070
     0
1000
MTEXTEND
  0
TEXT
  5
1F
330
2
100
AcDbEntity
  8
Text
100
AcDbText
 10
0.2180556919891047
 20
0.269976982173197
 30
0.0
 40
0.003
  1
Rosone - Ceiling centre : D 530 mm
  7
ROMANS
100
AcDbText
  0
TEXT
  5
21
330
2
100
AcDbEntity
  8
Text
100
AcDbText
 10
0.2184542410678115
 20
0.2576348370183962
 30
0.0
 40
0.003
  1
File : E - R53
  7
ROMANS
100
AcDbText
  0
LINE
  5
22
330
2
100
AcDbEntity
  8
Table
100
AcDbLine
 10
0.4
 20
0.2654452889427402
 30
0.0
 11
0.02
 21
0.2654452889427403
 31
0.0
  0
LINE
  5
23
330
2
100
AcDbEntity
  8
Table
100
AcDbLine
 10
0.4
 20
0.2532994226089223
 30
0.0
 11
0.02
 21
0.2532994226089225
 31
0.0
  0
LINE
  5
24
330
2
100
AcDbEntity
  8
Table
100
AcDbLine
 10
0.21
 20
0.0528099428524846
 30
0.0
 11
0.21
 21
0.02
 31
0.0
  0
TEXT
  5
25
330
2
100
AcDbEntity
  8
Text
100
AcDbText
 10
0.0947789320547719
 20
0.2687784133392506
 30
0.0
 40
0.005
  1
EUROSTYL
  7
style1
 72
     1
 11
0.1140561490699125
 21
0.2687784133392506
 31
0.0
100
AcDbText
  0
TEXT
  5
23F
330
2
100
AcDbEntity
  8
Text
  6
ACAD_ISO10W100
100
AcDbText
 10
0.2867708647101614
 20
0.087418603731841
 30
0.0
 40
0.005
  1
scala 1 : 4
  7
style1
100
AcDbText
  0
CIRCLE
  5
25CC
102
{ACAD_REACTORS
330
2762
102
}
330
2
100
AcDbEntity
  8
Profilo
  6
Continuous
370
     0
100
AcDbCircle
 10
0.2105350920998119
 20
0.1593745914699025
 30
0.0
 40
0.06625
  0
CIRCLE
  5
25CD
330
2
100
AcDbEntity
  8
Profilo
  6
Continuous
370
     0
100
AcDbCircle
 10
0.2105350920998119
 20
0.1593745914699025
 30
0.0
 40
0.0614179392338756
  0
CIRCLE
  5
25CE
330
2
100
AcDbEntity
  8
Profilo
  6
Continuous
370
     0
100
AcDbCircle
 10
0.2105350920998119
 20
0.1593745914699025
 30
0.0
 40
0.0069105074559016
  0
LWPOLYLINE
  5
25CF
330
2
100
AcDbEntity
  8
Profilo
  6
Continuous
370
     0
100
AcDbPolyline
 90
       14
 70
   128
 43
0.0
 10
0.2061879659837253
 20
0.1652404976390964
 10
0.2024426278524714
 20
0.1692006036681177
 10
0.2016378457659118
 20
0.1705928269775048
 10
0.2016687991268555
 20
0.1716137928605694
 10
0.2023188144086982
 20
0.1723872504408876
 10
0.2029378789785805
 20
0.1727894489189521
 10
0.204038290165236
 20
0.1732135618804178
 10
0.2050426969267902
 20
0.1735629064992703
 10
0.2060511327907837
 20
0.1735907872996587
 10
0.206680144290091
 20
0.173276432783624
 10
0.2071833556087239
 20
0.1723962384627975
 10
0.2076865642783745
 20
0.1703843645323837
 10
0.2083155784266641
 20
0.1684353631811084
 10
0.2088187870963147
 20
0.1666121019603151
  0
LWPOLYLINE
  5
25D0
330
2
100
AcDbEntity
  8
Profilo
  6
Continuous
370
     0
100
AcDbPolyline
 90
        2
 70
   128
 43
0.0
 10
0.2063027358011173
 20
0.1659833912523152
 10
0.2023399559383248
 20
0.1703214936291766
  0
LWPOLYLINE
  5
25D1
330
2
100
AcDbEntity
  8
Profilo
  6
Continuous
370
     0
100
AcDbPolyline
 90
        2
 70
   128
 43
0.0
 10
0.206994650039745
 20
0.1661091347346608
 10
0.2035350814955863
 20
0.170761591627556
  0
LWPOLYLINE
  5
25D2
330
2
100
AcDbEntity
  8
Profilo
  6
Continuous
370
     0
100
AcDbPolyline
 90
        2
 70
   128
 43
0.0
 10
0.2076236641880365
 20
0.1662977474442813
 10
0.2044156986542096
 20
0.1715160424660378
  0
LWPOLYLINE
  5
25D3
330
2
100
AcDbEntity
  8
Profilo
  6
Continuous
370
     0
100
AcDbPolyline
 90
        2
 70
   128
 43
0.0
 10
0.2081897755970066
 20
0.1667378437667293
 10
0.2057366243921463
 20
0.1722076240772448
  0
LWPOLYLINE
  5
25D4
330
2
100
AcDbEntity
  8
Profilo
  6
Continuous
370
     0
100
AcDbPolyline
 90
       14
 70
   128
 43
0.0
 10
0.2040733455023695
 20
0.1627734429767194
 10
0.1989806868351685
 20
0.1647163339098125
 10
0.1976515401745691
 20
0.1656215019078471
 10
0.1972364476942805
 20
0.1665547905436626
 10
0.1974865005598852
 20
0.1675336828051432
 10
0.1978697510850398
 20
0.1681646531629322
 10
0.1986771715885793
 20
0.1690242162579199
 10
0.1994305358619823
 20
0.1697747606449735
 10
0.2003270081547943
 20
0.1702374243014648
 10
0.2010301212460486
 20
0.1702271185303013
 10
0.2018654009811835
 20
0.1696524260580259
 10
0.2031916957101578
 20
0.1680581243397223
 10
0.2046040578690742
 20
0.1665750538093422
 10
0.2058485166103527
 20
0.1651506862704983
  0
LWPOLYLINE
  5
25D5
330
2
100
AcDbEntity
  8
Profilo
  6
Continuous
370
     0
100
AcDbPolyline
 90
        2
 70
   128
 43
0.0
 10
0.2038544200761447
 20
0.1634925637519013
 10
0.1984018467094706
 20
0.1656816731950594
  0
LWPOLYLINE
  5
25D6
330
2
100
AcDbEntity
  8
Profilo
  6
Continuous
370
     0
100
AcDbPolyline
 90
        2
 70
   128
 43
0.0
 10
0.2044232552121179
 20
0.1639060650518407
 10
0.199287666264683
 20
0.1665967333359242
  0
LWPOLYLINE
  5
25D7
330
2
100
AcDbEntity
  8
Profilo
  6
Continuous
370
     0
100
AcDbPolyline
 90
        2
 70
   128
 43
0.0
 10
0.2049081413895029
 20
0.164348918241918
 10
0.199753730958363
 20
0.167658555519274
  0
LWPOLYLINE
  5
25D8
330
2
100
AcDbEntity
  8
Profilo
  6
Continuous
370
     0
100
AcDbPolyline
 90
        2
 70
   128
 43
0.0
 10
0.2052272395067933
 20
0.1649910578622031
 10
0.2006437779096788
 20
0.1688547772188582
  0
LWPOLYLINE
  5
25D9
330
2
100
AcDbEntity
  8
Profilo
  6
Continuous
370
     0
100
AcDbPolyline
 90
       14
 70
   128
 43
0.0
 10
0.2032385531827585
 20
0.1596332040892396
 10
0.1978072374860091
 20
0.1591740665491108
 10
0.1962169800484159
 20
0.1594128996126263
 10
0.1954380558833919
 20
0.1600736617408356
 10
0.1952386202960272
 20
0.1610641070657652
 10
0.1953101493096896
 20
0.1617988778855754
 10
0.1956646595970235
 20
0.1629236441012734
 10
0.1960177683485207
 20
0.1639267337358494
 10
0.1966247197380491
 20
0.1647325440370779
 10
0.1972626742504109
 20
0.1650283281951554
 10
0.1982645850064713
 20
0.1648729624637073
 10
0.2001512768577585
 20
0.1640120039656527
 10
0.2020672513802419
 20
0.1632886045633746
 10
0.2038064798771546
 20
0.1625452441662687
  0
LWPOLYLINE
  5
25DA
330
2
100
AcDbEntity
  8
Profilo
  6
Continuous
370
     0
100
AcDbPolyline
 90
        2
 70
   128
 43
0.0
 10
0.2027292933785252
 20
0.1601861213374218
 10
0.196866875534663
 20
0.1597926578739925
  0
LWPOLYLINE
  5
25DB
330
2
100
AcDbEntity
  8
Profilo
  6
Continuous
370
     0
100
AcDbPolyline
 90
        2
 70
   128
 43
0.0
 10
0.203062384636858
 20
0.1608054814512418
 10
0.1972679416610519
 20
0.1610014412739695
  0
LWPOLYLINE
  5
25DC
330
2
100
AcDbEntity
  8
Profilo
  6
Continuous
370
     0
100
AcDbPolyline
 90
        2
 70
   128
 43
0.0
 10
0.2033071051891668
 20
0.1614148626162426
 10
0.1972271440612965
 20
0.1621603278963808
  0
LWPOLYLINE
  5
25DD
330
2
100
AcDbEntity
  8
Profilo
  6
Continuous
370
     0
100
AcDbPolyline
 90
        2
 70
   128
 43
0.0
 10
0.2033159887191682
 20
0.1621318619072416
 10
0.1975100275115751
 20
0.1636242633060418
  0
LWPOLYLINE
  5
25DE
330
2
100
AcDbEntity
  8
Profilo
  6
Continuous
370
     0
100
AcDbPolyline
 90
       14
 70
   128
 43
0.0
 10
0.2038489298818482
 20
0.1564417438008241
 10
0.1991546958400066
 20
0.15367151560825
 10
0.1976182976141625
 20
0.1531967099199201
 10
0.1966298172481635
 20
0.1534540734973162
 10
0.1960203938718244
 20
0.1542599020420785
 10
0.1957660341755916
 20
0.1549529429516734
 10
0.1955974191365315
 20
0.1561201385447091
 10
0.1954803348472942
 20
0.1571770992225931
 10
0.1956775511670732
 20
0.158166455555786
 10
0.1961239923853699
 20
0.1587097459630438
 10
0.1970940934494885
 20
0.1590044790609713
 10
0.1991674999631852
 20
0.159047387172667
 10
0.201207604597172
 20
0.1592269370220252
 10
0.2030971273156674
 20
0.1593118154100206
  0
LWPOLYLINE
  5
25DF
330
2
100
AcDbEntity
  8
Profilo
  6
Continuous
370
     0
100
AcDbPolyline
 90
        2
 70
   128
 43
0.0
 10
0.2031502008494947
 20
0.1567189454799194
 10
0.1980390622802584
 20
0.1538208393743488
  0
LWPOLYLINE
  5
25E0
330
2
100
AcDbEntity
  8
Profilo
  6
Continuous
370
     0
100
AcDbPolyline
 90
        2
 70
   128
 43
0.0
 10
0.2031815754213793
 20
0.1574214925411241
 10
0.1978759389127398
 20
0.1550839316563164
  0
LWPOLYLINE
  5
25E1
330
2
100
AcDbEntity
  8
Profilo
  6
Continuous
370
     0
100
AcDbPolyline
 90
        2
 70
   128
 43
0.0
 10
0.2031376604419273
 20
0.1580767062677517
 10
0.1973363594845305
 20
0.1561103510094077
  0
LWPOLYLINE
  5
25E2
330
2
100
AcDbEntity
  8
Profilo
  6
Continuous
370
     0
100
AcDbPolyline
 90
        2
 70
   128
 43
0.0
 10
0.202834569892572
 20
0.1587265547264631
 10
0.1969560508971058
 20
0.1575520497672742
  0
LWPOLYLINE
  5
25E3
330
2
100
AcDbEntity
  8
Profilo
  6
Continuous
370
     0
100
AcDbPolyline
 90
       14
 70
   128
 43
0.0
 10
0.205783583008603
 20
0.1538311699622858
 10
0.2027561812446597
 20
0.1492985287854238
 10
0.2015779447418802
 20
0.1482041254349329
 10
0.2005756888343089
 20
0.1480071164486554
 10
0.1996769814427659
 20
0.1484687239871207
 10
0.1991471120939949
 20
0.1489827697347672
 10
0.1984887680049536
 20
0.1499612173032259
 10
0.1979246806544102
 20
0.15086270499939
 10
0.1976731007936077
 20
0.1518396532091004
 10
0.1978396055593143
 20
0.1525228445373599
 10
0.198585756518233
 20
0.1532093009599547
 10
0.2004352141056382
 20
0.1541475772036462
 10
0.2021953811081274
 20
0.1551945142549393
 10
0.2038609549003323
 20
0.1560908202223303
  0
LWPOLYLINE
  5
25E4
330
2
100
AcDbEntity
  8
Profilo
  6
Continuous
370
     0
100
AcDbPolyline
 90
        2
 70
   128
 43
0.0
 10
0.2050337766023378
 20
0.1537777528800936
 10
0.201686240985365
 20
0.1489490095895287
  0
LWPOLYLINE
  5
25E5
330
2
100
AcDbEntity
  8
Profilo
  6
Continuous
370
     0
100
AcDbPolyline
 90
        2
 70
   128
 43
0.0
 10
0.2047572203690273
 20
0.1544243388270385
 10
0.2009912367074533
 20
0.1500162398362321
  0
LWPOLYLINE
  5
25E6
330
2
100
AcDbEntity
  8
Profilo
  6
Continuous
370
     0
100
AcDbPolyline
 90
        2
 70
   128
 43
0.0
 10
0.2044333677580767
 20
0.154995612001064
 10
0.2000597457740532
 20
0.1507068969789178
  0
LWPOLYLINE
  5
25E7
330
2
100
AcDbEntity
  8
Profilo
  6
Continuous
370
     0
100
AcDbPolyline
 90
        2
 70
   128
 43
0.0
 10
0.2038783339298269
 20
0.1554495991703715
 10
0.1990915699288434
 20
0.1518408129647191
  0
LWPOLYLINE
  5
25E8
330
2
100
AcDbEntity
  8
Profilo
  6
Continuous
370
     0
100
AcDbPolyline
 90
       14
 70
   128
 43
0.0
 10
0.2086593307843061
 20
0.1523185387389341
 10
0.207898375346256
 20
0.1469212297520586
 10
0.2073116647560389
 20
0.1454239887449469
 10
0.2064941423812523
 20
0.1448116272408844
 10
0.2054841509953245
 20
0.1448375867388161
 10
0.2047837191169592
 20
0.1450708242598337
 10
0.2037660390988321
 20
0.1456667302629113
 10
0.2028666731048347
 20
0.1462341942831089
 10
0.2022161255403065
 20
0.1470052377949194
 10
0.2020697155425277
 20
0.1476930156228282
 10
0.2024441320478929
 20
0.1486352342567598
 10
0.2037033329517128
 20
0.150283041515181
 10
0.2048349396608287
 20
0.1519900070455606
 10
0.205946677210274
 20
0.1535202162030331
  0
LWPOLYLINE
  5
25E9
330
2
100
AcDbEntity
  8
Profilo
  6
Continuous
370
     0
100
AcDbPolyline
 90
        2
 70
   128
 43
0.0
 10
0.2080069553586621
 20
0.1519450828037008
 10
0.2070860431777253
 20
0.1461420941574869
  0
LWPOLYLINE
  5
25EA
330
2
100
AcDbEntity
  8
Profilo
  6
Continuous
370
     0
100
AcDbPolyline
 90
        2
 70
   128
 43
0.0
 10
0.2074772436739036
 20
0.1524076433597359
 10
0.2059968121103277
 20
0.1468020843298485
  0
LWPOLYLINE
  5
25EB
330
2
100
AcDbEntity
  8
Profilo
  6
Continuous
370
     0
100
AcDbPolyline
 90
        2
 70
   128
 43
0.0
 10
0.2069375964128448
 20
0.1527818283228384
 10
0.2048579028750841
 20
0.1470201861446649
  0
LWPOLYLINE
  5
25EC
330
2
100
AcDbEntity
  8
Profilo
  6
Continuous
370
     0
100
AcDbPolyline
 90
        2
 70
   128
 43
0.0
 10
0.2062405505624283
 20
0.1529500364760739
 10
0.2034936188721308
 20
0.1476217333908454
  0
LWPOLYLINE
  5
25ED
330
2
100
AcDbEntity
  8
Profilo
  6
Continuous
370
     0
100
AcDbPolyline
 90
       14
 70
   128
 43
0.0
 10
0.2119065960932489
 20
0.152203445295759
 10
0.2135628035381027
 20
0.1470104717373704
 10
0.2136838240883745
 20
0.1454069400175535
 10
0.2132129555789528
 20
0.1445005117017062
 10
0.2122917213793536
 20
0.1440856815621658
 10
0.2115594560951384
 20
0.1439919153050471
 10
0.2103840041565417
 20
0.1440872532505257
 10
0.2093274899842012
 20
0.1442083003860683
 10
0.2084068236395455
 20
0.1446207245762356
 10
0.2079764971739419
 20
0.1451768660699355
 10
0.2079050214449487
 20
0.1461882289592
 10
0.2083245654830965
 20
0.148219198795791
 10
0.2086034833118524
 20
0.1502481073474073
 10
0.2089411913623054
 20
0.1521091430045405
  0
LWPOLYLINE
  5
25EE
330
2
100
AcDbEntity
  8
Profilo
  6
Continuous
370
     0
100
AcDbPolyline
 90
        2
 70
   128
 43
0.0
 10
0.2114808626021341
 20
0.1515839180355933
 10
0.2131689718089125
 20
0.1459560371040998
  0
LWPOLYLINE
  5
25EF
330
2
100
AcDbEntity
  8
Profilo
  6
Continuous
370
     0
100
AcDbPolyline
 90
        2
 70
   128
 43
0.0
 10
0.2108029113615815
 20
0.1517708374096629
 10
0.2119012495234709
 20
0.1460780680542331
  0
LWPOLYLINE
  5
25F0
330
2
100
AcDbEntity
  8
Profilo
  6
Continuous
370
     0
100
AcDbPolyline
 90
        2
 70
   128
 43
0.0
 10
0.2101543532088059
 20
0.1518738222408227
 10
0.2107804969282294
 20
0.1457804168019128
  0
LWPOLYLINE
  5
25F1
330
2
100
AcDbEntity
  8
Profilo
  6
Continuous
370
     0
100
AcDbPolyline
 90
        2
 70
   128
 43
0.0
 10
0.2094533538156047
 20
0.1517229356903003
 10
0.2092903179461625
 20
0.1457304514988738
  0
LWPOLYLINE
  5
25F2
330
2
100
AcDbEntity
  8
Profilo
  6
Continuous
370
     0
100
AcDbPolyline
 90
       14
 70
   128
 43
0.0
 10
0.2148822182158985
 20
0.1535086853007086
 10
0.2186275563471525
 20
0.1495485792716882
 10
0.219432338433712
 20
0.1481563559623003
 10
0.2194013850727683
 20
0.1471353900792365
 10
0.2187513697909256
 20
0.1463619324989174
 10
0.2181323052210433
 20
0.1459597340208529
 10
0.2170318940343878
 20
0.1455356210593881
 10
0.2160274872728336
 20
0.1451862764405347
 10
0.2150190514088401
 20
0.1451583956401472
 10
0.2143900399095329
 20
0.145472750156181
 10
0.2138868285908999
 20
0.1463529444770084
 10
0.2133836199212493
 20
0.1483648184074222
 10
0.2127546057729588
 20
0.1503138197586966
 10
0.2122513971033091
 20
0.15213708097949
  0
LWPOLYLINE
  5
25F3
330
2
100
AcDbEntity
  8
Profilo
  6
Continuous
370
     0
100
AcDbPolyline
 90
        2
 70
   128
 43
0.0
 10
0.2147674483985065
 20
0.1527657916874898
 10
0.2187302282612991
 20
0.1484276893106284
  0
LWPOLYLINE
  5
25F4
330
2
100
AcDbEntity
  8
Profilo
  6
Continuous
370
     0
100
AcDbPolyline
 90
        2
 70
   128
 43
0.0
 10
0.2140755341598779
 20
0.1526400482051451
 10
0.2175351027040375
 20
0.147987591312249
  0
LWPOLYLINE
  5
25F5
330
2
100
AcDbEntity
  8
Profilo
  6
Continuous
370
     0
100
AcDbPolyline
 90
        2
 70
   128
 43
0.0
 10
0.2134465200115874
 20
0.1524514354955238
 10
0.2166544855454133
 20
0.1472331404737672
  0
LWPOLYLINE
  5
25F6
330
2
100
AcDbEntity
  8
Profilo
  6
Continuous
370
     0
100
AcDbPolyline
 90
        2
 70
   128
 43
0.0
 10
0.2128804086026172
 20
0.1520113391730766
 10
0.2153335598074775
 20
0.1465415588625603
  0
LWPOLYLINE
  5
25F7
330
2
100
AcDbEntity
  8
Profilo
  6
Continuous
370
     0
100
AcDbPolyline
 90
       14
 70
   128
 43
0.0
 10
0.2169968386972543
 20
0.1559757399630857
 10
0.2220894973644554
 20
0.1540328490299934
 10
0.2234186440250547
 20
0.1531276810319579
 10
0.2238337365053433
 20
0.1521943923961424
 10
0.2235836836397387
 20
0.1512155001346627
 10
0.2232004331145831
 20
0.1505845297768729
 10
0.2223930126110445
 20
0.1497249666818861
 10
0.2216396483376415
 20
0.1489744222948324
 10
0.2207431760448295
 20
0.1485117586383411
 10
0.2200400629535752
 20
0.1485220644095047
 10
0.2192047832184403
 20
0.14909675688178
 10
0.217878488489466
 20
0.1506910586000827
 10
0.2164661263305496
 20
0.1521741291304628
 10
0.2152216675892711
 20
0.1535984966693076
  0
LWPOLYLINE
  5
25F8
330
2
100
AcDbEntity
  8
Profilo
  6
Continuous
370
     0
100
AcDbPolyline
 90
        2
 70
   128
 43
0.0
 10
0.2172157641234791
 20
0.1552566191879037
 10
0.2226683374901524
 20
0.1530675097447465
  0
LWPOLYLINE
  5
25F9
330
2
100
AcDbEntity
  8
Profilo
  6
Continuous
370
     0
100
AcDbPolyline
 90
        2
 70
   128
 43
0.0
 10
0.2166469289875059
 20
0.1548431178879643
 10
0.2217825179349409
 20
0.1521524496038809
  0
LWPOLYLINE
  5
25FA
330
2
100
AcDbEntity
  8
Profilo
  6
Continuous
370
     0
100
AcDbPolyline
 90
        2
 70
   128
 43
0.0
 10
0.216162042810121
 20
0.154400264697887
 10
0.2213164532412608
 20
0.151090627420531
  0
LWPOLYLINE
  5
25FB
330
2
100
AcDbEntity
  8
Profilo
  6
Continuous
370
     0
100
AcDbPolyline
 90
        2
 70
   128
 43
0.0
 10
0.2158429446928305
 20
0.1537581250776028
 10
0.2204264062899441
 20
0.1498944057209477
  0
LWPOLYLINE
  5
25FC
330
2
100
AcDbEntity
  8
Profilo
  6
Continuous
370
     0
100
AcDbPolyline
 90
       14
 70
   128
 43
0.0
 10
0.2178316310168653
 20
0.1591159788505654
 10
0.2232629467136147
 20
0.1595751163906942
 10
0.2248532041512079
 20
0.1593362833271796
 10
0.2256321283162319
 20
0.1586755211989694
 10
0.2258315639035966
 20
0.1576850758740398
 10
0.2257600348899342
 20
0.1569503050542296
 10
0.2254055246026003
 20
0.1558255388385326
 10
0.2250524158511031
 20
0.1548224492039565
 10
0.2244454644615748
 20
0.1540166389027271
 10
0.2238075099492129
 20
0.1537208547446496
 10
0.2228055991931526
 20
0.1538762204760977
 10
0.2209189073418654
 20
0.1547371789741532
 10
0.2190029328193819
 20
0.1554605783764305
 10
0.2172637043224692
 20
0.1562039387735363
  0
LWPOLYLINE
  5
25FD
330
2
100
AcDbEntity
  8
Profilo
  6
Continuous
370
     0
100
AcDbPolyline
 90
        2
 70
   128
 43
0.0
 10
0.2183408908210986
 20
0.1585630616023832
 10
0.22420330866496
 20
0.1589565250658125
  0
LWPOLYLINE
  5
25FE
330
2
100
AcDbEntity
  8
Profilo
  6
Continuous
370
     0
100
AcDbPolyline
 90
        2
 70
   128
 43
0.0
 10
0.2180077995627658
 20
0.1579437014885632
 10
0.2238022425385719
 20
0.1577477416658355
  0
LWPOLYLINE
  5
25FF
330
2
100
AcDbEntity
  8
Profilo
  6
Continuous
370
     0
100
AcDbPolyline
 90
        2
 70
   128
 43
0.0
 10
0.217763079010457
 20
0.1573343203235624
 10
0.2238430401383273
 20
0.1565888550434251
  0
LWPOLYLINE
  5
2600
330
2
100
AcDbEntity
  8
Profilo
  6
Continuous
370
     0
100
AcDbPolyline
 90
        2
 70
   128
 43
0.0
 10
0.2177541954804556
 20
0.1566173210325634
 10
0.2235601566880487
 20
0.1551249196337632
  0
LWPOLYLINE
  5
2601
330
2
100
AcDbEntity
  8
Profilo
  6
Continuous
370
     0
100
AcDbPolyline
 90
       14
 70
   128
 43
0.0
 10
0.2172212543177756
 20
0.1623074391389809
 10
0.2219154883596173
 20
0.1650776673315559
 10
0.2234518865854613
 20
0.1655524730198858
 10
0.2244403669514603
 20
0.1652951094424888
 10
0.2250497903277995
 20
0.1644892808977274
 10
0.2253041500240323
 20
0.1637962399881316
 10
0.2254727650630923
 20
0.162629044395096
 10
0.2255898493523296
 20
0.1615720837172128
 10
0.2253926330325506
 20
0.160582727384019
 10
0.224946191814253
 20
0.1600394369767621
 10
0.2239760907501354
 20
0.1597447038788338
 10
0.2219026842364387
 20
0.1597017957671389
 10
0.2198625796024518
 20
0.1595222459177807
 10
0.2179730568839555
 20
0.1594373675297844
  0
LWPOLYLINE
  5
2602
330
2
100
AcDbEntity
  8
Profilo
  6
Continuous
370
     0
100
AcDbPolyline
 90
        2
 70
   128
 43
0.0
 10
0.2179199833501291
 20
0.1620302374598856
 10
0.2230311219193646
 20
0.1649283435654572
  0
LWPOLYLINE
  5
2603
330
2
100
AcDbEntity
  8
Profilo
  6
Continuous
370
     0
100
AcDbPolyline
 90
        2
 70
   128
 43
0.0
 10
0.2178886087782446
 20
0.1613276903986809
 10
0.223194245286884
 20
0.1636652512834895
  0
LWPOLYLINE
  5
2604
330
2
100
AcDbEntity
  8
Profilo
  6
Continuous
370
     0
100
AcDbPolyline
 90
        2
 70
   128
 43
0.0
 10
0.2179325237576966
 20
0.1606724766720542
 10
0.2237338247150933
 20
0.1626388319303973
  0
LWPOLYLINE
  5
2605
330
2
100
AcDbEntity
  8
Profilo
  6
Continuous
370
     0
100
AcDbPolyline
 90
        2
 70
   128
 43
0.0
 10
0.2182356143070518
 20
0.1600226282133428
 10
0.2241141333025181
 20
0.1611971331725308
  0
LWPOLYLINE
  5
2606
330
2
100
AcDbEntity
  8
Profilo
  6
Continuous
370
     0
100
AcDbPolyline
 90
       14
 70
   128
 43
0.0
 10
0.2152866011910208
 20
0.1649180129775192
 10
0.2183140029549642
 20
0.1694506541543812
 10
0.2194922394577436
 20
0.170545057504873
 10
0.220494495365315
 20
0.1707420664911505
 10
0.2213932027568579
 20
0.1702804589526843
 10
0.2219230721056289
 20
0.1697664132050387
 10
0.2225814161946702
 20
0.1687879656365792
 10
0.2231455035452137
 20
0.167886477940415
 10
0.2233970834060162
 20
0.1669095297307055
 10
0.2232305786403095
 20
0.1662263384024452
 10
0.2224844276813909
 20
0.1655398819798504
 10
0.2206349700939847
 20
0.1646016057361588
 10
0.2188748030914964
 20
0.1635546686848657
 10
0.2172092292992915
 20
0.1626583627174747
  0
LWPOLYLINE
  5
2607
330
2
100
AcDbEntity
  8
Profilo
  6
Continuous
370
     0
100
AcDbPolyline
 90
        2
 70
   128
 43
0.0
 10
0.216036407597286
 20
0.1649714300597114
 10
0.2193839432142588
 20
0.1698001733502772
  0
LWPOLYLINE
  5
2608
330
2
100
AcDbEntity
  8
Profilo
  6
Continuous
370
     0
100
AcDbPolyline
 90
        2
 70
   128
 43
0.0
 10
0.2163129638305965
 20
0.1643248441127674
 10
0.2200789474921705
 20
0.1687329431035729
  0
LWPOLYLINE
  5
2609
330
2
100
AcDbEntity
  8
Profilo
  6
Continuous
370
     0
100
AcDbPolyline
 90
        2
 70
   128
 43
0.0
 10
0.2166368164415471
 20
0.1637535709387419
 10
0.2210104384255707
 20
0.1680422859608872
  0
LWPOLYLINE
  5
260A
330
2
100
AcDbEntity
  8
Profilo
  6
Continuous
370
     0
100
AcDbPolyline
 90
        2
 70
   128
 43
0.0
 10
0.2171918502697969
 20
0.1632995837694335
 10
0.2219786142707805
 20
0.166908369975086
  0
LWPOLYLINE
  5
260B
330
2
100
AcDbEntity
  8
Profilo
  6
Continuous
370
     0
100
AcDbPolyline
 90
       14
 70
   128
 43
0.0
 10
0.2124108534153168
 20
0.1664306442008709
 10
0.2131718088533678
 20
0.1718279531877473
 10
0.213758519443584
 20
0.1733251941948581
 10
0.2145760418183715
 20
0.1739375556989215
 10
0.2155860332042994
 20
0.1739115962009898
 10
0.2162864650826646
 20
0.1736783586799713
 10
0.2173041451007918
 20
0.1730824526768946
 10
0.2182035110947891
 20
0.1725149886566961
 10
0.2188540586593173
 20
0.1717439451448866
 10
0.2190004686570961
 20
0.1710561673169777
 10
0.2186260521517309
 20
0.1701139486830461
 10
0.2173668512479101
 20
0.1684661414246249
 10
0.2162352445387952
 20
0.1667591758942444
 10
0.2151235069893498
 20
0.1652289667367719
  0
LWPOLYLINE
  5
260C
330
2
100
AcDbEntity
  8
Profilo
  6
Continuous
370
     0
100
AcDbPolyline
 90
        2
 70
   128
 43
0.0
 10
0.2130632288409617
 20
0.1668041001361042
 10
0.2139841410218985
 20
0.1726070887823181
  0
LWPOLYLINE
  5
260D
330
2
100
AcDbEntity
  8
Profilo
  6
Continuous
370
     0
100
AcDbPolyline
 90
        2
 70
   128
 43
0.0
 10
0.2135929405257193
 20
0.16634153958007
 10
0.2150733720892961
 20
0.1719470986099574
  0
LWPOLYLINE
  5
260E
330
2
100
AcDbEntity
  8
Profilo
  6
Continuous
370
     0
100
AcDbPolyline
 90
        2
 70
   128
 43
0.0
 10
0.214132587786779
 20
0.1659673546169675
 10
0.2162122813245397
 20
0.171728996795141
  0
LWPOLYLINE
  5
260F
330
2
100
AcDbEntity
  8
Profilo
  6
Continuous
370
     0
100
AcDbPolyline
 90
        2
 70
   128
 43
0.0
 10
0.2148296336371955
 20
0.1657991464637321
 10
0.217576565327493
 20
0.1711274495489596
  0
LWPOLYLINE
  5
2610
330
2
100
AcDbEntity
  8
Profilo
  6
Continuous
370
     0
100
AcDbPolyline
 90
       14
 70
   128
 43
0.0
 10
0.2091635881063749
 20
0.166545737644046
 10
0.2075073806615211
 20
0.1717387112024347
 10
0.2073863601112484
 20
0.1733422429222524
 10
0.207857228620671
 20
0.1742486712380997
 10
0.2087784628202702
 20
0.1746635013776401
 10
0.2095107281044854
 20
0.174757267634758
 10
0.2106861800430821
 20
0.1746619296892793
 10
0.2117426942154217
 20
0.1745408825537367
 10
0.2126633605600783
 20
0.1741284583635694
 10
0.2130936870256819
 20
0.1735723168698704
 10
0.2131651627546751
 20
0.1725609539806059
 10
0.2127456187165273
 20
0.170529984144014
 10
0.2124667008877705
 20
0.1685010755923977
 10
0.2121289928373184
 20
0.1666400399352654
  0
LWPOLYLINE
  5
2611
330
2
100
AcDbEntity
  8
Profilo
  6
Continuous
370
     0
100
AcDbPolyline
 90
        2
 70
   128
 43
0.0
 10
0.2095893215974898
 20
0.1671652649042126
 10
0.2079012123907105
 20
0.1727931458357061
  0
LWPOLYLINE
  5
2612
330
2
100
AcDbEntity
  8
Profilo
  6
Continuous
370
     0
100
AcDbPolyline
 90
        2
 70
   128
 43
0.0
 10
0.2102672728380415
 20
0.1669783455301421
 10
0.2091689346761529
 20
0.1726711148855728
  0
LWPOLYLINE
  5
2613
330
2
100
AcDbEntity
  8
Profilo
  6
Continuous
370
     0
100
AcDbPolyline
 90
        2
 70
   128
 43
0.0
 10
0.2109158309908179
 20
0.1668753606989832
 10
0.2102896872713944
 20
0.1729687661378931
  0
LWPOLYLINE
  5
2614
330
2
100
AcDbEntity
  8
Profilo
  6
Continuous
370
     0
100
AcDbPolyline
 90
        2
 70
   128
 43
0.0
 10
0.2116168303840191
 20
0.1670262472495056
 10
0.2117798662534613
 20
0.1730187314409313
  0
LWPOLYLINE
  5
2615
330
2
100
AcDbEntity
  8
Profilo
  6
Continuous
370
     0
100
AcDbPolyline
 90
       18
 70
   128
 43
0.0
 10
0.2032485781403284
 20
0.1730171376529674
 10
0.2024878751231829
 20
0.1747788955308525
 10
0.2023890866174365
 20
0.1762064022311125
 10
0.2026953381375054
 20
0.1775532563924291
 10
0.2031853389802269
 20
0.178961332340124
 10
0.2036140900487307
 20
0.1799408624869057
 10
0.2039815913430165
 20
0.1805224594018964
 10
0.204502217072847
 20
0.1809510035268764
 10
0.2050228428026766
 20
0.1810122253132538
 10
0.2059722196010099
 20
0.1809203943096205
 10
0.2067990968509092
 20
0.1804612392914513
 10
0.2074115972420647
 20
0.1799408624869057
 10
0.2082384744919641
 20
0.1792368253510248
 10
0.2092184761774063
 20
0.1781960734178658
 10
0.2097391019072359
 20
0.1773083742747166
 10
0.2101372280886316
 20
0.1763288424520035
 10
0.2102804479784699
 20
0.1754094195969924
 10
0.2102597276370663
 20
0.174737104497042
  0
LWPOLYLINE
  5
2616
330
2
100
AcDbEntity
  8
Profilo
  6
Continuous
370
     0
100
AcDbPolyline
 90
       13
 70
   128
 43
0.0
 10
0.204502217072847
 20
0.1737881852434477
 10
0.2041959655527772
 20
0.1752880905188436
 10
0.2041653406656692
 20
0.1764206734556368
 10
0.2043490899883209
 20
0.1775838672856183
 10
0.2046553415083898
 20
0.1782879044214991
 10
0.2050228428026766
 20
0.1790531633437573
 10
0.2054209689840714
 20
0.1793898764651041
 10
0.2060028444881188
 20
0.1792062144578366
 10
0.2068297217380182
 20
0.1785633974324008
 10
0.2075340967904995
 20
0.1777063075065084
 10
0.2080853500564213
 20
0.1768798284738051
 10
0.2085220056888146
 20
0.175937038102576
 10
0.2089122246573374
 20
0.1750125975079428
  0
LWPOLYLINE
  5
2617
330
2
100
AcDbEntity
  8
Profilo
  6
Continuous
370
     0
100
AcDbPolyline
 90
        2
 70
   128
 43
0.0
 10
0.2067923445944229
 20
0.1744080001057839
 10
0.2056965929680499
 20
0.1780430223037865
  0
LWPOLYLINE
  5
2618
330
2
100
AcDbEntity
  8
Profilo
  6
Continuous
370
     0
100
AcDbPolyline
 90
        7
 70
   128
 43
0.0
 10
0.2001014120536895
 20
0.1756267359894834
 10
0.200106355055103
 20
0.176649069432846
 10
0.2003213756166029
 20
0.1773654581856339
 10
0.2008890181374787
 20
0.1776697788983541
 10
0.2015078522458809
 20
0.1776510369537321
 10
0.2020329256173903
 20
0.1773511390248674
 10
0.2023892217155461
 20
0.1768450646217707
  0
LWPOLYLINE
  5
2619
330
2
100
AcDbEntity
  8
Profilo
  6
Continuous
370
     0
100
AcDbPolyline
 90
       18
 70
   128
 43
0.0
 10
0.1977431970714334
 20
0.168068254312558
 10
0.1962508982917863
 20
0.169274697122161
 10
0.1955000299722482
 20
0.1704927822238154
 10
0.195145287887931
 20
0.1718276845344788
 10
0.1949247965658034
 20
0.1733021886128756
 10
0.19484922642599
 20
0.1743687700402252
 10
0.1949043510982658
 20
0.1750545349003159
 10
0.1951661879027324
 20
0.1756759387186526
 10
0.1955987279095575
 20
0.1759720947589147
 10
0.1964820353115573
 20
0.1763319798405916
 10
0.197427578731459
 20
0.1763096872815102
 10
0.1982117520527891
 20
0.1761335596289704
 10
0.1992710978672112
 20
0.1758944347231854
 10
0.2006225078044248
 20
0.1754283241446264
 10
0.2014960333556375
 20
0.1748842524299721
 10
0.202303767717694
 20
0.1742019385371223
 10
0.2028578597377746
 20
0.1734543876315358
 10
0.2031519531924872
 20
0.1728494529523634
  0
LWPOLYLINE
  5
261A
330
2
100
AcDbEntity
  8
Profilo
  6
Continuous
370
     0
100
AcDbPolyline
 90
       13
 70
   128
 43
0.0
 10
0.1984949155361808
 20
0.1693335781089309
 10
0.1975267025450225
 20
0.1705193560950895
 10
0.1969732480192081
 20
0.1715079763863447
 10
0.1965953868377892
 20
0.1726233259401879
 10
0.1965393767205765
 20
0.1733890420422868
 10
0.1965091494022517
 20
0.1742374315333968
 10
0.1967051942387177
 20
0.1747205946575003
 10
0.1973057714005573
 20
0.1748283810564577
 10
0.1983366668110604
 20
0.174643463866357
 10
0.1993586694946869
 20
0.1742118878356469
 10
0.2002308639783643
 20
0.1737362571624019
 10
0.2010556398710919
 20
0.1731043817378466
 10
0.2018307705735984
 20
0.1724671740398134
  0
LWPOLYLINE
  5
261B
330
2
100
AcDbEntity
  8
Profilo
  6
Continuous
370
     0
100
AcDbPolyline
 90
        2
 70
   128
 43
0.0
 10
0.20023468042077
 20
0.1709466722397877
 10
0.1975751614942731
 20
0.1736561033768118
  0
LWPOLYLINE
  5
261C
330
2
100
AcDbEntity
  8
Profilo
  6
Continuous
370
     0
100
AcDbPolyline
 90
        7
 70
   128
 43
0.0
 10
0.1937437790795813
 20
0.1689163778774287
 10
0.1932730538492824
 20
0.1698239063123768
 10
0.1931305226474893
 20
0.1705581620876377
 10
0.1934917202510822
 20
0.171091421329336
 10
0.1940483804572017
 20
0.1713624127113626
 10
0.1946526793547059
 20
0.1713408800459324
 10
0.195203348383632
 20
0.1710583524692031
  0
LWPOLYLINE
  5
261D
330
2
100
AcDbEntity
  8
Profilo
  6
Continuous
370
     0
100
AcDbPolyline
 90
       18
 70
   128
 43
0.0
 10
0.1951682849944931
 20
0.1611277575848899
 10
0.193286258118611
 20
0.1615025038177449
 10
0.192055324868345
 20
0.1622321187035198
 10
0.1911208563160529
 20
0.1632492591314745
 10
0.1902403847337664
 20
0.1644524002259131
 10
0.189677805593949
 20
0.165361691982524
 10
0.1894079252461194
 20
0.1659945243226306
 10
0.1893509894687955
 20
0.1666664317082698
 10
0.1895963540497232
 20
0.1671296762226615
 10
0.1902112369746001
 20
0.1678588320545224
 10
0.1910588339620394
 20
0.168278508911158
 10
0.1918350355559402
 20
0.1684869791332537
 10
0.1928841665753018
 20
0.1687675470917109
 10
0.1942973930339265
 20
0.1689828581840591
 10
0.1953237042298626
 20
0.1689070541709516
 10
0.1963560045644868
 20
0.1686782680980454
 10
0.1971940329105428
 20
0.1682738440453861
 10
0.1977355668951071
 20
0.1678748730317383
  0
LWPOLYLINE
  5
261E
330
2
100
AcDbEntity
  8
Profilo
  6
Continuous
370
     0
100
AcDbPolyline
 90
       13
 70
   128
 43
0.0
 10
0.1952458733503852
 20
0.1625974871542124
 10
0.1938375048161816
 20
0.1631974904046785
 10
0.1928880104136757
 20
0.1638156670558346
 10
0.1920351021711277
 20
0.1646276591921736
 10
0.1916296616594919
 20
0.1652796379293799
 10
0.1912086304429042
 20
0.166016802181129
 10
0.1911576824250028
 20
0.1665357284590052
 10
0.191639376254598
 20
0.166910270699153
 10
0.1926381241107946
 20
0.1672256156441452
 10
0.1937436259272149
 20
0.1673184223761983
 10
0.1947369523835198
 20
0.1673026013176817
 10
0.195760902319186
 20
0.1671263958846407
 10
0.1967433716530702
 20
0.166922397687641
  0
LWPOLYLINE
  5
261F
330
2
100
AcDbEntity
  8
Profilo
  6
Continuous
370
     0
100
AcDbPolyline
 90
        2
 70
   128
 43
0.0
 10
0.1960367164293673
 20
0.1648343201281022
 10
0.1924226939381302
 20
0.1659974621828399
  0
LWPOLYLINE
  5
2620
330
2
100
AcDbEntity
  8
Profilo
  6
Continuous
370
     0
100
AcDbPolyline
 90
        7
 70
   128
 43
0.0
 10
0.1912328335611506
 20
0.1600201114904016
 10
0.1903942775765457
 20
0.160604931089392
 10
0.1899268467921043
 20
0.161188844737755
 10
0.1899988534603332
 20
0.1618288792426283
 10
0.1903658156194301
 20
0.162327523091482
 10
0.1909109024481031
 20
0.1625892885636389
 10
0.1915297927695536
 20
0.1625950314762803
  0
LWPOLYLINE
  5
2621
330
2
100
AcDbEntity
  8
Profilo
  6
Continuous
370
     0
100
AcDbPolyline
 90
       18
 70
   128
 43
0.0
 10
0.1961137232352805
 20
0.1537856316282213
 10
0.1942731179395456
 20
0.1532428314385616
 10
0.1928441117318322
 20
0.1533168301309389
 10
0.1915439921953293
 20
0.1537831940620111
 10
0.1902052457815535
 20
0.1544393470471781
 10
0.1892845377428496
 20
0.1549830413497646
 10
0.1887514787101927
 20
0.155417966907224
 10
0.1883888136515117
 20
0.1559864519754783
 10
0.1883907927380171
 20
0.1565106612284537
 10
0.1885963889178233
 20
0.1574420469966991
 10
0.1891518652176276
 20
0.1582075503588514
 10
0.1897422766531798
 20
0.1587528604400386
 10
0.190540849604345
 20
0.1594888465246673
 10
0.1916921394339348
 20
0.1603362541114452
 10
0.1926361207479972
 20
0.1607460835857499
 10
0.1936564994890948
 20
0.1610232374649176
 10
0.1945864819663803
 20
0.1610545889418131
 10
0.1952513975711248
 20
0.1609529810447943
  0
LWPOLYLINE
  5
2622
330
2
100
AcDbEntity
  8
Profilo
  6
Continuous
370
     0
100
AcDbPolyline
 90
       13
 70
   128
 43
0.0
 10
0.1954994069250238
 20
0.1551230696383219
 10
0.1939735231062794
 20
0.1549998446392364
 10
0.192845506552048
 20
0.1551059608293506
 10
0.1917129422480808
 20
0.1554285779353157
 10
0.1910509528771489
 20
0.1558174588361303
 10
0.1903355709400434
 20
0.1562745224022364
 10
0.1900493016446858
 20
0.1567103320773628
 10
0.1903017618907152
 20
0.1572658270452059
 10
0.1910395610949673
 20
0.1580091923987124
 10
0.1919753049007817
 20
0.1586051209896575
 10
0.1928622042094559
 20
0.1590527339597103
 10
0.1938507535977325
 20
0.1593725650593885
 10
0.1948154896786405
 20
0.1596485098919111
  0
LWPOLYLINE
  5
2623
330
2
100
AcDbEntity
  8
Profilo
  6
Continuous
370
     0
100
AcDbPolyline
 90
        2
 70
   128
 43
0.0
 10
0.1951601555796967
 20
0.1574712099776856
 10
0.1914195585227687
 20
0.1568216011227794
  0
LWPOLYLINE
  5
2624
330
2
100
AcDbEntity
  8
Profilo
  6
Continuous
370
     0
100
AcDbPolyline
 90
        7
 70
   128
 43
0.0
 10
0.1931438028564938
 20
0.1509759642460371
 10
0.192129519187962
 20
0.1511040998867821
 10
0.1914442715804356
 20
0.1514039038283292
 10
0.1912105914533835
 20
0.1520040894045631
 10
0.191303788957184
 20
0.1526161524237817
 10
0.1916647908935842
 20
0.1531012487184706
 10
0.1922101221933512
 20
0.1533939464884049
  0
LWPOLYLINE
  5
2625
330
2
100
AcDbEntity
  8
Profilo
  6
Continuous
370
     0
100
AcDbPolyline
 90
       18
 70
   128
 43
0.0
 10
0.2003629232865962
 20
0.1477238690170135
 10
0.1989854000625635
 20
0.1463878713868394
 10
0.1976856889981993
 20
0.1457893016771767
 10
0.1963177601951585
 20
0.1455980507550518
 10
0.1948274296196462
 20
0.1455568988895464
 10
0.1937595157979879
 20
0.1456104419256117
 10
0.193085395480828
 20
0.1457478244966333
 10
0.1925000833351462
 20
0.1460826541693527
 10
0.19225822354236
 20
0.146547738138461
 10
0.1920074333700055
 20
0.1474679845880016
 10
0.1921435360561046
 20
0.1484039468607174
 10
0.1924129011886531
 20
0.1491611728330944
 10
0.1927779726323569
 20
0.1501839715014994
 10
0.1934035792074993
 20
0.1514693447169448
 10
0.1940489758968433
 20
0.1522709206850794
 10
0.1948236765717257
 20
0.1529905219026708
 10
0.1956325654021991
 20
0.1534504666635903
 10
0.1962685384751777
 20
0.1536694990278993
  0
LWPOLYLINE
  5
2626
330
2
100
AcDbEntity
  8
Profilo
  6
Continuous
370
     0
100
AcDbPolyline
 90
       13
 70
   128
 43
0.0
 10
0.1991974347735561
 20
0.1486226245376545
 10
0.1979035972642529
 20
0.1478044006512857
 10
0.1968554735567962
 20
0.1473741464400411
 10
0.1957027100245692
 20
0.1471334808246136
 10
0.194935825581386
 20
0.147170175961183
 10
0.1940899783042656
 20
0.147242431086863
 10
0.1936339685771
 20
0.1474952854147449
 10
0.1935993596396739
 20
0.1481044759075911
 10
0.1939071892857327
 20
0.1491055656256477
 10
0.1944588074519626
 20
0.1500680960170162
 10
0.1950361016696855
 20
0.1508766002785209
 10
0.1957627857590301
 20
0.1516191984603643
 10
0.1964887791771557
 20
0.1523118706867739
  0
LWPOLYLINE
  5
2627
330
2
100
AcDbEntity
  8
Profilo
  6
Continuous
370
     0
100
AcDbPolyline
 90
        2
 70
   128
 43
0.0
 10
0.1978058073987126
 20
0.1505441415889028
 10
0.194795561482755
 20
0.1482305993843744
  0
LWPOLYLINE
  5
2628
330
2
100
AcDbEntity
  8
Profilo
  6
Continuous
370
     0
100
AcDbPolyline
 90
        7
 70
   128
 43
0.0
 10
0.1990389069297263
 20
0.1438558412842306
 10
0.198081255742284
 20
0.1434979386356363
 10
0.1973351732804276
 20
0.1434449514003897
 10
0.1968493396590527
 20
0.1438677927654886
 10
0.1966474220825858
 20
0.1444530586935273
 10
0.1967416379336293
 20
0.1450503560956799
 10
0.1970884813828913
 20
0.1455629551912057
  0
LWPOLYLINE
  5
2629
330
2
100
AcDbEntity
  8
Profilo
  6
Continuous
370
     0
100
AcDbPolyline
 90
       18
 70
   128
 43
0.0
 10
0.2069424446250969
 20
0.1443311465133372
 10
0.2063435774424369
 20
0.1425080123992042
 10
0.2054709096630511
 20
0.1413739993944385
 10
0.2043485475969207
 20
0.1405689469005513
 10
0.2030480496340909
 20
0.1398399175808271
 10
0.2020775762162645
 20
0.1393910432860728
 10
0.201416827455231
 20
0.1391994101792728
 10
0.2007429561813487
 20
0.1392238790135738
 10
0.200312664673072
 20
0.1395232925663614
 10
0.1996629411546942
 20
0.1402215823257795
 10
0.1993484907419183
 20
0.1411135858319477
 10
0.1992351012657969
 20
0.1419092563508051
 10
0.199083037733875
 20
0.1429845567541155
 10
0.1990396421275809
 20
0.1444134320849968
 10
0.1992386015885521
 20
0.1454231231526983
 10
0.1995901496087584
 20
0.1464203197418983
 10
0.2000926381095254
 20
0.1472034899850505
 10
0.2005539748840266
 20
0.1476929849356501
  0
LWPOLYLINE
  5
262A
330
2
100
AcDbEntity
  8
Profilo
  6
Continuous
370
     0
100
AcDbPolyline
 90
       13
 70
   128
 43
0.0
 10
0.2054927832819522
 20
0.1445853254859162
 10
0.2047273946630379
 20
0.1432595479439658
 10
0.203999276312476
 20
0.1423914893860334
 10
0.2030903977849152
 20
0.1416426746413726
 10
0.2023943022534538
 20
0.1413187776001323
 10
0.2016117630539429
 20
0.1409896715068624
 10
0.2010904792279491
 20
0.1410016446082065
 10
0.2007767295975493
 20
0.1415249724256857
 10
0.2005840696232508
 20
0.1425544489183239
 10
0.2006251930757341
 20
0.1436630769972029
 10
0.2007606310543735
 20
0.1446472539673818
 10
0.201058975277411
 20
0.1456424989372071
 10
0.2013799096898308
 20
0.1465932156980387
  0
LWPOLYLINE
  5
262B
330
2
100
AcDbEntity
  8
Profilo
  6
Continuous
370
     0
100
AcDbPolyline
 90
        2
 70
   128
 43
0.0
 10
0.2033675849382406
 20
0.1456400228493995
 10
0.2017773012252033
 20
0.142192551933102
  0
LWPOLYLINE
  5
262C
330
2
100
AcDbEntity
  8
Profilo
  6
Continuous
370
     0
100
AcDbPolyline
 90
        7
 70
   128
 43
0.0
 10
0.2075676484813749
 20
0.1402908769687472
 10
0.2068860161211181
 20
0.1395289272144127
 10
0.2062500173056745
 20
0.1391352875394012
 10
0.2056233288177025
 20
0.139283916832412
 10
0.2051725530443682
 20
0.1397083082983772
 10
0.2049783990940051
 20
0.1402809731713739
 10
0.2050472970384525
 20
0.1408960433171953
  0
LWPOLYLINE
  5
262D
330
2
100
AcDbEntity
  8
Profilo
  6
Continuous
370
     0
100
AcDbPolyline
 90
       18
 70
   128
 43
0.0
 10
0.2143449982039587
 20
0.144384695956044
 10
0.2146619803170879
 20
0.1424920834123529
 10
0.2144162734941504
 20
0.141082415825537
 10
0.213796597788352
 20
0.1398479895843052
 10
0.2129838608487895
 20
0.1385980946417544
 10
0.2123331515993461
 20
0.1377496347075868
 10
0.2118371439727071
 20
0.1372728867583048
 10
0.2112290893584405
 20
0.1369813892391289
 10
0.2107089407336455
 20
0.1370465403389773
 10
0.209809127697286
 20
0.1373629036396937
 10
0.2091161609856642
 20
0.1380066011258587
 10
0.2086459930633615
 20
0.1386584376641964
 10
0.208011630478413
 20
0.1395399014387881
 10
0.2073091741011113
 20
0.1407849407666135
 10
0.2070161171189215
 20
0.14177143887837
 10
0.2068639770696365
 20
0.1428177851181132
 10
0.2069449511808137
 20
0.1437447659790165
 10
0.2071259649615089
 20
0.1443925861217781
  0
LWPOLYLINE
  5
262E
330
2
100
AcDbEntity
  8
Profilo
  6
Continuous
370
     0
100
AcDbPolyline
 90
       13
 70
   128
 43
0.0
 10
0.2129432639741107
 20
0.1439360690411342
 10
0.2128816655542463
 20
0.1424064575011097
 10
0.2126403556999148
 20
0.1412994563508723
 10
0.2121835752945107
 20
0.1402140369107836
 10
0.2117177357721691
 20
0.1396037486005004
 10
0.2111777749502557
 20
0.1389486755280909
 10
0.2107106368678182
 20
0.13871702450967
 10
0.2101896228036764
 20
0.1390346015555823
 10
0.2095406092873282
 20
0.1398566241648749
 10
0.2090618171386915
 20
0.1408573765988108
 10
0.2087243716695464
 20
0.1417917631944126
 10
0.2085260289602151
 20
0.1428116563236368
 10
0.2083683821607232
 20
0.1438026198663622
  0
LWPOLYLINE
  5
262F
330
2
100
AcDbEntity
  8
Profilo
  6
Continuous
370
     0
100
AcDbPolyline
 90
        2
 70
   128
 43
0.0
 10
0.2105713519906582
 20
0.1438823282613586
 10
0.210765345314202
 20
0.1400907026736866
  0
LWPOLYLINE
  5
2630
330
2
100
AcDbEntity
  8
Profilo
  6
Continuous
370
     0
100
AcDbPolyline
 90
        7
 70
   128
 43
0.0
 10
0.2167761956044347
 20
0.1410977616617886
 10
0.2165267358305374
 20
0.1401063183079416
 10
0.2161465203255095
 20
0.1394622042988369
 10
0.2155225437511201
 20
0.1393025723399091
 10
0.214926177078151
 20
0.1394688663734187
 10
0.2144881316566001
 20
0.1398857080962155
 10
0.2142633004074708
 20
0.1404623441343236
  0
LWPOLYLINE
  5
2631
330
2
100
AcDbEntity
  8
Profilo
  6
Continuous
370
     0
100
AcDbPolyline
 90
       18
 70
   128
 43
0.0
 10
0.2208747482087063
 20
0.1478722498131533
 10
0.2220349628355547
 20
0.1463437335652089
 10
0.2224725054411141
 20
0.1449813492521472
 10
0.2224974763319429
 20
0.1436003414389861
 10
0.2223586886539599
 20
0.1421159167420805
 10
0.2221768132200501
 20
0.1410622431143671
 10
0.2219591760975281
 20
0.1404095975323476
 10
0.2215562361271544
 20
0.1398689122284131
 10
0.2210653901673099
 20
0.1396848755435029
 10
0.2201216239356776
 20
0.1395468373659141
 10
0.2192088912476877
 20
0.1397947654953913
 10
0.2184896546840656
 20
0.1401534401577575
 10
0.2175183178694042
 20
0.1406391345756615
 10
0.2163177250116175
 20
0.1414151143947779
 10
0.2155997874091677
 20
0.1421524247217749
 10
0.2149788127421952
 20
0.143008215298376
 10
0.2146197222707555
 20
0.143866646633128
 10
0.2144789449819409
 20
0.1445243841804245
  0
LWPOLYLINE
  5
2632
330
2
100
AcDbEntity
  8
Profilo
  6
Continuous
370
     0
100
AcDbPolyline
 90
       13
 70
   128
 43
0.0
 10
0.2198420615114842
 20
0.1468235920304184
 10
0.2204983647463199
 20
0.1454405620623222
 10
0.2207991445677471
 20
0.1443482189424894
 10
0.2208991051705778
 20
0.1431748513199751
 10
0.220770239877949
 20
0.1424179814377626
 10
0.2205965559506997
 20
0.1415870107326156
 10
0.2202905793168806
 20
0.1411648040510536
 10
0.2196816588621915
 20
0.1412038772513982
 10
0.2187249729789289
 20
0.1416301305040037
 10
0.2178359507403536
 20
0.1422937469707546
 10
0.2171029265137467
 20
0.1429642864833069
 10
0.216453334796467
 20
0.1437751825470683
 10
0.215853221766976
 20
0.144579375066455
  0
LWPOLYLINE
  5
2633
330
2
100
AcDbEntity
  8
Profilo
  6
Continuous
370
     0
100
AcDbPolyline
 90
        2
 70
   128
 43
0.0
 10
0.2177668123390632
 20
0.1456737244723842
 10
0.2197006411666371
 20
0.1424065599414317
  0
LWPOLYLINE
  5
2634
330
2
100
AcDbEntity
  8
Profilo
  6
Continuous
370
     0
100
AcDbPolyline
 90
        7
 70
   128
 43
0.0
 10
0.2245549811280365
 20
0.1460916478041914
 10
0.2247948421683827
 20
0.1450978385750115
 10
0.2247575127638774
 20
0.1443508089888854
 10
0.2242791936165305
 20
0.1439194855360344
 10
0.2236738564617071
 20
0.1437895861780718
 10
0.2230922704960263
 20
0.143955111335464
 10
0.2226252161829856
 20
0.1443612128987461
  0
LWPOLYLINE
  5
2635
330
2
100
AcDbEntity
  8
Profilo
  6
Continuous
370
     0
100
AcDbPolyline
 90
       18
 70
   128
 43
0.0
 10
0.2250358076052703
 20
0.1539948515255785
 10
0.2267734635569298
 20
0.1531805962251691
 10
0.2277940198530106
 20
0.1521776010134723
 10
0.2284579168103105
 20
0.1509663838754291
 10
0.2290248729783602
 20
0.1495874932329726
 10
0.2293534968300563
 20
0.1485699898416786
 10
0.2294640882536094
 20
0.1478909598645308
 10
0.2293585716183881
 20
0.1472249512630044
 10
0.2290094752175604
 20
0.1468338873799655
 10
0.2282379612607044
 20
0.1462730706070183
 10
0.2273145586555443
 20
0.1460684320332013
 10
0.2265110218795887
 20
0.1460517767769462
 10
0.2254252323935755
 20
0.1460304351002732
 10
0.2240015444103096
 20
0.1461595877856916
 10
0.2230231970402348
 20
0.1464788014175675
 10
0.2220756455682227
 20
0.146947985023322
 10
0.2213587538136648
 20
0.1475412105583493
 10
0.2209284358356567
 20
0.1480581857646919
  0
LWPOLYLINE
  5
2636
330
2
100
AcDbEntity
  8
Profilo
  6
Continuous
370
     0
100
AcDbPolyline
 90
       13
 70
   128
 43
0.0
 10
0.2246087445177847
 20
0.1525863977353477
 10
0.2258325982455305
 20
0.1516667848375541
 10
0.2266065627104168
 20
0.1508393423927168
 10
0.2272403645520291
 20
0.1498468309694823
 10
0.227477994974659
 20
0.1491167692840851
 10
0.2277103768366895
 20
0.1483002663204673
 10
0.2276356572108784
 20
0.1477842264383669
 10
0.2270783267035248
 20
0.1475358445938286
 10
0.2260331336598873
 20
0.1474686790064825
 10
0.2249375456123528
 20
0.1476431329709622
 10
0.2239768696446993
 20
0.1478962128790164
 10
0.2230248425534698
 20
0.148312345361465
 10
0.2221197419568921
 20
0.1487455360428913
  0
LWPOLYLINE
  5
2637
330
2
100
AcDbEntity
  8
Profilo
  6
Continuous
370
     0
100
AcDbPolyline
 90
        2
 70
   128
 43
0.0
 10
0.2233055727323321
 20
0.1506038241991949
 10
0.2265362201847023
 20
0.1486095887454017
  0
LWPOLYLINE
  5
2638
330
2
100
AcDbEntity
  8
Profilo
  6
Continuous
370
     0
100
AcDbPolyline
 90
        7
 70
   128
 43
0.0
 10
0.2291219790332506
 20
0.1541284962635854
 10
0.2297962116141359
 20
0.1533599908767766
 10
0.2301103200268577
 20
0.1526811811891275
 10
0.2298872354588402
 20
0.1520769772473911
 10
0.2294116032692277
 20
0.1516806428754092
 10
0.228819711095285
 20
0.1515569316486327
 10
0.2282174302328346
 20
0.1516994657629938
  0
LWPOLYLINE
  5
2639
330
2
100
AcDbEntity
  8
Profilo
  6
Continuous
370
     0
100
AcDbPolyline
 90
       18
 70
   128
 43
0.0
 10
0.2258749278320997
 20
0.1613498868263554
 10
0.2277919490710683
 20
0.1614364285499623
 10
0.2291617219092763
 20
0.1610225965552279
 10
0.2303124541409551
 20
0.1602586453418797
 10
0.2314552713294993
 20
0.1593011759826264
 10
0.2322191107027254
 20
0.1585529405924517
 10
0.232632595509989
 20
0.1580030838047421
 10
0.2328486747994352
 20
0.1573643264499593
 10
0.2327213017359857
 20
0.1568558233915662
 10
0.2322987846036724
 20
0.1560007043873663
 10
0.2315762524899756
 20
0.1553903793413558
 10
0.2308724960933897
 20
0.1550022096849699
 10
0.2299209952220891
 20
0.1544787210346503
 10
0.2286003618730104
 20
0.1539314592625991
 10
0.2275857323274306
 20
0.1537594482032332
 10
0.2265286766733836
 20
0.1537345405283372
 10
0.2256182148971937
 20
0.1539266594427091
 10
0.2249969368928606
 20
0.1541844395185499
  0
LWPOLYLINE
  5
263A
330
2
100
AcDbEntity
  8
Profilo
  6
Continuous
370
     0
100
AcDbPolyline
 90
       13
 70
   128
 43
0.0
 10
0.2261513233610244
 20
0.1599042968182611
 10
0.2276623574416905
 20
0.1596587732231174
 10
0.2287322006184138
 20
0.1592857885456262
 10
0.2297546473350347
 20
0.158701505727675
 10
0.2303043352068568
 20
0.1581655005730203
 10
0.2308895469740793
 20
0.1575505163399682
 10
0.2310632017220811
 20
0.1570588617753654
 10
0.2306851388647364
 20
0.1565799261732015
 10
0.2297908797910808
 20
0.1560347285725325
 10
0.228739711953009
 20
0.1556800547338759
 10
0.2277714635310981
 20
0.1554576974804411
 10
0.2267350989993502
 20
0.1553837354447869
 10
0.2257323584747159
 20
0.1553466855236523
  0
LWPOLYLINE
  5
263B
330
2
100
AcDbEntity
  8
Profilo
  6
Continuous
370
     0
100
AcDbPolyline
 90
        2
 70
   128
 43
0.0
 10
0.2259187699136658
 20
0.1575432010085209
 10
0.2297061335930164
 20
0.1572787499412089
  0
LWPOLYLINE
  5
263C
330
2
100
AcDbEntity
  8
Profilo
  6
Continuous
370
     0
100
AcDbPolyline
 90
        7
 70
   128
 43
0.0
 10
0.2294309451382843
 20
0.1633671619124448
 10
0.23038509070081
 20
0.1630000156906326
 10
0.2309786784788215
 20
0.1625449330203579
 10
0.2310619344762048
 20
0.1619062644313405
 10
0.2308249688544559
 20
0.1613342904736137
 10
0.2303583658362265
 20
0.1609496836138393
 10
0.2297588337116836
 20
0.1607959974314039
  0
LWPOLYLINE
  5
263D
330
2
100
AcDbEntity
  8
Profilo
  6
Continuous
370
     0
100
AcDbPolyline
 90
       18
 70
   128
 43
0.0
 10
0.223199876557723
 20
0.1682524057658576
 10
0.2248570966207635
 20
0.1692199188475452
 10
0.2262622875514171
 20
0.1694900539925501
 10
0.227636236171024
 20
0.1693483807202649
 10
0.2290931087346082
 20
0.1690316773356622
 10
0.2301171772342188
 20
0.168724121657283
 10
0.2307388310388814
 20
0.1684294036225817
 10
0.2312270050918204
 20
0.1679642291266643
 10
0.2313505349995739
 20
0.167454778815467
 10
0.2313738082749324
 20
0.1665012550385767
 10
0.2310176700524917
 20
0.1656250616331989
 10
0.2305749161445489
 20
0.1649543025670082
 10
0.2299756812707474
 20
0.1640485918841086
 10
0.2290606437407727
 20
0.1629502867313461
 10
0.2282421714209692
 20
0.1623264566414799
 10
0.2273177702963278
 20
0.1618131637340832
 10
0.2264223143191777
 20
0.1615601638997997
 10
0.2257524035920997
 20
0.1614996945363525
  0
LWPOLYLINE
  5
263E
330
2
100
AcDbEntity
  8
Profilo
  6
Continuous
370
     0
100
AcDbPolyline
 90
       13
 70
   128
 43
0.0
 10
0.2241164118183092
 20
0.167100846789507
 10
0.2255684665539488
 20
0.1675856589937799
 10
0.2266891002637297
 20
0.1677525783782952
 10
0.2278659616344005
 20
0.1677103763178489
 10
0.2286017800884363
 20
0.167491220015306
 10
0.2294057567975476
 20
0.1672186399892497
 10
0.2297880037093614
 20
0.1668640028778134
 10
0.2296758181464917
 20
0.1662642318926806
 10
0.2291373570196016
 20
0.1653659004786587
 10
0.2283714192747497
 20
0.1645633503390198
 10
0.2276174124433834
 20
0.1639164952911609
 10
0.2267341290957936
 20
0.1633693825484337
 10
0.2258634644129622
 20
0.1628705797151704
  0
LWPOLYLINE
  5
263F
330
2
100
AcDbEntity
  8
Profilo
  6
Continuous
370
     0
100
AcDbPolyline
 90
        2
 70
   128
 43
0.0
 10
0.2250077519012605
 20
0.1649021273019016
 10
0.2284841924313334
 20
0.1664280431736116
  0
LWPOLYLINE
  5
2640
330
2
100
AcDbEntity
  8
Profilo
  6
Continuous
370
     0
100
AcDbPolyline
 90
        7
 70
   128
 43
0.0
 10
0.2254110990319185
 20
0.1716911777886083
 10
0.2264265743264118
 20
0.1718094995066175
 10
0.2271636576632781
 20
0.171682397809136
 10
0.2275341812804066
 20
0.1711555758497911
 10
0.2275901681947166
 20
0.1705389946470004
 10
0.2273557474605012
 20
0.1699816009507891
 10
0.2268963096584531
 20
0.1695669021238317
  0
LWPOLYLINE
  5
2641
330
2
100
AcDbEntity
  8
Profilo
  6
Continuous
370
     0
100
AcDbPolyline
 90
       18
 70
   128
 43
0.0
 10
0.2176234757912367
 20
0.1731211244394175
 10
0.2186412455335742
 20
0.1747479632919666
 10
0.2197599422488463
 20
0.1756401808704724
 10
0.2210423521855058
 20
0.1761532411785827
 10
0.2224795281770295
 20
0.176549856697354
 10
0.2235292240511284
 20
0.176753438030238
 10
0.2242166334582811
 20
0.176781375098559
 10
0.2248650674823209
 20
0.1765963493325597
 10
0.2252112011481082
 20
0.1762026606953131
 10
0.2256749332042269
 20
0.1753691729518096
 10
0.2257667758478719
 20
0.1744278365369625
 10
0.2256864540131196
 20
0.1736281508795083
 10
0.2255767626248413
 20
0.1725477055664837
 10
0.225276944984691
 20
0.1711499655074955
 10
0.224842132035469
 20
0.1702172283427505
 10
0.2242621545976475
 20
0.1693331394220876
 10
0.2235868425924878
 20
0.1686929800522043
 10
0.2230217676169395
 20
0.1683281140518988
  0
LWPOLYLINE
  5
2642
330
2
100
AcDbEntity
  8
Profilo
  6
Continuous
370
     0
100
AcDbPolyline
 90
       13
 70
   128
 43
0.0
 10
0.2189701836007312
 20
0.1725274047785024
 10
0.2200306107505665
 20
0.1736314881488137
 10
0.2209453113155946
 20
0.17430007237594
 10
0.2220069825830104
 20
0.1748096190564561
 10
0.2227603644790146
 20
0.1749575176738172
 10
0.2235989247549273
 20
0.1750897866537806
 10
0.2241021956696305
 20
0.1749534100839019
 10
0.2242815877617077
 20
0.1743702040204691
 10
0.2242222795365936
 20
0.1733245356939794
 10
0.2239170389917562
 20
0.1722579638185713
 10
0.2235500076292332
 20
0.1713347976723054
 10
0.2230221550360159
 20
0.1704398711584409
 10
0.2224830249811789
 20
0.1695935851309227
  0
LWPOLYLINE
  5
2643
330
2
100
AcDbEntity
  8
Profilo
  6
Continuous
370
     0
100
AcDbPolyline
 90
        2
 70
   128
 43
0.0
 10
0.2207812219428011
 20
0.1709947617501997
 10
0.2231503286938063
 20
0.1739614756240022
  0
LWPOLYLINE
  5
2644
330
2
100
AcDbEntity
  8
Profilo
  6
Continuous
370
     0
100
AcDbPolyline
 90
        7
 70
   128
 43
0.0
 10
0.2179833390127244
 20
0.1771936121701123
 10
0.2188275108870212
 20
0.1777702957482785
 10
0.2195392328730832
 20
0.1780002924907413
 10
0.2201121416145653
 20
0.1777060057230622
 10
0.2204482551375837
 20
0.1771860685981577
 10
0.2204997196525142
 20
0.1765835802439892
 10
0.2202856278365846
 20
0.1760028712761037
  0
LWPOLYLINE
  5
2645
330
2
100
AcDbEntity
  8
Profilo
  6
Continuous
370
     0
100
AcDbPolyline
 90
       18
 70
   128
 43
0.0
 10
0.2104232117453288
 20
0.1748406780733425
 10
0.2105683723844485
 20
0.1767541535211676
 10
0.2111442949486277
 20
0.1780640572383265
 10
0.2120413815405659
 20
0.1791143151932908
 10
0.2131296212602201
 20
0.1801333897798201
 10
0.2139644718342573
 20
0.1808014700940253
 10
0.2145601596329034
 20
0.1811456622196945
 10
0.2152203052076129
 20
0.1812831723568018
 10
0.2157097475799641
 20
0.1810954347158362
 10
0.2165077029913633
 20
0.1805729250031409
 10
0.2170264864582596
 20
0.1797820944071309
 10
0.2173269974610563
 20
0.1790366805052801
 10
0.2177319785334322
 20
0.1780290175625665
 10
0.218116065391269
 20
0.1766520480002733
 10
0.2181645222192317
 20
0.1756240826043913
 10
0.2180618343097493
 20
0.1745717317877582
 10
0.2177613721185696
 20
0.1736910656791601
 10
0.217430584761559
 20
0.1731053894455541
  0
LWPOLYLINE
  5
2646
330
2
100
AcDbEntity
  8
Profilo
  6
Continuous
370
     0
100
AcDbPolyline
 90
       13
 70
   128
 43
0.0
 10
0.2118915775741645
 20
0.174940811747081
 10
0.2123174460577011
 20
0.1764112340889388
 10
0.2128166666018649
 20
0.1774283185695551
 10
0.2135199316731877
 20
0.1783728829872309
 10
0.2141182862980222
 20
0.1788539547336305
 10
0.2147993260872698
 20
0.1793607714903183
 10
0.2153083277033772
 20
0.1794738976906385
 10
0.2157382008840147
 20
0.1790408620296451
 10
0.2161716323603087
 20
0.1780874068026166
 10
0.2163970159457613
 20
0.1770011519545114
 10
0.2165010425140266
 20
0.1760131609485893
 10
0.2164495453429756
 20
0.1749754375428796
 10
0.2163654581144736
 20
0.1739755422511595
  0
LWPOLYLINE
  5
2647
330
2
100
AcDbEntity
  8
Profilo
  6
Continuous
370
     0
100
AcDbPolyline
 90
        2
 70
   128
 43
0.0
 10
0.2142074271165639
 20
0.1744253552255146
 10
0.2149264662826771
 20
0.1781532287056993
  0
LWPOLYLINE
  5
2648
330
2
100
AcDbEntity
  8
Profilo
  6
Continuous
370
     0
100
AcDbPolyline
 90
        7
 70
   128
 43
0.0
 10
0.2088492753868887
 20
0.1786139236516759
 10
0.2093287542379607
 20
0.1795168578320321
 10
0.2098520679433924
 20
0.1800512635325027
 10
0.2104961153208529
 20
0.180056929508424
 10
0.2110353558950613
 20
0.179752747790801
 10
0.2113609157589837
 20
0.1792431875998424
 10
0.2114412157841152
 20
0.1786295019172708
  0
LINE
  5
2649
330
2
100
AcDbEntity
  8
Profilo
  6
Continuous
370
     0
100
AcDbLine
 10
0.1812905145627268
 20
0.1929026219610566
 30
0.0
 11
0.1803385002234648
 21
0.1939940778302458
 31
0.0
  0
LINE
  5
264A
330
2
100
AcDbEntity
  8
Profilo
  6
Continuous
370
     0
100
AcDbLine
 10
0.1791978511429719
 20
0.1953017977691629
 30
0.0
 11
0.1725571565372861
 21
0.2029151548415826
 31
0.0
  0
LINE
  5
264B
330
2
100
AcDbEntity
  8
Profilo
  6
Continuous
370
     0
100
AcDbLine
 10
0.1885643214145438
 20
0.1871292513212421
 30
0.0
 11
0.1872712918737851
 21
0.1887626758194343
 31
0.0
  0
LINE
  5
264C
330
2
100
AcDbEntity
  8
Profilo
  6
Continuous
370
     0
100
AcDbLine
 10
0.1857161677001051
 20
0.1907271923621354
 30
0.0
 11
0.1771565799233055
 21
0.2015401242622459
 31
0.0
  0
LINE
  5
264D
330
2
100
AcDbEntity
  8
Profilo
  6
Continuous
370
     0
100
AcDbLine
 10
0.1860252295029281
 20
0.1941099169235714
 30
0.0
 11
0.179530069411268
 21
0.2033148440734345
 31
0.0
  0
LINE
  5
264E
330
2
100
AcDbEntity
  8
Profilo
  6
Continuous
370
     0
100
AcDbLine
 10
0.1880488167564054
 20
0.1952909601858548
 30
0.0
 11
0.1819977201341048
 21
0.2049561187816349
 31
0.0
  0
LINE
  5
264F
330
2
100
AcDbEntity
  8
Profilo
  6
Continuous
370
     0
100
AcDbLine
 10
0.1915417367415748
 20
0.1937928015431356
 30
0.0
 11
0.1845520379176739
 21
0.2064589638895007
 31
0.0
  0
LINE
  5
2650
330
2
100
AcDbEntity
  8
Profilo
  6
Continuous
370
     0
100
AcDbLine
 10
0.1940047110712713
 20
0.1936704125201323
 30
0.0
 11
0.1871852653828188
 21
0.2078188153058327
 31
0.0
  0
LINE
  5
2651
330
2
100
AcDbEntity
  8
Profilo
  6
Continuous
370
     0
100
AcDbLine
 10
0.19357699945204
 20
0.2001621518283154
 30
0.0
 11
0.1898894055042732
 21
0.2090315432065739
 31
0.0
  0
LINE
  5
2652
330
2
100
AcDbEntity
  8
Profilo
  6
Continuous
370
     0
100
AcDbLine
 10
0.1958047109068724
 20
0.2011618704745639
 30
0.0
 11
0.1926562458973637
 21
0.2100934645769477
 31
0.0
  0
LINE
  5
2653
330
2
100
AcDbEntity
  8
Profilo
  6
Continuous
370
     0
100
AcDbLine
 10
0.1972677466435964
 20
0.2048629276111806
 30
0.0
 11
0.1954773837587545
 21
0.2110013543966533
 31
0.0
  0
LINE
  5
2654
330
2
100
AcDbEntity
  8
Profilo
  6
Continuous
370
     0
100
AcDbLine
 10
0.1997096471989637
 20
0.2058860416361292
 30
0.0
 11
0.1983442513854805
 21
0.2117524554341492
 31
0.0
  0
LINE
  5
2655
330
2
100
AcDbEntity
  8
Profilo
  6
Continuous
370
     0
100
AcDbLine
 10
0.2024950679476078
 20
0.2052324070825464
 30
0.0
 11
0.2012481421947831
 21
0.2123444866202688
 31
0.0
  0
LINE
  5
2656
330
2
100
AcDbEntity
  8
Profilo
  6
Continuous
370
     0
100
AcDbLine
 10
0.2051095225125468
 20
0.2049666879004124
 30
0.0
 11
0.2041802371657178
 21
0.2127756499757596
 31
0.0
  0
LINE
  5
2657
330
2
100
AcDbEntity
  8
Profilo
  6
Continuous
370
     0
100
AcDbLine
 10
0.2080968350382624
 20
0.1978240948814176
 30
0.0
 11
0.2080546753062307
 21
0.198488922551205
 31
0.0
  0
LINE
  5
2658
330
2
100
AcDbEntity
  8
Profilo
  6
Continuous
370
     0
100
AcDbLine
 10
0.2079275042918822
 20
0.2004943150207485
 30
0.0
 11
0.2071316316222238
 21
0.2130446360716802
 31
0.0
  0
LINE
  5
2659
330
2
100
AcDbEntity
  8
Profilo
  6
Continuous
370
     0
100
AcDbLine
 10
0.2102229188903784
 20
0.1973784504445191
 30
0.0
 11
0.2100933622763397
 21
0.2131506280060997
 31
0.0
  0
LINE
  5
265A
330
2
100
AcDbEntity
  8
Profilo
  6
Continuous
370
     0
100
AcDbLine
 10
0.2124186446199556
 20
0.1995048086791527
 30
0.0
 11
0.2130564344494119
 21
0.2130933038849956
 31
0.0
  0
LINE
  5
265B
330
2
100
AcDbEntity
  8
Profilo
  6
Continuous
370
     0
100
AcDbLine
 10
0.2146889250882089
 20
0.1999502037724858
 30
0.0
 11
0.2160118493886363
 21
0.2128728377998397
 31
0.0
  0
LINE
  5
265C
330
2
100
AcDbEntity
  8
Profilo
  6
Continuous
370
     0
100
AcDbLine
 10
0.2161099129810196
 20
0.1945604909991858
 30
0.0
 11
0.2189506315959773
 21
0.2124898992988871
 31
0.0
  0
LINE
  5
265D
330
2
100
AcDbEntity
  8
Profilo
  6
Continuous
370
     0
100
AcDbLine
 10
0.2179629779957781
 20
0.1938436504694274
 30
0.0
 11
0.2197446476217313
 21
0.2021114774547628
 31
0.0
  0
LINE
  5
265E
330
2
100
AcDbEntity
  8
Profilo
  6
Continuous
370
     0
100
AcDbLine
 10
0.2200268409670341
 20
0.2034209939450178
 30
0.0
 11
0.221863856086459
 21
0.2119456513537794
 31
0.0
  0
LINE
  5
265F
330
2
100
AcDbEntity
  8
Profilo
  6
Continuous
370
     0
100
AcDbLine
 10
0.2219402704393203
 20
0.2017954374288045
 30
0.0
 11
0.2219966259442052
 21
0.2020050481968663
 31
0.0
  0
LINE
  5
2660
330
2
100
AcDbEntity
  8
Profilo
  6
Continuous
370
     0
100
AcDbLine
 10
0.2231549802957358
 20
0.2063134746019046
 30
0.0
 11
0.2253451692818849
 21
0.2144597452551618
 31
0.0
  0
LWPOLYLINE
  5
2661
330
2
100
AcDbEntity
  8
Profilo
  6
Continuous
370
     0
100
AcDbPolyline
 90
      147
 70
   128
 43
0.0
 10
0.1983459154326153
 20
0.1765365021258218
 10
0.1984201240294028
 20
0.177871611357522
 10
0.1974554122711631
 20
0.1784649951004229
 10
0.1960454515811798
 20
0.1786875119090969
 10
0.1950807424719234
 20
0.1786875119090969
 10
0.1941160307136838
 20
0.1800226228167285
 10
0.1941160307136838
 20
0.180616004883698
 10
0.19337394739479
 20
0.1809126967551493
 10
0.1922608210919576
 20
0.1818027706935692
 10
0.1920381953015942
 20
0.1824703261473855
 10
0.1920381953015942
 20
0.1835087451835658
 10
0.1922608210919576
 20
0.1843988174460551
 10
0.1924092356365503
 20
0.1846213359306597
 10
0.1916671523176556
 20
0.184918027802111
 10
0.1909250663497795
 20
0.1849922011889569
 10
0.1902571916276732
 20
0.1852147196735614
 10
0.1892924798694335
 20
0.1857339283536859
 10
0.1886246051473273
 20
0.1862531387097417
 10
0.1886246051473273
 20
0.1869206941635579
 10
0.1886246051473273
 20
0.1875882479414419
 10
0.1885503965505397
 20
0.1877365947151328
 10
0.1879567277762377
 20
0.1883299767821032
 10
0.1865467670862553
 20
0.189220050720524
 10
0.1858788897151658
 20
0.1900359512720988
 10
0.185582057976998
 20
0.1912968887928845
 10
0.185582057976998
 20
0.1929286898960352
 10
0.1860273069087417
 20
0.194115454029975
 10
0.1864725584894678
 20
0.1949313562574822
 10
0.1873630590019366
 20
0.1951538747420867
 10
0.1884761879537513
 20
0.1953763932266921
 10
0.1898119400469471
 20
0.1949313562574822
 10
0.1903314002244607
 20
0.194115454029975
 10
0.1905540260148233
 20
0.193818763834456
 10
0.1912219007369296
 20
0.193892937221301
 10
0.1913703179305055
 20
0.1936704187366964
 10
0.1918897781080191
 20
0.1940412823190614
 10
0.1924834442333379
 20
0.1940412823190614
 10
0.193077113007639
 20
0.1939671089322155
 10
0.19337394739479
 20
0.1937445904476101
 10
0.1935965731851526
 20
0.1935962453498505
 10
0.1938934075723036
 20
0.1935962453498505
 10
0.1941160307136838
 20
0.1937445904476101
 10
0.1941902393104713
 20
0.1940412823190614
 10
0.1941902393104713
 20
0.1944863192882713
 10
0.1939676161690911
 20
0.1949313562574822
 10
0.1939676161690911
 20
0.1953022198398462
 10
0.1939676161690911
 20
0.1956730834222111
 10
0.1939676161690911
 20
0.1964148122628724
 10
0.1940418221168962
 20
0.1970081943298427
 10
0.1943386565040473
 20
0.1972307128144473
 10
0.1947096994879849
 20
0.1973048845253618
 10
0.1947096994879849
 20
0.1976757497836581
 10
0.1943386565040473
 20
0.198046613366023
 10
0.1938934075723036
 20
0.1983433035615421
 10
0.1934481559915775
 20
0.1990850324022033
 10
0.193522364588365
 20
0.1997525878560187
 10
0.1936707817819401
 20
0.2008651802790449
 10
0.1942644479072588
 20
0.2010876987636503
 10
0.195154951068711
 20
0.2011618704745639
 10
0.1959712429843932
 20
0.2011618704745639
 10
0.1962680773715433
 20
0.2011618704745639
 10
0.1964907031619068
 20
0.2016810808306197
 10
0.1964907031619068
 20
0.2025711547690414
 10
0.1964907031619068
 20
0.2033128819337704
 10
0.1967875375490569
 20
0.2042029558721912
 10
0.1973812036743756
 20
0.2050188564237669
 10
0.1980490810454652
 20
0.2055380651038905
 10
0.1986427498197654
 20
0.2057605835884959
 10
0.1999042933161737
 20
0.2059089303621877
 10
0.201017419619006
 20
0.2059831020731013
 10
0.2019079227804581
 20
0.2057605835884959
 10
0.2026500060993519
 20
0.2050930298106119
 10
0.203540509260804
 20
0.2050188564237669
 10
0.2044310097732729
 20
0.2050188564237669
 10
0.2053957215315125
 20
0.204944683036921
 10
0.2056183446728936
 20
0.204647992841402
 10
0.2059151790600437
 20
0.2040546090985003
 10
0.2065830564311333
 20
0.2040546090985003
 10
0.2071025166086469
 20
0.2037579189029812
 10
0.2075477655403897
 20
0.2033128819337704
 10
0.2076219741371772
 20
0.2027194998668
 10
0.2076219741371772
 20
0.2021261177998306
 10
0.2070283080118584
 20
0.2013843889591693
 10
0.2066572650279208
 20
0.2006426617944395
 10
0.2065830564311333
 20
0.200345969922989
 10
0.2064346392375573
 20
0.1999751063406241
 10
0.2066572650279208
 20
0.1999751063406241
 10
0.2071767252054344
 20
0.2002717965361431
 10
0.2073993483468146
 20
0.2004943150207485
 10
0.2078445999275407
 20
0.2004943150207485
 10
0.2083640601050543
 20
0.2004943150207485
 10
0.2085866858954168
 20
0.200345969922989
 10
0.2085124772986293
 20
0.1998267595669332
 10
0.2085124772986293
 20
0.1992333774999628
 10
0.2082156429114792
 20
0.1987141688198384
 10
0.2078445999275407
 20
0.1981949584637825
 10
0.2079188085243282
 20
0.1978240948814176
 10
0.2080672257179033
 20
0.1978240948814176
 10
0.208957726230373
 20
0.1978240948814176
 10
0.2095513950046741
 20
0.1977499214945717
 10
0.2096998121982492
 20
0.1976757497836581
 10
0.2102192723757628
 20
0.1973790579122077
 10
0.2106645213075065
 20
0.1973048845253618
 10
0.210887147097869
 20
0.1973048845253618
 10
0.2117776502593212
 20
0.1974532312990527
 10
0.2115550244689586
 20
0.1985658220461475
 10
0.2119260674528971
 20
0.1990108590153574
 10
0.2122229018400481
 20
0.1994558959845683
 10
0.212816567965366
 20
0.1996042427582592
 10
0.2137812797236056
 20
0.2000492780515377
 10
0.2145975716392869
 20
0.1999751063406241
 10
0.2154138662039515
 20
0.1997525878560187
 10
0.2163043667164213
 20
0.198788340530752
 10
0.2167496182971473
 20
0.1976757497836581
 10
0.2166754097003589
 20
0.1967115024583914
 10
0.2163043667164213
 20
0.1955989100353652
 10
0.2159333237324827
 20
0.1950055279683958
 10
0.2154138662039515
 20
0.1942638008036659
 10
0.2158591151356952
 20
0.1945604909991858
 10
0.2166012011035723
 20
0.1945604909991858
 10
0.2173432844224661
 20
0.1944121459014254
 10
0.2177143274064046
 20
0.1940412823190614
 10
0.2177143274064046
 20
0.1930028632828802
 10
0.2174174930192536
 20
0.1924094812159107
 10
0.2170464526842983
 20
0.1919644442466999
 10
0.2163785753132088
 20
0.191816097473009
 10
0.2157106979421193
 20
0.1916677523752495
 10
0.2145233630424994
 20
0.1912227154060386
 10
0.2137070711268181
 20
0.1907776784368287
 10
0.213113402352517
 20
0.1903326414676179
 10
0.2126681507717909
 20
0.1893683958182835
 10
0.2122971077878524
 20
0.1889975322359185
 10
0.212964985158941
 20
0.189516740916043
 10
0.2137812797236056
 20
0.1895909143028889
 10
0.2148201974296504
 20
0.1895909143028889
 10
0.2157106979421193
 20
0.1895909143028889
 10
0.2164527839099963
 20
0.1887008403644672
 10
0.2162301581196337
 20
0.1875140762305274
 10
0.2158591151356952
 20
0.1867723473898661
 10
0.2152654490103765
 20
0.1861047919360508
 10
0.2137070711268181
 20
0.1860306202251372
 10
0.2125197335782158
 20
0.1859564468382913
 10
0.2120002760496846
 20
0.1852888913844759
 10
0.2116292330657461
 20
0.1838054353790848
 10
0.2115550244689586
 20
0.1827670163429045
 10
0.2113323986785951
 20
0.1809868701419943
 10
0.211480815872171
 20
0.1799484494298826
  0
LWPOLYLINE
  5
2662
330
2
100
AcDbEntity
  8
Profilo
  6
Continuous
370
     0
100
AcDbPolyline
 90
       13
 70
   128
 43
0.0
 10
0.2030304476733309
 20
0.1796851706094853
 10
0.2011617414855791
 20
0.1841391737215967
 10
0.2003711367535579
 20
0.1850730783027523
 10
0.1992930352978273
 20
0.1860788200219123
 10
0.1971368350353502
 20
0.1876592739284839
 10
0.1950525096160454
 20
0.1883058232538999
 10
0.1934712948540374
 20
0.1885931768337081
 10
0.1919619549352007
 20
0.1890960485312534
 10
0.1909557283226442
 20
0.1894552426009288
 10
0.190236995784812
 20
0.1898862754845392
 10
0.1898776295158959
 20
0.1904609859960202
 10
0.1895901354411707
 20
0.1913230517632409
 10
0.1896620102843429
 20
0.1924724711102708
  0
LWPOLYLINE
  5
2663
330
2
100
AcDbEntity
  8
Profilo
  6
Continuous
370
     0
100
AcDbPolyline
 90
       12
 70
   128
 43
0.0
 10
0.2049710287042559
 20
0.1813374616540604
 10
0.2045397875921666
 20
0.1853604335584929
 10
0.2038210550543353
 20
0.1877311127424188
 10
0.2030304476733309
 20
0.1906046636238909
 10
0.2024554621728618
 20
0.1916104053430501
 10
0.2018086018292204
 20
0.1937655697611018
 10
0.2010898692913892
 20
0.1957770548753524
 10
0.200946122254027
 20
0.1978603788035387
 10
0.200730503022474
 20
0.2008776073128797
 10
0.2010898692913892
 20
0.2023862224055164
 10
0.2015211077544952
 20
0.2036793193804161
 10
0.2020960959039466
 20
0.2042540298918962
  0
LWPOLYLINE
  5
2664
330
2
100
AcDbEntity
  8
Profilo
  6
Continuous
370
     0
100
AcDbPolyline
 90
       10
 70
   128
 43
0.0
 10
0.2084928218482065
 20
0.1802598794450341
 10
0.2077022144672012
 20
0.1824150438630867
 10
0.2077740893103743
 20
0.1862943364637171
 10
0.2086365688855687
 20
0.188233984439965
 10
0.2100740339612321
 20
0.1908920188796306
 10
0.2117989957606032
 20
0.1925443099242057
 10
0.2131645886420768
 20
0.1944839562245213
 10
0.2137395741425458
 20
0.1957052160614174
 10
0.2135958271051828
 20
0.1974293459199274
 10
0.2128052223731607
 20
0.1981477340592783
  0
LWPOLYLINE
  5
2665
330
2
100
AcDbEntity
  8
Profilo
  6
Continuous
370
     0
100
AcDbPolyline
 90
        4
 70
   128
 43
0.0
 10
0.2074147230414582
 20
0.1902454695542155
 10
0.2082053277734803
 20
0.1920414382266604
 10
0.2085646940423955
 20
0.1939810862029074
 10
0.2085646940423955
 20
0.1957052160614174
  0
LWPOLYLINE
  5
2666
330
2
100
AcDbEntity
  8
Profilo
  6
Continuous
370
     0
100
AcDbPolyline
 90
        5
 70
   128
 43
0.0
 10
0.2064803686230916
 20
0.1915385665291143
 10
0.2064803686230916
 20
0.1938374085750376
 10
0.2065522408172815
 20
0.1957052160614174
 10
0.2071991011609229
 20
0.1969264758983136
 10
0.2076303422730112
 20
0.1974293459199274
  0
LWPOLYLINE
  5
2667
330
2
100
AcDbEntity
  8
Profilo
  6
Continuous
370
     0
100
AcDbPolyline
 90
        5
 70
   128
 43
0.0
 10
0.2044679153979767
 20
0.1927598263660113
 10
0.2045397875921666
 20
0.1949149891081317
 10
0.2048991565100651
 20
0.1964236042007683
 10
0.2056897612420871
 20
0.1981477340592783
 10
0.2068397348920077
 20
0.1992971550822396
  0
LWPOLYLINE
  5
2668
330
2
100
AcDbEntity
  8
Profilo
  6
Continuous
370
     0
100
AcDbPolyline
 90
        5
 70
   128
 43
0.0
 10
0.2036773080169723
 20
0.1946276338523911
 10
0.2036054358227823
 20
0.1973575071059925
 10
0.2038210550543353
 20
0.1995126715240452
 10
0.2040366742858883
 20
0.2008776073128797
 10
0.2047554094727029
 20
0.2023143835915815
  0
LWPOLYLINE
  5
2669
330
2
100
AcDbEntity
  8
Profilo
  6
Continuous
370
     0
100
AcDbPolyline
 90
        6
 70
   128
 43
0.0
 10
0.2037491828601454
 20
0.1818403333516057
 10
0.2026710814044148
 20
0.1870845634170029
 10
0.2013773633661153
 20
0.1913230517632409
 10
0.1994367823351904
 20
0.1949868279220666
 10
0.1978555702221647
 20
0.1975730235477982
 10
0.1953400036907707
 20
0.1992971550822396
  0
LWPOLYLINE
  5
266A
330
2
100
AcDbEntity
  8
Profilo
  6
Continuous
370
     0
100
AcDbPolyline
 90
        3
 70
   128
 43
0.0
 10
0.1995086545293803
 20
0.1924724711102708
 10
0.1977118231848016
 20
0.1945557950384562
 10
0.1958431169970498
 20
0.1954896996196127
  0
LWPOLYLINE
  5
266B
330
2
100
AcDbEntity
  8
Profilo
  6
Continuous
370
     0
100
AcDbPolyline
 90
        4
 70
   128
 43
0.0
 10
0.2013054885229422
 20
0.1871564022309387
 10
0.1981430616479076
 20
0.1896707590427345
 10
0.1966337217290719
 20
0.1904609859960202
 10
0.1951962566534085
 20
0.1921851158545302
  0
LWPOLYLINE
  5
266C
330
2
100
AcDbEntity
  8
Profilo
  6
Continuous
370
     0
100
AcDbPolyline
 90
        3
 70
   128
 43
0.0
 10
0.1947650155413201
 20
0.1901736307402797
 10
0.1936869167345718
 20
0.1911075353214362
 10
0.1933994226598466
 20
0.1926879875520764
  0
LWPOLYLINE
  5
266D
330
2
100
AcDbEntity
  8
Profilo
  6
Continuous
370
     0
100
AcDbPolyline
 90
        5
 70
   128
 43
0.0
 10
0.2005148811419377
 20
0.177961039075043
 10
0.198789921991549
 20
0.1814811392819311
 10
0.1973524569158855
 20
0.1824150438630867
 10
0.1960587362286028
 20
0.1829179138847006
 10
0.1944775214665939
 20
0.1829179138847006
  0
LWPOLYLINE
  5
266E
330
2
100
AcDbEntity
  8
Profilo
  6
Continuous
370
     0
100
AcDbPolyline
 90
        7
 70
   128
 43
0.0
 10
0.2019523488665835
 20
0.1790386212840693
 10
0.1999398956414686
 20
0.1832052691404411
 10
0.1982149364910808
 20
0.1852885947445579
 10
0.1967055965722442
 20
0.1860069812079774
 10
0.1946931433471293
 20
0.1865098529055227
 10
0.1931119285851213
 20
0.1868690469751981
 10
0.1908119839342635
 20
0.187012724603068
  0
LWPOLYLINE
  5
266F
330
2
100
AcDbEntity
  8
Profilo
  6
Continuous
370
     0
100
AcDbPolyline
 90
       77
 70
   128
 43
0.0
 10
0.2157448327310898
 20
0.1814065737270583
 10
0.2176243494165742
 20
0.1880165021302314
 10
0.2172762890051261
 20
0.1886427056443512
 10
0.2173459016172123
 20
0.1894776447804669
 10
0.2180420171421438
 20
0.1897559567085501
 10
0.2181812423663163
 20
0.1903125822406504
 10
0.2181812423663163
 20
0.1913562553228281
 10
0.2182508523294202
 20
0.1923999284050058
 10
0.218529300128782
 20
0.1934436014871843
 10
0.218529300128782
 20
0.1939306473613303
 10
0.2183204649415065
 20
0.1949743204435088
 10
0.2185989127408692
 20
0.1953222120295455
 10
0.2190165804664379
 20
0.1953222120295455
 10
0.2199911437907329
 20
0.1952526340475242
 10
0.2200607564028192
 20
0.1963658851117232
 10
0.2200607564028192
 20
0.1970616666078642
 10
0.2200607564028192
 20
0.1986619652221422
 10
0.2199911437907329
 20
0.1994969026823257
 10
0.2200607564028192
 20
0.2002622638364193
 10
0.2200607564028192
 20
0.2015146708646598
 10
0.2194342508409908
 20
0.2026974999108799
 10
0.2197126986403526
 20
0.2034628593890422
 10
0.2207568719277506
 20
0.2033237034250006
 10
0.221801047864131
 20
0.2026974999108799
 10
0.2219402704393203
 20
0.2020017184147389
 10
0.2219402704393203
 20
0.2017234048107235
 10
0.2220794930145105
 20
0.2024191863068645
 10
0.2221491056265967
 20
0.2034628593890422
 10
0.2221491056265967
 20
0.2043673765071783
 10
0.2224971633890633
 20
0.2056197835354196
 10
0.2228452238005114
 20
0.2058285191574138
 10
0.2236135479404155
 20
0.2070314091065337
 10
0.224309663465347
 20
0.2077271906026747
 10
0.2250057816392625
 20
0.2083533941167954
 10
0.2254930619769175
 20
0.2090491756129373
 10
0.225701897164194
 20
0.2096058011450368
 10
0.225701897164194
 20
0.210371160623199
 10
0.225701897164194
 20
0.2112060997593139
 10
0.2263284027260215
 20
0.2114148337053767
 10
0.2266764604884881
 20
0.2113452557233564
 10
0.2273725760134195
 20
0.2107190522092357
 10
0.2273725760134195
 20
0.2098145350910996
 10
0.2272333534382294
 20
0.2086317060448795
 10
0.2267460731005735
 20
0.2076576126206544
 10
0.2263980126891254
 20
0.2070314091065337
 10
0.2259803449635558
 20
0.205987736024356
 10
0.2259803449635558
 20
0.2050832189062199
 10
0.2259803449635558
 20
0.2041787017880838
 10
0.2259107323514704
 20
0.2032046083638588
 10
0.2250753916023656
 20
0.2025784048497381
 10
0.2246577212278136
 20
0.2020913572996599
 10
0.2245881112647097
 20
0.2018130436956445
 10
0.2246577212278136
 20
0.2014651537855392
 10
0.225284226789642
 20
0.2014651537855392
 10
0.2257715097762802
 20
0.2014651537855392
 10
0.2264676253012117
 20
0.2012564181635441
 10
0.2265372379132979
 20
0.2004214807033615
 10
0.2265372379132979
 20
0.1994473856032042
 10
0.2259107323514704
 20
0.1993082296391617
 10
0.2254234493648313
 20
0.1979166649709474
 10
0.2250753916023656
 20
0.1970121495287436
 10
0.2241008282780714
 20
0.1963859460146229
 10
0.2236831579035194
 20
0.1961076324106075
 10
0.2231958775658636
 20
0.1948552253823661
 10
0.2230566549906734
 20
0.1936028183541256
 10
0.2230566549906734
 20
0.192559145271948
 10
0.2227782071913116
 20
0.1920720977218688
 10
0.2220820916663793
 20
0.191863363775806
 10
0.2215251987166371
 20
0.191445894207749
 10
0.221594808679741
 20
0.1904022211255705
 10
0.2216644212918273
 20
0.18914981409733
 10
0.2215251987166371
 20
0.1881757189971727
 10
0.2209683031179126
 20
0.1873407815369901
 10
0.2202025749808949
 20
0.186853733986911
 10
0.219715294643239
 20
0.1863666864368327
 10
0.2190191791183076
 20
0.1854621693186966
 10
0.2173484976200988
 20
0.180452541205733
  0
LWPOLYLINE
  5
2670
330
2
100
AcDbEntity
  8
Profilo
  6
Continuous
370
     0
100
AcDbPolyline
 90
        3
 70
   128
 43
0.0
 10
0.2194368468438763
 20
0.1872712035549688
 10
0.2188799538941342
 20
0.1878974070690886
 10
0.2179750031819263
 20
0.1878974070690886
  0
LWPOLYLINE
  5
2671
330
2
100
AcDbEntity
  8
Profilo
  6
Continuous
370
     0
100
AcDbPolyline
 90
        5
 70
   128
 43
0.0
 10
0.2195064594559635
 20
0.1920025197398485
 10
0.2202025749808949
 20
0.1931853487860686
 10
0.220550635392343
 20
0.1937419743181672
 10
0.2206202453554469
 20
0.1944377558143091
 10
0.2204114101681704
 20
0.1948552253823661
  0
LWPOLYLINE
  5
2672
330
2
100
AcDbEntity
  8
Profilo
  6
Continuous
370
     0
100
AcDbPolyline
 90
        5
 70
   128
 43
0.0
 10
0.2215251987166371
 20
0.1984732905030477
 10
0.2220820916663793
 20
0.2000735891173249
 10
0.2222213142415694
 20
0.200978106235461
 10
0.2229174297665017
 20
0.201673887731602
 10
0.2233351001410537
 20
0.2020913572996599
  0
LWPOLYLINE
  5
2673
330
2
100
AcDbEntity
  8
Profilo
  6
Continuous
370
     0
100
AcDbPolyline
 90
        5
 70
   128
 43
0.0
 10
0.2225693720040351
 20
0.2034829202919428
 10
0.2232654901779498
 20
0.2030654523998163
 10
0.2238223831276911
 20
0.2029262947598434
 10
0.2241704408901577
 20
0.2029262947598434
 10
0.2250057816392625
 20
0.2029262947598434
  0
LWPOLYLINE
  5
2674
330
2
100
AcDbEntity
  8
Profilo
  6
Continuous
370
     0
100
AcDbPolyline
 90
       25
 70
   128
 43
0.0
 10
0.1700415184833637
 20
0.2051843463032026
 10
0.1719989841289791
 20
0.2054827995789101
 10
0.1740273630371045
 20
0.2052622419344376
 10
0.1751534243216644
 20
0.2051756633008694
 10
0.1764527264151527
 20
0.2052622419344376
 10
0.1773189278108114
 20
0.2061280265941847
 10
0.1799175319977873
 20
0.2078595975896094
 10
0.1830358586115488
 20
0.2095045899514676
 10
0.1868471458120395
 20
0.211322737904529
 10
0.1900520915057737
 20
0.2123616798314116
 10
0.191697872568136
 20
0.2128811516328182
 10
0.1932570371995079
 20
0.2137469362925652
 10
0.1943830984840678
 20
0.2148724568530151
 10
0.1972415625599449
 20
0.2153053500208544
 10
0.1987141054623618
 20
0.2153053500208544
 10
0.2011394714893915
 20
0.2153053500208544
 10
0.2068564022901289
 20
0.2159979774134659
 10
0.2099747262549072
 20
0.2159979774134659
 10
0.2136127726464703
 20
0.2159979774134659
 10
0.2185501211315226
 20
0.2157382415127622
 10
0.2220149293631404
 20
0.2153919269784912
 10
0.2240071920433588
 20
0.2156516628791949
 10
0.2251332533279187
 20
0.2166040261725093
 10
0.2262593146124785
 20
0.2174698125081877
 10
0.2276452384349219
 20
0.2179892826336638
  0
LINE
  5
2675
330
2
100
AcDbEntity
  8
Profilo
  6
Continuous
370
     0
100
AcDbLine
 10
0.1668766771870707
 20
0.1508120596454208
 30
0.0
 11
0.1654554415076119
 21
0.1505333189774469
 31
0.0
  0
LINE
  5
2676
330
2
100
AcDbEntity
  8
Profilo
  6
Continuous
370
     0
100
AcDbLine
 10
0.1637525982792281
 20
0.1501993478663954
 30
0.0
 11
0.1538388903435872
 21
0.1482550161753067
 31
0.0
  0
LINE
  5
2677
330
2
100
AcDbEntity
  8
Profilo
  6
Continuous
370
     0
100
AcDbLine
 10
0.1755134662525219
 20
0.1542246758414074
 30
0.0
 11
0.1734523643715442
 21
0.1539215916603633
 31
0.0
  0
LINE
  5
2678
330
2
100
AcDbEntity
  8
Profilo
  6
Continuous
370
     0
100
AcDbLine
 10
0.1709734810525698
 20
0.153557072891267
 30
0.0
 11
0.157329413449284
 21
0.1515507183806917
 31
0.0
  0
LINE
  5
2679
330
2
100
AcDbEntity
  8
Profilo
  6
Continuous
370
     0
100
AcDbLine
 10
0.1681984865497728
 20
0.1555160905445692
 30
0.0
 11
0.1569792057521764
 21
0.1544935804784768
 31
0.0
  0
LINE
  5
267A
330
2
100
AcDbEntity
  8
Profilo
  6
Continuous
370
     0
100
AcDbLine
 10
0.1681874667084053
 20
0.1578590901439969
 30
0.0
 11
0.1567916455217042
 21
0.1574512660462211
 31
0.0
  0
LINE
  5
267B
330
2
100
AcDbEntity
  8
Profilo
  6
Continuous
370
     0
100
AcDbLine
 10
0.1712313701444841
 20
0.1601349682631805
 30
0.0
 11
0.1567673023721237
 21
0.1604147926900628
 31
0.0
  0
LINE
  5
267C
330
2
100
AcDbEntity
  8
Profilo
  6
Continuous
370
     0
100
AcDbLine
 10
0.1725688493123978
 20
0.1622067720900646
 30
0.0
 11
0.15690625023278
 21
0.1633751602769879
 31
0.0
  0
LINE
  5
267D
330
2
100
AcDbEntity
  8
Profilo
  6
Continuous
370
     0
100
AcDbLine
 10
0.1667329823471495
 20
0.1650822326164092
 30
0.0
 11
0.1572080671235878
 21
0.1663233782679305
 31
0.0
  0
LINE
  5
267E
330
2
100
AcDbEntity
  8
Profilo
  6
Continuous
370
     0
100
AcDbLine
 10
0.1669810563302776
 20
0.1675113466517186
 30
0.0
 11
0.1576718364365672
 21
0.1692504930217509
 31
0.0
  0
LINE
  5
267F
330
2
100
AcDbEntity
  8
Profilo
  6
Continuous
370
     0
100
AcDbLine
 10
0.1645073646974713
 20
0.1706289013346747
 30
0.0
 11
0.1582961497195598
 21
0.172147614987145
 31
0.0
  0
LINE
  5
2680
330
2
100
AcDbEntity
  8
Profilo
  6
Continuous
370
     0
100
AcDbLine
 10
0.1648422722385816
 20
0.1732552062616128
 30
0.0
 11
0.1590791109536433
 21
0.1750059456999247
 31
0.0
  0
LINE
  5
2681
330
2
100
AcDbEntity
  8
Profilo
  6
Continuous
370
     0
100
AcDbLine
 10
0.1668010467410981
 20
0.175340634113375
 30
0.0
 11
0.160018342311282
 21
0.1778168045036579
 31
0.0
  0
LINE
  5
2682
330
2
100
AcDbEntity
  8
Profilo
  6
Continuous
370
     0
100
AcDbLine
 10
0.1683383935855685
 20
0.1774719585925859
 30
0.0
 11
0.1611109913777136
 21
0.1805716549125402
 31
0.0
  0
LINE
  5
2683
330
2
100
AcDbEntity
  8
Profilo
  6
Continuous
370
     0
100
AcDbLine
 10
0.1760177168517685
 20
0.1764877506194016
 30
0.0
 11
0.1754208793345779
 21
0.1767836530553386
 31
0.0
  0
LINE
  5
2684
330
2
100
AcDbEntity
  8
Profilo
  6
Continuous
370
     0
100
AcDbLine
 10
0.1736205730042211
 20
0.1776762159610592
 30
0.0
 11
0.1623537398136343
 21
0.1832621305364239
 31
0.0
  0
LINE
  5
2685
330
2
100
AcDbEntity
  8
Profilo
  6
Continuous
370
     0
100
AcDbLine
 10
0.1774666981812358
 20
0.1781061710274607
 30
0.0
 11
0.1637428134328895
 21
0.1858800604892656
 31
0.0
  0
LINE
  5
2686
330
2
100
AcDbEntity
  8
Profilo
  6
Continuous
370
     0
100
AcDbLine
 10
0.1767230807972857
 20
0.1810709044063343
 30
0.0
 11
0.1652739936645511
 21
0.1884174942038404
 31
0.0
  0
LINE
  5
2687
330
2
100
AcDbEntity
  8
Profilo
  6
Continuous
370
     0
100
AcDbLine
 10
0.1774724975658652
 20
0.1832597225122243
 30
0.0
 11
0.1669426303645811
 21
0.1908667255773548
 31
0.0
  0
LINE
  5
2688
330
2
100
AcDbEntity
  8
Profilo
  6
Continuous
370
     0
100
AcDbLine
 10
0.1828506196930504
 20
0.1817954777392177
 30
0.0
 11
0.1687436559381639
 21
0.1932203163746258
 31
0.0
  0
LINE
  5
2689
330
2
100
AcDbEntity
  8
Profilo
  6
Continuous
370
     0
100
AcDbLine
 10
0.1843979543096617
 20
0.1830418588519831
 30
0.0
 11
0.1781286409192435
 21
0.1887187435018789
 31
0.0
  0
LINE
  5
268A
330
2
100
AcDbEntity
  8
Profilo
  6
Continuous
370
     0
100
AcDbLine
 10
0.1771356630446594
 20
0.1896178883528168
 30
0.0
 11
0.170671600729825
 21
0.1954711188177556
 31
0.0
  0
LINE
  5
268B
330
2
100
AcDbEntity
  8
Profilo
  6
Continuous
370
     0
100
AcDbLine
 10
0.179500151019131
 20
0.1904621886260602
 30
0.0
 11
0.1793468005215248
 21
0.1906157993089637
 31
0.0
  0
LINE
  5
268C
330
2
100
AcDbEntity
  8
Profilo
  6
Continuous
370
     0
100
AcDbLine
 10
0.1761947709801919
 20
0.1937731768064928
 30
0.0
 11
0.1702349881414418
 21
0.1997430714342152
 31
0.0
  0
LWPOLYLINE
  5
268D
330
2
100
AcDbEntity
  8
Profilo
  6
Continuous
370
     0
100
AcDbPolyline
 90
      147
 70
   128
 43
0.0
 10
0.1895778531607086
 20
0.1573994101528542
 10
0.1884587189476235
 20
0.1581312312987007
 10
0.1874624776729577
 20
0.1575924582801869
 10
0.1865647921188862
 20
0.1564826549086606
 10
0.186082437564258
 20
0.1556471923127813
 10
0.1844438417222594
 20
0.1554792828766325
 10
0.1839299577781133
 20
0.1557759739101177
 10
0.1833019734208938
 20
0.1552816568399558
 10
0.1819745836275586
 20
0.1547626981532928
 10
0.1812851507509374
 20
0.1549036762902083
 10
0.180385853485832
 20
0.1554228858082989
 10
0.1797263411904946
 20
0.1560607215295353
 10
0.1796078418023117
 20
0.1563005115377467
 10
0.1789798574450914
 20
0.1558061944675848
 10
0.17854457842386
 20
0.1552006158610344
 10
0.1780179344023272
 20
0.1547334786274477
 10
0.1770859306163541
 20
0.1541576180775448
 10
0.1763023438970488
 20
0.1538388267796829
 10
0.1757242239156089
 20
0.154172604506591
 10
0.175146105385569
 20
0.154506381395533
 10
0.1749805290125894
 20
0.1545162882523816
 10
0.1741698106812932
 20
0.1542988470458879
 10
0.172694003694382
 20
0.1535228222392351
 10
0.1716534744042115
 20
0.1533523737450468
 10
0.170413054609543
 20
0.153725778679537
 10
0.1689998734002907
 20
0.1545416792311118
 10
0.1681947299778703
 20
0.1555206581839799
 10
0.1677107637122082
 20
0.1563142084777174
 10
0.1679633073079629
 20
0.1571966637859012
 10
0.1683271651233906
 20
0.1582719209781636
 10
0.1693804544909478
 20
0.1592061977394237
 10
0.1703467766357307
 20
0.1592481123356513
 10
0.1707150307772847
 20
0.1592925668278835
 10
0.1709847321010449
 20
0.1599080499971959
 10
0.1712516473583121
 20
0.1599253238148885
 10
0.1711902001634029
 20
0.1605606213160517
 10
0.1714870332260623
 20
0.1610747512619439
 10
0.1718481036505062
 20
0.1615517968084998
 10
0.1721892275045609
 20
0.1616976036861861
 10
0.172429011022929
 20
0.161816230727299
 10
0.172577428216504
 20
0.162073296847288
 10
0.1725602691640078
 20
0.1623402666920728
 10
0.172340430764629
 20
0.1625528791577966
 10
0.1719550174436697
 20
0.1627753976424011
 10
0.1714582925520198
 20
0.1628051188311006
 10
0.1711371152683534
 20
0.1629905506222831
 10
0.170815937984687
 20
0.1631759824134655
 10
0.1701735819659551
 20
0.1635468468337957
 10
0.1696968009957112
 20
0.1639078021031923
 10
0.1696525115288074
 20
0.164276127465484
 10
0.1697737984348824
 20
0.164634545970928
 10
0.1694526196998169
 20
0.1648199786000757
 10
0.1689459209241808
 20
0.1646840777412719
 10
0.1684663552119363
 20
0.1644468259531338
 10
0.167601373402841
 20
0.1644320911934805
 10
0.1670603577197958
 20
0.1648301354503858
 10
0.1661710330141841
 20
0.165514964721893
 10
0.1662751594163638
 20
0.1661403539100879
 10
0.1666561764111969
 20
0.1669486381255125
 10
0.1670643223690376
 20
0.1676555676613973
 10
0.1672127395626126
 20
0.1679126337813863
 10
0.1668744030995417
 20
0.1683650385494064
 10
0.1661035764576231
 20
0.1688100755186164
 10
0.1654612218902902
 20
0.1691809391009813
 10
0.1648388124419466
 20
0.1698830421901811
 10
0.1644290548999803
 20
0.1708051224118612
 10
0.1643133456786718
 20
0.1716431255218986
 10
0.1644174734053423
 20
0.1722685170041793
 10
0.1649197730789598
 20
0.1734352191068935
 10
0.1654121016444825
 20
0.1744363006182241
 10
0.1660500598856882
 20
0.1750962397358893
 10
0.1669992200751751
 20
0.175405125852834
 10
0.167508707693194
 20
0.1761392375193789
 10
0.1679539579494285
 20
0.1769104335852609
 10
0.1685005498658412
 20
0.1777088117818031
 10
0.1688688026829053
 20
0.1777532639799486
 10
0.1695311052720263
 20
0.1777136382284872
 10
0.1698650439575711
 20
0.1782920369984633
 10
0.170381715292701
 20
0.1785935576106845
 10
0.1709897530795321
 20
0.1787566360119777
 10
0.171540741322072
 20
0.1785242115084897
 10
0.1720546252662181
 20
0.1782275204750046
 10
0.1724001482222905
 20
0.1773425261087813
 10
0.1728569812976546
 20
0.1766503298764301
 10
0.1730768196970334
 20
0.1764377174107081
 10
0.1733237883839123
 20
0.1761237525595312
 10
0.1734351012790936
 20
0.1763165521495229
 10
0.1734378901214773
 20
0.1769147629572632
 10
0.1733564950316873
 20
0.1772188194954718
 10
0.1735791208220507
 20
0.1776044186754562
 10
0.1738388509108071
 20
0.1780542843854369
 10
0.1740786344291751
 20
0.1781729114265489
 10
0.1744911794890345
 20
0.1778490397185233
 10
0.1750050634331806
 20
0.177552348685039
 10
0.1753062941464578
 20
0.1770356782249869
 10
0.1755704220127412
 20
0.1764547403969723
 10
0.1759287035948014
 20
0.1763335751357871
 10
0.1760029121915889
 20
0.1764621081957824
 10
0.1764481624478242
 20
0.1772333042616636
 10
0.1768092328722672
 20
0.1777103498082186
 10
0.1769476760549486
 20
0.1778017970127572
 10
0.1774643488414784
 20
0.1781033167870123
 10
0.1777512093446432
 20
0.178451826979487
 10
0.1778625222398245
 20
0.1786446265694788
 10
0.1781793017459647
 20
0.1794899983162925
 10
0.1771044569997842
 20
0.1798534940998482
 10
0.1769045651707937
 20
0.1803973452344398
 10
0.1766675690434094
 20
0.1808769298390343
 10
0.1768359300314821
 20
0.1814652331717723
 10
0.1769328740410425
 20
0.1825232157083767
 10
0.1774052545847771
 20
0.1831930593888038
 10
0.178006108527589
 20
0.1837887319764717
 10
0.1792864214630359
 20
0.18407780437972
 10
0.1804725791043977
 20
0.183907108186157
 10
0.1812705374852155
 20
0.1833607179935259
 10
0.182048549295645
 20
0.1824830891320262
 10
0.1823769117478222
 20
0.1818650654485547
 10
0.1827595375508895
 20
0.1810443384502949
 10
0.1827252207703878
 20
0.1815782804339521
 10
0.1830962637543263
 20
0.1822209457339254
 10
0.18359577603696
 20
0.1827894361909332
 10
0.1841024748125952
 20
0.182925337049737
 10
0.1850017720777006
 20
0.1824061275316473
 10
0.1853672388282717
 20
0.1818523703781723
 10
0.1855671319817538
 20
0.1813085215376673
 10
0.1853616653707948
 20
0.1806559493808462
 10
0.1851561973084368
 20
0.1800033780619894
 10
0.1849479431795866
 20
0.1787525973915138
 10
0.1849252105427053
 20
0.1778231493710245
 10
0.1850137894765136
 20
0.1770864986464402
 10
0.1856262249139635
 20
0.17621877664179
 10
0.1857618807056611
 20
0.1757120122006204
 10
0.1856461714843518
 20
0.1765500153106587
 10
0.1859900827293912
 20
0.1772940338340514
 10
0.1865095415824132
 20
0.1781937629599279
 10
0.1869547918386485
 20
0.1789649590258091
 10
0.1880966614645057
 20
0.1791625873565716
 10
0.1890131164576165
 20
0.1783764056996104
 10
0.1894699509843796
 20
0.1776842086292931
 10
0.1897512379031592
 20
0.1768363009564928
 10
0.1890362835472739
 20
0.1754496202651787
 10
0.1885068508102656
 20
0.1743842690917989
 10
0.188825242027439
 20
0.1736006279489959
 10
0.1899244311215349
 20
0.1725375672963145
 10
0.1907866240882465
 20
0.1719540912482267
 10
0.1922169630255035
 20
0.1708712185577794
 10
0.1931904703387963
 20
0.1704805412617181
  0
LWPOLYLINE
  5
268E
330
2
100
AcDbEntity
  8
Profilo
  6
Continuous
370
     0
100
AcDbPolyline
 90
       13
 70
   128
 43
0.0
 10
0.1891932923861188
 20
0.1630306683199927
 10
0.1844016594486191
 20
0.163639322845246
 10
0.1831975719906169
 20
0.1634215913535404
 10
0.181787523384314
 20
0.1629907989646013
 10
0.1793407100204738
 20
0.1619137017149348
 10
0.1777386191702113
 20
0.1604318976147723
 10
0.1766991562892248
 20
0.1592062022519376
 10
0.1755089866648878
 20
0.1581505113880524
 10
0.1746948021693817
 20
0.1574586906144515
 10
0.1739621504733928
 20
0.157051766419968
 10
0.1732847534361706
 20
0.1570279013575644
 10
0.1723944355446618
 20
0.1572099570690244
 10
0.1714349466121194
 20
0.1578469121826198
  0
LWPOLYLINE
  5
268F
330
2
100
AcDbEntity
  8
Profilo
  6
Continuous
370
     0
100
AcDbPolyline
 90
       12
 70
   128
 43
0.0
 10
0.1887326568825327
 20
0.1655374063131627
 10
0.185033040458539
 20
0.1671754265071539
 10
0.1826206057921209
 20
0.1677383254628286
 10
0.1797367340391971
 20
0.1684904148271955
 10
0.178578243410525
 20
0.1684953336365607
 10
0.1763883861033384
 20
0.1690127183552925
 10
0.1742870226261473
 20
0.1693960202761295
 10
0.1724109376613456
 20
0.1703131936541475
 10
0.169690131507457
 20
0.1716350761767491
 10
0.1685633156471584
 20
0.1727006040412111
 10
0.1676590800488911
 20
0.1737206159927997
 10
0.1674488602208535
 20
0.1745059255928401
  0
LWPOLYLINE
  5
2690
330
2
100
AcDbEntity
  8
Profilo
  6
Continuous
370
     0
100
AcDbPolyline
 90
       10
 70
   128
 43
0.0
 10
0.1914267670221919
 20
0.1680485775381846
 10
0.1891650361963229
 20
0.1684414736708413
 10
0.1858414076770507
 20
0.1704433654112374
 10
0.1845928630428184
 20
0.1721601186217243
 10
0.1830096702317658
 20
0.1747340171141354
 10
0.1824412251124037
 20
0.1770540233752356
 10
0.1814442385827104
 20
0.1792064846519765
 10
0.1806740892895706
 20
0.1803150666206386
 10
0.1791090755139968
 20
0.181052642963818
 10
0.1780916307695306
 20
0.1807271532512114
  0
LWPOLYLINE
  5
2691
330
2
100
AcDbEntity
  8
Profilo
  6
Continuous
370
     0
100
AcDbPolyline
 90
        4
 70
   128
 43
0.0
 10
0.1822399429124881
 20
0.172107711638342
 10
0.1810798907837605
 20
0.1736903797568474
 10
0.1795797894963891
 20
0.174971424063115
 10
0.1780866492394959
 20
0.1758334889923705
  0
LWPOLYLINE
  5
2692
330
2
100
AcDbEntity
  8
Profilo
  6
Continuous
370
     0
100
AcDbPolyline
 90
        5
 70
   128
 43
0.0
 10
0.1806529108734849
 20
0.171945085463348
 10
0.1786620552624281
 20
0.1730945064863092
 10
0.1770804226269393
 20
0.1740906533754933
 10
0.1763462107553857
 20
0.1752614807842359
 10
0.1761263330979115
 20
0.175886381553267
  0
LWPOLYLINE
  5
2693
330
2
100
AcDbEntity
  8
Profilo
  6
Continuous
370
     0
100
AcDbPolyline
 90
        5
 70
   128
 43
0.0
 10
0.178589042217554
 20
0.1708128797649189
 10
0.1767585526306825
 20
0.1719527042819737
 10
0.1756317380948755
 20
0.1730182344405224
 10
0.1745339002039938
 20
0.1745649831520608
 10
0.1741134592234252
 20
0.1761356000580547
  0
LWPOLYLINE
  5
2694
330
2
100
AcDbEntity
  8
Profilo
  6
Continuous
370
     0
100
AcDbPolyline
 90
        5
 70
   128
 43
0.0
 10
0.1765761697944677
 20
0.1710620974317396
 10
0.1741760941106416
 20
0.1723647909125456
 10
0.1724174765910527
 20
0.1736291048536409
 10
0.1713432171391642
 20
0.1744983044801276
 10
0.1704582999756607
 20
0.1758391355498543
  0
LWPOLYLINE
  5
2695
330
2
100
AcDbEntity
  8
Profilo
  6
Continuous
370
     0
100
AcDbPolyline
 90
        6
 70
   128
 43
0.0
 10
0.1876862342955596
 20
0.1647306926214269
 10
0.1826055471077699
 20
0.1664191444056065
 10
0.1782880495071342
 20
0.1674179958922237
 10
0.1741448357643489
 20
0.1675692915007532
 10
0.1711145185967964
 20
0.1674930194549673
 10
0.1683635936228076
 20
0.1661765407010916
  0
LWPOLYLINE
  5
2696
330
2
100
AcDbEntity
  8
Profilo
  6
Continuous
370
     0
100
AcDbPolyline
 90
        3
 70
   128
 43
0.0
 10
0.1763582687346381
 20
0.1663743562408499
 10
0.1736556416162274
 20
0.1658599166142216
 10
0.1719125034303599
 20
0.164708521873997
  0
LWPOLYLINE
  5
2697
330
2
100
AcDbEntity
  8
Profilo
  6
Continuous
370
     0
100
AcDbPolyline
 90
        4
 70
   128
 43
0.0
 10
0.1818605364291881
 20
0.1652724256859916
 10
0.178101826118477
 20
0.1637908620804995
 10
0.1766627995427581
 20
0.1628788488444841
 10
0.1744509267480336
 20
0.1624960325011622
  0
LWPOLYLINE
  5
2698
330
2
100
AcDbEntity
  8
Profilo
  6
Continuous
370
     0
100
AcDbPolyline
 90
        3
 70
   128
 43
0.0
 10
0.175977303400265
 20
0.1611168241858114
 10
0.1746294689048988
 20
0.1606501155219564
 10
0.1731170100863344
 20
0.1611913644651266
  0
LWPOLYLINE
  5
2699
330
2
100
AcDbEntity
  8
Profilo
  6
Continuous
370
     0
100
AcDbPolyline
 90
        5
 70
   128
 43
0.0
 10
0.1894286508287144
 20
0.1599900580316755
 10
0.1855176750504888
 20
0.160256249690391
 10
0.183990157420665
 20
0.1594783207083918
 10
0.1829077988635048
 20
0.1586093607386103
 10
0.1821171914825004
 20
0.157239988585872
  0
LWPOLYLINE
  5
269A
330
2
100
AcDbEntity
  8
Profilo
  6
Continuous
370
     0
100
AcDbPolyline
 90
        7
 70
   128
 43
0.0
 10
0.1892141711233548
 20
0.1617737327028519
 10
0.1845995216185563
 20
0.1621142210141602
 10
0.1819328291458411
 20
0.1616620253714918
 10
0.180556018259368
 20
0.1607140918905432
 10
0.1791142919818918
 20
0.1592226921224387
 10
0.1780126134116595
 20
0.158032917004538
 10
0.1767382126105397
 20
0.1561129453235321
  0
LWPOLYLINE
  5
269B
330
2
100
AcDbEntity
  8
Profilo
  6
Continuous
370
     0
100
AcDbPolyline
 90
       77
 70
   128
 43
0.0
 10
0.1940597060850258
 20
0.1749023503322955
 10
0.1892750985134248
 20
0.1798350237303476
 10
0.1885587601565333
 20
0.1798466963290424
 10
0.1878704879600863
 20
0.1803244521875906
 10
0.1879775205226557
 20
0.1810664618801918
 10
0.1875650812835485
 20
0.1814653472272227
 10
0.1866612338811362
 20
0.1819871837683116
 10
0.1857921914602767
 20
0.182569304305805
 10
0.1850275679575453
 20
0.1833322837147695
 10
0.1846057738577254
 20
0.1835758066518429
 10
0.1835975088616757
 20
0.1839167866155464
 10
0.1834354498100859
 20
0.1843318752764405
 10
0.1836442836728707
 20
0.1846935861371244
 10
0.1841918216349927
 20
0.18550279374255
 10
0.1832625242386494
 20
0.1861197055651398
 10
0.1826599597875078
 20
0.1864675963132103
 10
0.1812740605339021
 20
0.1872677456203493
 10
0.1805161771767687
 20
0.1876249280599507
 10
0.1798881612802972
 20
0.1880678949274874
 10
0.1788035449779621
 20
0.1886940984416081
 10
0.1774659321946879
 20
0.1887429432325622
 10
0.1769423353432526
 20
0.1893667658395191
 10
0.1775849345869003
 20
0.1902014684503377
 10
0.1786493307062575
 20
0.1907926495802035
 10
0.1793215064449938
 20
0.1905653291190279
 10
0.1795625330962909
 20
0.1904261723170193
 10
0.1790295799327439
 20
0.1908946333519856
 10
0.1781605388363752
 20
0.1914767561835649
 10
0.177377204033911
 20
0.1919290147426325
 10
0.1764666166128097
 20
0.1928566451210334
 10
0.1764598764672116
 20
0.1932624420903966
 10
0.1758023052832685
 20
0.194529275288454
 10
0.1755477985945935
 20
0.1954800197650841
 10
0.1753535495303828
 20
0.1963959775447912
 10
0.1749946252480696
 20
0.197165865444036
 10
0.1746169909905144
 20
0.1976250347874706
 10
0.1739541702393983
 20
0.1980077145265518
 10
0.1732310917369086
 20
0.1984251840946096
 10
0.1733635756178997
 20
0.1990721207997965
 10
0.1735978607991071
 20
0.1993387586730662
 10
0.1744882267127408
 20
0.199628510644565
 10
0.1752715615152041
 20
0.1991762520854974
 10
0.1762263102299699
 20
0.1984642672754924
 10
0.1768262597121804
 20
0.1975552234122051
 10
0.1771945376576238
 20
0.1969406924967791
 10
0.1778895511972514
 20
0.1960571450950064
 10
0.1786728859997146
 20
0.1956048865359379
 10
0.1794562208021788
 20
0.1951526279768694
 10
0.1802650041471741
 20
0.1946052949742669
 10
0.1803896419237891
 20
0.1935687669076667
 10
0.1806026022877325
 20
0.1929635299778565
 10
0.1808088239574768
 20
0.1927640891794451
 10
0.1811449104388996
 20
0.1926504282207966
 10
0.1814581632198133
 20
0.1931929979529516
 10
0.1817018047131325
 20
0.1936149973982126
 10
0.1822306328269208
 20
0.1941134833157752
 10
0.1829885161840541
 20
0.1937563008761738
 10
0.1838321072864919
 20
0.1932692533260956
 10
0.1836393671055263
 20
0.1926571056119193
 10
0.1846008559658903
 20
0.1915393238325511
 10
0.1852101604357208
 20
0.1907856392471694
 10
0.1852651869247413
 20
0.1896285408936733
 10
0.185297378388761
 20
0.189127670936895
 10
0.1861383545222686
 20
0.1880794702716
 10
0.1871533595370081
 20
0.1873326964705853
 10
0.1880572069394204
 20
0.1868108599294955
 10
0.1883397785909584
 20
0.1863261932865812
 10
0.1881724897284145
 20
0.1856189725849897
 10
0.1882555825047887
 20
0.1849279543592961
 10
0.1891942348887521
 20
0.1844664018146118
 10
0.1903136574971307
 20
0.1839004845909815
 10
0.1910876373119739
 20
0.1832928667540084
 10
0.1915322665637009
 20
0.1823931122881652
 10
0.1915711980464105
 20
0.1814864484940757
 10
0.191749353428802
 20
0.1808209275678618
 10
0.1921846304687995
 20
0.1797658152802346
 10
0.1956877549290348
 20
0.1758141486046711
  0
LWPOLYLINE
  5
269C
330
2
100
AcDbEntity
  8
Profilo
  6
Continuous
370
     0
100
AcDbPolyline
 90
        3
 70
   128
 43
0.0
 10
0.1908267947266569
 20
0.1810320432590546
 10
0.1900060401006187
 20
0.1808628615744499
 10
0.1895535647445148
 20
0.1800791512685049
  0
LWPOLYLINE
  5
269D
330
2
100
AcDbEntity
  8
Profilo
  6
Continuous
370
     0
100
AcDbPolyline
 90
        5
 70
   128
 43
0.0
 10
0.1867641610232584
 20
0.1834579876419844
 10
0.1860878587833636
 20
0.1846522558936541
 10
0.1857798371378947
 20
0.1852319978180703
 10
0.1852120776683051
 20
0.1856401725625454
 10
0.1847461208234216
 20
0.1856680507691881
  0
LWPOLYLINE
  5
269E
330
2
100
AcDbEntity
  8
Profilo
  6
Continuous
370
     0
100
AcDbPolyline
 90
        5
 70
   128
 43
0.0
 10
0.1821696787905993
 20
0.1884416525069459
 10
0.1810622260118655
 20
0.1897240852557487
 10
0.180348502496996
 20
0.1902969141017121
 10
0.180093995808321
 20
0.1912476585783423
 10
0.1799412917443521
 20
0.1918181065171418
  0
LWPOLYLINE
  5
269F
330
2
100
AcDbEntity
  8
Profilo
  6
Continuous
370
     0
100
AcDbPolyline
 90
        5
 70
   128
 43
0.0
 10
0.1783532987735596
 20
0.1918507479942329
 10
0.1790628956603624
 20
0.1922448700708155
 10
0.1794618561865806
 20
0.1926575746924937
 10
0.1796358850678144
 20
0.1929590015567739
 10
0.1800535554423663
 20
0.1936824278663143
  0
LWPOLYLINE
  5
26A0
330
2
100
AcDbEntity
  8
Profilo
  6
Continuous
370
     0
100
AcDbPolyline
 90
       25
 70
   128
 43
0.0
 10
0.1509789382189104
 20
0.1473029822571816
 10
0.1514586048016171
 20
0.1488264148658014
 10
0.1525413565461906
 20
0.1507017958993857
 10
0.1531793664845646
 20
0.1516337042612492
 10
0.1537540382352147
 20
0.1528022221981842
 10
0.153437347423496
 20
0.1539852669414912
 10
0.1532370650464894
 20
0.1571015096795061
 10
0.1533716231789701
 20
0.1606245559252488
 10
0.1537027044640253
 20
0.1648343014385243
 10
0.1544054272091553
 20
0.1681293367904888
 10
0.1547784419637685
 20
0.1698143609002654
 10
0.154808232769907
 20
0.1715975294095879
 10
0.1543965340143552
 20
0.1731354873684601
 10
0.1554508695718204
 20
0.1758274364578951
 10
0.1561871410230284
 20
0.1771026960195505
 10
0.1573998240365433
 20
0.1792031246124339
 10
0.1596584565195536
 20
0.1845004456138564
 10
0.1612176185019432
 20
0.1872009933845837
 10
0.1630366416977247
 20
0.1903516339798244
 10
0.1657302538285346
 20
0.1944976352448635
 10
0.1677625751287226
 20
0.1973250899255503
 10
0.1685337685805472
 20
0.1991803079679833
 10
0.1682720284171855
 20
0.2006316872932872
 10
0.1680852660985175
 20
0.2020397781397736
 10
0.1681504072013156
 20
0.2035262732941327
  0
LINE
  5
26A1
330
2
100
AcDbEntity
  8
Profilo
  6
Continuous
370
     0
100
AcDbLine
 10
0.1961212547241558
 20
0.1172840291542667
 30
0.0
 11
0.1956520333839591
 21
0.1159138326171036
 31
0.0
  0
LINE
  5
26A2
330
2
100
AcDbEntity
  8
Profilo
  6
Continuous
370
     0
100
AcDbLine
 10
0.195089839236068
 20
0.1142721415671342
 30
0.0
 11
0.1918168259061139
 21
0.1047144528036266
 31
0.0
  0
LINE
  5
26A3
330
2
100
AcDbEntity
  8
Profilo
  6
Continuous
370
     0
100
AcDbLine
 10
0.1974842369377901
 20
0.1264700159900687
 30
0.0
 11
0.196716164597571
 21
0.1245335073108316
 31
0.0
  0
LINE
  5
26A4
330
2
100
AcDbEntity
  8
Profilo
  6
Continuous
370
     0
100
AcDbLine
 10
0.1957924054522775
 20
0.1222044719990341
 30
0.0
 11
0.1907079256257904
 21
0.1093851855883483
 31
0.0
  0
LINE
  5
26A5
330
2
100
AcDbEntity
  8
Profilo
  6
Continuous
370
     0
100
AcDbLine
 10
0.1927083491466566
 20
0.1207807650909012
 30
0.0
 11
0.1879842284407203
 21
0.1105533278749449
 31
0.0
  0
LINE
  5
26A6
330
2
100
AcDbEntity
  8
Profilo
  6
Continuous
370
     0
100
AcDbLine
 10
0.1906737420518119
 20
0.1219427214280446
 30
0.0
 11
0.1853290174874114
 21
0.1118697387344887
 31
0.0
  0
LINE
  5
26A7
330
2
100
AcDbEntity
  8
Profilo
  6
Continuous
370
     0
100
AcDbLine
 10
0.1902247255027212
 20
0.1257167581899474
 30
0.0
 11
0.1827503565542616
 21
0.1133304202704646
 31
0.0
  0
LINE
  5
26A8
330
2
100
AcDbEntity
  8
Profilo
  6
Continuous
370
     0
100
AcDbLine
 10
0.1890992303409385
 20
0.1279109510398357
 30
0.0
 11
0.1802560769497732
 21
0.1149309364410569
 31
0.0
  0
LINE
  5
26A9
330
2
100
AcDbEntity
  8
Profilo
  6
Continuous
370
     0
100
AcDbLine
 10
0.1836910749949214
 20
0.1242946722579954
 30
0.0
 11
0.1778537537191265
 21
0.1166664265312591
 31
0.0
  0
LINE
  5
26AA
330
2
100
AcDbEntity
  8
Profilo
  6
Continuous
370
     0
100
AcDbLine
 10
0.1817114375232172
 20
0.1257240676470581
 30
0.0
 11
0.1755506826390154
 21
0.1185316199147057
 31
0.0
  0
LINE
  5
26AB
330
2
100
AcDbEntity
  8
Profilo
  6
Continuous
370
     0
100
AcDbLine
 10
0.1777747101536868
 20
0.1251405651933966
 30
0.0
 11
0.1733538580606173
 21
0.1205208520603942
 31
0.0
  0
LINE
  5
26AC
330
2
100
AcDbEntity
  8
Profilo
  6
Continuous
370
     0
100
AcDbLine
 10
0.1756677171394299
 20
0.1267437560953861
 30
0.0
 11
0.1712699516679748
 21
0.1226280817356788
 31
0.0
  0
LINE
  5
26AD
330
2
100
AcDbEntity
  8
Profilo
  6
Continuous
370
     0
100
AcDbLine
 10
0.1748410708933021
 20
0.1294828185007319
 30
0.0
 11
0.1693052922163107
 21
0.1248469093532916
 31
0.0
  0
LINE
  5
26AE
330
2
100
AcDbEntity
  8
Profilo
  6
Continuous
370
     0
100
AcDbLine
 10
0.1737639631728327
 20
0.131879862162076
 30
0.0
 11
0.1674658463118086
 21
0.127170596406684
 31
0.0
  0
LINE
  5
26AF
330
2
100
AcDbEntity
  8
Profilo
  6
Continuous
370
     0
100
AcDbLine
 10
0.1784559739133189
 20
0.1380382472078865
 30
0.0
 11
0.1779012961281592
 21
0.1376693219740361
 31
0.0
  0
LINE
  5
26B0
330
2
100
AcDbEntity
  8
Profilo
  6
Continuous
370
     0
100
AcDbLine
 10
0.1762281608121508
 20
0.1365564924102141
 30
0.0
 11
0.1657572002912224
 21
0.1295920859346462
 31
0.0
  0
LINE
  5
26B1
330
2
100
AcDbEntity
  8
Profilo
  6
Continuous
370
     0
100
AcDbLine
 10
0.1777788713906694
 20
0.1401023120528442
 30
0.0
 11
0.1641845432563618
 21
0.1321040239530684
 31
0.0
  0
LINE
  5
26B2
330
2
100
AcDbEntity
  8
Profilo
  6
Continuous
370
     0
100
AcDbLine
 10
0.174839528277142
 20
0.1409406871970851
 30
0.0
 11
0.1627526513149511
 21
0.1346987817887482
 31
0.0
  0
LINE
  5
26B3
330
2
100
AcDbEntity
  8
Profilo
  6
Continuous
370
     0
100
AcDbLine
 10
0.1733186645774682
 20
0.142684110209641
 30
0.0
 11
0.1614658730757568
 21
0.1373684792474177
 31
0.0
  0
LINE
  5
26B4
330
2
100
AcDbEntity
  8
Profilo
  6
Continuous
370
     0
100
AcDbLine
 10
0.1772757988118427
 20
0.1466095782099352
 30
0.0
 11
0.1603281164419976
 21
0.1401050085456412
 31
0.0
  0
LINE
  5
26B5
330
2
100
AcDbEntity
  8
Profilo
  6
Continuous
370
     0
100
AcDbLine
 10
0.1769700684136963
 20
0.1485727998524591
 30
0.0
 11
0.1689190853973241
 21
0.1459818575170186
 31
0.0
  0
LINE
  5
26B6
330
2
100
AcDbEntity
  8
Profilo
  6
Continuous
370
     0
100
AcDbLine
 10
0.1676439141774373
 20
0.1455714858777015
 30
0.0
 11
0.1593428367431779
 21
0.1429000589338787
 31
0.0
  0
LINE
  5
26B7
330
2
100
AcDbEntity
  8
Profilo
  6
Continuous
370
     0
100
AcDbLine
 10
0.1680949726796217
 20
0.1480413426671583
 30
0.0
 11
0.1678852666771315
 21
0.1479853425820008
 31
0.0
  0
LINE
  5
26B8
330
2
100
AcDbEntity
  8
Profilo
  6
Continuous
370
     0
100
AcDbLine
 10
0.163574882784268
 20
0.1468342936744915
 30
0.0
 11
0.1554249109593688
 21
0.1446579176489569
 31
0.0
  0
LWPOLYLINE
  5
26B9
330
2
100
AcDbEntity
  8
Profilo
  6
Continuous
370
     0
100
AcDbPolyline
 90
      147
 70
   128
 43
0.0
 10
0.2017670298279053
 20
0.1402374994969349
 10
0.2005736870180326
 20
0.139634211411082
 10
0.2005421575016064
 20
0.1385020546496656
 10
0.2010544326375183
 20
0.1371697344694662
 10
0.2015367871921465
 20
0.1363342718735878
 10
0.2008629031083875
 20
0.1348312515298065
 10
0.2003490191642414
 20
0.1345345604963222
 10
0.2004631181259158
 20
0.1337435515547098
 10
0.2002488546354129
 20
0.1323345189296261
 10
0.1997820475491552
 20
0.1318079416127253
 10
0.1988827502840498
 20
0.1312887320946356
 10
0.1980006121983489
 20
0.1310364955533836
 10
0.1977336982655724
 20
0.1310537670769896
 10
0.1978477972272468
 20
0.1302627581353763
 10
0.1981546041738924
 20
0.1295830061419809
 10
0.1982958348744659
 20
0.1288933504237888
 10
0.1983285428467325
 20
0.1277982811937615
 10
0.1982128308495335
 20
0.1269602795398437
 10
0.1976347108680945
 20
0.1266265018129355
 10
0.1970565923380545
 20
0.1262927249239936
 10
0.1969652245618616
 20
0.1261542850071513
 10
0.1967481750048665
 20
0.1253434617336873
 10
0.1966823287079396
 20
0.1236773629886145
 10
0.1963096767888577
 20
0.1226910139428505
 10
0.1953660887323569
 20
0.1218034813565549
 10
0.1939529075231046
 20
0.1209875808049801
 10
0.1927025151689414
 20
0.1207797956239074
 10
0.1917732973225523
 20
0.1207574436901377
 10
0.1911353404058382
 20
0.1214173805137171
 10
0.1903860692694512
 20
0.122270119221374
 10
0.1901036065438126
 20
0.1236494329518449
 10
0.190550468511081
 20
0.1245072497755797
 10
0.1906960968622733
 20
0.124848394463331
 10
0.1902979234639273
 20
0.1253897042457974
 10
0.1904164215276194
 20
0.1256294965480946
 10
0.1898355141551957
 20
0.1258939304668929
 10
0.1895386810925364
 20
0.126408060412786
 10
0.1893060827426782
 20
0.1269592793461869
 10
0.1893503722095828
 20
0.1273276047084795
 10
0.1893675299375883
 20
0.127594576847351
 10
0.1892191127440133
 20
0.12785164296734
 10
0.1889793305501359
 20
0.1279702677143661
 10
0.1886852835539696
 20
0.1278861883086377
 10
0.1882998702330103
 20
0.1276636698240323
 10
0.1880257684827407
 20
0.1272483540435219
 10
0.1877045911990742
 20
0.1270629222523394
 10
0.1873834139154087
 20
0.1268774904611569
 10
0.1867410578966759
 20
0.1265066260408258
 10
0.1861900709786268
 20
0.1262741992432521
 10
0.1858489471245721
 20
0.1264200061209393
 10
0.1855991910467094
 20
0.1267042529154687
 10
0.185278012311644
 20
0.1265188202863201
 10
0.1851423565199464
 20
0.1260120558451514
 10
0.1851080397394447
 20
0.1254781138614942
 10
0.1846883095110754
 20
0.1247216502611796
 10
0.1840730852312427
 20
0.1244521390642697
 10
0.183035343332056
 20
0.1240243759127506
 10
0.1825458036089169
 20
0.1244272466163401
 10
0.182036317442297
 20
0.1251613591208511
 10
0.1816281714844563
 20
0.1258682886567359
 10
0.1814797542908813
 20
0.1261253547767249
 10
0.1809187920374478
 20
0.1260585491886883
 10
0.1801479653955282
 20
0.1256135122194784
 10
0.1795056108281954
 20
0.1252426486371134
 10
0.1785863669927017
 20
0.1250546777878925
 10
0.1775829433254157
 20
0.1251608574579968
 10
0.1767993567330186
 20
0.1254796518879107
 10
0.1763098156853879
 20
0.1258825248855868
 10
0.175550571862598
 20
0.1269008802146092
 10
0.1749297741252884
 20
0.1278277900150253
 10
0.174677229205042
 20
0.1287102476172959
 10
0.1748843060756351
 20
0.1296866875121245
 10
0.1745032905322019
 20
0.1304949725655153
 10
0.1740580402759675
 20
0.1312661686313965
 10
0.1736399204341406
 20
0.1321387202147846
 10
0.1737855501098235
 20
0.13247986260845
 10
0.1741510183117936
 20
0.1330336205998903
 10
0.1738170796262497
 20
0.1336120193698664
 10
0.173814290783866
 20
0.1342102301776067
 10
0.1739770796389535
 20
0.1348183455481098
 10
0.1744538592847067
 20
0.1351793031115913
 10
0.1749677432288519
 20
0.1354759941450765
 10
0.175906932310244
 20
0.1353327286195145
 10
0.1767348083695457
 20
0.1353822595518932
 10
0.177028855365712
 20
0.1354663389576216
 10
0.177424241246166
 20
0.1355232376888096
 10
0.1773129283509847
 20
0.1357160372788013
 10
0.1767962570158548
 20
0.1360175578910225
 10
0.1764922387846846
 20
0.1360990959446258
 10
0.176269612994322
 20
0.1364846951246101
 10
0.1760098829055647
 20
0.1369345608345909
 10
0.1760270406335702
 20
0.1372015329734624
 10
0.1765137942902162
 20
0.1373968716214935
 10
0.1770276782343623
 20
0.1376935626549787
 10
0.1776257433347914
 20
0.137696100875051
 10
0.1782609141850124
 20
0.1376343734030931
 10
0.1785449871702851
 20
0.1378840717242729
 10
0.1784707785734976
 20
0.1380126047842674
 10
0.1780255283172631
 20
0.1387838008501485
 10
0.177792929967405
 20
0.1393350197835494
 10
0.1777829559565114
 20
0.1395006386990016
 10
0.1777801685655276
 20
0.140098850344708
 10
0.1776217801369486
 20
0.1405215339240287
 10
0.1775104672417673
 20
0.1407143335140204
 10
0.1769367435864546
 20
0.1414113584871424
 10
0.1760845246306375
 20
0.1406622635236041
 10
0.1755135898177085
 20
0.1407610776889849
 10
0.1749797593031741
 20
0.1407956253243694
 10
0.174554454165929
 20
0.1412355818834157
 10
0.1736866864172488
 20
0.1418485291267415
 10
0.1733427750453012
 20
0.1425925445180822
 10
0.1731273344234494
 20
0.1434107355903555
 10
0.1735171468464265
 20
0.1446640553188705
 10
0.1742580529070623
 20
0.1456059498724014
 10
0.1751302198846685
 20
0.146023807005037
 10
0.1762792746790365
 20
0.1462587705665634
 10
0.1769786801151514
 20
0.1462341289500624
 10
0.1778807634467499
 20
0.1461551291165315
 10
0.1774011977345045
 20
0.1463923809046697
 10
0.1770301547505659
 20
0.147035046204643
 10
0.1767875837143058
 20
0.1477518817594103
 10
0.1769232395060034
 20
0.148258646200579
 10
0.1778225367711088
 20
0.1487778557186687
 10
0.17848483790883
 20
0.1488174806321649
 10
0.1790557713972674
 20
0.1487186687608699
 10
0.1795181821573979
 20
0.1482144433777397
 10
0.1799805914661294
 20
0.1477102171566433
 10
0.1809596722368991
 20
0.1469044734553777
 10
0.1817532315156991
 20
0.1464200624040992
 10
0.1824354792238094
 20
0.1461284486487249
 10
0.1834931662419845
 20
0.146224972293409
 10
0.1839998650176207
 20
0.1460890714346044
 10
0.1832162784252227
 20
0.1464078658645183
 10
0.1827438951055975
 20
0.1470777110010659
 10
0.1822244362525747
 20
0.1479774401269425
 10
0.1817791859963402
 20
0.1487486361928236
 10
0.1821789696543212
 20
0.1498363384620069
 10
0.1833180504377947
 20
0.1502369209389855
 10
0.1841459279484963
 20
0.1502864527093295
 10
0.1850208809925946
 20
0.1501061004903454
 10
0.1858643045202677
 20
0.148793591509945
 10
0.1865222093318617
 20
0.1478024137234102
 10
0.1873600580775663
 20
0.1476863280344234
 10
0.1888302901556007
 20
0.1481067233871323
 10
0.1897666917190999
 20
0.1485616663752247
 10
0.1914196564467203
 20
0.1492589398856876
 10
0.1922447465664372
 20
0.1499066833017388
  0
LWPOLYLINE
  5
26BA
330
2
100
AcDbEntity
  8
Profilo
  6
Continuous
370
     0
100
AcDbPolyline
 90
       13
 70
   128
 43
0.0
 10
0.196697936812599
 20
0.1427200891804099
 10
0.1937750100628519
 20
0.1388747405935518
 10
0.193361527336871
 20
0.1377231045206906
 10
0.1930295801862978
 20
0.1362865704125915
 10
0.1927389670849355
 20
0.1336290192563534
 10
0.1932212016539778
 20
0.1315006658307749
 10
0.1937629535349994
 20
0.129987616888132
 10
0.194082123829499
 20
0.1284290543267015
 10
0.1942741659465495
 20
0.1273780394834252
 10
0.1942602467883927
 20
0.1265400824053313
 10
0.1939422160200865
 20
0.1259415068314467
 10
0.1933393922033031
 20
0.125261496775686
 10
0.1923080284275875
 20
0.1247490325422516
  0
LWPOLYLINE
  5
26BB
330
2
100
AcDbEntity
  8
Profilo
  6
Continuous
370
     0
100
AcDbPolyline
 90
       12
 70
   128
 43
0.0
 10
0.1942967202780896
 20
0.1435745361290048
 10
0.1910283449661843
 20
0.1411895844185635
 10
0.1893346428375975
 20
0.1393818041903123
 10
0.1872413784656772
 20
0.1372603426732071
 10
0.1866578733374742
 20
0.136259519763414
 10
0.1851148763739299
 20
0.1346217400640932
 10
0.18373224543457
 20
0.1329935568706797
 10
0.1819999075071306
 20
0.1318274063205123
 10
0.179494720584795
 20
0.1301320603337719
 10
0.1780085384555812
 20
0.1296889731055972
 10
0.1766730643942078
 20
0.1294158880822862
 10
0.1758878564167188
 20
0.1296264871708463
  0
LWPOLYLINE
  5
26BC
330
2
100
AcDbEntity
  8
Profilo
  6
Continuous
370
     0
100
AcDbPolyline
 90
       10
 70
   128
 43
0.0
 10
0.1934690372737973
 20
0.147163289563053
 10
0.1919979138289336
 20
0.1454010212776571
 10
0.1886024104664883
 20
0.1435236204174228
 10
0.1864913862570616
 20
0.1433007256516627
 10
0.1834707283703456
 20
0.1432165897044073
 10
0.1811773214516124
 20
0.1438843049209324
 10
0.1788147420404464
 20
0.1440971198973577
 10
0.1774696072468376
 20
0.1439844420291236
 10
0.1760483405086259
 20
0.142997888513793
 10
0.1758215004961818
 20
0.1419540106618355
  0
LWPOLYLINE
  5
26BD
330
2
100
AcDbEntity
  8
Profilo
  6
Continuous
370
     0
100
AcDbPolyline
 90
        4
 70
   128
 43
0.0
 10
0.1853603119708418
 20
0.1412368335540299
 10
0.1834096551100921
 20
0.1410235330000904
 10
0.1815501875538055
 20
0.1403649293301101
 10
0.1800570472969123
 20
0.1395028644008556
  0
LWPOLYLINE
  5
26BE
330
2
100
AcDbEntity
  8
Profilo
  6
Continuous
370
     0
100
AcDbPolyline
 90
        5
 70
   128
 43
0.0
 10
0.1847076343502052
 20
0.1397811104041362
 10
0.1827167787391484
 20
0.138631689381175
 10
0.1810632739094697
 20
0.1377600287839784
 10
0.1796822016942747
 20
0.1377095963558248
 10
0.1790310829247113
 20
0.1378316271032429
  0
LWPOLYLINE
  5
26BF
330
2
100
AcDbEntity
  8
Profilo
  6
Continuous
370
     0
100
AcDbPolyline
 90
        5
 70
   128
 43
0.0
 10
0.1846562189193892
 20
0.1374276448688101
 10
0.1827538571383278
 20
0.1364123066437446
 10
0.1812676736846224
 20
0.1359692217096566
 10
0.1793792310617186
 20
0.1357918405626841
 10
0.1778088164312304
 20
0.1362130364457177
  0
LWPOLYLINE
  5
26C0
330
2
100
AcDbEntity
  8
Profilo
  6
Continuous
370
     0
100
AcDbPolyline
 90
        5
 70
   128
 43
0.0
 10
0.1834339538773073
 20
0.135809055049251
 10
0.1811057503876712
 20
0.1343818752764556
 10
0.1791315136365292
 20
0.1334910247994991
 10
0.1778416349530878
 20
0.1329952886371513
 10
0.1762379826027698
 20
0.1328993434281753
  0
LWPOLYLINE
  5
26C1
330
2
100
AcDbEntity
  8
Profilo
  6
Continuous
370
     0
100
AcDbPolyline
 90
        6
 70
   128
 43
0.0
 10
0.1944721435352261
 20
0.1422649507397238
 10
0.190469557803167
 20
0.1387091724585061
 10
0.1874457782408308
 20
0.1354695355988853
 10
0.1852431455289705
 20
0.1319570550485891
 10
0.1837940404744445
 20
0.1292945873770717
 10
0.183558682031848
 20
0.1262539770887545
  0
LWPOLYLINE
  5
26C2
330
2
100
AcDbEntity
  8
Profilo
  6
Continuous
370
     0
100
AcDbPolyline
 90
        3
 70
   128
 43
0.0
 10
0.1873847063050689
 20
0.1332764766004817
 10
0.1864789105312377
 20
0.1306787130456679
 10
0.186604478533122
 20
0.1285934137242877
  0
LWPOLYLINE
  5
26C3
330
2
100
AcDbEntity
  8
Profilo
  6
Continuous
370
     0
100
AcDbPolyline
 90
        4
 70
   128
 43
0.0
 10
0.1910901400060578
 20
0.1374906149249555
 10
0.1904938565703813
 20
0.1334946945076676
 10
0.1905641699134981
 20
0.1317924543183664
 10
0.1897897621944371
 20
0.1296855081165344
  0
LWPOLYLINE
  5
26C4
330
2
100
AcDbEntity
  8
Profilo
  6
Continuous
370
     0
100
AcDbPolyline
 90
        3
 70
   128
 43
0.0
 10
0.1917473799587568
 20
0.1303177849154342
 10
0.1914776442701389
 20
0.1289171716704236
 10
0.1902526795262989
 20
0.1278779683829536
  0
LWPOLYLINE
  5
26C5
330
2
100
AcDbEntity
  8
Profilo
  6
Continuous
370
     0
100
AcDbPolyline
 90
        5
 70
   128
 43
0.0
 10
0.1994488617865886
 20
0.1414036104265341
 10
0.1972628451587517
 20
0.1381497018783633
 10
0.1971727926045914
 20
0.1364378683152076
 10
0.1973841547347139
 20
0.1350660383238131
 10
0.1981747621157184
 20
0.1336966661710739
  0
LWPOLYLINE
  5
26C6
330
2
100
AcDbEntity
  8
Profilo
  6
Continuous
370
     0
100
AcDbPolyline
 90
        7
 70
   128
 43
0.0
 10
0.1977969143565832
 20
0.1421097028886842
 10
0.1951947180768987
 20
0.1382835433436216
 10
0.1942529847545731
 20
0.1357480220968363
 10
0.1943855137869357
 20
0.1340817021524683
 10
0.1949562407345735
 20
0.1320874306868185
 10
0.1954357769263502
 20
0.1305384614992424
 10
0.1964613207760881
 20
0.1284748121903667
  0
LWPOLYLINE
  5
26C7
330
2
100
AcDbEntity
  8
Profilo
  6
Continuous
370
     0
100
AcDbPolyline
 90
       77
 70
   128
 43
0.0
 10
0.1888499654537479
 20
0.1528703680751398
 10
0.1821858411966617
 20
0.1511931130700197
 10
0.1818175632512191
 20
0.1505785821545937
 10
0.1810596784426859
 20
0.1502213988770262
 10
0.1804705954803239
 20
0.1506850966415443
 10
0.1799189310170441
 20
0.1505273564564757
 10
0.1790150836146318
 20
0.150005519915386
 10
0.1780764312306675
 20
0.1495439673707017
 10
0.1770333599285743
 20
0.1492632736974877
 10
0.1766115658287553
 20
0.1490197507604152
 10
0.1758121360199811
 20
0.148317057641941
 10
0.1753716291690295
 20
0.1483842547167984
 10
0.1751627953062447
 20
0.1487459655774823
 10
0.1747357699440717
 20
0.1496247511649282
 10
0.1737368599356421
 20
0.1491284119233192
 10
0.1731342954845005
 20
0.1487805211752486
 10
0.1717483962308948
 20
0.1479803718681096
 10
0.1710601254858486
 20
0.1475026168475275
 10
0.1703624969772899
 20
0.1471802225609706
 10
0.1692778806749549
 20
0.1465540190468508
 10
0.168566773453509
 20
0.1454200347915848
 10
0.167764728802712
 20
0.1452784979203794
 10
0.1673631547589616
 20
0.1462523564952396
 10
0.1673833749419384
 20
0.1474697411392261
 10
0.1679163281054854
 20
0.1479382021741915
 10
0.1681573547567816
 20
0.1480773589761992
 10
0.1674851790180445
 20
0.1478500385150236
 10
0.1665465253095895
 20
0.1473884882644252
 10
0.1657631905071262
 20
0.1469362297053567
 10
0.1645045453235583
 20
0.1466114530555163
 10
0.1641497447665121
 20
0.1468085144028852
 10
0.1627238494426648
 20
0.1468724576518228
 10
0.1617732272290575
 20
0.1471274206323119
 10
0.1608828599909331
 20
0.1474171748978974
 10
0.1600366553709631
 20
0.1474912813010021
 10
0.1594501859261324
 20
0.1473938251123372
 10
0.1587873651750162
 20
0.1470111453732561
 10
0.1580642866725266
 20
0.1465936758051982
 10
0.1575702649916901
 20
0.1470318785643223
 10
0.1574564924104318
 20
0.1473680944196123
 10
0.1576507427991332
 20
0.1482840499052327
 10
0.1584340776015964
 20
0.1487363084643003
 10
0.1595280488915525
 20
0.1492071527005154
 10
0.1606152787114188
 20
0.1492722022614541
 10
0.1613316170683103
 20
0.1492838748601479
 10
0.1624442983335075
 20
0.1494440005405528
 10
0.1632276331359708
 20
0.1498962590996204
 10
0.1640109679384349
 20
0.1503485176586889
 10
0.1648893638955156
 20
0.1507752780803115
 10
0.1658493424212355
 20
0.1503649535278311
 10
0.1664799731597308
 20
0.1502467641481
 10
0.1667558047925781
 20
0.1503256369537032
 10
0.1670222813108979
 20
0.1505598659051599
 10
0.1667090285299841
 20
0.1511024356373158
 10
0.166465387036665
 20
0.151524435082576
 10
0.166298099625521
 20
0.1522316566221336
 10
0.1669863703705681
 20
0.1527094116427157
 10
0.1678299614730059
 20
0.1531964591927939
 10
0.1682637268538678
 20
0.1527234674426592
 10
0.16971249870087
 20
0.1529972503315062
 10
0.1706698609331672
 20
0.1531480811883283
 10
0.1716994507464817
 20
0.1526171863489529
 10
0.1721493125850544
 20
0.15239462999619
 10
0.1734775690562169
 20
0.1525988363591364
 10
0.1746317966461466
 20
0.1531044695863621
 10
0.1755356440485589
 20
0.153626306127451
 10
0.1760966634994587
 20
0.1536286870346148
 10
0.1766254901618471
 20
0.1531302002790862
 10
0.1772654758879626
 20
0.1528566516214505
 10
0.178134518308823
 20
0.153438772158943
 10
0.1791843283051153
 20
0.154125261963554
 10
0.1800975306951478
 20
0.1544917392267382
 10
0.1810990555456002
 20
0.1544269222210786
 10
0.1819037151653284
 20
0.1540073059770672
 10
0.1825691508853748
 20
0.1538288326009316
 10
0.1837005434503047
 20
0.1536782374314405
 10
0.1888743494087479
 20
0.1547361988688407
  0
LWPOLYLINE
  5
26C8
330
2
100
AcDbEntity
  8
Profilo
  6
Continuous
370
     0
100
AcDbPolyline
 90
        3
 70
   128
 43
0.0
 10
0.1819250399825925
 20
0.1531354311739883
 10
0.1816611783062965
 20
0.1523400459752628
 10
0.1821136536624004
 20
0.1515563356693179
  0
LWPOLYLINE
  5
26C9
330
2
100
AcDbEntity
  8
Profilo
  6
Continuous
370
     0
100
AcDbPolyline
 90
        5
 70
   128
 43
0.0
 10
0.1777927936671069
 20
0.1508300593720393
 10
0.1764203759022807
 20
0.1508414985774888
 10
0.1757642938453636
 20
0.1508646149698047
 10
0.1751269244126701
 20
0.1505770082181388
 10
0.174869802755063
 20
0.1501874168567245
  0
LWPOLYLINE
  5
26CA
330
2
100
AcDbEntity
  8
Profilo
  6
Continuous
370
     0
100
AcDbPolyline
 90
        5
 70
   128
 43
0.0
 10
0.1711795721737741
 20
0.1493429534738007
 10
0.1695152264452981
 20
0.1490250876083272
 10
0.1686622803552393
 20
0.1486933993361537
 10
0.1677116581416311
 20
0.1489483623166428
 10
0.1671412837031103
 20
0.1491013406873844
  0
LWPOLYLINE
  5
26CB
330
2
100
AcDbEntity
  8
Profilo
  6
Continuous
370
     0
100
AcDbPolyline
 90
        5
 70
   128
 43
0.0
 10
0.1663190188693364
 20
0.1477424191721925
 10
0.1663324975822245
 20
0.1485540091409017
 10
0.1661745651587014
 20
0.1491058714025537
 10
0.1660005362774686
 20
0.149407298266834
 10
0.1655828659029157
 20
0.1501307245763743
  0
LWPOLYLINE
  5
26CC
330
2
100
AcDbEntity
  8
Profilo
  6
Continuous
370
     0
100
AcDbPolyline
 90
       25
 70
   128
 43
0.0
 10
0.1896870882020196
 20
0.1018584670949862
 10
0.1895743819420237
 20
0.10309764431809
 10
0.189049085608898
 20
0.1048141454348515
 10
0.1885610342627122
 20
0.1058326324302823
 10
0.1878364039198739
 20
0.106914571733649
 10
0.1866535117124966
 20
0.1072318318172098
 10
0.183854625148514
 20
0.1086165035597992
 10
0.1808708566672332
 20
0.1104945574436846
 10
0.1773906507517977
 20
0.1128861550038978
 10
0.1748884278031935
 20
0.1151422484289797
 10
0.1736156614954445
 20
0.1163078007373488
 10
0.1720862876702109
 20
0.1172251845869261
 10
0.1705485276300993
 20
0.1176376219853474
 10
0.1687443991116875
 20
0.1198966779069432
 10
0.1680081276604786
 20
0.1211719374685987
 10
0.1667954446469637
 20
0.1232723660614821
 10
0.1633371463292366
 20
0.1278770596702929
 10
0.1617779843468479
 20
0.1305776074410203
 10
0.1599589611510663
 20
0.1337282480362609
 10
0.1577152247968239
 20
0.1381339852020038
 10
0.1562827378653941
 20
0.1413077544169616
 10
0.1550616686370012
 20
0.1429032365586909
 10
0.1536738671890787
 20
0.1434022525906804
 10
0.1523610435858518
 20
0.1439445571014883
 10
0.1512182073494608
 20
0.144885067276697
  0
LINE
  5
26CD
330
2
100
AcDbEntity
  8
Profilo
  6
Continuous
370
     0
100
AcDbLine
 10
0.239779669636897
 20
0.1258465609787485
 30
0.0
 11
0.2407316839761591
 21
0.1247551051095592
 31
0.0
  0
LINE
  5
26CE
330
2
100
AcDbEntity
  8
Profilo
  6
Continuous
370
     0
100
AcDbLine
 10
0.2418723330566519
 20
0.1234473851706421
 30
0.0
 11
0.2485130276623377
 21
0.1158340280982224
 31
0.0
  0
LINE
  5
26CF
330
2
100
AcDbEntity
  8
Profilo
  6
Continuous
370
     0
100
AcDbLine
 10
0.23250586278508
 20
0.1316199316185638
 30
0.0
 11
0.2337988923258387
 21
0.1299865071203707
 31
0.0
  0
LINE
  5
26D0
330
2
100
AcDbEntity
  8
Profilo
  6
Continuous
370
     0
100
AcDbLine
 10
0.2353540164995187
 20
0.1280219905776696
 30
0.0
 11
0.2439136042763184
 21
0.11720905867756
 31
0.0
  0
LINE
  5
26D1
330
2
100
AcDbEntity
  8
Profilo
  6
Continuous
370
     0
100
AcDbLine
 10
0.2350449546966957
 20
0.1246392660162345
 30
0.0
 11
0.2415401147883558
 21
0.1154343388663706
 31
0.0
  0
LINE
  5
26D2
330
2
100
AcDbEntity
  8
Profilo
  6
Continuous
370
     0
100
AcDbLine
 10
0.2330213674432184
 20
0.1234582227539502
 30
0.0
 11
0.2390724640655191
 21
0.1137930641581701
 31
0.0
  0
LINE
  5
26D3
330
2
100
AcDbEntity
  8
Profilo
  6
Continuous
370
     0
100
AcDbLine
 10
0.229528447458049
 20
0.1249563813966694
 30
0.0
 11
0.2365181462819499
 21
0.1122902190503043
 31
0.0
  0
LINE
  5
26D4
330
2
100
AcDbEntity
  8
Profilo
  6
Continuous
370
     0
100
AcDbLine
 10
0.2270654731283526
 20
0.1250787704196736
 30
0.0
 11
0.2338849188168042
 21
0.1109303676339723
 31
0.0
  0
LINE
  5
26D5
330
2
100
AcDbEntity
  8
Profilo
  6
Continuous
370
     0
100
AcDbLine
 10
0.2274931847475838
 20
0.1185870311114896
 30
0.0
 11
0.2311807786953506
 21
0.1097176397332311
 31
0.0
  0
LINE
  5
26D6
330
2
100
AcDbEntity
  8
Profilo
  6
Continuous
370
     0
100
AcDbLine
 10
0.2252654732927515
 20
0.1175873124652411
 30
0.0
 11
0.2284139383022592
 21
0.1086557183628574
 31
0.0
  0
LINE
  5
26D7
330
2
100
AcDbEntity
  8
Profilo
  6
Continuous
370
     0
100
AcDbLine
 10
0.2238024375560275
 20
0.1138862553286244
 30
0.0
 11
0.2255928004408694
 21
0.1077478285431517
 31
0.0
  0
LINE
  5
26D8
330
2
100
AcDbEntity
  8
Profilo
  6
Continuous
370
     0
100
AcDbLine
 10
0.2213605370006593
 20
0.1128631413036758
 30
0.0
 11
0.2227259328141433
 21
0.1069967275056567
 31
0.0
  0
LINE
  5
26D9
330
2
100
AcDbEntity
  8
Profilo
  6
Continuous
370
     0
100
AcDbLine
 10
0.218575116252016
 20
0.1135167758572595
 30
0.0
 11
0.2198220420048407
 21
0.1064046963195362
 31
0.0
  0
LINE
  5
26DA
330
2
100
AcDbEntity
  8
Profilo
  6
Continuous
370
     0
100
AcDbLine
 10
0.2159606616870771
 20
0.1137824950393926
 30
0.0
 11
0.2168899470339061
 21
0.1059735329640463
 31
0.0
  0
LINE
  5
26DB
330
2
100
AcDbEntity
  8
Profilo
  6
Continuous
370
     0
100
AcDbLine
 10
0.2129733491613615
 20
0.1209250880583874
 30
0.0
 11
0.2130155088933932
 21
0.1202602603886
 31
0.0
  0
LINE
  5
26DC
330
2
100
AcDbEntity
  8
Profilo
  6
Continuous
370
     0
100
AcDbLine
 10
0.2131426799077416
 20
0.1182548679190565
 30
0.0
 11
0.2139385525774
 21
0.1057045468681248
 31
0.0
  0
LINE
  5
26DD
330
2
100
AcDbEntity
  8
Profilo
  6
Continuous
370
     0
100
AcDbLine
 10
0.2108472653092455
 20
0.121370732495286
 30
0.0
 11
0.2109768219232833
 21
0.1055985549337062
 31
0.0
  0
LINE
  5
26DE
330
2
100
AcDbEntity
  8
Profilo
  6
Continuous
370
     0
100
AcDbLine
 10
0.2086515395796673
 20
0.1192443742606533
 30
0.0
 11
0.208013749750211
 21
0.1056558790548103
 31
0.0
  0
LINE
  5
26DF
330
2
100
AcDbEntity
  8
Profilo
  6
Continuous
370
     0
100
AcDbLine
 10
0.2063812591114149
 20
0.1187989791673192
 30
0.0
 11
0.2050583348109867
 21
0.1058763451399653
 31
0.0
  0
LINE
  5
26E0
330
2
100
AcDbEntity
  8
Profilo
  6
Continuous
370
     0
100
AcDbLine
 10
0.2049602712186043
 20
0.1241886919406201
 30
0.0
 11
0.2021195526036466
 21
0.106259283640918
 31
0.0
  0
LINE
  5
26E1
330
2
100
AcDbEntity
  8
Profilo
  6
Continuous
370
     0
100
AcDbLine
 10
0.2031072062038457
 20
0.1249055324703785
 30
0.0
 11
0.2013255365778925
 21
0.1166377054850423
 31
0.0
  0
LINE
  5
26E2
330
2
100
AcDbEntity
  8
Profilo
  6
Continuous
370
     0
100
AcDbLine
 10
0.2010433432325898
 20
0.1153281889947872
 30
0.0
 11
0.1992063281131649
 21
0.1068035315860256
 31
0.0
  0
LINE
  5
26E3
330
2
100
AcDbEntity
  8
Profilo
  6
Continuous
370
     0
100
AcDbLine
 10
0.1991299137603026
 20
0.1169537455110006
 30
0.0
 11
0.1990735582554186
 21
0.1167441347429388
 31
0.0
  0
LINE
  5
26E4
330
2
100
AcDbEntity
  8
Profilo
  6
Continuous
370
     0
100
AcDbLine
 10
0.1979152039038881
 20
0.1124357083379013
 30
0.0
 11
0.195725014917739
 21
0.1042894376846442
 31
0.0
  0
LWPOLYLINE
  5
26E5
330
2
100
AcDbEntity
  8
Profilo
  6
Continuous
370
     0
100
AcDbPolyline
 90
      147
 70
   128
 43
0.0
 10
0.2227242687670077
 20
0.1422126808139832
 10
0.222650060170221
 20
0.1408775715822839
 10
0.2236147719284607
 20
0.1402841878393821
 10
0.2250247326184431
 20
0.140061671030709
 10
0.2259894417277004
 20
0.140061671030709
 10
0.2269541534859401
 20
0.1387265601230774
 10
0.2269541534859401
 20
0.138133178056107
 10
0.2276962368048339
 20
0.1378364861846566
 10
0.2288093631076662
 20
0.1369464122462358
 10
0.2290319888980297
 20
0.1362788567924205
 10
0.2290319888980297
 20
0.1352404377562393
 10
0.2288093631076662
 20
0.1343503654937508
 10
0.2286609485630735
 20
0.1341278470091454
 10
0.2294030318819673
 20
0.1338311551376949
 10
0.2301451178498444
 20
0.133756981750849
 10
0.2308129925719506
 20
0.1335344632662436
 10
0.2317777043301903
 20
0.1330152545861192
 10
0.2324455790522966
 20
0.1324960442300633
 10
0.2324455790522966
 20
0.131828488776248
 10
0.2324455790522966
 20
0.131160934998364
 10
0.2325197876490841
 20
0.1310125882246722
 10
0.2331134564233852
 20
0.1304192061577027
 10
0.2345234171133685
 20
0.129529132219282
 10
0.2351912944844572
 20
0.1287132316677062
 10
0.2354881262226258
 20
0.1274522941469214
 10
0.2354881262226258
 20
0.1258204930437707
 10
0.2350428772908821
 20
0.1246337289098309
 10
0.2345976257101561
 20
0.1238178266823238
 10
0.2337071251976872
 20
0.1235953081977184
 10
0.2325939962458716
 20
0.1233727897131129
 10
0.2312582441526767
 20
0.1238178266823238
 10
0.2307387839751631
 20
0.1246337289098309
 10
0.2305161581847996
 20
0.12493041910535
 10
0.2298482834626934
 20
0.1248562457185041
 10
0.2296998662691183
 20
0.1250787642031095
 10
0.2291804060916047
 20
0.1247079006207445
 10
0.228586739966286
 20
0.1247079006207445
 10
0.2279930711919849
 20
0.1247820740075904
 10
0.2276962368048339
 20
0.125004592492195
 10
0.2274736110144713
 20
0.1251529375899545
 10
0.2271767766273203
 20
0.1251529375899545
 10
0.2269541534859401
 20
0.125004592492195
 10
0.2268799448891525
 20
0.1247079006207445
 10
0.2268799448891525
 20
0.1242628636515337
 10
0.2271025680305327
 20
0.1238178266823238
 10
0.2271025680305327
 20
0.1234469630999588
 10
0.2271025680305327
 20
0.1230760995175939
 10
0.2271025680305327
 20
0.1223343706769326
 10
0.2270283620827276
 20
0.1217409886099632
 10
0.2267315276955766
 20
0.1215184701253578
 10
0.2263604847116389
 20
0.1214442984144441
 10
0.2263604847116389
 20
0.1210734331561478
 10
0.2267315276955766
 20
0.120702569573782
 10
0.2271767766273203
 20
0.120405879378263
 10
0.2276220282080463
 20
0.1196641505376017
 10
0.2275478196112588
 20
0.1189965950837863
 10
0.2273994024176837
 20
0.1178840026607602
 10
0.226805736292365
 20
0.1176614841761547
 10
0.2259152331309129
 20
0.1175873124652411
 10
0.2250989412152307
 20
0.1175873124652411
 10
0.2248021068280805
 20
0.1175873124652411
 10
0.2245794810377171
 20
0.1170681021091853
 10
0.2245794810377171
 20
0.1161780281707645
 10
0.2245794810377171
 20
0.1154363010060346
 10
0.224282646650567
 20
0.1145462270676139
 10
0.2236889805252473
 20
0.113730326516039
 10
0.2230211031541587
 20
0.1132111178359145
 10
0.2224274343798576
 20
0.1129885993513091
 10
0.2211658908834502
 20
0.1128402525776182
 10
0.2200527645806178
 20
0.1127660808667037
 10
0.2191622614191657
 20
0.1129885993513091
 10
0.2184201781002719
 20
0.1136561531291931
 10
0.2175296749388198
 20
0.113730326516039
 10
0.2166391744263509
 20
0.113730326516039
 10
0.2156744626681113
 20
0.1138044999028849
 10
0.2154518395267302
 20
0.1141011900984039
 10
0.2151550051395792
 20
0.1146945738413057
 10
0.2144871277684905
 20
0.1146945738413057
 10
0.213967667590977
 20
0.1149912640368247
 10
0.2135224186592333
 20
0.1154363010060346
 10
0.2134482100624466
 20
0.116029683073005
 10
0.2134482100624466
 20
0.1166230651399744
 10
0.2140418761877654
 20
0.1173647939806357
 10
0.214412919171703
 20
0.1181065211453656
 10
0.2144871277684905
 20
0.1184032130168169
 10
0.2146355449620656
 20
0.1187740765991809
 10
0.214412919171703
 20
0.1187740765991809
 10
0.2138934589941894
 20
0.1184773864036619
 10
0.2136708358528092
 20
0.1182548679190565
 10
0.2132255842720832
 20
0.1182548679190565
 10
0.2127061240945696
 20
0.1182548679190565
 10
0.212483498304207
 20
0.1184032130168169
 10
0.2125577069009936
 20
0.1189224233728727
 10
0.2125577069009936
 20
0.1195158054398422
 10
0.2128545412881446
 20
0.1200350141199666
 10
0.2132255842720832
 20
0.1205542244760234
 10
0.2131513756752956
 20
0.1209250880583874
 10
0.2130029584817197
 20
0.1209250880583874
 10
0.2121124579692508
 20
0.1209250880583874
 10
0.2115187891949497
 20
0.1209992614452333
 10
0.2113703720013738
 20
0.1210734331561478
 10
0.2108509118238611
 20
0.1213701250275982
 10
0.2104056628921174
 20
0.1214442984144441
 10
0.2101830371017548
 20
0.1214442984144441
 10
0.2092925339403018
 20
0.1212959516407523
 10
0.2095151597306653
 20
0.1201833608936584
 10
0.2091441167467267
 20
0.1197383239244476
 10
0.2088472823595757
 20
0.1192932869552377
 10
0.2082536162342579
 20
0.1191449401815459
 10
0.2072889044760182
 20
0.1186999048882673
 10
0.2064726125603369
 20
0.1187740765991809
 10
0.2056563179956723
 20
0.1189965950837863
 10
0.2047658174832025
 20
0.119960842409053
 10
0.2043205659024765
 20
0.1210734331561478
 10
0.204394774499264
 20
0.1220376804814136
 10
0.2047658174832025
 20
0.1231502729044398
 10
0.2051368604671411
 20
0.1237436549714093
 10
0.2056563179956723
 20
0.1244853821361391
 10
0.2052110690639286
 20
0.1241886919406201
 10
0.2044689830960515
 20
0.1241886919406201
 10
0.2037268997771577
 20
0.1243370370383796
 10
0.2033558567932192
 20
0.1247079006207445
 10
0.2033558567932192
 20
0.1257463196569248
 10
0.2036526911803702
 20
0.1263397017238952
 10
0.2040237315153255
 20
0.1267847386931051
 10
0.204691608886415
 20
0.1269330854667969
 10
0.2053594862575045
 20
0.1270814305645564
 10
0.2065468211571235
 20
0.1275264675337664
 10
0.2073631130728057
 20
0.1279715045029772
 10
0.2079567818471069
 20
0.1284165414721872
 10
0.2084020334278329
 20
0.1293807871215225
 10
0.2087730764117714
 20
0.1297516507038865
 10
0.2081051990406828
 20
0.129232442023762
 10
0.2072889044760182
 20
0.129158268636917
 10
0.2062499867699734
 20
0.129158268636917
 10
0.2053594862575045
 20
0.129158268636917
 10
0.2046174002896275
 20
0.1300483425753378
 10
0.2048400260799901
 20
0.1312351067092776
 10
0.2052110690639286
 20
0.1319768355499389
 10
0.2058047351892474
 20
0.1326443910037542
 10
0.2073631130728057
 20
0.1327185627146687
 10
0.208550450621408
 20
0.1327927361015138
 10
0.2090699081499392
 20
0.13346029155533
 10
0.2094409511338777
 20
0.1349437475607202
 10
0.2095151597306653
 20
0.1359821665969014
 10
0.2097377855210278
 20
0.1377623127978107
 10
0.2095893683274528
 20
0.1388007335099233
  0
LWPOLYLINE
  5
26E6
330
2
100
AcDbEntity
  8
Profilo
  6
Continuous
370
     0
100
AcDbPolyline
 90
       13
 70
   128
 43
0.0
 10
0.218039736526292
 20
0.1390640123303197
 10
0.2199084427140439
 20
0.1346100092182083
 10
0.2206990474460659
 20
0.1336761046370527
 10
0.2217771489017957
 20
0.1326703629178927
 10
0.2239333491642736
 20
0.1310899090113211
 10
0.2260176745835776
 20
0.130443359685906
 10
0.2275988893455865
 20
0.1301560061060969
 10
0.2291082292644231
 20
0.1296531344085516
 10
0.2301144558769796
 20
0.1292939403388762
 10
0.2308331884148118
 20
0.1288629074552658
 10
0.2311925546837279
 20
0.1282881969437848
 10
0.2314800487584532
 20
0.1274261311765641
 10
0.2314081739152809
 20
0.1262767118295351
  0
LWPOLYLINE
  5
26E7
330
2
100
AcDbEntity
  8
Profilo
  6
Continuous
370
     0
100
AcDbPolyline
 90
       12
 70
   128
 43
0.0
 10
0.216099155495368
 20
0.1374117212857446
 10
0.2165303966074563
 20
0.1333887493813122
 10
0.2172491291452885
 20
0.1310180701973862
 10
0.218039736526292
 20
0.128144519315915
 10
0.2186147220267611
 20
0.1271387775967558
 10
0.2192615823704025
 20
0.1249836131787032
 10
0.2199803149082347
 20
0.1229721280644527
 10
0.2201240619455969
 20
0.1208888041362672
 10
0.2203396811771499
 20
0.1178715756269253
 10
0.2199803149082347
 20
0.1163629605342895
 10
0.2195490764451287
 20
0.115069863559389
 10
0.2189740882956772
 20
0.1144951530479088
  0
LWPOLYLINE
  5
26E8
330
2
100
AcDbEntity
  8
Profilo
  6
Continuous
370
     0
100
AcDbPolyline
 90
       10
 70
   128
 43
0.0
 10
0.2125773623514173
 20
0.1384893034947709
 10
0.2133679697324218
 20
0.1363341390767183
 10
0.2132960948892495
 20
0.132454846476088
 10
0.2124336153140551
 20
0.1305151984998409
 10
0.2109961502383917
 20
0.1278571640601744
 10
0.2092711884390206
 20
0.1262048730155993
 10
0.2079055955575471
 20
0.1242652267152846
 10
0.207330610057078
 20
0.1230439668783876
 10
0.2074743570944411
 20
0.1213198370198776
 10
0.2082649618264631
 20
0.1206014488805267
  0
LWPOLYLINE
  5
26E9
330
2
100
AcDbEntity
  8
Profilo
  6
Continuous
370
     0
100
AcDbPolyline
 90
        4
 70
   128
 43
0.0
 10
0.2136554611581656
 20
0.1285037133855904
 10
0.2128648564261435
 20
0.1267077447131455
 10
0.2125054901572274
 20
0.1247680967368976
 10
0.2125054901572274
 20
0.1230439668783876
  0
LWPOLYLINE
  5
26EA
330
2
100
AcDbEntity
  8
Profilo
  6
Continuous
370
     0
100
AcDbPolyline
 90
        5
 70
   128
 43
0.0
 10
0.2145898155765322
 20
0.1272106164106908
 10
0.2145898155765322
 20
0.1249117743647683
 10
0.2145179433823423
 20
0.1230439668783876
 10
0.2138710830387009
 20
0.1218227070414914
 10
0.2134398419266126
 20
0.1213198370198776
  0
LWPOLYLINE
  5
26EB
330
2
100
AcDbEntity
  8
Profilo
  6
Continuous
370
     0
100
AcDbPolyline
 90
        5
 70
   128
 43
0.0
 10
0.2166022688016471
 20
0.1259893565737946
 10
0.2165303966074563
 20
0.1238341938316734
 10
0.2161710276895588
 20
0.1223255787390367
 10
0.2153804229575367
 20
0.1206014488805267
 10
0.2142304493076161
 20
0.1194520278575655
  0
LWPOLYLINE
  5
26EC
330
2
100
AcDbEntity
  8
Profilo
  6
Continuous
370
     0
100
AcDbPolyline
 90
        5
 70
   128
 43
0.0
 10
0.2173928761826507
 20
0.1241215490874139
 10
0.2174647483768415
 20
0.1213916758338125
 10
0.2172491291452885
 20
0.1192365114157607
 10
0.2170335099137355
 20
0.1178715756269253
 10
0.2163147747269209
 20
0.1164347993482244
  0
LWPOLYLINE
  5
26ED
330
2
100
AcDbEntity
  8
Profilo
  6
Continuous
370
     0
100
AcDbPolyline
 90
        6
 70
   128
 43
0.0
 10
0.2173210013394784
 20
0.1369088495881994
 10
0.2183991027952081
 20
0.1316646195228022
 10
0.2196928208335085
 20
0.1274261311765641
 10
0.2216334018644335
 20
0.1237623550177385
 10
0.2232146139774591
 20
0.1211761593920078
 10
0.2257301805088523
 20
0.1194520278575655
  0
LWPOLYLINE
  5
26EE
330
2
100
AcDbEntity
  8
Profilo
  6
Continuous
370
     0
100
AcDbPolyline
 90
        3
 70
   128
 43
0.0
 10
0.2215615296702436
 20
0.1262767118295351
 10
0.2233583610148222
 20
0.1241933879013488
 10
0.225227067202574
 20
0.1232594833201932
  0
LWPOLYLINE
  5
26EF
330
2
100
AcDbEntity
  8
Profilo
  6
Continuous
370
     0
100
AcDbPolyline
 90
        4
 70
   128
 43
0.0
 10
0.2197646956766817
 20
0.1315927807088673
 10
0.2229271225517162
 20
0.1290784238970706
 10
0.2244364624705519
 20
0.1282881969437848
 10
0.2258739275462154
 20
0.1265640670852748
  0
LWPOLYLINE
  5
26F0
330
2
100
AcDbEntity
  8
Profilo
  6
Continuous
370
     0
100
AcDbPolyline
 90
        3
 70
   128
 43
0.0
 10
0.2263051686583037
 20
0.1285755521995253
 10
0.227383267465052
 20
0.1276416476183697
 10
0.2276707615397764
 20
0.1260611953877295
  0
LWPOLYLINE
  5
26F1
330
2
100
AcDbEntity
  8
Profilo
  6
Continuous
370
     0
100
AcDbPolyline
 90
        5
 70
   128
 43
0.0
 10
0.2205553030576852
 20
0.140788143864762
 10
0.2222802622080748
 20
0.1372680436578748
 10
0.2237177272837383
 20
0.1363341390767183
 10
0.225011447971021
 20
0.1358312690551053
 10
0.2265926627330299
 20
0.1358312690551053
  0
LWPOLYLINE
  5
26F2
330
2
100
AcDbEntity
  8
Profilo
  6
Continuous
370
     0
100
AcDbPolyline
 90
        7
 70
   128
 43
0.0
 10
0.2191178353330403
 20
0.1397105616557357
 10
0.2211302885581543
 20
0.1355439137993648
 10
0.222855247708543
 20
0.1334605881952471
 10
0.2243645876273796
 20
0.1327422017318285
 10
0.2263770408524937
 20
0.1322393300342823
 10
0.2279582556145026
 20
0.1318801359646069
 10
0.2302582002653604
 20
0.1317364583367371
  0
LWPOLYLINE
  5
26F3
330
2
100
AcDbEntity
  8
Profilo
  6
Continuous
370
     0
100
AcDbPolyline
 90
       77
 70
   128
 43
0.0
 10
0.205325351468534
 20
0.1373426092127468
 10
0.2034458347830497
 20
0.1307326808095746
 10
0.2037938951944977
 20
0.1301064772954539
 10
0.2037242825824115
 20
0.129271538159339
 10
0.2030281670574801
 20
0.128993226231255
 10
0.2028889418333066
 20
0.1284366006991555
 10
0.2028889418333066
 20
0.1273929276169778
 10
0.2028193318702036
 20
0.1263492545347993
 10
0.2025408840708409
 20
0.1253055814526216
 10
0.2025408840708409
 20
0.1248185355784748
 10
0.2027497192581174
 20
0.1237748624962971
 10
0.2024712714587546
 20
0.1234269709102604
 10
0.202053603733185
 20
0.1234269709102604
 10
0.2010790404088909
 20
0.1234965488922817
 10
0.2010094277968046
 20
0.1223832978280819
 10
0.2010094277968046
 20
0.1216875163319409
 10
0.2010094277968046
 20
0.1200872177176637
 10
0.2010790404088909
 20
0.1192522802574802
 10
0.2010094277968046
 20
0.1184869191033857
 10
0.2010094277968046
 20
0.1172345120751452
 10
0.2016359333586331
 20
0.1160516830289251
 10
0.2013574855592712
 20
0.1152863235507628
 10
0.2003133122718732
 20
0.1154254795148044
 10
0.1992691363354928
 20
0.1160516830289251
 10
0.1991299137603026
 20
0.116747464525067
 10
0.1991299137603026
 20
0.1170257781290824
 10
0.1989906911851134
 20
0.1163299966329405
 10
0.1989210785730262
 20
0.1152863235507628
 10
0.1989210785730262
 20
0.1143818064326267
 10
0.1985730208105605
 20
0.1131293994043863
 10
0.1982249603991124
 20
0.1129206637823912
 10
0.1974566362592083
 20
0.1117177738332713
 10
0.1967605207342769
 20
0.1110219923371303
 10
0.1960644025603613
 20
0.1103957888230096
 10
0.1955771222227054
 20
0.1097000073268686
 10
0.1953682870354299
 20
0.1091433817947691
 10
0.1953682870354299
 20
0.108378022316606
 10
0.1953682870354299
 20
0.1075430831804911
 10
0.1947417814736023
 20
0.1073343492344283
 10
0.1943937237111357
 20
0.1074039272164495
 10
0.1936976081862043
 20
0.1080301307305702
 10
0.1936976081862043
 20
0.1089346478487054
 10
0.1938368307613936
 20
0.1101174768949256
 10
0.1943241110990495
 20
0.1110915703191506
 10
0.1946721715104984
 20
0.1117177738332713
 10
0.195089839236068
 20
0.1127614469154499
 10
0.195089839236068
 20
0.1136659640335851
 10
0.195089839236068
 20
0.1145704811517221
 10
0.1951594518481534
 20
0.1155445745759471
 10
0.1959947925972583
 20
0.1161707780900669
 10
0.1964124629718103
 20
0.116657825640146
 10
0.1964820729349142
 20
0.1169361392441615
 10
0.1964124629718103
 20
0.1172840291542667
 10
0.1957859574099818
 20
0.1172840291542667
 10
0.1952986744233436
 20
0.1172840291542667
 10
0.1946025588984122
 20
0.1174927647762609
 10
0.1945329462863259
 20
0.1183277022364444
 10
0.1945329462863259
 20
0.1193017973366008
 10
0.1951594518481534
 20
0.1194409533006433
 10
0.1956467348347917
 20
0.1208325179688576
 10
0.1959947925972583
 20
0.1217370334110623
 10
0.1969693559215524
 20
0.1223632369251821
 10
0.1973870262961044
 20
0.1226415505291976
 10
0.1978743066337603
 20
0.1238939575574389
 10
0.1980135292089504
 20
0.1251463645856794
 10
0.1980135292089504
 20
0.126190037667858
 10
0.1982919770083123
 20
0.1266770852179362
 10
0.1989880925332446
 20
0.126885819163999
 10
0.1995449854829858
 20
0.1273032887320569
 10
0.1994753755198828
 20
0.1283469618142345
 10
0.1994057629077965
 20
0.1295993688424759
 10
0.1995449854829858
 20
0.1305734639426324
 10
0.2001018810817112
 20
0.1314084014028158
 10
0.2008676092187289
 20
0.1318954489528941
 10
0.2013548895563848
 20
0.1323824965029732
 10
0.2020510050813162
 20
0.1332870136211093
 10
0.203721686579525
 20
0.1382966417340721
  0
LWPOLYLINE
  5
26F4
330
2
100
AcDbEntity
  8
Profilo
  6
Continuous
370
     0
100
AcDbPolyline
 90
        3
 70
   128
 43
0.0
 10
0.2016333373557466
 20
0.1314779793848371
 10
0.2021902303054888
 20
0.1308517758707164
 10
0.2030951810176975
 20
0.1308517758707164
  0
LWPOLYLINE
  5
26F5
330
2
100
AcDbEntity
  8
Profilo
  6
Continuous
370
     0
100
AcDbPolyline
 90
        5
 70
   128
 43
0.0
 10
0.2015637247436603
 20
0.1267466631999574
 10
0.2008676092187289
 20
0.1255638341537373
 10
0.2005195488072808
 20
0.1250072086216378
 10
0.2004499388441769
 20
0.1243114271254968
 10
0.2006587740314534
 20
0.1238939575574389
  0
LWPOLYLINE
  5
26F6
330
2
100
AcDbEntity
  8
Profilo
  6
Continuous
370
     0
100
AcDbPolyline
 90
        5
 70
   128
 43
0.0
 10
0.1995449854829858
 20
0.1202758924367582
 10
0.1989880925332446
 20
0.118675593822481
 10
0.1988488699580544
 20
0.1177710767043449
 10
0.1981527544331221
 20
0.117075295208203
 10
0.1977350840585701
 20
0.116657825640146
  0
LWPOLYLINE
  5
26F7
330
2
100
AcDbEntity
  8
Profilo
  6
Continuous
370
     0
100
AcDbPolyline
 90
        5
 70
   128
 43
0.0
 10
0.1985008121955887
 20
0.1152662626478631
 10
0.197804694021674
 20
0.1156837305399887
 10
0.1972478010719327
 20
0.1158228881799626
 10
0.1968997433094661
 20
0.1158228881799626
 10
0.1960644025603613
 20
0.1158228881799626
  0
LWPOLYLINE
  5
26F8
330
2
100
AcDbEntity
  8
Profilo
  6
Continuous
370
     0
100
AcDbPolyline
 90
       25
 70
   128
 43
0.0
 10
0.2500274216817417
 20
0.1127490117404863
 10
0.2491696546464799
 20
0.1129123178808684
 10
0.2470428211625193
 20
0.1134869410053683
 10
0.2459167598779595
 20
0.1135735196389356
 10
0.2446174577844711
 20
0.1134869410053683
 10
0.2437512563888124
 20
0.1126211563456212
 10
0.2411526522018366
 20
0.1108895853501957
 10
0.238034325588075
 20
0.1092445929883383
 10
0.2342230383875834
 20
0.1074264450352769
 10
0.2310180926938501
 20
0.1063875031083943
 10
0.2293723116314879
 20
0.1058680313069868
 10
0.2278131470001159
 20
0.1050022466472407
 10
0.2266870857155561
 20
0.1038767260867899
 10
0.223828621639679
 20
0.1034438329189506
 10
0.222356078737262
 20
0.1034438329189506
 10
0.2199307127102323
 20
0.1034438329189506
 10
0.2142137819094949
 20
0.1027512055263391
 10
0.2110954579447166
 20
0.1027512055263391
 10
0.2074574115531527
 20
0.1027512055263391
 10
0.2025200630681012
 20
0.1030109414270428
 10
0.1990552548364835
 20
0.1033572559613147
 10
0.197062992156265
 20
0.103097520060611
 10
0.1959369308717052
 20
0.1021451567672957
 10
0.1948108695871453
 20
0.1012793704316173
 10
0.1934249457647019
 20
0.1007599003061421
  0
LINE
  5
26F9
330
2
100
AcDbEntity
  8
Profilo
  6
Continuous
370
     0
100
AcDbLine
 10
0.2541935070125532
 20
0.1679371232943851
 30
0.0
 11
0.2556147426920119
 21
0.168215863962359
 31
0.0
  0
LINE
  5
26FA
330
2
100
AcDbEntity
  8
Profilo
  6
Continuous
370
     0
100
AcDbLine
 10
0.2573175859203958
 20
0.1685498350734096
 30
0.0
 11
0.2672312938560357
 21
0.1704941667644984
 31
0.0
  0
LINE
  5
26FB
330
2
100
AcDbEntity
  8
Profilo
  6
Continuous
370
     0
100
AcDbLine
 10
0.2455567179471019
 20
0.1645245070983976
 30
0.0
 11
0.2476178198280796
 21
0.1648275912794417
 31
0.0
  0
LINE
  5
26FC
330
2
100
AcDbEntity
  8
Profilo
  6
Continuous
370
     0
100
AcDbLine
 10
0.250096703147054
 20
0.1651921100485381
 30
0.0
 11
0.2637407707503399
 21
0.1671984645591142
 31
0.0
  0
LINE
  5
26FD
330
2
100
AcDbEntity
  8
Profilo
  6
Continuous
370
     0
100
AcDbLine
 10
0.2528716976498511
 20
0.1632330923952359
 30
0.0
 11
0.2640909784474474
 21
0.1642556024613282
 31
0.0
  0
LINE
  5
26FE
330
2
100
AcDbEntity
  8
Profilo
  6
Continuous
370
     0
100
AcDbLine
 10
0.2528827174912185
 20
0.1608900927958081
 30
0.0
 11
0.2642785386779196
 21
0.1612979168935849
 31
0.0
  0
LINE
  5
26FF
330
2
100
AcDbEntity
  8
Profilo
  6
Continuous
370
     0
100
AcDbLine
 10
0.2498388140551397
 20
0.1586142146766254
 30
0.0
 11
0.2643028818275002
 21
0.1583343902497423
 31
0.0
  0
LINE
  5
2700
330
2
100
AcDbEntity
  8
Profilo
  6
Continuous
370
     0
100
AcDbLine
 10
0.248501334887226
 20
0.1565424108497404
 30
0.0
 11
0.2641639339668438
 21
0.155374022662818
 31
0.0
  0
LINE
  5
2701
330
2
100
AcDbEntity
  8
Profilo
  6
Continuous
370
     0
100
AcDbLine
 10
0.2543372018524743
 20
0.1536669503233967
 30
0.0
 11
0.263862117076036
 21
0.1524258046718754
 31
0.0
  0
LINE
  5
2702
330
2
100
AcDbEntity
  8
Profilo
  6
Continuous
370
     0
100
AcDbLine
 10
0.2540891278693462
 20
0.1512378362880864
 30
0.0
 11
0.2633983477630557
 21
0.149498689918055
 31
0.0
  0
LINE
  5
2703
330
2
100
AcDbEntity
  8
Profilo
  6
Continuous
370
     0
100
AcDbLine
 10
0.2565628195021525
 20
0.1481202816051303
 30
0.0
 11
0.262774034480064
 21
0.14660156795266
 31
0.0
  0
LINE
  5
2704
330
2
100
AcDbEntity
  8
Profilo
  6
Continuous
370
     0
100
AcDbLine
 10
0.2562279119610422
 20
0.1454939766781922
 30
0.0
 11
0.2619910732459805
 21
0.1437432372398804
 31
0.0
  0
LINE
  5
2705
330
2
100
AcDbEntity
  8
Profilo
  6
Continuous
370
     0
100
AcDbLine
 10
0.2542691374585257
 20
0.1434085488264301
 30
0.0
 11
0.2610518418883418
 21
0.140932378436148
 31
0.0
  0
LINE
  5
2706
330
2
100
AcDbEntity
  8
Profilo
  6
Continuous
370
     0
100
AcDbLine
 10
0.2527317906140554
 20
0.14127722434722
 30
0.0
 11
0.2599591928219103
 21
0.1381775280272648
 31
0.0
  0
LINE
  5
2707
330
2
100
AcDbEntity
  8
Profilo
  6
Continuous
370
     0
100
AcDbLine
 10
0.2450524673478553
 20
0.1422614323204043
 30
0.0
 11
0.2456493048650459
 21
0.1419655298844664
 31
0.0
  0
LINE
  5
2708
330
2
100
AcDbEntity
  8
Profilo
  6
Continuous
370
     0
100
AcDbLine
 10
0.2474496111954028
 20
0.1410729669787458
 30
0.0
 11
0.2587164443859895
 21
0.135487052403382
 31
0.0
  0
LINE
  5
2709
330
2
100
AcDbEntity
  8
Profilo
  6
Continuous
370
     0
100
AcDbLine
 10
0.243603486018388
 20
0.1406430119123443
 30
0.0
 11
0.2573273707667343
 21
0.1328691224505403
 31
0.0
  0
LINE
  5
270A
330
2
100
AcDbEntity
  8
Profilo
  6
Continuous
370
     0
100
AcDbLine
 10
0.2443471034023372
 20
0.1376782785334707
 30
0.0
 11
0.2557961905350718
 21
0.1303316887359647
 31
0.0
  0
LINE
  5
270B
330
2
100
AcDbEntity
  8
Profilo
  6
Continuous
370
     0
100
AcDbLine
 10
0.2435976866337586
 20
0.1354894604275816
 30
0.0
 11
0.2541275538350427
 21
0.1278824573624502
 31
0.0
  0
LINE
  5
270C
330
2
100
AcDbEntity
  8
Profilo
  6
Continuous
370
     0
100
AcDbLine
 10
0.2382195645065734
 20
0.1369537052005874
 30
0.0
 11
0.25232652826146
 21
0.1255288665651792
 31
0.0
  0
LINE
  5
270D
330
2
100
AcDbEntity
  8
Profilo
  6
Continuous
370
     0
100
AcDbLine
 10
0.2366722298899622
 20
0.1357073240878219
 30
0.0
 11
0.2429415432803803
 21
0.130030439437927
 31
0.0
  0
LINE
  5
270E
330
2
100
AcDbEntity
  8
Profilo
  6
Continuous
370
     0
100
AcDbLine
 10
0.2439345211549644
 20
0.1291312945869891
 30
0.0
 11
0.2503985834697988
 21
0.1232780641220494
 31
0.0
  0
LINE
  5
270F
330
2
100
AcDbEntity
  8
Profilo
  6
Continuous
370
     0
100
AcDbLine
 10
0.2415700331804929
 20
0.1282869943137448
 30
0.0
 11
0.241723383678099
 21
0.1281333836308414
 31
0.0
  0
LINE
  5
2710
330
2
100
AcDbEntity
  8
Profilo
  6
Continuous
370
     0
100
AcDbLine
 10
0.244875413219432
 20
0.1249760061333123
 30
0.0
 11
0.250835196058182
 21
0.1190061115055907
 31
0.0
  0
LWPOLYLINE
  5
2711
330
2
100
AcDbEntity
  8
Profilo
  6
Continuous
370
     0
100
AcDbPolyline
 90
      147
 70
   128
 43
0.0
 10
0.2314923310389152
 20
0.1613497727869517
 10
0.2326114652520004
 20
0.1606179516411044
 10
0.2336077065266653
 20
0.161156724659619
 10
0.2345053920807376
 20
0.1622665280311453
 10
0.2349877466353658
 20
0.1631019906270237
 10
0.2366263424773645
 20
0.1632699000631734
 10
0.2371402264215106
 20
0.1629732090296883
 10
0.23776821077873
 20
0.1634675260998493
 10
0.2390956005720652
 20
0.1639864847865122
 10
0.2397850334486855
 20
0.1638455066495967
 10
0.2406843307137918
 20
0.163326297131507
 10
0.2413438430091292
 20
0.1626884614102697
 10
0.2414623423973121
 20
0.1624486714020592
 10
0.2420903267545325
 20
0.1629429884722202
 10
0.2425256057757639
 20
0.1635485670787706
 10
0.2430522497972967
 20
0.1640157043123582
 10
0.2439842535832697
 20
0.1645915648622611
 10
0.244767840302575
 20
0.1649103561601222
 10
0.2453459602840149
 20
0.1645765784332149
 10
0.245924078814054
 20
0.1642428015442729
 10
0.2460896551870344
 20
0.1642328946874243
 10
0.2469003735183306
 20
0.164450335893918
 10
0.2483761805052409
 20
0.1652263607005699
 10
0.2494167097954114
 20
0.1653968091947582
 10
0.2506571295900808
 20
0.165023404260269
 10
0.2520703107993323
 20
0.1642075037086932
 10
0.2528754542217526
 20
0.163228524755826
 10
0.2533594204874157
 20
0.1624349744620885
 10
0.2531068768916609
 20
0.1615525191539047
 10
0.2527430190762332
 20
0.1604772619616424
 10
0.251689729708676
 20
0.1595429852003813
 10
0.2507234075638931
 20
0.1595010706041537
 10
0.2503551534223383
 20
0.1594566161119215
 10
0.2500854520985789
 20
0.1588411329426091
 10
0.2498185368413108
 20
0.1588238591249174
 10
0.2498799840362209
 20
0.1581885616237542
 10
0.2495831509735615
 20
0.1576744316778611
 10
0.2492220805491176
 20
0.1571973861313052
 10
0.2488809566950629
 20
0.1570515792536189
 10
0.2486411731766949
 20
0.1569329522125069
 10
0.2484927559831189
 20
0.156675886092517
 10
0.248509915035616
 20
0.1564089162477322
 10
0.2487297534349948
 20
0.1561963037820093
 10
0.2491151667559541
 20
0.1559737852974039
 10
0.249611891647604
 20
0.1559440641087053
 10
0.2499330689312704
 20
0.1557586323175228
 10
0.2502542462149369
 20
0.1555732005263404
 10
0.2508966022336687
 20
0.1552023361060093
 10
0.2513733832039127
 20
0.1548413808366127
 10
0.2514176726708164
 20
0.154473055474321
 10
0.2512963857647414
 20
0.1541146369688779
 10
0.2516175644998069
 20
0.1539292043397293
 10
0.252124263275443
 20
0.1540651051985331
 10
0.2526038289876875
 20
0.1543023569866722
 10
0.2534688107967828
 20
0.1543170917463255
 10
0.2540098264798281
 20
0.1539190474894201
 10
0.2548991511854397
 20
0.1532342182179129
 10
0.25479502478326
 20
0.1526088290297172
 10
0.2544140077884269
 20
0.1518005448142925
 10
0.2540058618305863
 20
0.1510936152784086
 10
0.2538574446370112
 20
0.1508365491584196
 10
0.2541957811000821
 20
0.1503841443903995
 10
0.2549666077420007
 20
0.1499391074211886
 10
0.2556089623093336
 20
0.1495682438388237
 10
0.2562313717576772
 20
0.1488661407496248
 10
0.2566411292996435
 20
0.1479440605279447
 10
0.256756838520952
 20
0.1471060574179064
 10
0.2566527107942815
 20
0.1464806659356257
 10
0.2561504111206641
 20
0.1453139638329115
 10
0.2556580825551413
 20
0.1443128823215818
 10
0.2550201243139356
 20
0.1436529432039157
 10
0.2540709641244487
 20
0.1433440570869711
 10
0.2535614765064298
 20
0.1426099454204261
 10
0.2531162262501954
 20
0.141838749354545
 10
0.2525696343337818
 20
0.1410403711580028
 10
0.2522013815167186
 20
0.1409959189598564
 10
0.2515390789275975
 20
0.1410355447113178
 10
0.2512051402420528
 20
0.1404571459413417
 10
0.2506884689069229
 20
0.1401556253291205
 10
0.2500804311200917
 20
0.1399925469278282
 10
0.2495294428775518
 20
0.1402249714313162
 10
0.2490155589334058
 20
0.1405216624648005
 10
0.2486700359773333
 20
0.1414066568310237
 10
0.2482132029019692
 20
0.1420988530633749
 10
0.2479933645025905
 20
0.1423114655290978
 10
0.2477463958157116
 20
0.1426254303802747
 10
0.2476350829205303
 20
0.142432630790283
 10
0.2476322940781466
 20
0.1418344199825428
 10
0.2477136891679366
 20
0.1415303634443341
 10
0.2474910633775731
 20
0.1411447642643497
 10
0.2472313332888167
 20
0.140694898554369
 10
0.2469915497704487
 20
0.140576271513257
 10
0.2465790047105894
 20
0.1409001432212817
 10
0.2460651207664433
 20
0.1411968342547669
 10
0.2457638900531651
 20
0.1417135047148181
 10
0.2454997621868817
 20
0.1422944425428327
 10
0.2451414806048224
 20
0.142415607804018
 10
0.245067272008034
 20
0.1422870747440235
 10
0.2446220217517996
 20
0.1415158786781414
 10
0.2442609513273557
 20
0.1410388331315864
 10
0.2441225081446743
 20
0.1409473859270487
 10
0.2436058353581454
 20
0.1406458661527927
 10
0.2433189748549807
 20
0.140297355960318
 10
0.2432076619597994
 20
0.1401045563703263
 10
0.2428908824536591
 20
0.1392591846235125
 10
0.2439657271998397
 20
0.1388956888399577
 10
0.2441656190288302
 20
0.1383518377053652
 10
0.2444026151562144
 20
0.1378722531007708
 10
0.2442342541681408
 20
0.1372839497680336
 10
0.2441373101585813
 20
0.1362259672314292
 10
0.2436649296148468
 20
0.1355561235510021
 10
0.2430640756720348
 20
0.1349604509633342
 10
0.241783762736588
 20
0.1346713785600859
 10
0.2405976050952261
 20
0.1348420747536489
 10
0.2397996467144074
 20
0.13538846494628
 10
0.239021634903978
 20
0.1362660938077789
 10
0.2386932724518016
 20
0.1368841174912503
 10
0.2383106466487344
 20
0.1377048444895101
 10
0.2383449634292361
 20
0.1371709025058529
 10
0.2379739204452975
 20
0.1365282372058796
 10
0.2374744081626638
 20
0.1359597467488727
 10
0.2369677093870286
 20
0.135823845890068
 10
0.2360684121219223
 20
0.1363430554081586
 10
0.2357029453713522
 20
0.1368968125616328
 10
0.23550305221787
 20
0.1374406614021386
 10
0.2357085188288281
 20
0.1380932335589597
 10
0.2359139868911861
 20
0.1387458048778156
 10
0.2361222410200372
 20
0.1399965855482912
 10
0.2361449736569185
 20
0.1409260335687805
 10
0.2360563947231093
 20
0.1416626842933648
 10
0.2354439592856603
 20
0.1425304062980159
 10
0.2353083034939627
 20
0.1430371707391846
 10
0.235424012715272
 20
0.1421991676291472
 10
0.2350801014702326
 20
0.1414551491057536
 10
0.2345606426172098
 20
0.1405554199798771
 10
0.2341153923609753
 20
0.1397842239139959
 10
0.2329735227351182
 20
0.1395865955832334
 10
0.2320570677420073
 20
0.1403727772401946
 10
0.2316002332152442
 20
0.1410649743105128
 10
0.2313189462964647
 20
0.1419128819833122
 10
0.23203390065235
 20
0.1432995626746263
 10
0.2325633333893582
 20
0.1443649138480061
 10
0.2322449421721848
 20
0.1451485549908091
 10
0.2311457530780889
 20
0.1462116156434914
 10
0.2302835601113764
 20
0.1467950916915783
 10
0.2288532211741203
 20
0.1478779643820256
 10
0.2278797138608275
 20
0.1482686416780869
  0
LWPOLYLINE
  5
2712
330
2
100
AcDbEntity
  8
Profilo
  6
Continuous
370
     0
100
AcDbPolyline
 90
       13
 70
   128
 43
0.0
 10
0.231876891813505
 20
0.1557185146198132
 10
0.2366685247510047
 20
0.1551098600945591
 10
0.2378726122090069
 20
0.1553275915862646
 10
0.2392826608153098
 20
0.1557583839752037
 10
0.24172947417915
 20
0.1568354812248702
 10
0.2433315650294117
 20
0.1583172853250336
 10
0.244371027910399
 20
0.1595429806878683
 10
0.245561197534736
 20
0.1605986715517536
 10
0.2463753820302421
 20
0.1612904923253535
 10
0.247108033726231
 20
0.161697416519837
 10
0.2477854307634533
 20
0.1617212815822415
 10
0.248675748654962
 20
0.1615392258707806
 10
0.2496352375875044
 20
0.1609022707571852
  0
LWPOLYLINE
  5
2713
330
2
100
AcDbEntity
  8
Profilo
  6
Continuous
370
     0
100
AcDbPolyline
 90
       12
 70
   128
 43
0.0
 10
0.2323375273170902
 20
0.1532117766266432
 10
0.2360371437410849
 20
0.1515737564326511
 10
0.2384495784075029
 20
0.1510108574769773
 10
0.2413334501604267
 20
0.1502587681126104
 10
0.2424919407890989
 20
0.1502538493032444
 10
0.2446817980962854
 20
0.1497364645845125
 10
0.2467831615734766
 20
0.1493531626636764
 10
0.2486592465382782
 20
0.1484359892856584
 10
0.2513800526921668
 20
0.1471141067630568
 10
0.2525068685524654
 20
0.1460485788985939
 10
0.2534111041507319
 20
0.1450285669470053
 10
0.2536213239787703
 20
0.144243257346965
  0
LWPOLYLINE
  5
2714
330
2
100
AcDbEntity
  8
Profilo
  6
Continuous
370
     0
100
AcDbPolyline
 90
       10
 70
   128
 43
0.0
 10
0.229643417177432
 20
0.1507006054016204
 10
0.2319051480033001
 20
0.1503077092689637
 10
0.2352287765225731
 20
0.1483058175285676
 10
0.2364773211568054
 20
0.1465890643180807
 10
0.238060513967858
 20
0.1440151658256705
 10
0.2386289590872201
 20
0.1416951595645695
 10
0.2396259456169134
 20
0.1395426982878294
 10
0.2403960949100523
 20
0.1384341163191665
 10
0.241961108685627
 20
0.1376965399759871
 10
0.2429785534300932
 20
0.1380220296885946
  0
LWPOLYLINE
  5
2715
330
2
100
AcDbEntity
  8
Profilo
  6
Continuous
370
     0
100
AcDbPolyline
 90
        4
 70
   128
 43
0.0
 10
0.2388302412871357
 20
0.1466414713014639
 10
0.2399902934158633
 20
0.1450588031829576
 10
0.2414903947032347
 20
0.14377775887669
 10
0.242983534960127
 20
0.1429156939474345
  0
LWPOLYLINE
  5
2716
330
2
100
AcDbEntity
  8
Profilo
  6
Continuous
370
     0
100
AcDbPolyline
 90
        5
 70
   128
 43
0.0
 10
0.240417273326138
 20
0.1468040974764579
 10
0.2424081289371958
 20
0.1456546764534958
 10
0.2439897615726845
 20
0.1446585295643117
 10
0.2447239734442381
 20
0.14348770215557
 10
0.2449438511017123
 20
0.1428628013865381
  0
LWPOLYLINE
  5
2717
330
2
100
AcDbEntity
  8
Profilo
  6
Continuous
370
     0
100
AcDbPolyline
 90
        5
 70
   128
 43
0.0
 10
0.2424811419820698
 20
0.147936303174887
 10
0.2443116315689413
 20
0.1467964786578322
 10
0.2454384461047483
 20
0.1457309484992835
 10
0.24653628399563
 20
0.1441841997877451
 10
0.2469567249761986
 20
0.1426135828817512
  0
LWPOLYLINE
  5
2718
330
2
100
AcDbEntity
  8
Profilo
  6
Continuous
370
     0
100
AcDbPolyline
 90
        5
 70
   128
 43
0.0
 10
0.2444940144051562
 20
0.1476870855080654
 10
0.2468940900889813
 20
0.1463843920272594
 10
0.2486527076085712
 20
0.1451200780861641
 10
0.2497269670604596
 20
0.1442508784596774
 10
0.2506118842239631
 20
0.1429100473899516
  0
LWPOLYLINE
  5
2719
330
2
100
AcDbEntity
  8
Profilo
  6
Continuous
370
     0
100
AcDbPolyline
 90
        6
 70
   128
 43
0.0
 10
0.2333839499040642
 20
0.1540184903183781
 10
0.2384646370918531
 20
0.1523300385341986
 10
0.2427821346924897
 20
0.1513311870475813
 10
0.2469253484352749
 20
0.1511798914390519
 10
0.2499556656028274
 20
0.1512561634848386
 10
0.2527065905768162
 20
0.1525726422387144
  0
LWPOLYLINE
  5
271A
330
2
100
AcDbEntity
  8
Profilo
  6
Continuous
370
     0
100
AcDbPolyline
 90
        3
 70
   128
 43
0.0
 10
0.2447119154649857
 20
0.1523748266989551
 10
0.2474145425833965
 20
0.1528892663255843
 10
0.2491576807692639
 20
0.154040661065808
  0
LWPOLYLINE
  5
271B
330
2
100
AcDbEntity
  8
Profilo
  6
Continuous
370
     0
100
AcDbPolyline
 90
        4
 70
   128
 43
0.0
 10
0.2392096477704357
 20
0.1534767572538143
 10
0.2429683580811468
 20
0.1549583208593064
 10
0.2444073846568657
 20
0.1558703340953209
 10
0.2466192574515902
 20
0.1562531504386437
  0
LWPOLYLINE
  5
271C
330
2
100
AcDbEntity
  8
Profilo
  6
Continuous
370
     0
100
AcDbPolyline
 90
        3
 70
   128
 43
0.0
 10
0.2450928807993589
 20
0.1576323587539936
 10
0.246440715294725
 20
0.1580990674178486
 10
0.2479531741132894
 20
0.1575578184746784
  0
LWPOLYLINE
  5
271D
330
2
100
AcDbEntity
  8
Profilo
  6
Continuous
370
     0
100
AcDbPolyline
 90
        5
 70
   128
 43
0.0
 10
0.2316415333709094
 20
0.1587591249081304
 10
0.2355525091491351
 20
0.158492933249414
 10
0.2370800267789588
 20
0.1592708622314132
 10
0.238162385336119
 20
0.1601398222011947
 10
0.2389529927171234
 20
0.1615091943539331
  0
LWPOLYLINE
  5
271E
330
2
100
AcDbEntity
  8
Profilo
  6
Continuous
370
     0
100
AcDbPolyline
 90
        7
 70
   128
 43
0.0
 10
0.231856013076269
 20
0.156975450236954
 10
0.2364706625810675
 20
0.1566349619256457
 10
0.2391373550537819
 20
0.1570871575683141
 10
0.2405141659402559
 20
0.1580350910492627
 10
0.2419558922177321
 20
0.1595264908173664
 10
0.2430575707879643
 20
0.160716265935267
 10
0.2443319715890841
 20
0.1626362376162729
  0
LWPOLYLINE
  5
271F
330
2
100
AcDbEntity
  8
Profilo
  6
Continuous
370
     0
100
AcDbPolyline
 90
       77
 70
   128
 43
0.0
 10
0.2270104781145972
 20
0.1438468326075104
 10
0.231795085686199
 20
0.1389141592094574
 10
0.2325114240430905
 20
0.1389024866107635
 10
0.2331996962395375
 20
0.1384247307522153
 10
0.2330926636769681
 20
0.1376827210596141
 10
0.2335051029160753
 20
0.1372838357125832
 10
0.2344089503184867
 20
0.1367619991714943
 10
0.2352779927393471
 20
0.1361798786340009
 10
0.2360426162420786
 20
0.1354168992250364
 10
0.2364644103418976
 20
0.135173376287963
 10
0.2374726753379481
 20
0.1348323963242586
 10
0.2376347343895371
 20
0.1344173076633646
 10
0.2374259005267523
 20
0.1340555968026806
 10
0.2368783625646311
 20
0.1332463891972559
 10
0.2378076599609744
 20
0.1326294773746661
 10
0.238410224412116
 20
0.1322815866265947
 10
0.2397961236657218
 20
0.1314814373194566
 10
0.2405540070228542
 20
0.1311242548798552
 10
0.2411820229193267
 20
0.1306812880123176
 10
0.2422666392216617
 20
0.1300550844981969
 10
0.243604252004936
 20
0.1300062397072428
 10
0.2441278488563712
 20
0.129382417100286
 10
0.2434852496127235
 20
0.1285477144894673
 10
0.2424208534933663
 20
0.1279565333596024
 10
0.2417486777546292
 20
0.128183853820778
 10
0.2415076511033329
 20
0.1283230106227857
 10
0.2420406042668799
 20
0.1278545495878203
 10
0.2429096453632487
 20
0.1272724267562411
 10
0.2436929801657128
 20
0.1268201681971726
 10
0.2446035675868141
 20
0.1258925378187725
 10
0.2446103077324122
 20
0.1254867408494094
 10
0.2452678789163545
 20
0.124219907651351
 10
0.2455223856050304
 20
0.1232691631747209
 10
0.2457166346692401
 20
0.1223532053950147
 10
0.2460755589515542
 20
0.121583317495769
 10
0.2464531932091094
 20
0.1211241481523344
 10
0.2471160139602255
 20
0.1207414684132533
 10
0.2478390924627152
 20
0.1203239988451954
 10
0.2477066085817232
 20
0.1196770621400094
 10
0.2474723234005158
 20
0.1194104242667398
 10
0.246581957486883
 20
0.11912067229524
 10
0.2457986226844189
 20
0.1195729308543076
 10
0.2448438739696539
 20
0.1202849156643126
 10
0.2442439244874435
 20
0.1211939595275999
 10
0.243875646542
 20
0.1218084904430268
 10
0.2431806330023725
 20
0.1226920378447995
 10
0.2423972981999092
 20
0.1231442964038671
 10
0.241613963397445
 20
0.1235965549629356
 10
0.2408051800524498
 20
0.1241438879655381
 10
0.2406805422758347
 20
0.1251804160321392
 10
0.2404675819118913
 20
0.1257856529619485
 10
0.2402613602421471
 20
0.1259850937603608
 10
0.2399252737607243
 20
0.1260987547190093
 10
0.2396120209798096
 20
0.1255561849868534
 10
0.2393683794864905
 20
0.1251341855415924
 10
0.2388395513727031
 20
0.1246356996240308
 10
0.2380816680155697
 20
0.1249928820636312
 10
0.2372380769131319
 20
0.1254799296137103
 10
0.2374308170940975
 20
0.1260920773278866
 10
0.2364693282337336
 20
0.1272098591072548
 10
0.235860023763903
 20
0.1279635436926365
 10
0.2358049972748826
 20
0.1291206420461326
 10
0.2357728058108619
 20
0.12962151200291
 10
0.2349318296773553
 20
0.130669712668205
 10
0.2339168246626158
 20
0.1314164864692207
 10
0.2330129772602034
 20
0.1319383230103095
 10
0.2327304056086654
 20
0.1324229896532247
 10
0.2328976944712093
 20
0.1331302103548162
 10
0.2328146016948351
 20
0.1338212285805089
 10
0.2318759493108708
 20
0.1342827811251941
 10
0.2307565267024931
 20
0.1348486983488244
 10
0.22998254688765
 20
0.1354563161857976
 10
0.2295379176359229
 20
0.1363560706516407
 10
0.2294989861532124
 20
0.1372627344457293
 10
0.2293208307708219
 20
0.1379282553719432
 10
0.2288855537308234
 20
0.1389833676595713
 10
0.225382429270589
 20
0.1429350343351339
  0
LWPOLYLINE
  5
2720
330
2
100
AcDbEntity
  8
Profilo
  6
Continuous
370
     0
100
AcDbPolyline
 90
        3
 70
   128
 43
0.0
 10
0.2302433894729661
 20
0.1377171396807513
 10
0.2310641440990051
 20
0.1378863213653561
 10
0.231516619455109
 20
0.138670031671301
  0
LWPOLYLINE
  5
2721
330
2
100
AcDbEntity
  8
Profilo
  6
Continuous
370
     0
100
AcDbPolyline
 90
        5
 70
   128
 43
0.0
 10
0.2343060231763654
 20
0.1352911952978206
 10
0.2349823254162602
 20
0.1340969270461509
 10
0.2352903470617291
 20
0.1335171851217356
 10
0.2358581065313188
 20
0.1331090103772605
 10
0.2363240633762014
 20
0.1330811321706169
  0
LWPOLYLINE
  5
2722
330
2
100
AcDbEntity
  8
Profilo
  6
Continuous
370
     0
100
AcDbPolyline
 90
        5
 70
   128
 43
0.0
 10
0.2389005054090245
 20
0.13030753043286
 10
0.2400079581877583
 20
0.1290250976840563
 10
0.240721681702627
 20
0.1284522688380938
 10
0.2409761883913029
 20
0.1275015243614628
 10
0.2411288924552717
 20
0.1269310764226641
  0
LWPOLYLINE
  5
2723
330
2
100
AcDbEntity
  8
Profilo
  6
Continuous
370
     0
100
AcDbPolyline
 90
        5
 70
   128
 43
0.0
 10
0.2427168854260642
 20
0.1268984349455731
 10
0.2420072885392615
 20
0.1265043128689895
 10
0.2416083280130423
 20
0.1260916082473122
 10
0.2414342991318095
 20
0.125790181383032
 10
0.2410166287572575
 20
0.1250667550734907
  0
LWPOLYLINE
  5
2724
330
2
100
AcDbEntity
  8
Profilo
  6
Continuous
370
     0
100
AcDbPolyline
 90
       25
 70
   128
 43
0.0
 10
0.2705601144601322
 20
0.1708060641521469
 10
0.2698717366131906
 20
0.169647249531796
 10
0.268694250630642
 20
0.1679814538292788
 10
0.2678908177150583
 20
0.1671154786785567
 10
0.2673161459644091
 20
0.1659469607416217
 10
0.2676328367761278
 20
0.1647639159983139
 10
0.2678331191531345
 20
0.1616476732602989
 10
0.2676985610206537
 20
0.1581246270145562
 10
0.2673674797355985
 20
0.1539148815012816
 10
0.2666647569904676
 20
0.1506198461493171
 10
0.2662917422358553
 20
0.1489348220395406
 10
0.2662619514297169
 20
0.1471516535302171
 10
0.2666736501852687
 20
0.145613695571345
 10
0.2656193146278034
 20
0.1429217464819099
 10
0.2648830431765954
 20
0.1416464869202554
 10
0.2636703601630796
 20
0.1395460583273711
 10
0.2614117276800694
 20
0.1342487373259495
 10
0.2598525656976807
 20
0.1315481895552213
 10
0.2580335425018991
 20
0.1283975489599816
 10
0.2553399303710893
 20
0.1242515476949415
 10
0.2533076090709012
 20
0.1214240930142556
 10
0.2525364156190766
 20
0.1195688749718227
 10
0.2527981557824384
 20
0.1181174956465179
 10
0.2529849181011055
 20
0.1167094048000314
 10
0.2527418305150531
 20
0.1152494244993485
  0
LINE
  5
2725
330
2
100
AcDbEntity
  8
Profilo
  6
Continuous
370
     0
100
AcDbLine
 10
0.2249489294754681
 20
0.2014651537855392
 30
0.0
 11
0.2254181508156647
 21
0.2028353503227023
 31
0.0
  0
LINE
  5
2726
330
2
100
AcDbEntity
  8
Profilo
  6
Continuous
370
     0
100
AcDbLine
 10
0.2259803449635558
 20
0.2044770413726709
 30
0.0
 11
0.2292533582935099
 21
0.2140347301361785
 31
0.0
  0
LINE
  5
2727
330
2
100
AcDbEntity
  8
Profilo
  6
Continuous
370
     0
100
AcDbLine
 10
0.2235859472618338
 20
0.1922791669497372
 30
0.0
 11
0.2243540196020528
 21
0.1942156756289735
 31
0.0
  0
LINE
  5
2728
330
2
100
AcDbEntity
  8
Profilo
  6
Continuous
370
     0
100
AcDbLine
 10
0.2252777787473463
 20
0.196544710940771
 30
0.0
 11
0.2303622585738334
 21
0.2093639973514567
 31
0.0
  0
LINE
  5
2729
330
2
100
AcDbEntity
  8
Profilo
  6
Continuous
370
     0
100
AcDbLine
 10
0.2283618350529672
 20
0.1979684178489047
 30
0.0
 11
0.2330859557589036
 21
0.2081958550648602
 31
0.0
  0
LINE
  5
272A
330
2
100
AcDbEntity
  8
Profilo
  6
Continuous
370
     0
100
AcDbLine
 10
0.230396442147812
 20
0.1968064615117604
 30
0.0
 11
0.2357411667122125
 21
0.2068794442053172
 31
0.0
  0
LINE
  5
272B
330
2
100
AcDbEntity
  8
Profilo
  6
Continuous
370
     0
100
AcDbLine
 10
0.2308454586969026
 20
0.1930324247498576
 30
0.0
 11
0.2383198276453622
 21
0.2054187626693404
 31
0.0
  0
LINE
  5
272C
330
2
100
AcDbEntity
  8
Profilo
  6
Continuous
370
     0
100
AcDbLine
 10
0.2319709538586854
 20
0.1908382318999702
 30
0.0
 11
0.2408141072498506
 21
0.2038182464987481
 31
0.0
  0
LINE
  5
272D
330
2
100
AcDbEntity
  8
Profilo
  6
Continuous
370
     0
100
AcDbLine
 10
0.2373791092047024
 20
0.1944545106818096
 30
0.0
 11
0.2432164304804982
 21
0.2020827564085468
 31
0.0
  0
LINE
  5
272E
330
2
100
AcDbEntity
  8
Profilo
  6
Continuous
370
     0
100
AcDbLine
 10
0.2393587466764067
 20
0.1930251152927478
 30
0.0
 11
0.2455195015606084
 21
0.2002175630251002
 31
0.0
  0
LINE
  5
272F
330
2
100
AcDbEntity
  8
Profilo
  6
Continuous
370
     0
100
AcDbLine
 10
0.243295474045937
 20
0.1936086177464085
 30
0.0
 11
0.2477163261390065
 21
0.1982283308794108
 31
0.0
  0
LINE
  5
2730
330
2
100
AcDbEntity
  8
Profilo
  6
Continuous
370
     0
100
AcDbLine
 10
0.245402467060194
 20
0.1920054268444189
 30
0.0
 11
0.2498002325316491
 21
0.1961211012041271
 31
0.0
  0
LINE
  5
2731
330
2
100
AcDbEntity
  8
Profilo
  6
Continuous
370
     0
100
AcDbLine
 10
0.2462291133063217
 20
0.1892663644390731
 30
0.0
 11
0.2517648919833131
 21
0.1939022735865144
 31
0.0
  0
LINE
  5
2732
330
2
100
AcDbEntity
  8
Profilo
  6
Continuous
370
     0
100
AcDbLine
 10
0.2473062210267911
 20
0.186869320777729
 30
0.0
 11
0.2536043378878152
 21
0.1915785865331219
 31
0.0
  0
LINE
  5
2733
330
2
100
AcDbEntity
  8
Profilo
  6
Continuous
370
     0
100
AcDbLine
 10
0.2426142102863049
 20
0.1807109357319194
 30
0.0
 11
0.2431688880714646
 21
0.1810798609657689
 31
0.0
  0
LINE
  5
2734
330
2
100
AcDbEntity
  8
Profilo
  6
Continuous
370
     0
100
AcDbLine
 10
0.2448420233874722
 20
0.1821926905295919
 30
0.0
 11
0.2553129839084014
 21
0.1891570970051588
 31
0.0
  0
LINE
  5
2735
330
2
100
AcDbEntity
  8
Profilo
  6
Continuous
370
     0
100
AcDbLine
 10
0.2432913128089544
 20
0.1786468708869608
 30
0.0
 11
0.256885640943262
 21
0.1866451589867366
 31
0.0
  0
LINE
  5
2736
330
2
100
AcDbEntity
  8
Profilo
  6
Continuous
370
     0
100
AcDbLine
 10
0.2462306559224818
 20
0.1778084957427208
 30
0.0
 11
0.2583175328846727
 21
0.1840504011510578
 31
0.0
  0
LINE
  5
2737
330
2
100
AcDbEntity
  8
Profilo
  6
Continuous
370
     0
100
AcDbLine
 10
0.2477515196221565
 20
0.176065072730164
 30
0.0
 11
0.2596043111238671
 21
0.1813807036923873
 31
0.0
  0
LINE
  5
2738
330
2
100
AcDbEntity
  8
Profilo
  6
Continuous
370
     0
100
AcDbLine
 10
0.2437943853877811
 20
0.1721396047298707
 30
0.0
 11
0.2607420677576262
 21
0.1786441743941647
 31
0.0
  0
LINE
  5
2739
330
2
100
AcDbEntity
  8
Profilo
  6
Continuous
370
     0
100
AcDbLine
 10
0.2441001157859275
 20
0.1701763830873459
 30
0.0
 11
0.2521510988022997
 21
0.1727673254227873
 31
0.0
  0
LINE
  5
273A
330
2
100
AcDbEntity
  8
Profilo
  6
Continuous
370
     0
100
AcDbLine
 10
0.2534262700221865
 20
0.1731776970621035
 30
0.0
 11
0.2617273474564459
 21
0.1758491240059263
 31
0.0
  0
LINE
  5
273B
330
2
100
AcDbEntity
  8
Profilo
  6
Continuous
370
     0
100
AcDbLine
 10
0.2529752115200021
 20
0.1707078402726467
 30
0.0
 11
0.2531849175224923
 21
0.1707638403578051
 31
0.0
  0
LINE
  5
273C
330
2
100
AcDbEntity
  8
Profilo
  6
Continuous
370
     0
100
AcDbLine
 10
0.2574953014153558
 20
0.1719148892653144
 30
0.0
 11
0.265645273240255
 21
0.1740912652908491
 31
0.0
  0
LWPOLYLINE
  5
273D
330
2
100
AcDbEntity
  8
Profilo
  6
Continuous
370
     0
100
AcDbPolyline
 90
      147
 70
   128
 43
0.0
 10
0.2193031543717185
 20
0.178511683442871
 10
0.2204964971815912
 20
0.1791149715287239
 10
0.2205280266980174
 20
0.1802471282901394
 10
0.2200157515621055
 20
0.1815794484703388
 10
0.2195333970074773
 20
0.1824149110662181
 10
0.2202072810912363
 20
0.1839179314099986
 10
0.2207211650353824
 20
0.1842146224434837
 10
0.2206070660737081
 20
0.1850056313850961
 10
0.220821329564211
 20
0.1864146640101798
 10
0.2212881366504686
 20
0.1869412413270797
 10
0.222187433915574
 20
0.1874604508451703
 10
0.223069572001275
 20
0.1877126873864223
 10
0.2233364859340505
 20
0.1876954158628164
 10
0.2232223869723771
 20
0.1884864248044287
 10
0.2229155800257314
 20
0.1891661767978241
 10
0.2227743493251579
 20
0.1898558325160171
 10
0.2227416413528913
 20
0.1909509017460445
 10
0.2228573533500904
 20
0.1917889033999614
 10
0.2234354733315293
 20
0.1921226811268695
 10
0.2240135918615693
 20
0.1924564580158115
 10
0.2241049596377613
 20
0.1925948979326546
 10
0.2243220091947573
 20
0.1934057212061178
 10
0.2243878554916843
 20
0.1950718199511914
 10
0.2247605074107661
 20
0.1960581689969545
 10
0.2257040954672669
 20
0.1969457015832501
 10
0.2271172766765193
 20
0.1977616021348259
 10
0.2283676690306824
 20
0.1979693873158976
 10
0.2292968868770715
 20
0.1979917392496673
 10
0.2299348437937856
 20
0.1973318024260888
 10
0.2306841149301726
 20
0.196479063718431
 10
0.2309665776558112
 20
0.1950997499879601
 10
0.2305197156885428
 20
0.1942419331642262
 10
0.2303740873373505
 20
0.193900788476475
 10
0.2307722607356966
 20
0.1933594786940076
 10
0.2306537626720044
 20
0.1931196863917104
 10
0.2312346700444281
 20
0.1928552524729121
 10
0.2315315031070875
 20
0.19234112252702
 10
0.2317641014569447
 20
0.1917899035936181
 10
0.231719811990041
 20
0.1914215782313264
 10
0.2317026542620355
 20
0.1911546060924549
 10
0.2318510714556106
 20
0.1908975399724651
 10
0.232090853649487
 20
0.1907789152254398
 10
0.2323849006456542
 20
0.1908629946311673
 10
0.2327703139666135
 20
0.1910855131157727
 10
0.2330444157168832
 20
0.1915008288962841
 10
0.2333655930005496
 20
0.1916862606874665
 10
0.2336867702842151
 20
0.191871692478649
 10
0.2343291263029479
 20
0.1922425568989792
 10
0.234880113220997
 20
0.1924749836965529
 10
0.2352212370750517
 20
0.1923291768188657
 10
0.2354709931529144
 20
0.1920449300243363
 10
0.2357921718879798
 20
0.1922303626534849
 10
0.2359278276796775
 20
0.1927371270946536
 10
0.2359621444601792
 20
0.1932710690783108
 10
0.2363818746885484
 20
0.1940275326786263
 10
0.2369970989683812
 20
0.1942970438755363
 10
0.2380348408675679
 20
0.1947248070270544
 10
0.2385243805907069
 20
0.194321936323465
 10
0.239033866757326
 20
0.1935878238189539
 10
0.2394420127151675
 20
0.19288089428307
 10
0.2395904299087426
 20
0.1926238281630801
 10
0.2401513921621761
 20
0.1926906337511167
 10
0.2409222188040956
 20
0.1931356707203276
 10
0.2415645733714284
 20
0.1935065343026916
 10
0.2424838172069221
 20
0.1936945051519126
 10
0.2434872408742081
 20
0.1935883254818083
 10
0.2442708274666052
 20
0.1932695310518944
 10
0.244760368514235
 20
0.1928666580542191
 10
0.2455196123370258
 20
0.1918483027251967
 10
0.2461404100743354
 20
0.1909213929247797
 10
0.2463929549945818
 20
0.1900389353225092
 10
0.2461858781239887
 20
0.1890624954276805
 10
0.2465668936674219
 20
0.1882542103742897
 10
0.2470121439236563
 20
0.1874830143084085
 10
0.2474302637654833
 20
0.1866104627250214
 10
0.2472846340898003
 20
0.186269320331355
 10
0.2469191658878294
 20
0.1857155623399147
 10
0.2472531045733741
 20
0.1851371635699395
 10
0.2472558934157578
 20
0.1845389527621983
 10
0.2470931045606703
 20
0.1839308373916961
 10
0.2466163249149171
 20
0.1835698798282137
 10
0.2461024409707719
 20
0.1832731887947285
 10
0.2451632518893798
 20
0.1834164543202905
 10
0.2443353758300781
 20
0.1833669233879118
 10
0.2440413288339118
 20
0.1832828439821843
 10
0.2436459429534579
 20
0.1832259452509963
 10
0.2437572558486392
 20
0.1830331456610046
 10
0.2442739271837691
 20
0.1827316250487825
 10
0.2445779454149393
 20
0.1826500869951793
 10
0.2448005712053018
 20
0.1822644878151958
 10
0.2450603012940591
 20
0.1818146221052142
 10
0.2450431435660536
 20
0.1815476499663427
 10
0.2445563899094076
 20
0.1813523113183115
 10
0.2440425059652616
 20
0.1810556202848272
 10
0.2434444408648324
 20
0.181053082064754
 10
0.2428092700146114
 20
0.1811148095367128
 10
0.2425251970293387
 20
0.1808651112155331
 10
0.2425994056261262
 20
0.1807365781555386
 10
0.2430446558823607
 20
0.1799653820896565
 10
0.2432772542322179
 20
0.1794141631562556
 10
0.2432872282431124
 20
0.1792485442408043
 10
0.2432900156340962
 20
0.1786503325950979
 10
0.2434484040626752
 20
0.1782276490157773
 10
0.2435597169578565
 20
0.1780348494257855
 10
0.2441334406131683
 20
0.1773378244526627
 10
0.2449856595689863
 20
0.1780869194162018
 10
0.2455565943819153
 20
0.177988105250821
 10
0.2460904248964497
 20
0.1779535576154365
 10
0.2465157300336949
 20
0.1775136010563902
 10
0.247383497782375
 20
0.1769006538130644
 10
0.2477274091543218
 20
0.1761566384217237
 10
0.2479428497761744
 20
0.1753384473494504
 10
0.2475530373531973
 20
0.1740851276209354
 10
0.2468121312925615
 20
0.1731432330674036
 10
0.2459399643149553
 20
0.172725375934768
 10
0.2447909095205873
 20
0.1724904123732416
 10
0.2440915040844724
 20
0.1725150539897435
 10
0.243189420752874
 20
0.1725940538232735
 10
0.2436689864651194
 20
0.1723568020351354
 10
0.2440400294490579
 20
0.171714136735162
 10
0.244282600485318
 20
0.1709973011803956
 10
0.2441469446936204
 20
0.1704905367392269
 10
0.243247647428515
 20
0.1699713272211363
 10
0.2425853462907939
 20
0.169931702307641
 10
0.2420144128023565
 20
0.170030514178936
 10
0.2415520020422259
 20
0.1705347395620662
 10
0.2410895927334944
 20
0.1710389657831626
 10
0.2401105119627247
 20
0.1718447094844273
 10
0.2393169526839247
 20
0.1723291205357067
 10
0.2386347049758144
 20
0.1726207342910802
 10
0.2375770179576393
 20
0.172524210646396
 10
0.2370703191820032
 20
0.1726601115052007
 10
0.2378539057744011
 20
0.1723413170752868
 10
0.2383262890940263
 20
0.17167147193874
 10
0.2388457479470492
 20
0.1707717428128634
 10
0.2392909982032836
 20
0.1700005467469823
 10
0.2388912145453026
 20
0.1689128444777981
 10
0.2377521337618291
 20
0.1685122620008204
 10
0.2369242562511276
 20
0.1684627302304764
 10
0.2360493032070292
 20
0.1686430824494605
 10
0.2352058796793561
 20
0.1699555914298609
 10
0.2345479748677621
 20
0.1709467692163948
 10
0.2337101261220575
 20
0.1710628549053825
 10
0.2322398940440231
 20
0.1706424595526736
 10
0.2313034924805239
 20
0.1701875165645803
 10
0.2296505277529035
 20
0.1694902430541174
 10
0.2288254376331866
 20
0.1688424996380671
  0
LWPOLYLINE
  5
273E
330
2
100
AcDbEntity
  8
Profilo
  6
Continuous
370
     0
100
AcDbPolyline
 90
       13
 70
   128
 43
0.0
 10
0.224372247387024
 20
0.1760290937593951
 10
0.2272951741367719
 20
0.1798744423462533
 10
0.2277086568627529
 20
0.1810260784191144
 10
0.228040604013326
 20
0.1824626125272135
 10
0.2283312171146883
 20
0.1851201636834516
 10
0.227848982545646
 20
0.187248517109031
 10
0.2273072306646244
 20
0.188761566051673
 10
0.2269880603701249
 20
0.1903201286131044
 10
0.2267960182530744
 20
0.1913711434563798
 10
0.2268099374112311
 20
0.1922091005344746
 10
0.2271279681795373
 20
0.1928076761083593
 10
0.2277307919963207
 20
0.193487686164119
 10
0.2287621557720363
 20
0.1940001503975535
  0
LWPOLYLINE
  5
273F
330
2
100
AcDbEntity
  8
Profilo
  6
Continuous
370
     0
100
AcDbPolyline
 90
       12
 70
   128
 43
0.0
 10
0.2267734639215342
 20
0.1751746468108002
 10
0.2300418392334396
 20
0.1775595985212415
 10
0.2317355413620263
 20
0.1793673787494936
 10
0.2338288057339457
 20
0.181488840266598
 10
0.2344123108621496
 20
0.1824896631763919
 10
0.235955307825694
 20
0.1841274428757118
 10
0.2373379387650538
 20
0.1857556260691262
 10
0.2390702766924932
 20
0.1869217766192937
 10
0.2415754636148288
 20
0.1886171226060331
 10
0.2430616457440426
 20
0.1890602098342078
 10
0.2443971198054151
 20
0.1893332948575188
 10
0.2451823277829059
 20
0.1891226957689596
  0
LWPOLYLINE
  5
2740
330
2
100
AcDbEntity
  8
Profilo
  6
Continuous
370
     0
100
AcDbPolyline
 90
       10
 70
   128
 43
0.0
 10
0.2276011469258266
 20
0.171585893376752
 10
0.2290722703706902
 20
0.1733481616621479
 10
0.2324677737331355
 20
0.1752255625223822
 10
0.2345787979425622
 20
0.1754484572881423
 10
0.2375994558292782
 20
0.1755325932353986
 10
0.2398928627480115
 20
0.1748648780188726
 10
0.2422554421591774
 20
0.1746520630424473
 10
0.2436005769527862
 20
0.1747647409106814
 10
0.2450218436909979
 20
0.175751294426012
 10
0.245248683703442
 20
0.1767951722779704
  0
LWPOLYLINE
  5
2741
330
2
100
AcDbEntity
  8
Profilo
  6
Continuous
370
     0
100
AcDbPolyline
 90
        4
 70
   128
 43
0.0
 10
0.235709872228782
 20
0.177512349385776
 10
0.2376605290895317
 20
0.1777256499397155
 10
0.2395199966458184
 20
0.1783842536096949
 10
0.2410131369027115
 20
0.1792463185389495
  0
LWPOLYLINE
  5
2742
330
2
100
AcDbEntity
  8
Profilo
  6
Continuous
370
     0
100
AcDbPolyline
 90
        5
 70
   128
 43
0.0
 10
0.2363625498494186
 20
0.1789680725356697
 10
0.2383534054604754
 20
0.1801174935586309
 10
0.2400069102901541
 20
0.1809891541558266
 10
0.2413879825053491
 20
0.1810395865839811
 10
0.2420391012749117
 20
0.180917555836563
  0
LWPOLYLINE
  5
2743
330
2
100
AcDbEntity
  8
Profilo
  6
Continuous
370
     0
100
AcDbPolyline
 90
        5
 70
   128
 43
0.0
 10
0.2364139652802346
 20
0.1813215380709949
 10
0.238316327061296
 20
0.1823368762960613
 10
0.2398025105150014
 20
0.1827799612301493
 10
0.2416909531379052
 20
0.1829573423771209
 10
0.2432613677683935
 20
0.1825361464940882
  0
LWPOLYLINE
  5
2744
330
2
100
AcDbEntity
  8
Profilo
  6
Continuous
370
     0
100
AcDbPolyline
 90
        5
 70
   128
 43
0.0
 10
0.2376362303223165
 20
0.182940127890554
 10
0.2399644338119526
 20
0.1843673076633494
 10
0.2419386705630946
 20
0.1852581581403068
 10
0.243228549246536
 20
0.1857538943026547
 10
0.244832201596854
 20
0.1858498395116306
  0
LWPOLYLINE
  5
2745
330
2
100
AcDbEntity
  8
Profilo
  6
Continuous
370
     0
100
AcDbPolyline
 90
        6
 70
   128
 43
0.0
 10
0.2265980406643977
 20
0.1764842322000812
 10
0.2306006263964568
 20
0.1800400104812989
 10
0.2336244059587931
 20
0.1832796473409206
 10
0.2358270386706533
 20
0.1867921278912159
 10
0.2372761437251794
 20
0.1894545955627334
 10
0.2375115021677758
 20
0.1924952058510505
  0
LWPOLYLINE
  5
2746
330
2
100
AcDbEntity
  8
Profilo
  6
Continuous
370
     0
100
AcDbPolyline
 90
        3
 70
   128
 43
0.0
 10
0.233685477894555
 20
0.1854727063393233
 10
0.2345912736683862
 20
0.188070469894138
 10
0.2344657056665018
 20
0.1901557692155182
  0
LWPOLYLINE
  5
2747
330
2
100
AcDbEntity
  8
Profilo
  6
Continuous
370
     0
100
AcDbPolyline
 90
        4
 70
   128
 43
0.0
 10
0.229980044193566
 20
0.1812585680148495
 10
0.2305763276292425
 20
0.1852544884321383
 10
0.2305060142861257
 20
0.1869567286214386
 10
0.2312804220051867
 20
0.1890636748232715
  0
LWPOLYLINE
  5
2748
330
2
100
AcDbEntity
  8
Profilo
  6
Continuous
370
     0
100
AcDbPolyline
 90
        3
 70
   128
 43
0.0
 10
0.229322804240867
 20
0.1884313980243708
 10
0.2295925399294849
 20
0.1898320112693823
 10
0.2308175046733241
 20
0.1908712145568514
  0
LWPOLYLINE
  5
2749
330
2
100
AcDbEntity
  8
Profilo
  6
Continuous
370
     0
100
AcDbPolyline
 90
        5
 70
   128
 43
0.0
 10
0.2216213224130352
 20
0.1773455725132709
 10
0.2238073390408721
 20
0.1805994810614418
 10
0.2238973915950324
 20
0.1823113146245974
 10
0.2236860294649099
 20
0.1836831446159928
 10
0.2228954220839054
 20
0.1850525167687311
  0
LWPOLYLINE
  5
274A
330
2
100
AcDbEntity
  8
Profilo
  6
Continuous
370
     0
100
AcDbPolyline
 90
        7
 70
   128
 43
0.0
 10
0.2232732698430406
 20
0.1766394800511208
 10
0.2258754661227251
 20
0.1804656395961835
 10
0.2268171994450507
 20
0.1830011608429696
 10
0.2266846704126881
 20
0.1846674807873367
 10
0.2261139434650494
 20
0.1866617522529865
 10
0.2256344072732737
 20
0.1882107214405626
 10
0.2246088634235357
 20
0.1902743707494392
  0
LWPOLYLINE
  5
274B
330
2
100
AcDbEntity
  8
Profilo
  6
Continuous
370
     0
100
AcDbPolyline
 90
       77
 70
   128
 43
0.0
 10
0.2322202187458759
 20
0.1658788148646653
 10
0.2388843430029621
 20
0.1675560698697853
 10
0.2392526209484047
 20
0.1681706007852122
 10
0.2400105057569379
 20
0.1685277840627788
 10
0.2405995887193
 20
0.1680640862982616
 10
0.2411512531825797
 20
0.1682218264833302
 10
0.242055100584992
 20
0.168743663024419
 10
0.2429937529689563
 20
0.1692052155691033
 10
0.2440368242710496
 20
0.1694859092423173
 10
0.2444586183708686
 20
0.1697294321793907
 10
0.2452580481796427
 20
0.1704321252978649
 10
0.2456985550305943
 20
0.1703649282230075
 10
0.2459073888933791
 20
0.1700032173623236
 10
0.2463344142555521
 20
0.1691244317748768
 10
0.2473333242639817
 20
0.1696207710164859
 10
0.2479358887151233
 20
0.1699686617645573
 10
0.2493217879687282
 20
0.1707688110716954
 10
0.2500100587137752
 20
0.1712465660922775
 10
0.2507076872223339
 20
0.1715689603788344
 10
0.251792303524669
 20
0.1721951638929551
 10
0.2525034107461148
 20
0.1733291481482202
 10
0.2533054553969118
 20
0.1734706850194265
 10
0.2537070294406623
 20
0.1724968264445654
 10
0.2536868092576854
 20
0.1712794418005799
 10
0.2531538560941384
 20
0.1708109807656144
 10
0.2529128294428422
 20
0.1706718239636058
 10
0.2535850051815784
 20
0.1708991444247823
 10
0.2545236588900344
 20
0.1713606946753807
 10
0.2553069936924976
 20
0.1718129532344483
 10
0.2565656388760655
 20
0.1721377298842888
 10
0.2569204394331117
 20
0.1719406685369207
 10
0.258346334756959
 20
0.1718767252879823
 10
0.2592969569705663
 20
0.1716217623074931
 10
0.2601873242086907
 20
0.1713320080419076
 10
0.2610335288286607
 20
0.1712579016388038
 10
0.2616199982734915
 20
0.1713553578274687
 10
0.2622828190246076
 20
0.1717380375665498
 10
0.2630058975270963
 20
0.1721555071346068
 10
0.2634999192079337
 20
0.1717173043754836
 10
0.263613691789192
 20
0.1713810885201927
 10
0.2634194414004907
 20
0.1704651330345732
 10
0.2626361065980274
 20
0.1700128744755047
 10
0.2615421353080713
 20
0.1695420302392896
 10
0.260454905488205
 20
0.1694769806783518
 10
0.2597385671313135
 20
0.169465308079658
 10
0.2586258858661163
 20
0.1693051823992522
 10
0.2578425510636531
 20
0.1688529238401846
 10
0.2570592162611889
 20
0.168400665281117
 10
0.2561808203041083
 20
0.1679739048594944
 10
0.2552208417783883
 20
0.1683842294119748
 10
0.254590211039893
 20
0.1685024187917059
 10
0.2543143794070448
 20
0.1684235459861019
 10
0.2540479028887259
 20
0.1681893170346451
 10
0.2543611556696397
 20
0.1676467473024901
 10
0.2546047971629588
 20
0.1672247478572291
 10
0.2547720845741028
 20
0.1665175263176724
 10
0.2540838138290558
 20
0.1660397712970902
 10
0.2532402227266179
 20
0.165552723747012
 10
0.252806457345756
 20
0.1660257154971458
 10
0.2513576854987538
 20
0.1657519326082997
 10
0.2504003232664567
 20
0.1656011017514767
 10
0.2493707334531421
 20
0.1661319965908521
 10
0.2489208716145694
 20
0.166354552943615
 10
0.2475926151434069
 20
0.1661503465806695
 10
0.2464383875534772
 20
0.1656447133534438
 10
0.2455345401510649
 20
0.1651228768123549
 10
0.2449735207001651
 20
0.1651204959051911
 10
0.2444446940377767
 20
0.1656189826607197
 10
0.2438047083116612
 20
0.1658925313183555
 10
0.2429356658908008
 20
0.1653104107808621
 10
0.2418858558945085
 20
0.164623920976251
 10
0.240972653504476
 20
0.1642574437130677
 10
0.2399711286540236
 20
0.1643222607187273
 10
0.2391664690342954
 20
0.1647418769627378
 10
0.238501033314249
 20
0.1649203503388734
 10
0.2373696407493191
 20
0.1650709455083645
 10
0.2321958347908759
 20
0.1640129840709643
  0
LWPOLYLINE
  5
274C
330
2
100
AcDbEntity
  8
Profilo
  6
Continuous
370
     0
100
AcDbPolyline
 90
        3
 70
   128
 43
0.0
 10
0.2391451442170314
 20
0.1656137517658167
 10
0.2394090058933274
 20
0.1664091369645422
 10
0.2389565305372234
 20
0.1671928472704871
  0
LWPOLYLINE
  5
274D
330
2
100
AcDbEntity
  8
Profilo
  6
Continuous
370
     0
100
AcDbPolyline
 90
        5
 70
   128
 43
0.0
 10
0.243277390532517
 20
0.1679191235677657
 10
0.2446498082973432
 20
0.1679076843623162
 10
0.2453058903542602
 20
0.1678845679700003
 10
0.2459432597869537
 20
0.1681721747216662
 10
0.2462003814445608
 20
0.1685617660830805
  0
LWPOLYLINE
  5
274E
330
2
100
AcDbEntity
  8
Profilo
  6
Continuous
370
     0
100
AcDbPolyline
 90
        5
 70
   128
 43
0.0
 10
0.2498906120258497
 20
0.1694062294660044
 10
0.2515549577543257
 20
0.1697240953314787
 10
0.2524079038443845
 20
0.1700557836036514
 10
0.2533585260579927
 20
0.1698008206231623
 10
0.2539289004965135
 20
0.1696478422524206
  0
LWPOLYLINE
  5
274F
330
2
100
AcDbEntity
  8
Profilo
  6
Continuous
370
     0
100
AcDbPolyline
 90
        5
 70
   128
 43
0.0
 10
0.2547511653302874
 20
0.1710067637676125
 10
0.2547376866173994
 20
0.1701951737989034
 10
0.2548956190409224
 20
0.1696433115372522
 10
0.2550696479221552
 20
0.1693418846729719
 10
0.2554873182967072
 20
0.1686184583634316
  0
LWPOLYLINE
  5
2750
330
2
100
AcDbEntity
  8
Profilo
  6
Continuous
370
     0
100
AcDbPolyline
 90
       25
 70
   128
 43
0.0
 10
0.2306793406489231
 20
0.2171871180186096
 10
0.2313525636667717
 20
0.2161338837458682
 10
0.2320210985907258
 20
0.2139350375049545
 10
0.2325091499369107
 20
0.2129165505095227
 10
0.2332337802797499
 20
0.211834611206156
 10
0.2344166724871273
 20
0.2115173511225952
 10
0.2372155590511098
 20
0.2101326793800058
 10
0.2401993275323906
 20
0.2082546254961213
 10
0.2436795334478261
 20
0.2058630279359073
 10
0.2461817563964304
 20
0.2036069345108253
 10
0.2474545227041793
 20
0.2024413822024562
 10
0.2489838965294129
 20
0.2015239983528798
 10
0.2505216565695245
 20
0.2011115609544576
 10
0.2523257850879363
 20
0.1988525050328618
 10
0.2530620565391453
 20
0.1975772454712073
 10
0.2542747395526601
 20
0.195476816878323
 10
0.2577330378703873
 20
0.190872123269513
 10
0.259292199852776
 20
0.1881715754987847
 10
0.2611112230485575
 20
0.185020934903545
 10
0.2633549594028
 20
0.1806151977378012
 10
0.2647874463342297
 20
0.1774414285228434
 10
0.2660085155626226
 20
0.1758459463811142
 10
0.2673963170105451
 20
0.1753469303491246
 10
0.268709140613772
 20
0.1748046258383167
 10
0.269851976850163
 20
0.1738641156631089
  0
DIMENSION
  5
2751
102
{ACAD_XDICTIONARY
360
275B
102
}
102
{ACAD_REACTORS
330
2762
102
}
330
2
100
AcDbEntity
  8
Sezione
  6
ACAD_ISO10W100
100
AcDbDimension
  2
*D25
 10
0.1611459113794554
 20
0.1152183764172968
 30
0.0
 11
0.2780893354511711
 21
0.2055303332418715
 31
0.0
 70
    35
  1
d 530 mm
 71
     5
 42
0.1325
  3
Bovelacci
100
AcDbDiametricDimension
 15
0.2599242728201685
 25
0.2035308065225082
 35
0.0
 40
0.0
1001
ACAD
1000
DSTYLE
1002
{
1070
   288
1070
     1
1002
}
  0
ENDSEC
  0
SECTION
  2
OBJECTS
  0
DICTIONARY
  5
9
330
0
100
AcDbDictionary
281
     1
  3
ACAD_2007HEADERVARS_RT
350
208
  3
ACAD_COLOR
350
184
  3
ACAD_GROUP
350
17F
  3
ACAD_LAYOUT
350
164
  3
ACAD_MATERIAL
350
B
  3
ACAD_MLINESTYLE
350
180
  3
ACAD_PLOTSETTINGS
350
181
  3
ACAD_PLOTSTYLENAME
350
8
  3
ACAD_TABLESTYLE
350
185
  3
ACAD_VISUALSTYLE
350
17A
  3
ACDBHEADERROUNDTRIPXREC
350
2771
  3
AcDbVariableDictionary
350
18B
  3
ASE_INDEX_DICTIONARY
350
2433
  3
DWGPROPS
350
2770
  0
DICTIONARY
  5
16E
330
16D
100
AcDbDictionary
280
     1
281
     1
  3
ACAD_LAYERSTATES
360
16F
  0
DICTIONARY
  5
3
330
2
100
AcDbDictionary
280
     1
281
     1
  3
ACAD_SORTENTS
360
18A
  0
DICTIONARY
  5
1378
330
12F0
100
AcDbDictionary
280
     1
281
     1
  3
ACAD_SORTENTS
360
1379
  0
DICTIONARY
  5
2772
330
18
100
AcDbDictionary
280
     1
281
     1
  3
ACAD_MTEXT_RT
360
2773
  0
DICTIONARY
  5
275B
330
2751
100
AcDbDictionary
280
     1
281
     1
  3
ACAD_DIMASSOC
360
2762
  0
DICTIONARY
  5
208
102
{ACAD_REACTORS
330
9
102
}
330
9
100
AcDbDictionary
281
     1
  3
DIMFXL
350
209
  0
DICTIONARY
  5
184
102
{ACAD_REACTORS
330
9
102
}
330
9
100
AcDbDictionary
281
     1
  0
DICTIONARY
  5
17F
102
{ACAD_REACTORS
330
9
102
}
330
9
100
AcDbDictionary
281
     1
  0
DICTIONARY
  5
164
102
{ACAD_REACTORS
330
9
102
}
330
9
100
AcDbDictionary
281
     1
  3
Layout1
350
168
  3
Layout2
350
16C
  3
Model
350
163
  0
DICTIONARY
  5
B
102
{ACAD_REACTORS
330
9
102
}
330
9
100
AcDbDictionary
281
     1
  3
ByBlock
350
183
  3
ByLayer
350
182
  3
Global
350
A
  0
DICTIONARY
  5
180
102
{ACAD_REACTORS
330
9
102
}
330
9
100
AcDbDictionary
281
     1
  3
Standard
350
186
  0
DICTIONARY
  5
181
102
{ACAD_REACTORS
330
9
102
}
330
9
100
AcDbDictionary
281
     1
  0
ACDBDICTIONARYWDFLT
  5
8
102
{ACAD_REACTORS
330
9
102
}
330
9
100
AcDbDictionary
281
     1
  3
Normal
350
7
100
AcDbDictionaryWithDefault
340
7
  0
DICTIONARY
  5
185
102
{ACAD_REACTORS
330
9
102
}
330
9
100
AcDbDictionary
281
     1
  3
Standard
350
187
  0
DICTIONARY
  5
17A
102
{ACAD_REACTORS
330
9
102
}
330
9
100
AcDbDictionary
281
     1
  3
2dWireframe
350
179
  3
3D Hidden
350
1BD
  3
3dWireframe
350
189
  3
Basic
350
1BC
  3
Brighten
350
1C0
  3
ColorChange
350
1C4
  3
Conceptual
350
1BE
  3
Dim
350
1BF
  3
Facepattern
350
1C3
  3
Flat
350
1B8
  3
FlatWithEdges
350
1B9
  3
Gouraud
350
1BA
  3
GouraudWithEdges
350
1BB
  3
Linepattern
350
1C2
  3
Realistic
350
188
  3
Thicken
350
1C1
  0
DICTIONARY
  5
2771
102
{ACAD_REACTORS
330
9
102
}
330
9
100
AcDbDictionary
281
     1
  0
DICTIONARY
  5
18B
102
{ACAD_REACTORS
330
9
102
}
330
9
100
AcDbDictionary
281
     1
  3
CTABLESTYLE
350
18C
  3
DIMASSOC
350
190
  3
HIDETEXT
350
18F
  3
INDEXCTL
350
18E
  3
PROJECTNAME
350
31D
  3
SORTENTS
350
18D
  0
DICTIONARY
  5
2433
102
{ACAD_REACTORS
330
9
102
}
330
9
100
AcDbDictionary
281
     1
  3
ASEBlockHierarchyIndexRecord
350
2434
1001
DCO15
1040
1598721342.046
  0
XRECORD
  5
2770
102
{ACAD_REACTORS
330
9
102
}
330
9
100
AcDbXrecord
280
     1
  1
DWGPROPS COOKIE
  2

  3

  4

  6

  7

  8
Mario
  9

300
=
301
=
302
=
303
=
304
=
305
=
306
=
307
=
308
=
309
=
 40
0.1979027546296297
 41
2454297.625402373
 42
2454306.931088495
  1

 90
        0
  0
DICTIONARY
  5
16F
102
{ACAD_REACTORS
330
16E
102
}
330
16E
100
AcDbDictionary
281
     1
  0
SORTENTSTABLE
  5
18A
102
{ACAD_REACTORS
330
3
102
}
330
3
100
AcDbSortentsTable
330
2
331
10
  5
18
331
21
  5
23F
331
23F
  5
1CA6
331
11
  5
1C
331
22
  5
2AC
331
1C
  5
22
331
17
  5
1E
331
12
  5
1D
331
23
  5
3BB
331
D
  5
17
331
1D
  5
23
331
18
  5
21
331
24
  5
1F
331
1E
  5
24
331
25
  5
1066
331
1F
  5
25
  0
SORTENTSTABLE
  5
1379
102
{ACAD_REACTORS
330
1378
102
}
330
1378
100
AcDbSortentsTable
330
12F0
  0
XRECORD
  5
2773
102
{ACAD_REACTORS
330
2772
102
}
330
2772
100
AcDbXrecord
280
     1
 40
7955300.0
  1
{\fTimes New Roman|b0|i0|c238|p18;\H1.6x;\C4;Bovelacci\P\pt0.09;\H0.4375x;\T0.95;via del Commercio, 5  47100 Forli - Italy  \fTimes New Roman|b0|i0|c0|p18;\P\fTimes New Roman|b0|i0|c238|p18;tel.+39-0543721386  fax +39-0543721127\fTimes New Roman|b0|i
  1
0|c0|p18; \fTimes New Roman|b0|i0|c238|p18;www.bovelacci.it\fTimes New Roman|b0|i0|c0|p18; \fTimes New Roman|b0|i0|c238|p18;e-mail: bovelacci@bovelacci\fTimes New Roman|b0|i0|c0|p18;.it}
  0
DIMASSOC
  5
2762
102
{ACAD_REACTORS
330
275B
102
}
330
275B
100
AcDbDimAssoc
330
2751
 90
        2
 70
     0
 71
     0
  1
AcDbOsnapPointRef
 72
     3
331
25CC
 73
     2
 91
        0
 40
0.0
 10
0.0
 20
0.0
 30
0.0
 75
     0
  0
XRECORD
  5
209
102
{ACAD_REACTORS
330
208
102
}
330
208
100
AcDbXrecord
280
     1
 40
0.18
  0
LAYOUT
  5
168
102
{ACAD_XDICTIONARY
360
2776
102
}
102
{ACAD_REACTORS
330
164
102
}
330
164
100
AcDbPlotSettings
  1

  2
C:\Documents and Settings\All Users\Dati applicazioni\Autodesk\ADT 2006\enu\Plotters\Default Windows System Printer.pc3
  4

  6

 40
0.0
 41
0.0
 42
0.0
 43
0.0
 44
0.0
 45
0.0
 46
0.0
 47
0.0
 48
0.0
 49
0.0
140
0.0
141
0.0
142
1.0
143
1.0
 70
   688
 72
     0
 73
     0
 74
     5
  7

 75
    16
147
1.0
148
0.0
149
0.0
100
AcDbLayout
  1
Layout1
 70
     1
 71
     1
 10
0.0
 20
0.0
 11
420.0
 21
297.0
 12
0.0
 22
0.0
 32
0.0
 14
1.000000000000000E+20
 24
1.000000000000000E+20
 34
1.000000000000000E+20
 15
-1.000000000000000E+20
 25
-1.000000000000000E+20
 35
-1.000000000000000E+20
146
0.0
 13
0.0
 23
0.0
 33
0.0
 16
1.0
 26
0.0
 36
0.0
 17
0.0
 27
1.0
 37
0.0
 76
     0
330
165
  0
LAYOUT
  5
16C
102
{ACAD_XDICTIONARY
360
2778
102
}
102
{ACAD_REACTORS
330
164
102
}
330
164
100
AcDbPlotSettings
  1

  2
C:\Documents and Settings\All Users\Dati applicazioni\Autodesk\ADT 2006\enu\Plotters\Default Windows System Printer.pc3
  4

  6

 40
0.0
 41
0.0
 42
0.0
 43
0.0
 44
0.0
 45
0.0
 46
0.0
 47
0.0
 48
0.0
 49
0.0
140
0.0
141
0.0
142
1.0
143
1.0
 70
   688
 72
     0
 73
     0
 74
     5
  7

 75
    16
147
1.0
148
0.0
149
0.0
100
AcDbLayout
  1
Layout2
 70
     1
 71
     2
 10
0.0
 20
0.0
 11
12.0
 21
9.0
 12
0.0
 22
0.0
 32
0.0
 14
0.0
 24
0.0
 34
0.0
 15
0.0
 25
0.0
 35
0.0
146
0.0
 13
0.0
 23
0.0
 33
0.0
 16
1.0
 26
0.0
 36
0.0
 17
0.0
 27
1.0
 37
0.0
 76
     0
330
169
  0
LAYOUT
  5
163
102
{ACAD_XDICTIONARY
360
2774
102
}
102
{ACAD_REACTORS
330
164
102
}
330
164
100
AcDbPlotSettings
  1

  2
C:\Documents and Settings\All Users\Dati applicazioni\Autodesk\ADT 2006\enu\Plotters\Default Windows System Printer.pc3
  4

  6

 40
0.0
 41
0.0
 42
0.0
 43
0.0
 44
0.0
 45
0.0
 46
0.0
 47
0.0
 48
0.0
 49
0.0
140
0.0
141
0.0
142
1.0
143
1.0
 70
  1712
 72
     0
 73
     0
 74
     0
  7

 75
     0
147
1.0
148
0.0
149
0.0
100
AcDbLayout
  1
Model
 70
     1
 71
     0
 10
0.0
 20
0.0
 11
12.0
 21
9.0
 12
0.0
 22
0.0
 32
0.0
 14
0.0
 24
0.0
 34
0.0
 15
0.0
 25
0.0
 35
0.0
146
0.0
 13
0.0
 23
0.0
 33
0.0
 16
1.0
 26
0.0
 36
0.0
 17
0.0
 27
1.0
 37
0.0
 76
     0
330
2
  0
MATERIAL
  5
183
102
{ACAD_XDICTIONARY
360
1B0
102
}
102
{ACAD_REACTORS
330
B
102
}
330
B
100
AcDbMaterial
  1
ByBlock
  0
MATERIAL
  5
182
102
{ACAD_XDICTIONARY
360
1AE
102
}
102
{ACAD_REACTORS
330
B
102
}
330
B
100
AcDbMaterial
  1
ByLayer
  0
MATERIAL
  5
A
102
{ACAD_XDICTIONARY
360
193
102
}
102
{ACAD_REACTORS
330
B
102
}
330
B
100
AcDbMaterial
  1
Global
  0
MLINESTYLE
  5
186
102
{ACAD_REACTORS
330
180
102
}
330
180
100
AcDbMlineStyle
  2
STANDARD
 70
     0
  3

 62
   256
 51
90.0
 52
90.0
 71
     2
 49
0.5
 62
   256
  6
BYLAYER
 49
-0.5
 62
   256
  6
BYLAYER
  0
ACDBPLACEHOLDER
  5
7
102
{ACAD_REACTORS
330
8
102
}
330
8
  0
TABLESTYLE
  5
187
102
{ACAD_XDICTIONARY
360
21A
102
}
102
{ACAD_REACTORS
330
185
102
}
330
185
100
AcDbTableStyle
  3
Standard
 70
     0
 71
     0
 40
1.5
 41
1.5
280
     0
281
     0
  7
Standard
140
4.5
170
     2
 62
     0
 63
     7
283
     0
274
    -2
284
     1
 64
     0
275
    -2
285
     1
 65
     0
276
    -2
286
     1
 66
     0
277
    -2
287
     1
 67
     0
278
    -2
288
     1
 68
     0
279
    -2
289
     1
 69
     0
  7
Standard
140
6.0
170
     5
 62
     0
 63
     7
283
     0
274
    -2
284
     1
 64
     0
275
    -2
285
     1
 65
     0
276
    -2
286
     1
 66
     0
277
    -2
287
     1
 67
     0
278
    -2
288
     1
 68
     0
279
    -2
289
     1
 69
     0
  7
Standard
140
4.5
170
     5
 62
     0
 63
     7
283
     0
274
    -2
284
     1
 64
     0
275
    -2
285
     1
 65
     0
276
    -2
286
     1
 66
     0
277
    -2
287
     1
 67
     0
278
    -2
288
     1
 68
     0
279
    -2
289
     1
 69
     0
  0
VISUALSTYLE
  5
179
102
{ACAD_REACTORS
330
17A
102
}
330
17A
100
AcDbVisualStyle
  2
2dWireframe
 70
     4
 71
     0
 72
     2
 73
     0
 90
        0
 40
-0.6
 41
-30.0
 62
     5
 63
     7
 74
     1
 91
        4
 64
     7
 65
   257
 75
     1
175
     1
 42
1.0
 92
        0
 66
   257
 43
1.0
 76
     1
 77
     6
 78
     2
 67
     7
 79
     5
170
     0
171
     0
290
     0
174
     0
 93
        1
 44
0.0
173
     0
291
     0
 45
0.0
1001
ACAD
1000
AcDbSavedByObjectVersion
1070
     0
1000
AcDbSavedByObjectVersion
1070
     0
1000
AcDbSavedByObjectVersion
1070
     0
1001
ACAD
1000
AcRTDxfName
1000
VISUALSTYLE
  0
VISUALSTYLE
  5
1BD
102
{ACAD_REACTORS
330
17A
102
}
330
17A
100
AcDbVisualStyle
  2
3D Hidden
 70
     6
 71
     1
 72
     2
 73
     2
 90
        0
 40
-0.6
 41
-30.0
 62
     5
 63
     7
 74
     2
 91
        2
 64
     7
 65
   257
 75
     2
175
     1
 42
40.0
 92
        0
 66
   257
 43
1.0
 76
     1
 77
     6
 78
     2
 67
     7
 79
     3
170
     0
171
     0
290
     0
174
     0
 93
        1
 44
0.0
173
     0
291
     0
 45
0.0
1001
ACAD
1000
AcDbSavedByObjectVersion
1070
     0
1000
AcDbSavedByObjectVersion
1070
     0
1001
ACAD
1000
AcRTDxfName
1000
VISUALSTYLE
  0
VISUALSTYLE
  5
189
102
{ACAD_REACTORS
330
17A
102
}
330
17A
100
AcDbVisualStyle
  2
3dWireframe
 70
     5
 71
     0
 72
     2
 73
     0
 90
        0
 40
-0.6
 41
-30.0
 62
     5
 63
     7
 74
     1
 91
        4
 64
     7
 65
   257
 75
     1
175
     1
 42
1.0
 92
        0
 66
   257
 43
1.0
 76
     1
 77
     6
 78
     2
 67
     7
 79
     5
170
     0
171
     0
290
     0
174
     0
 93
        1
 44
0.0
173
     0
291
     0
 45
0.0
1001
ACAD
1000
AcDbSavedByObjectVersion
1070
     0
1000
AcDbSavedByObjectVersion
1070
     0
1000
AcDbSavedByObjectVersion
1070
     0
1001
ACAD
1000
AcRTDxfName
1000
VISUALSTYLE
  0
VISUALSTYLE
  5
1BC
102
{ACAD_REACTORS
330
17A
102
}
330
17A
100
AcDbVisualStyle
  2
Basic
 70
     7
 71
     1
 72
     0
 73
     1
 90
        0
 40
-0.6
 41
-30.0
 62
     5
 63
     7
 74
     0
 91
        4
 64
     7
 65
   257
 75
     1
175
     1
 42
1.0
 92
        8
 66
     7
 43
1.0
 76
     1
 77
     6
 78
     2
 67
     7
 79
     5
170
     0
171
     0
290
     0
174
     0
 93
        1
 44
0.0
173
     0
291
     1
 45
0.0
1001
ACAD
1000
AcDbSavedByObjectVersion
1070
     0
1000
AcDbSavedByObjectVersion
1070
     0
1001
ACAD
1000
AcRTDxfName
1000
VISUALSTYLE
  0
VISUALSTYLE
  5
1C0
102
{ACAD_REACTORS
330
17A
102
}
330
17A
100
AcDbVisualStyle
  2
Brighten
 70
    12
 71
     2
 72
     2
 73
     0
 90
        0
 40
-0.6
 41
-30.0
 62
     5
 63
     7
 74
     1
 91
        4
 64
     7
 65
   257
 75
     1
175
     1
 42
1.0
 92
        8
 66
     7
 43
1.0
 76
     1
 77
     6
 78
     2
 67
     7
 79
     5
170
     0
171
     0
290
     0
174
     0
 93
        1
 44
50.0
173
     0
291
     1
 45
0.0
1001
ACAD
1000
AcDbSavedByObjectVersion
1070
     0
1000
AcDbSavedByObjectVersion
1070
     0
1001
ACAD
1000
AcRTDxfName
1000
VISUALSTYLE
  0
VISUALSTYLE
  5
1C4
102
{ACAD_REACTORS
330
17A
102
}
330
17A
100
AcDbVisualStyle
  2
ColorChange
 70
    16
 71
     2
 72
     2
 73
     3
 90
        0
 40
-0.6
 41
-30.0
 62
     5
 63
     8
 74
     1
 91
        4
 64
     7
 65
   257
 75
     1
175
     1
 42
1.0
 92
        8
 66
     8
 43
1.0
 76
     1
 77
     6
 78
     2
 67
     7
 79
     5
170
     0
171
     0
290
     0
174
     0
 93
        1
 44
0.0
173
     0
291
     1
 45
0.0
1001
ACAD
1000
AcDbSavedByObjectVersion
1070
     0
1000
AcDbSavedByObjectVersion
1070
     0
1001
ACAD
1000
AcRTDxfName
1000
VISUALSTYLE
  0
VISUALSTYLE
  5
1BE
102
{ACAD_REACTORS
330
17A
102
}
330
17A
100
AcDbVisualStyle
  2
Conceptual
 70
     9
 71
     3
 72
     2
 73
     0
 90
        0
 40
-0.6
 41
-30.0
 62
     5
 63
     7
 74
     2
 91
        2
 64
     7
 65
   257
 75
     1
175
     1
 42
40.0
 92
        8
 66
     7
 43
1.0
 76
     1
 77
     6
 78
     2
 67
     7
 79
     3
170
     0
171
     0
290
     0
174
     0
 93
        1
 44
0.0
173
     0
291
     0
 45
0.0
1001
ACAD
1000
AcDbSavedByObjectVersion
1070
     0
1000
AcDbSavedByObjectVersion
1070
     0
1001
ACAD
1000
AcRTDxfName
1000
VISUALSTYLE
  0
VISUALSTYLE
  5
1BF
102
{ACAD_REACTORS
330
17A
102
}
330
17A
100
AcDbVisualStyle
  2
Dim
 70
    11
 71
     2
 72
     2
 73
     0
 90
        0
 40
-0.6
 41
-30.0
 62
     5
 63
     7
 74
     1
 91
        4
 64
     7
 65
   257
 75
     1
175
     1
 42
1.0
 92
        8
 66
     7
 43
1.0
 76
     1
 77
     6
 78
     2
 67
     7
 79
     5
170
     0
171
     0
290
     0
174
     0
 93
        1
 44
-50.0
173
     0
291
     1
 45
0.0
1001
ACAD
1000
AcDbSavedByObjectVersion
1070
     0
1000
AcDbSavedByObjectVersion
1070
     0
1001
ACAD
1000
AcRTDxfName
1000
VISUALSTYLE
  0
VISUALSTYLE
  5
1C3
102
{ACAD_REACTORS
330
17A
102
}
330
17A
100
AcDbVisualStyle
  2
Facepattern
 70
    15
 71
     2
 72
     2
 73
     0
 90
        0
 40
-0.6
 41
-30.0
 62
     5
 63
     7
 74
     1
 91
        4
 64
     7
 65
   257
 75
     1
175
     1
 42
1.0
 92
        8
 66
     7
 43
1.0
 76
     1
 77
     6
 78
     2
 67
     7
 79
     5
170
     0
171
     0
290
     0
174
     0
 93
        1
 44
0.0
173
     0
291
     1
 45
0.0
1001
ACAD
1000
AcDbSavedByObjectVersion
1070
     0
1000
AcDbSavedByObjectVersion
1070
     0
1001
ACAD
1000
AcRTDxfName
1000
VISUALSTYLE
  0
VISUALSTYLE
  5
1B8
102
{ACAD_REACTORS
330
17A
102
}
330
17A
100
AcDbVisualStyle
  2
Flat
 70
     0
 71
     2
 72
     1
 73
     1
 90
        2
 40
-0.6
 41
30.0
 62
     5
 63
     7
 74
     0
 91
        4
 64
     7
 65
   257
 75
     1
175
     1
 42
1.0
 92
        8
 66
     7
 43
1.0
 76
     1
 77
     6
 78
     2
 67
     7
 79
     5
170
     0
171
     0
290
     0
174
     0
 93
       13
 44
0.0
173
     0
291
     1
 45
0.0
1001
ACAD
1000
AcDbSavedByObjectVersion
1070
     0
1000
AcDbSavedByObjectVersion
1070
     0
1001
ACAD
1000
AcRTDxfName
1000
VISUALSTYLE
  0
VISUALSTYLE
  5
1B9
102
{ACAD_REACTORS
330
17A
102
}
330
17A
100
AcDbVisualStyle
  2
FlatWithEdges
 70
     1
 71
     2
 72
     1
 73
     1
 90
        2
 40
-0.6
 41
30.0
 62
     5
 63
     7
 74
     1
 91
        4
 64
     7
 65
   257
 75
     1
175
     1
 42
1.0
 92
        0
 66
   257
 43
1.0
 76
     1
 77
     6
 78
     2
 67
     7
 79
     5
170
     0
171
     0
290
     0
174
     0
 93
       13
 44
0.0
173
     0
291
     1
 45
0.0
1001
ACAD
1000
AcDbSavedByObjectVersion
1070
     0
1000
AcDbSavedByObjectVersion
1070
     0
1001
ACAD
1000
AcRTDxfName
1000
VISUALSTYLE
  0
VISUALSTYLE
  5
1BA
102
{ACAD_REACTORS
330
17A
102
}
330
17A
100
AcDbVisualStyle
  2
Gouraud
 70
     2
 71
     2
 72
     2
 73
     1
 90
        2
 40
-0.6
 41
30.0
 62
     5
 63
     7
 74
     0
 91
        4
 64
     7
 65
   257
 75
     1
175
     1
 42
1.0
 92
        0
 66
     7
 43
1.0
 76
     1
 77
     6
 78
     2
 67
     7
 79
     5
170
     0
171
     0
290
     0
174
     0
 93
       13
 44
0.0
173
     0
291
     1
 45
0.0
1001
ACAD
1000
AcDbSavedByObjectVersion
1070
     0
1000
AcDbSavedByObjectVersion
1070
     0
1001
ACAD
1000
AcRTDxfName
1000
VISUALSTYLE
  0
VISUALSTYLE
  5
1BB
102
{ACAD_REACTORS
330
17A
102
}
330
17A
100
AcDbVisualStyle
  2
GouraudWithEdges
 70
     3
 71
     2
 72
     2
 73
     1
 90
        2
 40
-0.6
 41
30.0
 62
     5
 63
     7
 74
     1
 91
        4
 64
     7
 65
   257
 75
     1
175
     1
 42
1.0
 92
        0
 66
   257
 43
1.0
 76
     1
 77
     6
 78
     2
 67
     7
 79
     5
170
     0
171
     0
290
     0
174
     0
 93
       13
 44
0.0
173
     0
291
     1
 45
0.0
1001
ACAD
1000
AcDbSavedByObjectVersion
1070
     0
1000
AcDbSavedByObjectVersion
1070
     0
1001
ACAD
1000
AcRTDxfName
1000
VISUALSTYLE
  0
VISUALSTYLE
  5
1C2
102
{ACAD_REACTORS
330
17A
102
}
330
17A
100
AcDbVisualStyle
  2
Linepattern
 70
    14
 71
     2
 72
     2
 73
     0
 90
        0
 40
-0.6
 41
-30.0
 62
     5
 63
     7
 74
     1
 91
        4
 64
     7
 65
   257
 75
     7
175
     7
 42
1.0
 92
        8
 66
     7
 43
1.0
 76
     1
 77
     6
 78
     2
 67
     7
 79
     5
170
     0
171
     0
290
     0
174
     0
 93
        1
 44
0.0
173
     0
291
     1
 45
0.0
1001
ACAD
1000
AcDbSavedByObjectVersion
1070
     0
1000
AcDbSavedByObjectVersion
1070
     0
1001
ACAD
1000
AcRTDxfName
1000
VISUALSTYLE
  0
VISUALSTYLE
  5
188
102
{ACAD_REACTORS
330
17A
102
}
330
17A
100
AcDbVisualStyle
  2
Realistic
 70
     8
 71
     2
 72
     2
 73
     0
 90
        0
 40
-0.6
 41
-30.0
 62
     5
 63
     7
 74
     1
 91
        0
 64
     7
 65
   257
 75
     1
175
     1
 42
1.0
 92
        8
 66
     8
 43
1.0
 76
     1
 77
     6
 78
     2
 67
     7
 79
     5
170
     0
171
     0
290
     0
174
     0
 93
       13
 44
0.0
173
     0
291
     0
 45
0.0
1001
ACAD
1000
AcDbSavedByObjectVersion
1070
     0
1000
AcDbSavedByObjectVersion
1070
     0
1000
AcDbSavedByObjectVersion
1070
     0
1001
ACAD
1000
AcRTDxfName
1000
VISUALSTYLE
  0
VISUALSTYLE
  5
1C1
102
{ACAD_REACTORS
330
17A
102
}
330
17A
100
AcDbVisualStyle
  2
Thicken
 70
    13
 71
     2
 72
     2
 73
     0
 90
        0
 40
-0.6
 41
-30.0
 62
     5
 63
     7
 74
     1
 91
        4
 64
     7
 65
   257
 75
     1
175
     1
 42
1.0
 92
       12
 66
     7
 43
1.0
 76
     1
 77
     6
 78
     2
 67
     7
 79
     5
170
     0
171
     0
290
     0
174
     0
 93
        1
 44
0.0
173
     0
291
     1
 45
0.0
1001
ACAD
1000
AcDbSavedByObjectVersion
1070
     0
1000
AcDbSavedByObjectVersion
1070
     0
1001
ACAD
1000
AcRTDxfName
1000
VISUALSTYLE
  0
DICTIONARYVAR
  5
18C
102
{ACAD_REACTORS
330
18B
102
}
330
18B
100
DictionaryVariables
280
     0
  1
STANDARD
  0
DICTIONARYVAR
  5
190
102
{ACAD_REACTORS
330
18B
102
}
330
18B
100
DictionaryVariables
280
     0
  1
2
  0
DICTIONARYVAR
  5
18F
102
{ACAD_REACTORS
330
18B
102
}
330
18B
100
DictionaryVariables
280
     0
  1
1
  0
DICTIONARYVAR
  5
18E
102
{ACAD_REACTORS
330
18B
102
}
330
18B
100
DictionaryVariables
280
     0
  1
0
  0
DICTIONARYVAR
  5
31D
102
{ACAD_REACTORS
330
18B
102
}
330
18B
100
DictionaryVariables
280
     0
  1

  0
DICTIONARYVAR
  5
18D
102
{ACAD_REACTORS
330
18B
102
}
330
18B
100
DictionaryVariables
280
     0
  1
127
  0
XRECORD
  5
2434
102
{ACAD_REACTORS
330
2433
102
}
330
2433
100
AcDbXrecord
280
     1
330
21AC
330
2410
330
242E
330
276C
  0
DICTIONARY
  5
2776
330
168
100
AcDbDictionary
280
     1
281
     1
  3
ACAD_XREC_ROUNDTRIP
360
2777
  0
DICTIONARY
  5
2778
330
16C
100
AcDbDictionary
280
     1
281
     1
  3
ACAD_XREC_ROUNDTRIP
360
2779
  0
DICTIONARY
  5
2774
330
163
100
AcDbDictionary
280
     1
281
     1
  3
ACAD_XREC_ROUNDTRIP
360
2775
  0
DICTIONARY
  5
1B0
330
183
100
AcDbDictionary
280
     1
281
     1
  3
ACAD_XREC_ROUNDTRIP
360
1B1
  0
DICTIONARY
  5
1AE
330
182
100
AcDbDictionary
280
     1
281
     1
  3
ACAD_XREC_ROUNDTRIP
360
1AF
  0
DICTIONARY
  5
193
330
A
100
AcDbDictionary
280
     1
281
     1
  3
ACAD_XREC_ROUNDTRIP
360
194
  0
DICTIONARY
  5
21A
330
187
100
AcDbDictionary
280
     1
281
     1
  3
ACAD_XREC_ROUNDTRIP
360
21B
  0
XRECORD
  5
2777
102
{ACAD_REACTORS
330
2776
102
}
330
2776
100
AcDbXrecord
280
     1
102
SHADEPLOT
 70
     0
102
SHADEPLOTRESLEVEL
 70
     2
102
SHADEPLOTCUSTOMDPI
 70
   300
  0
XRECORD
  5
2779
102
{ACAD_REACTORS
330
2778
102
}
330
2778
100
AcDbXrecord
280
     1
102
SHADEPLOT
 70
     0
102
SHADEPLOTRESLEVEL
 70
     2
102
SHADEPLOTCUSTOMDPI
 70
   300
  0
XRECORD
  5
2775
102
{ACAD_REACTORS
330
2774
102
}
330
2774
100
AcDbXrecord
280
     1
102
SHADEPLOT
 70
     0
102
SHADEPLOTRESLEVEL
 70
     2
102
SHADEPLOTCUSTOMDPI
 70
   300
  0
XRECORD
  5
1B1
102
{ACAD_REACTORS
330
1B0
102
}
330
1B0
100
AcDbXrecord
280
     1
102
MATERIAL
148
0.0
149
0.0
149
0.0
 93
        0
 94
       63
282
     0
 72
     1
 77
     1
171
     1
175
     1
179
     1
273
     0
  0
XRECORD
  5
1AF
102
{ACAD_REACTORS
330
1AE
102
}
330
1AE
100
AcDbXrecord
280
     1
102
MATERIAL
148
0.0
149
0.0
149
0.0
 93
        0
 94
       63
282
     0
 72
     1
 77
     1
171
     1
175
     1
179
     1
273
     0
  0
XRECORD
  5
194
102
{ACAD_REACTORS
330
193
102
}
330
193
100
AcDbXrecord
280
     1
102
MATERIAL
148
0.0
149
0.0
149
0.0
 93
        0
 94
       63
282
     0
 72
     1
 77
     1
171
     1
175
     1
179
     1
273
     0
  0
XRECORD
  5
21B
102
{ACAD_REACTORS
330
21A
102
}
330
21A
100
AcDbXrecord
280
     1
102
ACAD_ROUNDTRIP_PRE2007_TABLESTYLE
 90
        4
 91
        0
  1

 92
        4
 93
        0
  2

 94
        4
 95
        0
  3

  0
ENDSEC
  0
EOF
