  0
SECTION
  2
HEADER
  9
$ACADVER
  1
AC1018
  9
$ACADMAINTVER
 70
    76
  9
$DWGCODEPAGE
  3
ANSI_1252
  9
$LASTSAVEDBY
  1
simone
  9
$INSBASE
 10
0.0
 20
0.0
 30
0.0
  9
$EXTMIN
 10
0.0149999999999999
 20
0.015
 30
0.0
  9
$EXTMAX
 10
0.4050000000000001
 20
0.282
 30
0.0
  9
$LIMMIN
 10
0.0
 20
0.0
  9
$LIMMAX
 10
1.0
 20
0.5
  9
$ORTHOMODE
 70
     0
  9
$REGENMODE
 70
     1
  9
$FILLMODE
 70
     1
  9
$QTEXTMODE
 70
     0
  9
$MIRRTEXT
 70
     0
  9
$LTSCALE
 40
1.0
  9
$ATTMODE
 70
     1
  9
$TEXTSIZE
 40
0.008
  9
$TRACEWID
 40
1.0
  9
$TEXTSTYLE
  7
style1
  9
$CLAYER
  8
Text
  9
$CELTYPE
  6
ACAD_ISO10W100
  9
$CECOLOR
 62
   256
  9
$CELTSCALE
 40
1.0
  9
$DISPSILH
 70
     0
  9
$DIMSCALE
 40
0.001
  9
$DIMASZ
 40
1.5
  9
$DIMEXO
 40
0.0625
  9
$DIMDLI
 40
0.38
  9
$DIMRND
 40
0.0
  9
$DIMDLE
 40
0.0
  9
$DIMEXE
 40
0.18
  9
$DIMTP
 40
0.0
  9
$DIMTM
 40
0.0
  9
$DIMTXT
 40
3.0
  9
$DIMCEN
 40
0.0
  9
$DIMTSZ
 40
0.0
  9
$DIMTOL
 70
     0
  9
$DIMLIM
 70
     0
  9
$DIMTIH
 70
     1
  9
$DIMTOH
 70
     1
  9
$DIMSE1
 70
     0
  9
$DIMSE2
 70
     0
  9
$DIMTAD
 70
     0
  9
$DIMZIN
 70
     0
  9
$DIMBLK
  1
ArchTick
  9
$DIMASO
 70
     1
  9
$DIMSHO
 70
     1
  9
$DIMPOST
  1

  9
$DIMAPOST
  1

  9
$DIMALT
 70
     0
  9
$DIMALTD
 70
     2
  9
$DIMALTF
 40
25.4
  9
$DIMLFAC
 40
1.0
  9
$DIMTOFL
 70
     0
  9
$DIMTVP
 40
0.0
  9
$DIMTIX
 70
     0
  9
$DIMSOXD
 70
     0
  9
$DIMSAH
 70
     0
  9
$DIMBLK1
  1

  9
$DIMBLK2
  1

  9
$DIMSTYLE
  2
Bovelacci
  9
$DIMCLRD
 70
     5
  9
$DIMCLRE
 70
     5
  9
$DIMCLRT
 70
     4
  9
$DIMTFAC
 40
1.0
  9
$DIMGAP
 40
2.0
  9
$DIMJUST
 70
     0
  9
$DIMSD1
 70
     0
  9
$DIMSD2
 70
     0
  9
$DIMTOLJ
 70
     1
  9
$DIMTZIN
 70
     0
  9
$DIMALTZ
 70
     0
  9
$DIMALTTZ
 70
     0
  9
$DIMUPT
 70
     0
  9
$DIMDEC
 70
     2
  9
$DIMTDEC
 70
     2
  9
$DIMALTU
 70
     2
  9
$DIMALTTD
 70
     2
  9
$DIMTXSTY
  7
ROMANS
  9
$DIMAUNIT
 70
     0
  9
$DIMADEC
 70
     0
  9
$DIMALTRND
 40
0.0
  9
$DIMAZIN
 70
     0
  9
$DIMDSEP
 70
    46
  9
$DIMATFIT
 70
     3
  9
$DIMFRAC
 70
     0
  9
$DIMLDRBLK
  1

  9
$DIMLUNIT
 70
     2
  9
$DIMLWD
 70
    -2
  9
$DIMLWE
 70
    -2
  9
$DIMTMOVE
 70
     2
  9
$LUNITS
 70
     2
  9
$LUPREC
 70
     2
  9
$SKETCHINC
 40
1.0
  9
$FILLETRAD
 40
0.0
  9
$AUNITS
 70
     0
  9
$AUPREC
 70
     0
  9
$MENU
  1
.
  9
$ELEVATION
 40
0.0
  9
$PELEVATION
 40
0.0
  9
$THICKNESS
 40
0.0
  9
$LIMCHECK
 70
     0
  9
$CHAMFERA
 40
0.0
  9
$CHAMFERB
 40
0.0
  9
$CHAMFERC
 40
0.0
  9
$CHAMFERD
 40
0.0
  9
$SKPOLY
 70
     0
  9
$TDCREATE
 40
2454297.625402373
  9
$TDUCREATE
 40
2454297.542069039
  9
$TDUPDATE
 40
2454372.442165614
  9
$TDUUPDATE
 40
2454372.358832280
  9
$TDINDWG
 40
0.1376059838
  9
$TDUSRTIMER
 40
0.1376039815
  9
$USRTIMER
 70
     1
  9
$ANGBASE
 50
0.0
  9
$ANGDIR
 70
     0
  9
$PDMODE
 70
     0
  9
$PDSIZE
 40
0.0
  9
$PLINEWID
 40
0.0
  9
$SPLFRAME
 70
     0
  9
$SPLINETYPE
 70
     6
  9
$SPLINESEGS
 70
     8
  9
$HANDSEED
  5
A52
  9
$SURFTAB1
 70
     6
  9
$SURFTAB2
 70
     6
  9
$SURFTYPE
 70
     6
  9
$SURFU
 70
     6
  9
$SURFV
 70
     6
  9
$UCSBASE
  2

  9
$UCSNAME
  2

  9
$UCSORG
 10
0.0
 20
0.0
 30
0.0
  9
$UCSXDIR
 10
1.0
 20
0.0
 30
0.0
  9
$UCSYDIR
 10
0.0
 20
1.0
 30
0.0
  9
$UCSORTHOREF
  2

  9
$UCSORTHOVIEW
 70
     0
  9
$UCSORGTOP
 10
0.0
 20
0.0
 30
0.0
  9
$UCSORGBOTTOM
 10
0.0
 20
0.0
 30
0.0
  9
$UCSORGLEFT
 10
0.0
 20
0.0
 30
0.0
  9
$UCSORGRIGHT
 10
0.0
 20
0.0
 30
0.0
  9
$UCSORGFRONT
 10
0.0
 20
0.0
 30
0.0
  9
$UCSORGBACK
 10
0.0
 20
0.0
 30
0.0
  9
$PUCSBASE
  2

  9
$PUCSNAME
  2

  9
$PUCSORG
 10
0.0
 20
0.0
 30
0.0
  9
$PUCSXDIR
 10
1.0
 20
0.0
 30
0.0
  9
$PUCSYDIR
 10
0.0
 20
1.0
 30
0.0
  9
$PUCSORTHOREF
  2

  9
$PUCSORTHOVIEW
 70
     0
  9
$PUCSORGTOP
 10
0.0
 20
0.0
 30
0.0
  9
$PUCSORGBOTTOM
 10
0.0
 20
0.0
 30
0.0
  9
$PUCSORGLEFT
 10
0.0
 20
0.0
 30
0.0
  9
$PUCSORGRIGHT
 10
0.0
 20
0.0
 30
0.0
  9
$PUCSORGFRONT
 10
0.0
 20
0.0
 30
0.0
  9
$PUCSORGBACK
 10
0.0
 20
0.0
 30
0.0
  9
$USERI1
 70
     0
  9
$USERI2
 70
     0
  9
$USERI3
 70
     0
  9
$USERI4
 70
     0
  9
$USERI5
 70
     0
  9
$USERR1
 40
0.0
  9
$USERR2
 40
0.0
  9
$USERR3
 40
0.0
  9
$USERR4
 40
0.0
  9
$USERR5
 40
0.0
  9
$WORLDVIEW
 70
     1
  9
$SHADEDGE
 70
     3
  9
$SHADEDIF
 70
    70
  9
$TILEMODE
 70
     1
  9
$MAXACTVP
 70
    64
  9
$PINSBASE
 10
0.0
 20
0.0
 30
0.0
  9
$PLIMCHECK
 70
     0
  9
$PEXTMIN
 10
1.000000000000000E+20
 20
1.000000000000000E+20
 30
1.000000000000000E+20
  9
$PEXTMAX
 10
-1.000000000000000E+20
 20
-1.000000000000000E+20
 30
-1.000000000000000E+20
  9
$PLIMMIN
 10
0.0
 20
0.0
  9
$PLIMMAX
 10
420.0
 20
297.0
  9
$UNITMODE
 70
     0
  9
$VISRETAIN
 70
     1
  9
$PLINEGEN
 70
     0
  9
$PSLTSCALE
 70
     1
  9
$TREEDEPTH
 70
  3020
  9
$CMLSTYLE
  2
Standard
  9
$CMLJUST
 70
     0
  9
$CMLSCALE
 40
20.0
  9
$PROXYGRAPHICS
 70
     1
  9
$MEASUREMENT
 70
     1
  9
$CELWEIGHT
370
    -1
  9
$ENDCAPS
280
     0
  9
$JOINSTYLE
280
     0
  9
$LWDISPLAY
290
     0
  9
$INSUNITS
 70
     4
  9
$HYPERLINKBASE
  1

  9
$STYLESHEET
  1

  9
$XEDIT
290
     1
  9
$CEPSNTYPE
380
     0
  9
$PSTYLEMODE
290
     1
  9
$FINGERPRINTGUID
  2
{904A8C64-524F-4709-A9C6-320D2C273A6D}
  9
$VERSIONGUID
  2
{BA5859F2-E049-40C7-B2C2-66A423BF2BD9}
  9
$EXTNAMES
290
     1
  9
$PSVPSCALE
 40
0.0
  9
$OLESTARTUP
290
     0
  9
$SORTENTS
280
   127
  9
$INDEXCTL
280
     0
  9
$HIDETEXT
280
     1
  9
$XCLIPFRAME
290
     0
  9
$HALOGAP
280
     0
  9
$OBSCOLOR
 70
   257
  9
$OBSLTYPE
280
     0
  9
$INTERSECTIONDISPLAY
280
     0
  9
$INTERSECTIONCOLOR
 70
   257
  9
$DIMASSOC
280
     2
  9
$PROJECTNAME
  1

  0
ENDSEC
  0
SECTION
  2
CLASSES
  0
CLASS
  1
ACDBDICTIONARYWDFLT
  2
AcDbDictionaryWithDefault
  3
ObjectDBX Classes
 90
        0
 91
        1
280
     0
281
     0
  0
CLASS
  1
TABLESTYLE
  2
AcDbTableStyle
  3
ObjectDBX Classes
 90
     2047
 91
        1
280
     0
281
     0
  0
CLASS
  1
SORTENTSTABLE
  2
AcDbSortentsTable
  3
ObjectDBX Classes
 90
        0
 91
        1
280
     0
281
     0
  0
CLASS
  1
DICTIONARYVAR
  2
AcDbDictionaryVar
  3
ObjectDBX Classes
 90
        0
 91
        6
280
     0
281
     0
  0
CLASS
  1
ACDBPLACEHOLDER
  2
AcDbPlaceHolder
  3
ObjectDBX Classes
 90
        0
 91
        1
280
     0
281
     0
  0
CLASS
  1
LAYOUT
  2
AcDbLayout
  3
ObjectDBX Classes
 90
        0
 91
        3
280
     0
281
     0
  0
CLASS
  1
DIMASSOC
  2
AcDbDimAssoc
  3
"AcDbDimAssoc|Product Desc:     AcDim ARX App For Dimension|Company:          Autodesk, Inc.|WEB Address:      www.autodesk.com"
 90
        0
 91
        2
280
     0
281
     0
  0
CLASS
  1
MATERIAL
  2
AcDbMaterial
  3
ObjectDBX Classes
 90
        0
 91
        3
280
     0
281
     0
  0
CLASS
  1
VISUALSTYLE
  2
AcDbVisualStyle
  3
ObjectDBX Classes
 90
     4095
 91
       16
280
     0
281
     0
  0
ENDSEC
  0
SECTION
  2
TABLES
  0
TABLE
  2
VPORT
  5
177
330
0
100
AcDbSymbolTable
 70
     3
  0
VPORT
  5
A51
330
177
100
AcDbSymbolTableRecord
100
AcDbViewportTableRecord
  2
*Active
 70
     0
 10
0.0
 20
0.0
 11
1.0
 21
1.0
 12
0.2053102079638723
 22
0.1654781416357479
 13
0.0
 23
0.0
 14
10.0
 24
10.0
 15
10.0
 25
10.0
 16
0.0
 26
0.0
 36
1.0
 17
0.0
 27
0.0
 37
0.0
 40
0.2882637657120874
 41
1.264179104477611
 42
50.0
 43
0.0
 44
0.0
 50
0.0
 51
0.0
 71
     0
 72
  1000
 73
     1
 74
     3
 75
     0
 76
     0
 77
     0
 78
     0
281
     0
 65
     1
110
0.0
120
0.0
130
0.0
111
1.0
121
0.0
131
0.0
112
0.0
122
1.0
132
0.0
 79
     0
146
0.0
  0
ENDTAB
  0
TABLE
  2
LTYPE
  5
172
330
0
100
AcDbSymbolTable
 70
     2
  0
LTYPE
  5
173
330
172
100
AcDbSymbolTableRecord
100
AcDbLinetypeTableRecord
  2
ByBlock
 70
     0
  3

 72
    65
 73
     0
 40
0.0
  0
LTYPE
  5
174
330
172
100
AcDbSymbolTableRecord
100
AcDbLinetypeTableRecord
  2
ByLayer
 70
     0
  3

 72
    65
 73
     0
 40
0.0
  0
LTYPE
  5
C
330
172
100
AcDbSymbolTableRecord
100
AcDbLinetypeTableRecord
  2
Continuous
 70
     0
  3
Solid line
 72
    65
 73
     0
 40
0.0
  0
LTYPE
  5
14E
330
172
100
AcDbSymbolTableRecord
100
AcDbLinetypeTableRecord
  2
ACAD_ISO10W100
 70
     0
  3
ISO dash dot __ . __ . __ . __ . __ . __ . __ .
 72
    65
 73
     4
 40
18.0
 49
12.0
 74
     0
 49
-3.0
 74
     0
 49
0.0
 74
     0
 49
-3.0
 74
     0
  0
ENDTAB
  0
TABLE
  2
LAYER
  5
16D
102
{ACAD_XDICTIONARY
360
16E
102
}
330
0
100
AcDbSymbolTable
 70
     7
  0
LAYER
  5
6
330
16D
100
AcDbSymbolTableRecord
100
AcDbLayerTableRecord
  2
0
 70
     0
 62
     7
  6
Continuous
370
    -3
390
7
  0
LAYER
  5
15F
330
16D
100
AcDbSymbolTableRecord
100
AcDbLayerTableRecord
  2
Defpoints
 70
     0
 62
     7
  6
Continuous
290
     0
370
    -3
390
7
  0
LAYER
  5
28
330
16D
100
AcDbSymbolTableRecord
100
AcDbLayerTableRecord
  2
Profilo
 70
     0
 62
     1
  6
Continuous
370
    -3
390
7
1001
AcAecLayerStandard
1000

1000

  0
LAYER
  5
14D
330
16D
100
AcDbSymbolTableRecord
100
AcDbLayerTableRecord
  2
Sezione
 70
     0
 62
     2
  6
Continuous
370
    -3
390
7
1001
AcAecLayerStandard
1000

1000

  0
LAYER
  5
E
330
16D
100
AcDbSymbolTableRecord
100
AcDbLayerTableRecord
  2
Table
 70
     0
 62
     3
  6
Continuous
370
    -3
390
7
1001
AcAecLayerStandard
1000

1000

  0
LAYER
  5
19
330
16D
100
AcDbSymbolTableRecord
100
AcDbLayerTableRecord
  2
Text
 70
     0
 62
     4
  6
Continuous
370
    -3
390
7
1001
AcAecLayerStandard
1000

1000

  0
LAYER
  5
256
330
16D
100
AcDbSymbolTableRecord
100
AcDbLayerTableRecord
  2
Bovelacci
 70
     0
 62
     9
  6
Continuous
370
    -3
390
7
1001
AcAecLayerStandard
1000

1000

  0
ENDTAB
  0
TABLE
  2
STYLE
  5
170
330
0
100
AcDbSymbolTable
 70
     3
  0
STYLE
  5
1A
330
170
100
AcDbSymbolTableRecord
100
AcDbTextStyleTableRecord
  2
Standard
 70
     0
 40
0.0
 41
1.0
 50
0.0
 71
     0
 42
2.5
  3
txt
  4

  0
STYLE
  5
20
330
170
100
AcDbSymbolTableRecord
100
AcDbTextStyleTableRecord
  2
ROMANS
 70
     0
 40
0.0
 41
1.0
 50
0.0
 71
     0
 42
2.5
  3
romans
  4

  0
STYLE
  5
26
330
170
100
AcDbSymbolTableRecord
100
AcDbTextStyleTableRecord
  2
style1
 70
     0
 40
0.0
 41
1.0
 50
0.0
 71
     0
 42
0.008
  3
TIMES.TTF
  4

1001
ACAD
1000
Times New Roman
1071
       18
  0
ENDTAB
  0
TABLE
  2
VIEW
  5
175
330
0
100
AcDbSymbolTable
 70
     0
  0
ENDTAB
  0
TABLE
  2
UCS
  5
176
330
0
100
AcDbSymbolTable
 70
     0
  0
ENDTAB
  0
TABLE
  2
APPID
  5
17B
330
0
100
AcDbSymbolTable
 70
    10
  0
APPID
  5
1B
330
17B
100
AcDbSymbolTableRecord
100
AcDbRegAppTableRecord
  2
ACAD
 70
     0
  0
APPID
  5
157
330
17B
100
AcDbSymbolTableRecord
100
AcDbRegAppTableRecord
  2
ACAD_DSTYLE_DIMJOGGED_JOGANGLE_SYMBOL
 70
     0
  0
APPID
  5
F
330
17B
100
AcDbSymbolTableRecord
100
AcDbRegAppTableRecord
  2
AcAecLayerStandard
 70
     0
  0
APPID
  5
19C
330
17B
100
AcDbSymbolTableRecord
100
AcDbRegAppTableRecord
  2
ACAD_DSTYLE_DIMFLIPARROW_WHICH_SYMBOL
 70
     0
  0
APPID
  5
1A7
330
17B
100
AcDbSymbolTableRecord
100
AcDbRegAppTableRecord
  2
ACAD_DSTYLE_DIMEXT_LENGTH
 70
     0
  0
APPID
  5
1D2
330
17B
100
AcDbSymbolTableRecord
100
AcDbRegAppTableRecord
  2
ACAD_EXEMPT_FROM_CAD_STANDARDS
 70
     0
  0
APPID
  5
1D3
330
17B
100
AcDbSymbolTableRecord
100
AcDbRegAppTableRecord
  2
ACAD_DSTYLE_DIM_LINETYPE
 70
     0
  0
APPID
  5
1D4
330
17B
100
AcDbSymbolTableRecord
100
AcDbRegAppTableRecord
  2
ACAD_DSTYLE_DIM_EXT1_LINETYPE
 70
     0
  0
APPID
  5
1D5
330
17B
100
AcDbSymbolTableRecord
100
AcDbRegAppTableRecord
  2
ACAD_DSTYLE_DIM_EXT2_LINETYPE
 70
     0
  0
APPID
  5
25C
330
17B
100
AcDbSymbolTableRecord
100
AcDbRegAppTableRecord
  2
ACAD_PSEXT
 70
     0
  0
ENDTAB
  0
TABLE
  2
DIMSTYLE
  5
17C
330
0
100
AcDbSymbolTable
 70
     7
100
AcDbDimStyleTable
 71
     2
340
156
340
17D
  0
DIMSTYLE
105
17D
330
17C
100
AcDbSymbolTableRecord
100
AcDbDimStyleTableRecord
  2
ISO-25
 70
     0
 41
2.5
 42
0.625
 43
3.75
 44
1.25
 73
     0
 74
     0
 77
     1
 78
     8
140
2.5
141
2.5
143
0.03937007874016
147
0.625
171
     3
172
     1
271
     2
272
     2
274
     3
278
    44
283
     0
284
     8
340
1A
  0
DIMSTYLE
105
156
102
{ACAD_REACTORS
330
976
330
990
330
9BC
102
}
330
17C
100
AcDbSymbolTableRecord
100
AcDbDimStyleTableRecord
  2
Bovelacci
 70
     0
 40
0.001
 41
1.5
140
3.0
141
0.0
147
2.0
176
     5
177
     5
178
     4
271
     2
272
     2
279
     2
340
20
342
152
1001
ACAD_DSTYLE_DIMJOGGED_JOGANGLE_SYMBOL
1070
   384
1040
0.7853981633974483
1001
ACAD_DSTYLE_DIMEXT_LENGTH
1070
   378
1040
0.18
  0
DIMSTYLE
105
257
330
17C
100
AcDbSymbolTableRecord
100
AcDbDimStyleTableRecord
  2
Dim 1-100
 70
     0
 40
0.1
 41
1.5
 42
0.0
 43
5.0
 44
1.25
 45
0.005
 46
1.25
 73
     0
 74
     0
 77
     1
 78
     9
140
2.0
141
2.5
147
1.0
172
     1
174
     1
179
     2
279
     2
289
     2
340
20
342
152
  0
DIMSTYLE
105
258
330
17C
100
AcDbSymbolTableRecord
100
AcDbDimStyleTableRecord
  2
Standard
 70
     0
 42
0.0
 73
     0
 74
     0
 77
     1
271
     2
272
     2
340
20
  0
DIMSTYLE
105
259
330
17C
100
AcDbSymbolTableRecord
100
AcDbDimStyleTableRecord
  2
Dim 1-50
 70
     0
 40
0.05
 41
1.5
 42
0.0
 43
5.0
 44
1.25
 45
0.005
 46
1.25
 73
     0
 74
     0
 77
     1
 78
     9
140
2.0
141
2.5
147
1.0
172
     1
174
     1
179
     2
279
     2
289
     2
340
20
342
152
  0
DIMSTYLE
105
25A
330
17C
100
AcDbSymbolTableRecord
100
AcDbDimStyleTableRecord
  2
Dim 1-200
 70
     0
 40
0.2
 41
1.5
 42
0.0
 43
5.0
 44
1.25
 45
0.005
 46
1.25
 73
     0
 74
     0
 77
     1
 78
     9
140
2.0
141
2.5
147
1.0
172
     1
174
     1
179
     2
271
     2
272
     2
279
     2
289
     2
340
20
342
152
  0
DIMSTYLE
105
25B
330
17C
100
AcDbSymbolTableRecord
100
AcDbDimStyleTableRecord
  2
AEC Scale - Italiano
 70
     0
 41
1.0
 42
10.0
 43
10.0
 44
10.0
 73
     0
 74
     0
 75
     1
 76
     1
 77
     1
140
10.0
141
1.0
147
10.0
173
     1
271
     0
272
     0
279
     2
340
1A
343
251
344
24B
  0
ENDTAB
  0
TABLE
  2
BLOCK_RECORD
  5
1
330
0
100
AcDbSymbolTable
 70
    11
  0
BLOCK_RECORD
  5
2
102
{ACAD_XDICTIONARY
360
3
102
}
330
1
100
AcDbSymbolTableRecord
100
AcDbBlockTableRecord
  2
*Model_Space
340
163
  0
BLOCK_RECORD
  5
165
330
1
100
AcDbSymbolTableRecord
100
AcDbBlockTableRecord
  2
*Paper_Space
340
168
  0
BLOCK_RECORD
  5
169
330
1
100
AcDbSymbolTableRecord
100
AcDbBlockTableRecord
  2
*Paper_Space0
340
16C
  0
BLOCK_RECORD
  5
152
330
1
100
AcDbSymbolTableRecord
100
AcDbBlockTableRecord
  2
_ArchTick
340
0
310
2800000020000000200000000100080000000000000400000000000000000000000000000000000000000000000080000080000000808000800000008000800080800000C0C0C000C0DCC000F0CAA6000020400000206000002080000020A0000020C0000020E00000400000004020000040400000406000004080000040A0
310
000040C0000040E00000600000006020000060400000606000006080000060A0000060C0000060E00000800000008020000080400000806000008080000080A0000080C0000080E00000A0000000A0200000A0400000A0600000A0800000A0A00000A0C00000A0E00000C0000000C0200000C0400000C0600000C0800000C0
310
A00000C0C00000C0E00000E0000000E0200000E0400000E0600000E0800000E0A00000E0C00000E0E00040000000400020004000400040006000400080004000A0004000C0004000E00040200000402020004020400040206000402080004020A0004020C0004020E000404000004040200040404000404060004040800040
310
40A0004040C0004040E00040600000406020004060400040606000406080004060A0004060C0004060E00040800000408020004080400040806000408080004080A0004080C0004080E00040A0000040A0200040A0400040A0600040A0800040A0A00040A0C00040A0E00040C0000040C0200040C0400040C0600040C08000
310
40C0A00040C0C00040C0E00040E0000040E0200040E0400040E0600040E0800040E0A00040E0C00040E0E00080000000800020008000400080006000800080008000A0008000C0008000E00080200000802020008020400080206000802080008020A0008020C0008020E00080400000804020008040400080406000804080
310
008040A0008040C0008040E00080600000806020008060400080606000806080008060A0008060C0008060E00080800000808020008080400080806000808080008080A0008080C0008080E00080A0000080A0200080A0400080A0600080A0800080A0A00080A0C00080A0E00080C0000080C0200080C0400080C0600080C0
310
800080C0A00080C0C00080C0E00080E0000080E0200080E0400080E0600080E0800080E0A00080E0C00080E0E000C0000000C0002000C0004000C0006000C0008000C000A000C000C000C000E000C0200000C0202000C0204000C0206000C0208000C020A000C020C000C020E000C0400000C0402000C0404000C0406000C0
310
408000C040A000C040C000C040E000C0600000C0602000C0604000C0606000C0608000C060A000C060C000C060E000C0800000C0802000C0804000C0806000C0808000C080A000C080C000C080E000C0A00000C0A02000C0A04000C0A06000C0A08000C0A0A000C0A0C000C0A0E000C0C00000C0C02000C0C04000C0C06000
310
C0C08000C0C0A000F0FBFF00A4A0A000808080000000FF0000FF000000FFFF00FF000000FF00FF00FFFF0000FFFFFF00000000FF000000000000000000000000000000000000000000000000000000000000FF00FF00000000000000000000000000000000000000000000000000000000FF000000FF000000000000000000
310
0000000000000000000000000000000000FF0000000000FF0000000000000000000000000000000000000000000000000000FF0000000000FF0000000000000000000000000000000000000000000000000000FF0000000000FF0000000000000000000000000000000000000000000000000000FF0000000000FF00000000
310
00000000000000000000000000000000000000000000FF0000000000FF0000000000000000000000000000000000000000000000000000FF0000000000FF0000000000000000000000000000000000000000000000000000FF0000000000FF0000000000000000000000000000000000000000000000000000FF0000000000
310
FF0000000000000000000000000000000000000000000000000000FF0000000000FF0000000000000000000000000000000000000000000000000000FF0000000000FF0000000000000000000000000000000000000000000000000000FF0000000000FF0000000000000000000000000000000000000000000000000000FF
310
0000000000FF0000000000000000000000000000000000000000000000000000FF0000000000FF0000000000000000000000000000000000000000000000000000FF0000000000FF0000000000000000000000000000000000000000000000000000FF0000000000FF00000000000000000000000000000000000000000000
310
00000000FF0000000000FF0000000000000000000000000000000000000000000000000000FF0000000000FF0000000000000000000000000000000000000000000000000000FF0000000000FF0000000000000000000000000000000000000000000000000000FF0000000000FF0000000000000000000000000000000000
310
000000000000000000FF0000000000FF0000000000000000000000000000000000000000000000000000FF0000000000FF0000000000000000000000000000000000000000000000000000FF0000000000FF0000000000000000000000000000000000000000000000000000FF0000000000FF000000000000000000000000
310
0000000000000000000000000000FF0000000000FF0000000000000000000000000000000000000000000000000000FF0000000000FF0000000000000000000000000000000000000000000000000000FF0000000000FF0000000000000000000000000000000000000000000000000000FF000000FF000000000000000000
310
00000000000000000000000000000000000000FF00FF000000000000000000000000000000000000000000000000000000000000FF000000
102
{BLKREFS
331
6DD
331
8E8
331
972
331
989
331
98A
331
9B7
331
9B8
331
A2A
331
A32
331
A33
102
}
  0
BLOCK_RECORD
  5
24B
330
1
100
AcDbSymbolTableRecord
100
AcDbBlockTableRecord
  2
_Arrivo
340
0
310
2800000020000000200000000100080000000000000400000000000000000000000000000000000000000000000080000080000000808000800000008000800080800000C0C0C000C0DCC000F0CAA6000020400000206000002080000020A0000020C0000020E00000400000004020000040400000406000004080000040A0
310
000040C0000040E00000600000006020000060400000606000006080000060A0000060C0000060E00000800000008020000080400000806000008080000080A0000080C0000080E00000A0000000A0200000A0400000A0600000A0800000A0A00000A0C00000A0E00000C0000000C0200000C0400000C0600000C0800000C0
310
A00000C0C00000C0E00000E0000000E0200000E0400000E0600000E0800000E0A00000E0C00000E0E00040000000400020004000400040006000400080004000A0004000C0004000E00040200000402020004020400040206000402080004020A0004020C0004020E000404000004040200040404000404060004040800040
310
40A0004040C0004040E00040600000406020004060400040606000406080004060A0004060C0004060E00040800000408020004080400040806000408080004080A0004080C0004080E00040A0000040A0200040A0400040A0600040A0800040A0A00040A0C00040A0E00040C0000040C0200040C0400040C0600040C08000
310
40C0A00040C0C00040C0E00040E0000040E0200040E0400040E0600040E0800040E0A00040E0C00040E0E00080000000800020008000400080006000800080008000A0008000C0008000E00080200000802020008020400080206000802080008020A0008020C0008020E00080400000804020008040400080406000804080
310
008040A0008040C0008040E00080600000806020008060400080606000806080008060A0008060C0008060E00080800000808020008080400080806000808080008080A0008080C0008080E00080A0000080A0200080A0400080A0600080A0800080A0A00080A0C00080A0E00080C0000080C0200080C0400080C0600080C0
310
800080C0A00080C0C00080C0E00080E0000080E0200080E0400080E0600080E0800080E0A00080E0C00080E0E000C0000000C0002000C0004000C0006000C0008000C000A000C000C000C000E000C0200000C0202000C0204000C0206000C0208000C020A000C020C000C020E000C0400000C0402000C0404000C0406000C0
310
408000C040A000C040C000C040E000C0600000C0602000C0604000C0606000C0608000C060A000C060C000C060E000C0800000C0802000C0804000C0806000C0808000C080A000C080C000C080E000C0A00000C0A02000C0A04000C0A06000C0A08000C0A0A000C0A0C000C0A0E000C0C00000C0C02000C0C04000C0C06000
310
C0C08000C0C0A000F0FBFF00A4A0A000808080000000FF0000FF000000FFFF00FF000000FF00FF00FFFF0000FFFFFF00000000000000000000000000000000000000000000000000000000000000000000000000000000000000FF0000000000000000000000000000000000000000000000000000000000000000FF000000
310
00000000000000000000000000000000000000000000000000000000FF0000000000000000000000000000000000000000000000000000000000000000FF00000000000000000000000000000000000000000000000000000000000000FF0000000000000000000000000000000000000000000000000000000000000000FF
310
0000000000000000000000000000000000000000000000000000000000000000FF00000000000000000000000000000000000000000000000000000000000000FF0000000000000000000000000000000000000000000000000000000000000000FF0000000000000000000000000000000000000000000000000000000000
310
0000FF0000000000000000000000000000000000000000000000000000000000000000FF00000000000000000000000000000000000000000000000000000000000000FF0000000000000000000000000000000000000000000000000000000000000000FF0000FF0000000000000000000000000000000000000000000000
310
000000000000FFFF000000000000000000000000000000000000000000000000000000000000FFFF00000000000000000000000000000000000000000000000000000000FFFFFFFFFFFF00000000000000000000000000000000000000000000000000000000FFFF0000000000000000000000000000000000000000000000
310
000000000000FF0000FF000000000000000000000000000000000000000000000000000000FF00000000000000000000000000000000000000000000000000000000000000FF000000000000000000000000000000000000000000000000000000000000FF0000000000000000000000000000000000000000000000000000
310
0000000000FF000000000000000000000000000000000000000000000000000000000000FF00000000000000000000000000000000000000000000000000000000000000FF000000000000000000000000000000000000000000000000000000000000FF000000000000000000000000000000000000000000000000000000
310
000000FF00000000000000000000000000000000000000000000000000000000000000FF000000000000000000000000000000000000000000000000000000000000FF00000000000000000000000000000000000000000000000000000000000000FF00000000000000000000000000000000000000000000000000000000
310
0000FF0000000000000000000000000000000000000000000000000000000000000000000000000000000000000000000000000000000000
  0
BLOCK_RECORD
  5
251
330
1
100
AcDbSymbolTableRecord
100
AcDbBlockTableRecord
  2
_Partenza
340
0
310
2800000020000000200000000100080000000000000400000000000000000000000000000000000000000000000080000080000000808000800000008000800080800000C0C0C000C0DCC000F0CAA6000020400000206000002080000020A0000020C0000020E00000400000004020000040400000406000004080000040A0
310
000040C0000040E00000600000006020000060400000606000006080000060A0000060C0000060E00000800000008020000080400000806000008080000080A0000080C0000080E00000A0000000A0200000A0400000A0600000A0800000A0A00000A0C00000A0E00000C0000000C0200000C0400000C0600000C0800000C0
310
A00000C0C00000C0E00000E0000000E0200000E0400000E0600000E0800000E0A00000E0C00000E0E00040000000400020004000400040006000400080004000A0004000C0004000E00040200000402020004020400040206000402080004020A0004020C0004020E000404000004040200040404000404060004040800040
310
40A0004040C0004040E00040600000406020004060400040606000406080004060A0004060C0004060E00040800000408020004080400040806000408080004080A0004080C0004080E00040A0000040A0200040A0400040A0600040A0800040A0A00040A0C00040A0E00040C0000040C0200040C0400040C0600040C08000
310
40C0A00040C0C00040C0E00040E0000040E0200040E0400040E0600040E0800040E0A00040E0C00040E0E00080000000800020008000400080006000800080008000A0008000C0008000E00080200000802020008020400080206000802080008020A0008020C0008020E00080400000804020008040400080406000804080
310
008040A0008040C0008040E00080600000806020008060400080606000806080008060A0008060C0008060E00080800000808020008080400080806000808080008080A0008080C0008080E00080A0000080A0200080A0400080A0600080A0800080A0A00080A0C00080A0E00080C0000080C0200080C0400080C0600080C0
310
800080C0A00080C0C00080C0E00080E0000080E0200080E0400080E0600080E0800080E0A00080E0C00080E0E000C0000000C0002000C0004000C0006000C0008000C000A000C000C000C000E000C0200000C0202000C0204000C0206000C0208000C020A000C020C000C020E000C0400000C0402000C0404000C0406000C0
310
408000C040A000C040C000C040E000C0600000C0602000C0604000C0606000C0608000C060A000C060C000C060E000C0800000C0802000C0804000C0806000C0808000C080A000C080C000C080E000C0A00000C0A02000C0A04000C0A06000C0A08000C0A0A000C0A0C000C0A0E000C0C00000C0C02000C0C04000C0C06000
310
C0C08000C0C0A000F0FBFF00A4A0A000808080000000FF0000FF000000FFFF00FF000000FF00FF00FFFF0000FFFFFF0000000000000000000000000000000000000000000000000000000000000000000000000000000000000000000000000000000000000000000000000000000000000000000000000000000000000000
310
000000000000000000000000000000000000000000000000000000000000000000000000000000000000000000000000000000000000000000000000000000000000000000000000000000000000000000000000000000000000000000000000000000000000000000000000000000000000FFFFFFFFFFFFFFFFFFFFFFFFFF
310
FFFFFFFFFFFFFFFFFFFFFFFFFFFFFFFFFF0000000000000000000000000000000000000000000000000000000000000000000000000000000000000000000000000000000000000000000000000000000000000000000000000000000000000000000000000000000000000000000000000000000000000000000000000000
310
00000000000000000000000000000000000000000000000000000000000000000000000000000000000000000000000000000000000000000000000000000000000000000000000000000000000000000000000000000000000000000000000000000000000000000000000000000000000000000000000000000000000000
310
00000000000000000000000000000000000000000000000000000000000000000000000000000000000000000000000000000000000000000000000000000000000000000000000000000000000000000000000000000000000000000000000000000000000000000000000000000000000000000000000000000000000000
310
00000000000000000000000000000000000000000000000000000000000000000000000000000000000000000000000000000000000000000000000000000000000000000000000000000000000000000000000000000000000000000000000000000000000000000000000000000000000000000000000000000000000000
310
000000000000000000000000000000000000000000000000000000000000000000000000000000000000000000000000000000000000000000000000000000000000000000000000000000000000000000000000000000FFFFFFFFFFFFFFFFFFFFFFFFFFFFFFFFFFFFFFFFFFFFFFFFFFFFFFFFFFFF00000000000000000000
310
00000000000000000000000000000000000000000000000000000000000000000000000000000000000000000000000000000000000000000000000000000000000000000000000000000000000000000000000000000000000000000000000000000000000000000000000000000000000000000000000000000000000000
310
0000000000000000000000000000000000000000000000000000000000000000000000000000000000000000000000000000000000000000
  0
BLOCK_RECORD
  5
977
330
1
100
AcDbSymbolTableRecord
100
AcDbBlockTableRecord
  2
*D7
340
0
  0
BLOCK_RECORD
  5
991
330
1
100
AcDbSymbolTableRecord
100
AcDbBlockTableRecord
  2
*D8
340
0
  0
BLOCK_RECORD
  5
9BD
330
1
100
AcDbSymbolTableRecord
100
AcDbBlockTableRecord
  2
*D10
340
0
  0
ENDTAB
  0
ENDSEC
  0
SECTION
  2
BLOCKS
  0
BLOCK
  5
5
330
2
100
AcDbEntity
  8
0
100
AcDbBlockBegin
  2
*Model_Space
 70
     0
 10
0.0
 20
0.0
 30
0.0
  3
*Model_Space
  1

  0
ENDBLK
  5
162
330
2
100
AcDbEntity
  8
0
100
AcDbBlockEnd
  0
BLOCK
  5
166
330
165
100
AcDbEntity
 67
     1
  8
0
100
AcDbBlockBegin
  2
*Paper_Space
 70
     0
 10
0.0
 20
0.0
 30
0.0
  3
*Paper_Space
  1

  0
ENDBLK
  5
167
330
165
100
AcDbEntity
 67
     1
  8
0
100
AcDbBlockEnd
  0
BLOCK
  5
16A
330
169
100
AcDbEntity
 67
     1
  8
0
100
AcDbBlockBegin
  2
*Paper_Space0
 70
     0
 10
0.0
 20
0.0
 30
0.0
  3
*Paper_Space0
  1

  0
ENDBLK
  5
16B
330
169
100
AcDbEntity
 67
     1
  8
0
100
AcDbBlockEnd
  0
BLOCK
  5
153
330
152
100
AcDbEntity
  8
0
 62
     1
100
AcDbBlockBegin
  2
_ArchTick
 70
     0
 10
0.0
 20
0.0
 30
0.0
  3
_ArchTick
  1

  0
LWPOLYLINE
  5
154
330
152
100
AcDbEntity
  8
0
  6
ByBlock
 62
     0
100
AcDbPolyline
 90
        2
 70
     0
 43
0.15
 10
-0.5
 20
-0.5
 10
0.5
 20
0.5
  0
ENDBLK
  5
155
330
152
100
AcDbEntity
  8
0
 62
     1
100
AcDbBlockEnd
  0
BLOCK
  5
24C
330
24B
100
AcDbEntity
  8
0
100
AcDbBlockBegin
  2
_Arrivo
 70
     0
 10
0.0
 20
0.0
 30
0.0
  3
_Arrivo
  1

  0
LINE
  5
24D
330
24B
100
AcDbEntity
  8
0
  6
ByBlock
 62
     0
370
    -2
100
AcDbLine
 10
0.025
 20
-0.0433012701891858
 30
0.0
 11
-0.15
 21
0.2598076211353328
 31
0.0
  0
LINE
  5
24E
330
24B
100
AcDbEntity
  8
0
  6
ByBlock
 62
     0
370
    -2
100
AcDbLine
 10
0.025
 20
0.0433012701892585
 30
0.0
 11
-0.15
 21
-0.2598076211353328
 31
0.0
  0
LINE
  5
24F
330
24B
100
AcDbEntity
  8
0
  6
ByBlock
 62
     0
370
    -2
100
AcDbLine
 10
-0.05
 20
0.0
 30
0.0
 11
0.05
 21
0.0
 31
0.0
  0
ENDBLK
  5
250
330
24B
100
AcDbEntity
  8
0
100
AcDbBlockEnd
  0
BLOCK
  5
252
330
251
100
AcDbEntity
  8
0
100
AcDbBlockBegin
  2
_Partenza
 70
     0
 10
0.0
 20
0.0
 30
0.0
  3
_Partenza
  1

  0
LINE
  5
253
330
251
100
AcDbEntity
  8
0
  6
ByBlock
 62
     0
370
    -2
100
AcDbLine
 10
-0.05
 20
0.05
 30
0.0
 11
0.1
 21
0.05
 31
0.0
  0
LINE
  5
254
330
251
100
AcDbEntity
  8
0
  6
ByBlock
 62
     0
370
    -2
100
AcDbLine
 10
-0.05
 20
-0.05
 30
0.0
 11
0.1
 21
-0.05
 31
0.0
  0
ENDBLK
  5
255
330
251
100
AcDbEntity
  8
0
100
AcDbBlockEnd
  0
BLOCK
  5
982
330
977
100
AcDbEntity
  8
0
100
AcDbBlockBegin
  2
*D7
 70
     1
 10
0.0
 20
0.0
 30
0.0
  3
*D7
  1

  0
LINE
  5
985
330
977
100
AcDbEntity
  8
Text
  6
ACAD_ISO10W100
 62
     5
370
    -2
100
AcDbLine
 10
0.2566673130000949
 20
0.1289291937506602
 30
0.0
 11
0.2881808450885328
 21
0.1289291937506602
 31
0.0
  0
LINE
  5
986
330
977
100
AcDbEntity
  8
Text
  6
ACAD_ISO10W100
 62
     5
370
    -2
100
AcDbLine
 10
0.2113238492525035
 20
0.2175512127920878
 30
0.0
 11
0.2881808450885328
 21
0.2175512127920878
 31
0.0
  0
LINE
  5
987
330
977
100
AcDbEntity
  8
Text
  6
ACAD_ISO10W100
 62
     5
370
    -2
100
AcDbLine
 10
0.2880008450885327
 20
0.1289291937506602
 30
0.0
 11
0.2880008450885327
 21
0.169740203271374
 31
0.0
  0
LINE
  5
988
330
977
100
AcDbEntity
  8
Text
  6
ACAD_ISO10W100
 62
     5
370
    -2
100
AcDbLine
 10
0.2880008450885327
 20
0.2175512127920878
 30
0.0
 11
0.2880008450885327
 21
0.176740203271374
 31
0.0
  0
INSERT
  5
989
330
977
100
AcDbEntity
  8
Text
  6
ACAD_ISO10W100
 62
     5
370
    -2
100
AcDbBlockReference
  2
_ArchTick
 10
0.2880008450885327
 20
0.1289291937506602
 30
0.0
 41
0.0015
 42
0.0015
 43
0.0015
 50
270.0
  0
INSERT
  5
98A
330
977
100
AcDbEntity
  8
Text
  6
ACAD_ISO10W100
 62
     5
370
    -2
100
AcDbBlockReference
  2
_ArchTick
 10
0.2880008450885327
 20
0.2175512127920878
 30
0.0
 41
0.0015
 42
0.0015
 43
0.0015
 50
90.0
  0
MTEXT
  5
98B
330
977
100
AcDbEntity
  8
Text
  6
ACAD_ISO10W100
 62
     4
100
AcDbMText
 10
0.2880008450885327
 20
0.173240203271374
 30
0.0
 40
0.003
 41
0.0
 71
     5
 72
     1
  1
\A1;360 mm
  7
ROMANS
 73
     1
 44
1.0
  0
POINT
  5
98C
330
977
100
AcDbEntity
  8
Defpoints
  6
ACAD_ISO10W100
 62
     0
100
AcDbPoint
 10
0.2566048130000949
 20
0.1289291937506602
 30
0.0
  0
POINT
  5
98D
330
977
100
AcDbEntity
  8
Defpoints
  6
ACAD_ISO10W100
 62
     0
100
AcDbPoint
 10
0.2112613492525035
 20
0.2175512127920878
 30
0.0
  0
POINT
  5
98E
330
977
100
AcDbEntity
  8
Defpoints
  6
ACAD_ISO10W100
 62
     0
100
AcDbPoint
 10
0.2880008450885327
 20
0.2175512127920878
 30
0.0
  0
ENDBLK
  5
983
330
977
100
AcDbEntity
  8
0
100
AcDbBlockEnd
  0
BLOCK
  5
99C
330
991
100
AcDbEntity
  8
0
100
AcDbBlockBegin
  2
*D8
 70
     1
 10
0.0
 20
0.0
 30
0.0
  3
*D8
  1

  0
LINE
  5
A2E
330
991
100
AcDbEntity
  8
Text
  6
ACAD_ISO10W100
 62
     5
370
    -2
100
AcDbLine
 10
0.1570056795528607
 20
0.1489923609662276
 30
0.0
 11
0.1570056795528607
 21
0.1098083255974419
 31
0.0
  0
LINE
  5
A2F
330
991
100
AcDbEntity
  8
Text
  6
ACAD_ISO10W100
 62
     5
370
    -2
100
AcDbLine
 10
0.264528819280136
 20
0.1489923609662277
 30
0.0
 11
0.264528819280136
 21
0.1098083255974419
 31
0.0
  0
LINE
  5
A30
330
991
100
AcDbEntity
  8
Text
  6
ACAD_ISO10W100
 62
     5
370
    -2
100
AcDbLine
 10
0.1570056795528607
 20
0.1099883255974419
 30
0.0
 11
0.1991958208450697
 21
0.1099883255974419
 31
0.0
  0
LINE
  5
A31
330
991
100
AcDbEntity
  8
Text
  6
ACAD_ISO10W100
 62
     5
370
    -2
100
AcDbLine
 10
0.264528819280136
 20
0.1099883255974419
 30
0.0
 11
0.2223386779879269
 21
0.1099883255974419
 31
0.0
  0
INSERT
  5
A32
330
991
100
AcDbEntity
  8
Text
  6
ACAD_ISO10W100
 62
     5
370
    -2
100
AcDbBlockReference
  2
_ArchTick
 10
0.1570056795528607
 20
0.1099883255974419
 30
0.0
 41
0.0015
 42
0.0015
 43
0.0015
 50
180.0
  0
INSERT
  5
A33
330
991
100
AcDbEntity
  8
Text
  6
ACAD_ISO10W100
 62
     5
370
    -2
100
AcDbBlockReference
  2
_ArchTick
 10
0.264528819280136
 20
0.1099883255974419
 30
0.0
 41
0.0015
 42
0.0015
 43
0.0015
  0
MTEXT
  5
A34
330
991
100
AcDbEntity
  8
Text
  6
ACAD_ISO10W100
 62
     4
100
AcDbMText
 10
0.2107672494164983
 20
0.1099883255974419
 30
0.0
 40
0.003
 41
0.0
 71
     5
 72
     1
  1
\A1;430 mm
  7
ROMANS
 73
     1
 44
1.0
  0
POINT
  5
A35
330
991
100
AcDbEntity
  8
Defpoints
  6
ACAD_ISO10W100
 62
     0
100
AcDbPoint
 10
0.1570056795528607
 20
0.1490548609662276
 30
0.0
  0
POINT
  5
A36
330
991
100
AcDbEntity
  8
Defpoints
  6
ACAD_ISO10W100
 62
     0
100
AcDbPoint
 10
0.264528819280136
 20
0.1490548609662277
 30
0.0
  0
POINT
  5
A37
330
991
100
AcDbEntity
  8
Defpoints
  6
ACAD_ISO10W100
 62
     0
100
AcDbPoint
 10
0.264528819280136
 20
0.1099883255974419
 30
0.0
  0
ENDBLK
  5
99D
330
991
100
AcDbEntity
  8
0
100
AcDbBlockEnd
  0
BLOCK
  5
9C4
330
9BD
100
AcDbEntity
  8
0
100
AcDbBlockBegin
  2
*D10
 70
     1
 10
0.0
 20
0.0
 30
0.0
  3
*D10
  1

  0
LINE
  5
A27
330
9BD
100
AcDbEntity
  8
Text
  6
ACAD_ISO10W100
 62
     5
370
    -2
100
AcDbLine
 10
0.1922442037334919
 20
0.1277260031620244
 30
0.0
 11
0.2191013465906348
 21
0.1277260031620244
 31
0.0
  0
LINE
  5
A28
330
9BD
100
AcDbEntity
  8
Text
  6
ACAD_ISO10W100
 62
     5
370
    -2
100
AcDbLine
 10
0.2191013465906348
 20
0.1277260031620244
 30
0.0
 11
0.2221552667228203
 21
0.1463661182693298
 31
0.0
  0
MTEXT
  5
A29
330
9BD
100
AcDbEntity
  8
Text
  6
ACAD_ISO10W100
 62
     4
100
AcDbMText
 10
0.2046727751620634
 20
0.1312260031620244
 30
0.0
 40
0.003
 41
0.0
 71
     5
 72
     1
  1
\A1;d 520 mm
  7
ROMANS
 73
     1
 44
1.0
  0
INSERT
  5
A2A
330
9BD
100
AcDbEntity
  8
Text
  6
ACAD_ISO10W100
 62
     5
370
    -2
100
AcDbBlockReference
  2
_ArchTick
 10
0.2221552667228203
 20
0.1463661182693298
 30
0.0
 41
0.0015
 42
0.0015
 43
0.0015
 50
80.69555701701645
  0
POINT
  5
A2B
330
9BD
100
AcDbEntity
  8
Defpoints
  6
ACAD_ISO10W100
 62
     0
100
AcDbPoint
 10
0.2221552667228203
 20
0.1463661182693298
 30
0.0
  0
POINT
  5
A2C
330
9BD
100
AcDbEntity
  8
Defpoints
  6
ACAD_ISO10W100
 62
     0
100
AcDbPoint
 10
0.2014436145576206
 20
0.0199490661817541
 30
0.0
  0
ENDBLK
  5
9C5
330
9BD
100
AcDbEntity
  8
0
100
AcDbBlockEnd
  0
ENDSEC
  0
SECTION
  2
ENTITIES
  0
LINE
  5
D
330
2
100
AcDbEntity
  8
Table
100
AcDbLine
 10
0.02
 20
0.02
 30
0.0
 11
0.4
 21
0.02
 31
0.0
  0
LINE
  5
10
330
2
100
AcDbEntity
  8
Table
100
AcDbLine
 10
0.4
 20
0.02
 30
0.0
 11
0.4
 21
0.2769999999999999
 31
0.0
  0
LINE
  5
11
330
2
100
AcDbEntity
  8
Table
100
AcDbLine
 10
0.4
 20
0.2769999999999999
 30
0.0
 11
0.02
 21
0.277
 31
0.0
  0
LINE
  5
12
330
2
100
AcDbEntity
  8
Table
100
AcDbLine
 10
0.02
 20
0.277
 30
0.0
 11
0.02
 21
0.02
 31
0.0
  0
LINE
  5
13
330
2
100
AcDbEntity
  8
Table
 62
     2
100
AcDbLine
 10
0.015
 20
0.015
 30
0.0
 11
0.4050000000000001
 21
0.015
 31
0.0
  0
LINE
  5
14
330
2
100
AcDbEntity
  8
Table
 62
     2
100
AcDbLine
 10
0.4050000000000001
 20
0.015
 30
0.0
 11
0.4050000000000001
 21
0.2819999999999998
 31
0.0
  0
LINE
  5
15
330
2
100
AcDbEntity
  8
Table
 62
     2
100
AcDbLine
 10
0.4050000000000001
 20
0.2819999999999998
 30
0.0
 11
0.0149999999999999
 21
0.282
 31
0.0
  0
LINE
  5
16
330
2
100
AcDbEntity
  8
Table
 62
     2
100
AcDbLine
 10
0.0149999999999999
 20
0.282
 30
0.0
 11
0.015
 21
0.015
 31
0.0
  0
LINE
  5
17
330
2
100
AcDbEntity
  8
Table
100
AcDbLine
 10
0.21
 20
0.2769999999999999
 30
0.0
 11
0.21
 21
0.2532994226089223
 31
0.0
  0
MTEXT
  5
18
330
2
100
AcDbEntity
  8
Text
100
AcDbMText
 10
0.305
 20
0.0471738284815141
 30
0.0
 40
0.005
 41
0.1900000000000001
 71
     2
 72
     5
  3
{\fTimes New Roman|b0|i0|c238|p18;\H1.6x;\C4;Bovelacci\P\pt0.09;\H0.4375x;\T0.95;via del Commercio, 5  47100 Forli - Italy  \fTimes New Roman|b0|i0|c0|p18;\P\fTimes New Roman|b0|i0|c238|p18;tel.+39-0543721386  fax +39-0543721127\fTimes New Roman|b0|i
  1
0|c0|p18; \fTimes New Roman|b0|i0|c238|p18;www.bovelacci.it\fTimes New Roman|b0|i0|c0|p18; \fTimes New Roman|b0|i0|c238|p18;e-mail: bovelacci@bovelacci\fTimes New Roman|b0|i0|c0|p18;.it}
 73
     1
 44
1.0
1001
ACAD
1000
ACAD_MTEXT_DEFINED_HEIGHT_BEGIN
1070
    46
1040
0.0271738284815141
1000
ACAD_MTEXT_DEFINED_HEIGHT_END
  0
MTEXT
  5
1C
330
2
100
AcDbEntity
  8
Text
100
AcDbMText
 10
0.0219676065851835
 20
0.0500313976452307
 30
0.0
 40
0.002
 41
0.1863544980601608
 71
     1
 72
     5
  3
{\fArial|b0|i0|c0|p34;\H1.25x;Le caratteristiche tecniche indicate vengono fornite a titolo indicativo e potranno essere modificate senza preavviso. Non devono quindi essere considerate a scopo di specifica.\P\fArial|b0|i1|c0|p34;The given values are
  3
 indicative and can be changed without notice. They cannot be considered like a state.\PThis lealfet and designs embodied within are protected by copyright law and international treaties. Unauthorized repro- duction of the leaflet or any portion of i
  1
t or reproduction of any of the designs embodied therein may result in severe civil penalties and will be prosecuted to the maximum.\PAll right reserved, Bovelacci Forlì Italy.}
 73
     1
 44
1.0
  0
LINE
  5
1D
330
2
100
AcDbEntity
  8
Table
100
AcDbLine
 10
0.02
 20
0.0528099428524846
 30
0.0
 11
0.4
 21
0.0528099428524846
 31
0.0
  0
MTEXT
  5
1E
330
2
100
AcDbEntity
  8
Text
100
AcDbMText
 10
0.1133313047219695
 20
0.2610796890771976
 30
0.0
 40
0.003
 41
0.1103605678262056
 71
     2
 72
     5
  1
{\fTimes New Roman|b0|i0|c0|p18;Il rosone componibile\fTimes New Roman|b0|i1|c0|p18;  Composing ceiling centre}
 73
     1
 44
1.0
1001
ACAD
1000
ACAD_MTEXT_DEFINED_HEIGHT_BEGIN
1070
    46
1040
0.0141952763113409
1000
ACAD_MTEXT_DEFINED_HEIGHT_END
  0
TEXT
  5
1F
330
2
100
AcDbEntity
  8
Text
100
AcDbText
 10
0.2180556919891047
 20
0.269976982173197
 30
0.0
 40
0.003
  1
Rosone - Ceiling centre : H 360 x 430 mm
  7
ROMANS
100
AcDbText
  0
TEXT
  5
21
330
2
100
AcDbEntity
  8
Text
100
AcDbText
 10
0.2184542410678115
 20
0.2576348370183962
 30
0.0
 40
0.003
  1
File : RF 803 / 52 DG
  7
ROMANS
100
AcDbText
  0
LINE
  5
22
330
2
100
AcDbEntity
  8
Table
100
AcDbLine
 10
0.4
 20
0.2654452889427402
 30
0.0
 11
0.02
 21
0.2654452889427403
 31
0.0
  0
LINE
  5
23
330
2
100
AcDbEntity
  8
Table
100
AcDbLine
 10
0.4
 20
0.2532994226089223
 30
0.0
 11
0.02
 21
0.2532994226089225
 31
0.0
  0
LINE
  5
24
330
2
100
AcDbEntity
  8
Table
100
AcDbLine
 10
0.21
 20
0.0528099428524846
 30
0.0
 11
0.21
 21
0.02
 31
0.0
  0
TEXT
  5
25
330
2
100
AcDbEntity
  8
Text
100
AcDbText
 10
0.0964227676712103
 20
0.2687784133392506
 30
0.0
 40
0.005
  1
ITALSTYL
  7
style1
 72
     1
 11
0.1140561490699125
 21
0.2687784133392506
 31
0.0
100
AcDbText
  0
TEXT
  5
23F
330
2
100
AcDbEntity
  8
Text
  6
ACAD_ISO10W100
100
AcDbText
 10
0.3036657209536444
 20
0.0899414580955704
 30
0.0
 40
0.005
  1
scala 1 : 4
  7
style1
100
AcDbText
  0
ARC
  5
92F
330
2
100
AcDbEntity
  8
Profilo
  6
Continuous
370
     0
100
AcDbCircle
 10
0.2117994406402202
 20
0.0831575922255419
 30
0.0
 40
0.0640512365101663
100
AcDbArc
 50
45.61117910042487
 51
134.7373716254991
  0
ARC
  5
930
330
2
100
AcDbEntity
  8
Profilo
  6
Continuous
370
     0
100
AcDbCircle
 10
0.2117994406402202
 20
0.0831575922255419
 30
0.0
 40
0.0659602649758676
100
AcDbArc
 50
45.15426774973317
 51
79.63082054361274
  0
ARC
  5
931
330
2
100
AcDbEntity
  8
Profilo
  6
Continuous
370
     0
100
AcDbCircle
 10
0.2117994406402202
 20
0.0831575922255419
 30
0.0
 40
0.0659602649758676
100
AcDbArc
 50
87.88486831098232
 51
94.10049085319247
  0
ARC
  5
932
330
2
100
AcDbEntity
  8
Profilo
  6
Continuous
370
     0
100
AcDbCircle
 10
0.2117994406402202
 20
0.0831575922255419
 30
0.0
 40
0.0659602649758676
100
AcDbArc
 50
101.390996919056
 51
135.5037469412445
  0
ARC
  5
933
330
2
100
AcDbEntity
  8
Profilo
  6
Continuous
370
     0
100
AcDbCircle
 10
0.2117994406402202
 20
0.0831575922255419
 30
0.0
 40
0.0683944801993546
100
AcDbArc
 50
45.28485295550845
 51
63.44537215513653
  0
ARC
  5
934
330
2
100
AcDbEntity
  8
Profilo
  6
Continuous
370
     0
100
AcDbCircle
 10
0.2117994406402202
 20
0.0831575922255419
 30
0.0
 40
0.0683944801993546
100
AcDbArc
 50
65.60844274656396
 51
72.20959330229948
  0
ARC
  5
935
330
2
100
AcDbEntity
  8
Profilo
  6
Continuous
370
     0
100
AcDbCircle
 10
0.2117994406402202
 20
0.0831575922255419
 30
0.0
 40
0.0683944801993546
100
AcDbArc
 50
74.17051061234002
 51
77.9118082166915
  0
ARC
  5
936
330
2
100
AcDbEntity
  8
Profilo
  6
Continuous
370
     0
100
AcDbCircle
 10
0.2117994406402202
 20
0.0831575922255419
 30
0.0
 40
0.0683944801993546
100
AcDbArc
 50
89.70155551765616
 51
92.02346737932584
  0
ARC
  5
937
330
2
100
AcDbEntity
  8
Profilo
  6
Continuous
370
     0
100
AcDbCircle
 10
0.2117994406402202
 20
0.0831575922255419
 30
0.0
 40
0.0683944801993546
100
AcDbArc
 50
103.6431796655652
 51
107.5359974374687
  0
ARC
  5
938
330
2
100
AcDbEntity
  8
Profilo
  6
Continuous
370
     0
100
AcDbCircle
 10
0.2117994406402202
 20
0.0831575922255419
 30
0.0
 40
0.0683944801993546
100
AcDbArc
 50
108.5170048046232
 51
116.1547557991085
  0
ARC
  5
939
330
2
100
AcDbEntity
  8
Profilo
  6
Continuous
370
     0
100
AcDbCircle
 10
0.2117994406402202
 20
0.0831575922255419
 30
0.0
 40
0.0683944801993546
100
AcDbArc
 50
117.6827776083262
 51
135.4921876828076
  0
ARC
  5
93A
330
2
100
AcDbEntity
  8
Profilo
  6
Continuous
370
     0
100
AcDbCircle
 10
0.2117994406402202
 20
0.0831575922255419
 30
0.0
 40
0.0702126658140774
100
AcDbArc
 50
45.66282903126116
 51
63.07309769213176
  0
ARC
  5
93B
330
2
100
AcDbEntity
  8
Profilo
  6
Continuous
370
     0
100
AcDbCircle
 10
0.2117994406402202
 20
0.0831575922255419
 30
0.0
 40
0.0702126658140774
100
AcDbArc
 50
66.44765119957321
 51
70.76622910981598
  0
ARC
  5
93C
330
2
100
AcDbEntity
  8
Profilo
  6
Continuous
370
     0
100
AcDbCircle
 10
0.2117994406402202
 20
0.0831575922255419
 30
0.0
 40
0.0702126658140774
100
AcDbArc
 50
73.76728256268833
 51
77.74031531548117
  0
ARC
  5
93D
330
2
100
AcDbEntity
  8
Profilo
  6
Continuous
370
     0
100
AcDbCircle
 10
0.2117994406402202
 20
0.0831575922255419
 30
0.0
 40
0.0702126658140774
100
AcDbArc
 50
103.9025968553677
 51
107.5833509148707
  0
ARC
  5
93E
330
2
100
AcDbEntity
  8
Profilo
  6
Continuous
370
     0
100
AcDbCircle
 10
0.2117994406402202
 20
0.0831575922255419
 30
0.0
 40
0.0702126658140774
100
AcDbArc
 50
110.4026579645047
 51
115.6032494564578
  0
ARC
  5
93F
330
2
100
AcDbEntity
  8
Profilo
  6
Continuous
370
     0
100
AcDbCircle
 10
0.2117994406402202
 20
0.0831575922255419
 30
0.0
 40
0.0702126658140774
100
AcDbArc
 50
118.2684337740443
 51
135.2387889801724
  0
LWPOLYLINE
  5
940
330
2
100
AcDbEntity
  8
Profilo
  6
Continuous
370
     0
100
AcDbPolyline
 90
        6
 70
   128
 43
0.0
 10
0.1667164540286954
 20
0.1286557813836428
 10
0.1655455243046526
 20
0.1288898547093577
 10
0.1643415723013113
 20
0.1296419641261574
 10
0.1632504895757163
 20
0.1308077324227492
 10
0.1625308088020334
 20
0.1316794145777204
 10
0.1619451052258698
 20
0.1325980987066935
  0
LWPOLYLINE
  5
941
102
{ACAD_REACTORS
330
98F
102
}
330
2
100
AcDbEntity
  8
Profilo
  6
Continuous
370
     0
100
AcDbPolyline
 90
        6
 70
   128
 43
0.0
 10
0.2566048130000949
 20
0.1289291937506602
 10
0.258299413895325
 20
0.1299087321562013
 10
0.2592133633896567
 20
0.1308222429264292
 10
0.2598139583804249
 20
0.1316052519812574
 10
0.2605712316010276
 20
0.1327014639154751
 10
0.26086962978297
 20
0.133376462963682
  0
LWPOLYLINE
  5
942
330
2
100
AcDbEntity
  8
Profilo
  6
Continuous
370
     0
100
AcDbPolyline
 90
       80
 70
   128
 43
0.0
 10
0.2020379882165011
 20
0.1547505176828707
 10
0.201883451922839
 20
0.1549491092406563
 10
0.2017068409719041
 20
0.1549491092406563
 10
0.2014419255235527
 20
0.1548387811474727
 10
0.2012653126165114
 20
0.1544195309281821
 10
0.2013094658432715
 20
0.1539120172442891
 10
0.2016626897012494
 20
0.153382438931815
 10
0.202258752394197
 20
0.1532721096010623
 10
0.2029210449272856
 20
0.1534045035603961
 10
0.203406724553332
 20
0.1539561489765901
 10
0.2035391842336132
 20
0.1549270433745055
 10
0.2033625713265719
 20
0.1555890181214523
 10
0.2029651961979393
 20
0.1562068598985284
 10
0.2025678210693076
 20
0.1564716490547653
 10
0.2020159116031202
 20
0.1565378466532174
 10
0.2013536190700325
 20
0.156493714920916
 10
0.2006250966968028
 20
0.1562730574969801
 10
0.2001173404573764
 20
0.155611083987603
 10
0.1997861932127793
 20
0.1549270433745055
 10
0.1996978887153646
 20
0.1540002807088911
 10
0.1999848827332016
 20
0.1526322019578354
 10
0.2012211613458568
 20
0.1517937015192538
 10
0.2028106618603844
 20
0.1516833721885011
 10
0.2042897812641164
 20
0.1521688200062434
 10
0.2050845315213798
 20
0.1532721096010623
 10
0.2054156787659769
 20
0.155147702036011
 10
0.204841690730303
 20
0.1568908992740563
 10
0.2040469404730396
 20
0.1579279912704234
 10
0.2029431195845592
 20
0.1587664917090054
 10
0.2015964598611084
 20
0.1593843334860811
 10
0.2001614936841365
 20
0.1595608604152856
 10
0.1982629225383927
 20
0.159185741928296
 10
0.1965188857302047
 20
0.1581927816642303
 10
0.1953046837309287
 20
0.1567805699433036
 10
0.194929385215677
 20
0.1557434779469364
 10
0.194640241437243
 20
0.1534000643982041
 10
0.1949578778570469
 20
0.1511071251260247
 10
0.1956990308073265
 20
0.1495549814092687
 10
0.1975342632377373
 20
0.1482144942726733
 10
0.1992989115358419
 20
0.1476500783756713
 10
0.201275318099184
 20
0.1475089744014206
 10
0.2036752392368955
 20
0.1476853540598415
 10
0.2055104736234126
 20
0.1481792185885031
 10
0.2072398278992578
 20
0.1490258424340065
 10
0.208898598042796
 20
0.1504368809389427
 10
0.2097456291476412
 20
0.1523065095259395
 10
0.2100985576335981
 20
0.1547405527723691
 10
0.2100613035930328
 20
0.1572203662932638
 10
0.20956720293025
 20
0.1589488896684403
 10
0.2083672413833415
 20
0.1609948966762888
 10
0.2061790785108675
 20
0.1631467332117866
 10
0.2034968130195043
 20
0.1645930486384625
 10
0.2004616190421851
 20
0.1654749481681361
 10
0.197320544954193
 20
0.1655454995364769
 10
0.1936768552735903
 20
0.1644498643096974
 10
0.1905357831417047
 20
0.1629329962771115
 10
0.1886652547329282
 20
0.1611339215335943
 10
0.1872535368768877
 20
0.1594053969208477
 10
0.1857391430119566
 20
0.1575271189598446
 10
0.1848044803101929
 20
0.1557462748542555
 10
0.1846000222328985
 20
0.1541114020841947
 10
0.1850653740044128
 20
0.1517505066271476
 10
0.1859124051092589
 20
0.1503041912004721
 10
0.1871476587223213
 20
0.149034255432217
 10
0.1883123262469712
 20
0.1485756678252947
 10
0.1899710944344031
 20
0.1480112519282928
 10
0.1912063480474655
 20
0.1480112519282928
 10
0.1911710559813124
 20
0.1488931514579663
 10
0.1906416612962702
 20
0.1500219832519707
 10
0.1895122858377742
 20
0.1514682986786466
 10
0.1888312675010446
 20
0.1527203787925648
 10
0.1886251173919795
 20
0.1538794147104769
 10
0.1887024246609321
 20
0.1551157207621432
 10
0.1890889551373769
 20
0.1564808083074509
 10
0.1896558679373077
 20
0.1578458970903282
 10
0.1903593169426194
 20
0.1589468093139259
 10
0.1914534003349624
 20
0.1601109167921004
 10
0.1928651181910037
 20
0.1613808525603555
 10
0.1945944724668489
 20
0.1624038560642797
 10
0.1956532618369324
 20
0.1626860640127803
  0
LWPOLYLINE
  5
943
330
2
100
AcDbEntity
  8
Profilo
  6
Continuous
370
     0
100
AcDbPolyline
 90
       12
 70
   128
 43
0.0
 10
0.1955120896601066
 20
0.1575710452555903
 10
0.1954767975939535
 20
0.1583118420485831
 10
0.1951238671518902
 20
0.1585940499970841
 10
0.1944533002900231
 20
0.1585587730753444
 10
0.1934650989644584
 20
0.1577827018357513
 10
0.1926180678596123
 20
0.1566185943575764
 10
0.1919122069754857
 20
0.1551370020091607
 10
0.1914534003349624
 20
0.1535848582924046
 10
0.1913475202242905
 20
0.1519268875231381
 10
0.1912416420697249
 20
0.1511860907301456
 10
0.1903240248764664
 20
0.1512919190202257
 10
0.1896887520368586
 20
0.151433022994476
  0
LWPOLYLINE
  5
944
102
{ACAD_REACTORS
330
9A9
102
}
330
2
100
AcDbEntity
  8
Profilo
  6
Continuous
370
     0
100
AcDbPolyline
 90
       52
 70
   128
 43
0.0
 10
0.1848501729924494
 20
0.1527801558798787
 10
0.1844606379370439
 20
0.1529748305298479
 10
0.1838763353539343
 20
0.1529358953523401
 10
0.1834868002985288
 20
0.1524102760250492
 10
0.1833309847114817
 20
0.1517678511652351
 10
0.1828940160393955
 20
0.1503585712467154
 10
0.1818946199186529
 20
0.1484080600602717
 10
0.1814466188081949
 20
0.1468159341821175
 10
0.1814963958399758
 20
0.1453233150884747
 10
0.1817950638989838
 20
0.1438306972324015
 10
0.1817950638989838
 20
0.1430346342933246
 10
0.1804012835358273
 20
0.1433829123706074
 10
0.1793559482634597
 20
0.1443282373428056
 10
0.1782110569714239
 20
0.1452735623150038
 10
0.177563943821627
 20
0.1468159341821175
 10
0.177563943821627
 20
0.1481592900050694
 10
0.1773648317822889
 20
0.1485573220933926
 10
0.1768172766082674
 20
0.1480100292095176
 10
0.1759212743873506
 20
0.1468159341821175
 10
0.1740297139258489
 20
0.1448755302266806
 10
0.1722874884719034
 20
0.143233650337486
 10
0.1686537045125627
 20
0.1415420164372514
 10
0.1659656978498132
 20
0.1412434923710091
 10
0.163327470174951
 20
0.1414425084151704
 10
0.1606892425000896
 20
0.1422883253652878
 10
0.1588972400143624
 20
0.1439799592655228
 10
0.1573541246436496
 20
0.1465174101158748
 10
0.1570056795528607
 20
0.1490548609662276
 10
0.157155014560417
 20
0.1516420670651896
 10
0.1580510167813338
 20
0.1538809938492997
 10
0.1593950181566022
 20
0.1556721357716153
 10
0.160589688436527
 20
0.1564681987106921
 10
0.1621825788829152
 20
0.1568164767879749
 10
0.1638750273050789
 20
0.1567169687658944
 10
0.1657168087786933
 20
0.156119921870979
 10
0.1666128109996101
 20
0.1551745968987807
 10
0.1670608121100681
 20
0.1533337009654243
 10
0.166662588031391
 20
0.1513932970099873
 10
0.1656670317469115
 20
0.1500499399494659
 10
0.1645221404548749
 20
0.1493533850324699
 10
0.1630288040720502
 20
0.1493533850324699
 10
0.1616848007406755
 20
0.1499006791539141
 10
0.1611870225984358
 20
0.1511445269547855
 10
0.1613861326816675
 20
0.1524878840153074
 10
0.1623319138904715
 20
0.1529356688771011
 10
0.16342702619462
 20
0.1529356688771011
 10
0.1640243603565297
 20
0.1523883759932265
 10
0.1640243603565297
 20
0.1515425590431087
 10
0.1638252502732971
 20
0.1506967420929914
 10
0.1632776931431701
 20
0.150646988081951
 10
0.1627301360130422
 20
0.1507962501150723
 10
0.1625808029615914
 20
0.1513435429989473
  0
LWPOLYLINE
  5
945
330
2
100
AcDbEntity
  8
Profilo
  6
Continuous
370
     0
100
AcDbPolyline
 90
      188
 70
   128
 43
0.0
 10
0.164343485373071
 20
0.1493540867344389
 10
0.164331429891212
 20
0.1487637276656972
 10
0.1644519690609545
 20
0.1481733698345251
 10
0.1648859116369132
 20
0.1475709630256281
 10
0.1655368235447445
 20
0.1472336151631426
 10
0.1671260482483123
 20
0.1470786590722448
 10
0.169391555555755
 20
0.1476201502297867
 10
0.1723958156712999
 20
0.1495399833031623
 10
0.1752523271813302
 20
0.1521489879532396
 10
0.1782073364576326
 20
0.1550533509664959
 10
0.1812608474124191
 20
0.1574654496285967
 10
0.1841666078055855
 20
0.159976000665901
 10
0.1871296214680258
 20
0.1621542246606284
 10
0.1884101276394741
 20
0.1628433949997605
 10
0.1886563779234727
 20
0.1634341129636891
 10
0.1875728731528869
 20
0.1637294725644382
 10
0.1866371209000286
 20
0.1634833397700754
 10
0.1860461186535465
 20
0.1638279249396417
 10
0.1853566166846867
 20
0.1638279249396417
 10
0.1841746121917234
 20
0.1632864337820994
 10
0.1831896090996226
 20
0.1629910741813502
 10
0.1825986068531413
 20
0.1629418486125335
 10
0.1821553551682793
 20
0.1632864337820994
 10
0.1815643529217981
 20
0.1635817921452789
 10
0.1809733506753159
 20
0.1635817921452789
 10
0.1802838487064562
 20
0.1639263785524143
 10
0.1799390967439736
 20
0.1646155488915464
 10
0.1800375964663512
 20
0.1654031728434515
 10
0.1801360981448361
 20
0.1659938908073797
 10
0.1798898459047311
 20
0.1664369295897185
 10
0.1790525933742504
 20
0.1668799683720574
 10
0.1783138405661482
 20
0.167470686335986
 10
0.1779198397205295
 20
0.1679137238807553
 10
0.1771318360731848
 20
0.1686521222638433
 10
0.1765900846659461
 20
0.1695874253973377
 10
0.1763438343819466
 20
0.1705227285308326
 10
0.1761960838203265
 20
0.1717041644586894
 10
0.176146832981084
 20
0.1729348271929334
 10
0.1763438343819466
 20
0.1744608482903564
 10
0.1771318360731848
 20
0.1759376425813932
 10
0.1784123422446331
 20
0.1769221725212739
 10
0.1801360981448361
 20
0.1776605709043619
 10
0.1819091029281752
 20
0.1776113440979756
 10
0.1834851102228636
 20
0.1771683053156367
 10
0.1845193621981005
 20
0.1755438306054406
 10
0.1842238610748594
 20
0.1742639423023804
 10
0.1836821096676198
 20
0.1735747707256787
 10
0.1829433568595176
 20
0.173525545156862
 10
0.1822046040514154
 20
0.1737716767136548
 10
0.1817121034834181
 20
0.1738209035200415
 10
0.181465851243314
 20
0.1733778647377026
 10
0.1816136018049341
 20
0.1726886943985706
 10
0.1822538548906578
 20
0.1719502972530522
 10
0.1829433568595176
 20
0.171458031664327
 10
0.1836328607844837
 20
0.1712611256763505
 10
0.1846671127597206
 20
0.1708673137003984
 10
0.1857998683695479
 20
0.1705227285308326
 10
0.1865878700607861
 20
0.1704735017244458
 10
0.1875236242697509
 20
0.170030462942107
 10
0.1888041284850928
 20
0.170227368930083
 10
0.1897891315771936
 20
0.170227368930083
 10
0.1909711360701569
 20
0.1701781433612668
 10
0.1919561391622577
 20
0.1701781433612668
 10
0.1924978905694974
 20
0.170227368930083
 10
0.19284264253198
 20
0.1707688613251949
 10
0.1923993908471189
 20
0.1713103524827373
 10
0.1921531405631203
 20
0.1718026168338928
 10
0.1919068883230153
 20
0.1726886943985706
 10
0.1914636366381541
 20
0.1729348271929334
 10
0.1908726363477784
 20
0.1734270915440889
 10
0.1904293846629173
 20
0.1740670363144043
 10
0.1903308829844332
 20
0.1751992454358748
 10
0.1903308829844332
 20
0.176183775375756
 10
0.1898876312995712
 20
0.1764791349765047
 10
0.1890503787690914
 20
0.1764791349765047
 10
0.1878191253929919
 20
0.1766760409644812
 10
0.1868833711840272
 20
0.1774144381099995
 10
0.1864401194991661
 20
0.1777590232795654
 10
0.1856028669686853
 20
0.1780051560739282
 10
0.1846178638765845
 20
0.1787435532194465
 10
0.1839283599516184
 20
0.1793834979897615
 10
0.1831896090996226
 20
0.1797280831593278
 10
0.1823523546130363
 20
0.1797280831593278
 10
0.1810718503976945
 20
0.1797773099657141
 10
0.1800375964663512
 20
0.1801218951352799
 10
0.1791510930966289
 20
0.1807618399055948
 10
0.1793973453367339
 20
0.1813525578695234
 10
0.1798898459047311
 20
0.1820909550150418
 10
0.1805300989904548
 20
0.1826324461725841
 10
0.1818106032057967
 20
0.1831739373301264
 10
0.1826478557362774
 20
0.1833216177492854
 10
0.1831914458832446
 20
0.1840798840748961
 10
0.1837824481297268
 20
0.1841783376876691
 10
0.1847674512218276
 20
0.1847198288452114
 10
0.1856047037523083
 20
0.1846706020388247
 10
0.1863927073996521
 20
0.1846706020388247
 10
0.1865897068444091
 20
0.1851136408211635
 10
0.1871807090908903
 20
0.185408999184343
 10
0.187968712738235
 20
0.1855566796035024
 10
0.1888552161079573
 20
0.1855566796035024
 10
0.189544718076817
 20
0.185408999184343
 10
0.1899387189224366
 20
0.1856551319787059
 10
0.1898402192000581
 20
0.1864427559306106
 10
0.1898894700393006
 20
0.1873780590641054
 10
0.1903819706072978
 20
0.1880180038344203
 10
0.1906774717305388
 20
0.1888548545927113
 10
0.1902834708849193
 20
0.1893963457502536
 10
0.1895939689160595
 20
0.1902331965085451
 10
0.1891507172311984
 20
0.1911684996420395
 10
0.1882149630222336
 20
0.1917592176059681
 10
0.1873777104917529
 20
0.1919561235939442
 10
0.1864912071220306
 20
0.1927929743522356
 10
0.1857032054307923
 20
0.1936298251105266
 10
0.1850137015058262
 20
0.1940728626552959
 10
0.1834376961672441
 20
0.1941220894616826
 10
0.1821571919519023
 20
0.1938267310985031
 10
0.1806796863356979
 20
0.1935805983041403
 10
0.1799901843668381
 20
0.1940236370864792
 10
0.1798424338052171
 20
0.1950573925951771
 10
0.1802856854900792
 20
0.1960419225350582
 10
0.1808274368973188
 20
0.1967803196805762
 10
0.1815169388661786
 20
0.1972233584629151
 10
0.1828501249308514
 20
0.1979287867540172
 10
0.1835396268997111
 20
0.1984210511051727
 10
0.1838351280229522
 20
0.1992579018634641
 10
0.1842783797078134
 20
0.1999470734401654
 10
0.1849186308374315
 20
0.2004885645977077
 10
0.1860021356080164
 20
0.2003408854161175
 10
0.1879228929090819
 20
0.2002916586097312
 10
0.1893018968468023
 20
0.2004885645977077
 10
0.1903854016173871
 20
0.2003901109849346
 10
0.1918136563943491
 20
0.1996517138394163
 10
0.1932419111713111
 20
0.1989625435002842
 10
0.1949656670715141
 20
0.1981749195483795
 10
0.1957536707188587
 20
0.1984210511051727
 10
0.1957536707188587
 20
0.1991102226818739
 10
0.1951134176331351
 20
0.1995532614642128
 10
0.194670165948273
 20
0.2003901109849346
 10
0.1946209170651378
 20
0.2012761885496124
 10
0.1951626684723766
 20
0.2019161333199273
 10
0.1951626684723766
 20
0.2022114916831068
 10
0.1944731665035169
 20
0.2029991156350115
 10
0.1935866631337946
 20
0.2035406067925538
 10
0.1929464100480709
 20
0.2036390604053269
 10
0.1921584083568326
 20
0.2033437008045777
 10
0.1915674061103505
 20
0.2025560768526726
 10
0.1907301516237643
 20
0.2017684529007679
 10
0.1900899004941461
 20
0.2017192273319512
 10
0.1890556465628037
 20
0.2020638125015171
 10
0.1889571468404252
 20
0.2032452484293743
 10
0.1890063957235613
 20
0.2046235903452076
 10
0.1891541462851813
 20
0.2063465174306072
 10
0.1906316519013858
 20
0.2077248593464405
 10
0.191665905832729
 20
0.2086109356735486
 10
0.1932479946612646
 20
0.2090642957864368
 10
0.1946269985989841
 20
0.2091135225928231
 10
0.1958582539311899
 20
0.2086704838104842
 10
0.1964000053384296
 20
0.208227446265715
 10
0.1972865087081519
 20
0.2086212582416675
 10
0.1982222609610111
 20
0.208719710616871
 10
0.1992072660092174
 20
0.2085720314352808
 10
0.2004877702245593
 20
0.2079320866649659
 10
0.2012265230326615
 20
0.2070460103378582
 10
0.2020637755631414
 20
0.2065045179427463
 10
0.2031965292168631
 20
0.2066029715555193
 10
0.2037382806241028
 20
0.2071444627130612
 10
0.2033442797784832
 20
0.2076859538706035
 10
0.2023100258471409
 20
0.208227446265715
 10
0.2016205238782802
 20
0.208719710616871
 10
0.2008325202309364
 20
0.209556561375162
 10
0.2000937674228342
 20
0.2104918645086569
 10
0.2003400196629392
 20
0.2115748480613107
 10
0.2014235224774177
 20
0.2120178856060799
 10
0.2023592766863824
 20
0.2119686600372632
 10
0.2035905300624818
 20
0.2114763944485376
 10
0.2052650370795488
 20
0.210885676484609
 10
0.2071857943806152
 20
0.2094581077623889
 10
0.2082200463558512
 20
0.2084243522536915
 10
0.2087125488799548
 20
0.2077844074833761
 10
0.2095990522496771
 20
0.2067998775434954
 10
0.2097960536505397
 20
0.2049784968453232
 10
0.2093035511264369
 20
0.2034524757478997
 10
0.2086632980407124
 20
0.2016803218561138
 10
0.2083185480343361
 20
0.2002527531338942
 10
0.2084170477567138
 20
0.1983821468669054
 10
0.2087125488799548
 20
0.1969053513382986
 10
0.2095990522496771
 20
0.1955270106600348
 10
0.2108925108347666
 20
0.1953932680609607
  0
LWPOLYLINE
  5
946
330
2
100
AcDbEntity
  8
Profilo
  6
Continuous
370
     0
100
AcDbPolyline
 90
       12
 70
   128
 43
0.0
 10
0.2063725647890784
 20
0.1775209086987077
 10
0.2033161744461205
 20
0.1859913697412505
 10
0.2017185169691806
 20
0.191545771500151
 10
0.2008849556108998
 20
0.195433852607624
 10
0.2002597841031635
 20
0.1993219337150975
 10
0.1991483696108245
 20
0.2030711545620236
 10
0.1976896387009137
 20
0.204668045083177
 10
0.1963698343580311
 20
0.2055706355391642
 10
0.193799686999675
 20
0.2062649356043305
 10
0.1924798826567933
 20
0.2056400656694377
 10
0.190882223223747
 20
0.2050846258648185
 10
0.1902570536721162
 20
0.203348875083118
  0
LWPOLYLINE
  5
947
330
2
100
AcDbEntity
  8
Profilo
  6
Continuous
370
     0
100
AcDbPolyline
 90
       11
 70
   128
 43
0.0
 10
0.2083175406396973
 20
0.1759240181775538
 10
0.2076923710880665
 20
0.1799509583080048
 10
0.2072061261473592
 20
0.1827281598062398
 10
0.2065114913561075
 20
0.1875882602624044
 10
0.2058168585209621
 20
0.1922400715653176
 10
0.205469540147283
 20
0.1964753033241586
 10
0.2057473952374476
 20
0.199391363845371
 10
0.2058168585209621
 20
0.2030711545620236
 10
0.2056084686704185
 20
0.20452918482263
 10
0.2045665174615949
 20
0.2055706355391642
 10
0.2036634928197996
 20
0.206195505474057
  0
LWPOLYLINE
  5
948
330
2
100
AcDbEntity
  8
Profilo
  6
Continuous
370
     0
100
AcDbPolyline
 90
       14
 70
   128
 43
0.0
 10
0.2083161596287952
 20
0.1686874623016332
 10
0.206579573628719
 20
0.1718812433439405
 10
0.2051903060023228
 20
0.1750055942559734
 10
0.2045651344945856
 20
0.177505075233114
 10
0.2031758668681893
 20
0.1791019657542678
 10
0.2019255258088213
 20
0.1806988562754213
 10
0.2010225011670268
 20
0.1841703566012529
 10
0.2005362562263186
 20
0.1853506675783341
 10
0.1997026948680387
 20
0.1866004074481196
 10
0.1987302088988352
 20
0.1902107680344986
 10
0.1972714760328171
 20
0.1928491092721862
 10
0.1962295248239936
 20
0.1950708697282324
 10
0.1953265001821982
 20
0.1966677602493863
 10
0.1951875736151691
 20
0.1979175001191713
  0
LWPOLYLINE
  5
949
330
2
100
AcDbEntity
  8
Profilo
  6
Continuous
370
     0
100
AcDbPolyline
 90
       11
 70
   128
 43
0.0
 10
0.203523183285762
 20
0.1752138846467943
 10
0.2012308910175704
 20
0.1779910849074597
 10
0.1983134272416416
 20
0.1820874564057537
 10
0.1967157697647017
 20
0.1844480771223473
 10
0.1947707939140828
 20
0.1877112882949277
 10
0.1937983059887729
 20
0.1906273488161401
 10
0.1932425977645502
 20
0.1927796791419127
 10
0.1919227934216685
 20
0.194654288946591
 10
0.1903251339886223
 20
0.1963900397282914
 10
0.1887969397951961
 20
0.1970843397934581
 10
0.1871992803621498
 20
0.197431490444826
  0
LWPOLYLINE
  5
94A
330
2
100
AcDbEntity
  8
Profilo
  6
Continuous
370
     0
100
AcDbPolyline
 90
       13
 70
   128
 43
0.0
 10
0.208663476046367
 20
0.1661879825620622
 10
0.2054681591363809
 20
0.169242903343822
 10
0.2033147934352184
 20
0.1709092227576794
 10
0.202272842226394
 20
0.1727144036696537
 10
0.2015087441516286
 20
0.1737558543861879
 10
0.1997026948680387
 20
0.1750055942559734
 10
0.1980355741075834
 20
0.176185905233055
 10
0.1971325494657889
 20
0.1770884944514725
 10
0.1956738185558773
 20
0.1798656959497076
 10
0.1946318653909473
 20
0.181323726210314
 10
0.1930342079140066
 20
0.1828511866011939
 10
0.1912976219139313
 20
0.1838232071874541
 10
0.1901862074215932
 20
0.1845869373828943
  0
LWPOLYLINE
  5
94B
330
2
100
AcDbEntity
  8
Profilo
  6
Continuous
370
     0
100
AcDbPolyline
 90
        8
 70
   128
 43
0.0
 10
0.2033842567187329
 20
0.1694511924970729
 10
0.200327866375775
 20
0.1720201036044875
 10
0.1978966475405544
 20
0.1735475639953674
 10
0.1956043533162564
 20
0.1759081847119605
 10
0.1928952813469775
 20
0.1788936753634469
 10
0.1904640605556513
 20
0.1809765755589456
 10
0.1883106948544879
 20
0.1819485961452068
 10
0.1867130373775481
 20
0.1824346058195521
  0
LWPOLYLINE
  5
94C
330
2
100
AcDbEntity
  8
Profilo
  6
Continuous
370
     0
100
AcDbPolyline
 90
        7
 70
   128
 43
0.0
 10
0.2089413291804252
 20
0.1634107810638272
 10
0.2069963552859126
 20
0.1650771017152541
 10
0.2040788915099838
 20
0.1672294320410268
 10
0.2017171340021722
 20
0.1686874623016332
 10
0.1985912803756997
 20
0.1700760624319657
 10
0.1966463045250808
 20
0.170562073343881
 10
0.1956738185558773
 20
0.1706315034741545
  0
LWPOLYLINE
  5
94D
330
2
100
AcDbEntity
  8
Profilo
  6
Continuous
370
     0
100
AcDbPolyline
 90
       13
 70
   128
 43
0.0
 10
0.2008835745999977
 20
0.1677154429529421
 10
0.1974798658833607
 20
0.1689651828227276
 10
0.1947013306305674
 20
0.1687568924319067
 10
0.1919227934216685
 20
0.1686874623016332
 10
0.1895610378699624
 20
0.1681320224970139
 10
0.1852543045115309
 20
0.167993162236467
 10
0.1822673774520875
 20
0.1686874623016332
 10
0.1800445484674105
 20
0.170562073343881
 10
0.1792109871091305
 20
0.1727838337999272
 10
0.1790720605421006
 20
0.1747278737348794
 10
0.1798361586168669
 20
0.1751444545165204
 10
0.1813643547663986
 20
0.1751444545165204
 10
0.182406305975223
 20
0.1751444545165204
  0
LWPOLYLINE
  5
94E
330
2
100
AcDbEntity
  8
Profilo
  6
Continuous
370
     0
100
AcDbPolyline
 90
        6
 70
   128
 43
0.0
 10
0.1773648317822889
 20
0.1485573220933926
 10
0.1787390706455632
 20
0.1517904764128497
 10
0.1802850047651583
 20
0.1542900514452805
 10
0.1822228682140181
 20
0.1568406626108682
 10
0.1836473926966586
 20
0.1587984420436328
 10
0.1854874038942575
 20
0.1606968948644218
  0
LWPOLYLINE
  5
94F
330
2
100
AcDbEntity
  8
Profilo
  6
Continuous
370
     0
100
AcDbPolyline
 90
       80
 70
   128
 43
0.0
 10
0.2195404093191244
 20
0.1547060516300305
 10
0.219695952681233
 20
0.1549038554100406
 10
0.2198725613523214
 20
0.1549029580323417
 10
0.2201369127929664
 20
0.1547912853017896
 10
0.2203113931683303
 20
0.1543711431069057
 10
0.2202646617843438
 20
0.1538638603213482
 10
0.2199087516463336
 20
0.1533360836104673
 10
0.2193121360536441
 20
0.1532287843574025
 10
0.2186505247767954
 20
0.1533645417815061
 10
0.21816765438521
 20
0.1539186478627714
 10
0.2180401296252385
 20
0.1548902027682697
 10
0.2182201038115303
 20
0.1555512715822349
 10
0.2186206131256412
 20
0.1561670862813664
 10
0.2190193285444868
 20
0.1564298529171681
 10
0.2195715672426901
 20
0.156493245354532
 10
0.220233626988638
 20
0.1564457490180957
 10
0.2209610187752877
 20
0.1562213927484066
 10
0.2214654049073219
 20
0.1555568478247142
 10
0.2217930721992134
 20
0.1548711334499231
 10
0.2218766665840064
 20
0.1539439340638839
 10
0.2215827249275735
 20
0.1525773312181466
 10
0.2203422017702612
 20
0.1517451232574873
 10
0.2187521611801484
 20
0.1516428717601918
 10
0.2172755274785174
 20
0.1521358288632495
 10
0.2164863934040653
 20
0.1532431424204659
 10
0.2161647805047611
 20
0.1551203932355256
 10
0.2167476184883756
 20
0.1568606514809256
 10
0.2175476280532613
 20
0.1578936918849955
 10
0.2186556951962764
 20
0.1587265728764442
 10
0.2200054768510176
 20
0.1593375641667163
 10
0.2214413214549802
 20
0.1595067976121718
 10
0.2233379620782123
 20
0.1591220371398778
 10
0.2250769310436105
 20
0.1581202280703886
 10
0.2262839417815694
 20
0.1567018650991363
 10
0.2266539658851963
 20
0.1556628795615982
 10
0.2269311988152329
 20
0.1533180270955583
 10
0.2266019158446644
 20
0.1510267313646713
 10
0.2258528858661799
 20
0.149478373555731
 10
0.2240108659788953
 20
0.1481472287206897
 10
0.2222433726074369
 20
0.1475917864620886
 10
0.2202662745940207
 20
0.1474607266264396
 10
0.2178672806390487
 20
0.1476492982445232
 10
0.2160345793178136
 20
0.1481524814052779
 10
0.2143095491454161
 20
0.1490078813418436
 10
0.2126579700408395
 20
0.1504273300069356
 10
0.2118204496378613
 20
0.1523012383079169
 10
0.211479893322142
 20
0.1547370433981312
 10
0.2115297470594208
 20
0.1572166356159825
 10
0.2120326241420514
 20
0.1589426261035753
 10
0.2132429661626654
 20
0.1609825095765611
 10
0.215442034482576
 20
0.1631232000624427
 10
0.2181316142205787
 20
0.1645558679627323
 10
0.2211712500356693
 20
0.1654223339874661
 10
0.2243126420544328
 20
0.1654769243371432
 10
0.2279507176682463
 20
0.1643627893063395
 10
0.231084041896042
 20
0.1628299807568143
 10
0.2329454048818131
 20
0.1610214248975716
 10
0.2343483217097615
 20
0.1592857495201478
 10
0.2358531523096035
 20
0.1573998010206638
 10
0.236778754301002
 20
0.1556142307901771
 10
0.2369749027888284
 20
0.1539783402527685
 10
0.236497561081294
 20
0.1516198397705546
 10
0.2356431920390125
 20
0.1501778468629409
 10
0.2344015017025069
 20
0.1489142039338249
 10
0.2332345190834342
 20
0.1484615400375646
 10
0.2315729044558548
 20
0.1479055597916554
 10
0.2303376667885162
 20
0.1479118362373639
 10
0.230377439417772
 20
0.1487935450602378
 10
0.230912562974855
 20
0.1499196723755802
 10
0.2320492727260406
 20
0.1513602306636246
 10
0.2327366442144176
 20
0.1526088342931233
 10
0.232948680838384
 20
0.1537668077801148
 10
0.2328776563606343
 20
0.1550034906783466
 10
0.2324980670186105
 20
0.1563705246014799
 10
0.2319380976879219
 20
0.1577384763025828
 10
0.2312402516071674
 20
0.1588429486085814
 10
0.2301520972833655
 20
0.1600126002053112
 10
0.2287468503201679
 20
0.1612896926581051
 10
0.2270227163502498
 20
0.1623214699762303
 10
0.2259653745744179
 20
0.1626090540951934
  0
LWPOLYLINE
  5
950
330
2
100
AcDbEntity
  8
Profilo
  6
Continuous
370
     0
100
AcDbPolyline
 90
       12
 70
   128
 43
0.0
 10
0.2260805550129639
 20
0.1574933840573109
 10
0.2261196106852663
 20
0.1582339919649804
 10
0.2264739704978795
 20
0.1585144029960346
 10
0.2271443494579628
 20
0.1584757193131714
 10
0.2281285947322889
 20
0.1576946369431628
 10
0.2289696999577593
 20
0.1565262406435259
 10
0.2296680236128494
 20
0.1550410808718632
 10
0.2301189377350503
 20
0.1534866259496308
 10
0.2302163921655669
 20
0.1518281385955782
 10
0.2303185048916363
 20
0.1510868133880634
 10
0.2312366479634995
 20
0.1511879778083584
 10
0.2318726295656963
 20
0.1513258520770239
  0
LWPOLYLINE
  5
951
330
2
100
AcDbEntity
  8
Profilo
  6
Continuous
370
     0
100
AcDbPolyline
 90
       52
 70
   128
 43
0.0
 10
0.2367179910648864
 20
0.1526483822740676
 10
0.2371085102529757
 20
0.1528410751448872
 10
0.2376926074599159
 20
0.1527991715708072
 10
0.2380794667631079
 20
0.1522715797625453
 10
0.2382320161145388
 20
0.151628371481308
 10
0.2386618184552869
 20
0.1502168894739783
 10
0.2396512909348194
 20
0.1482613254359464
 10
0.2400911965131278
 20
0.1466669437724062
 10
0.2400338359787566
 20
0.1451745968688023
 10
0.2397275876363485
 20
0.143683515842663
 10
0.2397235427618669
 20
0.1428874631798558
 10
0.2411190747682361
 20
0.1432286548254682
 10
0.2421691998361364
 20
0.1441686561427464
 10
0.2433188796385497
 20
0.1451081516060481
 10
0.2439738213787643
 20
0.1466472155170111
 10
0.2439806471024866
 20
0.1479905539987625
 10
0.2441817790118994
 20
0.1483875692409895
 10
0.2447265462683628
 20
0.1478375012400818
 10
0.2456164696080403
 20
0.1466388689512432
 10
0.2474981462673422
 20
0.1446888788385423
 10
0.2492320066771219
 20
0.143038167724411
 10
0.2528571483693731
 20
0.1413280920457675
 10
0.2555436035027163
 20
0.1410159138055791
 10
0.2581828083412432
 20
0.1412015221850744
 10
0.2608252996391058
 20
0.1420339231210583
 10
0.2626258743511716
 20
0.1437164298424549
 10
0.2641818628406038
 20
0.1462460072154638
 10
0.2645431964719502
 20
0.1487816548262546
 10
0.2644070092420641
 20
0.1513695863132542
 10
0.2635223947958207
 20
0.1536130368712092
 10
0.2621875117392409
 20
0.155410984675751
 10
0.2609969017556366
 20
0.1562131075763395
 10
0.2594058015069949
 20
0.1565694747915569
 10
0.2577128693223247
 20
0.1564785675517375
 10
0.2558680779697313
 20
0.1558908866377413
 10
0.2549672840255617
 20
0.1549501265444677
 10
0.2545099349240869
 20
0.1531115307129158
 10
0.2548982944778426
 20
0.1511691283899869
 10
0.2558870121808094
 20
0.1498207301507932
 10
0.2570283494292116
 20
0.149118366919708
 10
0.2585216665347578
 20
0.1491107791299359
 10
0.2598684333721024
 20
0.149651237172657
 10
0.2603725252022169
 20
0.1508925396569198
 10
0.260180243419281
 20
0.1522368910742391
 10
0.2592367496585843
 20
0.1526894757634473
 10
0.2581416514910939
 20
0.1526950401373126
 10
0.2575415441908502
 20
0.1521507894322891
 10
0.2575372465113206
 20
0.1513049834007094
 10
0.2577320563447383
 20
0.1504581656711154
 10
0.2582793536014758
 20
0.1504056301104404
 10
0.2588276620784062
 20
0.1505521080248559
 10
0.2589797740513775
 20
0.1510986350678052
  0
LWPOLYLINE
  5
952
330
2
100
AcDbEntity
  8
Profilo
  6
Continuous
370
     0
100
AcDbPolyline
 90
      188
 70
   128
 43
0.0
 10
0.2572070057701985
 20
0.1491181608484888
 10
0.2572160614236523
 20
0.1485277481455185
 10
0.2570925241434379
 20
0.1479380104066328
 10
0.256655526280644
 20
0.1473378162792467
 10
0.2560029086775122
 20
0.1470037801192836
 10
0.2544129171418186
 20
0.146856901036501
 10
0.2521501904496028
 20
0.1474098964705725
 10
0.2491557239772637
 20
0.1493449697036877
 10
0.2463125059520761
 20
0.1519684548918118
 10
0.2433722921771488
 20
0.15488779510726
 10
0.2403310767514559
 20
0.1573153778228921
 10
0.2374381102263408
 20
0.1598406609076113
 10
0.2344862025844729
 20
0.1620339121492389
 10
0.2332092146855238
 20
0.1627295799703936
 10
0.2329659690767014
 20
0.1633215415308573
 10
0.234050960611796
 20
0.1636113919240087
 10
0.2349854501600965
 20
0.163360507657249
 10
0.2355781956487168
 20
0.1637020854377784
 10
0.2362676887168884
 20
0.1636985820101197
 10
0.2374469265814179
 20
0.1631510919609486
 10
0.2384304162069186
 20
0.1628507312748821
 10
0.2390211607042507
 20
0.1627985034006789
 10
0.2394661575385431
 20
0.1631408319164165
 10
0.2400586529008943
 20
0.1634331835260214
 10
0.2406496475182072
 20
0.1634301805851885
 10
0.2413408914639745
 20
0.1637712591164457
 10
0.2416891407187156
 20
0.1644586688403713
 10
0.2415946442630108
 20
0.1652467831117698
 10
0.2414991453524367
 20
0.165837993946964
 10
0.2417476455375496
 20
0.1662797757782015
 10
0.2425871383838956
 20
0.1667185546785452
 10
0.2433288831519016
 20
0.1673055113409338
 10
0.2437251300289744
 20
0.1677465412093486
 10
0.2445168753792577
 20
0.1684809261361271
 10
0.2450633721607731
 20
0.1694134645034686
 10
0.2453143716336326
 20
0.1703475043412266
 10
0.245468123280691
 20
0.1715281742828769
 10
0.2455236266031597
 20
0.1727585708822778
 10
0.2453343816093996
 20
0.1742855732640897
 10
0.2445538938281382
 20
0.175766352405871
 10
0.2432784066805158
 20
0.1767573760150176
 10
0.2415584249072189
 20
0.1775045234403358
 10
0.239785192885092
 20
0.1774643060819709
 10
0.2382069548110246
 20
0.1770292808676075
 10
0.2371644620702316
 20
0.1754100822640558
 10
0.2374534561399082
 20
0.1741287090124856
 10
0.2379916988048476
 20
0.1734367936397576
 10
0.2387301919565077
 20
0.1733838150303457
 10
0.2394701858469179
 20
0.1736261897338185
 10
0.2399629301835613
 20
0.1736729134606749
 10
0.2402069281209831
 20
0.1732286291654912
 10
0.2400556777240392
 20
0.1725402184579749
 10
0.2394116810343723
 20
0.1718050840335419
 10
0.2387196867160861
 20
0.171316328227066
 10
0.2380291911930452
 20
0.1711229282185202
 10
0.2369929515712525
 20
0.170734376462752
 10
0.235858459712708
 20
0.1703955513846127
 10
0.2350702180674087
 20
0.1703503291281727
 10
0.2341322248141233
 20
0.1699120507245939
 10
0.2328527376274276
 20
0.1701154605392281
 10
0.2318677472506001
 20
0.1701204654373032
 10
0.2306855078959937
 20
0.1700772463855986
 10
0.2297005175191653
 20
0.1700822512836737
 10
0.2291590232253033
 20
0.170134228909494
 10
0.2288170270895617
 20
0.1706774660333518
 10
0.2292630244226419
 20
0.1712166979952329
 10
0.2295117727716558
 20
0.1717077047697799
 10
0.2297625240806151
 20
0.1725925196642279
 10
0.2302070206686568
 20
0.1728363970756707
 10
0.2308005145737153
 20
0.1733256521413584
 10
0.2312470121593344
 20
0.1739633364450874
 10
0.2313512654327352
 20
0.1750950304542571
 10
0.231356267926677
 20
0.176079547684973
 10
0.2318010146409886
 20
0.1763726512673398
 10
0.2326382563634881
 20
0.1763683971044734
 10
0.2338704943442911
 20
0.1765590444305078
 10
0.234809988342614
 20
0.1772926773845244
 10
0.2352549851769063
 20
0.177635005900262
 10
0.2360934775244627
 20
0.1778768813544626
 10
0.2370822197701752
 20
0.178610264070036
 10
0.2377749664170616
 20
0.1792466971417919
 10
0.2385154586039293
 20
0.1795875241970521
 10
0.2393527022825104
 20
0.1795832700242466
 10
0.2406334400942638
 20
0.179625989826679
 10
0.2416694315458689
 20
0.1799653154015837
 10
0.242559175094472
 20
0.180600747499688
 10
0.2423159275295699
 20
0.1811927090700909
 10
0.2418271851880804
 20
0.1819335991278073
 10
0.2411896917373937
 20
0.1824783364845279
 10
0.2399119554220055
 20
0.1830263270205248
 10
0.239075464078313
 20
0.183178259696164
 10
0.2385357337746299
 20
0.183939278268685
 10
0.2379452394098551
 20
0.1840407335513663
 10
0.2369630004031229
 20
0.1845872226169467
 10
0.2361255085543543
 20
0.1845422506088892
 10
0.2353375150792443
 20
0.1845462545333127
 10
0.2351427693013723
 20
0.1849902885701748
 10
0.234553275429098
 20
0.1852886460614456
 10
0.233766032332795
 20
0.1854403284986414
 10
0.2328795404068253
 20
0.1854448329098908
 10
0.2321892969598467
 20
0.1853006578247767
 10
0.2317965518253897
 20
0.1855487893990864
 10
0.2318990522714015
 20
0.1863359026968334
 10
0.2318545544356041
 20
0.1872714440050074
 10
0.2313653118478649
 20
0.187913882958429
 10
0.231074066660631
 20
0.1887522243843422
 10
0.2314708137902419
 20
0.1892917065946054
 10
0.2321645589798364
 20
0.1901250431224439
 10
0.2326125573104931
 20
0.1910580819766108
 10
0.2335513009362973
 20
0.1916440376554087
 10
0.2343895431575855
 20
0.1918366869386849
 10
0.2352802872049773
 20
0.1926690224829328
 10
0.2360725308454297
 20
0.1935018585239452
 10
0.23676427698724
 20
0.1939413869120043
 10
0.2383405121076494
 20
0.1939826052440208
 10
0.2396194990480953
 20
0.1936807443250914
 10
0.2410957349663201
 20
0.1934271073559422
 10
0.2417874791583372
 20
0.1938666369914941
 10
0.2419404804265885
 20
0.1948996284203721
 10
0.2415022369575455
 20
0.1958863978567127
 10
0.2409642444125859
 20
0.1966275381628115
 10
0.2402770024682608
 20
0.1970740746536808
 10
0.2389474179643842
 20
0.1977862678886786
 10
0.2382604261400398
 20
0.1982820293129181
 10
0.2379691809528059
 20
0.1991203707388314
 10
0.2375294367387244
 20
0.1998117856247341
 10
0.2368919452441183
 20
0.2003565229715152
 10
0.2358077040878326
 20
0.2002143510911361
 10
0.2338867214552962
 20
0.200174884477919
 10
0.2325087358177418
 20
0.2003787947793794
 10
0.2314247447814368
 20
0.2002858478323706
 10
0.2299927565727395
 20
0.1995547173224219
 10
0.2285610184903122
 20
0.1988728129833972
 10
0.2268332828466899
 20
0.1980939577729401
 10
0.2260465399903484
 20
0.1983440900768776
 10
0.2260500417392517
 20
0.1990332527571557
 10
0.2266925376838802
 20
0.1994730326311509
 10
0.2271400357619988
 20
0.2003076191434694
 10
0.2271937862570794
 20
0.2011934350314473
 10
0.2266552934658701
 20
0.2018361242332514
 10
0.2266567942109086
 20
0.2021314787836892
 10
0.2273502892742341
 20
0.2029155891406034
 10
0.228239532570299
 20
0.2034525688968594
 10
0.2288802776436201
 20
0.2035477680494928
 10
0.2296667684113227
 20
0.2032484083470165
 10
0.2302537610334825
 20
0.2024577916216113
 10
0.2310870027169096
 20
0.2016659236642329
 10
0.2317269954616303
 20
0.2016134455515859
 10
0.2327629869132355
 20
0.2019527711264906
 10
0.2328674883568238
 20
0.2031336913165238
 10
0.2328252436009535
 20
0.2045122656779692
 10
0.2326862493094512
 20
0.2062359212575417
 10
0.2312157662576879
 20
0.2076217527326261
 10
0.2301860279187939
 20
0.2085130727679512
 10
0.2286062630807775
 20
0.208974465778196
 10
0.2272275270707043
 20
0.2090306988044372
 10
0.2259940365087629
 20
0.2085939218712749
 10
0.2254500409773621
 20
0.2081536427380684
 10
0.2245655500489698
 20
0.2085519540416039
 10
0.2236303101218613
 20
0.2086551597955912
 10
0.2226445674164335
 20
0.2085124874283863
 10
0.2213608281083148
 20
0.2078790572875242
 10
0.2206175825952703
 20
0.2069967460746978
 10
0.2197775894963871
 20
0.2064595148325057
 10
0.2186453507177688
 20
0.2065637228076373
 10
0.2181063576740214
 20
0.2071079596675931
 10
0.2185031048036323
 20
0.2076474418778562
 10
0.2195400967603145
 20
0.2081836721364576
 10
0.2202320910723123
 20
0.2086724267053803
 10
0.2210243366688454
 20
0.2095052627364535
 10
0.2217678323081598
 20
0.2104368001202044
 10
0.2215270859933722
 20
0.2115210209247418
 10
0.2204458482832432
 20
0.2119695581352992
 10
0.2195098560338236
 20
0.2119250878615606
 10
0.2182761173016938
 20
0.2114390847475347
 10
0.2165986304042489
 20
0.2108568827447779
 10
0.2146706442801942
 20
0.2094390920085583
 10
0.2136311530420547
 20
0.2084106049809899
 10
0.2131354052529664
 20
0.2077731709256434
 10
0.2122439108330549
 20
0.2067931581061768
 10
0.212037657359893
 20
0.2049728019035548
 10
0.2125223996623091
 20
0.203444298051326
 10
0.2131536399939973
 20
0.2016689138468224
 10
0.2134911319322545
 20
0.2002396118440366
 10
0.2133831287460504
 20
0.1983695302112789
 10
0.2130801276933372
 20
0.1968942552168444
 10
0.2121866322821375
 20
0.1955204367426448
 10
0.2108925108347666
 20
0.1953932680609607
  0
LWPOLYLINE
  5
953
330
2
100
AcDbEntity
  8
Profilo
  6
Continuous
370
     0
100
AcDbPolyline
 90
       12
 70
   128
 43
0.0
 10
0.2153215873085379
 20
0.1774981731179621
 10
0.2184209774467944
 20
0.1859529949950125
 10
0.2200468367641573
 20
0.1914992071973214
 10
0.2209001430865365
 20
0.1953830027064201
 10
0.2215450622484478
 20
0.1992678570649486
 10
0.2226755125554056
 20
0.2030113823067898
 10
0.2241423385933403
 20
0.204600840257954
 10
0.2254667120503695
 20
0.2054967130061978
 10
0.2280403540382971
 20
0.20617794493596
 10
0.2293569663180965
 20
0.205546377011105
 10
0.2309517828826209
 20
0.2049828265110816
 10
0.2315681248427273
 20
0.203243921587668
  0
LWPOLYLINE
  5
954
330
2
100
AcDbEntity
  8
Profilo
  6
Continuous
370
     0
100
AcDbPolyline
 90
       11
 70
   128
 43
0.0
 10
0.2133685226067674
 20
0.1759111858254054
 10
0.2140141453690194
 20
0.1799348974243378
 10
0.2145144952681848
 20
0.1827095924134432
 10
0.2152338157433105
 20
0.1875661006231857
 10
0.2159520759245781
 20
0.1922143223783923
 10
0.2163209094459748
 20
0.1964477347062061
 10
0.2160578747343551
 20
0.1993651693935616
 10
0.2160071097278988
 20
0.2030452655580985
 10
0.2162229052842404
 20
0.2045022181477583
 10
0.2172701347566901
 20
0.20553836116326
 10
0.218176322767367
 20
0.2061586346743245
  0
LWPOLYLINE
  5
955
330
2
100
AcDbEntity
  8
Profilo
  6
Continuous
370
     0
100
AcDbPolyline
 90
       14
 70
   128
 43
0.0
 10
0.2133331339441289
 20
0.1686747163481623
 10
0.2150859254440183
 20
0.1718596323972558
 10
0.2164910502723607
 20
0.1749768839713277
 10
0.217128913819751
 20
0.1774731561247762
 10
0.2185262774708627
 20
0.1790629670257502
 10
0.2197847163483304
 20
0.1806534838263434
 10
0.220705368369402
 20
0.1841203509815768
 10
0.2211976043099832
 20
0.1852981760635744
 10
0.2220375049597425
 20
0.1865436643929797
 10
0.2230283229742651
 20
0.190149037076361
 10
0.2245004426823145
 20
0.192779932290172
 10
0.2255536694252205
 20
0.1949963698087247
 10
0.2264647963685762
 20
0.196588651358367
 10
0.2266100711940318
 20
0.1978376691958084
  0
LWPOLYLINE
  5
956
330
2
100
AcDbEntity
  8
Profilo
  6
Continuous
370
     0
100
AcDbPolyline
 90
       11
 70
   128
 43
0.0
 10
0.2181592098123219
 20
0.175176700858044
 10
0.2204655837186606
 20
0.177942217904603
 10
0.2234038239019342
 20
0.18202371260156
 10
0.2250134553021279
 20
0.1843761849896537
 10
0.2269749867438386
 20
0.1876294714233278
 10
0.2279622789071822
 20
0.1905405529942299
 10
0.2285289161609769
 20
0.1926900319274414
 10
0.2298582285443975
 20
0.1945579114767089
 10
0.2314646868747674
 20
0.1962855219863329
 10
0.2329963891481988
 20
0.1969720481831194
 10
0.2345957918640475
 20
0.1973110764876638
  0
LWPOLYLINE
  5
957
330
2
100
AcDbEntity
  8
Profilo
  6
Continuous
370
     0
100
AcDbPolyline
 90
       13
 70
   128
 43
0.0
 10
0.2129731219063966
 20
0.1661770336230894
 10
0.2161839199229243
 20
0.1692156792482202
 10
0.2183457245602296
 20
0.1708710356878038
 10
0.2193968346212942
 20
0.1726708990398542
 10
0.2201662145464549
 20
0.1737084538545943
 10
0.2219785905678069
 20
0.1749490008767238
 10
0.2236516870843681
 20
0.1761208258119562
 10
0.224559286214175
 20
0.1770188150215044
 10
0.2260321095288533
 20
0.1797885687132736
 10
0.227081457639225
 20
0.1812412858853385
 10
0.2286868556694486
 20
0.1827606087028739
 10
0.2304283581848476
 20
0.1837237929763291
 10
0.2315436389187002
 20
0.1844818661059833
  0
LWPOLYLINE
  5
958
330
2
100
AcDbEntity
  8
Profilo
  6
Continuous
370
     0
100
AcDbPolyline
 90
        8
 70
   128
 43
0.0
 10
0.2182688537775321
 20
0.1694133771985244
 10
0.2213382575572209
 20
0.1719667253227634
 10
0.2237772061853931
 20
0.1734818127326427
 10
0.226081465365972
 20
0.1758307556027607
 10
0.2288056719373086
 20
0.1788024426524899
 10
0.2312474447661124
 20
0.180872962686951
 10
0.2334057216024454
 20
0.1818340292615481
 10
0.2350058279186349
 20
0.1823119148064967
  0
LWPOLYLINE
  5
959
330
2
100
AcDbEntity
  8
Profilo
  6
Continuous
370
     0
100
AcDbPolyline
 90
        7
 70
   128
 43
0.0
 10
0.212681161123778
 20
0.1634012797746153
 10
0.2146345766508231
 20
0.1650576963111203
 10
0.2175629389687381
 20
0.1671951749309226
 10
0.2199320743848137
 20
0.1686411860466634
 10
0.2230649432745808
 20
0.1700138854804871
 10
0.2250123634872512
 20
0.1704900075040019
 10
0.2259851896841176
 20
0.1705544954406748
  0
LWPOLYLINE
  5
95A
330
2
100
AcDbEntity
  8
Profilo
  6
Continuous
370
     0
100
AcDbPolyline
 90
       13
 70
   128
 43
0.0
 10
0.2207606841002903
 20
0.1676649438479232
 10
0.2241706989307175
 20
0.1688973730045502
 10
0.226948139971707
 20
0.1686749672902543
 10
0.2297262885314868
 20
0.1685914200340383
 10
0.2320851913510562
 20
0.1680239870861077
 10
0.2363911635517339
 20
0.16786324568019
 10
0.2393815798605956
 20
0.1685423599110938
 10
0.2416139052350752
 20
0.1704056523404489
 10
0.2424587448175142
 20
0.1726231487084306
 10
0.2426075474502303
 20
0.174566457648412
 10
0.2418455759272324
 20
0.1749869155103143
 10
0.2403173995049801
 20
0.1749946804260065
 10
0.2392754617465644
 20
0.1749999746830917
  0
LWPOLYLINE
  5
95B
330
2
100
AcDbEntity
  8
Profilo
  6
Continuous
370
     0
100
AcDbPolyline
 90
        6
 70
   128
 43
0.0
 10
0.2441817790118994
 20
0.1483875692409895
 10
0.2428239858651728
 20
0.1516276644675929
 10
0.2412907722896482
 20
0.1541350622774162
 10
0.2393658937638594
 20
0.1566954869932408
 10
0.2379513353410318
 20
0.1586604793029984
 10
0.2361209941223288
 20
0.1605682568956874
  0
LWPOLYLINE
  5
95C
102
{ACAD_REACTORS
330
98F
102
}
330
2
100
AcDbEntity
  8
Profilo
  6
Continuous
370
     0
100
AcDbPolyline
 90
       14
 70
   128
 43
0.0
 10
0.2067219468546868
 20
0.2097965904762074
 10
0.2074195392783522
 20
0.2122086544863588
 10
0.2080876805686624
 20
0.2138225529266657
 10
0.2088671790667094
 20
0.215826012291314
 10
0.2098693900241215
 20
0.2170503485697099
 10
0.2105932099182997
 20
0.2175512127920878
 10
0.2112613492525035
 20
0.2175512127920878
 10
0.2118738119389458
 20
0.2167720897058354
 10
0.212597631833124
 20
0.2153807990991701
 10
0.2132657731234342
 20
0.2138782039568987
 10
0.2135441661427746
 20
0.2128764742745752
 10
0.2137668786021407
 20
0.2113738803698739
 10
0.2143236626847151
 20
0.2105947572836215
 10
0.2150474825788933
 20
0.2099825885256386
  0
LWPOLYLINE
  5
95D
330
2
100
AcDbEntity
  8
Profilo
  6
Continuous
370
     0
100
AcDbPolyline
 90
       11
 70
   128
 43
0.0
 10
0.2069633772932684
 20
0.1868079330209214
 10
0.2073198541556811
 20
0.1900610827525706
 10
0.2083480754558298
 20
0.1921165348916842
 10
0.2093077469740086
 20
0.1930757453949092
 10
0.2099697636961382
 20
0.1936591604605677
 10
0.2107959622710795
 20
0.1939275459940926
 10
0.2121690196462722
 20
0.1932071963261999
 10
0.2130665437177306
 20
0.1917718470038405
 10
0.213811585406926
 20
0.1900669265562702
 10
0.2142040291920944
 20
0.1881056485142172
 10
0.2144725438756578
 20
0.1861443717097342
  0
LWPOLYLINE
  5
95E
330
2
100
AcDbEntity
  8
Profilo
  6
Continuous
370
     0
100
AcDbPolyline
 90
        2
 70
   128
 43
0.0
 10
0.2106101595776069
 20
0.179372728659013
 10
0.2104730639258816
 20
0.1905406880041829
  0
LWPOLYLINE
  5
95F
330
2
100
AcDbEntity
  8
Profilo
  6
Continuous
370
     0
100
AcDbPolyline
 90
        2
 70
   128
 43
0.0
 10
0.2108162021008375
 20
0.1601057115743196
 10
0.2106105566671441
 20
0.1751105154075296
  0
LWPOLYLINE
  5
960
330
2
100
AcDbEntity
  8
Profilo
  6
Continuous
370
     0
100
AcDbPolyline
 90
       13
 70
   128
 43
0.0
 10
0.2090976944332847
 20
0.1692744687943008
 10
0.2088557886609219
 20
0.1722363726065854
 10
0.2089162655930392
 20
0.1748355942688935
 10
0.2090372175011674
 20
0.1770721325436555
 10
0.2096419789979167
 20
0.1780392857686394
 10
0.2107305481271806
 20
0.1787646488310228
 10
0.2116376884161972
 20
0.1783415200685731
 10
0.2121214980048183
 20
0.1773139214686865
 10
0.2126657825694493
 20
0.1758631928687806
 10
0.2129076863857067
 20
0.1736871012064913
 10
0.2129076863857067
 20
0.1716923493816207
 10
0.2127262595015666
 20
0.1699998330942538
 10
0.2127867344775784
 20
0.1686699989568634
  0
DIMENSION
  5
976
102
{ACAD_XDICTIONARY
360
984
102
}
102
{ACAD_REACTORS
330
98F
102
}
330
2
100
AcDbEntity
  8
Text
  6
ACAD_ISO10W100
100
AcDbDimension
  2
*D7
 10
0.2880008450885327
 20
0.2175512127920878
 30
0.0
 11
0.2880008450885327
 21
0.173240203271374
 31
0.0
 70
    32
  1
360 mm
 71
     5
 42
0.0886220190414276
  3
Bovelacci
100
AcDbAlignedDimension
 13
0.2566048130000949
 23
0.1289291937506602
 33
0.0
 14
0.2112613492525035
 24
0.2175512127920878
 34
0.0
 50
90.0
100
AcDbRotatedDimension
  0
DIMENSION
  5
990
102
{ACAD_XDICTIONARY
360
99E
102
}
102
{ACAD_REACTORS
330
9A9
102
}
330
2
100
AcDbEntity
  8
Text
  6
ACAD_ISO10W100
100
AcDbDimension
  2
*D8
 10
0.264528819280136
 20
0.1099883255974419
 30
0.0
 11
0.2107672494164983
 21
0.1099883255974419
 31
0.0
 70
    32
  1
430 mm
 71
     5
 42
0.1075231397272752
  3
Bovelacci
100
AcDbAlignedDimension
 13
0.1570056795528607
 23
0.1490548609662276
 33
0.0
 14
0.264528819280136
 24
0.1490548609662277
 34
0.0
100
AcDbRotatedDimension
  0
DIMENSION
  5
9BC
330
2
100
AcDbEntity
  8
Text
  6
ACAD_ISO10W100
100
AcDbDimension
  2
*D10
 10
0.2014436145576206
 20
0.0199490661817541
 30
0.0
 11
0.2046727751620634
 21
0.1277260031620244
 31
0.0
 70
   163
  1
d 520 mm
 71
     5
 42
0.1281024730203326
  3
Bovelacci
100
AcDbDiametricDimension
 15
0.2221552667228203
 25
0.1463661182693298
 35
0.0
 40
0.0
1001
ACAD
1000
DSTYLE
1002
{
1070
    77
1070
     3
1070
   279
1070
     0
1070
   288
1070
     1
1002
}
  0
ENDSEC
  0
SECTION
  2
OBJECTS
  0
DICTIONARY
  5
9
330
0
100
AcDbDictionary
281
     1
  3
ACAD_2007HEADERVARS_RT
350
208
  3
ACAD_COLOR
350
184
  3
ACAD_GROUP
350
17F
  3
ACAD_LAYOUT
350
164
  3
ACAD_MATERIAL
350
B
  3
ACAD_MLINESTYLE
350
180
  3
ACAD_PLOTSETTINGS
350
181
  3
ACAD_PLOTSTYLENAME
350
8
  3
ACAD_TABLESTYLE
350
185
  3
ACAD_VISUALSTYLE
350
17A
  3
AcDbVariableDictionary
350
18B
  0
DICTIONARY
  5
16E
330
16D
100
AcDbDictionary
280
     1
281
     1
  3
ACAD_LAYERSTATES
360
16F
  0
DICTIONARY
  5
3
330
2
100
AcDbDictionary
280
     1
281
     1
  3
ACAD_SORTENTS
360
18A
  0
DICTIONARY
  5
984
330
976
100
AcDbDictionary
280
     1
281
     1
  3
ACAD_DIMASSOC
360
98F
  0
DICTIONARY
  5
99E
330
990
100
AcDbDictionary
280
     1
281
     1
  3
ACAD_DIMASSOC
360
9A9
  0
DICTIONARY
  5
208
102
{ACAD_REACTORS
330
9
102
}
330
9
100
AcDbDictionary
281
     1
  3
DIMFXL
350
209
  0
DICTIONARY
  5
184
102
{ACAD_REACTORS
330
9
102
}
330
9
100
AcDbDictionary
281
     1
  0
DICTIONARY
  5
17F
102
{ACAD_REACTORS
330
9
102
}
330
9
100
AcDbDictionary
281
     1
  0
DICTIONARY
  5
164
102
{ACAD_REACTORS
330
9
102
}
330
9
100
AcDbDictionary
281
     1
  3
Layout1
350
168
  3
Layout2
350
16C
  3
Model
350
163
  0
DICTIONARY
  5
B
102
{ACAD_REACTORS
330
9
102
}
330
9
100
AcDbDictionary
281
     1
  3
ByBlock
350
183
  3
ByLayer
350
182
  3
Global
350
A
  0
DICTIONARY
  5
180
102
{ACAD_REACTORS
330
9
102
}
330
9
100
AcDbDictionary
281
     1
  3
Standard
350
186
  0
DICTIONARY
  5
181
102
{ACAD_REACTORS
330
9
102
}
330
9
100
AcDbDictionary
281
     1
  0
ACDBDICTIONARYWDFLT
  5
8
102
{ACAD_REACTORS
330
9
102
}
330
9
100
AcDbDictionary
281
     1
  3
Normal
350
7
100
AcDbDictionaryWithDefault
340
7
  0
DICTIONARY
  5
185
102
{ACAD_REACTORS
330
9
102
}
330
9
100
AcDbDictionary
281
     1
  3
Standard
350
187
  0
DICTIONARY
  5
17A
102
{ACAD_REACTORS
330
9
102
}
330
9
100
AcDbDictionary
281
     1
  3
2dWireframe
350
179
  3
3D Hidden
350
1BD
  3
3dWireframe
350
189
  3
Basic
350
1BC
  3
Brighten
350
1C0
  3
ColorChange
350
1C4
  3
Conceptual
350
1BE
  3
Dim
350
1BF
  3
Facepattern
350
1C3
  3
Flat
350
1B8
  3
FlatWithEdges
350
1B9
  3
Gouraud
350
1BA
  3
GouraudWithEdges
350
1BB
  3
Linepattern
350
1C2
  3
Realistic
350
188
  3
Thicken
350
1C1
  0
DICTIONARY
  5
18B
102
{ACAD_REACTORS
330
9
102
}
330
9
100
AcDbDictionary
281
     1
  3
CTABLESTYLE
350
18C
  3
DIMASSOC
350
190
  3
HIDETEXT
350
18F
  3
INDEXCTL
350
18E
  3
PROJECTNAME
350
31D
  3
SORTENTS
350
18D
  0
DICTIONARY
  5
16F
102
{ACAD_REACTORS
330
16E
102
}
330
16E
100
AcDbDictionary
281
     1
  0
SORTENTSTABLE
  5
18A
102
{ACAD_REACTORS
330
3
102
}
330
3
100
AcDbSortentsTable
330
2
331
10
  5
16
331
1F
  5
23
331
15
  5
13
331
24
  5
1D
331
13
  5
11
331
22
  5
25
331
18
  5
1E
331
23F
  5
3BB
331
1D
  5
21
331
25
  5
2AC
331
11
  5
17
331
16
  5
14
331
14
  5
12
331
23
  5
23F
331
1E
  5
22
331
21
  5
24
331
D
  5
15
331
17
  5
1C
331
1C
  5
1F
331
12
  5
18
  0
DIMASSOC
  5
98F
102
{ACAD_REACTORS
330
984
102
}
330
984
100
AcDbDimAssoc
330
976
 90
        3
 70
     0
 71
     0
  1
AcDbOsnapPointRef
 72
    13
331
941
 73
     2
 91
        1
 40
0.0
 10
0.0
 20
0.0
 30
2.000000000000000E+50
 75
     0
  1
AcDbOsnapPointRef
 72
     1
331
95C
 73
     2
 91
        6
 40
1.0
 10
0.0
 20
0.0
 30
2.000000000000000E+50
 75
     0
  0
DIMASSOC
  5
9A9
102
{ACAD_REACTORS
330
99E
102
}
330
99E
100
AcDbDimAssoc
330
990
 90
        1
 70
     0
 71
     0
  1
AcDbOsnapPointRef
 72
     1
331
944
 73
     2
 91
       27
 40
0.9999999999999998
 10
0.0
 20
0.0
 30
2.000000000000000E+50
 75
     0
  0
XRECORD
  5
209
102
{ACAD_REACTORS
330
208
102
}
330
208
100
AcDbXrecord
280
     1
 40
0.18
  0
LAYOUT
  5
168
102
{ACAD_REACTORS
330
164
102
}
330
164
100
AcDbPlotSettings
  1

  2
C:\Documents and Settings\All Users\Dati applicazioni\Autodesk\ADT 2006\enu\Plotters\Default Windows System Printer.pc3
  4

  6

 40
0.0
 41
0.0
 42
0.0
 43
0.0
 44
0.0
 45
0.0
 46
0.0
 47
0.0
 48
0.0
 49
0.0
140
0.0
141
0.0
142
1.0
143
1.0
 70
   688
 72
     0
 73
     0
 74
     5
  7

 75
    16
147
1.0
 76
     0
 77
     2
 78
   300
148
0.0
149
0.0
100
AcDbLayout
  1
Layout1
 70
     1
 71
     1
 10
0.0
 20
0.0
 11
420.0
 21
297.0
 12
0.0
 22
0.0
 32
0.0
 14
1.000000000000000E+20
 24
1.000000000000000E+20
 34
1.000000000000000E+20
 15
-1.000000000000000E+20
 25
-1.000000000000000E+20
 35
-1.000000000000000E+20
146
0.0
 13
0.0
 23
0.0
 33
0.0
 16
1.0
 26
0.0
 36
0.0
 17
0.0
 27
1.0
 37
0.0
 76
     0
330
165
  0
LAYOUT
  5
16C
102
{ACAD_REACTORS
330
164
102
}
330
164
100
AcDbPlotSettings
  1

  2
C:\Documents and Settings\All Users\Dati applicazioni\Autodesk\ADT 2006\enu\Plotters\Default Windows System Printer.pc3
  4

  6

 40
0.0
 41
0.0
 42
0.0
 43
0.0
 44
0.0
 45
0.0
 46
0.0
 47
0.0
 48
0.0
 49
0.0
140
0.0
141
0.0
142
1.0
143
1.0
 70
   688
 72
     0
 73
     0
 74
     5
  7

 75
    16
147
1.0
 76
     0
 77
     2
 78
   300
148
0.0
149
0.0
100
AcDbLayout
  1
Layout2
 70
     1
 71
     2
 10
0.0
 20
0.0
 11
12.0
 21
9.0
 12
0.0
 22
0.0
 32
0.0
 14
0.0
 24
0.0
 34
0.0
 15
0.0
 25
0.0
 35
0.0
146
0.0
 13
0.0
 23
0.0
 33
0.0
 16
1.0
 26
0.0
 36
0.0
 17
0.0
 27
1.0
 37
0.0
 76
     0
330
169
  0
LAYOUT
  5
163
102
{ACAD_REACTORS
330
164
102
}
330
164
100
AcDbPlotSettings
  1

  2
C:\Documents and Settings\All Users\Dati applicazioni\Autodesk\ADT 2006\enu\Plotters\Default Windows System Printer.pc3
  4

  6

 40
0.0
 41
0.0
 42
0.0
 43
0.0
 44
0.0
 45
0.0
 46
0.0
 47
0.0
 48
0.0
 49
0.0
140
0.0
141
0.0
142
1.0
143
1.0
 70
  1712
 72
     0
 73
     0
 74
     0
  7

 75
     0
147
1.0
 76
     0
 77
     2
 78
   300
148
0.0
149
0.0
100
AcDbLayout
  1
Model
 70
     1
 71
     0
 10
0.0
 20
0.0
 11
12.0
 21
9.0
 12
0.0
 22
0.0
 32
0.0
 14
0.0
 24
0.0
 34
0.0
 15
0.0
 25
0.0
 35
0.0
146
0.0
 13
0.0
 23
0.0
 33
0.0
 16
1.0
 26
0.0
 36
0.0
 17
0.0
 27
1.0
 37
0.0
 76
     0
330
2
  0
MATERIAL
  5
183
102
{ACAD_XDICTIONARY
360
1B0
102
}
102
{ACAD_REACTORS
330
B
102
}
330
B
100
AcDbMaterial
  1
ByBlock
  0
MATERIAL
  5
182
102
{ACAD_XDICTIONARY
360
1AE
102
}
102
{ACAD_REACTORS
330
B
102
}
330
B
100
AcDbMaterial
  1
ByLayer
  0
MATERIAL
  5
A
102
{ACAD_XDICTIONARY
360
193
102
}
102
{ACAD_REACTORS
330
B
102
}
330
B
100
AcDbMaterial
  1
Global
  0
MLINESTYLE
  5
186
102
{ACAD_REACTORS
330
180
102
}
330
180
100
AcDbMlineStyle
  2
STANDARD
 70
     0
  3

 62
   256
 51
90.0
 52
90.0
 71
     2
 49
0.5
 62
   256
  6
BYLAYER
 49
-0.5
 62
   256
  6
BYLAYER
  0
ACDBPLACEHOLDER
  5
7
102
{ACAD_REACTORS
330
8
102
}
330
8
  0
TABLESTYLE
  5
187
102
{ACAD_XDICTIONARY
360
21A
102
}
102
{ACAD_REACTORS
330
185
102
}
330
185
100
AcDbTableStyle
  3
Standard
 70
     0
 71
     0
 40
1.5
 41
1.5
280
     0
281
     0
  7
Standard
140
4.5
170
     2
 62
     0
 63
     7
283
     0
274
    -2
284
     1
 64
     0
275
    -2
285
     1
 65
     0
276
    -2
286
     1
 66
     0
277
    -2
287
     1
 67
     0
278
    -2
288
     1
 68
     0
279
    -2
289
     1
 69
     0
  7
Standard
140
6.0
170
     5
 62
     0
 63
     7
283
     0
274
    -2
284
     1
 64
     0
275
    -2
285
     1
 65
     0
276
    -2
286
     1
 66
     0
277
    -2
287
     1
 67
     0
278
    -2
288
     1
 68
     0
279
    -2
289
     1
 69
     0
  7
Standard
140
4.5
170
     5
 62
     0
 63
     7
283
     0
274
    -2
284
     1
 64
     0
275
    -2
285
     1
 65
     0
276
    -2
286
     1
 66
     0
277
    -2
287
     1
 67
     0
278
    -2
288
     1
 68
     0
279
    -2
289
     1
 69
     0
  0
ACAD_PROXY_OBJECT
  5
179
102
{ACAD_REACTORS
330
17A
102
}
330
17A
100
AcDbProxyObject
 90
      499
 91
      508
 95
  1310743
 70
     1
100
AcDbVisualStyle
  2
2dWireframe
 70
     4
 71
     0
 72
     2
 73
     0
 90
        0
 40
-0.6
 41
-30.0
 62
     5
 63
     7
 74
     1
 91
        4
 64
     7
 65
   257
 75
     1
175
     1
 42
1.0
 92
        0
 66
   257
 43
1.0
 76
     1
 77
     6
 78
     2
 67
     7
 79
     5
170
     0
171
     0
290
     0
174
     0
 93
        1
 44
0.0
173
     0
291
     0
 45
0.0
1001
ACAD
1000
AcDbSavedByObjectVersion
1070
     0
1000
AcDbSavedByObjectVersion
1070
     0
1000
AcDbSavedByObjectVersion
1070
     0
  0
ACAD_PROXY_OBJECT
  5
1BD
102
{ACAD_REACTORS
330
17A
102
}
330
17A
100
AcDbProxyObject
 90
      499
 91
      508
 95
  1310743
 70
     1
100
AcDbVisualStyle
  2
3D Hidden
 70
     6
 71
     1
 72
     2
 73
     2
 90
        0
 40
-0.6
 41
-30.0
 62
     5
 63
     7
 74
     2
 91
        2
 64
     7
 65
   257
 75
     2
175
     1
 42
40.0
 92
        0
 66
   257
 43
1.0
 76
     1
 77
     6
 78
     2
 67
     7
 79
     3
170
     0
171
     0
290
     0
174
     0
 93
        1
 44
0.0
173
     0
291
     0
 45
0.0
1001
ACAD
1000
AcDbSavedByObjectVersion
1070
     0
1000
AcDbSavedByObjectVersion
1070
     0
  0
ACAD_PROXY_OBJECT
  5
189
102
{ACAD_REACTORS
330
17A
102
}
330
17A
100
AcDbProxyObject
 90
      499
 91
      508
 95
  1310743
 70
     1
100
AcDbVisualStyle
  2
3dWireframe
 70
     5
 71
     0
 72
     2
 73
     0
 90
        0
 40
-0.6
 41
-30.0
 62
     5
 63
     7
 74
     1
 91
        4
 64
     7
 65
   257
 75
     1
175
     1
 42
1.0
 92
        0
 66
   257
 43
1.0
 76
     1
 77
     6
 78
     2
 67
     7
 79
     5
170
     0
171
     0
290
     0
174
     0
 93
        1
 44
0.0
173
     0
291
     0
 45
0.0
1001
ACAD
1000
AcDbSavedByObjectVersion
1070
     0
1000
AcDbSavedByObjectVersion
1070
     0
1000
AcDbSavedByObjectVersion
1070
     0
  0
ACAD_PROXY_OBJECT
  5
1BC
102
{ACAD_REACTORS
330
17A
102
}
330
17A
100
AcDbProxyObject
 90
      499
 91
      508
 95
  1310743
 70
     1
100
AcDbVisualStyle
  2
Basic
 70
     7
 71
     1
 72
     0
 73
     1
 90
        0
 40
-0.6
 41
-30.0
 62
     5
 63
     7
 74
     0
 91
        4
 64
     7
 65
   257
 75
     1
175
     1
 42
1.0
 92
        8
 66
     7
 43
1.0
 76
     1
 77
     6
 78
     2
 67
     7
 79
     5
170
     0
171
     0
290
     0
174
     0
 93
        1
 44
0.0
173
     0
291
     1
 45
0.0
1001
ACAD
1000
AcDbSavedByObjectVersion
1070
     0
1000
AcDbSavedByObjectVersion
1070
     0
  0
ACAD_PROXY_OBJECT
  5
1C0
102
{ACAD_REACTORS
330
17A
102
}
330
17A
100
AcDbProxyObject
 90
      499
 91
      508
 95
  1310743
 70
     1
100
AcDbVisualStyle
  2
Brighten
 70
    12
 71
     2
 72
     2
 73
     0
 90
        0
 40
-0.6
 41
-30.0
 62
     5
 63
     7
 74
     1
 91
        4
 64
     7
 65
   257
 75
     1
175
     1
 42
1.0
 92
        8
 66
     7
 43
1.0
 76
     1
 77
     6
 78
     2
 67
     7
 79
     5
170
     0
171
     0
290
     0
174
     0
 93
        1
 44
50.0
173
     0
291
     1
 45
0.0
1001
ACAD
1000
AcDbSavedByObjectVersion
1070
     0
1000
AcDbSavedByObjectVersion
1070
     0
  0
ACAD_PROXY_OBJECT
  5
1C4
102
{ACAD_REACTORS
330
17A
102
}
330
17A
100
AcDbProxyObject
 90
      499
 91
      508
 95
  1310743
 70
     1
100
AcDbVisualStyle
  2
ColorChange
 70
    16
 71
     2
 72
     2
 73
     3
 90
        0
 40
-0.6
 41
-30.0
 62
     5
 63
     8
 74
     1
 91
        4
 64
     7
 65
   257
 75
     1
175
     1
 42
1.0
 92
        8
 66
     8
 43
1.0
 76
     1
 77
     6
 78
     2
 67
     7
 79
     5
170
     0
171
     0
290
     0
174
     0
 93
        1
 44
0.0
173
     0
291
     1
 45
0.0
1001
ACAD
1000
AcDbSavedByObjectVersion
1070
     0
1000
AcDbSavedByObjectVersion
1070
     0
  0
ACAD_PROXY_OBJECT
  5
1BE
102
{ACAD_REACTORS
330
17A
102
}
330
17A
100
AcDbProxyObject
 90
      499
 91
      508
 95
  1310743
 70
     1
100
AcDbVisualStyle
  2
Conceptual
 70
     9
 71
     3
 72
     2
 73
     0
 90
        0
 40
-0.6
 41
-30.0
 62
     5
 63
     7
 74
     2
 91
        2
 64
     7
 65
   257
 75
     1
175
     1
 42
40.0
 92
        8
 66
     7
 43
1.0
 76
     1
 77
     6
 78
     2
 67
     7
 79
     3
170
     0
171
     0
290
     0
174
     0
 93
        1
 44
0.0
173
     0
291
     0
 45
0.0
1001
ACAD
1000
AcDbSavedByObjectVersion
1070
     0
1000
AcDbSavedByObjectVersion
1070
     0
  0
ACAD_PROXY_OBJECT
  5
1BF
102
{ACAD_REACTORS
330
17A
102
}
330
17A
100
AcDbProxyObject
 90
      499
 91
      508
 95
  1310743
 70
     1
100
AcDbVisualStyle
  2
Dim
 70
    11
 71
     2
 72
     2
 73
     0
 90
        0
 40
-0.6
 41
-30.0
 62
     5
 63
     7
 74
     1
 91
        4
 64
     7
 65
   257
 75
     1
175
     1
 42
1.0
 92
        8
 66
     7
 43
1.0
 76
     1
 77
     6
 78
     2
 67
     7
 79
     5
170
     0
171
     0
290
     0
174
     0
 93
        1
 44
-50.0
173
     0
291
     1
 45
0.0
1001
ACAD
1000
AcDbSavedByObjectVersion
1070
     0
1000
AcDbSavedByObjectVersion
1070
     0
  0
ACAD_PROXY_OBJECT
  5
1C3
102
{ACAD_REACTORS
330
17A
102
}
330
17A
100
AcDbProxyObject
 90
      499
 91
      508
 95
  1310743
 70
     1
100
AcDbVisualStyle
  2
Facepattern
 70
    15
 71
     2
 72
     2
 73
     0
 90
        0
 40
-0.6
 41
-30.0
 62
     5
 63
     7
 74
     1
 91
        4
 64
     7
 65
   257
 75
     1
175
     1
 42
1.0
 92
        8
 66
     7
 43
1.0
 76
     1
 77
     6
 78
     2
 67
     7
 79
     5
170
     0
171
     0
290
     0
174
     0
 93
        1
 44
0.0
173
     0
291
     1
 45
0.0
1001
ACAD
1000
AcDbSavedByObjectVersion
1070
     0
1000
AcDbSavedByObjectVersion
1070
     0
  0
ACAD_PROXY_OBJECT
  5
1B8
102
{ACAD_REACTORS
330
17A
102
}
330
17A
100
AcDbProxyObject
 90
      499
 91
      508
 95
  1310743
 70
     1
100
AcDbVisualStyle
  2
Flat
 70
     0
 71
     2
 72
     1
 73
     1
 90
        2
 40
-0.6
 41
30.0
 62
     5
 63
     7
 74
     0
 91
        4
 64
     7
 65
   257
 75
     1
175
     1
 42
1.0
 92
        8
 66
     7
 43
1.0
 76
     1
 77
     6
 78
     2
 67
     7
 79
     5
170
     0
171
     0
290
     0
174
     0
 93
       13
 44
0.0
173
     0
291
     1
 45
0.0
1001
ACAD
1000
AcDbSavedByObjectVersion
1070
     0
1000
AcDbSavedByObjectVersion
1070
     0
  0
ACAD_PROXY_OBJECT
  5
1B9
102
{ACAD_REACTORS
330
17A
102
}
330
17A
100
AcDbProxyObject
 90
      499
 91
      508
 95
  1310743
 70
     1
100
AcDbVisualStyle
  2
FlatWithEdges
 70
     1
 71
     2
 72
     1
 73
     1
 90
        2
 40
-0.6
 41
30.0
 62
     5
 63
     7
 74
     1
 91
        4
 64
     7
 65
   257
 75
     1
175
     1
 42
1.0
 92
        0
 66
   257
 43
1.0
 76
     1
 77
     6
 78
     2
 67
     7
 79
     5
170
     0
171
     0
290
     0
174
     0
 93
       13
 44
0.0
173
     0
291
     1
 45
0.0
1001
ACAD
1000
AcDbSavedByObjectVersion
1070
     0
1000
AcDbSavedByObjectVersion
1070
     0
  0
ACAD_PROXY_OBJECT
  5
1BA
102
{ACAD_REACTORS
330
17A
102
}
330
17A
100
AcDbProxyObject
 90
      499
 91
      508
 95
  1310743
 70
     1
100
AcDbVisualStyle
  2
Gouraud
 70
     2
 71
     2
 72
     2
 73
     1
 90
        2
 40
-0.6
 41
30.0
 62
     5
 63
     7
 74
     0
 91
        4
 64
     7
 65
   257
 75
     1
175
     1
 42
1.0
 92
        0
 66
     7
 43
1.0
 76
     1
 77
     6
 78
     2
 67
     7
 79
     5
170
     0
171
     0
290
     0
174
     0
 93
       13
 44
0.0
173
     0
291
     1
 45
0.0
1001
ACAD
1000
AcDbSavedByObjectVersion
1070
     0
1000
AcDbSavedByObjectVersion
1070
     0
  0
ACAD_PROXY_OBJECT
  5
1BB
102
{ACAD_REACTORS
330
17A
102
}
330
17A
100
AcDbProxyObject
 90
      499
 91
      508
 95
  1310743
 70
     1
100
AcDbVisualStyle
  2
GouraudWithEdges
 70
     3
 71
     2
 72
     2
 73
     1
 90
        2
 40
-0.6
 41
30.0
 62
     5
 63
     7
 74
     1
 91
        4
 64
     7
 65
   257
 75
     1
175
     1
 42
1.0
 92
        0
 66
   257
 43
1.0
 76
     1
 77
     6
 78
     2
 67
     7
 79
     5
170
     0
171
     0
290
     0
174
     0
 93
       13
 44
0.0
173
     0
291
     1
 45
0.0
1001
ACAD
1000
AcDbSavedByObjectVersion
1070
     0
1000
AcDbSavedByObjectVersion
1070
     0
  0
ACAD_PROXY_OBJECT
  5
1C2
102
{ACAD_REACTORS
330
17A
102
}
330
17A
100
AcDbProxyObject
 90
      499
 91
      508
 95
  1310743
 70
     1
100
AcDbVisualStyle
  2
Linepattern
 70
    14
 71
     2
 72
     2
 73
     0
 90
        0
 40
-0.6
 41
-30.0
 62
     5
 63
     7
 74
     1
 91
        4
 64
     7
 65
   257
 75
     7
175
     7
 42
1.0
 92
        8
 66
     7
 43
1.0
 76
     1
 77
     6
 78
     2
 67
     7
 79
     5
170
     0
171
     0
290
     0
174
     0
 93
        1
 44
0.0
173
     0
291
     1
 45
0.0
1001
ACAD
1000
AcDbSavedByObjectVersion
1070
     0
1000
AcDbSavedByObjectVersion
1070
     0
  0
ACAD_PROXY_OBJECT
  5
188
102
{ACAD_REACTORS
330
17A
102
}
330
17A
100
AcDbProxyObject
 90
      499
 91
      508
 95
  1310743
 70
     1
100
AcDbVisualStyle
  2
Realistic
 70
     8
 71
     2
 72
     2
 73
     0
 90
        0
 40
-0.6
 41
-30.0
 62
     5
 63
     7
 74
     1
 91
        0
 64
     7
 65
   257
 75
     1
175
     1
 42
1.0
 92
        8
 66
     8
 43
1.0
 76
     1
 77
     6
 78
     2
 67
     7
 79
     5
170
     0
171
     0
290
     0
174
     0
 93
       13
 44
0.0
173
     0
291
     0
 45
0.0
1001
ACAD
1000
AcDbSavedByObjectVersion
1070
     0
1000
AcDbSavedByObjectVersion
1070
     0
1000
AcDbSavedByObjectVersion
1070
     0
  0
ACAD_PROXY_OBJECT
  5
1C1
102
{ACAD_REACTORS
330
17A
102
}
330
17A
100
AcDbProxyObject
 90
      499
 91
      508
 95
  1310743
 70
     1
100
AcDbVisualStyle
  2
Thicken
 70
    13
 71
     2
 72
     2
 73
     0
 90
        0
 40
-0.6
 41
-30.0
 62
     5
 63
     7
 74
     1
 91
        4
 64
     7
 65
   257
 75
     1
175
     1
 42
1.0
 92
       12
 66
     7
 43
1.0
 76
     1
 77
     6
 78
     2
 67
     7
 79
     5
170
     0
171
     0
290
     0
174
     0
 93
        1
 44
0.0
173
     0
291
     1
 45
0.0
1001
ACAD
1000
AcDbSavedByObjectVersion
1070
     0
1000
AcDbSavedByObjectVersion
1070
     0
  0
DICTIONARYVAR
  5
18C
102
{ACAD_REACTORS
330
18B
102
}
330
18B
100
DictionaryVariables
280
     0
  1
STANDARD
  0
DICTIONARYVAR
  5
190
102
{ACAD_REACTORS
330
18B
102
}
330
18B
100
DictionaryVariables
280
     0
  1
2
  0
DICTIONARYVAR
  5
18F
102
{ACAD_REACTORS
330
18B
102
}
330
18B
100
DictionaryVariables
280
     0
  1
1
  0
DICTIONARYVAR
  5
18E
102
{ACAD_REACTORS
330
18B
102
}
330
18B
100
DictionaryVariables
280
     0
  1
0
  0
DICTIONARYVAR
  5
31D
102
{ACAD_REACTORS
330
18B
102
}
330
18B
100
DictionaryVariables
280
     0
  1

  0
DICTIONARYVAR
  5
18D
102
{ACAD_REACTORS
330
18B
102
}
330
18B
100
DictionaryVariables
280
     0
  1
127
  0
DICTIONARY
  5
1B0
330
183
100
AcDbDictionary
280
     1
281
     1
  3
ACAD_XREC_ROUNDTRIP
360
1B1
  0
DICTIONARY
  5
1AE
330
182
100
AcDbDictionary
280
     1
281
     1
  3
ACAD_XREC_ROUNDTRIP
360
1AF
  0
DICTIONARY
  5
193
330
A
100
AcDbDictionary
280
     1
281
     1
  3
ACAD_XREC_ROUNDTRIP
360
194
  0
DICTIONARY
  5
21A
330
187
100
AcDbDictionary
280
     1
281
     1
  3
ACAD_XREC_ROUNDTRIP
360
21B
  0
XRECORD
  5
1B1
102
{ACAD_REACTORS
330
1B0
102
}
330
1B0
100
AcDbXrecord
280
     1
102
MATERIAL
148
0.0
149
0.0
149
0.0
 93
        0
 94
       63
282
     0
 72
     1
 77
     1
171
     1
175
     1
179
     1
273
     0
  0
XRECORD
  5
1AF
102
{ACAD_REACTORS
330
1AE
102
}
330
1AE
100
AcDbXrecord
280
     1
102
MATERIAL
148
0.0
149
0.0
149
0.0
 93
        0
 94
       63
282
     0
 72
     1
 77
     1
171
     1
175
     1
179
     1
273
     0
  0
XRECORD
  5
194
102
{ACAD_REACTORS
330
193
102
}
330
193
100
AcDbXrecord
280
     1
102
MATERIAL
148
0.0
149
0.0
149
0.0
 93
        0
 94
       63
282
     0
 72
     1
 77
     1
171
     1
175
     1
179
     1
273
     0
  0
XRECORD
  5
21B
102
{ACAD_REACTORS
330
21A
102
}
330
21A
100
AcDbXrecord
280
     1
102
ACAD_ROUNDTRIP_PRE2007_TABLESTYLE
 90
        4
 91
        0
  1

 92
        4
 93
        0
  2

 94
        4
 95
        0
  3

  0
ENDSEC
  0
EOF
