  0
SECTION
  2
HEADER
  9
$ACADVER
  1
AC1018
  9
$ACADMAINTVER
 70
    76
  9
$DWGCODEPAGE
  3
ANSI_1252
  9
$LASTSAVEDBY
  1
simone
  9
$INSBASE
 10
0.0
 20
0.0
 30
0.0
  9
$EXTMIN
 10
0.0149999999999999
 20
0.015
 30
0.0
  9
$EXTMAX
 10
0.4050000000000001
 20
0.282
 30
0.0
  9
$LIMMIN
 10
0.0
 20
0.0
  9
$LIMMAX
 10
1.0
 20
0.5
  9
$ORTHOMODE
 70
     0
  9
$REGENMODE
 70
     1
  9
$FILLMODE
 70
     1
  9
$QTEXTMODE
 70
     0
  9
$MIRRTEXT
 70
     0
  9
$LTSCALE
 40
1.0
  9
$ATTMODE
 70
     1
  9
$TEXTSIZE
 40
0.008
  9
$TRACEWID
 40
1.0
  9
$TEXTSTYLE
  7
style1
  9
$CLAYER
  8
Text
  9
$CELTYPE
  6
ACAD_ISO10W100
  9
$CECOLOR
 62
   256
  9
$CELTSCALE
 40
1.0
  9
$DISPSILH
 70
     0
  9
$DIMSCALE
 40
0.001
  9
$DIMASZ
 40
1.5
  9
$DIMEXO
 40
0.0625
  9
$DIMDLI
 40
0.38
  9
$DIMRND
 40
0.0
  9
$DIMDLE
 40
0.0
  9
$DIMEXE
 40
0.18
  9
$DIMTP
 40
0.0
  9
$DIMTM
 40
0.0
  9
$DIMTXT
 40
3.0
  9
$DIMCEN
 40
0.0
  9
$DIMTSZ
 40
0.0
  9
$DIMTOL
 70
     0
  9
$DIMLIM
 70
     0
  9
$DIMTIH
 70
     1
  9
$DIMTOH
 70
     1
  9
$DIMSE1
 70
     0
  9
$DIMSE2
 70
     0
  9
$DIMTAD
 70
     0
  9
$DIMZIN
 70
     0
  9
$DIMBLK
  1
ArchTick
  9
$DIMASO
 70
     1
  9
$DIMSHO
 70
     1
  9
$DIMPOST
  1

  9
$DIMAPOST
  1

  9
$DIMALT
 70
     0
  9
$DIMALTD
 70
     2
  9
$DIMALTF
 40
25.4
  9
$DIMLFAC
 40
1.0
  9
$DIMTOFL
 70
     0
  9
$DIMTVP
 40
0.0
  9
$DIMTIX
 70
     0
  9
$DIMSOXD
 70
     0
  9
$DIMSAH
 70
     0
  9
$DIMBLK1
  1

  9
$DIMBLK2
  1

  9
$DIMSTYLE
  2
Bovelacci
  9
$DIMCLRD
 70
     5
  9
$DIMCLRE
 70
     5
  9
$DIMCLRT
 70
     4
  9
$DIMTFAC
 40
1.0
  9
$DIMGAP
 40
2.0
  9
$DIMJUST
 70
     0
  9
$DIMSD1
 70
     0
  9
$DIMSD2
 70
     0
  9
$DIMTOLJ
 70
     1
  9
$DIMTZIN
 70
     0
  9
$DIMALTZ
 70
     0
  9
$DIMALTTZ
 70
     0
  9
$DIMUPT
 70
     0
  9
$DIMDEC
 70
     2
  9
$DIMTDEC
 70
     2
  9
$DIMALTU
 70
     2
  9
$DIMALTTD
 70
     2
  9
$DIMTXSTY
  7
ROMANS
  9
$DIMAUNIT
 70
     0
  9
$DIMADEC
 70
     0
  9
$DIMALTRND
 40
0.0
  9
$DIMAZIN
 70
     0
  9
$DIMDSEP
 70
    46
  9
$DIMATFIT
 70
     3
  9
$DIMFRAC
 70
     0
  9
$DIMLDRBLK
  1

  9
$DIMLUNIT
 70
     2
  9
$DIMLWD
 70
    -2
  9
$DIMLWE
 70
    -2
  9
$DIMTMOVE
 70
     2
  9
$LUNITS
 70
     2
  9
$LUPREC
 70
     2
  9
$SKETCHINC
 40
1.0
  9
$FILLETRAD
 40
0.0
  9
$AUNITS
 70
     0
  9
$AUPREC
 70
     0
  9
$MENU
  1
.
  9
$ELEVATION
 40
0.0
  9
$PELEVATION
 40
0.0
  9
$THICKNESS
 40
0.0
  9
$LIMCHECK
 70
     0
  9
$CHAMFERA
 40
0.0
  9
$CHAMFERB
 40
0.0
  9
$CHAMFERC
 40
0.0
  9
$CHAMFERD
 40
0.0
  9
$SKPOLY
 70
     0
  9
$TDCREATE
 40
2454297.625402373
  9
$TDUCREATE
 40
2454297.542069039
  9
$TDUPDATE
 40
2454372.442997315
  9
$TDUUPDATE
 40
2454372.359663981
  9
$TDINDWG
 40
0.1422117477
  9
$TDUSRTIMER
 40
0.1422097454
  9
$USRTIMER
 70
     1
  9
$ANGBASE
 50
0.0
  9
$ANGDIR
 70
     0
  9
$PDMODE
 70
     0
  9
$PDSIZE
 40
0.0
  9
$PLINEWID
 40
0.0
  9
$SPLFRAME
 70
     0
  9
$SPLINETYPE
 70
     6
  9
$SPLINESEGS
 70
     8
  9
$HANDSEED
  5
B33
  9
$SURFTAB1
 70
     6
  9
$SURFTAB2
 70
     6
  9
$SURFTYPE
 70
     6
  9
$SURFU
 70
     6
  9
$SURFV
 70
     6
  9
$UCSBASE
  2

  9
$UCSNAME
  2

  9
$UCSORG
 10
0.0
 20
0.0
 30
0.0
  9
$UCSXDIR
 10
1.0
 20
0.0
 30
0.0
  9
$UCSYDIR
 10
0.0
 20
1.0
 30
0.0
  9
$UCSORTHOREF
  2

  9
$UCSORTHOVIEW
 70
     0
  9
$UCSORGTOP
 10
0.0
 20
0.0
 30
0.0
  9
$UCSORGBOTTOM
 10
0.0
 20
0.0
 30
0.0
  9
$UCSORGLEFT
 10
0.0
 20
0.0
 30
0.0
  9
$UCSORGRIGHT
 10
0.0
 20
0.0
 30
0.0
  9
$UCSORGFRONT
 10
0.0
 20
0.0
 30
0.0
  9
$UCSORGBACK
 10
0.0
 20
0.0
 30
0.0
  9
$PUCSBASE
  2

  9
$PUCSNAME
  2

  9
$PUCSORG
 10
0.0
 20
0.0
 30
0.0
  9
$PUCSXDIR
 10
1.0
 20
0.0
 30
0.0
  9
$PUCSYDIR
 10
0.0
 20
1.0
 30
0.0
  9
$PUCSORTHOREF
  2

  9
$PUCSORTHOVIEW
 70
     0
  9
$PUCSORGTOP
 10
0.0
 20
0.0
 30
0.0
  9
$PUCSORGBOTTOM
 10
0.0
 20
0.0
 30
0.0
  9
$PUCSORGLEFT
 10
0.0
 20
0.0
 30
0.0
  9
$PUCSORGRIGHT
 10
0.0
 20
0.0
 30
0.0
  9
$PUCSORGFRONT
 10
0.0
 20
0.0
 30
0.0
  9
$PUCSORGBACK
 10
0.0
 20
0.0
 30
0.0
  9
$USERI1
 70
     0
  9
$USERI2
 70
     0
  9
$USERI3
 70
     0
  9
$USERI4
 70
     0
  9
$USERI5
 70
     0
  9
$USERR1
 40
0.0
  9
$USERR2
 40
0.0
  9
$USERR3
 40
0.0
  9
$USERR4
 40
0.0
  9
$USERR5
 40
0.0
  9
$WORLDVIEW
 70
     1
  9
$SHADEDGE
 70
     3
  9
$SHADEDIF
 70
    70
  9
$TILEMODE
 70
     1
  9
$MAXACTVP
 70
    64
  9
$PINSBASE
 10
0.0
 20
0.0
 30
0.0
  9
$PLIMCHECK
 70
     0
  9
$PEXTMIN
 10
1.000000000000000E+20
 20
1.000000000000000E+20
 30
1.000000000000000E+20
  9
$PEXTMAX
 10
-1.000000000000000E+20
 20
-1.000000000000000E+20
 30
-1.000000000000000E+20
  9
$PLIMMIN
 10
0.0
 20
0.0
  9
$PLIMMAX
 10
420.0
 20
297.0
  9
$UNITMODE
 70
     0
  9
$VISRETAIN
 70
     1
  9
$PLINEGEN
 70
     0
  9
$PSLTSCALE
 70
     1
  9
$TREEDEPTH
 70
  3020
  9
$CMLSTYLE
  2
Standard
  9
$CMLJUST
 70
     0
  9
$CMLSCALE
 40
20.0
  9
$PROXYGRAPHICS
 70
     1
  9
$MEASUREMENT
 70
     1
  9
$CELWEIGHT
370
    -1
  9
$ENDCAPS
280
     0
  9
$JOINSTYLE
280
     0
  9
$LWDISPLAY
290
     0
  9
$INSUNITS
 70
     4
  9
$HYPERLINKBASE
  1

  9
$STYLESHEET
  1

  9
$XEDIT
290
     1
  9
$CEPSNTYPE
380
     0
  9
$PSTYLEMODE
290
     1
  9
$FINGERPRINTGUID
  2
{904A8C64-524F-4709-A9C6-320D2C273A6D}
  9
$VERSIONGUID
  2
{A0B2C530-BB6A-4251-B46D-BD8FE885022E}
  9
$EXTNAMES
290
     1
  9
$PSVPSCALE
 40
0.0
  9
$OLESTARTUP
290
     0
  9
$SORTENTS
280
   127
  9
$INDEXCTL
280
     0
  9
$HIDETEXT
280
     1
  9
$XCLIPFRAME
290
     0
  9
$HALOGAP
280
     0
  9
$OBSCOLOR
 70
   257
  9
$OBSLTYPE
280
     0
  9
$INTERSECTIONDISPLAY
280
     0
  9
$INTERSECTIONCOLOR
 70
   257
  9
$DIMASSOC
280
     2
  9
$PROJECTNAME
  1

  0
ENDSEC
  0
SECTION
  2
CLASSES
  0
CLASS
  1
ACDBDICTIONARYWDFLT
  2
AcDbDictionaryWithDefault
  3
ObjectDBX Classes
 90
        0
 91
        1
280
     0
281
     0
  0
CLASS
  1
TABLESTYLE
  2
AcDbTableStyle
  3
ObjectDBX Classes
 90
     2047
 91
        1
280
     0
281
     0
  0
CLASS
  1
SORTENTSTABLE
  2
AcDbSortentsTable
  3
ObjectDBX Classes
 90
        0
 91
        1
280
     0
281
     0
  0
CLASS
  1
DICTIONARYVAR
  2
AcDbDictionaryVar
  3
ObjectDBX Classes
 90
        0
 91
        6
280
     0
281
     0
  0
CLASS
  1
ACDBPLACEHOLDER
  2
AcDbPlaceHolder
  3
ObjectDBX Classes
 90
        0
 91
        1
280
     0
281
     0
  0
CLASS
  1
LAYOUT
  2
AcDbLayout
  3
ObjectDBX Classes
 90
        0
 91
        3
280
     0
281
     0
  0
CLASS
  1
DIMASSOC
  2
AcDbDimAssoc
  3
"AcDbDimAssoc|Product Desc:     AcDim ARX App For Dimension|Company:          Autodesk, Inc.|WEB Address:      www.autodesk.com"
 90
        0
 91
        3
280
     0
281
     0
  0
CLASS
  1
MATERIAL
  2
AcDbMaterial
  3
ObjectDBX Classes
 90
        0
 91
        3
280
     0
281
     0
  0
CLASS
  1
VISUALSTYLE
  2
AcDbVisualStyle
  3
ObjectDBX Classes
 90
     4095
 91
       16
280
     0
281
     0
  0
ENDSEC
  0
SECTION
  2
TABLES
  0
TABLE
  2
VPORT
  5
177
330
0
100
AcDbSymbolTable
 70
     3
  0
VPORT
  5
B32
330
177
100
AcDbSymbolTableRecord
100
AcDbViewportTableRecord
  2
*Active
 70
     0
 10
0.0
 20
0.0
 11
1.0
 21
1.0
 12
0.249132582431527
 22
0.1728304988946121
 13
0.0
 23
0.0
 14
10.0
 24
10.0
 15
10.0
 25
10.0
 16
0.0
 26
0.0
 36
1.0
 17
0.0
 27
0.0
 37
0.0
 40
0.4163852652107494
 41
1.320054945054945
 42
50.0
 43
0.0
 44
0.0
 50
0.0
 51
0.0
 71
     0
 72
  1000
 73
     1
 74
     3
 75
     0
 76
     0
 77
     0
 78
     0
281
     0
 65
     1
110
0.0
120
0.0
130
0.0
111
1.0
121
0.0
131
0.0
112
0.0
122
1.0
132
0.0
 79
     0
146
0.0
  0
ENDTAB
  0
TABLE
  2
LTYPE
  5
172
330
0
100
AcDbSymbolTable
 70
     2
  0
LTYPE
  5
173
330
172
100
AcDbSymbolTableRecord
100
AcDbLinetypeTableRecord
  2
ByBlock
 70
     0
  3

 72
    65
 73
     0
 40
0.0
  0
LTYPE
  5
174
330
172
100
AcDbSymbolTableRecord
100
AcDbLinetypeTableRecord
  2
ByLayer
 70
     0
  3

 72
    65
 73
     0
 40
0.0
  0
LTYPE
  5
C
330
172
100
AcDbSymbolTableRecord
100
AcDbLinetypeTableRecord
  2
Continuous
 70
     0
  3
Solid line
 72
    65
 73
     0
 40
0.0
  0
LTYPE
  5
14E
330
172
100
AcDbSymbolTableRecord
100
AcDbLinetypeTableRecord
  2
ACAD_ISO10W100
 70
     0
  3
ISO dash dot __ . __ . __ . __ . __ . __ . __ .
 72
    65
 73
     4
 40
18.0
 49
12.0
 74
     0
 49
-3.0
 74
     0
 49
0.0
 74
     0
 49
-3.0
 74
     0
  0
ENDTAB
  0
TABLE
  2
LAYER
  5
16D
102
{ACAD_XDICTIONARY
360
16E
102
}
330
0
100
AcDbSymbolTable
 70
     7
  0
LAYER
  5
6
330
16D
100
AcDbSymbolTableRecord
100
AcDbLayerTableRecord
  2
0
 70
     0
 62
     7
  6
Continuous
370
    -3
390
7
  0
LAYER
  5
15F
330
16D
100
AcDbSymbolTableRecord
100
AcDbLayerTableRecord
  2
Defpoints
 70
     0
 62
     7
  6
Continuous
290
     0
370
    -3
390
7
  0
LAYER
  5
28
330
16D
100
AcDbSymbolTableRecord
100
AcDbLayerTableRecord
  2
Profilo
 70
     0
 62
     1
  6
Continuous
370
    -3
390
7
1001
AcAecLayerStandard
1000

1000

  0
LAYER
  5
14D
330
16D
100
AcDbSymbolTableRecord
100
AcDbLayerTableRecord
  2
Sezione
 70
     0
 62
     2
  6
Continuous
370
    -3
390
7
1001
AcAecLayerStandard
1000

1000

  0
LAYER
  5
E
330
16D
100
AcDbSymbolTableRecord
100
AcDbLayerTableRecord
  2
Table
 70
     0
 62
     3
  6
Continuous
370
    -3
390
7
1001
AcAecLayerStandard
1000

1000

  0
LAYER
  5
19
330
16D
100
AcDbSymbolTableRecord
100
AcDbLayerTableRecord
  2
Text
 70
     0
 62
     4
  6
Continuous
370
    -3
390
7
1001
AcAecLayerStandard
1000

1000

  0
LAYER
  5
256
330
16D
100
AcDbSymbolTableRecord
100
AcDbLayerTableRecord
  2
Bovelacci
 70
     0
 62
     9
  6
Continuous
370
    -3
390
7
1001
AcAecLayerStandard
1000

1000

  0
ENDTAB
  0
TABLE
  2
STYLE
  5
170
330
0
100
AcDbSymbolTable
 70
     3
  0
STYLE
  5
1A
330
170
100
AcDbSymbolTableRecord
100
AcDbTextStyleTableRecord
  2
Standard
 70
     0
 40
0.0
 41
1.0
 50
0.0
 71
     0
 42
2.5
  3
txt
  4

  0
STYLE
  5
20
330
170
100
AcDbSymbolTableRecord
100
AcDbTextStyleTableRecord
  2
ROMANS
 70
     0
 40
0.0
 41
1.0
 50
0.0
 71
     0
 42
2.5
  3
romans
  4

  0
STYLE
  5
26
330
170
100
AcDbSymbolTableRecord
100
AcDbTextStyleTableRecord
  2
style1
 70
     0
 40
0.0
 41
1.0
 50
0.0
 71
     0
 42
0.008
  3
TIMES.TTF
  4

1001
ACAD
1000
Times New Roman
1071
       18
  0
ENDTAB
  0
TABLE
  2
VIEW
  5
175
330
0
100
AcDbSymbolTable
 70
     0
  0
ENDTAB
  0
TABLE
  2
UCS
  5
176
330
0
100
AcDbSymbolTable
 70
     0
  0
ENDTAB
  0
TABLE
  2
APPID
  5
17B
330
0
100
AcDbSymbolTable
 70
    10
  0
APPID
  5
1B
330
17B
100
AcDbSymbolTableRecord
100
AcDbRegAppTableRecord
  2
ACAD
 70
     0
  0
APPID
  5
157
330
17B
100
AcDbSymbolTableRecord
100
AcDbRegAppTableRecord
  2
ACAD_DSTYLE_DIMJOGGED_JOGANGLE_SYMBOL
 70
     0
  0
APPID
  5
F
330
17B
100
AcDbSymbolTableRecord
100
AcDbRegAppTableRecord
  2
AcAecLayerStandard
 70
     0
  0
APPID
  5
19C
330
17B
100
AcDbSymbolTableRecord
100
AcDbRegAppTableRecord
  2
ACAD_DSTYLE_DIMFLIPARROW_WHICH_SYMBOL
 70
     0
  0
APPID
  5
1A7
330
17B
100
AcDbSymbolTableRecord
100
AcDbRegAppTableRecord
  2
ACAD_DSTYLE_DIMEXT_LENGTH
 70
     0
  0
APPID
  5
1D2
330
17B
100
AcDbSymbolTableRecord
100
AcDbRegAppTableRecord
  2
ACAD_EXEMPT_FROM_CAD_STANDARDS
 70
     0
  0
APPID
  5
1D3
330
17B
100
AcDbSymbolTableRecord
100
AcDbRegAppTableRecord
  2
ACAD_DSTYLE_DIM_LINETYPE
 70
     0
  0
APPID
  5
1D4
330
17B
100
AcDbSymbolTableRecord
100
AcDbRegAppTableRecord
  2
ACAD_DSTYLE_DIM_EXT1_LINETYPE
 70
     0
  0
APPID
  5
1D5
330
17B
100
AcDbSymbolTableRecord
100
AcDbRegAppTableRecord
  2
ACAD_DSTYLE_DIM_EXT2_LINETYPE
 70
     0
  0
APPID
  5
25C
330
17B
100
AcDbSymbolTableRecord
100
AcDbRegAppTableRecord
  2
ACAD_PSEXT
 70
     0
  0
ENDTAB
  0
TABLE
  2
DIMSTYLE
  5
17C
330
0
100
AcDbSymbolTable
 70
     7
100
AcDbDimStyleTable
 71
     2
340
156
340
17D
  0
DIMSTYLE
105
17D
330
17C
100
AcDbSymbolTableRecord
100
AcDbDimStyleTableRecord
  2
ISO-25
 70
     0
 41
2.5
 42
0.625
 43
3.75
 44
1.25
 73
     0
 74
     0
 77
     1
 78
     8
140
2.5
141
2.5
143
0.03937007874016
147
0.625
171
     3
172
     1
271
     2
272
     2
274
     3
278
    44
283
     0
284
     8
340
1A
  0
DIMSTYLE
105
156
102
{ACAD_REACTORS
330
ACB
330
AE6
330
B00
102
}
330
17C
100
AcDbSymbolTableRecord
100
AcDbDimStyleTableRecord
  2
Bovelacci
 70
     0
 40
0.001
 41
1.5
140
3.0
141
0.0
147
2.0
176
     5
177
     5
178
     4
271
     2
272
     2
279
     2
340
20
342
152
1001
ACAD_DSTYLE_DIMJOGGED_JOGANGLE_SYMBOL
1070
   384
1040
0.7853981633974483
1001
ACAD_DSTYLE_DIMEXT_LENGTH
1070
   378
1040
0.18
  0
DIMSTYLE
105
257
330
17C
100
AcDbSymbolTableRecord
100
AcDbDimStyleTableRecord
  2
Dim 1-100
 70
     0
 40
0.1
 41
1.5
 42
0.0
 43
5.0
 44
1.25
 45
0.005
 46
1.25
 73
     0
 74
     0
 77
     1
 78
     9
140
2.0
141
2.5
147
1.0
172
     1
174
     1
179
     2
279
     2
289
     2
340
20
342
152
  0
DIMSTYLE
105
258
330
17C
100
AcDbSymbolTableRecord
100
AcDbDimStyleTableRecord
  2
Standard
 70
     0
 42
0.0
 73
     0
 74
     0
 77
     1
271
     2
272
     2
340
20
  0
DIMSTYLE
105
259
330
17C
100
AcDbSymbolTableRecord
100
AcDbDimStyleTableRecord
  2
Dim 1-50
 70
     0
 40
0.05
 41
1.5
 42
0.0
 43
5.0
 44
1.25
 45
0.005
 46
1.25
 73
     0
 74
     0
 77
     1
 78
     9
140
2.0
141
2.5
147
1.0
172
     1
174
     1
179
     2
279
     2
289
     2
340
20
342
152
  0
DIMSTYLE
105
25A
330
17C
100
AcDbSymbolTableRecord
100
AcDbDimStyleTableRecord
  2
Dim 1-200
 70
     0
 40
0.2
 41
1.5
 42
0.0
 43
5.0
 44
1.25
 45
0.005
 46
1.25
 73
     0
 74
     0
 77
     1
 78
     9
140
2.0
141
2.5
147
1.0
172
     1
174
     1
179
     2
271
     2
272
     2
279
     2
289
     2
340
20
342
152
  0
DIMSTYLE
105
25B
330
17C
100
AcDbSymbolTableRecord
100
AcDbDimStyleTableRecord
  2
AEC Scale - Italiano
 70
     0
 41
1.0
 42
10.0
 43
10.0
 44
10.0
 73
     0
 74
     0
 75
     1
 76
     1
 77
     1
140
10.0
141
1.0
147
10.0
173
     1
271
     0
272
     0
279
     2
340
1A
343
251
344
24B
  0
ENDTAB
  0
TABLE
  2
BLOCK_RECORD
  5
1
330
0
100
AcDbSymbolTable
 70
    14
  0
BLOCK_RECORD
  5
2
102
{ACAD_XDICTIONARY
360
3
102
}
330
1
100
AcDbSymbolTableRecord
100
AcDbBlockTableRecord
  2
*Model_Space
340
163
  0
BLOCK_RECORD
  5
165
330
1
100
AcDbSymbolTableRecord
100
AcDbBlockTableRecord
  2
*Paper_Space
340
168
  0
BLOCK_RECORD
  5
169
330
1
100
AcDbSymbolTableRecord
100
AcDbBlockTableRecord
  2
*Paper_Space0
340
16C
  0
BLOCK_RECORD
  5
152
330
1
100
AcDbSymbolTableRecord
100
AcDbBlockTableRecord
  2
_ArchTick
340
0
310
2800000020000000200000000100080000000000000400000000000000000000000000000000000000000000000080000080000000808000800000008000800080800000C0C0C000C0DCC000F0CAA6000020400000206000002080000020A0000020C0000020E00000400000004020000040400000406000004080000040A0
310
000040C0000040E00000600000006020000060400000606000006080000060A0000060C0000060E00000800000008020000080400000806000008080000080A0000080C0000080E00000A0000000A0200000A0400000A0600000A0800000A0A00000A0C00000A0E00000C0000000C0200000C0400000C0600000C0800000C0
310
A00000C0C00000C0E00000E0000000E0200000E0400000E0600000E0800000E0A00000E0C00000E0E00040000000400020004000400040006000400080004000A0004000C0004000E00040200000402020004020400040206000402080004020A0004020C0004020E000404000004040200040404000404060004040800040
310
40A0004040C0004040E00040600000406020004060400040606000406080004060A0004060C0004060E00040800000408020004080400040806000408080004080A0004080C0004080E00040A0000040A0200040A0400040A0600040A0800040A0A00040A0C00040A0E00040C0000040C0200040C0400040C0600040C08000
310
40C0A00040C0C00040C0E00040E0000040E0200040E0400040E0600040E0800040E0A00040E0C00040E0E00080000000800020008000400080006000800080008000A0008000C0008000E00080200000802020008020400080206000802080008020A0008020C0008020E00080400000804020008040400080406000804080
310
008040A0008040C0008040E00080600000806020008060400080606000806080008060A0008060C0008060E00080800000808020008080400080806000808080008080A0008080C0008080E00080A0000080A0200080A0400080A0600080A0800080A0A00080A0C00080A0E00080C0000080C0200080C0400080C0600080C0
310
800080C0A00080C0C00080C0E00080E0000080E0200080E0400080E0600080E0800080E0A00080E0C00080E0E000C0000000C0002000C0004000C0006000C0008000C000A000C000C000C000E000C0200000C0202000C0204000C0206000C0208000C020A000C020C000C020E000C0400000C0402000C0404000C0406000C0
310
408000C040A000C040C000C040E000C0600000C0602000C0604000C0606000C0608000C060A000C060C000C060E000C0800000C0802000C0804000C0806000C0808000C080A000C080C000C080E000C0A00000C0A02000C0A04000C0A06000C0A08000C0A0A000C0A0C000C0A0E000C0C00000C0C02000C0C04000C0C06000
310
C0C08000C0C0A000F0FBFF00A4A0A000808080000000FF0000FF000000FFFF00FF000000FF00FF00FFFF0000FFFFFF00000000FF000000000000000000000000000000000000000000000000000000000000FF00FF00000000000000000000000000000000000000000000000000000000FF000000FF000000000000000000
310
0000000000000000000000000000000000FF0000000000FF0000000000000000000000000000000000000000000000000000FF0000000000FF0000000000000000000000000000000000000000000000000000FF0000000000FF0000000000000000000000000000000000000000000000000000FF0000000000FF00000000
310
00000000000000000000000000000000000000000000FF0000000000FF0000000000000000000000000000000000000000000000000000FF0000000000FF0000000000000000000000000000000000000000000000000000FF0000000000FF0000000000000000000000000000000000000000000000000000FF0000000000
310
FF0000000000000000000000000000000000000000000000000000FF0000000000FF0000000000000000000000000000000000000000000000000000FF0000000000FF0000000000000000000000000000000000000000000000000000FF0000000000FF0000000000000000000000000000000000000000000000000000FF
310
0000000000FF0000000000000000000000000000000000000000000000000000FF0000000000FF0000000000000000000000000000000000000000000000000000FF0000000000FF0000000000000000000000000000000000000000000000000000FF0000000000FF00000000000000000000000000000000000000000000
310
00000000FF0000000000FF0000000000000000000000000000000000000000000000000000FF0000000000FF0000000000000000000000000000000000000000000000000000FF0000000000FF0000000000000000000000000000000000000000000000000000FF0000000000FF0000000000000000000000000000000000
310
000000000000000000FF0000000000FF0000000000000000000000000000000000000000000000000000FF0000000000FF0000000000000000000000000000000000000000000000000000FF0000000000FF0000000000000000000000000000000000000000000000000000FF0000000000FF000000000000000000000000
310
0000000000000000000000000000FF0000000000FF0000000000000000000000000000000000000000000000000000FF0000000000FF0000000000000000000000000000000000000000000000000000FF0000000000FF0000000000000000000000000000000000000000000000000000FF000000FF000000000000000000
310
00000000000000000000000000000000000000FF00FF000000000000000000000000000000000000000000000000000000000000FF000000
102
{BLKREFS
331
6DD
331
8E8
331
972
331
989
331
98A
331
9B7
331
9B8
331
A2A
331
A32
331
A33
331
AE3
331
AF9
331
AFA
331
B13
331
B14
102
}
  0
BLOCK_RECORD
  5
24B
330
1
100
AcDbSymbolTableRecord
100
AcDbBlockTableRecord
  2
_Arrivo
340
0
310
2800000020000000200000000100080000000000000400000000000000000000000000000000000000000000000080000080000000808000800000008000800080800000C0C0C000C0DCC000F0CAA6000020400000206000002080000020A0000020C0000020E00000400000004020000040400000406000004080000040A0
310
000040C0000040E00000600000006020000060400000606000006080000060A0000060C0000060E00000800000008020000080400000806000008080000080A0000080C0000080E00000A0000000A0200000A0400000A0600000A0800000A0A00000A0C00000A0E00000C0000000C0200000C0400000C0600000C0800000C0
310
A00000C0C00000C0E00000E0000000E0200000E0400000E0600000E0800000E0A00000E0C00000E0E00040000000400020004000400040006000400080004000A0004000C0004000E00040200000402020004020400040206000402080004020A0004020C0004020E000404000004040200040404000404060004040800040
310
40A0004040C0004040E00040600000406020004060400040606000406080004060A0004060C0004060E00040800000408020004080400040806000408080004080A0004080C0004080E00040A0000040A0200040A0400040A0600040A0800040A0A00040A0C00040A0E00040C0000040C0200040C0400040C0600040C08000
310
40C0A00040C0C00040C0E00040E0000040E0200040E0400040E0600040E0800040E0A00040E0C00040E0E00080000000800020008000400080006000800080008000A0008000C0008000E00080200000802020008020400080206000802080008020A0008020C0008020E00080400000804020008040400080406000804080
310
008040A0008040C0008040E00080600000806020008060400080606000806080008060A0008060C0008060E00080800000808020008080400080806000808080008080A0008080C0008080E00080A0000080A0200080A0400080A0600080A0800080A0A00080A0C00080A0E00080C0000080C0200080C0400080C0600080C0
310
800080C0A00080C0C00080C0E00080E0000080E0200080E0400080E0600080E0800080E0A00080E0C00080E0E000C0000000C0002000C0004000C0006000C0008000C000A000C000C000C000E000C0200000C0202000C0204000C0206000C0208000C020A000C020C000C020E000C0400000C0402000C0404000C0406000C0
310
408000C040A000C040C000C040E000C0600000C0602000C0604000C0606000C0608000C060A000C060C000C060E000C0800000C0802000C0804000C0806000C0808000C080A000C080C000C080E000C0A00000C0A02000C0A04000C0A06000C0A08000C0A0A000C0A0C000C0A0E000C0C00000C0C02000C0C04000C0C06000
310
C0C08000C0C0A000F0FBFF00A4A0A000808080000000FF0000FF000000FFFF00FF000000FF00FF00FFFF0000FFFFFF00000000000000000000000000000000000000000000000000000000000000000000000000000000000000FF0000000000000000000000000000000000000000000000000000000000000000FF000000
310
00000000000000000000000000000000000000000000000000000000FF0000000000000000000000000000000000000000000000000000000000000000FF00000000000000000000000000000000000000000000000000000000000000FF0000000000000000000000000000000000000000000000000000000000000000FF
310
0000000000000000000000000000000000000000000000000000000000000000FF00000000000000000000000000000000000000000000000000000000000000FF0000000000000000000000000000000000000000000000000000000000000000FF0000000000000000000000000000000000000000000000000000000000
310
0000FF0000000000000000000000000000000000000000000000000000000000000000FF00000000000000000000000000000000000000000000000000000000000000FF0000000000000000000000000000000000000000000000000000000000000000FF0000FF0000000000000000000000000000000000000000000000
310
000000000000FFFF000000000000000000000000000000000000000000000000000000000000FFFF00000000000000000000000000000000000000000000000000000000FFFFFFFFFFFF00000000000000000000000000000000000000000000000000000000FFFF0000000000000000000000000000000000000000000000
310
000000000000FF0000FF000000000000000000000000000000000000000000000000000000FF00000000000000000000000000000000000000000000000000000000000000FF000000000000000000000000000000000000000000000000000000000000FF0000000000000000000000000000000000000000000000000000
310
0000000000FF000000000000000000000000000000000000000000000000000000000000FF00000000000000000000000000000000000000000000000000000000000000FF000000000000000000000000000000000000000000000000000000000000FF000000000000000000000000000000000000000000000000000000
310
000000FF00000000000000000000000000000000000000000000000000000000000000FF000000000000000000000000000000000000000000000000000000000000FF00000000000000000000000000000000000000000000000000000000000000FF00000000000000000000000000000000000000000000000000000000
310
0000FF0000000000000000000000000000000000000000000000000000000000000000000000000000000000000000000000000000000000
  0
BLOCK_RECORD
  5
251
330
1
100
AcDbSymbolTableRecord
100
AcDbBlockTableRecord
  2
_Partenza
340
0
310
2800000020000000200000000100080000000000000400000000000000000000000000000000000000000000000080000080000000808000800000008000800080800000C0C0C000C0DCC000F0CAA6000020400000206000002080000020A0000020C0000020E00000400000004020000040400000406000004080000040A0
310
000040C0000040E00000600000006020000060400000606000006080000060A0000060C0000060E00000800000008020000080400000806000008080000080A0000080C0000080E00000A0000000A0200000A0400000A0600000A0800000A0A00000A0C00000A0E00000C0000000C0200000C0400000C0600000C0800000C0
310
A00000C0C00000C0E00000E0000000E0200000E0400000E0600000E0800000E0A00000E0C00000E0E00040000000400020004000400040006000400080004000A0004000C0004000E00040200000402020004020400040206000402080004020A0004020C0004020E000404000004040200040404000404060004040800040
310
40A0004040C0004040E00040600000406020004060400040606000406080004060A0004060C0004060E00040800000408020004080400040806000408080004080A0004080C0004080E00040A0000040A0200040A0400040A0600040A0800040A0A00040A0C00040A0E00040C0000040C0200040C0400040C0600040C08000
310
40C0A00040C0C00040C0E00040E0000040E0200040E0400040E0600040E0800040E0A00040E0C00040E0E00080000000800020008000400080006000800080008000A0008000C0008000E00080200000802020008020400080206000802080008020A0008020C0008020E00080400000804020008040400080406000804080
310
008040A0008040C0008040E00080600000806020008060400080606000806080008060A0008060C0008060E00080800000808020008080400080806000808080008080A0008080C0008080E00080A0000080A0200080A0400080A0600080A0800080A0A00080A0C00080A0E00080C0000080C0200080C0400080C0600080C0
310
800080C0A00080C0C00080C0E00080E0000080E0200080E0400080E0600080E0800080E0A00080E0C00080E0E000C0000000C0002000C0004000C0006000C0008000C000A000C000C000C000E000C0200000C0202000C0204000C0206000C0208000C020A000C020C000C020E000C0400000C0402000C0404000C0406000C0
310
408000C040A000C040C000C040E000C0600000C0602000C0604000C0606000C0608000C060A000C060C000C060E000C0800000C0802000C0804000C0806000C0808000C080A000C080C000C080E000C0A00000C0A02000C0A04000C0A06000C0A08000C0A0A000C0A0C000C0A0E000C0C00000C0C02000C0C04000C0C06000
310
C0C08000C0C0A000F0FBFF00A4A0A000808080000000FF0000FF000000FFFF00FF000000FF00FF00FFFF0000FFFFFF0000000000000000000000000000000000000000000000000000000000000000000000000000000000000000000000000000000000000000000000000000000000000000000000000000000000000000
310
000000000000000000000000000000000000000000000000000000000000000000000000000000000000000000000000000000000000000000000000000000000000000000000000000000000000000000000000000000000000000000000000000000000000000000000000000000000000FFFFFFFFFFFFFFFFFFFFFFFFFF
310
FFFFFFFFFFFFFFFFFFFFFFFFFFFFFFFFFF0000000000000000000000000000000000000000000000000000000000000000000000000000000000000000000000000000000000000000000000000000000000000000000000000000000000000000000000000000000000000000000000000000000000000000000000000000
310
00000000000000000000000000000000000000000000000000000000000000000000000000000000000000000000000000000000000000000000000000000000000000000000000000000000000000000000000000000000000000000000000000000000000000000000000000000000000000000000000000000000000000
310
00000000000000000000000000000000000000000000000000000000000000000000000000000000000000000000000000000000000000000000000000000000000000000000000000000000000000000000000000000000000000000000000000000000000000000000000000000000000000000000000000000000000000
310
00000000000000000000000000000000000000000000000000000000000000000000000000000000000000000000000000000000000000000000000000000000000000000000000000000000000000000000000000000000000000000000000000000000000000000000000000000000000000000000000000000000000000
310
000000000000000000000000000000000000000000000000000000000000000000000000000000000000000000000000000000000000000000000000000000000000000000000000000000000000000000000000000000FFFFFFFFFFFFFFFFFFFFFFFFFFFFFFFFFFFFFFFFFFFFFFFFFFFFFFFFFFFF00000000000000000000
310
00000000000000000000000000000000000000000000000000000000000000000000000000000000000000000000000000000000000000000000000000000000000000000000000000000000000000000000000000000000000000000000000000000000000000000000000000000000000000000000000000000000000000
310
0000000000000000000000000000000000000000000000000000000000000000000000000000000000000000000000000000000000000000
  0
BLOCK_RECORD
  5
ACC
330
1
100
AcDbSymbolTableRecord
100
AcDbBlockTableRecord
  2
*D11
340
0
  0
BLOCK_RECORD
  5
AE7
330
1
100
AcDbSymbolTableRecord
100
AcDbBlockTableRecord
  2
*D12
340
0
  0
BLOCK_RECORD
  5
B01
330
1
100
AcDbSymbolTableRecord
100
AcDbBlockTableRecord
  2
*D13
340
0
  0
ENDTAB
  0
ENDSEC
  0
SECTION
  2
BLOCKS
  0
BLOCK
  5
5
330
2
100
AcDbEntity
  8
0
100
AcDbBlockBegin
  2
*Model_Space
 70
     0
 10
0.0
 20
0.0
 30
0.0
  3
*Model_Space
  1

  0
ENDBLK
  5
162
330
2
100
AcDbEntity
  8
0
100
AcDbBlockEnd
  0
BLOCK
  5
166
330
165
100
AcDbEntity
 67
     1
  8
0
100
AcDbBlockBegin
  2
*Paper_Space
 70
     0
 10
0.0
 20
0.0
 30
0.0
  3
*Paper_Space
  1

  0
ENDBLK
  5
167
330
165
100
AcDbEntity
 67
     1
  8
0
100
AcDbBlockEnd
  0
BLOCK
  5
16A
330
169
100
AcDbEntity
 67
     1
  8
0
100
AcDbBlockBegin
  2
*Paper_Space0
 70
     0
 10
0.0
 20
0.0
 30
0.0
  3
*Paper_Space0
  1

  0
ENDBLK
  5
16B
330
169
100
AcDbEntity
 67
     1
  8
0
100
AcDbBlockEnd
  0
BLOCK
  5
153
330
152
100
AcDbEntity
  8
0
 62
     1
100
AcDbBlockBegin
  2
_ArchTick
 70
     0
 10
0.0
 20
0.0
 30
0.0
  3
_ArchTick
  1

  0
LWPOLYLINE
  5
154
330
152
100
AcDbEntity
  8
0
  6
ByBlock
 62
     0
100
AcDbPolyline
 90
        2
 70
     0
 43
0.15
 10
-0.5
 20
-0.5
 10
0.5
 20
0.5
  0
ENDBLK
  5
155
330
152
100
AcDbEntity
  8
0
 62
     1
100
AcDbBlockEnd
  0
BLOCK
  5
24C
330
24B
100
AcDbEntity
  8
0
100
AcDbBlockBegin
  2
_Arrivo
 70
     0
 10
0.0
 20
0.0
 30
0.0
  3
_Arrivo
  1

  0
LINE
  5
24D
330
24B
100
AcDbEntity
  8
0
  6
ByBlock
 62
     0
370
    -2
100
AcDbLine
 10
0.025
 20
-0.0433012701891858
 30
0.0
 11
-0.15
 21
0.2598076211353328
 31
0.0
  0
LINE
  5
24E
330
24B
100
AcDbEntity
  8
0
  6
ByBlock
 62
     0
370
    -2
100
AcDbLine
 10
0.025
 20
0.0433012701892585
 30
0.0
 11
-0.15
 21
-0.2598076211353328
 31
0.0
  0
LINE
  5
24F
330
24B
100
AcDbEntity
  8
0
  6
ByBlock
 62
     0
370
    -2
100
AcDbLine
 10
-0.05
 20
0.0
 30
0.0
 11
0.05
 21
0.0
 31
0.0
  0
ENDBLK
  5
250
330
24B
100
AcDbEntity
  8
0
100
AcDbBlockEnd
  0
BLOCK
  5
252
330
251
100
AcDbEntity
  8
0
100
AcDbBlockBegin
  2
_Partenza
 70
     0
 10
0.0
 20
0.0
 30
0.0
  3
_Partenza
  1

  0
LINE
  5
253
330
251
100
AcDbEntity
  8
0
  6
ByBlock
 62
     0
370
    -2
100
AcDbLine
 10
-0.05
 20
0.05
 30
0.0
 11
0.1
 21
0.05
 31
0.0
  0
LINE
  5
254
330
251
100
AcDbEntity
  8
0
  6
ByBlock
 62
     0
370
    -2
100
AcDbLine
 10
-0.05
 20
-0.05
 30
0.0
 11
0.1
 21
-0.05
 31
0.0
  0
ENDBLK
  5
255
330
251
100
AcDbEntity
  8
0
100
AcDbBlockEnd
  0
BLOCK
  5
AD2
330
ACC
100
AcDbEntity
  8
0
100
AcDbBlockBegin
  2
*D11
 70
     1
 10
0.0
 20
0.0
 30
0.0
  3
*D11
  1

  0
LINE
  5
AE0
330
ACC
100
AcDbEntity
  8
Text
  6
ACAD_ISO10W100
 62
     5
370
    -2
100
AcDbLine
 10
0.194272132871329
 20
0.1372509813952263
 30
0.0
 11
0.1694573962445891
 21
0.1372509813952263
 31
0.0
  0
LINE
  5
AE1
330
ACC
100
AcDbEntity
  8
Text
  6
ACAD_ISO10W100
 62
     5
370
    -2
100
AcDbLine
 10
0.1694573962445891
 20
0.1372509813952263
 30
0.0
 11
0.1656269021981223
 21
0.1481898886542334
 31
0.0
  0
MTEXT
  5
AE2
330
ACC
100
AcDbEntity
  8
Text
  6
ACAD_ISO10W100
 62
     4
100
AcDbMText
 10
0.2087007042999005
 20
0.1372509813952263
 30
0.0
 40
0.003
 41
0.0
 71
     5
 72
     1
  1
\A1;d 520 mm
  7
ROMANS
 73
     1
 44
1.0
  0
INSERT
  5
AE3
330
ACC
100
AcDbEntity
  8
Text
  6
ACAD_ISO10W100
 62
     5
370
    -2
100
AcDbBlockReference
  2
_ArchTick
 10
0.1656269021981223
 20
0.1481898886542334
 30
0.0
 41
0.0015
 42
0.0015
 43
0.0015
 50
109.2988018819249
  0
POINT
  5
AE4
330
ACC
100
AcDbEntity
  8
Defpoints
  6
ACAD_ISO10W100
 62
     0
100
AcDbPoint
 10
0.1656269021981223
 20
0.1481898886542334
 30
0.0
  0
POINT
  5
AE5
330
ACC
100
AcDbEntity
  8
Defpoints
  6
ACAD_ISO10W100
 62
     0
100
AcDbPoint
 10
0.207725533976511
 20
0.0279670079582953
 30
0.0
  0
ENDBLK
  5
AD3
330
ACC
100
AcDbEntity
  8
0
100
AcDbBlockEnd
  0
BLOCK
  5
AF2
330
AE7
100
AcDbEntity
  8
0
100
AcDbBlockBegin
  2
*D12
 70
     1
 10
0.0
 20
0.0
 30
0.0
  3
*D12
  1

  0
LINE
  5
AF5
330
AE7
100
AcDbEntity
  8
Text
  6
ACAD_ISO10W100
 62
     5
370
    -2
100
AcDbLine
 10
0.1011958300663522
 20
0.1506066938421523
 30
0.0
 11
0.1011958300663522
 21
0.0886270276076576
 31
0.0
  0
LINE
  5
AF6
330
AE7
100
AcDbEntity
  8
Text
  6
ACAD_ISO10W100
 62
     5
370
    -2
100
AcDbLine
 10
0.3164311379463811
 20
0.1486832142827484
 30
0.0
 11
0.3164311379463811
 21
0.0886270276076576
 31
0.0
  0
LINE
  5
AF7
330
AE7
100
AcDbEntity
  8
Text
  6
ACAD_ISO10W100
 62
     5
370
    -2
100
AcDbLine
 10
0.1011958300663522
 20
0.0888070276076576
 30
0.0
 11
0.1972420554349381
 21
0.0888070276076576
 31
0.0
  0
LINE
  5
AF8
330
AE7
100
AcDbEntity
  8
Text
  6
ACAD_ISO10W100
 62
     5
370
    -2
100
AcDbLine
 10
0.3164311379463811
 20
0.0888070276076576
 30
0.0
 11
0.2203849125777952
 21
0.0888070276076576
 31
0.0
  0
INSERT
  5
AF9
330
AE7
100
AcDbEntity
  8
Text
  6
ACAD_ISO10W100
 62
     5
370
    -2
100
AcDbBlockReference
  2
_ArchTick
 10
0.1011958300663522
 20
0.0888070276076576
 30
0.0
 41
0.0015
 42
0.0015
 43
0.0015
 50
180.0
  0
INSERT
  5
AFA
330
AE7
100
AcDbEntity
  8
Text
  6
ACAD_ISO10W100
 62
     5
370
    -2
100
AcDbBlockReference
  2
_ArchTick
 10
0.3164311379463811
 20
0.0888070276076576
 30
0.0
 41
0.0015
 42
0.0015
 43
0.0015
  0
MTEXT
  5
AFB
330
AE7
100
AcDbEntity
  8
Text
  6
ACAD_ISO10W100
 62
     4
100
AcDbMText
 10
0.2088134840063667
 20
0.0888070276076576
 30
0.0
 40
0.003
 41
0.0
 71
     5
 72
     1
  1
\A1;430 mm
  7
ROMANS
 73
     1
 44
1.0
  0
POINT
  5
AFC
330
AE7
100
AcDbEntity
  8
Defpoints
  6
ACAD_ISO10W100
 62
     0
100
AcDbPoint
 10
0.1011958300663522
 20
0.1506691938421523
 30
0.0
  0
POINT
  5
AFD
330
AE7
100
AcDbEntity
  8
Defpoints
  6
ACAD_ISO10W100
 62
     0
100
AcDbPoint
 10
0.3164311379463811
 20
0.1487457142827484
 30
0.0
  0
POINT
  5
AFE
330
AE7
100
AcDbEntity
  8
Defpoints
  6
ACAD_ISO10W100
 62
     0
100
AcDbPoint
 10
0.3164311379463811
 20
0.0888070276076576
 30
0.0
  0
ENDBLK
  5
AF3
330
AE7
100
AcDbEntity
  8
0
100
AcDbBlockEnd
  0
BLOCK
  5
B0C
330
B01
100
AcDbEntity
  8
0
100
AcDbBlockBegin
  2
*D13
 70
     1
 10
0.0
 20
0.0
 30
0.0
  3
*D13
  1

  0
LINE
  5
B0F
330
B01
100
AcDbEntity
  8
Text
  6
ACAD_ISO10W100
 62
     5
370
    -2
100
AcDbLine
 10
0.2984003400108219
 20
0.1174949133039833
 30
0.0
 11
0.3427960326812066
 21
0.1174949133039833
 31
0.0
  0
LINE
  5
B10
330
B01
100
AcDbEntity
  8
Text
  6
ACAD_ISO10W100
 62
     5
370
    -2
100
AcDbLine
 10
0.2096733829759409
 20
0.2347324834175661
 30
0.0
 11
0.3427960326812067
 21
0.2347324834175661
 31
0.0
  0
LINE
  5
B11
330
B01
100
AcDbEntity
  8
Text
  6
ACAD_ISO10W100
 62
     5
370
    -2
100
AcDbLine
 10
0.3426160326812066
 20
0.1174949133039833
 30
0.0
 11
0.3426160326812067
 21
0.1726136983607747
 31
0.0
  0
LINE
  5
B12
330
B01
100
AcDbEntity
  8
Text
  6
ACAD_ISO10W100
 62
     5
370
    -2
100
AcDbLine
 10
0.3426160326812067
 20
0.2347324834175661
 30
0.0
 11
0.3426160326812067
 21
0.1796136983607747
 31
0.0
  0
INSERT
  5
B13
330
B01
100
AcDbEntity
  8
Text
  6
ACAD_ISO10W100
 62
     5
370
    -2
100
AcDbBlockReference
  2
_ArchTick
 10
0.3426160326812066
 20
0.1174949133039833
 30
0.0
 41
0.0015
 42
0.0015
 43
0.0015
 50
270.0
  0
INSERT
  5
B14
330
B01
100
AcDbEntity
  8
Text
  6
ACAD_ISO10W100
 62
     5
370
    -2
100
AcDbBlockReference
  2
_ArchTick
 10
0.3426160326812067
 20
0.2347324834175661
 30
0.0
 41
0.0015
 42
0.0015
 43
0.0015
 50
90.0
  0
MTEXT
  5
B15
330
B01
100
AcDbEntity
  8
Text
  6
ACAD_ISO10W100
 62
     4
100
AcDbMText
 10
0.3426160326812066
 20
0.1761136983607747
 30
0.0
 40
0.003
 41
0.0
 71
     5
 72
     1
  1
\A1;235 mm
  7
ROMANS
 73
     1
 44
1.0
  0
POINT
  5
B16
330
B01
100
AcDbEntity
  8
Defpoints
  6
ACAD_ISO10W100
 62
     0
100
AcDbPoint
 10
0.2983378400108218
 20
0.1174949133039833
 30
0.0
  0
POINT
  5
B17
330
B01
100
AcDbEntity
  8
Defpoints
  6
ACAD_ISO10W100
 62
     0
100
AcDbPoint
 10
0.2096108829759409
 20
0.2347324834175661
 30
0.0
  0
POINT
  5
B18
330
B01
100
AcDbEntity
  8
Defpoints
  6
ACAD_ISO10W100
 62
     0
100
AcDbPoint
 10
0.3426160326812067
 20
0.2347324834175661
 30
0.0
  0
ENDBLK
  5
B0D
330
B01
100
AcDbEntity
  8
0
100
AcDbBlockEnd
  0
ENDSEC
  0
SECTION
  2
ENTITIES
  0
LINE
  5
D
330
2
100
AcDbEntity
  8
Table
100
AcDbLine
 10
0.02
 20
0.02
 30
0.0
 11
0.4
 21
0.02
 31
0.0
  0
LINE
  5
10
330
2
100
AcDbEntity
  8
Table
100
AcDbLine
 10
0.4
 20
0.02
 30
0.0
 11
0.4
 21
0.2769999999999999
 31
0.0
  0
LINE
  5
11
330
2
100
AcDbEntity
  8
Table
100
AcDbLine
 10
0.4
 20
0.2769999999999999
 30
0.0
 11
0.02
 21
0.277
 31
0.0
  0
LINE
  5
12
330
2
100
AcDbEntity
  8
Table
100
AcDbLine
 10
0.02
 20
0.277
 30
0.0
 11
0.02
 21
0.02
 31
0.0
  0
LINE
  5
13
330
2
100
AcDbEntity
  8
Table
 62
     2
100
AcDbLine
 10
0.015
 20
0.015
 30
0.0
 11
0.4050000000000001
 21
0.015
 31
0.0
  0
LINE
  5
14
330
2
100
AcDbEntity
  8
Table
 62
     2
100
AcDbLine
 10
0.4050000000000001
 20
0.015
 30
0.0
 11
0.4050000000000001
 21
0.2819999999999998
 31
0.0
  0
LINE
  5
15
330
2
100
AcDbEntity
  8
Table
 62
     2
100
AcDbLine
 10
0.4050000000000001
 20
0.2819999999999998
 30
0.0
 11
0.0149999999999999
 21
0.282
 31
0.0
  0
LINE
  5
16
330
2
100
AcDbEntity
  8
Table
 62
     2
100
AcDbLine
 10
0.0149999999999999
 20
0.282
 30
0.0
 11
0.015
 21
0.015
 31
0.0
  0
LINE
  5
17
330
2
100
AcDbEntity
  8
Table
100
AcDbLine
 10
0.21
 20
0.2769999999999999
 30
0.0
 11
0.21
 21
0.2532994226089223
 31
0.0
  0
MTEXT
  5
18
330
2
100
AcDbEntity
  8
Text
100
AcDbMText
 10
0.305
 20
0.0471738284815141
 30
0.0
 40
0.005
 41
0.1900000000000001
 71
     2
 72
     5
  3
{\fTimes New Roman|b0|i0|c238|p18;\H1.6x;\C4;Bovelacci\P\pt0.09;\H0.4375x;\T0.95;via del Commercio, 5  47100 Forli - Italy  \fTimes New Roman|b0|i0|c0|p18;\P\fTimes New Roman|b0|i0|c238|p18;tel.+39-0543721386  fax +39-0543721127\fTimes New Roman|b0|i
  1
0|c0|p18; \fTimes New Roman|b0|i0|c238|p18;www.bovelacci.it\fTimes New Roman|b0|i0|c0|p18; \fTimes New Roman|b0|i0|c238|p18;e-mail: bovelacci@bovelacci\fTimes New Roman|b0|i0|c0|p18;.it}
 73
     1
 44
1.0
1001
ACAD
1000
ACAD_MTEXT_DEFINED_HEIGHT_BEGIN
1070
    46
1040
0.0271738284815141
1000
ACAD_MTEXT_DEFINED_HEIGHT_END
  0
MTEXT
  5
1C
330
2
100
AcDbEntity
  8
Text
100
AcDbMText
 10
0.0219676065851835
 20
0.0500313976452307
 30
0.0
 40
0.002
 41
0.1863544980601608
 71
     1
 72
     5
  3
{\fArial|b0|i0|c0|p34;\H1.25x;Le caratteristiche tecniche indicate vengono fornite a titolo indicativo e potranno essere modificate senza preavviso. Non devono quindi essere considerate a scopo di specifica.\P\fArial|b0|i1|c0|p34;The given values are
  3
 indicative and can be changed without notice. They cannot be considered like a state.\PThis lealfet and designs embodied within are protected by copyright law and international treaties. Unauthorized repro- duction of the leaflet or any portion of i
  1
t or reproduction of any of the designs embodied therein may result in severe civil penalties and will be prosecuted to the maximum.\PAll right reserved, Bovelacci Forlì Italy.}
 73
     1
 44
1.0
  0
LINE
  5
1D
330
2
100
AcDbEntity
  8
Table
100
AcDbLine
 10
0.02
 20
0.0528099428524846
 30
0.0
 11
0.4
 21
0.0528099428524846
 31
0.0
  0
MTEXT
  5
1E
330
2
100
AcDbEntity
  8
Text
100
AcDbMText
 10
0.1133313047219695
 20
0.2610796890771976
 30
0.0
 40
0.003
 41
0.1103605678262056
 71
     2
 72
     5
  1
{\fTimes New Roman|b0|i0|c0|p18;Il rosone componibile\fTimes New Roman|b0|i1|c0|p18;  Composing ceiling centre}
 73
     1
 44
1.0
1001
ACAD
1000
ACAD_MTEXT_DEFINED_HEIGHT_BEGIN
1070
    46
1040
0.0141952763113409
1000
ACAD_MTEXT_DEFINED_HEIGHT_END
  0
TEXT
  5
1F
330
2
100
AcDbEntity
  8
Text
100
AcDbText
 10
0.2180556919891047
 20
0.269976982173197
 30
0.0
 40
0.003
  1
Rosone - Ceiling centre : H 235 x 430 mm
  7
ROMANS
100
AcDbText
  0
TEXT
  5
21
330
2
100
AcDbEntity
  8
Text
100
AcDbText
 10
0.2184542410678115
 20
0.2576348370183962
 30
0.0
 40
0.003
  1
File : RF 803/52 DP
  7
ROMANS
100
AcDbText
  0
LINE
  5
22
330
2
100
AcDbEntity
  8
Table
100
AcDbLine
 10
0.4
 20
0.2654452889427402
 30
0.0
 11
0.02
 21
0.2654452889427403
 31
0.0
  0
LINE
  5
23
330
2
100
AcDbEntity
  8
Table
100
AcDbLine
 10
0.4
 20
0.2532994226089223
 30
0.0
 11
0.02
 21
0.2532994226089225
 31
0.0
  0
LINE
  5
24
330
2
100
AcDbEntity
  8
Table
100
AcDbLine
 10
0.21
 20
0.0528099428524846
 30
0.0
 11
0.21
 21
0.02
 31
0.0
  0
TEXT
  5
25
330
2
100
AcDbEntity
  8
Text
100
AcDbText
 10
0.0964227676712103
 20
0.2687784133392506
 30
0.0
 40
0.005
  1
ITALSTYL
  7
style1
 72
     1
 11
0.1140561490699125
 21
0.2687784133392506
 31
0.0
100
AcDbText
  0
TEXT
  5
23F
330
2
100
AcDbEntity
  8
Text
  6
ACAD_ISO10W100
100
AcDbText
 10
0.3266131450325163
 20
0.0669940340166986
 30
0.0
 40
0.005
  1
scala 1 : 2
  7
style1
100
AcDbText
  0
ARC
  5
A91
102
{ACAD_REACTORS
330
ADA
102
}
330
2
100
AcDbEntity
  8
Profilo
  6
Continuous
370
     0
100
AcDbCircle
 10
0.2077255339765109
 20
0.0279670079582952
 30
0.0
 40
0.1273806729470454
100
AcDbArc
 50
44.65509737220243
 51
134.3208668586203
  0
ARC
  5
A92
330
2
100
AcDbEntity
  8
Profilo
  6
Continuous
370
     0
100
AcDbCircle
 10
0.2077255339765109
 20
0.0279670079582952
 30
0.0
 40
0.1311185126163716
100
AcDbArc
 50
99.77462860506989
 51
135.0802251802862
  0
ARC
  5
A93
330
2
100
AcDbEntity
  8
Profilo
  6
Continuous
370
     0
100
AcDbCircle
 10
0.2077255339765109
 20
0.0279670079582952
 30
0.0
 40
0.1358924722547999
100
AcDbArc
 50
103.9223929504575
 51
130.1157518221483
  0
ARC
  5
A94
330
2
100
AcDbEntity
  8
Profilo
  6
Continuous
370
     0
100
AcDbCircle
 10
0.2077255339765109
 20
0.0279670079582952
 30
0.0
 40
0.1396929678488426
100
AcDbArc
 50
109.304125668401
 51
126.8253389772404
  0
LWPOLYLINE
  5
A95
102
{ACAD_REACTORS
330
AFF
102
}
330
2
100
AcDbEntity
  8
Profilo
  6
Continuous
370
     0
100
AcDbPolyline
 90
      113
 70
   128
 43
0.0
 10
0.1187277287963884
 20
0.1191000234552217
 10
0.1160627548156476
 20
0.1198769333992544
 10
0.113049445122158
 20
0.1215979975597432
 10
0.1106818438450698
 20
0.1239644595940703
 10
0.1098208992898684
 20
0.1265460558348042
 10
0.1101867167195305
 20
0.1283049572882482
 10
0.1125597671552061
 20
0.1310417796768295
 10
0.1131645487528399
 20
0.1329784929175295
 10
0.1131645487528399
 20
0.1374065998300611
 10
0.1122784998152646
 20
0.1402718464563359
 10
0.1105303474855948
 20
0.1430593993372153
 10
0.1084472575416893
 20
0.145058203511593
 10
0.1060308763569946
 20
0.1464740210590065
 10
0.1036144914220181
 20
0.1472235729209843
 10
0.1017510104447954
 20
0.1480445308989395
 10
0.1011958300663522
 20
0.1506691938421523
 10
0.1012791538141187
 20
0.1544169507793511
 10
0.1013624775618869
 20
0.1594139600289499
 10
0.1014458013096551
 20
0.1649939535328224
 10
0.1016124488051897
 20
0.1689082757050349
 10
0.1018624200484925
 20
0.1727393164460862
 10
0.1021123875415135
 20
0.1737387197196201
 10
0.1058619486904888
 20
0.1739052849546336
 10
0.1156108046775977
 20
0.1738220011507821
 10
0.129692484297772
 20
0.1739052849546336
 10
0.1570518995069232
 20
0.1734181360361449
 10
0.1657175467730561
 20
0.1731682846245888
 10
0.1654498141979754
 20
0.1754885147875149
 10
0.1653466777146129
 20
0.1773440677822227
 10
0.1653982478314351
 20
0.1798696780215403
 10
0.1655013843147977
 20
0.1826530051409127
 10
0.1652951113480725
 20
0.1844054718581378
 10
0.1644700269817338
 20
0.1852817040304049
 10
0.164109051165104
 20
0.187601144087445
 10
0.1646762961981771
 20
0.189044349599528
 10
0.1654508830281181
 20
0.1899947544447165
 10
0.1654508830281181
 20
0.1909225309420712
 10
0.164935204361587
 20
0.1916441348844575
 10
0.1635428712118916
 20
0.1916441348844575
 10
0.1617895622455698
 20
0.1912317897745219
 10
0.1608613413958668
 20
0.1900462987698037
 10
0.1594690082461714
 20
0.1881907457750955
 10
0.1582313779463824
 20
0.186438281430561
 10
0.1572515869798572
 20
0.184531186483456
 10
0.156117093163429
 20
0.1835518680337054
 10
0.1547763301305576
 20
0.1836034099861013
 10
0.1536418363141294
 20
0.1843250139284884
 10
0.1532292941309592
 20
0.1862836508279901
 10
0.1525589088642416
 20
0.1870052547703769
 10
0.1516822543810807
 20
0.1881392038226988
 10
0.1515791216479982
 20
0.1910771591719511
 10
0.1515791216479982
 20
0.1928296258891762
 10
0.1512181458313702
 20
0.1948398047410742
 10
0.1514759851646357
 20
0.1970046165682349
 10
0.1527651818309668
 20
0.1986024526828882
 10
0.1531261576475966
 20
0.2000456581949708
 10
0.1531261576475966
 20
0.2016950386347118
 10
0.1538996756473949
 20
0.2028289853143432
 10
0.1551888723137278
 20
0.2042721931991167
 10
0.1564265026135185
 20
0.2056123124337157
 10
0.1578188357632122
 20
0.2061277438211344
 10
0.1594174381293509
 20
0.2061277438211344
 10
0.1612223172124949
 20
0.2062308300986184
 10
0.1623052409121009
 20
0.2068493477635216
 10
0.162465674191683
 20
0.2076504581867282
 10
0.1640127101912814
 20
0.2081658895741474
 10
0.1657144527910646
 20
0.2081143476217506
 10
0.1674161916405641
 20
0.2078566307416958
 10
0.1682928461237267
 20
0.2075473719092447
 10
0.1696336129068801
 20
0.2073411993542766
 10
0.1700977214565906
 20
0.2075473719092447
 10
0.1712322152730188
 20
0.2074958299568479
 10
0.1722635726060844
 20
0.2072381130767935
 10
0.1740168815724061
 20
0.206258794627042
 10
0.1765952749050701
 20
0.2065165115070968
 10
0.177471929388231
 20
0.2068257703395484
 10
0.1788126961713843
 20
0.2071350267993095
 10
0.1804113022878049
 20
0.2074958299568479
 10
0.1825771534372986
 20
0.2079597170191798
 10
0.1839179164701701
 20
0.2086813209615661
 10
0.1858774984032188
 20
0.2107430441385523
 10
0.1854649524697684
 20
0.2120831657458417
 10
0.1842788922867982
 20
0.2124955108557764
 10
0.1834022378036373
 20
0.2128563116406248
 10
0.181906768170581
 20
0.2131655704730764
 10
0.1807722743541529
 20
0.2145572340327626
 10
0.180050326471175
 20
0.2155365524825132
 10
0.1795862141711844
 20
0.2167735878123191
 10
0.1797924871379095
 20
0.217701361936983
 10
0.1805660051377078
 20
0.2188868553143917
 10
0.1821646075038465
 20
0.2192991980516368
 10
0.1845367316200654
 20
0.2191961141468433
 10
0.1874761007693575
 20
0.2190930278693592
 10
0.1911889916687297
 20
0.2183198796018857
 10
0.1935611120346667
 20
0.2171343885971675
 10
0.1957269631841605
 20
0.2158973556400521
 10
0.1982537901502823
 20
0.2139387163678594
 10
0.2021159084890005
 20
0.2093157593786943
 10
0.2040796794861546
 20
0.2077164166056704
 10
0.206479848205209
 20
0.2064805605029667
 10
0.2078623556181505
 20
0.2065355333656047
 10
0.2087784930618177
 20
0.2056596476061285
 10
0.2088847085260479
 20
0.2043060111546251
 10
0.208526222896138
 20
0.2031647067622293
 10
0.2085129431503976
 20
0.2018641521391578
 10
0.2083909502531469
 20
0.1995323954465289
 10
0.2072932729472878
 20
0.1964238056983176
 10
0.2054638107708566
 20
0.1934066451999188
 10
0.2041831909976377
 20
0.1902066285745869
 10
0.2030855136917786
 20
0.1858180317017051
 10
0.2040002447799942
 20
0.1817037225782578
 10
0.2059211763149644
 20
0.1769494087061303
 10
0.2087568426884321
 20
0.1745722529564118
  0
LWPOLYLINE
  5
A96
330
2
100
AcDbEntity
  8
Profilo
  6
Continuous
370
     0
100
AcDbPolyline
 90
        9
 70
   128
 43
0.0
 10
0.1997010086653823
 20
0.1790522790791051
 10
0.1981459658154154
 20
0.182252295704437
 10
0.1972312347271998
 20
0.1894751945760946
 10
0.1968653422919146
 20
0.194960940074024
 10
0.1955847187684121
 20
0.2018181219464359
 10
0.193572314124621
 20
0.205566716443327
 10
0.1915599057305464
 20
0.2084010184421037
 10
0.1895474973364735
 20
0.2103210279427645
 10
0.1867118309630058
 20
0.2119667520666812
  0
LWPOLYLINE
  5
A97
330
2
100
AcDbEntity
  8
Profilo
  6
Continuous
370
     0
100
AcDbPolyline
 90
       18
 70
   128
 43
0.0
 10
0.1975077767128255
 20
0.1779365546613345
 10
0.1942147485455319
 20
0.1829651562828967
 10
0.1907387704103129
 20
0.1883594725310149
 10
0.1883604695809531
 20
0.1923823524046502
 10
0.1874457384927375
 20
0.1962223737786628
 10
0.1857992262842316
 20
0.1980509564022026
 10
0.1846100758695517
 20
0.1980509564022026
 10
0.1834209254548717
 20
0.1982338149018257
 10
0.1816829363872632
 20
0.2007023999013557
 10
0.1801278935372963
 20
0.2022566947754614
 10
0.179030216231439
 20
0.2025309825248955
 10
0.1785728506873312
 20
0.2014338315271575
 10
0.1782069582520442
 20
0.2013424046500365
 10
0.1768348616197208
 20
0.2023481240252729
 10
0.176286026717074
 20
0.2035367019001319
 10
0.1761030804994306
 20
0.2042681335259342
 10
0.1756457149553228
 20
0.2053652845236722
 10
0.1747309838671072
 20
0.2060967161494736
  0
LWPOLYLINE
  5
A98
330
2
100
AcDbEntity
  8
Profilo
  6
Continuous
370
     0
100
AcDbPolyline
 90
       24
 70
   128
 43
0.0
 10
0.2079357073682004
 20
0.1700736534136862
 10
0.2028132170244756
 20
0.171993665287038
 10
0.2014411203921522
 20
0.172085092164159
 10
0.1991542926716132
 20
0.172085092164159
 10
0.1971418842775403
 20
0.173182243161897
 10
0.1942147485455319
 20
0.1752851111621818
 10
0.1898240393220973
 20
0.1784851301602037
 10
0.1853418607401238
 20
0.1822337222844048
 10
0.1828720868019431
 20
0.1845194511570023
 10
0.1812255708431554
 20
0.185982316781296
 10
0.1780240120344008
 20
0.185982316781296
 10
0.1761945536082514
 20
0.186073743658417
 10
0.1746395107582863
 20
0.1876280385325226
 10
0.1746395107582863
 20
0.1892737626564398
 10
0.1746395107582863
 20
0.1907366282807334
 10
0.1728100485818551
 20
0.1913766330294142
 10
0.171712371275996
 20
0.1912852037796022
 10
0.1705232208613161
 20
0.1919252061555925
 10
0.1696999628819231
 20
0.1932966425300746
 10
0.1687852317937075
 20
0.1929309279035189
 10
0.1681449200319562
 20
0.1925652109042733
 10
0.1674131351613841
 20
0.1921994939050271
 10
0.1667728271499147
 20
0.1920166354054045
 10
0.1655836767352348
 20
0.1919252061555925
  0
LWPOLYLINE
  5
A99
330
2
100
AcDbEntity
  8
Profilo
  6
Continuous
370
     0
100
AcDbPolyline
 90
        8
 70
   128
 43
0.0
 10
0.1961313635068382
 20
0.1615585897520226
 10
0.191420144000956
 20
0.164178830000429
 10
0.1871809423878403
 20
0.1653894477959166
 10
0.1822928896226745
 20
0.1662974099561874
 10
0.1763234057698231
 20
0.1668594813177471
 10
0.1718562583149108
 20
0.1682821891579271
 10
0.1679078985096485
 20
0.1713516603603953
 10
0.1661530744297188
 20
0.1726671486965077
  0
LWPOLYLINE
  5
A9A
330
2
100
AcDbEntity
  8
Profilo
  6
Continuous
370
     0
100
AcDbPolyline
 90
       20
 70
   128
 43
0.0
 10
0.1997872501319247
 20
0.1655050500149784
 10
0.1961313635068382
 20
0.1691591805911048
 10
0.1908668837664873
 20
0.1748596260931072
 10
0.1861873428859262
 20
0.1790984184155828
 10
0.1790218006004185
 20
0.1834833755814729
 10
0.1766820339104189
 20
0.1850911936044146
 10
0.175788536914375
 20
0.1854965463958988
 10
0.1745491327315758
 20
0.1854611506013093
 10
0.1732389044882581
 20
0.1854257571794111
 10
0.1701935073887952
 20
0.1856027290342843
 10
0.1691665716372679
 20
0.1859920685386198
 10
0.1685291663434505
 20
0.1869123283529568
 10
0.1684229283775327
 20
0.1882219252989383
 10
0.1688478689903601
 20
0.1893899461846358
 10
0.1691665716372679
 20
0.1902040209878963
 10
0.1689895133611134
 20
0.1910534892130547
 10
0.1681396358857423
 20
0.191549013728467
 10
0.1667585873321862
 20
0.1915136179338779
 10
0.165767061735778
 20
0.1913720395009029
 10
0.1654483590888685
 20
0.1910888850076442
  0
LWPOLYLINE
  5
A9B
330
2
100
AcDbEntity
  8
Profilo
  6
Continuous
370
     0
100
AcDbPolyline
 90
        2
 70
   128
 43
0.0
 10
0.2033407240779219
 20
0.1654080449428523
 10
0.1991855887682519
 20
0.1718095018077248
  0
LWPOLYLINE
  5
A9C
330
2
100
AcDbEntity
  8
Profilo
  6
Continuous
370
     0
100
AcDbPolyline
 90
        2
 70
   128
 43
0.0
 10
0.2063711650559465
 20
0.1646273799923614
 10
0.203996798271568
 20
0.1707477964310722
  0
LWPOLYLINE
  5
A9D
330
2
100
AcDbEntity
  8
Profilo
  6
Continuous
370
     0
100
AcDbPolyline
 90
       10
 70
   128
 43
0.0
 10
0.1922697814583305
 20
0.1809589991411355
 10
0.1828313812497662
 20
0.1905904254742729
 10
0.1781368917483288
 20
0.1943936037125851
 10
0.1734514179229052
 20
0.1986344460395206
 10
0.1671314552905105
 20
0.200292638651208
 10
0.1621544833580231
 20
0.1999767932303547
 10
0.1587575011460647
 20
0.1991871784918766
 10
0.1562295153430497
 20
0.1949232522605606
 10
0.1556765213785489
 20
0.1903434829810817
 10
0.1541755275812786
 20
0.1876587909721033
  0
LWPOLYLINE
  5
A9E
330
2
100
AcDbEntity
  8
Profilo
  6
Continuous
370
     0
100
AcDbPolyline
 90
        2
 70
   128
 43
0.0
 10
0.1562295153430497
 20
0.1912910216163319
 10
0.1574935101196981
 20
0.1883694449485405
  0
LWPOLYLINE
  5
A9F
330
2
100
AcDbEntity
  8
Profilo
  6
Continuous
370
     0
100
AcDbPolyline
 90
        2
 70
   128
 43
0.0
 10
0.1579675081609402
 20
0.1993451000159583
 10
0.1545705259489818
 20
0.1995030239127295
  0
LWPOLYLINE
  5
AA0
330
2
100
AcDbEntity
  8
Profilo
  6
Continuous
370
     0
100
AcDbPolyline
 90
        2
 70
   128
 43
0.0
 10
0.1644454701404161
 20
0.2007664079688332
 10
0.1615224859696998
 20
0.2027404483740645
  0
LWPOLYLINE
  5
AA1
330
2
100
AcDbEntity
  8
Profilo
  6
Continuous
370
     0
100
AcDbPolyline
 90
        2
 70
   128
 43
0.0
 10
0.177006395731663
 20
0.1961076779273139
 10
0.1698174366903249
 20
0.206451642153024
  0
LWPOLYLINE
  5
AA2
330
2
100
AcDbEntity
  8
Profilo
  6
Continuous
370
     0
100
AcDbPolyline
 90
        2
 70
   128
 43
0.0
 10
0.1707654327728107
 20
0.1998978324683138
 10
0.1685534456639584
 20
0.2027404483740645
  0
LWPOLYLINE
  5
AA3
330
2
100
AcDbEntity
  8
Profilo
  6
Continuous
370
     0
100
AcDbPolyline
 90
        2
 70
   128
 43
0.0
 10
0.1629444763431476
 20
0.1927912903312476
 10
0.1642084711197942
 20
0.1961866386893538
  0
LWPOLYLINE
  5
AA4
330
2
100
AcDbEntity
  8
Profilo
  6
Continuous
370
     0
100
AcDbPolyline
 90
        2
 70
   128
 43
0.0
 10
0.184590353140706
 20
0.1899486744254975
 10
0.1796133812082186
 20
0.2000557539923955
  0
LWPOLYLINE
  5
AA5
330
2
100
AcDbEntity
  8
Profilo
  6
Continuous
370
     0
100
AcDbPolyline
 90
        2
 70
   128
 43
0.0
 10
0.1909893154466395
 20
0.1830790193199343
 10
0.1864073418818552
 20
0.1937388289664978
  0
LWPOLYLINE
  5
AA6
330
2
100
AcDbEntity
  8
Profilo
  6
Continuous
370
     0
100
AcDbPolyline
 90
        6
 70
   128
 43
0.0
 10
0.2023666035365768
 20
0.1933699254441166
 10
0.2031984871627372
 20
0.2002989310260066
 10
0.2018120194528432
 20
0.2041791742467729
 10
0.1962661486132724
 20
0.2094452181093787
 10
0.1898883978978212
 20
0.2141569421897875
 10
0.1837879392242385
 20
0.2160970626138252
  0
LWPOLYLINE
  5
AA7
330
2
100
AcDbEntity
  8
Profilo
  6
Continuous
370
     0
100
AcDbPolyline
 90
       15
 70
   128
 43
0.0
 10
0.1239966894762308
 20
0.1397865315893032
 10
0.1234600082252815
 20
0.1431583334065927
 10
0.1217148448697305
 20
0.1470830574532846
 10
0.1196424657289405
 20
0.1503536616164247
 10
0.1174610171599237
 20
0.152425044015811
 10
0.1147342026983722
 20
0.154714467167278
 10
0.1130981125213282
 20
0.1553685870508299
 10
0.1128799661643143
 20
0.1578760509543771
 10
0.1128799661643143
 20
0.1610376347414766
 10
0.1129890393428212
 20
0.1620188157531497
 10
0.115640116875479
 20
0.162105366751609
 10
0.1571634328699005
 20
0.1615827342489884
 10
0.1609809716159596
 20
0.1614737138729483
 10
0.1617444801152281
 20
0.1607844354638415
 10
0.1615455041550646
 20
0.1598060390231062
  0
LWPOLYLINE
  5
AA8
330
2
100
AcDbEntity
  8
Profilo
  6
Continuous
370
     0
100
AcDbPolyline
 90
       15
 70
   128
 43
0.0
 10
0.1201654075523937
 20
0.1318900000058405
 10
0.1207551029065179
 20
0.1376723435215581
 10
0.1200010976198182
 20
0.1426128922316714
 10
0.117236409068397
 20
0.1473859645936781
 10
0.1147525180792162
 20
0.1493922480617535
 10
0.1126200843857497
 20
0.1511826313590507
 10
0.1092659866981656
 20
0.1525236222283857
 10
0.1088156836680376
 20
0.1576995903681335
 10
0.1088156836680376
 20
0.1612628444873154
 10
0.109371181833291
 20
0.166259895634338
 10
0.1155275521851724
 20
0.1662311003790742
 10
0.1572373186013962
 20
0.1656465637007112
 10
0.164738573367833
 20
0.1651654278641632
 10
0.169118999320208
 20
0.1630742880722615
 10
0.1750287981973777
 20
0.1598673016839394
  0
LWPOLYLINE
  5
AA9
330
2
100
AcDbEntity
  8
Profilo
  6
Continuous
370
     0
100
AcDbPolyline
 90
       15
 70
   128
 43
0.0
 10
0.1112394206532024
 20
0.1238684724061034
 10
0.1158926120580315
 20
0.1294900496809883
 10
0.1174728943004943
 20
0.1349719300663432
 10
0.1165862453179258
 20
0.1403002617959257
 10
0.1147152262754858
 20
0.1443629411774334
 10
0.1103548939844465
 20
0.1473984152515571
 10
0.1051888294687728
 20
0.1500489607221285
 10
0.1050074733703603
 20
0.1575106732498508
 10
0.105127857396976
 20
0.1632262375347406
 10
0.1054947970278892
 20
0.1708040374549107
 10
0.1154815137331244
 20
0.1707957224033807
 10
0.1646883721036509
 20
0.1695555788492218
 10
0.1832211554757528
 20
0.1617473087968011
 10
0.1855481449576928
 20
0.1600859747430947
 10
0.1854651337270159
 20
0.1571820958213692
  0
LWPOLYLINE
  5
AAA
330
2
100
AcDbEntity
  8
Profilo
  6
Continuous
370
     0
100
AcDbPolyline
 90
        9
 70
   128
 43
0.0
 10
0.2176563255477362
 20
0.1787707089946875
 10
0.2193109425605719
 20
0.1819203926626871
 10
0.2204517029911059
 20
0.1891110579110542
 10
0.2209894249605711
 20
0.1945826331893268
 10
0.222484430596646
 20
0.2013962884483185
 10
0.224613385562316
 20
0.2050799393420153
 10
0.226713675985561
 20
0.2078497471878471
 10
0.228785298117943
 20
0.209705712103406
 10
0.2316711730117067
 20
0.2112617126725582
  0
LWPOLYLINE
  5
AAB
330
2
100
AcDbEntity
  8
Profilo
  6
Continuous
370
     0
100
AcDbPolyline
 90
       18
 70
   128
 43
0.0
 10
0.219813494731806
 20
0.1775867628449741
 10
0.2232625790568825
 20
0.1825096366090961
 10
0.226905990633286
 20
0.1877923086475777
 10
0.2294092622821395
 20
0.1917386371139735
 10
0.2304439501852791
 20
0.1955480882633802
 10
0.2321469892926515
 20
0.1973241441922946
 10
0.2333355549887788
 20
0.197286857536179
 10
0.2345298543430783
 20
0.1974323394661179
 10
0.2363443930585642
 20
0.1998452147527905
 10
0.2379474072966428
 20
0.2013499858893479
 10
0.2390531453495566
 20
0.2015897203166297
 10
0.2394758840528794
 20
0.2004787677787201
 10
0.2398387298200753
 20
0.2003759130399505
 10
0.2412416868226952
 20
0.2013381148269775
 10
0.2418275205608094
 20
0.2025088991565007
 10
0.2420333113800446
 20
0.2032342347205622
 10
0.2425248539814344
 20
0.204316505215306
 10
0.2434620698444387
 20
0.2050188951448337
  0
LWPOLYLINE
  5
AAC
330
2
100
AcDbEntity
  8
Profilo
  6
Continuous
370
     0
100
AcDbPolyline
 90
       24
 70
   128
 43
0.0
 10
0.2091441447514892
 20
0.1700547030482733
 10
0.214324319645856
 20
0.1718131515061851
 10
0.2156986083576147
 20
0.1718615103629397
 10
0.2179843116193965
 20
0.1717898052550248
 10
0.220030132438799
 20
0.1728233162763866
 10
0.2230217657856315
 20
0.1748333678524276
 10
0.2275106549174737
 20
0.1778941395581364
 10
0.2321081693314717
 20
0.1815003465637614
 10
0.2346483995069519
 20
0.1837075100013705
 10
0.2363399750464179
 20
0.1851180286405838
 10
0.2395399596129124
 20
0.1850176414895031
 10
0.2413713852285895
 20
0.1850516594422671
 10
0.242974399466668
 20
0.1865564305788245
 10
0.2430260023158226
 20
0.188201345481791
 10
0.243071871506805
 20
0.189663491798703
 10
0.2449205019198342
 20
0.1902458177635617
 10
0.2460147726564017
 20
0.190120015018735
 10
0.2472234060817353
 20
0.190722416042286
 10
0.2480892616178725
 20
0.1920673642273218
 10
0.2489920756806381
 20
0.1916731473835704
 10
0.2496206052775918
 20
0.1912875327812458
 10
0.2503405630050182
 20
0.1908990499746039
 10
0.2509748225117061
 20
0.1906962040759264
 10
0.2521605213787481
 20
0.1905675331267829
  0
LWPOLYLINE
  5
AAD
330
2
100
AcDbEntity
  8
Profilo
  6
Continuous
370
     0
100
AcDbPolyline
 90
        8
 70
   128
 43
0.0
 10
0.2170396199962727
 20
0.1621008823668544
 10
0.2241664181266731
 20
0.1643303333971229
 10
0.2311300077694014
 20
0.1650372337774328
 10
0.2354822541088168
 20
0.1654178726262678
 10
0.2404329290695095
 20
0.1662335252686082
 10
0.2451496805017896
 20
0.1671328229168498
 10
0.2491923443047348
 20
0.1700769811991005
 10
0.2509875535894483
 20
0.1713367989391039
  0
LWPOLYLINE
  5
AAE
330
2
100
AcDbEntity
  8
Profilo
  6
Continuous
370
     0
100
AcDbPolyline
 90
       20
 70
   128
 43
0.0
 10
0.2171453434947921
 20
0.1652328454170013
 10
0.2209140103399427
 20
0.1687705462937199
 10
0.2263546429954975
 20
0.1743031173203922
 10
0.2311647932383245
 20
0.1783930950522801
 10
0.2384643055939275
 20
0.1825512154163977
 10
0.2408533360709146
 20
0.1840848778103283
 10
0.241759103849267
 20
0.1844620150521936
 10
0.2429967887428877
 20
0.1843877742633935
 10
0.2443052629464404
 20
0.1843113151073807
 10
0.2473547116683452
 20
0.1843927093534776
 10
0.2483933504808569
 20
0.1847496571151232
 10
0.249059297755668
 20
0.1856494781315723
 10
0.2492065468258691
 20
0.1869550999671934
 10
0.2488184392858148
 20
0.188135870838789
 10
0.248525419242398
 20
0.188959538500292
 10
0.2487290261367452
 20
0.1898030372443826
 10
0.2495940232411016
 20
0.1902716695927928
 10
0.2509732828573554
 20
0.1901929874441119
 10
0.2519598816171893
 20
0.1900203886373042
 10
0.2522695490441329
 20
0.1897273802263508
  0
LWPOLYLINE
  5
AAF
330
2
100
AcDbEntity
  8
Profilo
  6
Continuous
370
     0
100
AcDbPolyline
 90
        2
 70
   128
 43
0.0
 10
0.2135905751687055
 20
0.1652473097435902
 10
0.2179443895799729
 20
0.1715153317207951
  0
LWPOLYLINE
  5
AB0
330
2
100
AcDbEntity
  8
Profilo
  6
Continuous
370
     0
100
AcDbPolyline
 90
        2
 70
   128
 43
0.0
 10
0.210537145988221
 20
0.1645620502847058
 10
0.2131022552757553
 20
0.1706050072887737
  0
LWPOLYLINE
  5
AB1
330
2
100
AcDbEntity
  8
Profilo
  6
Continuous
370
     0
100
AcDbPolyline
 90
       10
 70
   128
 43
0.0
 10
0.2251436852995159
 20
0.1804434800923573
 10
0.234879444756757
 20
0.1897742228011889
 10
0.2396908772809532
 20
0.1934283319206011
 10
0.2445070218306959
 20
0.1975201726172377
 10
0.2508758706742551
 20
0.198979382958556
 10
0.2558404918164303
 20
0.1985076363514624
 10
0.2592110447631306
 20
0.1976118950846466
 10
0.2616040890908611
 20
0.1932707986825997
 10
0.2620132092224718
 20
0.1886759418082304
 10
0.2634292845389581
 20
0.185945505165392
  0
LWPOLYLINE
  5
AB2
330
2
100
AcDbEntity
  8
Profilo
  6
Continuous
370
     0
100
AcDbPolyline
 90
        2
 70
   128
 43
0.0
 10
0.2614901979183966
 20
0.1896403540467859
 10
0.2601352165499815
 20
0.186759847405165
  0
LWPOLYLINE
  5
AB3
330
2
100
AcDbEntity
  8
Profilo
  6
Continuous
370
     0
100
AcDbPolyline
 90
        2
 70
   128
 43
0.0
 10
0.2600056010414597
 20
0.1977449681656291
 10
0.2634058647352724
 20
0.197796299618723
  0
LWPOLYLINE
  5
AB4
330
2
100
AcDbEntity
  8
Profilo
  6
Continuous
370
     0
100
AcDbPolyline
 90
        2
 70
   128
 43
0.0
 10
0.2535753904689795
 20
0.1993686983458005
 10
0.2565588348151166
 20
0.2012501158479107
  0
LWPOLYLINE
  5
AB5
330
2
100
AcDbEntity
  8
Profilo
  6
Continuous
370
     0
100
AcDbPolyline
 90
        2
 70
   128
 43
0.0
 10
0.2408745634349021
 20
0.195106115800082
 10
0.2483843299321506
 20
0.2052195788646127
  0
LWPOLYLINE
  5
AB6
330
2
100
AcDbEntity
  8
Profilo
  6
Continuous
370
     0
100
AcDbPolyline
 90
        2
 70
   128
 43
0.0
 10
0.2472313006309452
 20
0.198698716852089
 10
0.2495313323223431
 20
0.2014705765844562
  0
LWPOLYLINE
  5
AB7
330
2
100
AcDbEntity
  8
Profilo
  6
Continuous
370
     0
100
AcDbPolyline
 90
        2
 70
   128
 43
0.0
 10
0.2548255807311577
 20
0.1913504374357826
 10
0.2536686710349567
 20
0.1947837497174025
  0
LWPOLYLINE
  5
AB8
330
2
100
AcDbEntity
  8
Profilo
  6
Continuous
370
     0
100
AcDbPolyline
 90
        2
 70
   128
 43
0.0
 10
0.2331012152118781
 20
0.1891879411219275
 10
0.2383926545722872
 20
0.1991339944338439
  0
LWPOLYLINE
  5
AB9
330
2
100
AcDbEntity
  8
Profilo
  6
Continuous
370
     0
100
AcDbPolyline
 90
        2
 70
   128
 43
0.0
 10
0.2264899964306828
 20
0.1825223079119951
 10
0.2314039628928537
 20
0.1930332049744736
  0
LWPOLYLINE
  5
ABA
330
2
100
AcDbEntity
  8
Profilo
  6
Continuous
370
     0
100
AcDbPolyline
 90
        6
 70
   128
 43
0.0
 10
0.215440981353467
 20
0.193164896833943
 10
0.2148267706667006
 20
0.2001165796484567
 10
0.2163342244179294
 20
0.2039514412301551
 10
0.2220424888375199
 20
0.209041000999735
 10
0.2285648429977538
 20
0.2135504293678125
 10
0.2347231358619126
 20
0.2152983115970053
  0
LWPOLYLINE
  5
ABB
330
2
100
AcDbEntity
  8
Profilo
  6
Continuous
370
     0
100
AcDbPolyline
 90
       17
 70
   128
 43
0.0
 10
0.1917508062946211
 20
0.1627267838441151
 10
0.1887948534018484
 20
0.1624735394853634
 10
0.1883725754886765
 20
0.1605319907017373
 10
0.1884570318213665
 20
0.158337197559359
 10
0.1888793097345402
 20
0.1563956511484226
 10
0.189808321893576
 20
0.1559735756353766
 10
0.1953824023483559
 20
0.1564800643528801
 10
0.2037435192802448
 20
0.1569021422386161
 10
0.2119357235467518
 20
0.1569021422386161
 10
0.2198745625654688
 20
0.1564800643528801
 10
0.224857448691413
 20
0.1556359133267877
 10
0.2262931988465926
 20
0.1554670845451831
 10
0.2272222110056301
 20
0.1558891600582295
 10
0.2280667668319758
 20
0.1591813485854514
 10
0.2284045921627378
 20
0.1612917285233721
 10
0.2297051859336463
 20
0.1638560681872159
 10
0.2270367708509866
 20
0.1639244562410722
  0
ARC
  5
ABC
330
2
100
AcDbEntity
  8
Profilo
  6
Continuous
370
     0
100
AcDbCircle
 10
0.2077255339765109
 20
0.0279670079582952
 30
0.0
 40
0.1311185126163716
100
AcDbArc
 50
43.89573905054014
 51
79.20133562574704
  0
ARC
  5
ABD
330
2
100
AcDbEntity
  8
Profilo
  6
Continuous
370
     0
100
AcDbCircle
 10
0.2077255339765109
 20
0.0279670079582952
 30
0.0
 40
0.1358924722547999
100
AcDbArc
 50
48.86021240866359
 51
75.0535712803467
  0
ARC
  5
ABE
330
2
100
AcDbEntity
  8
Profilo
  6
Continuous
370
     0
100
AcDbCircle
 10
0.2077255339765109
 20
0.0279670079582952
 30
0.0
 40
0.1396929678488426
100
AcDbArc
 50
52.15062525358967
 51
69.67183856241065
  0
LWPOLYLINE
  5
ABF
102
{ACAD_REACTORS
330
AFF
330
B19
102
}
330
2
100
AcDbEntity
  8
Profilo
  6
Continuous
370
     0
100
AcDbPolyline
 90
      113
 70
   128
 43
0.0
 10
0.2983378400108218
 20
0.1174949133039833
 10
0.3010162731710313
 20
0.1182240711644269
 10
0.304059860187003
 20
0.1198910070449006
 10
0.3064693763656692
 20
0.1222147777203166
 10
0.3073763213019109
 20
0.1247805749765178
 10
0.3070419971114013
 20
0.126545733340635
 10
0.3047182377491175
 20
0.1293245294078371
 10
0.3041481653811768
 20
0.1312717418905542
 10
0.3042273038184948
 20
0.1356991415716928
 10
0.3051644184831108
 20
0.1385480952488378
 10
0.3069621103191782
 20
0.1413039602117787
 10
0.3090805898811215
 20
0.1432652164896635
 10
0.3115218884062916
 20
0.1446376227226409
 10
0.3139512832845455
 20
0.1453438696152252
 10
0.315829138670626
 20
0.146131392632669
 10
0.3164311379463811
 20
0.1487457142827484
 10
0.3164148068350805
 20
0.1524943617991292
 10
0.3164208021666059
 20
0.1574920621046218
 10
0.3164372165019582
 20
0.1630726535535447
 10
0.3163405517788185
 20
0.1669893288511597
 10
0.3161590882231238
 20
0.170824225167884
 10
0.315927021833156
 20
0.1718279362026771
 10
0.312181036370152
 20
0.1720614864079386
 10
0.3024322489782492
 20
0.1721524459420665
 10
0.2883543068369345
 20
0.1724873820300727
 10
0.2609905550642804
 20
0.1724892741251249
 10
0.2523218265192266
 20
0.1723943337171407
 10
0.2526309831258509
 20
0.1747094084315486
 10
0.2527672652910819
 20
0.1765628218289885
 10
0.2527608407237167
 20
0.1790889503456774
 10
0.2527074639016451
 20
0.1818736761674598
 10
0.2529450237359807
 20
0.183622176512582
 10
0.2537856362096207
 20
0.1844835229588248
 10
0.2541880070448776
 20
0.1867961412648422
 10
0.2536466453530863
 20
0.1882492539914793
 10
0.2528891677230547
 20
0.1892133503387794
 10
0.2529057488001669
 20
0.1901409786570869
 10
0.2534342414988231
 20
0.1908532512202621
 10
0.2548263522731933
 20
0.190828367658987
 10
0.2565720118436339
 20
0.1903847535415371
 10
0.2574788975326552
 20
0.1891828628580141
 10
0.2588378461528009
 20
0.1873027226601258
 10
0.260043959015583
 20
0.1855284194729405
 10
0.2609895101916386
 20
0.1836041184443027
 10
0.262106320586474
 20
0.1826046809087245
 10
0.2634477906302486
 20
0.1826322527209645
 10
0.2645949996452543
 20
0.1833334659161263
 10
0.2650424803933173
 20
0.1852844171039054
 10
0.2657256549833225
 20
0.1859939247748095
 10
0.2666224352132609
 20
0.187112025286972
 10
0.2667780581551682
 20
0.1900476682309939
 10
0.2668093779674923
 20
0.1917998550544628
 10
0.2672062217346429
 20
0.1938032615487333
 10
0.2669871127618997
 20
0.1959723356892034
 10
0.2657266782768044
 20
0.1975929569288999
 10
0.2653915528573414
 20
0.199042383244215
 10
0.2654210303277651
 20
0.2006915002545382
 10
0.2646679015882576
 20
0.2018390900200853
 10
0.2634047036115135
 20
0.2033051077262202
 10
0.2621912213811246
 20
0.2046671316608246
 10
0.2608083223162634
 20
0.2052073642878254
 10
0.2592099752695649
 20
0.2052359342604224
 10
0.2574072267930738
 20
0.205371260591535
 10
0.2563355301031294
 20
0.2060090333141629
 10
0.2561894397677715
 20
0.2068128830272826
 10
0.2546518625612411
 20
0.2073558804795317
 10
0.252949470604106
 20
0.207334760037909
 10
0.2512433976704482
 20
0.2071074975306604
 10
0.2503613561757199
 20
0.2068139555236588
 10
0.249017118848208
 20
0.2066317778725697
 10
0.2485567691070099
 20
0.206846211974602
 10
0.2474215353355653
 20
0.20681495375104
 10
0.246385736848918
 20
0.2065757102897039
 10
0.2446152056840081
 20
0.2056278831158482
 10
0.2420418300332354
 20
0.2059316394790716
 10
0.2411708425899164
 20
0.2062565163509418
 10
0.2398358169295083
 20
0.2065896853932672
 10
0.2382439143509849
 20
0.2069790009650521
 10
0.2360866996359512
 20
0.2074815216925865
 10
0.2347590471352348
 20
0.2082269722927794
 10
0.2328366249708011
 20
0.2103233875265871
 10
0.2332730554595415
 20
0.2116559221407823
 10
0.2344662955795052
 20
0.2120470043104339
 10
0.235349258223982
 20
0.2123920800378523
 10
0.2368500160350617
 20
0.2126745626768391
 10
0.2380092002512253
 20
0.2140457284712891
 10
0.2387485350557608
 20
0.21501198796985
 10
0.2392346813332615
 20
0.2162405311848259
 10
0.2390450223459588
 20
0.217171843609167
 10
0.2382928148410084
 20
0.2183709718397537
 10
0.2367018371195115
 20
0.2188118186926204
 10
0.2343282495656158
 20
0.2187511454846693
 10
0.2313875075333076
 20
0.2187006076193221
 10
0.2276613920497379
 20
0.2179939390426613
 10
0.2252684636343574
 20
0.2168510315435057
 10
0.2230808503415567
 20
0.2156529039126114
 10
0.2205194224493638
 20
0.2137397365209828
 10
0.2165753001780946
 20
0.2091865410611731
 10
0.2145832596179513
 20
0.2076225499353592
 10
0.2121613872119834
 20
0.2064297866580382
 10
0.2107800830714979
 20
0.206509458697969
 10
0.2098484382540331
 20
0.2056500858956114
 10
0.2097180477740075
 20
0.2042985639052621
 10
0.2100560789342776
 20
0.2031510349959786
 10
0.2100461132493159
 20
0.201850450756353
 10
0.2101264138700003
 20
0.1995168862402283
 10
0.2111683596292497
 20
0.196389175459919
 10
0.2129436073919813
 20
0.1933398009816032
 10
0.2141668324331771
 20
0.1901174084070463
 10
0.2151859021043823
 20
0.1857098949373341
 10
0.2141977868195912
 20
0.1816125908589203
 10
0.212192193727283
 20
0.1768933669073749
 10
0.2093144960924462
 20
0.1745672694110332
  0
LWPOLYLINE
  5
AC0
330
2
100
AcDbEntity
  8
Profilo
  6
Continuous
370
     0
100
AcDbPolyline
 90
       15
 70
   128
 43
0.0
 10
0.2934394269112648
 20
0.1382722835546484
 10
0.2940362827637308
 20
0.1416339553636705
 10
0.2958513094490858
 20
0.1455268632885618
 10
0.2979818093299702
 20
0.148759907852543
 10
0.3001999289144948
 20
0.1507919729136313
 10
0.3029672240792713
 20
0.1530322972082825
 10
0.3046147432782575
 20
0.1536570726707072
 10
0.3048776677986993
 20
0.1561602374190252
 10
0.3049341711319062
 20
0.1593213162564138
 10
0.3048426508882098
 20
0.1603042898984461
 10
0.302193543596152
 20
0.1604382067183958
 10
0.2606675190567067
 20
0.1606577559261657
 10
0.2568486416304676
 20
0.1606169794203307
 10
0.25607293639791
 20
0.1599414564037751
 10
0.2562543948299325
 20
0.1589596601594279
  0
LWPOLYLINE
  5
AC1
330
2
100
AcDbEntity
  8
Profilo
  6
Continuous
370
     0
100
AcDbPolyline
 90
       15
 70
   128
 43
0.0
 10
0.2971289713420848
 20
0.1303085410850842
 10
0.2966427113137051
 20
0.1361005000221995
 10
0.2974848928924221
 20
0.1410267841916162
 10
0.3003344434900441
 20
0.1457496841430128
 10
0.3028537937524298
 20
0.1477112554661666
 10
0.3050178843175715
 20
0.1494632422909277
 10
0.3083954122882826
 20
0.1507440750733626
 10
0.3089381474953736
 20
0.1559111687920418
 10
0.309001829418218
 20
0.1594738538090721
 10
0.3085357264939859
 20
0.1644800346329713
 10
0.3023798247773275
 20
0.1645612696691452
 10
0.2606662732530598
 20
0.1647222568010558
 10
0.2531576177584949
 20
0.164375259066011
 10
0.2487405188974012
 20
0.1623627395493736
 10
0.2427743491373899
 20
0.1592618843676208
  0
LWPOLYLINE
  5
AC2
330
2
100
AcDbEntity
  8
Profilo
  6
Continuous
370
     0
100
AcDbPolyline
 90
       15
 70
   128
 43
0.0
 10
0.3059101731423723
 20
0.1221287707887679
 10
0.3013581928719358
 20
0.1278326113304584
 10
0.2998761343356886
 20
0.1333418587400708
 10
0.3008578688229448
 20
0.1386534934070349
 10
0.3028011966105204
 20
0.1426820853600796
 10
0.3072150820147854
 20
0.1456391474461665
 10
0.3124276915727648
 20
0.1481969424863787
 10
0.3127423732706021
 20
0.1556542221049688
 10
0.3127241561460483
 20
0.161371025017869
 10
0.312492704380956
 20
0.1689541725440153
 10
0.302507434090522
 20
0.1691243398666149
 10
0.2532862710997143
 20
0.1687638116925987
 10
0.2346168994889251
 20
0.1612880037505082
 10
0.2322605905566135
 20
0.159668522629107
 10
0.2322916908572452
 20
0.156763623934185
  0
LWPOLYLINE
  5
AC3
330
2
100
AcDbEntity
  8
Profilo
  6
Continuous
370
     0
100
AcDbPolyline
 90
        3
 70
   128
 43
0.0
 10
0.1854594470569619
 20
0.1699824377060062
 10
0.1738211093930495
 20
0.1741930614486882
 10
0.1671094336392862
 20
0.1769049871974637
  0
LWPOLYLINE
  5
AC4
330
2
100
AcDbEntity
  8
Profilo
  6
Continuous
370
     0
100
AcDbPolyline
 90
        3
 70
   128
 43
0.0
 10
0.2346251610924099
 20
0.1693536581553547
 10
0.2422894495248187
 20
0.1713600074850343
 10
0.2470340127808779
 20
0.172819169339697
  0
LWPOLYLINE
  5
AC5
330
2
100
AcDbEntity
  8
Profilo
  6
Continuous
370
     0
100
AcDbPolyline
 90
        2
 70
   128
 43
0.0
 10
0.2094424878493655
 20
0.1786558215037299
 10
0.2092600066665913
 20
0.193429847738817
  0
LWPOLYLINE
  5
AC6
102
{ACAD_REACTORS
330
B19
102
}
330
2
100
AcDbEntity
  8
Profilo
  6
Continuous
370
     0
100
AcDbPolyline
 90
       31
 70
   128
 43
0.0
 10
0.1987760955637014
 20
0.213765920447996
 10
0.1994060265470807
 20
0.2138918438700648
 10
0.1995950069671792
 20
0.2155918361675866
 10
0.1995950069671792
 20
0.2181733042830412
 10
0.1996579966902647
 20
0.2207547747711862
 10
0.2003509211470131
 20
0.2219510638896716
 10
0.2007918717102939
 20
0.2230214295860882
 10
0.2007918717102939
 20
0.2242806827882982
 10
0.2014217989433948
 20
0.2249732711004375
 10
0.2016737728368589
 20
0.2259177110020953
 10
0.2016107793634934
 20
0.2274288157938233
 10
0.2021147234001415
 20
0.2288139924181025
 10
0.2036265517598057
 20
0.2310806496056945
 10
0.2040045126000027
 20
0.2320880512183865
 10
0.2046344398331037
 20
0.2325287903136988
 10
0.2050753903963844
 20
0.2335991536374249
 10
0.2058942980495839
 20
0.2344806318280477
 10
0.2075951068293467
 20
0.2346695193338415
 10
0.2096108829759409
 20
0.2347324834175661
 10
0.2115006721758021
 20
0.2344806318280477
 10
0.2129495070621008
 20
0.2337250794321837
 10
0.2142723587519466
 20
0.2329065653252855
 10
0.2151542598785117
 20
0.2313324988225225
 10
0.2160991544784423
 20
0.2287510307070679
 10
0.217547993115021
 20
0.2257917852073366
 10
0.217925950204938
 20
0.2232103170918815
 10
0.218555881188319
 20
0.2201881098811156
 10
0.2186188746616846
 20
0.2174807159709018
 10
0.2189338382782342
 20
0.214773322060688
 10
0.2189968317516016
 20
0.2138288821590306
 10
0.2195007757882497
 20
0.2128214805463386
  0
LWPOLYLINE
  5
AC7
330
2
100
AcDbEntity
  8
Profilo
  6
Continuous
370
     0
100
AcDbPolyline
 90
        3
 70
   128
 43
0.0
 10
0.2041623881878039
 20
0.2302224356439191
 10
0.2089614242783355
 20
0.2255502951565615
 10
0.2151316156806082
 20
0.2289765311975982
  0
LWPOLYLINE
  5
AC8
330
2
100
AcDbEntity
  8
Profilo
  6
Continuous
370
     0
100
AcDbPolyline
 90
        3
 70
   128
 43
0.0
 10
0.2017317071808833
 20
0.2226224213685906
 10
0.2089614242783355
 20
0.2161437239421797
 10
0.217686948534153
 20
0.2220617665031677
  0
LWPOLYLINE
  5
AC9
330
2
100
AcDbEntity
  8
Profilo
  6
Continuous
370
     0
100
AcDbPolyline
 90
        3
 70
   128
 43
0.0
 10
0.2005475296390777
 20
0.2160191315993947
 10
0.2089614242783355
 20
0.2079830548014274
 10
0.2174999707642176
 20
0.214524047212886
  0
LWPOLYLINE
  5
ACA
330
2
100
AcDbEntity
  8
Profilo
  6
Continuous
370
     0
100
AcDbPolyline
 90
        2
 70
   128
 43
0.0
 10
0.2082930641634686
 20
0.158337171459765
 10
0.2083777567638751
 20
0.168875966780587
  0
DIMENSION
  5
ACB
102
{ACAD_XDICTIONARY
360
AD4
102
}
102
{ACAD_REACTORS
330
ADA
102
}
330
2
100
AcDbEntity
  8
Text
  6
ACAD_ISO10W100
100
AcDbDimension
  2
*D11
 10
0.207725533976511
 20
0.0279670079582953
 30
0.0
 11
0.2087007042999005
 21
0.1372509813952263
 31
0.0
 70
   164
  1
d 520 mm
 71
     5
 42
0.1273806729470454
  3
Bovelacci
100
AcDbRadialDimension
 15
0.1656269021981223
 25
0.1481898886542334
 35
0.0
 40
0.0
1001
ACAD
1000
DSTYLE
1002
{
1070
   279
1070
     0
1070
   288
1070
     1
1002
}
  0
DIMENSION
  5
AE6
102
{ACAD_XDICTIONARY
360
AF4
102
}
102
{ACAD_REACTORS
330
AFF
102
}
330
2
100
AcDbEntity
  8
Text
  6
ACAD_ISO10W100
100
AcDbDimension
  2
*D12
 10
0.3164311379463811
 20
0.0888070276076576
 30
0.0
 11
0.2088134840063667
 21
0.0888070276076576
 31
0.0
 70
    32
  1
430 mm
 71
     5
 42
0.2152353078800289
  3
Bovelacci
100
AcDbAlignedDimension
 13
0.1011958300663522
 23
0.1506691938421523
 33
0.0
 14
0.3164311379463811
 24
0.1487457142827484
 34
0.0
100
AcDbRotatedDimension
  0
DIMENSION
  5
B00
102
{ACAD_XDICTIONARY
360
B0E
102
}
102
{ACAD_REACTORS
330
B19
102
}
330
2
100
AcDbEntity
  8
Text
  6
ACAD_ISO10W100
100
AcDbDimension
  2
*D13
 10
0.3426160326812067
 20
0.2347324834175661
 30
0.0
 11
0.3426160326812066
 21
0.1761136983607747
 31
0.0
 70
    32
  1
235 mm
 71
     5
 42
0.1172375701135828
  3
Bovelacci
100
AcDbAlignedDimension
 13
0.2983378400108218
 23
0.1174949133039833
 33
0.0
 14
0.2096108829759409
 24
0.2347324834175661
 34
0.0
 50
90.0
100
AcDbRotatedDimension
  0
ENDSEC
  0
SECTION
  2
OBJECTS
  0
DICTIONARY
  5
9
330
0
100
AcDbDictionary
281
     1
  3
ACAD_2007HEADERVARS_RT
350
208
  3
ACAD_COLOR
350
184
  3
ACAD_GROUP
350
17F
  3
ACAD_LAYOUT
350
164
  3
ACAD_MATERIAL
350
B
  3
ACAD_MLINESTYLE
350
180
  3
ACAD_PLOTSETTINGS
350
181
  3
ACAD_PLOTSTYLENAME
350
8
  3
ACAD_TABLESTYLE
350
185
  3
ACAD_VISUALSTYLE
350
17A
  3
AcDbVariableDictionary
350
18B
  0
DICTIONARY
  5
16E
330
16D
100
AcDbDictionary
280
     1
281
     1
  3
ACAD_LAYERSTATES
360
16F
  0
DICTIONARY
  5
3
330
2
100
AcDbDictionary
280
     1
281
     1
  3
ACAD_SORTENTS
360
18A
  0
DICTIONARY
  5
AD4
330
ACB
100
AcDbDictionary
280
     1
281
     1
  3
ACAD_DIMASSOC
360
ADA
  0
DICTIONARY
  5
AF4
330
AE6
100
AcDbDictionary
280
     1
281
     1
  3
ACAD_DIMASSOC
360
AFF
  0
DICTIONARY
  5
B0E
330
B00
100
AcDbDictionary
280
     1
281
     1
  3
ACAD_DIMASSOC
360
B19
  0
DICTIONARY
  5
208
102
{ACAD_REACTORS
330
9
102
}
330
9
100
AcDbDictionary
281
     1
  3
DIMFXL
350
209
  0
DICTIONARY
  5
184
102
{ACAD_REACTORS
330
9
102
}
330
9
100
AcDbDictionary
281
     1
  0
DICTIONARY
  5
17F
102
{ACAD_REACTORS
330
9
102
}
330
9
100
AcDbDictionary
281
     1
  0
DICTIONARY
  5
164
102
{ACAD_REACTORS
330
9
102
}
330
9
100
AcDbDictionary
281
     1
  3
Layout1
350
168
  3
Layout2
350
16C
  3
Model
350
163
  0
DICTIONARY
  5
B
102
{ACAD_REACTORS
330
9
102
}
330
9
100
AcDbDictionary
281
     1
  3
ByBlock
350
183
  3
ByLayer
350
182
  3
Global
350
A
  0
DICTIONARY
  5
180
102
{ACAD_REACTORS
330
9
102
}
330
9
100
AcDbDictionary
281
     1
  3
Standard
350
186
  0
DICTIONARY
  5
181
102
{ACAD_REACTORS
330
9
102
}
330
9
100
AcDbDictionary
281
     1
  0
ACDBDICTIONARYWDFLT
  5
8
102
{ACAD_REACTORS
330
9
102
}
330
9
100
AcDbDictionary
281
     1
  3
Normal
350
7
100
AcDbDictionaryWithDefault
340
7
  0
DICTIONARY
  5
185
102
{ACAD_REACTORS
330
9
102
}
330
9
100
AcDbDictionary
281
     1
  3
Standard
350
187
  0
DICTIONARY
  5
17A
102
{ACAD_REACTORS
330
9
102
}
330
9
100
AcDbDictionary
281
     1
  3
2dWireframe
350
179
  3
3D Hidden
350
1BD
  3
3dWireframe
350
189
  3
Basic
350
1BC
  3
Brighten
350
1C0
  3
ColorChange
350
1C4
  3
Conceptual
350
1BE
  3
Dim
350
1BF
  3
Facepattern
350
1C3
  3
Flat
350
1B8
  3
FlatWithEdges
350
1B9
  3
Gouraud
350
1BA
  3
GouraudWithEdges
350
1BB
  3
Linepattern
350
1C2
  3
Realistic
350
188
  3
Thicken
350
1C1
  0
DICTIONARY
  5
18B
102
{ACAD_REACTORS
330
9
102
}
330
9
100
AcDbDictionary
281
     1
  3
CTABLESTYLE
350
18C
  3
DIMASSOC
350
190
  3
HIDETEXT
350
18F
  3
INDEXCTL
350
18E
  3
PROJECTNAME
350
31D
  3
SORTENTS
350
18D
  0
DICTIONARY
  5
16F
102
{ACAD_REACTORS
330
16E
102
}
330
16E
100
AcDbDictionary
281
     1
  0
SORTENTSTABLE
  5
18A
102
{ACAD_REACTORS
330
3
102
}
330
3
100
AcDbSortentsTable
330
2
331
18
  5
1E
331
17
  5
1C
331
16
  5
14
331
15
  5
13
331
14
  5
12
331
13
  5
11
331
12
  5
18
331
11
  5
17
331
B00
  5
ACA
331
10
  5
16
331
D
  5
15
331
25
  5
2AC
331
24
  5
1D
331
23
  5
23F
331
A9F
  5
A9E
331
22
  5
25
331
21
  5
24
331
A9E
  5
A9D
331
A9D
  5
A9C
331
A9C
  5
A9B
331
A9B
  5
A9A
331
A9A
  5
A99
331
A99
  5
A98
331
A98
  5
A97
331
ABF
  5
AE6
331
ABE
  5
ABD
331
A97
  5
A96
331
ABD
  5
ABC
331
A96
  5
A95
331
A95
  5
ACB
331
ABC
  5
ABB
331
A94
  5
A94
331
ABB
  5
ABA
331
ABA
  5
AB9
331
A93
  5
A93
331
AB9
  5
AB8
331
A92
  5
A92
331
A91
  5
A91
331
AB8
  5
AB7
331
AB7
  5
AB6
331
AB6
  5
AB5
331
AB5
  5
AB4
331
AB4
  5
AB3
331
AB3
  5
AB2
331
AB2
  5
AB1
331
AB1
  5
AB0
331
AB0
  5
AAF
331
AAF
  5
AAE
331
AAE
  5
AAD
331
AAD
  5
AAC
331
AAC
  5
AAB
331
AAB
  5
AAA
331
AAA
  5
AA9
331
AA9
  5
AA8
331
AA8
  5
AA7
331
AA7
  5
AA6
331
AA6
  5
AA5
331
AA5
  5
AA4
331
ACB
  5
AC8
331
AA4
  5
AA3
331
AA3
  5
AA2
331
ACA
  5
AC7
331
AA2
  5
AA1
331
AC9
  5
AC6
331
AC8
  5
AC5
331
AA1
  5
AA0
331
AC7
  5
AC4
331
AA0
  5
A9F
331
AE6
  5
AC9
331
AC6
  5
B00
331
23F
  5
3BB
331
AC5
  5
AC3
331
AC4
  5
AC2
331
AC3
  5
AC1
331
AC2
  5
AC0
331
AC1
  5
ABF
331
1F
  5
23
331
AC0
  5
ABE
331
1E
  5
22
331
1D
  5
21
331
1C
  5
1F
  0
DIMASSOC
  5
ADA
102
{ACAD_REACTORS
330
AD4
102
}
330
AD4
100
AcDbDimAssoc
330
ACB
 90
        2
 70
     0
 71
     0
  1
AcDbOsnapPointRef
 72
     3
331
A91
 73
     2
 91
        0
 40
0.0
 10
0.0
 20
0.0
 30
0.0
 75
     0
  0
DIMASSOC
  5
AFF
102
{ACAD_REACTORS
330
AF4
102
}
330
AF4
100
AcDbDimAssoc
330
AE6
 90
        3
 70
     0
 71
     0
  1
AcDbOsnapPointRef
 72
     1
331
A95
 73
     2
 91
       15
 40
1.0
 10
0.0
 20
0.0
 30
2.000000000000000E+50
 75
     0
  1
AcDbOsnapPointRef
 72
     1
331
ABF
 73
     2
 91
       15
 40
1.0
 10
0.0
 20
0.0
 30
2.000000000000000E+50
 75
     0
  0
DIMASSOC
  5
B19
102
{ACAD_REACTORS
330
B0E
102
}
330
B0E
100
AcDbDimAssoc
330
B00
 90
        3
 70
     0
 71
     0
  1
AcDbOsnapPointRef
 72
    13
331
ABF
 73
     2
 91
        1
 40
0.0
 10
0.0
 20
0.0
 30
2.000000000000000E+50
 75
     0
  1
AcDbOsnapPointRef
 72
     1
331
AC6
 73
     2
 91
       18
 40
1.0
 10
0.0
 20
0.0
 30
2.000000000000000E+50
 75
     0
  0
XRECORD
  5
209
102
{ACAD_REACTORS
330
208
102
}
330
208
100
AcDbXrecord
280
     1
 40
0.18
  0
LAYOUT
  5
168
102
{ACAD_REACTORS
330
164
102
}
330
164
100
AcDbPlotSettings
  1

  2
C:\Documents and Settings\All Users\Dati applicazioni\Autodesk\ADT 2006\enu\Plotters\Default Windows System Printer.pc3
  4

  6

 40
0.0
 41
0.0
 42
0.0
 43
0.0
 44
0.0
 45
0.0
 46
0.0
 47
0.0
 48
0.0
 49
0.0
140
0.0
141
0.0
142
1.0
143
1.0
 70
   688
 72
     0
 73
     0
 74
     5
  7

 75
    16
147
1.0
 76
     0
 77
     2
 78
   300
148
0.0
149
0.0
100
AcDbLayout
  1
Layout1
 70
     1
 71
     1
 10
0.0
 20
0.0
 11
420.0
 21
297.0
 12
0.0
 22
0.0
 32
0.0
 14
1.000000000000000E+20
 24
1.000000000000000E+20
 34
1.000000000000000E+20
 15
-1.000000000000000E+20
 25
-1.000000000000000E+20
 35
-1.000000000000000E+20
146
0.0
 13
0.0
 23
0.0
 33
0.0
 16
1.0
 26
0.0
 36
0.0
 17
0.0
 27
1.0
 37
0.0
 76
     0
330
165
  0
LAYOUT
  5
16C
102
{ACAD_REACTORS
330
164
102
}
330
164
100
AcDbPlotSettings
  1

  2
C:\Documents and Settings\All Users\Dati applicazioni\Autodesk\ADT 2006\enu\Plotters\Default Windows System Printer.pc3
  4

  6

 40
0.0
 41
0.0
 42
0.0
 43
0.0
 44
0.0
 45
0.0
 46
0.0
 47
0.0
 48
0.0
 49
0.0
140
0.0
141
0.0
142
1.0
143
1.0
 70
   688
 72
     0
 73
     0
 74
     5
  7

 75
    16
147
1.0
 76
     0
 77
     2
 78
   300
148
0.0
149
0.0
100
AcDbLayout
  1
Layout2
 70
     1
 71
     2
 10
0.0
 20
0.0
 11
12.0
 21
9.0
 12
0.0
 22
0.0
 32
0.0
 14
0.0
 24
0.0
 34
0.0
 15
0.0
 25
0.0
 35
0.0
146
0.0
 13
0.0
 23
0.0
 33
0.0
 16
1.0
 26
0.0
 36
0.0
 17
0.0
 27
1.0
 37
0.0
 76
     0
330
169
  0
LAYOUT
  5
163
102
{ACAD_REACTORS
330
164
102
}
330
164
100
AcDbPlotSettings
  1

  2
C:\Documents and Settings\All Users\Dati applicazioni\Autodesk\ADT 2006\enu\Plotters\Default Windows System Printer.pc3
  4

  6

 40
0.0
 41
0.0
 42
0.0
 43
0.0
 44
0.0
 45
0.0
 46
0.0
 47
0.0
 48
0.0
 49
0.0
140
0.0
141
0.0
142
1.0
143
1.0
 70
  1712
 72
     0
 73
     0
 74
     0
  7

 75
     0
147
1.0
 76
     0
 77
     2
 78
   300
148
0.0
149
0.0
100
AcDbLayout
  1
Model
 70
     1
 71
     0
 10
0.0
 20
0.0
 11
12.0
 21
9.0
 12
0.0
 22
0.0
 32
0.0
 14
0.0
 24
0.0
 34
0.0
 15
0.0
 25
0.0
 35
0.0
146
0.0
 13
0.0
 23
0.0
 33
0.0
 16
1.0
 26
0.0
 36
0.0
 17
0.0
 27
1.0
 37
0.0
 76
     0
330
2
  0
MATERIAL
  5
183
102
{ACAD_XDICTIONARY
360
1B0
102
}
102
{ACAD_REACTORS
330
B
102
}
330
B
100
AcDbMaterial
  1
ByBlock
  0
MATERIAL
  5
182
102
{ACAD_XDICTIONARY
360
1AE
102
}
102
{ACAD_REACTORS
330
B
102
}
330
B
100
AcDbMaterial
  1
ByLayer
  0
MATERIAL
  5
A
102
{ACAD_XDICTIONARY
360
193
102
}
102
{ACAD_REACTORS
330
B
102
}
330
B
100
AcDbMaterial
  1
Global
  0
MLINESTYLE
  5
186
102
{ACAD_REACTORS
330
180
102
}
330
180
100
AcDbMlineStyle
  2
STANDARD
 70
     0
  3

 62
   256
 51
90.0
 52
90.0
 71
     2
 49
0.5
 62
   256
  6
BYLAYER
 49
-0.5
 62
   256
  6
BYLAYER
  0
ACDBPLACEHOLDER
  5
7
102
{ACAD_REACTORS
330
8
102
}
330
8
  0
TABLESTYLE
  5
187
102
{ACAD_XDICTIONARY
360
21A
102
}
102
{ACAD_REACTORS
330
185
102
}
330
185
100
AcDbTableStyle
  3
Standard
 70
     0
 71
     0
 40
1.5
 41
1.5
280
     0
281
     0
  7
Standard
140
4.5
170
     2
 62
     0
 63
     7
283
     0
274
    -2
284
     1
 64
     0
275
    -2
285
     1
 65
     0
276
    -2
286
     1
 66
     0
277
    -2
287
     1
 67
     0
278
    -2
288
     1
 68
     0
279
    -2
289
     1
 69
     0
  7
Standard
140
6.0
170
     5
 62
     0
 63
     7
283
     0
274
    -2
284
     1
 64
     0
275
    -2
285
     1
 65
     0
276
    -2
286
     1
 66
     0
277
    -2
287
     1
 67
     0
278
    -2
288
     1
 68
     0
279
    -2
289
     1
 69
     0
  7
Standard
140
4.5
170
     5
 62
     0
 63
     7
283
     0
274
    -2
284
     1
 64
     0
275
    -2
285
     1
 65
     0
276
    -2
286
     1
 66
     0
277
    -2
287
     1
 67
     0
278
    -2
288
     1
 68
     0
279
    -2
289
     1
 69
     0
  0
ACAD_PROXY_OBJECT
  5
179
102
{ACAD_REACTORS
330
17A
102
}
330
17A
100
AcDbProxyObject
 90
      499
 91
      508
 95
  1310743
 70
     1
100
AcDbVisualStyle
  2
2dWireframe
 70
     4
 71
     0
 72
     2
 73
     0
 90
        0
 40
-0.6
 41
-30.0
 62
     5
 63
     7
 74
     1
 91
        4
 64
     7
 65
   257
 75
     1
175
     1
 42
1.0
 92
        0
 66
   257
 43
1.0
 76
     1
 77
     6
 78
     2
 67
     7
 79
     5
170
     0
171
     0
290
     0
174
     0
 93
        1
 44
0.0
173
     0
291
     0
 45
0.0
1001
ACAD
1000
AcDbSavedByObjectVersion
1070
     0
1000
AcDbSavedByObjectVersion
1070
     0
1000
AcDbSavedByObjectVersion
1070
     0
  0
ACAD_PROXY_OBJECT
  5
1BD
102
{ACAD_REACTORS
330
17A
102
}
330
17A
100
AcDbProxyObject
 90
      499
 91
      508
 95
  1310743
 70
     1
100
AcDbVisualStyle
  2
3D Hidden
 70
     6
 71
     1
 72
     2
 73
     2
 90
        0
 40
-0.6
 41
-30.0
 62
     5
 63
     7
 74
     2
 91
        2
 64
     7
 65
   257
 75
     2
175
     1
 42
40.0
 92
        0
 66
   257
 43
1.0
 76
     1
 77
     6
 78
     2
 67
     7
 79
     3
170
     0
171
     0
290
     0
174
     0
 93
        1
 44
0.0
173
     0
291
     0
 45
0.0
1001
ACAD
1000
AcDbSavedByObjectVersion
1070
     0
1000
AcDbSavedByObjectVersion
1070
     0
  0
ACAD_PROXY_OBJECT
  5
189
102
{ACAD_REACTORS
330
17A
102
}
330
17A
100
AcDbProxyObject
 90
      499
 91
      508
 95
  1310743
 70
     1
100
AcDbVisualStyle
  2
3dWireframe
 70
     5
 71
     0
 72
     2
 73
     0
 90
        0
 40
-0.6
 41
-30.0
 62
     5
 63
     7
 74
     1
 91
        4
 64
     7
 65
   257
 75
     1
175
     1
 42
1.0
 92
        0
 66
   257
 43
1.0
 76
     1
 77
     6
 78
     2
 67
     7
 79
     5
170
     0
171
     0
290
     0
174
     0
 93
        1
 44
0.0
173
     0
291
     0
 45
0.0
1001
ACAD
1000
AcDbSavedByObjectVersion
1070
     0
1000
AcDbSavedByObjectVersion
1070
     0
1000
AcDbSavedByObjectVersion
1070
     0
  0
ACAD_PROXY_OBJECT
  5
1BC
102
{ACAD_REACTORS
330
17A
102
}
330
17A
100
AcDbProxyObject
 90
      499
 91
      508
 95
  1310743
 70
     1
100
AcDbVisualStyle
  2
Basic
 70
     7
 71
     1
 72
     0
 73
     1
 90
        0
 40
-0.6
 41
-30.0
 62
     5
 63
     7
 74
     0
 91
        4
 64
     7
 65
   257
 75
     1
175
     1
 42
1.0
 92
        8
 66
     7
 43
1.0
 76
     1
 77
     6
 78
     2
 67
     7
 79
     5
170
     0
171
     0
290
     0
174
     0
 93
        1
 44
0.0
173
     0
291
     1
 45
0.0
1001
ACAD
1000
AcDbSavedByObjectVersion
1070
     0
1000
AcDbSavedByObjectVersion
1070
     0
  0
ACAD_PROXY_OBJECT
  5
1C0
102
{ACAD_REACTORS
330
17A
102
}
330
17A
100
AcDbProxyObject
 90
      499
 91
      508
 95
  1310743
 70
     1
100
AcDbVisualStyle
  2
Brighten
 70
    12
 71
     2
 72
     2
 73
     0
 90
        0
 40
-0.6
 41
-30.0
 62
     5
 63
     7
 74
     1
 91
        4
 64
     7
 65
   257
 75
     1
175
     1
 42
1.0
 92
        8
 66
     7
 43
1.0
 76
     1
 77
     6
 78
     2
 67
     7
 79
     5
170
     0
171
     0
290
     0
174
     0
 93
        1
 44
50.0
173
     0
291
     1
 45
0.0
1001
ACAD
1000
AcDbSavedByObjectVersion
1070
     0
1000
AcDbSavedByObjectVersion
1070
     0
  0
ACAD_PROXY_OBJECT
  5
1C4
102
{ACAD_REACTORS
330
17A
102
}
330
17A
100
AcDbProxyObject
 90
      499
 91
      508
 95
  1310743
 70
     1
100
AcDbVisualStyle
  2
ColorChange
 70
    16
 71
     2
 72
     2
 73
     3
 90
        0
 40
-0.6
 41
-30.0
 62
     5
 63
     8
 74
     1
 91
        4
 64
     7
 65
   257
 75
     1
175
     1
 42
1.0
 92
        8
 66
     8
 43
1.0
 76
     1
 77
     6
 78
     2
 67
     7
 79
     5
170
     0
171
     0
290
     0
174
     0
 93
        1
 44
0.0
173
     0
291
     1
 45
0.0
1001
ACAD
1000
AcDbSavedByObjectVersion
1070
     0
1000
AcDbSavedByObjectVersion
1070
     0
  0
ACAD_PROXY_OBJECT
  5
1BE
102
{ACAD_REACTORS
330
17A
102
}
330
17A
100
AcDbProxyObject
 90
      499
 91
      508
 95
  1310743
 70
     1
100
AcDbVisualStyle
  2
Conceptual
 70
     9
 71
     3
 72
     2
 73
     0
 90
        0
 40
-0.6
 41
-30.0
 62
     5
 63
     7
 74
     2
 91
        2
 64
     7
 65
   257
 75
     1
175
     1
 42
40.0
 92
        8
 66
     7
 43
1.0
 76
     1
 77
     6
 78
     2
 67
     7
 79
     3
170
     0
171
     0
290
     0
174
     0
 93
        1
 44
0.0
173
     0
291
     0
 45
0.0
1001
ACAD
1000
AcDbSavedByObjectVersion
1070
     0
1000
AcDbSavedByObjectVersion
1070
     0
  0
ACAD_PROXY_OBJECT
  5
1BF
102
{ACAD_REACTORS
330
17A
102
}
330
17A
100
AcDbProxyObject
 90
      499
 91
      508
 95
  1310743
 70
     1
100
AcDbVisualStyle
  2
Dim
 70
    11
 71
     2
 72
     2
 73
     0
 90
        0
 40
-0.6
 41
-30.0
 62
     5
 63
     7
 74
     1
 91
        4
 64
     7
 65
   257
 75
     1
175
     1
 42
1.0
 92
        8
 66
     7
 43
1.0
 76
     1
 77
     6
 78
     2
 67
     7
 79
     5
170
     0
171
     0
290
     0
174
     0
 93
        1
 44
-50.0
173
     0
291
     1
 45
0.0
1001
ACAD
1000
AcDbSavedByObjectVersion
1070
     0
1000
AcDbSavedByObjectVersion
1070
     0
  0
ACAD_PROXY_OBJECT
  5
1C3
102
{ACAD_REACTORS
330
17A
102
}
330
17A
100
AcDbProxyObject
 90
      499
 91
      508
 95
  1310743
 70
     1
100
AcDbVisualStyle
  2
Facepattern
 70
    15
 71
     2
 72
     2
 73
     0
 90
        0
 40
-0.6
 41
-30.0
 62
     5
 63
     7
 74
     1
 91
        4
 64
     7
 65
   257
 75
     1
175
     1
 42
1.0
 92
        8
 66
     7
 43
1.0
 76
     1
 77
     6
 78
     2
 67
     7
 79
     5
170
     0
171
     0
290
     0
174
     0
 93
        1
 44
0.0
173
     0
291
     1
 45
0.0
1001
ACAD
1000
AcDbSavedByObjectVersion
1070
     0
1000
AcDbSavedByObjectVersion
1070
     0
  0
ACAD_PROXY_OBJECT
  5
1B8
102
{ACAD_REACTORS
330
17A
102
}
330
17A
100
AcDbProxyObject
 90
      499
 91
      508
 95
  1310743
 70
     1
100
AcDbVisualStyle
  2
Flat
 70
     0
 71
     2
 72
     1
 73
     1
 90
        2
 40
-0.6
 41
30.0
 62
     5
 63
     7
 74
     0
 91
        4
 64
     7
 65
   257
 75
     1
175
     1
 42
1.0
 92
        8
 66
     7
 43
1.0
 76
     1
 77
     6
 78
     2
 67
     7
 79
     5
170
     0
171
     0
290
     0
174
     0
 93
       13
 44
0.0
173
     0
291
     1
 45
0.0
1001
ACAD
1000
AcDbSavedByObjectVersion
1070
     0
1000
AcDbSavedByObjectVersion
1070
     0
  0
ACAD_PROXY_OBJECT
  5
1B9
102
{ACAD_REACTORS
330
17A
102
}
330
17A
100
AcDbProxyObject
 90
      499
 91
      508
 95
  1310743
 70
     1
100
AcDbVisualStyle
  2
FlatWithEdges
 70
     1
 71
     2
 72
     1
 73
     1
 90
        2
 40
-0.6
 41
30.0
 62
     5
 63
     7
 74
     1
 91
        4
 64
     7
 65
   257
 75
     1
175
     1
 42
1.0
 92
        0
 66
   257
 43
1.0
 76
     1
 77
     6
 78
     2
 67
     7
 79
     5
170
     0
171
     0
290
     0
174
     0
 93
       13
 44
0.0
173
     0
291
     1
 45
0.0
1001
ACAD
1000
AcDbSavedByObjectVersion
1070
     0
1000
AcDbSavedByObjectVersion
1070
     0
  0
ACAD_PROXY_OBJECT
  5
1BA
102
{ACAD_REACTORS
330
17A
102
}
330
17A
100
AcDbProxyObject
 90
      499
 91
      508
 95
  1310743
 70
     1
100
AcDbVisualStyle
  2
Gouraud
 70
     2
 71
     2
 72
     2
 73
     1
 90
        2
 40
-0.6
 41
30.0
 62
     5
 63
     7
 74
     0
 91
        4
 64
     7
 65
   257
 75
     1
175
     1
 42
1.0
 92
        0
 66
     7
 43
1.0
 76
     1
 77
     6
 78
     2
 67
     7
 79
     5
170
     0
171
     0
290
     0
174
     0
 93
       13
 44
0.0
173
     0
291
     1
 45
0.0
1001
ACAD
1000
AcDbSavedByObjectVersion
1070
     0
1000
AcDbSavedByObjectVersion
1070
     0
  0
ACAD_PROXY_OBJECT
  5
1BB
102
{ACAD_REACTORS
330
17A
102
}
330
17A
100
AcDbProxyObject
 90
      499
 91
      508
 95
  1310743
 70
     1
100
AcDbVisualStyle
  2
GouraudWithEdges
 70
     3
 71
     2
 72
     2
 73
     1
 90
        2
 40
-0.6
 41
30.0
 62
     5
 63
     7
 74
     1
 91
        4
 64
     7
 65
   257
 75
     1
175
     1
 42
1.0
 92
        0
 66
   257
 43
1.0
 76
     1
 77
     6
 78
     2
 67
     7
 79
     5
170
     0
171
     0
290
     0
174
     0
 93
       13
 44
0.0
173
     0
291
     1
 45
0.0
1001
ACAD
1000
AcDbSavedByObjectVersion
1070
     0
1000
AcDbSavedByObjectVersion
1070
     0
  0
ACAD_PROXY_OBJECT
  5
1C2
102
{ACAD_REACTORS
330
17A
102
}
330
17A
100
AcDbProxyObject
 90
      499
 91
      508
 95
  1310743
 70
     1
100
AcDbVisualStyle
  2
Linepattern
 70
    14
 71
     2
 72
     2
 73
     0
 90
        0
 40
-0.6
 41
-30.0
 62
     5
 63
     7
 74
     1
 91
        4
 64
     7
 65
   257
 75
     7
175
     7
 42
1.0
 92
        8
 66
     7
 43
1.0
 76
     1
 77
     6
 78
     2
 67
     7
 79
     5
170
     0
171
     0
290
     0
174
     0
 93
        1
 44
0.0
173
     0
291
     1
 45
0.0
1001
ACAD
1000
AcDbSavedByObjectVersion
1070
     0
1000
AcDbSavedByObjectVersion
1070
     0
  0
ACAD_PROXY_OBJECT
  5
188
102
{ACAD_REACTORS
330
17A
102
}
330
17A
100
AcDbProxyObject
 90
      499
 91
      508
 95
  1310743
 70
     1
100
AcDbVisualStyle
  2
Realistic
 70
     8
 71
     2
 72
     2
 73
     0
 90
        0
 40
-0.6
 41
-30.0
 62
     5
 63
     7
 74
     1
 91
        0
 64
     7
 65
   257
 75
     1
175
     1
 42
1.0
 92
        8
 66
     8
 43
1.0
 76
     1
 77
     6
 78
     2
 67
     7
 79
     5
170
     0
171
     0
290
     0
174
     0
 93
       13
 44
0.0
173
     0
291
     0
 45
0.0
1001
ACAD
1000
AcDbSavedByObjectVersion
1070
     0
1000
AcDbSavedByObjectVersion
1070
     0
1000
AcDbSavedByObjectVersion
1070
     0
  0
ACAD_PROXY_OBJECT
  5
1C1
102
{ACAD_REACTORS
330
17A
102
}
330
17A
100
AcDbProxyObject
 90
      499
 91
      508
 95
  1310743
 70
     1
100
AcDbVisualStyle
  2
Thicken
 70
    13
 71
     2
 72
     2
 73
     0
 90
        0
 40
-0.6
 41
-30.0
 62
     5
 63
     7
 74
     1
 91
        4
 64
     7
 65
   257
 75
     1
175
     1
 42
1.0
 92
       12
 66
     7
 43
1.0
 76
     1
 77
     6
 78
     2
 67
     7
 79
     5
170
     0
171
     0
290
     0
174
     0
 93
        1
 44
0.0
173
     0
291
     1
 45
0.0
1001
ACAD
1000
AcDbSavedByObjectVersion
1070
     0
1000
AcDbSavedByObjectVersion
1070
     0
  0
DICTIONARYVAR
  5
18C
102
{ACAD_REACTORS
330
18B
102
}
330
18B
100
DictionaryVariables
280
     0
  1
STANDARD
  0
DICTIONARYVAR
  5
190
102
{ACAD_REACTORS
330
18B
102
}
330
18B
100
DictionaryVariables
280
     0
  1
2
  0
DICTIONARYVAR
  5
18F
102
{ACAD_REACTORS
330
18B
102
}
330
18B
100
DictionaryVariables
280
     0
  1
1
  0
DICTIONARYVAR
  5
18E
102
{ACAD_REACTORS
330
18B
102
}
330
18B
100
DictionaryVariables
280
     0
  1
0
  0
DICTIONARYVAR
  5
31D
102
{ACAD_REACTORS
330
18B
102
}
330
18B
100
DictionaryVariables
280
     0
  1

  0
DICTIONARYVAR
  5
18D
102
{ACAD_REACTORS
330
18B
102
}
330
18B
100
DictionaryVariables
280
     0
  1
127
  0
DICTIONARY
  5
1B0
330
183
100
AcDbDictionary
280
     1
281
     1
  3
ACAD_XREC_ROUNDTRIP
360
1B1
  0
DICTIONARY
  5
1AE
330
182
100
AcDbDictionary
280
     1
281
     1
  3
ACAD_XREC_ROUNDTRIP
360
1AF
  0
DICTIONARY
  5
193
330
A
100
AcDbDictionary
280
     1
281
     1
  3
ACAD_XREC_ROUNDTRIP
360
194
  0
DICTIONARY
  5
21A
330
187
100
AcDbDictionary
280
     1
281
     1
  3
ACAD_XREC_ROUNDTRIP
360
21B
  0
XRECORD
  5
1B1
102
{ACAD_REACTORS
330
1B0
102
}
330
1B0
100
AcDbXrecord
280
     1
102
MATERIAL
148
0.0
149
0.0
149
0.0
 93
        0
 94
       63
282
     0
 72
     1
 77
     1
171
     1
175
     1
179
     1
273
     0
  0
XRECORD
  5
1AF
102
{ACAD_REACTORS
330
1AE
102
}
330
1AE
100
AcDbXrecord
280
     1
102
MATERIAL
148
0.0
149
0.0
149
0.0
 93
        0
 94
       63
282
     0
 72
     1
 77
     1
171
     1
175
     1
179
     1
273
     0
  0
XRECORD
  5
194
102
{ACAD_REACTORS
330
193
102
}
330
193
100
AcDbXrecord
280
     1
102
MATERIAL
148
0.0
149
0.0
149
0.0
 93
        0
 94
       63
282
     0
 72
     1
 77
     1
171
     1
175
     1
179
     1
273
     0
  0
XRECORD
  5
21B
102
{ACAD_REACTORS
330
21A
102
}
330
21A
100
AcDbXrecord
280
     1
102
ACAD_ROUNDTRIP_PRE2007_TABLESTYLE
 90
        4
 91
        0
  1

 92
        4
 93
        0
  2

 94
        4
 95
        0
  3

  0
ENDSEC
  0
EOF
