  0
SECTION
  2
HEADER
  9
$ACADVER
  1
AC1018
  9
$ACADMAINTVER
 70
    76
  9
$DWGCODEPAGE
  3
ANSI_1252
  9
$LASTSAVEDBY
  1
simone
  9
$INSBASE
 10
0.0
 20
0.0
 30
0.0
  9
$EXTMIN
 10
0.0149999999999999
 20
0.015
 30
0.0
  9
$EXTMAX
 10
0.4050000000000001
 20
0.282
 30
0.0
  9
$LIMMIN
 10
0.0
 20
0.0
  9
$LIMMAX
 10
1.0
 20
0.5
  9
$ORTHOMODE
 70
     0
  9
$REGENMODE
 70
     1
  9
$FILLMODE
 70
     1
  9
$QTEXTMODE
 70
     0
  9
$MIRRTEXT
 70
     0
  9
$LTSCALE
 40
1.0
  9
$ATTMODE
 70
     1
  9
$TEXTSIZE
 40
0.005
  9
$TRACEWID
 40
1.0
  9
$TEXTSTYLE
  7
style1
  9
$CLAYER
  8
Dimensione
  9
$CELTYPE
  6
ByLayer
  9
$CECOLOR
 62
   256
  9
$CELTSCALE
 40
1.0
  9
$DISPSILH
 70
     0
  9
$DIMSCALE
 40
0.001
  9
$DIMASZ
 40
1.5
  9
$DIMEXO
 40
0.0625
  9
$DIMDLI
 40
0.38
  9
$DIMRND
 40
0.0
  9
$DIMDLE
 40
0.0
  9
$DIMEXE
 40
0.18
  9
$DIMTP
 40
0.0
  9
$DIMTM
 40
0.0
  9
$DIMTXT
 40
3.0
  9
$DIMCEN
 40
0.0
  9
$DIMTSZ
 40
0.0
  9
$DIMTOL
 70
     0
  9
$DIMLIM
 70
     0
  9
$DIMTIH
 70
     1
  9
$DIMTOH
 70
     1
  9
$DIMSE1
 70
     0
  9
$DIMSE2
 70
     0
  9
$DIMTAD
 70
     0
  9
$DIMZIN
 70
     0
  9
$DIMBLK
  1
ArchTick
  9
$DIMASO
 70
     1
  9
$DIMSHO
 70
     1
  9
$DIMPOST
  1

  9
$DIMAPOST
  1

  9
$DIMALT
 70
     0
  9
$DIMALTD
 70
     2
  9
$DIMALTF
 40
25.4
  9
$DIMLFAC
 40
1.0
  9
$DIMTOFL
 70
     0
  9
$DIMTVP
 40
0.0
  9
$DIMTIX
 70
     0
  9
$DIMSOXD
 70
     0
  9
$DIMSAH
 70
     0
  9
$DIMBLK1
  1

  9
$DIMBLK2
  1

  9
$DIMSTYLE
  2
Bovelacci
  9
$DIMCLRD
 70
     5
  9
$DIMCLRE
 70
     5
  9
$DIMCLRT
 70
     4
  9
$DIMTFAC
 40
1.0
  9
$DIMGAP
 40
2.0
  9
$DIMJUST
 70
     0
  9
$DIMSD1
 70
     0
  9
$DIMSD2
 70
     0
  9
$DIMTOLJ
 70
     1
  9
$DIMTZIN
 70
     0
  9
$DIMALTZ
 70
     0
  9
$DIMALTTZ
 70
     0
  9
$DIMUPT
 70
     0
  9
$DIMDEC
 70
     2
  9
$DIMTDEC
 70
     2
  9
$DIMALTU
 70
     2
  9
$DIMALTTD
 70
     2
  9
$DIMTXSTY
  7
ROMANS
  9
$DIMAUNIT
 70
     0
  9
$DIMADEC
 70
     0
  9
$DIMALTRND
 40
0.0
  9
$DIMAZIN
 70
     0
  9
$DIMDSEP
 70
    46
  9
$DIMATFIT
 70
     3
  9
$DIMFRAC
 70
     0
  9
$DIMLDRBLK
  1

  9
$DIMLUNIT
 70
     2
  9
$DIMLWD
 70
    -2
  9
$DIMLWE
 70
    -2
  9
$DIMTMOVE
 70
     2
  9
$LUNITS
 70
     2
  9
$LUPREC
 70
     2
  9
$SKETCHINC
 40
1.0
  9
$FILLETRAD
 40
0.0
  9
$AUNITS
 70
     0
  9
$AUPREC
 70
     0
  9
$MENU
  1
.
  9
$ELEVATION
 40
0.0
  9
$PELEVATION
 40
0.0
  9
$THICKNESS
 40
0.0
  9
$LIMCHECK
 70
     0
  9
$CHAMFERA
 40
0.0
  9
$CHAMFERB
 40
0.0
  9
$CHAMFERC
 40
0.0
  9
$CHAMFERD
 40
0.0
  9
$SKPOLY
 70
     0
  9
$TDCREATE
 40
2454297.625402373
  9
$TDUCREATE
 40
2454297.542069039
  9
$TDUPDATE
 40
2454369.644150567
  9
$TDUUPDATE
 40
2454369.560817234
  9
$TDINDWG
 40
0.3993677778
  9
$TDUSRTIMER
 40
0.3993672222
  9
$USRTIMER
 70
     1
  9
$ANGBASE
 50
0.0
  9
$ANGDIR
 70
     0
  9
$PDMODE
 70
     0
  9
$PDSIZE
 40
0.0
  9
$PLINEWID
 40
0.0
  9
$SPLFRAME
 70
     0
  9
$SPLINETYPE
 70
     6
  9
$SPLINESEGS
 70
     8
  9
$HANDSEED
  5
3111
  9
$SURFTAB1
 70
     6
  9
$SURFTAB2
 70
     6
  9
$SURFTYPE
 70
     6
  9
$SURFU
 70
     6
  9
$SURFV
 70
     6
  9
$UCSBASE
  2

  9
$UCSNAME
  2

  9
$UCSORG
 10
0.0
 20
0.0
 30
0.0
  9
$UCSXDIR
 10
1.0
 20
0.0
 30
0.0
  9
$UCSYDIR
 10
0.0
 20
1.0
 30
0.0
  9
$UCSORTHOREF
  2

  9
$UCSORTHOVIEW
 70
     0
  9
$UCSORGTOP
 10
0.0
 20
0.0
 30
0.0
  9
$UCSORGBOTTOM
 10
0.0
 20
0.0
 30
0.0
  9
$UCSORGLEFT
 10
0.0
 20
0.0
 30
0.0
  9
$UCSORGRIGHT
 10
0.0
 20
0.0
 30
0.0
  9
$UCSORGFRONT
 10
0.0
 20
0.0
 30
0.0
  9
$UCSORGBACK
 10
0.0
 20
0.0
 30
0.0
  9
$PUCSBASE
  2

  9
$PUCSNAME
  2

  9
$PUCSORG
 10
0.0
 20
0.0
 30
0.0
  9
$PUCSXDIR
 10
1.0
 20
0.0
 30
0.0
  9
$PUCSYDIR
 10
0.0
 20
1.0
 30
0.0
  9
$PUCSORTHOREF
  2

  9
$PUCSORTHOVIEW
 70
     0
  9
$PUCSORGTOP
 10
0.0
 20
0.0
 30
0.0
  9
$PUCSORGBOTTOM
 10
0.0
 20
0.0
 30
0.0
  9
$PUCSORGLEFT
 10
0.0
 20
0.0
 30
0.0
  9
$PUCSORGRIGHT
 10
0.0
 20
0.0
 30
0.0
  9
$PUCSORGFRONT
 10
0.0
 20
0.0
 30
0.0
  9
$PUCSORGBACK
 10
0.0
 20
0.0
 30
0.0
  9
$USERI1
 70
     0
  9
$USERI2
 70
     0
  9
$USERI3
 70
     0
  9
$USERI4
 70
     0
  9
$USERI5
 70
     0
  9
$USERR1
 40
0.0
  9
$USERR2
 40
0.0
  9
$USERR3
 40
0.0
  9
$USERR4
 40
0.0
  9
$USERR5
 40
0.0
  9
$WORLDVIEW
 70
     1
  9
$SHADEDGE
 70
     3
  9
$SHADEDIF
 70
    70
  9
$TILEMODE
 70
     1
  9
$MAXACTVP
 70
    64
  9
$PINSBASE
 10
0.0
 20
0.0
 30
0.0
  9
$PLIMCHECK
 70
     0
  9
$PEXTMIN
 10
29.06606628894805
 20
20.36233246326446
 30
0.0
  9
$PEXTMAX
 10
261.5945966005325
 20
183.2609921693802
 30
0.0
  9
$PLIMMIN
 10
-3.17498779296875
 20
-3.174999952316281
  9
$PLIMMAX
 10
293.8356628417969
 20
206.7983276844024
  9
$UNITMODE
 70
     0
  9
$VISRETAIN
 70
     1
  9
$PLINEGEN
 70
     0
  9
$PSLTSCALE
 70
     1
  9
$TREEDEPTH
 70
  3020
  9
$CMLSTYLE
  2
Standard
  9
$CMLJUST
 70
     0
  9
$CMLSCALE
 40
20.0
  9
$PROXYGRAPHICS
 70
     1
  9
$MEASUREMENT
 70
     1
  9
$CELWEIGHT
370
    -1
  9
$ENDCAPS
280
     0
  9
$JOINSTYLE
280
     0
  9
$LWDISPLAY
290
     0
  9
$INSUNITS
 70
     4
  9
$HYPERLINKBASE
  1

  9
$STYLESHEET
  1

  9
$XEDIT
290
     1
  9
$CEPSNTYPE
380
     0
  9
$PSTYLEMODE
290
     1
  9
$FINGERPRINTGUID
  2
{4F38C4E7-9F37-4C76-96D9-79C94F9B03D9}
  9
$VERSIONGUID
  2
{9FCA5A49-445E-4F79-AE83-6A269858B821}
  9
$EXTNAMES
290
     1
  9
$PSVPSCALE
 40
0.0
  9
$OLESTARTUP
290
     0
  9
$SORTENTS
280
   127
  9
$INDEXCTL
280
     0
  9
$HIDETEXT
280
     1
  9
$XCLIPFRAME
290
     0
  9
$HALOGAP
280
     0
  9
$OBSCOLOR
 70
   257
  9
$OBSLTYPE
280
     0
  9
$INTERSECTIONDISPLAY
280
     0
  9
$INTERSECTIONCOLOR
 70
   257
  9
$DIMASSOC
280
     2
  9
$PROJECTNAME
  1

  0
ENDSEC
  0
SECTION
  2
CLASSES
  0
CLASS
  1
ACDBDICTIONARYWDFLT
  2
AcDbDictionaryWithDefault
  3
ObjectDBX Classes
 90
        0
 91
        1
280
     0
281
     0
  0
CLASS
  1
TABLESTYLE
  2
AcDbTableStyle
  3
ObjectDBX Classes
 90
     2047
 91
        1
280
     0
281
     0
  0
CLASS
  1
SORTENTSTABLE
  2
AcDbSortentsTable
  3
ObjectDBX Classes
 90
        0
 91
        1
280
     0
281
     0
  0
CLASS
  1
DICTIONARYVAR
  2
AcDbDictionaryVar
  3
ObjectDBX Classes
 90
        0
 91
        6
280
     0
281
     0
  0
CLASS
  1
DIMASSOC
  2
AcDbDimAssoc
  3
"AcDbDimAssoc|Product Desc:     AcDim ARX App For Dimension|Company:          Autodesk, Inc.|WEB Address:      www.autodesk.com"
 90
        0
 91
        2
280
     0
281
     0
  0
CLASS
  1
ACDBPLACEHOLDER
  2
AcDbPlaceHolder
  3
ObjectDBX Classes
 90
        0
 91
        1
280
     0
281
     0
  0
CLASS
  1
LAYOUT
  2
AcDbLayout
  3
ObjectDBX Classes
 90
        0
 91
        3
280
     0
281
     0
  0
CLASS
  1
MATERIAL
  2
AcDbMaterial
  3
ObjectDBX Classes
 90
        0
 91
        3
280
     0
281
     0
  0
CLASS
  1
VISUALSTYLE
  2
AcDbVisualStyle
  3
ObjectDBX Classes
 90
     4095
 91
       16
280
     0
281
     0
  0
CLASS
  1
ACAD_EVALUATION_GRAPH
  2
AcDbEvalGraph
  3
ObjectDBX Classes
 90
     1153
 91
        0
280
     0
281
     0
  0
CLASS
  1
ACAECUSTOBJ
  2
AcAeEditorObj
  3
AcAeEditorObj
 90
     1024
 91
        0
280
     0
281
     0
  0
CLASS
  1
ACDB_DYNAMICBLOCKPURGEPREVENTER_VERSION
  2
AcDbDynamicBlockPurgePreventer
  3
ObjectDBX Classes
 90
     1153
 91
        0
280
     0
281
     0
  0
ENDSEC
  0
SECTION
  2
TABLES
  0
TABLE
  2
VPORT
  5
96
330
0
100
AcDbSymbolTable
 70
     2
  0
VPORT
  5
3110
330
96
100
AcDbSymbolTableRecord
100
AcDbViewportTableRecord
  2
*Active
 70
     0
 10
0.0
 20
0.0
 11
1.0
 21
1.0
 12
0.2093604190150274
 22
0.1665315501153585
 13
0.0
 23
0.0
 14
10.0
 24
10.0
 15
10.0
 25
10.0
 16
0.0
 26
0.0
 36
1.0
 17
0.0
 27
0.0
 37
0.0
 40
0.3173343939599886
 41
1.362928348909657
 42
50.0
 43
0.0
 44
0.0
 50
0.0
 51
0.0
 71
     0
 72
  1000
 73
     1
 74
     3
 75
     0
 76
     0
 77
     0
 78
     0
281
     0
 65
     1
110
0.0
120
0.0
130
0.0
111
1.0
121
0.0
131
0.0
112
0.0
122
1.0
132
0.0
 79
     0
146
0.0
  0
ENDTAB
  0
TABLE
  2
LTYPE
  5
91
330
0
100
AcDbSymbolTable
 70
     1
  0
LTYPE
  5
92
330
91
100
AcDbSymbolTableRecord
100
AcDbLinetypeTableRecord
  2
ByBlock
 70
     0
  3

 72
    65
 73
     0
 40
0.0
  0
LTYPE
  5
93
330
91
100
AcDbSymbolTableRecord
100
AcDbLinetypeTableRecord
  2
ByLayer
 70
     0
  3

 72
    65
 73
     0
 40
0.0
  0
LTYPE
  5
C
330
91
100
AcDbSymbolTableRecord
100
AcDbLinetypeTableRecord
  2
Continuous
 70
     0
  3
Solid line
 72
    65
 73
     0
 40
0.0
  0
ENDTAB
  0
TABLE
  2
LAYER
  5
8A
102
{ACAD_XDICTIONARY
360
8B
102
}
330
0
100
AcDbSymbolTable
 70
     7
  0
LAYER
  5
6
330
8A
100
AcDbSymbolTableRecord
100
AcDbLayerTableRecord
  2
0
 70
     0
 62
     7
  6
Continuous
370
    -3
390
7
  0
LAYER
  5
3F
330
8A
100
AcDbSymbolTableRecord
100
AcDbLayerTableRecord
  2
Defpoints
 70
     0
 62
     7
  6
Continuous
290
     0
370
    -3
390
7
  0
LAYER
  5
2E
330
8A
100
AcDbSymbolTableRecord
100
AcDbLayerTableRecord
  2
Dimensione
 70
     0
 62
   150
  6
Continuous
370
    -3
390
7
1001
AcAecLayerStandard
1000

1000

  0
LAYER
  5
54
330
8A
100
AcDbSymbolTableRecord
100
AcDbLayerTableRecord
  2
Sezione
 70
     0
 62
     2
  6
Continuous
370
    -3
390
7
1001
AcAecLayerStandard
1000

1000

  0
LAYER
  5
E
330
8A
100
AcDbSymbolTableRecord
100
AcDbLayerTableRecord
  2
Table
 70
     0
 62
     3
  6
Continuous
370
    -3
390
7
1001
AcAecLayerStandard
1000

1000

  0
LAYER
  5
19
330
8A
100
AcDbSymbolTableRecord
100
AcDbLayerTableRecord
  2
Text
 70
     0
 62
     4
  6
Continuous
370
    -3
390
7
1001
AcAecLayerStandard
1000

1000

  0
LAYER
  5
25D5
330
8A
100
AcDbSymbolTableRecord
100
AcDbLayerTableRecord
  2
Profilo
 70
     0
 62
     1
  6
Continuous
370
    -3
390
7
1001
AcAecLayerStandard
1000

1000

  0
ENDTAB
  0
TABLE
  2
STYLE
  5
8F
330
0
100
AcDbSymbolTable
 70
     4
  0
STYLE
  5
1A
330
8F
100
AcDbSymbolTableRecord
100
AcDbTextStyleTableRecord
  2
Standard
 70
     0
 40
0.0
 41
1.0
 50
0.0
 71
     0
 42
2.5
  3
txt
  4

  0
STYLE
  5
20
330
8F
100
AcDbSymbolTableRecord
100
AcDbTextStyleTableRecord
  2
ROMANS
 70
     0
 40
0.0
 41
1.0
 50
0.0
 71
     0
 42
2.5
  3
romans
  4

  0
STYLE
  5
28
330
8F
100
AcDbSymbolTableRecord
100
AcDbTextStyleTableRecord
  2
Arial
 70
     0
 40
0.0
 41
1.0
 50
0.0
 71
     0
 42
0.25
  3
ARIAL.TTF
  4

1001
ACAD
1000
Arial
1071
       34
  0
STYLE
  5
26
330
8F
100
AcDbSymbolTableRecord
100
AcDbTextStyleTableRecord
  2
style1
 70
     0
 40
0.0
 41
1.0
 50
0.0
 71
     0
 42
0.005
  3
TIMES.TTF
  4

1001
ACAD
1000
Times New Roman
1071
       18
  0
ENDTAB
  0
TABLE
  2
VIEW
  5
94
330
0
100
AcDbSymbolTable
 70
     0
  0
ENDTAB
  0
TABLE
  2
UCS
  5
95
330
0
100
AcDbSymbolTable
 70
     0
  0
ENDTAB
  0
TABLE
  2
APPID
  5
98
330
0
100
AcDbSymbolTable
 70
    14
  0
APPID
  5
1B
330
98
100
AcDbSymbolTableRecord
100
AcDbRegAppTableRecord
  2
ACAD
 70
     0
  0
APPID
  5
34
330
98
100
AcDbSymbolTableRecord
100
AcDbRegAppTableRecord
  2
ACAD_DSTYLE_DIMJOGGED_JOGANGLE_SYMBOL
 70
     0
  0
APPID
  5
F
330
98
100
AcDbSymbolTableRecord
100
AcDbRegAppTableRecord
  2
AcAecLayerStandard
 70
     0
  0
APPID
  5
85
330
98
100
AcDbSymbolTableRecord
100
AcDbRegAppTableRecord
  2
ACAD_PSEXT
 70
     0
  0
APPID
  5
BA
330
98
100
AcDbSymbolTableRecord
100
AcDbRegAppTableRecord
  2
ACAD_DSTYLE_DIMEXT_LENGTH
 70
     0
  0
APPID
  5
101
330
98
100
AcDbSymbolTableRecord
100
AcDbRegAppTableRecord
  2
ACAD_EXEMPT_FROM_CAD_STANDARDS
 70
     0
  0
APPID
  5
102
330
98
100
AcDbSymbolTableRecord
100
AcDbRegAppTableRecord
  2
ACAD_DSTYLE_DIM_LINETYPE
 70
     0
  0
APPID
  5
103
330
98
100
AcDbSymbolTableRecord
100
AcDbRegAppTableRecord
  2
ACAD_DSTYLE_DIM_EXT1_LINETYPE
 70
     0
  0
APPID
  5
104
330
98
100
AcDbSymbolTableRecord
100
AcDbRegAppTableRecord
  2
ACAD_DSTYLE_DIM_EXT2_LINETYPE
 70
     0
  0
APPID
  5
10D5
330
98
100
AcDbSymbolTableRecord
100
AcDbRegAppTableRecord
  2
ACAUTHENVIRON
 70
     0
  0
APPID
  5
10D9
330
98
100
AcDbSymbolTableRecord
100
AcDbRegAppTableRecord
  2
AcDbDynamicBlockTrueName
 70
     0
  0
APPID
  5
10DA
330
98
100
AcDbSymbolTableRecord
100
AcDbRegAppTableRecord
  2
AcDbDynamicBlockGUID
 70
     0
  0
APPID
  5
10DC
330
98
100
AcDbSymbolTableRecord
100
AcDbRegAppTableRecord
  2
AcDbBlockRepETag
 70
     0
  0
APPID
  5
249F
330
98
100
AcDbSymbolTableRecord
100
AcDbRegAppTableRecord
  2
DCO15
 70
     0
  0
ENDTAB
  0
TABLE
  2
DIMSTYLE
  5
99
330
0
100
AcDbSymbolTable
 70
     2
100
AcDbDimStyleTable
 71
     1
340
2F
  0
DIMSTYLE
105
2F
102
{ACAD_REACTORS
330
309F
330
30AD
330
30C7
102
}
330
99
100
AcDbSymbolTableRecord
100
AcDbDimStyleTableRecord
  2
Bovelacci
 70
     0
 40
0.001
 41
1.5
140
3.0
141
0.0
147
2.0
176
     5
177
     5
178
     4
271
     2
272
     2
279
     2
340
20
342
30
1001
ACAD_DSTYLE_DIMJOGGED_JOGANGLE_SYMBOL
1070
   384
1040
0.7853981633974483
1001
ACAD_DSTYLE_DIMEXT_LENGTH
1070
   378
1040
0.18
  0
DIMSTYLE
105
194
330
99
100
AcDbSymbolTableRecord
100
AcDbDimStyleTableRecord
  2
STANDARD
 70
     0
340
1A
  0
ENDTAB
  0
TABLE
  2
BLOCK_RECORD
  5
1
330
0
100
AcDbSymbolTable
 70
    18
  0
BLOCK_RECORD
  5
2
102
{ACAD_XDICTIONARY
360
3
102
}
330
1
100
AcDbSymbolTableRecord
100
AcDbBlockTableRecord
  2
*Model_Space
340
77
  0
BLOCK_RECORD
  5
79
330
1
100
AcDbSymbolTableRecord
100
AcDbBlockTableRecord
  2
*Paper_Space
340
82
  0
BLOCK_RECORD
  5
86
330
1
100
AcDbSymbolTableRecord
100
AcDbBlockTableRecord
  2
*Paper_Space0
340
89
  0
BLOCK_RECORD
  5
30
330
1
100
AcDbSymbolTableRecord
100
AcDbBlockTableRecord
  2
_ArchTick
340
0
310
2800000020000000200000000100080000000000000400000000000000000000000000000000000000000000000080000080000000808000800000008000800080800000C0C0C000C0DCC000F0CAA6000020400000206000002080000020A0000020C0000020E00000400000004020000040400000406000004080000040A0
310
000040C0000040E00000600000006020000060400000606000006080000060A0000060C0000060E00000800000008020000080400000806000008080000080A0000080C0000080E00000A0000000A0200000A0400000A0600000A0800000A0A00000A0C00000A0E00000C0000000C0200000C0400000C0600000C0800000C0
310
A00000C0C00000C0E00000E0000000E0200000E0400000E0600000E0800000E0A00000E0C00000E0E00040000000400020004000400040006000400080004000A0004000C0004000E00040200000402020004020400040206000402080004020A0004020C0004020E000404000004040200040404000404060004040800040
310
40A0004040C0004040E00040600000406020004060400040606000406080004060A0004060C0004060E00040800000408020004080400040806000408080004080A0004080C0004080E00040A0000040A0200040A0400040A0600040A0800040A0A00040A0C00040A0E00040C0000040C0200040C0400040C0600040C08000
310
40C0A00040C0C00040C0E00040E0000040E0200040E0400040E0600040E0800040E0A00040E0C00040E0E00080000000800020008000400080006000800080008000A0008000C0008000E00080200000802020008020400080206000802080008020A0008020C0008020E00080400000804020008040400080406000804080
310
008040A0008040C0008040E00080600000806020008060400080606000806080008060A0008060C0008060E00080800000808020008080400080806000808080008080A0008080C0008080E00080A0000080A0200080A0400080A0600080A0800080A0A00080A0C00080A0E00080C0000080C0200080C0400080C0600080C0
310
800080C0A00080C0C00080C0E00080E0000080E0200080E0400080E0600080E0800080E0A00080E0C00080E0E000C0000000C0002000C0004000C0006000C0008000C000A000C000C000C000E000C0200000C0202000C0204000C0206000C0208000C020A000C020C000C020E000C0400000C0402000C0404000C0406000C0
310
408000C040A000C040C000C040E000C0600000C0602000C0604000C0606000C0608000C060A000C060C000C060E000C0800000C0802000C0804000C0806000C0808000C080A000C080C000C080E000C0A00000C0A02000C0A04000C0A06000C0A08000C0A0A000C0A0C000C0A0E000C0C00000C0C02000C0C04000C0C06000
310
C0C08000C0C0A000F0FBFF00A4A0A000808080000000FF0000FF000000FFFF00FF000000FF00FF00FFFF0000FFFFFF00000000FF000000000000000000000000000000000000000000000000000000000000FF00FF00000000000000000000000000000000000000000000000000000000FF000000FF000000000000000000
310
0000000000000000000000000000000000FF0000000000FF0000000000000000000000000000000000000000000000000000FF0000000000FF0000000000000000000000000000000000000000000000000000FF0000000000FF0000000000000000000000000000000000000000000000000000FF0000000000FF00000000
310
00000000000000000000000000000000000000000000FF0000000000FF0000000000000000000000000000000000000000000000000000FF0000000000FF0000000000000000000000000000000000000000000000000000FF0000000000FF0000000000000000000000000000000000000000000000000000FF0000000000
310
FF0000000000000000000000000000000000000000000000000000FF0000000000FF0000000000000000000000000000000000000000000000000000FF0000000000FF0000000000000000000000000000000000000000000000000000FF0000000000FF0000000000000000000000000000000000000000000000000000FF
310
0000000000FF0000000000000000000000000000000000000000000000000000FF0000000000FF0000000000000000000000000000000000000000000000000000FF0000000000FF0000000000000000000000000000000000000000000000000000FF0000000000FF00000000000000000000000000000000000000000000
310
00000000FF0000000000FF0000000000000000000000000000000000000000000000000000FF0000000000FF0000000000000000000000000000000000000000000000000000FF0000000000FF0000000000000000000000000000000000000000000000000000FF0000000000FF0000000000000000000000000000000000
310
000000000000000000FF0000000000FF0000000000000000000000000000000000000000000000000000FF0000000000FF0000000000000000000000000000000000000000000000000000FF0000000000FF0000000000000000000000000000000000000000000000000000FF0000000000FF000000000000000000000000
310
0000000000000000000000000000FF0000000000FF0000000000000000000000000000000000000000000000000000FF0000000000FF0000000000000000000000000000000000000000000000000000FF0000000000FF0000000000000000000000000000000000000000000000000000FF000000FF000000000000000000
310
00000000000000000000000000000000000000FF00FF000000000000000000000000000000000000000000000000000000000000FF000000
102
{BLKREFS
331
2B84
331
2B85
331
2B8E
331
2B8F
331
2D36
331
2D37
331
2D4F
331
2D50
331
2D82
331
2D83
331
2E0D
331
2E0E
331
2E73
331
2E74
331
2E8D
331
2E8E
331
3077
331
3078
331
3081
331
3082
331
3096
331
3097
331
30E5
331
30E6
331
30EF
331
30F0
331
30F9
331
30FA
102
}
  0
BLOCK_RECORD
  5
4E0
330
1
100
AcDbSymbolTableRecord
100
AcDbBlockTableRecord
  2
_Arrivo
340
0
310
2800000020000000200000000100080000000000000400000000000000000000000000000000000000000000000080000080000000808000800000008000800080800000C0C0C000C0DCC000F0CAA6000020400000206000002080000020A0000020C0000020E00000400000004020000040400000406000004080000040A0
310
000040C0000040E00000600000006020000060400000606000006080000060A0000060C0000060E00000800000008020000080400000806000008080000080A0000080C0000080E00000A0000000A0200000A0400000A0600000A0800000A0A00000A0C00000A0E00000C0000000C0200000C0400000C0600000C0800000C0
310
A00000C0C00000C0E00000E0000000E0200000E0400000E0600000E0800000E0A00000E0C00000E0E00040000000400020004000400040006000400080004000A0004000C0004000E00040200000402020004020400040206000402080004020A0004020C0004020E000404000004040200040404000404060004040800040
310
40A0004040C0004040E00040600000406020004060400040606000406080004060A0004060C0004060E00040800000408020004080400040806000408080004080A0004080C0004080E00040A0000040A0200040A0400040A0600040A0800040A0A00040A0C00040A0E00040C0000040C0200040C0400040C0600040C08000
310
40C0A00040C0C00040C0E00040E0000040E0200040E0400040E0600040E0800040E0A00040E0C00040E0E00080000000800020008000400080006000800080008000A0008000C0008000E00080200000802020008020400080206000802080008020A0008020C0008020E00080400000804020008040400080406000804080
310
008040A0008040C0008040E00080600000806020008060400080606000806080008060A0008060C0008060E00080800000808020008080400080806000808080008080A0008080C0008080E00080A0000080A0200080A0400080A0600080A0800080A0A00080A0C00080A0E00080C0000080C0200080C0400080C0600080C0
310
800080C0A00080C0C00080C0E00080E0000080E0200080E0400080E0600080E0800080E0A00080E0C00080E0E000C0000000C0002000C0004000C0006000C0008000C000A000C000C000C000E000C0200000C0202000C0204000C0206000C0208000C020A000C020C000C020E000C0400000C0402000C0404000C0406000C0
310
408000C040A000C040C000C040E000C0600000C0602000C0604000C0606000C0608000C060A000C060C000C060E000C0800000C0802000C0804000C0806000C0808000C080A000C080C000C080E000C0A00000C0A02000C0A04000C0A06000C0A08000C0A0A000C0A0C000C0A0E000C0C00000C0C02000C0C04000C0C06000
310
C0C08000C0C0A000F0FBFF00A4A0A000808080000000FF0000FF000000FFFF00FF000000FF00FF00FFFF0000FFFFFF00000000000000000000000000000000000000000000000000000000000000000000000000000000000000FF0000000000000000000000000000000000000000000000000000000000000000FF000000
310
00000000000000000000000000000000000000000000000000000000FF0000000000000000000000000000000000000000000000000000000000000000FF00000000000000000000000000000000000000000000000000000000000000FF0000000000000000000000000000000000000000000000000000000000000000FF
310
0000000000000000000000000000000000000000000000000000000000000000FF00000000000000000000000000000000000000000000000000000000000000FF0000000000000000000000000000000000000000000000000000000000000000FF0000000000000000000000000000000000000000000000000000000000
310
0000FF0000000000000000000000000000000000000000000000000000000000000000FF00000000000000000000000000000000000000000000000000000000000000FF0000000000000000000000000000000000000000000000000000000000000000FF0000FF0000000000000000000000000000000000000000000000
310
000000000000FFFF000000000000000000000000000000000000000000000000000000000000FFFF00000000000000000000000000000000000000000000000000000000FFFFFFFFFFFF00000000000000000000000000000000000000000000000000000000FFFF0000000000000000000000000000000000000000000000
310
000000000000FF0000FF000000000000000000000000000000000000000000000000000000FF00000000000000000000000000000000000000000000000000000000000000FF000000000000000000000000000000000000000000000000000000000000FF0000000000000000000000000000000000000000000000000000
310
0000000000FF000000000000000000000000000000000000000000000000000000000000FF00000000000000000000000000000000000000000000000000000000000000FF000000000000000000000000000000000000000000000000000000000000FF000000000000000000000000000000000000000000000000000000
310
000000FF00000000000000000000000000000000000000000000000000000000000000FF000000000000000000000000000000000000000000000000000000000000FF00000000000000000000000000000000000000000000000000000000000000FF00000000000000000000000000000000000000000000000000000000
310
0000FF0000000000000000000000000000000000000000000000000000000000000000000000000000000000000000000000000000000000
  0
BLOCK_RECORD
  5
4E6
330
1
100
AcDbSymbolTableRecord
100
AcDbBlockTableRecord
  2
_Partenza
340
0
310
2800000020000000200000000100080000000000000400000000000000000000000000000000000000000000000080000080000000808000800000008000800080800000C0C0C000C0DCC000F0CAA6000020400000206000002080000020A0000020C0000020E00000400000004020000040400000406000004080000040A0
310
000040C0000040E00000600000006020000060400000606000006080000060A0000060C0000060E00000800000008020000080400000806000008080000080A0000080C0000080E00000A0000000A0200000A0400000A0600000A0800000A0A00000A0C00000A0E00000C0000000C0200000C0400000C0600000C0800000C0
310
A00000C0C00000C0E00000E0000000E0200000E0400000E0600000E0800000E0A00000E0C00000E0E00040000000400020004000400040006000400080004000A0004000C0004000E00040200000402020004020400040206000402080004020A0004020C0004020E000404000004040200040404000404060004040800040
310
40A0004040C0004040E00040600000406020004060400040606000406080004060A0004060C0004060E00040800000408020004080400040806000408080004080A0004080C0004080E00040A0000040A0200040A0400040A0600040A0800040A0A00040A0C00040A0E00040C0000040C0200040C0400040C0600040C08000
310
40C0A00040C0C00040C0E00040E0000040E0200040E0400040E0600040E0800040E0A00040E0C00040E0E00080000000800020008000400080006000800080008000A0008000C0008000E00080200000802020008020400080206000802080008020A0008020C0008020E00080400000804020008040400080406000804080
310
008040A0008040C0008040E00080600000806020008060400080606000806080008060A0008060C0008060E00080800000808020008080400080806000808080008080A0008080C0008080E00080A0000080A0200080A0400080A0600080A0800080A0A00080A0C00080A0E00080C0000080C0200080C0400080C0600080C0
310
800080C0A00080C0C00080C0E00080E0000080E0200080E0400080E0600080E0800080E0A00080E0C00080E0E000C0000000C0002000C0004000C0006000C0008000C000A000C000C000C000E000C0200000C0202000C0204000C0206000C0208000C020A000C020C000C020E000C0400000C0402000C0404000C0406000C0
310
408000C040A000C040C000C040E000C0600000C0602000C0604000C0606000C0608000C060A000C060C000C060E000C0800000C0802000C0804000C0806000C0808000C080A000C080C000C080E000C0A00000C0A02000C0A04000C0A06000C0A08000C0A0A000C0A0C000C0A0E000C0C00000C0C02000C0C04000C0C06000
310
C0C08000C0C0A000F0FBFF00A4A0A000808080000000FF0000FF000000FFFF00FF000000FF00FF00FFFF0000FFFFFF0000000000000000000000000000000000000000000000000000000000000000000000000000000000000000000000000000000000000000000000000000000000000000000000000000000000000000
310
000000000000000000000000000000000000000000000000000000000000000000000000000000000000000000000000000000000000000000000000000000000000000000000000000000000000000000000000000000000000000000000000000000000000000000000000000000000000FFFFFFFFFFFFFFFFFFFFFFFFFF
310
FFFFFFFFFFFFFFFFFFFFFFFFFFFFFFFFFF0000000000000000000000000000000000000000000000000000000000000000000000000000000000000000000000000000000000000000000000000000000000000000000000000000000000000000000000000000000000000000000000000000000000000000000000000000
310
00000000000000000000000000000000000000000000000000000000000000000000000000000000000000000000000000000000000000000000000000000000000000000000000000000000000000000000000000000000000000000000000000000000000000000000000000000000000000000000000000000000000000
310
00000000000000000000000000000000000000000000000000000000000000000000000000000000000000000000000000000000000000000000000000000000000000000000000000000000000000000000000000000000000000000000000000000000000000000000000000000000000000000000000000000000000000
310
00000000000000000000000000000000000000000000000000000000000000000000000000000000000000000000000000000000000000000000000000000000000000000000000000000000000000000000000000000000000000000000000000000000000000000000000000000000000000000000000000000000000000
310
000000000000000000000000000000000000000000000000000000000000000000000000000000000000000000000000000000000000000000000000000000000000000000000000000000000000000000000000000000FFFFFFFFFFFFFFFFFFFFFFFFFFFFFFFFFFFFFFFFFFFFFFFFFFFFFFFFFFFF00000000000000000000
310
00000000000000000000000000000000000000000000000000000000000000000000000000000000000000000000000000000000000000000000000000000000000000000000000000000000000000000000000000000000000000000000000000000000000000000000000000000000000000000000000000000000000000
310
0000000000000000000000000000000000000000000000000000000000000000000000000000000000000000000000000000000000000000
  0
BLOCK_RECORD
  5
30A0
330
1
100
AcDbSymbolTableRecord
100
AcDbBlockTableRecord
  2
*D15
340
0
  0
BLOCK_RECORD
  5
30AE
330
1
100
AcDbSymbolTableRecord
100
AcDbBlockTableRecord
  2
*D16
340
0
  0
BLOCK_RECORD
  5
30C8
330
1
100
AcDbSymbolTableRecord
100
AcDbBlockTableRecord
  2
*D17
340
0
  0
ENDTAB
  0
ENDSEC
  0
SECTION
  2
BLOCKS
  0
BLOCK
  5
5
330
2
100
AcDbEntity
  8
0
100
AcDbBlockBegin
  2
*Model_Space
 70
     0
 10
0.0
 20
0.0
 30
0.0
  3
*Model_Space
  1

  0
ENDBLK
  5
76
330
2
100
AcDbEntity
  8
0
100
AcDbBlockEnd
  0
BLOCK
  5
7A
330
79
100
AcDbEntity
 67
     1
  8
0
100
AcDbBlockBegin
  2
*Paper_Space
 70
     0
 10
0.0
 20
0.0
 30
0.0
  3
*Paper_Space
  1

  0
ENDBLK
  5
81
330
79
100
AcDbEntity
 67
     1
  8
0
100
AcDbBlockEnd
  0
BLOCK
  5
87
330
86
100
AcDbEntity
 67
     1
  8
0
100
AcDbBlockBegin
  2
*Paper_Space0
 70
     0
 10
0.0
 20
0.0
 30
0.0
  3
*Paper_Space0
  1

  0
ENDBLK
  5
88
330
86
100
AcDbEntity
 67
     1
  8
0
100
AcDbBlockEnd
  0
BLOCK
  5
31
330
30
100
AcDbEntity
  8
0
 62
     1
100
AcDbBlockBegin
  2
_ArchTick
 70
     0
 10
0.0
 20
0.0
 30
0.0
  3
_ArchTick
  1

  0
LWPOLYLINE
  5
32
330
30
100
AcDbEntity
  8
0
  6
ByBlock
 62
     0
100
AcDbPolyline
 90
        2
 70
     0
 43
0.15
 10
-0.5
 20
-0.5
 10
0.5
 20
0.5
  0
ENDBLK
  5
33
330
30
100
AcDbEntity
  8
0
 62
     1
100
AcDbBlockEnd
  0
BLOCK
  5
4E1
330
4E0
100
AcDbEntity
  8
0
100
AcDbBlockBegin
  2
_Arrivo
 70
     0
 10
0.0
 20
0.0
 30
0.0
  3
_Arrivo
  1

  0
LINE
  5
4E2
330
4E0
100
AcDbEntity
  8
0
  6
ByBlock
 62
     0
370
    -2
100
AcDbLine
 10
0.025
 20
-0.0433012701891858
 30
0.0
 11
-0.15
 21
0.2598076211353328
 31
0.0
  0
LINE
  5
4E3
330
4E0
100
AcDbEntity
  8
0
  6
ByBlock
 62
     0
370
    -2
100
AcDbLine
 10
0.025
 20
0.0433012701892585
 30
0.0
 11
-0.15
 21
-0.2598076211353328
 31
0.0
  0
LINE
  5
4E4
330
4E0
100
AcDbEntity
  8
0
  6
ByBlock
 62
     0
370
    -2
100
AcDbLine
 10
-0.05
 20
0.0
 30
0.0
 11
0.05
 21
0.0
 31
0.0
  0
ENDBLK
  5
4E5
330
4E0
100
AcDbEntity
  8
0
100
AcDbBlockEnd
  0
BLOCK
  5
4E7
330
4E6
100
AcDbEntity
  8
0
100
AcDbBlockBegin
  2
_Partenza
 70
     0
 10
0.0
 20
0.0
 30
0.0
  3
_Partenza
  1

  0
LINE
  5
4E8
330
4E6
100
AcDbEntity
  8
0
  6
ByBlock
 62
     0
370
    -2
100
AcDbLine
 10
-0.05
 20
0.05
 30
0.0
 11
0.1
 21
0.05
 31
0.0
  0
LINE
  5
4E9
330
4E6
100
AcDbEntity
  8
0
  6
ByBlock
 62
     0
370
    -2
100
AcDbLine
 10
-0.05
 20
-0.05
 30
0.0
 11
0.1
 21
-0.05
 31
0.0
  0
ENDBLK
  5
4EA
330
4E6
100
AcDbEntity
  8
0
100
AcDbBlockEnd
  0
BLOCK
  5
30AB
330
30A0
100
AcDbEntity
  8
0
100
AcDbBlockBegin
  2
*D15
 70
     1
 10
0.0
 20
0.0
 30
0.0
  3
*D15
  1

  0
LINE
  5
30E1
330
30A0
100
AcDbEntity
  8
Dimensione
 62
     5
370
    -2
100
AcDbLine
 10
0.1895952334792937
 20
0.0973683980354956
 30
0.0
 11
0.1321911159389802
 21
0.0973683980354956
 31
0.0
  0
LINE
  5
30E2
330
30A0
100
AcDbEntity
  8
Dimensione
 62
     5
370
    -2
100
AcDbLine
 10
0.1916042635701757
 20
0.2301004853621826
 30
0.0
 11
0.1321911159389802
 21
0.2301004853621827
 31
0.0
  0
LINE
  5
30E3
330
30A0
100
AcDbEntity
  8
Dimensione
 62
     5
370
    -2
100
AcDbLine
 10
0.1323711159389802
 20
0.0973683980354956
 30
0.0
 11
0.1323711159389802
 21
0.1602344416988391
 31
0.0
  0
LINE
  5
30E4
330
30A0
100
AcDbEntity
  8
Dimensione
 62
     5
370
    -2
100
AcDbLine
 10
0.1323711159389802
 20
0.2301004853621827
 30
0.0
 11
0.1323711159389802
 21
0.1672344416988391
 31
0.0
  0
INSERT
  5
30E5
330
30A0
100
AcDbEntity
  8
Dimensione
 62
     5
370
    -2
100
AcDbBlockReference
  2
_ArchTick
 10
0.1323711159389802
 20
0.0973683980354956
 30
0.0
 41
0.0015
 42
0.0015
 43
0.0015
 50
270.0
  0
INSERT
  5
30E6
330
30A0
100
AcDbEntity
  8
Dimensione
 62
     5
370
    -2
100
AcDbBlockReference
  2
_ArchTick
 10
0.1323711159389802
 20
0.2301004853621827
 30
0.0
 41
0.0015
 42
0.0015
 43
0.0015
 50
90.0
  0
MTEXT
  5
30E7
330
30A0
100
AcDbEntity
  8
Dimensione
 62
     4
100
AcDbMText
 10
0.1323711159389802
 20
0.1637344416988391
 30
0.0
 40
0.003
 41
0.0
 71
     5
 72
     1
  1
\A1;800 mm
  7
ROMANS
 73
     1
 44
1.0
  0
POINT
  5
30E8
330
30A0
100
AcDbEntity
  8
Defpoints
 62
     0
100
AcDbPoint
 10
0.1896577334792937
 20
0.0973683980354956
 30
0.0
  0
POINT
  5
30E9
330
30A0
100
AcDbEntity
  8
Defpoints
 62
     0
100
AcDbPoint
 10
0.1916667635701756
 20
0.2301004853621826
 30
0.0
  0
POINT
  5
30EA
330
30A0
100
AcDbEntity
  8
Defpoints
 62
     0
100
AcDbPoint
 10
0.1323711159389802
 20
0.2301004853621827
 30
0.0
  0
ENDBLK
  5
30AC
330
30A0
100
AcDbEntity
  8
0
100
AcDbBlockEnd
  0
BLOCK
  5
30B9
330
30AE
100
AcDbEntity
  8
0
100
AcDbBlockBegin
  2
*D16
 70
     1
 10
0.0
 20
0.0
 30
0.0
  3
*D16
  1

  0
LINE
  5
30EB
330
30AE
100
AcDbEntity
  8
Dimensione
 62
     5
370
    -2
100
AcDbLine
 10
0.1461373699866918
 20
0.0897458996641009
 30
0.0
 11
0.1461554067302313
 21
0.0898620070535405
 31
0.0
  0
LINE
  5
30EC
330
30AE
100
AcDbEntity
  8
Dimensione
 62
     5
370
    -2
100
AcDbLine
 10
0.196177887982221
 20
0.0818458384010007
 30
0.0
 11
0.1961598512386814
 21
0.081729731011561
 31
0.0
  0
LINE
  5
30ED
330
30AE
100
AcDbEntity
  8
Dimensione
 62
     5
370
    -2
100
AcDbLine
 10
0.1461277759741707
 20
0.0896841404143989
 30
0.0
 11
0.1595862004130277
 21
0.0875934367027603
 31
0.0
  0
LINE
  5
30EE
330
30AE
100
AcDbEntity
  8
Dimensione
 62
     5
370
    -2
100
AcDbLine
 10
0.196187481994742
 20
0.0819075976507026
 30
0.0
 11
0.1827290575558849
 21
0.0839983013623412
 31
0.0
  0
INSERT
  5
30EF
330
30AE
100
AcDbEntity
  8
Dimensione
 62
     5
370
    -2
100
AcDbBlockReference
  2
_ArchTick
 10
0.1461277759741707
 20
0.0896841404143989
 30
0.0
 41
0.0015
 42
0.0015
 43
0.0015
 50
171.1699449233109
  0
INSERT
  5
30F0
330
30AE
100
AcDbEntity
  8
Dimensione
 62
     5
370
    -2
100
AcDbBlockReference
  2
_ArchTick
 10
0.196187481994742
 20
0.0819075976507026
 30
0.0
 41
0.0015
 42
0.0015
 43
0.0015
 50
351.1699449233109
  0
MTEXT
  5
30F1
330
30AE
100
AcDbEntity
  8
Dimensione
 62
     4
100
AcDbMText
 10
0.1711576289844563
 20
0.0857958690325508
 30
0.0
 40
0.003
 41
0.0
 71
     5
 72
     1
  1
\A1;350 mm
  7
ROMANS
 73
     1
 44
1.0
  0
POINT
  5
30F2
330
30AE
100
AcDbEntity
  8
Defpoints
 62
     0
100
AcDbPoint
 10
0.1461277759741707
 20
0.0896841404143989
 30
0.0
  0
POINT
  5
30F3
330
30AE
100
AcDbEntity
  8
Defpoints
 62
     0
100
AcDbPoint
 10
0.196187481994742
 20
0.0819075976507026
 30
0.0
  0
POINT
  5
30F4
330
30AE
100
AcDbEntity
  8
Defpoints
 62
     0
100
AcDbPoint
 10
0.196187481994742
 20
0.0819075976507026
 30
0.0
  0
ENDBLK
  5
30BA
330
30AE
100
AcDbEntity
  8
0
100
AcDbBlockEnd
  0
BLOCK
  5
30D3
330
30C8
100
AcDbEntity
  8
0
100
AcDbBlockBegin
  2
*D17
 70
     1
 10
0.0
 20
0.0
 30
0.0
  3
*D17
  1

  0
LINE
  5
30F5
330
30C8
100
AcDbEntity
  8
Dimensione
 62
     5
370
    -2
100
AcDbLine
 10
0.2559066516841905
 20
0.0871509821135682
 30
0.0
 11
0.2558524318056667
 21
0.0872552244023615
 31
0.0
  0
LINE
  5
30F6
330
30C8
100
AcDbEntity
  8
Dimensione
 62
     5
370
    -2
100
AcDbLine
 10
0.2794632888045299
 20
0.0994035719010864
 30
0.0
 11
0.279409068926006
 21
0.0995078141898797
 31
0.0
  0
LINE
  5
30F7
330
30C8
100
AcDbEntity
  8
Dimensione
 62
     5
370
    -2
100
AcDbLine
 10
0.2559354920451074
 20
0.0870955340876144
 30
0.0
 11
0.2609847654522941
 21
0.0897218289813735
 31
0.0
  0
LINE
  5
30F8
330
30C8
100
AcDbEntity
  8
Dimensione
 62
     5
370
    -2
100
AcDbLine
 10
0.2794921291654469
 20
0.0993481238751325
 30
0.0
 11
0.2744428557582601
 21
0.0967218289813735
 31
0.0
  0
INSERT
  5
30F9
330
30C8
100
AcDbEntity
  8
Dimensione
 62
     5
370
    -2
100
AcDbBlockReference
  2
_ArchTick
 10
0.2559354920451074
 20
0.0870955340876144
 30
0.0
 41
0.0015
 42
0.0015
 43
0.0015
 50
207.4804401145771
  0
INSERT
  5
30FA
330
30C8
100
AcDbEntity
  8
Dimensione
 62
     5
370
    -2
100
AcDbBlockReference
  2
_ArchTick
 10
0.2794921291654469
 20
0.0993481238751325
 30
0.0
 41
0.0015
 42
0.0015
 43
0.0015
 50
27.4804401145771
  0
MTEXT
  5
30FB
330
30C8
100
AcDbEntity
  8
Dimensione
 62
     4
100
AcDbMText
 10
0.2677138106052772
 20
0.0932218289813735
 30
0.0
 40
0.003
 41
0.0
 71
     5
 72
     1
  1
\A1;350 mm
  7
ROMANS
 73
     1
 44
1.0
  0
POINT
  5
30FC
330
30C8
100
AcDbEntity
  8
Defpoints
 62
     0
100
AcDbPoint
 10
0.2559354920451074
 20
0.0870955340876144
 30
0.0
  0
POINT
  5
30FD
330
30C8
100
AcDbEntity
  8
Defpoints
 62
     0
100
AcDbPoint
 10
0.2794921291654469
 20
0.0993481238751325
 30
0.0
  0
POINT
  5
30FE
330
30C8
100
AcDbEntity
  8
Defpoints
 62
     0
100
AcDbPoint
 10
0.2794921291654469
 20
0.0993481238751325
 30
0.0
  0
ENDBLK
  5
30D4
330
30C8
100
AcDbEntity
  8
0
100
AcDbBlockEnd
  0
ENDSEC
  0
SECTION
  2
ENTITIES
  0
LINE
  5
D
330
2
100
AcDbEntity
  8
Table
100
AcDbLine
 10
0.02
 20
0.02
 30
0.0
 11
0.4
 21
0.02
 31
0.0
  0
LINE
  5
10
330
2
100
AcDbEntity
  8
Table
100
AcDbLine
 10
0.4
 20
0.02
 30
0.0
 11
0.4
 21
0.2769999999999999
 31
0.0
  0
LINE
  5
11
330
2
100
AcDbEntity
  8
Table
100
AcDbLine
 10
0.4
 20
0.2769999999999999
 30
0.0
 11
0.02
 21
0.277
 31
0.0
  0
LINE
  5
12
330
2
100
AcDbEntity
  8
Table
100
AcDbLine
 10
0.02
 20
0.277
 30
0.0
 11
0.02
 21
0.02
 31
0.0
  0
LINE
  5
13
330
2
100
AcDbEntity
  8
Table
 62
     2
100
AcDbLine
 10
0.015
 20
0.015
 30
0.0
 11
0.4050000000000001
 21
0.015
 31
0.0
  0
LINE
  5
14
330
2
100
AcDbEntity
  8
Table
 62
     2
100
AcDbLine
 10
0.4050000000000001
 20
0.015
 30
0.0
 11
0.4050000000000001
 21
0.2819999999999998
 31
0.0
  0
LINE
  5
15
330
2
100
AcDbEntity
  8
Table
 62
     2
100
AcDbLine
 10
0.4050000000000001
 20
0.2819999999999998
 30
0.0
 11
0.0149999999999999
 21
0.282
 31
0.0
  0
LINE
  5
16
330
2
100
AcDbEntity
  8
Table
 62
     2
100
AcDbLine
 10
0.0149999999999999
 20
0.282
 30
0.0
 11
0.015
 21
0.015
 31
0.0
  0
LINE
  5
17
330
2
100
AcDbEntity
  8
Table
100
AcDbLine
 10
0.21
 20
0.2769999999999999
 30
0.0
 11
0.21
 21
0.2532994226089223
 31
0.0
  0
LINE
  5
1D
330
2
100
AcDbEntity
  8
Table
100
AcDbLine
 10
0.02
 20
0.0528099428524846
 30
0.0
 11
0.4
 21
0.0528099428524846
 31
0.0
  0
MTEXT
  5
1E
330
2
100
AcDbEntity
  8
Text
100
AcDbMText
 10
0.1133313047219695
 20
0.2610796890771976
 30
0.0
 40
0.003
 41
0.1103605678262056
 71
     2
 72
     5
  1
{\fTimes New Roman|b0|i0|c0|p18;Le colonne \fTimes New Roman|b0|i1|c0|p18;      Columns}
 73
     1
 44
1.0
1001
ACAD
1000
ACAD_MTEXT_DEFINED_HEIGHT_BEGIN
1070
    46
1040
0.0141952763113409
1000
ACAD_MTEXT_DEFINED_HEIGHT_END
  0
TEXT
  5
1F
330
2
100
AcDbEntity
  8
Text
100
AcDbText
 10
0.2180556919891047
 20
0.269976982173197
 30
0.0
 40
0.003
  1
Colonna - Column : 350 x 350 x H 800 mm
  7
ROMANS
100
AcDbText
  0
TEXT
  5
21
330
2
100
AcDbEntity
  8
Text
100
AcDbText
 10
0.2184542410678115
 20
0.2576348370183962
 30
0.0
 40
0.003
  1
File : E - 35SL ( COLONNA CORINZIA LISCIA )
  7
ROMANS
100
AcDbText
  0
LINE
  5
22
330
2
100
AcDbEntity
  8
Table
100
AcDbLine
 10
0.4
 20
0.2654452889427402
 30
0.0
 11
0.02
 21
0.2654452889427403
 31
0.0
  0
LINE
  5
23
330
2
100
AcDbEntity
  8
Table
100
AcDbLine
 10
0.4
 20
0.2532994226089223
 30
0.0
 11
0.02
 21
0.2532994226089225
 31
0.0
  0
LINE
  5
24
330
2
100
AcDbEntity
  8
Table
100
AcDbLine
 10
0.21
 20
0.0528099428524846
 30
0.0
 11
0.21
 21
0.02
 31
0.0
  0
TEXT
  5
25
330
2
100
AcDbEntity
  8
Text
100
AcDbText
 10
0.0947789320547719
 20
0.2687784133392506
 30
0.0
 40
0.005
  1
EUROSTYL
  7
style1
 72
     1
 11
0.1140561490699125
 21
0.2687784133392506
 31
0.0
100
AcDbText
  0
MTEXT
  5
10F
330
2
100
AcDbEntity
  8
Text
100
AcDbMText
 10
0.305
 20
0.0471738284815141
 30
0.0
 40
0.005
 41
0.1900000000000001
 71
     2
 72
     5
  3
\pt0.09;{\fTimes New Roman|b0|i0|c238|p18;\H1.6x;\C4;Bovelacci\P\H0.4375x;\T0.95;via del Commercio, 5  47100 Forli - Italy  \fTimes New Roman|b0|i0|c0|p18;\P\fTimes New Roman|b0|i0|c238|p18;tel.+39-0543721386  fax +39-0543721127\fTimes New Roman|b0|i
  1
0|c0|p18; \fTimes New Roman|b0|i0|c238|p18;www.bovelacci.it\fTimes New Roman|b0|i0|c0|p18; \fTimes New Roman|b0|i0|c238|p18;e-mail: bovelacci@bovelacci\fTimes New Roman|b0|i0|c0|p18;.it}
 73
     1
 44
1.0
1001
ACAD
1000
ACAD_MTEXT_DEFINED_HEIGHT_BEGIN
1070
    46
1040
0.0271738284815141
1000
ACAD_MTEXT_DEFINED_HEIGHT_END
  0
MTEXT
  5
110
330
2
100
AcDbEntity
  8
Text
100
AcDbMText
 10
0.0219676065851835
 20
0.0500313976452307
 30
0.0
 40
0.002
 41
0.1863544980601608
 71
     1
 72
     5
  3
{\fArial|b0|i0|c0|p34;\H1.25x;Le caratteristiche tecniche indicate vengono fornite a titolo indicativo e potranno essere modificate senza preavviso. Non devono quindi essere considerate a scopo di specifica.\P\fArial|b0|i1|c0|p34;The given values are
  3
 indicative and can be changed without notice. They cannot be considered like a state.\PThis lealfet and designs embodied within are protected by copyright law and international treaties. Unauthorized repro- duction of the leaflet or any portion of i
  1
t or reproduction of any of the designs embodied therein may result in severe civil penalties and will be prosecuted to the maximum.\PAll right reserved, Bovelacci Forlì Italy.}
 73
     1
 44
1.0
  0
TEXT
  5
1CA
330
2
100
AcDbEntity
  8
Text
100
AcDbText
 10
0.3020323407045702
 20
0.0905146669607496
 30
0.0
 40
0.005
  1
scala 1:6
  7
Arial
100
AcDbText
  0
LWPOLYLINE
  5
2FC3
330
2
100
AcDbEntity
  8
0
  6
Continuous
 62
     1
370
     0
100
AcDbPolyline
 90
       52
 70
   129
 43
0.0
 10
0.1675489024597535
 20
0.1008259801546634
 10
0.1675489024597535
 20
0.113258703276447
 42
0.3265156300498512
 10
0.1712332129167514
 20
0.1170432861927835
 10
0.1820383943784868
 20
0.1200015973091821
 42
-0.5462934308230969
 10
0.1869242153726052
 20
0.1288765299906306
 42
-0.2516488839919457
 10
0.1888033767373544
 20
0.1308956945830819
 10
0.1888033767373544
 20
0.1334783473570014
 42
-0.8112812201042446
 10
0.1884275446709425
 20
0.1377514633398263
 10
0.1884275446709425
 20
0.1841047053984149
 42
-0.8007191513799314
 10
0.1882342983785667
 20
0.187497121149931
 42
0.1237552028959039
 10
0.1891139971663525
 20
0.1880050154818649
 10
0.1876427227426256
 20
0.2051460505193298
 10
0.1869906022108547
 20
0.2057981710510983
 10
0.1868560584850714
 20
0.2060661033545652
 10
0.1833872520121883
 20
0.2062930474101705
 10
0.1828574708251986
 20
0.2065956397068966
 10
0.1823529173629553
 20
0.2072764718737128
 10
0.1815330178577221
 20
0.2077681841054816
 42
-0.6553769846132642
 10
0.175536502624404
 20
0.2162153531208236
 42
0.2110199460729311
 10
0.1733366489507127
 20
0.218696608484909
 42
0.0898395180014138
 10
0.1715183742953413
 20
0.2230618922152172
 42
-0.3017670883996293
 10
0.1693968898375626
 20
0.2275088192603408
 42
-0.4502469052324615
 10
0.1705270896342964
 20
0.2282552126128909
 42
0.0983842267423906
 10
0.2104233365025345
 20
0.2355113865857117
 42
-0.0961326970975885
 10
0.2180642193923659
 20
0.2347395265233658
 42
0.0819904518326952
 10
0.2183524571716253
 20
0.2327552586285406
 42
0.1573962916908429
 10
0.2403901206855443
 20
0.2246368671204247
 42
-0.3005892628028119
 10
0.2384462485390161
 20
0.2201884810380938
 42
0.305244834580756
 10
0.2368093038996339
 20
0.2163536658413201
 42
0.2870890953247791
 10
0.2350700500912024
 20
0.2145640855942252
 42
-0.611374115231746
 10
0.2285613673297949
 20
0.205851863940542
 42
-0.3776471162807607
 10
0.225767618585483
 20
0.204650383862697
 42
0.1237136383636191
 10
0.2240041325710198
 20
0.2047737703320972
 42
0.2497157929641012
 10
0.2237572449627264
 20
0.2045798766409994
 42
-0.3700516877096065
 10
0.2241951275866364
 20
0.203041387014435
 42
0.0842107467564301
 10
0.2230469495893972
 20
0.1987859604387432
 42
-0.1638339888494382
 10
0.2232056635682191
 20
0.1962124632067499
 42
0.0547063321655878
 10
0.2228529659522471
 20
0.1939386188290211
 42
0.1224485929576654
 10
0.2229933723006168
 20
0.1932427689291485
 42
-0.1067932883289089
 10
0.2231873559377666
 20
0.1924143142492932
 42
-0.1121516749707425
 10
0.2222879781013722
 20
0.1881133997681447
 42
-0.8573080321674435
 10
0.2232562945759936
 20
0.1840342021832241
 10
0.2232562945759936
 20
0.1374733341222761
 42
-0.8779639311632411
 10
0.222853553556137
 20
0.1336757554246698
 10
0.2229373619806254
 20
0.1308554952701453
 10
0.2247252846748835
 20
0.1294314035089529
 10
0.2247252846748835
 20
0.1287053959444193
 42
-0.5020096845354747
 10
0.2298978305489734
 20
0.12118153037901
 10
0.2381669724935711
 20
0.1202321358715499
 42
0.4102902273640335
 10
0.2411652456006642
 20
0.1174306862790633
 10
0.2411652456006642
 20
0.1053020271784852
 10
0.2176086084803248
 20
0.0930494373909671
  0
ARC
  5
2FC4
330
2
100
AcDbEntity
  8
0
  6
Continuous
 62
     1
370
     0
100
AcDbCircle
 10
0.206528683537758
 20
0.2236124559176859
 30
0.0
 40
0.087748283599913
100
AcDbArc
 50
258.0952784808058
 51
280.9896561411341
  0
ARC
  5
2FC5
330
2
100
AcDbEntity
  8
0
  6
Continuous
 62
     1
370
     0
100
AcDbCircle
 10
0.2052986267343846
 20
0.2249668909207878
 30
0.0
 40
0.0929636857912127
100
AcDbArc
 50
259.7794593769917
 51
280.8848850379088
  0
LWPOLYLINE
  5
2FC6
330
2
100
AcDbEntity
  8
0
  6
Continuous
 62
     1
370
     0
100
AcDbPolyline
 90
        4
 70
   128
 43
0.0
 10
0.1869242153726052
 20
0.1288765299906306
 42
0.3877862425418213
 10
0.1881863213989009
 20
0.1268392459590267
 42
0.0899322622117975
 10
0.2222032061717366
 20
0.1267098083247947
 42
0.2673370115826191
 10
0.2247252846748835
 20
0.1287053959444193
 42
-1.295342744674457
  0
LWPOLYLINE
  5
2FC7
330
2
100
AcDbEntity
  8
0
  6
Continuous
 62
     1
370
     0
100
AcDbPolyline
 90
        4
 70
   128
 43
0.0
 10
0.1820383943784868
 20
0.1200015973091821
 42
0.2639550332294433
 10
0.1867101416721221
 20
0.1161799755481452
 42
0.0885242694183054
 10
0.2254711832672707
 20
0.1164547493140045
 42
0.3283394128818273
 10
0.2298978305489734
 20
0.12118153037901
 42
-16.91194667305209
  0
LWPOLYLINE
  5
2FC8
330
2
100
AcDbEntity
  8
0
  6
Continuous
 62
     1
370
     0
100
AcDbPolyline
 90
        3
 70
   128
 43
0.0
 10
0.1712332129167514
 20
0.1170432861927835
 10
0.2164681757012945
 20
0.1121270613332086
 10
0.2381669724935711
 20
0.1202321358715499
  0
LWPOLYLINE
  5
2FC9
330
2
100
AcDbEntity
  8
0
  6
Continuous
 62
     1
370
     0
100
AcDbPolyline
 90
        3
 70
   128
 43
0.0
 10
0.1675489024597535
 20
0.113258703276447
 10
0.2178426803342242
 20
0.1076619861356143
 10
0.2411652456006642
 20
0.1174306862790633
  0
LWPOLYLINE
  5
2FCA
330
2
100
AcDbEntity
  8
0
  6
Continuous
 62
     1
370
     0
100
AcDbPolyline
 90
        3
 70
   128
 43
0.0
 10
0.2176086084803248
 20
0.0930494373909671
 10
0.2178426803342242
 20
0.1076619861356143
 42
-0.2574591619078772
 10
0.2164681757012945
 20
0.1121270613332086
 42
-0.8131799407212312
  0
ARC
  5
2FCB
330
2
100
AcDbEntity
  8
0
  6
Continuous
 62
     1
370
     0
100
AcDbCircle
 10
0.2056192161935536
 20
0.0740534489461515
 30
0.0
 40
0.1113859623851364
100
AcDbArc
 50
80.88932572748136
 51
98.87870894693833
  0
ARC
  5
2FCC
330
2
100
AcDbEntity
  8
0
  6
Continuous
 62
     1
370
     0
100
AcDbCircle
 10
0.2061163344541951
 20
0.0609309312693973
 30
0.0
 40
0.1282064832669817
100
AcDbArc
 50
82.75355102995927
 51
97.62083515459726
  0
LWPOLYLINE
  5
2FCD
330
2
100
AcDbEntity
  8
0
  6
Continuous
 62
     1
370
     0
100
AcDbPolyline
 90
        4
 70
   128
 43
0.0
 10
0.1872595393385782
 20
0.129661938346048
 42
0.3944747122529336
 10
0.1888741360182065
 20
0.1277928566499732
 42
0.0642726241848362
 10
0.2221448196187978
 20
0.127934529496424
 42
0.1658446072113343
 10
0.2247252846748835
 20
0.1294314035089529
 42
-0.3007332763893182
  0
LWPOLYLINE
  5
2FCE
330
2
100
AcDbEntity
  8
0
  6
Continuous
 62
     1
370
     0
100
AcDbPolyline
 90
       39
 70
   129
 43
0.0
 10
0.1937976183940356
 20
0.2225215529778119
 10
0.1936275034540114
 20
0.2215742057966922
 10
0.1928012280851499
 20
0.2212098418044588
 10
0.1917076301242748
 20
0.2214284603333501
 10
0.1911000745541267
 20
0.2220114435222316
 10
0.1907598436413836
 20
0.2227887537729853
 10
0.1905411238426702
 20
0.2238575556181797
 10
0.1898120581911871
 20
0.2242947933437144
 10
0.1889614814256767
 20
0.2249506489303886
 10
0.188499739398904
 20
0.2255822137178001
 10
0.1884754369695583
 20
0.2260194507755877
 10
0.188767064056309
 20
0.2264323970341031
 10
0.188839970311647
 20
0.2266024339644645
 10
0.1888642727409928
 20
0.2273554534159554
 10
0.1892774099090764
 20
0.2277926904737382
 10
0.1898606630498786
 20
0.2279627274040996
 10
0.1901279866745867
 20
0.2280113090026296
 10
0.1903467064733002
 20
0.2288129107204026
 10
0.1906626349566998
 20
0.2295416393726261
 10
0.1911000745541267
 20
0.2299302948318788
 10
0.1918534426349533
 20
0.2300517494959582
 10
0.192776926688501
 20
0.2298817125655969
 10
0.1935302947693276
 20
0.229347311643002
 10
0.1942107555621191
 20
0.2289586568514965
 10
0.1945023826488675
 20
0.2287886199211351
 10
0.1952071458710049
 20
0.2288614929866845
 10
0.1961792337505449
 20
0.2287643291218725
 10
0.1971999264887765
 20
0.2281570551337283
 10
0.1979775959662519
 20
0.2271611256863266
 10
0.1980018983955977
 20
0.2262623607714937
 10
0.1976130636568576
 20
0.2252664313240968
 10
0.1975644587981684
 20
0.2247077396022346
 10
0.197685969912198
 20
0.2238089740196496
 10
0.1974915525428303
 20
0.2226430083096385
 10
0.1970784153747469
 20
0.2219142796574149
 10
0.1963007448645745
 20
0.2218171157926029
 10
0.1952314483003483
 20
0.2218414065918703
 10
0.1946238927302002
 20
0.2220114435222316
 10
0.1941135468774329
 20
0.2222786436496531
  0
LWPOLYLINE
  5
2FCF
330
2
100
AcDbEntity
  8
0
  6
Continuous
 62
     1
370
     0
100
AcDbPolyline
 90
       12
 70
   129
 43
0.0
 10
0.1917076301242748
 20
0.2262380693044791
 10
0.1923880909170663
 20
0.2266024339644645
 10
0.1928741353731849
 20
0.2266510155629945
 10
0.1937976183940356
 20
0.2264081062348404
 10
0.1941864541654703
 20
0.2257765414474289
 10
0.1942593604208084
 20
0.2248777758648439
 10
0.1938705246493737
 20
0.2242705018766999
 10
0.1931900638565844
 20
0.224027592548541
 10
0.1924123933464121
 20
0.2241490472126204
 10
0.191877745064299
 20
0.2245134118726058
 10
0.1914889103255614
 20
0.2250478127952053
 10
0.1913917006081805
 20
0.2257279591811469
  0
LWPOLYLINE
  5
2FD0
330
2
100
AcDbEntity
  8
0
  6
Continuous
 62
     1
370
     0
100
AcDbPolyline
 90
        2
 70
   128
 43
0.0
 10
0.1917805363796152
 20
0.2265052700996524
 10
0.1904196127286406
 20
0.2277198180759408
  0
LWPOLYLINE
  5
2FD1
330
2
100
AcDbEntity
  8
0
  6
Continuous
 62
     1
370
     0
100
AcDbPolyline
 90
        2
 70
   128
 43
0.0
 10
0.1922665798030367
 20
0.2269182163581726
 10
0.1912944919234968
 20
0.2283028005970704
  0
LWPOLYLINE
  5
2FD2
330
2
100
AcDbEntity
  8
0
  6
Continuous
 62
     1
370
     0
100
AcDbPolyline
 90
        2
 70
   128
 43
0.0
 10
0.1928741353731849
 20
0.2271125440877966
 10
0.1923637884877206
 20
0.2286428744577931
  0
LWPOLYLINE
  5
2FD3
330
2
100
AcDbEntity
  8
0
  6
Continuous
 62
     1
370
     0
100
AcDbPolyline
 90
        4
 70
   128
 43
0.0
 10
0.1935059923399818
 20
0.2268696340918859
 10
0.193481689910636
 20
0.227987018203367
 10
0.1937490145680411
 20
0.2284971283266991
 10
0.1942107555621191
 20
0.2286671652570604
  0
LWPOLYLINE
  5
2FD4
330
2
100
AcDbEntity
  8
0
  6
Continuous
 62
     1
370
     0
100
AcDbPolyline
 90
        2
 70
   128
 43
0.0
 10
0.1942836628501541
 20
0.2241490472126204
 10
0.1953043545556887
 20
0.2228859176377973
  0
LWPOLYLINE
  5
2FD5
330
2
100
AcDbEntity
  8
0
  6
Continuous
 62
     1
370
     0
100
AcDbPolyline
 90
        2
 70
   128
 43
0.0
 10
0.1934330860846414
 20
0.2236875193555702
 10
0.1937976183940356
 20
0.2226430083096385
  0
LWPOLYLINE
  5
2FD6
330
2
100
AcDbEntity
  8
0
  6
Continuous
 62
     1
370
     0
100
AcDbPolyline
 90
        2
 70
   128
 43
0.0
 10
0.1931171565685471
 20
0.2236389370892883
 10
0.1929227391991794
 20
0.2223029344489158
  0
LWPOLYLINE
  5
2FD7
330
2
100
AcDbEntity
  8
0
  6
Continuous
 62
     1
370
     0
100
AcDbPolyline
 90
        2
 70
   128
 43
0.0
 10
0.1923880909170663
 20
0.2239061378844616
 10
0.191877745064299
 20
0.2227644629737179
  0
LWPOLYLINE
  5
2FD8
330
2
100
AcDbEntity
  8
0
  6
Continuous
 62
     1
370
     0
100
AcDbPolyline
 90
        2
 70
   128
 43
0.0
 10
0.1916590252655856
 20
0.2244891204055912
 10
0.1909785634400971
 20
0.2237118101548329
  0
LWPOLYLINE
  5
2FD9
330
2
100
AcDbEntity
  8
0
  6
Continuous
 62
     1
370
     0
100
AcDbPolyline
 90
        2
 70
   128
 43
0.0
 10
0.1914646078962156
 20
0.2247077396022346
 10
0.1907598436413836
 20
0.2241976294789024
  0
LWPOLYLINE
  5
2FDA
330
2
100
AcDbEntity
  8
0
  6
Continuous
 62
     1
370
     0
100
AcDbPolyline
 90
        2
 70
   128
 43
0.0
 10
0.1910271682987886
 20
0.2257279591811469
 10
0.189131596365701
 20
0.2256307953163302
  0
LWPOLYLINE
  5
2FDB
330
2
100
AcDbEntity
  8
0
  6
Continuous
 62
     1
370
     0
100
AcDbPolyline
 90
       55
 70
   128
 43
0.0
 10
0.1939325359644353
 20
0.2214221086803087
 10
0.1945546721660337
 20
0.2185460598844418
 10
0.1936603514407783
 20
0.2187015218010431
 10
0.1930770993326729
 20
0.2184294631131161
 10
0.1932715167020406
 20
0.2180408083216105
 10
0.1936992355342715
 20
0.217341228361408
 10
0.1937381185950653
 20
0.216719380027251
 10
0.1937770016558614
 20
0.2155145485042171
 10
0.1937770016558614
 20
0.2143874486072383
 10
0.1933492838563275
 20
0.2142708518359125
 10
0.1928011599272296
 20
0.2139663384178867
 10
0.1925866865734853
 20
0.2134839967440563
 10
0.1925464734005499
 20
0.2129212644573757
 10
0.1926000919971584
 20
0.2121843538450286
 10
0.1928011599272296
 20
0.2118225974227166
 10
0.1932435120583934
 20
0.2113268573134111
 10
0.1934043668155267
 20
0.2109651008910992
 10
0.1937160003172552
 20
0.2095994026701676
 10
0.1944881035645797
 20
0.2087847811320654
 10
0.195152971684074
 20
0.208313158206615
 10
0.1945953407577992
 20
0.2080987839067714
 10
0.1938017894522154
 20
0.2072841623686692
 10
0.1930725802560225
 20
0.2064481033338118
 10
0.1928581069022783
 20
0.2058692935923132
 10
0.1929867911210623
 20
0.2052261713605393
 10
0.1935658690729042
 20
0.2050332345574557
 10
0.1939304736709995
 20
0.2052261713605393
 10
0.1944881035645797
 20
0.2052047338637792
 10
0.1950886295746808
 20
0.2050117970606957
 10
0.1955604703333033
 20
0.2047545484350841
 10
0.1956033654171294
 20
0.2045616116320006
 10
0.1956033654171294
 20
0.2037684275906631
 10
0.1946596828671924
 20
0.204347237332157
 10
0.1938017894522154
 20
0.2043043630063936
 10
0.1932441585259381
 20
0.2038327400809385
 10
0.1930725802560225
 20
0.2032539296716879
 10
0.1931583693909804
 20
0.2023749963110624
 10
0.1936945532916906
 20
0.2020963095209435
 10
0.1944881035645797
 20
0.2020319976984153
 10
0.194852708162675
 20
0.202224933833747
 10
0.1946369274160983
 20
0.2018304916392924
 10
0.1946798214672298
 20
0.2011444950817504
 10
0.1942614578259001
 20
0.2006510119727868
 10
0.1931633542134184
 20
0.2011998096194706
 10
0.1925044922524696
 20
0.2026815630651957
 10
0.1922848719430515
 20
0.2054255512986244
 10
0.1919005356270491
 20
0.2108586479340397
 10
0.190877781628081
 20
0.2145497609873098
 10
0.1893763442283776
 20
0.2168201143597707
 10
0.1883753873388363
 20
0.2179360507858175
 10
0.1875284229430971
 20
0.2188211040896889
 10
0.1874129272818761
 20
0.2190904677322316
 10
0.1889528625468553
 20
0.2197061573935556
 10
0.190993276256605
 20
0.2203218463871228
 10
0.1937651597335699
 20
0.2208990548603322
  0
LWPOLYLINE
  5
2FDC
330
2
100
AcDbEntity
  8
0
  6
Continuous
 62
     1
370
     0
100
AcDbPolyline
 90
      105
 70
   128
 43
0.0
 10
0.1949201101496079
 20
0.2212838600639674
 10
0.1955360842555995
 20
0.2185902202997521
 10
0.1961972047221789
 20
0.2192255845936594
 10
0.1968077076060298
 20
0.2194245692228152
 10
0.1972854935941466
 20
0.2193317096846902
 10
0.1976571040002852
 20
0.2189204742057258
 10
0.1976836473794326
 20
0.2183367845356697
 10
0.1974447549017202
 20
0.2173020620601709
 10
0.197179319044863
 20
0.2165989817461737
 10
0.1974845704867884
 20
0.2169438894605906
 10
0.1979623554422106
 20
0.2169438894605906
 10
0.1981216167497842
 20
0.2164663248815701
 10
0.198055583084735
 20
0.215639993651745
 10
0.1979095939830824
 20
0.215149164187566
 10
0.1978432350188669
 20
0.2146583340556351
 10
0.1983342911475131
 20
0.2151093668610827
 10
0.1988386205147773
 20
0.2152818210521695
 10
0.1993694922284918
 20
0.2152685548315071
 10
0.1997145592554854
 20
0.2148838504583589
 10
0.1997676470464722
 20
0.2142868952353972
 10
0.1995166740937508
 20
0.2134192548895087
 10
0.1991583348608362
 20
0.2123845330817617
 10
0.1987469088696294
 20
0.2117345149794063
 10
0.1983620262575676
 20
0.2107793864891172
 10
0.197990415851429
 20
0.2099834466369998
 10
0.197539174275154
 20
0.209121177684831
 10
0.1972073794540836
 20
0.2084711602502276
 10
0.1978046101320112
 20
0.2081793154151996
 10
0.1982425805350623
 20
0.2075823601922379
 10
0.1985876475620536
 20
0.2069456083105448
 10
0.1989725301741131
 20
0.2066404979226112
 10
0.1994768585086826
 20
0.2066272317019488
 10
0.1999413722908785
 20
0.2064813092844349
 10
0.1999016568772981
 20
0.2060785929801399
 10
0.1997025799846563
 20
0.2057602170392911
 10
0.1993707851635836
 20
0.2056540912805084
 10
0.1985877477335436
 20
0.2056275601746875
 10
0.1982824962916182
 20
0.2057071541599021
 10
0.1979639726437719
 20
0.2056938886069917
 10
0.1974994598942705
 20
0.205786748145112
 10
0.1968491414253537
 20
0.2056010290688714
 10
0.1967695102552197
 20
0.2055612317423882
 10
0.1964908021924392
 20
0.2050704022782091
 10
0.1962917252997974
 20
0.204606103919851
 10
0.1962784530938765
 20
0.2040622109085264
 10
0.1966766079118569
 20
0.2045928376991886
 10
0.1971145772822109
 20
0.2047122290108817
 10
0.1977648957511278
 20
0.204752026337365
 10
0.1985479321484754
 20
0.2044999781610683
 10
0.1989328147605349
 20
0.2040489453556159
 10
0.1989991737247505
 20
0.2033060677151402
 10
0.1987470100738141
 20
0.2028285038038716
 10
0.1981630495364136
 20
0.2026427847276263
 10
0.1976719934077673
 20
0.202775440924478
 10
0.1973929590131282
 20
0.2028774459882552
 10
0.1972336966728578
 20
0.2027315235707412
 10
0.1973398712221391
 20
0.2026253984797105
 10
0.197525676941557
 20
0.2025988673738897
 10
0.1975522203207042
 20
0.2014182224808767
 10
0.1973796868072074
 20
0.2013651596014831
 10
0.1975920359057725
 20
0.201166174972332
 10
0.1983485289239705
 20
0.2012590345104523
 10
0.1992510120765205
 20
0.2018825208392348
 10
0.1999278739245846
 20
0.2031427597174623
 10
0.2003260287425673
 20
0.2043632012692066
 10
0.2006989207241455
 20
0.2063718107124163
 10
0.2009776287869237
 20
0.2081361446077332
 10
0.2013770414283424
 20
0.2119480165279341
 10
0.2017088372821098
 20
0.2142297116609981
 10
0.2021616857329883
 20
0.2165028702578523
 10
0.2031322142419298
 20
0.2196114695516043
 10
0.2041806875288294
 20
0.2214819292057038
 10
0.2052026164038847
 20
0.222781964742658
 10
0.2063174486549997
 20
0.2233125915333203
 10
0.2074057364942705
 20
0.2234452483979238
 10
0.2086001999155196
 20
0.2231136062364173
 10
0.2094495952770805
 20
0.2223309319372103
 10
0.2103122628445623
 20
0.2210308964002514
 10
0.2108443614008397
 20
0.2193687759072047
 10
0.2109903505024948
 20
0.2174187222678952
 10
0.2107879576237619
 20
0.2149166998296398
 10
0.2102336137680945
 20
0.2133985612680114
 10
0.209589736222638
 20
0.2123346847584808
 10
0.2088013153495934
 20
0.2120325966141987
 10
0.207736945776845
 20
0.2122033420289902
 10
0.2066857182903513
 20
0.213109607129579
 10
0.2058972963846122
 20
0.2145149744686927
 10
0.2056336997589039
 20
0.2156223155963896
 10
0.2055285764939083
 20
0.2171984283502853
 10
0.2056205597380405
 20
0.2183411108981652
 10
0.2058833663514896
 20
0.219234241325157
 10
0.2062644362508
 20
0.2196282695136333
 10
0.206671787224534
 20
0.2197858809225704
 10
0.2071317003471156
 20
0.2196151355077835
 10
0.2074864891720023
 20
0.2188927498278267
 10
0.2077492968181484
 20
0.2177632026213004
 10
0.2077887179134354
 20
0.2167518634706678
 10
0.207696734669301
 20
0.2159244037406669
 10
0.2074207880349884
 20
0.2153858988168551
 10
0.2070528581565414
 20
0.2153333614579572
 10
0.2067112083198212
 20
0.2155435102257923
 10
0.2063301384205107
 20
0.2161082838290554
 10
0.2062644362508
 20
0.2170539516149451
 10
0.2064221206319483
 20
0.2179208140302423
 10
0.206671787224534
 20
0.2181834994892233
  0
LWPOLYLINE
  5
2FDD
330
2
100
AcDbEntity
  8
0
  6
Continuous
 62
     1
370
     0
100
AcDbPolyline
 90
        2
 70
   128
 43
0.0
 10
0.2069214538171199
 20
0.2198384176137163
 10
0.2084851565750424
 20
0.2201536404316001
  0
LWPOLYLINE
  5
2FDE
330
2
100
AcDbEntity
  8
0
  6
Continuous
 62
     1
370
     0
100
AcDbPolyline
 90
       11
 70
   128
 43
0.0
 10
0.2073550858652777
 20
0.2151494820373207
 10
0.2086691209979175
 20
0.2145059023957083
 10
0.2091947352575127
 20
0.2147423191752428
 10
0.209588946210381
 20
0.2151757500490153
 10
0.2098386128029669
 20
0.2160426124643125
 10
0.2098911739191174
 20
0.2171327569855425
 10
0.2097991917076798
 20
0.2184199162687578
 10
0.2096152262521103
 20
0.2191554359545644
 10
0.2094181207756749
 20
0.2196414035194782
 10
0.2091290330878019
 20
0.219956626337362
 10
0.2085771387864799
 20
0.220166775105197
  0
LWPOLYLINE
  5
2FDF
330
2
100
AcDbEntity
  8
0
  6
Continuous
 62
     1
370
     0
100
AcDbPolyline
 90
       12
 70
   128
 43
0.0
 10
0.2092770813848019
 20
0.2200272424025647
 10
0.2086949136072445
 20
0.2208471905950273
 10
0.2078745865659658
 20
0.2215613382237282
 10
0.2071336459459291
 20
0.2215877885316055
 10
0.2061810078583521
 20
0.2212174895633164
 10
0.2052019079745941
 20
0.2202652918347141
 10
0.2041698824330806
 20
0.2182286475091264
 10
0.2035612528593422
 20
0.2164829518959387
 10
0.2030560952700768
 20
0.2143850533823165
 10
0.2027385485524216
 20
0.2124013090047313
 10
0.2024474646636416
 20
0.210232414475252
 10
0.201944683307326
 20
0.2067674742245151
  0
LWPOLYLINE
  5
2FE0
330
2
100
AcDbEntity
  8
0
  6
Continuous
 62
     1
370
     0
100
AcDbPolyline
 90
        3
 70
   128
 43
0.0
 10
0.2028973213949008
 20
0.2073493723170717
 10
0.2038234976862968
 20
0.2125071089007457
 10
0.20541122817649
 20
0.2161042993553742
  0
LWPOLYLINE
  5
2FE1
330
2
100
AcDbEntity
  8
0
  6
Continuous
 62
     1
370
     0
100
AcDbPolyline
 90
       11
 70
   128
 43
0.0
 10
0.2017761886669491
 20
0.2055269026336048
 10
0.2013806785828121
 20
0.2036959137754635
 10
0.2008602711752447
 20
0.2023434791041867
 10
0.2001108831038807
 20
0.2011574975405346
 10
0.1994655773401888
 20
0.2005332973853112
 10
0.1987786384468871
 20
0.2001587768915298
 10
0.1979876193113075
 20
0.1999299030338546
 10
0.1973423125149185
 20
0.2000339367269329
 10
0.196801089058896
 20
0.2003252299991547
 10
0.1964263950232141
 20
0.2008453977967989
 10
0.1963014966670894
 20
0.2012407247620989
  0
LWPOLYLINE
  5
2FE2
330
2
100
AcDbEntity
  8
0
  6
Continuous
 62
     1
370
     0
100
AcDbPolyline
 90
        8
 70
   128
 43
0.0
 10
0.1984039454439022
 20
0.1999299030338546
 10
0.1990700672560516
 20
0.1999715166446344
 10
0.1999443526508433
 20
0.200304423527636
 10
0.2004855771395627
 20
0.2007205576322066
 10
0.2010476176767373
 20
0.2014279850089943
 10
0.2016096582139117
 20
0.2023434791041867
 10
0.2020051682980513
 20
0.203217360256351
 10
0.2021925147995438
 20
0.2038831740223542
  0
LWPOLYLINE
  5
2FE3
330
2
100
AcDbEntity
  8
0
  6
Continuous
 62
     1
370
     0
100
AcDbPolyline
 90
       29
 70
   128
 43
0.0
 10
0.1941422093482817
 20
0.2170967645075703
 10
0.1945843353190749
 20
0.2174404809531648
 10
0.194829960973147
 20
0.2174732161389254
 10
0.1947808356357936
 20
0.2172277039151038
 10
0.194649835080414
 20
0.2157873670934433
 10
0.1943059597843299
 20
0.2149526262002056
 10
0.1941422093482817
 20
0.2143142950860224
 10
0.1945515854384042
 20
0.214625277013613
 10
0.1950592111705365
 20
0.214854421310676
 10
0.1952720869439378
 20
0.2147398491621446
 10
0.1952720869439378
 20
0.2144124999755519
 10
0.1951247119645724
 20
0.2139214755279135
 10
0.194911836191171
 20
0.2134304517480223
 10
0.1946989604177697
 20
0.2131522050061921
 10
0.194911836191171
 20
0.2131194698204316
 10
0.195075586627219
 20
0.2127430181890766
 10
0.1948954607344884
 20
0.2124320362614859
 10
0.1946170851997433
 20
0.2121046870748933
 10
0.1945024601010485
 20
0.2117118675167797
 10
0.1944205848830245
 20
0.2110080666988321
 10
0.1944697102203802
 20
0.21058251262271
 10
0.1947480857551229
 20
0.2103206331398865
 10
0.1950428367465484
 20
0.2103042658808798
 10
0.1952557114872552
 20
0.2104843077331804
 10
0.1953703376186469
 20
0.2106807175122396
 10
0.1954194619233032
 20
0.2112699461816556
 10
0.1953539621619618
 20
0.2118428075920699
 10
0.1951247119645724
 20
0.2121865240376644
 10
0.1950100858331831
 20
0.2122847289271939
  0
LWPOLYLINE
  5
2FE4
330
2
100
AcDbEntity
  8
0
  6
Continuous
 62
     1
370
     0
100
AcDbPolyline
 90
        4
 70
   128
 43
0.0
 10
0.1955177125980122
 20
0.2147889516069117
 10
0.195877963350779
 20
0.2148871564964365
 10
0.1962054642228751
 20
0.2146089090868592
 10
0.1965657149756442
 20
0.2138396385651378
  0
LWPOLYLINE
  5
2FE5
330
2
100
AcDbEntity
  8
0
  6
Continuous
 62
     1
370
     0
100
AcDbPolyline
 90
        8
 70
   128
 43
0.0
 10
0.1958124635894376
 20
0.2150180959039747
 10
0.1954685872606565
 20
0.2158855719829729
 10
0.1952229616065845
 20
0.2165239030971562
 10
0.1950428367465484
 20
0.2171458662845808
 10
0.1952229616065845
 20
0.2175386858426944
 10
0.1953703376186469
 20
0.2175223185836877
 10
0.1954522128366708
 20
0.2177350956217489
 10
0.1954849627173415
 20
0.218242486660642
  0
LWPOLYLINE
  5
2FE6
330
2
100
AcDbEntity
  8
0
  6
Continuous
 62
     1
370
     0
100
AcDbPolyline
 90
        5
 70
   128
 43
0.0
 10
0.1979164882599833
 20
0.2107551998590963
 10
0.1976544881819232
 20
0.2125883555711185
 10
0.1972352870243291
 20
0.213950128748256
 10
0.1972090865001773
 20
0.2151023982055853
 10
0.1971042864689518
 20
0.2161761040183917
  0
LWPOLYLINE
  5
2FE7
330
2
100
AcDbEntity
  8
0
  6
Continuous
 62
     1
370
     0
100
AcDbPolyline
 90
        6
 70
   128
 43
0.0
 10
0.1954163008415788
 20
0.2082538157913532
 10
0.1957197801775787
 20
0.2081527028436878
 10
0.1960232595135764
 20
0.2083549294067707
 10
0.1965724130403504
 20
0.208499376093289
 10
0.196774732597683
 20
0.2084849312910858
 10
0.1969770521550155
 20
0.2084849312910858
  0
LWPOLYLINE
  5
2FE8
330
2
100
AcDbEntity
  8
0
  6
Continuous
 62
     1
370
     0
100
AcDbPolyline
 90
        4
 70
   128
 43
0.0
 10
0.1953295926073927
 20
0.205639321283289
 10
0.195242883340512
 20
0.2064048917934977
 10
0.1952717864294722
 20
0.2071704623037016
 10
0.1955174606202462
 20
0.2077915847918882
  0
LWPOLYLINE
  5
2FE9
330
2
100
AcDbEntity
  8
0
  6
Continuous
 62
     1
370
     0
100
AcDbPolyline
 90
        2
 70
   128
 43
0.0
 10
0.1945636679788072
 20
0.2068382331885564
 10
0.1947226329027005
 20
0.2076326933031667
  0
LWPOLYLINE
  5
2FEA
330
2
100
AcDbEntity
  8
0
  6
Continuous
 62
     1
370
     0
100
AcDbPolyline
 90
        5
 70
   128
 43
0.0
 10
0.1970926634781618
 20
0.2062026658981667
 10
0.1968036356866432
 20
0.206809344251902
 10
0.1966013161293106
 20
0.2070982382926906
 10
0.1965290584069089
 20
0.2074160219378855
 10
0.1965290584069089
 20
0.2078060295940913
  0
LWPOLYLINE
  5
2FEB
330
2
100
AcDbEntity
  8
0
  6
Continuous
 62
     1
370
     0
100
AcDbPolyline
 90
        4
 70
   128
 43
0.0
 10
0.1955982711289407
 20
0.2027371700781122
 10
0.1953304425160037
 20
0.2032088404139296
 10
0.194896815631326
 20
0.2035147888300984
 10
0.1946927559816354
 20
0.203629519903505
  0
LWPOLYLINE
  5
2FEC
330
2
100
AcDbEntity
  8
0
  6
Continuous
 62
     1
370
     0
100
AcDbPolyline
 90
        2
 70
   128
 43
0.0
 10
0.1956747938848354
 20
0.2027371700781122
 10
0.195611024921589
 20
0.2034892934069798
  0
LWPOLYLINE
  5
2FED
330
2
100
AcDbEntity
  8
0
  6
Continuous
 62
     1
370
     0
100
AcDbPolyline
 90
        3
 70
   128
 43
0.0
 10
0.1960063914610164
 20
0.2027754135466637
 10
0.1960956680095595
 20
0.2035020414524174
 10
0.196274220073951
 20
0.2038717287602565
  0
LWPOLYLINE
  5
2FEE
330
2
100
AcDbEntity
  8
0
  6
Continuous
 62
     1
370
     0
100
AcDbPolyline
 90
        3
 70
   128
 43
0.0
 10
0.1949350770092733
 20
0.2024439697073762
 10
0.1951646442442629
 20
0.2026096916270199
 10
0.1970139379822077
 20
0.2026606831410091
  0
LWPOLYLINE
  5
2FEF
330
2
100
AcDbEntity
  8
0
  6
Continuous
 62
     1
370
     0
100
AcDbPolyline
 90
        2
 70
   128
 43
0.0
 10
0.194896815631326
 20
0.2012329240881288
 10
0.1971669824613025
 20
0.2013221590706695
  0
LWPOLYLINE
  5
2FF0
330
2
100
AcDbEntity
  8
0
  6
Continuous
 62
     1
370
     0
100
AcDbPolyline
 90
       17
 70
   128
 43
0.0
 10
0.2103899277619675
 20
0.2352861786842206
 10
0.2103034849305935
 20
0.233846139012015
 10
0.2105916266691482
 20
0.2325213025135823
 10
0.2111390948364384
 20
0.2309948604610436
 10
0.2113119794664944
 20
0.2304476453856048
 10
0.2113407937436191
 20
0.2297276248817525
 10
0.2116289354821739
 20
0.2292956129800865
 10
0.2120323322638382
 20
0.2277691709275478
 10
0.2122340311710188
 20
0.225061896343803
 10
0.2144239048728767
 20
0.225061896343803
 10
0.2147984884101133
 20
0.227221955852109
 10
0.2151154444257926
 20
0.2283163860029865
 10
0.2161815664832484
 20
0.2294684177407529
 10
0.2162103807603731
 20
0.23018843824461
 10
0.2170748049433451
 20
0.2307932549069328
 10
0.2177375291864395
 20
0.2316284779168155
 10
0.2181409270008008
 20
0.2326077048939155
  0
LWPOLYLINE
  5
2FF1
330
2
100
AcDbEntity
  8
0
  6
Continuous
 62
     1
370
     0
100
AcDbPolyline
 90
       14
 70
   128
 43
0.0
 10
0.1760464250719089
 20
0.2170750198450815
 10
0.1757231634159129
 20
0.2181089797482783
 10
0.1750766390712215
 20
0.2186905820268885
 10
0.1743331363330002
 20
0.2190136949974515
 10
0.1738159168572471
 20
0.2192398731419905
 10
0.1733633503323104
 20
0.2216309059189472
 10
0.173040088676312
 20
0.2227617993126641
 10
0.1722642594626824
 20
0.2234080245860333
 10
0.1722642594626824
 20
0.2240542491916554
 10
0.171520756724461
 20
0.2245712291432538
 10
0.1709388853305861
 20
0.2253466990706515
 10
0.1706479501499983
 20
0.2264129701373566
 10
0.1707126020681178
 20
0.2274792412040569
 10
0.1707126020681178
 20
0.2280285323191636
  0
LWPOLYLINE
  5
2FF2
330
2
100
AcDbEntity
  8
0
  6
Continuous
 62
     1
370
     0
100
AcDbPolyline
 90
        5
 70
   128
 43
0.0
 10
0.1724684203165576
 20
0.2239784320093905
 10
0.1750716666411304
 20
0.224014076588786
 10
0.1784059613930471
 20
0.2241922988180304
 10
0.184992544526496
 20
0.2247628190913995
 10
0.188451652953485
 20
0.2251905520409322
  0
LWPOLYLINE
  5
2FF3
330
2
100
AcDbEntity
  8
0
  6
Continuous
 62
     1
370
     0
100
AcDbPolyline
 90
        5
 70
   128
 43
0.0
 10
0.1983330219644226
 20
0.2268657838362731
 10
0.2018519214105869
 20
0.2276194850621271
 10
0.2052271924976086
 20
0.2287320914110416
 10
0.2089723855331965
 20
0.2299045904025153
 10
0.2109723340922472
 20
0.2304548364023806
  0
LWPOLYLINE
  5
2FF4
330
2
100
AcDbEntity
  8
0
  6
Continuous
 62
     1
370
     0
100
AcDbPolyline
 90
        4
 70
   128
 43
0.0
 10
0.19818939360528
 20
0.226112082610419
 10
0.202139178128877
 20
0.2270452367316792
 10
0.2072738994553258
 20
0.228588529495364
 10
0.2107568920698781
 20
0.229593464240587
  0
LWPOLYLINE
  5
2FF5
330
2
100
AcDbEntity
  8
0
  6
Continuous
 62
     1
370
     0
100
AcDbPolyline
 90
        2
 70
   128
 43
0.0
 10
0.2117151036164775
 20
0.2296763061694865
 10
0.2160049879004572
 20
0.2295174948109568
  0
LWPOLYLINE
  5
2FF6
330
2
100
AcDbEntity
  8
0
  6
Continuous
 62
     1
370
     0
100
AcDbPolyline
 90
        2
 70
   128
 43
0.0
 10
0.2115738731768898
 20
0.2304703616266406
 10
0.2158637574608695
 20
0.2302056762516718
  0
LWPOLYLINE
  5
2FF7
330
2
100
AcDbEntity
  8
0
  6
Continuous
 62
     1
370
     0
100
AcDbPolyline
 90
        5
 70
   128
 43
0.0
 10
0.1953127369471819
 20
0.2209912466468701
 10
0.1972893693013361
 20
0.221273491885167
 10
0.1994228774358604
 20
0.2215557371234639
 10
0.2018073864058929
 20
0.2216498193147323
 10
0.20406639495817
 20
0.221618458361724
  0
LWPOLYLINE
  5
2FF8
330
2
100
AcDbEntity
  8
0
  6
Continuous
 62
     1
370
     0
100
AcDbPolyline
 90
        5
 70
   128
 43
0.0
 10
0.1974148697190914
 20
0.2218693433147644
 10
0.2016505106255251
 20
0.2225279159826266
 10
0.204662522717026
 20
0.2230924071269722
 10
0.2079569099739506
 20
0.2239705037948664
 10
0.2120356751000167
 20
0.2250054038922891
  0
LWPOLYLINE
  5
2FF9
330
2
100
AcDbEntity
  8
0
  6
Continuous
 62
     1
370
     0
100
AcDbPolyline
 90
        6
 70
   128
 43
0.0
 10
0.173996188360079
 20
0.2192667414623621
 10
0.1782632046291253
 20
0.2194862661301461
 10
0.1818713434467852
 20
0.2198625928919595
 10
0.1864834856064824
 20
0.2203016415597849
 10
0.1907818772381412
 20
0.2207406902276057
 10
0.1926643845371549
 20
0.2210542964189108
  0
LWPOLYLINE
  5
2FFA
330
2
100
AcDbEntity
  8
0
  6
Continuous
 62
     1
370
     0
100
AcDbPolyline
 90
       18
 70
   128
 43
0.0
 10
0.1956969586339535
 20
0.2009355709703098
 42
-0.6969890211612863
 10
0.1921990229117395
 20
0.2004518036468535
 42
-0.0031023912712712
 10
0.1903713982289471
 20
0.2076060874091694
 42
0.2042074380527084
 10
0.1852427522516612
 20
0.2164507602599662
 42
0.2103675733677307
 10
0.1806888365770585
 20
0.2175062524806475
 42
0.4712843350415534
 10
0.1775428952050011
 20
0.211789004176173
 42
0.3581351055493958
 10
0.1808428342343407
 20
0.2099638821834253
 42
0.2709800826645485
 10
0.1829327956540117
 20
0.2117670144488596
 42
0.4461401655355897
 10
0.181568820387061
 20
0.2142078401257119
 42
0.7646613859064245
 10
0.181370824726881
 20
0.2138340201033378
 42
-0.5302436139951089
 10
0.1811429924207719
 20
0.2114979539655295
 42
-1.282212929955851
 10
0.1814588227980729
 20
0.2157470990020975
 42
-0.4412979024662583
 10
0.1838567784996089
 20
0.2107555016828098
 42
-0.6699211494341299
 10
0.1759149257244796
 20
0.2121848132581181
 42
-0.1956855568393625
 10
0.1768169090522808
 20
0.2173083476058013
 42
-0.4124404183914951
 10
0.185858741848088
 20
0.217836093716142
 42
-0.1575891902831175
 10
0.1912082401408375
 20
0.2087916135662434
 42
-0.018704303524191
 10
0.1923302196793117
 20
0.2027665130858407
 42
0.8630923180374331
  0
LWPOLYLINE
  5
2FFB
330
2
100
AcDbEntity
  8
0
  6
Continuous
 62
     1
370
     0
100
AcDbPolyline
 90
       44
 70
   128
 43
0.0
 10
0.1927949141832672
 20
0.1885362521213681
 10
0.1933130176465903
 20
0.1893026900408821
 10
0.1936446028304222
 20
0.1899241263723119
 10
0.1934788097221589
 20
0.190814850890356
 10
0.1932922935080592
 20
0.191187712689212
 10
0.1928985348759322
 20
0.1913741435886424
 10
0.1921110176116785
 20
0.1909184238348458
 10
0.1926498452135351
 20
0.1916020037994143
 10
0.1930228797071285
 20
0.1922234394630922
 10
0.1931472245383271
 20
0.1930520210157448
 10
0.1929192590144634
 20
0.1932591662369724
 10
0.1924011555511402
 20
0.1932384519151752
 10
0.1919866738131768
 20
0.1930934503270911
 10
0.1927534659062002
 20
0.1936320280358284
 10
0.1928570865988652
 20
0.1942120350559119
 10
0.1928985348759322
 20
0.1949577586536286
 10
0.192587672797937
 20
0.1953513347742818
 10
0.1918623289819783
 20
0.1952684761515893
 10
0.1919245013975763
 20
0.1954756220405687
 10
0.1924011555511402
 20
0.1959727704379597
 10
0.1926912934906021
 20
0.1968220663124095
 10
0.1924011555511402
 20
0.1971949281112655
 10
0.1919452255361098
 20
0.1972156431008146
 10
0.1915307427654495
 20
0.1970706408449834
 10
0.1922146383043436
 20
0.1976506478650621
 10
0.192587672797937
 20
0.1982927985182892
 10
0.1924011555511402
 20
0.1986035166840017
 10
0.1924415504785298
 20
0.1992779464486593
 10
0.1921721366776016
 20
0.1998993821123372
 10
0.1917162066625712
 20
0.2002308145998469
 10
0.1909286893983174
 20
0.2002101002780497
 10
0.1904105869676889
 20
0.2000236693786241
 10
0.1900997248896936
 20
0.1996300932579662
 10
0.190514207660354
 20
0.200520818443767
 10
0.1906592766300836
 20
0.2008729652530739
 10
0.1911981031992457
 20
0.2013286850068706
 10
0.1914882411387075
 20
0.2019086920269541
 10
0.1915296894157745
 20
0.2025922719915274
 10
0.1912809997533773
 20
0.203047991745324
 10
0.1906385524915501
 20
0.2031308497002646
 10
0.191115206645114
 20
0.2034829971773234
 10
0.1910944825065806
 20
0.203918001941571
 10
0.1908043455998157
 20
0.2043737223631195
 10
0.1910323100909825
 20
0.2047258691724264
  0
LWPOLYLINE
  5
2FFC
330
2
100
AcDbEntity
  8
0
  6
Continuous
 62
     1
370
     0
100
AcDbPolyline
 90
       34
 70
   128
 43
0.0
 10
0.1905971042144856
 20
0.2061966013783061
 10
0.1903691386906219
 20
0.2062587450114495
 10
0.1897474145346337
 20
0.2063001736550439
 10
0.1894780017663999
 20
0.2061966013783061
 10
0.1898717593658299
 20
0.2067144647652461
 10
0.1900375524740955
 20
0.2072737567957806
 10
0.1898303110887652
 20
0.2077916201827207
 10
0.1894780017663999
 20
0.2079366224385567
 10
0.1893743810737348
 20
0.2081644819815814
 10
0.1893743810737348
 20
0.2086823453685215
 10
0.1891464155498712
 20
0.2092830673781494
 10
0.1885039672553494
 20
0.2096766434988073
 10
0.1881102096559195
 20
0.2094902125993769
 10
0.187592106192594
 20
0.2089102055792934
 10
0.1873848648072639
 20
0.2089516342228878
 10
0.1872397958375341
 20
0.2091587801118672
 10
0.1868460382381019
 20
0.2087030603580659
 10
0.1868460382381019
 20
0.2084544858254968
 10
0.1865351761601066
 20
0.2086823453685215
 10
0.1861828658050467
 20
0.2090137778560313
 10
0.1855611426817531
 20
0.2092830673781494
 10
0.1848357978330975
 20
0.2092002087554616
 10
0.1844005909239059
 20
0.2088687762679471
 10
0.1840897298786075
 20
0.2085373437804374
 10
0.183965385047409
 20
0.2081230533379871
 10
0.183923936770342
 20
0.2085373437804374
 10
0.1835509022767485
 20
0.2085166294586402
 10
0.1834058333070189
 20
0.2082887692478636
 10
0.1833851091684854
 20
0.2081437676597843
 10
0.1832607643372868
 20
0.2083094835696608
 10
0.1828048343222564
 20
0.2082266256147202
 10
0.1824939722442634
 20
0.2080609097048436
 10
0.1822245584433328
 20
0.2077916201827207
 10
0.1821623860277347
 20
0.2076466185946413
  0
LWPOLYLINE
  5
2FFD
330
2
100
AcDbEntity
  8
0
  6
Continuous
 62
     1
370
     0
100
AcDbPolyline
 90
        4
 70
   128
 43
0.0
 10
0.184069005740074
 20
0.2070873265641069
 10
0.183613074692349
 20
0.2073151861071269
 10
0.183468005722617
 20
0.2076880479059876
 10
0.1833436608914184
 20
0.2079573367603539
  0
LWPOLYLINE
  5
2FFE
330
2
100
AcDbEntity
  8
0
  6
Continuous
 62
     1
370
     0
100
AcDbPolyline
 90
        4
 70
   128
 43
0.0
 10
0.1863693830518434
 20
0.2066108918207611
 10
0.1850637633569611
 20
0.2069423243082709
 10
0.1843798678180694
 20
0.2072323281521862
 10
0.184069005740074
 20
0.2078744788054132
  0
LWPOLYLINE
  5
2FFF
330
2
100
AcDbEntity
  8
0
  6
Continuous
 62
     1
370
     0
100
AcDbPolyline
 90
        3
 70
   128
 43
0.0
 10
0.1870740027292685
 20
0.2065694631771668
 10
0.1872605199760653
 20
0.2073151861071269
 10
0.187032554452204
 20
0.2083716272028042
  0
LWPOLYLINE
  5
3000
330
2
100
AcDbEntity
  8
0
  6
Continuous
 62
     1
370
     0
100
AcDbPolyline
 90
        3
 70
   128
 43
0.0
 10
0.1888562776104093
 20
0.2069008956646765
 10
0.1890635189957396
 20
0.2075016170065572
 10
0.1893122086581367
 20
0.2077501915391263
  0
LWPOLYLINE
  5
3001
330
2
100
AcDbEntity
  8
0
  6
Continuous
 62
     1
370
     0
100
AcDbPolyline
 90
        2
 70
   128
 43
0.0
 10
0.1882552786256493
 20
0.2071080408859041
 10
0.1882138303485823
 20
0.2083094835696608
  0
LWPOLYLINE
  5
3002
330
2
100
AcDbEntity
  8
0
  6
Continuous
 62
     1
370
     0
100
AcDbPolyline
 90
        4
 70
   128
 43
0.0
 10
0.1892286966173309
 20
0.200972519668549
 10
0.189332317309996
 20
0.2031475461607944
 10
0.1897053518035894
 20
0.2048047092661044
 10
0.1900162138815846
 20
0.2053432869748416
  0
LWPOLYLINE
  5
3003
330
2
100
AcDbEntity
  8
0
  6
Continuous
 62
     1
370
     0
100
AcDbPolyline
 90
        3
 70
   128
 43
0.0
 10
0.1885655252169703
 20
0.2039554133916546
 10
0.1887105941867024
 20
0.2052189997085547
 10
0.1889178345393356
 20
0.2057368630954948
  0
LWPOLYLINE
  5
3004
330
2
100
AcDbEntity
  8
0
  6
Continuous
 62
     1
370
     0
100
AcDbPolyline
 90
        4
 70
   128
 43
0.0
 10
0.1895395586953262
 20
0.2005996585374402
 10
0.1898504207733191
 20
0.2020082464424292
 10
0.190182005957151
 20
0.2029404009395716
 10
0.1903892473424811
 20
0.2031268318389972
  0
LWPOLYLINE
  5
3005
330
2
100
AcDbEntity
  8
0
  6
Continuous
 62
     1
370
     0
100
AcDbPolyline
 90
        5
 70
   128
 43
0.0
 10
0.1899131188310613
 20
0.1944436400175558
 10
0.1901618084934562
 20
0.1961215174446583
 10
0.1904933947099849
 20
0.1973229607961716
 10
0.1910736695562115
 20
0.1985451184694774
 10
0.1911565661103456
 20
0.1987729780125022
  0
LWPOLYLINE
  5
3006
330
2
100
AcDbEntity
  8
0
  6
Continuous
 62
     1
370
     0
100
AcDbPolyline
 90
        5
 70
   128
 43
0.0
 10
0.1909503605188636
 20
0.188597254567059
 10
0.1908467398261985
 20
0.1904201335822503
 10
0.1909503605188636
 20
0.1923880141855209
 10
0.1913026708739235
 20
0.1939830336576874
 10
0.1916757053675169
 20
0.1946251843109097
  0
LWPOLYLINE
  5
3007
330
2
100
AcDbEntity
  8
0
  6
Continuous
 62
     1
370
     0
100
AcDbPolyline
 90
        3
 70
   128
 43
0.0
 10
0.1912197743197919
 20
0.1912280001453538
 10
0.1915099122592537
 20
0.1924915871300106
 10
0.1918000501987155
 20
0.19292659256201
  0
LWPOLYLINE
  5
3008
330
2
100
AcDbEntity
  8
0
  6
Continuous
 62
     1
370
     0
100
AcDbPolyline
 90
        3
 70
   128
 43
0.0
 10
0.1892087439025305
 20
0.1944424447422219
 10
0.1894574335649277
 20
0.198005345485411
 10
0.189581778396124
 20
0.199662507922969
  0
LWPOLYLINE
  5
3009
330
2
100
AcDbEntity
  8
0
  6
Continuous
 62
     1
370
     0
100
AcDbPolyline
 90
        2
 70
   128
 43
0.0
 10
0.1885871240488132
 20
0.1991913944919732
 10
0.1885042285273761
 20
0.201697853471733
  0
LWPOLYLINE
  5
300A
330
2
100
AcDbEntity
  8
0
  6
Continuous
 62
     1
370
     0
100
AcDbPolyline
 90
        3
 70
   128
 43
0.0
 10
0.1889187102653419
 20
0.1952142033063338
 10
0.18898088268094
 20
0.1982385256730336
 10
0.1890430550965382
 20
0.2005378394315659
  0
LWPOLYLINE
  5
300B
330
2
100
AcDbEntity
  8
0
  6
Continuous
 62
     1
370
     0
100
AcDbPolyline
 90
       37
 70
   128
 43
0.0
 10
0.1981577259897655
 20
0.1995678948691942
 10
0.1992185214024873
 20
0.1991291480250871
 10
0.1998037883000234
 20
0.1989463370069777
 10
0.2000964212324442
 20
0.1985075901628705
 10
0.2000232629993378
 20
0.1980139995459009
 10
0.1998952355750562
 20
0.1976300958068995
 10
0.2001878695401738
 20
0.1970268189797182
 10
0.2003158959317586
 20
0.1963321363096087
 10
0.2001147113070675
 20
0.196003076343465
 10
0.1996940509503651
 20
0.1958933894655015
 10
0.1991270730947576
 20
0.1958933894655015
 10
0.1988344401623369
 20
0.1958933894655015
 10
0.1987064127380551
 20
0.1957654215525026
 10
0.1983589106144568
 20
0.1957654215525026
 10
0.1982491732648007
 20
0.1954546426213943
 10
0.1981211468732136
 20
0.1948330840914259
 10
0.1979748293743087
 20
0.1946319920382811
 10
0.1977370656330631
 20
0.1946319920382811
 10
0.1975724590922294
 20
0.1946502730733164
 10
0.1975175899010518
 20
0.1939555904032068
 10
0.1974078525513958
 20
0.1934071566811313
 10
0.1970054822693167
 20
0.1929318470992017
 10
0.1964750835302612
 20
0.1928221608889853
 10
0.1961275814066627
 20
0.1929501288019889
 10
0.1957069210499603
 20
0.1935899676992407
 10
0.195450867234094
 20
0.1941201203862762
 10
0.1953959980429163
 20
0.1943577751772434
 10
0.1951765233436019
 20
0.1944126182823492
 10
0.1950667859939434
 20
0.1947965220213506
 10
0.1949753376862138
 20
0.1951438630225341
 10
0.1947375739449707
 20
0.1951987067953919
 10
0.1941888861639865
 20
0.1952901119705683
 10
0.1940425696977762
 20
0.1953997988485319
 10
0.1938048049238361
 20
0.1954180798835671
 10
0.1934390127256145
 20
0.1953266747083907
 10
0.1931646688351224
 20
0.1953266747083907
 10
0.1929086150192559
 20
0.1953632367784613
  0
LWPOLYLINE
  5
300C
330
2
100
AcDbEntity
  8
0
  6
Continuous
 62
     1
370
     0
100
AcDbPolyline
 90
        4
 70
   128
 43
0.0
 10
0.195999555015078
 20
0.2006099192082346
 10
0.1956520528914796
 20
0.1981236864238692
 10
0.1952131024601539
 20
0.1969171321017546
 10
0.1947558629868994
 20
0.1953997988485319
  0
LWPOLYLINE
  5
300D
330
2
100
AcDbEntity
  8
0
  6
Continuous
 62
     1
370
     0
100
AcDbPolyline
 90
        3
 70
   128
 43
0.0
 10
0.1935304610333441
 20
0.197099943787616
 10
0.1945363882875827
 20
0.1979957185108656
 10
0.1949753376862138
 20
0.1987269632510505
  0
LWPOLYLINE
  5
300E
330
2
100
AcDbEntity
  8
0
  6
Continuous
 62
     1
370
     0
100
AcDbPolyline
 90
        3
 70
   128
 43
0.0
 10
0.1933109863340296
 20
0.1980322805809409
 10
0.1943169125555712
 20
0.1983979032849069
 10
0.194572967404137
 20
0.1987452442860858
  0
LWPOLYLINE
  5
300F
330
2
100
AcDbEntity
  8
0
  6
Continuous
 62
     1
370
     0
100
AcDbPolyline
 90
        6
 70
   128
 43
0.0
 10
0.1981577259897655
 20
0.1957837025875379
 10
0.1974627217425711
 20
0.1963321363096087
 10
0.1970969295443494
 20
0.1969536941718252
 10
0.1966945592622726
 20
0.1978129074927609
 10
0.1964019252971548
 20
0.1989463370069777
 10
0.1962373197890181
 20
0.199842111730232
  0
LWPOLYLINE
  5
3010
330
2
100
AcDbEntity
  8
0
  6
Continuous
 62
     1
370
     0
100
AcDbPolyline
 90
        2
 70
   128
 43
0.0
 10
0.1972066668940078
 20
0.199348521781019
 10
0.1991453631693809
 20
0.197886031632902
  0
LWPOLYLINE
  5
3011
330
2
100
AcDbEntity
  8
0
  6
Continuous
 62
     1
370
     0
100
AcDbPolyline
 90
       13
 70
   128
 43
0.0
 10
0.1989624675866185
 20
0.1989280559719423
 10
0.1995111543349081
 20
0.1985441522329411
 10
0.199456286176425
 20
0.1981419674589044
 10
0.1992916796355912
 20
0.1980322805809409
 10
0.199236810444416
 20
0.1976483775096867
 10
0.1993831279433209
 20
0.1974655658238301
 10
0.1994379961018017
 20
0.1970816620848288
 10
0.1994014169852497
 20
0.1967708831537205
 10
0.1991453631693809
 20
0.196441823187577
 10
0.1988161500877136
 20
0.1963869794147144
 10
0.1984320688475632
 20
0.1965515100655405
 10
0.1981760150316944
 20
0.1965880721356111
 10
0.1981211468732136
 20
0.1962041683966098
  0
LWPOLYLINE
  5
3012
330
2
100
AcDbEntity
  8
0
  6
Continuous
 62
     1
370
     0
100
AcDbPolyline
 90
        2
 70
   128
 43
0.0
 10
0.1973529843929151
 20
0.1946502730733164
 10
0.196914033961587
 20
0.1951073009524588
  0
LWPOLYLINE
  5
3013
330
2
100
AcDbEntity
  8
0
  6
Continuous
 62
     1
370
     0
100
AcDbPolyline
 90
       59
 70
   128
 43
0.0
 10
0.2003520547411366
 20
0.1891875810200769
 10
0.1996965562702816
 20
0.1901703744583731
 10
0.1996497348771701
 20
0.190825569638736
 10
0.1997901990565023
 20
0.1914807648190989
 10
0.2000711274151691
 20
0.1918083624092803
 10
0.2001179488082783
 20
0.1923699588505189
 10
0.2000711274151691
 20
0.1930251540308817
 10
0.2004456975273596
 20
0.1932591528819388
 10
0.2003988761342481
 20
0.1937271492485539
 10
0.2004456975273596
 20
0.1946163432799786
 10
0.2007266258860241
 20
0.1954587372740892
 10
0.2014757671430996
 20
0.1952247390907793
 10
0.2019439800415109
 20
0.1956459360878323
 10
0.2011948387844352
 20
0.1965819294888144
 10
0.201054374605103
 20
0.1973775234456157
 10
0.201709873075958
 20
0.1977051217035443
 10
0.2022249084001753
 20
0.1977051217035443
 10
0.201709873075958
 20
0.1983135175143497
 10
0.2011948387844352
 20
0.1985007156603408
 10
0.2012416601775468
 20
0.1991559115084556
 10
0.2014757671430996
 20
0.199483509098637
 10
0.2012884815706559
 20
0.1999047060956947
 10
0.2015225885362112
 20
0.2011214977172961
 10
0.2018971586484017
 20
0.2013086965310439
 10
0.2024590153657306
 20
0.2012150971241676
 10
0.2027867640848096
 20
0.2016362941212253
 10
0.2026931212985889
 20
0.2020574911182782
 10
0.2029272282641418
 20
0.2024786881153312
 10
0.2036295481281083
 20
0.2026190868917696
 10
0.2039104764867727
 20
0.2027594863359552
 10
0.2036295481281083
 20
0.2031806833330081
 10
0.2023185511863983
 20
0.2035082809231896
 10
0.2021780870070662
 20
0.2042102761408618
 10
0.2025994785123658
 20
0.2044910743614858
 10
0.2029740496572533
 20
0.204725072544791
 10
0.2028065753202894
 20
0.2049907421855929
 10
0.2026613060075817
 20
0.205216611828904
 10
0.2020802287567467
 20
0.2056522182373229
 10
0.2017089849576026
 20
0.2060555575538456
 10
0.2018058311660751
 20
0.2064427633244179
 10
0.2021286518609842
 20
0.206781568457134
 10
0.2028227163550351
 20
0.2071687742277062
 10
0.2036781911965418
 20
0.2076205141820803
 10
0.2049856150109195
 20
0.207491445814472
 10
0.2048602725956146
 20
0.2079418128715977
 10
0.2046488250404511
 20
0.2082588372832406
 10
0.2045137752849939
 20
0.2086670157954729
 10
0.2046134903222889
 20
0.2090514497292286
 10
0.2047986733261633
 20
0.2094358836629891
 10
0.2048271633368187
 20
0.2097491265974284
 10
0.2047274493322182
 20
0.2102759438653209
 10
0.2046562243055786
 20
0.2109593822665547
 10
0.2048841423254373
 20
0.2114007694004176
 10
0.2052829993765359
 20
0.211600105934652
 10
0.2062089174939915
 20
0.2116570591347545
 10
0.2070351216068442
 20
0.2115573905337636
 10
0.2074054886472876
 20
0.2115004373336613
 10
0.2076049166564885
 20
0.2116428206677932
 10
0.207590671651162
 20
0.2120984462686174
  0
LWPOLYLINE
  5
3014
330
2
100
AcDbEntity
  8
0
  6
Continuous
 62
     1
370
     0
100
AcDbPolyline
 90
       10
 70
   128
 43
0.0
 10
0.2093444534235589
 20
0.2118808246928362
 10
0.2101867438382833
 20
0.2117049055387967
 10
0.2108278899034501
 20
0.2117426027865574
 10
0.2114313208867289
 20
0.2114033295599816
 10
0.212160468121176
 20
0.2112651069859461
 10
0.2129021853284259
 20
0.2112399754874406
 10
0.2137444757431503
 20
0.211365632312221
 10
0.2141593344150681
 20
0.2114284603907352
 10
0.2146621942562639
 20
0.2114661576384911
 10
0.2148884816495129
 20
0.2115164206355069
  0
LWPOLYLINE
  5
3015
330
2
100
AcDbEntity
  8
0
  6
Continuous
 62
     1
370
     0
100
AcDbPolyline
 90
       71
 70
   128
 43
0.0
 10
0.2141347325039513
 20
0.2112284981732653
 10
0.2146885331616478
 20
0.2110228954581916
 10
0.2151790419615426
 20
0.2108647404994666
 10
0.2154796762207189
 20
0.2106275070597486
 10
0.2153214476089053
 20
0.2100739630348239
 10
0.215068282243082
 20
0.2094413405289064
 10
0.214846761773464
 20
0.2091408456399
 10
0.2146727101971968
 20
0.2087454565737051
 10
0.2147992928801108
 20
0.2083816988999017
 10
0.2147834699156597
 20
0.2078756012958217
 10
0.2154348355380793
 20
0.207330245240783
 10
0.2159095213735205
 20
0.2072195360351507
 10
0.2163683842445108
 20
0.2068715940575477
 10
0.2164158531378639
 20
0.2066027298931856
 10
0.2164474990667661
 20
0.2062864186402268
 10
0.2160677499853343
 20
0.2055272725679804
 10
0.2158936984090695
 20
0.2053058548244582
 10
0.2160835729497853
 20
0.2051476991979812
 10
0.2161626867393438
 20
0.2048946507298148
 10
0.2160519270208832
 20
0.2045150773598203
 10
0.2157512927617068
 20
0.204072241872776
 10
0.2159253443379716
 20
0.2038033777084139
 10
0.2161310418431386
 20
0.203407988642219
 10
0.216225978597148
 20
0.203060046664616
 10
0.2160677499853343
 20
0.202712104687013
 10
0.2158304065512651
 20
0.2024590555510994
 10
0.2156088871143441
 20
0.2019371429185708
 10
0.2149601497026357
 20
0.201699909478853
 10
0.2148493889514782
 20
0.2015259381561755
 10
0.2150867323855472
 20
0.2011621811501239
 10
0.2153141794961384
 20
0.2008229246173366
 10
0.2153807480975924
 20
0.2007342078100253
 10
0.215713588006774
 20
0.2008783720376261
 10
0.2159465755301231
 20
0.2008783720376261
 10
0.2164458364265913
 20
0.2006898497402433
 10
0.2168563391877891
 20
0.2004680593913426
 10
0.2170560429267574
 20
0.2001686415856334
 10
0.2171004219943949
 20
0.1997694182898622
 10
0.2169783800747436
 20
0.1993036575555372
 10
0.21700056960856
 20
0.1989155236102688
 10
0.2169118125059841
 20
0.1986161058045643
 10
0.2167897705863351
 20
0.1983499573858816
 10
0.2161910714150337
 20
0.1979031494446858
 10
0.2160357467436984
 20
0.1976480903765105
 10
0.2163463971190636
 20
0.1976480903765105
 10
0.2167790894140778
 20
0.1975261048499248
 10
0.2170564560050622
 20
0.1970270760640772
 10
0.2169455093686675
 20
0.1966500314693162
 10
0.2166126694594859
 20
0.1962175394542705
 10
0.2161910714150337
 20
0.1959403010173284
 10
0.2161245038462742
 20
0.195762868738205
 10
0.2164129657205177
 20
0.1957296000189305
 10
0.2167568998802591
 20
0.195740689369438
 10
0.2172117817090922
 20
0.1955854357913344
 10
0.2173449178793032
 20
0.1951751231450509
 10
0.2173673325407981
 20
0.1947605081753314
 10
0.2172563859044034
 20
0.1942725680722394
 10
0.2168902611781464
 20
0.1938068073379191
 10
0.2170566811327383
 20
0.1936515544275627
 10
0.2173340487564196
 20
0.1934741214806921
 10
0.2175115629615714
 20
0.1930970768859312
 10
0.2174339001095552
 20
0.1925315106615393
 10
0.217223102120025
 20
0.1922986302943792
 10
0.2171454392680112
 20
0.1921433767162708
 10
0.2166182883571218
 20
0.1913559754036237
 10
0.2171281157966189
 20
0.1916744702042517
 10
0.2177016719242241
 20
0.19110117942957
 10
0.2178609931281542
 20
0.1904004903339879
 10
0.2175104868925872
 20
0.1896042526646684
 10
0.2171918444847294
 20
0.1890628116371498
 10
0.2170962519689097
 20
0.1887443161687698
  0
LWPOLYLINE
  5
3016
330
2
100
AcDbEntity
  8
0
  6
Continuous
 62
     1
370
     0
100
AcDbPolyline
 90
        4
 70
   128
 43
0.0
 10
0.2017917637844197
 20
0.1891943386660786
 10
0.2015393739731102
 20
0.1905187685037946
 10
0.2009399498493862
 20
0.1913386532598585
 10
0.2003405267583567
 20
0.1917170614033457
  0
LWPOLYLINE
  5
3017
330
2
100
AcDbEntity
  8
0
  6
Continuous
 62
     1
370
     0
100
AcDbPolyline
 90
        5
 70
   128
 43
0.0
 10
0.2028644166098681
 20
0.1892889410358274
 10
0.2025173812647542
 20
0.1910548468183636
 10
0.2020757014185302
 20
0.1923477427554155
 10
0.2013500829054988
 20
0.1930730251417306
 10
0.2009399498493862
 20
0.1933883654838895
  0
LWPOLYLINE
  5
3018
330
2
100
AcDbEntity
  8
0
  6
Continuous
 62
     1
370
     0
100
AcDbPolyline
 90
       14
 70
   128
 43
0.0
 10
0.205325209783073
 20
0.1895412135766535
 10
0.2050097232934596
 20
0.1915909258006846
 10
0.2051359176827669
 20
0.1923162081869996
 10
0.2045364935590406
 20
0.1927261508989075
 10
0.2047573345148494
 20
0.1934829678536385
 10
0.2047573345148494
 20
0.1944605227807795
 10
0.2040632648573185
 20
0.1950912034650975
 10
0.2035900351228972
 20
0.1950912034650975
 10
0.2031483542439787
 20
0.1947127953216056
 10
0.2029590621436727
 20
0.1941136485379565
 10
0.2028328677543676
 20
0.1943974549794466
 10
0.2027382222205607
 20
0.1950912034650975
 10
0.2025173812647542
 20
0.1954380777079206
 10
0.2021387980968367
 20
0.1956272817796666
  0
LWPOLYLINE
  5
3019
330
2
100
AcDbEntity
  8
0
  6
Continuous
 62
     1
370
     0
100
AcDbPolyline
 90
        6
 70
   128
 43
0.0
 10
0.2055775985616854
 20
0.1904241661340457
 10
0.2051990153937679
 20
0.1932937637818925
 10
0.2048835289041545
 20
0.1946812607531896
 10
0.2042525559249277
 20
0.1956903502487466
 10
0.2033060974887866
 20
0.1968571092476337
 10
0.2025173812647542
 20
0.1974877899319516
  0
LWPOLYLINE
  5
301A
330
2
100
AcDbEntity
  8
0
  6
Continuous
 62
     1
370
     0
100
AcDbPolyline
 90
        4
 70
   128
 43
0.0
 10
0.2045364935590406
 20
0.1958480204198285
 10
0.203968618290817
 20
0.1972355180588727
 10
0.2031799030994792
 20
0.1982130729860185
 10
0.2019810548520287
 20
0.1991275601118267
  0
LWPOLYLINE
  5
301B
330
2
100
AcDbEntity
  8
0
  6
Continuous
 62
     1
370
     0
100
AcDbPolyline
 90
        4
 70
   128
 43
0.0
 10
0.2066818002426345
 20
0.1911494491881125
 10
0.206303217074717
 20
0.1943974549794466
 10
0.205735341806491
 20
0.1963210309330646
 10
0.2053567586385735
 20
0.1973616543292905
  0
LWPOLYLINE
  5
301C
330
2
100
AcDbEntity
  8
0
  6
Continuous
 62
     1
370
     0
100
AcDbPolyline
 90
        7
 70
   128
 43
0.0
 10
0.207123481121553
 20
0.1916224597013487
 10
0.2069972867322478
 20
0.1966679051758877
 10
0.2066502524198285
 20
0.1991275601118267
 10
0.2059237241018318
 20
0.201030347623223
 10
0.2054504943674128
 20
0.202007902550364
 10
0.2043778415419644
 20
0.203710740531572
 10
0.2034944797841274
 20
0.2044990913869671
  0
LWPOLYLINE
  5
301D
330
2
100
AcDbEntity
  8
0
  6
Continuous
 62
     1
370
     0
100
AcDbPolyline
 90
       10
 70
   128
 43
0.0
 10
0.2060814673466397
 20
0.1979715459036301
 10
0.2058921752463313
 20
0.1993905774433479
 10
0.2053242999781077
 20
0.200368132370489
 10
0.2046617791760773
 20
0.2009988130548022
 10
0.2041570016188524
 20
0.2007780750823922
 10
0.2039992583740469
 20
0.200273530668492
 10
0.2042200982971588
 20
0.199295975073599
 10
0.2036837718844334
 20
0.2005258025415661
 10
0.203431383105821
 20
0.201030347623223
 10
0.2028635078375975
 20
0.2012195516949689
  0
LWPOLYLINE
  5
301E
330
2
100
AcDbEntity
  8
0
  6
Continuous
 62
     1
370
     0
100
AcDbPolyline
 90
        2
 70
   128
 43
0.0
 10
0.2049141679546897
 20
0.201345687965382
 10
0.2040623550523509
 20
0.2023863106938512
  0
LWPOLYLINE
  5
301F
330
2
100
AcDbEntity
  8
0
  6
Continuous
 62
     1
370
     0
100
AcDbPolyline
 90
        3
 70
   128
 43
0.0
 10
0.2079276722915634
 20
0.1909737844474244
 10
0.2079276722915634
 20
0.1966097239806265
 10
0.2074114669230488
 20
0.2004993155073526
  0
LWPOLYLINE
  5
3020
330
2
100
AcDbEntity
  8
0
  6
Continuous
 62
     1
370
     0
100
AcDbPolyline
 90
        2
 70
   128
 43
0.0
 10
0.2078879641068569
 20
0.2009359021750932
 10
0.207173218847492
 20
0.2041110796402373
  0
LWPOLYLINE
  5
3021
330
2
100
AcDbEntity
  8
0
  6
Continuous
 62
     1
370
     0
100
AcDbPolyline
 90
        5
 70
   128
 43
0.0
 10
0.2062202244798783
 20
0.2036744929724918
 10
0.2055054792205158
 20
0.2051827020681094
 10
0.2049098574825833
 20
0.2058574269789663
 10
0.2047907339611534
 20
0.2069290494068384
 10
0.2048701503305689
 20
0.2071671876499497
  0
LWPOLYLINE
  5
3022
330
2
100
AcDbEntity
  8
0
  6
Continuous
 62
     1
370
     0
100
AcDbPolyline
 90
        8
 70
   128
 43
0.0
 10
0.2089203738111915
 20
0.1990704860486894
 10
0.2086821257356348
 20
0.2028013189692538
 10
0.208245336736538
 20
0.2055795989173777
 10
0.2076100078465911
 20
0.206849669769884
 10
0.2069746779239496
 20
0.2076831539546495
 10
0.2062996408492962
 20
0.2080403609854358
 10
0.2055451874052248
 20
0.208080050803913
 10
0.2052275229602501
 20
0.2079212921977561
  0
LWPOLYLINE
  5
3023
330
2
100
AcDbEntity
  8
0
  6
Continuous
 62
     1
370
     0
100
AcDbPolyline
 90
        3
 70
   128
 43
0.0
 10
0.2072526341842154
 20
0.2076831539546495
 10
0.2064981807401416
 20
0.208794465533247
 10
0.205386354666389
 20
0.2095485700810534
  0
LWPOLYLINE
  5
3024
330
2
100
AcDbEntity
  8
0
  6
Continuous
 62
     1
370
     0
100
AcDbPolyline
 90
        3
 70
   128
 43
0.0
 10
0.2099924927329322
 20
0.1895846441394865
 10
0.2099924927329322
 20
0.1992689344733235
 10
0.2101910326237799
 20
0.2081197406223902
  0
LWPOLYLINE
  5
3025
330
2
100
AcDbEntity
  8
0
  6
Continuous
 62
     1
370
     0
100
AcDbPolyline
 90
        3
 70
   128
 43
0.0
 10
0.2107072379922945
 20
0.1911722328720585
 10
0.2106278216228767
 20
0.199665831322587
 10
0.2108263615137245
 20
0.2040713898217601
  0
LWPOLYLINE
  5
3026
330
2
100
AcDbEntity
  8
0
  6
Continuous
 62
     1
370
     0
100
AcDbPolyline
 90
        4
 70
   128
 43
0.0
 10
0.2118587722507561
 20
0.1913706812966927
 10
0.211501399621075
 20
0.1973638285284377
 10
0.2116602313272138
 20
0.2022059730275996
 10
0.2115808149577959
 20
0.2064130831021385
  0
LWPOLYLINE
  5
3027
330
2
100
AcDbEntity
  8
0
  6
Continuous
 62
     1
370
     0
100
AcDbPolyline
 90
        5
 70
   128
 43
0.0
 10
0.2078879641068569
 20
0.2083181890470244
 10
0.2078879641068569
 20
0.2090722935948355
 10
0.2080467958129933
 20
0.2095882598995306
 10
0.2079276722915634
 20
0.2101042262042305
 10
0.207729131368021
 20
0.211056779176671
  0
LWPOLYLINE
  5
3028
330
2
100
AcDbEntity
  8
0
  6
Continuous
 62
     1
370
     0
100
AcDbPolyline
 90
        4
 70
   128
 43
0.0
 10
0.2091983311041519
 20
0.2094295012933737
 10
0.2090394983653183
 20
0.2100645363857533
 10
0.2091189147347339
 20
0.21069957214588
 10
0.2091983311041519
 20
0.2112155384505798
  0
LWPOLYLINE
  5
3029
330
2
100
AcDbEntity
  8
0
  6
Continuous
 62
     1
370
     0
100
AcDbPolyline
 90
        7
 70
   128
 43
0.0
 10
0.2102704489931955
 20
0.2083181890470244
 10
0.2109057778831423
 20
0.2089532248071558
 10
0.2116602313272138
 20
0.208992914625633
 10
0.2122955612498552
 20
0.2092310528687396
 10
0.2129308901397998
 20
0.2097073293549623
 10
0.213367679138899
 20
0.2104217440842962
 10
0.2134470955083167
 20
0.2108583307520369
  0
LWPOLYLINE
  5
302A
330
2
100
AcDbEntity
  8
0
  6
Continuous
 62
     1
370
     0
100
AcDbPolyline
 90
        3
 70
   128
 43
0.0
 10
0.2126926420642454
 20
0.191450060933647
 10
0.2128514737703843
 20
0.1954587219158
 10
0.2132485545847744
 20
0.1978401050146556
  0
LWPOLYLINE
  5
302B
330
2
100
AcDbEntity
  8
0
  6
Continuous
 62
     1
370
     0
100
AcDbPolyline
 90
        4
 70
   128
 43
0.0
 10
0.2127323502489544
 20
0.2006183849627842
 10
0.2135662190297467
 20
0.2033569750924309
 10
0.2143206735065126
 20
0.2046667357634144
 10
0.2153530832108498
 20
0.2058574269789663
  0
LWPOLYLINE
  5
302C
330
2
100
AcDbEntity
  8
0
  6
Continuous
 62
     1
370
     0
100
AcDbPolyline
 90
        5
 70
   128
 43
0.0
 10
0.2134868036930257
 20
0.2047064249141397
 10
0.2140030080288459
 20
0.2062543238282344
 10
0.2140030080288459
 20
0.2068893595883612
 10
0.2135265118777347
 20
0.2073259462561066
 10
0.2131691382153566
 20
0.2075243946807407
  0
LWPOLYLINE
  5
302D
330
2
100
AcDbEntity
  8
0
  6
Continuous
 62
     1
370
     0
100
AcDbPolyline
 90
        3
 70
   128
 43
0.0
 10
0.2126926420642454
 20
0.2078816023792789
 10
0.213764759953289
 20
0.2093501216564193
 10
0.2144795052126516
 20
0.2098660879611192
  0
LWPOLYLINE
  5
302E
330
2
100
AcDbEntity
  8
0
  6
Continuous
 62
     1
370
     0
100
AcDbPolyline
 90
        2
 70
   128
 43
0.0
 10
0.2136456353991646
 20
0.1980782432577669
 10
0.213844176322707
 20
0.2002214874457641
  0
LWPOLYLINE
  5
302F
330
2
100
AcDbEntity
  8
0
  6
Continuous
 62
     1
370
     0
100
AcDbPolyline
 90
        4
 70
   128
 43
0.0
 10
0.213844176322707
 20
0.1952205836726887
 10
0.2146780461361962
 20
0.1972050692545289
 10
0.2155516231016975
 20
0.1985942095624668
 10
0.216226661209048
 20
0.1992292446548463
  0
LWPOLYLINE
  5
3030
330
2
100
AcDbEntity
  8
0
  6
Continuous
 62
     1
370
     0
100
AcDbPolyline
 90
        5
 70
   128
 43
0.0
 10
0.214360380658527
 20
0.1953396531281203
 10
0.2152736668414319
 20
0.1956571703404341
 10
0.2155119159496832
 20
0.1950618250665317
 10
0.2156310394711131
 20
0.1938314440325027
 10
0.2154324995802677
 20
0.192839200573833
  0
LWPOLYLINE
  5
3031
330
2
100
AcDbEntity
  8
0
  6
Continuous
 62
     1
370
     0
100
AcDbPolyline
 90
        3
 70
   128
 43
0.0
 10
0.2150751269505864
 20
0.1891480574717458
 10
0.2159089957313788
 20
0.1923232342691332
 10
0.2164649092846024
 20
0.1939902026386596
  0
LWPOLYLINE
  5
3032
330
2
100
AcDbEntity
  8
0
  6
Continuous
 62
     1
370
     0
100
AcDbPolyline
 90
        2
 70
   128
 43
0.0
 10
0.2158692885793644
 20
0.1890289886840661
 10
0.2162663693937545
 20
0.1905371977796837
  0
LWPOLYLINE
  5
3033
330
2
100
AcDbEntity
  8
0
  6
Continuous
 62
     1
370
     0
100
AcDbPolyline
 90
       20
 70
   128
 43
0.0
 10
0.2162177201291464
 20
0.2143844931387401
 10
0.2157358725486029
 20
0.2127207005957344
 10
0.2152540260007516
 20
0.2117136677750446
 10
0.2149254934655904
 20
0.211604207932618
 10
0.2147283745641113
 20
0.2124798880075387
 10
0.2146845707080144
 20
0.2158950420358943
 10
0.2148816896094935
 20
0.2189818158692184
 10
0.2153416347456424
 20
0.2208864210004151
 10
0.2157577749929999
 20
0.2222437255839753
 10
0.216130111384258
 20
0.2227253500926102
 10
0.2165243502199131
 20
0.2225939980145928
 10
0.2168966866111737
 20
0.2214556131158903
 10
0.2170280992121589
 20
0.2195072241812734
 10
0.2170938055126528
 20
0.2142531410607228
 10
0.2172484196893038
 20
0.206972857249318
 10
0.2175769511917704
 20
0.2026820224782852
 10
0.2181026026284107
 20
0.2009306616606871
 10
0.2186063526533536
 20
0.2002957935062056
 10
0.2192853191353785
 20
0.200186333663779
 10
0.2195043404812544
 20
0.2004052533486321
  0
LWPOLYLINE
  5
3034
330
2
100
AcDbEntity
  8
0
  6
Continuous
 62
     1
370
     0
100
AcDbPolyline
 90
       10
 70
   128
 43
0.0
 10
0.2199423831730065
 20
0.2001644414281882
 10
0.2197890681276243
 20
0.1994638972347004
 10
0.219241514246587
 20
0.1992887606855156
 10
0.2184311351635745
 20
0.1994857888025345
 10
0.2177302662371527
 20
0.2002082252316132
 10
0.217160810944413
 20
0.2014560699727422
 10
0.2168103769975493
 20
0.2036014870243827
 10
0.2166570619521671
 20
0.2067320446611223
 10
0.216678369563805
 20
0.2112918377494898
 10
0.2165907608189167
 20
0.2145975312676669
  0
LWPOLYLINE
  5
3035
330
2
100
AcDbEntity
  8
0
  6
Continuous
 62
     1
370
     0
100
AcDbPolyline
 90
        6
 70
   128
 43
0.0
 10
0.2152547302992614
 20
0.2143567193472278
 10
0.2163717394730408
 20
0.214619423503253
 10
0.2166126632633113
 20
0.2148164516202718
 10
0.2167878807530904
 20
0.2166334884768809
 10
0.2167878807530904
 20
0.2187351217250964
 10
0.2155394579456313
 20
0.2189540420777061
  0
LWPOLYLINE
  5
3036
330
2
100
AcDbEntity
  8
0
  6
Continuous
 62
     1
370
     0
100
AcDbPolyline
 90
       13
 70
   128
 43
0.0
 10
0.215867990480795
 20
0.2143348271116418
 10
0.2155175565339313
 20
0.2133934709977101
 10
0.2152766327436584
 20
0.2132621189196975
 10
0.2151014152538793
 20
0.2133496865265379
 10
0.2150357089533854
 20
0.214904019894869
 10
0.2151669356691359
 20
0.2178020564147982
 10
0.2154078594594089
 20
0.2195534172323962
 10
0.2156706856940763
 20
0.2205166662496658
 10
0.2159116084516546
 20
0.2208888302481222
 10
0.2160868259414337
 20
0.2208888302481222
 10
0.216196337130719
 20
0.2205166662496658
 10
0.2163277497317066
 20
0.2197285537815856
 10
0.2163934560321981
 20
0.2189842251169209
  0
LWPOLYLINE
  5
3037
330
2
100
AcDbEntity
  8
0
  6
Continuous
 62
     1
370
     0
100
AcDbPolyline
 90
        6
 70
   128
 43
0.0
 10
0.2103261546679405
 20
0.2238170030646606
 10
0.2112723270473565
 20
0.2223458601915576
 10
0.2116227609942178
 20
0.2218554787886902
 10
0.2112723270473565
 20
0.2229413223219833
 10
0.2115176305003509
 20
0.2238170030646606
 10
0.2123586734185969
 20
0.2247277107165209
  0
LWPOLYLINE
  5
3038
330
2
100
AcDbEntity
  8
0
  6
Continuous
 62
     1
370
     0
100
AcDbPolyline
 90
        5
 70
   128
 43
0.0
 10
0.2139356277285227
 20
0.2246926838073332
 10
0.2142510181774291
 20
0.2239921389460934
 10
0.2143561486712985
 20
0.2232565678434178
 10
0.2142510181774291
 20
0.2221707236423729
 10
0.2141458876835621
 20
0.2215052063580679
  0
LWPOLYLINE
  5
3039
330
2
100
AcDbEntity
  8
0
  6
Continuous
 62
     1
370
     0
100
AcDbPolyline
 90
        4
 70
   128
 43
0.0
 10
0.2144612791651654
 20
0.2235718126971005
 10
0.2150570175977204
 20
0.223536785120161
 10
0.215617712532318
 20
0.2233266223295404
 10
0.2158980594832695
 20
0.2228712685036127
  0
LWPOLYLINE
  5
303A
330
2
100
AcDbEntity
  8
0
  6
Continuous
 62
     1
370
     0
100
AcDbPolyline
 90
        6
 70
   128
 43
0.0
 10
0.2146014521242927
 20
0.2248678196887708
 10
0.2153724080466267
 20
0.2237819761554729
 10
0.2161433629362637
 20
0.2232215402664783
 10
0.2174399702952404
 20
0.2222057512193078
 10
0.2186314471603477
 20
0.2214701794488802
 10
0.2203836179273581
 20
0.2207696352553924
  0
LWPOLYLINE
  5
303B
330
2
100
AcDbEntity
  8
0
  6
Continuous
 62
     1
370
     0
100
AcDbPolyline
 90
        5
 70
   128
 43
0.0
 10
0.2164160059768367
 20
0.2299400980928396
 10
0.2169711470736326
 20
0.2286916083036838
 10
0.2177691627229925
 20
0.227824600986297
 10
0.2188100529249188
 20
0.227026955028892
 10
0.2205101727274853
 20
0.226229308403735
  0
LWPOLYLINE
  5
303C
330
2
100
AcDbEntity
  8
0
  6
Continuous
 62
     1
370
     0
100
AcDbPolyline
 90
        5
 70
   128
 43
0.0
 10
0.2161384349120915
 20
0.2291771318138021
 10
0.2166935760088874
 20
0.2280673627413539
 10
0.217352806642222
 20
0.2271309953994847
 10
0.2183243038197884
 20
0.2262639887498499
 10
0.2198509420941483
 20
0.2253969814324632
  0
LWPOLYLINE
  5
303D
330
2
100
AcDbEntity
  8
0
  6
Continuous
 62
     1
370
     0
100
AcDbPolyline
 90
        5
 70
   128
 43
0.0
 10
0.2267960586073128
 20
0.2227940517140277
 10
0.2303003877489843
 20
0.2215802416032347
 10
0.2330413977534746
 20
0.2208866360164271
 10
0.235296658652837
 20
0.2205051528769061
 10
0.2379335791207863
 20
0.2200543097129025
  0
LWPOLYLINE
  5
303E
330
2
100
AcDbEntity
  8
0
  6
Continuous
 62
     1
370
     0
100
AcDbPolyline
 90
        5
 70
   128
 43
0.0
 10
0.2272471112002644
 20
0.223314255570261
 10
0.2299187281803949
 20
0.2222738471900472
 10
0.2328679162252706
 20
0.2215455612571199
 10
0.2354354436688599
 20
0.2210600377470015
 10
0.2382458466977126
 20
0.2206438742613655
  0
LWPOLYLINE
  5
303F
330
2
100
AcDbEntity
  8
0
  6
Continuous
 62
     1
370
     0
100
AcDbPolyline
 90
        5
 70
   128
 43
0.0
 10
0.223187640961797
 20
0.2197421872656159
 10
0.2270389331598792
 20
0.2185283771548231
 10
0.2300228166842391
 20
0.2177307311974181
 10
0.2333189677855254
 20
0.2169677649183759
 10
0.2364416373586076
 20
0.2163782003699129
  0
LWPOLYLINE
  5
3040
330
2
100
AcDbEntity
  8
0
  6
Continuous
 62
     1
370
     0
100
AcDbPolyline
 90
       40
 70
   129
 43
0.0
 10
0.2223896253124371
 20
0.2205051528769061
 10
0.2212793420861507
 20
0.2203317518140789
 10
0.2206895055098706
 20
0.2204704731985384
 10
0.2204466309573065
 20
0.2211640787853508
 10
0.2202037564047401
 20
0.2227593713679128
 10
0.2203772379329466
 20
0.2248055077822255
 10
0.2209670755419213
 20
0.2259499565330367
 10
0.2215916096630771
 20
0.2264008003647922
 10
0.2223202322880771
 20
0.2271290862977147
 10
0.2232223364412812
 20
0.2273718480527715
 10
0.223673389034233
 20
0.227233127336064
 10
0.2235779276707763
 20
0.22776508228462
 10
0.2237214610219089
 20
0.2281476605367305
 10
0.2242597113468356
 20
0.2283269939046057
 10
0.2248458044009815
 20
0.2283389493289146
 10
0.2256232766335675
 20
0.2282074383260223
 10
0.2263289816742375
 20
0.2279085487118166
 10
0.2265921259792021
 20
0.2274183703054268
 10
0.22674762001264
 20
0.2268564586854413
 10
0.2268193872045559
 20
0.2265456136469266
 10
0.2267835030922507
 20
0.2262108577597941
 10
0.2268552702841643
 20
0.2258043686590658
 10
0.2272260648606532
 20
0.2253261456769851
 10
0.2275848977221397
 20
0.2249913897898573
 10
0.2276925469609694
 20
0.2244892559591587
 10
0.2275609753248368
 20
0.2240827661906785
 10
0.2272021424633479
 20
0.2235208545706928
 10
0.2266399707738127
 20
0.2230306761643031
 10
0.2258146537466161
 20
0.2226480979121926
 10
0.2257774529472153
 20
0.2220458066863437
 10
0.2255621534368614
 20
0.2214838950663581
 10
0.2253468539265098
 20
0.2208622056570808
 10
0.2249042921581049
 20
0.220407893523613
 10
0.2243899652631781
 20
0.2200850930607943
 10
0.2236962209048134
 20
0.2199535820579019
 10
0.2231699322948866
 20
0.219941626633593
 10
0.2229187497049243
 20
0.219941626633593
 10
0.2226436436849598
 20
0.219941626633593
 10
0.2227752163537894
 20
0.2202644270964165
 10
0.2227871770360947
 20
0.2205752714671792
  0
LWPOLYLINE
  5
3041
330
2
100
AcDbEntity
  8
0
  6
Continuous
 62
     1
370
     0
100
AcDbPolyline
 90
        6
 70
   128
 43
0.0
 10
0.222906787989922
 20
0.2205633160428703
 10
0.2232895432487163
 20
0.2207546055028063
 10
0.2235287661890701
 20
0.221029583600647
 10
0.2236005323482892
 20
0.2213762949120836
 10
0.223684260222508
 20
0.2219979843213609
 10
0.2236603378252027
 20
0.2226196743983901
  0
LWPOLYLINE
  5
3042
330
2
100
AcDbEntity
  8
0
  6
Continuous
 62
     1
370
     0
100
AcDbPolyline
 90
       17
 70
   128
 43
0.0
 10
0.223122088532973
 20
0.2232294083833586
 10
0.2233732711229353
 20
0.2228468301312481
 10
0.2238875990505567
 20
0.2227392299769736
 10
0.2247368374423616
 20
0.222882697071922
 10
0.2252152812576802
 20
0.223133763653393
 10
0.225681764390691
 20
0.2238152315197139
 10
0.2258492201391312
 20
0.2243173653504126
 10
0.225681764390691
 20
0.2246042988725574
 10
0.2251913588603749
 20
0.2249031878190112
 10
0.2247727205219723
 20
0.2251542550682389
 10
0.2243301597862644
 20
0.2250705664303294
 10
0.2241028985609106
 20
0.2248194991811064
 10
0.223899559732862
 20
0.2245086541425918
 10
0.2236962209048134
 20
0.224209765196138
 10
0.2233852328379351
 20
0.2239706533712193
 10
0.2231340492152759
 20
0.2236837198490744
 10
0.223050321341057
 20
0.2232891861726503
  0
LWPOLYLINE
  5
3043
330
2
100
AcDbEntity
  8
0
  6
Continuous
 62
     1
370
     0
100
AcDbPolyline
 90
        2
 70
   128
 43
0.0
 10
0.2241394911025086
 20
0.2206745380817216
 10
0.2240438025459843
 20
0.222549171183204
  0
LWPOLYLINE
  5
3044
330
2
100
AcDbEntity
  8
0
  6
Continuous
 62
     1
370
     0
100
AcDbPolyline
 90
        3
 70
   128
 43
0.0
 10
0.2250389660123047
 20
0.221439694585952
 10
0.2249624153736256
 20
0.2219179175680281
 10
0.2246562107535128
 20
0.2222813667405989
  0
LWPOLYLINE
  5
3045
330
2
100
AcDbEntity
  8
0
  6
Continuous
 62
     1
370
     0
100
AcDbPolyline
 90
        4
 70
   128
 43
0.0
 10
0.2253834619585431
 20
0.2250600473396722
 10
0.2258810436917045
 20
0.2255573994012974
 10
0.2262829368683391
 20
0.2258443329234423
 10
0.2266848300449762
 20
0.2262651686668946
  0
LWPOLYLINE
  5
3046
330
2
100
AcDbEntity
  8
0
  6
Continuous
 62
     1
370
     0
100
AcDbPolyline
 90
        3
 70
   128
 43
0.0
 10
0.2250963952562732
 20
0.2253661099413615
 10
0.2259193195273901
 20
0.2259782351447449
 10
0.2263594875070206
 20
0.2267433916489706
  0
LWPOLYLINE
  5
3047
330
2
100
AcDbEntity
  8
0
  6
Continuous
 62
     1
370
     0
100
AcDbPolyline
 90
        7
 70
   128
 43
0.0
 10
0.2245605376874262
 20
0.2252895942909403
 10
0.224579675605269
 20
0.2255956568926297
 10
0.2247710537510146
 20
0.2260356223833782
 10
0.2247901916688574
 20
0.2265903603481283
 10
0.224617951440957
 20
0.2269920676797833
 10
0.2241777824286319
 20
0.2271068408215414
 10
0.2239864053155833
 20
0.2271642280601748
  0
LWPOLYLINE
  5
3048
330
2
100
AcDbEntity
  8
0
  6
Continuous
 62
     1
370
     0
100
AcDbPolyline
 90
        5
 70
   128
 43
0.0
 10
0.2228572774570506
 20
0.2233001873799478
 10
0.2223979705268827
 20
0.22316628515865
 10
0.221804700237197
 20
0.2231854142381897
 10
0.221364531224872
 20
0.2233575746185811
 10
0.2211731541118234
 20
0.2234723477603393
  0
LWPOLYLINE
  5
3049
330
2
100
AcDbEntity
  8
0
  6
Continuous
 62
     1
370
     0
100
AcDbPolyline
 90
        4
 70
   128
 43
0.0
 10
0.2207903988530315
 20
0.2217698750392483
 10
0.2210774645226043
 20
0.2222672264331169
 10
0.2215367714527723
 20
0.2224967733843851
 10
0.2220152152680885
 20
0.2227071912561136
  0
LWPOLYLINE
  5
304A
330
2
100
AcDbEntity
  8
0
  6
Continuous
 62
     1
370
     0
100
AcDbPolyline
 90
        4
 70
   128
 43
0.0
 10
0.2235845121389486
 20
0.226093008954255
 10
0.2231060683236301
 20
0.2261121373660475
 10
0.2226084855577741
 20
0.226093008954255
 10
0.2220343531859337
 20
0.2261886530164686
  0
LWPOLYLINE
  5
304B
330
2
100
AcDbEntity
  8
0
  6
Continuous
 62
     1
370
     0
100
AcDbPolyline
 90
       10
 70
   128
 43
0.0
 10
0.2208372780771057
 20
0.2003381777023104
 10
0.2209201766966288
 20
0.2000185751018113
 10
0.221133343690235
 20
0.1999593889404217
 10
0.2214057244260845
 20
0.2002671549763957
 10
0.2215715206324362
 20
0.2008708498160667
 10
0.2223886628399867
 20
0.2049428296741444
 10
0.2229781544958822
 20
0.2080681347769481
 42
-0.1877626103121123
 10
0.22824766224037
 20
0.2165476149557983
 42
-0.2975275848848335
 10
0.2326873235540554
 20
0.2168374124644765
 42
-0.1126695967390892
 10
0.2350089392868477
 20
0.2147278296336851
 42
0.5218682246024878
  0
LWPOLYLINE
  5
304C
330
2
100
AcDbEntity
  8
0
  6
Continuous
 62
     1
370
     0
100
AcDbPolyline
 90
       20
 70
   128
 43
0.0
 10
0.2203806933329621
 20
0.2001266306626638
 10
0.2206906084289446
 20
0.1991530622124597
 10
0.2210300390024732
 20
0.1987842863855285
 10
0.2213251968760289
 20
0.1987842863855285
 10
0.2216055964944631
 20
0.1991383115800362
 10
0.2219597853231132
 20
0.1999938716320695
 10
0.2224467943170735
 20
0.2021622740286298
 10
0.2232897559840432
 20
0.2059300516409267
 10
0.2238505552209117
 20
0.2081574585704508
 42
-0.146957342712426
 10
0.2275464731782643
 20
0.2143683028339054
 42
-0.3428041273319609
 10
0.2331983943592477
 20
0.2148309832301813
 42
-0.4500336093659536
 10
0.2331055209313664
 20
0.2082585788633825
 42
-0.4721297501046006
 10
0.2300401391229344
 20
0.2089225970453842
 42
-0.2784131734806048
 10
0.2301586130787311
 20
0.2119378860686965
 42
-0.4993260735605439
 10
0.232882623878301
 20
0.2120646319963039
 42
0.8536964465549932
 10
0.2308632028079804
 20
0.2096443951039458
 42
0.2140394811897069
 10
0.2320029147653687
 20
0.2093230870659111
 42
0.6683126709382457
 10
0.2326597278579277
 20
0.2137727144984296
 42
0.3074607588483795
 10
0.2283318217814175
 20
0.2136613175086621
 42
0.138495124126138
 10
0.2248761718525324
 20
0.2101367523837461
 42
1.173477404645987
  0
LWPOLYLINE
  5
304D
330
2
100
AcDbEntity
  8
0
  6
Continuous
 62
     1
370
     0
100
AcDbPolyline
 90
        8
 70
   128
 43
0.0
 10
0.224087420516844
 20
0.2081262879266431
 10
0.2249873147011195
 20
0.2075866010825309
 10
0.2252701390892033
 20
0.2073296075380273
 10
0.2260928991616928
 20
0.207663699680084
 10
0.2270185043723336
 20
0.2077150978547851
 10
0.2278669765038832
 20
0.2073296075380273
 10
0.2283554901355653
 20
0.2067899206939103
 10
0.2284840463000772
 20
0.206173135919997
  0
LWPOLYLINE
  5
304E
330
2
100
AcDbEntity
  8
0
  6
Continuous
 62
     1
370
     0
100
AcDbPolyline
 90
        2
 70
   128
 43
0.0
 10
0.224138843602267
 20
0.2051451610742209
 10
0.22485875853661
 20
0.2069955160637177
  0
LWPOLYLINE
  5
304F
330
2
100
AcDbEntity
  8
0
  6
Continuous
 62
     1
370
     0
100
AcDbPolyline
 90
        2
 70
   128
 43
0.0
 10
0.2246016462075862
 20
0.2055820509011837
 10
0.2251672939510544
 20
0.2068413195363634
  0
LWPOLYLINE
  5
3050
330
2
100
AcDbEntity
  8
0
  6
Continuous
 62
     1
370
     0
100
AcDbPolyline
 90
        8
 70
   128
 43
0.0
 10
0.2252444280628403
 20
0.2058390444456874
 10
0.2260157650499093
 20
0.2064558292196055
 10
0.2267613920433098
 20
0.206687123676761
 10
0.2275584410894388
 20
0.2065329271494067
 10
0.2278926875302462
 20
0.2062502338497982
 10
0.2271470605368455
 20
0.2060960379901958
 10
0.2261957442998417
 20
0.2059932403052946
 10
0.2257072306681596
 20
0.2059675412179416
  0
LWPOLYLINE
  5
3051
330
2
100
AcDbEntity
  8
0
  6
Continuous
 62
     1
370
     0
100
AcDbPolyline
 90
       11
 70
   128
 43
0.0
 10
0.2203614635051951
 20
0.2004842663899657
 10
0.2199076453529972
 20
0.2005069465724218
 10
0.2195445918639343
 20
0.2005069465724218
 10
0.2191588469509123
 20
0.2005069465724218
 10
0.2189546292987712
 20
0.2007337504001916
 10
0.2189319389075091
 20
0.2013914810333071
 10
0.2190907747444308
 20
0.2017770474737453
 10
0.2190907747444308
 20
0.2019131292362104
 10
0.2186369576249274
 20
0.201890449053759
 10
0.2183646667336082
 20
0.201890449053759
 10
0.218069685451029
 20
0.201890449053759
  0
LWPOLYLINE
  5
3052
330
2
100
AcDbEntity
  8
0
  6
Continuous
 62
     1
370
     0
100
AcDbPolyline
 90
        9
 70
   128
 43
0.0
 10
0.2202253180595356
 20
0.201890449053759
 10
0.2197941913312944
 20
0.2019131292362104
 10
0.2199076453529972
 20
0.2022760154941972
 10
0.2200437907986568
 20
0.202774983514649
 10
0.2199984089834377
 20
0.2031378691048839
 10
0.2196353554943725
 20
0.2035007553628706
 10
0.2190453929292118
 20
0.2037502393730965
 10
0.2185688843857515
 20
0.203636837125331
 10
0.2178881592228449
 20
0.2033646729326537
  0
LWPOLYLINE
  5
3053
330
2
100
AcDbEntity
  8
0
  6
Continuous
 62
     1
370
     0
100
AcDbPolyline
 90
        7
 70
   128
 43
0.0
 10
0.2202933902660169
 20
0.2020945720313302
 10
0.2202253180595356
 20
0.2029337461273126
 10
0.2204749175268981
 20
0.2034100339653131
 10
0.2208606624399177
 20
0.2035461157277734
 10
0.2214506250050807
 20
0.2034553943302159
 10
0.2217682966789246
 20
0.2032739515350961
 10
0.2218590603093627
 20
0.2030017873424188
  0
LWPOLYLINE
  5
3054
330
2
100
AcDbEntity
  8
0
  6
Continuous
 62
     1
370
     0
100
AcDbPolyline
 90
        2
 70
   128
 43
0.0
 10
0.2219044421245842
 20
0.2033873531151098
 10
0.221881750700625
 20
0.207469820011767
  0
LWPOLYLINE
  5
3055
330
2
100
AcDbEntity
  8
0
  6
Continuous
 62
     1
370
     0
100
AcDbPolyline
 90
       10
 70
   128
 43
0.0
 10
0.2207472073855203
 20
0.2018677688713076
 10
0.2208379710159609
 20
0.2022533346439939
 10
0.2210194982768396
 20
0.2025708598693259
 10
0.2213598613746402
 20
0.2025028186542197
 10
0.2214052431898617
 20
0.202207974279091
 10
0.2213825517659025
 20
0.201754366623542
 10
0.2212917881354619
 20
0.2015502436459755
 10
0.2212010245050238
 20
0.2014822024308694
 10
0.2207472073855203
 20
0.2016863254084359
 10
0.2204068442877197
 20
0.201754366623542
  0
LWPOLYLINE
  5
3056
330
2
100
AcDbEntity
  8
0
  6
Continuous
 62
     1
370
     0
100
AcDbPolyline
 90
        3
 70
   128
 43
0.0
 10
0.2209514250376613
 20
0.2004162251748596
 10
0.2212010245050238
 20
0.2006883893675369
 10
0.221269097744202
 20
0.2011646772055373
  0
LWPOLYLINE
  5
3057
330
2
100
AcDbEntity
  8
0
  6
Continuous
 62
     1
370
     0
100
AcDbPolyline
 90
        8
 70
   128
 43
0.0
 10
0.219559235489825
 20
0.2041104272469441
 10
0.2194390834034183
 20
0.2046908923446086
 10
0.2186981479468593
 20
0.20465085996957
 10
0.2180973895802105
 20
0.2050711969025889
 10
0.2177769843606879
 20
0.2056316454788651
 10
0.2177970103968863
 20
0.2062721581374619
 10
0.2182175406339226
 20
0.2059118694331226
 10
0.2188383250367696
 20
0.2055315655428943
  0
LWPOLYLINE
  5
3058
330
2
100
AcDbEntity
  8
0
  6
Continuous
 62
     1
370
     0
100
AcDbPolyline
 90
       23
 70
   128
 43
0.0
 10
0.2183577177238329
 20
0.2060119500368454
 10
0.21843781877054
 20
0.2066724785490831
 10
0.2190185521336851
 20
0.2072329271253547
 10
0.2185980218966486
 20
0.2084939365889072
 10
0.2180373135370048
 20
0.210435491086095
 10
0.2175767322602689
 20
0.2120567885862302
 10
0.2177369343536829
 20
0.2134178786535008
 10
0.2181574656234138
 20
0.2139783272297724
 10
0.2187782489935663
 20
0.213898263147452
 10
0.2187581217531833
 20
0.2152268751133211
 10
0.219078526972706
 20
0.2158874042933107
 10
0.2192587540696214
 20
0.2159874842292815
 10
0.2192187040626163
 20
0.2166680292629168
 10
0.2191586280194107
 20
0.2173485736288002
 10
0.2193188301128247
 20
0.2178489746441394
 10
0.2199996895261804
 20
0.2180291186624355
 10
0.2205804228893254
 20
0.2181091827447607
 10
0.2209408781158531
 20
0.2186696313210322
 10
0.2211211062454654
 20
0.2191700316686243
 10
0.2212412572991775
 20
0.2194702721442794
 10
0.2213413843820828
 20
0.2197905284735754
 10
0.2211211062454654
 20
0.2200307207205509
 10
0.2211411312489692
 20
0.2202709129675265
  0
LWPOLYLINE
  5
3059
330
2
100
AcDbEntity
  8
0
  6
Continuous
 62
     1
370
     0
100
AcDbPolyline
 90
       16
 70
   128
 43
0.0
 10
0.2225429011153803
 20
0.2198906084095462
 10
0.2221223698456493
 20
0.218609583092348
 10
0.2219621677522352
 20
0.2181291985984016
 10
0.221902091709032
 20
0.2177288781867804
 10
0.2223826990219663
 20
0.2176688299580962
 10
0.2227832042555013
 20
0.2174686700861592
 10
0.2229634323851136
 20
0.2170883655281837
 10
0.222903356341908
 20
0.2164878845768689
 10
0.222643027165591
 20
0.2158874042933107
 10
0.222442775065172
 20
0.2152669074883596
 10
0.2223426479822667
 20
0.2133653853662103
 10
0.22240272402547
 20
0.2124246322319585
 10
0.2226441135615305
 20
0.2109525231223143
 10
0.2225640125148234
 20
0.2095313854941161
 10
0.2225039364716201
 20
0.2084505200488549
 10
0.2220633801983853
 20
0.2076298633719669
  0
LWPOLYLINE
  5
305A
330
2
100
AcDbEntity
  8
0
  6
Continuous
 62
     1
370
     0
100
AcDbPolyline
 90
        8
 70
   128
 43
0.0
 10
0.2218631270652693
 20
0.2091110492288493
 10
0.2216228239251507
 20
0.2096915136587665
 10
0.2216228239251507
 20
0.2104721386283679
 10
0.2218431020617681
 20
0.2110526030582852
 10
0.222083405201889
 20
0.2108524431863482
 10
0.2221434812450924
 20
0.2103720586924018
 10
0.222183532284792
 20
0.2098916741984507
 10
0.2219832791516784
 20
0.2092911932471406
  0
LWPOLYLINE
  5
305B
330
2
100
AcDbEntity
  8
0
  6
Continuous
 62
     1
370
     0
100
AcDbPolyline
 90
       10
 70
   128
 43
0.0
 10
0.2213825207850296
 20
0.2074497193536755
 10
0.2207016603389793
 20
0.2075097669146031
 10
0.2199607248824202
 20
0.2078900714725834
 10
0.2195001436056818
 20
0.2090109686251313
 10
0.2192598404655608
 20
0.2098516418234122
 10
0.2192598404655608
 20
0.211472939991304
 10
0.2196202956920908
 20
0.212814013537177
 10
0.2196403206955921
 20
0.2133944779670942
 10
0.2192598404655608
 20
0.2137547666714288
 10
0.2189594612822364
 20
0.2138548466073997
  0
LWPOLYLINE
  5
305C
330
2
100
AcDbEntity
  8
0
  6
Continuous
 62
     1
370
     0
100
AcDbPolyline
 90
        4
 70
   128
 43
0.0
 10
0.2197419224680458
 20
0.2138413099473448
 10
0.2199221505976557
 20
0.2148621271639218
 10
0.2201224037307718
 20
0.2155827039048437
 10
0.2195216443314285
 20
0.2161631683347609
  0
LWPOLYLINE
  5
305D
330
2
100
AcDbEntity
  8
0
  6
Continuous
 62
     1
370
     0
100
AcDbPolyline
 90
       11
 70
   128
 43
0.0
 10
0.2220248059136233
 20
0.2135210536180488
 10
0.2214040215107762
 20
0.2136211335540149
 10
0.2211837433741589
 20
0.2136011177003739
 10
0.2211036423274519
 20
0.2138413099473448
 10
0.2213839965072726
 20
0.2144417908986597
 10
0.2215842496403861
 20
0.2148621271639218
 10
0.2216643506870932
 20
0.2154826239688776
 10
0.2216643506870932
 20
0.2160230566915082
 10
0.2214440725504758
 20
0.2169037615970804
 10
0.2211436933671516
 20
0.2175843059629638
 10
0.2206630860542171
 20
0.2179445946672984
  0
LWPOLYLINE
  5
305E
330
2
100
AcDbEntity
  8
0
  6
Continuous
 62
     1
370
     0
100
AcDbPolyline
 90
        2
 70
   128
 43
0.0
 10
0.2217845017408053
 20
0.2175242584020316
 10
0.2215842496403861
 20
0.2171239379904104
  0
LWPOLYLINE
  5
305F
330
2
100
AcDbEntity
  8
0
  6
Continuous
 62
     1
370
     0
100
AcDbPolyline
 90
        7
 70
   128
 43
0.0
 10
0.2218646027875123
 20
0.2164233771031294
 10
0.2220448309171246
 20
0.2162232165634452
 10
0.2221850080070349
 20
0.2162032007097995
 10
0.2223852611401509
 20
0.2165434728927412
 10
0.2224453361506598
 20
0.2169037615970804
 10
0.2223452101004489
 20
0.2170839056153718
 10
0.2221649830035336
 20
0.2173040820087016
  0
LWPOLYLINE
  5
3060
330
2
100
AcDbEntity
  8
0
  6
Continuous
 62
     1
370
     0
100
AcDbPolyline
 90
        2
 70
   128
 43
0.0
 10
0.2219847548739213
 20
0.2137011976363401
 10
0.2218846288237106
 20
0.2155626880512027
  0
LWPOLYLINE
  5
3061
330
2
100
AcDbEntity
  8
0
  6
Continuous
 62
     1
370
     0
100
AcDbPolyline
 90
        4
 70
   128
 43
0.0
 10
0.2197390381487834
 20
0.205304620819537
 10
0.22021964546172
 20
0.2059051017708471
 10
0.220459948601841
 20
0.2065856461367352
 10
0.2204799736053424
 20
0.2069459348410698
  0
LWPOLYLINE
  5
3062
330
2
100
AcDbEntity
  8
0
  6
Continuous
 62
     1
370
     0
100
AcDbPolyline
 90
        4
 70
   128
 43
0.0
 10
0.2211207830116932
 20
0.2045239958499355
 10
0.2214011371915138
 20
0.2053646690482212
 10
0.2214011371915138
 20
0.2061052616427841
 10
0.2211007580081894
 20
0.2069259189874288
  0
LWPOLYLINE
  5
3063
330
2
100
AcDbEntity
  8
0
  6
Continuous
 62
     1
370
     0
100
AcDbPolyline
 90
       29
 70
   128
 43
0.0
 10
0.2194380816885291
 20
0.1990681475826519
 10
0.2192178035519118
 20
0.1984076190704095
 10
0.2187772472786771
 20
0.198147410969793
 10
0.2183166660019387
 20
0.1981073785947545
 10
0.218116412868825
 20
0.1979872828051426
 10
0.2182565899587353
 20
0.1975869623935214
 10
0.2182966409984373
 20
0.1971866419818955
 10
0.217836058689002
 20
0.1964860810946192
 10
0.2178160336855006
 20
0.1955453279603674
 10
0.2182966409984373
 20
0.1952651033383533
 10
0.2189574754082893
 20
0.1954252315030037
 10
0.218817298318379
 20
0.1948847987803731
 10
0.2187171712354737
 20
0.1942042544144897
 10
0.2189174243685874
 20
0.1934836776735678
 10
0.2191377025052047
 20
0.1925629403929569
 10
0.2194581066920328
 20
0.1920825558990106
 10
0.2202390931882938
 20
0.1921826358349767
 10
0.2204793963284125
 20
0.1926029721002436
 10
0.2207397255047319
 20
0.1934436452985293
 10
0.2209800286448529
 20
0.194064142103485
 10
0.2211402307382646
 20
0.1946646230547951
 10
0.2214005599145838
 20
0.194784718844407
 10
0.2217610151411116
 20
0.1948447670730864
 10
0.2218611411913223
 20
0.1954652638780423
 10
0.2218411161878186
 20
0.1960056966006681
 10
0.2216608890909032
 20
0.1965861610305854
 10
0.2217009390979083
 20
0.197647009954449
 10
0.2212603828246735
 20
0.1979472504301041
 10
0.2211802817779666
 20
0.1984676672990937
  0
LWPOLYLINE
  5
3064
330
2
100
AcDbEntity
  8
0
  6
Continuous
 62
     1
370
     0
100
AcDbPolyline
 90
        4
 70
   128
 43
0.0
 10
0.2194180566850278
 20
0.1952050551096738
 10
0.2197384608718535
 20
0.1957655043536973
 10
0.2201189411018849
 20
0.1969264332135271
 10
0.2201589921415868
 20
0.1981674268234339
  0
LWPOLYLINE
  5
3065
330
2
100
AcDbEntity
  8
0
  6
Continuous
 62
     1
370
     0
100
AcDbPolyline
 90
        4
 70
   128
 43
0.0
 10
0.2190175504187981
 20
0.1957855202073383
 10
0.2195181827352362
 20
0.1967863215702743
 10
0.2197384608718535
 20
0.1977070581831333
 10
0.2198586129582625
 20
0.198667827171026
  0
LWPOLYLINE
  5
3066
330
2
100
AcDbEntity
  8
0
  6
Continuous
 62
     1
370
     0
100
AcDbPolyline
 90
        3
 70
   128
 43
0.0
 10
0.2210401046880563
 20
0.1948647829267321
 10
0.2207397255047319
 20
0.1963860004908965
 10
0.2204193213179038
 20
0.1978872028691765
  0
LWPOLYLINE
  5
3067
330
2
100
AcDbEntity
  8
0
  6
Continuous
 62
     1
370
     0
100
AcDbPolyline
 90
        3
 70
   128
 43
0.0
 10
0.2225684303872891
 20
0.1942356220450125
 10
0.2224111673460118
 20
0.1965485612745568
 10
0.2220966422961541
 20
0.1974692458027902
  0
LWPOLYLINE
  5
3068
330
2
100
AcDbEntity
  8
0
  6
Continuous
 62
     1
370
     0
100
AcDbPolyline
 90
        5
 70
   128
 43
0.0
 10
0.2220966422961541
 20
0.1993330706771835
 10
0.2227930912847162
 20
0.1992881590413396
 10
0.22283802387728
 20
0.1996699066104859
 10
0.2227481597248495
 20
0.2002312993874949
 10
0.2225459640910085
 20
0.2004558568989487
  0
LWPOLYLINE
  5
3069
330
2
100
AcDbEntity
  8
0
  6
Continuous
 62
     1
370
     0
100
AcDbPolyline
 90
        3
 70
   128
 43
0.0
 10
0.2227706260211302
 20
0.2004783127168706
 10
0.2227481597248495
 20
0.2017133773604891
 10
0.2225459640910085
 20
0.2021624917156495
  0
LWPOLYLINE
  5
306A
330
2
100
AcDbEntity
  8
0
  6
Continuous
 62
     1
370
     0
100
AcDbPolyline
 90
       14
 70
   128
 43
0.0
 10
0.2208157122915272
 20
0.1884111729017092
 10
0.2207483134026804
 20
0.1893767690657865
 10
0.2208157122915272
 20
0.1902300861402586
 10
0.2210403731889544
 20
0.1903872761979511
 10
0.2210403731889544
 20
0.1907241121312535
 10
0.2210403731889544
 20
0.1913304165441064
 10
0.2210403731889544
 20
0.1918019867171841
 10
0.2210628394852351
 20
0.1920490000465551
 10
0.2209954405963907
 20
0.1928349503350179
 10
0.2211302373413849
 20
0.1936433557736508
 10
0.2214672286875257
 20
0.1939128249209485
 10
0.2218940852187963
 20
0.1940026475248751
 10
0.2224332721987781
 20
0.1938903691030265
 10
0.2228825939936325
 20
0.1936433557736508
  0
LWPOLYLINE
  5
306B
330
2
100
AcDbEntity
  8
0
  6
Continuous
 62
     1
370
     0
100
AcDbPolyline
 90
        3
 70
   128
 43
0.0
 10
0.222208611301351
 20
0.1890848447683186
 10
0.2223209417500645
 20
0.1911283155183218
 10
0.2222984754537815
 20
0.192318468526101
  0
LWPOLYLINE
  5
306C
330
2
100
AcDbEntity
  8
0
  6
Continuous
 62
     1
370
     0
100
AcDbPolyline
 90
        3
 70
   128
 43
0.0
 10
0.2213099666789453
 20
0.1919367209569547
 10
0.2216918906176498
 20
0.1921163668325692
 10
0.2218940852187963
 20
0.191757075749092
  0
LWPOLYLINE
  5
306D
330
2
100
AcDbEntity
  8
0
  6
Continuous
 62
     1
370
     0
100
AcDbPolyline
 90
        4
 70
   128
 43
0.0
 10
0.2212201014938178
 20
0.1904546436517123
 10
0.2215795601689362
 20
0.1905220104377217
 10
0.2218940852187963
 20
0.1902749977760978
 10
0.2219165515150769
 20
0.1902076303223365
  0
LWPOLYLINE
  5
306E
330
2
100
AcDbEntity
  8
0
  6
Continuous
 62
     1
370
     0
100
AcDbPolyline
 90
        2
 70
   128
 43
0.0
 10
0.2224782047913418
 20
0.1927900386991787
 10
0.2226130005036415
 20
0.1935984448055634
  0
LWPOLYLINE
  5
306F
330
2
100
AcDbEntity
  8
0
  6
Continuous
 62
     1
370
     0
100
AcDbPolyline
 90
        5
 70
   128
 43
0.0
 10
0.2124247896993071
 20
0.2119519602687675
 10
0.2129323596658681
 20
0.2143364337219463
 10
0.2130338736591808
 20
0.2170253077431247
 10
0.2129323596658681
 20
0.2198663830499332
 10
0.2128308456725555
 20
0.2217435215553465
  0
LWPOLYLINE
  5
3070
330
2
100
AcDbEntity
  8
0
  6
Continuous
 62
     1
370
     0
100
AcDbPolyline
 90
        2
 70
   128
 43
0.0
 10
0.1942697245554654
 20
0.2264800411094149
 10
0.1948335206754356
 20
0.226874515355947
  0
LWPOLYLINE
  5
3071
330
2
100
AcDbEntity
  8
0
  6
Continuous
 62
     1
370
     0
100
AcDbPolyline
 90
        3
 70
   128
 43
0.0
 10
0.1950026597179658
 20
0.2253529712612531
 10
0.1960174919077507
 20
0.2251275576922719
 10
0.1970887030899175
 20
0.225183911251454
  0
LWPOLYLINE
  5
3072
330
2
100
AcDbEntity
  8
0
  6
Continuous
 62
     1
370
     0
100
AcDbPolyline
 90
        2
 70
   128
 43
0.0
 10
0.1950026597179658
 20
0.2243949620906425
 10
0.1958483528652228
 20
0.2240568414032971
  0
LINE
  5
309B
102
{ACAD_REACTORS
330
30E0
102
}
330
2
100
AcDbEntity
  8
Dimensione
100
AcDbLine
 10
0.2176086084803248
 20
0.0930494373909671
 30
0.0
 11
0.2559354920451074
 21
0.0870955340876144
 31
0.0
  0
LINE
  5
309C
102
{ACAD_REACTORS
330
30E0
102
}
330
2
100
AcDbEntity
  8
Dimensione
100
AcDbLine
 10
0.2411652456006642
 20
0.1053020271784852
 30
0.0
 11
0.2794921291654469
 21
0.0993481238751325
 31
0.0
  0
LINE
  5
309D
102
{ACAD_REACTORS
330
30C6
102
}
330
2
100
AcDbEntity
  8
Dimensione
100
AcDbLine
 10
0.2176086084803248
 20
0.0930494373909671
 30
0.0
 11
0.196187481994742
 21
0.0819075976507026
 31
0.0
  0
LINE
  5
309E
102
{ACAD_REACTORS
330
30C6
102
}
330
2
100
AcDbEntity
  8
Dimensione
100
AcDbLine
 10
0.1675489024597535
 20
0.1008259801546634
 30
0.0
 11
0.1461277759741707
 21
0.089684140414399
 31
0.0
  0
DIMENSION
  5
309F
330
2
100
AcDbEntity
  8
Dimensione
100
AcDbDimension
  2
*D15
 10
0.1323711159389802
 20
0.2301004853621827
 30
0.0
 11
0.1323711159389802
 21
0.1637344416988391
 31
0.0
 70
    32
  1
800 mm
 71
     5
 42
0.1327320873266871
  3
Bovelacci
100
AcDbAlignedDimension
 13
0.1896577334792937
 23
0.0973683980354956
 33
0.0
 14
0.1916667635701756
 24
0.2301004853621826
 34
0.0
 50
90.0
100
AcDbRotatedDimension
  0
DIMENSION
  5
30AD
102
{ACAD_XDICTIONARY
360
30BB
102
}
102
{ACAD_REACTORS
330
30C6
102
}
330
2
100
AcDbEntity
  8
Dimensione
100
AcDbDimension
  2
*D16
 10
0.196187481994742
 20
0.0819075976507026
 30
0.0
 11
0.1711576289844563
 21
0.0857958690325508
 31
0.0
 70
    33
  1
350 mm
 71
     5
 42
0.0506601301244047
  3
Bovelacci
100
AcDbAlignedDimension
 13
0.1461277759741707
 23
0.089684140414399
 33
0.0
 14
0.196187481994742
 24
0.0819075976507026
 34
0.0
  0
DIMENSION
  5
30C7
102
{ACAD_XDICTIONARY
360
30D5
102
}
102
{ACAD_REACTORS
330
30E0
102
}
330
2
100
AcDbEntity
  8
Dimensione
100
AcDbDimension
  2
*D17
 10
0.2794921291654469
 20
0.0993481238751325
 30
0.0
 11
0.2677138106052772
 21
0.0932218289813735
 31
0.0
 70
    33
  1
350 mm
 71
     5
 42
0.0265526102091781
  3
Bovelacci
100
AcDbAlignedDimension
 13
0.2559354920451074
 23
0.0870955340876144
 33
0.0
 14
0.2794921291654469
 24
0.0993481238751325
 34
0.0
  0
VIEWPORT
  5
7B
330
79
100
AcDbEntity
 67
     1
  8
0
100
AcDbViewport
 10
145.330337524414
 20
101.8116638660431
 30
0.0
 40
351.1337450215151
 41
222.1517806396485
 68
     1
 69
     1
 12
145.330337524414
 22
101.8116638660431
 13
0.0
 23
0.0
 14
10.0
 24
10.0
 15
10.0
 25
10.0
 16
0.0
 26
0.0
 36
1.0
 17
0.0
 27
0.0
 37
0.0
 42
50.0
 43
0.0
 44
0.0
 45
222.1517806396485
 50
0.0
 51
0.0
 72
  1000
 90
    32800
  1

281
     0
 71
     1
 74
     0
110
0.0
120
0.0
130
0.0
111
1.0
121
0.0
131
0.0
112
0.0
122
1.0
132
0.0
 79
     0
146
0.0
170
     0
  0
VIEWPORT
  5
80
330
79
100
AcDbEntity
 67
     1
  8
Sezione
100
AcDbViewport
 10
145.3303314447403
 20
101.8116623163223
 30
0.0
 40
232.5285303115845
 41
162.8986597061157
 68
     2
 69
     2
 12
0.2100067158578973
 22
0.1484909068076998
 13
0.0
 23
0.0
 14
10.0
 24
10.0
 15
10.0
 25
10.0
 16
0.0
 26
0.0
 36
1.0
 17
0.0
 27
0.0
 37
0.0
 42
50.0
 43
0.0
 44
0.0
 45
0.2752830087467564
 50
0.0
 51
0.0
 72
  1000
 90
    32864
  1

281
     0
 71
     1
 74
     0
110
0.0
120
0.0
130
0.0
111
1.0
121
0.0
131
0.0
112
0.0
122
1.0
132
0.0
 79
     0
146
0.0
170
     0
  0
ENDSEC
  0
SECTION
  2
OBJECTS
  0
DICTIONARY
  5
9
330
0
100
AcDbDictionary
281
     1
  3
ACAD_2007HEADERVARS_RT
350
14A
  3
ACAD_COLOR
350
A1
  3
ACAD_GROUP
350
9C
  3
ACAD_LAYOUT
350
78
  3
ACAD_MATERIAL
350
B
  3
ACAD_MLINESTYLE
350
9D
  3
ACAD_PLOTSETTINGS
350
9E
  3
ACAD_PLOTSTYLENAME
350
8
  3
ACAD_TABLESTYLE
350
A2
  3
ACAD_VISUALSTYLE
350
7F
  3
AcDbVariableDictionary
350
A9
  3
AEC_CLASSIFICATION_SYSTEM_DEFS
350
1217
  3
AEC_PROPERTY_SET_DEFS
350
10D
  3
ASE_INDEX_DICTIONARY
350
249E
  0
DICTIONARY
  5
8B
330
8A
100
AcDbDictionary
280
     1
281
     1
  3
ACAD_LAYERFILTERS
360
25D9
  3
ACAD_LAYERSTATES
360
8D
  3
ACLYDICTIONARY
360
25D8
  0
DICTIONARY
  5
3
330
2
100
AcDbDictionary
280
     1
281
     1
  3
ACAD_SORTENTS
360
A8
  0
DICTIONARY
  5
30BB
330
30AD
100
AcDbDictionary
280
     1
281
     1
  3
ACAD_DIMASSOC
360
30C6
  0
DICTIONARY
  5
30D5
330
30C7
100
AcDbDictionary
280
     1
281
     1
  3
ACAD_DIMASSOC
360
30E0
  0
DICTIONARY
  5
14A
102
{ACAD_REACTORS
330
9
102
}
330
9
100
AcDbDictionary
281
     1
  3
DIMFXL
350
14B
  0
DICTIONARY
  5
A1
102
{ACAD_REACTORS
330
9
102
}
330
9
100
AcDbDictionary
281
     1
  0
DICTIONARY
  5
9C
102
{ACAD_REACTORS
330
9
102
}
330
9
100
AcDbDictionary
281
     1
  0
DICTIONARY
  5
78
102
{ACAD_REACTORS
330
9
102
}
330
9
100
AcDbDictionary
281
     1
  3
Layout1
350
82
  3
Layout2
350
89
  3
Model
350
77
  0
DICTIONARY
  5
B
102
{ACAD_REACTORS
330
9
102
}
330
9
100
AcDbDictionary
281
     1
  3
ByBlock
350
A0
  3
ByLayer
350
9F
  3
Global
350
A
  0
DICTIONARY
  5
9D
102
{ACAD_REACTORS
330
9
102
}
330
9
100
AcDbDictionary
281
     1
  3
Standard
350
A3
  0
DICTIONARY
  5
9E
102
{ACAD_REACTORS
330
9
102
}
330
9
100
AcDbDictionary
281
     1
  0
ACDBDICTIONARYWDFLT
  5
8
102
{ACAD_REACTORS
330
9
102
}
330
9
100
AcDbDictionary
281
     1
  3
Normal
350
7
100
AcDbDictionaryWithDefault
340
7
  0
DICTIONARY
  5
A2
102
{ACAD_REACTORS
330
9
102
}
330
9
100
AcDbDictionary
281
     1
  3
Standard
350
A4
  0
DICTIONARY
  5
7F
102
{ACAD_REACTORS
330
9
102
}
330
9
100
AcDbDictionary
281
     1
  3
2dWireframe
350
7E
  3
3D Hidden
350
D8
  3
3dWireframe
350
A6
  3
Basic
350
D7
  3
Brighten
350
DB
  3
ColorChange
350
DF
  3
Conceptual
350
D9
  3
Dim
350
DA
  3
Facepattern
350
DE
  3
Flat
350
D3
  3
FlatWithEdges
350
D4
  3
Gouraud
350
D5
  3
GouraudWithEdges
350
D6
  3
Linepattern
350
DD
  3
Realistic
350
A5
  3
Thicken
350
DC
  0
DICTIONARY
  5
A9
102
{ACAD_REACTORS
330
9
102
}
330
9
100
AcDbDictionary
281
     1
  3
CTABLESTYLE
350
AA
  3
DIMASSOC
350
AE
  3
HIDETEXT
350
AD
  3
INDEXCTL
350
AC
  3
PROJECTNAME
350
16A
  3
SORTENTS
350
AB
  0
DICTIONARY
  5
1217
102
{ACAD_REACTORS
330
9
102
}
330
9
100
AcDbDictionary
281
     1
  0
DICTIONARY
  5
10D
102
{ACAD_REACTORS
330
9
102
}
330
9
100
AcDbDictionary
281
     1
  0
DICTIONARY
  5
249E
102
{ACAD_REACTORS
330
9
102
}
330
9
100
AcDbDictionary
281
     1
  3
ASEBlockHierarchyIndexRecord
350
24A0
1001
DCO15
1040
1602050354.187
  0
DICTIONARY
  5
25D9
102
{ACAD_REACTORS
330
8B
102
}
330
8B
100
AcDbDictionary
281
     1
  0
DICTIONARY
  5
8D
102
{ACAD_REACTORS
330
8B
102
}
330
8B
100
AcDbDictionary
281
     1
  0
DICTIONARY
  5
25D8
102
{ACAD_REACTORS
330
8B
102
}
330
8B
100
AcDbDictionary
281
     1
1001
ACAD
1000
<All
  0
SORTENTSTABLE
  5
A8
102
{ACAD_REACTORS
330
3
102
}
330
3
100
AcDbSortentsTable
330
2
331
1CA
  5
1CA
331
12
  5
16
331
21
  5
22
331
10F
  5
10F
331
13
  5
D
331
22
  5
23
331
110
  5
110
331
14
  5
10
331
23
  5
24
331
D
  5
13
331
24
  5
18
331
15
  5
11
331
1D
  5
1E
331
25
  5
25
331
16
  5
12
331
1E
  5
1F
331
17
  5
17
331
1F
  5
21
331
10
  5
14
331
11
  5
15
  0
DIMASSOC
  5
30C6
102
{ACAD_REACTORS
330
30BB
102
}
330
30BB
100
AcDbDimAssoc
330
30AD
 90
        3
 70
     0
 71
     0
  1
AcDbOsnapPointRef
 72
     1
331
309E
 73
     2
 91
        0
 40
0.9999999999999998
 10
0.0
 20
0.0
 30
2.000000000000000E+50
 75
     0
  1
AcDbOsnapPointRef
 72
     1
331
309D
 73
     2
 91
        0
 40
0.9999999999999998
 10
0.0
 20
0.0
 30
2.000000000000000E+50
 75
     0
  0
DIMASSOC
  5
30E0
102
{ACAD_REACTORS
330
30D5
102
}
330
30D5
100
AcDbDimAssoc
330
30C7
 90
        3
 70
     0
 71
     0
  1
AcDbOsnapPointRef
 72
     1
331
309B
 73
     2
 91
        0
 40
1.0
 10
0.0
 20
0.0
 30
2.000000000000000E+50
 75
     0
  1
AcDbOsnapPointRef
 72
     1
331
309C
 73
     2
 91
        0
 40
1.0
 10
0.0
 20
0.0
 30
2.000000000000000E+50
 75
     0
  0
XRECORD
  5
14B
102
{ACAD_REACTORS
330
14A
102
}
330
14A
100
AcDbXrecord
280
     1
 40
0.18
  0
LAYOUT
  5
82
102
{ACAD_XDICTIONARY
360
83
102
}
102
{ACAD_REACTORS
330
78
102
}
330
78
100
AcDbPlotSettings
  1

  2
C:\Documents and Settings\All Users\Dati applicazioni\Autodesk\ADT 2006\enu\Plotters\Default Windows System Printer.pc3
  4
A4
  6

 40
3.174999952316281
 41
3.174999952316281
 42
3.175003051757812
 43
3.17498779296875
 44
209.9733276367186
 45
297.0106506347656
 46
0.0
 47
0.0
 48
0.0
 49
0.0
140
0.0
141
0.0
142
1.0
143
1.0
 70
   688
 72
     1
 73
     1
 74
     5
  7

 75
    16
147
1.0
 76
     0
 77
     2
 78
   300
148
0.0
149
0.0
100
AcDbLayout
  1
Layout1
 70
     1
 71
     1
 10
-3.17498779296875
 20
-3.174999952316281
 11
293.8356628417969
 21
206.7983276844024
 12
0.0
 22
0.0
 32
0.0
 14
29.06606628894805
 24
20.36233246326446
 34
0.0
 15
261.5945966005325
 25
183.2609921693802
 35
0.0
146
0.0
 13
0.0
 23
0.0
 33
0.0
 16
1.0
 26
0.0
 36
0.0
 17
0.0
 27
1.0
 37
0.0
 76
     0
330
79
331
7B
1001
ACAD_PSEXT
1000
C:\Documents and Settings\All Users\Dati applicazioni\Autodesk\ADT 2006\enu\Plotters\Default Windows System Printer.pc3
1000
Microsoft Office Document Image Writer Driver
1000
Microsoft Document Imaging Writer Port:
1000

1070
     0
  0
LAYOUT
  5
89
102
{ACAD_REACTORS
330
78
102
}
330
78
100
AcDbPlotSettings
  1

  2
C:\Documents and Settings\All Users\Dati applicazioni\Autodesk\ADT 2006\enu\Plotters\Default Windows System Printer.pc3
  4

  6

 40
0.0
 41
0.0
 42
0.0
 43
0.0
 44
0.0
 45
0.0
 46
0.0
 47
0.0
 48
0.0
 49
0.0
140
0.0
141
0.0
142
1.0
143
1.0
 70
   688
 72
     0
 73
     0
 74
     5
  7

 75
    16
147
1.0
 76
     0
 77
     2
 78
   300
148
0.0
149
0.0
100
AcDbLayout
  1
Layout2
 70
     1
 71
     2
 10
0.0
 20
0.0
 11
12.0
 21
9.0
 12
0.0
 22
0.0
 32
0.0
 14
0.0
 24
0.0
 34
0.0
 15
0.0
 25
0.0
 35
0.0
146
0.0
 13
0.0
 23
0.0
 33
0.0
 16
1.0
 26
0.0
 36
0.0
 17
0.0
 27
1.0
 37
0.0
 76
     0
330
86
  0
LAYOUT
  5
77
102
{ACAD_REACTORS
330
78
102
}
330
78
100
AcDbPlotSettings
  1

  2
C:\Documents and Settings\All Users\Dati applicazioni\Autodesk\ADT 2006\enu\Plotters\Default Windows System Printer.pc3
  4

  6

 40
0.0
 41
0.0
 42
0.0
 43
0.0
 44
0.0
 45
0.0
 46
0.0
 47
0.0
 48
0.0
 49
0.0
140
0.0
141
0.0
142
1.0
143
1.0
 70
  1712
 72
     0
 73
     0
 74
     0
  7

 75
     0
147
1.0
 76
     0
 77
     2
 78
   300
148
0.0
149
0.0
100
AcDbLayout
  1
Model
 70
     1
 71
     0
 10
0.0
 20
0.0
 11
12.0
 21
9.0
 12
0.0
 22
0.0
 32
0.0
 14
0.0
 24
0.0
 34
0.0
 15
0.0
 25
0.0
 35
0.0
146
0.0
 13
0.0
 23
0.0
 33
0.0
 16
1.0
 26
0.0
 36
0.0
 17
0.0
 27
1.0
 37
0.0
 76
     0
330
2
  0
MATERIAL
  5
A0
102
{ACAD_XDICTIONARY
360
C7
102
}
102
{ACAD_REACTORS
330
B
102
}
330
B
100
AcDbMaterial
  1
ByBlock
  0
MATERIAL
  5
9F
102
{ACAD_XDICTIONARY
360
C5
102
}
102
{ACAD_REACTORS
330
B
102
}
330
B
100
AcDbMaterial
  1
ByLayer
  0
MATERIAL
  5
A
102
{ACAD_XDICTIONARY
360
B1
102
}
102
{ACAD_REACTORS
330
B
102
}
330
B
100
AcDbMaterial
  1
Global
  0
MLINESTYLE
  5
A3
102
{ACAD_REACTORS
330
9D
102
}
330
9D
100
AcDbMlineStyle
  2
STANDARD
 70
     0
  3

 62
   256
 51
90.0
 52
90.0
 71
     2
 49
0.5
 62
   256
  6
BYLAYER
 49
-0.5
 62
   256
  6
BYLAYER
  0
ACDBPLACEHOLDER
  5
7
102
{ACAD_REACTORS
330
8
102
}
330
8
  0
TABLESTYLE
  5
A4
102
{ACAD_XDICTIONARY
360
155
102
}
102
{ACAD_REACTORS
330
A2
102
}
330
A2
100
AcDbTableStyle
  3
Standard
 70
     0
 71
     0
 40
1.5
 41
1.5
280
     0
281
     0
  7
Standard
140
4.5
170
     2
 62
     0
 63
     7
283
     0
274
    -2
284
     1
 64
     0
275
    -2
285
     1
 65
     0
276
    -2
286
     1
 66
     0
277
    -2
287
     1
 67
     0
278
    -2
288
     1
 68
     0
279
    -2
289
     1
 69
     0
  7
Standard
140
6.0
170
     5
 62
     0
 63
     7
283
     0
274
    -2
284
     1
 64
     0
275
    -2
285
     1
 65
     0
276
    -2
286
     1
 66
     0
277
    -2
287
     1
 67
     0
278
    -2
288
     1
 68
     0
279
    -2
289
     1
 69
     0
  7
Standard
140
4.5
170
     5
 62
     0
 63
     7
283
     0
274
    -2
284
     1
 64
     0
275
    -2
285
     1
 65
     0
276
    -2
286
     1
 66
     0
277
    -2
287
     1
 67
     0
278
    -2
288
     1
 68
     0
279
    -2
289
     1
 69
     0
  0
ACAD_PROXY_OBJECT
  5
7E
102
{ACAD_REACTORS
330
7F
102
}
330
7F
100
AcDbProxyObject
 90
      499
 91
      508
 95
  1310743
 70
     1
100
AcDbVisualStyle
  2
2dWireframe
 70
     4
 71
     0
 72
     2
 73
     0
 90
        0
 40
-0.6
 41
-30.0
 62
     5
 63
     7
 74
     1
 91
        4
 64
     7
 65
   257
 75
     1
175
     1
 42
1.0
 92
        0
 66
   257
 43
1.0
 76
     1
 77
     6
 78
     2
 67
     7
 79
     5
170
     0
171
     0
290
     0
174
     0
 93
        1
 44
0.0
173
     0
291
     0
 45
0.0
1001
ACAD
1000
AcDbSavedByObjectVersion
1070
     0
1000
AcDbSavedByObjectVersion
1070
     0
1000
AcDbSavedByObjectVersion
1070
     0
  0
ACAD_PROXY_OBJECT
  5
D8
102
{ACAD_REACTORS
330
7F
102
}
330
7F
100
AcDbProxyObject
 90
      499
 91
      508
 95
  1310743
 70
     1
100
AcDbVisualStyle
  2
3D Hidden
 70
     6
 71
     1
 72
     2
 73
     2
 90
        0
 40
-0.6
 41
-30.0
 62
     5
 63
     7
 74
     2
 91
        2
 64
     7
 65
   257
 75
     2
175
     1
 42
40.0
 92
        0
 66
   257
 43
1.0
 76
     1
 77
     6
 78
     2
 67
     7
 79
     3
170
     0
171
     0
290
     0
174
     0
 93
        1
 44
0.0
173
     0
291
     0
 45
0.0
1001
ACAD
1000
AcDbSavedByObjectVersion
1070
     0
1000
AcDbSavedByObjectVersion
1070
     0
  0
ACAD_PROXY_OBJECT
  5
A6
102
{ACAD_REACTORS
330
7F
102
}
330
7F
100
AcDbProxyObject
 90
      499
 91
      508
 95
  1310743
 70
     1
100
AcDbVisualStyle
  2
3dWireframe
 70
     5
 71
     0
 72
     2
 73
     0
 90
        0
 40
-0.6
 41
-30.0
 62
     5
 63
     7
 74
     1
 91
        4
 64
     7
 65
   257
 75
     1
175
     1
 42
1.0
 92
        0
 66
   257
 43
1.0
 76
     1
 77
     6
 78
     2
 67
     7
 79
     5
170
     0
171
     0
290
     0
174
     0
 93
        1
 44
0.0
173
     0
291
     0
 45
0.0
1001
ACAD
1000
AcDbSavedByObjectVersion
1070
     0
1000
AcDbSavedByObjectVersion
1070
     0
1000
AcDbSavedByObjectVersion
1070
     0
  0
ACAD_PROXY_OBJECT
  5
D7
102
{ACAD_REACTORS
330
7F
102
}
330
7F
100
AcDbProxyObject
 90
      499
 91
      508
 95
  1310743
 70
     1
100
AcDbVisualStyle
  2
Basic
 70
     7
 71
     1
 72
     0
 73
     1
 90
        0
 40
-0.6
 41
-30.0
 62
     5
 63
     7
 74
     0
 91
        4
 64
     7
 65
   257
 75
     1
175
     1
 42
1.0
 92
        8
 66
     7
 43
1.0
 76
     1
 77
     6
 78
     2
 67
     7
 79
     5
170
     0
171
     0
290
     0
174
     0
 93
        1
 44
0.0
173
     0
291
     1
 45
0.0
1001
ACAD
1000
AcDbSavedByObjectVersion
1070
     0
1000
AcDbSavedByObjectVersion
1070
     0
  0
ACAD_PROXY_OBJECT
  5
DB
102
{ACAD_REACTORS
330
7F
102
}
330
7F
100
AcDbProxyObject
 90
      499
 91
      508
 95
  1310743
 70
     1
100
AcDbVisualStyle
  2
Brighten
 70
    12
 71
     2
 72
     2
 73
     0
 90
        0
 40
-0.6
 41
-30.0
 62
     5
 63
     7
 74
     1
 91
        4
 64
     7
 65
   257
 75
     1
175
     1
 42
1.0
 92
        8
 66
     7
 43
1.0
 76
     1
 77
     6
 78
     2
 67
     7
 79
     5
170
     0
171
     0
290
     0
174
     0
 93
        1
 44
50.0
173
     0
291
     1
 45
0.0
1001
ACAD
1000
AcDbSavedByObjectVersion
1070
     0
1000
AcDbSavedByObjectVersion
1070
     0
  0
ACAD_PROXY_OBJECT
  5
DF
102
{ACAD_REACTORS
330
7F
102
}
330
7F
100
AcDbProxyObject
 90
      499
 91
      508
 95
  1310743
 70
     1
100
AcDbVisualStyle
  2
ColorChange
 70
    16
 71
     2
 72
     2
 73
     3
 90
        0
 40
-0.6
 41
-30.0
 62
     5
 63
     8
 74
     1
 91
        4
 64
     7
 65
   257
 75
     1
175
     1
 42
1.0
 92
        8
 66
     8
 43
1.0
 76
     1
 77
     6
 78
     2
 67
     7
 79
     5
170
     0
171
     0
290
     0
174
     0
 93
        1
 44
0.0
173
     0
291
     1
 45
0.0
1001
ACAD
1000
AcDbSavedByObjectVersion
1070
     0
1000
AcDbSavedByObjectVersion
1070
     0
  0
ACAD_PROXY_OBJECT
  5
D9
102
{ACAD_REACTORS
330
7F
102
}
330
7F
100
AcDbProxyObject
 90
      499
 91
      508
 95
  1310743
 70
     1
100
AcDbVisualStyle
  2
Conceptual
 70
     9
 71
     3
 72
     2
 73
     0
 90
        0
 40
-0.6
 41
-30.0
 62
     5
 63
     7
 74
     2
 91
        2
 64
     7
 65
   257
 75
     1
175
     1
 42
40.0
 92
        8
 66
     7
 43
1.0
 76
     1
 77
     6
 78
     2
 67
     7
 79
     3
170
     0
171
     0
290
     0
174
     0
 93
        1
 44
0.0
173
     0
291
     0
 45
0.0
1001
ACAD
1000
AcDbSavedByObjectVersion
1070
     0
1000
AcDbSavedByObjectVersion
1070
     0
  0
ACAD_PROXY_OBJECT
  5
DA
102
{ACAD_REACTORS
330
7F
102
}
330
7F
100
AcDbProxyObject
 90
      499
 91
      508
 95
  1310743
 70
     1
100
AcDbVisualStyle
  2
Dim
 70
    11
 71
     2
 72
     2
 73
     0
 90
        0
 40
-0.6
 41
-30.0
 62
     5
 63
     7
 74
     1
 91
        4
 64
     7
 65
   257
 75
     1
175
     1
 42
1.0
 92
        8
 66
     7
 43
1.0
 76
     1
 77
     6
 78
     2
 67
     7
 79
     5
170
     0
171
     0
290
     0
174
     0
 93
        1
 44
-50.0
173
     0
291
     1
 45
0.0
1001
ACAD
1000
AcDbSavedByObjectVersion
1070
     0
1000
AcDbSavedByObjectVersion
1070
     0
  0
ACAD_PROXY_OBJECT
  5
DE
102
{ACAD_REACTORS
330
7F
102
}
330
7F
100
AcDbProxyObject
 90
      499
 91
      508
 95
  1310743
 70
     1
100
AcDbVisualStyle
  2
Facepattern
 70
    15
 71
     2
 72
     2
 73
     0
 90
        0
 40
-0.6
 41
-30.0
 62
     5
 63
     7
 74
     1
 91
        4
 64
     7
 65
   257
 75
     1
175
     1
 42
1.0
 92
        8
 66
     7
 43
1.0
 76
     1
 77
     6
 78
     2
 67
     7
 79
     5
170
     0
171
     0
290
     0
174
     0
 93
        1
 44
0.0
173
     0
291
     1
 45
0.0
1001
ACAD
1000
AcDbSavedByObjectVersion
1070
     0
1000
AcDbSavedByObjectVersion
1070
     0
  0
ACAD_PROXY_OBJECT
  5
D3
102
{ACAD_REACTORS
330
7F
102
}
330
7F
100
AcDbProxyObject
 90
      499
 91
      508
 95
  1310743
 70
     1
100
AcDbVisualStyle
  2
Flat
 70
     0
 71
     2
 72
     1
 73
     1
 90
        2
 40
-0.6
 41
30.0
 62
     5
 63
     7
 74
     0
 91
        4
 64
     7
 65
   257
 75
     1
175
     1
 42
1.0
 92
        8
 66
     7
 43
1.0
 76
     1
 77
     6
 78
     2
 67
     7
 79
     5
170
     0
171
     0
290
     0
174
     0
 93
       13
 44
0.0
173
     0
291
     1
 45
0.0
1001
ACAD
1000
AcDbSavedByObjectVersion
1070
     0
1000
AcDbSavedByObjectVersion
1070
     0
  0
ACAD_PROXY_OBJECT
  5
D4
102
{ACAD_REACTORS
330
7F
102
}
330
7F
100
AcDbProxyObject
 90
      499
 91
      508
 95
  1310743
 70
     1
100
AcDbVisualStyle
  2
FlatWithEdges
 70
     1
 71
     2
 72
     1
 73
     1
 90
        2
 40
-0.6
 41
30.0
 62
     5
 63
     7
 74
     1
 91
        4
 64
     7
 65
   257
 75
     1
175
     1
 42
1.0
 92
        0
 66
   257
 43
1.0
 76
     1
 77
     6
 78
     2
 67
     7
 79
     5
170
     0
171
     0
290
     0
174
     0
 93
       13
 44
0.0
173
     0
291
     1
 45
0.0
1001
ACAD
1000
AcDbSavedByObjectVersion
1070
     0
1000
AcDbSavedByObjectVersion
1070
     0
  0
ACAD_PROXY_OBJECT
  5
D5
102
{ACAD_REACTORS
330
7F
102
}
330
7F
100
AcDbProxyObject
 90
      499
 91
      508
 95
  1310743
 70
     1
100
AcDbVisualStyle
  2
Gouraud
 70
     2
 71
     2
 72
     2
 73
     1
 90
        2
 40
-0.6
 41
30.0
 62
     5
 63
     7
 74
     0
 91
        4
 64
     7
 65
   257
 75
     1
175
     1
 42
1.0
 92
        0
 66
     7
 43
1.0
 76
     1
 77
     6
 78
     2
 67
     7
 79
     5
170
     0
171
     0
290
     0
174
     0
 93
       13
 44
0.0
173
     0
291
     1
 45
0.0
1001
ACAD
1000
AcDbSavedByObjectVersion
1070
     0
1000
AcDbSavedByObjectVersion
1070
     0
  0
ACAD_PROXY_OBJECT
  5
D6
102
{ACAD_REACTORS
330
7F
102
}
330
7F
100
AcDbProxyObject
 90
      499
 91
      508
 95
  1310743
 70
     1
100
AcDbVisualStyle
  2
GouraudWithEdges
 70
     3
 71
     2
 72
     2
 73
     1
 90
        2
 40
-0.6
 41
30.0
 62
     5
 63
     7
 74
     1
 91
        4
 64
     7
 65
   257
 75
     1
175
     1
 42
1.0
 92
        0
 66
   257
 43
1.0
 76
     1
 77
     6
 78
     2
 67
     7
 79
     5
170
     0
171
     0
290
     0
174
     0
 93
       13
 44
0.0
173
     0
291
     1
 45
0.0
1001
ACAD
1000
AcDbSavedByObjectVersion
1070
     0
1000
AcDbSavedByObjectVersion
1070
     0
  0
ACAD_PROXY_OBJECT
  5
DD
102
{ACAD_REACTORS
330
7F
102
}
330
7F
100
AcDbProxyObject
 90
      499
 91
      508
 95
  1310743
 70
     1
100
AcDbVisualStyle
  2
Linepattern
 70
    14
 71
     2
 72
     2
 73
     0
 90
        0
 40
-0.6
 41
-30.0
 62
     5
 63
     7
 74
     1
 91
        4
 64
     7
 65
   257
 75
     7
175
     7
 42
1.0
 92
        8
 66
     7
 43
1.0
 76
     1
 77
     6
 78
     2
 67
     7
 79
     5
170
     0
171
     0
290
     0
174
     0
 93
        1
 44
0.0
173
     0
291
     1
 45
0.0
1001
ACAD
1000
AcDbSavedByObjectVersion
1070
     0
1000
AcDbSavedByObjectVersion
1070
     0
  0
ACAD_PROXY_OBJECT
  5
A5
102
{ACAD_REACTORS
330
7F
102
}
330
7F
100
AcDbProxyObject
 90
      499
 91
      508
 95
  1310743
 70
     1
100
AcDbVisualStyle
  2
Realistic
 70
     8
 71
     2
 72
     2
 73
     0
 90
        0
 40
-0.6
 41
-30.0
 62
     5
 63
     7
 74
     1
 91
        0
 64
     7
 65
   257
 75
     1
175
     1
 42
1.0
 92
        8
 66
     8
 43
1.0
 76
     1
 77
     6
 78
     2
 67
     7
 79
     5
170
     0
171
     0
290
     0
174
     0
 93
       13
 44
0.0
173
     0
291
     0
 45
0.0
1001
ACAD
1000
AcDbSavedByObjectVersion
1070
     0
1000
AcDbSavedByObjectVersion
1070
     0
1000
AcDbSavedByObjectVersion
1070
     0
  0
ACAD_PROXY_OBJECT
  5
DC
102
{ACAD_REACTORS
330
7F
102
}
330
7F
100
AcDbProxyObject
 90
      499
 91
      508
 95
  1310743
 70
     1
100
AcDbVisualStyle
  2
Thicken
 70
    13
 71
     2
 72
     2
 73
     0
 90
        0
 40
-0.6
 41
-30.0
 62
     5
 63
     7
 74
     1
 91
        4
 64
     7
 65
   257
 75
     1
175
     1
 42
1.0
 92
       12
 66
     7
 43
1.0
 76
     1
 77
     6
 78
     2
 67
     7
 79
     5
170
     0
171
     0
290
     0
174
     0
 93
        1
 44
0.0
173
     0
291
     1
 45
0.0
1001
ACAD
1000
AcDbSavedByObjectVersion
1070
     0
1000
AcDbSavedByObjectVersion
1070
     0
  0
DICTIONARYVAR
  5
AA
102
{ACAD_REACTORS
330
A9
102
}
330
A9
100
DictionaryVariables
280
     0
  1
STANDARD
  0
DICTIONARYVAR
  5
AE
102
{ACAD_REACTORS
330
A9
102
}
330
A9
100
DictionaryVariables
280
     0
  1
2
  0
DICTIONARYVAR
  5
AD
102
{ACAD_REACTORS
330
A9
102
}
330
A9
100
DictionaryVariables
280
     0
  1
1
  0
DICTIONARYVAR
  5
AC
102
{ACAD_REACTORS
330
A9
102
}
330
A9
100
DictionaryVariables
280
     0
  1
0
  0
DICTIONARYVAR
  5
16A
102
{ACAD_REACTORS
330
A9
102
}
330
A9
100
DictionaryVariables
280
     0
  1

  0
DICTIONARYVAR
  5
AB
102
{ACAD_REACTORS
330
A9
102
}
330
A9
100
DictionaryVariables
280
     0
  1
127
  0
XRECORD
  5
24A0
102
{ACAD_REACTORS
330
249E
102
}
330
249E
100
AcDbXrecord
280
     1
330
0
330
0
330
0
330
0
330
0
330
0
330
0
330
0
330
0
330
0
330
0
330
0
330
0
330
0
330
0
330
0
330
0
330
0
330
0
330
0
330
0
330
0
330
2B84
330
2B85
330
2B8E
330
2B8F
  0
DICTIONARY
  5
83
330
82
100
AcDbDictionary
280
     1
281
     1
  3
ADSK_XREC_LAYOUTTHUMBNAIL
360
84
  0
DICTIONARY
  5
C7
330
A0
100
AcDbDictionary
280
     1
281
     1
  3
ACAD_XREC_ROUNDTRIP
360
C8
  0
DICTIONARY
  5
C5
330
9F
100
AcDbDictionary
280
     1
281
     1
  3
ACAD_XREC_ROUNDTRIP
360
C6
  0
DICTIONARY
  5
B1
330
A
100
AcDbDictionary
280
     1
281
     1
  3
ACAD_XREC_ROUNDTRIP
360
B2
  0
DICTIONARY
  5
155
330
A4
100
AcDbDictionary
280
     1
281
     1
  3
ACAD_XREC_ROUNDTRIP
360
156
  0
XRECORD
  5
84
102
{ACAD_REACTORS
330
83
102
}
330
83
100
AcDbXrecord
280
     1
310
28000000B40000007F00000001000800000000004C59000000000000000000000001000000000000FFFFFF0000000000FFFFFF000000000000000000000000000000000000000000000000000000000000000000330000006600000099000000CC000000FF00000000330000333300006633000099330000CC330000FF3300
310
0000660000336600006666000099660000CC660000FF66000000990000339900006699000099990000CC990000FF99000000CC000033CC000066CC000099CC0000CCCC0000FFCC000000FF000033FF000066FF000099FF0000CCFF0000FFFF000000003300330033006600330099003300CC003300FF003300003333003333
310
33006633330099333300CC333300FF33330000663300336633006666330099663300CC663300FF66330000993300339933006699330099993300CC993300FF99330000CC330033CC330066CC330099CC3300CCCC3300FFCC330000FF330033FF330066FF330099FF3300CCFF3300FFFF330000006600330066006600660099
310
006600CC006600FF00660000336600333366006633660099336600CC336600FF33660000666600336666006666660099666600CC666600FF66660000996600339966006699660099996600CC996600FF99660000CC660033CC660066CC660099CC6600CCCC6600FFCC660000FF660033FF660066FF660099FF6600CCFF6600
310
FFFF660000009900330099006600990099009900CC009900FF00990000339900333399006633990099339900CC339900FF33990000669900336699006666990099669900CC669900FF66990000999900339999006699990099999900CC999900FF99990000CC990033CC990066CC990099CC9900CCCC9900FFCC990000FF99
310
0033FF990066FF990099FF9900CCFF9900FFFF99000000CC003300CC006600CC009900CC00CC00CC00FF00CC000033CC003333CC006633CC009933CC00CC33CC00FF33CC000066CC003366CC006666CC009966CC00CC66CC00FF66CC000099CC003399CC006699CC009999CC00CC99CC00FF99CC0000CCCC0033CCCC0066CC
310
CC0099CCCC00CCCCCC00FFCCCC0000FFCC0033FFCC0066FFCC0099FFCC00CCFFCC00FFFFCC000000FF003300FF006600FF009900FF00CC00FF00FF00FF000033FF003333FF006633FF009933FF00CC33FF00FF33FF000066FF003366FF006666FF009966FF00CC66FF00FF66FF000099FF003399FF006699FF009999FF00CC
310
99FF00FF99FF0000CCFF0033CCFF0066CCFF0099CCFF00CCCCFF00FFCCFF0000FFFF0033FFFF0066FFFF0099FFFF00CCFFFF00FFFFFF00000000000D0D0D001A1A1A00282828003535350043434300505050005D5D5D006B6B6B00787878008686860093939300A1A1A100AEAEAE00BBBBBB00C9C9C900D6D6D600E4E4E400
310
F1F1F100FFFFFF0000000000000000000000000000000000000000000000000000000000000000000000000000000000E2E2E2E2E2E2E2E2E2E2E2E2E2E2E2E2E2E2E2E2E2E2E2E2E2E2E2E2E2E2E2E2E2E2E2E2E2E2E2E2E2E2E2E2E2E2E2E2E2E2E2E2E2E2E2E2E2E2E2E2E2E2E2E2E2E2E2E2E2E2E2E2E2E2E2E2E2E2E2
310
E2E2E2E2E2E2E2E2E2E2E2E2E2E2E2E2E2E2E2E2E2E2E2E2E2E2E2E2E2E2E2E2E2E2E2E2E2E2E2E2E2E2E2E2E2E2E2E2E2E2E2E2E2E2E2E2E2E2E2E2E2E2E2E2E2E2E2E2E2E2E2E2E2E2E2E2E2E2E2E2E2E2E2E2E2E2E2E2E2E2E2E2E2E2E2E2E2E2E2E2E2E2F5F5F5F5F5F5F5F5F5F5F5F5F5F5F5F5F5F5F5F5F5F5F5F5F5
310
F5F5F5F5F5F5F5F5F5F5F5F5F5F5F5F5F5F5F5F5F5F5F5F5F5F5F5F5F5F5F5F5F5F5F5F5F5F5F5F5F5F5F5F5F5F5F5F5F5F5F5F5F5F5F5F5F5F5F5F5F5F5F5F5F5F5F5F5F5F5F5F5F5F5F5F5F5F5F5F5F5F5F5F5F5F5F5F5F5F5F5F5F5F5F5F5F5F5F5F5F5F5F5F5F5F5F5F5F5F5F5F5F5F5F5F5F5F5F5F5F5F5F5F5F5F5F5
310
F5F5F5F5F5F5F5F5F5F5F5F5F5F5F5F5F5F5F5F5F5F5F5F5F5F5E2E2F5E2E2E2E2E2E2E2E2E2F5F5F5F5F5F5F5F5F5E2E2E2E2E2E2E2E2E2E2E2E2E2E2E2E2F5F5F5F5F5F5F5F5F5E2E2E2E2E2E2E2E2E2E2E2E2E2E2E2E2F5F5F5F5F5F5F5F5F5E2E2E2E2E2E2E2E2E2E2E2E2E2E2E2E2F5F5F5F5F5F5F5F5F5E2E2E2E2E2
310
E2E2E2E2E2E2E2E2E2E2E2F5F5F5F5F5F5F5F5F5E2E2E2E2E2E2E2E2E2E2E2E2E2E2E2E2F5F5F5F5F5F5F5F5F5E2E2E2E2E2E2E2E2E2E2E2E2E2E2E2E2F5F5F5F5F5F5F5F5F5E2E2E2E2E2E2E2E2F5E2E2F5E2F5F5F5F5F5F5F5F5F5F5F5F5F5F5F5F5F5F5F5F5F5F5F5F5F5F5F5F5F5F5F5F5F5F5F5F5F5F5F5F5F5F5F5F5
310
F5F5F5F5F5F5F5F5F5F5F5F5F5F5F5F5F5F5F5F5F5F5F5F5F5F5F5F5F5F5F5F5F5F5F5F5F5F5F5F5F5F5F5F5F5F5F5F5F5F5F5F5F5F5F5F5F5F5F5F5F5F5F5F5F5F5F5F5F5F5F5F5F5F5F5F5F5F5F5F5F5F5F5F5F5F5F5F5F5F5F5F5F5F5F5F5F5F5F5F5F5F5F5F5F5F5F5F5F5F5F5F5F5F5F5F5F5F5F5F5F5F5F5F5F5F5F5
310
F5F5F5E2F5E2E2F5E2F5F5F5F5F5F5F5F5F5F5F5F5F5F5F5F5F5F5F5F5F5F5F5F5F5F5F5F5F5F5F5F5F5F5F5F5F5F5F5F5F5F5F5F5F5F5F5F5F5F5F5F5F5F5F5F5F5F5F5F5F5F5F5F5F5F5F5F5F5F5F5F5F5F5F5F5F5F5F5F5F5F5F5F5F5F5F5F5F5F5F5F5F5F5F5F5F5F5F5F5F5F5F5F5F5F5F5F5F5F5F5F5F5F5F5F5F5F5
310
F5F5F5F5F5F5F5F5F5F5F5F5F5F5F5F5F5F5F5F5F5F5F5F5F5F5F5F5F5F5F5F5F5F5F5F5F5F5F5F5F5F5F5F5F5F5F5F5F5F5F5F5F5F5F5F5E2F5E2E2F5E2F5F5F5F5F5F5F5F5F5F5F5F5F5F5F5F5F5F5F5F5F5F5F5F5F5F5F5F5F5F5F5F5F5F5F5F5F5F5F5F5F5F5F5F5F5F5F5F5F5F5F5F5F5F5F5F5F5F5F5F5F5F5F5F5F5
310
F5F5F5F5F5F5F5F5F5F5F5F5F5F5F5F5F5F5F5F5F5F5F5F5F5F5F5F5F5F5F5F5F5F5F5F5F5F5F5F5F5F5F5F5F5F5F5F5F5F5F5F5F5F5F5F5F5F5F5F5F5F5F5F5F5F5F5F5F5F5F5F5F5F5F5F5F5F5F5F5F5F5F5F5F5F5F5F5F5F5F5F5F5F5F5F5F5F5F5F5F5F5F5F5F5F5F5F5F5E2F5E2E2F5E2F5F5F5F5F5F5F5F5F5F5F5F5
310
F5F5F5F5F5F5F5F5F5F5F5F5F5F5F5F5F5F5F5F5F5F5F5F5F5F5F5F5F5F5F5F5F5F5F5F5F5F5F5F5F5F5F5F5F5F5F5F5F5F5F5F5F5F5F5F5F5F5F5F5F5F5F5F5F5F5F5F5F5F5F5F5F5F5F5F5F5F5F5F5F5F5F5F5F5F5F5F5F5F5F5F5F5F5F5F5F5F5F5F5F5F5F5F5F5F5F5F5F5F5F5F5F5F5F5F5F5F5F5F5F5F5F5F5F5F5F5
310
F5F5F5F5F5F5F5F5F5F5F5F5F5F5F5F5F5F5F5F5F5F5F5F5F5F5F5F5F5F5F5F5F5F5F5E2F5E2E2F5E2F5F5F5F5F5F5F5F5F5F5F5F5F5F5F5F5F5F5F5F5F5F5F5F5F5F5F5F5F5F5F5F5F5F5F5F5F5F5F5F5F5F5F5F5F5F5F5F5F5F5F5F5F5F5F5F5F5F5F5F5F5F5F5F5F5F5F5F5F5F5F5F5F5F5F5F5F5F5F5F5F5F5F5F5F5F5
310
F5F5F5F5F5F5F5F5F5F5F5F5F5F5F5F5F5F5F5F5F5F5F5F5F5F5F5F5F5F5F5F5F5F5F5F5F5F5F5F5F5F5F5F5F5F5F5F5F5F5F5F5F5F5F5F5F5F5F5F5F5F5F5F5F5F5F5F5F5F5F5F5F5F5F5F5F5F5F5F5F5F5F5F5F5F5F5F5E2F5E2E2F5E2F5F5F5F5F5F5F5F5F5F5F5F5F5F5F5F5F5F5F5F5F5F5F5F5F5F5F5F5F5F5F5F5F5
310
F5F5F5F5F5F5F5F5F5F5F5F5F5F5F5F5F5F5F5F5F5F5F5F5F5F5F5F5F5F5F5F5F5F5F5F5F5F5F5F5F5F5F5F5F5F5F5F5F5F5F5F5F5F5F5F5F5F5F5F5F5F5F5F5F5F5F5F5F5F5F5F5F5F5F5F5F5F5F5F5F5F5F5F5F5F5F5F5F5F5F5F5F5F5F5F5F5F5F5F5F5F5F5F5F5F5F5F5F5F5F5F5F5F5F5F5F5F5F5F5F5F5F5F5F5F5F5
310
F5F5F5F5F5F5F5F5F5F5F5F5F5F5E2F5E2E2F5E2F5F5F5F5F5F5F5F5F5F5F5F5F5F5F5F5F5F5F5F5F5F5F5F5F5F5F5F5F5F5F5F5F5F5F5F5F5F5F5F5F5F5F5F5F5F5F5F5F5F5F5F5F5F5F5F5F5F5F5F5F5F5F5F5F5F5F5F5F5F5F5F5F5F5F5F5F5F5F5F5F5F5F5F5F5F5F5F5F5F5F5F5F5F5F5F5F5F5F5F5F5F5F5F5F5F5F5
310
F5F5F5F5F5F5F5F5F5F5F5F5F5F5F5F5F5F5F5F5F5F5F5F5F5F5F5F5F5F5F5F5F5F5F5F5F5F5F5F5F5F5F5F5F5F5F5F5F5F5F5F5F5F5F5F5F5F5F5F5F5F5F5F5F5F5F5E2F5E2E2F5F5F5F5F5F5F5F5F5F5F5F5F5F5F5F5F5F5F5F5F5F5F5F5F5F5F5F5F5F5F5F5F5F5F5F5F5F5F5F5F5F5F5F5F5F5F5F5F5F5F5F5F5F5F5F5
310
F5F5F5F5F5F5F5F5F5F5F5F5F5F5F5F5F5F5F5F5F5F5F5F5F5F5F5F5F5F5F5F5F5F5F5F5F5F5F5F5F5F5F5F5F5F5F5F5F5F5F5F5F5F5F5F5F5F5F5F5F5F5F5F5F5F5F5F5F5F5F5F5F5F5F5F5F5F5F5F5F5F5F5F5F5F5F5F5F5F5F5F5F5F5F5F5F5F5F5F5F5F5F5F5F5F5F5F5F5F5F5F5F5F5F5F5F5F5F5F5F5F5E2E2F5F5F5
310
F5F5F5F5F5F5F5F5F5F5F5F5F5F5F5F5F5F5F5F5F5F5F5F5F5F5F5F5F5F5F5F5F5F5F5F5F5F5F5F5F5F5F5F5F5F5F5F5F5F5F5F5F5F5F5F5F5F5F5F5F5F5F5F5F5F5F5F5F5F5F5F5F5F5F5F5F5F5F5F5F5F5F5F5F5F5F5F5F5F5F5F5F5F5F5F5F5F5F5F5F5F5F5F5F5F5F5F5F5F5F5F5F5F5F5F5F5F5F5F5F5F5F5F5F5F5F5
310
F5F5F5F5F5F5F5F5F5F5F5F5F5F5F5F5F5F5F5F5F5F5F5F5F5F5F5F5F5F5F5F5F5F5F5F5F5F5F5F5F5F5F5F5F5F5F5F5E2E2F5F5F5F5F5F5F5F5F5F5F5F5F5F5F5F5F5F5F5F5F5F5F5F5F5F5F5F5F5F5F5F5F5F5F5F5F5F5F5F5F5F5F5F5F5F5F5F5F5F5F5F5F5F5F5F5F5F5F5F5F5F5F5F5F5F5F5F5F5F5F5F5F5F5F5F5F5
310
F5F5F5F5F5F5F5F5F5F5F5F5F5F5F5F5F5F5F5F5F5F5F5F5F5F5F5F5F5F5F5F5F5F5F5F5F5F5F5F5F5F5F5F5F5F5F5F5F5F5F5F5F5F5F5F5F5F5F5F5F5F5F5F5F5F5F5F5F5F5F5F5F5F5F5F5F5F5F5F5F5F5F5F5F5F5F5F5F5F5F5F5F5F5F5F5F5F5F5F5F5E2E2F5F5F5F5F5F5F5F5F5F5F5F5F5F5F5F5F5F5F5F5F5F5F5F5
310
F5F5F5F5F5F5F5F5F5F5F5F5F5F5F5F5F5F5F5F5F5F5F5F5F5F5F5F5F5F5F5F5F5F5F5F5F5F5F5F5F5F5F5F5F5F5F5F5F5F5F5F5F5F5F5F5F5F5F5F5F5F5F5F5F5F5F5F5F5F5F5F5F5F5F5F5F5F5F5F5F5F5F5F5F5F5F5F5F5F5F5F5F5F5F5F5F5F5F5F5F5F5F5F5F5F5F5F5F5F5F5F5F5F5F5F5F5F5F5F5F5F5F5F5F5F5F5
310
F5F5F5F5F5F5F5F5F5F5F5F5F5F5F5F5F5F5F5F5F5F5F5F5F5F5F5E2E2F5F5F5F5F5F5F5F5F5F5F5F5F5F5F5F5F5F5F5DCDCDCDCDCDCDCDCDCDCDCDCDCDCDCDCDCDCDCDCDCDCDCDCDCDCDCDCDCDCDCDCDCDCDCDCDCDCDCDCDCDCDCDCDCDCDCDCDCDCDCDCDCDCDCDCDCDCDCDCDCDCDCDCDCDCDCDCDCDCDCDCDCDCDCDCDCDCDC
310
DCDCDCDCDCDCDCDCDCDCDCDCDCDCDCDCDCDCDCDCDCDCDCDCDCDCDCDCDCDCDCDCDCDCDCDCDCDCDCDCDCDCDCDCDCDCDCDCDCDCDCDCDCDCDCDCDCDCDCDCDCF5F5F5F5F5F5F5F5F5F5F5F5F5F5F5F5F5F5F5E2E2F5F5F5F5F5F5F5F5F5F5F5F5F5F5F5F5F5F5F5DCDCDCDCDCDCDCDCDCDCDCDCDCDCDCDCDCDCDCDCDCDCDCDCDCDC
310
DCDCDCDCDCDCDCDCDCDCDCDCDCDCDCDCDCDCDCDCDCDCDCDCDCDCDCDCDCDCDCDCDCDCDCDCDCDCDCDCDCDCDCDCDCDCDCDCDCDCDCDCDCDCDCDCDCDCDCDCDCDCDCDCDCDCDCDCDCDCDCDCDCDCDCDCDCDCDCDCDCDCDCDCDCDCDCDCDCDCDCDCDCDCDCDCDCDCDCDCDCDCDCDCDCDCDCDCDCDCDCDCDCDCF5F5F5F5F5F5F5F5F5F5F5F5F5
310
F5F5F5F5F5F5E2E2F5F5F5F5F5F5F5F5F5F5F5F5F5F5F5F5F5F5F5DCF5F5F5F5F5F5F5F5F5F5F5F5F5F5F5F5F5F5F5F5F5F5F5F5F5F5F5F5F5F5F5F5F5F5F5F5F5F5F5F5F5F5F5F5F5F5F5F5F5F5F5F5F5F5F5F5F5F5F5F5F5F5F5F5F5F5F5F5F5F5F5F5F5F5F5F5F5F5F5F5F5F5F5F5F5F5F5F5F5F5F5F5F5F5F5F5F5F5F5
310
F5F5F5F5F5F5F5F5F5F5F5F5F5F5F5F5F5F5F5F5F5F5F5F5F5F5F5F5F5F5F5F5F5F5F5F5F5F5F5DCF5F5F5F5F5F5F5F5F5F5F5F5F5F5F5F5F5F5F5E2E2F5F5F5F5F5F5F5F5F5F5F5F5F5F5F5F5F5F5F5DCF5282828282828282828282828282828282828282828282828282828282828282828282828282828282828282828
310
28282828282828282828282828282828282828282828282828282828282828282828282828282828282828282828282828282828282828282828282828282828282828282828282828282828282828282828282828282828282828F5DCF5F5F5F5F5F5F5F5F5F5F5F5F5F5F5F5F5F5F5E2E2F5F5F5F5F5F5F5F5F5F5F5F5F5
310
F5F5F5F5F5F5DCF5282D2D2D2D2D2D2D2D2D2D2D2D2D2D2D2D2D2D2D2D2DF5F5F5F5F5F5F5F5F5F5F5F5F5F5F5F5F5F5F5F5F5F5F5F5F5F5F5F5F5F5F5F5F5F5F5F5F5F5F5F5F5F5F5F5F528F5F5F5F5F5F5F5F5F5F5F5F5F5F5F5F5F5F5F5F5F5F5F5F5F5F5F5F5F5F5F5F5F5F5F5F5F5F5F5F5F5F5F5F5F5F5F5F5F5F5F5
310
F5F5F5F5F5F5F5F5F5F5F5F5F5F5F5F528F5DCF5F5F5F5F5F5F5F5F5F5F5F5F5F5F5F5F5F5F5E2E2F5E2F5F5F5F5F5F5F5F5F5F5F5F5F5F5F5F5F5DCF5282D2D2D2D2D2D2D2D2D2D2D2D2D2D2D2D2D2D2D2D2D2D2D2D2D2D2D2D2DF5F5F5F5F5F5F5F5F5F5F5F5F5F5F5F5F5F5F5F5F5F5F5F5F5F5F5F5F5F5F5F5F5F5F5F5
310
F528F5F5F5F5F5F5F5F5F5F5F5F5F5F5F5F5F5F5F5F5F5F5F5F5F5F5F5F5F5F5F5F5F5F5F5F5F5F5F5F5F5F5F5F5F5F5F5F5F5F5F5F5F5F5F5F5F5F5F5F5F5F5F5F5F5F5F528F5DCF5F5F5F5F5F5F5F5F5F5F5F5F5F5F5F5F5E2F5E2E2F5E2F5F5F5F5F5F5F5F5F5F5F5F5F5F5F5F5F5DCF5282D2D2D2D2D2D2D2D2D2D2D2D
310
2D2D2D2D2D2D2D2D2D2D2D2D2D2D2D2D2DF5F5F5F5F5F5F5F5F5F5F5F5F5F5F5F5F5F5F5F5F5F5F5F5F5F5F5F5F5F5F5F5F5F5F5F5F528F5F5F5F5F5F5F5F52D2D2D2D2D2D2D2D2D2D2D2D2D2D2D2D2D2D2D2D2D2D2D2D2D2D2D2D2D2D2D2D2D2D2D2D2D2D2D2D2D2D2D2D2D2D2D2D2D2D2DF5F5F5F5F5F5F5F528F5DCF5F5
310
F5F5F5F5F5F5F5F5F5F5F5F5F5F5F5E2F5E2E2F5E2F5F5F5F5F5F5F5F5F5F5F5F5F5F5F5F5F5DCF5282D2D2D2D2D2D2D2D2D2D2D2D2D2D2D2D2D2D2D2D2D2D2D2D2D2D2D2D2D2D2D2D2D2D2D2D2D2D2D2D2D2D2D2D2D2D2D2D2D2D2D2D2D2D2D2D2D2D2D2D2D2D2D2D2D2D28F5F5F5F5F5F5F5F52D2D2D2D2D2D2D2D2D2D2D
310
2D2D2D2D2D2D2D2D2D2D2D2D2D2D2D2D2D2D2D2D2D2D2D2D2D2D2D2D2D2D2D2D2D2D2D2D2D2D2D2DF5F5F5F5F5F5F5F528F5DCF5F5F5F5F5F5F5F5F5F5F5F5F5F5F5F5F5E2F5E2E2F5E2F5F5F5F5F5F5F5F5F5F5F5F5F5F5F5F5F5DCF5282D2D2D2D2D2D2D2D2D2D2D2D2D2D2D2D2D2D2D2D2D2D2D2D2D2D2D2D2D2D2D2D2D
310
2D2D2D2D2D2D2D2D2D2D2D2D2D2D2D2D2D2D2D2D2D2D2D2D2D2D2D2D2DF5F5F5F528F5F5F5F5F5F5F5F5F5F5F5F52D2D2D2D2D2D2D2D2D2D2D2D2D2D2D2D2D2D2D2D2D2D2D2D2D2D2D2D2D2D2D2D2D2D2D2D2D2D2D2D2D2DF5F5F5F5F5F5F5F5F5F5F5F5F528F5DCF5F5F5F5F5F5F5F5F5F5F5F5F5F5F5F5F5E2F5E2E2F5E2
310
F5F5F5F5F5F5F5F5F5F5F5F5F5F5F5F5F5DCF5282D2D2D2D2D2D2D2D2D2D2D2D2D2D2D2D2D2D2D2D2D2D2D2D2D2D2D2D2D2D2D2D2D2D2D2D2D2D2D2D2D2D2D2D2D2D2D2D2D2D2D2D2D2D2D2D2D2D2D2D2D2DF5F5F5F528F5F5F5F5F5F5F5F5F5F5F5F52D2D2D2D2D2D2D2D2D2D2D2D2D2D2D2D2D2D2D2D2D2D2D2D2D2D2D2D
310
2D2D2D2D2D2D2D2D2D2D2D2D2D2DF5F5F5F5F5F5F5F5F5F5F5F5F528F5DCF5F5F5F5F5F5F5F5F5F5F5F5F5F5F5F5F5E2F5E2E2F5E2F5F5F5F5F5F5F5F5F5F5F5F5F5F5F5F5F5DCF5282D2D2D2D2D2D2D2D2D2D2D2D2D2D2D2D2D2D2D2D2D2D2D2D2D2D2D2D2D2D2D2D2D2D2D2D2D2D2D2D2D2D2D2D2D2D2D2D2D2D2D2D2D2D
310
2D2D2D2D2DF5F5F5F5F5F5F528F5F5F5F5F5F5F5F5F5F5F5F5F5F5F5F5F5F5F5F5F5F5F5F5F5F5F5F52D2D2D2D2D2D2D2D2D2DF5F5F5F5F5F5F5F5F5F5F5F5F5F5F5F5F5F5F5F5F5F5F5F5F5F5F5F5F528F5DCF5F5F5F5F5F5F5F5F5F5F5F5F5F5F5F5F5E2F5E2E2F5E2F5F5F5F5F5F5F5F5F5F5F5F5F5F5F5F5F5DCF5282D
310
2D2D2D2D2D2D2D2D2D2D2D2D2D2D2D2D2D2D2D2D2D2D2D2D2D2D2D2D2D2D2DF5F5F5F5F5F5F5F5F5F5F5F5F5F5F5F5F5F5F5F5F5F5F5F5F5F5F5F5F5F5F5F5F5F528F5F5F5F5F5F5F5F5F5F5F5F5F5F5F5F5F5F5F5F5F5F5F5F5F5F5F5F52D2D2D2D2D2D2D2D2D2DF5F5F5F5F5F5F5F5F5F5F5F5F5F5F5F5F5F5F5F5F5F5F5
310
F5F5F5F5F5F528F5DCF5F5F5F5F5F5F5F5F5F5F5F5F5F5F5F5F5E2F5E2E2F5E2F5F5F5F5F5F5F5F5F5F5F5F5F5F5F5F5F5DCF5282D2D2D2D2D2D2D2D2D2D2D2D2D2D2D2D2D2D2D2D2D2D2D2D2D2D2D2D2D2D2D2DF5F5F5F5F5F5F5F5F5F5F5F5F5F5F5F5F5F5F5F5F5F5F5F5F5F5F5F5F5F5F5F5F5F528F5F5F5F5F5F5F5F5
310
F5F5F5F5F5F5F5F5F5F5F5F5F5F5F5F5F5F5F5F52D2D2D2D2D2D2D2D2D2DF5F5F5F5F5F5F5F5F5F5F5F5F5F5F5F5F5F5F5F5F5F5F5F5F5F5F5F5F528F5DCF5F5F5F5F5F5F5F5F5F5F5F5F5F5F5F5F5E2F5E2E2F5E2F5F5F5F5F5F5F5F5F5F5F5F5F5F5F5F5F5DCF5282D2D2D2D2D2D2D2D2D2D2D2D2D2D2D2D2D2D2D2D2D2D
310
2D2D2D2D2D2D2D2D2D2D2D2D2D2D2D2D2D2D2D2D2D2D2D2D2D2D2D2D2D2D2D2D2D2D2D2D2D2D2D2D2D2DF5F528F5F5F5F5F5F5F5F5F5F5F5F5F5F5F5F5F5F5F5F5F5F5F5F5F5F5F5F5F5F5F5F5F5F5F5F5F5F5F5F5F5F5F5F5F5F5F5F5F5F5F5F5F5F5F5F5F5F5F5F5F5F5F5F5F5F5F528F5DCF5F5F5F5F5F5F5F5F5F5F5F5
310
F5F5F5F5F5E2F5E2E2F5E2F5F5F5F5F5F5F5F5F5F5F5F5F5F5F5F5F5DCF528F5F5F5F5F5F5F5F5F5F5F5F5F5F5F5F5F5F5F5F5F5F5F5F5F5F5F5F5F5F5F5F5F5F5F5F5F5F5F5F5F5F5F5F5F5F5F5F5F5F5F5F5F5F5F5F5F5F5F5F5F5F5F5F5F5F528F5F5F5F5F5F5F5F5F5F5F5F5F5F5F5F5F5F5F5F5F5F5F5F5F5F5F5F5F5
310
F5F5F5F5F5F5F5F5F5F5F5F5F5F5F5F5F5F5F5F5F5F5F5F5F5F5F5F5F5F5F5F5F5F5F5F5F5F528F5DCF5F5F5F5F5F5F5F5F5F5F5F5F5F5F5F5F5E2F5E2E2F5E2F5F5F5F5F5F5F5F5F5F5F5F5F5F5F5F5F5DCF52828282828282828282828282828282828282828282828282828282828282828282828282828282828282828
310
2828282828282828282828282828282828282828282828282828282828282828282828282828282828282828282828282828282828282828282828282828282828282828282828282828282828282828282828282828282828282828F5DCF5F5F5F5F5F5F5F5F5F5F5F5F5F5F5F5F5E2F5E2E2F5E2F5F5F5F5F5F5F5F5F5F5
310
F5F5F5F5F5F5F5DCF528F5F5F5F5F5F5F5F5F5F5F5F5F5F5F5F5F5F5F5F5F5F5F5F5F5F5F5F5F5F5F5F5F5F5F5F5F5F5F5F5F5F5F5F5F5F5F5F5F5F5F5F5F5F5F5F5F5F5F5F5F5F5F5F5F5F5F5F5F5F5F5F5F5F5F5F5F5F5F5F5F5F5F5F5F5F5F5F5F5F5F5F5F5F5F5F5F5F5F5F5F5F5F5F5F5F5F5F5F5F5F5F5F5F5F5F5F5
310
F5F5F5F5F5F5F5F5F5F5F5F5F5F5F5F5F528F5DCF5F5F5F5F5F5F5F5F5F5F5F5F5F5F5F5F5E2F5E2E2F5E2F5F5F5F5F5F5F5F5F5F5F5F5F5F5F5F5F5DCF528F5F5F5F5F5F5F5F5F5F5F5F5F5F5F5F5F5F5F5F5F5F5F5F5F5F5F5F5F5F5F5F5F5F5F5F5F5F5F5F5F5F5F5F5F5F5F5F5F5F5F5F5F5F5F5F5F5F5F5F5F5F5F5F5
310
F5F5F5F5F5F5F5F5F5F5F5F5F5F5F5F5F5F5F5F5F5F5F5F5F5F5F5F5F5F5F5F5F5F5F5F5F5F5F5F5F5F5F5F5F5F5F5F5F5F5F5F5F5F5F5F5F5F5F5F5F5F5F5F5F5F5F5F5F5F528F5DCF5F5F5F5F5F5F5F5F5F5F5F5F5F5F5F5F5E2F5E2E2F5E2F5F5F5F5F5F5F5F5F5F5F5F5F5F5F5F5F5DCF528F5F5F5F5F5F5F5F5F5F5F5
310
F5F5F5F5F5F5F5F5F5F5F5F5F5F5F5F5F5F5F5F5F5F5F5F5F5F5F5F5F5F5F5F5F5F5F5F5F5F5F5F5F5F5F5F5F5F5F5F5F5F5F5F5F5F5F5F5F5F5F5F5F5F5F5F5F5F5F5F5F5F5F5F5F5F5F5F5F5F5F5F5F5F5F5F5F5F5F5F5F5F5F5F5F5F5F5F5F5F5F5F5F5F5F5F5F5F5F5F5F5F5F5F5F5F5F5F5F5F5F5F5F5F5F528F5DCF5
310
F5F5F5F5F5F5F5F5F5F5F5F5F5F5F5F5E2F5E2E2F5E2F5F5F5F5F5F5F5F5F5F5F5F5F5F5F5F5F5DCF528F5F5F5F5F5F5F5F5F5F5F5F5F5F5F5F5F5F5F5F5F5F5F5F5F5F5F5F5F5F5F5F5F5F5F5F5F5F5F5F5F5F5F5F5F5F5F5F5F5F5F5F5F5F5F5F5F5F5F5F5F5F5F5F5F5F5F5F5F5F5F5F5F5F5F5F5F5F5F5F5F5F5F5F5F5
310
F5F5F5F5F5F5F5F5F5F5F5F5F5F5F5F5F5F5F5F5F5F5F5F5F5F5F5F5F5F5F5F5F5F5F5F5F5F5F5F5F5F5F5F5F5F5F5F5F528F5DCF5F5F5F5F5F5F5F5F5F5F5F5F5F5F5F5F5E2F5E2E2F5E2F5F5F5F5F5F5F5F5F5F5F5F5F5F5F5F5F5DCF528F5F5F5F5F5F5F5F5F5F5F5F5F5F5F5F5F5F5F5F5F5F5F5F5F5F5F5F5F5F5F5F5
310
F5F5F5F5F5F5F5F5F5F5F5F5F5F5F5F5F5F5F5F5F5F5F5F5F5F5F5F5F5F5F5F5F5F5F5F5F5F5F5F5F5F5F5F5F5F5F5F5F5F5F5F5F5F5F5F5F5F5F5F5F5F5F5F5F5F5F5F5F5F5F5F5F5F5F5F5F5F5F5F5F5F5F5F5F5F5F5F5F5F5F5F5F5F5F5F5F5F5F5F5F5F528F5DCF5F5F5F5F5F5F5F5F5F5F5F5F5F5F5F5F5E2F5E2E2F5
310
F5F5F5F5F5F5F5F5F5F5F5F5F5F5F5F5F5F5DCF528F5F5F5F5F5F5F5F5F5F5F5F5F5F5F5F5F5F5F5F5F5F5F5F5F5F5F5F5F5F5F5F5F5F5F5F5F5F5F5F5F5F5F5F5F5F5F5F5F5F5F5F5F5F5F5F5F5F5F5F5F5F5F5F5F5F5F5F5F5F5F5F5F5F5F5F5F5F5F5F5F5F5F5F5F5F5F5F5F5F5F5F5F5F5F5F5F5F5F5F5F5F5F5F5F5F5
310
F5F5F5F5F5F5F5F5F5F5F5F5F5F5F5F5F5F5F5F5F5F5F5F5F5F5F5F528F5DCF5F5F5F5F5F5F5F5F5F5F5F5F5F5F5F5F5F5F5E2E2F5F5F5F5F5F5F5F5F5F5F5F5F5F5F5F5F5F5F5DCF528F5F5F5F5F5F5F5F5F5F5F5F5F5F5F5F5F5F5F5F5F5F5F5F5F5F5F5F5F5F5F5F5F5F5F5F5F5F5F5F5F5F5F5F5F5F5F5F5F5F5F5F5F5
310
F5F5F5F5F5F5F5F5F5F5F5F5F5F5F5F5F5F5F5F5F5F5F5F5F5F5F5F5F5F5F5F5F5F5F5F5F5F5F5F5F5F5F5F5F5F5F5F5F5F5F5F5F5F5F5F5F5F5F5F5F5F5F5F5F5F5F5F5F5F5F5F5F5F5F5F5F5F5F5F5F528F5DCF5F5F5F5F5F5F5F5F5F5F5F5F5F5F5F5F5F5F5E2E2F5F5F5F5F5F5F5F5F5F5F5F5F5F5F5F5F5F5F5DCF528
310
F5F5F5F5F5F5F5F5F5F5F5F5F5F5F5F5F5F5F5F5F5F5F5F5F5F5F5F5F5F5F5F5F5F5F5F5F5F5F5F5F5F5F5F5F5F5F5F5F5F5F5F5F5F5F5F5F5F5F5F5F5F5F5F5F5F5F5F5F5F5F5F5F5F5F5F5F5F5F5F5F5F5F5F5F5F5F5F5F5F5F5F5F5F5F5F5F5F5F5F5F5F5F5F5F5F5F5F5F5F5F5F5F5F5F5F5F5F5F5F5F5F5F5F5F5F5F5
310
F5F5F5F5F5F5F528F5DCF5F5F5F5F5F5F5F5F5F5F5F5F5F5F5F5F5F5F5E2E2F5F5F5F5F5F5F5F5F5F5F5F5F5F5F5F5F5F5F5DCF528F5F5F5F5F5F5F5F5F5F5F5F5F5F5F5F5F5F5F5F5F5F5F5F5F5F5F5F5F5F5F5F5F5F5F5F5F5F5F5F5F5F5F5F5F5F5F5F5F5F5F5F5F5F5F5F5F5F5F5F5F5F5F5F5F5F5F5F5F5F5F5F5F5F5
310
F5F5F5F5F5F5F5F5F5F5F5F5F5F5F5F5F5F5F5F5F5F5F5F5F5F5F5F5F5F5F5F5F5F5F5F5F5F5F5F5F5F5F5F5F5F5F5F5F5F5F5F5F5F5F5F5F5F5F5F528F5DCF5F5F5F5F5F5F5F5F5F5F5F5F5F5F5F5F5F5F5E2E2F5F5F5F5F5F5F5F5F5F5F5F5F5F5F5F5F5F5F5DCF528F5F5F5F5F5F5F5F5F5F5F5F5F5F5F5F5F5F5F5F5F5
310
F5F5F5F5F5F5F5F5F5F5F5F5F5F5F5F5F5F5F5F5F5F5F5F5F5F5F5F5F5F5F5F5F5F5F5F5F5F5F5F5F5F5F5F5F5F5F5F5F5F5F5F5F5F5F5F5F5F5F5F5F5F5F5F5F5F5F5F5F5F5F5F5F5F5F5F5F5F5F5F5F5F5F5F5F5F5F5F5F5F5F5F5F5F5F5F5F5F5F5F5F5F5F5F5F5F5F5F5F5F5F5F5F528F5DCF5F5F5F5F5F5F5F5F5F5F5
310
F5F5F5F5F5F5F5F5E2E2F5F5F5F5F5F5F5F5F5F5F5F5F5F5F5F5F5F5F5DCF528F5F5F5F5F5F5F5F5F5F5F5F5F5F5F5F5F5F5F5F5F5F5F5F5F5F5F5F5F5F5F5F5F5F5F5F5F5F5F5F5F5F5F5F5F5F5F5F5F5F5F5F5F5F5F5F5F5F5F5F5F5F5F5F5F5F5F5F5F5F5F5F5F5F5F5F5F5F5F5F5F5F5F5F5F5F5F5F5F5F5F5F5F5F5F5
310
F5F5F5F5F5F5F5F5F5F5F5F5F5F5F5F5F5F5F5F5F5F5F5F5F5F5F5F5F5F5F5F5F5F5F5F5F5F5F528F5DCF5F5F5F5F5F5F5F5F5F5F5F5F5F5F5F5F5F5F5E2E2F5F5F5F5F5F5F5F5F5F5F5F5F5F5F5F5F5F5F5DCF528F5F5F5F5F5F5F5F5F5F5F5F5F5F5F5F5F5F5F5F5F5F5F5F5F5F5F5F5F5F5F5F5F5F5F5F5F5F5F5F5F5F5
310
F5F5F5F5F5F5F5F5F5F5F5F5F5F5F5F5F5F5F5F5F5F5F5F5F5F5F5F5F5F5F5F5F5F5F5F5F5F5F5F5F5F5F5F5F5F5F5F5F5F5F5F5F5F5F5F5F5F5F5F5F5F5F5F5F5F5F5F5F5F5F5F5F5F5F5F5F5F5F5F5F5F5F5F5F5F5F5F5F5F5F5F528F5DCF5F5F5F5F5F5F5F5F5F5F5F5F5F5F5F5F5F5F5E2E2F5F5F5F5F5F5F5F5F5F5F5
310
F5F5F5F5F5F5F5F5DCF528F5F5F5F5F5F5F5F5F5F5F5F5F5F5F52D2D2D2D2D2D2D2D2D2DF5F5F5F5F5F5F5F5F5F5F5F5F5F5F5F5F5F5F5F5F5F5F5F5F5F5F5F5F5F5F5F5F5F5F5F5F5F5F5F5F5F5F5F5F5F5F5F5F5F5F5F5F5F5F5F5F5F5F5F5F5F5F5F5F5F5F5F5F5F5F5F5F5F5F5F5F5F5F5F5F5F5F5F5F5F5F5F5F5F5F5
310
F5F5F5F5F5F5F5F5F5F5F5F5F5F5F5F5F5F528F5DCF5F5F5F5F5F5F5F5F5F5F5F5F5F5F5F5F5F5F5E2E2F5E2F5F5F5F5F5F5F5F5F5F5F5F5F5F5F5F5F5DCF528F5F5F5F5F5F5F5F5F5F5F5F5F5F5F52D2D2D2D2D2D2D2D2D2DF5F5F5F5F5F5F5F5F5F5F5F5F5F5F5F5F5F5F5F5F5F5F5F5F5F5F5F5F5F5F5F5F5F5F5F5F5F5
310
F5F5F5F5F5F5F5F5F5F5F5F5F5F5F5F5F5F5F5F5F5F5F5F5F5F5F5F5F5F5F5F5F5F5F5F5F5F5F5F5F5F5F5F5F5F5F5F5F5F5F5F5F5F5F5F5F5F5F5F5F5F5F5F5F5F5F5F5F5F5F528F5DCF5F5F5F5F5F5F5F5F5F5F5F5F5F5F5F5F5E2F5E2E2F5E2F5F5F5F5F5F5F5F5F5F5F5F5F5F5F5F5F5DCF528F5F5F5F5F5F5F5F5F5F5
310
F5F5F5F5F5F5F5F5F5F5F5F5F5F5F5F5F5F5F5F5F5F5F5F5F5F5F5F5F5F5F5F5F5F5F5F5F5F5F5F5F5F5F5F5F5F5F5F5F5F5F5F5F5F5F5F5F5F5F5F5F5F5F5F5F5F5F5F5F5F5F5F5F5F5F5F5F5F5F5F5F5F5F5F5F5F5F5F5F5F5F5F5F5F5F5F5F5F5F5F5F5F5F5F5F5F5F5F5F5F5F5F5F5F5F5F5F5F5F5F5F5F5F5F528F5DC
310
F5F5F5F5F5F5F5F5F5F5F5F5F5F5F5F5F5E2F5E2E2F5E2F5F5F5F5F5F5F5F5F5F5F5F5F5F5F5F5F5DCF528F5F5F5F5F5F5F5F5F5F5F5F5F5F5F5F5F5F5F5F5F5F5F5F5F5F5F5F5F5F5F5F5F5F5F5F5F5F5F5F5F5F5F5F5F5F5F5F5F5F5F5F5F5F5F5F5F5F5F5F5F5F5F5F5F5F5F5F5F5F5F5F5F5F5F5F5F5F5F5F5F5F5F5F5
310
F5F5F5F5F5F5F5F5F5F5F5F5F5F5F5F5F5F5F5F5F5F5F5F5F5F5F5F5F5F5F5F5F5F5F5F5F5F5F5F5F5F5F5F5F5F5F5F5F5F528F5DCF5F5F5F5F5F5F5F5F5F5F5F5F5F5F5F5F5E2F5E2E2F5E2F5F5F5F5F5F5F5F5F5F5F5F5F5F5F5F5F5DCF528F5F5F5F5F5F5F5F5F5F5F5F5F5F5F5F5F5F5F5F5F5F5F5F5F5F5F5F5F5F5F5
310
F5F5F5F5F5F5F5F5F5F5F5F5F5F5F5F5F5F5F5F5F5F5F5F5F5F5F5F5F5F5F5F5F5F5F5F5F5F5F5F5F5F5F5F5F5F5F5F5F5F5F5F5F5F5F5F5F5F5F5F5F5F5F5F5F5F5F5F5F5F5F5F5F5F5F5F5F5F5F5F5F5F5F5F5F5F5F5F5F5F5F5F5F5F5F5F5F5F5F5F5F5F5F528F5DCF5F5F5F5F5F5F5F5F5F5F5F5F5F5F5F5F5E2F5E2E2
310
F5E2F5F5F5F5F5F5F5F5F5F5F5F5F5F5F5F5F5DCF528F5F5F5F5F5F5F5F5F5F5F5F5F5F5F5F5F5F5F5F5F5F5F5F5F5F5F5F5F5F5F5F5F5F5F5F5F5F5F5F5F5F5F5F5F5F5F5F5F5F5F5F5F5F5F5F5F5F5F5F5F5F5F5F5F5F5F5F5F5F5F5F5F5F5F5F5F5F5F5F5F5F5F5F5F5F5F5F5F5F5F5F5F5F5F5F5F5F5F5F5F5F5F5F5F5
310
F5F5F5F5F5F5F5F5F5F5F5F5F5F5F5F5F5F5F5F5F5F5F5F5F5F5F5F5F528F5DCF5F5F5F5F5F5F5F5F5F5F5F5F5F5F5F5F5E2F5E2E2F5E2F5F5F5F5F5F5F5F5F5F5F5F5F5F5F5F5F5DCF528F5F5F5F5F5F5F5F5F5F5F5F5F5F5F5F5F5F5F5F5F5F5F5F5F5F5F5F5F5F5F5F5F5F5F5F5F5F5F5F5F5F5F5F5F5F5F5F5F5F5F5F5
310
F5F5F5F5F5F5F5F5F5F5F5F5F5F5F5F5F5F5F5F5F5F5F5F5F5F5F5F5F5F5F5F5F5F5F5F5F5F5F5F5F5F5F5F5F5F5F5F5F5F5F5F5F5F5F5F5F5F5F5F5F5F5F5F5F5F5F5F5F5F5F5F5F5F5F5F5F5F5F5F5F5F528F5DCF5F5F5F5F5F5F5F5F5F5F5F5F5F5F5F5F5E2F5E2E2F5E2F5F5F5F5F5F5F5F5F5F5F5F5F5F5F5F5F5DCF5
310
28F5F5F5F5F5F5F5F5F5F5F5F5F5F5F5F5F5F5F5F5F5F5F5F5F5F5F5F5F5F5F5F5F5F5F5F5F5F5F5F5F5F5F5F5F5F5F5F5F5F5F5F5F5F5F5F5F5F5F5F5F5F5F5F5F5F5F5F5F5F5F5F5F5F5F5F5F5F5F5F5F5F5F5F5F5F5F5F5F5F5F5F5F5F5F5F5F5F5F5F5F5F5F5F5F5F5F5F5F5F5F5F5F5F5F5F5F5F5F5F5F5F5F5F5F5F5
310
F5F5F5F5F5F5F5F528F5DCF5F5F5F5F5F5F5F5F5F5F5F5F5F5F5F5F5E2F5E2E2F5E2F5F5F5F5F5F5F5F5F5F5F5F5F5F5F5F5F5DCF528F5F5F5F5F5F5F5F5F5F5F5F5F5F5F5F5F5F5F5F5F5F5F5F5F5F5F5F5F5F5F5F5F5F5F5F5F5F5F5F5F5F5F5F5F5F5F5F5F5F5F5F5F5F5F5F5F5F5F5F5F5F5F5F5F5F5F5F5F5F5F5F5F5
310
F5F5F5F5F5F5F5F5F5F5F5F5F5F5F5F5F5F5F5F5F5F5F5F5F5F5F5F5F5F5F5F5F5F5F5F5F5F5F5F5F5F5F5F5F5F5F5F5F5F5F5F5F5F5F5F5F5F5F5F5F528F5DCF5F5F5F5F5F5F5F5F5F5F5F5F5F5F5F5F5E2F5E2E2F5E2F5F5F5F5F5F5F5F5F5F5F5F5F5F5F5F5F5DCF528F5F5F5F5F5F5F5F5F5F5F5F5F5F5F5F5F5F5F5F5
310
F5F5F5F5F5F5F5F5F5F5F5F5F5F5F5F5F5F5F5F5F5F5F5F5F5F5F5F5F5F5F5F5F5F5F5F5F5F5F5F5F5F5F5F5F5F5F5F5F5F5F5F5F5F5F5F5F5F5F5F5F5F5F5F5F5F5F5F5F5F5F5F5F5F5F5F5F5F5F5F5F5F5F5F5F5F5F5F5F5F5F5F5F5F5F5F5F5F5F5F5F5F5F5F5F5F5F5F5F5F5F5F5F5F528F5DCF5F5F5F5F5F5F5F5F5F5
310
F5F5F5F5F5F5F5E2F5E2E2F5E2F5F5F5F5F5F5F5F5F5F5F5F5F5F5F5F5F5DCF528F5F5F5F5F5F5F5F5F5DCF5F5F5F5F5F5F5F5F5F5F5F5F5F5F5F5F5F5F5F5F5F5F5F5F5F5F5F5F5F5F5F5F5F5F5F5F5F5F5F5F5F5F5F5F5F5F5F5F5F5F5F5F5F5F5F5F5F5F5F5F5F5F5F5F5F5F5F5F5F5F5F5F5F5F5F5F5F5F5F5F5F5F5F5
310
F5F5F5F5F5F5F5F5F5F5F5F5F5F5F5F5F5F5F5F5F5F5F5F5F5F5F5F5F5F5F5F5F5F5F5F5F5F5F5F528F5DCF5F5F5F5F5F5F5F5F5F5F5F5F5F5F5F5F5E2F5E2E2F5E2F5F5F5F5F5F5F5F5F5F5F5F5F5F5F5F5F5DCF528F5F5F5F5F5F5F5F50FDCF5F5F5F5F52D2D2D2D2D2D2D2DF5F5F5F5F50FF5F5F5F5F5F5F5F5F5F5F5F5
310
F5F5F5F5F5F5F5F5F5F5F5F5F5F5F5F5F5F5F5F5F5F5F5F5F5F5F5F5F5F5F5F5F5F5F5F5F5F5F5F5F5F5F5F5F5F5F5F5F5F5F5F5F5F5F5F5F5F5F5F5F5F5F5F5F5F5F5F5F5F5F5F5F5F5F5F5F5F5F5F5F5F5F5F5F5F5F5F5F5F5F5F5F528F5DCF5F5F5F5F5F5F5F5F5F5F5F5F5F5F5F5F5E2F5E2E2F5E2F5F5F5F5F5F5F5F5
310
F5F5F5F5F5F5F5F5F5DCF528F5F5F5F5DCF5F5DC0FDC0F0F0F0F0F2D2D2D2D2D2D2D2D0F0F0F0F0F0F0FF5F5F5F5F5F5F5F5F5F5F5F5F5F5F5F5F5F5F5F5F5F5F5F5F5F5F5F5F5F5F5F5F5F5F5F5F5F5F5F5F5F5F5F5F5F5F5F5F5F5F5F5F5F5F5F5F5F5F5F5F5F5F5F5F5F5F5F5F5F5F5F5F5F5F5F5F5F5F5F5F5F5F5F5F5
310
F5F5F5F5F5F5F5F5F5F5F5F5F5F5F5F5F5F5F528F5DCF5F5F5F5F5F5F5F5F5F5F5F5F5F5F5F5F5E2F5E2E2F5E2F5F5F5F5F5F5F5F5F5F5F5F5F5F5F5F5F5DCF528F5F5F5DCF5F5DCF5F5DCF5F5F5F5F5F5F5F5F5F5F5F5F5F5F5F5F5F50FF5F5F5F5F5F5F5F5F5F5F5F5F5F5F5F5F5F5F5F5F5F5F5F5F5F5F5F5F5F5F5F5F5
310
F5F5F5F5F5F5F5F5F5F5F5F5F5F5F5F5F5F5F5F5F5F5F5F5F5F5F5F5F5F5F5F5F5F5F5F5F5F5F5F5F5F5F5F5F5F5F5F5F5F5F5F5F5F5F5F5F5F5F5F5F5F5F5F5F5F5F5F5F5F5F5F528F5DCF5F5F5F5F5F5F5F5F5F5F5F5F5F5F5F5F5E2F5E2E2F5E2F5F5F5F5F5F5F5F5F5F5F5F5F5F5F5F5F5DCF528F5F5F5F5F5DCF5F5DC
310
DCF5F5F5F5F5F5F5F5F5F5F5F5F5F5F5F5F5F50FF5F5F5F5F5F5F5F5F5F5F5F5F5F5F5F5F5F5F5F5F5F5F5F5F5F5F5F5F5F5F5F5F5F5F5F5F5F5F5F5F5F5F5F5F5F5F5F5F5F5F5F5F5F5F5F5F5F5F5F5F5F5F5F5F5F5F5F5F5F5F5F5F5F5F5F5F5F5F5F5F5F5F5F5F5F5F5F5F5F5F5F5F5F5F5F5F5F5F5F5F5F5F5F5F528F5
310
DCF5F5F5F5F5F5F5F5F5F5F5F5F5F5F5F5F5E2F5E2E2F5E2F5F5F5F5F5F5F5F5F5F5F5F5F5F5F5F5F5DCF528F5F5F5F5DCF5F5DCF5DCF5F5F5F5F5F5F5F5F5F5F5F5F5F5F5F5F5F50FF5F5F5F5F5F5F5F5F5F5F5F5F5F5F5F5F5F5F5F5F5F5F5F5F5F5F5F5F5F5F5F5F5F5F5F5F5F5F5F5F5F5F5F5F5F5F5F5F5F5F5F5F5F5
310
F5F5F5F5F5F5F5F5F5F5F5F5F5F5F5F5F5F5F5F5F5F5F5F5F5F5F5F5F5F5F5F5F5F5F5F5F5F5F5F5F5F5F5F5F5F5F5F5F5F5F528F5DCF5F5F5F5F5F5F5F5F5F5F5F5F5F5F5F5F5E2F5E2E2F5E2F5F5F5F5F5F5F5F5F5F5F5F5F5F5F5F5F5DCF528F5F5F5DCF5F5DCF5F5DCF5F5F5F5F5F5F5F5F5F5F5F5F5F5F5F5F5F50FF5
310
F5F5F5F5F5F5F5F5F5F5F5F5F5F5F5F5F5F5F5F5F5F5F5F5F5F5F5F5F5F5F5F5F5F5F5F5F5F5F5F5F5F5F5F5F5F5F5F5F5F5F5F5F5F5F5F5F5F5F5F5F5F5F5F5F5F5F5F5F5F5F5F5F5F5F5F5F5F5F5F5F5F5F5F5F5F5F5F5F5F5F5F5F5F5F5F5F5F5F5F5F5F5F5F528F5DCF5F5F5F5F5F5F5F5F5F5F5F5F5F5F5F5F5E2F5E2
310
E2F5F5F5F5F5F5F5F5F5F5F5F5F5F5F5F5F5F5F5DCF528F5F5F5F5F5DCF5F5F5DC1B0F0F0F0F0F0F0F0F0F0F0F0F0F0F0F0F0F0F0F0F0F0F0F0F0FF5F5F5F5F5F5F5F5F5F5F5F5F5F5F5F5F5F5F5F5F5F5F5F5F5F5F5F5F5F5F5F5F5F5F5F5F5F5F5F5F5F5F5F5F5F5F5F5F5F5F5F5F5F5F5F5F5F5F5F5F5F5F5F5F5F5F5F5
310
F5F5F5F5F5F5F5F5F5F5F5F5F5F5F5F5F5F5F5F5F5F5F5F5F5F5F5F5F5F528F5DCF5F5F5F5F5F5F5F5F5F5F5F5F5F5F5F5F5F5F5E2E2F5F5F5F5F5F5F5F5F5F5F5F5F5F5F5F5F5F5F5DCF528F5F5F5F5DCF5F5F5DCDCBEF5F5F5F5F5F5F5F5F5F5F5F5F5F5F5F5F50FF5F5F5F5F50FF5F5F5F5F5F5F5F5F5F5F5F5F5F5F5F5
310
F5F5F5F5F5F5F5F5F5F5F5F5F5F5F5F5F5F5F5F5F5F5F5F5F5F5F5F5F5F5F5F5F5F5F5F5F5F5F5F5F5F5F5F5F5F5F5F5F5F5F5F5F5F5F5F5F5F5F5F5F5F5F5F5F5F5F5F5F5F5F5F5F5F5F5F5F5F5F5F5F5F5F528F5DCF5F5F5F5F5F5F5F5F5F5F5F5F5F5F5F5F5F5F5E2E2F5F5F5F5F5F5F5F5F5F5F5F5F5F5F5F5F5F5F5DC
310
F528F5F5F5DCF5F5F5DCF5DCF5BEBEF5F5F5F5F5F5F5F5F5F5F5F5F5F5F50FF5F5F5F5F50FF5F5F5F5F5F5F5F5F5F5F5F5F5F5F5F5F5F5F5F5F5F5F5F5F5F5F5F5F5F5F5F5F5F5F5F5F5F5F5F5F5F5F5F5F5F5F5F5F5F5F5F5F5F5F5F5F5F5F5F5F5F5F5F5F5F5F5F5F5F5F5F5F5F5F5F5F5F5F5F5F5F5F5F5F5F5F5F5F5F5
310
F5F5F5F5F5F5F5F5F528F5DCF5F5F5F5F5F5F5F5F5F5F5F5F5F5F5F5F5F5F5E2E2F5F5F5F5F5F5F5F5F5F5F5F5F5F5F5F5F5F5F5DCF528F5F5F5F5F5DCDCF5F5DCF5F5BEBEF5F5F5F5F5F5F5F5F5F5F5F5F5F50FF5F5F5F5F50FF5F5F5F5F5F5F5F5F5F5F5F5F5F5F5F5F5F5F5F5F5F5F5F5F5F5F5F5F5F5F5F5F5F5F5F5F5
310
F5F5F5F5F5F5F5F5F5F5F5F5F5F5F5F5F5F5F5F5F5F5F5F5F5F5F5F5F5F5F5F5F5F5F5F5F5F5F5F5F5F5F5F5F5F5F5F5F5F5F5F5F5F5F5F5F5F5F5F5F5F528F5DCF5F5F5F5F5F5F5F5F5F5F5F5F5F5F5F5F5F5F5E2E2F5F5F5F5F5F5F5F5F5F5F5F5F5F5F5F5F5F5F5DCF528F5F5F5F5DCF5F5F5DCDCF5F5F5BEF5F5F5F5F5
310
F5F5F5F5F5F5F5F5F50FF5F5F5F5F50FF5F5F5F5F5F5F5F5F5F5F5F5F5F5F5F5F5F5F5F5F5F5F5F5F5F5F5F5F5F5F5F5F5F5F5F5F5F5F5F5F5F5F5F5F5F5F5F5F5F5F5F5F5F5F5F5F5F5F5F5F5F5F5F5F5F5F5F5F5F5F5F5F5F5F5F5F5F5F5F5F5F5F5F5F5F5F5F5F5F5F5F5F5F5F5F5F5F5F528F5DCF5F5F5F5F5F5F5F5F5
310
F5F5F5F5F5F5F5F5F5F5E2E2F5F5F5F5F5F5F5F5F5F5F5F5F5F5F5F5F5F5F5DCF528F5F5F5DCF5F5F5DCF5DCF5F5F5BEBEBEF5F5F5F5F5F5F5F5F5F5F5F50FF5F5F5F5F50FF5F5F5F5F5F5F5F5F5F5F5F5F5F5F5F5F5F5F5F5F5F5F5F5F5F5F5F5F5F5F5F5F5F5F5F5F5F5F5F5F5F5F5F5F5F5F5F5F5F5F5F5F5F5F5F5F5F5
310
F5F5F5F5F5F5F5F5F5F5F5F5F5F5F5F5F5F5F5F5F5F5F5F5F5F5F5F5F5F5F5F5F5F5F5F5F5F5F5F5F528F5DCF5F5F5F5F5F5F5F5F5F5F5F5F5F5F5F5F5F5F5E2E2F5F5F5F5F5F5F5F5F5F5F5F5F5F5F5F5F5F5F5DCF528F5F5F5F5F5DCDCF5F5DCF5F5F5F5BEBEF5F5F5F5F5F5F5F5F5F5F5F50FF5F5F5F5F50FF5F5F5F5F5
310
F5F5F5F5F5F5F5F5F5F5F5F5F5F5F5F5F5F5F5F5F5F5F5F5F5F5F5F5F5F5F5F5F5F5F5F5F5F5F5F5F5F5F5F5F5F5F5F5F5F5F5F5F5F5F5F5F5F5F5F5F5F5F5F5F5F5F5F5F5F5F5F5F5F5F5F5F5F5F5F5F5F5F5F5F5F5F5F5F5F5F5F5F5F528F5DCF5F5F5F5F5F5F5F5F5F5F5F5F5F5F5F5F5F5F5E2E2F5F5F5F5F5F5F5F5F5
310
F5F5F5F5F5F5F5F5F5F5DCF528F5F5F5F5DCF5F5F5DCDCF5F5F5F5BEF5F5F5F5F5F5F5F5F5F5F5F5F50FF5F5F5F5F50FF5F5F5F5F5F5F5F5F5F5F5F5F5F5F5F5F5F5F5F5F5F5F5F5F5F5F5F5F5F5F5F5F5F5F5F5F5F5F5F5F5F5F5F5F5F5F5F5F5F5F5F5F5F5F5F5F5F5F5F5F5F5F5F5F5F5F5F5F5F5F5F5F5F5F5F5F5F5F5
310
F5F5F5F5F5F5F5F5F5F5F5F5F5F5F5F5F5F5F5F528F5DCF5F5F5F5F5F5F5F5F5F5F5F5F5F5F5F5F5F5F5E2E2F5F5F5F5F5F5F5F5F5F5F5F5F5F5F5F5F5F5F5DCF528F5F5F5DCF5F5F5DCF5DCF5F5F5F5BEF5F5F5F5F5F5F5F5F5F5F5F5F50FF5F5F5F5F50FF5F5F5F5F5F5F5F5F5F5F5F5F5F5F5F5F5F5F5F5F5F5F5F5F5F5
310
F5F5F5F5F5F5F5F5F5F5F5F5F5F5F5F5F5F5F5F5F5F5F5F5F5F5F5F5F5F5F5F5F5F5F5F5F5F5F5F5F5F5F5F5F5F5F5F5F5F5F5F5F5F5F5F5F5F5F5F5F5F5F5F5F5F5F5F5F5F5F5F5F528F5DCF5F5F5F5F5F5F5F5F5F5F5F5F5F5F5F5F5F5F5E2E2F5E2F5F5F5F5F5F5F5F5F5F5F5F5F5F5F5F5F5DCF528F5F5F5F5F5F5DCF5
310
F5DCBEBEF5F5BEF5F5F5F5F5F5F5F5F5F5F5F5F50FF5F52D2D2D2D2D2D2D2DF5F5F5F5F5F5F5F5F5F5F5F5F5F5F5F5F5F5F5F5F5F5F5F5F5F5F5F5F5F5F5F5F5F5F5F5F5F5F5F5F5F5F5F5F5F5F5F5F5F5F5F5F5F5F5F5F5F5F5F5F5F5F5F5F5F5F5F5F5F5F5F5F5F5F5F5F5F5F5F5F5F5F5F5F5F5F5F5F5F5F5F5F5F5F528
310
F5DCF5F5F5F5F5F5F5F5F5F5F5F5F5F5F5F5F5E2F5E2E2F5E2F5F5F5F5F5F5F5F5F5F5F5F5F5F5F5F5F5DCF528F5F5F5F5F5DCF5F5DCDCF5BEF5F5BEF5F5F5F5F5F5F5F5F5F5F5F5F50FF5F52D2D2D2D2D2D2D2DF5F5F5F5F5F5F5F5F5F5F5F5F5F5F5F5F5F5F5F5F5F5F5F5F5F5F5F5F5F5F5F5F5F5F5F5F5F5F5F5F5F5F5
310
F5F5F5F5F5F5F5F5F5F5F5F5F5F5F5F5F5F5F5F5F5F5F5F5F5F5F5F5F5F5F5F5F5F5F5F5F5F5F5F5F5F5F5F5F5F5F5F5F5F5F5F528F5DCF5F5F5F5F5F5F5F5F5F5F5F5F5F5F5F5F5E2F5E2E2F5E2F5F5F5F5F5F5F5F5F5F5F5F5F5F5F5F5F5DCF528F5F5F5F5DCF5F5DCF5DCF5BEF5F5BEBEF5F5F5F5F5F5F5F5F5F5F5F50F
310
F5F5F5F5F50FF5F5F5F5F5F5F5F5F5F5F5F5F5F5F5F5F5F5F5F5F5F5F5F5F5F5F5F5F5F5F5F5F5F5F5F5F5F5F5F5F5F5F5F5F5F5F5F5F5F5F5F5F5F5F5F5F5F5F5F5F5F5F5F5F5F5F5F5F5F5F5F5F5F5F5F5F5F5F5F5F5F5F5F5F5F5F5F5F5F5F5F5F5F5F5F5F5F5F528F5DCF5F5F5F5F5F5F5F5F5F5F5F5F5F5F5F5F5E2F5
310
E2E2F5E2F5F5F5F5F5F5F5F5F5F5F5F5F5F5F5F5F5DCF528F5F5F5DCF5F5DCF5F5DCF5F5BEF5F5BEF5F5F5F5F5F5F5F5F5F5F5F50FF5F5F5F5F50FF5F5F5F5F5F5F5F5F5F5F5F5F5F5F5F5F5F5F5F5F5F5F5F5F5F5F5F5F5F5F5F5F5F5F5F5F5F5F5F5F5F5F5F5F5F5F5F5F5F5F5F5F5F5F5F5F5F5F5F5F5F5F5F5F5F5F5F5
310
F5F5F5F5F5F5F5F5F5F5F5F5F5F5F5F5F5F5F5F5F5F5F5F5F5F5F5F5F5F5F528F5DCF5F5F5F5F5F5F5F5F5F5F5F5F5F5F5F5F5E2F5E2E2F5E2F5F5F5F5F5F5F5F5F5F5F5F5F5F5F5F5F5DCF528F5F5F5F5F5DCF5F5DCDCF5F5BEF5F5F5BEBEF5F5F5F5BEBEF5F5F5F50FF5F5F5F5F50FF5F5F5F5F5F5F5F5F5F5F5F5F5F5F5
310
F5F5F5F5F5F5F5F5F5F5F5F5F5F5F5F5F5F5F5F5F5F5F5F5F5F5F5F5F5F5F5F5F5F5F5F5F5F5F5F5F5F5F5F5F5F5F5F5F5F5F5F5F5F5F5F5F5F5F5F5F5F5F5F5F5F5F5F5F5F5F5F5F5F5F5F5F5F5F5F5F5F5F5F528F5DCF5F5F5F5F5F5F5F5F5F5F5F5F5F5F5F5F5E2F5E2E2F5E2F5F5F5F5F5F5F5F5F5F5F5F5F5F5F5F5F5
310
DCF528F5F5F5F5DCF5F5DCF5DCF5F5F5BEF5F5F5BEBEBEBEBEF5BEF5F5F5F50FF5F5F5F5F50FF5F5F5F5F5F5F5F5F5F5F5F5F5F5F5F5F5F5F5F5F5F5F5F5F5F5F5F5F5F5F5F5F5F5F5F5F5F5F5F5F5F5F5F5F5F5F5F5F5F5F5F5F5F5F5F5F5F5F5F5F5F5F5F5F5F5F5F5F5F5F5F5F5F5F5F5F5F5F5F5F5F5F5F5F5F5F5F5F5
310
F5F5F5F5F5F5F5F5F5F528F5DCF5F5F5F5F5F5F5F5F5F5F5F5F5F5F5F5F5E2F5E2E2F5E2F5F5F5F5F5F5F5F5F5F5F5F5F5F5F5F5F5DCF528F5F5F5DCF5F5DCF5F5DCF5F5F5F5BEF5F5F5F5F5F5F5F5BEBEF5F5F50FF5F5F5F5F50FF5F5F5F5F5F5F5F5F5F5F5F5F5F5F5F5F5F5F5F5F5F5F5F5F5F5F5F5F5F5F5F5F5F5F5F5
310
F5F5F5F5F5F5F5F5F5F5F5F5F5F5F5F5F5F5F5F5F5F5F5F5F5F5F5F5F5F5F5F5F5F5F5F5F5F5F5F5F5F5F5F5F5F5F5F5F5F5F5F5F5F5F5F5F5F5F5F5F5F5F528F5DCF5F5F5F5F5F5F5F5F5F5F5F5F5F5F5F5F5E2F5E2E2F5E2F5F5F5F5F5F5F5F5F5F5F5F5F5F5F5F5F5DCF528F5F5F5F5F5DCF5F5F5DCF5F5F5F5F5BEBEBE
310
F5F5F5F5F5F5F5BEBEF50FF5F5F5F5F50FF5F5F5F5F5F5F5F5F5F5F5F5F5F5F5F5F5F5F5F5F5F5F5F5F5F5F5F5F5F5F5F5F5F5F5F5F5F5F5F5F5F5F5F5F5F5F5F5F5F5F5F5F5F5F5F5F5F5F5F5F5F5F5F5F5F5F5F5F5F5F5F5F5F5F5F5F5F5F5F5F5F5F5F5F5F5F5F5F5F5F5F5F5F5F5F5F5F5F528F5DCF5F5F5F5F5F5F5F5
310
F5F5F5F5F5F5F5F5F5E2F5E2E2F5E2F5F5F5F5F5F5F5F5F5F5F5F5F5F5F5F5F5DCF528F5F5F5F5DCF5F5F5DCDCF5F5F5F5F5F5F5F5BEBEF5F5F5F5F5F5BEF50FF5F5F5F5F50FF5F5F5F5F5F5F5F5F5F5F5F5F5F5F5F5F5F5F5F5F5F5F5F5F5F5F5F5F5F5F5F5F5F5F5F5F5F5F5F5F5F5F5F5F5F5F5F5F5F5F5F5F5F5F5F5F5
310
F5F5F5F5F5F5F5F5F5F5F5F5F5F5F5F5F5F5F5F5F5F5F5F5F5F5F5F5F5F5F5F5F5F5F5F5F5F5F5F5F5F528F5DCF5F5F5F5F5F5F5F5F5F5F5F5F5F5F5F5F5E2F5E2E2F5E2F5F5F5F5F5F5F5F5F5F5F5F5F5F5F5F5F5DCF528F5F5F5DCF5F5F5DCF5DCF5F5F5F5F5F5F5F5F5BEBEF5F5F5F5F5F5BE1BF5F5F5F5F50FF5F5F5F5
310
F5F5F5F5F5F5F5F5F5F5F5F5F5F5F5F5F5F5F5F5F5F5F5F5F5F5F5F5F5F5F5F5F5F5F5F5F5F5F5F5F5F5F5F5F5F5F5F5F5F5F5F5F5F5F5F5F5F5F5F5F5F5F5F5F5F5F5F5F5F5F5F5F5F5F5F5F5F5F5F5F5F5F5F5F5F5F5F5F5F5F5F5F5F5F528F5DCF5F5F5F5F5F5F5F5F5F5F5F5F5F5F5F5F5E2F5E2E2F5E2F5F5F5F5F5F5
310
F5F5F5F5F5F5F5F5F5F5F5DCF528F5F5F5F5F5DCDCF5F5DCF5F5F5F5F5F5F5F5F5F5BEF5F5F5F5F5F5F5BEF5F5F5F5F50F0FF5F5F5F5F5F5F5F5F5F5F5F5F5F5F5F5F5F5F5F5F5F5F5F5F5F5F5F5F5F5F5F5F5F5F5F5F5F5F5F5F5F5F5F5F5F5F5F5F5F5F5F5F5F5F5F5F5F5F5F5F5F5F5F5F5F5F5F5F5F5F5F5F5F5F5F5F5
310
F5F5F5F5F5F5F5F5F5F5F5F5F5F5F5F5F5F5F5F5F528F5DCF5F5F5F5F5F5F5F5F5F5F5F5F5F5F5F5F5E2F5E2E2F5E2F5F5F5F5F5F5F5F5F5F5F5F5F5F5F5F5F5DCF528F5F5F5F5DCF5F5F5DCDCDCDCDCDCDCDCDCDCDCDCDCDCDCDCDCDCDCDCDCDCDCDCDCDCDCDCDCF5F5F5F5F5F5F5F5F5F5F5F5F5F5F5F5F5F5F5F5F5F5F5
310
F5F5F5F5F5F5F5F5F5F5F5F5F5F5F5F5F5F5F5F5F5F5F5F5F5F5F5F5F5F5F5F5F5F5F5F5F5F5F5F5F5F5F5F5F5F5F5F5F5F5F5F5F5F5F5F5F5F5F5F5F5F5F5F5F5F5F5F5F5F5F5F5F5F528F5DCF5F5F5F5F5F5F5F5F5F5F5F5F5F5F5F5F5E2F5E2E2F5E2F5F5F5F5F5F5F5F5F5F5F5F5F5F5F5F5F5DCF528F5F5F5DCF5F5F5
310
DCF5F5DCF5F5DCF5F5F5DCF5F5DCF5F5DCF5F5DCF5F5DCF5F5DCF5F5F5F5F5F5F5F5F5F5F5F5F5F5F5F5F5F5F5F5F5F5F5F5F5F5F5F5F5F5F5F5F5F5F5F5F5F5F5F5F5F5F5F5F5F5F5F5F5F5F5F5F5F5F5F5F5F5F5F5F5F5F5F5F5F5F5F5F5F5F5F5F5F5F5F5F5F5F5F5F5F5F5F5F5F5F5F5F5F5F5F5F5F5F5F5F5F5F5F5F5
310
28F5DCF5F5F5F5F5F5F5F5F5F5F5F5F5F5F5F5F5E2F5E2E2F5E2F5F5F5F5F5F5F5F5F5F5F5F5F5F5F5F5F5DCF528F5F5F5F5F5DCDCF5F5DCF5F5DCF5F5F5DCF5F5DCF5F5DCF5F5DCF5F5DCF5F5DCF5F5F5F5F5F5F5F5F5F5F5F5F5F5F5F5F5F5F5F5F5F5F5F5F5F5F5F5F5F5F5F5F5F5F5F5F5F5F5F5F5F5F5F5F5F5F5F5F5
310
F5F5F5F5F5F5F5F5F5F5F5F5F5F5F5F5F5F5F5F5F5F5F5F5F5F5F5F5F5F5F5F5F5F5F5F5F5F5F5F5F5F5F5F5F5F5F5F5F5F5F5F5F528F5DCF5F5F5F5F5F5F5F5F5F5F5F5F5F5F5F5F5E2F5E2E2F5E2F5F5F5F5F5F5F5F5F5F5F5F5F5F5F5F5F5DCF528F5F5F5F5DCF5F5F5DCF5F5DCF5F5DCDCF5DCDCF5DCDCF5F5DCF5F5DC
310
F5F5DCF5F5F5F5F5F5F5F5F5F5F5F5F5F5F5F5F5F5F5F5F5F5F5F5F5F5F5F5F5F5F5F5F5F5F5F5F5F5F5F5F5F5F5F5F5F5F5F5F5F5F5F5F5F5F5F5F5F5F5F5F5F5F5F5F5F5F5F5F5F5F5F5F5F5F5F5F5F5F5F5F5F5F5F5F5F5F5F5F5F5F5F5F5F5F5F5F5F5F5F5F5F5F528F5DCF5F5F5F5F5F5F5F5F5F5F5F5F5F5F5F5F5E2
310
F5E2E2F5E2F5F5F5F5F5F5F5F5F5F5F5F5F5F5F5F5F5DCF528F5F5F5DCF5F5F5DCF5F5DCF5F5DCF5F5DCF5F5DCF5F5F5DCF5F5DCF5F5DCF5F5F5DCF5F5F5F5F5F5F5F5F5F5F5F5F5F5F5F5F5F5F5F5F5F5F5F5F5F5F5F5F5F5F5F5F5F5F5F5F5F5F5F5F5F5F5F5F5F5F5F5F5F5F5F5F5F5F5F5F5F5F5F5F5F5F5F5F5F5F5F5
310
F5F5F5F5F5F5F5F5F5F5F5F5F5F5F5F5F5F5F5F5F5F5F5F5F5F5F5F5F5F5F5F528F5DCF5F5F5F5F5F5F5F5F5F5F5F5F5F5F5F5F5E2F5E2E2F5F5F5F5F5F5F5F5F5F5F5F5F5F5F5F5F5F5F5DCF528F5F5F5F5F5F5DCF5F5DCF5F5DCF5F5DCF5F5DCF5F5F5DCF5F5DCF5F5DCF5F5DCDCF5F5F5F5F5F5F5F5F5F5F5F5F5F5F5F5
310
F5F5F5F5F5F5F5F5F5F5F5F5F5F5F5F5F5F5F5F5F5F5F5F5F5F5F5F5F5F5F5F5F5F5F5F5F5F5F5F5F5F5F5F5F5F5F5F5F5F5F5F5F5F5F5F5F5F5F5F5F5F5F5F5F5F5F5F5F5F5F5F5F5F5F5F5F5F5F5F5F5F5F5F5F528F5DCF5F5F5F5F5F5F5F5F5F5F5F5F5F5F5F5F5F5F5E2E2F5F5F5F5F5F5F5F5F5F5F5F5F5F5F5F5F5F5
310
F5DCF528F5F5F5F5F5F5F5F5F5F5F5F5F5F5F5F5F5F5F5F5F5F5F5F5F5F5F5F5F5F5F5F5F5F5F5F5F5F5F5F5F5F5F5F5F5F5F5F5F5F5F5F5F5F5F5F5F5F5F5F5F5F5F5F5F5F5F5F5F5F5F5F5F5F5F5F5F5F5F5F5F5F5F5F5F5F5F5F5F5F5F5F5F5F5F5F5F5F5F5F5F5F5F5F5F5F5F5F5F5F5F5F5F5F5F5F5F5F5F5F5F5F5F5
310
F5F5F5F5F5F5F5F5F5F5F528F5DCF5F5F5F5F5F5F5F5F5F5F5F5F5F5F5F5F5F5F5E2E2F5F5F5F5F5F5F5F5F5F5F5F5F5F5F5F5F5F5F5DCF528F5F5F5F5F5F5F5F5F5F5F5F5F5F5F5F5F5F5F5F5F5F5F5F5F5F5F5F5F5F5F5F5F5F5F5F5F5F5F5F5F5F5F5F5F5F5F5F5F5F5F5F5F5F5F5F5F5F5F5F5F5F5F5F5F5F5F5F5F5F5
310
F5F5F5F5F5F5F5F5F5F5F5F5F5F5F5F5F5F5F5F5F5F5F5F5F5F5F5F5F5F5F5F5F5F5F5F5F5F5F5F5F5F5F5F5F5F5F5F5F5F5F5F5F5F5F5F5F5F5F5F5F5F5F5F528F5DCF5F5F5F5F5F5F5F5F5F5F5F5F5F5F5F5F5F5F5E2E2F5F5F5F5F5F5F5F5F5F5F5F5F5F5F5F5F5F5F5DCF528F5F5F5F5F5F5F5F5F5F5F5F5F5F5F5F5F5
310
F5F5F5F5F5F5F5F5F5F5F5F5F5F5F5F5F5F5F5F5F5F5F5F5F5F5F5F5F5F5F5F5F5F5F5F5F5F5F5F5F5F5F5F5F5F5F5F5F5F5F5F5F5F5F5F5F5F5F5F5F5F5F5F5F5F5F5F5F5F5F5F5F5F5F5F5F5F5F5F5F5F5F5F5F5F5F5F5F5F5F5F5F5F5F5F5F5F5F5F5F5F5F5F5F5F5F5F5F5F5F5F5F5F5F5F5F528F5DCF5F5F5F5F5F5F5
310
F5F5F5F5F5F5F5F5F5F5F5F5E2E2F5F5F5F5F5F5F5F5F5F5F5F5F5F5F5F5F5F5F5DCF528F5F5F5F5F5F5F5F5F5F5F5F5F5F5F5F5F5F5F5F5F5F5F5F5F5F5F5F5F5F5F5F5F5F5F5F5F5F5F5F5F5F5F5F5F5F5F5F5F5F5F5F5F5F5F5F5F5F5F5F5F5F5F5F5F5F5F5F5F5F5F5F5F5F5F5F5F5F5F5F5F5F5F5F5F5F5F5F5F5F5F5
310
F5F5F5F5F5F5F5F5F5F5F5F5F5F5F5F5F5F5F5F5F5F5F5F5F5F5F5F5F5F5F5F5F5F5F5F5F5F5F5F5F5F5F528F5DCF5F5F5F5F5F5F5F5F5F5F5F5F5F5F5F5F5F5F5E2E2F5F5F5F5F5F5F5F5F5F5F5F5F5F5F5F5F5F5F5DCF528F5F5F5F5F5F5F5F5F5F5F5F5F5F5F5F5F5F5F5F5F5F5F5F5F5F5F5F5F5F5F5F5F5F5F5F5F5F5
310
F5F5F5F5F5F5F5F5F5F5F5F5F5F5F5F5F5F5F5F5F5F5F5F5F5F5F5F5F5F5F5F5F5F5F5F5F5F5F5F5F5F5F5F5F5F5F5F5F5F5F5F5F5F5F5F5F5F5F5F5F5F5F5F5F5F5F5F5F5F5F5F5F5F5F5F5F5F5F5F5F5F5F5F5F5F5F5F5F5F5F5F5F5F5F5F528F5DCF5F5F5F5F5F5F5F5F5F5F5F5F5F5F5F5F5F5F5E2E2F5F5F5F5F5F5F5
310
F5F5F5F5F5F5F5F5F5F5F5F5DCF528F5F5F5F5F5F5F5F5F5F5F5F5F5F5F5F5F5F5F5F5F5F5F5F5F5F5F5F5F5F5F5F5F5F5F5F5F5F5F5F5F5F5F5F5F5F5F5F5F5F5F5F5F5F5F5F5F5F5F5F5F5F5F5F5F5F5F5F5F5F5F5F5F5F5F5F5F5F5F5F5F5F5F5F5F5F5F5F5F5F5F5F5F5F5F5F5F5F5F5F5F5F5F5F5F5F5F5F5F5F5F5F5
310
F5F5F5F5F5F5F5F5F5F5F5F5F5F5F5F5F5F5F5F5F5F528F5DCF5F5F5F5F5F5F5F5F5F5F5F5F5F5F5F5F5F5F5E2E2F5F5F5F5F5F5F5F5F5F5F5F5F5F5F5F5F5F5F5DCF528F5F5F5F5F5F5F5F5F5F5F5F5F5F5F5F5F5F5F5F5F5F5F5F5F5F5F5F5F5F5F5F5F5F5F5F5F5F5F5F5F5F5F5F5F5F5F5F5F5F5F5F5F5F5F5F5F5F5F5
310
F5F5F5F5F5F5F5F5F5F5F5F5F5F5F5F5F5F5F5F5F5F5F5F5F5F5F5F5F5F5F5F5F5F5F5F5F5F5F5F5F5F5F5F5F5F5F5F5F5F5F5F5F5F5F5F5F5F5F5F5F5F5F5F5F5F5F5F5F5F5F5F5F5F5F528F5DCF5F5F5F5F5F5F5F5F5F5F5F5F5F5F5F5F5F5F5E2E2F5E2F5F5F5F5F5F5F5F5F5F5F5F5F5F5F5F5F5DCF528F5F5F5F5F5F5
310
F5F5F5F5F5F5F5F5F5F5F5F5F5F5F5F5F5F5F5F5F5F5F5F5F5F5F5F5F5F5F5F5F5F5F5F5F5F5F5F5F5F5F5F5F5F5F5F5F5F5F5F5F5F5F5F5F5F5F5F5F5F5F5F5F5F5F5F5F5F5F5F5F5F5F5F5F5F5F5F5F5F5F5F5F5F5F5F5F5F5F5F5F5F5F5F5F5F5F5F5F5F5F5F5F5F5F5F5F5F5F5F5F5F5F5F5F5F5F5F5F5F5F5F5F5F5F5
310
F528F5DCF5F5F5F5F5F5F5F5F5F5F5F5F5F5F5F5F5E2F5E2E2F5E2F5F5F5F5F5F5F5F5F5F5F5F5F5F5F5F5F5DCF528F5F5F5F5F5F5F5F5F5F5F5F5F5F5F5F5F5F5F5F5F5F5F5F5F5F5F5F5F5F5F5F5F5F5F5F5F5F5F5F5F5F5F5F5F5F5F5F5F5F5F5F5F5F5F5F5F5F5F5F5F5F5F5F5F5F5F5F5F5F5F5F5F5F5F5F5F5F5F5F5
310
F5F5F5F5F5F5F5F5F5F5F5F5F5F5F5F5F5F5F5F5F5F5F5F5F5F5F5F5F5F5F5F5F5F5F5F5F5F5F5F5F5F5F5F5F5F5F5F5F5F5F5F5F5F528F5DCF5F5F5F5F5F5F5F5F5F5F5F5F5F5F5F5F5E2F5E2E2F5E2F5F5F5F5F5F5F5F5F5F5F5F5F5F5F5F5F5DCF528F5F5F5F5F5F5F5F5F5F5F5F5F5F5F5F5F5F5F5F5F5F5F5F5F5F5F5
310
F5F5F5F5F5F5F5F5F5F5F5F5F5F5F5F5F5F5F5F5F5F5F5F5F5F5F5F5F5F5F5F5F5F5F5F5F5F5F5F5F5F5F5F5F5F5F5F5F5F5F5F5F5F5F5F5F5F5F5F5F5F5F5F5F5F5F5F5F5F5F5F5F5F5F5F5F5F5F5F5F5F5F5F5F5F5F5F5F5F5F5F5F5F5F5F5F5F5F5F5F5F5F5F5F5F5F528F5DCF5F5F5F5F5F5F5F5F5F5F5F5F5F5F5F5F5
310
E2F5E2E2F5E2F5F5F5F5F5F5F5F5F5F5F5F5F5F5F5F5F5DCF528F5F5F5F5F5F5F5F5F5F5F5F5F5F5F5F5F5F5F5F5F5F5F5F5F5F5F5F5F5F5F5F5F5F5F5F5F5F5F5F5F5F5F5F5F5F5F5F5F5F5F5F5F5F5F5F5F5F5F5F5F5F5F5F5F5F5F5F5F5F5F5F5F5F5F5F5F5F5F5F5F5F5F5F5F5F5F5F5F5F5F5F5F5F5F5F5F5F5F5F5F5
310
F5F5F5F5F5F5F5F5F5F5F5F5F5F5F5F5F5F5F5F5F5F5F5F5F5F5F5F5F5F5F5F5F528F5DCF5F5F5F5F5F5F5F5F5F5F5F5F5F5F5F5F5E2F5E2E2F5E2F5F5F5F5F5F5F5F5F5F5F5F5F5F5F5F5F5DCF528F5F5F5F5F5F5F5F5F5F5F5F5F5F5F5F5F5F5F5F5F5F5F5F5F5F5F5F5F5F5F5F5F5F5F5F5F5F5F5F5F5F5F5F5F5F5F5F5
310
F5F5F5F5F5F5F5F5F5F5F5F5F5F5F5F5F5F5F5F5F5F5F5F5F5F5F5F5F5F5F5F5F5F5F5F5F5F5F5F5F5F5F5F5F5F5F5F5F5F5F5F5F5F5F5F5F5F5F5F5F5F5F5F5F5F5F5F5F5F5F5F5F5F5F5F5F5F5F5F5F5F5F5F5F5F528F5DCF5F5F5F5F5F5F5F5F5F5F5F5F5F5F5F5F5E2F5E2E2F5E2F5F5F5F5F5F5F5F5F5F5F5F5F5F5F5
310
F5F5DCF528F5F5F5F5F5F5F5F5F5F5F5F5F5F5F5F5F5F5F5F5F5F5F5F5F5F5F5F5F5F5F5F5F5F5F5F5F5F5F5F5F5F5F5F5F5F5F5F5F5F5F5F5F5F5F5F5F5F5F5F5F5F5F5F5F5F5F5F5F5F5F5F5F5F5F5F5F5F5F5F5F5F5F5F5F5F5F5F5F5F5F5F5F5F5F5F5F5F5F5F5F5F5F5F5F5F5F5F5F5F5F5F5F5F5F5F5F5F5F5F5F5F5
310
F5F5F5F5F5F5F5F5F5F5F5F528F5DCF5F5F5F5F5F5F5F5F5F5F5F5F5F5F5F5F5E2F5E2E2F5E2F5F5F5F5F5F5F5F5F5F5F5F5F5F5F5F5F5DCF528F5F5F5F5F5F5F5F5F5F5F5F5F5F5F5F5F5F5F5F5F5F5F5F5F5F5F5F5F5F5F5F5F5F5F5F5F5F5F5F5F5F5F5F5F5F5F5F5F5F5F5F5F5F5F5F5F5F5F5F5F5F5F5F5F5F5F5F5F5
310
F5F5F5F5F5F5F5F5F5F5F5F5F5F5F5F5F5F5F5F5F5F5F5F5F5F5F5F5F5F5F5F5F5F5F5F5F5F5F5F5F5F5F5F5F5F5F5F5F5F5F5F5F5F5F5F5F5F5F5F5F5F5F5F5F528F5DCF5F5F5F5F5F5F5F5F5F5F5F5F5F5F5F5F5E2F5E2E2F5E2F5F5F5F5F5F5F5F5F5F5F5F5F5F5F5F5F5DCF528F5F5F5F5F5F5F5F5F5F5F5F5F5F5F5F5
310
F5F5F5F5F5F5F5F5F5F5F5F5F5F5F5F5F5F5F5F5F5F5F5F5F5F5F5F5F5F5F5F5F5F5F5F5F5F5F5F5F5F5F5F5F5F5F5F5F5F5F5F5F5F5F5F5F5F5F5F5F5F5F5F5F5F5F5F5F5F5F5F5F5F5F5F5F5F5F5F5F5F5F5F5F5F5F5F5F5F5F5F5F5F5F5F5F5F5F5F5F5F5F5F5F5F5F5F5F5F5F5F5F5F5F5F5F5F528F5DCF5F5F5F5F5F5
310
F5F5F5F5F5F5F5F5F5F5F5E2F5E2E2F5E2F5F5F5F5F5F5F5F5F5F5F5F5F5F5F5F5F5DCF528282828282828282828282828282828282828282828282828282828282828282828282828282828282828282828282828282828282828282828282828282828282828282828282828282828282828282828282828282828282828
310
282828282828282828282828282828282828282828282828282828282828282828282828282828282828282828F5DCF5F5F5F5F5F5F5F5F5F5F5F5F5F5F5F5F5E2F5E2E2F5E2F5F5F5F5F5F5F5F5F5F5F5F5F5F5F5F5F5DCF528F5F5F5F5F5F5F5F5F5F5F5F5F5F5F5F5F5F5F5F5F5F5F5F5F5F5F5F5F5F5F5F5F5F5F5F5F5
310
F5F5F5F5F5F5F5F5F5F5F5F5F5F5F5F5F5F5F5F5F5F5F5F5F5F5F5F5F528F5F5F5F5F5F5F5F5F5F5F5F5F5F5F5F5F5F5F5F5F5F5F5F5F5F5F5F5F5F5F5F5F5F5F5F5F5F5F5F5F5F5F5F5F5F5F5F5F5F5F5F5F5F5F5F5F5F5F5F5F5F5F5F5F5F5F528F5DCF5F5F5F5F5F5F5F5F5F5F5F5F5F5F5F5F5E2F5E2E2F5E2F5F5F5F5
310
F5F5F5F5F5F5F5F5F5F5F5F5F5DCF528F5F5F5F5F5F5F5F5F5F5F5F5F52D2D2D2D2D2D2D2D2D2D2D2D2D2D2D2D2D2D2D2D2D2D2D2D2D2D2D2D2D2D2D2D2D2D2D2D2D2DF5F5F5F5F5F5F5F5F5F5F5F5F5F5F528F5F5F52D2D2D2DF52D2D2D2D2D2DF5F5F5F5F5F5F5F5F5F5F5F5F5F5F5F5F5F5F5F5F5F5F5F5F5F5F5F5F5F5
310
F5F5F5F5F5F5F5F5F5F5F5F5F5F5F5F5F5F5F5F5F5F5F528F5DCF5F5F5F5F5F5F5F5F5F5F5F5F5F5F5F5F5E2F5E2E2F5E2F5F5F5F5F5F5F5F5F5F5F5F5F5F5F5F5F5DCF528F5F5F5F5F5F5F5F5F5F5F5F5F52D2D2D2D2D2D2D2D2D2D2D2D2D2D2D2D2D2D2D2D2D2D2D2D2D2D2D2D2D2D2D2D2D2D2D2D2D2DF5F5F5F5F5F5F5
310
F5F5F5F5F5F5F5F528F5F5F52D2D2D2DF52D2D2D2DF52DF5F5F5F5F5F5F5F5F5F5F5F5F5F5F5F5F5F5F5F5F5F5F5F5F5F5F5F5F5F5F5F5F5F5F5F5F5F5F5F5F5F5F5F5F5F5F5F5F5F5F5F5F528F5DCF5F5F5F5F5F5F5F5F5F5F5F5F5F5F5F5F5E2F5E2E2F5E2F5F5F5F5F5F5F5F5F5F5F5F5F5F5F5F5F5DCF528F5F5F5F5F5
310
F5F5F5F5F5F5F5F5F5F5F5F5F5F5F5F5F5F5F5F5F5F5F5F5F5F5F5F5F5F5F5F5F5F5F5F5F5F5F5F5F5F5F5F5F5F5F5F5F5F5F5F5F5F5F5F5F5F5F5F5F528F5F5F5F5F5F5F5F5F5F5F5F5F5F5F5F5F5F5F5F5F5F5F5F5F5F5F5F5F5F5F5F5F5F5F5F5F5F5F5F5F5F5F5F5F5F5F5F5F5F5F5F5F5F5F5F5F5F5F5F5F5F5F5F5F5
310
F5F528F5DCF5F5F5F5F5F5F5F5F5F5F5F5F5F5F5F5F5E2F5E2E2F5E2F5F5F5F5F5F5F5F5F5F5F5F5F5F5F5F5F5DCF52828282828282828282828282828282828282828282828282828282D2D2D2D2D2D2D2D2D2D2D2D2D28282828282828282828282828282828282828282828282828282828282828282828282828282828
310
2828282828282828282828282828282828282828282828282828282828282828282828282828282828282828282828282828282828282828F5DCF5F5F5F5F5F5F5F5F5F5F5F5F5F5F5F5F5E2F5E2E2F5E2F5F5F5F5F5F5F5F5F5F5F5F5F5F5F5F5F5DCF528F5F5F5F5F5F5F5F5F5F5F5F5F5F5F5F5F5F5F5F5F5F5F5F5F5F5
310
2D2D2D2D2D2D2D2D2D2D2D2D2DF5F5F5F5F5F5F5F5F5F5F5F5F5F5F5F5F5F5F5F5F5F5F5F5F5F5F528F5F5F52D2D2D2D2D2D2D2D2D2D2DF5F52D2D2D2D2D2D2D2D2D2DF5F5F5F5F5F5F5F5F5F5F5F5F5F5F5F5F5F5F5F5F5F5F5F5F5F5F5F5F5F5F5F5F5F5F5F5F5F5F5F5F528F5DCF5F5F5F5F5F5F5F5F5F5F5F5F5F5F5F5
310
F5E2F5E2E2F5E2F5F5F5F5F5F5F5F5F5F5F5F5F5F5F5F5F5DCF528F5F5F5F5F5F5F5F5F5F5F5F5F5F5F5F5F5F5F5F5F5F5F5F5F5F52D2D2D2D2D2D2D2D2D2D2D2D2DF5F5F5F5F5F5F5F5F5F5F5F5F5F5F5F5F5F5F5F5F5F5F5F5F5F5F528F5F5F52D2D2D2D2D2D2D2D2D2D2DF52D2D2D2D2D2D2D2D2D2D2DF5F5F5F5F5F5F5
310
F5F5F5F5F5F5F5F5F5F5F5F5F5F5F5F5F5F5F5F5F5F5F5F5F5F5F5F5F5F5F5F5F5F528F5DCF5F5F5F5F5F5F5F5F5F5F5F5F5F5F5F5F5E2F5E2E2F5F5F5F5F5F5F5F5F5F5F5F5F5F5F5F5F5F5F5DCF528F5F5F5F5F5F5F5F5F5F5F5F5F5F5F5F5F5F5F5F5F5F5F5F5F5F5F5F5F5F5F5F5F5F5F5F5F5F5F5F5F5F5F5F5F5F5F5
310
F5F5F5F5F5F5F5F5F5F5F5F5F5F5F5F5F5F5F528F5F5F5F5F5F5F5F5F5F5F5F5F5F5F5F5F5F5F5F5F5F5F5F5F5F5F5F5F5F5F5F5F5F5F5F5F5F5F5F5F5F5F5F5F5F5F5F5F5F5F5F5F5F5F5F5F5F5F5F5F5F5F5F5F5F5F528F5DCF5F5F5F5F5F5F5F5F5F5F5F5F5F5F5F5F5F5F5E2E2F5F5F5F5F5F5F5F5F5F5F5F5F5F5F5F5
310
F5F5F5DCF52828282828282828282828282828282828282828282828282828282828282828282828282828282828282828282828282828282828282828282828282828282828282828282828282828282828282828282828282828282828282828282828282828282828282828282828282828282828282828282828282828
310
2828282828282828282828282828F5DCF5F5F5F5F5F5F5F5F5F5F5F5F5F5F5F5F5F5F5E2E2F5F5F5F5F5F5F5F5F5F5F5F5F5F5F5F5F5F5F5DCF5F5F5F5F5F5F5F5F5F5F5F5F5F5F5F5F5F5F5F5F5F5F5F5F5F5F5F5F5F5F5F5F5F5F5F5F5F5F5F5F5F5F5F5F5F5F5F5F5F5F5F5F5F5F5F5F5F5F5F5F5F5F5F5F5F5F5F5F5F5
310
F5F5F5F5F5F5F5F5F5F5F5F5F5F5F5F5F5F5F5F5F5F5F5F5F5F5F5F5F5F5F5F5F5F5F5F5F5F5F5F5F5F5F5F5F5F5F5F5F5F5F5F5F5F5F5F5F5F5F5F5F5F5F5F5F5F5F5F5DCF5F5F5F5F5F5F5F5F5F5F5F5F5F5F5F5F5F5F5E2E2F5F5F5F5F5F5F5F5F5F5F5F5F5F5F5F5F5F5F5DCDCDCDCDCDCDCDCDCDCDCDCDCDCDCDCDCDC
310
DCDCDCDCDCDCDCDCDCDCDCDCDCDCDCDCDCDCDCDCDCDCDCDCDCDCDCDCDCDCDCDCDCDCDCDCDCDCDCDCDCDCDCDCDCDCDCDCDCDCDCDCDCDCDCDCDCDCDCDCDCDCDCDCDCDCDCDCDCDCDCDCDCDCDCDCDCDCDCDCDCDCDCDCDCDCDCDCDCDCDCDCDCDCDCDCDCDCDCDCDCDCDCDCDCDCDCDCDCDCDCDCDCDCDCDCDCDCDCDCDCDCF5F5F5F5F5
310
F5F5F5F5F5F5F5F5F5F5F5F5F5F5E2E2F5F5F5F5F5F5F5F5F5F5F5F5F5F5F5F5F5F5F5DCDCDCDCDCDCDCDCDCDCDCDCDCDCDCDCDCDCDCDCDCDCDCDCDCDCDCDCDCDCDCDCDCDCDCDCDCDCDCDCDCDCDCDCDCDCDCDCDCDCDCDCDCDCDCDCDCDCDCDCDCDCDCDCDCDCDCDCDCDCDCDCDCDCDCDCDCDCDCDCDCDCDCDCDCDCDCDCDCDCDCDC
310
DCDCDCDCDCDCDCDCDCDCDCDCDCDCDCDCDCDCDCDCDCDCDCDCDCDCDCDCDCDCDCDCDCDCDCDCDCDCDCDCDCDCDCDCDCDCDCDCF5F5F5F5F5F5F5F5F5F5F5F5F5F5F5F5F5F5F5E2E2F5F5F5F5F5F5F5F5F5F5F5F5F5F5F5F5F5F5F5F5F5F5F5F5F5F5F5F5F5F5F5F5F5F5F5F5F5F5F5F5F5F5F5F5F5F5F5F5F5F5F5F5F5F5F5F5F5F5
310
F5F5F5F5F5F5F5F5F5F5F5F5F5F5F5F5F5F5F5F5F5F5F5F5F5F5F5F5F5F5F5F5F5F5F5F5F5F5F5F5F5F5F5F5F5F5F5F5F5F5F5F5F5F5F5F5F5F5F5F5F5F5F5F5F5F5F5F5F5F5F5F5F5F5F5F5F5F5F5F5F5F5F5F5F5F5F5F5F5F5F5F5F5F5F5F5F5F5F5F5F5F5F5F5F5F5F5F5F5F5F5F5F5F5F5F5F5F5F5F5E2E2F5F5F5F5F5
310
F5F5F5F5F5F5F5F5F5F5F5F5F5F5F5F5F5F5F5F5F5F5F5F5F5F5F5F5F5F5F5F5F5F5F5F5F5F5F5F5F5F5F5F5F5F5F5F5F5F5F5F5F5F5F5F5F5F5F5F5F5F5F5F5F5F5F5F5F5F5F5F5F5F5F5F5F5F5F5F5F5F5F5F5F5F5F5F5F5F5F5F5F5F5F5F5F5F5F5F5F5F5F5F5F5F5F5F5F5F5F5F5F5F5F5F5F5F5F5F5F5F5F5F5F5F5F5
310
F5F5F5F5F5F5F5F5F5F5F5F5F5F5F5F5F5F5F5F5F5F5F5F5F5F5F5F5F5F5F5F5F5F5F5F5F5F5F5F5F5F5F5F5F5F5E2E2F5F5F5F5F5F5F5F5F5F5F5F5F5F5F5F5F5F5F5F5F5F5F5F5F5F5F5F5F5F5F5F5F5F5F5F5F5F5F5F5F5F5F5F5F5F5F5F5F5F5F5F5F5F5F5F5F5F5F5F5F5F5F5F5F5F5F5F5F5F5F5F5F5F5F5F5F5F5F5
310
F5F5F5F5F5F5F5F5F5F5F5F5F5F5F5F5F5F5F5F5F5F5F5F5F5F5F5F5F5F5F5F5F5F5F5F5F5F5F5F5F5F5F5F5F5F5F5F5F5F5F5F5F5F5F5F5F5F5F5F5F5F5F5F5F5F5F5F5F5F5F5F5F5F5F5F5F5F5F5F5F5F5F5F5F5F5F5F5F5F5F5F5F5F5F5F5F5F5F5E2E2F5F5F5F5F5F5F5F5F5F5F5F5F5F5F5F5F5F5F5F5F5F5F5F5F5F5
310
F5F5F5F5F5F5F5F5F5F5F5F5F5F5F5F5F5F5F5F5F5F5F5F5F5F5F5F5F5F5F5F5F5F5F5F5F5F5F5F5F5F5F5F5F5F5F5F5F5F5F5F5F5F5F5F5F5F5F5F5F5F5F5F5F5F5F5F5F5F5F5F5F5F5F5F5F5F5F5F5F5F5F5F5F5F5F5F5F5F5F5F5F5F5F5F5F5F5F5F5F5F5F5F5F5F5F5F5F5F5F5F5F5F5F5F5F5F5F5F5F5F5F5F5F5F5F5
310
F5F5F5F5F5F5F5F5F5F5F5F5F5F5F5F5F5F5F5F5F5F5F5F5F5E2E2F5E2F5F5F5F5F5F5F5F5F5F5F5F5F5F5F5F5F5F5F5F5F5F5F5F5F5F5F5F5F5F5F5F5F5F5F5F5F5F5F5F5F5F5F5F5F5F5F5F5F5F5F5F5F5F5F5F5F5F5F5F5F5F5F5F5F5F5F5F5F5F5F5F5F5F5F5F5F5F5F5F5F5F5F5F5F5F5F5F5F5F5F5F5F5F5F5F5F5F5
310
F5F5F5F5F5F5F5F5F5F5F5F5F5F5F5F5F5F5F5F5F5F5F5F5F5F5F5F5F5F5F5F5F5F5F5F5F5F5F5F5F5F5F5F5F5F5F5F5F5F5F5F5F5F5F5F5F5F5F5F5F5F5F5F5F5F5F5F5F5F5F5F5F5F5F5F5E2F5E2E2F5E2F5F5F5F5F5F5F5F5F5F5F5F5F5F5F5F5F5F5F5F5F5F5F5F5F5F5F5F5F5F5F5F5F5F5F5F5F5F5F5F5F5F5F5F5F5
310
F5F5F5F5F5F5F5F5F5F5F5F5F5F5F5F5F5F5F5F5F5F5F5F5F5F5F5F5F5F5F5F5F5F5F5F5F5F5F5F5F5F5F5F5F5F5F5F5F5F5F5F5F5F5F5F5F5F5F5F5F5F5F5F5F5F5F5F5F5F5F5F5F5F5F5F5F5F5F5F5F5F5F5F5F5F5F5F5F5F5F5F5F5F5F5F5F5F5F5F5F5F5F5F5F5F5F5F5F5F5F5F5F5F5F5F5F5F5F5F5F5F5F5F5F5F5F5
310
F5F5E2F5E2E2F5E2F5F5F5F5F5F5F5F5F5F5F5F5F5F5F5F5F5F5F5F5F5F5F5F5F5F5F5F5F5F5F5F5F5F5F5F5F5F5F5F5F5F5F5F5F5F5F5F5F5F5F5F5F5F5F5F5F5F5F5F5F5F5F5F5F5F5F5F5F5F5F5F5F5F5F5F5F5F5F5F5F5F5F5F5F5F5F5F5F5F5F5F5F5F5F5F5F5F5F5F5F5F5F5F5F5F5F5F5F5F5F5F5F5F5F5F5F5F5F5
310
F5F5F5F5F5F5F5F5F5F5F5F5F5F5F5F5F5F5F5F5F5F5F5F5F5F5F5F5F5F5F5F5F5F5F5F5F5F5F5F5F5F5F5F5F5F5F5F5F5F5F5F5F5F5F5E2F5E2E2F5E2F5F5F5F5F5F5F5F5F5F5F5F5F5F5F5F5F5F5F5F5F5F5F5F5F5F5F5F5F5F5F5F5F5F5F5F5F5F5F5F5F5F5F5F5F5F5F5F5F5F5F5F5F5F5F5F5F5F5F5F5F5F5F5F5F5F5
310
F5F5F5F5F5F5F5F5F5F5F5F5F5F5F5F5F5F5F5F5F5F5F5F5F5F5F5F5F5F5F5F5F5F5F5F5F5F5F5F5F5F5F5F5F5F5F5F5F5F5F5F5F5F5F5F5F5F5F5F5F5F5F5F5F5F5F5F5F5F5F5F5F5F5F5F5F5F5F5F5F5F5F5F5F5F5F5F5F5F5F5F5F5F5F5F5F5F5F5F5F5F5F5F5F5F5F5F5E2F5E2E2F5E2F5F5F5F5F5F5F5F5F5F5F5F5F5
310
F5F5F5F5F5F5F5F5F5F5F5F5F5F5F5F5F5F5F5F5F5F5F5F5F5F5F5F5F5F5F5F5F5F5F5F5F5F5F5F5F5F5F5F5F5F5F5F5F5F5F5F5F5F5F5F5F5F5F5F5F5F5F5F5F5F5F5F5F5F5F5F5F5F5F5F5F5F5F5F5F5F5F5F5F5F5F5F5F5F5F5F5F5F5F5F5F5F5F5F5F5F5F5F5F5F5F5F5F5F5F5F5F5F5F5F5F5F5F5F5F5F5F5F5F5F5F5
310
F5F5F5F5F5F5F5F5F5F5F5F5F5F5F5F5F5F5F5F5F5F5F5F5F5F5F5F5F5F5F5F5F5F5E2F5E2E2F5E2F5F5F5F5F5F5F5F5F5F5F5F5F5F5F5F5F5F5F5F5F5F5F5F5F5F5F5F5F5F5F5F5F5F5F5F5F5F5F5F5F5F5F5F5F5F5F5F5F5F5F5F5F5F5F5F5F5F5F5F5F5F5F5F5F5F5F5F5F5F5F5F5F5F5F5F5F5F5F5F5F5F5F5F5F5F5F5
310
F5F5F5F5F5F5F5F5F5F5F5F5F5F5F5F5F5F5F5F5F5F5F5F5F5F5F5F5F5F5F5F5F5F5F5F5F5F5F5F5F5F5F5F5F5F5F5F5F5F5F5F5F5F5F5F5F5F5F5F5F5F5F5F5F5F5F5F5F5F5F5F5F5F5F5F5F5F5F5F5F5F5F5F5F5F5F5E2F5E2E2F5E2F5F5F5F5F5F5F5F5F5F5F5F5F5F5F5F5F5F5F5F5F5F5F5F5F5F5F5F5F5F5F5F5F5F5
310
F5F5F5F5F5F5F5F5F5F5F5F5F5F5F5F5F5F5F5F5F5F5F5F5F5F5F5F5F5F5F5F5F5F5F5F5F5F5F5F5F5F5F5F5F5F5F5F5F5F5F5F5F5F5F5F5F5F5F5F5F5F5F5F5F5F5F5F5F5F5F5F5F5F5F5F5F5F5F5F5F5F5F5F5F5F5F5F5F5F5F5F5F5F5F5F5F5F5F5F5F5F5F5F5F5F5F5F5F5F5F5F5F5F5F5F5F5F5F5F5F5F5F5F5F5F5F5
310
F5F5F5F5F5F5F5F5F5F5F5F5F5E2F5E2E2F5E2E2E2E2E2E2E2E2E2F5F5F5F5F5F5F5F5F5E2E2E2E2E2E2E2E2E2E2E2E2E2E2E2E2F5F5F5F5F5F5F5F5F5E2E2E2E2E2E2E2E2E2E2E2E2E2E2E2E2F5F5F5F5F5F5F5F5F5E2E2E2E2E2E2E2E2E2E2E2E2E2E2E2E2F5F5F5F5F5F5F5F5F5E2E2E2E2E2E2E2E2E2E2E2E2E2E2E2E2
310
F5F5F5F5F5F5F5F5F5E2E2E2E2E2E2E2E2E2E2E2E2E2E2E2E2F5F5F5F5F5F5F5F5F5E2E2E2E2E2E2E2E2E2E2E2E2E2E2E2E2F5F5F5F5F5F5F5F5F5E2E2E2E2E2E2E2E2F5E2E2F5F5F5F5F5F5F5F5F5F5F5F5F5F5F5F5F5F5F5F5F5F5F5F5F5F5F5F5F5F5F5F5F5F5F5F5F5F5F5F5F5F5F5F5F5F5F5F5F5F5F5F5F5F5F5F5F5
310
F5F5F5F5F5F5F5F5F5F5F5F5F5F5F5F5F5F5F5F5F5F5F5F5F5F5F5F5F5F5F5F5F5F5F5F5F5F5F5F5F5F5F5F5F5F5F5F5F5F5F5F5F5F5F5F5F5F5F5F5F5F5F5F5F5F5F5F5F5F5F5F5F5F5F5F5F5F5F5F5F5F5F5F5F5F5F5F5F5F5F5F5F5F5F5F5F5F5F5F5F5F5F5F5F5F5F5F5F5F5F5F5F5F5F5F5F5F5F5F5F5E2E2E2E2E2E2
310
E2E2E2E2E2E2E2E2E2E2E2E2E2E2E2E2E2E2E2E2E2E2E2E2E2E2E2E2E2E2E2E2E2E2E2E2E2E2E2E2E2E2E2E2E2E2E2E2E2E2E2E2E2E2E2E2E2E2E2E2E2E2E2E2E2E2E2E2E2E2E2E2E2E2E2E2E2E2E2E2E2E2E2E2E2E2E2E2E2E2E2E2E2E2E2E2E2E2E2E2E2E2E2E2E2E2E2E2E2E2E2E2E2E2E2E2E2E2E2E2E2E2E2E2E2E2E2
310
E2E2E2E2E2E2E2E2E2E2E2E2E2E2E2E2E2E2E2E2E2E2E2E2E2E2E2E2E2E2E2E2E2E2E2E2E2E2E2E2E2E2E2E2E2E2E2E2
  0
XRECORD
  5
C8
102
{ACAD_REACTORS
330
C7
102
}
330
C7
100
AcDbXrecord
280
     1
102
MATERIAL
148
0.0
149
0.0
149
0.0
 93
        0
 94
       63
282
     0
 72
     1
 77
     1
171
     1
175
     1
179
     1
273
     0
  0
XRECORD
  5
C6
102
{ACAD_REACTORS
330
C5
102
}
330
C5
100
AcDbXrecord
280
     1
102
MATERIAL
148
0.0
149
0.0
149
0.0
 93
        0
 94
       63
282
     0
 72
     1
 77
     1
171
     1
175
     1
179
     1
273
     0
  0
XRECORD
  5
B2
102
{ACAD_REACTORS
330
B1
102
}
330
B1
100
AcDbXrecord
280
     1
102
MATERIAL
148
0.0
149
0.0
149
0.0
 93
        0
 94
       63
282
     0
 72
     1
 77
     1
171
     1
175
     1
179
     1
273
     0
  0
XRECORD
  5
156
102
{ACAD_REACTORS
330
155
102
}
330
155
100
AcDbXrecord
280
     1
102
ACAD_ROUNDTRIP_PRE2007_TABLESTYLE
 90
        4
 91
        0
  1

 92
        4
 93
        0
  2

 94
        4
 95
        0
  3

  0
ENDSEC
  0
EOF
