  0
SECTION
  2
HEADER
  9
$ACADVER
  1
AC1018
  9
$ACADMAINTVER
 70
    76
  9
$DWGCODEPAGE
  3
ANSI_1252
  9
$LASTSAVEDBY
  1
simone
  9
$INSBASE
 10
0.0
 20
0.0
 30
0.0
  9
$EXTMIN
 10
0.0149999999999999
 20
0.015
 30
0.0
  9
$EXTMAX
 10
0.4050000000000001
 20
0.44198951145205
 30
0.0
  9
$LIMMIN
 10
0.0
 20
0.0
  9
$LIMMAX
 10
1.0
 20
0.5
  9
$ORTHOMODE
 70
     0
  9
$REGENMODE
 70
     1
  9
$FILLMODE
 70
     1
  9
$QTEXTMODE
 70
     0
  9
$MIRRTEXT
 70
     0
  9
$LTSCALE
 40
1.0
  9
$ATTMODE
 70
     1
  9
$TEXTSIZE
 40
0.005
  9
$TRACEWID
 40
1.0
  9
$TEXTSTYLE
  7
style1
  9
$CLAYER
  8
Dimensione
  9
$CELTYPE
  6
ByLayer
  9
$CECOLOR
 62
     2
  9
$CELTSCALE
 40
1.0
  9
$DISPSILH
 70
     0
  9
$DIMSCALE
 40
0.001
  9
$DIMASZ
 40
1.5
  9
$DIMEXO
 40
0.0625
  9
$DIMDLI
 40
0.38
  9
$DIMRND
 40
0.0
  9
$DIMDLE
 40
0.0
  9
$DIMEXE
 40
0.18
  9
$DIMTP
 40
0.0
  9
$DIMTM
 40
0.0
  9
$DIMTXT
 40
3.0
  9
$DIMCEN
 40
0.0
  9
$DIMTSZ
 40
0.0
  9
$DIMTOL
 70
     0
  9
$DIMLIM
 70
     0
  9
$DIMTIH
 70
     1
  9
$DIMTOH
 70
     1
  9
$DIMSE1
 70
     0
  9
$DIMSE2
 70
     0
  9
$DIMTAD
 70
     0
  9
$DIMZIN
 70
     0
  9
$DIMBLK
  1
ArchTick
  9
$DIMASO
 70
     1
  9
$DIMSHO
 70
     1
  9
$DIMPOST
  1

  9
$DIMAPOST
  1

  9
$DIMALT
 70
     0
  9
$DIMALTD
 70
     2
  9
$DIMALTF
 40
25.4
  9
$DIMLFAC
 40
1.0
  9
$DIMTOFL
 70
     0
  9
$DIMTVP
 40
0.0
  9
$DIMTIX
 70
     0
  9
$DIMSOXD
 70
     0
  9
$DIMSAH
 70
     0
  9
$DIMBLK1
  1

  9
$DIMBLK2
  1

  9
$DIMSTYLE
  2
Bovelacci
  9
$DIMCLRD
 70
     5
  9
$DIMCLRE
 70
     5
  9
$DIMCLRT
 70
     4
  9
$DIMTFAC
 40
1.0
  9
$DIMGAP
 40
2.0
  9
$DIMJUST
 70
     0
  9
$DIMSD1
 70
     0
  9
$DIMSD2
 70
     0
  9
$DIMTOLJ
 70
     1
  9
$DIMTZIN
 70
     0
  9
$DIMALTZ
 70
     0
  9
$DIMALTTZ
 70
     0
  9
$DIMUPT
 70
     0
  9
$DIMDEC
 70
     2
  9
$DIMTDEC
 70
     2
  9
$DIMALTU
 70
     2
  9
$DIMALTTD
 70
     2
  9
$DIMTXSTY
  7
ROMANS
  9
$DIMAUNIT
 70
     0
  9
$DIMADEC
 70
     0
  9
$DIMALTRND
 40
0.0
  9
$DIMAZIN
 70
     0
  9
$DIMDSEP
 70
    46
  9
$DIMATFIT
 70
     3
  9
$DIMFRAC
 70
     0
  9
$DIMLDRBLK
  1

  9
$DIMLUNIT
 70
     2
  9
$DIMLWD
 70
    -2
  9
$DIMLWE
 70
    -2
  9
$DIMTMOVE
 70
     2
  9
$LUNITS
 70
     2
  9
$LUPREC
 70
     2
  9
$SKETCHINC
 40
1.0
  9
$FILLETRAD
 40
0.0
  9
$AUNITS
 70
     0
  9
$AUPREC
 70
     0
  9
$MENU
  1
.
  9
$ELEVATION
 40
0.0
  9
$PELEVATION
 40
0.0
  9
$THICKNESS
 40
0.0
  9
$LIMCHECK
 70
     0
  9
$CHAMFERA
 40
0.0
  9
$CHAMFERB
 40
0.0
  9
$CHAMFERC
 40
0.0
  9
$CHAMFERD
 40
0.0
  9
$SKPOLY
 70
     0
  9
$TDCREATE
 40
2454297.625402373
  9
$TDUCREATE
 40
2454297.542069039
  9
$TDUPDATE
 40
2454364.694272014
  9
$TDUUPDATE
 40
2454364.610938680
  9
$TDINDWG
 40
1.3190021296
  9
$TDUSRTIMER
 40
1.3190015741
  9
$USRTIMER
 70
     1
  9
$ANGBASE
 50
0.0
  9
$ANGDIR
 70
     0
  9
$PDMODE
 70
     0
  9
$PDSIZE
 40
0.0
  9
$PLINEWID
 40
0.0
  9
$SPLFRAME
 70
     0
  9
$SPLINETYPE
 70
     6
  9
$SPLINESEGS
 70
     8
  9
$HANDSEED
  5
2FC4
  9
$SURFTAB1
 70
     6
  9
$SURFTAB2
 70
     6
  9
$SURFTYPE
 70
     6
  9
$SURFU
 70
     6
  9
$SURFV
 70
     6
  9
$UCSBASE
  2

  9
$UCSNAME
  2

  9
$UCSORG
 10
0.0
 20
0.0
 30
0.0
  9
$UCSXDIR
 10
1.0
 20
0.0
 30
0.0
  9
$UCSYDIR
 10
0.0
 20
1.0
 30
0.0
  9
$UCSORTHOREF
  2

  9
$UCSORTHOVIEW
 70
     0
  9
$UCSORGTOP
 10
0.0
 20
0.0
 30
0.0
  9
$UCSORGBOTTOM
 10
0.0
 20
0.0
 30
0.0
  9
$UCSORGLEFT
 10
0.0
 20
0.0
 30
0.0
  9
$UCSORGRIGHT
 10
0.0
 20
0.0
 30
0.0
  9
$UCSORGFRONT
 10
0.0
 20
0.0
 30
0.0
  9
$UCSORGBACK
 10
0.0
 20
0.0
 30
0.0
  9
$PUCSBASE
  2

  9
$PUCSNAME
  2

  9
$PUCSORG
 10
0.0
 20
0.0
 30
0.0
  9
$PUCSXDIR
 10
1.0
 20
0.0
 30
0.0
  9
$PUCSYDIR
 10
0.0
 20
1.0
 30
0.0
  9
$PUCSORTHOREF
  2

  9
$PUCSORTHOVIEW
 70
     0
  9
$PUCSORGTOP
 10
0.0
 20
0.0
 30
0.0
  9
$PUCSORGBOTTOM
 10
0.0
 20
0.0
 30
0.0
  9
$PUCSORGLEFT
 10
0.0
 20
0.0
 30
0.0
  9
$PUCSORGRIGHT
 10
0.0
 20
0.0
 30
0.0
  9
$PUCSORGFRONT
 10
0.0
 20
0.0
 30
0.0
  9
$PUCSORGBACK
 10
0.0
 20
0.0
 30
0.0
  9
$USERI1
 70
     0
  9
$USERI2
 70
     0
  9
$USERI3
 70
     0
  9
$USERI4
 70
     0
  9
$USERI5
 70
     0
  9
$USERR1
 40
0.0
  9
$USERR2
 40
0.0
  9
$USERR3
 40
0.0
  9
$USERR4
 40
0.0
  9
$USERR5
 40
0.0
  9
$WORLDVIEW
 70
     1
  9
$SHADEDGE
 70
     3
  9
$SHADEDIF
 70
    70
  9
$TILEMODE
 70
     1
  9
$MAXACTVP
 70
    64
  9
$PINSBASE
 10
0.0
 20
0.0
 30
0.0
  9
$PLIMCHECK
 70
     0
  9
$PEXTMIN
 10
29.06606628894805
 20
20.36233246326446
 30
0.0
  9
$PEXTMAX
 10
261.5945966005325
 20
183.2609921693802
 30
0.0
  9
$PLIMMIN
 10
-3.17498779296875
 20
-3.174999952316281
  9
$PLIMMAX
 10
293.8356628417969
 20
206.7983276844024
  9
$UNITMODE
 70
     0
  9
$VISRETAIN
 70
     1
  9
$PLINEGEN
 70
     0
  9
$PSLTSCALE
 70
     1
  9
$TREEDEPTH
 70
  3020
  9
$CMLSTYLE
  2
Standard
  9
$CMLJUST
 70
     0
  9
$CMLSCALE
 40
20.0
  9
$PROXYGRAPHICS
 70
     1
  9
$MEASUREMENT
 70
     1
  9
$CELWEIGHT
370
    -1
  9
$ENDCAPS
280
     0
  9
$JOINSTYLE
280
     0
  9
$LWDISPLAY
290
     0
  9
$INSUNITS
 70
     4
  9
$HYPERLINKBASE
  1

  9
$STYLESHEET
  1

  9
$XEDIT
290
     1
  9
$CEPSNTYPE
380
     0
  9
$PSTYLEMODE
290
     1
  9
$FINGERPRINTGUID
  2
{4F38C4E7-9F37-4C76-96D9-79C94F9B03D9}
  9
$VERSIONGUID
  2
{3EBE46B7-1DF1-4525-B048-420A9951A5CA}
  9
$EXTNAMES
290
     1
  9
$PSVPSCALE
 40
0.0
  9
$OLESTARTUP
290
     0
  9
$SORTENTS
280
   127
  9
$INDEXCTL
280
     0
  9
$HIDETEXT
280
     1
  9
$XCLIPFRAME
290
     0
  9
$HALOGAP
280
     0
  9
$OBSCOLOR
 70
   257
  9
$OBSLTYPE
280
     0
  9
$INTERSECTIONDISPLAY
280
     0
  9
$INTERSECTIONCOLOR
 70
   257
  9
$DIMASSOC
280
     2
  9
$PROJECTNAME
  1

  0
ENDSEC
  0
SECTION
  2
CLASSES
  0
CLASS
  1
ACDBDICTIONARYWDFLT
  2
AcDbDictionaryWithDefault
  3
ObjectDBX Classes
 90
        0
 91
        1
280
     0
281
     0
  0
CLASS
  1
TABLESTYLE
  2
AcDbTableStyle
  3
ObjectDBX Classes
 90
     2047
 91
        1
280
     0
281
     0
  0
CLASS
  1
SORTENTSTABLE
  2
AcDbSortentsTable
  3
ObjectDBX Classes
 90
        0
 91
        4
280
     0
281
     0
  0
CLASS
  1
DICTIONARYVAR
  2
AcDbDictionaryVar
  3
ObjectDBX Classes
 90
        0
 91
        6
280
     0
281
     0
  0
CLASS
  1
DIMASSOC
  2
AcDbDimAssoc
  3
"AcDbDimAssoc|Product Desc:     AcDim ARX App For Dimension|Company:          Autodesk, Inc.|WEB Address:      www.autodesk.com"
 90
        0
 91
        2
280
     0
281
     0
  0
CLASS
  1
ACDBPLACEHOLDER
  2
AcDbPlaceHolder
  3
ObjectDBX Classes
 90
        0
 91
        1
280
     0
281
     0
  0
CLASS
  1
LAYOUT
  2
AcDbLayout
  3
ObjectDBX Classes
 90
        0
 91
        3
280
     0
281
     0
  0
CLASS
  1
MATERIAL
  2
AcDbMaterial
  3
ObjectDBX Classes
 90
        0
 91
        3
280
     0
281
     0
  0
CLASS
  1
VISUALSTYLE
  2
AcDbVisualStyle
  3
ObjectDBX Classes
 90
     4095
 91
       16
280
     0
281
     0
  0
CLASS
  1
IMAGEDEF
  2
AcDbRasterImageDef
  3
ISM
 90
        0
 91
        2
280
     0
281
     0
  0
CLASS
  1
RASTERVARIABLES
  2
AcDbRasterVariables
  3
ISM
 90
        0
 91
        1
280
     0
281
     0
  0
CLASS
  1
IMAGEDEF_REACTOR
  2
AcDbRasterImageDefReactor
  3
ISM
 90
        1
 91
        2
280
     0
281
     0
  0
CLASS
  1
IMAGE
  2
AcDbRasterImage
  3
ISM
 90
      127
 91
        2
280
     0
281
     1
  0
ENDSEC
  0
SECTION
  2
TABLES
  0
TABLE
  2
VPORT
  5
96
330
0
100
AcDbSymbolTable
 70
    17
  0
VPORT
  5
2FC3
330
96
100
AcDbSymbolTableRecord
100
AcDbViewportTableRecord
  2
*Active
 70
     0
 10
0.0
 20
0.0
 11
1.0
 21
1.0
 12
0.2307161454109802
 22
0.1607973846216452
 13
0.0
 23
0.0
 14
10.0
 24
10.0
 15
10.0
 25
10.0
 16
0.0
 26
0.0
 36
1.0
 17
0.0
 27
0.0
 37
0.0
 40
0.3713065782339127
 41
1.320054945054945
 42
50.0
 43
0.0
 44
0.0
 50
0.0
 51
0.0
 71
     0
 72
  1000
 73
     1
 74
     3
 75
     0
 76
     0
 77
     0
 78
     0
281
     0
 65
     1
110
0.0
120
0.0
130
0.0
111
1.0
121
0.0
131
0.0
112
0.0
122
1.0
132
0.0
 79
     0
146
0.0
  0
ENDTAB
  0
TABLE
  2
LTYPE
  5
91
330
0
100
AcDbSymbolTable
 70
     5
  0
LTYPE
  5
92
330
91
100
AcDbSymbolTableRecord
100
AcDbLinetypeTableRecord
  2
ByBlock
 70
     0
  3

 72
    65
 73
     0
 40
0.0
  0
LTYPE
  5
93
330
91
100
AcDbSymbolTableRecord
100
AcDbLinetypeTableRecord
  2
ByLayer
 70
     0
  3

 72
    65
 73
     0
 40
0.0
  0
LTYPE
  5
C
330
91
100
AcDbSymbolTableRecord
100
AcDbLinetypeTableRecord
  2
Continuous
 70
     0
  3
Solid line
 72
    65
 73
     0
 40
0.0
  0
LTYPE
  5
105
330
91
100
AcDbSymbolTableRecord
100
AcDbLinetypeTableRecord
  2
ACAD_ISO10W100
 70
     0
  3
ISO dash dot __ . __ . __ . __ . __ . __ . __ .
 72
    65
 73
     4
 40
18.0
 49
12.0
 74
     0
 49
-3.0
 74
     0
 49
0.0
 74
     0
 49
-3.0
 74
     0
  0
LTYPE
  5
190
330
91
100
AcDbSymbolTableRecord
100
AcDbLinetypeTableRecord
  2
RAYITAX4
 70
     0
  3
RAYITAX4
 72
    65
 73
     2
 40
18.0
 49
12.0
 74
     0
 49
-6.0
 74
     0
  0
LTYPE
  5
73C
330
91
100
AcDbSymbolTableRecord
100
AcDbLinetypeTableRecord
  2
RAYITA
 70
     0
  3
rayita
 72
    65
 73
     2
 40
1.5
 49
1.0
 74
     0
 49
-0.5
 74
     0
  0
ENDTAB
  0
TABLE
  2
LAYER
  5
8A
102
{ACAD_XDICTIONARY
360
8B
102
}
330
0
100
AcDbSymbolTable
 70
    12
  0
LAYER
  5
6
330
8A
100
AcDbSymbolTableRecord
100
AcDbLayerTableRecord
  2
0
 70
     0
 62
     7
  6
Continuous
370
    -3
390
7
  0
LAYER
  5
3F
330
8A
100
AcDbSymbolTableRecord
100
AcDbLayerTableRecord
  2
Defpoints
 70
     0
 62
     7
  6
Continuous
290
     0
370
    -3
390
7
  0
LAYER
  5
2E
330
8A
100
AcDbSymbolTableRecord
100
AcDbLayerTableRecord
  2
Dimensione
 70
     0
 62
   150
  6
Continuous
370
    -3
390
7
1001
AcAecLayerStandard
1000

1000

  0
LAYER
  5
2A
330
8A
100
AcDbSymbolTableRecord
100
AcDbLayerTableRecord
  2
Profilo
 70
     0
 62
     1
  6
Continuous
370
    -3
390
7
1001
AcAecLayerStandard
1000

1000

  0
LAYER
  5
54
330
8A
100
AcDbSymbolTableRecord
100
AcDbLayerTableRecord
  2
Sezione
 70
     0
 62
     2
  6
Continuous
370
    -3
390
7
1001
AcAecLayerStandard
1000

1000

  0
LAYER
  5
E
330
8A
100
AcDbSymbolTableRecord
100
AcDbLayerTableRecord
  2
Table
 70
     0
 62
     3
  6
Continuous
370
    -3
390
7
1001
AcAecLayerStandard
1000

1000

  0
LAYER
  5
19
330
8A
100
AcDbSymbolTableRecord
100
AcDbLayerTableRecord
  2
Text
 70
     0
 62
     4
  6
Continuous
370
    -3
390
7
1001
AcAecLayerStandard
1000

1000

  0
LAYER
  5
5C
330
8A
100
AcDbSymbolTableRecord
100
AcDbLayerTableRecord
  2
Vista
 70
     0
 62
     2
  6
Continuous
370
    -3
390
7
1001
AcAecLayerStandard
1000

1000

  0
LAYER
  5
256
330
8A
100
AcDbSymbolTableRecord
100
AcDbLayerTableRecord
  2
CORTE
 70
     0
 62
     1
  6
Continuous
370
    -3
390
7
  0
LAYER
  5
40E
330
8A
100
AcDbSymbolTableRecord
100
AcDbLayerTableRecord
  2
COTAS
 70
     0
 62
     4
  6
Continuous
370
    -3
390
7
  0
LAYER
  5
594
330
8A
100
AcDbSymbolTableRecord
100
AcDbLayerTableRecord
  2
MARCO
 70
     0
 62
     4
  6
Continuous
370
    -3
390
7
  0
LAYER
  5
B5A
330
8A
100
AcDbSymbolTableRecord
100
AcDbLayerTableRecord
  2
TRAMA
 70
     0
 62
     4
  6
Continuous
370
    -3
390
7
  0
ENDTAB
  0
TABLE
  2
STYLE
  5
8F
330
0
100
AcDbSymbolTable
 70
     5
  0
STYLE
  5
1A
330
8F
100
AcDbSymbolTableRecord
100
AcDbTextStyleTableRecord
  2
Standard
 70
     0
 40
0.0
 41
1.0
 50
0.0
 71
     0
 42
2.5
  3
txt
  4

  0
STYLE
  5
20
330
8F
100
AcDbSymbolTableRecord
100
AcDbTextStyleTableRecord
  2
ROMANS
 70
     0
 40
0.0
 41
1.0
 50
0.0
 71
     0
 42
2.5
  3
romans
  4

  0
STYLE
  5
28
330
8F
100
AcDbSymbolTableRecord
100
AcDbTextStyleTableRecord
  2
Arial
 70
     0
 40
0.0
 41
1.0
 50
0.0
 71
     0
 42
0.25
  3
ARIAL.TTF
  4

1001
ACAD
1000
Arial
1071
       34
  0
STYLE
  5
26
330
8F
100
AcDbSymbolTableRecord
100
AcDbTextStyleTableRecord
  2
style1
 70
     0
 40
0.0
 41
1.0
 50
0.0
 71
     0
 42
0.005
  3
TIMES.TTF
  4

1001
ACAD
1000
Times New Roman
1071
       18
  0
STYLE
  5
595
330
8F
100
AcDbSymbolTableRecord
100
AcDbTextStyleTableRecord
  2
EUROROMANOBLIQUE
 70
     0
 40
0.0
 41
1.0
 50
0.0
 71
     0
 42
2.5
  3
euro____.pfb
  4

  0
ENDTAB
  0
TABLE
  2
VIEW
  5
94
330
0
100
AcDbSymbolTable
 70
     0
  0
ENDTAB
  0
TABLE
  2
UCS
  5
95
330
0
100
AcDbSymbolTable
 70
     0
  0
ENDTAB
  0
TABLE
  2
APPID
  5
98
330
0
100
AcDbSymbolTable
 70
     9
  0
APPID
  5
1B
330
98
100
AcDbSymbolTableRecord
100
AcDbRegAppTableRecord
  2
ACAD
 70
     0
  0
APPID
  5
34
330
98
100
AcDbSymbolTableRecord
100
AcDbRegAppTableRecord
  2
ACAD_DSTYLE_DIMJOGGED_JOGANGLE_SYMBOL
 70
     0
  0
APPID
  5
F
330
98
100
AcDbSymbolTableRecord
100
AcDbRegAppTableRecord
  2
AcAecLayerStandard
 70
     0
  0
APPID
  5
85
330
98
100
AcDbSymbolTableRecord
100
AcDbRegAppTableRecord
  2
ACAD_PSEXT
 70
     0
  0
APPID
  5
BA
330
98
100
AcDbSymbolTableRecord
100
AcDbRegAppTableRecord
  2
ACAD_DSTYLE_DIMEXT_LENGTH
 70
     0
  0
APPID
  5
101
330
98
100
AcDbSymbolTableRecord
100
AcDbRegAppTableRecord
  2
ACAD_EXEMPT_FROM_CAD_STANDARDS
 70
     0
  0
APPID
  5
102
330
98
100
AcDbSymbolTableRecord
100
AcDbRegAppTableRecord
  2
ACAD_DSTYLE_DIM_LINETYPE
 70
     0
  0
APPID
  5
103
330
98
100
AcDbSymbolTableRecord
100
AcDbRegAppTableRecord
  2
ACAD_DSTYLE_DIM_EXT1_LINETYPE
 70
     0
  0
APPID
  5
104
330
98
100
AcDbSymbolTableRecord
100
AcDbRegAppTableRecord
  2
ACAD_DSTYLE_DIM_EXT2_LINETYPE
 70
     0
  0
ENDTAB
  0
TABLE
  2
DIMSTYLE
  5
99
330
0
100
AcDbSymbolTable
 70
     8
100
AcDbDimStyleTable
 71
     2
340
2F
340
9A
  0
DIMSTYLE
105
9A
330
99
100
AcDbSymbolTableRecord
100
AcDbDimStyleTableRecord
  2
ISO-25
 70
     0
 41
2.5
 42
0.625
 43
3.75
 44
1.25
 73
     0
 74
     0
 77
     1
 78
     8
140
2.5
141
2.5
143
0.03937007874016
147
0.625
171
     3
172
     1
271
     2
272
     2
274
     3
278
    44
283
     0
284
     8
340
1A
  0
DIMSTYLE
105
2F
102
{ACAD_REACTORS
330
2DED
330
2E07
102
}
330
99
100
AcDbSymbolTableRecord
100
AcDbDimStyleTableRecord
  2
Bovelacci
 70
     0
 40
0.001
 41
1.5
140
3.0
141
0.0
147
2.0
176
     5
177
     5
178
     4
271
     2
272
     2
279
     2
340
20
342
30
1001
ACAD_DSTYLE_DIMJOGGED_JOGANGLE_SYMBOL
1070
   384
1040
0.7853981633974483
1001
ACAD_DSTYLE_DIMEXT_LENGTH
1070
   378
1040
0.18
  0
DIMSTYLE
105
194
330
99
100
AcDbSymbolTableRecord
100
AcDbDimStyleTableRecord
  2
STANDARD
 70
     0
340
1A
  0
DIMSTYLE
105
4EB
330
99
100
AcDbSymbolTableRecord
100
AcDbDimStyleTableRecord
  2
Dim 1-100
 70
     0
 40
0.1
 41
1.5
 42
0.0
 43
5.0
 44
1.25
 45
0.005
 46
1.25
 73
     0
 74
     0
 77
     1
 78
     9
140
2.0
141
2.5
147
1.0
172
     1
174
     1
179
     2
279
     2
289
     2
340
20
342
30
  0
DIMSTYLE
105
4EC
330
99
100
AcDbSymbolTableRecord
100
AcDbDimStyleTableRecord
  2
Dim 1-50
 70
     0
 40
0.05
 41
1.5
 42
0.0
 43
5.0
 44
1.25
 45
0.005
 46
1.25
 73
     0
 74
     0
 77
     1
 78
     9
140
2.0
141
2.5
147
1.0
172
     1
174
     1
179
     2
279
     2
289
     2
340
20
342
30
  0
DIMSTYLE
105
4ED
330
99
100
AcDbSymbolTableRecord
100
AcDbDimStyleTableRecord
  2
Dim 1-200
 70
     0
 40
0.2
 41
1.5
 42
0.0
 43
5.0
 44
1.25
 45
0.005
 46
1.25
 73
     0
 74
     0
 77
     1
 78
     9
140
2.0
141
2.5
147
1.0
172
     1
174
     1
179
     2
271
     2
272
     2
279
     2
289
     2
340
20
342
30
  0
DIMSTYLE
105
4EE
330
99
100
AcDbSymbolTableRecord
100
AcDbDimStyleTableRecord
  2
AEC Scale - Italiano
 70
     0
 41
1.0
 42
10.0
 43
10.0
 44
10.0
 73
     0
 74
     0
 75
     1
 76
     1
 77
     1
140
10.0
141
1.0
147
10.0
173
     1
271
     0
272
     0
279
     2
340
1A
343
4E6
344
4E0
  0
ENDTAB
  0
TABLE
  2
BLOCK_RECORD
  5
1
330
0
100
AcDbSymbolTable
 70
    26
  0
BLOCK_RECORD
  5
2
102
{ACAD_XDICTIONARY
360
3
102
}
330
1
100
AcDbSymbolTableRecord
100
AcDbBlockTableRecord
  2
*Model_Space
340
77
  0
BLOCK_RECORD
  5
79
330
1
100
AcDbSymbolTableRecord
100
AcDbBlockTableRecord
  2
*Paper_Space
340
82
  0
BLOCK_RECORD
  5
86
330
1
100
AcDbSymbolTableRecord
100
AcDbBlockTableRecord
  2
*Paper_Space0
340
89
  0
BLOCK_RECORD
  5
30
330
1
100
AcDbSymbolTableRecord
100
AcDbBlockTableRecord
  2
_ArchTick
340
0
310
2800000020000000200000000100080000000000000400000000000000000000000000000000000000000000000080000080000000808000800000008000800080800000C0C0C000C0DCC000F0CAA6000020400000206000002080000020A0000020C0000020E00000400000004020000040400000406000004080000040A0
310
000040C0000040E00000600000006020000060400000606000006080000060A0000060C0000060E00000800000008020000080400000806000008080000080A0000080C0000080E00000A0000000A0200000A0400000A0600000A0800000A0A00000A0C00000A0E00000C0000000C0200000C0400000C0600000C0800000C0
310
A00000C0C00000C0E00000E0000000E0200000E0400000E0600000E0800000E0A00000E0C00000E0E00040000000400020004000400040006000400080004000A0004000C0004000E00040200000402020004020400040206000402080004020A0004020C0004020E000404000004040200040404000404060004040800040
310
40A0004040C0004040E00040600000406020004060400040606000406080004060A0004060C0004060E00040800000408020004080400040806000408080004080A0004080C0004080E00040A0000040A0200040A0400040A0600040A0800040A0A00040A0C00040A0E00040C0000040C0200040C0400040C0600040C08000
310
40C0A00040C0C00040C0E00040E0000040E0200040E0400040E0600040E0800040E0A00040E0C00040E0E00080000000800020008000400080006000800080008000A0008000C0008000E00080200000802020008020400080206000802080008020A0008020C0008020E00080400000804020008040400080406000804080
310
008040A0008040C0008040E00080600000806020008060400080606000806080008060A0008060C0008060E00080800000808020008080400080806000808080008080A0008080C0008080E00080A0000080A0200080A0400080A0600080A0800080A0A00080A0C00080A0E00080C0000080C0200080C0400080C0600080C0
310
800080C0A00080C0C00080C0E00080E0000080E0200080E0400080E0600080E0800080E0A00080E0C00080E0E000C0000000C0002000C0004000C0006000C0008000C000A000C000C000C000E000C0200000C0202000C0204000C0206000C0208000C020A000C020C000C020E000C0400000C0402000C0404000C0406000C0
310
408000C040A000C040C000C040E000C0600000C0602000C0604000C0606000C0608000C060A000C060C000C060E000C0800000C0802000C0804000C0806000C0808000C080A000C080C000C080E000C0A00000C0A02000C0A04000C0A06000C0A08000C0A0A000C0A0C000C0A0E000C0C00000C0C02000C0C04000C0C06000
310
C0C08000C0C0A000F0FBFF00A4A0A000808080000000FF0000FF000000FFFF00FF000000FF00FF00FFFF0000FFFFFF00000000FF000000000000000000000000000000000000000000000000000000000000FF00FF00000000000000000000000000000000000000000000000000000000FF000000FF000000000000000000
310
0000000000000000000000000000000000FF0000000000FF0000000000000000000000000000000000000000000000000000FF0000000000FF0000000000000000000000000000000000000000000000000000FF0000000000FF0000000000000000000000000000000000000000000000000000FF0000000000FF00000000
310
00000000000000000000000000000000000000000000FF0000000000FF0000000000000000000000000000000000000000000000000000FF0000000000FF0000000000000000000000000000000000000000000000000000FF0000000000FF0000000000000000000000000000000000000000000000000000FF0000000000
310
FF0000000000000000000000000000000000000000000000000000FF0000000000FF0000000000000000000000000000000000000000000000000000FF0000000000FF0000000000000000000000000000000000000000000000000000FF0000000000FF0000000000000000000000000000000000000000000000000000FF
310
0000000000FF0000000000000000000000000000000000000000000000000000FF0000000000FF0000000000000000000000000000000000000000000000000000FF0000000000FF0000000000000000000000000000000000000000000000000000FF0000000000FF00000000000000000000000000000000000000000000
310
00000000FF0000000000FF0000000000000000000000000000000000000000000000000000FF0000000000FF0000000000000000000000000000000000000000000000000000FF0000000000FF0000000000000000000000000000000000000000000000000000FF0000000000FF0000000000000000000000000000000000
310
000000000000000000FF0000000000FF0000000000000000000000000000000000000000000000000000FF0000000000FF0000000000000000000000000000000000000000000000000000FF0000000000FF0000000000000000000000000000000000000000000000000000FF0000000000FF000000000000000000000000
310
0000000000000000000000000000FF0000000000FF0000000000000000000000000000000000000000000000000000FF0000000000FF0000000000000000000000000000000000000000000000000000FF0000000000FF0000000000000000000000000000000000000000000000000000FF000000FF000000000000000000
310
00000000000000000000000000000000000000FF00FF000000000000000000000000000000000000000000000000000000000000FF000000
102
{BLKREFS
331
23F6
331
23F7
331
242A
331
242B
331
26C7
331
26C8
331
26E1
331
26E2
331
26FB
331
26FC
331
290A
331
290B
331
2924
331
2925
331
2B71
331
2B72
331
2B8B
331
2B8C
331
2F12
331
2F13
331
2F26
331
2F27
102
}
  0
BLOCK_RECORD
  5
179
330
1
100
AcDbSymbolTableRecord
100
AcDbBlockTableRecord
  2
DOT
340
0
  0
BLOCK_RECORD
  5
213
330
1
100
AcDbSymbolTableRecord
100
AcDbBlockTableRecord
  2
ELEMENT
340
0
102
{BLKREFS
331
244
102
}
  0
BLOCK_RECORD
  5
235
330
1
100
AcDbSymbolTableRecord
100
AcDbBlockTableRecord
  2
NOM-J
340
0
  0
BLOCK_RECORD
  5
3FB
330
1
100
AcDbSymbolTableRecord
100
AcDbBlockTableRecord
  2
NOM-QR
340
0
  0
BLOCK_RECORD
  5
4E0
330
1
100
AcDbSymbolTableRecord
100
AcDbBlockTableRecord
  2
_Arrivo
340
0
310
2800000020000000200000000100080000000000000400000000000000000000000000000000000000000000000080000080000000808000800000008000800080800000C0C0C000C0DCC000F0CAA6000020400000206000002080000020A0000020C0000020E00000400000004020000040400000406000004080000040A0
310
000040C0000040E00000600000006020000060400000606000006080000060A0000060C0000060E00000800000008020000080400000806000008080000080A0000080C0000080E00000A0000000A0200000A0400000A0600000A0800000A0A00000A0C00000A0E00000C0000000C0200000C0400000C0600000C0800000C0
310
A00000C0C00000C0E00000E0000000E0200000E0400000E0600000E0800000E0A00000E0C00000E0E00040000000400020004000400040006000400080004000A0004000C0004000E00040200000402020004020400040206000402080004020A0004020C0004020E000404000004040200040404000404060004040800040
310
40A0004040C0004040E00040600000406020004060400040606000406080004060A0004060C0004060E00040800000408020004080400040806000408080004080A0004080C0004080E00040A0000040A0200040A0400040A0600040A0800040A0A00040A0C00040A0E00040C0000040C0200040C0400040C0600040C08000
310
40C0A00040C0C00040C0E00040E0000040E0200040E0400040E0600040E0800040E0A00040E0C00040E0E00080000000800020008000400080006000800080008000A0008000C0008000E00080200000802020008020400080206000802080008020A0008020C0008020E00080400000804020008040400080406000804080
310
008040A0008040C0008040E00080600000806020008060400080606000806080008060A0008060C0008060E00080800000808020008080400080806000808080008080A0008080C0008080E00080A0000080A0200080A0400080A0600080A0800080A0A00080A0C00080A0E00080C0000080C0200080C0400080C0600080C0
310
800080C0A00080C0C00080C0E00080E0000080E0200080E0400080E0600080E0800080E0A00080E0C00080E0E000C0000000C0002000C0004000C0006000C0008000C000A000C000C000C000E000C0200000C0202000C0204000C0206000C0208000C020A000C020C000C020E000C0400000C0402000C0404000C0406000C0
310
408000C040A000C040C000C040E000C0600000C0602000C0604000C0606000C0608000C060A000C060C000C060E000C0800000C0802000C0804000C0806000C0808000C080A000C080C000C080E000C0A00000C0A02000C0A04000C0A06000C0A08000C0A0A000C0A0C000C0A0E000C0C00000C0C02000C0C04000C0C06000
310
C0C08000C0C0A000F0FBFF00A4A0A000808080000000FF0000FF000000FFFF00FF000000FF00FF00FFFF0000FFFFFF00000000000000000000000000000000000000000000000000000000000000000000000000000000000000FF0000000000000000000000000000000000000000000000000000000000000000FF000000
310
00000000000000000000000000000000000000000000000000000000FF0000000000000000000000000000000000000000000000000000000000000000FF00000000000000000000000000000000000000000000000000000000000000FF0000000000000000000000000000000000000000000000000000000000000000FF
310
0000000000000000000000000000000000000000000000000000000000000000FF00000000000000000000000000000000000000000000000000000000000000FF0000000000000000000000000000000000000000000000000000000000000000FF0000000000000000000000000000000000000000000000000000000000
310
0000FF0000000000000000000000000000000000000000000000000000000000000000FF00000000000000000000000000000000000000000000000000000000000000FF0000000000000000000000000000000000000000000000000000000000000000FF0000FF0000000000000000000000000000000000000000000000
310
000000000000FFFF000000000000000000000000000000000000000000000000000000000000FFFF00000000000000000000000000000000000000000000000000000000FFFFFFFFFFFF00000000000000000000000000000000000000000000000000000000FFFF0000000000000000000000000000000000000000000000
310
000000000000FF0000FF000000000000000000000000000000000000000000000000000000FF00000000000000000000000000000000000000000000000000000000000000FF000000000000000000000000000000000000000000000000000000000000FF0000000000000000000000000000000000000000000000000000
310
0000000000FF000000000000000000000000000000000000000000000000000000000000FF00000000000000000000000000000000000000000000000000000000000000FF000000000000000000000000000000000000000000000000000000000000FF000000000000000000000000000000000000000000000000000000
310
000000FF00000000000000000000000000000000000000000000000000000000000000FF000000000000000000000000000000000000000000000000000000000000FF00000000000000000000000000000000000000000000000000000000000000FF00000000000000000000000000000000000000000000000000000000
310
0000FF0000000000000000000000000000000000000000000000000000000000000000000000000000000000000000000000000000000000
  0
BLOCK_RECORD
  5
4E6
330
1
100
AcDbSymbolTableRecord
100
AcDbBlockTableRecord
  2
_Partenza
340
0
310
2800000020000000200000000100080000000000000400000000000000000000000000000000000000000000000080000080000000808000800000008000800080800000C0C0C000C0DCC000F0CAA6000020400000206000002080000020A0000020C0000020E00000400000004020000040400000406000004080000040A0
310
000040C0000040E00000600000006020000060400000606000006080000060A0000060C0000060E00000800000008020000080400000806000008080000080A0000080C0000080E00000A0000000A0200000A0400000A0600000A0800000A0A00000A0C00000A0E00000C0000000C0200000C0400000C0600000C0800000C0
310
A00000C0C00000C0E00000E0000000E0200000E0400000E0600000E0800000E0A00000E0C00000E0E00040000000400020004000400040006000400080004000A0004000C0004000E00040200000402020004020400040206000402080004020A0004020C0004020E000404000004040200040404000404060004040800040
310
40A0004040C0004040E00040600000406020004060400040606000406080004060A0004060C0004060E00040800000408020004080400040806000408080004080A0004080C0004080E00040A0000040A0200040A0400040A0600040A0800040A0A00040A0C00040A0E00040C0000040C0200040C0400040C0600040C08000
310
40C0A00040C0C00040C0E00040E0000040E0200040E0400040E0600040E0800040E0A00040E0C00040E0E00080000000800020008000400080006000800080008000A0008000C0008000E00080200000802020008020400080206000802080008020A0008020C0008020E00080400000804020008040400080406000804080
310
008040A0008040C0008040E00080600000806020008060400080606000806080008060A0008060C0008060E00080800000808020008080400080806000808080008080A0008080C0008080E00080A0000080A0200080A0400080A0600080A0800080A0A00080A0C00080A0E00080C0000080C0200080C0400080C0600080C0
310
800080C0A00080C0C00080C0E00080E0000080E0200080E0400080E0600080E0800080E0A00080E0C00080E0E000C0000000C0002000C0004000C0006000C0008000C000A000C000C000C000E000C0200000C0202000C0204000C0206000C0208000C020A000C020C000C020E000C0400000C0402000C0404000C0406000C0
310
408000C040A000C040C000C040E000C0600000C0602000C0604000C0606000C0608000C060A000C060C000C060E000C0800000C0802000C0804000C0806000C0808000C080A000C080C000C080E000C0A00000C0A02000C0A04000C0A06000C0A08000C0A0A000C0A0C000C0A0E000C0C00000C0C02000C0C04000C0C06000
310
C0C08000C0C0A000F0FBFF00A4A0A000808080000000FF0000FF000000FFFF00FF000000FF00FF00FFFF0000FFFFFF0000000000000000000000000000000000000000000000000000000000000000000000000000000000000000000000000000000000000000000000000000000000000000000000000000000000000000
310
000000000000000000000000000000000000000000000000000000000000000000000000000000000000000000000000000000000000000000000000000000000000000000000000000000000000000000000000000000000000000000000000000000000000000000000000000000000000FFFFFFFFFFFFFFFFFFFFFFFFFF
310
FFFFFFFFFFFFFFFFFFFFFFFFFFFFFFFFFF0000000000000000000000000000000000000000000000000000000000000000000000000000000000000000000000000000000000000000000000000000000000000000000000000000000000000000000000000000000000000000000000000000000000000000000000000000
310
00000000000000000000000000000000000000000000000000000000000000000000000000000000000000000000000000000000000000000000000000000000000000000000000000000000000000000000000000000000000000000000000000000000000000000000000000000000000000000000000000000000000000
310
00000000000000000000000000000000000000000000000000000000000000000000000000000000000000000000000000000000000000000000000000000000000000000000000000000000000000000000000000000000000000000000000000000000000000000000000000000000000000000000000000000000000000
310
00000000000000000000000000000000000000000000000000000000000000000000000000000000000000000000000000000000000000000000000000000000000000000000000000000000000000000000000000000000000000000000000000000000000000000000000000000000000000000000000000000000000000
310
000000000000000000000000000000000000000000000000000000000000000000000000000000000000000000000000000000000000000000000000000000000000000000000000000000000000000000000000000000FFFFFFFFFFFFFFFFFFFFFFFFFFFFFFFFFFFFFFFFFFFFFFFFFFFFFFFFFFFF00000000000000000000
310
00000000000000000000000000000000000000000000000000000000000000000000000000000000000000000000000000000000000000000000000000000000000000000000000000000000000000000000000000000000000000000000000000000000000000000000000000000000000000000000000000000000000000
310
0000000000000000000000000000000000000000000000000000000000000000000000000000000000000000000000000000000000000000
  0
BLOCK_RECORD
  5
73D
330
1
100
AcDbSymbolTableRecord
100
AcDbBlockTableRecord
  2
A$C6CE44357
340
0
1001
ACAD
1000
DesignCenter Data
1002
{
1070
     1
1070
     0
1002
}
  0
BLOCK_RECORD
  5
B69
102
{ACAD_XDICTIONARY
360
B6D
102
}
330
1
100
AcDbSymbolTableRecord
100
AcDbBlockTableRecord
  2
A$C263D6B6A
340
0
1001
ACAD
1000
DesignCenter Data
1002
{
1070
     1
1070
     4
1002
}
  0
BLOCK_RECORD
  5
BFB
330
1
100
AcDbSymbolTableRecord
100
AcDbBlockTableRecord
  2
*X10
340
0
102
{BLKREFS
331
C22
102
}
  0
BLOCK_RECORD
  5
C1F
330
1
100
AcDbSymbolTableRecord
100
AcDbBlockTableRecord
  2
A$C6C65579B
340
0
1001
ACAD
1000
DesignCenter Data
1002
{
1070
     1
1070
     0
1002
}
  0
BLOCK_RECORD
  5
2DEE
330
1
100
AcDbSymbolTableRecord
100
AcDbBlockTableRecord
  2
*D21
340
0
  0
BLOCK_RECORD
  5
2E08
330
1
100
AcDbSymbolTableRecord
100
AcDbBlockTableRecord
  2
*D22
340
0
  0
ENDTAB
  0
ENDSEC
  0
SECTION
  2
BLOCKS
  0
BLOCK
  5
5
330
2
100
AcDbEntity
  8
0
100
AcDbBlockBegin
  2
*Model_Space
 70
     0
 10
0.0
 20
0.0
 30
0.0
  3
*Model_Space
  1

  0
ENDBLK
  5
76
330
2
100
AcDbEntity
  8
0
100
AcDbBlockEnd
  0
BLOCK
  5
7A
330
79
100
AcDbEntity
 67
     1
  8
0
100
AcDbBlockBegin
  2
*Paper_Space
 70
     0
 10
0.0
 20
0.0
 30
0.0
  3
*Paper_Space
  1

  0
ENDBLK
  5
81
330
79
100
AcDbEntity
 67
     1
  8
0
100
AcDbBlockEnd
  0
BLOCK
  5
87
330
86
100
AcDbEntity
 67
     1
  8
0
100
AcDbBlockBegin
  2
*Paper_Space0
 70
     0
 10
0.0
 20
0.0
 30
0.0
  3
*Paper_Space0
  1

  0
ENDBLK
  5
88
330
86
100
AcDbEntity
 67
     1
  8
0
100
AcDbBlockEnd
  0
BLOCK
  5
31
330
30
100
AcDbEntity
  8
0
 62
     1
100
AcDbBlockBegin
  2
_ArchTick
 70
     0
 10
0.0
 20
0.0
 30
0.0
  3
_ArchTick
  1

  0
LWPOLYLINE
  5
32
330
30
100
AcDbEntity
  8
0
  6
ByBlock
 62
     0
100
AcDbPolyline
 90
        2
 70
     0
 43
0.15
 10
-0.5
 20
-0.5
 10
0.5
 20
0.5
  0
ENDBLK
  5
33
330
30
100
AcDbEntity
  8
0
 62
     1
100
AcDbBlockEnd
  0
BLOCK
  5
17A
330
179
100
AcDbEntity
  8
0
100
AcDbBlockBegin
  2
DOT
 70
     0
 10
0.0
 20
0.0
 30
0.0
  3
DOT
  1

  0
LWPOLYLINE
  5
17B
330
179
100
AcDbEntity
  8
0
  6
ByBlock
 62
     0
100
AcDbPolyline
 90
        2
 70
     1
 43
0.5
 10
-0.25
 20
0.0
 42
1.0
 10
0.25
 20
0.0
 42
1.0
  0
LINE
  5
17C
330
179
100
AcDbEntity
  8
0
  6
ByBlock
 62
     0
100
AcDbLine
 10
-0.5
 20
0.0
 30
0.0
 11
-1.0
 21
0.0
 31
0.0
  0
ENDBLK
  5
17D
330
179
100
AcDbEntity
  8
0
100
AcDbBlockEnd
  0
BLOCK
  5
214
330
213
100
AcDbEntity
  8
0
100
AcDbBlockBegin
  2
ELEMENT
 70
     0
 10
0.0
 20
0.0
 30
0.0
  3
ELEMENT
  1

  0
LINE
  5
215
330
213
100
AcDbEntity
  8
CORTE
 62
     1
100
AcDbLine
 10
0.0287752548522349
 20
0.037775254852221
 30
0.0
 11
0.0062928932188697
 21
0.015292893218799
 31
0.0
  0
ARC
  5
216
330
213
100
AcDbEntity
  8
CORTE
 62
     1
100
AcDbCircle
 10
0.0148333333333994
 20
0.0291666666666402
 30
0.0
 40
0.0191847740553366
100
AcDbArc
 50
270.4730994291238
 51
359.5269005707907
  0
LINE
  5
217
330
213
100
AcDbEntity
  8
CORTE
100
AcDbLine
 10
0.0130000000000337
 20
-0.0000000000000568
 30
0.0
 11
0.0099999999999909
 21
0.0000000000000284
 31
0.0
  0
LINE
  5
218
330
213
100
AcDbEntity
  8
CORTE
100
AcDbLine
 10
-0.0009999999999764
 20
0.0010000000000048
 30
0.0
 11
-0.0009999999999764
 21
0.0140000000000384
 31
0.0
  0
ARC
  5
219
330
213
100
AcDbEntity
  8
CORTE
100
AcDbCircle
 10
0.0
 20
0.0010000000000048
 30
0.0
 40
0.001
100
AcDbArc
 50
180.0
 51
269.9999999991858
  0
LINE
  5
21A
330
213
100
AcDbEntity
  8
CORTE
100
AcDbLine
 10
0.0040000000000191
 20
-0.0039999999999623
 30
0.0
 11
0.0040000000000191
 21
-0.0010000000000332
 31
0.0
  0
LINE
  5
21B
330
213
100
AcDbEntity
  8
CORTE
100
AcDbLine
 10
0.0090000000000146
 20
-0.0039999999999907
 30
0.0
 11
0.0090000000000146
 21
-0.0009999999999764
 31
0.0
  0
ARC
  5
21C
330
213
100
AcDbEntity
  8
CORTE
100
AcDbCircle
 10
0.0049999999999955
 20
-0.0039999999999623
 30
0.0
 40
0.001
100
AcDbArc
 50
180.0
 51
269.9999999996743
  0
LINE
  5
21D
330
213
100
AcDbEntity
  8
CORTE
100
AcDbLine
 10
0.0080000000000382
 20
-0.0049999999999955
 30
0.0
 11
0.0049999999999955
 21
-0.004999999999967
 31
0.0
  0
ARC
  5
21E
330
213
100
AcDbEntity
  8
CORTE
100
AcDbCircle
 10
0.0080000000000382
 20
-0.0039999999999907
 30
0.0
 40
0.001
100
AcDbArc
 50
269.9999999995929
 51
0.000000000000007
  0
LINE
  5
21F
330
213
100
AcDbEntity
  8
CORTE
100
AcDbLine
 10
0.0030000000000427
 20
-0.0000000000000284
 30
0.0
 11
0.0
 21
0.0
 31
0.0
  0
ARC
  5
220
330
213
100
AcDbEntity
  8
CORTE
100
AcDbCircle
 10
0.0030000000000427
 20
-0.0010000000000332
 30
0.0
 40
0.001
100
AcDbArc
 50
0.000000000000007
 51
89.99999999967434
  0
ARC
  5
221
330
213
100
AcDbEntity
  8
CORTE
100
AcDbCircle
 10
0.0099999999999909
 20
-0.0009999999999764
 30
0.0
 40
0.001
100
AcDbArc
 50
89.99999999967434
 51
180.0
  0
ARC
  5
222
330
213
100
AcDbEntity
  8
CORTE
100
AcDbCircle
 10
0.0
 20
0.0140000000000384
 30
0.0
 40
0.001
100
AcDbArc
 50
89.99999999975274
 51
180.0
  0
LINE
  5
223
330
213
100
AcDbEntity
  8
CORTE
100
AcDbLine
 10
0.0055857864376776
 20
0.0149999999999864
 30
0.0
 11
0.0
 21
0.0150000000000432
 31
0.0
  0
ARC
  5
224
330
213
100
AcDbEntity
  8
CORTE
 62
     1
100
AcDbCircle
 10
0.0055857864376776
 20
0.0159999999999911
 30
0.0
 40
0.001
100
AcDbArc
 50
269.9999999997674
 51
315.0000000000357
  0
LINE
  5
225
330
213
100
AcDbEntity
  8
CORTE
100
AcDbLine
 10
0.01400000000001
 20
0.0009999999999479
 30
0.0
 11
0.01400000000001
 21
0.0089825806863075
 31
0.0
  0
ARC
  5
226
330
213
100
AcDbEntity
  8
CORTE
100
AcDbCircle
 10
0.0130000000000337
 20
0.0009999999999479
 30
0.0
 40
0.001
100
AcDbArc
 50
269.9999999991858
 51
0.000000000000007
  0
ARC
  5
227
330
213
100
AcDbEntity
  8
CORTE
 62
     1
100
AcDbCircle
 10
0.0149999999999864
 20
0.0089825806862791
 30
0.0
 40
0.001
100
AcDbArc
 50
90.47309942941524
 51
179.9999999983715
  0
LINE
  5
228
330
213
100
AcDbEntity
  8
CORTE
100
AcDbLine
 10
0.0440000000000964
 20
0.0339999999999918
 30
0.0
 11
0.0440000000000396
 21
0.0310000000000059
 31
0.0
  0
ARC
  5
229
330
213
100
AcDbEntity
  8
CORTE
100
AcDbCircle
 10
0.0430000000000632
 20
0.0310000000000059
 30
0.0
 40
0.001
100
AcDbArc
 50
270.0
 51
0.000000000000007
  0
ARC
  5
22A
330
213
100
AcDbEntity
  8
CORTE
 62
     1
100
AcDbCircle
 10
0.0350174193137605
 20
0.0290000000000248
 30
0.0
 40
0.001
100
AcDbArc
 50
90.00000000325689
 51
179.5269005705982
  0
LINE
  5
22B
330
213
100
AcDbEntity
  8
CORTE
100
AcDbLine
 10
0.0430000000000632
 20
0.0300000000000011
 30
0.0
 11
0.0350174193137036
 21
0.0300000000000296
 31
0.0
  0
LINE
  5
22C
330
213
100
AcDbEntity
  8
CORTE
100
AcDbLine
 10
0.047999999999945
 20
0.0400000000000205
 30
0.0
 11
0.0300000000000296
 21
0.0400000000000205
 31
0.0
  0
ARC
  5
22D
330
213
100
AcDbEntity
  8
CORTE
 62
     1
100
AcDbCircle
 10
0.0300000000000296
 20
0.0390000000000157
 30
0.0
 40
0.001
100
AcDbArc
 50
90.0
 51
195.0000055997392
  0
ARC
  5
22E
330
213
100
AcDbEntity
  8
CORTE
 62
     1
100
AcDbCircle
 10
0.0280681480710428
 20
0.0384823616334131
 30
0.0
 40
0.001
100
AcDbArc
 50
315.0
 51
15.00000559812761
  0
LINE
  5
22F
330
213
100
AcDbEntity
  8
CORTE
100
AcDbLine
 10
0.0489999999998645
 20
0.0360000000000582
 30
0.0
 11
0.0489999999999213
 21
0.0389999999999873
 31
0.0
  0
LINE
  5
230
330
213
100
AcDbEntity
  8
CORTE
100
AcDbLine
 10
0.0480000000000018
 20
0.0350000000000534
 30
0.0
 11
0.0450000000000728
 21
0.0349999999999966
 31
0.0
  0
ARC
  5
231
330
213
100
AcDbEntity
  8
CORTE
100
AcDbCircle
 10
0.0480000000000018
 20
0.0360000000000582
 30
0.0
 40
0.001
100
AcDbArc
 50
270.0000000004071
 51
0.000000000000007
  0
ARC
  5
232
330
213
100
AcDbEntity
  8
CORTE
100
AcDbCircle
 10
0.0450000000000728
 20
0.0339999999999918
 30
0.0
 40
0.001
100
AcDbArc
 50
90.0
 51
180.0
  0
ARC
  5
233
330
213
100
AcDbEntity
  8
CORTE
100
AcDbCircle
 10
0.047999999999945
 20
0.0390000000000157
 30
0.0
 40
0.001
100
AcDbArc
 50
359.9999999991858
 51
90.0
  0
ENDBLK
  5
234
330
213
100
AcDbEntity
  8
0
100
AcDbBlockEnd
  0
BLOCK
  5
236
330
235
100
AcDbEntity
  8
0
 62
     4
100
AcDbBlockBegin
  2
NOM-J
 70
     0
 10
0.0
 20
0.0
 30
0.0
  3
NOM-J
  1

  0
LINE
  5
237
330
235
100
AcDbEntity
  8
Vista
 62
     4
100
AcDbLine
 10
0.0211489998446837
 20
0.0224999999999795
 30
0.0
 11
0.093805067538824
 21
0.0379594292031982
 31
0.0
  0
LINE
  5
238
330
235
100
AcDbEntity
  8
Vista
 62
     4
100
AcDbLine
 10
0.0197074998707194
 20
0.0224999999999795
 30
0.0
 11
0.0923635675646324
 21
0.0379594292032266
 31
0.0
  0
LINE
  5
239
330
235
100
AcDbEntity
  8
Vista
 62
     4
100
AcDbLine
 10
0.0182659998964141
 20
0.0224999999999795
 30
0.0
 11
0.0909220675904408
 21
0.0379594292031982
 31
0.0
  0
LINE
  5
23A
330
235
100
AcDbEntity
  8
Vista
 62
     4
100
AcDbLine
 10
0.0168244999223362
 20
0.0224999999999795
 30
0.0
 11
0.0894805676163628
 21
0.0379594292032266
 31
0.0
  0
LINE
  5
23B
330
235
100
AcDbEntity
  8
Vista
 62
     4
100
AcDbLine
 10
0.0153829999481445
 20
0.0224999999999795
 30
0.0
 11
0.0880390676422849
 21
0.0379594292032266
 31
0.0
  0
LINE
  5
23C
330
235
100
AcDbEntity
  8
Vista
 62
     4
100
AcDbLine
 10
0.0139414999740666
 20
0.0224999999999795
 30
0.0
 11
0.0865975676682069
 21
0.0379594292032266
 31
0.0
  0
LINE
  5
23D
330
235
100
AcDbEntity
  8
Vista
 62
     2
100
AcDbLine
 10
0.0125000000000455
 20
0.022500000000008
 30
0.0
 11
0.0851560676940153
 21
0.0379594292032266
 31
0.0
  0
LINE
  5
23E
330
235
100
AcDbEntity
  8
Vista
 62
     2
100
AcDbLine
 10
0.0218535533905424
 20
0.0223535533905874
 30
0.0
 11
0.0945096210847396
 21
0.0378129825938061
 31
0.0
  0
LINE
  5
23F
330
235
100
AcDbEntity
  8
Vista
 62
     2
100
AcDbLine
 10
0.02150000000006
 20
0.0200000000000387
 30
0.0
 11
0.094359627334427
 21
0.0355027417029987
 31
0.0
  0
LINE
  5
240
330
235
100
AcDbEntity
  8
Vista
 62
     2
100
AcDbLine
 10
0.0190000000000055
 20
0.0175000000000125
 30
0.0
 11
0.0918596273343724
 21
0.0330027417029726
 31
0.0
  0
LINE
  5
241
330
235
100
AcDbEntity
  8
Vista
 62
     2
100
AcDbLine
 10
0.0075428343679391
 20
0.0078574386832884
 30
0.0
 11
0.0801989020703786
 21
0.0233168678888376
 31
0.0
  0
LINE
  5
242
330
235
100
AcDbEntity
  8
Vista
 62
     2
100
AcDbLine
 10
0.0040000000000191
 20
0.0024999999999693
 30
0.0
 11
0.0746560676942068
 21
0.0175338782567849
 31
0.0
  0
LINE
  5
243
330
235
100
AcDbEntity
  8
Vista
 62
     3
100
AcDbLine
 10
0.0018535533906174
 20
0.0001464466094205
 30
0.0
 11
0.074509621085781
 21
0.0156058758136055
 31
0.0
  0
INSERT
  5
244
330
235
100
AcDbEntity
  8
CORTE
 62
     4
100
AcDbBlockReference
  2
ELEMENT
 10
-0.0024999999999977
 20
0.0024999999999977
 30
0.0
 41
0.5
 42
0.5
 43
0.5
  0
LINE
  5
245
330
235
100
AcDbEntity
  8
Vista
 62
     2
100
AcDbLine
 10
-0.0024999999999977
 20
0.0100000000000193
 30
0.0
 11
0.0013108568762163
 21
0.0108108568761622
 31
0.0
  0
ARC
  5
246
330
235
100
AcDbEntity
  8
CORTE
 62
     3
100
AcDbCircle
 10
0.0775727343608992
 20
0.0325427625365364
 30
0.0
 40
0.0095923870276683
100
AcDbArc
 50
278.1349003175446
 51
356.7599311023579
  0
LINE
  5
247
330
235
100
AcDbEntity
  8
CORTE
 62
     3
100
AcDbLine
 10
0.0771560676942045
 20
0.0184594292032045
 30
0.0
 11
0.0771560676942045
 21
0.0224507195463559
 31
0.0
  0
ARC
  5
248
330
235
100
AcDbEntity
  8
CORTE
 62
     3
100
AcDbCircle
 10
0.0751560676941949
 20
0.0174594292032282
 30
0.0
 40
0.0005
100
AcDbArc
 50
89.99999999967434
 51
180.0
  0
LINE
  5
249
330
235
100
AcDbEntity
  8
Vista
 62
     3
100
AcDbLine
 10
0.074509621085781
 20
0.0156058758135771
 30
0.0
 11
0.0746560676941499
 21
0.0156370360599851
 31
0.0
  0
ARC
  5
24A
330
235
100
AcDbEntity
  8
CORTE
100
AcDbCircle
 10
0.0741560676942186
 20
0.0159594292032068
 30
0.0
 40
0.0005
100
AcDbArc
 50
315.0000001496929
 51
0.000000000000007
  0
LINE
  5
24B
330
235
100
AcDbEntity
  8
CORTE
 62
     3
100
AcDbLine
 10
0.0746560676942068
 20
0.0159594292032068
 30
0.0
 11
0.0746560676942068
 21
0.0174594292032282
 31
0.0
  0
ARC
  5
24C
330
235
100
AcDbEntity
  8
CORTE
 62
     3
100
AcDbCircle
 10
0.0766560676942163
 20
0.0184594292032045
 30
0.0
 40
0.0005
100
AcDbArc
 50
269.9999999991858
 51
0.000000000000007
  0
LINE
  5
24D
330
235
100
AcDbEntity
  8
CORTE
 62
     3
100
AcDbLine
 10
0.0766560676942163
 20
0.017959429203188
 30
0.0
 11
0.0751560676941949
 21
0.0179594292032164
 31
0.0
  0
ARC
  5
24E
330
235
100
AcDbEntity
  8
CORTE
 62
     3
100
AcDbCircle
 10
0.0776560676941927
 20
0.0224507195463559
 30
0.0
 40
0.0005
100
AcDbArc
 50
152.521182623883
 51
179.9999999983715
  0
LINE
  5
24F
330
235
100
AcDbEntity
  8
CORTE
 62
     3
100
AcDbLine
 10
0.0946560676941317
 20
0.0359594292032455
 30
0.0
 11
0.0946560676941317
 21
0.03745942920321
 31
0.0
  0
ARC
  5
250
330
235
100
AcDbEntity
  8
CORTE
 62
     3
100
AcDbCircle
 10
0.0916560676942027
 20
0.0334594292032193
 30
0.0
 40
0.0005
100
AcDbArc
 50
270.0
 51
0.000000000000007
  0
ARC
  5
251
330
235
100
AcDbEntity
  8
CORTE
 62
     3
100
AcDbCircle
 10
0.0941560676942004
 20
0.0359594292032455
 30
0.0
 40
0.0005
100
AcDbArc
 50
294.0240004981589
 51
0.000000000000007
  0
LINE
  5
252
330
235
100
AcDbEntity
  8
CORTE
 62
     3
100
AcDbLine
 10
0.0921560676942477
 20
0.0349594292032123
 30
0.0
 11
0.0921560676941908
 21
0.0334594292032193
 31
0.0
  0
LINE
  5
253
330
235
100
AcDbEntity
  8
CORTE
 62
     3
100
AcDbLine
 10
0.0941560676941436
 20
0.0379594292032266
 30
0.0
 11
0.0851560676942427
 21
0.0379594292032266
 31
0.0
  0
ARC
  5
254
330
235
100
AcDbEntity
  8
CORTE
 62
     3
100
AcDbCircle
 10
0.0941560676941436
 20
0.03745942920321
 30
0.0
 40
0.0005
100
AcDbArc
 50
359.9999999991858
 51
90.0
  0
ENDBLK
  5
255
330
235
100
AcDbEntity
  8
0
 62
     4
100
AcDbBlockEnd
  0
BLOCK
  5
3FC
330
3FB
100
AcDbEntity
  8
0
 62
     1
100
AcDbBlockBegin
  2
NOM-QR
 70
     0
 10
0.0
 20
0.0
 30
0.0
  3
NOM-QR
  1

  0
LINE
  5
3FD
330
3FB
100
AcDbEntity
  8
CORTE
 62
     4
100
AcDbLine
 10
0.0184292030348843
 20
0.0200000000000102
 30
0.0
 11
0.0860297709413658
 21
0.0343689442811126
 31
0.0
  0
LINE
  5
3FE
330
3FB
100
AcDbEntity
  8
CORTE
 62
     4
100
AcDbLine
 10
0.0155433624279908
 20
0.0200000000000102
 30
0.0
 11
0.0831439303344155
 21
0.0343689442811126
 31
0.0
  0
LINE
  5
3FF
330
3FB
100
AcDbEntity
  8
CORTE
 62
     4
100
AcDbLine
 10
0.0126575218209837
 20
0.0200000000000102
 30
0.0
 11
0.0802580897274084
 21
0.034368944281141
 31
0.0
  0
LINE
  5
400
330
3FB
100
AcDbEntity
  8
CORTE
 62
     4
100
AcDbLine
 10
0.0097716812139765
 20
0.0200000000000102
 30
0.0
 11
0.077372249120458
 21
0.0343689442811126
 31
0.0
  0
LINE
  5
401
330
3FB
100
AcDbEntity
  8
CORTE
 62
     4
100
AcDbLine
 10
0.0068858406069694
 20
0.0200000000000102
 30
0.0
 11
0.0744864085134509
 21
0.0343689442811126
 31
0.0
  0
LINE
  5
402
330
3FB
100
AcDbEntity
  8
CORTE
 62
     3
100
AcDbLine
 10
0.0081347328614925
 20
0.0017290908471352
 30
0.0
 11
0.0757353007679171
 21
0.0160980351282376
 31
0.0
  0
LINE
  5
403
330
3FB
100
AcDbEntity
  8
CORTE
 62
     3
100
AcDbLine
 10
0.0040000000000191
 20
0.0200000000000102
 30
0.0
 11
0.0716005679065006
 21
0.034368944281141
 31
0.0
  0
LINE
  5
404
330
3FB
100
AcDbEntity
  8
CORTE
 62
     3
100
AcDbLine
 10
0.0200000000000387
 20
0.0200000000000102
 30
0.0
 11
0.0876005679064633
 21
0.0343689442811126
 31
0.0
  0
ARC
  5
405
330
3FB
100
AcDbEntity
  8
CORTE
 62
     1
100
AcDbCircle
 10
0.0
 20
0.0200000000000102
 30
0.0
 40
0.0200000000000102
100
AcDbArc
 50
270.0
 51
0.0
  0
LINE
  5
406
330
3FB
100
AcDbEntity
  8
CORTE
 62
     1
100
AcDbLine
 10
0.0
 20
0.0160000000000196
 30
0.0
 11
0.0
 21
0.0
 31
0.0
  0
LINE
  5
407
330
3FB
100
AcDbEntity
  8
COTAS
 62
     1
100
AcDbLine
 10
0.0200000000000387
 20
0.0200000000000102
 30
0.0
 11
0.0040000000000191
 21
0.0200000000000102
 31
0.0
  0
ARC
  5
408
330
3FB
100
AcDbEntity
  8
CORTE
 62
     1
100
AcDbCircle
 10
0.0
 20
0.0200000000000102
 30
0.0
 40
0.004
100
AcDbArc
 50
270.0
 51
0.0
  0
ARC
  5
409
330
3FB
100
AcDbEntity
  8
CORTE
 62
     1
100
AcDbCircle
 10
0.0676005679064247
 20
0.0343689442811126
 30
0.0
 40
0.0200000000000102
100
AcDbArc
 50
270.0
 51
0.0
  0
LINE
  5
40A
330
3FB
100
AcDbEntity
  8
COTAS
 62
     1
100
AcDbLine
 10
0.0876005679064633
 20
0.0343689442811126
 30
0.0
 11
0.0716005679064438
 21
0.0343689442811126
 31
0.0
  0
ENDBLK
  5
40B
330
3FB
100
AcDbEntity
  8
0
 62
     1
100
AcDbBlockEnd
  0
BLOCK
  5
4E1
330
4E0
100
AcDbEntity
  8
0
100
AcDbBlockBegin
  2
_Arrivo
 70
     0
 10
0.0
 20
0.0
 30
0.0
  3
_Arrivo
  1

  0
LINE
  5
4E2
330
4E0
100
AcDbEntity
  8
0
  6
ByBlock
 62
     0
370
    -2
100
AcDbLine
 10
0.025
 20
-0.0433012701891858
 30
0.0
 11
-0.15
 21
0.2598076211353328
 31
0.0
  0
LINE
  5
4E3
330
4E0
100
AcDbEntity
  8
0
  6
ByBlock
 62
     0
370
    -2
100
AcDbLine
 10
0.025
 20
0.0433012701892585
 30
0.0
 11
-0.15
 21
-0.2598076211353328
 31
0.0
  0
LINE
  5
4E4
330
4E0
100
AcDbEntity
  8
0
  6
ByBlock
 62
     0
370
    -2
100
AcDbLine
 10
-0.05
 20
0.0
 30
0.0
 11
0.05
 21
0.0
 31
0.0
  0
ENDBLK
  5
4E5
330
4E0
100
AcDbEntity
  8
0
100
AcDbBlockEnd
  0
BLOCK
  5
4E7
330
4E6
100
AcDbEntity
  8
0
100
AcDbBlockBegin
  2
_Partenza
 70
     0
 10
0.0
 20
0.0
 30
0.0
  3
_Partenza
  1

  0
LINE
  5
4E8
330
4E6
100
AcDbEntity
  8
0
  6
ByBlock
 62
     0
370
    -2
100
AcDbLine
 10
-0.05
 20
0.05
 30
0.0
 11
0.1
 21
0.05
 31
0.0
  0
LINE
  5
4E9
330
4E6
100
AcDbEntity
  8
0
  6
ByBlock
 62
     0
370
    -2
100
AcDbLine
 10
-0.05
 20
-0.05
 30
0.0
 11
0.1
 21
-0.05
 31
0.0
  0
ENDBLK
  5
4EA
330
4E6
100
AcDbEntity
  8
0
100
AcDbBlockEnd
  0
BLOCK
  5
807
330
73D
100
AcDbEntity
  8
0
 62
     3
100
AcDbBlockBegin
  2
A$C6CE44357
 70
     0
 10
0.0
 20
0.0
 30
0.0
  3
A$C6CE44357
  1

  0
LINE
  5
73E
330
73D
100
AcDbEntity
  8
Vista
 62
     3
100
AcDbLine
 10
-265.2371225605411
 20
-42.42864078547465
 30
0.0
 11
-265.1113419531143
 21
-42.4023863117474
 31
0.0
  0
LINE
  5
73F
330
73D
100
AcDbEntity
  8
Vista
 62
     4
100
AcDbLine
 10
-265.2590480951634
 20
-42.54823976658282
 30
0.0
 11
-265.2510480951634
 21
-42.54823976658282
 31
0.0
  0
LINE
  5
740
330
73D
100
AcDbEntity
  8
Vista
 62
     3
100
AcDbLine
 10
-265.2678775571128
 20
-42.55723976658283
 30
0.0
 11
-265.2164242716711
 21
-42.55723976658283
 31
0.0
  0
LINE
  5
741
330
73D
100
AcDbEntity
  8
Vista
 62
     2
100
AcDbLine
 10
-265.240902830533
 20
-42.52873976658283
 30
0.0
 11
-265.2164242716711
 21
-42.52873976658283
 31
0.0
  0
LINE
  5
742
330
73D
100
AcDbEntity
  8
Vista
 62
     2
100
AcDbLine
 10
-265.245902830533
 20
-42.53973976658282
 30
0.0
 11
-265.2164242716711
 21
-42.53973976658282
 31
0.0
  0
LINE
  5
743
330
73D
100
AcDbEntity
  8
Vista
 62
     2
100
AcDbLine
 10
-265.2411287103258
 20
-42.53147306509318
 30
0.0
 11
-265.2164242716712
 21
-42.53147306509318
 31
0.0
  0
LINE
  5
744
330
73D
100
AcDbEntity
  8
Vista
 62
     2
100
AcDbLine
 10
-265.2649809809004
 20
-42.55319036467706
 30
0.0
 11
-265.2164242716712
 21
-42.55319036467706
 31
0.0
  0
LWPOLYLINE
  5
745
330
73D
100
AcDbEntity
  8
CORTE
  6
Continuous
 62
     1
100
AcDbPolyline
 90
       30
 70
     1
 43
0.0
 10
-265.2651647001392
 20
-42.55337345319399
 42
0.2685636005234304
 10
-265.2649137067366
 20
-42.55293986846818
 10
-265.2649137067366
 20
-42.54823976658282
 10
-265.2624028305331
 20
-42.54823976658282
 42
0.4142135623730693
 10
-265.261402830533
 20
-42.54723976658282
 10
-265.261402830533
 20
-42.53973976658282
 10
-265.258902830533
 20
-42.53973976658282
 42
-0.2526773759784102
 10
-265.2565834054943
 20
-42.53823976658283
 10
-265.2512222555718
 20
-42.53823976658283
 42
-0.2526773759784102
 10
-265.2489028305331
 20
-42.53973976658282
 10
-265.245902830533
 20
-42.53973976658282
 42
0.414213562373069
 10
-265.244902830533
 20
-42.53873976658282
 10
-265.244902830533
 20
-42.53523036708408
 42
-0.3189892314182299
 10
-265.2417043063426
 20
-42.53182012245305
 42
0.356818340496206
 10
-265.240902830533
 20
-42.53084002646501
 10
-265.240902830533
 20
-42.52873976658283
 42
0.364269306410865
 10
-265.234652830533
 20
-42.52348976658284
 42
-0.3260576707120786
 10
-265.2292666879074
 20
-42.51829884552306
 42
0.3747567555282292
 10
-265.228402830533
 20
-42.51730815627538
 10
-265.228402830533
 20
-42.51473976658282
 10
-265.240902830533
 20
-42.51473976658282
 10
-265.240902830533
 20
-42.52073976658282
 10
-265.254402830533
 20
-42.53323976658283
 10
-265.264402830533
 20
-42.53323976658283
 42
0.4142135623730704
 10
-265.269402830533
 20
-42.53823976658283
 10
-265.269402830533
 20
-42.54351258119139
 10
-265.270902830533
 20
-42.54473976658282
 10
-265.270902830533
 20
-42.55723976658283
 10
-265.2678775571128
 20
-42.55723976658283
 42
0.3849291685644514
 10
-265.2673801055846
 20
-42.55679018460604
 42
-0.2416670294637286
  0
LINE
  5
746
330
73D
100
AcDbEntity
  8
CORTE
  6
RAYITA
 62
     4
100
AcDbLine
 10
-265.2649137067366
 20
-42.54823976658282
 30
0.0
 11
-265.2649137067366
 21
-42.53973976658282
 31
0.0
  0
LINE
  5
747
330
73D
100
AcDbEntity
  8
CORTE
  6
RAYITA
 62
     4
100
AcDbLine
 10
-265.2631769303866
 20
-42.5441333561959
 30
0.0
 11
-265.2631769303866
 21
-42.53973976658282
 31
0.0
  0
LINE
  5
748
330
73D
100
AcDbEntity
  8
CORTE
  6
RAYITA
 62
     4
100
AcDbLine
 10
-265.2631769303866
 20
-42.5441333561959
 30
0.0
 11
-265.2649137067366
 21
-42.5441333561959
 31
0.0
  0
LINE
  5
749
330
73D
100
AcDbEntity
  8
CORTE
  6
RAYITA
 62
     4
100
AcDbLine
 10
-265.261402830533
 20
-42.53973976658282
 30
0.0
 11
-265.2649137067366
 21
-42.53973976658282
 31
0.0
  0
LINE
  5
74A
330
73D
100
AcDbEntity
  8
Vista
 62
     3
100
AcDbLine
 10
-265.228402830533
 20
-42.51473976658282
 30
0.0
 11
-265.2164242716711
 21
-42.51473976658279
 31
0.0
  0
LINE
  5
74B
330
73D
100
AcDbEntity
  8
Vista
 62
     2
100
AcDbLine
 10
-265.2286491254761
 20
-42.51796536909266
 30
0.0
 11
-265.2164242716712
 21
-42.51796536909266
 31
0.0
  0
LINE
  5
74C
330
73D
100
AcDbEntity
  8
Vista
 62
     4
100
AcDbLine
 10
-265.2590480951634
 20
-42.53973976658282
 30
0.0
 11
-265.2590480951634
 21
-42.54823976658282
 31
0.0
  0
LINE
  5
74D
330
73D
100
AcDbEntity
  8
Vista
 62
     4
100
AcDbLine
 10
-265.2510480951634
 20
-42.53973976658282
 30
0.0
 11
-265.2510480951634
 21
-42.54823976658282
 31
0.0
  0
LINE
  5
74E
330
73D
100
AcDbEntity
  8
Vista
 62
     4
100
AcDbLine
 10
-265.2470480951634
 20
-42.53973976658282
 30
0.0
 11
-265.2470480951635
 21
-42.54823976658282
 31
0.0
  0
LINE
  5
74F
330
73D
100
AcDbEntity
  8
Vista
 62
     4
100
AcDbLine
 10
-265.2390480951634
 20
-42.53973976658282
 30
0.0
 11
-265.2390480951634
 21
-42.54823976658282
 31
0.0
  0
LINE
  5
750
330
73D
100
AcDbEntity
  8
Vista
 62
     4
100
AcDbLine
 10
-265.2350480951635
 20
-42.53973976658282
 30
0.0
 11
-265.2350480951635
 21
-42.54823976658282
 31
0.0
  0
LINE
  5
751
330
73D
100
AcDbEntity
  8
Vista
 62
     4
100
AcDbLine
 10
-265.2510480951634
 20
-42.5441333561959
 30
0.0
 11
-265.2470480951635
 21
-42.5441333561959
 31
0.0
  0
LINE
  5
752
330
73D
100
AcDbEntity
  8
Vista
 62
     4
100
AcDbLine
 10
-265.2390480951634
 20
-42.5441333561959
 30
0.0
 11
-265.2350480951635
 21
-42.5441333561959
 31
0.0
  0
LINE
  5
753
330
73D
100
AcDbEntity
  8
Vista
 62
     4
100
AcDbLine
 10
-265.2470480951635
 20
-42.54823976658282
 30
0.0
 11
-265.2390480951634
 21
-42.54823976658282
 31
0.0
  0
LINE
  5
754
330
73D
100
AcDbEntity
  8
Vista
 62
     4
100
AcDbLine
 10
-265.2350480951635
 20
-42.54823976658282
 30
0.0
 11
-265.2270480951634
 21
-42.54823976658282
 31
0.0
  0
LINE
  5
755
330
73D
100
AcDbEntity
  8
Vista
 62
     4
100
AcDbLine
 10
-265.2230480951634
 20
-42.53973976658282
 30
0.0
 11
-265.2230480951634
 21
-42.54823976658282
 31
0.0
  0
LINE
  5
756
330
73D
100
AcDbEntity
  8
Vista
 62
     4
100
AcDbLine
 10
-265.2270480951634
 20
-42.53973976658282
 30
0.0
 11
-265.2270480951634
 21
-42.54823976658282
 31
0.0
  0
LINE
  5
757
330
73D
100
AcDbEntity
  8
Vista
 62
     4
100
AcDbLine
 10
-265.2230480951634
 20
-42.54823976658282
 30
0.0
 11
-265.2164242716711
 21
-42.54823976658282
 31
0.0
  0
LINE
  5
758
330
73D
100
AcDbEntity
  8
Vista
 62
     4
100
AcDbLine
 10
-265.2270480951634
 20
-42.5441333561959
 30
0.0
 11
-265.2230480951634
 21
-42.5441333561959
 31
0.0
  0
LINE
  5
759
330
73D
100
AcDbEntity
  8
Vista
 62
     4
100
AcDbLine
 10
-265.2079942150913
 20
-42.54823976658282
 30
0.0
 11
-265.2030480951634
 21
-42.54823976658282
 31
0.0
  0
LINE
  5
75A
330
73D
100
AcDbEntity
  8
Vista
 62
     4
100
AcDbLine
 10
-265.1870480951635
 20
-42.53973976658282
 30
0.0
 11
-265.1870480951635
 21
-42.54823976658282
 31
0.0
  0
LINE
  5
75B
330
73D
100
AcDbEntity
  8
Vista
 62
     4
100
AcDbLine
 10
-265.1910480951634
 20
-42.53973976658282
 30
0.0
 11
-265.1910480951634
 21
-42.54823976658282
 31
0.0
  0
LINE
  5
75C
330
73D
100
AcDbEntity
  8
Vista
 62
     4
100
AcDbLine
 10
-265.1990480951635
 20
-42.53973976658282
 30
0.0
 11
-265.1990480951635
 21
-42.54823976658282
 31
0.0
  0
LINE
  5
75D
330
73D
100
AcDbEntity
  8
Vista
 62
     4
100
AcDbLine
 10
-265.2030480951634
 20
-42.53973976658282
 30
0.0
 11
-265.2030480951634
 21
-42.54823976658282
 31
0.0
  0
LINE
  5
75E
330
73D
100
AcDbEntity
  8
Vista
 62
     4
100
AcDbLine
 10
-265.1990480951635
 20
-42.54823976658282
 30
0.0
 11
-265.1910480951634
 21
-42.54823976658282
 31
0.0
  0
LINE
  5
75F
330
73D
100
AcDbEntity
  8
Vista
 62
     4
100
AcDbLine
 10
-265.2030480951634
 20
-42.5441333561959
 30
0.0
 11
-265.1990480951635
 21
-42.5441333561959
 31
0.0
  0
LINE
  5
760
330
73D
100
AcDbEntity
  8
Vista
 62
     4
100
AcDbLine
 10
-265.1910480951634
 20
-42.5441333561959
 30
0.0
 11
-265.1870480951635
 21
-42.5441333561959
 31
0.0
  0
LINE
  5
761
330
73D
100
AcDbEntity
  8
Vista
 62
     4
100
AcDbLine
 10
-265.1870480951635
 20
-42.54823976658282
 30
0.0
 11
-265.1790480951634
 21
-42.54823976658282
 31
0.0
  0
LINE
  5
762
330
73D
100
AcDbEntity
  8
Vista
 62
     4
100
AcDbLine
 10
-265.1630480951634
 20
-42.53973976658282
 30
0.0
 11
-265.1630480951634
 21
-42.54823976658282
 31
0.0
  0
LINE
  5
763
330
73D
100
AcDbEntity
  8
Vista
 62
     4
100
AcDbLine
 10
-265.1670480951634
 20
-42.53973976658282
 30
0.0
 11
-265.1670480951634
 21
-42.54823976658282
 31
0.0
  0
LINE
  5
764
330
73D
100
AcDbEntity
  8
Vista
 62
     4
100
AcDbLine
 10
-265.1750480951634
 20
-42.53973976658282
 30
0.0
 11
-265.1750480951634
 21
-42.54823976658282
 31
0.0
  0
LINE
  5
765
330
73D
100
AcDbEntity
  8
Vista
 62
     4
100
AcDbLine
 10
-265.1790480951634
 20
-42.53973976658282
 30
0.0
 11
-265.1790480951634
 21
-42.54823976658282
 31
0.0
  0
LINE
  5
766
330
73D
100
AcDbEntity
  8
Vista
 62
     4
100
AcDbLine
 10
-265.1750480951634
 20
-42.54823976658282
 30
0.0
 11
-265.1670480951634
 21
-42.54823976658282
 31
0.0
  0
LINE
  5
767
330
73D
100
AcDbEntity
  8
Vista
 62
     4
100
AcDbLine
 10
-265.1790480951634
 20
-42.5441333561959
 30
0.0
 11
-265.1750480951634
 21
-42.5441333561959
 31
0.0
  0
LINE
  5
768
330
73D
100
AcDbEntity
  8
Vista
 62
     4
100
AcDbLine
 10
-265.1670480951634
 20
-42.5441333561959
 30
0.0
 11
-265.1630480951634
 21
-42.5441333561959
 31
0.0
  0
LINE
  5
769
330
73D
100
AcDbEntity
  8
Vista
 62
     4
100
AcDbLine
 10
-265.1630480951634
 20
-42.54823976658282
 30
0.0
 11
-265.1550480951634
 21
-42.54823976658282
 31
0.0
  0
LINE
  5
76A
330
73D
100
AcDbEntity
  8
Vista
 62
     4
100
AcDbLine
 10
-265.1390480951635
 20
-42.53973976658282
 30
0.0
 11
-265.1390480951635
 21
-42.54823976658282
 31
0.0
  0
LINE
  5
76B
330
73D
100
AcDbEntity
  8
Vista
 62
     4
100
AcDbLine
 10
-265.1430480951634
 20
-42.53973976658282
 30
0.0
 11
-265.1430480951634
 21
-42.54823976658282
 31
0.0
  0
LINE
  5
76C
330
73D
100
AcDbEntity
  8
Vista
 62
     4
100
AcDbLine
 10
-265.1510480951634
 20
-42.53973976658282
 30
0.0
 11
-265.1510480951634
 21
-42.54823976658282
 31
0.0
  0
LINE
  5
76D
330
73D
100
AcDbEntity
  8
Vista
 62
     4
100
AcDbLine
 10
-265.1550480951634
 20
-42.53973976658282
 30
0.0
 11
-265.1550480951634
 21
-42.54823976658282
 31
0.0
  0
LINE
  5
76E
330
73D
100
AcDbEntity
  8
Vista
 62
     4
100
AcDbLine
 10
-265.1510480951634
 20
-42.54823976658282
 30
0.0
 11
-265.1430480951634
 21
-42.54823976658282
 31
0.0
  0
LINE
  5
76F
330
73D
100
AcDbEntity
  8
Vista
 62
     4
100
AcDbLine
 10
-265.1550480951634
 20
-42.5441333561959
 30
0.0
 11
-265.1510480951634
 21
-42.5441333561959
 31
0.0
  0
LINE
  5
770
330
73D
100
AcDbEntity
  8
Vista
 62
     4
100
AcDbLine
 10
-265.1430480951634
 20
-42.5441333561959
 30
0.0
 11
-265.1390480951635
 21
-42.5441333561959
 31
0.0
  0
LINE
  5
771
330
73D
100
AcDbEntity
  8
Vista
 62
     4
100
AcDbLine
 10
-265.1390480951635
 20
-42.54823976658282
 30
0.0
 11
-265.1310480951634
 21
-42.54823976658282
 31
0.0
  0
LINE
  5
772
330
73D
100
AcDbEntity
  8
Vista
 62
     4
100
AcDbLine
 10
-265.1150480951634
 20
-42.53973976658282
 30
0.0
 11
-265.1150480951634
 21
-42.54823976658282
 31
0.0
  0
LINE
  5
773
330
73D
100
AcDbEntity
  8
Vista
 62
     4
100
AcDbLine
 10
-265.1190480951634
 20
-42.53973976658282
 30
0.0
 11
-265.1190480951634
 21
-42.54823976658282
 31
0.0
  0
LINE
  5
774
330
73D
100
AcDbEntity
  8
Vista
 62
     4
100
AcDbLine
 10
-265.1270480951634
 20
-42.53973976658282
 30
0.0
 11
-265.1270480951634
 21
-42.54823976658282
 31
0.0
  0
LINE
  5
775
330
73D
100
AcDbEntity
  8
Vista
 62
     4
100
AcDbLine
 10
-265.1310480951634
 20
-42.53973976658282
 30
0.0
 11
-265.1310480951634
 21
-42.54823976658282
 31
0.0
  0
LINE
  5
776
330
73D
100
AcDbEntity
  8
Vista
 62
     4
100
AcDbLine
 10
-265.1270480951634
 20
-42.54823976658282
 30
0.0
 11
-265.1190480951634
 21
-42.54823976658282
 31
0.0
  0
LINE
  5
777
330
73D
100
AcDbEntity
  8
Vista
 62
     4
100
AcDbLine
 10
-265.1310480951634
 20
-42.5441333561959
 30
0.0
 11
-265.1270480951634
 21
-42.5441333561959
 31
0.0
  0
LINE
  5
778
330
73D
100
AcDbEntity
  8
Vista
 62
     4
100
AcDbLine
 10
-265.1190480951634
 20
-42.5441333561959
 30
0.0
 11
-265.1150480951634
 21
-42.5441333561959
 31
0.0
  0
LINE
  5
779
330
73D
100
AcDbEntity
  8
Vista
 62
     4
100
AcDbLine
 10
-265.1150480951634
 20
-42.54823976658282
 30
0.0
 11
-265.1070480951634
 21
-42.54823976658282
 31
0.0
  0
LINE
  5
77A
330
73D
100
AcDbEntity
  8
Vista
 62
     4
100
AcDbLine
 10
-265.1030480951634
 20
-42.53973976658282
 30
0.0
 11
-265.1030480951634
 21
-42.54823976658282
 31
0.0
  0
LINE
  5
77B
330
73D
100
AcDbEntity
  8
Vista
 62
     4
100
AcDbLine
 10
-265.1070480951634
 20
-42.53973976658282
 30
0.0
 11
-265.1070480951634
 21
-42.54823976658282
 31
0.0
  0
LINE
  5
77C
330
73D
100
AcDbEntity
  8
Vista
 62
     4
100
AcDbLine
 10
-265.1030480951634
 20
-42.54823976658282
 30
0.0
 11
-265.0999942150913
 21
-42.54823976658285
 31
0.0
  0
LINE
  5
77D
330
73D
100
AcDbEntity
  8
Vista
 62
     4
100
AcDbLine
 10
-265.1070480951634
 20
-42.5441333561959
 30
0.0
 11
-265.1030480951634
 21
-42.5441333561959
 31
0.0
  0
LINE
  5
77E
330
73D
100
AcDbEntity
  8
CORTE
  6
RAYITA
 62
     4
100
AcDbLine
 10
-265.2611334367446
 20
-42.46214078547466
 30
0.0
 11
-265.2611334367446
 21
-42.45803437508773
 31
0.0
  0
LINE
  5
77F
330
73D
100
AcDbEntity
  8
CORTE
  6
RAYITA
 62
     4
100
AcDbLine
 10
-265.2576225605411
 20
-42.45364078547466
 30
0.0
 11
-265.2593966603947
 21
-42.45364078547466
 31
0.0
  0
LINE
  5
780
330
73D
100
AcDbEntity
  8
CORTE
  6
RAYITA
 62
     4
100
AcDbLine
 10
-265.2593966603947
 20
-42.45803437508773
 30
0.0
 11
-265.2611334367446
 21
-42.45803437508773
 31
0.0
  0
LINE
  5
781
330
73D
100
AcDbEntity
  8
CORTE
  6
RAYITA
 62
     4
100
AcDbLine
 10
-265.2593966603947
 20
-42.45803437508773
 30
0.0
 11
-265.2593966603947
 21
-42.45364078547466
 31
0.0
  0
LINE
  5
782
330
73D
100
AcDbEntity
  8
Vista
 62
     2
100
AcDbLine
 10
-265.2246225605411
 20
-42.42864078547465
 30
0.0
 11
-265.0988419531143
 21
-42.4023863117474
 31
0.0
  0
LINE
  5
783
330
73D
100
AcDbEntity
  8
Vista
 62
     2
100
AcDbLine
 10
-265.2253196169622
 20
-42.43216218366036
 30
0.0
 11
-265.1005238724924
 21
-42.40611328262953
 31
0.0
  0
LINE
  5
784
330
73D
100
AcDbEntity
  8
Vista
 62
     2
100
AcDbLine
 10
-265.2357843481861
 20
-42.4424980657533
 30
0.0
 11
-265.1113419531143
 21
-42.41652292015008
 31
0.0
  0
LINE
  5
785
330
73D
100
AcDbEntity
  8
Vista
 62
     2
100
AcDbLine
 10
-265.2377407371607
 20
-42.44566528066572
 30
0.0
 11
-265.1119601297339
 21
-42.41941080693844
 31
0.0
  0
LINE
  5
786
330
73D
100
AcDbEntity
  8
Vista
 62
     2
100
AcDbLine
 10
-265.2616957494533
 20
-42.44725731687553
 30
0.0
 11
-265.2475622982738
 21
-42.44430720930124
 31
0.0
  0
LINE
  5
787
330
73D
100
AcDbEntity
  8
Vista
 62
     2
100
AcDbLine
 10
-265.2419054000998
 20
-42.45361692139899
 30
0.0
 11
-265.1318419531143
 21
-42.43064312650061
 31
0.0
  0
LINE
  5
788
330
73D
100
AcDbEntity
  8
Vista
 62
     4
100
AcDbLine
 10
-265.2551225605411
 20
-42.45364078547466
 30
0.0
 11
-265.2479363219937
 21
-42.45214078547464
 31
0.0
  0
LINE
  5
789
330
73D
100
AcDbEntity
  8
Vista
 62
     4
100
AcDbLine
 10
-265.2543974497464
 20
-42.4613609643679
 30
0.0
 11
-265.2463974497463
 21
-42.4596911060796
 31
0.0
  0
LINE
  5
78A
330
73D
100
AcDbEntity
  8
Vista
 62
     4
100
AcDbLine
 10
-265.2593966603947
 20
-42.45803437508773
 30
0.0
 11
-265.2558974497463
 21
-42.45730397684979
 31
0.0
  0
LINE
  5
78B
330
73D
100
AcDbEntity
  8
Vista
 62
     2
100
AcDbLine
 10
-265.2611968867646
 20
-42.46708465797961
 30
0.0
 11
-265.1354162793379
 21
-42.44083018425236
 31
0.0
  0
LINE
  5
78C
330
73D
100
AcDbEntity
  8
Vista
 62
     3
100
AcDbLine
 10
-265.264002248065
 20
-42.47113166995989
 30
0.0
 11
-265.1382216406382
 21
-42.44487719623264
 31
0.0
  0
ARC
  5
78D
330
73D
100
AcDbEntity
  8
CORTE
  6
Continuous
 62
     1
100
AcDbCircle
 10
-265.2616334367446
 20
-42.46684088735999
 30
0.0
 40
0.0004999999999999
100
AcDbArc
 50
299.8686408419573
 51
359.9999999999935
  0
LINE
  5
78E
330
73D
100
AcDbEntity
  8
CORTE
  6
Continuous
 62
     1
100
AcDbLine
 10
-265.2611334367446
 20
-42.46684088735999
 30
0.0
 11
-265.2611334367446
 21
-42.46214078547466
 31
0.0
  0
LINE
  5
78F
330
73D
100
AcDbEntity
  8
CORTE
  6
Continuous
 62
     1
100
AcDbLine
 10
-265.2576225605411
 20
-42.45364078547466
 30
0.0
 11
-265.2551225605411
 21
-42.45364078547466
 31
0.0
  0
ARC
  5
790
330
73D
100
AcDbEntity
  8
CORTE
  6
Continuous
 62
     1
100
AcDbCircle
 10
-265.2525734960763
 20
-42.45503911726784
 30
0.0
 40
0.0029074149083751
100
AcDbArc
 50
94.53017172282182
 51
151.2522954919238
  0
LINE
  5
791
330
73D
100
AcDbEntity
  8
CORTE
  6
Continuous
 62
     1
100
AcDbLine
 10
-265.2528031355024
 20
-42.45214078547464
 30
0.0
 11
-265.2474419855798
 21
-42.45214078547464
 31
0.0
  0
ARC
  5
792
330
73D
100
AcDbEntity
  8
CORTE
  6
Continuous
 62
     1
100
AcDbCircle
 10
-265.2476716250059
 20
-42.45503911726784
 30
0.0
 40
0.0029074149083745
100
AcDbArc
 50
28.74770450807759
 51
85.46982827718144
  0
LINE
  5
793
330
73D
100
AcDbEntity
  8
CORTE
  6
Continuous
 62
     1
100
AcDbLine
 10
-265.245122560541
 20
-42.45364078547466
 30
0.0
 11
-265.2421225605411
 21
-42.45364078547466
 31
0.0
  0
ARC
  5
794
330
73D
100
AcDbEntity
  8
CORTE
  6
Continuous
 62
     1
100
AcDbCircle
 10
-265.2421225605411
 20
-42.45264078547466
 30
0.0
 40
0.001
100
AcDbArc
 50
270.0
 51
359.9999999999951
  0
LINE
  5
795
330
73D
100
AcDbEntity
  8
CORTE
  6
Continuous
 62
     1
100
AcDbLine
 10
-265.2411225605411
 20
-42.45264078547466
 30
0.0
 11
-265.2411225605411
 21
-42.44913138597588
 31
0.0
  0
ARC
  5
796
330
73D
100
AcDbEntity
  8
CORTE
  6
Continuous
 62
     1
100
AcDbCircle
 10
-265.2371225605411
 20
-42.44967795498879
 30
0.0
 40
0.0040371695141331
100
AcDbArc
 50
101.4506709648844
 51
172.21916242068
  0
ARC
  5
797
330
73D
100
AcDbEntity
  8
CORTE
  6
Continuous
 62
     1
100
AcDbCircle
 10
-265.238122560541
 20
-42.44474104535682
 30
0.0
 40
0.0010000000000001
100
AcDbArc
 50
281.4506709648813
 51
359.9999999999935
  0
LINE
  5
798
330
73D
100
AcDbEntity
  8
CORTE
  6
Continuous
 62
     1
100
AcDbLine
 10
-265.2371225605411
 20
-42.44474104535682
 30
0.0
 11
-265.2371225605411
 21
-42.44264078547463
 31
0.0
  0
ARC
  5
799
330
73D
100
AcDbEntity
  8
CORTE
  6
Continuous
 62
     1
100
AcDbCircle
 10
-265.2371225605411
 20
-42.4362955473794
 30
0.0
 40
0.0063452380952395
100
AcDbArc
 50
270.0
 51
350.0605185437708
  0
ARC
  5
79A
330
73D
100
AcDbEntity
  8
CORTE
  6
Continuous
 62
     1
100
AcDbCircle
 10
-265.224622560541
 20
-42.43848602356989
 30
0.0
 40
0.0063452380952396
100
AcDbArc
 50
97.82469757354439
 51
170.060518543773
  0
ARC
  5
79B
330
73D
100
AcDbEntity
  8
CORTE
  6
Continuous
 62
     1
100
AcDbCircle
 10
-265.2256225605411
 20
-42.43120917516718
 30
0.0
 40
0.001
100
AcDbArc
 50
277.8246975735409
 51
359.9999999999984
  0
LINE
  5
79C
330
73D
100
AcDbEntity
  8
CORTE
  6
Continuous
 62
     1
100
AcDbLine
 10
-265.2246225605411
 20
-42.43120917516718
 30
0.0
 11
-265.2246225605411
 21
-42.42864078547465
 31
0.0
  0
LINE
  5
79D
330
73D
100
AcDbEntity
  8
CORTE
  6
Continuous
 62
     1
100
AcDbLine
 10
-265.2246225605411
 20
-42.42864078547465
 30
0.0
 11
-265.2371225605411
 21
-42.42864078547465
 31
0.0
  0
LINE
  5
79E
330
73D
100
AcDbEntity
  8
CORTE
  6
Continuous
 62
     1
100
AcDbLine
 10
-265.2371225605411
 20
-42.42864078547465
 30
0.0
 11
-265.2371225605411
 21
-42.43464078547465
 31
0.0
  0
LINE
  5
79F
330
73D
100
AcDbEntity
  8
CORTE
  6
Continuous
 62
     1
100
AcDbLine
 10
-265.2371225605411
 20
-42.43464078547465
 30
0.0
 11
-265.2506225605411
 21
-42.44714078547464
 31
0.0
  0
LINE
  5
7A0
330
73D
100
AcDbEntity
  8
CORTE
  6
Continuous
 62
     1
100
AcDbLine
 10
-265.2506225605411
 20
-42.44714078547464
 30
0.0
 11
-265.2606225605411
 21
-42.44714078547464
 31
0.0
  0
ARC
  5
7A1
330
73D
100
AcDbEntity
  8
CORTE
  6
Continuous
 62
     1
100
AcDbCircle
 10
-265.2606225605411
 20
-42.45214078547464
 30
0.0
 40
0.005
100
AcDbArc
 50
90.00000000000325
 51
179.9999999999967
  0
LINE
  5
7A2
330
73D
100
AcDbEntity
  8
CORTE
  6
Continuous
 62
     1
100
AcDbLine
 10
-265.2656225605411
 20
-42.45214078547464
 30
0.0
 11
-265.2656225605411
 21
-42.45741360008323
 31
0.0
  0
LINE
  5
7A3
330
73D
100
AcDbEntity
  8
CORTE
  6
Continuous
 62
     1
100
AcDbLine
 10
-265.2656225605411
 20
-42.45741360008323
 30
0.0
 11
-265.2671225605411
 21
-42.45864078547465
 31
0.0
  0
LINE
  5
7A4
330
73D
100
AcDbEntity
  8
CORTE
  6
Continuous
 62
     1
100
AcDbLine
 10
-265.2671225605411
 20
-42.45864078547465
 30
0.0
 11
-265.2671225605411
 21
-42.47114078547464
 31
0.0
  0
LINE
  5
7A5
330
73D
100
AcDbEntity
  8
CORTE
  6
Continuous
 62
     1
100
AcDbLine
 10
-265.2671225605411
 20
-42.47114078547464
 30
0.0
 11
-265.2640972871209
 21
-42.47114078547464
 31
0.0
  0
ARC
  5
7A6
330
73D
100
AcDbEntity
  8
CORTE
  6
Continuous
 62
     1
100
AcDbCircle
 10
-265.2640972871209
 20
-42.47064078547466
 30
0.0
 40
0.0005
100
AcDbArc
 50
270.0
 51
354.2126842324164
  0
ARC
  5
7A7
330
73D
100
AcDbEntity
  8
CORTE
  6
Continuous
 62
     1
100
AcDbCircle
 10
-265.2591640162722
 20
-42.47114078547464
 30
0.0
 40
0.004458544268822
100
AcDbArc
 50
119.8686408419609
 51
174.2126842324128
  0
LINE
  5
7A8
330
73D
100
AcDbEntity
  8
CORTE
  6
Continuous
 62
     4
100
AcDbLine
 10
-265.2573974497463
 20
-42.4613609643679
 30
0.0
 11
-265.2573974497463
 21
-42.45761707527883
 31
0.0
  0
LINE
  5
7A9
330
73D
100
AcDbEntity
  8
Vista
 62
     4
100
AcDbLine
 10
-265.2611334367446
 20
-42.46214078547466
 30
0.0
 11
-265.2573974497463
 21
-42.4613609643679
 31
0.0
  0
LINE
  5
7AA
330
73D
100
AcDbEntity
  8
CORTE
  6
Continuous
 62
     1
100
AcDbLine
 10
-265.2593974497464
 20
-42.45803437508773
 30
0.0
 11
-265.2593974497464
 21
-42.45359456852866
 31
0.0
  0
LINE
  5
7AB
330
73D
100
AcDbEntity
  8
Vista
 62
     4
100
AcDbLine
 10
-265.2573974497463
 20
-42.4613609643679
 30
0.0
 11
-265.2543974497464
 21
-42.4613609643679
 31
0.0
  0
LINE
  5
7AC
330
73D
100
AcDbEntity
  8
Vista
 62
     4
100
AcDbLine
 10
-265.2463974497463
 20
-42.45532102013244
 30
0.0
 11
-265.2438974497463
 21
-42.45479918941735
 31
0.0
  0
LINE
  5
7AD
330
73D
100
AcDbEntity
  8
CORTE
  6
Continuous
 62
     4
100
AcDbLine
 10
-265.2543974497464
 20
-42.4613609643679
 30
0.0
 11
-265.2543974497464
 21
-42.45348943144084
 31
0.0
  0
LINE
  5
7AE
330
73D
100
AcDbEntity
  8
CORTE
  6
Continuous
 62
     4
100
AcDbLine
 10
-265.2558974497463
 20
-42.45730397684979
 30
0.0
 11
-265.2558974497463
 21
-42.45364078547466
 31
0.0
  0
LINE
  5
7AF
330
73D
100
AcDbEntity
  8
CORTE
  6
Continuous
 62
     4
100
AcDbLine
 10
-265.2463974497463
 20
-42.4596911060796
 30
0.0
 11
-265.2463974497463
 21
-42.45242577862588
 31
0.0
  0
LINE
  5
7B0
330
73D
100
AcDbEntity
  8
Vista
 62
     4
100
AcDbLine
 10
-265.2463974497463
 20
-42.45906490922148
 30
0.0
 11
-265.2453974497464
 21
-42.45885617693547
 31
0.0
  0
LINE
  5
7B1
330
73D
100
AcDbEntity
  8
CORTE
  6
Continuous
 62
     4
100
AcDbLine
 10
-265.2423974497464
 20
-42.45885617693547
 30
0.0
 11
-265.2423974497464
 21
-42.45364078547466
 31
0.0
  0
LINE
  5
7B2
330
73D
100
AcDbEntity
  8
CORTE
  6
Continuous
 62
     4
100
AcDbLine
 10
-265.2453974497464
 20
-42.45885617693547
 30
0.0
 11
-265.2453974497464
 21
-42.4551122878464
 31
0.0
  0
LINE
  5
7B3
330
73D
100
AcDbEntity
  8
CORTE
  6
Continuous
 62
     4
100
AcDbLine
 10
-265.2343974497463
 20
-42.45718631864717
 30
0.0
 11
-265.2343974497463
 21
-42.45204976975823
 31
0.0
  0
LINE
  5
7B4
330
73D
100
AcDbEntity
  8
Vista
 62
     4
100
AcDbLine
 10
-265.2423974497464
 20
-42.45885617693547
 30
0.0
 11
-265.2453974497464
 21
-42.45885617693547
 31
0.0
  0
LINE
  5
7B5
330
73D
100
AcDbEntity
  8
CORTE
  6
Continuous
 62
     4
100
AcDbLine
 10
-265.2438974497463
 20
-42.45479918941735
 30
0.0
 11
-265.2438974497463
 21
-42.45364078547466
 31
0.0
  0
LINE
  5
7B6
330
73D
100
AcDbEntity
  8
Vista
 62
     4
100
AcDbLine
 10
-265.2423974497464
 20
-42.45885617693547
 30
0.0
 11
-265.2343974497463
 21
-42.45718631864717
 31
0.0
  0
LINE
  5
7B7
330
73D
100
AcDbEntity
  8
CORTE
  6
Continuous
 62
     4
100
AcDbLine
 10
-265.2333974497464
 20
-42.45635698981327
 30
0.0
 11
-265.2333974497464
 21
-42.45261310072421
 31
0.0
  0
LINE
  5
7B8
330
73D
100
AcDbEntity
  8
CORTE
  6
Continuous
 62
     4
100
AcDbLine
 10
-265.2303974497463
 20
-42.45635698981327
 30
0.0
 11
-265.2303974497463
 21
-42.45121484061409
 31
0.0
  0
LINE
  5
7B9
330
73D
100
AcDbEntity
  8
Vista
 62
     4
100
AcDbLine
 10
-265.2303974497463
 20
-42.45635698981327
 30
0.0
 11
-265.2223974497463
 21
-42.45468713152497
 31
0.0
  0
LINE
  5
7BA
330
73D
100
AcDbEntity
  8
Vista
 62
     4
100
AcDbLine
 10
-265.2303974497463
 20
-42.45635698981327
 30
0.0
 11
-265.2333974497464
 21
-42.45635698981327
 31
0.0
  0
LINE
  5
7BB
330
73D
100
AcDbEntity
  8
Vista
 62
     4
100
AcDbLine
 10
-265.2343974497463
 20
-42.45656572209931
 30
0.0
 11
-265.2333974497464
 21
-42.45635698981327
 31
0.0
  0
LINE
  5
7BC
330
73D
100
AcDbEntity
  8
Vista
 62
     4
100
AcDbLine
 10
-265.2343974497463
 20
-42.45282183301024
 30
0.0
 11
-265.2318974497463
 21
-42.45230000229516
 31
0.0
  0
LINE
  5
7BD
330
73D
100
AcDbEntity
  8
CORTE
  6
Continuous
 62
     4
100
AcDbLine
 10
-265.2318974497463
 20
-42.45230000229516
 30
0.0
 11
-265.2318974497463
 21
-42.45152793904314
 31
0.0
  0
LINE
  5
7BE
330
73D
100
AcDbEntity
  8
CORTE
  6
Continuous
 62
     4
100
AcDbLine
 10
-265.2223974497463
 20
-42.45468713152497
 30
0.0
 11
-265.2223974497463
 21
-42.44955058263606
 31
0.0
  0
LINE
  5
7BF
330
73D
100
AcDbEntity
  8
Vista
 62
     4
100
AcDbLine
 10
-265.2183974497464
 20
-42.45381967473214
 30
0.0
 11
-265.2103974497463
 21
-42.45214981644385
 31
0.0
  0
LINE
  5
7C0
330
73D
100
AcDbEntity
  8
Vista
 62
     4
100
AcDbLine
 10
-265.2183974497464
 20
-42.45381967473214
 30
0.0
 11
-265.2213974497463
 21
-42.45381967473214
 31
0.0
  0
LINE
  5
7C1
330
73D
100
AcDbEntity
  8
CORTE
  6
Continuous
 62
     4
100
AcDbLine
 10
-265.2198974497463
 20
-42.44976268721403
 30
0.0
 11
-265.2198974497463
 21
-42.44902315161072
 31
0.0
  0
LINE
  5
7C2
330
73D
100
AcDbEntity
  8
Vista
 62
     4
100
AcDbLine
 10
-265.2223974497463
 20
-42.45028451792911
 30
0.0
 11
-265.2198974497463
 21
-42.44976268721403
 31
0.0
  0
LINE
  5
7C3
330
73D
100
AcDbEntity
  8
Vista
 62
     4
100
AcDbLine
 10
-265.2223974497463
 20
-42.45402840701818
 30
0.0
 11
-265.2213974497463
 21
-42.45381967473214
 31
0.0
  0
LINE
  5
7C4
330
73D
100
AcDbEntity
  8
CORTE
  6
Continuous
 62
     4
100
AcDbLine
 10
-265.2213974497463
 20
-42.45381967473214
 30
0.0
 11
-265.2213974497463
 21
-42.45007578564307
 31
0.0
  0
LINE
  5
7C5
330
73D
100
AcDbEntity
  8
CORTE
  6
Continuous
 62
     4
100
AcDbLine
 10
-265.2183974497464
 20
-42.45381967473214
 30
0.0
 11
-265.2183974497464
 21
-42.44867752553297
 31
0.0
  0
LINE
  5
7C6
330
73D
100
AcDbEntity
  8
CORTE
  6
Continuous
 62
     4
100
AcDbLine
 10
-265.2103974497463
 20
-42.45214981644385
 30
0.0
 11
-265.2103974497463
 21
-42.44704019489337
 31
0.0
  0
LINE
  5
7C7
330
73D
100
AcDbEntity
  8
Vista
 62
     4
100
AcDbLine
 10
-265.2063974497464
 20
-42.45136478851414
 30
0.0
 11
-265.1983974497463
 21
-42.44969493022584
 31
0.0
  0
LINE
  5
7C8
330
73D
100
AcDbEntity
  8
Vista
 62
     4
100
AcDbLine
 10
-265.2063974497464
 20
-42.45136478851414
 30
0.0
 11
-265.2093974497463
 21
-42.45136478851414
 31
0.0
  0
LINE
  5
7C9
330
73D
100
AcDbEntity
  8
CORTE
  6
Continuous
 62
     4
100
AcDbLine
 10
-265.2078974497463
 20
-42.44730780099603
 30
0.0
 11
-265.2078974497463
 21
-42.44653573774401
 31
0.0
  0
LINE
  5
7CA
330
73D
100
AcDbEntity
  8
Vista
 62
     4
100
AcDbLine
 10
-265.2103974497463
 20
-42.44782963171111
 30
0.0
 11
-265.2078974497463
 21
-42.44730780099603
 31
0.0
  0
LINE
  5
7CB
330
73D
100
AcDbEntity
  8
Vista
 62
     4
100
AcDbLine
 10
-265.2103974497463
 20
-42.45157352080018
 30
0.0
 11
-265.2093974497463
 21
-42.45136478851414
 31
0.0
  0
LINE
  5
7CC
330
73D
100
AcDbEntity
  8
CORTE
  6
Continuous
 62
     4
100
AcDbLine
 10
-265.2093974497463
 20
-42.45136478851414
 30
0.0
 11
-265.2093974497463
 21
-42.44762089942507
 31
0.0
  0
LINE
  5
7CD
330
73D
100
AcDbEntity
  8
CORTE
  6
Continuous
 62
     4
100
AcDbLine
 10
-265.2063974497464
 20
-42.45136478851414
 30
0.0
 11
-265.2063974497464
 21
-42.44622263931496
 31
0.0
  0
LINE
  5
7CE
330
73D
100
AcDbEntity
  8
CORTE
  6
Continuous
 62
     4
100
AcDbLine
 10
-265.1983974497463
 20
-42.44969493022584
 30
0.0
 11
-265.1983974497463
 21
-42.44455838133693
 31
0.0
  0
LINE
  5
7CF
330
73D
100
AcDbEntity
  8
Vista
 62
     4
100
AcDbLine
 10
-265.1943974497464
 20
-42.44883783223379
 30
0.0
 11
-265.1863974497463
 21
-42.44716797394549
 31
0.0
  0
LINE
  5
7D0
330
73D
100
AcDbEntity
  8
Vista
 62
     4
100
AcDbLine
 10
-265.1943974497464
 20
-42.44883783223379
 30
0.0
 11
-265.1973974497463
 21
-42.44883783223379
 31
0.0
  0
LINE
  5
7D1
330
73D
100
AcDbEntity
  8
CORTE
  6
Continuous
 62
     4
100
AcDbLine
 10
-265.1958974497463
 20
-42.44478084471568
 30
0.0
 11
-265.1958974497463
 21
-42.44400878146369
 31
0.0
  0
LINE
  5
7D2
330
73D
100
AcDbEntity
  8
Vista
 62
     4
100
AcDbLine
 10
-265.1983974497463
 20
-42.44530267543076
 30
0.0
 11
-265.1958974497463
 21
-42.44478084471568
 31
0.0
  0
LINE
  5
7D3
330
73D
100
AcDbEntity
  8
Vista
 62
     4
100
AcDbLine
 10
-265.1983974497463
 20
-42.44904656451983
 30
0.0
 11
-265.1973974497463
 21
-42.44883783223379
 31
0.0
  0
LINE
  5
7D4
330
73D
100
AcDbEntity
  8
CORTE
  6
Continuous
 62
     4
100
AcDbLine
 10
-265.1973974497463
 20
-42.44883783223379
 30
0.0
 11
-265.1973974497463
 21
-42.44509394314476
 31
0.0
  0
LINE
  5
7D5
330
73D
100
AcDbEntity
  8
CORTE
  6
Continuous
 62
     4
100
AcDbLine
 10
-265.1943974497464
 20
-42.44883783223379
 30
0.0
 11
-265.1943974497464
 21
-42.44369568303464
 31
0.0
  0
LINE
  5
7D6
330
73D
100
AcDbEntity
  8
CORTE
  6
Continuous
 62
     4
100
AcDbLine
 10
-265.1838974497463
 20
-42.44224352963455
 30
0.0
 11
-265.1838974497463
 21
-42.44150399403126
 31
0.0
  0
LINE
  5
7D7
330
73D
100
AcDbEntity
  8
CORTE
  6
Continuous
 62
     4
100
AcDbLine
 10
-265.1823974497464
 20
-42.44630051715266
 30
0.0
 11
-265.1823974497464
 21
-42.44115836795351
 31
0.0
  0
LINE
  5
7D8
330
73D
100
AcDbEntity
  8
Vista
 62
     4
100
AcDbLine
 10
-265.1823974497464
 20
-42.44630051715266
 30
0.0
 11
-265.1853974497464
 21
-42.44630051715266
 31
0.0
  0
LINE
  5
7D9
330
73D
100
AcDbEntity
  8
CORTE
  6
Continuous
 62
     4
100
AcDbLine
 10
-265.1853974497464
 20
-42.44630051715266
 30
0.0
 11
-265.1853974497464
 21
-42.44255662806362
 31
0.0
  0
LINE
  5
7DA
330
73D
100
AcDbEntity
  8
Vista
 62
     4
100
AcDbLine
 10
-265.1863974497463
 20
-42.4465092494387
 30
0.0
 11
-265.1853974497464
 21
-42.44630051715266
 31
0.0
  0
LINE
  5
7DB
330
73D
100
AcDbEntity
  8
Vista
 62
     4
100
AcDbLine
 10
-265.1863974497463
 20
-42.44276536034966
 30
0.0
 11
-265.1838974497463
 21
-42.44224352963455
 31
0.0
  0
LINE
  5
7DC
330
73D
100
AcDbEntity
  8
CORTE
  6
Continuous
 62
     4
100
AcDbLine
 10
-265.1863974497463
 20
-42.44716797394549
 30
0.0
 11
-265.1863974497463
 21
-42.44203142505658
 31
0.0
  0
LINE
  5
7DD
330
73D
100
AcDbEntity
  8
Vista
 62
     4
100
AcDbLine
 10
-265.1703974497463
 20
-42.44384563093466
 30
0.0
 11
-265.1623974497463
 21
-42.44217577264636
 31
0.0
  0
LINE
  5
7DE
330
73D
100
AcDbEntity
  8
Vista
 62
     4
100
AcDbLine
 10
-265.1823974497464
 20
-42.44630051715266
 30
0.0
 11
-265.1743974497463
 21
-42.44463065886439
 31
0.0
  0
LINE
  5
7DF
330
73D
100
AcDbEntity
  8
CORTE
  6
Continuous
 62
     4
100
AcDbLine
 10
-265.1743974497463
 20
-42.44463065886439
 30
0.0
 11
-265.1743974497463
 21
-42.43952103731389
 31
0.0
  0
LINE
  5
7E0
330
73D
100
AcDbEntity
  8
CORTE
  6
Continuous
 62
     4
100
AcDbLine
 10
-265.1733974497464
 20
-42.44384563093466
 30
0.0
 11
-265.1733974497464
 21
-42.44010174184562
 31
0.0
  0
LINE
  5
7E1
330
73D
100
AcDbEntity
  8
CORTE
  6
Continuous
 62
     4
100
AcDbLine
 10
-265.1703974497463
 20
-42.44384563093466
 30
0.0
 11
-265.1703974497463
 21
-42.43870348173551
 31
0.0
  0
LINE
  5
7E2
330
73D
100
AcDbEntity
  8
Vista
 62
     4
100
AcDbLine
 10
-265.1703974497463
 20
-42.44384563093466
 30
0.0
 11
-265.1733974497464
 21
-42.44384563093466
 31
0.0
  0
LINE
  5
7E3
330
73D
100
AcDbEntity
  8
Vista
 62
     4
100
AcDbLine
 10
-265.1743974497463
 20
-42.4440543632207
 30
0.0
 11
-265.1733974497464
 21
-42.44384563093466
 31
0.0
  0
LINE
  5
7E4
330
73D
100
AcDbEntity
  8
CORTE
  6
Continuous
 62
     4
100
AcDbLine
 10
-265.1718974497463
 20
-42.43978864341655
 30
0.0
 11
-265.1718974497463
 21
-42.43901658016456
 31
0.0
  0
LINE
  5
7E5
330
73D
100
AcDbEntity
  8
Vista
 62
     4
100
AcDbLine
 10
-265.1743974497463
 20
-42.44031047413163
 30
0.0
 11
-265.1718974497463
 21
-42.43978864341655
 31
0.0
  0
LINE
  5
7E6
330
73D
100
AcDbEntity
  8
CORTE
  6
Continuous
 62
     4
100
AcDbLine
 10
-265.1623974497463
 20
-42.44217577264636
 30
0.0
 11
-265.1623974497463
 21
-42.43703922375745
 31
0.0
  0
LINE
  5
7E7
330
73D
100
AcDbEntity
  8
Vista
 62
     4
100
AcDbLine
 10
-265.1583974497464
 20
-42.44133239831891
 30
0.0
 11
-265.1503974497463
 21
-42.43966254003062
 31
0.0
  0
LINE
  5
7E8
330
73D
100
AcDbEntity
  8
Vista
 62
     4
100
AcDbLine
 10
-265.1583974497464
 20
-42.44133239831891
 30
0.0
 11
-265.1613974497463
 21
-42.44133239831891
 31
0.0
  0
LINE
  5
7E9
330
73D
100
AcDbEntity
  8
CORTE
  6
Continuous
 62
     4
100
AcDbLine
 10
-265.1598974497463
 20
-42.4372754108008
 30
0.0
 11
-265.1598974497463
 21
-42.43650334754879
 31
0.0
  0
LINE
  5
7EA
330
73D
100
AcDbEntity
  8
Vista
 62
     4
100
AcDbLine
 10
-265.1623974497463
 20
-42.43779724151589
 30
0.0
 11
-265.1598974497463
 21
-42.4372754108008
 31
0.0
  0
LINE
  5
7EB
330
73D
100
AcDbEntity
  8
Vista
 62
     4
100
AcDbLine
 10
-265.1623974497463
 20
-42.44154113060496
 30
0.0
 11
-265.1613974497463
 21
-42.44133239831891
 31
0.0
  0
LINE
  5
7EC
330
73D
100
AcDbEntity
  8
CORTE
  6
Continuous
 62
     4
100
AcDbLine
 10
-265.1613974497463
 20
-42.44133239831891
 30
0.0
 11
-265.1613974497463
 21
-42.43758850922985
 31
0.0
  0
LINE
  5
7ED
330
73D
100
AcDbEntity
  8
CORTE
  6
Continuous
 62
     4
100
AcDbLine
 10
-265.1583974497464
 20
-42.44133239831891
 30
0.0
 11
-265.1583974497464
 21
-42.43619024911974
 31
0.0
  0
LINE
  5
7EE
330
73D
100
AcDbEntity
  8
CORTE
  6
Continuous
 62
     4
100
AcDbLine
 10
-265.1478974497463
 20
-42.43473809571968
 30
0.0
 11
-265.1478974497463
 21
-42.43399856011636
 31
0.0
  0
LINE
  5
7EF
330
73D
100
AcDbEntity
  8
CORTE
  6
Continuous
 62
     4
100
AcDbLine
 10
-265.1463974497464
 20
-42.43879508323779
 30
0.0
 11
-265.1463974497464
 21
-42.43365293403861
 31
0.0
  0
LINE
  5
7F0
330
73D
100
AcDbEntity
  8
Vista
 62
     4
100
AcDbLine
 10
-265.1463974497464
 20
-42.43879508323779
 30
0.0
 11
-265.1493974497463
 21
-42.43879508323779
 31
0.0
  0
LINE
  5
7F1
330
73D
100
AcDbEntity
  8
CORTE
  6
Continuous
 62
     4
100
AcDbLine
 10
-265.1493974497463
 20
-42.43879508323779
 30
0.0
 11
-265.1493974497463
 21
-42.43505119414872
 31
0.0
  0
LINE
  5
7F2
330
73D
100
AcDbEntity
  8
Vista
 62
     4
100
AcDbLine
 10
-265.1503974497463
 20
-42.43900381552383
 30
0.0
 11
-265.1493974497463
 21
-42.43879508323779
 31
0.0
  0
LINE
  5
7F3
330
73D
100
AcDbEntity
  8
Vista
 62
     4
100
AcDbLine
 10
-265.1503974497463
 20
-42.43525992643476
 30
0.0
 11
-265.1478974497463
 21
-42.43473809571968
 31
0.0
  0
LINE
  5
7F4
330
73D
100
AcDbEntity
  8
CORTE
  6
Continuous
 62
     4
100
AcDbLine
 10
-265.1503974497463
 20
-42.43966254003062
 30
0.0
 11
-265.1503974497463
 21
-42.43452599114171
 31
0.0
  0
LINE
  5
7F5
330
73D
100
AcDbEntity
  8
Vista
 62
     4
100
AcDbLine
 10
-265.1463974497464
 20
-42.43879508323779
 30
0.0
 11
-265.1383974497463
 21
-42.43712522494949
 31
0.0
  0
LINE
  5
7F6
330
73D
100
AcDbEntity
  8
CORTE
  6
Continuous
 62
     4
100
AcDbLine
 10
-265.1383974497463
 20
-42.43712522494949
 30
0.0
 11
-265.1383974497463
 21
-42.43201560339902
 31
0.0
  0
LINE
  5
7F7
330
73D
100
AcDbEntity
  8
CORTE
  6
Continuous
 62
     4
100
AcDbLine
 10
-265.1373974497464
 20
-42.43634019701978
 30
0.0
 11
-265.1373974497464
 21
-42.43259630793072
 31
0.0
  0
LINE
  5
7F8
330
73D
100
AcDbEntity
  8
CORTE
  6
Continuous
 62
     4
100
AcDbLine
 10
-265.1343974497464
 20
-42.43634019701978
 30
0.0
 11
-265.1343974497464
 21
-42.43119804782061
 31
0.0
  0
LINE
  5
7F9
330
73D
100
AcDbEntity
  8
Vista
 62
     4
100
AcDbLine
 10
-265.1383974497463
 20
-42.43654892930583
 30
0.0
 11
-265.1373974497464
 21
-42.43634019701978
 31
0.0
  0
LINE
  5
7FA
330
73D
100
AcDbEntity
  8
CORTE
  6
Continuous
 62
     4
100
AcDbLine
 10
-265.1358974497463
 20
-42.43228320950167
 30
0.0
 11
-265.1358974497463
 21
-42.43151114624966
 31
0.0
  0
LINE
  5
7FB
330
73D
100
AcDbEntity
  8
Vista
 62
     4
100
AcDbLine
 10
-265.1383974497463
 20
-42.43280504021676
 30
0.0
 11
-265.1358974497463
 21
-42.43228320950167
 31
0.0
  0
LINE
  5
7FC
330
73D
100
AcDbEntity
  8
Vista
 62
     4
100
AcDbLine
 10
-265.1353528293179
 20
-42.43634019701978
 30
0.0
 11
-265.1373974497464
 21
-42.43634019701978
 31
0.0
  0
LWPOLYLINE
  5
7FD
330
73D
100
AcDbEntity
  8
Vista
  6
Continuous
 62
     3
100
AcDbPolyline
 90
       21
 70
     0
 43
0.0
 10
-265.1383166796941
 20
-42.44488631174739
 42
0.384929168564455
 10
-265.1378192281659
 20
-42.4444367297706
 42
-0.2416670294637282
 10
-265.1356038227205
 20
-42.44101999835858
 42
0.2685636005234456
 10
-265.1353528293179
 20
-42.44058641363274
 10
-265.1353528293179
 20
-42.43634019701978
 10
-265.1343974497464
 20
-42.43634019701978
 10
-265.1318419531143
 20
-42.43580678236582
 10
-265.1318419531143
 20
-42.43064312650061
 10
-265.1161247926731
 20
-42.42736244767171
 42
0.3514578094911731
 10
-265.1153419531143
 20
-42.42638631174741
 10
-265.1153419531143
 20
-42.42287691224864
 42
-0.3189892314182308
 10
-265.1121434289239
 20
-42.41946666761764
 42
0.3568183404962087
 10
-265.1113419531143
 20
-42.41848657162957
 10
-265.1113419531143
 20
-42.41652292015008
 10
-265.1100037407593
 20
-42.41624359202602
 42
0.3051840064494136
 10
-265.1050919531143
 20
-42.4111363117474
 42
-0.2900042141350497
 10
-265.1005238724924
 20
-42.40611328262953
 10
-265.0995390095354
 20
-42.40590770993311
 42
0.3266838343405565
 10
-265.0988419531143
 20
-42.40495470143993
 10
-265.0988419531143
 20
-42.4023863117474
 10
-265.1113419531143
 20
-42.4023863117474
  0
LINE
  5
7FE
330
73D
100
AcDbEntity
  8
Vista
 62
     6
100
AcDbLine
 10
-265.0999942150913
 20
-42.55723976658283
 30
0.0
 11
-265.0999942150913
 21
-42.51473976658282
 31
0.0
  0
LINE
  5
7FF
330
73D
100
AcDbEntity
  8
Vista
 62
     6
100
AcDbLine
 10
-265.2079942150913
 20
-42.55723976658283
 30
0.0
 11
-265.2079942150913
 21
-42.51473976658282
 31
0.0
  0
LINE
  5
800
330
73D
100
AcDbEntity
  8
Vista
 62
     2
100
AcDbLine
 10
-265.2079942150914
 20
-42.51796536909266
 30
0.0
 11
-265.0999942150913
 21
-42.51796536909266
 31
0.0
  0
LINE
  5
801
330
73D
100
AcDbEntity
  8
Vista
 62
     3
100
AcDbLine
 10
-265.2079942150913
 20
-42.51473976658279
 30
0.0
 11
-265.0999942150913
 21
-42.51473976658284
 31
0.0
  0
LINE
  5
802
330
73D
100
AcDbEntity
  8
Vista
 62
     2
100
AcDbLine
 10
-265.2079942150913
 20
-42.52873976658283
 30
0.0
 11
-265.0999942150913
 21
-42.52873976658283
 31
0.0
  0
LINE
  5
803
330
73D
100
AcDbEntity
  8
Vista
 62
     2
100
AcDbLine
 10
-265.2079942150914
 20
-42.53147306509318
 30
0.0
 11
-265.0999942150913
 21
-42.53147306509318
 31
0.0
  0
LINE
  5
804
330
73D
100
AcDbEntity
  8
Vista
 62
     2
100
AcDbLine
 10
-265.2079942150913
 20
-42.53973976658282
 30
0.0
 11
-265.0999942150913
 21
-42.53973976658282
 31
0.0
  0
LINE
  5
805
330
73D
100
AcDbEntity
  8
Vista
 62
     2
100
AcDbLine
 10
-265.2079942150913
 20
-42.55319036467706
 30
0.0
 11
-265.0999942150913
 21
-42.55319036467709
 31
0.0
  0
LINE
  5
806
330
73D
100
AcDbEntity
  8
Vista
 62
     3
100
AcDbLine
 10
-265.2079942150913
 20
-42.55723976658283
 30
0.0
 11
-265.0999942150913
 21
-42.55723976658283
 31
0.0
  0
ENDBLK
  5
808
330
73D
100
AcDbEntity
  8
0
 62
     3
100
AcDbBlockEnd
  0
BLOCK
  5
B6F
330
B69
100
AcDbEntity
  8
0
 62
     3
100
AcDbBlockBegin
  2
A$C263D6B6A
 70
     0
 10
0.0
 20
0.0
 30
0.0
  3
A$C263D6B6A
  1

  0
HATCH
  5
B6A
330
B69
100
AcDbEntity
  8
Sezione
100
AcDbHatch
 10
0.0
 20
0.0
 30
0.0
210
0.0
220
0.0
230
1.0
  2
ANSI31
 70
     0
 71
     0
 91
        1
 92
        7
 72
     0
 73
     1
 93
        6
 10
0.0922667539244952
 20
0.0862807646728965
 10
-0.0000000665657739
 20
0.0862807646728965
 10
-0.0000000665657739
 20
0.0003091066906239
 10
0.0191316019951639
 20
0.0003091066906239
 10
0.0191316019951639
 20
0.0668219886661159
 10
0.0922667539244952
 20
0.0668219886661158
 97
        0
 75
     0
 76
     1
 52
0.0
 41
0.002
 77
     0
 78
     1
 53
45.0
 43
-0.0858288002254417
 44
-0.1359207187670848
 45
-0.0044901280605346
 46
0.0044901280605346
 79
     0
 47
0.0003507291251325
 98
        1
 10
0.0287510465309501
 20
0.0740124973428604
1001
ACAD
1010
0.0
1020
0.0
1030
0.0
  0
LINE
  5
B6B
330
B69
100
AcDbEntity
  8
Sezione
100
AcDbLine
 10
0.0191316019951639
 20
0.0000000122728271
 30
0.0
 11
0.0191316019951639
 21
0.0668219886661159
 31
0.0
  0
LINE
  5
B6C
330
B69
100
AcDbEntity
  8
Sezione
100
AcDbLine
 10
0.0191316019951639
 20
0.0668219886661159
 30
0.0
 11
0.0923266054750259
 21
0.0668219886661159
 31
0.0
  0
ENDBLK
  5
B70
330
B69
100
AcDbEntity
  8
0
 62
     3
100
AcDbBlockEnd
  0
BLOCK
  5
BFC
330
BFB
100
AcDbEntity
  8
0
100
AcDbBlockBegin
  2
*X10
 70
     1
 10
0.0
 20
0.0
 30
0.0
  3
*X10
  1

  0
LINE
  5
BFD
330
BFB
100
AcDbEntity
  8
0
 62
     0
100
AcDbLine
 10
486.460053877036
 20
124.0678285189305
 30
0.0
 11
503.5693156116774
 21
141.1770902535719
 31
0.0
  0
LINE
  5
BFE
330
BFB
100
AcDbEntity
  8
0
 62
     0
100
AcDbLine
 10
615.6341149734076
 20
253.2418896153022
 30
0.0
 11
629.3545087289434
 21
266.9622833708378
 31
0.0
  0
LINE
  5
BFF
330
BFB
100
AcDbEntity
  8
0
 62
     0
100
AcDbLine
 10
486.460053877036
 20
132.9066632837623
 30
0.0
 11
503.5693156116774
 21
150.0159250184037
 31
0.0
  0
LINE
  5
C00
330
BFB
100
AcDbEntity
  8
0
 62
     0
100
AcDbLine
 10
606.7952802085758
 20
253.2418896153022
 30
0.0
 11
620.5156739641116
 21
266.9622833708378
 31
0.0
  0
LINE
  5
C01
330
BFB
100
AcDbEntity
  8
0
 62
     0
100
AcDbLine
 10
486.460053877036
 20
141.7454980485942
 30
0.0
 11
503.5693156116774
 21
158.8547597832356
 31
0.0
  0
LINE
  5
C02
330
BFB
100
AcDbEntity
  8
0
 62
     0
100
AcDbLine
 10
597.9564454437441
 20
253.2418896153022
 30
0.0
 11
611.6768391992796
 21
266.9622833708378
 31
0.0
  0
LINE
  5
C03
330
BFB
100
AcDbEntity
  8
0
 62
     0
100
AcDbLine
 10
486.460053877036
 20
150.584332813426
 30
0.0
 11
503.5693156116774
 21
167.6935945480674
 31
0.0
  0
LINE
  5
C04
330
BFB
100
AcDbEntity
  8
0
 62
     0
100
AcDbLine
 10
589.1176106789122
 20
253.2418896153022
 30
0.0
 11
602.8380044344478
 21
266.9622833708378
 31
0.0
  0
LINE
  5
C05
330
BFB
100
AcDbEntity
  8
0
 62
     0
100
AcDbLine
 10
486.460053877036
 20
159.4231675782578
 30
0.0
 11
503.5693156116774
 21
176.5324293128992
 31
0.0
  0
LINE
  5
C06
330
BFB
100
AcDbEntity
  8
0
 62
     0
100
AcDbLine
 10
580.2787759140803
 20
253.2418896153022
 30
0.0
 11
593.999169669616
 21
266.9622833708378
 31
0.0
  0
LINE
  5
C07
330
BFB
100
AcDbEntity
  8
0
 62
     0
100
AcDbLine
 10
486.460053877036
 20
168.2620023430897
 30
0.0
 11
503.5693156116774
 21
185.3712640777311
 31
0.0
  0
LINE
  5
C08
330
BFB
100
AcDbEntity
  8
0
 62
     0
100
AcDbLine
 10
571.4399411492485
 20
253.2418896153022
 30
0.0
 11
585.1603349047841
 21
266.9622833708378
 31
0.0
  0
LINE
  5
C09
330
BFB
100
AcDbEntity
  8
0
 62
     0
100
AcDbLine
 10
486.460053877036
 20
177.1008371079215
 30
0.0
 11
503.5693156116773
 21
194.2100988425629
 31
0.0
  0
LINE
  5
C0A
330
BFB
100
AcDbEntity
  8
0
 62
     0
100
AcDbLine
 10
562.6011063844166
 20
253.2418896153022
 30
0.0
 11
576.3215001399522
 21
266.9622833708378
 31
0.0
  0
LINE
  5
C0B
330
BFB
100
AcDbEntity
  8
0
 62
     0
100
AcDbLine
 10
486.460053877036
 20
185.9396718727533
 30
0.0
 11
503.5693156116773
 21
203.0489336073947
 31
0.0
  0
LINE
  5
C0C
330
BFB
100
AcDbEntity
  8
0
 62
     0
100
AcDbLine
 10
553.7622716195848
 20
253.2418896153022
 30
0.0
 11
567.4826653751203
 21
266.9622833708378
 31
0.0
  0
LINE
  5
C0D
330
BFB
100
AcDbEntity
  8
0
 62
     0
100
AcDbLine
 10
486.4600538770359
 20
194.7785066375852
 30
0.0
 11
503.5693156116773
 21
211.8877683722266
 31
0.0
  0
LINE
  5
C0E
330
BFB
100
AcDbEntity
  8
0
 62
     0
100
AcDbLine
 10
544.9234368547529
 20
253.2418896153022
 30
0.0
 11
558.6438306102885
 21
266.9622833708378
 31
0.0
  0
LINE
  5
C0F
330
BFB
100
AcDbEntity
  8
0
 62
     0
100
AcDbLine
 10
486.4600538770359
 20
203.617341402417
 30
0.0
 11
503.5693156116773
 21
220.7266031370584
 31
0.0
  0
LINE
  5
C10
330
BFB
100
AcDbEntity
  8
0
 62
     0
100
AcDbLine
 10
536.084602089921
 20
253.2418896153022
 30
0.0
 11
549.8049958454567
 21
266.9622833708378
 31
0.0
  0
LINE
  5
C11
330
BFB
100
AcDbEntity
  8
0
 62
     0
100
AcDbLine
 10
486.4600538770359
 20
212.4561761672488
 30
0.0
 11
503.5693156116773
 21
229.5654379018902
 31
0.0
  0
LINE
  5
C12
330
BFB
100
AcDbEntity
  8
0
 62
     0
100
AcDbLine
 10
527.2457673250892
 20
253.2418896153022
 30
0.0
 11
540.9661610806248
 21
266.9622833708378
 31
0.0
  0
LINE
  5
C13
330
BFB
100
AcDbEntity
  8
0
 62
     0
100
AcDbLine
 10
486.4600538770359
 20
221.2950109320807
 30
0.0
 11
503.5693156116773
 21
238.4042726667221
 31
0.0
  0
LINE
  5
C14
330
BFB
100
AcDbEntity
  8
0
 62
     0
100
AcDbLine
 10
518.4069325602573
 20
253.2418896153022
 30
0.0
 11
532.1273263157929
 21
266.9622833708378
 31
0.0
  0
LINE
  5
C15
330
BFB
100
AcDbEntity
  8
0
 62
     0
100
AcDbLine
 10
486.4600538770359
 20
230.1338456969125
 30
0.0
 11
503.5693156116773
 21
247.2431074315539
 31
0.0
  0
LINE
  5
C16
330
BFB
100
AcDbEntity
  8
0
 62
     0
100
AcDbLine
 10
509.5680977954256
 20
253.2418896153021
 30
0.0
 11
523.2884915509611
 21
266.9622833708377
 31
0.0
  0
LINE
  5
C17
330
BFB
100
AcDbEntity
  8
0
 62
     0
100
AcDbLine
 10
486.4600538770359
 20
238.9726804617443
 30
0.0
 11
514.4496567861292
 21
266.9622833708377
 31
0.0
  0
LINE
  5
C18
330
BFB
100
AcDbEntity
  8
0
 62
     0
100
AcDbLine
 10
486.4600538770359
 20
247.8115152265762
 30
0.0
 11
505.6108220212975
 21
266.9622833708377
 31
0.0
  0
LINE
  5
C19
330
BFB
100
AcDbEntity
  8
0
 62
     0
100
AcDbLine
 10
486.4600538770359
 20
256.6503499914079
 30
0.0
 11
496.7719872564656
 21
266.9622833708377
 31
0.0
  0
LINE
  5
C1A
330
BFB
100
AcDbEntity
  8
0
 62
     0
100
AcDbLine
 10
486.4600538770358
 20
265.4891847562398
 30
0.0
 11
487.9331524916337
 21
266.9622833708377
 31
0.0
  0
LINE
  5
C1B
330
BFB
100
AcDbEntity
  8
0
 62
     0
100
AcDbLine
 10
494.0552738068973
 20
122.8242136839599
 30
0.0
 11
503.5693156116774
 21
132.3382554887401
 31
0.0
  0
LINE
  5
C1C
330
BFB
100
AcDbEntity
  8
0
 62
     0
100
AcDbLine
 10
624.4729497382395
 20
253.2418896153022
 30
0.0
 11
629.496054025455
 21
258.2649939025177
 31
0.0
  0
LINE
  5
C1D
330
BFB
100
AcDbEntity
  8
0
 62
     0
100
AcDbLine
 10
502.8941085717291
 20
122.8242136839599
 30
0.0
 11
503.5693156116775
 21
123.4994207239083
 31
0.0
  0
ENDBLK
  5
C1E
330
BFB
100
AcDbEntity
  8
0
100
AcDbBlockEnd
  0
BLOCK
  5
C24
330
C1F
100
AcDbEntity
  8
0
100
AcDbBlockBegin
  2
A$C6C65579B
 70
     0
 10
0.0
 20
0.0
 30
0.0
  3
A$C6C65579B
  1

  0
LINE
  5
C20
330
C1F
100
AcDbEntity
  8
CORTE
  6
RAYITAX4
 62
     4
100
AcDbLine
 10
-265.2537935691752
 20
-42.42682209115611
 30
0.0
 11
-265.2537935691752
 21
-42.55723976708748
 31
0.0
  0
LINE
  5
C21
330
C1F
100
AcDbEntity
  8
CORTE
  6
RAYITAX4
 62
     4
100
AcDbLine
 10
-265.2537935691752
 20
-42.42682209115611
 30
0.0
 11
-265.1278668307615
 21
-42.42682209115611
 31
0.0
  0
INSERT
  5
C22
330
C1F
100
AcDbEntity
  8
TRAMA
100
AcDbBlockReference
  2
*X10
 10
-265.7573628847869
 20
-42.68006398077142
 30
0.0
 41
0.0009999999999764
 42
0.0010000000000048
 43
0.001
1001
ACAD
1000
HATCH
1002
{
1070
    16
1000
ANSI31
1040
50.0
1040
0.0
1002
}
  0
LWPOLYLINE
  5
C23
330
C1F
100
AcDbEntity
  8
CORTE
  6
Continuous
 62
     1
100
AcDbPolyline
 90
       27
 70
     0
 43
0.0
 10
-265.2434935691752
 20
-42.52048009449487
 42
-0.1309515943895288
 10
-265.2396188804983
 20
-42.50227169263183
 42
-0.0391865213385924
 10
-265.2318861974755
 20
-42.48961463308666
 42
0.148047983309989
 10
-265.2273603786659
 20
-42.46536751056521
 42
-0.477131438324366
 10
-265.226266012113
 20
-42.46426334617865
 42
0.3174254686240992
 10
-265.2222487718652
 20
-42.46199398787246
 10
-265.2204935691752
 20
-42.45828353660647
 42
0.3390955557305459
 10
-265.2133594019252
 20
-42.45748275993213
 42
0.1067380655143518
 10
-265.2064935691752
 20
-42.44728353660645
 10
-265.2014935691752
 20
-42.44428353660646
 42
0.6316956553984646
 10
-265.1944935691752
 20
-42.44228353660645
 42
-0.4142135623730849
 10
-265.1884935691752
 20
-42.43628353660648
 10
-265.1804935691752
 20
-42.43628353660648
 42
0.4142135623730847
 10
-265.1784935691752
 20
-42.43428353660647
 10
-265.1784935691752
 20
-42.42728353660647
 10
-265.1984935691753
 20
-42.42728353660647
 10
-265.2184935691752
 20
-42.43928353660646
 10
-265.2222940706685
 20
-42.43961583728498
 42
0.2192482621402799
 10
-265.2266538493824
 20
-42.4421056036295
 10
-265.2379730166141
 20
-42.45795243775387
 42
0.1840335527349514
 10
-265.239055826335
 20
-42.46208505147598
 10
-265.2384935691752
 20
-42.46728353660649
 10
-265.2534935691752
 20
-42.5122835366065
 10
-265.2534935691752
 20
-42.53228353660648
 10
-265.2454935691752
 20
-42.53228353660648
 42
0.4142135623730847
 10
-265.2434935691752
 20
-42.53028353660647
 10
-265.2434935691752
 20
-42.51681234902133
  0
ENDBLK
  5
C25
330
C1F
100
AcDbEntity
  8
0
100
AcDbBlockEnd
  0
BLOCK
  5
2DF9
330
2DEE
100
AcDbEntity
  8
0
100
AcDbBlockBegin
  2
*D21
 70
     1
 10
0.0
 20
0.0
 30
0.0
  3
*D21
  1

  0
LINE
  5
2F22
330
2DEE
100
AcDbEntity
  8
Dimensione
 62
     5
370
    -2
100
AcDbLine
 10
0.107572524880108
 20
0.2095828075080135
 30
0.0
 11
0.151727153783099
 21
0.2095828075080135
 31
0.0
  0
LINE
  5
2F23
330
2DEE
100
AcDbEntity
  8
Dimensione
 62
     5
370
    -2
100
AcDbLine
 10
0.0665892166684005
 20
0.1518661433377986
 30
0.0
 11
0.151727153783099
 21
0.1518661433377986
 31
0.0
  0
LINE
  5
2F24
330
2DEE
100
AcDbEntity
  8
Dimensione
 62
     5
370
    -2
100
AcDbLine
 10
0.151547153783099
 20
0.2095828075080135
 30
0.0
 11
0.151547153783099
 21
0.184224475422906
 31
0.0
  0
LINE
  5
2F25
330
2DEE
100
AcDbEntity
  8
Dimensione
 62
     5
370
    -2
100
AcDbLine
 10
0.151547153783099
 20
0.1518661433377986
 30
0.0
 11
0.151547153783099
 21
0.177224475422906
 31
0.0
  0
INSERT
  5
2F26
330
2DEE
100
AcDbEntity
  8
Dimensione
 62
     5
370
    -2
100
AcDbBlockReference
  2
_ArchTick
 10
0.151547153783099
 20
0.2095828075080135
 30
0.0
 41
0.0015
 42
0.0015
 43
0.0015
 50
90.0
  0
INSERT
  5
2F27
330
2DEE
100
AcDbEntity
  8
Dimensione
 62
     5
370
    -2
100
AcDbBlockReference
  2
_ArchTick
 10
0.151547153783099
 20
0.1518661433377986
 30
0.0
 41
0.0015
 42
0.0015
 43
0.0015
 50
270.0
  0
MTEXT
  5
2F28
330
2DEE
100
AcDbEntity
  8
Dimensione
 62
     4
100
AcDbMText
 10
0.151547153783099
 20
0.1807244754229061
 30
0.0
 40
0.003
 41
0.0
 71
     5
 72
     1
  1
\A1;130 mm
  7
ROMANS
 73
     1
 44
1.0
  0
POINT
  5
2F29
330
2DEE
100
AcDbEntity
  8
Defpoints
 62
     0
100
AcDbPoint
 10
0.107510024880108
 20
0.2095828075080135
 30
0.0
  0
POINT
  5
2F2A
330
2DEE
100
AcDbEntity
  8
Defpoints
 62
     0
100
AcDbPoint
 10
0.0665267166684005
 20
0.1518661433377986
 30
0.0
  0
POINT
  5
2F2B
330
2DEE
100
AcDbEntity
  8
Defpoints
 62
     0
100
AcDbPoint
 10
0.151547153783099
 20
0.1518661433377986
 30
0.0
  0
ENDBLK
  5
2DFA
330
2DEE
100
AcDbEntity
  8
0
100
AcDbBlockEnd
  0
BLOCK
  5
2E12
330
2E08
100
AcDbEntity
  8
0
100
AcDbBlockBegin
  2
*D22
 70
     1
 10
0.0
 20
0.0
 30
0.0
  3
*D22
  1

  0
LINE
  5
2F0E
330
2E08
100
AcDbEntity
  8
Dimensione
 62
     5
370
    -2
100
AcDbLine
 10
0.0652460605984773
 20
0.1660948029241481
 30
0.0
 11
0.0652460605984773
 21
0.1441602820819415
 31
0.0
  0
LINE
  5
2F0F
330
2E08
100
AcDbEntity
  8
Dimensione
 62
     5
370
    -2
100
AcDbLine
 10
0.1254371529932798
 20
0.2067048464539439
 30
0.0
 11
0.1254371529932798
 21
0.1441602820819415
 31
0.0
  0
LINE
  5
2F10
330
2E08
100
AcDbEntity
  8
Dimensione
 62
     5
370
    -2
100
AcDbLine
 10
0.0652460605984773
 20
0.1443402820819415
 30
0.0
 11
0.0839844639387357
 21
0.1443402820819415
 31
0.0
  0
LINE
  5
2F11
330
2E08
100
AcDbEntity
  8
Dimensione
 62
     5
370
    -2
100
AcDbLine
 10
0.1254371529932798
 20
0.1443402820819415
 30
0.0
 11
0.1066987496530214
 21
0.1443402820819415
 31
0.0
  0
INSERT
  5
2F12
330
2E08
100
AcDbEntity
  8
Dimensione
 62
     5
370
    -2
100
AcDbBlockReference
  2
_ArchTick
 10
0.0652460605984773
 20
0.1443402820819415
 30
0.0
 41
0.0015
 42
0.0015
 43
0.0015
 50
180.0
  0
INSERT
  5
2F13
330
2E08
100
AcDbEntity
  8
Dimensione
 62
     5
370
    -2
100
AcDbBlockReference
  2
_ArchTick
 10
0.1254371529932798
 20
0.1443402820819415
 30
0.0
 41
0.0015
 42
0.0015
 43
0.0015
  0
MTEXT
  5
2F14
330
2E08
100
AcDbEntity
  8
Dimensione
 62
     4
100
AcDbMText
 10
0.0953416067958786
 20
0.1443402820819415
 30
0.0
 40
0.003
 41
0.0
 71
     5
 72
     1
  1
\A1;120 mm
  7
ROMANS
 73
     1
 44
1.0
  0
POINT
  5
2F15
330
2E08
100
AcDbEntity
  8
Defpoints
 62
     0
100
AcDbPoint
 10
0.0652460605984773
 20
0.1661573029241481
 30
0.0
  0
POINT
  5
2F16
330
2E08
100
AcDbEntity
  8
Defpoints
 62
     0
100
AcDbPoint
 10
0.1254371529932798
 20
0.2067673464539439
 30
0.0
  0
POINT
  5
2F17
330
2E08
100
AcDbEntity
  8
Defpoints
 62
     0
100
AcDbPoint
 10
0.1254371529932798
 20
0.1443402820819415
 30
0.0
  0
ENDBLK
  5
2E13
330
2E08
100
AcDbEntity
  8
0
100
AcDbBlockEnd
  0
ENDSEC
  0
SECTION
  2
ENTITIES
  0
LINE
  5
D
330
2
100
AcDbEntity
  8
Table
100
AcDbLine
 10
0.02
 20
0.02
 30
0.0
 11
0.4
 21
0.02
 31
0.0
  0
LINE
  5
10
330
2
100
AcDbEntity
  8
Table
100
AcDbLine
 10
0.4
 20
0.02
 30
0.0
 11
0.4
 21
0.2769999999999999
 31
0.0
  0
LINE
  5
11
330
2
100
AcDbEntity
  8
Table
100
AcDbLine
 10
0.4
 20
0.2769999999999999
 30
0.0
 11
0.02
 21
0.277
 31
0.0
  0
LINE
  5
12
330
2
100
AcDbEntity
  8
Table
100
AcDbLine
 10
0.02
 20
0.277
 30
0.0
 11
0.02
 21
0.02
 31
0.0
  0
LINE
  5
13
330
2
100
AcDbEntity
  8
Table
 62
     2
100
AcDbLine
 10
0.015
 20
0.015
 30
0.0
 11
0.4050000000000001
 21
0.015
 31
0.0
  0
LINE
  5
14
330
2
100
AcDbEntity
  8
Table
 62
     2
100
AcDbLine
 10
0.4050000000000001
 20
0.015
 30
0.0
 11
0.4050000000000001
 21
0.2819999999999998
 31
0.0
  0
LINE
  5
15
330
2
100
AcDbEntity
  8
Table
 62
     2
100
AcDbLine
 10
0.4050000000000001
 20
0.2819999999999998
 30
0.0
 11
0.0149999999999999
 21
0.282
 31
0.0
  0
LINE
  5
16
330
2
100
AcDbEntity
  8
Table
 62
     2
100
AcDbLine
 10
0.0149999999999999
 20
0.282
 30
0.0
 11
0.015
 21
0.015
 31
0.0
  0
LINE
  5
17
330
2
100
AcDbEntity
  8
Table
100
AcDbLine
 10
0.21
 20
0.2769999999999999
 30
0.0
 11
0.21
 21
0.2532994226089223
 31
0.0
  0
LINE
  5
1D
330
2
100
AcDbEntity
  8
Table
100
AcDbLine
 10
0.02
 20
0.0528099428524846
 30
0.0
 11
0.4
 21
0.0528099428524846
 31
0.0
  0
MTEXT
  5
1E
330
2
100
AcDbEntity
  8
Text
100
AcDbMText
 10
0.1133313047219695
 20
0.2610796890771976
 30
0.0
 40
0.003
 41
0.1685521855507659
 71
     2
 72
     5
  1
{\fTimes New Roman|b0|i0|c0|p18;Le cornici per soffitti \fTimes New Roman|b0|i1|c0|p18;   Ceiling mouldings}
 73
     1
 44
1.0
1001
ACAD
1000
ACAD_MTEXT_DEFINED_HEIGHT_BEGIN
1070
    46
1040
0.0141952763113409
1000
ACAD_MTEXT_DEFINED_HEIGHT_END
  0
TEXT
  5
1F
330
2
100
AcDbEntity
  8
Text
100
AcDbText
 10
0.2180556919891047
 20
0.269976982173197
 30
0.0
 40
0.003
  1
Cornice - Moulding : H 130 x 120 mm
  7
ROMANS
100
AcDbText
  0
TEXT
  5
21
330
2
100
AcDbEntity
  8
Text
100
AcDbText
 10
0.2184542410678115
 20
0.2576348370183962
 30
0.0
 40
0.003
  1
File : 3004
  7
ROMANS
100
AcDbText
  0
LINE
  5
22
330
2
100
AcDbEntity
  8
Table
100
AcDbLine
 10
0.4
 20
0.2654452889427402
 30
0.0
 11
0.02
 21
0.2654452889427403
 31
0.0
  0
LINE
  5
23
330
2
100
AcDbEntity
  8
Table
100
AcDbLine
 10
0.4
 20
0.2532994226089223
 30
0.0
 11
0.02
 21
0.2532994226089225
 31
0.0
  0
LINE
  5
24
330
2
100
AcDbEntity
  8
Table
100
AcDbLine
 10
0.21
 20
0.0528099428524846
 30
0.0
 11
0.21
 21
0.02
 31
0.0
  0
TEXT
  5
25
330
2
100
AcDbEntity
  8
Text
100
AcDbText
 10
0.0896473531074035
 20
0.2687784133392506
 30
0.0
 40
0.005
  1
CLASSICSTYL
  7
style1
 72
     1
 11
0.1140561490699125
 21
0.2687784133392506
 31
0.0
100
AcDbText
  0
TEXT
  5
27
330
2
100
AcDbEntity
  8
Text
100
AcDbText
 10
0.348876191563227
 20
0.178483235572628
 30
0.0
 40
0.005
  1
scala 1:4
  7
Arial
100
AcDbText
  0
MTEXT
  5
10F
330
2
100
AcDbEntity
  8
Text
100
AcDbMText
 10
0.305
 20
0.0471738284815141
 30
0.0
 40
0.005
 41
0.1900000000000001
 71
     2
 72
     5
  3
\pt0.09;{\fTimes New Roman|b0|i0|c238|p18;\H1.6x;\C4;Bovelacci\P\H0.4375x;\T0.95;via del Commercio, 5  47100 Forli - Italy  \fTimes New Roman|b0|i0|c0|p18;\P\fTimes New Roman|b0|i0|c238|p18;tel.+39-0543721386  fax +39-0543721127\fTimes New Roman|b0|i
  1
0|c0|p18; \fTimes New Roman|b0|i0|c238|p18;www.bovelacci.it\fTimes New Roman|b0|i0|c0|p18; \fTimes New Roman|b0|i0|c238|p18;e-mail: bovelacci@bovelacci\fTimes New Roman|b0|i0|c0|p18;.it}
 73
     1
 44
1.0
1001
ACAD
1000
ACAD_MTEXT_DEFINED_HEIGHT_BEGIN
1070
    46
1040
0.0271738284815141
1000
ACAD_MTEXT_DEFINED_HEIGHT_END
  0
MTEXT
  5
110
330
2
100
AcDbEntity
  8
Text
100
AcDbMText
 10
0.0219676065851835
 20
0.0500313976452307
 30
0.0
 40
0.002
 41
0.1863544980601608
 71
     1
 72
     5
  3
{\fArial|b0|i0|c0|p34;\H1.25x;Le caratteristiche tecniche indicate vengono fornite a titolo indicativo e potranno essere modificate senza preavviso. Non devono quindi essere considerate a scopo di specifica.\P\fArial|b0|i1|c0|p34;The given values are
  3
 indicative and can be changed without notice. They cannot be considered like a state.\PThis lealfet and designs embodied within are protected by copyright law and international treaties. Unauthorized repro- duction of the leaflet or any portion of i
  1
t or reproduction of any of the designs embodied therein may result in severe civil penalties and will be prosecuted to the maximum.\PAll right reserved, Bovelacci Forlì Italy.}
 73
     1
 44
1.0
  0
TEXT
  5
1CA
330
2
100
AcDbEntity
  8
Text
100
AcDbText
 10
0.0596358020417845
 20
0.0835904056631259
 30
0.0
 40
0.005
  1
scala 1:2
  7
Arial
100
AcDbText
  0
HATCH
  5
1E63
330
2
100
AcDbEntity
  8
Sezione
100
AcDbHatch
 10
0.0
 20
0.0
 30
0.0
210
0.0
220
0.0
230
1.0
  2
ANSI31
 70
     0
 71
     0
 91
        1
 92
        2
 72
     0
 73
     1
 93
        6
 10
0.0652460605984773
 20
0.1520217689729293
 10
0.0652460605984773
 20
0.2095828075080135
 10
0.1190542650450794
 20
0.2095828075080135
 10
0.1190542650450794
 20
0.236897751576052
 10
0.0404451618597506
 20
0.236897751576052
 10
0.0404451618597506
 20
0.1513810196933605
 97
        0
 75
     0
 76
     1
 52
0.0
 41
0.003
 77
     0
 78
     1
 53
45.0
 43
-0.025042582059845
 44
-0.00679486282714
 45
-0.0067351920908019
 46
0.0067351920908019
 79
     0
 98
        1
 10
0.0476715480690844
 20
0.1298991453882176
1001
ACAD
1010
0.0
1020
0.0
1030
0.0
  0
LINE
  5
2DD5
330
2
100
AcDbEntity
  8
Vista
 62
     3
100
AcDbLine
 10
0.1499679028989931
 20
0.1181356446931545
 30
0.0
 11
0.1674577708479887
 21
0.1181356446931545
 31
0.0
  0
LINE
  5
2DD6
330
2
100
AcDbEntity
  8
Vista
 62
     3
100
AcDbLine
 10
0.0913135463665071
 20
0.0604189805229396
 30
0.0
 11
0.1674577708479888
 21
0.0604189805229396
 31
0.0
  0
LINE
  5
2DE2
330
2
100
AcDbEntity
  8
Vista
 62
     6
100
AcDbLine
 10
0.1832322234568266
 20
0.0604189805229396
 30
0.0
 11
0.1832322234568266
 21
0.1181356446931545
 31
0.0
  0
LINE
  5
2DE3
330
2
100
AcDbEntity
  8
Vista
 62
     6
100
AcDbLine
 10
0.3820687779247009
 20
0.0604189805229396
 30
0.0
 11
0.3820687779247009
 21
0.1181356446931545
 31
0.0
  0
LINE
  5
2DE8
330
2
100
AcDbEntity
  8
Vista
 62
     3
100
AcDbLine
 10
0.2263082918713963
 20
0.2049370293166428
 30
0.0
 11
0.3660257053340672
 21
0.2346348823276969
 31
0.0
  0
DIMENSION
  5
2DED
330
2
100
AcDbEntity
  8
Dimensione
100
AcDbDimension
  2
*D21
 10
0.151547153783099
 20
0.1518661433377986
 30
0.0
 11
0.151547153783099
 21
0.1807244754229061
 31
0.0
 70
    32
  1
130 mm
 71
     5
 42
0.0577166641702149
  3
Bovelacci
100
AcDbAlignedDimension
 13
0.107510024880108
 23
0.2095828075080135
 33
0.0
 14
0.0665267166684005
 24
0.1518661433377986
 34
0.0
 50
90.0
100
AcDbRotatedDimension
  0
DIMENSION
  5
2E07
330
2
100
AcDbEntity
  8
Dimensione
100
AcDbDimension
  2
*D22
 10
0.1254371529932798
 20
0.1443402820819415
 30
0.0
 11
0.0953416067958786
 21
0.1443402820819415
 31
0.0
 70
    32
  1
120 mm
 71
     5
 42
0.0601910923948026
  3
Bovelacci
100
AcDbAlignedDimension
 13
0.0652460605984773
 23
0.1661573029241481
 33
0.0
 14
0.1254371529932798
 24
0.2067673464539439
 34
0.0
100
AcDbRotatedDimension
  0
LWPOLYLINE
  5
2E5C
330
2
100
AcDbEntity
  8
Dimensione
 62
     2
100
AcDbPolyline
 90
        3
 70
     0
 43
0.0
 10
0.0652460605984773
 20
0.1362424545047105
 10
0.0652460605984773
 20
0.2095828075080135
 10
0.1296498393316035
 20
0.2095828075080135
  0
LINE
  5
2EC3
330
2
100
AcDbEntity
  8
Dimensione
 62
     2
100
AcDbLine
 10
0.1251230208774814
 20
0.0919008365392244
 30
0.0
 11
0.1674577708479887
 21
0.0919008365392244
 31
0.0
  0
LINE
  5
2EC5
330
2
100
AcDbEntity
  8
Dimensione
 62
     2
100
AcDbLine
 10
0.1315263012271544
 20
0.1031625370362974
 30
0.0
 11
0.1674577708479887
 21
0.1031625370362974
 31
0.0
  0
LINE
  5
2EC7
330
2
100
AcDbEntity
  8
Dimensione
 62
     2
100
AcDbLine
 10
0.1502239826913865
 20
0.1153201836390849
 30
0.0
 11
0.1674577708479887
 21
0.1153201836390849
 31
0.0
  0
LINE
  5
2EC9
330
2
100
AcDbEntity
  8
Dimensione
 62
     2
100
AcDbLine
 10
0.0969485873391136
 20
0.0698890762471365
 30
0.0
 11
0.1674577708479887
 21
0.0698890762471364
 31
0.0
  0
LWPOLYLINE
  5
2EF7
330
2
100
AcDbEntity
  8
Profilo
100
AcDbPolyline
 90
       56
 70
     1
 43
0.0
 10
0.1251810732008864
 20
0.2095828075080135
 10
0.1151919044338372
 20
0.2095828075080135
 10
0.0940609507259554
 20
0.1889787777429888
 10
0.0789491576791563
 20
0.1889787777429888
 10
0.0678073727383237
 20
0.1699105323997685
 10
0.067679332842127
 20
0.1649195923270099
 10
0.0669110934651174
 20
0.164407664186399
 10
0.0652460605984773
 20
0.164407664186399
 10
0.0652460605984773
 20
0.1518661433377986
 10
0.0665267166684005
 20
0.1518661433377986
 10
0.066782796460737
 20
0.1539137121809802
 10
0.0670391333613141
 20
0.155449496602813
 10
0.0679354126344636
 20
0.1564732091647443
 10
0.0696004455011605
 20
0.1578809396917791
 10
0.0704967247743669
 20
0.1594167241136404
 10
0.0703686848781702
 20
0.1613362390619955
 10
0.072161757641007
 20
0.1613362390619955
 10
0.072161757641007
 20
0.1699105323997685
 10
0.0726739172256801
 20
0.1710622988564978
 10
0.0739545732956033
 20
0.1722140653132556
 10
0.0751071894693867
 20
0.1728540473486646
 10
0.0751071894693867
 20
0.1745177419460049
 10
0.0763878455393099
 20
0.1754135443324571
 10
0.077796541505373
 20
0.1770772389297974
 10
0.0784369980944832
 20
0.1789967538781525
 10
0.0785650379906231
 20
0.1810443227213341
 10
0.0781809183021467
 20
0.1824520532483689
 10
0.0783089581982866
 20
0.1836038197050982
 10
0.0794615743720699
 20
0.1841157478457092
 10
0.0807422304419932
 20
0.1834759095295908
 10
0.0817665496113394
 20
0.1837318735998963
 10
0.0826630859927862
 20
0.1846276759863485
 10
0.0847122385479595
 20
0.184883640056654
 10
0.0963661830734653
 20
0.184883640056654
 10
0.0991835750056483
 20
0.1837318735998963
 10
0.1003361911793748
 20
0.1833479993540834
 10
0.1011046876646249
 20
0.1834759095295908
 10
0.1022573038384082
 20
0.1842438017405357
 10
0.1027694634230813
 20
0.184883640056654
 10
0.1025133836307448
 20
0.1889787777429888
 10
0.1031538402197982
 20
0.191666328621551
 10
0.1041781593892013
 20
0.1935858435699345
 10
0.1058431922558414
 20
0.194481789675649
 10
0.1067394715290477
 20
0.1946096998511564
 10
0.1067394715290477
 20
0.1955055022375802
 10
0.1067394715290477
 20
0.1967853225891076
 10
0.1084045043956878
 20
0.196913232764615
 10
0.1108377766393944
 20
0.1978090351510673
 10
0.1132710488830442
 20
0.1993448195729002
 10
0.1145517049529674
 20
0.200752550099935
 10
0.1160884408152272
 20
0.2028001189431166
 10
0.1181375933704005
 20
0.2048476877862697
 10
0.1199304090250537
 20
0.2062554183133329
 10
0.121979561580227
 20
0.2067673464539439
 10
0.1241564969232998
 20
0.2067673464539439
 10
0.1254371529932798
 20
0.2067673464539439
  0
LWPOLYLINE
  5
2F2C
330
2
100
AcDbEntity
  8
Profilo
100
AcDbPolyline
 90
       56
 70
     1
 43
0.0
 10
0.231302876254921
 20
0.2049370293166428
 10
0.2263082918713963
 20
0.2049370293166428
 10
0.2157428150174554
 20
0.1946350144341304
 10
0.2081869184940559
 20
0.1946350144341304
 10
0.2026160260236396
 20
0.1851008917625203
 10
0.2025520060755412
 20
0.182605421726141
 10
0.2021678863870364
 20
0.1823494576558355
 10
0.2013353699537164
 20
0.1823494576558355
 10
0.2013353699537164
 20
0.1760786972315353
 10
0.201975697988678
 20
0.1760786972315353
 10
0.2021037378848463
 20
0.1771024816531261
 10
0.2022319063351348
 20
0.1778703738640425
 10
0.2026800459717095
 20
0.1783822301450082
 10
0.203512562405058
 20
0.1790860954085256
 10
0.2039607020416612
 20
0.1798539876194562
 10
0.2038966820935628
 20
0.1808137450936337
 10
0.2047932184749812
 20
0.1808137450936337
 10
0.2047932184749812
 20
0.1851008917625203
 10
0.2050492982673178
 20
0.1856767749908849
 10
0.2056896263022794
 20
0.1862526582192638
 10
0.2062659343891711
 20
0.1865726492369683
 10
0.2062659343891711
 20
0.1874044965356385
 10
0.2069062624241327
 20
0.1878523977288646
 10
0.2076106104071642
 20
0.1886842450275347
 10
0.2079308387017194
 20
0.1896440025017123
 10
0.2079948586497893
 20
0.190667786923303
 10
0.2078027988055511
 20
0.1913716521868204
 10
0.207866818753621
 20
0.1919475354151851
 10
0.2084431268405127
 20
0.1922034994854906
 10
0.2090834548754743
 20
0.1918835803274314
 10
0.2095956144601474
 20
0.1920115623625842
 10
0.2100438826508708
 20
0.1924594635558103
 10
0.2110684589284575
 20
0.192587445590963
 10
0.2168954311912103
 20
0.192587445590963
 10
0.2183041271573018
 20
0.1920115623625842
 10
0.2188804352441651
 20
0.1918196252396777
 10
0.2192646834867902
 20
0.1918835803274314
 10
0.2198409915736819
 20
0.1922675264329038
 10
0.2200970713660184
 20
0.192587445590963
 10
0.2199690314698501
 20
0.1946350144341304
 10
0.2202892597643768
 20
0.1959787898734115
 10
0.2208014193490784
 20
0.1969385473476032
 10
0.2216339357823984
 20
0.1973865204004605
 10
0.2220820754190016
 20
0.1974504754882142
 10
0.2220820754190016
 20
0.1978983766814261
 10
0.2220820754190016
 20
0.1985382868571898
 10
0.2229145918523216
 20
0.1986022419449435
 10
0.2241312279741749
 20
0.1990501431381697
 10
0.2253478640959998
 20
0.1998180353490861
 10
0.2259881921309614
 20
0.2005219006126035
 10
0.2267565600620913
 20
0.2015456850341943
 10
0.227781136339678
 20
0.2025694694557709
 10
0.2286775441670046
 20
0.2032733347193025
 10
0.2297021204445913
 20
0.203529298789608
 10
0.2307905881161276
 20
0.203529298789608
 10
0.2314309161511177
 20
0.203529298789608
  0
LWPOLYLINE
  5
2F2D
330
2
100
AcDbEntity
  8
Profilo
100
AcDbPolyline
 90
        2
 70
     0
 43
0.0
 10
0.3710202897175918
 20
0.2346348823276969
 10
0.3660257053340672
 20
0.2346348823276969
  0
LWPOLYLINE
  5
2F2E
330
2
100
AcDbEntity
  8
Profilo
100
AcDbPolyline
 90
       56
 70
     1
 43
0.0
 10
0.1499679028989931
 20
0.1181356446931545
 10
0.1399787341319438
 20
0.1181356446931545
 10
0.118847780424062
 20
0.0975316149281298
 10
0.103735987377263
 20
0.0975316149281298
 10
0.0925942024364304
 20
0.0784633695849095
 10
0.0924661625402337
 20
0.0734724295121509
 10
0.091697923163224
 20
0.07296050137154
 10
0.0900328902965839
 20
0.07296050137154
 10
0.0900328902965839
 20
0.0604189805229396
 10
0.0913135463665071
 20
0.0604189805229396
 10
0.0915696261588437
 20
0.0624665493661212
 10
0.0918259630594207
 20
0.0640023337879541
 10
0.0927222423325702
 20
0.0650260463498853
 10
0.0943872751992672
 20
0.0664337768769201
 10
0.0952835544724735
 20
0.0679695612987814
 10
0.0951555145762768
 20
0.0698890762471365
 10
0.0969485873391136
 20
0.0698890762471365
 10
0.0969485873391136
 20
0.0784633695849095
 10
0.0974607469237867
 20
0.0796151360416388
 10
0.0987414029937099
 20
0.0807669024983966
 10
0.0998940191674933
 20
0.0814068845338056
 10
0.0998940191674933
 20
0.0830705791311459
 10
0.1011746752374165
 20
0.0839663815175982
 10
0.1025833712034796
 20
0.0856300761149385
 10
0.1032238277925899
 20
0.0875495910632935
 10
0.1033518676887297
 20
0.0895971599064751
 10
0.1029677480002533
 20
0.0910048904335099
 10
0.1030957878963932
 20
0.0921566568902392
 10
0.1042484040701765
 20
0.0926685850308502
 10
0.1055290601400998
 20
0.0920287467147318
 10
0.106553379309446
 20
0.0922847107850373
 10
0.1074499156908928
 20
0.0931805131714896
 10
0.1094990682460661
 20
0.093436477241795
 10
0.1211530127715719
 20
0.093436477241795
 10
0.1239704047037549
 20
0.0922847107850373
 10
0.1251230208774814
 20
0.0919008365392244
 10
0.1258915173627315
 20
0.0920287467147318
 10
0.1270441335365149
 20
0.0927966389256767
 10
0.127556293121188
 20
0.093436477241795
 10
0.1273002133288514
 20
0.0975316149281298
 10
0.1279406699179049
 20
0.100219165806692
 10
0.1289649890873079
 20
0.1021386807550755
 10
0.130630021953948
 20
0.10303462686079
 10
0.1315263012271544
 20
0.1031625370362974
 10
0.1315263012271544
 20
0.1040583394227212
 10
0.1315263012271544
 20
0.1053381597742486
 10
0.1331913340937945
 20
0.105466069949756
 10
0.1356246063375011
 20
0.1063618723362083
 10
0.1380578785811508
 20
0.1078976567580412
 10
0.139338534651074
 20
0.109305387285076
 10
0.1408752705133338
 20
0.1113529561282575
 10
0.1429244230685072
 20
0.1134005249714107
 10
0.1447172387231603
 20
0.1148082554984739
 10
0.1467663912783337
 20
0.1153201836390849
 10
0.1489433266214064
 20
0.1153201836390849
 10
0.1502239826913865
 20
0.1153201836390849
  0
LINE
  5
2F2F
330
2
100
AcDbEntity
  8
Vista
 62
     3
100
AcDbLine
 10
0.1832322234568266
 20
0.0604189805229396
 30
0.0
 11
0.3820687779247009
 21
0.0604189805229396
 31
0.0
  0
LINE
  5
2F30
330
2
100
AcDbEntity
  8
Vista
 62
     3
100
AcDbLine
 10
0.1832322234568266
 20
0.1181356446931545
 30
0.0
 11
0.3820687779247009
 21
0.1181356446931545
 31
0.0
  0
LINE
  5
2F32
330
2
100
AcDbEntity
  8
Dimensione
 62
     2
100
AcDbLine
 10
0.1832322234568266
 20
0.1153201836390849
 30
0.0
 11
0.3820687779247009
 21
0.1153201836390849
 31
0.0
  0
LINE
  5
2F33
330
2
100
AcDbEntity
  8
Dimensione
 62
     2
100
AcDbLine
 10
0.1832322234568266
 20
0.1031625370362973
 30
0.0
 11
0.3820687779247009
 21
0.1031625370362973
 31
0.0
  0
LINE
  5
2F34
330
2
100
AcDbEntity
  8
Dimensione
 62
     2
100
AcDbLine
 10
0.1832322234568266
 20
0.0919008365392244
 30
0.0
 11
0.3820687779247009
 21
0.0919008365392244
 31
0.0
  0
LINE
  5
2F35
330
2
100
AcDbEntity
  8
Dimensione
 62
     2
100
AcDbLine
 10
0.1832322234568266
 20
0.0698890762471365
 30
0.0
 11
0.3820687779247009
 21
0.0698890762471365
 31
0.0
  0
LINE
  5
2F37
330
2
100
AcDbEntity
  8
Dimensione
 62
     2
100
AcDbLine
 10
0.231302876254921
 20
0.2049370293166428
 30
0.0
 11
0.3710202897175918
 21
0.2346348823276969
 31
0.0
  0
LINE
  5
2F38
330
2
100
AcDbEntity
  8
Dimensione
 62
     2
100
AcDbLine
 10
0.2314309161511177
 20
0.203529298789608
 30
0.0
 11
0.3711483296137885
 21
0.2332271518006621
 31
0.0
  0
LINE
  5
2F39
330
2
100
AcDbEntity
  8
Dimensione
 62
     2
100
AcDbLine
 10
0.2192646834867902
 20
0.1918835803274314
 30
0.0
 11
0.358982096949461
 21
0.2215814333384856
 31
0.0
  0
LINE
  5
2F3A
330
2
100
AcDbEntity
  8
Dimensione
 62
     2
100
AcDbLine
 10
0.2047932184749812
 20
0.1808137450936337
 30
0.0
 11
0.3445106319376521
 21
0.2105115981046879
 31
0.0
  0
LINE
  5
2F3B
330
2
100
AcDbEntity
  8
Dimensione
 62
     2
100
AcDbLine
 10
0.201975697988678
 20
0.1760786972315353
 30
0.0
 11
0.3416931114513488
 21
0.2057765502425894
 31
0.0
  0
LINE
  5
2F3C
330
2
100
AcDbEntity
  8
Dimensione
 62
     2
100
AcDbLine
 10
0.2220820754190016
 20
0.1974504754882142
 30
0.0
 11
0.3617994888816725
 21
0.2271483284992684
 31
0.0
  0
LWPOLYLINE
  5
2F3E
330
2
100
AcDbEntity
  8
Profilo
100
AcDbPolyline
 90
        2
 70
     0
 43
0.0
 10
0.3711483296137885
 20
0.2332271518006621
 10
0.3710202897175918
 20
0.2346348823276969
  0
LWPOLYLINE
  5
2F40
330
2
100
AcDbEntity
  8
Profilo
100
AcDbPolyline
 90
       18
 70
     0
 43
0.0
 10
0.358597848706836
 20
0.2215174782507319
 10
0.358982096949461
 20
0.2215814333384856
 10
0.3595584050363527
 20
0.221965379443958
 10
0.3598144848286893
 20
0.2222852986020172
 10
0.359686444932521
 20
0.2243328674451845
 10
0.3600066732270477
 20
0.2256766428844656
 10
0.3605188328117492
 20
0.2266364003586574
 10
0.3613513492450693
 20
0.2270843734115147
 10
0.3617994888816725
 20
0.2271483284992684
 10
0.3617994888816725
 20
0.2275962296924803
 10
0.3617994888816725
 20
0.228236139868244
 10
0.3626320053149925
 20
0.2283000949559977
 10
0.3638486414368458
 20
0.2287479961492238
 10
0.3650652775586707
 20
0.2295158883601402
 10
0.3657056055936323
 20
0.2302197536236576
 10
0.3664739735247622
 20
0.2312435380452484
 10
0.3674985498023489
 20
0.232267322466825
 10
0.3679467537160121
 20
0.2326192550985908
  0
LWPOLYLINE
  5
2F42
330
2
100
AcDbEntity
  8
Profilo
100
AcDbPolyline
 90
        8
 70
     0
 43
0.0
 10
0.3416931114513488
 20
0.2057765502425894
 10
0.3416931114513488
 20
0.2057765502425894
 10
0.3418211513475171
 20
0.2068003346641802
 10
0.3419493197978056
 20
0.2075682268750967
 10
0.3423974594343804
 20
0.2080800831560623
 10
0.3432299758677288
 20
0.2087839484195797
 10
0.343678115504332
 20
0.2095518406305103
 10
0.3436266293307329
 20
0.2103236975500538
  0
LWPOLYLINE
  5
2F43
330
2
100
AcDbEntity
  8
Profilo
100
AcDbPolyline
 90
        9
 70
     0
 43
0.0
 10
0.3445106319376521
 20
0.2105115981046879
 10
0.3445106319376521
 20
0.2147987447735744
 10
0.3447667117299886
 20
0.2153746280019391
 10
0.3454070397649502
 20
0.2159505112303179
 10
0.3459833478518419
 20
0.2162705022480225
 10
0.3459833478518419
 20
0.2171023495466926
 10
0.3466236758868035
 20
0.2175502507399187
 10
0.3473280238698351
 20
0.2183820980385889
 10
0.3476482521643902
 20
0.2193418555127664
  0
LWPOLYLINE
  5
2F49
330
2
100
AcDbEntity
  8
Dimensione
 62
     2
100
AcDbPolyline
 90
        6
 70
     0
 43
0.0
 10
0.1841392632983201
 20
0.0916187416879666
 10
0.1840787750656005
 20
0.0884753066643214
 10
0.183957869512497
 20
0.0841228664345266
 10
0.183957869512497
 20
0.0830951636619944
 10
0.1846835155681532
 20
0.083397441823152
 10
0.1854696498565431
 20
0.0836392321205324
  0
LWPOLYLINE
  5
2F4B
330
2
100
AcDbEntity
  8
Dimensione
 62
     2
100
AcDbPolyline
 90
        5
 70
     0
 43
0.0
 10
0.1866185717165791
 20
0.0822488707615605
 10
0.1853486733910898
 20
0.0814025778611125
 10
0.183957869512497
 20
0.0806167191051941
 10
0.1834136172426639
 20
0.0804353629523434
 10
0.1832322234568266
 20
0.0804353629523434
  0
LWPOLYLINE
  5
2F4C
330
2
100
AcDbEntity
  8
Dimensione
 62
     2
100
AcDbPolyline
 90
       10
 70
     0
 43
0.0
 10
0.1848649093539762
 20
0.091558307543437
 10
0.1846230273354195
 20
0.0888984531145383
 10
0.1844416335495964
 20
0.0870245111608057
 10
0.1848649093539762
 20
0.0850295934795185
 10
0.1856510436423662
 20
0.083397441823152
 10
0.1865580834838596
 20
0.0821884366170167
 10
0.1877070762562454
 20
0.0811607875637322
 10
0.1890978801348382
 20
0.0804353629523434
 10
0.1908515424974411
 20
0.0803144409440364
 10
0.1923633228414871
 20
0.0801935726549772
  0
LWPOLYLINE
  5
2F4D
330
2
100
AcDbEntity
  8
Dimensione
 62
     2
100
AcDbPolyline
 90
       10
 70
     0
 43
0.0
 10
0.1878279818093489
 20
0.0913164635268089
 10
0.187404706004969
 20
0.0897447460149863
 10
0.1872233122191318
 20
0.088233516366941
 10
0.1872233122191318
 20
0.0866013109913411
 10
0.1877070762562454
 20
0.0851505154878254
 10
0.1886141160977246
 20
0.083518363831459
 10
0.1897630379577748
 20
0.0821884366170167
 10
0.1909120307301606
 20
0.0816443681584787
 10
0.1918795588043736
 20
0.0815234461501717
 10
0.1923028346087534
 20
0.0815234461501717
  0
LWPOLYLINE
  5
2F4E
330
2
100
AcDbEntity
  8
Dimensione
 62
     2
100
AcDbPolyline
 90
       10
 70
     0
 43
0.0
 10
0.1883117458464483
 20
0.0911955952377355
 10
0.1878884700420684
 20
0.0899261021678371
 10
0.1877674935766151
 20
0.0880521602140903
 10
0.1880698638279057
 20
0.0861177303965804
 10
0.1886141160977246
 20
0.0843042225873774
 10
0.1892187856879417
 20
0.0834578759676959
 10
0.1903677784603275
 20
0.0823697927698675
 10
0.1913957947672742
 20
0.0821280024724871
 10
0.1921214408229304
 20
0.0820070804641802
 10
0.1923633228414871
 20
0.0820070804641802
  0
LWPOLYLINE
  5
2F4F
330
2
100
AcDbEntity
  8
Dimensione
 62
     2
100
AcDbPolyline
 90
        6
 70
     0
 43
0.0
 10
0.2003455003660974
 20
0.0916187416879666
 10
0.200405988598817
 20
0.0884753066643214
 10
0.2005268941519205
 20
0.0841228664345266
 10
0.2005268941519205
 20
0.0830951636619944
 10
0.1998012480962643
 20
0.083397441823152
 10
0.1990151138078744
 20
0.0836392321205324
  0
LWPOLYLINE
  5
2F50
330
2
100
AcDbEntity
  8
Dimensione
 62
     2
100
AcDbPolyline
 90
        5
 70
     0
 43
0.0
 10
0.1978661919478384
 20
0.0822488707615605
 10
0.1991360902733277
 20
0.0814025778611125
 10
0.2005268941519205
 20
0.0806167191051941
 10
0.2010711464217536
 20
0.0804353629523434
 10
0.2012525402075909
 20
0.0804353629523434
  0
LWPOLYLINE
  5
2F51
330
2
100
AcDbEntity
  8
Dimensione
 62
     2
100
AcDbPolyline
 90
       10
 70
     0
 43
0.0
 10
0.1996198543104413
 20
0.091558307543437
 10
0.199861736328998
 20
0.0888984531145383
 10
0.2000431301148211
 20
0.0870245111608057
 10
0.1996198543104413
 20
0.0850295934795185
 10
0.1988337200220513
 20
0.083397441823152
 10
0.1979266801805579
 20
0.0821884366170167
 10
0.1967776874081721
 20
0.0811607875637322
 10
0.1953868835295793
 20
0.0804353629523434
 10
0.1936332211669764
 20
0.0803144409440364
 10
0.1921214408229304
 20
0.0801935726549772
  0
LWPOLYLINE
  5
2F52
330
2
100
AcDbEntity
  8
Dimensione
 62
     2
100
AcDbPolyline
 90
       10
 70
     0
 43
0.0
 10
0.1966567818550686
 20
0.0913164635268089
 10
0.1970800576594485
 20
0.0897447460149863
 10
0.1972614514452857
 20
0.088233516366941
 10
0.1972614514452857
 20
0.0866013109913411
 10
0.1967776874081721
 20
0.0851505154878254
 10
0.1958706475666929
 20
0.083518363831459
 10
0.1947217257066427
 20
0.0821884366170167
 10
0.1935727329342569
 20
0.0816443681584787
 10
0.1926052048600439
 20
0.0815234461501717
 10
0.1921819290556641
 20
0.0815234461501717
  0
LWPOLYLINE
  5
2F53
330
2
100
AcDbEntity
  8
Dimensione
 62
     2
100
AcDbPolyline
 90
       10
 70
     0
 43
0.0
 10
0.1961730178179692
 20
0.0911955952377355
 10
0.1965962936223491
 20
0.0899261021678371
 10
0.1967172700878024
 20
0.0880521602140903
 10
0.1964148998365118
 20
0.0861177303965804
 10
0.1958706475666929
 20
0.0843042225873774
 10
0.1952659779764758
 20
0.0834578759676959
 10
0.19411698520409
 20
0.0823697927698675
 10
0.1930889688971433
 20
0.0821280024724871
 10
0.1923633228414871
 20
0.0820070804641802
 10
0.1921214408229304
 20
0.0820070804641802
  0
LWPOLYLINE
  5
2F54
330
2
100
AcDbEntity
  8
Dimensione
 62
     2
100
AcDbPolyline
 90
        6
 70
     0
 43
0.0
 10
0.2021595800490843
 20
0.0916187416879666
 10
0.2020990918163648
 20
0.0884753066643214
 10
0.2019781862632612
 20
0.0841228664345266
 10
0.2019781862632612
 20
0.0830951636619944
 10
0.2027038323189174
 20
0.083397441823152
 10
0.2034899666073073
 20
0.0836392321205324
  0
LWPOLYLINE
  5
2F55
330
2
100
AcDbEntity
  8
Dimensione
 62
     2
100
AcDbPolyline
 90
        5
 70
     0
 43
0.0
 10
0.2046388884673433
 20
0.0822488707615605
 10
0.2033689901418541
 20
0.0814025778611125
 10
0.2019781862632612
 20
0.0806167191051941
 10
0.2014339339934281
 20
0.0804353629523434
 10
0.2012525402075909
 20
0.0804353629523434
  0
LWPOLYLINE
  5
2F56
330
2
100
AcDbEntity
  8
Dimensione
 62
     2
100
AcDbPolyline
 90
       10
 70
     0
 43
0.0
 10
0.2028852261047405
 20
0.091558307543437
 10
0.2026433440861837
 20
0.0888984531145383
 10
0.2024619503003606
 20
0.0870245111608057
 10
0.2028852261047405
 20
0.0850295934795185
 10
0.2036713603931304
 20
0.083397441823152
 10
0.2045784002346238
 20
0.0821884366170167
 10
0.2057273930070096
 20
0.0811607875637322
 10
0.2071181968856024
 20
0.0804353629523434
 10
0.2088718592482053
 20
0.0803144409440364
 10
0.2103836395922514
 20
0.0801935726549772
  0
LWPOLYLINE
  5
2F57
330
2
100
AcDbEntity
  8
Dimensione
 62
     2
100
AcDbPolyline
 90
       10
 70
     0
 43
0.0
 10
0.2058482985601131
 20
0.0913164635268089
 10
0.2054250227557333
 20
0.0897447460149863
 10
0.205243628969896
 20
0.088233516366941
 10
0.205243628969896
 20
0.0866013109913411
 10
0.2057273930070096
 20
0.0851505154878254
 10
0.2066344328484888
 20
0.083518363831459
 10
0.207783354708539
 20
0.0821884366170167
 10
0.2089323474809248
 20
0.0816443681584787
 10
0.2098998755551378
 20
0.0815234461501717
 10
0.2103231513595176
 20
0.0815234461501717
  0
LWPOLYLINE
  5
2F58
330
2
100
AcDbEntity
  8
Dimensione
 62
     2
100
AcDbPolyline
 90
       10
 70
     0
 43
0.0
 10
0.2063320625972125
 20
0.0911955952377355
 10
0.2059087867928326
 20
0.0899261021678371
 10
0.2057878103273794
 20
0.0880521602140903
 10
0.2060901805786699
 20
0.0861177303965804
 10
0.2066344328484888
 20
0.0843042225873774
 10
0.2072391024387059
 20
0.0834578759676959
 10
0.2083880952110917
 20
0.0823697927698675
 10
0.2094161115180384
 20
0.0821280024724871
 10
0.2101417575736946
 20
0.0820070804641802
 10
0.2103836395922514
 20
0.0820070804641802
  0
LWPOLYLINE
  5
2F59
330
2
100
AcDbEntity
  8
Dimensione
 62
     2
100
AcDbPolyline
 90
        6
 70
     0
 43
0.0
 10
0.2183658171168616
 20
0.0916187416879666
 10
0.2184263053495812
 20
0.0884753066643214
 10
0.2185472109026847
 20
0.0841228664345266
 10
0.2185472109026847
 20
0.0830951636619944
 10
0.2178215648470285
 20
0.083397441823152
 10
0.2170354305586386
 20
0.0836392321205324
  0
LWPOLYLINE
  5
2F5A
330
2
100
AcDbEntity
  8
Dimensione
 62
     2
100
AcDbPolyline
 90
        5
 70
     0
 43
0.0
 10
0.2158865086986026
 20
0.0822488707615605
 10
0.2171564070240919
 20
0.0814025778611125
 10
0.2185472109026847
 20
0.0806167191051941
 10
0.2190914631725178
 20
0.0804353629523434
 10
0.2192728569583551
 20
0.0804353629523434
  0
LWPOLYLINE
  5
2F5B
330
2
100
AcDbEntity
  8
Dimensione
 62
     2
100
AcDbPolyline
 90
       10
 70
     0
 43
0.0
 10
0.2176401710612055
 20
0.091558307543437
 10
0.2178820530797623
 20
0.0888984531145383
 10
0.2180634468655853
 20
0.0870245111608057
 10
0.2176401710612055
 20
0.0850295934795185
 10
0.2168540367728156
 20
0.083397441823152
 10
0.2159469969313221
 20
0.0821884366170167
 10
0.2147980041589363
 20
0.0811607875637322
 10
0.2134072002803435
 20
0.0804353629523434
 10
0.2116535379177407
 20
0.0803144409440364
 10
0.2101417575736946
 20
0.0801935726549772
  0
LWPOLYLINE
  5
2F5C
330
2
100
AcDbEntity
  8
Dimensione
 62
     2
100
AcDbPolyline
 90
       10
 70
     0
 43
0.0
 10
0.2146770986058328
 20
0.0913164635268089
 10
0.2151003744102127
 20
0.0897447460149863
 10
0.2152817681960499
 20
0.088233516366941
 10
0.2152817681960499
 20
0.0866013109913411
 10
0.2147980041589363
 20
0.0851505154878254
 10
0.2138909643174571
 20
0.083518363831459
 10
0.2127420424574069
 20
0.0821884366170167
 10
0.2115930496850211
 20
0.0816443681584787
 10
0.2106255216108082
 20
0.0815234461501717
 10
0.2102022458064283
 20
0.0815234461501717
  0
LWPOLYLINE
  5
2F5D
330
2
100
AcDbEntity
  8
Dimensione
 62
     2
100
AcDbPolyline
 90
       10
 70
     0
 43
0.0
 10
0.2141933345687335
 20
0.0911955952377355
 10
0.2146166103731133
 20
0.0899261021678371
 10
0.2147375868385666
 20
0.0880521602140903
 10
0.214435216587276
 20
0.0861177303965804
 10
0.2138909643174571
 20
0.0843042225873774
 10
0.21328629472724
 20
0.0834578759676959
 10
0.2121373019548542
 20
0.0823697927698675
 10
0.2111092856479075
 20
0.0821280024724871
 10
0.2103836395922514
 20
0.0820070804641802
 10
0.2101417575736946
 20
0.0820070804641802
  0
LWPOLYLINE
  5
2F5E
330
2
100
AcDbEntity
  8
Dimensione
 62
     2
100
AcDbPolyline
 90
        6
 70
     0
 43
0.0
 10
0.2201798967998485
 20
0.0916187416879666
 10
0.220119408567129
 20
0.0884753066643214
 10
0.2199985030140255
 20
0.0841228664345266
 10
0.2199985030140255
 20
0.0830951636619944
 10
0.2207241490696816
 20
0.083397441823152
 10
0.2215102833580715
 20
0.0836392321205324
  0
LWPOLYLINE
  5
2F5F
330
2
100
AcDbEntity
  8
Dimensione
 62
     2
100
AcDbPolyline
 90
        5
 70
     0
 43
0.0
 10
0.2226592052181076
 20
0.0822488707615605
 10
0.2213893068926183
 20
0.0814025778611125
 10
0.2199985030140255
 20
0.0806167191051941
 10
0.2194542507441923
 20
0.0804353629523434
 10
0.2192728569583551
 20
0.0804353629523434
  0
LWPOLYLINE
  5
2F60
330
2
100
AcDbEntity
  8
Dimensione
 62
     2
100
AcDbPolyline
 90
       10
 70
     0
 43
0.0
 10
0.2209055428555047
 20
0.091558307543437
 10
0.2206636608369479
 20
0.0888984531145383
 10
0.2204822670511248
 20
0.0870245111608057
 10
0.2209055428555047
 20
0.0850295934795185
 10
0.2216916771438946
 20
0.083397441823152
 10
0.222598716985388
 20
0.0821884366170167
 10
0.2237477097577738
 20
0.0811607875637322
 10
0.2251385136363666
 20
0.0804353629523434
 10
0.2268921759989695
 20
0.0803144409440364
 10
0.2284039563430156
 20
0.0801935726549772
  0
LWPOLYLINE
  5
2F61
330
2
100
AcDbEntity
  8
Dimensione
 62
     2
100
AcDbPolyline
 90
       10
 70
     0
 43
0.0
 10
0.2238686153108773
 20
0.0913164635268089
 10
0.2234453395064975
 20
0.0897447460149863
 10
0.2232639457206602
 20
0.088233516366941
 10
0.2232639457206602
 20
0.0866013109913411
 10
0.2237477097577738
 20
0.0851505154878254
 10
0.224654749599253
 20
0.083518363831459
 10
0.2258036714593032
 20
0.0821884366170167
 10
0.226952664231689
 20
0.0816443681584787
 10
0.227920192305902
 20
0.0815234461501717
 10
0.2283434681102818
 20
0.0815234461501717
  0
LWPOLYLINE
  5
2F62
330
2
100
AcDbEntity
  8
Dimensione
 62
     2
100
AcDbPolyline
 90
       10
 70
     0
 43
0.0
 10
0.2243523793479767
 20
0.0911955952377355
 10
0.2239291035435968
 20
0.0899261021678371
 10
0.2238081270781436
 20
0.0880521602140903
 10
0.2241104973294341
 20
0.0861177303965804
 10
0.224654749599253
 20
0.0843042225873774
 10
0.2252594191894701
 20
0.0834578759676959
 10
0.2264084119618559
 20
0.0823697927698675
 10
0.2274364282688026
 20
0.0821280024724871
 10
0.2281620743244588
 20
0.0820070804641802
 10
0.2284039563430156
 20
0.0820070804641802
  0
LWPOLYLINE
  5
2F63
330
2
100
AcDbEntity
  8
Dimensione
 62
     2
100
AcDbPolyline
 90
        6
 70
     0
 43
0.0
 10
0.2363861338676259
 20
0.0916187416879666
 10
0.2364466221003454
 20
0.0884753066643214
 10
0.2365675276534489
 20
0.0841228664345266
 10
0.2365675276534489
 20
0.0830951636619944
 10
0.2358418815977927
 20
0.083397441823152
 10
0.2350557473094028
 20
0.0836392321205324
  0
LWPOLYLINE
  5
2F64
330
2
100
AcDbEntity
  8
Dimensione
 62
     2
100
AcDbPolyline
 90
        5
 70
     0
 43
0.0
 10
0.2339068254493668
 20
0.0822488707615605
 10
0.2351767237748561
 20
0.0814025778611125
 10
0.2365675276534489
 20
0.0806167191051941
 10
0.237111779923282
 20
0.0804353629523434
 10
0.2372931737091193
 20
0.0804353629523434
  0
LWPOLYLINE
  5
2F65
330
2
100
AcDbEntity
  8
Dimensione
 62
     2
100
AcDbPolyline
 90
       10
 70
     0
 43
0.0
 10
0.2356604878119697
 20
0.091558307543437
 10
0.2359023698305265
 20
0.0888984531145383
 10
0.2360837636163495
 20
0.0870245111608057
 10
0.2356604878119697
 20
0.0850295934795185
 10
0.2348743535235798
 20
0.083397441823152
 10
0.2339673136820863
 20
0.0821884366170167
 10
0.2328183209097006
 20
0.0811607875637322
 10
0.2314275170311077
 20
0.0804353629523434
 10
0.2296738546685049
 20
0.0803144409440364
 10
0.2281620743244588
 20
0.0801935726549772
  0
LWPOLYLINE
  5
2F66
330
2
100
AcDbEntity
  8
Dimensione
 62
     2
100
AcDbPolyline
 90
       10
 70
     0
 43
0.0
 10
0.232697415356597
 20
0.0913164635268089
 10
0.2331206911609769
 20
0.0897447460149863
 10
0.2333020849468141
 20
0.088233516366941
 10
0.2333020849468141
 20
0.0866013109913411
 10
0.2328183209097006
 20
0.0851505154878254
 10
0.2319112810682213
 20
0.083518363831459
 10
0.2307623592081711
 20
0.0821884366170167
 10
0.2296133664357853
 20
0.0816443681584787
 10
0.2286458383615724
 20
0.0815234461501717
 10
0.2282225625571925
 20
0.0815234461501717
  0
LWPOLYLINE
  5
2F67
330
2
100
AcDbEntity
  8
Dimensione
 62
     2
100
AcDbPolyline
 90
       10
 70
     0
 43
0.0
 10
0.2322136513194977
 20
0.0911955952377355
 10
0.2326369271238775
 20
0.0899261021678371
 10
0.2327579035893308
 20
0.0880521602140903
 10
0.2324555333380402
 20
0.0861177303965804
 10
0.2319112810682213
 20
0.0843042225873774
 10
0.2313066114780042
 20
0.0834578759676959
 10
0.2301576187056185
 20
0.0823697927698675
 10
0.2291296023986717
 20
0.0821280024724871
 10
0.2284039563430156
 20
0.0820070804641802
 10
0.2281620743244588
 20
0.0820070804641802
  0
LWPOLYLINE
  5
2F68
330
2
100
AcDbEntity
  8
Dimensione
 62
     2
100
AcDbPolyline
 90
        6
 70
     0
 43
0.0
 10
0.2382002135506127
 20
0.0916187416879666
 10
0.2381397253178932
 20
0.0884753066643214
 10
0.2380188197647897
 20
0.0841228664345266
 10
0.2380188197647897
 20
0.0830951636619944
 10
0.2387444658204458
 20
0.083397441823152
 10
0.2395306001088358
 20
0.0836392321205324
  0
LWPOLYLINE
  5
2F69
330
2
100
AcDbEntity
  8
Dimensione
 62
     2
100
AcDbPolyline
 90
        5
 70
     0
 43
0.0
 10
0.2406795219688718
 20
0.0822488707615605
 10
0.2394096236433825
 20
0.0814025778611125
 10
0.2380188197647897
 20
0.0806167191051941
 10
0.2374745674949565
 20
0.0804353629523434
 10
0.2372931737091193
 20
0.0804353629523434
  0
LWPOLYLINE
  5
2F6A
330
2
100
AcDbEntity
  8
Dimensione
 62
     2
100
AcDbPolyline
 90
       10
 70
     0
 43
0.0
 10
0.2389258596062689
 20
0.091558307543437
 10
0.2386839775877121
 20
0.0888984531145383
 10
0.238502583801889
 20
0.0870245111608057
 10
0.2389258596062689
 20
0.0850295934795185
 10
0.2397119938946588
 20
0.083397441823152
 10
0.2406190337361522
 20
0.0821884366170167
 10
0.241768026508538
 20
0.0811607875637322
 10
0.2431588303871308
 20
0.0804353629523434
 10
0.2449124927497337
 20
0.0803144409440364
 10
0.2464242730937798
 20
0.0801935726549772
  0
LWPOLYLINE
  5
2F6B
330
2
100
AcDbEntity
  8
Dimensione
 62
     2
100
AcDbPolyline
 90
       10
 70
     0
 43
0.0
 10
0.2418889320616415
 20
0.0913164635268089
 10
0.2414656562572617
 20
0.0897447460149863
 10
0.2412842624714244
 20
0.088233516366941
 10
0.2412842624714244
 20
0.0866013109913411
 10
0.241768026508538
 20
0.0851505154878254
 10
0.2426750663500172
 20
0.083518363831459
 10
0.2438239882100674
 20
0.0821884366170167
 10
0.2449729809824532
 20
0.0816443681584787
 10
0.2459405090566662
 20
0.0815234461501717
 10
0.246363784861046
 20
0.0815234461501717
  0
LWPOLYLINE
  5
2F6C
330
2
100
AcDbEntity
  8
Dimensione
 62
     2
100
AcDbPolyline
 90
       10
 70
     0
 43
0.0
 10
0.2423726960987409
 20
0.0911955952377355
 10
0.2419494202943611
 20
0.0899261021678371
 10
0.2418284438289078
 20
0.0880521602140903
 10
0.2421308140801983
 20
0.0861177303965804
 10
0.2426750663500172
 20
0.0843042225873774
 10
0.2432797359402343
 20
0.0834578759676959
 10
0.2444287287126201
 20
0.0823697927698675
 10
0.2454567450195668
 20
0.0821280024724871
 10
0.246182391075223
 20
0.0820070804641802
 10
0.2464242730937798
 20
0.0820070804641802
  0
LWPOLYLINE
  5
2F6D
330
2
100
AcDbEntity
  8
Dimensione
 62
     2
100
AcDbPolyline
 90
        6
 70
     0
 43
0.0
 10
0.2544064506183901
 20
0.0916187416879666
 10
0.2544669388511096
 20
0.0884753066643214
 10
0.2545878444042131
 20
0.0841228664345266
 10
0.2545878444042131
 20
0.0830951636619944
 10
0.2538621983485569
 20
0.083397441823152
 10
0.253076064060167
 20
0.0836392321205324
  0
LWPOLYLINE
  5
2F6E
330
2
100
AcDbEntity
  8
Dimensione
 62
     2
100
AcDbPolyline
 90
        5
 70
     0
 43
0.0
 10
0.251927142200131
 20
0.0822488707615605
 10
0.2531970405256203
 20
0.0814025778611125
 10
0.2545878444042131
 20
0.0806167191051941
 10
0.2551320966740462
 20
0.0804353629523434
 10
0.2553134904598835
 20
0.0804353629523434
  0
LWPOLYLINE
  5
2F6F
330
2
100
AcDbEntity
  8
Dimensione
 62
     2
100
AcDbPolyline
 90
       10
 70
     0
 43
0.0
 10
0.2536808045627339
 20
0.091558307543437
 10
0.2539226865812907
 20
0.0888984531145383
 10
0.2541040803671137
 20
0.0870245111608057
 10
0.2536808045627339
 20
0.0850295934795185
 10
0.252894670274344
 20
0.083397441823152
 10
0.2519876304328505
 20
0.0821884366170167
 10
0.2508386376604648
 20
0.0811607875637322
 10
0.249447833781872
 20
0.0804353629523434
 10
0.2476941714192691
 20
0.0803144409440364
 10
0.246182391075223
 20
0.0801935726549772
  0
LWPOLYLINE
  5
2F70
330
2
100
AcDbEntity
  8
Dimensione
 62
     2
100
AcDbPolyline
 90
       10
 70
     0
 43
0.0
 10
0.2507177321073613
 20
0.0913164635268089
 10
0.2511410079117411
 20
0.0897447460149863
 10
0.2513224016975784
 20
0.088233516366941
 10
0.2513224016975784
 20
0.0866013109913411
 10
0.2508386376604648
 20
0.0851505154878254
 10
0.2499315978189855
 20
0.083518363831459
 10
0.2487826759589353
 20
0.0821884366170167
 10
0.2476336831865495
 20
0.0816443681584787
 10
0.2466661551123366
 20
0.0815234461501717
 10
0.2462428793079567
 20
0.0815234461501717
  0
LWPOLYLINE
  5
2F71
330
2
100
AcDbEntity
  8
Dimensione
 62
     2
100
AcDbPolyline
 90
       10
 70
     0
 43
0.0
 10
0.2502339680702619
 20
0.0911955952377355
 10
0.2506572438746417
 20
0.0899261021678371
 10
0.250778220340095
 20
0.0880521602140903
 10
0.2504758500888045
 20
0.0861177303965804
 10
0.2499315978189855
 20
0.0843042225873774
 10
0.2493269282287684
 20
0.0834578759676959
 10
0.2481779354563827
 20
0.0823697927698675
 10
0.247149919149436
 20
0.0821280024724871
 10
0.2464242730937798
 20
0.0820070804641802
 10
0.246182391075223
 20
0.0820070804641802
  0
LWPOLYLINE
  5
2F72
330
2
100
AcDbEntity
  8
Dimensione
 62
     2
100
AcDbPolyline
 90
        6
 70
     0
 43
0.0
 10
0.2562205303013769
 20
0.0916187416879666
 10
0.2561600420686574
 20
0.0884753066643214
 10
0.2560391365155539
 20
0.0841228664345266
 10
0.2560391365155539
 20
0.0830951636619944
 10
0.25676478257121
 20
0.083397441823152
 10
0.2575509168596
 20
0.0836392321205324
  0
LWPOLYLINE
  5
2F73
330
2
100
AcDbEntity
  8
Dimensione
 62
     2
100
AcDbPolyline
 90
        5
 70
     0
 43
0.0
 10
0.258699838719636
 20
0.0822488707615605
 10
0.2574299403941467
 20
0.0814025778611125
 10
0.2560391365155539
 20
0.0806167191051941
 10
0.2554948842457207
 20
0.0804353629523434
 10
0.2553134904598835
 20
0.0804353629523434
  0
LWPOLYLINE
  5
2F74
330
2
100
AcDbEntity
  8
Dimensione
 62
     2
100
AcDbPolyline
 90
       10
 70
     0
 43
0.0
 10
0.2569461763570331
 20
0.091558307543437
 10
0.2567042943384763
 20
0.0888984531145383
 10
0.2565229005526532
 20
0.0870245111608057
 10
0.2569461763570331
 20
0.0850295934795185
 10
0.257732310645423
 20
0.083397441823152
 10
0.2586393504869164
 20
0.0821884366170167
 10
0.2597883432593022
 20
0.0811607875637322
 10
0.261179147137895
 20
0.0804353629523434
 10
0.2629328095004979
 20
0.0803144409440364
 10
0.264444589844544
 20
0.0801935726549772
  0
LWPOLYLINE
  5
2F75
330
2
100
AcDbEntity
  8
Dimensione
 62
     2
100
AcDbPolyline
 90
       10
 70
     0
 43
0.0
 10
0.2599092488124057
 20
0.0913164635268089
 10
0.2594859730080259
 20
0.0897447460149863
 10
0.2593045792221886
 20
0.088233516366941
 10
0.2593045792221886
 20
0.0866013109913411
 10
0.2597883432593022
 20
0.0851505154878254
 10
0.2606953831007814
 20
0.083518363831459
 10
0.2618443049608317
 20
0.0821884366170167
 10
0.2629932977332174
 20
0.0816443681584787
 10
0.2639608258074304
 20
0.0815234461501717
 10
0.2643841016118102
 20
0.0815234461501717
  0
LWPOLYLINE
  5
2F76
330
2
100
AcDbEntity
  8
Dimensione
 62
     2
100
AcDbPolyline
 90
       10
 70
     0
 43
0.0
 10
0.2603930128495051
 20
0.0911955952377355
 10
0.2599697370451253
 20
0.0899261021678371
 10
0.259848760579672
 20
0.0880521602140903
 10
0.2601511308309625
 20
0.0861177303965804
 10
0.2606953831007814
 20
0.0843042225873774
 10
0.2613000526909985
 20
0.0834578759676959
 10
0.2624490454633843
 20
0.0823697927698675
 10
0.263477061770331
 20
0.0821280024724871
 10
0.2642027078259872
 20
0.0820070804641802
 10
0.264444589844544
 20
0.0820070804641802
  0
LWPOLYLINE
  5
2F77
330
2
100
AcDbEntity
  8
Dimensione
 62
     2
100
AcDbPolyline
 90
        6
 70
     0
 43
0.0
 10
0.2724267673691543
 20
0.0916187416879666
 10
0.2724872556018738
 20
0.0884753066643214
 10
0.2726081611549773
 20
0.0841228664345266
 10
0.2726081611549773
 20
0.0830951636619944
 10
0.2718825150993211
 20
0.083397441823152
 10
0.2710963808109312
 20
0.0836392321205324
  0
LWPOLYLINE
  5
2F78
330
2
100
AcDbEntity
  8
Dimensione
 62
     2
100
AcDbPolyline
 90
        5
 70
     0
 43
0.0
 10
0.2699474589508952
 20
0.0822488707615605
 10
0.2712173572763845
 20
0.0814025778611125
 10
0.2726081611549773
 20
0.0806167191051941
 10
0.2731524134248104
 20
0.0804353629523434
 10
0.2733338072106477
 20
0.0804353629523434
  0
LWPOLYLINE
  5
2F79
330
2
100
AcDbEntity
  8
Dimensione
 62
     2
100
AcDbPolyline
 90
       10
 70
     0
 43
0.0
 10
0.2717011213134981
 20
0.091558307543437
 10
0.2719430033320549
 20
0.0888984531145383
 10
0.2721243971178779
 20
0.0870245111608057
 10
0.2717011213134981
 20
0.0850295934795185
 10
0.2709149870251082
 20
0.083397441823152
 10
0.2700079471836148
 20
0.0821884366170167
 10
0.268858954411229
 20
0.0811607875637322
 10
0.2674681505326362
 20
0.0804353629523434
 10
0.2657144881700333
 20
0.0803144409440364
 10
0.2642027078259872
 20
0.0801935726549772
  0
LWPOLYLINE
  5
2F7A
330
2
100
AcDbEntity
  8
Dimensione
 62
     2
100
AcDbPolyline
 90
       10
 70
     0
 43
0.0
 10
0.2687380488581255
 20
0.0913164635268089
 10
0.2691613246625053
 20
0.0897447460149863
 10
0.2693427184483426
 20
0.088233516366941
 10
0.2693427184483426
 20
0.0866013109913411
 10
0.268858954411229
 20
0.0851505154878254
 10
0.2679519145697498
 20
0.083518363831459
 10
0.2668029927096995
 20
0.0821884366170167
 10
0.2656539999373138
 20
0.0816443681584787
 10
0.2646864718631008
 20
0.0815234461501717
 10
0.2642631960587209
 20
0.0815234461501717
  0
LWPOLYLINE
  5
2F7B
330
2
100
AcDbEntity
  8
Dimensione
 62
     2
100
AcDbPolyline
 90
       10
 70
     0
 43
0.0
 10
0.2682542848210261
 20
0.0911955952377355
 10
0.2686775606254059
 20
0.0899261021678371
 10
0.2687985370908592
 20
0.0880521602140903
 10
0.2684961668395687
 20
0.0861177303965804
 10
0.2679519145697498
 20
0.0843042225873774
 10
0.2673472449795327
 20
0.0834578759676959
 10
0.2661982522071469
 20
0.0823697927698675
 10
0.2651702359002002
 20
0.0821280024724871
 10
0.264444589844544
 20
0.0820070804641802
 10
0.2642027078259872
 20
0.0820070804641802
  0
LWPOLYLINE
  5
2F7C
330
2
100
AcDbEntity
  8
Dimensione
 62
     2
100
AcDbPolyline
 90
        6
 70
     0
 43
0.0
 10
0.2742408470521411
 20
0.0916187416879666
 10
0.2741803588194216
 20
0.0884753066643214
 10
0.2740594532663181
 20
0.0841228664345266
 10
0.2740594532663181
 20
0.0830951636619944
 10
0.2747850993219743
 20
0.083397441823152
 10
0.2755712336103642
 20
0.0836392321205324
  0
LWPOLYLINE
  5
2F7D
330
2
100
AcDbEntity
  8
Dimensione
 62
     2
100
AcDbPolyline
 90
        5
 70
     0
 43
0.0
 10
0.2767201554704002
 20
0.0822488707615605
 10
0.2754502571449109
 20
0.0814025778611125
 10
0.2740594532663181
 20
0.0806167191051941
 10
0.273515200996485
 20
0.0804353629523434
 10
0.2733338072106477
 20
0.0804353629523434
  0
LWPOLYLINE
  5
2F7E
330
2
100
AcDbEntity
  8
Dimensione
 62
     2
100
AcDbPolyline
 90
       10
 70
     0
 43
0.0
 10
0.2749664931077973
 20
0.091558307543437
 10
0.2747246110892405
 20
0.0888984531145383
 10
0.2745432173034175
 20
0.0870245111608057
 10
0.2749664931077973
 20
0.0850295934795185
 10
0.2757526273961872
 20
0.083397441823152
 10
0.2766596672376806
 20
0.0821884366170167
 10
0.2778086600100664
 20
0.0811607875637322
 10
0.2791994638886592
 20
0.0804353629523434
 10
0.2809531262512621
 20
0.0803144409440364
 10
0.2824649065953082
 20
0.0801935726549772
  0
LWPOLYLINE
  5
2F7F
330
2
100
AcDbEntity
  8
Dimensione
 62
     2
100
AcDbPolyline
 90
       10
 70
     0
 43
0.0
 10
0.2779295655631699
 20
0.0913164635268089
 10
0.2775062897587901
 20
0.0897447460149863
 10
0.2773248959729528
 20
0.088233516366941
 10
0.2773248959729528
 20
0.0866013109913411
 10
0.2778086600100664
 20
0.0851505154878254
 10
0.2787156998515456
 20
0.083518363831459
 10
0.2798646217115959
 20
0.0821884366170167
 10
0.2810136144839816
 20
0.0816443681584787
 10
0.2819811425581946
 20
0.0815234461501717
 10
0.2824044183625744
 20
0.0815234461501717
  0
LWPOLYLINE
  5
2F80
330
2
100
AcDbEntity
  8
Dimensione
 62
     2
100
AcDbPolyline
 90
       10
 70
     0
 43
0.0
 10
0.2784133296002693
 20
0.0911955952377355
 10
0.2779900537958895
 20
0.0899261021678371
 10
0.2778690773304362
 20
0.0880521602140903
 10
0.2781714475817267
 20
0.0861177303965804
 10
0.2787156998515456
 20
0.0843042225873774
 10
0.2793203694417627
 20
0.0834578759676959
 10
0.2804693622141485
 20
0.0823697927698675
 10
0.2814973785210952
 20
0.0821280024724871
 10
0.2822230245767514
 20
0.0820070804641802
 10
0.2824649065953082
 20
0.0820070804641802
  0
LWPOLYLINE
  5
2F81
330
2
100
AcDbEntity
  8
Dimensione
 62
     2
100
AcDbPolyline
 90
        6
 70
     0
 43
0.0
 10
0.2904470841199185
 20
0.0916187416879666
 10
0.290507572352638
 20
0.0884753066643214
 10
0.2906284779057415
 20
0.0841228664345266
 10
0.2906284779057415
 20
0.0830951636619944
 10
0.2899028318500853
 20
0.083397441823152
 10
0.2891166975616954
 20
0.0836392321205324
  0
LWPOLYLINE
  5
2F82
330
2
100
AcDbEntity
  8
Dimensione
 62
     2
100
AcDbPolyline
 90
        5
 70
     0
 43
0.0
 10
0.2879677757016594
 20
0.0822488707615605
 10
0.2892376740271487
 20
0.0814025778611125
 10
0.2906284779057415
 20
0.0806167191051941
 10
0.2911727301755746
 20
0.0804353629523434
 10
0.2913541239614119
 20
0.0804353629523434
  0
LWPOLYLINE
  5
2F83
330
2
100
AcDbEntity
  8
Dimensione
 62
     2
100
AcDbPolyline
 90
       10
 70
     0
 43
0.0
 10
0.2897214380642623
 20
0.091558307543437
 10
0.2899633200828191
 20
0.0888984531145383
 10
0.2901447138686421
 20
0.0870245111608057
 10
0.2897214380642623
 20
0.0850295934795185
 10
0.2889353037758724
 20
0.083397441823152
 10
0.288028263934379
 20
0.0821884366170167
 10
0.2868792711619932
 20
0.0811607875637322
 10
0.2854884672834004
 20
0.0804353629523434
 10
0.2837348049207975
 20
0.0803144409440364
 10
0.2822230245767514
 20
0.0801935726549772
  0
LWPOLYLINE
  5
2F84
330
2
100
AcDbEntity
  8
Dimensione
 62
     2
100
AcDbPolyline
 90
       10
 70
     0
 43
0.0
 10
0.2867583656088897
 20
0.0913164635268089
 10
0.2871816414132695
 20
0.0897447460149863
 10
0.2873630351991068
 20
0.088233516366941
 10
0.2873630351991068
 20
0.0866013109913411
 10
0.2868792711619932
 20
0.0851505154878254
 10
0.285972231320514
 20
0.083518363831459
 10
0.2848233094604637
 20
0.0821884366170167
 10
0.283674316688078
 20
0.0816443681584787
 10
0.282706788613865
 20
0.0815234461501717
 10
0.2822835128094851
 20
0.0815234461501717
  0
LWPOLYLINE
  5
2F85
330
2
100
AcDbEntity
  8
Dimensione
 62
     2
100
AcDbPolyline
 90
       10
 70
     0
 43
0.0
 10
0.2862746015717903
 20
0.0911955952377355
 10
0.2866978773761701
 20
0.0899261021678371
 10
0.2868188538416234
 20
0.0880521602140903
 10
0.2865164835903329
 20
0.0861177303965804
 10
0.285972231320514
 20
0.0843042225873774
 10
0.2853675617302969
 20
0.0834578759676959
 10
0.2842185689579111
 20
0.0823697927698675
 10
0.2831905526509644
 20
0.0821280024724871
 10
0.2824649065953082
 20
0.0820070804641802
 10
0.2822230245767514
 20
0.0820070804641802
  0
LWPOLYLINE
  5
2F86
330
2
100
AcDbEntity
  8
Dimensione
 62
     2
100
AcDbPolyline
 90
        6
 70
     0
 43
0.0
 10
0.2922611638029053
 20
0.0916187416879666
 10
0.2922006755701858
 20
0.0884753066643214
 10
0.2920797700170823
 20
0.0841228664345266
 10
0.2920797700170823
 20
0.0830951636619944
 10
0.2928054160727385
 20
0.083397441823152
 10
0.2935915503611284
 20
0.0836392321205324
  0
LWPOLYLINE
  5
2F87
330
2
100
AcDbEntity
  8
Dimensione
 62
     2
100
AcDbPolyline
 90
        5
 70
     0
 43
0.0
 10
0.2947404722211644
 20
0.0822488707615605
 10
0.2934705738956751
 20
0.0814025778611125
 10
0.2920797700170823
 20
0.0806167191051941
 10
0.2915355177472492
 20
0.0804353629523434
 10
0.2913541239614119
 20
0.0804353629523434
  0
LWPOLYLINE
  5
2F88
330
2
100
AcDbEntity
  8
Dimensione
 62
     2
100
AcDbPolyline
 90
       10
 70
     0
 43
0.0
 10
0.2929868098585615
 20
0.091558307543437
 10
0.2927449278400047
 20
0.0888984531145383
 10
0.2925635340541817
 20
0.0870245111608057
 10
0.2929868098585615
 20
0.0850295934795185
 10
0.2937729441469514
 20
0.083397441823152
 10
0.2946799839884448
 20
0.0821884366170167
 10
0.2958289767608306
 20
0.0811607875637322
 10
0.2972197806394234
 20
0.0804353629523434
 10
0.2989734430020263
 20
0.0803144409440364
 10
0.3004852233460724
 20
0.0801935726549772
  0
LWPOLYLINE
  5
2F89
330
2
100
AcDbEntity
  8
Dimensione
 62
     2
100
AcDbPolyline
 90
       10
 70
     0
 43
0.0
 10
0.2959498823139341
 20
0.0913164635268089
 10
0.2955266065095543
 20
0.0897447460149863
 10
0.295345212723717
 20
0.088233516366941
 10
0.295345212723717
 20
0.0866013109913411
 10
0.2958289767608306
 20
0.0851505154878254
 10
0.2967360166023098
 20
0.083518363831459
 10
0.2978849384623601
 20
0.0821884366170167
 10
0.2990339312347458
 20
0.0816443681584787
 10
0.3000014593089588
 20
0.0815234461501717
 10
0.3004247351133387
 20
0.0815234461501717
  0
LWPOLYLINE
  5
2F8A
330
2
100
AcDbEntity
  8
Dimensione
 62
     2
100
AcDbPolyline
 90
       10
 70
     0
 43
0.0
 10
0.2964336463510335
 20
0.0911955952377355
 10
0.2960103705466537
 20
0.0899261021678371
 10
0.2958893940812004
 20
0.0880521602140903
 10
0.2961917643324909
 20
0.0861177303965804
 10
0.2967360166023098
 20
0.0843042225873774
 10
0.2973406861925269
 20
0.0834578759676959
 10
0.2984896789649127
 20
0.0823697927698675
 10
0.2995176952718594
 20
0.0821280024724871
 10
0.3002433413275156
 20
0.0820070804641802
 10
0.3004852233460724
 20
0.0820070804641802
  0
LWPOLYLINE
  5
2F8B
330
2
100
AcDbEntity
  8
Dimensione
 62
     2
100
AcDbPolyline
 90
        6
 70
     0
 43
0.0
 10
0.3084674008706827
 20
0.0916187416879666
 10
0.3085278891034022
 20
0.0884753066643214
 10
0.3086487946565057
 20
0.0841228664345266
 10
0.3086487946565057
 20
0.0830951636619944
 10
0.3079231486008496
 20
0.083397441823152
 10
0.3071370143124596
 20
0.0836392321205324
  0
LWPOLYLINE
  5
2F8C
330
2
100
AcDbEntity
  8
Dimensione
 62
     2
100
AcDbPolyline
 90
        5
 70
     0
 43
0.0
 10
0.3059880924524236
 20
0.0822488707615605
 10
0.3072579907779129
 20
0.0814025778611125
 10
0.3086487946565057
 20
0.0806167191051941
 10
0.3091930469263389
 20
0.0804353629523434
 10
0.3093744407121761
 20
0.0804353629523434
  0
LWPOLYLINE
  5
2F8D
330
2
100
AcDbEntity
  8
Dimensione
 62
     2
100
AcDbPolyline
 90
       10
 70
     0
 43
0.0
 10
0.3077417548150265
 20
0.091558307543437
 10
0.3079836368335833
 20
0.0888984531145383
 10
0.3081650306194064
 20
0.0870245111608057
 10
0.3077417548150265
 20
0.0850295934795185
 10
0.3069556205266366
 20
0.083397441823152
 10
0.3060485806851432
 20
0.0821884366170167
 10
0.3048995879127574
 20
0.0811607875637322
 10
0.3035087840341646
 20
0.0804353629523434
 10
0.3017551216715617
 20
0.0803144409440364
 10
0.3002433413275156
 20
0.0801935726549772
  0
LWPOLYLINE
  5
2F8E
330
2
100
AcDbEntity
  8
Dimensione
 62
     2
100
AcDbPolyline
 90
       10
 70
     0
 43
0.0
 10
0.3047786823596539
 20
0.0913164635268089
 10
0.3052019581640337
 20
0.0897447460149863
 10
0.305383351949871
 20
0.088233516366941
 10
0.305383351949871
 20
0.0866013109913411
 10
0.3048995879127574
 20
0.0851505154878254
 10
0.3039925480712782
 20
0.083518363831459
 10
0.302843626211228
 20
0.0821884366170167
 10
0.3016946334388422
 20
0.0816443681584787
 10
0.3007271053646292
 20
0.0815234461501717
 10
0.3003038295602494
 20
0.0815234461501717
  0
LWPOLYLINE
  5
2F8F
330
2
100
AcDbEntity
  8
Dimensione
 62
     2
100
AcDbPolyline
 90
       10
 70
     0
 43
0.0
 10
0.3042949183225545
 20
0.0911955952377355
 10
0.3047181941269343
 20
0.0899261021678371
 10
0.3048391705923876
 20
0.0880521602140903
 10
0.3045368003410971
 20
0.0861177303965804
 10
0.3039925480712782
 20
0.0843042225873774
 10
0.3033878784810611
 20
0.0834578759676959
 10
0.3022388857086753
 20
0.0823697927698675
 10
0.3012108694017286
 20
0.0821280024724871
 10
0.3004852233460724
 20
0.0820070804641802
 10
0.3002433413275156
 20
0.0820070804641802
  0
LWPOLYLINE
  5
2F90
330
2
100
AcDbEntity
  8
Dimensione
 62
     2
100
AcDbPolyline
 90
        6
 70
     0
 43
0.0
 10
0.3102814805536695
 20
0.0916187416879666
 10
0.31022099232095
 20
0.0884753066643214
 10
0.3101000867678465
 20
0.0841228664345266
 10
0.3101000867678465
 20
0.0830951636619944
 10
0.3108257328235027
 20
0.083397441823152
 10
0.3116118671118926
 20
0.0836392321205324
  0
LWPOLYLINE
  5
2F91
330
2
100
AcDbEntity
  8
Dimensione
 62
     2
100
AcDbPolyline
 90
        5
 70
     0
 43
0.0
 10
0.3127607889719286
 20
0.0822488707615605
 10
0.3114908906464393
 20
0.0814025778611125
 10
0.3101000867678465
 20
0.0806167191051941
 10
0.3095558344980134
 20
0.0804353629523434
 10
0.3093744407121761
 20
0.0804353629523434
  0
LWPOLYLINE
  5
2F92
330
2
100
AcDbEntity
  8
Dimensione
 62
     2
100
AcDbPolyline
 90
       10
 70
     0
 43
0.0
 10
0.3110071266093257
 20
0.091558307543437
 10
0.3107652445907689
 20
0.0888984531145383
 10
0.3105838508049459
 20
0.0870245111608057
 10
0.3110071266093257
 20
0.0850295934795185
 10
0.3117932608977156
 20
0.083397441823152
 10
0.3127003007392091
 20
0.0821884366170167
 10
0.3138492935115948
 20
0.0811607875637322
 10
0.3152400973901877
 20
0.0804353629523434
 10
0.3169937597527905
 20
0.0803144409440364
 10
0.3185055400968366
 20
0.0801935726549772
  0
LWPOLYLINE
  5
2F93
330
2
100
AcDbEntity
  8
Dimensione
 62
     2
100
AcDbPolyline
 90
       10
 70
     0
 43
0.0
 10
0.3139701990646984
 20
0.0913164635268089
 10
0.3135469232603185
 20
0.0897447460149863
 10
0.3133655294744813
 20
0.088233516366941
 10
0.3133655294744813
 20
0.0866013109913411
 10
0.3138492935115948
 20
0.0851505154878254
 10
0.3147563333530741
 20
0.083518363831459
 10
0.3159052552131243
 20
0.0821884366170167
 10
0.3170542479855101
 20
0.0816443681584787
 10
0.318021776059723
 20
0.0815234461501717
 10
0.3184450518641029
 20
0.0815234461501717
  0
LWPOLYLINE
  5
2F94
330
2
100
AcDbEntity
  8
Dimensione
 62
     2
100
AcDbPolyline
 90
       10
 70
     0
 43
0.0
 10
0.3144539631017977
 20
0.0911955952377355
 10
0.3140306872974179
 20
0.0899261021678371
 10
0.3139097108319646
 20
0.0880521602140903
 10
0.3142120810832552
 20
0.0861177303965804
 10
0.3147563333530741
 20
0.0843042225873774
 10
0.3153610029432912
 20
0.0834578759676959
 10
0.3165099957156769
 20
0.0823697927698675
 10
0.3175380120226237
 20
0.0821280024724871
 10
0.3182636580782798
 20
0.0820070804641802
 10
0.3185055400968366
 20
0.0820070804641802
  0
LWPOLYLINE
  5
2F95
330
2
100
AcDbEntity
  8
Dimensione
 62
     2
100
AcDbPolyline
 90
        6
 70
     0
 43
0.0
 10
0.3264877176214469
 20
0.0916187416879666
 10
0.3265482058541664
 20
0.0884753066643214
 10
0.3266691114072699
 20
0.0841228664345266
 10
0.3266691114072699
 20
0.0830951636619944
 10
0.3259434653516138
 20
0.083397441823152
 10
0.3251573310632239
 20
0.0836392321205324
  0
LWPOLYLINE
  5
2F96
330
2
100
AcDbEntity
  8
Dimensione
 62
     2
100
AcDbPolyline
 90
        5
 70
     0
 43
0.0
 10
0.3240084092031878
 20
0.0822488707615605
 10
0.3252783075286771
 20
0.0814025778611125
 10
0.3266691114072699
 20
0.0806167191051941
 10
0.3272133636771031
 20
0.0804353629523434
 10
0.3273947574629403
 20
0.0804353629523434
  0
LWPOLYLINE
  5
2F97
330
2
100
AcDbEntity
  8
Dimensione
 62
     2
100
AcDbPolyline
 90
       10
 70
     0
 43
0.0
 10
0.3257620715657907
 20
0.091558307543437
 10
0.3260039535843475
 20
0.0888984531145383
 10
0.3261853473701706
 20
0.0870245111608057
 10
0.3257620715657907
 20
0.0850295934795185
 10
0.3249759372774008
 20
0.083397441823152
 10
0.3240688974359074
 20
0.0821884366170167
 10
0.3229199046635216
 20
0.0811607875637322
 10
0.3215291007849288
 20
0.0804353629523434
 10
0.3197754384223259
 20
0.0803144409440364
 10
0.3182636580782798
 20
0.0801935726549772
  0
LWPOLYLINE
  5
2F98
330
2
100
AcDbEntity
  8
Dimensione
 62
     2
100
AcDbPolyline
 90
       10
 70
     0
 43
0.0
 10
0.3227989991104181
 20
0.0913164635268089
 10
0.3232222749147979
 20
0.0897447460149863
 10
0.3234036687006352
 20
0.088233516366941
 10
0.3234036687006352
 20
0.0866013109913411
 10
0.3229199046635216
 20
0.0851505154878254
 10
0.3220128648220424
 20
0.083518363831459
 10
0.3208639429619922
 20
0.0821884366170167
 10
0.3197149501896064
 20
0.0816443681584787
 10
0.3187474221153934
 20
0.0815234461501717
 10
0.3183241463110136
 20
0.0815234461501717
  0
LWPOLYLINE
  5
2F99
330
2
100
AcDbEntity
  8
Dimensione
 62
     2
100
AcDbPolyline
 90
       10
 70
     0
 43
0.0
 10
0.3223152350733187
 20
0.0911955952377355
 10
0.3227385108776986
 20
0.0899261021678371
 10
0.3228594873431518
 20
0.0880521602140903
 10
0.3225571170918613
 20
0.0861177303965804
 10
0.3220128648220424
 20
0.0843042225873774
 10
0.3214081952318253
 20
0.0834578759676959
 10
0.3202592024594395
 20
0.0823697927698675
 10
0.3192311861524928
 20
0.0821280024724871
 10
0.3185055400968366
 20
0.0820070804641802
 10
0.3182636580782798
 20
0.0820070804641802
  0
LWPOLYLINE
  5
2F9A
330
2
100
AcDbEntity
  8
Dimensione
 62
     2
100
AcDbPolyline
 90
        6
 70
     0
 43
0.0
 10
0.3283017973044338
 20
0.0916187416879666
 10
0.3282413090717142
 20
0.0884753066643214
 10
0.3281204035186107
 20
0.0841228664345266
 10
0.3281204035186107
 20
0.0830951636619944
 10
0.3288460495742669
 20
0.083397441823152
 10
0.3296321838626568
 20
0.0836392321205324
  0
LWPOLYLINE
  5
2F9B
330
2
100
AcDbEntity
  8
Dimensione
 62
     2
100
AcDbPolyline
 90
        5
 70
     0
 43
0.0
 10
0.3307811057226928
 20
0.0822488707615605
 10
0.3295112073972035
 20
0.0814025778611125
 10
0.3281204035186107
 20
0.0806167191051941
 10
0.3275761512487776
 20
0.0804353629523434
 10
0.3273947574629403
 20
0.0804353629523434
  0
LWPOLYLINE
  5
2F9C
330
2
100
AcDbEntity
  8
Dimensione
 62
     2
100
AcDbPolyline
 90
       10
 70
     0
 43
0.0
 10
0.3290274433600899
 20
0.091558307543437
 10
0.3287855613415331
 20
0.0888984531145383
 10
0.3286041675557101
 20
0.0870245111608057
 10
0.3290274433600899
 20
0.0850295934795185
 10
0.3298135776484798
 20
0.083397441823152
 10
0.3307206174899733
 20
0.0821884366170167
 10
0.3318696102623591
 20
0.0811607875637322
 10
0.3332604141409519
 20
0.0804353629523434
 10
0.3350140765035547
 20
0.0803144409440364
 10
0.3365258568476008
 20
0.0801935726549772
  0
LWPOLYLINE
  5
2F9D
330
2
100
AcDbEntity
  8
Dimensione
 62
     2
100
AcDbPolyline
 90
       10
 70
     0
 43
0.0
 10
0.3319905158154626
 20
0.0913164635268089
 10
0.3315672400110827
 20
0.0897447460149863
 10
0.3313858462252455
 20
0.088233516366941
 10
0.3313858462252455
 20
0.0866013109913411
 10
0.3318696102623591
 20
0.0851505154878254
 10
0.3327766501038383
 20
0.083518363831459
 10
0.3339255719638885
 20
0.0821884366170167
 10
0.3350745647362743
 20
0.0816443681584787
 10
0.3360420928104872
 20
0.0815234461501717
 10
0.3364653686148671
 20
0.0815234461501717
  0
LWPOLYLINE
  5
2F9E
330
2
100
AcDbEntity
  8
Dimensione
 62
     2
100
AcDbPolyline
 90
       10
 70
     0
 43
0.0
 10
0.3324742798525619
 20
0.0911955952377355
 10
0.3320510040481821
 20
0.0899261021678371
 10
0.3319300275827288
 20
0.0880521602140903
 10
0.3322323978340194
 20
0.0861177303965804
 10
0.3327766501038383
 20
0.0843042225873774
 10
0.3333813196940554
 20
0.0834578759676959
 10
0.3345303124664412
 20
0.0823697927698675
 10
0.3355583287733879
 20
0.0821280024724871
 10
0.336283974829044
 20
0.0820070804641802
 10
0.3365258568476008
 20
0.0820070804641802
  0
LWPOLYLINE
  5
2F9F
330
2
100
AcDbEntity
  8
Dimensione
 62
     2
100
AcDbPolyline
 90
        6
 70
     0
 43
0.0
 10
0.3445080343722111
 20
0.0916187416879666
 10
0.3445685226049306
 20
0.0884753066643214
 10
0.3446894281580342
 20
0.0841228664345266
 10
0.3446894281580342
 20
0.0830951636619944
 10
0.343963782102378
 20
0.083397441823152
 10
0.3431776478139881
 20
0.0836392321205324
  0
LWPOLYLINE
  5
2FA0
330
2
100
AcDbEntity
  8
Dimensione
 62
     2
100
AcDbPolyline
 90
        5
 70
     0
 43
0.0
 10
0.3420287259539521
 20
0.0822488707615605
 10
0.3432986242794414
 20
0.0814025778611125
 10
0.3446894281580342
 20
0.0806167191051941
 10
0.3452336804278673
 20
0.0804353629523434
 10
0.3454150742137045
 20
0.0804353629523434
  0
LWPOLYLINE
  5
2FA1
330
2
100
AcDbEntity
  8
Dimensione
 62
     2
100
AcDbPolyline
 90
       10
 70
     0
 43
0.0
 10
0.3437823883165549
 20
0.091558307543437
 10
0.3440242703351117
 20
0.0888984531145383
 10
0.3442056641209348
 20
0.0870245111608057
 10
0.3437823883165549
 20
0.0850295934795185
 10
0.342996254028165
 20
0.083397441823152
 10
0.3420892141866716
 20
0.0821884366170167
 10
0.3409402214142858
 20
0.0811607875637322
 10
0.339549417535693
 20
0.0804353629523434
 10
0.3377957551730901
 20
0.0803144409440364
 10
0.336283974829044
 20
0.0801935726549772
  0
LWPOLYLINE
  5
2FA2
330
2
100
AcDbEntity
  8
Dimensione
 62
     2
100
AcDbPolyline
 90
       10
 70
     0
 43
0.0
 10
0.3408193158611823
 20
0.0913164635268089
 10
0.3412425916655621
 20
0.0897447460149863
 10
0.3414239854513994
 20
0.088233516366941
 10
0.3414239854513994
 20
0.0866013109913411
 10
0.3409402214142858
 20
0.0851505154878254
 10
0.3400331815728066
 20
0.083518363831459
 10
0.3388842597127564
 20
0.0821884366170167
 10
0.3377352669403706
 20
0.0816443681584787
 10
0.3367677388661576
 20
0.0815234461501717
 10
0.3363444630617778
 20
0.0815234461501717
  0
LWPOLYLINE
  5
2FA3
330
2
100
AcDbEntity
  8
Dimensione
 62
     2
100
AcDbPolyline
 90
       10
 70
     0
 43
0.0
 10
0.3403355518240829
 20
0.0911955952377355
 10
0.3407588276284628
 20
0.0899261021678371
 10
0.340879804093916
 20
0.0880521602140903
 10
0.3405774338426255
 20
0.0861177303965804
 10
0.3400331815728066
 20
0.0843042225873774
 10
0.3394285119825895
 20
0.0834578759676959
 10
0.3382795192102037
 20
0.0823697927698675
 10
0.337251502903257
 20
0.0821280024724871
 10
0.3365258568476008
 20
0.0820070804641802
 10
0.336283974829044
 20
0.0820070804641802
  0
LWPOLYLINE
  5
2FA4
330
2
100
AcDbEntity
  8
Dimensione
 62
     2
100
AcDbPolyline
 90
        6
 70
     0
 43
0.0
 10
0.346322114055198
 20
0.0916187416879666
 10
0.3462616258224784
 20
0.0884753066643214
 10
0.3461407202693749
 20
0.0841228664345266
 10
0.3461407202693749
 20
0.0830951636619944
 10
0.3468663663250311
 20
0.083397441823152
 10
0.347652500613421
 20
0.0836392321205324
  0
LWPOLYLINE
  5
2FA5
330
2
100
AcDbEntity
  8
Dimensione
 62
     2
100
AcDbPolyline
 90
        5
 70
     0
 43
0.0
 10
0.348801422473457
 20
0.0822488707615605
 10
0.3475315241479677
 20
0.0814025778611125
 10
0.3461407202693749
 20
0.0806167191051941
 10
0.3455964679995418
 20
0.0804353629523434
 10
0.3454150742137045
 20
0.0804353629523434
  0
LWPOLYLINE
  5
2FA6
330
2
100
AcDbEntity
  8
Dimensione
 62
     2
100
AcDbPolyline
 90
       10
 70
     0
 43
0.0
 10
0.3470477601108541
 20
0.091558307543437
 10
0.3468058780922973
 20
0.0888984531145383
 10
0.3466244843064743
 20
0.0870245111608057
 10
0.3470477601108541
 20
0.0850295934795185
 10
0.3478338943992441
 20
0.083397441823152
 10
0.3487409342407375
 20
0.0821884366170167
 10
0.3498899270131233
 20
0.0811607875637322
 10
0.3512807308917161
 20
0.0804353629523434
 10
0.353034393254319
 20
0.0803144409440364
 10
0.354546173598365
 20
0.0801935726549772
  0
LWPOLYLINE
  5
2FA7
330
2
100
AcDbEntity
  8
Dimensione
 62
     2
100
AcDbPolyline
 90
       10
 70
     0
 43
0.0
 10
0.3500108325662268
 20
0.0913164635268089
 10
0.3495875567618469
 20
0.0897447460149863
 10
0.3494061629760097
 20
0.088233516366941
 10
0.3494061629760097
 20
0.0866013109913411
 10
0.3498899270131233
 20
0.0851505154878254
 10
0.3507969668546025
 20
0.083518363831459
 10
0.3519458887146527
 20
0.0821884366170167
 10
0.3530948814870385
 20
0.0816443681584787
 10
0.3540624095612515
 20
0.0815234461501717
 10
0.3544856853656313
 20
0.0815234461501717
  0
LWPOLYLINE
  5
2FA8
330
2
100
AcDbEntity
  8
Dimensione
 62
     2
100
AcDbPolyline
 90
       10
 70
     0
 43
0.0
 10
0.3504945966033262
 20
0.0911955952377355
 10
0.3500713207989463
 20
0.0899261021678371
 10
0.349950344333493
 20
0.0880521602140903
 10
0.3502527145847836
 20
0.0861177303965804
 10
0.3507969668546025
 20
0.0843042225873774
 10
0.3514016364448196
 20
0.0834578759676959
 10
0.3525506292172054
 20
0.0823697927698675
 10
0.3535786455241521
 20
0.0821280024724871
 10
0.3543042915798082
 20
0.0820070804641802
 10
0.354546173598365
 20
0.0820070804641802
  0
LWPOLYLINE
  5
2FA9
330
2
100
AcDbEntity
  8
Dimensione
 62
     2
100
AcDbPolyline
 90
        6
 70
     0
 43
0.0
 10
0.3625283511229753
 20
0.0916187416879666
 10
0.3625888393556949
 20
0.0884753066643214
 10
0.3627097449087984
 20
0.0841228664345266
 10
0.3627097449087984
 20
0.0830951636619944
 10
0.3619840988531422
 20
0.083397441823152
 10
0.3611979645647523
 20
0.0836392321205324
  0
LWPOLYLINE
  5
2FAA
330
2
100
AcDbEntity
  8
Dimensione
 62
     2
100
AcDbPolyline
 90
        5
 70
     0
 43
0.0
 10
0.3600490427047163
 20
0.0822488707615605
 10
0.3613189410302056
 20
0.0814025778611125
 10
0.3627097449087984
 20
0.0806167191051941
 10
0.3632539971786315
 20
0.0804353629523434
 10
0.3634353909644687
 20
0.0804353629523434
  0
LWPOLYLINE
  5
2FAB
330
2
100
AcDbEntity
  8
Dimensione
 62
     2
100
AcDbPolyline
 90
       10
 70
     0
 43
0.0
 10
0.3618027050673191
 20
0.091558307543437
 10
0.3620445870858759
 20
0.0888984531145383
 10
0.362225980871699
 20
0.0870245111608057
 10
0.3618027050673191
 20
0.0850295934795185
 10
0.3610165707789292
 20
0.083397441823152
 10
0.3601095309374358
 20
0.0821884366170167
 10
0.35896053816505
 20
0.0811607875637322
 10
0.3575697342864572
 20
0.0804353629523434
 10
0.3558160719238543
 20
0.0803144409440364
 10
0.3543042915798082
 20
0.0801935726549772
  0
LWPOLYLINE
  5
2FAC
330
2
100
AcDbEntity
  8
Dimensione
 62
     2
100
AcDbPolyline
 90
       10
 70
     0
 43
0.0
 10
0.3588396326119465
 20
0.0913164635268089
 10
0.3592629084163263
 20
0.0897447460149863
 10
0.3594443022021636
 20
0.088233516366941
 10
0.3594443022021636
 20
0.0866013109913411
 10
0.35896053816505
 20
0.0851505154878254
 10
0.3580534983235708
 20
0.083518363831459
 10
0.3569045764635206
 20
0.0821884366170167
 10
0.3557555836911348
 20
0.0816443681584787
 10
0.3547880556169218
 20
0.0815234461501717
 10
0.354364779812542
 20
0.0815234461501717
  0
LWPOLYLINE
  5
2FAD
330
2
100
AcDbEntity
  8
Dimensione
 62
     2
100
AcDbPolyline
 90
       10
 70
     0
 43
0.0
 10
0.3583558685748471
 20
0.0911955952377355
 10
0.358779144379227
 20
0.0899261021678371
 10
0.3589001208446803
 20
0.0880521602140903
 10
0.3585977505933897
 20
0.0861177303965804
 10
0.3580534983235708
 20
0.0843042225873774
 10
0.3574488287333537
 20
0.0834578759676959
 10
0.3562998359609679
 20
0.0823697927698675
 10
0.3552718196540212
 20
0.0821280024724871
 10
0.354546173598365
 20
0.0820070804641802
 10
0.3543042915798082
 20
0.0820070804641802
  0
LWPOLYLINE
  5
2FAE
330
2
100
AcDbEntity
  8
Dimensione
 62
     2
100
AcDbPolyline
 90
        6
 70
     0
 43
0.0
 10
0.3643424308059622
 20
0.0916187416879666
 10
0.3642819425732426
 20
0.0884753066643214
 10
0.3641610370201391
 20
0.0841228664345266
 10
0.3641610370201391
 20
0.0830951636619944
 10
0.3648866830757953
 20
0.083397441823152
 10
0.3656728173641852
 20
0.0836392321205324
  0
LWPOLYLINE
  5
2FAF
330
2
100
AcDbEntity
  8
Dimensione
 62
     2
100
AcDbPolyline
 90
        5
 70
     0
 43
0.0
 10
0.3668217392242212
 20
0.0822488707615605
 10
0.3655518408987319
 20
0.0814025778611125
 10
0.3641610370201391
 20
0.0806167191051941
 10
0.363616784750306
 20
0.0804353629523434
 10
0.3634353909644687
 20
0.0804353629523434
  0
LWPOLYLINE
  5
2FB0
330
2
100
AcDbEntity
  8
Dimensione
 62
     2
100
AcDbPolyline
 90
       10
 70
     0
 43
0.0
 10
0.3650680768616183
 20
0.091558307543437
 10
0.3648261948430616
 20
0.0888984531145383
 10
0.3646448010572385
 20
0.0870245111608057
 10
0.3650680768616183
 20
0.0850295934795185
 10
0.3658542111500083
 20
0.083397441823152
 10
0.3667612509915017
 20
0.0821884366170167
 10
0.3679102437638875
 20
0.0811607875637322
 10
0.3693010476424803
 20
0.0804353629523434
 10
0.3710547100050832
 20
0.0803144409440364
 10
0.3725664903491292
 20
0.0801935726549772
  0
LWPOLYLINE
  5
2FB1
330
2
100
AcDbEntity
  8
Dimensione
 62
     2
100
AcDbPolyline
 90
       10
 70
     0
 43
0.0
 10
0.368031149316991
 20
0.0913164635268089
 10
0.3676078735126111
 20
0.0897447460149863
 10
0.3674264797267739
 20
0.088233516366941
 10
0.3674264797267739
 20
0.0866013109913411
 10
0.3679102437638875
 20
0.0851505154878254
 10
0.3688172836053667
 20
0.083518363831459
 10
0.3699662054654169
 20
0.0821884366170167
 10
0.3711151982378027
 20
0.0816443681584787
 10
0.3720827263120157
 20
0.0815234461501717
 10
0.3725060021163955
 20
0.0815234461501717
  0
LWPOLYLINE
  5
2FB2
330
2
100
AcDbEntity
  8
Dimensione
 62
     2
100
AcDbPolyline
 90
       10
 70
     0
 43
0.0
 10
0.3685149133540904
 20
0.0911955952377355
 10
0.3680916375497105
 20
0.0899261021678371
 10
0.3679706610842572
 20
0.0880521602140903
 10
0.3682730313355478
 20
0.0861177303965804
 10
0.3688172836053667
 20
0.0843042225873774
 10
0.3694219531955838
 20
0.0834578759676959
 10
0.3705709459679696
 20
0.0823697927698675
 10
0.3715989622749163
 20
0.0821280024724871
 10
0.3723246083305725
 20
0.0820070804641802
 10
0.3725664903491292
 20
0.0820070804641802
  0
LWPOLYLINE
  5
2FB3
330
2
100
AcDbEntity
  8
Dimensione
 62
     2
100
AcDbPolyline
 90
        6
 70
     0
 43
0.0
 10
0.3805486678737395
 20
0.0916187416879666
 10
0.3806091561064591
 20
0.0884753066643214
 10
0.3807300616595626
 20
0.0841228664345266
 10
0.3807300616595626
 20
0.0830951636619944
 10
0.3800044156039064
 20
0.083397441823152
 10
0.3792182813155165
 20
0.0836392321205324
  0
LWPOLYLINE
  5
2FB4
330
2
100
AcDbEntity
  8
Dimensione
 62
     2
100
AcDbPolyline
 90
        5
 70
     0
 43
0.0
 10
0.3780693594554805
 20
0.0822488707615605
 10
0.3793392577809698
 20
0.0814025778611125
 10
0.3807300616595626
 20
0.0806167191051941
 10
0.3812743139293957
 20
0.0804353629523434
 10
0.3814557077152329
 20
0.0804353629523434
  0
LWPOLYLINE
  5
2FB5
330
2
100
AcDbEntity
  8
Dimensione
 62
     2
100
AcDbPolyline
 90
       10
 70
     0
 43
0.0
 10
0.3798230218180834
 20
0.091558307543437
 10
0.3800649038366401
 20
0.0888984531145383
 10
0.3802462976224632
 20
0.0870245111608057
 10
0.3798230218180834
 20
0.0850295934795185
 10
0.3790368875296934
 20
0.083397441823152
 10
0.3781298476882
 20
0.0821884366170167
 10
0.3769808549158142
 20
0.0811607875637322
 10
0.3755900510372214
 20
0.0804353629523434
 10
0.3738363886746185
 20
0.0803144409440364
 10
0.3723246083305725
 20
0.0801935726549772
  0
LWPOLYLINE
  5
2FB6
330
2
100
AcDbEntity
  8
Dimensione
 62
     2
100
AcDbPolyline
 90
       10
 70
     0
 43
0.0
 10
0.3768599493627107
 20
0.0913164635268089
 10
0.3772832251670906
 20
0.0897447460149863
 10
0.3774646189529278
 20
0.088233516366941
 10
0.3774646189529278
 20
0.0866013109913411
 10
0.3769808549158142
 20
0.0851505154878254
 10
0.376073815074335
 20
0.083518363831459
 10
0.3749248932142848
 20
0.0821884366170167
 10
0.373775900441899
 20
0.0816443681584787
 10
0.372808372367686
 20
0.0815234461501717
 10
0.3723850965633062
 20
0.0815234461501717
  0
LWPOLYLINE
  5
2FB7
330
2
100
AcDbEntity
  8
Dimensione
 62
     2
100
AcDbPolyline
 90
       10
 70
     0
 43
0.0
 10
0.3763761853256113
 20
0.0911955952377355
 10
0.3767994611299912
 20
0.0899261021678371
 10
0.3769204375954445
 20
0.0880521602140903
 10
0.3766180673441539
 20
0.0861177303965804
 10
0.376073815074335
 20
0.0843042225873774
 10
0.3754691454841179
 20
0.0834578759676959
 10
0.3743201527117321
 20
0.0823697927698675
 10
0.3732921364047854
 20
0.0821280024724871
 10
0.3725664903491292
 20
0.0820070804641802
 10
0.3723246083305725
 20
0.0820070804641802
  0
VIEWPORT
  5
7B
330
79
100
AcDbEntity
 67
     1
  8
0
100
AcDbViewport
 10
145.330337524414
 20
101.8116638660431
 30
0.0
 40
351.1337450215151
 41
222.1517806396485
 68
     1
 69
     1
 12
145.330337524414
 22
101.8116638660431
 13
0.0
 23
0.0
 14
10.0
 24
10.0
 15
10.0
 25
10.0
 16
0.0
 26
0.0
 36
1.0
 17
0.0
 27
0.0
 37
0.0
 42
50.0
 43
0.0
 44
0.0
 45
222.1517806396485
 50
0.0
 51
0.0
 72
  1000
 90
    32800
  1

281
     0
 71
     1
 74
     0
110
0.0
120
0.0
130
0.0
111
1.0
121
0.0
131
0.0
112
0.0
122
1.0
132
0.0
 79
     0
146
0.0
170
     0
  0
VIEWPORT
  5
80
330
79
100
AcDbEntity
 67
     1
  8
Sezione
100
AcDbViewport
 10
145.3303314447403
 20
101.8116623163223
 30
0.0
 40
232.5285303115845
 41
162.8986597061157
 68
     2
 69
     2
 12
0.2100067158578973
 22
0.1484909068076998
 13
0.0
 23
0.0
 14
10.0
 24
10.0
 15
10.0
 25
10.0
 16
0.0
 26
0.0
 36
1.0
 17
0.0
 27
0.0
 37
0.0
 42
50.0
 43
0.0
 44
0.0
 45
0.2752830087467564
 50
0.0
 51
0.0
 72
  1000
 90
    32864
  1

281
     0
 71
     1
 74
     0
110
0.0
120
0.0
130
0.0
111
1.0
121
0.0
131
0.0
112
0.0
122
1.0
132
0.0
 79
     0
146
0.0
170
     0
  0
ENDSEC
  0
SECTION
  2
OBJECTS
  0
DICTIONARY
  5
9
330
0
100
AcDbDictionary
281
     1
  3
ACAD_2007HEADERVARS_RT
350
14A
  3
ACAD_COLOR
350
A1
  3
ACAD_GROUP
350
9C
  3
ACAD_IMAGE_DICT
350
2EBE
  3
ACAD_IMAGE_VARS
350
2EC0
  3
ACAD_LAYOUT
350
78
  3
ACAD_MATERIAL
350
B
  3
ACAD_MLINESTYLE
350
9D
  3
ACAD_PLOTSETTINGS
350
9E
  3
ACAD_PLOTSTYLENAME
350
8
  3
ACAD_TABLESTYLE
350
A2
  3
ACAD_VISUALSTYLE
350
7F
  3
AcDbVariableDictionary
350
A9
  3
AEC_CLASSIFICATION_SYSTEM_DEFS
350
2E45
  3
AEC_PROPERTY_SET_DEFS
350
10D
  0
DICTIONARY
  5
8B
330
8A
100
AcDbDictionary
280
     1
281
     1
  3
ACAD_LAYERFILTERS
360
48D
  3
ACAD_LAYERSTATES
360
8D
  3
ACLYDICTIONARY
360
48C
  0
DICTIONARY
  5
3
330
2
100
AcDbDictionary
280
     1
281
     1
  3
ACAD_SORTENTS
360
A8
  0
DICTIONARY
  5
B6D
330
B69
100
AcDbDictionary
280
     1
281
     1
  3
ACAD_SORTENTS
360
B6E
  0
DICTIONARY
  5
14A
102
{ACAD_REACTORS
330
9
102
}
330
9
100
AcDbDictionary
281
     1
  3
DIMFXL
350
14B
  0
DICTIONARY
  5
A1
102
{ACAD_REACTORS
330
9
102
}
330
9
100
AcDbDictionary
281
     1
  0
DICTIONARY
  5
9C
102
{ACAD_REACTORS
330
9
102
}
330
9
100
AcDbDictionary
281
     1
  0
DICTIONARY
  5
2EBE
102
{ACAD_REACTORS
330
9
102
}
330
9
100
AcDbDictionary
281
     1
  3
3002-HQ
350
2EBF
  3
3004-HQ
350
2F46
  0
RASTERVARIABLES
  5
2EC0
102
{ACAD_REACTORS
330
9
102
}
330
9
100
AcDbRasterVariables
 90
        0
 70
     1
 71
     1
 72
     1
  0
DICTIONARY
  5
78
102
{ACAD_REACTORS
330
9
102
}
330
9
100
AcDbDictionary
281
     1
  3
Layout1
350
82
  3
Layout2
350
89
  3
Model
350
77
  0
DICTIONARY
  5
B
102
{ACAD_REACTORS
330
9
102
}
330
9
100
AcDbDictionary
281
     1
  3
ByBlock
350
A0
  3
ByLayer
350
9F
  3
Global
350
A
  0
DICTIONARY
  5
9D
102
{ACAD_REACTORS
330
9
102
}
330
9
100
AcDbDictionary
281
     1
  3
Standard
350
A3
  0
DICTIONARY
  5
9E
102
{ACAD_REACTORS
330
9
102
}
330
9
100
AcDbDictionary
281
     1
  0
ACDBDICTIONARYWDFLT
  5
8
102
{ACAD_REACTORS
330
9
102
}
330
9
100
AcDbDictionary
281
     1
  3
Normal
350
7
100
AcDbDictionaryWithDefault
340
7
  0
DICTIONARY
  5
A2
102
{ACAD_REACTORS
330
9
102
}
330
9
100
AcDbDictionary
281
     1
  3
Standard
350
A4
  0
DICTIONARY
  5
7F
102
{ACAD_REACTORS
330
9
102
}
330
9
100
AcDbDictionary
281
     1
  3
2dWireframe
350
7E
  3
3D Hidden
350
D8
  3
3dWireframe
350
A6
  3
Basic
350
D7
  3
Brighten
350
DB
  3
ColorChange
350
DF
  3
Conceptual
350
D9
  3
Dim
350
DA
  3
Facepattern
350
DE
  3
Flat
350
D3
  3
FlatWithEdges
350
D4
  3
Gouraud
350
D5
  3
GouraudWithEdges
350
D6
  3
Linepattern
350
DD
  3
Realistic
350
A5
  3
Thicken
350
DC
  0
DICTIONARY
  5
A9
102
{ACAD_REACTORS
330
9
102
}
330
9
100
AcDbDictionary
281
     1
  3
CTABLESTYLE
350
AA
  3
DIMASSOC
350
AE
  3
HIDETEXT
350
AD
  3
INDEXCTL
350
AC
  3
PROJECTNAME
350
16A
  3
SORTENTS
350
AB
  0
DICTIONARY
  5
2E45
102
{ACAD_REACTORS
330
9
102
}
330
9
100
AcDbDictionary
281
     1
  0
DICTIONARY
  5
10D
102
{ACAD_REACTORS
330
9
102
}
330
9
100
AcDbDictionary
281
     1
  0
DICTIONARY
  5
48D
102
{ACAD_REACTORS
330
8B
102
}
330
8B
100
AcDbDictionary
281
     1
  0
DICTIONARY
  5
8D
102
{ACAD_REACTORS
330
8B
102
}
330
8B
100
AcDbDictionary
281
     1
  0
DICTIONARY
  5
48C
102
{ACAD_REACTORS
330
8B
102
}
330
8B
100
AcDbDictionary
281
     1
1001
ACAD
1000
<All
  0
SORTENTSTABLE
  5
A8
102
{ACAD_REACTORS
330
3
102
}
330
3
100
AcDbSortentsTable
330
2
331
22
  5
23
331
2F2C
  5
2F2C
331
2F34
  5
2F3D
331
2F3C
  5
2F44
331
110
  5
110
331
13
  5
D
331
2DE2
  5
2DE2
331
23
  5
24
331
2F2D
  5
2F2D
331
2F35
  5
2F3E
331
2EC7
  5
2EC7
331
14
  5
10
331
2DE3
  5
2DE3
331
24
  5
18
331
2F2E
  5
2F38
331
2EF7
  5
2EF7
331
2F3E
  5
2F37
331
D
  5
13
331
15
  5
11
331
1D
  5
1E
331
25
  5
25
331
2F2F
  5
2F39
331
2F37
  5
2F3F
331
2EC9
  5
2EC9
331
1CA
  5
1CA
331
1E63
  5
1CE9
331
16
  5
12
331
1E
  5
1F
331
2DD5
  5
2DD5
331
2DED
  5
2DED
331
2F30
  5
2F3A
331
2F38
  5
2F40
331
2F40
  5
2F35
331
17
  5
17
331
1F
  5
21
331
2E5C
  5
2E5C
331
2DD6
  5
2DD7
331
27
  5
27
331
2F39
  5
2F41
331
2EC3
  5
2EC3
331
10
  5
14
331
2F32
  5
2F3B
331
2F3A
  5
2F42
331
2E07
  5
2E07
331
2F42
  5
2F2F
331
11
  5
15
331
21
  5
22
331
2DE8
  5
2DE8
331
2F33
  5
2F3C
331
2F3B
  5
2F43
331
2EC5
  5
2EC5
331
2F43
  5
2F34
331
10F
  5
10F
331
12
  5
16
  0
SORTENTSTABLE
  5
B6E
102
{ACAD_REACTORS
330
B6D
102
}
330
B6D
100
AcDbSortentsTable
330
B69
  0
XRECORD
  5
14B
102
{ACAD_REACTORS
330
14A
102
}
330
14A
100
AcDbXrecord
280
     1
 40
0.18
  0
IMAGEDEF
  5
2EBF
102
{ACAD_REACTORS
330
2EBE
330
2EC1
102
}
330
2EBE
100
AcDbRasterImageDef
 90
        0
  1
\\Commander\f\Lavori\BRIOMEDIA\Amadei\Originali\Website\Classicstyl\decori\3002-HQ.jpg
 10
713.0
 20
372.0
 11
0.01
 21
0.01
280
     1
281
     0
  0
IMAGEDEF
  5
2F46
102
{ACAD_REACTORS
330
2EBE
330
2F47
102
}
330
2EBE
100
AcDbRasterImageDef
 90
        0
  1
\\Commander\f\Lavori\BRIOMEDIA\Amadei\Originali\Website\Classicstyl\decori\3004-HQ.jpg
 10
741.0
 20
474.0
 11
0.01
 21
0.01
280
     1
281
     0
  0
LAYOUT
  5
82
102
{ACAD_XDICTIONARY
360
83
102
}
102
{ACAD_REACTORS
330
78
102
}
330
78
100
AcDbPlotSettings
  1

  2
C:\Documents and Settings\All Users\Dati applicazioni\Autodesk\ADT 2006\enu\Plotters\Default Windows System Printer.pc3
  4
A4
  6

 40
3.174999952316281
 41
3.174999952316281
 42
3.175003051757812
 43
3.17498779296875
 44
209.9733276367186
 45
297.0106506347656
 46
0.0
 47
0.0
 48
0.0
 49
0.0
140
0.0
141
0.0
142
1.0
143
1.0
 70
   688
 72
     1
 73
     1
 74
     5
  7

 75
    16
147
1.0
 76
     0
 77
     2
 78
   300
148
0.0
149
0.0
100
AcDbLayout
  1
Layout1
 70
     1
 71
     1
 10
-3.17498779296875
 20
-3.174999952316281
 11
293.8356628417969
 21
206.7983276844024
 12
0.0
 22
0.0
 32
0.0
 14
29.06606628894805
 24
20.36233246326446
 34
0.0
 15
261.5945966005325
 25
183.2609921693802
 35
0.0
146
0.0
 13
0.0
 23
0.0
 33
0.0
 16
1.0
 26
0.0
 36
0.0
 17
0.0
 27
1.0
 37
0.0
 76
     0
330
79
331
7B
1001
ACAD_PSEXT
1000
C:\Documents and Settings\All Users\Dati applicazioni\Autodesk\ADT 2006\enu\Plotters\Default Windows System Printer.pc3
1000
Microsoft Office Document Image Writer Driver
1000
Microsoft Document Imaging Writer Port:
1000

1070
     0
  0
LAYOUT
  5
89
102
{ACAD_REACTORS
330
78
102
}
330
78
100
AcDbPlotSettings
  1

  2
C:\Documents and Settings\All Users\Dati applicazioni\Autodesk\ADT 2006\enu\Plotters\Default Windows System Printer.pc3
  4

  6

 40
0.0
 41
0.0
 42
0.0
 43
0.0
 44
0.0
 45
0.0
 46
0.0
 47
0.0
 48
0.0
 49
0.0
140
0.0
141
0.0
142
1.0
143
1.0
 70
   688
 72
     0
 73
     0
 74
     5
  7

 75
    16
147
1.0
 76
     0
 77
     2
 78
   300
148
0.0
149
0.0
100
AcDbLayout
  1
Layout2
 70
     1
 71
     2
 10
0.0
 20
0.0
 11
12.0
 21
9.0
 12
0.0
 22
0.0
 32
0.0
 14
0.0
 24
0.0
 34
0.0
 15
0.0
 25
0.0
 35
0.0
146
0.0
 13
0.0
 23
0.0
 33
0.0
 16
1.0
 26
0.0
 36
0.0
 17
0.0
 27
1.0
 37
0.0
 76
     0
330
86
  0
LAYOUT
  5
77
102
{ACAD_REACTORS
330
78
102
}
330
78
100
AcDbPlotSettings
  1

  2
C:\Documents and Settings\All Users\Dati applicazioni\Autodesk\ADT 2006\enu\Plotters\Default Windows System Printer.pc3
  4

  6

 40
0.0
 41
0.0
 42
0.0
 43
0.0
 44
0.0
 45
0.0
 46
0.0
 47
0.0
 48
0.0
 49
0.0
140
0.0
141
0.0
142
1.0
143
1.0
 70
  1712
 72
     0
 73
     0
 74
     0
  7

 75
     0
147
1.0
 76
     0
 77
     2
 78
   300
148
0.0
149
0.0
100
AcDbLayout
  1
Model
 70
     1
 71
     0
 10
0.0
 20
0.0
 11
12.0
 21
9.0
 12
0.0
 22
0.0
 32
0.0
 14
0.0
 24
0.0
 34
0.0
 15
0.0
 25
0.0
 35
0.0
146
0.0
 13
0.0
 23
0.0
 33
0.0
 16
1.0
 26
0.0
 36
0.0
 17
0.0
 27
1.0
 37
0.0
 76
     0
330
2
  0
MATERIAL
  5
A0
102
{ACAD_XDICTIONARY
360
C7
102
}
102
{ACAD_REACTORS
330
B
102
}
330
B
100
AcDbMaterial
  1
ByBlock
  0
MATERIAL
  5
9F
102
{ACAD_XDICTIONARY
360
C5
102
}
102
{ACAD_REACTORS
330
B
102
}
330
B
100
AcDbMaterial
  1
ByLayer
  0
MATERIAL
  5
A
102
{ACAD_XDICTIONARY
360
B1
102
}
102
{ACAD_REACTORS
330
B
102
}
330
B
100
AcDbMaterial
  1
Global
  0
MLINESTYLE
  5
A3
102
{ACAD_REACTORS
330
9D
102
}
330
9D
100
AcDbMlineStyle
  2
STANDARD
 70
     0
  3

 62
   256
 51
90.0
 52
90.0
 71
     2
 49
0.5
 62
   256
  6
BYLAYER
 49
-0.5
 62
   256
  6
BYLAYER
  0
ACDBPLACEHOLDER
  5
7
102
{ACAD_REACTORS
330
8
102
}
330
8
  0
TABLESTYLE
  5
A4
102
{ACAD_XDICTIONARY
360
155
102
}
102
{ACAD_REACTORS
330
A2
102
}
330
A2
100
AcDbTableStyle
  3
Standard
 70
     0
 71
     0
 40
1.5
 41
1.5
280
     0
281
     0
  7
Standard
140
4.5
170
     2
 62
     0
 63
     7
283
     0
274
    -2
284
     1
 64
     0
275
    -2
285
     1
 65
     0
276
    -2
286
     1
 66
     0
277
    -2
287
     1
 67
     0
278
    -2
288
     1
 68
     0
279
    -2
289
     1
 69
     0
  7
Standard
140
6.0
170
     5
 62
     0
 63
     7
283
     0
274
    -2
284
     1
 64
     0
275
    -2
285
     1
 65
     0
276
    -2
286
     1
 66
     0
277
    -2
287
     1
 67
     0
278
    -2
288
     1
 68
     0
279
    -2
289
     1
 69
     0
  7
Standard
140
4.5
170
     5
 62
     0
 63
     7
283
     0
274
    -2
284
     1
 64
     0
275
    -2
285
     1
 65
     0
276
    -2
286
     1
 66
     0
277
    -2
287
     1
 67
     0
278
    -2
288
     1
 68
     0
279
    -2
289
     1
 69
     0
  0
ACAD_PROXY_OBJECT
  5
7E
102
{ACAD_REACTORS
330
7F
102
}
330
7F
100
AcDbProxyObject
 90
      499
 91
      508
 95
  1310743
 70
     1
100
AcDbVisualStyle
  2
2dWireframe
 70
     4
 71
     0
 72
     2
 73
     0
 90
        0
 40
-0.6
 41
-30.0
 62
     5
 63
     7
 74
     1
 91
        4
 64
     7
 65
   257
 75
     1
175
     1
 42
1.0
 92
        0
 66
   257
 43
1.0
 76
     1
 77
     6
 78
     2
 67
     7
 79
     5
170
     0
171
     0
290
     0
174
     0
 93
        1
 44
0.0
173
     0
291
     0
 45
0.0
1001
ACAD
1000
AcDbSavedByObjectVersion
1070
     0
1000
AcDbSavedByObjectVersion
1070
     0
1000
AcDbSavedByObjectVersion
1070
     0
  0
ACAD_PROXY_OBJECT
  5
D8
102
{ACAD_REACTORS
330
7F
102
}
330
7F
100
AcDbProxyObject
 90
      499
 91
      508
 95
  1310743
 70
     1
100
AcDbVisualStyle
  2
3D Hidden
 70
     6
 71
     1
 72
     2
 73
     2
 90
        0
 40
-0.6
 41
-30.0
 62
     5
 63
     7
 74
     2
 91
        2
 64
     7
 65
   257
 75
     2
175
     1
 42
40.0
 92
        0
 66
   257
 43
1.0
 76
     1
 77
     6
 78
     2
 67
     7
 79
     3
170
     0
171
     0
290
     0
174
     0
 93
        1
 44
0.0
173
     0
291
     0
 45
0.0
1001
ACAD
1000
AcDbSavedByObjectVersion
1070
     0
1000
AcDbSavedByObjectVersion
1070
     0
  0
ACAD_PROXY_OBJECT
  5
A6
102
{ACAD_REACTORS
330
7F
102
}
330
7F
100
AcDbProxyObject
 90
      499
 91
      508
 95
  1310743
 70
     1
100
AcDbVisualStyle
  2
3dWireframe
 70
     5
 71
     0
 72
     2
 73
     0
 90
        0
 40
-0.6
 41
-30.0
 62
     5
 63
     7
 74
     1
 91
        4
 64
     7
 65
   257
 75
     1
175
     1
 42
1.0
 92
        0
 66
   257
 43
1.0
 76
     1
 77
     6
 78
     2
 67
     7
 79
     5
170
     0
171
     0
290
     0
174
     0
 93
        1
 44
0.0
173
     0
291
     0
 45
0.0
1001
ACAD
1000
AcDbSavedByObjectVersion
1070
     0
1000
AcDbSavedByObjectVersion
1070
     0
1000
AcDbSavedByObjectVersion
1070
     0
  0
ACAD_PROXY_OBJECT
  5
D7
102
{ACAD_REACTORS
330
7F
102
}
330
7F
100
AcDbProxyObject
 90
      499
 91
      508
 95
  1310743
 70
     1
100
AcDbVisualStyle
  2
Basic
 70
     7
 71
     1
 72
     0
 73
     1
 90
        0
 40
-0.6
 41
-30.0
 62
     5
 63
     7
 74
     0
 91
        4
 64
     7
 65
   257
 75
     1
175
     1
 42
1.0
 92
        8
 66
     7
 43
1.0
 76
     1
 77
     6
 78
     2
 67
     7
 79
     5
170
     0
171
     0
290
     0
174
     0
 93
        1
 44
0.0
173
     0
291
     1
 45
0.0
1001
ACAD
1000
AcDbSavedByObjectVersion
1070
     0
1000
AcDbSavedByObjectVersion
1070
     0
  0
ACAD_PROXY_OBJECT
  5
DB
102
{ACAD_REACTORS
330
7F
102
}
330
7F
100
AcDbProxyObject
 90
      499
 91
      508
 95
  1310743
 70
     1
100
AcDbVisualStyle
  2
Brighten
 70
    12
 71
     2
 72
     2
 73
     0
 90
        0
 40
-0.6
 41
-30.0
 62
     5
 63
     7
 74
     1
 91
        4
 64
     7
 65
   257
 75
     1
175
     1
 42
1.0
 92
        8
 66
     7
 43
1.0
 76
     1
 77
     6
 78
     2
 67
     7
 79
     5
170
     0
171
     0
290
     0
174
     0
 93
        1
 44
50.0
173
     0
291
     1
 45
0.0
1001
ACAD
1000
AcDbSavedByObjectVersion
1070
     0
1000
AcDbSavedByObjectVersion
1070
     0
  0
ACAD_PROXY_OBJECT
  5
DF
102
{ACAD_REACTORS
330
7F
102
}
330
7F
100
AcDbProxyObject
 90
      499
 91
      508
 95
  1310743
 70
     1
100
AcDbVisualStyle
  2
ColorChange
 70
    16
 71
     2
 72
     2
 73
     3
 90
        0
 40
-0.6
 41
-30.0
 62
     5
 63
     8
 74
     1
 91
        4
 64
     7
 65
   257
 75
     1
175
     1
 42
1.0
 92
        8
 66
     8
 43
1.0
 76
     1
 77
     6
 78
     2
 67
     7
 79
     5
170
     0
171
     0
290
     0
174
     0
 93
        1
 44
0.0
173
     0
291
     1
 45
0.0
1001
ACAD
1000
AcDbSavedByObjectVersion
1070
     0
1000
AcDbSavedByObjectVersion
1070
     0
  0
ACAD_PROXY_OBJECT
  5
D9
102
{ACAD_REACTORS
330
7F
102
}
330
7F
100
AcDbProxyObject
 90
      499
 91
      508
 95
  1310743
 70
     1
100
AcDbVisualStyle
  2
Conceptual
 70
     9
 71
     3
 72
     2
 73
     0
 90
        0
 40
-0.6
 41
-30.0
 62
     5
 63
     7
 74
     2
 91
        2
 64
     7
 65
   257
 75
     1
175
     1
 42
40.0
 92
        8
 66
     7
 43
1.0
 76
     1
 77
     6
 78
     2
 67
     7
 79
     3
170
     0
171
     0
290
     0
174
     0
 93
        1
 44
0.0
173
     0
291
     0
 45
0.0
1001
ACAD
1000
AcDbSavedByObjectVersion
1070
     0
1000
AcDbSavedByObjectVersion
1070
     0
  0
ACAD_PROXY_OBJECT
  5
DA
102
{ACAD_REACTORS
330
7F
102
}
330
7F
100
AcDbProxyObject
 90
      499
 91
      508
 95
  1310743
 70
     1
100
AcDbVisualStyle
  2
Dim
 70
    11
 71
     2
 72
     2
 73
     0
 90
        0
 40
-0.6
 41
-30.0
 62
     5
 63
     7
 74
     1
 91
        4
 64
     7
 65
   257
 75
     1
175
     1
 42
1.0
 92
        8
 66
     7
 43
1.0
 76
     1
 77
     6
 78
     2
 67
     7
 79
     5
170
     0
171
     0
290
     0
174
     0
 93
        1
 44
-50.0
173
     0
291
     1
 45
0.0
1001
ACAD
1000
AcDbSavedByObjectVersion
1070
     0
1000
AcDbSavedByObjectVersion
1070
     0
  0
ACAD_PROXY_OBJECT
  5
DE
102
{ACAD_REACTORS
330
7F
102
}
330
7F
100
AcDbProxyObject
 90
      499
 91
      508
 95
  1310743
 70
     1
100
AcDbVisualStyle
  2
Facepattern
 70
    15
 71
     2
 72
     2
 73
     0
 90
        0
 40
-0.6
 41
-30.0
 62
     5
 63
     7
 74
     1
 91
        4
 64
     7
 65
   257
 75
     1
175
     1
 42
1.0
 92
        8
 66
     7
 43
1.0
 76
     1
 77
     6
 78
     2
 67
     7
 79
     5
170
     0
171
     0
290
     0
174
     0
 93
        1
 44
0.0
173
     0
291
     1
 45
0.0
1001
ACAD
1000
AcDbSavedByObjectVersion
1070
     0
1000
AcDbSavedByObjectVersion
1070
     0
  0
ACAD_PROXY_OBJECT
  5
D3
102
{ACAD_REACTORS
330
7F
102
}
330
7F
100
AcDbProxyObject
 90
      499
 91
      508
 95
  1310743
 70
     1
100
AcDbVisualStyle
  2
Flat
 70
     0
 71
     2
 72
     1
 73
     1
 90
        2
 40
-0.6
 41
30.0
 62
     5
 63
     7
 74
     0
 91
        4
 64
     7
 65
   257
 75
     1
175
     1
 42
1.0
 92
        8
 66
     7
 43
1.0
 76
     1
 77
     6
 78
     2
 67
     7
 79
     5
170
     0
171
     0
290
     0
174
     0
 93
       13
 44
0.0
173
     0
291
     1
 45
0.0
1001
ACAD
1000
AcDbSavedByObjectVersion
1070
     0
1000
AcDbSavedByObjectVersion
1070
     0
  0
ACAD_PROXY_OBJECT
  5
D4
102
{ACAD_REACTORS
330
7F
102
}
330
7F
100
AcDbProxyObject
 90
      499
 91
      508
 95
  1310743
 70
     1
100
AcDbVisualStyle
  2
FlatWithEdges
 70
     1
 71
     2
 72
     1
 73
     1
 90
        2
 40
-0.6
 41
30.0
 62
     5
 63
     7
 74
     1
 91
        4
 64
     7
 65
   257
 75
     1
175
     1
 42
1.0
 92
        0
 66
   257
 43
1.0
 76
     1
 77
     6
 78
     2
 67
     7
 79
     5
170
     0
171
     0
290
     0
174
     0
 93
       13
 44
0.0
173
     0
291
     1
 45
0.0
1001
ACAD
1000
AcDbSavedByObjectVersion
1070
     0
1000
AcDbSavedByObjectVersion
1070
     0
  0
ACAD_PROXY_OBJECT
  5
D5
102
{ACAD_REACTORS
330
7F
102
}
330
7F
100
AcDbProxyObject
 90
      499
 91
      508
 95
  1310743
 70
     1
100
AcDbVisualStyle
  2
Gouraud
 70
     2
 71
     2
 72
     2
 73
     1
 90
        2
 40
-0.6
 41
30.0
 62
     5
 63
     7
 74
     0
 91
        4
 64
     7
 65
   257
 75
     1
175
     1
 42
1.0
 92
        0
 66
     7
 43
1.0
 76
     1
 77
     6
 78
     2
 67
     7
 79
     5
170
     0
171
     0
290
     0
174
     0
 93
       13
 44
0.0
173
     0
291
     1
 45
0.0
1001
ACAD
1000
AcDbSavedByObjectVersion
1070
     0
1000
AcDbSavedByObjectVersion
1070
     0
  0
ACAD_PROXY_OBJECT
  5
D6
102
{ACAD_REACTORS
330
7F
102
}
330
7F
100
AcDbProxyObject
 90
      499
 91
      508
 95
  1310743
 70
     1
100
AcDbVisualStyle
  2
GouraudWithEdges
 70
     3
 71
     2
 72
     2
 73
     1
 90
        2
 40
-0.6
 41
30.0
 62
     5
 63
     7
 74
     1
 91
        4
 64
     7
 65
   257
 75
     1
175
     1
 42
1.0
 92
        0
 66
   257
 43
1.0
 76
     1
 77
     6
 78
     2
 67
     7
 79
     5
170
     0
171
     0
290
     0
174
     0
 93
       13
 44
0.0
173
     0
291
     1
 45
0.0
1001
ACAD
1000
AcDbSavedByObjectVersion
1070
     0
1000
AcDbSavedByObjectVersion
1070
     0
  0
ACAD_PROXY_OBJECT
  5
DD
102
{ACAD_REACTORS
330
7F
102
}
330
7F
100
AcDbProxyObject
 90
      499
 91
      508
 95
  1310743
 70
     1
100
AcDbVisualStyle
  2
Linepattern
 70
    14
 71
     2
 72
     2
 73
     0
 90
        0
 40
-0.6
 41
-30.0
 62
     5
 63
     7
 74
     1
 91
        4
 64
     7
 65
   257
 75
     7
175
     7
 42
1.0
 92
        8
 66
     7
 43
1.0
 76
     1
 77
     6
 78
     2
 67
     7
 79
     5
170
     0
171
     0
290
     0
174
     0
 93
        1
 44
0.0
173
     0
291
     1
 45
0.0
1001
ACAD
1000
AcDbSavedByObjectVersion
1070
     0
1000
AcDbSavedByObjectVersion
1070
     0
  0
ACAD_PROXY_OBJECT
  5
A5
102
{ACAD_REACTORS
330
7F
102
}
330
7F
100
AcDbProxyObject
 90
      499
 91
      508
 95
  1310743
 70
     1
100
AcDbVisualStyle
  2
Realistic
 70
     8
 71
     2
 72
     2
 73
     0
 90
        0
 40
-0.6
 41
-30.0
 62
     5
 63
     7
 74
     1
 91
        0
 64
     7
 65
   257
 75
     1
175
     1
 42
1.0
 92
        8
 66
     8
 43
1.0
 76
     1
 77
     6
 78
     2
 67
     7
 79
     5
170
     0
171
     0
290
     0
174
     0
 93
       13
 44
0.0
173
     0
291
     0
 45
0.0
1001
ACAD
1000
AcDbSavedByObjectVersion
1070
     0
1000
AcDbSavedByObjectVersion
1070
     0
1000
AcDbSavedByObjectVersion
1070
     0
  0
ACAD_PROXY_OBJECT
  5
DC
102
{ACAD_REACTORS
330
7F
102
}
330
7F
100
AcDbProxyObject
 90
      499
 91
      508
 95
  1310743
 70
     1
100
AcDbVisualStyle
  2
Thicken
 70
    13
 71
     2
 72
     2
 73
     0
 90
        0
 40
-0.6
 41
-30.0
 62
     5
 63
     7
 74
     1
 91
        4
 64
     7
 65
   257
 75
     1
175
     1
 42
1.0
 92
       12
 66
     7
 43
1.0
 76
     1
 77
     6
 78
     2
 67
     7
 79
     5
170
     0
171
     0
290
     0
174
     0
 93
        1
 44
0.0
173
     0
291
     1
 45
0.0
1001
ACAD
1000
AcDbSavedByObjectVersion
1070
     0
1000
AcDbSavedByObjectVersion
1070
     0
  0
DICTIONARYVAR
  5
AA
102
{ACAD_REACTORS
330
A9
102
}
330
A9
100
DictionaryVariables
280
     0
  1
STANDARD
  0
DICTIONARYVAR
  5
AE
102
{ACAD_REACTORS
330
A9
102
}
330
A9
100
DictionaryVariables
280
     0
  1
2
  0
DICTIONARYVAR
  5
AD
102
{ACAD_REACTORS
330
A9
102
}
330
A9
100
DictionaryVariables
280
     0
  1
1
  0
DICTIONARYVAR
  5
AC
102
{ACAD_REACTORS
330
A9
102
}
330
A9
100
DictionaryVariables
280
     0
  1
0
  0
DICTIONARYVAR
  5
16A
102
{ACAD_REACTORS
330
A9
102
}
330
A9
100
DictionaryVariables
280
     0
  1

  0
DICTIONARYVAR
  5
AB
102
{ACAD_REACTORS
330
A9
102
}
330
A9
100
DictionaryVariables
280
     0
  1
127
  0
DICTIONARY
  5
83
330
82
100
AcDbDictionary
280
     1
281
     1
  3
ADSK_XREC_LAYOUTTHUMBNAIL
360
84
  0
DICTIONARY
  5
C7
330
A0
100
AcDbDictionary
280
     1
281
     1
  3
ACAD_XREC_ROUNDTRIP
360
C8
  0
DICTIONARY
  5
C5
330
9F
100
AcDbDictionary
280
     1
281
     1
  3
ACAD_XREC_ROUNDTRIP
360
C6
  0
DICTIONARY
  5
B1
330
A
100
AcDbDictionary
280
     1
281
     1
  3
ACAD_XREC_ROUNDTRIP
360
B2
  0
DICTIONARY
  5
155
330
A4
100
AcDbDictionary
280
     1
281
     1
  3
ACAD_XREC_ROUNDTRIP
360
156
  0
XRECORD
  5
84
102
{ACAD_REACTORS
330
83
102
}
330
83
100
AcDbXrecord
280
     1
310
28000000B40000007F00000001000800000000004C59000000000000000000000001000000000000FFFFFF0000000000FFFFFF000000000000000000000000000000000000000000000000000000000000000000330000006600000099000000CC000000FF00000000330000333300006633000099330000CC330000FF3300
310
0000660000336600006666000099660000CC660000FF66000000990000339900006699000099990000CC990000FF99000000CC000033CC000066CC000099CC0000CCCC0000FFCC000000FF000033FF000066FF000099FF0000CCFF0000FFFF000000003300330033006600330099003300CC003300FF003300003333003333
310
33006633330099333300CC333300FF33330000663300336633006666330099663300CC663300FF66330000993300339933006699330099993300CC993300FF99330000CC330033CC330066CC330099CC3300CCCC3300FFCC330000FF330033FF330066FF330099FF3300CCFF3300FFFF330000006600330066006600660099
310
006600CC006600FF00660000336600333366006633660099336600CC336600FF33660000666600336666006666660099666600CC666600FF66660000996600339966006699660099996600CC996600FF99660000CC660033CC660066CC660099CC6600CCCC6600FFCC660000FF660033FF660066FF660099FF6600CCFF6600
310
FFFF660000009900330099006600990099009900CC009900FF00990000339900333399006633990099339900CC339900FF33990000669900336699006666990099669900CC669900FF66990000999900339999006699990099999900CC999900FF99990000CC990033CC990066CC990099CC9900CCCC9900FFCC990000FF99
310
0033FF990066FF990099FF9900CCFF9900FFFF99000000CC003300CC006600CC009900CC00CC00CC00FF00CC000033CC003333CC006633CC009933CC00CC33CC00FF33CC000066CC003366CC006666CC009966CC00CC66CC00FF66CC000099CC003399CC006699CC009999CC00CC99CC00FF99CC0000CCCC0033CCCC0066CC
310
CC0099CCCC00CCCCCC00FFCCCC0000FFCC0033FFCC0066FFCC0099FFCC00CCFFCC00FFFFCC000000FF003300FF006600FF009900FF00CC00FF00FF00FF000033FF003333FF006633FF009933FF00CC33FF00FF33FF000066FF003366FF006666FF009966FF00CC66FF00FF66FF000099FF003399FF006699FF009999FF00CC
310
99FF00FF99FF0000CCFF0033CCFF0066CCFF0099CCFF00CCCCFF00FFCCFF0000FFFF0033FFFF0066FFFF0099FFFF00CCFFFF00FFFFFF00000000000D0D0D001A1A1A00282828003535350043434300505050005D5D5D006B6B6B00787878008686860093939300A1A1A100AEAEAE00BBBBBB00C9C9C900D6D6D600E4E4E400
310
F1F1F100FFFFFF0000000000000000000000000000000000000000000000000000000000000000000000000000000000E2E2E2E2E2E2E2E2E2E2E2E2E2E2E2E2E2E2E2E2E2E2E2E2E2E2E2E2E2E2E2E2E2E2E2E2E2E2E2E2E2E2E2E2E2E2E2E2E2E2E2E2E2E2E2E2E2E2E2E2E2E2E2E2E2E2E2E2E2E2E2E2E2E2E2E2E2E2E2
310
E2E2E2E2E2E2E2E2E2E2E2E2E2E2E2E2E2E2E2E2E2E2E2E2E2E2E2E2E2E2E2E2E2E2E2E2E2E2E2E2E2E2E2E2E2E2E2E2E2E2E2E2E2E2E2E2E2E2E2E2E2E2E2E2E2E2E2E2E2E2E2E2E2E2E2E2E2E2E2E2E2E2E2E2E2E2E2E2E2E2E2E2E2E2E2E2E2E2E2E2E2E2F5F5F5F5F5F5F5F5F5F5F5F5F5F5F5F5F5F5F5F5F5F5F5F5F5
310
F5F5F5F5F5F5F5F5F5F5F5F5F5F5F5F5F5F5F5F5F5F5F5F5F5F5F5F5F5F5F5F5F5F5F5F5F5F5F5F5F5F5F5F5F5F5F5F5F5F5F5F5F5F5F5F5F5F5F5F5F5F5F5F5F5F5F5F5F5F5F5F5F5F5F5F5F5F5F5F5F5F5F5F5F5F5F5F5F5F5F5F5F5F5F5F5F5F5F5F5F5F5F5F5F5F5F5F5F5F5F5F5F5F5F5F5F5F5F5F5F5F5F5F5F5F5F5
310
F5F5F5F5F5F5F5F5F5F5F5F5F5F5F5F5F5F5F5F5F5F5F5F5F5F5E2E2F5E2E2E2E2E2E2E2E2E2F5F5F5F5F5F5F5F5F5E2E2E2E2E2E2E2E2E2E2E2E2E2E2E2E2F5F5F5F5F5F5F5F5F5E2E2E2E2E2E2E2E2E2E2E2E2E2E2E2E2F5F5F5F5F5F5F5F5F5E2E2E2E2E2E2E2E2E2E2E2E2E2E2E2E2F5F5F5F5F5F5F5F5F5E2E2E2E2E2
310
E2E2E2E2E2E2E2E2E2E2E2F5F5F5F5F5F5F5F5F5E2E2E2E2E2E2E2E2E2E2E2E2E2E2E2E2F5F5F5F5F5F5F5F5F5E2E2E2E2E2E2E2E2E2E2E2E2E2E2E2E2F5F5F5F5F5F5F5F5F5E2E2E2E2E2E2E2E2F5E2E2F5E2F5F5F5F5F5F5F5F5F5F5F5F5F5F5F5F5F5F5F5F5F5F5F5F5F5F5F5F5F5F5F5F5F5F5F5F5F5F5F5F5F5F5F5F5
310
F5F5F5F5F5F5F5F5F5F5F5F5F5F5F5F5F5F5F5F5F5F5F5F5F5F5F5F5F5F5F5F5F5F5F5F5F5F5F5F5F5F5F5F5F5F5F5F5F5F5F5F5F5F5F5F5F5F5F5F5F5F5F5F5F5F5F5F5F5F5F5F5F5F5F5F5F5F5F5F5F5F5F5F5F5F5F5F5F5F5F5F5F5F5F5F5F5F5F5F5F5F5F5F5F5F5F5F5F5F5F5F5F5F5F5F5F5F5F5F5F5F5F5F5F5F5F5
310
F5F5F5E2F5E2E2F5E2F5F5F5F5F5F5F5F5F5F5F5F5F5F5F5F5F5F5F5F5F5F5F5F5F5F5F5F5F5F5F5F5F5F5F5F5F5F5F5F5F5F5F5F5F5F5F5F5F5F5F5F5F5F5F5F5F5F5F5F5F5F5F5F5F5F5F5F5F5F5F5F5F5F5F5F5F5F5F5F5F5F5F5F5F5F5F5F5F5F5F5F5F5F5F5F5F5F5F5F5F5F5F5F5F5F5F5F5F5F5F5F5F5F5F5F5F5F5
310
F5F5F5F5F5F5F5F5F5F5F5F5F5F5F5F5F5F5F5F5F5F5F5F5F5F5F5F5F5F5F5F5F5F5F5F5F5F5F5F5F5F5F5F5F5F5F5F5F5F5F5F5F5F5F5F5E2F5E2E2F5E2F5F5F5F5F5F5F5F5F5F5F5F5F5F5F5F5F5F5F5F5F5F5F5F5F5F5F5F5F5F5F5F5F5F5F5F5F5F5F5F5F5F5F5F5F5F5F5F5F5F5F5F5F5F5F5F5F5F5F5F5F5F5F5F5F5
310
F5F5F5F5F5F5F5F5F5F5F5F5F5F5F5F5F5F5F5F5F5F5F5F5F5F5F5F5F5F5F5F5F5F5F5F5F5F5F5F5F5F5F5F5F5F5F5F5F5F5F5F5F5F5F5F5F5F5F5F5F5F5F5F5F5F5F5F5F5F5F5F5F5F5F5F5F5F5F5F5F5F5F5F5F5F5F5F5F5F5F5F5F5F5F5F5F5F5F5F5F5F5F5F5F5F5F5F5F5E2F5E2E2F5E2F5F5F5F5F5F5F5F5F5F5F5F5
310
F5F5F5F5F5F5F5F5F5F5F5F5F5F5F5F5F5F5F5F5F5F5F5F5F5F5F5F5F5F5F5F5F5F5F5F5F5F5F5F5F5F5F5F5F5F5F5F5F5F5F5F5F5F5F5F5F5F5F5F5F5F5F5F5F5F5F5F5F5F5F5F5F5F5F5F5F5F5F5F5F5F5F5F5F5F5F5F5F5F5F5F5F5F5F5F5F5F5F5F5F5F5F5F5F5F5F5F5F5F5F5F5F5F5F5F5F5F5F5F5F5F5F5F5F5F5F5
310
F5F5F5F5F5F5F5F5F5F5F5F5F5F5F5F5F5F5F5F5F5F5F5F5F5F5F5F5F5F5F5F5F5F5F5E2F5E2E2F5E2F5F5F5F5F5F5F5F5F5F5F5F5F5F5F5F5F5F5F5F5F5F5F5F5F5F5F5F5F5F5F5F5F5F5F5F5F5F5F5F5F5F5F5F5F5F5F5F5F5F5F5F5F5F5F5F5F5F5F5F5F5F5F5F5F5F5F5F5F5F5F5F5F5F5F5F5F5F5F5F5F5F5F5F5F5F5
310
F5F5F5F5F5F5F5F5F5F5F5F5F5F5F5F5F5F5F5F5F5F5F5F5F5F5F5F5F5F5F5F5F5F5F5F5F5F5F5F5F5F5F5F5F5F5F5F5F5F5F5F5F5F5F5F5F5F5F5F5F5F5F5F5F5F5F5F5F5F5F5F5F5F5F5F5F5F5F5F5F5F5F5F5F5F5F5F5E2F5E2E2F5E2F5F5F5F5F5F5F5F5F5F5F5F5F5F5F5F5F5F5F5F5F5F5F5F5F5F5F5F5F5F5F5F5F5
310
F5F5F5F5F5F5F5F5F5F5F5F5F5F5F5F5F5F5F5F5F5F5F5F5F5F5F5F5F5F5F5F5F5F5F5F5F5F5F5F5F5F5F5F5F5F5F5F5F5F5F5F5F5F5F5F5F5F5F5F5F5F5F5F5F5F5F5F5F5F5F5F5F5F5F5F5F5F5F5F5F5F5F5F5F5F5F5F5F5F5F5F5F5F5F5F5F5F5F5F5F5F5F5F5F5F5F5F5F5F5F5F5F5F5F5F5F5F5F5F5F5F5F5F5F5F5F5
310
F5F5F5F5F5F5F5F5F5F5F5F5F5F5E2F5E2E2F5E2F5F5F5F5F5F5F5F5F5F5F5F5F5F5F5F5F5F5F5F5F5F5F5F5F5F5F5F5F5F5F5F5F5F5F5F5F5F5F5F5F5F5F5F5F5F5F5F5F5F5F5F5F5F5F5F5F5F5F5F5F5F5F5F5F5F5F5F5F5F5F5F5F5F5F5F5F5F5F5F5F5F5F5F5F5F5F5F5F5F5F5F5F5F5F5F5F5F5F5F5F5F5F5F5F5F5F5
310
F5F5F5F5F5F5F5F5F5F5F5F5F5F5F5F5F5F5F5F5F5F5F5F5F5F5F5F5F5F5F5F5F5F5F5F5F5F5F5F5F5F5F5F5F5F5F5F5F5F5F5F5F5F5F5F5F5F5F5F5F5F5F5F5F5F5F5E2F5E2E2F5F5F5F5F5F5F5F5F5F5F5F5F5F5F5F5F5F5F5F5F5F5F5F5F5F5F5F5F5F5F5F5F5F5F5F5F5F5F5F5F5F5F5F5F5F5F5F5F5F5F5F5F5F5F5F5
310
F5F5F5F5F5F5F5F5F5F5F5F5F5F5F5F5F5F5F5F5F5F5F5F5F5F5F5F5F5F5F5F5F5F5F5F5F5F5F5F5F5F5F5F5F5F5F5F5F5F5F5F5F5F5F5F5F5F5F5F5F5F5F5F5F5F5F5F5F5F5F5F5F5F5F5F5F5F5F5F5F5F5F5F5F5F5F5F5F5F5F5F5F5F5F5F5F5F5F5F5F5F5F5F5F5F5F5F5F5F5F5F5F5F5F5F5F5F5F5F5F5F5E2E2F5F5F5
310
F5F5F5F5F5F5F5F5F5F5F5F5F5F5F5F5F5F5F5F5F5F5F5F5F5F5F5F5F5F5F5F5F5F5F5F5F5F5F5F5F5F5F5F5F5F5F5F5F5F5F5F5F5F5F5F5F5F5F5F5F5F5F5F5F5F5F5F5F5F5F5F5F5F5F5F5F5F5F5F5F5F5F5F5F5F5F5F5F5F5F5F5F5F5F5F5F5F5F5F5F5F5F5F5F5F5F5F5F5F5F5F5F5F5F5F5F5F5F5F5F5F5F5F5F5F5F5
310
F5F5F5F5F5F5F5F5F5F5F5F5F5F5F5F5F5F5F5F5F5F5F5F5F5F5F5F5F5F5F5F5F5F5F5F5F5F5F5F5F5F5F5F5F5F5F5F5E2E2F5F5F5F5F5F5F5F5F5F5F5F5F5F5F5F5F5F5F5F5F5F5F5F5F5F5F5F5F5F5F5F5F5F5F5F5F5F5F5F5F5F5F5F5F5F5F5F5F5F5F5F5F5F5F5F5F5F5F5F5F5F5F5F5F5F5F5F5F5F5F5F5F5F5F5F5F5
310
F5F5F5F5F5F5F5F5F5F5F5F5F5F5F5F5F5F5F5F5F5F5F5F5F5F5F5F5F5F5F5F5F5F5F5F5F5F5F5F5F5F5F5F5F5F5F5F5F5F5F5F5F5F5F5F5F5F5F5F5F5F5F5F5F5F5F5F5F5F5F5F5F5F5F5F5F5F5F5F5F5F5F5F5F5F5F5F5F5F5F5F5F5F5F5F5F5F5F5F5F5E2E2F5F5F5F5F5F5F5F5F5F5F5F5F5F5F5F5F5F5F5F5F5F5F5F5
310
F5F5F5F5F5F5F5F5F5F5F5F5F5F5F5F5F5F5F5F5F5F5F5F5F5F5F5F5F5F5F5F5F5F5F5F5F5F5F5F5F5F5F5F5F5F5F5F5F5F5F5F5F5F5F5F5F5F5F5F5F5F5F5F5F5F5F5F5F5F5F5F5F5F5F5F5F5F5F5F5F5F5F5F5F5F5F5F5F5F5F5F5F5F5F5F5F5F5F5F5F5F5F5F5F5F5F5F5F5F5F5F5F5F5F5F5F5F5F5F5F5F5F5F5F5F5F5
310
F5F5F5F5F5F5F5F5F5F5F5F5F5F5F5F5F5F5F5F5F5F5F5F5F5F5F5E2E2F5F5F5F5F5F5F5F5F5F5F5F5F5F5F5F5F5F5F5DCDCDCDCDCDCDCDCDCDCDCDCDCDCDCDCDCDCDCDCDCDCDCDCDCDCDCDCDCDCDCDCDCDCDCDCDCDCDCDCDCDCDCDCDCDCDCDCDCDCDCDCDCDCDCDCDCDCDCDCDCDCDCDCDCDCDCDCDCDCDCDCDCDCDCDCDCDCDC
310
DCDCDCDCDCDCDCDCDCDCDCDCDCDCDCDCDCDCDCDCDCDCDCDCDCDCDCDCDCDCDCDCDCDCDCDCDCDCDCDCDCDCDCDCDCDCDCDCDCDCDCDCDCDCDCDCDCDCDCDCDCF5F5F5F5F5F5F5F5F5F5F5F5F5F5F5F5F5F5F5E2E2F5F5F5F5F5F5F5F5F5F5F5F5F5F5F5F5F5F5F5DCDCDCDCDCDCDCDCDCDCDCDCDCDCDCDCDCDCDCDCDCDCDCDCDCDC
310
DCDCDCDCDCDCDCDCDCDCDCDCDCDCDCDCDCDCDCDCDCDCDCDCDCDCDCDCDCDCDCDCDCDCDCDCDCDCDCDCDCDCDCDCDCDCDCDCDCDCDCDCDCDCDCDCDCDCDCDCDCDCDCDCDCDCDCDCDCDCDCDCDCDCDCDCDCDCDCDCDCDCDCDCDCDCDCDCDCDCDCDCDCDCDCDCDCDCDCDCDCDCDCDCDCDCDCDCDCDCDCDCDCDCF5F5F5F5F5F5F5F5F5F5F5F5F5
310
F5F5F5F5F5F5E2E2F5F5F5F5F5F5F5F5F5F5F5F5F5F5F5F5F5F5F5DCF5F5F5F5F5F5F5F5F5F5F5F5F5F5F5F5F5F5F5F5F5F5F5F5F5F5F5F5F5F5F5F5F5F5F5F5F5F5F5F5F5F5F5F5F5F5F5F5F5F5F5F5F5F5F5F5F5F5F5F5F5F5F5F5F5F5F5F5F5F5F5F5F5F5F5F5F5F5F5F5F5F5F5F5F5F5F5F5F5F5F5F5F5F5F5F5F5F5F5
310
F5F5F5F5F5F5F5F5F5F5F5F5F5F5F5F5F5F5F5F5F5F5F5F5F5F5F5F5F5F5F5F5F5F5F5F5F5F5F5DCF5F5F5F5F5F5F5F5F5F5F5F5F5F5F5F5F5F5F5E2E2F5F5F5F5F5F5F5F5F5F5F5F5F5F5F5F5F5F5F5DCF5282828282828282828282828282828282828282828282828282828282828282828282828282828282828282828
310
28282828282828282828282828282828282828282828282828282828282828282828282828282828282828282828282828282828282828282828282828282828282828282828282828282828282828282828282828282828282828F5DCF5F5F5F5F5F5F5F5F5F5F5F5F5F5F5F5F5F5F5E2E2F5F5F5F5F5F5F5F5F5F5F5F5F5
310
F5F5F5F5F5F5DCF5282D2D2D2D2D2D2D2D2D2D2D2D2D2D2D2D2D2D2D2D2DF5F5F5F5F5F5F5F5F5F5F5F5F5F5F5F5F5F5F5F5F5F5F5F5F5F5F5F5F5F5F5F5F5F5F5F5F5F5F5F5F5F5F5F5F528F5F5F5F5F5F5F5F5F5F5F5F5F5F5F5F5F5F5F5F5F5F5F5F5F5F5F5F5F5F5F5F5F5F5F5F5F5F5F5F5F5F5F5F5F5F5F5F5F5F5F5
310
F5F5F5F5F5F5F5F5F5F5F5F5F5F5F5F528F5DCF5F5F5F5F5F5F5F5F5F5F5F5F5F5F5F5F5F5F5E2E2F5E2F5F5F5F5F5F5F5F5F5F5F5F5F5F5F5F5F5DCF5282D2D2D2D2D2D2D2D2D2D2D2D2D2D2D2D2D2D2D2D2D2D2D2D2D2D2D2D2DF5F5F5F5F5F5F5F5F5F5F5F5F5F5F5F5F5F5F5F5F5F5F5F5F5F5F5F5F5F5F5F5F5F5F5F5
310
F528F5F5F5F5F5F5F5F5F5F5F5F5F5F5F5F5F5F5F5F5F5F5F5F5F5F5F5F5F5F5F5F5F5F5F5F5F5F5F5F5F5F5F5F5F5F5F5F5F5F5F5F5F5F5F5F5F5F5F5F5F5F5F5F5F5F5F528F5DCF5F5F5F5F5F5F5F5F5F5F5F5F5F5F5F5F5E2F5E2E2F5E2F5F5F5F5F5F5F5F5F5F5F5F5F5F5F5F5F5DCF5282D2D2D2D2D2D2D2D2D2D2D2D
310
2D2D2D2D2D2D2D2D2D2D2D2D2D2D2D2D2DF5F5F5F5F5F5F5F5F5F5F5F5F5F5F5F5F5F5F5F5F5F5F5F5F5F5F5F5F5F5F5F5F5F5F5F5F528F5F5F5F5F5F5F5F52D2D2D2D2D2D2D2D2D2D2D2D2D2D2D2D2D2D2D2D2D2D2D2D2D2D2D2D2D2D2D2D2D2D2D2D2D2D2D2D2D2D2D2D2D2D2D2D2D2D2DF5F5F5F5F5F5F5F528F5DCF5F5
310
F5F5F5F5F5F5F5F5F5F5F5F5F5F5F5E2F5E2E2F5E2F5F5F5F5F5F5F5F5F5F5F5F5F5F5F5F5F5DCF5282D2D2D2D2D2D2D2D2D2D2D2D2D2D2D2D2D2D2D2D2D2D2D2D2D2D2D2D2D2D2D2D2D2D2D2D2D2D2D2D2D2D2D2D2D2D2D2D2D2D2D2D2D2D2D2D2D2D2D2D2D2D2D2D2D2D28F5F5F5F5F5F5F5F52D2D2D2D2D2D2D2D2D2D2D
310
2D2D2D2D2D2D2D2D2D2D2D2D2D2D2D2D2D2D2D2D2D2D2D2D2D2D2D2D2D2D2D2D2D2D2D2D2D2D2D2DF5F5F5F5F5F5F5F528F5DCF5F5F5F5F5F5F5F5F5F5F5F5F5F5F5F5F5E2F5E2E2F5E2F5F5F5F5F5F5F5F5F5F5F5F5F5F5F5F5F5DCF5282D2D2D2D2D2D2D2D2D2D2D2D2D2D2D2D2D2D2D2D2D2D2D2D2D2D2D2D2D2D2D2D2D
310
2D2D2D2D2D2D2D2D2D2D2D2D2D2D2D2D2D2D2D2D2D2D2D2D2D2D2D2D2DF5F5F5F528F5F5F5F5F5F5F5F5F5F5F5F52D2D2D2D2D2D2D2D2D2D2D2D2D2D2D2D2D2D2D2D2D2D2D2D2D2D2D2D2D2D2D2D2D2D2D2D2D2D2D2D2D2DF5F5F5F5F5F5F5F5F5F5F5F5F528F5DCF5F5F5F5F5F5F5F5F5F5F5F5F5F5F5F5F5E2F5E2E2F5E2
310
F5F5F5F5F5F5F5F5F5F5F5F5F5F5F5F5F5DCF5282D2D2D2D2D2D2D2D2D2D2D2D2D2D2D2D2D2D2D2D2D2D2D2D2D2D2D2D2D2D2D2D2D2D2D2D2D2D2D2D2D2D2D2D2D2D2D2D2D2D2D2D2D2D2D2D2D2D2D2D2D2DF5F5F5F528F5F5F5F5F5F5F5F5F5F5F5F52D2D2D2D2D2D2D2D2D2D2D2D2D2D2D2D2D2D2D2D2D2D2D2D2D2D2D2D
310
2D2D2D2D2D2D2D2D2D2D2D2D2D2DF5F5F5F5F5F5F5F5F5F5F5F5F528F5DCF5F5F5F5F5F5F5F5F5F5F5F5F5F5F5F5F5E2F5E2E2F5E2F5F5F5F5F5F5F5F5F5F5F5F5F5F5F5F5F5DCF5282D2D2D2D2D2D2D2D2D2D2D2D2D2D2D2D2D2D2D2D2D2D2D2D2D2D2D2D2D2D2D2D2D2D2D2D2D2D2D2D2D2D2D2D2D2D2D2D2D2D2D2D2D2D
310
2D2D2D2D2DF5F5F5F5F5F5F528F5F5F5F5F5F5F5F5F5F5F5F5F5F5F5F5F5F5F5F5F5F5F5F5F5F5F5F52D2D2D2D2D2D2D2D2D2DF5F5F5F5F5F5F5F5F5F5F5F5F5F5F5F5F5F5F5F5F5F5F5F5F5F5F5F5F528F5DCF5F5F5F5F5F5F5F5F5F5F5F5F5F5F5F5F5E2F5E2E2F5E2F5F5F5F5F5F5F5F5F5F5F5F5F5F5F5F5F5DCF5282D
310
2D2D2D2D2D2D2D2D2D2D2D2D2D2D2D2D2D2D2D2D2D2D2D2D2D2D2D2D2D2D2DF5F5F5F5F5F5F5F5F5F5F5F5F5F5F5F5F5F5F5F5F5F5F5F5F5F5F5F5F5F5F5F5F5F528F5F5F5F5F5F5F5F5F5F5F5F5F5F5F5F5F5F5F5F5F5F5F5F5F5F5F5F52D2D2D2D2D2D2D2D2D2DF5F5F5F5F5F5F5F5F5F5F5F5F5F5F5F5F5F5F5F5F5F5F5
310
F5F5F5F5F5F528F5DCF5F5F5F5F5F5F5F5F5F5F5F5F5F5F5F5F5E2F5E2E2F5E2F5F5F5F5F5F5F5F5F5F5F5F5F5F5F5F5F5DCF5282D2D2D2D2D2D2D2D2D2D2D2D2D2D2D2D2D2D2D2D2D2D2D2D2D2D2D2D2D2D2D2DF5F5F5F5F5F5F5F5F5F5F5F5F5F5F5F5F5F5F5F5F5F5F5F5F5F5F5F5F5F5F5F5F5F528F5F5F5F5F5F5F5F5
310
F5F5F5F5F5F5F5F5F5F5F5F5F5F5F5F5F5F5F5F52D2D2D2D2D2D2D2D2D2DF5F5F5F5F5F5F5F5F5F5F5F5F5F5F5F5F5F5F5F5F5F5F5F5F5F5F5F5F528F5DCF5F5F5F5F5F5F5F5F5F5F5F5F5F5F5F5F5E2F5E2E2F5E2F5F5F5F5F5F5F5F5F5F5F5F5F5F5F5F5F5DCF5282D2D2D2D2D2D2D2D2D2D2D2D2D2D2D2D2D2D2D2D2D2D
310
2D2D2D2D2D2D2D2D2D2D2D2D2D2D2D2D2D2D2D2D2D2D2D2D2D2D2D2D2D2D2D2D2D2D2D2D2D2D2D2D2D2DF5F528F5F5F5F5F5F5F5F5F5F5F5F5F5F5F5F5F5F5F5F5F5F5F5F5F5F5F5F5F5F5F5F5F5F5F5F5F5F5F5F5F5F5F5F5F5F5F5F5F5F5F5F5F5F5F5F5F5F5F5F5F5F5F5F5F5F5F528F5DCF5F5F5F5F5F5F5F5F5F5F5F5
310
F5F5F5F5F5E2F5E2E2F5E2F5F5F5F5F5F5F5F5F5F5F5F5F5F5F5F5F5DCF528F5F5F5F5F5F5F5F5F5F5F5F5F5F5F5F5F5F5F5F5F5F5F5F5F5F5F5F5F5F5F5F5F5F5F5F5F5F5F5F5F5F5F5F5F5F5F5F5F5F5F5F5F5F5F5F5F5F5F5F5F5F5F5F5F5F528F5F5F5F5F5F5F5F5F5F5F5F5F5F5F5F5F5F5F5F5F5F5F5F5F5F5F5F5F5
310
F5F5F5F5F5F5F5F5F5F5F5F5F5F5F5F5F5F5F5F5F5F5F5F5F5F5F5F5F5F5F5F5F5F5F5F5F5F528F5DCF5F5F5F5F5F5F5F5F5F5F5F5F5F5F5F5F5E2F5E2E2F5E2F5F5F5F5F5F5F5F5F5F5F5F5F5F5F5F5F5DCF52828282828282828282828282828282828282828282828282828282828282828282828282828282828282828
310
2828282828282828282828282828282828282828282828282828282828282828282828282828282828282828282828282828282828282828282828282828282828282828282828282828282828282828282828282828282828282828F5DCF5F5F5F5F5F5F5F5F5F5F5F5F5F5F5F5F5E2F5E2E2F5E2F5F5F5F5F5F5F5F5F5F5
310
F5F5F5F5F5F5F5DCF528F5F5F5F5F5F5F5F5F5F5F5F5F5F5F5F5F5F5F5F5F5F5F5F5F5F5F5F5F5F5F5F5F5F5F5F5F5F5F5F5F5F5F5F5F5F5F5F5F5F5F5F5F5F5F5F5F5F5F5F5F5F5F5F5F5F5F5F5F5F5F5F5F5F5F5F5F5F5F5F5F5F5F5F5F5F5F5F5F5F5F5F5F5F5F5F5F5F5F5F5F5F5F5F5F5F5F5F5F5F5F5F5F5F5F5F5F5
310
F5F5F5F5F5F5F5F5F5F5F5F5F5F5F5F5F528F5DCF5F5F5F5F5F5F5F5F5F5F5F5F5F5F5F5F5E2F5E2E2F5E2F5F5F5F5F5F5F5F5F5F5F5F5F5F5F5F5F5DCF528F5F5F5F5F5F5F5F5F5F5F5F5F5F5F5F5F5F5F5F5F5F5F5F5F5F5F5F5F5F5F5F5F5F5F5F5F5F5F5F5F5F5F5F5F5F5F5F5F5F5F5F5F5F5F5F5F5F5F5F5F5F5F5F5
310
F5F5F5F5F5F5F5F5F5F5F5F5F5F5F5F5F5F5F5F5F5F5F5F5F5F5F5F5F5F5F5F5F5F5F5F5F5F5F5F5F5F5F5F5F5F5F5F5F5F5F5F5F5F5F5F5F5F5F5F5F5F5F5F5F5F5F5F5F5F528F5DCF5F5F5F5F5F5F5F5F5F5F5F5F5F5F5F5F5E2F5E2E2F5E2F5F5F5F5F5F5F5F5F5F5F5F5F5F5F5F5F5DCF528F5F5F5F5F5F5F5F5F5F5F5
310
F5F5F5F5F5F5F5F5F5F5F5F5F5F5F5F5F5F5F5F5F5F5F5F5F5F5F5F5F5F5F5F5F5F5F5F5F5F5F5F5F5F5F5F5F5F5F5F5F5F5F5F5F5F5F5F5F5F5F5F5F5F5F5F5F5F5F5F5F5F5F5F5F5F5F5F5F5F5F5F5F5F5F5F5F5F5F5F5F5F5F5F5F5F5F5F5F5F5F5F5F5F5F5F5F5F5F5F5F5F5F5F5F5F5F5F5F5F5F5F5F5F5F528F5DCF5
310
F5F5F5F5F5F5F5F5F5F5F5F5F5F5F5F5E2F5E2E2F5E2F5F5F5F5F5F5F5F5F5F5F5F5F5F5F5F5F5DCF528F5F5F5F5F5F5F5F5F5F5F5F5F5F5F5F5F5F5F5F5F5F5F5F5F5F5F5F5F5F5F5F5F5F5F5F5F5F5F5F5F5F5F5F5F5F5F5F5F5F5F5F5F5F5F5F5F5F5F5F5F5F5F5F5F5F5F5F5F5F5F5F5F5F5F5F5F5F5F5F5F5F5F5F5F5
310
F5F5F5F5F5F5F5F5F5F5F5F5F5F5F5F5F5F5F5F5F5F5F5F5F5F5F5F5F5F5F5F5F5F5F5F5F5F5F5F5F5F5F5F5F5F5F5F5F528F5DCF5F5F5F5F5F5F5F5F5F5F5F5F5F5F5F5F5E2F5E2E2F5E2F5F5F5F5F5F5F5F5F5F5F5F5F5F5F5F5F5DCF528F5F5F5F5F5F5F5F5F5F5F5F5F5F5F5F5F5F5F5F5F5F5F5F5F5F5F5F5F5F5F5F5
310
F5F5F5F5F5F5F5F5F5F5F5F5F5F5F5F5F5F5F5F5F5F5F5F5F5F5F5F5F5F5F5F5F5F5F5F5F5F5F5F5F5F5F5F5F5F5F5F5F5F5F5F5F5F5F5F5F5F5F5F5F5F5F5F5F5F5F5F5F5F5F5F5F5F5F5F5F5F5F5F5F5F5F5F5F5F5F5F5F5F5F5F5F5F5F5F5F5F5F5F5F5F528F5DCF5F5F5F5F5F5F5F5F5F5F5F5F5F5F5F5F5E2F5E2E2F5
310
F5F5F5F5F5F5F5F5F5F5F5F5F5F5F5F5F5F5DCF528F5F5F5F5F5F5F5F5F5F5F5F5F5F5F5F5F5F5F5F5F5F5F5F5F5F5F5F5F5F5F5F5F5F5F5F5F5F5F5F5F5F5F5F5F5F5F5F5F5F5F5F5F5F5F5F5F5F5F5F5F5F5F5F5F5F5F5F5F5F5F5F5F5F5F5F5F5F5F5F5F5F5F5F5F5F5F5F5F5F5F5F5F5F5F5F5F5F5F5F5F5F5F5F5F5F5
310
F5F5F5F5F5F5F5F5F5F5F5F5F5F5F5F5F5F5F5F5F5F5F5F5F5F5F5F528F5DCF5F5F5F5F5F5F5F5F5F5F5F5F5F5F5F5F5F5F5E2E2F5F5F5F5F5F5F5F5F5F5F5F5F5F5F5F5F5F5F5DCF528F5F5F5F5F5F5F5F5F5F5F5F5F5F5F5F5F5F5F5F5F5F5F5F5F5F5F5F5F5F5F5F5F5F5F5F5F5F5F5F5F5F5F5F5F5F5F5F5F5F5F5F5F5
310
F5F5F5F5F5F5F5F5F5F5F5F5F5F5F5F5F5F5F5F5F5F5F5F5F5F5F5F5F5F5F5F5F5F5F5F5F5F5F5F5F5F5F5F5F5F5F5F5F5F5F5F5F5F5F5F5F5F5F5F5F5F5F5F5F5F5F5F5F5F5F5F5F5F5F5F5F5F5F5F5F528F5DCF5F5F5F5F5F5F5F5F5F5F5F5F5F5F5F5F5F5F5E2E2F5F5F5F5F5F5F5F5F5F5F5F5F5F5F5F5F5F5F5DCF528
310
F5F5F5F5F5F5F5F5F5F5F5F5F5F5F5F5F5F5F5F5F5F5F5F5F5F5F5F5F5F5F5F5F5F5F5F5F5F5F5F5F5F5F5F5F5F5F5F5F5F5F5F5F5F5F5F5F5F5F5F5F5F5F5F5F5F5F5F5F5F5F5F5F5F5F5F5F5F5F5F5F5F5F5F5F5F5F5F5F5F5F5F5F5F5F5F5F5F5F5F5F5F5F5F5F5F5F5F5F5F5F5F5F5F5F5F5F5F5F5F5F5F5F5F5F5F5F5
310
F5F5F5F5F5F5F528F5DCF5F5F5F5F5F5F5F5F5F5F5F5F5F5F5F5F5F5F5E2E2F5F5F5F5F5F5F5F5F5F5F5F5F5F5F5F5F5F5F5DCF528F5F5F5F5F5F5F5F5F5F5F5F5F5F5F5F5F5F5F5F5F5F5F5F5F5F5F5F5F5F5F5F5F5F5F5F5F5F5F5F5F5F5F5F5F5F5F5F5F5F5F5F5F5F5F5F5F5F5F5F5F5F5F5F5F5F5F5F5F5F5F5F5F5F5
310
F5F5F5F5F5F5F5F5F5F5F5F5F5F5F5F5F5F5F5F5F5F5F5F5F5F5F5F5F5F5F5F5F5F5F5F5F5F5F5F5F5F5F5F5F5F5F5F5F5F5F5F5F5F5F5F5F5F5F5F528F5DCF5F5F5F5F5F5F5F5F5F5F5F5F5F5F5F5F5F5F5E2E2F5F5F5F5F5F5F5F5F5F5F5F5F5F5F5F5F5F5F5DCF528F5F5F5F5F5F5F5F5F5F5F5F5F5F5F5F5F5F5F5F5F5
310
F5F5F5F5F5F5F5F5F5F5F5F5F5F5F5F5F5F5F5F5F5F5F5F5F5F5F5F5F5F5F5F5F5F5F5F5F5F5F5F5F5F5F5F5F5F5F5F5F5F5F5F5F5F5F5F5F5F5F5F5F5F5F5F5F5F5F5F5F5F5F5F5F5F5F5F5F5F5F5F5F5F5F5F5F5F5F5F5F5F5F5F5F5F5F5F5F5F5F5F5F5F5F5F5F5F5F5F5F5F5F5F5F528F5DCF5F5F5F5F5F5F5F5F5F5F5
310
F5F5F5F5F5F5F5F5E2E2F5F5F5F5F5F5F5F5F5F5F5F5F5F5F5F5F5F5F5DCF528F5F5F5F5F5F5F5F5F5F5F5F5F5F5F5F5F5F5F5F5F5F5F5F5F5F5F5F5F5F5F5F5F5F5F5F5F5F5F5F5F5F5F5F5F5F5F5F5F5F5F5F5F5F5F5F5F5F5F5F5F5F5F5F5F5F5F5F5F5F5F5F5F5F5F5F5F5F5F5F5F5F5F5F5F5F5F5F5F5F5F5F5F5F5F5
310
F5F5F5F5F5F5F5F5F5F5F5F5F5F5F5F5F5F5F5F5F5F5F5F5F5F5F5F5F5F5F5F5F5F5F5F5F5F5F528F5DCF5F5F5F5F5F5F5F5F5F5F5F5F5F5F5F5F5F5F5E2E2F5F5F5F5F5F5F5F5F5F5F5F5F5F5F5F5F5F5F5DCF528F5F5F5F5F5F5F5F5F5F5F5F5F5F5F5F5F5F5F5F5F5F5F5F5F5F5F5F5F5F5F5F5F5F5F5F5F5F5F5F5F5F5
310
F5F5F5F5F5F5F5F5F5F5F5F5F5F5F5F5F5F5F5F5F5F5F5F5F5F5F5F5F5F5F5F5F5F5F5F5F5F5F5F5F5F5F5F5F5F5F5F5F5F5F5F5F5F5F5F5F5F5F5F5F5F5F5F5F5F5F5F5F5F5F5F5F5F5F5F5F5F5F5F5F5F5F5F5F5F5F5F5F5F5F5F528F5DCF5F5F5F5F5F5F5F5F5F5F5F5F5F5F5F5F5F5F5E2E2F5F5F5F5F5F5F5F5F5F5F5
310
F5F5F5F5F5F5F5F5DCF528F5F5F5F5F5F5F5F5F5F5F5F5F5F5F52D2D2D2D2D2D2D2D2D2DF5F5F5F5F5F5F5F5F5F5F5F5F5F5F5F5F5F5F5F5F5F5F5F5F5F5F5F5F5F5F5F5F5F5F5F5F5F5F5F5F5F5F5F5F5F5F5F5F5F5F5F5F5F5F5F5F5F5F5F5F5F5F5F5F5F5F5F5F5F5F5F5F5F5F5F5F5F5F5F5F5F5F5F5F5F5F5F5F5F5F5
310
F5F5F5F5F5F5F5F5F5F5F5F5F5F5F5F5F5F528F5DCF5F5F5F5F5F5F5F5F5F5F5F5F5F5F5F5F5F5F5E2E2F5E2F5F5F5F5F5F5F5F5F5F5F5F5F5F5F5F5F5DCF528F5F5F5F5F5F5F5F5F5F5F5F5F5F5F52D2D2D2D2D2D2D2D2D2DF5F5F5F5F5F5F5F5F5F5F5F5F5F5F5F5F5F5F5F5F5F5F5F5F5F5F5F5F5F5F5F5F5F5F5F5F5F5
310
F5F5F5F5F5F5F5F5F5F5F5F5F5F5F5F5F5F5F5F5F5F5F5F5F5F5F5F5F5F5F5F5F5F5F5F5F5F5F5F5F5F5F5F5F5F5F5F5F5F5F5F5F5F5F5F5F5F5F5F5F5F5F5F5F5F5F5F5F5F5F528F5DCF5F5F5F5F5F5F5F5F5F5F5F5F5F5F5F5F5E2F5E2E2F5E2F5F5F5F5F5F5F5F5F5F5F5F5F5F5F5F5F5DCF528F5F5F5F5F5F5F5F5F5F5
310
F5F5F5F5F5F5F5F5F5F5F5F5F5F5F5F5F5F5F5F5F5F5F5F5F5F5F5F5F5F5F5F5F5F5F5F5F5F5F5F5F5F5F5F5F5F5F5F5F5F5F5F5F5F5F5F5F5F5F5F5F5F5F5F5F5F5F5F5F5F5F5F5F5F5F5F5F5F5F5F5F5F5F5F5F5F5F5F5F5F5F5F5F5F5F5F5F5F5F5F5F5F5F5F5F5F5F5F5F5F5F5F5F5F5F5F5F5F5F5F5F5F5F5F528F5DC
310
F5F5F5F5F5F5F5F5F5F5F5F5F5F5F5F5F5E2F5E2E2F5E2F5F5F5F5F5F5F5F5F5F5F5F5F5F5F5F5F5DCF528F5F5F5F5F5F5F5F5F5F5F5F5F5F5F5F5F5F5F5F5F5F5F5F5F5F5F5F5F5F5F5F5F5F5F5F5F5F5F5F5F5F5F5F5F5F5F5F5F5F5F5F5F5F5F5F5F5F5F5F5F5F5F5F5F5F5F5F5F5F5F5F5F5F5F5F5F5F5F5F5F5F5F5F5
310
F5F5F5F5F5F5F5F5F5F5F5F5F5F5F5F5F5F5F5F5F5F5F5F5F5F5F5F5F5F5F5F5F5F5F5F5F5F5F5F5F5F5F5F5F5F5F5F5F5F528F5DCF5F5F5F5F5F5F5F5F5F5F5F5F5F5F5F5F5E2F5E2E2F5E2F5F5F5F5F5F5F5F5F5F5F5F5F5F5F5F5F5DCF528F5F5F5F5F5F5F5F5F5F5F5F5F5F5F5F5F5F5F5F5F5F5F5F5F5F5F5F5F5F5F5
310
F5F5F5F5F5F5F5F5F5F5F5F5F5F5F5F5F5F5F5F5F5F5F5F5F5F5F5F5F5F5F5F5F5F5F5F5F5F5F5F5F5F5F5F5F5F5F5F5F5F5F5F5F5F5F5F5F5F5F5F5F5F5F5F5F5F5F5F5F5F5F5F5F5F5F5F5F5F5F5F5F5F5F5F5F5F5F5F5F5F5F5F5F5F5F5F5F5F5F5F5F5F5F528F5DCF5F5F5F5F5F5F5F5F5F5F5F5F5F5F5F5F5E2F5E2E2
310
F5E2F5F5F5F5F5F5F5F5F5F5F5F5F5F5F5F5F5DCF528F5F5F5F5F5F5F5F5F5F5F5F5F5F5F5F5F5F5F5F5F5F5F5F5F5F5F5F5F5F5F5F5F5F5F5F5F5F5F5F5F5F5F5F5F5F5F5F5F5F5F5F5F5F5F5F5F5F5F5F5F5F5F5F5F5F5F5F5F5F5F5F5F5F5F5F5F5F5F5F5F5F5F5F5F5F5F5F5F5F5F5F5F5F5F5F5F5F5F5F5F5F5F5F5F5
310
F5F5F5F5F5F5F5F5F5F5F5F5F5F5F5F5F5F5F5F5F5F5F5F5F5F5F5F5F528F5DCF5F5F5F5F5F5F5F5F5F5F5F5F5F5F5F5F5E2F5E2E2F5E2F5F5F5F5F5F5F5F5F5F5F5F5F5F5F5F5F5DCF528F5F5F5F5F5F5F5F5F5F5F5F5F5F5F5F5F5F5F5F5F5F5F5F5F5F5F5F5F5F5F5F5F5F5F5F5F5F5F5F5F5F5F5F5F5F5F5F5F5F5F5F5
310
F5F5F5F5F5F5F5F5F5F5F5F5F5F5F5F5F5F5F5F5F5F5F5F5F5F5F5F5F5F5F5F5F5F5F5F5F5F5F5F5F5F5F5F5F5F5F5F5F5F5F5F5F5F5F5F5F5F5F5F5F5F5F5F5F5F5F5F5F5F5F5F5F5F5F5F5F5F5F5F5F5F528F5DCF5F5F5F5F5F5F5F5F5F5F5F5F5F5F5F5F5E2F5E2E2F5E2F5F5F5F5F5F5F5F5F5F5F5F5F5F5F5F5F5DCF5
310
28F5F5F5F5F5F5F5F5F5F5F5F5F5F5F5F5F5F5F5F5F5F5F5F5F5F5F5F5F5F5F5F5F5F5F5F5F5F5F5F5F5F5F5F5F5F5F5F5F5F5F5F5F5F5F5F5F5F5F5F5F5F5F5F5F5F5F5F5F5F5F5F5F5F5F5F5F5F5F5F5F5F5F5F5F5F5F5F5F5F5F5F5F5F5F5F5F5F5F5F5F5F5F5F5F5F5F5F5F5F5F5F5F5F5F5F5F5F5F5F5F5F5F5F5F5F5
310
F5F5F5F5F5F5F5F528F5DCF5F5F5F5F5F5F5F5F5F5F5F5F5F5F5F5F5E2F5E2E2F5E2F5F5F5F5F5F5F5F5F5F5F5F5F5F5F5F5F5DCF528F5F5F5F5F5F5F5F5F5F5F5F5F5F5F5F5F5F5F5F5F5F5F5F5F5F5F5F5F5F5F5F5F5F5F5F5F5F5F5F5F5F5F5F5F5F5F5F5F5F5F5F5F5F5F5F5F5F5F5F5F5F5F5F5F5F5F5F5F5F5F5F5F5
310
F5F5F5F5F5F5F5F5F5F5F5F5F5F5F5F5F5F5F5F5F5F5F5F5F5F5F5F5F5F5F5F5F5F5F5F5F5F5F5F5F5F5F5F5F5F5F5F5F5F5F5F5F5F5F5F5F5F5F5F5F528F5DCF5F5F5F5F5F5F5F5F5F5F5F5F5F5F5F5F5E2F5E2E2F5E2F5F5F5F5F5F5F5F5F5F5F5F5F5F5F5F5F5DCF528F5F5F5F5F5F5F5F5F5F5F5F5F5F5F5F5F5F5F5F5
310
F5F5F5F5F5F5F5F5F5F5F5F5F5F5F5F5F5F5F5F5F5F5F5F5F5F5F5F5F5F5F5F5F5F5F5F5F5F5F5F5F5F5F5F5F5F5F5F5F5F5F5F5F5F5F5F5F5F5F5F5F5F5F5F5F5F5F5F5F5F5F5F5F5F5F5F5F5F5F5F5F5F5F5F5F5F5F5F5F5F5F5F5F5F5F5F5F5F5F5F5F5F5F5F5F5F5F5F5F5F5F5F5F5F528F5DCF5F5F5F5F5F5F5F5F5F5
310
F5F5F5F5F5F5F5E2F5E2E2F5E2F5F5F5F5F5F5F5F5F5F5F5F5F5F5F5F5F5DCF528F5F5F5F5F5F5F5F5F5DCF5F5F5F5F5F5F5F5F5F5F5F5F5F5F5F5F5F5F5F5F5F5F5F5F5F5F5F5F5F5F5F5F5F5F5F5F5F5F5F5F5F5F5F5F5F5F5F5F5F5F5F5F5F5F5F5F5F5F5F5F5F5F5F5F5F5F5F5F5F5F5F5F5F5F5F5F5F5F5F5F5F5F5F5
310
F5F5F5F5F5F5F5F5F5F5F5F5F5F5F5F5F5F5F5F5F5F5F5F5F5F5F5F5F5F5F5F5F5F5F5F5F5F5F5F528F5DCF5F5F5F5F5F5F5F5F5F5F5F5F5F5F5F5F5E2F5E2E2F5E2F5F5F5F5F5F5F5F5F5F5F5F5F5F5F5F5F5DCF528F5F5F5F5F5F5F5F50FDCF5F5F5F5F52D2D2D2D2D2D2D2DF5F5F5F5F50FF5F5F5F5F5F5F5F5F5F5F5F5
310
F5F5F5F5F5F5F5F5F5F5F5F5F5F5F5F5F5F5F5F5F5F5F5F5F5F5F5F5F5F5F5F5F5F5F5F5F5F5F5F5F5F5F5F5F5F5F5F5F5F5F5F5F5F5F5F5F5F5F5F5F5F5F5F5F5F5F5F5F5F5F5F5F5F5F5F5F5F5F5F5F5F5F5F5F5F5F5F5F5F5F5F5F528F5DCF5F5F5F5F5F5F5F5F5F5F5F5F5F5F5F5F5E2F5E2E2F5E2F5F5F5F5F5F5F5F5
310
F5F5F5F5F5F5F5F5F5DCF528F5F5F5F5DCF5F5DC0FDC0F0F0F0F0F2D2D2D2D2D2D2D2D0F0F0F0F0F0F0FF5F5F5F5F5F5F5F5F5F5F5F5F5F5F5F5F5F5F5F5F5F5F5F5F5F5F5F5F5F5F5F5F5F5F5F5F5F5F5F5F5F5F5F5F5F5F5F5F5F5F5F5F5F5F5F5F5F5F5F5F5F5F5F5F5F5F5F5F5F5F5F5F5F5F5F5F5F5F5F5F5F5F5F5F5
310
F5F5F5F5F5F5F5F5F5F5F5F5F5F5F5F5F5F5F528F5DCF5F5F5F5F5F5F5F5F5F5F5F5F5F5F5F5F5E2F5E2E2F5E2F5F5F5F5F5F5F5F5F5F5F5F5F5F5F5F5F5DCF528F5F5F5DCF5F5DCF5F5DCF5F5F5F5F5F5F5F5F5F5F5F5F5F5F5F5F5F50FF5F5F5F5F5F5F5F5F5F5F5F5F5F5F5F5F5F5F5F5F5F5F5F5F5F5F5F5F5F5F5F5F5
310
F5F5F5F5F5F5F5F5F5F5F5F5F5F5F5F5F5F5F5F5F5F5F5F5F5F5F5F5F5F5F5F5F5F5F5F5F5F5F5F5F5F5F5F5F5F5F5F5F5F5F5F5F5F5F5F5F5F5F5F5F5F5F5F5F5F5F5F5F5F5F5F528F5DCF5F5F5F5F5F5F5F5F5F5F5F5F5F5F5F5F5E2F5E2E2F5E2F5F5F5F5F5F5F5F5F5F5F5F5F5F5F5F5F5DCF528F5F5F5F5F5DCF5F5DC
310
DCF5F5F5F5F5F5F5F5F5F5F5F5F5F5F5F5F5F50FF5F5F5F5F5F5F5F5F5F5F5F5F5F5F5F5F5F5F5F5F5F5F5F5F5F5F5F5F5F5F5F5F5F5F5F5F5F5F5F5F5F5F5F5F5F5F5F5F5F5F5F5F5F5F5F5F5F5F5F5F5F5F5F5F5F5F5F5F5F5F5F5F5F5F5F5F5F5F5F5F5F5F5F5F5F5F5F5F5F5F5F5F5F5F5F5F5F5F5F5F5F5F5F5F528F5
310
DCF5F5F5F5F5F5F5F5F5F5F5F5F5F5F5F5F5E2F5E2E2F5E2F5F5F5F5F5F5F5F5F5F5F5F5F5F5F5F5F5DCF528F5F5F5F5DCF5F5DCF5DCF5F5F5F5F5F5F5F5F5F5F5F5F5F5F5F5F5F50FF5F5F5F5F5F5F5F5F5F5F5F5F5F5F5F5F5F5F5F5F5F5F5F5F5F5F5F5F5F5F5F5F5F5F5F5F5F5F5F5F5F5F5F5F5F5F5F5F5F5F5F5F5F5
310
F5F5F5F5F5F5F5F5F5F5F5F5F5F5F5F5F5F5F5F5F5F5F5F5F5F5F5F5F5F5F5F5F5F5F5F5F5F5F5F5F5F5F5F5F5F5F5F5F5F5F528F5DCF5F5F5F5F5F5F5F5F5F5F5F5F5F5F5F5F5E2F5E2E2F5E2F5F5F5F5F5F5F5F5F5F5F5F5F5F5F5F5F5DCF528F5F5F5DCF5F5DCF5F5DCF5F5F5F5F5F5F5F5F5F5F5F5F5F5F5F5F5F50FF5
310
F5F5F5F5F5F5F5F5F5F5F5F5F5F5F5F5F5F5F5F5F5F5F5F5F5F5F5F5F5F5F5F5F5F5F5F5F5F5F5F5F5F5F5F5F5F5F5F5F5F5F5F5F5F5F5F5F5F5F5F5F5F5F5F5F5F5F5F5F5F5F5F5F5F5F5F5F5F5F5F5F5F5F5F5F5F5F5F5F5F5F5F5F5F5F5F5F5F5F5F5F5F5F5F528F5DCF5F5F5F5F5F5F5F5F5F5F5F5F5F5F5F5F5E2F5E2
310
E2F5F5F5F5F5F5F5F5F5F5F5F5F5F5F5F5F5F5F5DCF528F5F5F5F5F5DCF5F5F5DC1B0F0F0F0F0F0F0F0F0F0F0F0F0F0F0F0F0F0F0F0F0F0F0F0F0FF5F5F5F5F5F5F5F5F5F5F5F5F5F5F5F5F5F5F5F5F5F5F5F5F5F5F5F5F5F5F5F5F5F5F5F5F5F5F5F5F5F5F5F5F5F5F5F5F5F5F5F5F5F5F5F5F5F5F5F5F5F5F5F5F5F5F5F5
310
F5F5F5F5F5F5F5F5F5F5F5F5F5F5F5F5F5F5F5F5F5F5F5F5F5F5F5F5F5F528F5DCF5F5F5F5F5F5F5F5F5F5F5F5F5F5F5F5F5F5F5E2E2F5F5F5F5F5F5F5F5F5F5F5F5F5F5F5F5F5F5F5DCF528F5F5F5F5DCF5F5F5DCDCBEF5F5F5F5F5F5F5F5F5F5F5F5F5F5F5F5F50FF5F5F5F5F50FF5F5F5F5F5F5F5F5F5F5F5F5F5F5F5F5
310
F5F5F5F5F5F5F5F5F5F5F5F5F5F5F5F5F5F5F5F5F5F5F5F5F5F5F5F5F5F5F5F5F5F5F5F5F5F5F5F5F5F5F5F5F5F5F5F5F5F5F5F5F5F5F5F5F5F5F5F5F5F5F5F5F5F5F5F5F5F5F5F5F5F5F5F5F5F5F5F5F5F5F528F5DCF5F5F5F5F5F5F5F5F5F5F5F5F5F5F5F5F5F5F5E2E2F5F5F5F5F5F5F5F5F5F5F5F5F5F5F5F5F5F5F5DC
310
F528F5F5F5DCF5F5F5DCF5DCF5BEBEF5F5F5F5F5F5F5F5F5F5F5F5F5F5F50FF5F5F5F5F50FF5F5F5F5F5F5F5F5F5F5F5F5F5F5F5F5F5F5F5F5F5F5F5F5F5F5F5F5F5F5F5F5F5F5F5F5F5F5F5F5F5F5F5F5F5F5F5F5F5F5F5F5F5F5F5F5F5F5F5F5F5F5F5F5F5F5F5F5F5F5F5F5F5F5F5F5F5F5F5F5F5F5F5F5F5F5F5F5F5F5
310
F5F5F5F5F5F5F5F5F528F5DCF5F5F5F5F5F5F5F5F5F5F5F5F5F5F5F5F5F5F5E2E2F5F5F5F5F5F5F5F5F5F5F5F5F5F5F5F5F5F5F5DCF528F5F5F5F5F5DCDCF5F5DCF5F5BEBEF5F5F5F5F5F5F5F5F5F5F5F5F5F50FF5F5F5F5F50FF5F5F5F5F5F5F5F5F5F5F5F5F5F5F5F5F5F5F5F5F5F5F5F5F5F5F5F5F5F5F5F5F5F5F5F5F5
310
F5F5F5F5F5F5F5F5F5F5F5F5F5F5F5F5F5F5F5F5F5F5F5F5F5F5F5F5F5F5F5F5F5F5F5F5F5F5F5F5F5F5F5F5F5F5F5F5F5F5F5F5F5F5F5F5F5F5F5F5F5F528F5DCF5F5F5F5F5F5F5F5F5F5F5F5F5F5F5F5F5F5F5E2E2F5F5F5F5F5F5F5F5F5F5F5F5F5F5F5F5F5F5F5DCF528F5F5F5F5DCF5F5F5DCDCF5F5F5BEF5F5F5F5F5
310
F5F5F5F5F5F5F5F5F50FF5F5F5F5F50FF5F5F5F5F5F5F5F5F5F5F5F5F5F5F5F5F5F5F5F5F5F5F5F5F5F5F5F5F5F5F5F5F5F5F5F5F5F5F5F5F5F5F5F5F5F5F5F5F5F5F5F5F5F5F5F5F5F5F5F5F5F5F5F5F5F5F5F5F5F5F5F5F5F5F5F5F5F5F5F5F5F5F5F5F5F5F5F5F5F5F5F5F5F5F5F5F5F5F528F5DCF5F5F5F5F5F5F5F5F5
310
F5F5F5F5F5F5F5F5F5F5E2E2F5F5F5F5F5F5F5F5F5F5F5F5F5F5F5F5F5F5F5DCF528F5F5F5DCF5F5F5DCF5DCF5F5F5BEBEBEF5F5F5F5F5F5F5F5F5F5F5F50FF5F5F5F5F50FF5F5F5F5F5F5F5F5F5F5F5F5F5F5F5F5F5F5F5F5F5F5F5F5F5F5F5F5F5F5F5F5F5F5F5F5F5F5F5F5F5F5F5F5F5F5F5F5F5F5F5F5F5F5F5F5F5F5
310
F5F5F5F5F5F5F5F5F5F5F5F5F5F5F5F5F5F5F5F5F5F5F5F5F5F5F5F5F5F5F5F5F5F5F5F5F5F5F5F5F528F5DCF5F5F5F5F5F5F5F5F5F5F5F5F5F5F5F5F5F5F5E2E2F5F5F5F5F5F5F5F5F5F5F5F5F5F5F5F5F5F5F5DCF528F5F5F5F5F5DCDCF5F5DCF5F5F5F5BEBEF5F5F5F5F5F5F5F5F5F5F5F50FF5F5F5F5F50FF5F5F5F5F5
310
F5F5F5F5F5F5F5F5F5F5F5F5F5F5F5F5F5F5F5F5F5F5F5F5F5F5F5F5F5F5F5F5F5F5F5F5F5F5F5F5F5F5F5F5F5F5F5F5F5F5F5F5F5F5F5F5F5F5F5F5F5F5F5F5F5F5F5F5F5F5F5F5F5F5F5F5F5F5F5F5F5F5F5F5F5F5F5F5F5F5F5F5F5F528F5DCF5F5F5F5F5F5F5F5F5F5F5F5F5F5F5F5F5F5F5E2E2F5F5F5F5F5F5F5F5F5
310
F5F5F5F5F5F5F5F5F5F5DCF528F5F5F5F5DCF5F5F5DCDCF5F5F5F5BEF5F5F5F5F5F5F5F5F5F5F5F5F50FF5F5F5F5F50FF5F5F5F5F5F5F5F5F5F5F5F5F5F5F5F5F5F5F5F5F5F5F5F5F5F5F5F5F5F5F5F5F5F5F5F5F5F5F5F5F5F5F5F5F5F5F5F5F5F5F5F5F5F5F5F5F5F5F5F5F5F5F5F5F5F5F5F5F5F5F5F5F5F5F5F5F5F5F5
310
F5F5F5F5F5F5F5F5F5F5F5F5F5F5F5F5F5F5F5F528F5DCF5F5F5F5F5F5F5F5F5F5F5F5F5F5F5F5F5F5F5E2E2F5F5F5F5F5F5F5F5F5F5F5F5F5F5F5F5F5F5F5DCF528F5F5F5DCF5F5F5DCF5DCF5F5F5F5BEF5F5F5F5F5F5F5F5F5F5F5F5F50FF5F5F5F5F50FF5F5F5F5F5F5F5F5F5F5F5F5F5F5F5F5F5F5F5F5F5F5F5F5F5F5
310
F5F5F5F5F5F5F5F5F5F5F5F5F5F5F5F5F5F5F5F5F5F5F5F5F5F5F5F5F5F5F5F5F5F5F5F5F5F5F5F5F5F5F5F5F5F5F5F5F5F5F5F5F5F5F5F5F5F5F5F5F5F5F5F5F5F5F5F5F5F5F5F5F528F5DCF5F5F5F5F5F5F5F5F5F5F5F5F5F5F5F5F5F5F5E2E2F5E2F5F5F5F5F5F5F5F5F5F5F5F5F5F5F5F5F5DCF528F5F5F5F5F5F5DCF5
310
F5DCBEBEF5F5BEF5F5F5F5F5F5F5F5F5F5F5F5F50FF5F52D2D2D2D2D2D2D2DF5F5F5F5F5F5F5F5F5F5F5F5F5F5F5F5F5F5F5F5F5F5F5F5F5F5F5F5F5F5F5F5F5F5F5F5F5F5F5F5F5F5F5F5F5F5F5F5F5F5F5F5F5F5F5F5F5F5F5F5F5F5F5F5F5F5F5F5F5F5F5F5F5F5F5F5F5F5F5F5F5F5F5F5F5F5F5F5F5F5F5F5F5F5F528
310
F5DCF5F5F5F5F5F5F5F5F5F5F5F5F5F5F5F5F5E2F5E2E2F5E2F5F5F5F5F5F5F5F5F5F5F5F5F5F5F5F5F5DCF528F5F5F5F5F5DCF5F5DCDCF5BEF5F5BEF5F5F5F5F5F5F5F5F5F5F5F5F50FF5F52D2D2D2D2D2D2D2DF5F5F5F5F5F5F5F5F5F5F5F5F5F5F5F5F5F5F5F5F5F5F5F5F5F5F5F5F5F5F5F5F5F5F5F5F5F5F5F5F5F5F5
310
F5F5F5F5F5F5F5F5F5F5F5F5F5F5F5F5F5F5F5F5F5F5F5F5F5F5F5F5F5F5F5F5F5F5F5F5F5F5F5F5F5F5F5F5F5F5F5F5F5F5F5F528F5DCF5F5F5F5F5F5F5F5F5F5F5F5F5F5F5F5F5E2F5E2E2F5E2F5F5F5F5F5F5F5F5F5F5F5F5F5F5F5F5F5DCF528F5F5F5F5DCF5F5DCF5DCF5BEF5F5BEBEF5F5F5F5F5F5F5F5F5F5F5F50F
310
F5F5F5F5F50FF5F5F5F5F5F5F5F5F5F5F5F5F5F5F5F5F5F5F5F5F5F5F5F5F5F5F5F5F5F5F5F5F5F5F5F5F5F5F5F5F5F5F5F5F5F5F5F5F5F5F5F5F5F5F5F5F5F5F5F5F5F5F5F5F5F5F5F5F5F5F5F5F5F5F5F5F5F5F5F5F5F5F5F5F5F5F5F5F5F5F5F5F5F5F5F5F5F5F528F5DCF5F5F5F5F5F5F5F5F5F5F5F5F5F5F5F5F5E2F5
310
E2E2F5E2F5F5F5F5F5F5F5F5F5F5F5F5F5F5F5F5F5DCF528F5F5F5DCF5F5DCF5F5DCF5F5BEF5F5BEF5F5F5F5F5F5F5F5F5F5F5F50FF5F5F5F5F50FF5F5F5F5F5F5F5F5F5F5F5F5F5F5F5F5F5F5F5F5F5F5F5F5F5F5F5F5F5F5F5F5F5F5F5F5F5F5F5F5F5F5F5F5F5F5F5F5F5F5F5F5F5F5F5F5F5F5F5F5F5F5F5F5F5F5F5F5
310
F5F5F5F5F5F5F5F5F5F5F5F5F5F5F5F5F5F5F5F5F5F5F5F5F5F5F5F5F5F5F528F5DCF5F5F5F5F5F5F5F5F5F5F5F5F5F5F5F5F5E2F5E2E2F5E2F5F5F5F5F5F5F5F5F5F5F5F5F5F5F5F5F5DCF528F5F5F5F5F5DCF5F5DCDCF5F5BEF5F5F5BEBEF5F5F5F5BEBEF5F5F5F50FF5F5F5F5F50FF5F5F5F5F5F5F5F5F5F5F5F5F5F5F5
310
F5F5F5F5F5F5F5F5F5F5F5F5F5F5F5F5F5F5F5F5F5F5F5F5F5F5F5F5F5F5F5F5F5F5F5F5F5F5F5F5F5F5F5F5F5F5F5F5F5F5F5F5F5F5F5F5F5F5F5F5F5F5F5F5F5F5F5F5F5F5F5F5F5F5F5F5F5F5F5F5F5F5F5F528F5DCF5F5F5F5F5F5F5F5F5F5F5F5F5F5F5F5F5E2F5E2E2F5E2F5F5F5F5F5F5F5F5F5F5F5F5F5F5F5F5F5
310
DCF528F5F5F5F5DCF5F5DCF5DCF5F5F5BEF5F5F5BEBEBEBEBEF5BEF5F5F5F50FF5F5F5F5F50FF5F5F5F5F5F5F5F5F5F5F5F5F5F5F5F5F5F5F5F5F5F5F5F5F5F5F5F5F5F5F5F5F5F5F5F5F5F5F5F5F5F5F5F5F5F5F5F5F5F5F5F5F5F5F5F5F5F5F5F5F5F5F5F5F5F5F5F5F5F5F5F5F5F5F5F5F5F5F5F5F5F5F5F5F5F5F5F5F5
310
F5F5F5F5F5F5F5F5F5F528F5DCF5F5F5F5F5F5F5F5F5F5F5F5F5F5F5F5F5E2F5E2E2F5E2F5F5F5F5F5F5F5F5F5F5F5F5F5F5F5F5F5DCF528F5F5F5DCF5F5DCF5F5DCF5F5F5F5BEF5F5F5F5F5F5F5F5BEBEF5F5F50FF5F5F5F5F50FF5F5F5F5F5F5F5F5F5F5F5F5F5F5F5F5F5F5F5F5F5F5F5F5F5F5F5F5F5F5F5F5F5F5F5F5
310
F5F5F5F5F5F5F5F5F5F5F5F5F5F5F5F5F5F5F5F5F5F5F5F5F5F5F5F5F5F5F5F5F5F5F5F5F5F5F5F5F5F5F5F5F5F5F5F5F5F5F5F5F5F5F5F5F5F5F5F5F5F5F528F5DCF5F5F5F5F5F5F5F5F5F5F5F5F5F5F5F5F5E2F5E2E2F5E2F5F5F5F5F5F5F5F5F5F5F5F5F5F5F5F5F5DCF528F5F5F5F5F5DCF5F5F5DCF5F5F5F5F5BEBEBE
310
F5F5F5F5F5F5F5BEBEF50FF5F5F5F5F50FF5F5F5F5F5F5F5F5F5F5F5F5F5F5F5F5F5F5F5F5F5F5F5F5F5F5F5F5F5F5F5F5F5F5F5F5F5F5F5F5F5F5F5F5F5F5F5F5F5F5F5F5F5F5F5F5F5F5F5F5F5F5F5F5F5F5F5F5F5F5F5F5F5F5F5F5F5F5F5F5F5F5F5F5F5F5F5F5F5F5F5F5F5F5F5F5F5F5F528F5DCF5F5F5F5F5F5F5F5
310
F5F5F5F5F5F5F5F5F5E2F5E2E2F5E2F5F5F5F5F5F5F5F5F5F5F5F5F5F5F5F5F5DCF528F5F5F5F5DCF5F5F5DCDCF5F5F5F5F5F5F5F5BEBEF5F5F5F5F5F5BEF50FF5F5F5F5F50FF5F5F5F5F5F5F5F5F5F5F5F5F5F5F5F5F5F5F5F5F5F5F5F5F5F5F5F5F5F5F5F5F5F5F5F5F5F5F5F5F5F5F5F5F5F5F5F5F5F5F5F5F5F5F5F5F5
310
F5F5F5F5F5F5F5F5F5F5F5F5F5F5F5F5F5F5F5F5F5F5F5F5F5F5F5F5F5F5F5F5F5F5F5F5F5F5F5F5F5F528F5DCF5F5F5F5F5F5F5F5F5F5F5F5F5F5F5F5F5E2F5E2E2F5E2F5F5F5F5F5F5F5F5F5F5F5F5F5F5F5F5F5DCF528F5F5F5DCF5F5F5DCF5DCF5F5F5F5F5F5F5F5F5BEBEF5F5F5F5F5F5BE1BF5F5F5F5F50FF5F5F5F5
310
F5F5F5F5F5F5F5F5F5F5F5F5F5F5F5F5F5F5F5F5F5F5F5F5F5F5F5F5F5F5F5F5F5F5F5F5F5F5F5F5F5F5F5F5F5F5F5F5F5F5F5F5F5F5F5F5F5F5F5F5F5F5F5F5F5F5F5F5F5F5F5F5F5F5F5F5F5F5F5F5F5F5F5F5F5F5F5F5F5F5F5F5F5F5F528F5DCF5F5F5F5F5F5F5F5F5F5F5F5F5F5F5F5F5E2F5E2E2F5E2F5F5F5F5F5F5
310
F5F5F5F5F5F5F5F5F5F5F5DCF528F5F5F5F5F5DCDCF5F5DCF5F5F5F5F5F5F5F5F5F5BEF5F5F5F5F5F5F5BEF5F5F5F5F50F0FF5F5F5F5F5F5F5F5F5F5F5F5F5F5F5F5F5F5F5F5F5F5F5F5F5F5F5F5F5F5F5F5F5F5F5F5F5F5F5F5F5F5F5F5F5F5F5F5F5F5F5F5F5F5F5F5F5F5F5F5F5F5F5F5F5F5F5F5F5F5F5F5F5F5F5F5F5
310
F5F5F5F5F5F5F5F5F5F5F5F5F5F5F5F5F5F5F5F5F528F5DCF5F5F5F5F5F5F5F5F5F5F5F5F5F5F5F5F5E2F5E2E2F5E2F5F5F5F5F5F5F5F5F5F5F5F5F5F5F5F5F5DCF528F5F5F5F5DCF5F5F5DCDCDCDCDCDCDCDCDCDCDCDCDCDCDCDCDCDCDCDCDCDCDCDCDCDCDCDCDCF5F5F5F5F5F5F5F5F5F5F5F5F5F5F5F5F5F5F5F5F5F5F5
310
F5F5F5F5F5F5F5F5F5F5F5F5F5F5F5F5F5F5F5F5F5F5F5F5F5F5F5F5F5F5F5F5F5F5F5F5F5F5F5F5F5F5F5F5F5F5F5F5F5F5F5F5F5F5F5F5F5F5F5F5F5F5F5F5F5F5F5F5F5F5F5F5F5F528F5DCF5F5F5F5F5F5F5F5F5F5F5F5F5F5F5F5F5E2F5E2E2F5E2F5F5F5F5F5F5F5F5F5F5F5F5F5F5F5F5F5DCF528F5F5F5DCF5F5F5
310
DCF5F5DCF5F5DCF5F5F5DCF5F5DCF5F5DCF5F5DCF5F5DCF5F5DCF5F5F5F5F5F5F5F5F5F5F5F5F5F5F5F5F5F5F5F5F5F5F5F5F5F5F5F5F5F5F5F5F5F5F5F5F5F5F5F5F5F5F5F5F5F5F5F5F5F5F5F5F5F5F5F5F5F5F5F5F5F5F5F5F5F5F5F5F5F5F5F5F5F5F5F5F5F5F5F5F5F5F5F5F5F5F5F5F5F5F5F5F5F5F5F5F5F5F5F5F5
310
28F5DCF5F5F5F5F5F5F5F5F5F5F5F5F5F5F5F5F5E2F5E2E2F5E2F5F5F5F5F5F5F5F5F5F5F5F5F5F5F5F5F5DCF528F5F5F5F5F5DCDCF5F5DCF5F5DCF5F5F5DCF5F5DCF5F5DCF5F5DCF5F5DCF5F5DCF5F5F5F5F5F5F5F5F5F5F5F5F5F5F5F5F5F5F5F5F5F5F5F5F5F5F5F5F5F5F5F5F5F5F5F5F5F5F5F5F5F5F5F5F5F5F5F5F5
310
F5F5F5F5F5F5F5F5F5F5F5F5F5F5F5F5F5F5F5F5F5F5F5F5F5F5F5F5F5F5F5F5F5F5F5F5F5F5F5F5F5F5F5F5F5F5F5F5F5F5F5F5F528F5DCF5F5F5F5F5F5F5F5F5F5F5F5F5F5F5F5F5E2F5E2E2F5E2F5F5F5F5F5F5F5F5F5F5F5F5F5F5F5F5F5DCF528F5F5F5F5DCF5F5F5DCF5F5DCF5F5DCDCF5DCDCF5DCDCF5F5DCF5F5DC
310
F5F5DCF5F5F5F5F5F5F5F5F5F5F5F5F5F5F5F5F5F5F5F5F5F5F5F5F5F5F5F5F5F5F5F5F5F5F5F5F5F5F5F5F5F5F5F5F5F5F5F5F5F5F5F5F5F5F5F5F5F5F5F5F5F5F5F5F5F5F5F5F5F5F5F5F5F5F5F5F5F5F5F5F5F5F5F5F5F5F5F5F5F5F5F5F5F5F5F5F5F5F5F5F5F5F528F5DCF5F5F5F5F5F5F5F5F5F5F5F5F5F5F5F5F5E2
310
F5E2E2F5E2F5F5F5F5F5F5F5F5F5F5F5F5F5F5F5F5F5DCF528F5F5F5DCF5F5F5DCF5F5DCF5F5DCF5F5DCF5F5DCF5F5F5DCF5F5DCF5F5DCF5F5F5DCF5F5F5F5F5F5F5F5F5F5F5F5F5F5F5F5F5F5F5F5F5F5F5F5F5F5F5F5F5F5F5F5F5F5F5F5F5F5F5F5F5F5F5F5F5F5F5F5F5F5F5F5F5F5F5F5F5F5F5F5F5F5F5F5F5F5F5F5
310
F5F5F5F5F5F5F5F5F5F5F5F5F5F5F5F5F5F5F5F5F5F5F5F5F5F5F5F5F5F5F5F528F5DCF5F5F5F5F5F5F5F5F5F5F5F5F5F5F5F5F5E2F5E2E2F5F5F5F5F5F5F5F5F5F5F5F5F5F5F5F5F5F5F5DCF528F5F5F5F5F5F5DCF5F5DCF5F5DCF5F5DCF5F5DCF5F5F5DCF5F5DCF5F5DCF5F5DCDCF5F5F5F5F5F5F5F5F5F5F5F5F5F5F5F5
310
F5F5F5F5F5F5F5F5F5F5F5F5F5F5F5F5F5F5F5F5F5F5F5F5F5F5F5F5F5F5F5F5F5F5F5F5F5F5F5F5F5F5F5F5F5F5F5F5F5F5F5F5F5F5F5F5F5F5F5F5F5F5F5F5F5F5F5F5F5F5F5F5F5F5F5F5F5F5F5F5F5F5F5F5F528F5DCF5F5F5F5F5F5F5F5F5F5F5F5F5F5F5F5F5F5F5E2E2F5F5F5F5F5F5F5F5F5F5F5F5F5F5F5F5F5F5
310
F5DCF528F5F5F5F5F5F5F5F5F5F5F5F5F5F5F5F5F5F5F5F5F5F5F5F5F5F5F5F5F5F5F5F5F5F5F5F5F5F5F5F5F5F5F5F5F5F5F5F5F5F5F5F5F5F5F5F5F5F5F5F5F5F5F5F5F5F5F5F5F5F5F5F5F5F5F5F5F5F5F5F5F5F5F5F5F5F5F5F5F5F5F5F5F5F5F5F5F5F5F5F5F5F5F5F5F5F5F5F5F5F5F5F5F5F5F5F5F5F5F5F5F5F5F5
310
F5F5F5F5F5F5F5F5F5F5F528F5DCF5F5F5F5F5F5F5F5F5F5F5F5F5F5F5F5F5F5F5E2E2F5F5F5F5F5F5F5F5F5F5F5F5F5F5F5F5F5F5F5DCF528F5F5F5F5F5F5F5F5F5F5F5F5F5F5F5F5F5F5F5F5F5F5F5F5F5F5F5F5F5F5F5F5F5F5F5F5F5F5F5F5F5F5F5F5F5F5F5F5F5F5F5F5F5F5F5F5F5F5F5F5F5F5F5F5F5F5F5F5F5F5
310
F5F5F5F5F5F5F5F5F5F5F5F5F5F5F5F5F5F5F5F5F5F5F5F5F5F5F5F5F5F5F5F5F5F5F5F5F5F5F5F5F5F5F5F5F5F5F5F5F5F5F5F5F5F5F5F5F5F5F5F5F5F5F5F528F5DCF5F5F5F5F5F5F5F5F5F5F5F5F5F5F5F5F5F5F5E2E2F5F5F5F5F5F5F5F5F5F5F5F5F5F5F5F5F5F5F5DCF528F5F5F5F5F5F5F5F5F5F5F5F5F5F5F5F5F5
310
F5F5F5F5F5F5F5F5F5F5F5F5F5F5F5F5F5F5F5F5F5F5F5F5F5F5F5F5F5F5F5F5F5F5F5F5F5F5F5F5F5F5F5F5F5F5F5F5F5F5F5F5F5F5F5F5F5F5F5F5F5F5F5F5F5F5F5F5F5F5F5F5F5F5F5F5F5F5F5F5F5F5F5F5F5F5F5F5F5F5F5F5F5F5F5F5F5F5F5F5F5F5F5F5F5F5F5F5F5F5F5F5F5F5F5F5F528F5DCF5F5F5F5F5F5F5
310
F5F5F5F5F5F5F5F5F5F5F5F5E2E2F5F5F5F5F5F5F5F5F5F5F5F5F5F5F5F5F5F5F5DCF528F5F5F5F5F5F5F5F5F5F5F5F5F5F5F5F5F5F5F5F5F5F5F5F5F5F5F5F5F5F5F5F5F5F5F5F5F5F5F5F5F5F5F5F5F5F5F5F5F5F5F5F5F5F5F5F5F5F5F5F5F5F5F5F5F5F5F5F5F5F5F5F5F5F5F5F5F5F5F5F5F5F5F5F5F5F5F5F5F5F5F5
310
F5F5F5F5F5F5F5F5F5F5F5F5F5F5F5F5F5F5F5F5F5F5F5F5F5F5F5F5F5F5F5F5F5F5F5F5F5F5F5F5F5F5F528F5DCF5F5F5F5F5F5F5F5F5F5F5F5F5F5F5F5F5F5F5E2E2F5F5F5F5F5F5F5F5F5F5F5F5F5F5F5F5F5F5F5DCF528F5F5F5F5F5F5F5F5F5F5F5F5F5F5F5F5F5F5F5F5F5F5F5F5F5F5F5F5F5F5F5F5F5F5F5F5F5F5
310
F5F5F5F5F5F5F5F5F5F5F5F5F5F5F5F5F5F5F5F5F5F5F5F5F5F5F5F5F5F5F5F5F5F5F5F5F5F5F5F5F5F5F5F5F5F5F5F5F5F5F5F5F5F5F5F5F5F5F5F5F5F5F5F5F5F5F5F5F5F5F5F5F5F5F5F5F5F5F5F5F5F5F5F5F5F5F5F5F5F5F5F5F5F5F5F528F5DCF5F5F5F5F5F5F5F5F5F5F5F5F5F5F5F5F5F5F5E2E2F5F5F5F5F5F5F5
310
F5F5F5F5F5F5F5F5F5F5F5F5DCF528F5F5F5F5F5F5F5F5F5F5F5F5F5F5F5F5F5F5F5F5F5F5F5F5F5F5F5F5F5F5F5F5F5F5F5F5F5F5F5F5F5F5F5F5F5F5F5F5F5F5F5F5F5F5F5F5F5F5F5F5F5F5F5F5F5F5F5F5F5F5F5F5F5F5F5F5F5F5F5F5F5F5F5F5F5F5F5F5F5F5F5F5F5F5F5F5F5F5F5F5F5F5F5F5F5F5F5F5F5F5F5F5
310
F5F5F5F5F5F5F5F5F5F5F5F5F5F5F5F5F5F5F5F5F5F528F5DCF5F5F5F5F5F5F5F5F5F5F5F5F5F5F5F5F5F5F5E2E2F5F5F5F5F5F5F5F5F5F5F5F5F5F5F5F5F5F5F5DCF528F5F5F5F5F5F5F5F5F5F5F5F5F5F5F5F5F5F5F5F5F5F5F5F5F5F5F5F5F5F5F5F5F5F5F5F5F5F5F5F5F5F5F5F5F5F5F5F5F5F5F5F5F5F5F5F5F5F5F5
310
F5F5F5F5F5F5F5F5F5F5F5F5F5F5F5F5F5F5F5F5F5F5F5F5F5F5F5F5F5F5F5F5F5F5F5F5F5F5F5F5F5F5F5F5F5F5F5F5F5F5F5F5F5F5F5F5F5F5F5F5F5F5F5F5F5F5F5F5F5F5F5F5F5F5F528F5DCF5F5F5F5F5F5F5F5F5F5F5F5F5F5F5F5F5F5F5E2E2F5E2F5F5F5F5F5F5F5F5F5F5F5F5F5F5F5F5F5DCF528F5F5F5F5F5F5
310
F5F5F5F5F5F5F5F5F5F5F5F5F5F5F5F5F5F5F5F5F5F5F5F5F5F5F5F5F5F5F5F5F5F5F5F5F5F5F5F5F5F5F5F5F5F5F5F5F5F5F5F5F5F5F5F5F5F5F5F5F5F5F5F5F5F5F5F5F5F5F5F5F5F5F5F5F5F5F5F5F5F5F5F5F5F5F5F5F5F5F5F5F5F5F5F5F5F5F5F5F5F5F5F5F5F5F5F5F5F5F5F5F5F5F5F5F5F5F5F5F5F5F5F5F5F5F5
310
F528F5DCF5F5F5F5F5F5F5F5F5F5F5F5F5F5F5F5F5E2F5E2E2F5E2F5F5F5F5F5F5F5F5F5F5F5F5F5F5F5F5F5DCF528F5F5F5F5F5F5F5F5F5F5F5F5F5F5F5F5F5F5F5F5F5F5F5F5F5F5F5F5F5F5F5F5F5F5F5F5F5F5F5F5F5F5F5F5F5F5F5F5F5F5F5F5F5F5F5F5F5F5F5F5F5F5F5F5F5F5F5F5F5F5F5F5F5F5F5F5F5F5F5F5
310
F5F5F5F5F5F5F5F5F5F5F5F5F5F5F5F5F5F5F5F5F5F5F5F5F5F5F5F5F5F5F5F5F5F5F5F5F5F5F5F5F5F5F5F5F5F5F5F5F5F5F5F5F5F528F5DCF5F5F5F5F5F5F5F5F5F5F5F5F5F5F5F5F5E2F5E2E2F5E2F5F5F5F5F5F5F5F5F5F5F5F5F5F5F5F5F5DCF528F5F5F5F5F5F5F5F5F5F5F5F5F5F5F5F5F5F5F5F5F5F5F5F5F5F5F5
310
F5F5F5F5F5F5F5F5F5F5F5F5F5F5F5F5F5F5F5F5F5F5F5F5F5F5F5F5F5F5F5F5F5F5F5F5F5F5F5F5F5F5F5F5F5F5F5F5F5F5F5F5F5F5F5F5F5F5F5F5F5F5F5F5F5F5F5F5F5F5F5F5F5F5F5F5F5F5F5F5F5F5F5F5F5F5F5F5F5F5F5F5F5F5F5F5F5F5F5F5F5F5F5F5F5F5F528F5DCF5F5F5F5F5F5F5F5F5F5F5F5F5F5F5F5F5
310
E2F5E2E2F5E2F5F5F5F5F5F5F5F5F5F5F5F5F5F5F5F5F5DCF528F5F5F5F5F5F5F5F5F5F5F5F5F5F5F5F5F5F5F5F5F5F5F5F5F5F5F5F5F5F5F5F5F5F5F5F5F5F5F5F5F5F5F5F5F5F5F5F5F5F5F5F5F5F5F5F5F5F5F5F5F5F5F5F5F5F5F5F5F5F5F5F5F5F5F5F5F5F5F5F5F5F5F5F5F5F5F5F5F5F5F5F5F5F5F5F5F5F5F5F5F5
310
F5F5F5F5F5F5F5F5F5F5F5F5F5F5F5F5F5F5F5F5F5F5F5F5F5F5F5F5F5F5F5F5F528F5DCF5F5F5F5F5F5F5F5F5F5F5F5F5F5F5F5F5E2F5E2E2F5E2F5F5F5F5F5F5F5F5F5F5F5F5F5F5F5F5F5DCF528F5F5F5F5F5F5F5F5F5F5F5F5F5F5F5F5F5F5F5F5F5F5F5F5F5F5F5F5F5F5F5F5F5F5F5F5F5F5F5F5F5F5F5F5F5F5F5F5
310
F5F5F5F5F5F5F5F5F5F5F5F5F5F5F5F5F5F5F5F5F5F5F5F5F5F5F5F5F5F5F5F5F5F5F5F5F5F5F5F5F5F5F5F5F5F5F5F5F5F5F5F5F5F5F5F5F5F5F5F5F5F5F5F5F5F5F5F5F5F5F5F5F5F5F5F5F5F5F5F5F5F5F5F5F5F528F5DCF5F5F5F5F5F5F5F5F5F5F5F5F5F5F5F5F5E2F5E2E2F5E2F5F5F5F5F5F5F5F5F5F5F5F5F5F5F5
310
F5F5DCF528F5F5F5F5F5F5F5F5F5F5F5F5F5F5F5F5F5F5F5F5F5F5F5F5F5F5F5F5F5F5F5F5F5F5F5F5F5F5F5F5F5F5F5F5F5F5F5F5F5F5F5F5F5F5F5F5F5F5F5F5F5F5F5F5F5F5F5F5F5F5F5F5F5F5F5F5F5F5F5F5F5F5F5F5F5F5F5F5F5F5F5F5F5F5F5F5F5F5F5F5F5F5F5F5F5F5F5F5F5F5F5F5F5F5F5F5F5F5F5F5F5F5
310
F5F5F5F5F5F5F5F5F5F5F5F528F5DCF5F5F5F5F5F5F5F5F5F5F5F5F5F5F5F5F5E2F5E2E2F5E2F5F5F5F5F5F5F5F5F5F5F5F5F5F5F5F5F5DCF528F5F5F5F5F5F5F5F5F5F5F5F5F5F5F5F5F5F5F5F5F5F5F5F5F5F5F5F5F5F5F5F5F5F5F5F5F5F5F5F5F5F5F5F5F5F5F5F5F5F5F5F5F5F5F5F5F5F5F5F5F5F5F5F5F5F5F5F5F5
310
F5F5F5F5F5F5F5F5F5F5F5F5F5F5F5F5F5F5F5F5F5F5F5F5F5F5F5F5F5F5F5F5F5F5F5F5F5F5F5F5F5F5F5F5F5F5F5F5F5F5F5F5F5F5F5F5F5F5F5F5F5F5F5F5F528F5DCF5F5F5F5F5F5F5F5F5F5F5F5F5F5F5F5F5E2F5E2E2F5E2F5F5F5F5F5F5F5F5F5F5F5F5F5F5F5F5F5DCF528F5F5F5F5F5F5F5F5F5F5F5F5F5F5F5F5
310
F5F5F5F5F5F5F5F5F5F5F5F5F5F5F5F5F5F5F5F5F5F5F5F5F5F5F5F5F5F5F5F5F5F5F5F5F5F5F5F5F5F5F5F5F5F5F5F5F5F5F5F5F5F5F5F5F5F5F5F5F5F5F5F5F5F5F5F5F5F5F5F5F5F5F5F5F5F5F5F5F5F5F5F5F5F5F5F5F5F5F5F5F5F5F5F5F5F5F5F5F5F5F5F5F5F5F5F5F5F5F5F5F5F5F5F5F5F528F5DCF5F5F5F5F5F5
310
F5F5F5F5F5F5F5F5F5F5F5E2F5E2E2F5E2F5F5F5F5F5F5F5F5F5F5F5F5F5F5F5F5F5DCF528282828282828282828282828282828282828282828282828282828282828282828282828282828282828282828282828282828282828282828282828282828282828282828282828282828282828282828282828282828282828
310
282828282828282828282828282828282828282828282828282828282828282828282828282828282828282828F5DCF5F5F5F5F5F5F5F5F5F5F5F5F5F5F5F5F5E2F5E2E2F5E2F5F5F5F5F5F5F5F5F5F5F5F5F5F5F5F5F5DCF528F5F5F5F5F5F5F5F5F5F5F5F5F5F5F5F5F5F5F5F5F5F5F5F5F5F5F5F5F5F5F5F5F5F5F5F5F5
310
F5F5F5F5F5F5F5F5F5F5F5F5F5F5F5F5F5F5F5F5F5F5F5F5F5F5F5F5F528F5F5F5F5F5F5F5F5F5F5F5F5F5F5F5F5F5F5F5F5F5F5F5F5F5F5F5F5F5F5F5F5F5F5F5F5F5F5F5F5F5F5F5F5F5F5F5F5F5F5F5F5F5F5F5F5F5F5F5F5F5F5F5F5F5F5F528F5DCF5F5F5F5F5F5F5F5F5F5F5F5F5F5F5F5F5E2F5E2E2F5E2F5F5F5F5
310
F5F5F5F5F5F5F5F5F5F5F5F5F5DCF528F5F5F5F5F5F5F5F5F5F5F5F5F52D2D2D2D2D2D2D2D2D2D2D2D2D2D2D2D2D2D2D2D2D2D2D2D2D2D2D2D2D2D2D2D2D2D2D2D2D2DF5F5F5F5F5F5F5F5F5F5F5F5F5F5F528F5F5F52D2D2D2DF52D2D2D2D2D2DF5F5F5F5F5F5F5F5F5F5F5F5F5F5F5F5F5F5F5F5F5F5F5F5F5F5F5F5F5F5
310
F5F5F5F5F5F5F5F5F5F5F5F5F5F5F5F5F5F5F5F5F5F5F528F5DCF5F5F5F5F5F5F5F5F5F5F5F5F5F5F5F5F5E2F5E2E2F5E2F5F5F5F5F5F5F5F5F5F5F5F5F5F5F5F5F5DCF528F5F5F5F5F5F5F5F5F5F5F5F5F52D2D2D2D2D2D2D2D2D2D2D2D2D2D2D2D2D2D2D2D2D2D2D2D2D2D2D2D2D2D2D2D2D2D2D2D2D2DF5F5F5F5F5F5F5
310
F5F5F5F5F5F5F5F528F5F5F52D2D2D2DF52D2D2D2DF52DF5F5F5F5F5F5F5F5F5F5F5F5F5F5F5F5F5F5F5F5F5F5F5F5F5F5F5F5F5F5F5F5F5F5F5F5F5F5F5F5F5F5F5F5F5F5F5F5F5F5F5F5F528F5DCF5F5F5F5F5F5F5F5F5F5F5F5F5F5F5F5F5E2F5E2E2F5E2F5F5F5F5F5F5F5F5F5F5F5F5F5F5F5F5F5DCF528F5F5F5F5F5
310
F5F5F5F5F5F5F5F5F5F5F5F5F5F5F5F5F5F5F5F5F5F5F5F5F5F5F5F5F5F5F5F5F5F5F5F5F5F5F5F5F5F5F5F5F5F5F5F5F5F5F5F5F5F5F5F5F5F5F5F5F528F5F5F5F5F5F5F5F5F5F5F5F5F5F5F5F5F5F5F5F5F5F5F5F5F5F5F5F5F5F5F5F5F5F5F5F5F5F5F5F5F5F5F5F5F5F5F5F5F5F5F5F5F5F5F5F5F5F5F5F5F5F5F5F5F5
310
F5F528F5DCF5F5F5F5F5F5F5F5F5F5F5F5F5F5F5F5F5E2F5E2E2F5E2F5F5F5F5F5F5F5F5F5F5F5F5F5F5F5F5F5DCF52828282828282828282828282828282828282828282828282828282D2D2D2D2D2D2D2D2D2D2D2D2D28282828282828282828282828282828282828282828282828282828282828282828282828282828
310
2828282828282828282828282828282828282828282828282828282828282828282828282828282828282828282828282828282828282828F5DCF5F5F5F5F5F5F5F5F5F5F5F5F5F5F5F5F5E2F5E2E2F5E2F5F5F5F5F5F5F5F5F5F5F5F5F5F5F5F5F5DCF528F5F5F5F5F5F5F5F5F5F5F5F5F5F5F5F5F5F5F5F5F5F5F5F5F5F5
310
2D2D2D2D2D2D2D2D2D2D2D2D2DF5F5F5F5F5F5F5F5F5F5F5F5F5F5F5F5F5F5F5F5F5F5F5F5F5F5F528F5F5F52D2D2D2D2D2D2D2D2D2D2DF5F52D2D2D2D2D2D2D2D2D2DF5F5F5F5F5F5F5F5F5F5F5F5F5F5F5F5F5F5F5F5F5F5F5F5F5F5F5F5F5F5F5F5F5F5F5F5F5F5F5F5F528F5DCF5F5F5F5F5F5F5F5F5F5F5F5F5F5F5F5
310
F5E2F5E2E2F5E2F5F5F5F5F5F5F5F5F5F5F5F5F5F5F5F5F5DCF528F5F5F5F5F5F5F5F5F5F5F5F5F5F5F5F5F5F5F5F5F5F5F5F5F5F52D2D2D2D2D2D2D2D2D2D2D2D2DF5F5F5F5F5F5F5F5F5F5F5F5F5F5F5F5F5F5F5F5F5F5F5F5F5F5F528F5F5F52D2D2D2D2D2D2D2D2D2D2DF52D2D2D2D2D2D2D2D2D2D2DF5F5F5F5F5F5F5
310
F5F5F5F5F5F5F5F5F5F5F5F5F5F5F5F5F5F5F5F5F5F5F5F5F5F5F5F5F5F5F5F5F5F528F5DCF5F5F5F5F5F5F5F5F5F5F5F5F5F5F5F5F5E2F5E2E2F5F5F5F5F5F5F5F5F5F5F5F5F5F5F5F5F5F5F5DCF528F5F5F5F5F5F5F5F5F5F5F5F5F5F5F5F5F5F5F5F5F5F5F5F5F5F5F5F5F5F5F5F5F5F5F5F5F5F5F5F5F5F5F5F5F5F5F5
310
F5F5F5F5F5F5F5F5F5F5F5F5F5F5F5F5F5F5F528F5F5F5F5F5F5F5F5F5F5F5F5F5F5F5F5F5F5F5F5F5F5F5F5F5F5F5F5F5F5F5F5F5F5F5F5F5F5F5F5F5F5F5F5F5F5F5F5F5F5F5F5F5F5F5F5F5F5F5F5F5F5F5F5F5F5F528F5DCF5F5F5F5F5F5F5F5F5F5F5F5F5F5F5F5F5F5F5E2E2F5F5F5F5F5F5F5F5F5F5F5F5F5F5F5F5
310
F5F5F5DCF52828282828282828282828282828282828282828282828282828282828282828282828282828282828282828282828282828282828282828282828282828282828282828282828282828282828282828282828282828282828282828282828282828282828282828282828282828282828282828282828282828
310
2828282828282828282828282828F5DCF5F5F5F5F5F5F5F5F5F5F5F5F5F5F5F5F5F5F5E2E2F5F5F5F5F5F5F5F5F5F5F5F5F5F5F5F5F5F5F5DCF5F5F5F5F5F5F5F5F5F5F5F5F5F5F5F5F5F5F5F5F5F5F5F5F5F5F5F5F5F5F5F5F5F5F5F5F5F5F5F5F5F5F5F5F5F5F5F5F5F5F5F5F5F5F5F5F5F5F5F5F5F5F5F5F5F5F5F5F5F5
310
F5F5F5F5F5F5F5F5F5F5F5F5F5F5F5F5F5F5F5F5F5F5F5F5F5F5F5F5F5F5F5F5F5F5F5F5F5F5F5F5F5F5F5F5F5F5F5F5F5F5F5F5F5F5F5F5F5F5F5F5F5F5F5F5F5F5F5F5DCF5F5F5F5F5F5F5F5F5F5F5F5F5F5F5F5F5F5F5E2E2F5F5F5F5F5F5F5F5F5F5F5F5F5F5F5F5F5F5F5DCDCDCDCDCDCDCDCDCDCDCDCDCDCDCDCDCDC
310
DCDCDCDCDCDCDCDCDCDCDCDCDCDCDCDCDCDCDCDCDCDCDCDCDCDCDCDCDCDCDCDCDCDCDCDCDCDCDCDCDCDCDCDCDCDCDCDCDCDCDCDCDCDCDCDCDCDCDCDCDCDCDCDCDCDCDCDCDCDCDCDCDCDCDCDCDCDCDCDCDCDCDCDCDCDCDCDCDCDCDCDCDCDCDCDCDCDCDCDCDCDCDCDCDCDCDCDCDCDCDCDCDCDCDCDCDCDCDCDCDCDCF5F5F5F5F5
310
F5F5F5F5F5F5F5F5F5F5F5F5F5F5E2E2F5F5F5F5F5F5F5F5F5F5F5F5F5F5F5F5F5F5F5DCDCDCDCDCDCDCDCDCDCDCDCDCDCDCDCDCDCDCDCDCDCDCDCDCDCDCDCDCDCDCDCDCDCDCDCDCDCDCDCDCDCDCDCDCDCDCDCDCDCDCDCDCDCDCDCDCDCDCDCDCDCDCDCDCDCDCDCDCDCDCDCDCDCDCDCDCDCDCDCDCDCDCDCDCDCDCDCDCDCDCDC
310
DCDCDCDCDCDCDCDCDCDCDCDCDCDCDCDCDCDCDCDCDCDCDCDCDCDCDCDCDCDCDCDCDCDCDCDCDCDCDCDCDCDCDCDCDCDCDCDCF5F5F5F5F5F5F5F5F5F5F5F5F5F5F5F5F5F5F5E2E2F5F5F5F5F5F5F5F5F5F5F5F5F5F5F5F5F5F5F5F5F5F5F5F5F5F5F5F5F5F5F5F5F5F5F5F5F5F5F5F5F5F5F5F5F5F5F5F5F5F5F5F5F5F5F5F5F5F5
310
F5F5F5F5F5F5F5F5F5F5F5F5F5F5F5F5F5F5F5F5F5F5F5F5F5F5F5F5F5F5F5F5F5F5F5F5F5F5F5F5F5F5F5F5F5F5F5F5F5F5F5F5F5F5F5F5F5F5F5F5F5F5F5F5F5F5F5F5F5F5F5F5F5F5F5F5F5F5F5F5F5F5F5F5F5F5F5F5F5F5F5F5F5F5F5F5F5F5F5F5F5F5F5F5F5F5F5F5F5F5F5F5F5F5F5F5F5F5F5F5E2E2F5F5F5F5F5
310
F5F5F5F5F5F5F5F5F5F5F5F5F5F5F5F5F5F5F5F5F5F5F5F5F5F5F5F5F5F5F5F5F5F5F5F5F5F5F5F5F5F5F5F5F5F5F5F5F5F5F5F5F5F5F5F5F5F5F5F5F5F5F5F5F5F5F5F5F5F5F5F5F5F5F5F5F5F5F5F5F5F5F5F5F5F5F5F5F5F5F5F5F5F5F5F5F5F5F5F5F5F5F5F5F5F5F5F5F5F5F5F5F5F5F5F5F5F5F5F5F5F5F5F5F5F5F5
310
F5F5F5F5F5F5F5F5F5F5F5F5F5F5F5F5F5F5F5F5F5F5F5F5F5F5F5F5F5F5F5F5F5F5F5F5F5F5F5F5F5F5F5F5F5F5E2E2F5F5F5F5F5F5F5F5F5F5F5F5F5F5F5F5F5F5F5F5F5F5F5F5F5F5F5F5F5F5F5F5F5F5F5F5F5F5F5F5F5F5F5F5F5F5F5F5F5F5F5F5F5F5F5F5F5F5F5F5F5F5F5F5F5F5F5F5F5F5F5F5F5F5F5F5F5F5F5
310
F5F5F5F5F5F5F5F5F5F5F5F5F5F5F5F5F5F5F5F5F5F5F5F5F5F5F5F5F5F5F5F5F5F5F5F5F5F5F5F5F5F5F5F5F5F5F5F5F5F5F5F5F5F5F5F5F5F5F5F5F5F5F5F5F5F5F5F5F5F5F5F5F5F5F5F5F5F5F5F5F5F5F5F5F5F5F5F5F5F5F5F5F5F5F5F5F5F5F5E2E2F5F5F5F5F5F5F5F5F5F5F5F5F5F5F5F5F5F5F5F5F5F5F5F5F5F5
310
F5F5F5F5F5F5F5F5F5F5F5F5F5F5F5F5F5F5F5F5F5F5F5F5F5F5F5F5F5F5F5F5F5F5F5F5F5F5F5F5F5F5F5F5F5F5F5F5F5F5F5F5F5F5F5F5F5F5F5F5F5F5F5F5F5F5F5F5F5F5F5F5F5F5F5F5F5F5F5F5F5F5F5F5F5F5F5F5F5F5F5F5F5F5F5F5F5F5F5F5F5F5F5F5F5F5F5F5F5F5F5F5F5F5F5F5F5F5F5F5F5F5F5F5F5F5F5
310
F5F5F5F5F5F5F5F5F5F5F5F5F5F5F5F5F5F5F5F5F5F5F5F5F5E2E2F5E2F5F5F5F5F5F5F5F5F5F5F5F5F5F5F5F5F5F5F5F5F5F5F5F5F5F5F5F5F5F5F5F5F5F5F5F5F5F5F5F5F5F5F5F5F5F5F5F5F5F5F5F5F5F5F5F5F5F5F5F5F5F5F5F5F5F5F5F5F5F5F5F5F5F5F5F5F5F5F5F5F5F5F5F5F5F5F5F5F5F5F5F5F5F5F5F5F5F5
310
F5F5F5F5F5F5F5F5F5F5F5F5F5F5F5F5F5F5F5F5F5F5F5F5F5F5F5F5F5F5F5F5F5F5F5F5F5F5F5F5F5F5F5F5F5F5F5F5F5F5F5F5F5F5F5F5F5F5F5F5F5F5F5F5F5F5F5F5F5F5F5F5F5F5F5F5E2F5E2E2F5E2F5F5F5F5F5F5F5F5F5F5F5F5F5F5F5F5F5F5F5F5F5F5F5F5F5F5F5F5F5F5F5F5F5F5F5F5F5F5F5F5F5F5F5F5F5
310
F5F5F5F5F5F5F5F5F5F5F5F5F5F5F5F5F5F5F5F5F5F5F5F5F5F5F5F5F5F5F5F5F5F5F5F5F5F5F5F5F5F5F5F5F5F5F5F5F5F5F5F5F5F5F5F5F5F5F5F5F5F5F5F5F5F5F5F5F5F5F5F5F5F5F5F5F5F5F5F5F5F5F5F5F5F5F5F5F5F5F5F5F5F5F5F5F5F5F5F5F5F5F5F5F5F5F5F5F5F5F5F5F5F5F5F5F5F5F5F5F5F5F5F5F5F5F5
310
F5F5E2F5E2E2F5E2F5F5F5F5F5F5F5F5F5F5F5F5F5F5F5F5F5F5F5F5F5F5F5F5F5F5F5F5F5F5F5F5F5F5F5F5F5F5F5F5F5F5F5F5F5F5F5F5F5F5F5F5F5F5F5F5F5F5F5F5F5F5F5F5F5F5F5F5F5F5F5F5F5F5F5F5F5F5F5F5F5F5F5F5F5F5F5F5F5F5F5F5F5F5F5F5F5F5F5F5F5F5F5F5F5F5F5F5F5F5F5F5F5F5F5F5F5F5F5
310
F5F5F5F5F5F5F5F5F5F5F5F5F5F5F5F5F5F5F5F5F5F5F5F5F5F5F5F5F5F5F5F5F5F5F5F5F5F5F5F5F5F5F5F5F5F5F5F5F5F5F5F5F5F5F5E2F5E2E2F5E2F5F5F5F5F5F5F5F5F5F5F5F5F5F5F5F5F5F5F5F5F5F5F5F5F5F5F5F5F5F5F5F5F5F5F5F5F5F5F5F5F5F5F5F5F5F5F5F5F5F5F5F5F5F5F5F5F5F5F5F5F5F5F5F5F5F5
310
F5F5F5F5F5F5F5F5F5F5F5F5F5F5F5F5F5F5F5F5F5F5F5F5F5F5F5F5F5F5F5F5F5F5F5F5F5F5F5F5F5F5F5F5F5F5F5F5F5F5F5F5F5F5F5F5F5F5F5F5F5F5F5F5F5F5F5F5F5F5F5F5F5F5F5F5F5F5F5F5F5F5F5F5F5F5F5F5F5F5F5F5F5F5F5F5F5F5F5F5F5F5F5F5F5F5F5F5E2F5E2E2F5E2F5F5F5F5F5F5F5F5F5F5F5F5F5
310
F5F5F5F5F5F5F5F5F5F5F5F5F5F5F5F5F5F5F5F5F5F5F5F5F5F5F5F5F5F5F5F5F5F5F5F5F5F5F5F5F5F5F5F5F5F5F5F5F5F5F5F5F5F5F5F5F5F5F5F5F5F5F5F5F5F5F5F5F5F5F5F5F5F5F5F5F5F5F5F5F5F5F5F5F5F5F5F5F5F5F5F5F5F5F5F5F5F5F5F5F5F5F5F5F5F5F5F5F5F5F5F5F5F5F5F5F5F5F5F5F5F5F5F5F5F5F5
310
F5F5F5F5F5F5F5F5F5F5F5F5F5F5F5F5F5F5F5F5F5F5F5F5F5F5F5F5F5F5F5F5F5F5E2F5E2E2F5E2F5F5F5F5F5F5F5F5F5F5F5F5F5F5F5F5F5F5F5F5F5F5F5F5F5F5F5F5F5F5F5F5F5F5F5F5F5F5F5F5F5F5F5F5F5F5F5F5F5F5F5F5F5F5F5F5F5F5F5F5F5F5F5F5F5F5F5F5F5F5F5F5F5F5F5F5F5F5F5F5F5F5F5F5F5F5F5
310
F5F5F5F5F5F5F5F5F5F5F5F5F5F5F5F5F5F5F5F5F5F5F5F5F5F5F5F5F5F5F5F5F5F5F5F5F5F5F5F5F5F5F5F5F5F5F5F5F5F5F5F5F5F5F5F5F5F5F5F5F5F5F5F5F5F5F5F5F5F5F5F5F5F5F5F5F5F5F5F5F5F5F5F5F5F5F5E2F5E2E2F5E2F5F5F5F5F5F5F5F5F5F5F5F5F5F5F5F5F5F5F5F5F5F5F5F5F5F5F5F5F5F5F5F5F5F5
310
F5F5F5F5F5F5F5F5F5F5F5F5F5F5F5F5F5F5F5F5F5F5F5F5F5F5F5F5F5F5F5F5F5F5F5F5F5F5F5F5F5F5F5F5F5F5F5F5F5F5F5F5F5F5F5F5F5F5F5F5F5F5F5F5F5F5F5F5F5F5F5F5F5F5F5F5F5F5F5F5F5F5F5F5F5F5F5F5F5F5F5F5F5F5F5F5F5F5F5F5F5F5F5F5F5F5F5F5F5F5F5F5F5F5F5F5F5F5F5F5F5F5F5F5F5F5F5
310
F5F5F5F5F5F5F5F5F5F5F5F5F5E2F5E2E2F5E2E2E2E2E2E2E2E2E2F5F5F5F5F5F5F5F5F5E2E2E2E2E2E2E2E2E2E2E2E2E2E2E2E2F5F5F5F5F5F5F5F5F5E2E2E2E2E2E2E2E2E2E2E2E2E2E2E2E2F5F5F5F5F5F5F5F5F5E2E2E2E2E2E2E2E2E2E2E2E2E2E2E2E2F5F5F5F5F5F5F5F5F5E2E2E2E2E2E2E2E2E2E2E2E2E2E2E2E2
310
F5F5F5F5F5F5F5F5F5E2E2E2E2E2E2E2E2E2E2E2E2E2E2E2E2F5F5F5F5F5F5F5F5F5E2E2E2E2E2E2E2E2E2E2E2E2E2E2E2E2F5F5F5F5F5F5F5F5F5E2E2E2E2E2E2E2E2F5E2E2F5F5F5F5F5F5F5F5F5F5F5F5F5F5F5F5F5F5F5F5F5F5F5F5F5F5F5F5F5F5F5F5F5F5F5F5F5F5F5F5F5F5F5F5F5F5F5F5F5F5F5F5F5F5F5F5F5
310
F5F5F5F5F5F5F5F5F5F5F5F5F5F5F5F5F5F5F5F5F5F5F5F5F5F5F5F5F5F5F5F5F5F5F5F5F5F5F5F5F5F5F5F5F5F5F5F5F5F5F5F5F5F5F5F5F5F5F5F5F5F5F5F5F5F5F5F5F5F5F5F5F5F5F5F5F5F5F5F5F5F5F5F5F5F5F5F5F5F5F5F5F5F5F5F5F5F5F5F5F5F5F5F5F5F5F5F5F5F5F5F5F5F5F5F5F5F5F5F5F5E2E2E2E2E2E2
310
E2E2E2E2E2E2E2E2E2E2E2E2E2E2E2E2E2E2E2E2E2E2E2E2E2E2E2E2E2E2E2E2E2E2E2E2E2E2E2E2E2E2E2E2E2E2E2E2E2E2E2E2E2E2E2E2E2E2E2E2E2E2E2E2E2E2E2E2E2E2E2E2E2E2E2E2E2E2E2E2E2E2E2E2E2E2E2E2E2E2E2E2E2E2E2E2E2E2E2E2E2E2E2E2E2E2E2E2E2E2E2E2E2E2E2E2E2E2E2E2E2E2E2E2E2E2E2
310
E2E2E2E2E2E2E2E2E2E2E2E2E2E2E2E2E2E2E2E2E2E2E2E2E2E2E2E2E2E2E2E2E2E2E2E2E2E2E2E2E2E2E2E2E2E2E2E2
  0
XRECORD
  5
C8
102
{ACAD_REACTORS
330
C7
102
}
330
C7
100
AcDbXrecord
280
     1
102
MATERIAL
148
0.0
149
0.0
149
0.0
 93
        0
 94
       63
282
     0
 72
     1
 77
     1
171
     1
175
     1
179
     1
273
     0
  0
XRECORD
  5
C6
102
{ACAD_REACTORS
330
C5
102
}
330
C5
100
AcDbXrecord
280
     1
102
MATERIAL
148
0.0
149
0.0
149
0.0
 93
        0
 94
       63
282
     0
 72
     1
 77
     1
171
     1
175
     1
179
     1
273
     0
  0
XRECORD
  5
B2
102
{ACAD_REACTORS
330
B1
102
}
330
B1
100
AcDbXrecord
280
     1
102
MATERIAL
148
0.0
149
0.0
149
0.0
 93
        0
 94
       63
282
     0
 72
     1
 77
     1
171
     1
175
     1
179
     1
273
     0
  0
XRECORD
  5
156
102
{ACAD_REACTORS
330
155
102
}
330
155
100
AcDbXrecord
280
     1
102
ACAD_ROUNDTRIP_PRE2007_TABLESTYLE
 90
        4
 91
        0
  1

 92
        4
 93
        0
  2

 94
        4
 95
        0
  3

  0
ENDSEC
  0
EOF
