  0
SECTION
  2
HEADER
  9
$ACADVER
  1
AC1018
  9
$ACADMAINTVER
 70
    76
  9
$DWGCODEPAGE
  3
ANSI_1252
  9
$LASTSAVEDBY
  1
simone
  9
$INSBASE
 10
0.0
 20
0.0
 30
0.0
  9
$EXTMIN
 10
0.0149999999999999
 20
-0.4083255245769504
 30
0.0
  9
$EXTMAX
 10
1.980232836553838
 20
2.689615788939782
 30
0.0
  9
$LIMMIN
 10
0.0
 20
0.0
  9
$LIMMAX
 10
1.0
 20
0.5
  9
$ORTHOMODE
 70
     0
  9
$REGENMODE
 70
     1
  9
$FILLMODE
 70
     1
  9
$QTEXTMODE
 70
     0
  9
$MIRRTEXT
 70
     0
  9
$LTSCALE
 40
1.0
  9
$ATTMODE
 70
     1
  9
$TEXTSIZE
 40
0.005
  9
$TRACEWID
 40
1.0
  9
$TEXTSTYLE
  7
style1
  9
$CLAYER
  8
Dimensione
  9
$CELTYPE
  6
ByLayer
  9
$CECOLOR
 62
     1
  9
$CELTSCALE
 40
1.0
  9
$DISPSILH
 70
     0
  9
$DIMSCALE
 40
0.001
  9
$DIMASZ
 40
1.5
  9
$DIMEXO
 40
0.0625
  9
$DIMDLI
 40
0.38
  9
$DIMRND
 40
0.0
  9
$DIMDLE
 40
0.0
  9
$DIMEXE
 40
0.18
  9
$DIMTP
 40
0.0
  9
$DIMTM
 40
0.0
  9
$DIMTXT
 40
3.0
  9
$DIMCEN
 40
0.0
  9
$DIMTSZ
 40
0.0
  9
$DIMTOL
 70
     0
  9
$DIMLIM
 70
     0
  9
$DIMTIH
 70
     1
  9
$DIMTOH
 70
     1
  9
$DIMSE1
 70
     0
  9
$DIMSE2
 70
     0
  9
$DIMTAD
 70
     0
  9
$DIMZIN
 70
     0
  9
$DIMBLK
  1
ArchTick
  9
$DIMASO
 70
     1
  9
$DIMSHO
 70
     1
  9
$DIMPOST
  1

  9
$DIMAPOST
  1

  9
$DIMALT
 70
     0
  9
$DIMALTD
 70
     2
  9
$DIMALTF
 40
25.4
  9
$DIMLFAC
 40
1.0
  9
$DIMTOFL
 70
     0
  9
$DIMTVP
 40
0.0
  9
$DIMTIX
 70
     0
  9
$DIMSOXD
 70
     0
  9
$DIMSAH
 70
     0
  9
$DIMBLK1
  1

  9
$DIMBLK2
  1

  9
$DIMSTYLE
  2
Bovelacci
  9
$DIMCLRD
 70
     5
  9
$DIMCLRE
 70
     5
  9
$DIMCLRT
 70
     4
  9
$DIMTFAC
 40
1.0
  9
$DIMGAP
 40
2.0
  9
$DIMJUST
 70
     0
  9
$DIMSD1
 70
     0
  9
$DIMSD2
 70
     0
  9
$DIMTOLJ
 70
     1
  9
$DIMTZIN
 70
     0
  9
$DIMALTZ
 70
     0
  9
$DIMALTTZ
 70
     0
  9
$DIMUPT
 70
     0
  9
$DIMDEC
 70
     2
  9
$DIMTDEC
 70
     2
  9
$DIMALTU
 70
     2
  9
$DIMALTTD
 70
     2
  9
$DIMTXSTY
  7
ROMANS
  9
$DIMAUNIT
 70
     0
  9
$DIMADEC
 70
     0
  9
$DIMALTRND
 40
0.0
  9
$DIMAZIN
 70
     0
  9
$DIMDSEP
 70
    46
  9
$DIMATFIT
 70
     3
  9
$DIMFRAC
 70
     0
  9
$DIMLDRBLK
  1

  9
$DIMLUNIT
 70
     2
  9
$DIMLWD
 70
    -2
  9
$DIMLWE
 70
    -2
  9
$DIMTMOVE
 70
     2
  9
$LUNITS
 70
     2
  9
$LUPREC
 70
     2
  9
$SKETCHINC
 40
1.0
  9
$FILLETRAD
 40
0.0
  9
$AUNITS
 70
     0
  9
$AUPREC
 70
     0
  9
$MENU
  1
.
  9
$ELEVATION
 40
0.0
  9
$PELEVATION
 40
0.0
  9
$THICKNESS
 40
0.0
  9
$LIMCHECK
 70
     0
  9
$CHAMFERA
 40
0.0
  9
$CHAMFERB
 40
0.0
  9
$CHAMFERC
 40
0.0
  9
$CHAMFERD
 40
0.0
  9
$SKPOLY
 70
     0
  9
$TDCREATE
 40
2454297.625402373
  9
$TDUCREATE
 40
2454297.542069039
  9
$TDUPDATE
 40
2454369.687760046
  9
$TDUUPDATE
 40
2454369.604426713
  9
$TDINDWG
 40
0.4457546875
  9
$TDUSRTIMER
 40
0.4457541319
  9
$USRTIMER
 70
     1
  9
$ANGBASE
 50
0.0
  9
$ANGDIR
 70
     0
  9
$PDMODE
 70
     0
  9
$PDSIZE
 40
0.0
  9
$PLINEWID
 40
0.0
  9
$SPLFRAME
 70
     0
  9
$SPLINETYPE
 70
     6
  9
$SPLINESEGS
 70
     8
  9
$HANDSEED
  5
3292
  9
$SURFTAB1
 70
     6
  9
$SURFTAB2
 70
     6
  9
$SURFTYPE
 70
     6
  9
$SURFU
 70
     6
  9
$SURFV
 70
     6
  9
$UCSBASE
  2

  9
$UCSNAME
  2

  9
$UCSORG
 10
0.0
 20
0.0
 30
0.0
  9
$UCSXDIR
 10
1.0
 20
0.0
 30
0.0
  9
$UCSYDIR
 10
0.0
 20
1.0
 30
0.0
  9
$UCSORTHOREF
  2

  9
$UCSORTHOVIEW
 70
     0
  9
$UCSORGTOP
 10
0.0
 20
0.0
 30
0.0
  9
$UCSORGBOTTOM
 10
0.0
 20
0.0
 30
0.0
  9
$UCSORGLEFT
 10
0.0
 20
0.0
 30
0.0
  9
$UCSORGRIGHT
 10
0.0
 20
0.0
 30
0.0
  9
$UCSORGFRONT
 10
0.0
 20
0.0
 30
0.0
  9
$UCSORGBACK
 10
0.0
 20
0.0
 30
0.0
  9
$PUCSBASE
  2

  9
$PUCSNAME
  2

  9
$PUCSORG
 10
0.0
 20
0.0
 30
0.0
  9
$PUCSXDIR
 10
1.0
 20
0.0
 30
0.0
  9
$PUCSYDIR
 10
0.0
 20
1.0
 30
0.0
  9
$PUCSORTHOREF
  2

  9
$PUCSORTHOVIEW
 70
     0
  9
$PUCSORGTOP
 10
0.0
 20
0.0
 30
0.0
  9
$PUCSORGBOTTOM
 10
0.0
 20
0.0
 30
0.0
  9
$PUCSORGLEFT
 10
0.0
 20
0.0
 30
0.0
  9
$PUCSORGRIGHT
 10
0.0
 20
0.0
 30
0.0
  9
$PUCSORGFRONT
 10
0.0
 20
0.0
 30
0.0
  9
$PUCSORGBACK
 10
0.0
 20
0.0
 30
0.0
  9
$USERI1
 70
     0
  9
$USERI2
 70
     0
  9
$USERI3
 70
     0
  9
$USERI4
 70
     0
  9
$USERI5
 70
     0
  9
$USERR1
 40
0.0
  9
$USERR2
 40
0.0
  9
$USERR3
 40
0.0
  9
$USERR4
 40
0.0
  9
$USERR5
 40
0.0
  9
$WORLDVIEW
 70
     1
  9
$SHADEDGE
 70
     3
  9
$SHADEDIF
 70
    70
  9
$TILEMODE
 70
     1
  9
$MAXACTVP
 70
    64
  9
$PINSBASE
 10
0.0
 20
0.0
 30
0.0
  9
$PLIMCHECK
 70
     0
  9
$PEXTMIN
 10
29.06606628894805
 20
20.36233246326446
 30
0.0
  9
$PEXTMAX
 10
261.5945966005325
 20
183.2609921693802
 30
0.0
  9
$PLIMMIN
 10
-3.17498779296875
 20
-3.174999952316281
  9
$PLIMMAX
 10
293.8356628417969
 20
206.7983276844024
  9
$UNITMODE
 70
     0
  9
$VISRETAIN
 70
     1
  9
$PLINEGEN
 70
     0
  9
$PSLTSCALE
 70
     1
  9
$TREEDEPTH
 70
  3020
  9
$CMLSTYLE
  2
Standard
  9
$CMLJUST
 70
     0
  9
$CMLSCALE
 40
20.0
  9
$PROXYGRAPHICS
 70
     1
  9
$MEASUREMENT
 70
     1
  9
$CELWEIGHT
370
    -1
  9
$ENDCAPS
280
     0
  9
$JOINSTYLE
280
     0
  9
$LWDISPLAY
290
     0
  9
$INSUNITS
 70
     4
  9
$HYPERLINKBASE
  1

  9
$STYLESHEET
  1

  9
$XEDIT
290
     1
  9
$CEPSNTYPE
380
     0
  9
$PSTYLEMODE
290
     1
  9
$FINGERPRINTGUID
  2
{4F38C4E7-9F37-4C76-96D9-79C94F9B03D9}
  9
$VERSIONGUID
  2
{537E5283-4EBA-47A0-A897-6EBC3E42E977}
  9
$EXTNAMES
290
     1
  9
$PSVPSCALE
 40
0.0
  9
$OLESTARTUP
290
     0
  9
$SORTENTS
280
   127
  9
$INDEXCTL
280
     0
  9
$HIDETEXT
280
     1
  9
$XCLIPFRAME
290
     0
  9
$HALOGAP
280
     0
  9
$OBSCOLOR
 70
   257
  9
$OBSLTYPE
280
     0
  9
$INTERSECTIONDISPLAY
280
     0
  9
$INTERSECTIONCOLOR
 70
   257
  9
$DIMASSOC
280
     2
  9
$PROJECTNAME
  1

  0
ENDSEC
  0
SECTION
  2
CLASSES
  0
CLASS
  1
ACDBDICTIONARYWDFLT
  2
AcDbDictionaryWithDefault
  3
ObjectDBX Classes
 90
        0
 91
        1
280
     0
281
     0
  0
CLASS
  1
TABLESTYLE
  2
AcDbTableStyle
  3
ObjectDBX Classes
 90
     2047
 91
        1
280
     0
281
     0
  0
CLASS
  1
SORTENTSTABLE
  2
AcDbSortentsTable
  3
ObjectDBX Classes
 90
        0
 91
        1
280
     0
281
     0
  0
CLASS
  1
DICTIONARYVAR
  2
AcDbDictionaryVar
  3
ObjectDBX Classes
 90
        0
 91
        6
280
     0
281
     0
  0
CLASS
  1
DIMASSOC
  2
AcDbDimAssoc
  3
"AcDbDimAssoc|Product Desc:     AcDim ARX App For Dimension|Company:          Autodesk, Inc.|WEB Address:      www.autodesk.com"
 90
        0
 91
        2
280
     0
281
     0
  0
CLASS
  1
ACDBPLACEHOLDER
  2
AcDbPlaceHolder
  3
ObjectDBX Classes
 90
        0
 91
        1
280
     0
281
     0
  0
CLASS
  1
LAYOUT
  2
AcDbLayout
  3
ObjectDBX Classes
 90
        0
 91
        3
280
     0
281
     0
  0
CLASS
  1
MATERIAL
  2
AcDbMaterial
  3
ObjectDBX Classes
 90
        0
 91
        3
280
     0
281
     0
  0
CLASS
  1
VISUALSTYLE
  2
AcDbVisualStyle
  3
ObjectDBX Classes
 90
     4095
 91
       16
280
     0
281
     0
  0
CLASS
  1
ACAD_EVALUATION_GRAPH
  2
AcDbEvalGraph
  3
ObjectDBX Classes
 90
     1153
 91
        0
280
     0
281
     0
  0
CLASS
  1
ACAECUSTOBJ
  2
AcAeEditorObj
  3
AcAeEditorObj
 90
     1024
 91
        0
280
     0
281
     0
  0
CLASS
  1
ACDB_DYNAMICBLOCKPURGEPREVENTER_VERSION
  2
AcDbDynamicBlockPurgePreventer
  3
ObjectDBX Classes
 90
     1153
 91
        0
280
     0
281
     0
  0
CLASS
  1
IMAGEDEF
  2
AcDbRasterImageDef
  3
ISM
 90
        0
 91
        1
280
     0
281
     0
  0
CLASS
  1
RASTERVARIABLES
  2
AcDbRasterVariables
  3
ISM
 90
        0
 91
        1
280
     0
281
     0
  0
CLASS
  1
IMAGEDEF_REACTOR
  2
AcDbRasterImageDefReactor
  3
ISM
 90
        1
 91
        1
280
     0
281
     0
  0
CLASS
  1
IMAGE
  2
AcDbRasterImage
  3
ISM
 90
      127
 91
        1
280
     0
281
     1
  0
ENDSEC
  0
SECTION
  2
TABLES
  0
TABLE
  2
VPORT
  5
96
330
0
100
AcDbSymbolTable
 70
     5
  0
VPORT
  5
3291
330
96
100
AcDbSymbolTableRecord
100
AcDbViewportTableRecord
  2
*Active
 70
     0
 10
0.0
 20
0.0
 11
1.0
 21
1.0
 12
0.1098610278884635
 22
0.1687392239772451
 13
0.0
 23
0.0
 14
10.0
 24
10.0
 15
10.0
 25
10.0
 16
0.0
 26
0.0
 36
1.0
 17
0.0
 27
0.0
 37
0.0
 40
0.4234464249910079
 41
1.320054945054945
 42
50.0
 43
0.0
 44
0.0
 50
0.0
 51
0.0
 71
     0
 72
  1000
 73
     1
 74
     3
 75
     0
 76
     0
 77
     0
 78
     0
281
     0
 65
     1
110
0.0
120
0.0
130
0.0
111
1.0
121
0.0
131
0.0
112
0.0
122
1.0
132
0.0
 79
     0
146
0.0
  0
ENDTAB
  0
TABLE
  2
LTYPE
  5
91
330
0
100
AcDbSymbolTable
 70
     2
  0
LTYPE
  5
92
330
91
100
AcDbSymbolTableRecord
100
AcDbLinetypeTableRecord
  2
ByBlock
 70
     0
  3

 72
    65
 73
     0
 40
0.0
  0
LTYPE
  5
93
330
91
100
AcDbSymbolTableRecord
100
AcDbLinetypeTableRecord
  2
ByLayer
 70
     0
  3

 72
    65
 73
     0
 40
0.0
  0
LTYPE
  5
C
330
91
100
AcDbSymbolTableRecord
100
AcDbLinetypeTableRecord
  2
Continuous
 70
     0
  3
Solid line
 72
    65
 73
     0
 40
0.0
  0
ENDTAB
  0
TABLE
  2
LAYER
  5
8A
102
{ACAD_XDICTIONARY
360
8B
102
}
330
0
100
AcDbSymbolTable
 70
     7
  0
LAYER
  5
6
330
8A
100
AcDbSymbolTableRecord
100
AcDbLayerTableRecord
  2
0
 70
     0
 62
     7
  6
Continuous
370
    -3
390
7
  0
LAYER
  5
3F
330
8A
100
AcDbSymbolTableRecord
100
AcDbLayerTableRecord
  2
Defpoints
 70
     0
 62
     7
  6
Continuous
290
     0
370
    -3
390
7
  0
LAYER
  5
2E
330
8A
100
AcDbSymbolTableRecord
100
AcDbLayerTableRecord
  2
Dimensione
 70
     0
 62
   150
  6
Continuous
370
    -3
390
7
1001
AcAecLayerStandard
1000

1000

  0
LAYER
  5
54
330
8A
100
AcDbSymbolTableRecord
100
AcDbLayerTableRecord
  2
Sezione
 70
     0
 62
     2
  6
Continuous
370
    -3
390
7
1001
AcAecLayerStandard
1000

1000

  0
LAYER
  5
E
330
8A
100
AcDbSymbolTableRecord
100
AcDbLayerTableRecord
  2
Table
 70
     0
 62
     3
  6
Continuous
370
    -3
390
7
1001
AcAecLayerStandard
1000

1000

  0
LAYER
  5
19
330
8A
100
AcDbSymbolTableRecord
100
AcDbLayerTableRecord
  2
Text
 70
     0
 62
     4
  6
Continuous
370
    -3
390
7
1001
AcAecLayerStandard
1000

1000

  0
LAYER
  5
25D5
330
8A
100
AcDbSymbolTableRecord
100
AcDbLayerTableRecord
  2
Profilo
 70
     0
 62
     1
  6
Continuous
370
    -3
390
7
1001
AcAecLayerStandard
1000

1000

  0
ENDTAB
  0
TABLE
  2
STYLE
  5
8F
330
0
100
AcDbSymbolTable
 70
     4
  0
STYLE
  5
1A
330
8F
100
AcDbSymbolTableRecord
100
AcDbTextStyleTableRecord
  2
Standard
 70
     0
 40
0.0
 41
1.0
 50
0.0
 71
     0
 42
2.5
  3
txt
  4

  0
STYLE
  5
20
330
8F
100
AcDbSymbolTableRecord
100
AcDbTextStyleTableRecord
  2
ROMANS
 70
     0
 40
0.0
 41
1.0
 50
0.0
 71
     0
 42
2.5
  3
romans
  4

  0
STYLE
  5
28
330
8F
100
AcDbSymbolTableRecord
100
AcDbTextStyleTableRecord
  2
Arial
 70
     0
 40
0.0
 41
1.0
 50
0.0
 71
     0
 42
0.25
  3
ARIAL.TTF
  4

1001
ACAD
1000
Arial
1071
       34
  0
STYLE
  5
26
330
8F
100
AcDbSymbolTableRecord
100
AcDbTextStyleTableRecord
  2
style1
 70
     0
 40
0.0
 41
1.0
 50
0.0
 71
     0
 42
0.005
  3
TIMES.TTF
  4

1001
ACAD
1000
Times New Roman
1071
       18
  0
ENDTAB
  0
TABLE
  2
VIEW
  5
94
330
0
100
AcDbSymbolTable
 70
     0
  0
ENDTAB
  0
TABLE
  2
UCS
  5
95
330
0
100
AcDbSymbolTable
 70
     0
  0
ENDTAB
  0
TABLE
  2
APPID
  5
98
330
0
100
AcDbSymbolTable
 70
    14
  0
APPID
  5
1B
330
98
100
AcDbSymbolTableRecord
100
AcDbRegAppTableRecord
  2
ACAD
 70
     0
  0
APPID
  5
34
330
98
100
AcDbSymbolTableRecord
100
AcDbRegAppTableRecord
  2
ACAD_DSTYLE_DIMJOGGED_JOGANGLE_SYMBOL
 70
     0
  0
APPID
  5
F
330
98
100
AcDbSymbolTableRecord
100
AcDbRegAppTableRecord
  2
AcAecLayerStandard
 70
     0
  0
APPID
  5
85
330
98
100
AcDbSymbolTableRecord
100
AcDbRegAppTableRecord
  2
ACAD_PSEXT
 70
     0
  0
APPID
  5
BA
330
98
100
AcDbSymbolTableRecord
100
AcDbRegAppTableRecord
  2
ACAD_DSTYLE_DIMEXT_LENGTH
 70
     0
  0
APPID
  5
101
330
98
100
AcDbSymbolTableRecord
100
AcDbRegAppTableRecord
  2
ACAD_EXEMPT_FROM_CAD_STANDARDS
 70
     0
  0
APPID
  5
102
330
98
100
AcDbSymbolTableRecord
100
AcDbRegAppTableRecord
  2
ACAD_DSTYLE_DIM_LINETYPE
 70
     0
  0
APPID
  5
103
330
98
100
AcDbSymbolTableRecord
100
AcDbRegAppTableRecord
  2
ACAD_DSTYLE_DIM_EXT1_LINETYPE
 70
     0
  0
APPID
  5
104
330
98
100
AcDbSymbolTableRecord
100
AcDbRegAppTableRecord
  2
ACAD_DSTYLE_DIM_EXT2_LINETYPE
 70
     0
  0
APPID
  5
10D5
330
98
100
AcDbSymbolTableRecord
100
AcDbRegAppTableRecord
  2
ACAUTHENVIRON
 70
     0
  0
APPID
  5
10D9
330
98
100
AcDbSymbolTableRecord
100
AcDbRegAppTableRecord
  2
AcDbDynamicBlockTrueName
 70
     0
  0
APPID
  5
10DA
330
98
100
AcDbSymbolTableRecord
100
AcDbRegAppTableRecord
  2
AcDbDynamicBlockGUID
 70
     0
  0
APPID
  5
10DC
330
98
100
AcDbSymbolTableRecord
100
AcDbRegAppTableRecord
  2
AcDbBlockRepETag
 70
     0
  0
APPID
  5
249F
330
98
100
AcDbSymbolTableRecord
100
AcDbRegAppTableRecord
  2
DCO15
 70
     0
  0
ENDTAB
  0
TABLE
  2
DIMSTYLE
  5
99
330
0
100
AcDbSymbolTable
 70
     3
100
AcDbDimStyleTable
 71
     1
340
2F
  0
DIMSTYLE
105
2F
102
{ACAD_REACTORS
330
309F
330
30AD
330
30C7
330
3247
102
}
330
99
100
AcDbSymbolTableRecord
100
AcDbDimStyleTableRecord
  2
Bovelacci
 70
     0
 40
0.001
 41
1.5
140
3.0
141
0.0
147
2.0
176
     5
177
     5
178
     4
271
     2
272
     2
279
     2
340
20
342
30
1001
ACAD_DSTYLE_DIMJOGGED_JOGANGLE_SYMBOL
1070
   384
1040
0.7853981633974483
1001
ACAD_DSTYLE_DIMEXT_LENGTH
1070
   378
1040
0.18
  0
DIMSTYLE
105
194
330
99
100
AcDbSymbolTableRecord
100
AcDbDimStyleTableRecord
  2
STANDARD
 70
     0
340
1A
  0
ENDTAB
  0
TABLE
  2
BLOCK_RECORD
  5
1
330
0
100
AcDbSymbolTable
 70
    20
  0
BLOCK_RECORD
  5
2
102
{ACAD_XDICTIONARY
360
3
102
}
330
1
100
AcDbSymbolTableRecord
100
AcDbBlockTableRecord
  2
*Model_Space
340
77
  0
BLOCK_RECORD
  5
79
330
1
100
AcDbSymbolTableRecord
100
AcDbBlockTableRecord
  2
*Paper_Space
340
82
  0
BLOCK_RECORD
  5
86
330
1
100
AcDbSymbolTableRecord
100
AcDbBlockTableRecord
  2
*Paper_Space0
340
89
  0
BLOCK_RECORD
  5
30
330
1
100
AcDbSymbolTableRecord
100
AcDbBlockTableRecord
  2
_ArchTick
340
0
310
2800000020000000200000000100080000000000000400000000000000000000000000000000000000000000000080000080000000808000800000008000800080800000C0C0C000C0DCC000F0CAA6000020400000206000002080000020A0000020C0000020E00000400000004020000040400000406000004080000040A0
310
000040C0000040E00000600000006020000060400000606000006080000060A0000060C0000060E00000800000008020000080400000806000008080000080A0000080C0000080E00000A0000000A0200000A0400000A0600000A0800000A0A00000A0C00000A0E00000C0000000C0200000C0400000C0600000C0800000C0
310
A00000C0C00000C0E00000E0000000E0200000E0400000E0600000E0800000E0A00000E0C00000E0E00040000000400020004000400040006000400080004000A0004000C0004000E00040200000402020004020400040206000402080004020A0004020C0004020E000404000004040200040404000404060004040800040
310
40A0004040C0004040E00040600000406020004060400040606000406080004060A0004060C0004060E00040800000408020004080400040806000408080004080A0004080C0004080E00040A0000040A0200040A0400040A0600040A0800040A0A00040A0C00040A0E00040C0000040C0200040C0400040C0600040C08000
310
40C0A00040C0C00040C0E00040E0000040E0200040E0400040E0600040E0800040E0A00040E0C00040E0E00080000000800020008000400080006000800080008000A0008000C0008000E00080200000802020008020400080206000802080008020A0008020C0008020E00080400000804020008040400080406000804080
310
008040A0008040C0008040E00080600000806020008060400080606000806080008060A0008060C0008060E00080800000808020008080400080806000808080008080A0008080C0008080E00080A0000080A0200080A0400080A0600080A0800080A0A00080A0C00080A0E00080C0000080C0200080C0400080C0600080C0
310
800080C0A00080C0C00080C0E00080E0000080E0200080E0400080E0600080E0800080E0A00080E0C00080E0E000C0000000C0002000C0004000C0006000C0008000C000A000C000C000C000E000C0200000C0202000C0204000C0206000C0208000C020A000C020C000C020E000C0400000C0402000C0404000C0406000C0
310
408000C040A000C040C000C040E000C0600000C0602000C0604000C0606000C0608000C060A000C060C000C060E000C0800000C0802000C0804000C0806000C0808000C080A000C080C000C080E000C0A00000C0A02000C0A04000C0A06000C0A08000C0A0A000C0A0C000C0A0E000C0C00000C0C02000C0C04000C0C06000
310
C0C08000C0C0A000F0FBFF00A4A0A000808080000000FF0000FF000000FFFF00FF000000FF00FF00FFFF0000FFFFFF00000000FF000000000000000000000000000000000000000000000000000000000000FF00FF00000000000000000000000000000000000000000000000000000000FF000000FF000000000000000000
310
0000000000000000000000000000000000FF0000000000FF0000000000000000000000000000000000000000000000000000FF0000000000FF0000000000000000000000000000000000000000000000000000FF0000000000FF0000000000000000000000000000000000000000000000000000FF0000000000FF00000000
310
00000000000000000000000000000000000000000000FF0000000000FF0000000000000000000000000000000000000000000000000000FF0000000000FF0000000000000000000000000000000000000000000000000000FF0000000000FF0000000000000000000000000000000000000000000000000000FF0000000000
310
FF0000000000000000000000000000000000000000000000000000FF0000000000FF0000000000000000000000000000000000000000000000000000FF0000000000FF0000000000000000000000000000000000000000000000000000FF0000000000FF0000000000000000000000000000000000000000000000000000FF
310
0000000000FF0000000000000000000000000000000000000000000000000000FF0000000000FF0000000000000000000000000000000000000000000000000000FF0000000000FF0000000000000000000000000000000000000000000000000000FF0000000000FF00000000000000000000000000000000000000000000
310
00000000FF0000000000FF0000000000000000000000000000000000000000000000000000FF0000000000FF0000000000000000000000000000000000000000000000000000FF0000000000FF0000000000000000000000000000000000000000000000000000FF0000000000FF0000000000000000000000000000000000
310
000000000000000000FF0000000000FF0000000000000000000000000000000000000000000000000000FF0000000000FF0000000000000000000000000000000000000000000000000000FF0000000000FF0000000000000000000000000000000000000000000000000000FF0000000000FF000000000000000000000000
310
0000000000000000000000000000FF0000000000FF0000000000000000000000000000000000000000000000000000FF0000000000FF0000000000000000000000000000000000000000000000000000FF0000000000FF0000000000000000000000000000000000000000000000000000FF000000FF000000000000000000
310
00000000000000000000000000000000000000FF00FF000000000000000000000000000000000000000000000000000000000000FF000000
102
{BLKREFS
331
2B84
331
2B85
331
2B8E
331
2B8F
331
2D36
331
2D37
331
2D4F
331
2D50
331
2D82
331
2D83
331
2E0D
331
2E0E
331
2E73
331
2E74
331
2E8D
331
2E8E
331
3077
331
3078
331
3081
331
3082
331
3096
331
3097
331
313E
331
313F
331
3148
331
3149
331
3281
331
3282
331
328B
331
328C
102
}
  0
BLOCK_RECORD
  5
4E0
330
1
100
AcDbSymbolTableRecord
100
AcDbBlockTableRecord
  2
_Arrivo
340
0
310
2800000020000000200000000100080000000000000400000000000000000000000000000000000000000000000080000080000000808000800000008000800080800000C0C0C000C0DCC000F0CAA6000020400000206000002080000020A0000020C0000020E00000400000004020000040400000406000004080000040A0
310
000040C0000040E00000600000006020000060400000606000006080000060A0000060C0000060E00000800000008020000080400000806000008080000080A0000080C0000080E00000A0000000A0200000A0400000A0600000A0800000A0A00000A0C00000A0E00000C0000000C0200000C0400000C0600000C0800000C0
310
A00000C0C00000C0E00000E0000000E0200000E0400000E0600000E0800000E0A00000E0C00000E0E00040000000400020004000400040006000400080004000A0004000C0004000E00040200000402020004020400040206000402080004020A0004020C0004020E000404000004040200040404000404060004040800040
310
40A0004040C0004040E00040600000406020004060400040606000406080004060A0004060C0004060E00040800000408020004080400040806000408080004080A0004080C0004080E00040A0000040A0200040A0400040A0600040A0800040A0A00040A0C00040A0E00040C0000040C0200040C0400040C0600040C08000
310
40C0A00040C0C00040C0E00040E0000040E0200040E0400040E0600040E0800040E0A00040E0C00040E0E00080000000800020008000400080006000800080008000A0008000C0008000E00080200000802020008020400080206000802080008020A0008020C0008020E00080400000804020008040400080406000804080
310
008040A0008040C0008040E00080600000806020008060400080606000806080008060A0008060C0008060E00080800000808020008080400080806000808080008080A0008080C0008080E00080A0000080A0200080A0400080A0600080A0800080A0A00080A0C00080A0E00080C0000080C0200080C0400080C0600080C0
310
800080C0A00080C0C00080C0E00080E0000080E0200080E0400080E0600080E0800080E0A00080E0C00080E0E000C0000000C0002000C0004000C0006000C0008000C000A000C000C000C000E000C0200000C0202000C0204000C0206000C0208000C020A000C020C000C020E000C0400000C0402000C0404000C0406000C0
310
408000C040A000C040C000C040E000C0600000C0602000C0604000C0606000C0608000C060A000C060C000C060E000C0800000C0802000C0804000C0806000C0808000C080A000C080C000C080E000C0A00000C0A02000C0A04000C0A06000C0A08000C0A0A000C0A0C000C0A0E000C0C00000C0C02000C0C04000C0C06000
310
C0C08000C0C0A000F0FBFF00A4A0A000808080000000FF0000FF000000FFFF00FF000000FF00FF00FFFF0000FFFFFF00000000000000000000000000000000000000000000000000000000000000000000000000000000000000FF0000000000000000000000000000000000000000000000000000000000000000FF000000
310
00000000000000000000000000000000000000000000000000000000FF0000000000000000000000000000000000000000000000000000000000000000FF00000000000000000000000000000000000000000000000000000000000000FF0000000000000000000000000000000000000000000000000000000000000000FF
310
0000000000000000000000000000000000000000000000000000000000000000FF00000000000000000000000000000000000000000000000000000000000000FF0000000000000000000000000000000000000000000000000000000000000000FF0000000000000000000000000000000000000000000000000000000000
310
0000FF0000000000000000000000000000000000000000000000000000000000000000FF00000000000000000000000000000000000000000000000000000000000000FF0000000000000000000000000000000000000000000000000000000000000000FF0000FF0000000000000000000000000000000000000000000000
310
000000000000FFFF000000000000000000000000000000000000000000000000000000000000FFFF00000000000000000000000000000000000000000000000000000000FFFFFFFFFFFF00000000000000000000000000000000000000000000000000000000FFFF0000000000000000000000000000000000000000000000
310
000000000000FF0000FF000000000000000000000000000000000000000000000000000000FF00000000000000000000000000000000000000000000000000000000000000FF000000000000000000000000000000000000000000000000000000000000FF0000000000000000000000000000000000000000000000000000
310
0000000000FF000000000000000000000000000000000000000000000000000000000000FF00000000000000000000000000000000000000000000000000000000000000FF000000000000000000000000000000000000000000000000000000000000FF000000000000000000000000000000000000000000000000000000
310
000000FF00000000000000000000000000000000000000000000000000000000000000FF000000000000000000000000000000000000000000000000000000000000FF00000000000000000000000000000000000000000000000000000000000000FF00000000000000000000000000000000000000000000000000000000
310
0000FF0000000000000000000000000000000000000000000000000000000000000000000000000000000000000000000000000000000000
  0
BLOCK_RECORD
  5
4E6
330
1
100
AcDbSymbolTableRecord
100
AcDbBlockTableRecord
  2
_Partenza
340
0
310
2800000020000000200000000100080000000000000400000000000000000000000000000000000000000000000080000080000000808000800000008000800080800000C0C0C000C0DCC000F0CAA6000020400000206000002080000020A0000020C0000020E00000400000004020000040400000406000004080000040A0
310
000040C0000040E00000600000006020000060400000606000006080000060A0000060C0000060E00000800000008020000080400000806000008080000080A0000080C0000080E00000A0000000A0200000A0400000A0600000A0800000A0A00000A0C00000A0E00000C0000000C0200000C0400000C0600000C0800000C0
310
A00000C0C00000C0E00000E0000000E0200000E0400000E0600000E0800000E0A00000E0C00000E0E00040000000400020004000400040006000400080004000A0004000C0004000E00040200000402020004020400040206000402080004020A0004020C0004020E000404000004040200040404000404060004040800040
310
40A0004040C0004040E00040600000406020004060400040606000406080004060A0004060C0004060E00040800000408020004080400040806000408080004080A0004080C0004080E00040A0000040A0200040A0400040A0600040A0800040A0A00040A0C00040A0E00040C0000040C0200040C0400040C0600040C08000
310
40C0A00040C0C00040C0E00040E0000040E0200040E0400040E0600040E0800040E0A00040E0C00040E0E00080000000800020008000400080006000800080008000A0008000C0008000E00080200000802020008020400080206000802080008020A0008020C0008020E00080400000804020008040400080406000804080
310
008040A0008040C0008040E00080600000806020008060400080606000806080008060A0008060C0008060E00080800000808020008080400080806000808080008080A0008080C0008080E00080A0000080A0200080A0400080A0600080A0800080A0A00080A0C00080A0E00080C0000080C0200080C0400080C0600080C0
310
800080C0A00080C0C00080C0E00080E0000080E0200080E0400080E0600080E0800080E0A00080E0C00080E0E000C0000000C0002000C0004000C0006000C0008000C000A000C000C000C000E000C0200000C0202000C0204000C0206000C0208000C020A000C020C000C020E000C0400000C0402000C0404000C0406000C0
310
408000C040A000C040C000C040E000C0600000C0602000C0604000C0606000C0608000C060A000C060C000C060E000C0800000C0802000C0804000C0806000C0808000C080A000C080C000C080E000C0A00000C0A02000C0A04000C0A06000C0A08000C0A0A000C0A0C000C0A0E000C0C00000C0C02000C0C04000C0C06000
310
C0C08000C0C0A000F0FBFF00A4A0A000808080000000FF0000FF000000FFFF00FF000000FF00FF00FFFF0000FFFFFF0000000000000000000000000000000000000000000000000000000000000000000000000000000000000000000000000000000000000000000000000000000000000000000000000000000000000000
310
000000000000000000000000000000000000000000000000000000000000000000000000000000000000000000000000000000000000000000000000000000000000000000000000000000000000000000000000000000000000000000000000000000000000000000000000000000000000FFFFFFFFFFFFFFFFFFFFFFFFFF
310
FFFFFFFFFFFFFFFFFFFFFFFFFFFFFFFFFF0000000000000000000000000000000000000000000000000000000000000000000000000000000000000000000000000000000000000000000000000000000000000000000000000000000000000000000000000000000000000000000000000000000000000000000000000000
310
00000000000000000000000000000000000000000000000000000000000000000000000000000000000000000000000000000000000000000000000000000000000000000000000000000000000000000000000000000000000000000000000000000000000000000000000000000000000000000000000000000000000000
310
00000000000000000000000000000000000000000000000000000000000000000000000000000000000000000000000000000000000000000000000000000000000000000000000000000000000000000000000000000000000000000000000000000000000000000000000000000000000000000000000000000000000000
310
00000000000000000000000000000000000000000000000000000000000000000000000000000000000000000000000000000000000000000000000000000000000000000000000000000000000000000000000000000000000000000000000000000000000000000000000000000000000000000000000000000000000000
310
000000000000000000000000000000000000000000000000000000000000000000000000000000000000000000000000000000000000000000000000000000000000000000000000000000000000000000000000000000FFFFFFFFFFFFFFFFFFFFFFFFFFFFFFFFFFFFFFFFFFFFFFFFFFFFFFFFFFFF00000000000000000000
310
00000000000000000000000000000000000000000000000000000000000000000000000000000000000000000000000000000000000000000000000000000000000000000000000000000000000000000000000000000000000000000000000000000000000000000000000000000000000000000000000000000000000000
310
0000000000000000000000000000000000000000000000000000000000000000000000000000000000000000000000000000000000000000
  0
BLOCK_RECORD
  5
30A0
330
1
100
AcDbSymbolTableRecord
100
AcDbBlockTableRecord
  2
*D15
340
0
  0
BLOCK_RECORD
  5
30AE
330
1
100
AcDbSymbolTableRecord
100
AcDbBlockTableRecord
  2
*D16
340
0
  0
BLOCK_RECORD
  5
30C8
330
1
100
AcDbSymbolTableRecord
100
AcDbBlockTableRecord
  2
*D17
340
0
  0
BLOCK_RECORD
  5
3248
330
1
100
AcDbSymbolTableRecord
100
AcDbBlockTableRecord
  2
*D19
340
0
  0
ENDTAB
  0
ENDSEC
  0
SECTION
  2
BLOCKS
  0
BLOCK
  5
5
330
2
100
AcDbEntity
  8
0
100
AcDbBlockBegin
  2
*Model_Space
 70
     0
 10
0.0
 20
0.0
 30
0.0
  3
*Model_Space
  1

  0
ENDBLK
  5
76
330
2
100
AcDbEntity
  8
0
100
AcDbBlockEnd
  0
BLOCK
  5
7A
330
79
100
AcDbEntity
 67
     1
  8
0
100
AcDbBlockBegin
  2
*Paper_Space
 70
     0
 10
0.0
 20
0.0
 30
0.0
  3
*Paper_Space
  1

  0
ENDBLK
  5
81
330
79
100
AcDbEntity
 67
     1
  8
0
100
AcDbBlockEnd
  0
BLOCK
  5
87
330
86
100
AcDbEntity
 67
     1
  8
0
100
AcDbBlockBegin
  2
*Paper_Space0
 70
     0
 10
0.0
 20
0.0
 30
0.0
  3
*Paper_Space0
  1

  0
ENDBLK
  5
88
330
86
100
AcDbEntity
 67
     1
  8
0
100
AcDbBlockEnd
  0
BLOCK
  5
31
330
30
100
AcDbEntity
  8
0
 62
     1
100
AcDbBlockBegin
  2
_ArchTick
 70
     0
 10
0.0
 20
0.0
 30
0.0
  3
_ArchTick
  1

  0
LWPOLYLINE
  5
32
330
30
100
AcDbEntity
  8
0
  6
ByBlock
 62
     0
100
AcDbPolyline
 90
        2
 70
     0
 43
0.15
 10
-0.5
 20
-0.5
 10
0.5
 20
0.5
  0
ENDBLK
  5
33
330
30
100
AcDbEntity
  8
0
 62
     1
100
AcDbBlockEnd
  0
BLOCK
  5
4E1
330
4E0
100
AcDbEntity
  8
0
100
AcDbBlockBegin
  2
_Arrivo
 70
     0
 10
0.0
 20
0.0
 30
0.0
  3
_Arrivo
  1

  0
LINE
  5
4E2
330
4E0
100
AcDbEntity
  8
0
  6
ByBlock
 62
     0
370
    -2
100
AcDbLine
 10
0.025
 20
-0.0433012701891858
 30
0.0
 11
-0.15
 21
0.2598076211353328
 31
0.0
  0
LINE
  5
4E3
330
4E0
100
AcDbEntity
  8
0
  6
ByBlock
 62
     0
370
    -2
100
AcDbLine
 10
0.025
 20
0.0433012701892585
 30
0.0
 11
-0.15
 21
-0.2598076211353328
 31
0.0
  0
LINE
  5
4E4
330
4E0
100
AcDbEntity
  8
0
  6
ByBlock
 62
     0
370
    -2
100
AcDbLine
 10
-0.05
 20
0.0
 30
0.0
 11
0.05
 21
0.0
 31
0.0
  0
ENDBLK
  5
4E5
330
4E0
100
AcDbEntity
  8
0
100
AcDbBlockEnd
  0
BLOCK
  5
4E7
330
4E6
100
AcDbEntity
  8
0
100
AcDbBlockBegin
  2
_Partenza
 70
     0
 10
0.0
 20
0.0
 30
0.0
  3
_Partenza
  1

  0
LINE
  5
4E8
330
4E6
100
AcDbEntity
  8
0
  6
ByBlock
 62
     0
370
    -2
100
AcDbLine
 10
-0.05
 20
0.05
 30
0.0
 11
0.1
 21
0.05
 31
0.0
  0
LINE
  5
4E9
330
4E6
100
AcDbEntity
  8
0
  6
ByBlock
 62
     0
370
    -2
100
AcDbLine
 10
-0.05
 20
-0.05
 30
0.0
 11
0.1
 21
-0.05
 31
0.0
  0
ENDBLK
  5
4EA
330
4E6
100
AcDbEntity
  8
0
100
AcDbBlockEnd
  0
BLOCK
  5
30AB
330
30A0
100
AcDbEntity
  8
0
100
AcDbBlockBegin
  2
*D15
 70
     1
 10
0.0
 20
0.0
 30
0.0
  3
*D15
  1

  0
LINE
  5
3287
330
30A0
100
AcDbEntity
  8
Dimensione
 62
     5
370
    -2
100
AcDbLine
 10
0.1140815140359884
 20
0.0973683980354956
 30
0.0
 11
0.0566773964956749
 21
0.0973683980354956
 31
0.0
  0
LINE
  5
3288
330
30A0
100
AcDbEntity
  8
Dimensione
 62
     5
370
    -2
100
AcDbLine
 10
0.1160905441268703
 20
0.2301004853621826
 30
0.0
 11
0.0566773964956749
 21
0.2301004853621827
 31
0.0
  0
LINE
  5
3289
330
30A0
100
AcDbEntity
  8
Dimensione
 62
     5
370
    -2
100
AcDbLine
 10
0.0568573964956749
 20
0.0973683980354956
 30
0.0
 11
0.0568573964956749
 21
0.1602344416988391
 31
0.0
  0
LINE
  5
328A
330
30A0
100
AcDbEntity
  8
Dimensione
 62
     5
370
    -2
100
AcDbLine
 10
0.0568573964956749
 20
0.2301004853621827
 30
0.0
 11
0.0568573964956749
 21
0.1672344416988391
 31
0.0
  0
INSERT
  5
328B
330
30A0
100
AcDbEntity
  8
Dimensione
 62
     5
370
    -2
100
AcDbBlockReference
  2
_ArchTick
 10
0.0568573964956749
 20
0.0973683980354956
 30
0.0
 41
0.0015
 42
0.0015
 43
0.0015
 50
270.0
  0
INSERT
  5
328C
330
30A0
100
AcDbEntity
  8
Dimensione
 62
     5
370
    -2
100
AcDbBlockReference
  2
_ArchTick
 10
0.0568573964956749
 20
0.2301004853621827
 30
0.0
 41
0.0015
 42
0.0015
 43
0.0015
 50
90.0
  0
MTEXT
  5
328D
330
30A0
100
AcDbEntity
  8
Dimensione
 62
     4
100
AcDbMText
 10
0.0568573964956749
 20
0.1637344416988391
 30
0.0
 40
0.003
 41
0.0
 71
     5
 72
     1
  1
\A1;255 cm
  7
ROMANS
 73
     1
 44
1.0
  0
POINT
  5
328E
330
30A0
100
AcDbEntity
  8
Defpoints
 62
     0
100
AcDbPoint
 10
0.1141440140359884
 20
0.0973683980354956
 30
0.0
  0
POINT
  5
328F
330
30A0
100
AcDbEntity
  8
Defpoints
 62
     0
100
AcDbPoint
 10
0.1161530441268703
 20
0.2301004853621826
 30
0.0
  0
POINT
  5
3290
330
30A0
100
AcDbEntity
  8
Defpoints
 62
     0
100
AcDbPoint
 10
0.0568573964956749
 20
0.2301004853621827
 30
0.0
  0
ENDBLK
  5
30AC
330
30A0
100
AcDbEntity
  8
0
100
AcDbBlockEnd
  0
BLOCK
  5
30B9
330
30AE
100
AcDbEntity
  8
0
100
AcDbBlockBegin
  2
*D16
 70
     1
 10
0.0
 20
0.0
 30
0.0
  3
*D16
  1

  0
LINE
  5
313A
330
30AE
100
AcDbEntity
  8
Dimensione
 62
     5
370
    -2
100
AcDbLine
 10
0.0706044625183444
 20
0.089622381164697
 30
0.0
 11
0.0705864257748048
 21
0.0895062737752573
 31
0.0
  0
LINE
  5
313B
330
30AE
100
AcDbEntity
  8
Dimensione
 62
     5
370
    -2
100
AcDbLine
 10
0.1206641685389157
 20
0.0818458384010007
 30
0.0
 11
0.1206461317953761
 21
0.081729731011561
 31
0.0
  0
LINE
  5
313C
330
30AE
100
AcDbEntity
  8
Dimensione
 62
     5
370
    -2
100
AcDbLine
 10
0.0706140565308654
 20
0.0896841404143989
 30
0.0
 11
0.0840724809697225
 21
0.0875934367027603
 31
0.0
  0
LINE
  5
313D
330
30AE
100
AcDbEntity
  8
Dimensione
 62
     5
370
    -2
100
AcDbLine
 10
0.1206737625514367
 20
0.0819075976507026
 30
0.0
 11
0.1072153381125796
 21
0.0839983013623412
 31
0.0
  0
INSERT
  5
313E
330
30AE
100
AcDbEntity
  8
Dimensione
 62
     5
370
    -2
100
AcDbBlockReference
  2
_ArchTick
 10
0.0706140565308654
 20
0.0896841404143989
 30
0.0
 41
0.0015
 42
0.0015
 43
0.0015
 50
171.1699449233109
  0
INSERT
  5
313F
330
30AE
100
AcDbEntity
  8
Dimensione
 62
     5
370
    -2
100
AcDbBlockReference
  2
_ArchTick
 10
0.1206737625514367
 20
0.0819075976507026
 30
0.0
 41
0.0015
 42
0.0015
 43
0.0015
 50
351.1699449233109
  0
MTEXT
  5
3140
330
30AE
100
AcDbEntity
  8
Dimensione
 62
     4
100
AcDbMText
 10
0.0956439095411511
 20
0.0857958690325508
 30
0.0
 40
0.003
 41
0.0
 71
     5
 72
     1
  1
\A1;350 mm
  7
ROMANS
 73
     1
 44
1.0
  0
POINT
  5
3141
330
30AE
100
AcDbEntity
  8
Defpoints
 62
     0
100
AcDbPoint
 10
0.0706140565308654
 20
0.0896841404143989
 30
0.0
  0
POINT
  5
3142
330
30AE
100
AcDbEntity
  8
Defpoints
 62
     0
100
AcDbPoint
 10
0.1206737625514367
 20
0.0819075976507026
 30
0.0
  0
POINT
  5
3143
330
30AE
100
AcDbEntity
  8
Defpoints
 62
     0
100
AcDbPoint
 10
0.1206737625514367
 20
0.0819075976507026
 30
0.0
  0
ENDBLK
  5
30BA
330
30AE
100
AcDbEntity
  8
0
100
AcDbBlockEnd
  0
BLOCK
  5
30D3
330
30C8
100
AcDbEntity
  8
0
100
AcDbBlockBegin
  2
*D17
 70
     1
 10
0.0
 20
0.0
 30
0.0
  3
*D17
  1

  0
LINE
  5
3144
330
30C8
100
AcDbEntity
  8
Dimensione
 62
     5
370
    -2
100
AcDbLine
 10
0.1803929322408852
 20
0.0871509821135683
 30
0.0
 11
0.1803387123623613
 21
0.0872552244023615
 31
0.0
  0
LINE
  5
3145
330
30C8
100
AcDbEntity
  8
Dimensione
 62
     5
370
    -2
100
AcDbLine
 10
0.2039495693612246
 20
0.0994035719010864
 30
0.0
 11
0.2038953494827007
 21
0.0995078141898797
 31
0.0
  0
LINE
  5
3146
330
30C8
100
AcDbEntity
  8
Dimensione
 62
     5
370
    -2
100
AcDbLine
 10
0.1804217726018021
 20
0.0870955340876144
 30
0.0
 11
0.1854710460089888
 21
0.0897218289813735
 31
0.0
  0
LINE
  5
3147
330
30C8
100
AcDbEntity
  8
Dimensione
 62
     5
370
    -2
100
AcDbLine
 10
0.2039784097221415
 20
0.0993481238751325
 30
0.0
 11
0.1989291363149548
 21
0.0967218289813735
 31
0.0
  0
INSERT
  5
3148
330
30C8
100
AcDbEntity
  8
Dimensione
 62
     5
370
    -2
100
AcDbBlockReference
  2
_ArchTick
 10
0.1804217726018021
 20
0.0870955340876144
 30
0.0
 41
0.0015
 42
0.0015
 43
0.0015
 50
207.4804401145771
  0
INSERT
  5
3149
330
30C8
100
AcDbEntity
  8
Dimensione
 62
     5
370
    -2
100
AcDbBlockReference
  2
_ArchTick
 10
0.2039784097221415
 20
0.0993481238751325
 30
0.0
 41
0.0015
 42
0.0015
 43
0.0015
 50
27.4804401145771
  0
MTEXT
  5
314A
330
30C8
100
AcDbEntity
  8
Dimensione
 62
     4
100
AcDbMText
 10
0.1922000911619718
 20
0.0932218289813735
 30
0.0
 40
0.003
 41
0.0
 71
     5
 72
     1
  1
\A1;350 mm
  7
ROMANS
 73
     1
 44
1.0
  0
POINT
  5
314B
330
30C8
100
AcDbEntity
  8
Defpoints
 62
     0
100
AcDbPoint
 10
0.1804217726018021
 20
0.0870955340876144
 30
0.0
  0
POINT
  5
314C
330
30C8
100
AcDbEntity
  8
Defpoints
 62
     0
100
AcDbPoint
 10
0.2039784097221415
 20
0.0993481238751325
 30
0.0
  0
POINT
  5
314D
330
30C8
100
AcDbEntity
  8
Defpoints
 62
     0
100
AcDbPoint
 10
0.2039784097221415
 20
0.0993481238751325
 30
0.0
  0
ENDBLK
  5
30D4
330
30C8
100
AcDbEntity
  8
0
100
AcDbBlockEnd
  0
BLOCK
  5
3253
330
3248
100
AcDbEntity
  8
0
 62
     1
100
AcDbBlockBegin
  2
*D19
 70
     1
 10
0.0
 20
0.0
 30
0.0
  3
*D19
  1

  0
LINE
  5
327D
330
3248
100
AcDbEntity
  8
Dimensione
 62
     5
370
    -2
100
AcDbLine
 10
0.3101834762517672
 20
0.1051736690980034
 30
0.0
 11
0.2753599559041648
 21
0.1051736690980034
 31
0.0
  0
LINE
  5
327E
330
3248
100
AcDbEntity
  8
Dimensione
 62
     5
370
    -2
100
AcDbLine
 10
0.3108167955156273
 20
0.2304303565950676
 30
0.0
 11
0.2753599559041649
 21
0.2304303565950676
 31
0.0
  0
LINE
  5
327F
330
3248
100
AcDbEntity
  8
Dimensione
 62
     5
370
    -2
100
AcDbLine
 10
0.2755399559041649
 20
0.1051736690980034
 30
0.0
 11
0.2755399559041649
 21
0.1643020128465355
 31
0.0
  0
LINE
  5
3280
330
3248
100
AcDbEntity
  8
Dimensione
 62
     5
370
    -2
100
AcDbLine
 10
0.2755399559041649
 20
0.2304303565950676
 30
0.0
 11
0.2755399559041649
 21
0.1713020128465355
 31
0.0
  0
INSERT
  5
3281
330
3248
100
AcDbEntity
  8
Dimensione
 62
     5
370
    -2
100
AcDbBlockReference
  2
_ArchTick
 10
0.2755399559041649
 20
0.1051736690980034
 30
0.0
 41
0.0015
 42
0.0015
 43
0.0015
 50
270.0
  0
INSERT
  5
3282
330
3248
100
AcDbEntity
  8
Dimensione
 62
     5
370
    -2
100
AcDbBlockReference
  2
_ArchTick
 10
0.2755399559041649
 20
0.2304303565950676
 30
0.0
 41
0.0015
 42
0.0015
 43
0.0015
 50
90.0
  0
MTEXT
  5
3283
330
3248
100
AcDbEntity
  8
Dimensione
 62
     4
100
AcDbMText
 10
0.2755399559041649
 20
0.1678020128465356
 30
0.0
 40
0.003
 41
0.0
 71
     5
 72
     1
  1
\A1;255 cm
  7
ROMANS
 73
     1
 44
1.0
  0
POINT
  5
3284
330
3248
100
AcDbEntity
  8
Defpoints
 62
     0
100
AcDbPoint
 10
0.3102459762517672
 20
0.1051736690980034
 30
0.0
  0
POINT
  5
3285
330
3248
100
AcDbEntity
  8
Defpoints
 62
     0
100
AcDbPoint
 10
0.3108792955156273
 20
0.2304303565950676
 30
0.0
  0
POINT
  5
3286
330
3248
100
AcDbEntity
  8
Defpoints
 62
     0
100
AcDbPoint
 10
0.2755399559041649
 20
0.2304303565950676
 30
0.0
  0
ENDBLK
  5
3254
330
3248
100
AcDbEntity
  8
0
 62
     1
100
AcDbBlockEnd
  0
ENDSEC
  0
SECTION
  2
ENTITIES
  0
LINE
  5
D
330
2
100
AcDbEntity
  8
Table
100
AcDbLine
 10
0.02
 20
0.02
 30
0.0
 11
0.4
 21
0.02
 31
0.0
  0
LINE
  5
10
330
2
100
AcDbEntity
  8
Table
100
AcDbLine
 10
0.4
 20
0.02
 30
0.0
 11
0.4
 21
0.2769999999999999
 31
0.0
  0
LINE
  5
11
330
2
100
AcDbEntity
  8
Table
100
AcDbLine
 10
0.4
 20
0.2769999999999999
 30
0.0
 11
0.02
 21
0.277
 31
0.0
  0
LINE
  5
12
330
2
100
AcDbEntity
  8
Table
100
AcDbLine
 10
0.02
 20
0.277
 30
0.0
 11
0.02
 21
0.02
 31
0.0
  0
LINE
  5
13
330
2
100
AcDbEntity
  8
Table
 62
     2
100
AcDbLine
 10
0.015
 20
0.015
 30
0.0
 11
0.4050000000000001
 21
0.015
 31
0.0
  0
LINE
  5
14
330
2
100
AcDbEntity
  8
Table
 62
     2
100
AcDbLine
 10
0.4050000000000001
 20
0.015
 30
0.0
 11
0.4050000000000001
 21
0.2819999999999998
 31
0.0
  0
LINE
  5
15
330
2
100
AcDbEntity
  8
Table
 62
     2
100
AcDbLine
 10
0.4050000000000001
 20
0.2819999999999998
 30
0.0
 11
0.0149999999999999
 21
0.282
 31
0.0
  0
LINE
  5
16
330
2
100
AcDbEntity
  8
Table
 62
     2
100
AcDbLine
 10
0.0149999999999999
 20
0.282
 30
0.0
 11
0.015
 21
0.015
 31
0.0
  0
LINE
  5
17
330
2
100
AcDbEntity
  8
Table
100
AcDbLine
 10
0.21
 20
0.2769999999999999
 30
0.0
 11
0.21
 21
0.2532994226089223
 31
0.0
  0
LINE
  5
1D
330
2
100
AcDbEntity
  8
Table
100
AcDbLine
 10
0.02
 20
0.0528099428524846
 30
0.0
 11
0.4
 21
0.0528099428524846
 31
0.0
  0
MTEXT
  5
1E
330
2
100
AcDbEntity
  8
Text
100
AcDbMText
 10
0.1133313047219695
 20
0.2610796890771976
 30
0.0
 40
0.003
 41
0.1103605678262056
 71
     2
 72
     5
  1
{\fTimes New Roman|b0|i0|c0|p18;Le colonne \fTimes New Roman|b0|i1|c0|p18;      Columns}
 73
     1
 44
1.0
1001
ACAD
1000
ACAD_MTEXT_DEFINED_HEIGHT_BEGIN
1070
    46
1040
0.0141952763113409
1000
ACAD_MTEXT_DEFINED_HEIGHT_END
  0
TEXT
  5
1F
330
2
100
AcDbEntity
  8
Text
100
AcDbText
 10
0.2180556919891047
 20
0.269976982173197
 30
0.0
 40
0.003
  1
Colonna - Column : 350 x 350 x H 255 cm
  7
ROMANS
100
AcDbText
  0
TEXT
  5
21
330
2
100
AcDbEntity
  8
Text
100
AcDbText
 10
0.2184542410678115
 20
0.2576348370183962
 30
0.0
 40
0.003
  1
File : C3220 ( COLONNA CORINZIA RIGATA )
  7
ROMANS
100
AcDbText
  0
LINE
  5
22
330
2
100
AcDbEntity
  8
Table
100
AcDbLine
 10
0.4
 20
0.2654452889427402
 30
0.0
 11
0.02
 21
0.2654452889427403
 31
0.0
  0
LINE
  5
23
330
2
100
AcDbEntity
  8
Table
100
AcDbLine
 10
0.4
 20
0.2532994226089223
 30
0.0
 11
0.02
 21
0.2532994226089225
 31
0.0
  0
LINE
  5
24
330
2
100
AcDbEntity
  8
Table
100
AcDbLine
 10
0.21
 20
0.0528099428524846
 30
0.0
 11
0.21
 21
0.02
 31
0.0
  0
TEXT
  5
25
330
2
100
AcDbEntity
  8
Text
100
AcDbText
 10
0.0896473531074035
 20
0.2687784133392506
 30
0.0
 40
0.005
  1
CLASSICSTYL
  7
style1
 72
     1
 11
0.1140561490699125
 21
0.2687784133392506
 31
0.0
100
AcDbText
  0
MTEXT
  5
10F
330
2
100
AcDbEntity
  8
Text
100
AcDbMText
 10
0.305
 20
0.0471738284815141
 30
0.0
 40
0.005
 41
0.1900000000000001
 71
     2
 72
     5
  3
\pt0.09;{\fTimes New Roman|b0|i0|c238|p18;\H1.6x;\C4;Bovelacci\P\H0.4375x;\T0.95;via del Commercio, 5  47100 Forli - Italy  \fTimes New Roman|b0|i0|c0|p18;\P\fTimes New Roman|b0|i0|c238|p18;tel.+39-0543721386  fax +39-0543721127\fTimes New Roman|b0|i
  1
0|c0|p18; \fTimes New Roman|b0|i0|c238|p18;www.bovelacci.it\fTimes New Roman|b0|i0|c0|p18; \fTimes New Roman|b0|i0|c238|p18;e-mail: bovelacci@bovelacci\fTimes New Roman|b0|i0|c0|p18;.it}
 73
     1
 44
1.0
1001
ACAD
1000
ACAD_MTEXT_DEFINED_HEIGHT_BEGIN
1070
    46
1040
0.0271738284815141
1000
ACAD_MTEXT_DEFINED_HEIGHT_END
  0
MTEXT
  5
110
330
2
100
AcDbEntity
  8
Text
100
AcDbMText
 10
0.0219676065851835
 20
0.0500313976452307
 30
0.0
 40
0.002
 41
0.1863544980601608
 71
     1
 72
     5
  3
{\fArial|b0|i0|c0|p34;\H1.25x;Le caratteristiche tecniche indicate vengono fornite a titolo indicativo e potranno essere modificate senza preavviso. Non devono quindi essere considerate a scopo di specifica.\P\fArial|b0|i1|c0|p34;The given values are
  3
 indicative and can be changed without notice. They cannot be considered like a state.\PThis lealfet and designs embodied within are protected by copyright law and international treaties. Unauthorized repro- duction of the leaflet or any portion of i
  1
t or reproduction of any of the designs embodied therein may result in severe civil penalties and will be prosecuted to the maximum.\PAll right reserved, Bovelacci Forlì Italy.}
 73
     1
 44
1.0
  0
TEXT
  5
1CA
330
2
100
AcDbEntity
  8
Text
100
AcDbText
 10
0.1717949031138708
 20
0.0631053788071426
 30
0.0
 40
0.005
  1
scala 1:6
  7
Arial
100
AcDbText
  0
LWPOLYLINE
  5
2FC3
330
2
100
AcDbEntity
  8
0
  6
Continuous
 62
     1
370
     0
100
AcDbPolyline
 90
        9
 70
   128
 43
0.0
 10
0.0920351830164482
 20
0.1008259801546634
 10
0.0920351830164482
 20
0.113258703276447
 42
0.3265156300498512
 10
0.0957194934734461
 20
0.1170432861927835
 10
0.1065246749351815
 20
0.1200015973091821
 42
-0.5462934308230969
 10
0.1114104959292999
 20
0.1288765299906306
 42
-0.2516488839919457
 10
0.113289657294049
 20
0.1308956945830819
 10
0.113289657294049
 20
0.1334783473570014
 42
-0.8112812201042446
 10
0.1129138252276371
 20
0.1377514633398263
 10
0.1129138252276371
 20
0.1557372918541132
  0
ARC
  5
2FC4
330
2
100
AcDbEntity
  8
0
  6
Continuous
 62
     1
370
     0
100
AcDbCircle
 10
0.1310149640944527
 20
0.2236124559176859
 30
0.0
 40
0.087748283599913
100
AcDbArc
 50
258.0952784808058
 51
280.9896561411341
  0
ARC
  5
2FC5
330
2
100
AcDbEntity
  8
0
  6
Continuous
 62
     1
370
     0
100
AcDbCircle
 10
0.1297849072910793
 20
0.2249668909207878
 30
0.0
 40
0.0929636857912127
100
AcDbArc
 50
259.7794593769917
 51
280.8848850379088
  0
LWPOLYLINE
  5
2FC6
330
2
100
AcDbEntity
  8
0
  6
Continuous
 62
     1
370
     0
100
AcDbPolyline
 90
        4
 70
   128
 43
0.0
 10
0.1114104959292999
 20
0.1288765299906306
 42
0.3877862425418213
 10
0.1126726019555956
 20
0.1268392459590267
 42
0.0899322622117975
 10
0.1466894867284313
 20
0.1267098083247947
 42
0.2673370115826191
 10
0.1492115652315782
 20
0.1287053959444193
 42
-1.295342744674457
  0
LWPOLYLINE
  5
2FC7
330
2
100
AcDbEntity
  8
0
  6
Continuous
 62
     1
370
     0
100
AcDbPolyline
 90
        4
 70
   128
 43
0.0
 10
0.1065246749351815
 20
0.1200015973091821
 42
0.2639550332294433
 10
0.1111964222288168
 20
0.1161799755481452
 42
0.0885242694183054
 10
0.1499574638239653
 20
0.1164547493140045
 42
0.3283394128818273
 10
0.1543841111056681
 20
0.12118153037901
 42
-16.91194667305209
  0
LWPOLYLINE
  5
2FC8
330
2
100
AcDbEntity
  8
0
  6
Continuous
 62
     1
370
     0
100
AcDbPolyline
 90
        3
 70
   128
 43
0.0
 10
0.0957194934734461
 20
0.1170432861927835
 10
0.1409544562579892
 20
0.1121270613332086
 10
0.1626532530502658
 20
0.1202321358715499
  0
LWPOLYLINE
  5
2FC9
330
2
100
AcDbEntity
  8
0
  6
Continuous
 62
     1
370
     0
100
AcDbPolyline
 90
        3
 70
   128
 43
0.0
 10
0.0920351830164482
 20
0.113258703276447
 10
0.1423289608909188
 20
0.1076619861356143
 10
0.1656515261573589
 20
0.1174306862790633
  0
LWPOLYLINE
  5
2FCA
330
2
100
AcDbEntity
  8
0
  6
Continuous
 62
     1
370
     0
100
AcDbPolyline
 90
        3
 70
   128
 43
0.0
 10
0.1420948890370195
 20
0.0930494373909671
 10
0.1423289608909188
 20
0.1076619861356143
 42
-0.2574591619078772
 10
0.1409544562579892
 20
0.1121270613332086
 42
-0.8131799407212312
  0
ARC
  5
2FCB
330
2
100
AcDbEntity
  8
0
  6
Continuous
 62
     1
370
     0
100
AcDbCircle
 10
0.1301054967502483
 20
0.0740534489461515
 30
0.0
 40
0.1113859623851364
100
AcDbArc
 50
80.88932572748136
 51
98.87870894693833
  0
ARC
  5
2FCC
330
2
100
AcDbEntity
  8
0
  6
Continuous
 62
     1
370
     0
100
AcDbCircle
 10
0.1306026150108898
 20
0.0609309312693973
 30
0.0
 40
0.1282064832669817
100
AcDbArc
 50
82.75355102995927
 51
97.62083515459726
  0
LWPOLYLINE
  5
2FCD
330
2
100
AcDbEntity
  8
0
  6
Continuous
 62
     1
370
     0
100
AcDbPolyline
 90
        4
 70
   128
 43
0.0
 10
0.1117458198952729
 20
0.129661938346048
 42
0.3944747122529336
 10
0.1133604165749011
 20
0.1277928566499732
 42
0.0642726241848362
 10
0.1466311001754925
 20
0.127934529496424
 42
0.1658446072113343
 10
0.1492115652315782
 20
0.1294314035089529
 42
-0.3007332763893182
  0
LWPOLYLINE
  5
2FCE
330
2
100
AcDbEntity
  8
0
  6
Continuous
 62
     1
370
     0
100
AcDbPolyline
 90
       39
 70
   129
 43
0.0
 10
0.1182838989507303
 20
0.2225215529778119
 10
0.118113784010706
 20
0.2215742057966922
 10
0.1172875086418446
 20
0.2212098418044588
 10
0.1161939106809695
 20
0.2214284603333501
 10
0.1155863551108214
 20
0.2220114435222316
 10
0.1152461241980783
 20
0.2227887537729853
 10
0.1150274043993649
 20
0.2238575556181797
 10
0.1142983387478818
 20
0.2242947933437144
 10
0.1134477619823714
 20
0.2249506489303886
 10
0.1129860199555986
 20
0.2255822137178001
 10
0.1129617175262529
 20
0.2260194507755877
 10
0.1132533446130037
 20
0.2264323970341031
 10
0.1133262508683417
 20
0.2266024339644645
 10
0.1133505532976875
 20
0.2273554534159554
 10
0.1137636904657711
 20
0.2277926904737382
 10
0.1143469436065733
 20
0.2279627274040996
 10
0.1146142672312814
 20
0.2280113090026296
 10
0.1148329870299949
 20
0.2288129107204026
 10
0.1151489155133945
 20
0.2295416393726261
 10
0.1155863551108214
 20
0.2299302948318788
 10
0.116339723191648
 20
0.2300517494959582
 10
0.1172632072451957
 20
0.2298817125655969
 10
0.1180165753260223
 20
0.229347311643002
 10
0.1186970361188138
 20
0.2289586568514965
 10
0.1189886632055622
 20
0.2287886199211351
 10
0.1196934264276996
 20
0.2288614929866845
 10
0.1206655143072396
 20
0.2287643291218725
 10
0.1216862070454712
 20
0.2281570551337283
 10
0.1224638765229465
 20
0.2271611256863266
 10
0.1224881789522924
 20
0.2262623607714937
 10
0.1220993442135523
 20
0.2252664313240968
 10
0.1220507393548631
 20
0.2247077396022346
 10
0.1221722504688927
 20
0.2238089740196496
 10
0.121977833099525
 20
0.2226430083096385
 10
0.1215646959314416
 20
0.2219142796574149
 10
0.1207870254212692
 20
0.2218171157926029
 10
0.119717728857043
 20
0.2218414065918703
 10
0.1191101732868949
 20
0.2220114435222316
 10
0.1185998274341276
 20
0.2222786436496531
  0
LWPOLYLINE
  5
2FCF
330
2
100
AcDbEntity
  8
0
  6
Continuous
 62
     1
370
     0
100
AcDbPolyline
 90
       12
 70
   129
 43
0.0
 10
0.1161939106809695
 20
0.2262380693044791
 10
0.116874371473761
 20
0.2266024339644645
 10
0.1173604159298796
 20
0.2266510155629945
 10
0.1182838989507303
 20
0.2264081062348404
 10
0.118672734722165
 20
0.2257765414474289
 10
0.1187456409775031
 20
0.2248777758648439
 10
0.1183568052060684
 20
0.2242705018766999
 10
0.1176763444132791
 20
0.224027592548541
 10
0.1168986739031068
 20
0.2241490472126204
 10
0.1163640256209937
 20
0.2245134118726058
 10
0.115975190882256
 20
0.2250478127952053
 10
0.1158779811648752
 20
0.2257279591811469
  0
LWPOLYLINE
  5
2FD0
330
2
100
AcDbEntity
  8
0
  6
Continuous
 62
     1
370
     0
100
AcDbPolyline
 90
        2
 70
   128
 43
0.0
 10
0.1162668169363099
 20
0.2265052700996524
 10
0.1149058932853353
 20
0.2277198180759408
  0
LWPOLYLINE
  5
2FD1
330
2
100
AcDbEntity
  8
0
  6
Continuous
 62
     1
370
     0
100
AcDbPolyline
 90
        2
 70
   128
 43
0.0
 10
0.1167528603597314
 20
0.2269182163581726
 10
0.1157807724801915
 20
0.2283028005970704
  0
LWPOLYLINE
  5
2FD2
330
2
100
AcDbEntity
  8
0
  6
Continuous
 62
     1
370
     0
100
AcDbPolyline
 90
        2
 70
   128
 43
0.0
 10
0.1173604159298796
 20
0.2271125440877966
 10
0.1168500690444153
 20
0.2286428744577931
  0
LWPOLYLINE
  5
2FD3
330
2
100
AcDbEntity
  8
0
  6
Continuous
 62
     1
370
     0
100
AcDbPolyline
 90
        4
 70
   128
 43
0.0
 10
0.1179922728966765
 20
0.2268696340918859
 10
0.1179679704673306
 20
0.227987018203367
 10
0.1182352951247357
 20
0.2284971283266991
 10
0.1186970361188138
 20
0.2286671652570604
  0
LWPOLYLINE
  5
2FD4
330
2
100
AcDbEntity
  8
0
  6
Continuous
 62
     1
370
     0
100
AcDbPolyline
 90
        2
 70
   128
 43
0.0
 10
0.1187699434068488
 20
0.2241490472126204
 10
0.1197906351123834
 20
0.2228859176377973
  0
LWPOLYLINE
  5
2FD5
330
2
100
AcDbEntity
  8
0
  6
Continuous
 62
     1
370
     0
100
AcDbPolyline
 90
        2
 70
   128
 43
0.0
 10
0.1179193666413361
 20
0.2236875193555702
 10
0.1182838989507303
 20
0.2226430083096385
  0
LWPOLYLINE
  5
2FD6
330
2
100
AcDbEntity
  8
0
  6
Continuous
 62
     1
370
     0
100
AcDbPolyline
 90
        2
 70
   128
 43
0.0
 10
0.1176034371252418
 20
0.2236389370892883
 10
0.1174090197558741
 20
0.2223029344489158
  0
LWPOLYLINE
  5
2FD7
330
2
100
AcDbEntity
  8
0
  6
Continuous
 62
     1
370
     0
100
AcDbPolyline
 90
        2
 70
   128
 43
0.0
 10
0.116874371473761
 20
0.2239061378844616
 10
0.1163640256209937
 20
0.2227644629737179
  0
LWPOLYLINE
  5
2FD8
330
2
100
AcDbEntity
  8
0
  6
Continuous
 62
     1
370
     0
100
AcDbPolyline
 90
        2
 70
   128
 43
0.0
 10
0.1161453058222803
 20
0.2244891204055912
 10
0.1154648439967918
 20
0.2237118101548329
  0
LWPOLYLINE
  5
2FD9
330
2
100
AcDbEntity
  8
0
  6
Continuous
 62
     1
370
     0
100
AcDbPolyline
 90
        2
 70
   128
 43
0.0
 10
0.1159508884529102
 20
0.2247077396022346
 10
0.1152461241980783
 20
0.2241976294789024
  0
LWPOLYLINE
  5
2FDA
330
2
100
AcDbEntity
  8
0
  6
Continuous
 62
     1
370
     0
100
AcDbPolyline
 90
        2
 70
   128
 43
0.0
 10
0.1155134488554833
 20
0.2257279591811469
 10
0.1136178769223957
 20
0.2256307953163302
  0
LWPOLYLINE
  5
2FDB
330
2
100
AcDbEntity
  8
0
  6
Continuous
 62
     1
370
     0
100
AcDbPolyline
 90
       55
 70
   128
 43
0.0
 10
0.1184188165211299
 20
0.2214221086803087
 10
0.1190409527227284
 20
0.2185460598844418
 10
0.118146631997473
 20
0.2187015218010431
 10
0.1175633798893676
 20
0.2184294631131161
 10
0.1177577972587352
 20
0.2180408083216105
 10
0.1181855160909662
 20
0.217341228361408
 10
0.11822439915176
 20
0.216719380027251
 10
0.1182632822125561
 20
0.2155145485042171
 10
0.1182632822125561
 20
0.2143874486072383
 10
0.1178355644130222
 20
0.2142708518359125
 10
0.1172874404839242
 20
0.2139663384178867
 10
0.11707296713018
 20
0.2134839967440563
 10
0.1170327539572445
 20
0.2129212644573757
 10
0.1170863725538531
 20
0.2121843538450286
 10
0.1172874404839242
 20
0.2118225974227166
 10
0.1177297926150881
 20
0.2113268573134111
 10
0.1178906473722214
 20
0.2109651008910992
 10
0.1182022808739499
 20
0.2095994026701676
 10
0.1189743841212744
 20
0.2087847811320654
 10
0.1196392522407687
 20
0.208313158206615
 10
0.1190816213144938
 20
0.2080987839067714
 10
0.1182880700089101
 20
0.2072841623686692
 10
0.1175588608127172
 20
0.2064481033338118
 10
0.117344387458973
 20
0.2058692935923132
 10
0.117473071677757
 20
0.2052261713605393
 10
0.1180521496295989
 20
0.2050332345574557
 10
0.1184167542276941
 20
0.2052261713605393
 10
0.1189743841212744
 20
0.2052047338637792
 10
0.1195749101313754
 20
0.2050117970606957
 10
0.1200467508899979
 20
0.2047545484350841
 10
0.1200896459738241
 20
0.2045616116320006
 10
0.1200896459738241
 20
0.2037684275906631
 10
0.1191459634238871
 20
0.204347237332157
 10
0.1182880700089101
 20
0.2043043630063936
 10
0.1177304390826328
 20
0.2038327400809385
 10
0.1175588608127172
 20
0.2032539296716879
 10
0.1176446499476751
 20
0.2023749963110624
 10
0.1181808338483853
 20
0.2020963095209435
 10
0.1189743841212744
 20
0.2020319976984153
 10
0.1193389887193696
 20
0.202224933833747
 10
0.119123207972793
 20
0.2018304916392924
 10
0.1191661020239245
 20
0.2011444950817504
 10
0.1187477383825948
 20
0.2006510119727868
 10
0.117649634770113
 20
0.2011998096194706
 10
0.1169907728091643
 20
0.2026815630651957
 10
0.1167711524997462
 20
0.2054255512986244
 10
0.1163868161837438
 20
0.2108586479340397
 10
0.1153640621847757
 20
0.2145497609873098
 10
0.1138626247850722
 20
0.2168201143597707
 10
0.112861667895531
 20
0.2179360507858175
 10
0.1120147034997918
 20
0.2188211040896889
 10
0.1118992078385708
 20
0.2190904677322316
 10
0.11343914310355
 20
0.2197061573935556
 10
0.1154795568132997
 20
0.2203218463871228
 10
0.1182514402902646
 20
0.2208990548603322
  0
LWPOLYLINE
  5
2FDC
330
2
100
AcDbEntity
  8
0
  6
Continuous
 62
     1
370
     0
100
AcDbPolyline
 90
      105
 70
   128
 43
0.0
 10
0.1194063907063025
 20
0.2212838600639674
 10
0.1200223648122942
 20
0.2185902202997521
 10
0.1206834852788736
 20
0.2192255845936594
 10
0.1212939881627245
 20
0.2194245692228152
 10
0.1217717741508413
 20
0.2193317096846902
 10
0.1221433845569799
 20
0.2189204742057258
 10
0.1221699279361272
 20
0.2183367845356697
 10
0.1219310354584149
 20
0.2173020620601709
 10
0.1216655996015576
 20
0.2165989817461737
 10
0.121970851043483
 20
0.2169438894605906
 10
0.1224486359989053
 20
0.2169438894605906
 10
0.1226078973064789
 20
0.2164663248815701
 10
0.1225418636414297
 20
0.215639993651745
 10
0.1223958745397771
 20
0.215149164187566
 10
0.1223295155755616
 20
0.2146583340556351
 10
0.1228205717042078
 20
0.2151093668610827
 10
0.123324901071472
 20
0.2152818210521695
 10
0.1238557727851864
 20
0.2152685548315071
 10
0.1242008398121801
 20
0.2148838504583589
 10
0.1242539276031669
 20
0.2142868952353972
 10
0.1240029546504455
 20
0.2134192548895087
 10
0.1236446154175309
 20
0.2123845330817617
 10
0.1232331894263241
 20
0.2117345149794063
 10
0.1228483068142623
 20
0.2107793864891172
 10
0.1224766964081236
 20
0.2099834466369998
 10
0.1220254548318487
 20
0.209121177684831
 10
0.1216936600107783
 20
0.2084711602502276
 10
0.1222908906887059
 20
0.2081793154151996
 10
0.122728861091757
 20
0.2075823601922379
 10
0.1230739281187483
 20
0.2069456083105448
 10
0.1234588107308078
 20
0.2066404979226112
 10
0.1239631390653773
 20
0.2066272317019488
 10
0.1244276528475732
 20
0.2064813092844349
 10
0.1243879374339928
 20
0.2060785929801399
 10
0.124188860541351
 20
0.2057602170392911
 10
0.1238570657202783
 20
0.2056540912805084
 10
0.1230740282902383
 20
0.2056275601746875
 10
0.1227687768483129
 20
0.2057071541599021
 10
0.1224502532004665
 20
0.2056938886069917
 10
0.1219857404509652
 20
0.205786748145112
 10
0.1213354219820484
 20
0.2056010290688714
 10
0.1212557908119144
 20
0.2055612317423882
 10
0.1209770827491339
 20
0.2050704022782091
 10
0.1207780058564921
 20
0.204606103919851
 10
0.1207647336505712
 20
0.2040622109085264
 10
0.1211628884685516
 20
0.2045928376991886
 10
0.1216008578389056
 20
0.2047122290108817
 10
0.1222511763078224
 20
0.204752026337365
 10
0.1230342127051701
 20
0.2044999781610683
 10
0.1234190953172296
 20
0.2040489453556159
 10
0.1234854542814452
 20
0.2033060677151402
 10
0.1232332906305088
 20
0.2028285038038716
 10
0.1226493300931083
 20
0.2026427847276263
 10
0.122158273964462
 20
0.202775440924478
 10
0.1218792395698229
 20
0.2028774459882552
 10
0.1217199772295525
 20
0.2027315235707412
 10
0.1218261517788338
 20
0.2026253984797105
 10
0.1220119574982517
 20
0.2025988673738897
 10
0.1220385008773989
 20
0.2014182224808767
 10
0.1218659673639021
 20
0.2013651596014831
 10
0.1220783164624671
 20
0.201166174972332
 10
0.1228348094806652
 20
0.2012590345104523
 10
0.1237372926332152
 20
0.2018825208392348
 10
0.1244141544812792
 20
0.2031427597174623
 10
0.124812309299262
 20
0.2043632012692066
 10
0.1251852012808402
 20
0.2063718107124163
 10
0.1254639093436184
 20
0.2081361446077332
 10
0.1258633219850371
 20
0.2119480165279341
 10
0.1261951178388044
 20
0.2142297116609981
 10
0.126647966289683
 20
0.2165028702578523
 10
0.1276184947986245
 20
0.2196114695516043
 10
0.128666968085524
 20
0.2214819292057038
 10
0.1296888969605794
 20
0.222781964742658
 10
0.1308037292116944
 20
0.2233125915333203
 10
0.1318920170509652
 20
0.2234452483979238
 10
0.1330864804722143
 20
0.2231136062364173
 10
0.1339358758337752
 20
0.2223309319372103
 10
0.134798543401257
 20
0.2210308964002514
 10
0.1353306419575344
 20
0.2193687759072047
 10
0.1354766310591895
 20
0.2174187222678952
 10
0.1352742381804566
 20
0.2149166998296398
 10
0.1347198943247891
 20
0.2133985612680114
 10
0.1340760167793327
 20
0.2123346847584808
 10
0.1332875959062881
 20
0.2120325966141987
 10
0.1322232263335397
 20
0.2122033420289902
 10
0.131171998847046
 20
0.213109607129579
 10
0.1303835769413069
 20
0.2145149744686927
 10
0.1301199803155986
 20
0.2156223155963896
 10
0.130014857050603
 20
0.2171984283502853
 10
0.1301068402947352
 20
0.2183411108981652
 10
0.1303696469081843
 20
0.219234241325157
 10
0.1307507168074947
 20
0.2196282695136333
 10
0.1311580677812287
 20
0.2197858809225704
 10
0.1316179809038103
 20
0.2196151355077835
 10
0.131972769728697
 20
0.2188927498278267
 10
0.132235577374843
 20
0.2177632026213004
 10
0.1322749984701301
 20
0.2167518634706678
 10
0.1321830152259957
 20
0.2159244037406669
 10
0.1319070685916831
 20
0.2153858988168551
 10
0.1315391387132361
 20
0.2153333614579572
 10
0.1311974888765158
 20
0.2155435102257923
 10
0.1308164189772054
 20
0.2161082838290554
 10
0.1307507168074947
 20
0.2170539516149451
 10
0.130908401188643
 20
0.2179208140302423
 10
0.1311580677812287
 20
0.2181834994892233
  0
LWPOLYLINE
  5
2FDD
330
2
100
AcDbEntity
  8
0
  6
Continuous
 62
     1
370
     0
100
AcDbPolyline
 90
        2
 70
   128
 43
0.0
 10
0.1314077343738146
 20
0.2198384176137163
 10
0.1329714371317371
 20
0.2201536404316001
  0
LWPOLYLINE
  5
2FDE
330
2
100
AcDbEntity
  8
0
  6
Continuous
 62
     1
370
     0
100
AcDbPolyline
 90
       11
 70
   128
 43
0.0
 10
0.1318413664219724
 20
0.2151494820373207
 10
0.1331554015546121
 20
0.2145059023957083
 10
0.1336810158142074
 20
0.2147423191752428
 10
0.1340752267670757
 20
0.2151757500490153
 10
0.1343248933596616
 20
0.2160426124643125
 10
0.1343774544758121
 20
0.2171327569855425
 10
0.1342854722643745
 20
0.2184199162687578
 10
0.1341015068088049
 20
0.2191554359545644
 10
0.1339044013323696
 20
0.2196414035194782
 10
0.1336153136444966
 20
0.219956626337362
 10
0.1330634193431746
 20
0.220166775105197
  0
LWPOLYLINE
  5
2FDF
330
2
100
AcDbEntity
  8
0
  6
Continuous
 62
     1
370
     0
100
AcDbPolyline
 90
       12
 70
   128
 43
0.0
 10
0.1337633619414966
 20
0.2200272424025647
 10
0.1331811941639391
 20
0.2208471905950273
 10
0.1323608671226605
 20
0.2215613382237282
 10
0.1316199265026238
 20
0.2215877885316055
 10
0.1306672884150468
 20
0.2212174895633164
 10
0.1296881885312888
 20
0.2202652918347141
 10
0.1286561629897753
 20
0.2182286475091264
 10
0.1280475334160369
 20
0.2164829518959387
 10
0.1275423758267715
 20
0.2143850533823165
 10
0.1272248291091162
 20
0.2124013090047313
 10
0.1269337452203363
 20
0.210232414475252
 10
0.1264309638640207
 20
0.2067674742245151
  0
LWPOLYLINE
  5
2FE0
330
2
100
AcDbEntity
  8
0
  6
Continuous
 62
     1
370
     0
100
AcDbPolyline
 90
        3
 70
   128
 43
0.0
 10
0.1273836019515955
 20
0.2073493723170717
 10
0.1283097782429915
 20
0.2125071089007457
 10
0.1298975087331847
 20
0.2161042993553742
  0
LWPOLYLINE
  5
2FE1
330
2
100
AcDbEntity
  8
0
  6
Continuous
 62
     1
370
     0
100
AcDbPolyline
 90
       11
 70
   128
 43
0.0
 10
0.1262624692236438
 20
0.2055269026336048
 10
0.1258669591395067
 20
0.2036959137754635
 10
0.1253465517319394
 20
0.2023434791041867
 10
0.1245971636605754
 20
0.2011574975405346
 10
0.1239518578968834
 20
0.2005332973853112
 10
0.1232649190035818
 20
0.2001587768915298
 10
0.1224738998680022
 20
0.1999299030338546
 10
0.1218285930716132
 20
0.2000339367269329
 10
0.1212873696155907
 20
0.2003252299991547
 10
0.1209126755799088
 20
0.2008453977967989
 10
0.1207877772237841
 20
0.2012407247620989
  0
LWPOLYLINE
  5
2FE2
330
2
100
AcDbEntity
  8
0
  6
Continuous
 62
     1
370
     0
100
AcDbPolyline
 90
        8
 70
   128
 43
0.0
 10
0.1228902260005968
 20
0.1999299030338546
 10
0.1235563478127463
 20
0.1999715166446344
 10
0.124430633207538
 20
0.200304423527636
 10
0.1249718576962574
 20
0.2007205576322066
 10
0.125533898233432
 20
0.2014279850089943
 10
0.1260959387706064
 20
0.2023434791041867
 10
0.1264914488547459
 20
0.203217360256351
 10
0.1266787953562385
 20
0.2038831740223542
  0
LWPOLYLINE
  5
2FE3
330
2
100
AcDbEntity
  8
0
  6
Continuous
 62
     1
370
     0
100
AcDbPolyline
 90
       29
 70
   128
 43
0.0
 10
0.1186284899049764
 20
0.2170967645075703
 10
0.1190706158757696
 20
0.2174404809531648
 10
0.1193162415298417
 20
0.2174732161389254
 10
0.1192671161924883
 20
0.2172277039151038
 10
0.1191361156371087
 20
0.2157873670934433
 10
0.1187922403410245
 20
0.2149526262002056
 10
0.1186284899049764
 20
0.2143142950860224
 10
0.1190378659950989
 20
0.214625277013613
 10
0.1195454917272312
 20
0.214854421310676
 10
0.1197583675006325
 20
0.2147398491621446
 10
0.1197583675006325
 20
0.2144124999755519
 10
0.1196109925212671
 20
0.2139214755279135
 10
0.1193981167478657
 20
0.2134304517480223
 10
0.1191852409744644
 20
0.2131522050061921
 10
0.1193981167478657
 20
0.2131194698204316
 10
0.1195618671839137
 20
0.2127430181890766
 10
0.1193817412911831
 20
0.2124320362614859
 10
0.119103365756438
 20
0.2121046870748933
 10
0.1189887406577432
 20
0.2117118675167797
 10
0.1189068654397192
 20
0.2110080666988321
 10
0.1189559907770749
 20
0.21058251262271
 10
0.1192343663118176
 20
0.2103206331398865
 10
0.1195291173032431
 20
0.2103042658808798
 10
0.1197419920439499
 20
0.2104843077331804
 10
0.1198566181753415
 20
0.2106807175122396
 10
0.1199057424799979
 20
0.2112699461816556
 10
0.1198402427186564
 20
0.2118428075920699
 10
0.1196109925212671
 20
0.2121865240376644
 10
0.1194963663898778
 20
0.2122847289271939
  0
LWPOLYLINE
  5
2FE4
330
2
100
AcDbEntity
  8
0
  6
Continuous
 62
     1
370
     0
100
AcDbPolyline
 90
        4
 70
   128
 43
0.0
 10
0.1200039931547069
 20
0.2147889516069117
 10
0.1203642439074737
 20
0.2148871564964365
 10
0.1206917447795698
 20
0.2146089090868592
 10
0.1210519955323389
 20
0.2138396385651378
  0
LWPOLYLINE
  5
2FE5
330
2
100
AcDbEntity
  8
0
  6
Continuous
 62
     1
370
     0
100
AcDbPolyline
 90
        8
 70
   128
 43
0.0
 10
0.1202987441461323
 20
0.2150180959039747
 10
0.1199548678173512
 20
0.2158855719829729
 10
0.1197092421632792
 20
0.2165239030971562
 10
0.1195291173032431
 20
0.2171458662845808
 10
0.1197092421632792
 20
0.2175386858426944
 10
0.1198566181753415
 20
0.2175223185836877
 10
0.1199384933933655
 20
0.2177350956217489
 10
0.1199712432740362
 20
0.218242486660642
  0
LWPOLYLINE
  5
2FE6
330
2
100
AcDbEntity
  8
0
  6
Continuous
 62
     1
370
     0
100
AcDbPolyline
 90
        5
 70
   128
 43
0.0
 10
0.122402768816678
 20
0.2107551998590963
 10
0.1221407687386179
 20
0.2125883555711185
 10
0.1217215675810238
 20
0.213950128748256
 10
0.121695367056872
 20
0.2151023982055853
 10
0.1215905670256465
 20
0.2161761040183917
  0
LWPOLYLINE
  5
2FE7
330
2
100
AcDbEntity
  8
0
  6
Continuous
 62
     1
370
     0
100
AcDbPolyline
 90
        6
 70
   128
 43
0.0
 10
0.1199025813982735
 20
0.2082538157913532
 10
0.1202060607342734
 20
0.2081527028436878
 10
0.120509540070271
 20
0.2083549294067707
 10
0.1210586935970451
 20
0.208499376093289
 10
0.1212610131543776
 20
0.2084849312910858
 10
0.1214633327117102
 20
0.2084849312910858
  0
LWPOLYLINE
  5
2FE8
330
2
100
AcDbEntity
  8
0
  6
Continuous
 62
     1
370
     0
100
AcDbPolyline
 90
        4
 70
   128
 43
0.0
 10
0.1198158731640874
 20
0.205639321283289
 10
0.1197291638972067
 20
0.2064048917934977
 10
0.1197580669861669
 20
0.2071704623037016
 10
0.1200037411769409
 20
0.2077915847918882
  0
LWPOLYLINE
  5
2FE9
330
2
100
AcDbEntity
  8
0
  6
Continuous
 62
     1
370
     0
100
AcDbPolyline
 90
        2
 70
   128
 43
0.0
 10
0.1190499485355019
 20
0.2068382331885564
 10
0.1192089134593952
 20
0.2076326933031667
  0
LWPOLYLINE
  5
2FEA
330
2
100
AcDbEntity
  8
0
  6
Continuous
 62
     1
370
     0
100
AcDbPolyline
 90
        5
 70
   128
 43
0.0
 10
0.1215789440348565
 20
0.2062026658981667
 10
0.1212899162433378
 20
0.206809344251902
 10
0.1210875966860053
 20
0.2070982382926906
 10
0.1210153389636036
 20
0.2074160219378855
 10
0.1210153389636036
 20
0.2078060295940913
  0
LWPOLYLINE
  5
2FEB
330
2
100
AcDbEntity
  8
0
  6
Continuous
 62
     1
370
     0
100
AcDbPolyline
 90
        4
 70
   128
 43
0.0
 10
0.1200845516856354
 20
0.2027371700781122
 10
0.1198167230726984
 20
0.2032088404139296
 10
0.1193830961880207
 20
0.2035147888300984
 10
0.1191790365383301
 20
0.203629519903505
  0
LWPOLYLINE
  5
2FEC
330
2
100
AcDbEntity
  8
0
  6
Continuous
 62
     1
370
     0
100
AcDbPolyline
 90
        2
 70
   128
 43
0.0
 10
0.1201610744415301
 20
0.2027371700781122
 10
0.1200973054782837
 20
0.2034892934069798
  0
LWPOLYLINE
  5
2FED
330
2
100
AcDbEntity
  8
0
  6
Continuous
 62
     1
370
     0
100
AcDbPolyline
 90
        3
 70
   128
 43
0.0
 10
0.1204926720177111
 20
0.2027754135466637
 10
0.1205819485662541
 20
0.2035020414524174
 10
0.1207605006306457
 20
0.2038717287602565
  0
LWPOLYLINE
  5
2FEE
330
2
100
AcDbEntity
  8
0
  6
Continuous
 62
     1
370
     0
100
AcDbPolyline
 90
        3
 70
   128
 43
0.0
 10
0.1194213575659679
 20
0.2024439697073762
 10
0.1196509248009576
 20
0.2026096916270199
 10
0.1215002185389024
 20
0.2026606831410091
  0
LWPOLYLINE
  5
2FEF
330
2
100
AcDbEntity
  8
0
  6
Continuous
 62
     1
370
     0
100
AcDbPolyline
 90
        2
 70
   128
 43
0.0
 10
0.1193830961880207
 20
0.2012329240881288
 10
0.1216532630179972
 20
0.2013221590706695
  0
LWPOLYLINE
  5
2FF0
330
2
100
AcDbEntity
  8
0
  6
Continuous
 62
     1
370
     0
100
AcDbPolyline
 90
       17
 70
   128
 43
0.0
 10
0.1348762083186622
 20
0.2352861786842206
 10
0.1347897654872882
 20
0.233846139012015
 10
0.1350779072258429
 20
0.2325213025135823
 10
0.1356253753931331
 20
0.2309948604610436
 10
0.1357982600231891
 20
0.2304476453856048
 10
0.1358270743003138
 20
0.2297276248817525
 10
0.1361152160388686
 20
0.2292956129800865
 10
0.1365186128205329
 20
0.2277691709275478
 10
0.1367203117277135
 20
0.225061896343803
 10
0.1389101854295713
 20
0.225061896343803
 10
0.139284768966808
 20
0.227221955852109
 10
0.1396017249824873
 20
0.2283163860029865
 10
0.1406678470399431
 20
0.2294684177407529
 10
0.1406966613170678
 20
0.23018843824461
 10
0.1415610855000398
 20
0.2307932549069328
 10
0.1422238097431342
 20
0.2316284779168155
 10
0.1426272075574955
 20
0.2326077048939155
  0
LWPOLYLINE
  5
2FF1
330
2
100
AcDbEntity
  8
0
  6
Continuous
 62
     1
370
     0
100
AcDbPolyline
 90
       14
 70
   128
 43
0.0
 10
0.1005327056286036
 20
0.2170750198450815
 10
0.1002094439726076
 20
0.2181089797482783
 10
0.0995629196279162
 20
0.2186905820268885
 10
0.0988194168896949
 20
0.2190136949974515
 10
0.0983021974139418
 20
0.2192398731419905
 10
0.0978496308890051
 20
0.2216309059189472
 10
0.0975263692330067
 20
0.2227617993126641
 10
0.0967505400193771
 20
0.2234080245860333
 10
0.0967505400193771
 20
0.2240542491916554
 10
0.0960070372811557
 20
0.2245712291432538
 10
0.0954251658872808
 20
0.2253466990706515
 10
0.095134230706693
 20
0.2264129701373566
 10
0.0951988826248125
 20
0.2274792412040569
 10
0.0951988826248125
 20
0.2280285323191636
  0
LWPOLYLINE
  5
2FF2
330
2
100
AcDbEntity
  8
0
  6
Continuous
 62
     1
370
     0
100
AcDbPolyline
 90
        5
 70
   128
 43
0.0
 10
0.0969547008732523
 20
0.2239784320093905
 10
0.0995579471978251
 20
0.224014076588786
 10
0.1028922419497418
 20
0.2241922988180304
 10
0.1094788250831907
 20
0.2247628190913995
 10
0.1129379335101797
 20
0.2251905520409322
  0
LWPOLYLINE
  5
2FF3
330
2
100
AcDbEntity
  8
0
  6
Continuous
 62
     1
370
     0
100
AcDbPolyline
 90
        5
 70
   128
 43
0.0
 10
0.1228193025211173
 20
0.2268657838362731
 10
0.1263382019672816
 20
0.2276194850621271
 10
0.1297134730543032
 20
0.2287320914110416
 10
0.1334586660898912
 20
0.2299045904025153
 10
0.1354586146489419
 20
0.2304548364023806
  0
LWPOLYLINE
  5
2FF4
330
2
100
AcDbEntity
  8
0
  6
Continuous
 62
     1
370
     0
100
AcDbPolyline
 90
        4
 70
   128
 43
0.0
 10
0.1226756741619747
 20
0.226112082610419
 10
0.1266254586855717
 20
0.2270452367316792
 10
0.1317601800120205
 20
0.228588529495364
 10
0.1352431726265728
 20
0.229593464240587
  0
LWPOLYLINE
  5
2FF5
330
2
100
AcDbEntity
  8
0
  6
Continuous
 62
     1
370
     0
100
AcDbPolyline
 90
        2
 70
   128
 43
0.0
 10
0.1362013841731722
 20
0.2296763061694865
 10
0.1404912684571519
 20
0.2295174948109568
  0
LWPOLYLINE
  5
2FF6
330
2
100
AcDbEntity
  8
0
  6
Continuous
 62
     1
370
     0
100
AcDbPolyline
 90
        2
 70
   128
 43
0.0
 10
0.1360601537335845
 20
0.2304703616266406
 10
0.1403500380175642
 20
0.2302056762516718
  0
LWPOLYLINE
  5
2FF7
330
2
100
AcDbEntity
  8
0
  6
Continuous
 62
     1
370
     0
100
AcDbPolyline
 90
        5
 70
   128
 43
0.0
 10
0.1197990175038766
 20
0.2209912466468701
 10
0.1217756498580308
 20
0.221273491885167
 10
0.1239091579925551
 20
0.2215557371234639
 10
0.1262936669625876
 20
0.2216498193147323
 10
0.1285526755148647
 20
0.221618458361724
  0
LWPOLYLINE
  5
2FF8
330
2
100
AcDbEntity
  8
0
  6
Continuous
 62
     1
370
     0
100
AcDbPolyline
 90
        5
 70
   128
 43
0.0
 10
0.1219011502757861
 20
0.2218693433147644
 10
0.1261367911822198
 20
0.2225279159826266
 10
0.1291488032737207
 20
0.2230924071269722
 10
0.1324431905306452
 20
0.2239705037948664
 10
0.1365219556567114
 20
0.2250054038922891
  0
LWPOLYLINE
  5
2FF9
330
2
100
AcDbEntity
  8
0
  6
Continuous
 62
     1
370
     0
100
AcDbPolyline
 90
        6
 70
   128
 43
0.0
 10
0.0984824689167737
 20
0.2192667414623621
 10
0.1027494851858199
 20
0.2194862661301461
 10
0.1063576240034799
 20
0.2198625928919595
 10
0.1109697661631771
 20
0.2203016415597849
 10
0.1152681577948359
 20
0.2207406902276057
 10
0.1171506650938496
 20
0.2210542964189108
  0
LWPOLYLINE
  5
2FFA
330
2
100
AcDbEntity
  8
0
  6
Continuous
 62
     1
370
     0
100
AcDbPolyline
 90
       18
 70
   128
 43
0.0
 10
0.1201832391906482
 20
0.2009355709703098
 42
-0.6969890211612863
 10
0.1166853034684342
 20
0.2004518036468535
 42
-0.0031023912712712
 10
0.1148576787856418
 20
0.2076060874091694
 42
0.2042074380527084
 10
0.1097290328083559
 20
0.2164507602599662
 42
0.2103675733677307
 10
0.1051751171337532
 20
0.2175062524806475
 42
0.4712843350415534
 10
0.1020291757616958
 20
0.211789004176173
 42
0.3581351055493958
 10
0.1053291147910353
 20
0.2099638821834253
 42
0.2709800826645485
 10
0.1074190762107063
 20
0.2117670144488596
 42
0.4461401655355897
 10
0.1060551009437557
 20
0.2142078401257119
 42
0.7646613859064245
 10
0.1058571052835757
 20
0.2138340201033378
 42
-0.5302436139951089
 10
0.1056292729774666
 20
0.2114979539655295
 42
-1.282212929955851
 10
0.1059451033547676
 20
0.2157470990020975
 42
-0.4412979024662583
 10
0.1083430590563036
 20
0.2107555016828098
 42
-0.6699211494341299
 10
0.1004012062811743
 20
0.2121848132581181
 42
-0.1956855568393625
 10
0.1013031896089754
 20
0.2173083476058013
 42
-0.4124404183914951
 10
0.1103450224047827
 20
0.217836093716142
 42
-0.1575891902831175
 10
0.1156945206975322
 20
0.2087916135662434
 42
-0.018704303524191
 10
0.1168165002360064
 20
0.2027665130858407
 42
0.8630923180374331
  0
LWPOLYLINE
  5
2FFB
330
2
100
AcDbEntity
  8
0
  6
Continuous
 62
     1
370
     0
100
AcDbPolyline
 90
       44
 70
   128
 43
0.0
 10
0.1172811947399619
 20
0.1885362521213681
 10
0.1177992982032849
 20
0.1893026900408821
 10
0.1181308833871169
 20
0.1899241263723119
 10
0.1179650902788536
 20
0.190814850890356
 10
0.1177785740647539
 20
0.191187712689212
 10
0.1173848154326269
 20
0.1913741435886424
 10
0.1165972981683732
 20
0.1909184238348458
 10
0.1171361257702298
 20
0.1916020037994143
 10
0.1175091602638232
 20
0.1922234394630922
 10
0.1176335050950218
 20
0.1930520210157448
 10
0.1174055395711581
 20
0.1932591662369724
 10
0.1168874361078349
 20
0.1932384519151752
 10
0.1164729543698715
 20
0.1930934503270911
 10
0.1172397464628949
 20
0.1936320280358284
 10
0.1173433671555599
 20
0.1942120350559119
 10
0.1173848154326269
 20
0.1949577586536286
 10
0.1170739533546317
 20
0.1953513347742818
 10
0.116348609538673
 20
0.1952684761515893
 10
0.116410781954271
 20
0.1954756220405687
 10
0.1168874361078349
 20
0.1959727704379597
 10
0.1171775740472968
 20
0.1968220663124095
 10
0.1168874361078349
 20
0.1971949281112655
 10
0.1164315060928045
 20
0.1972156431008146
 10
0.1160170233221441
 20
0.1970706408449834
 10
0.1167009188610383
 20
0.1976506478650621
 10
0.1170739533546317
 20
0.1982927985182892
 10
0.1168874361078349
 20
0.1986035166840017
 10
0.1169278310352245
 20
0.1992779464486593
 10
0.1166584172342963
 20
0.1998993821123372
 10
0.1162024872192658
 20
0.2002308145998469
 10
0.1154149699550121
 20
0.2002101002780497
 10
0.1148968675243835
 20
0.2000236693786241
 10
0.1145860054463883
 20
0.1996300932579662
 10
0.1150004882170487
 20
0.200520818443767
 10
0.1151455571867783
 20
0.2008729652530739
 10
0.1156843837559404
 20
0.2013286850068706
 10
0.1159745216954022
 20
0.2019086920269541
 10
0.1160159699724692
 20
0.2025922719915274
 10
0.115767280310072
 20
0.203047991745324
 10
0.1151248330482448
 20
0.2031308497002646
 10
0.1156014872018087
 20
0.2034829971773234
 10
0.1155807630632752
 20
0.203918001941571
 10
0.1152906261565104
 20
0.2043737223631195
 10
0.1155185906476772
 20
0.2047258691724264
  0
LWPOLYLINE
  5
2FFC
330
2
100
AcDbEntity
  8
0
  6
Continuous
 62
     1
370
     0
100
AcDbPolyline
 90
       34
 70
   128
 43
0.0
 10
0.1150833847711803
 20
0.2061966013783061
 10
0.1148554192473166
 20
0.2062587450114495
 10
0.1142336950913284
 20
0.2063001736550439
 10
0.1139642823230946
 20
0.2061966013783061
 10
0.1143580399225246
 20
0.2067144647652461
 10
0.1145238330307902
 20
0.2072737567957806
 10
0.1143165916454599
 20
0.2077916201827207
 10
0.1139642823230946
 20
0.2079366224385567
 10
0.1138606616304295
 20
0.2081644819815814
 10
0.1138606616304295
 20
0.2086823453685215
 10
0.1136326961065659
 20
0.2092830673781494
 10
0.1129902478120441
 20
0.2096766434988073
 10
0.1125964902126142
 20
0.2094902125993769
 10
0.1120783867492887
 20
0.2089102055792934
 10
0.1118711453639586
 20
0.2089516342228878
 10
0.1117260763942288
 20
0.2091587801118672
 10
0.1113323187947965
 20
0.2087030603580659
 10
0.1113323187947965
 20
0.2084544858254968
 10
0.1110214567168013
 20
0.2086823453685215
 10
0.1106691463617414
 20
0.2090137778560313
 10
0.1100474232384477
 20
0.2092830673781494
 10
0.1093220783897921
 20
0.2092002087554616
 10
0.1088868714806006
 20
0.2088687762679471
 10
0.1085760104353022
 20
0.2085373437804374
 10
0.1084516656041037
 20
0.2081230533379871
 10
0.1084102173270367
 20
0.2085373437804374
 10
0.1080371828334432
 20
0.2085166294586402
 10
0.1078921138637136
 20
0.2082887692478636
 10
0.1078713897251801
 20
0.2081437676597843
 10
0.1077470448939815
 20
0.2083094835696608
 10
0.107291114878951
 20
0.2082266256147202
 10
0.1069802528009581
 20
0.2080609097048436
 10
0.1067108390000275
 20
0.2077916201827207
 10
0.1066486665844294
 20
0.2076466185946413
  0
LWPOLYLINE
  5
2FFD
330
2
100
AcDbEntity
  8
0
  6
Continuous
 62
     1
370
     0
100
AcDbPolyline
 90
        4
 70
   128
 43
0.0
 10
0.1085552862967687
 20
0.2070873265641069
 10
0.1080993552490437
 20
0.2073151861071269
 10
0.1079542862793117
 20
0.2076880479059876
 10
0.1078299414481131
 20
0.2079573367603539
  0
LWPOLYLINE
  5
2FFE
330
2
100
AcDbEntity
  8
0
  6
Continuous
 62
     1
370
     0
100
AcDbPolyline
 90
        4
 70
   128
 43
0.0
 10
0.110855663608538
 20
0.2066108918207611
 10
0.1095500439136557
 20
0.2069423243082709
 10
0.108866148374764
 20
0.2072323281521862
 10
0.1085552862967687
 20
0.2078744788054132
  0
LWPOLYLINE
  5
2FFF
330
2
100
AcDbEntity
  8
0
  6
Continuous
 62
     1
370
     0
100
AcDbPolyline
 90
        3
 70
   128
 43
0.0
 10
0.1115602832859632
 20
0.2065694631771668
 10
0.11174680053276
 20
0.2073151861071269
 10
0.1115188350088987
 20
0.2083716272028042
  0
LWPOLYLINE
  5
3000
330
2
100
AcDbEntity
  8
0
  6
Continuous
 62
     1
370
     0
100
AcDbPolyline
 90
        3
 70
   128
 43
0.0
 10
0.113342558167104
 20
0.2069008956646765
 10
0.1135497995524343
 20
0.2075016170065572
 10
0.1137984892148314
 20
0.2077501915391263
  0
LWPOLYLINE
  5
3001
330
2
100
AcDbEntity
  8
0
  6
Continuous
 62
     1
370
     0
100
AcDbPolyline
 90
        2
 70
   128
 43
0.0
 10
0.112741559182344
 20
0.2071080408859041
 10
0.112700110905277
 20
0.2083094835696608
  0
LWPOLYLINE
  5
3002
330
2
100
AcDbEntity
  8
0
  6
Continuous
 62
     1
370
     0
100
AcDbPolyline
 90
        4
 70
   128
 43
0.0
 10
0.1137149771740256
 20
0.200972519668549
 10
0.1138185978666907
 20
0.2031475461607944
 10
0.1141916323602841
 20
0.2048047092661044
 10
0.1145024944382793
 20
0.2053432869748416
  0
LWPOLYLINE
  5
3003
330
2
100
AcDbEntity
  8
0
  6
Continuous
 62
     1
370
     0
100
AcDbPolyline
 90
        3
 70
   128
 43
0.0
 10
0.113051805773665
 20
0.2039554133916546
 10
0.1131968747433971
 20
0.2052189997085547
 10
0.1134041150960303
 20
0.2057368630954948
  0
LWPOLYLINE
  5
3004
330
2
100
AcDbEntity
  8
0
  6
Continuous
 62
     1
370
     0
100
AcDbPolyline
 90
        4
 70
   128
 43
0.0
 10
0.1140258392520209
 20
0.2005996585374402
 10
0.1143367013300138
 20
0.2020082464424292
 10
0.1146682865138456
 20
0.2029404009395716
 10
0.1148755278991758
 20
0.2031268318389972
  0
LWPOLYLINE
  5
3005
330
2
100
AcDbEntity
  8
0
  6
Continuous
 62
     1
370
     0
100
AcDbPolyline
 90
        5
 70
   128
 43
0.0
 10
0.114399399387756
 20
0.1944436400175558
 10
0.1146480890501509
 20
0.1961215174446583
 10
0.1149796752666796
 20
0.1973229607961716
 10
0.1155599501129062
 20
0.1985451184694774
 10
0.1156428466670403
 20
0.1987729780125022
  0
LWPOLYLINE
  5
3006
330
2
100
AcDbEntity
  8
0
  6
Continuous
 62
     1
370
     0
100
AcDbPolyline
 90
        5
 70
   128
 43
0.0
 10
0.1154366410755583
 20
0.188597254567059
 10
0.1153330203828932
 20
0.1904201335822503
 10
0.1154366410755583
 20
0.1923880141855209
 10
0.1157889514306182
 20
0.1939830336576874
 10
0.1161619859242116
 20
0.1946251843109097
  0
LWPOLYLINE
  5
3007
330
2
100
AcDbEntity
  8
0
  6
Continuous
 62
     1
370
     0
100
AcDbPolyline
 90
        3
 70
   128
 43
0.0
 10
0.1157060548764865
 20
0.1912280001453538
 10
0.1159961928159484
 20
0.1924915871300106
 10
0.1162863307554102
 20
0.19292659256201
  0
LWPOLYLINE
  5
3008
330
2
100
AcDbEntity
  8
0
  6
Continuous
 62
     1
370
     0
100
AcDbPolyline
 90
        3
 70
   128
 43
0.0
 10
0.1136950244592252
 20
0.1944424447422219
 10
0.1139437141216224
 20
0.198005345485411
 10
0.1140680589528187
 20
0.199662507922969
  0
LWPOLYLINE
  5
3009
330
2
100
AcDbEntity
  8
0
  6
Continuous
 62
     1
370
     0
100
AcDbPolyline
 90
        2
 70
   128
 43
0.0
 10
0.1130734046055078
 20
0.1991913944919732
 10
0.1129905090840708
 20
0.201697853471733
  0
LWPOLYLINE
  5
300A
330
2
100
AcDbEntity
  8
0
  6
Continuous
 62
     1
370
     0
100
AcDbPolyline
 90
        3
 70
   128
 43
0.0
 10
0.1134049908220366
 20
0.1952142033063338
 10
0.1134671632376347
 20
0.1982385256730336
 10
0.1135293356532329
 20
0.2005378394315659
  0
LWPOLYLINE
  5
300B
330
2
100
AcDbEntity
  8
0
  6
Continuous
 62
     1
370
     0
100
AcDbPolyline
 90
       37
 70
   128
 43
0.0
 10
0.1226440065464602
 20
0.1995678948691942
 10
0.123704801959182
 20
0.1991291480250871
 10
0.1242900688567181
 20
0.1989463370069777
 10
0.1245827017891389
 20
0.1985075901628705
 10
0.1245095435560325
 20
0.1980139995459009
 10
0.1243815161317509
 20
0.1976300958068995
 10
0.1246741500968685
 20
0.1970268189797182
 10
0.1248021764884533
 20
0.1963321363096087
 10
0.1246009918637622
 20
0.196003076343465
 10
0.1241803315070598
 20
0.1958933894655015
 10
0.1236133536514523
 20
0.1958933894655015
 10
0.1233207207190315
 20
0.1958933894655015
 10
0.1231926932947498
 20
0.1957654215525026
 10
0.1228451911711514
 20
0.1957654215525026
 10
0.1227354538214954
 20
0.1954546426213943
 10
0.1226074274299083
 20
0.1948330840914259
 10
0.1224611099310033
 20
0.1946319920382811
 10
0.1222233461897578
 20
0.1946319920382811
 10
0.1220587396489241
 20
0.1946502730733164
 10
0.1220038704577465
 20
0.1939555904032068
 10
0.1218941331080905
 20
0.1934071566811313
 10
0.1214917628260114
 20
0.1929318470992017
 10
0.1209613640869559
 20
0.1928221608889853
 10
0.1206138619633574
 20
0.1929501288019889
 10
0.120193201606655
 20
0.1935899676992407
 10
0.1199371477907887
 20
0.1941201203862762
 10
0.119882278599611
 20
0.1943577751772434
 10
0.1196628039002966
 20
0.1944126182823492
 10
0.1195530665506381
 20
0.1947965220213506
 10
0.1194616182429085
 20
0.1951438630225341
 10
0.1192238545016654
 20
0.1951987067953919
 10
0.1186751667206812
 20
0.1952901119705683
 10
0.1185288502544709
 20
0.1953997988485319
 10
0.1182910854805308
 20
0.1954180798835671
 10
0.1179252932823092
 20
0.1953266747083907
 10
0.1176509493918171
 20
0.1953266747083907
 10
0.1173948955759506
 20
0.1953632367784613
  0
LWPOLYLINE
  5
300C
330
2
100
AcDbEntity
  8
0
  6
Continuous
 62
     1
370
     0
100
AcDbPolyline
 90
        4
 70
   128
 43
0.0
 10
0.1204858355717727
 20
0.2006099192082346
 10
0.1201383334481743
 20
0.1981236864238692
 10
0.1196993830168486
 20
0.1969171321017546
 10
0.1192421435435941
 20
0.1953997988485319
  0
LWPOLYLINE
  5
300D
330
2
100
AcDbEntity
  8
0
  6
Continuous
 62
     1
370
     0
100
AcDbPolyline
 90
        3
 70
   128
 43
0.0
 10
0.1180167415900388
 20
0.197099943787616
 10
0.1190226688442774
 20
0.1979957185108656
 10
0.1194616182429085
 20
0.1987269632510505
  0
LWPOLYLINE
  5
300E
330
2
100
AcDbEntity
  8
0
  6
Continuous
 62
     1
370
     0
100
AcDbPolyline
 90
        3
 70
   128
 43
0.0
 10
0.1177972668907243
 20
0.1980322805809409
 10
0.1188031931122659
 20
0.1983979032849069
 10
0.1190592479608317
 20
0.1987452442860858
  0
LWPOLYLINE
  5
300F
330
2
100
AcDbEntity
  8
0
  6
Continuous
 62
     1
370
     0
100
AcDbPolyline
 90
        6
 70
   128
 43
0.0
 10
0.1226440065464602
 20
0.1957837025875379
 10
0.1219490022992657
 20
0.1963321363096087
 10
0.1215832101010441
 20
0.1969536941718252
 10
0.1211808398189673
 20
0.1978129074927609
 10
0.1208882058538495
 20
0.1989463370069777
 10
0.1207236003457128
 20
0.199842111730232
  0
LWPOLYLINE
  5
3010
330
2
100
AcDbEntity
  8
0
  6
Continuous
 62
     1
370
     0
100
AcDbPolyline
 90
        2
 70
   128
 43
0.0
 10
0.1216929474507025
 20
0.199348521781019
 10
0.1236316437260756
 20
0.197886031632902
  0
LWPOLYLINE
  5
3011
330
2
100
AcDbEntity
  8
0
  6
Continuous
 62
     1
370
     0
100
AcDbPolyline
 90
       13
 70
   128
 43
0.0
 10
0.1234487481433132
 20
0.1989280559719423
 10
0.1239974348916027
 20
0.1985441522329411
 10
0.1239425667331196
 20
0.1981419674589044
 10
0.1237779601922859
 20
0.1980322805809409
 10
0.1237230910011107
 20
0.1976483775096867
 10
0.1238694085000156
 20
0.1974655658238301
 10
0.1239242766584964
 20
0.1970816620848288
 10
0.1238876975419444
 20
0.1967708831537205
 10
0.1236316437260756
 20
0.196441823187577
 10
0.1233024306444083
 20
0.1963869794147144
 10
0.1229183494042578
 20
0.1965515100655405
 10
0.122662295588389
 20
0.1965880721356111
 10
0.1226074274299083
 20
0.1962041683966098
  0
LWPOLYLINE
  5
3012
330
2
100
AcDbEntity
  8
0
  6
Continuous
 62
     1
370
     0
100
AcDbPolyline
 90
        2
 70
   128
 43
0.0
 10
0.1218392649496098
 20
0.1946502730733164
 10
0.1214003145182817
 20
0.1951073009524588
  0
LWPOLYLINE
  5
3013
330
2
100
AcDbEntity
  8
0
  6
Continuous
 62
     1
370
     0
100
AcDbPolyline
 90
       59
 70
   128
 43
0.0
 10
0.1248383352978313
 20
0.1891875810200769
 10
0.1241828368269763
 20
0.1901703744583731
 10
0.1241360154338648
 20
0.190825569638736
 10
0.124276479613197
 20
0.1914807648190989
 10
0.1245574079718638
 20
0.1918083624092803
 10
0.1246042293649729
 20
0.1923699588505189
 10
0.1245574079718638
 20
0.1930251540308817
 10
0.1249319780840543
 20
0.1932591528819388
 10
0.1248851566909428
 20
0.1937271492485539
 10
0.1249319780840543
 20
0.1946163432799786
 10
0.1252129064427188
 20
0.1954587372740892
 10
0.1259620476997943
 20
0.1952247390907793
 10
0.1264302605982056
 20
0.1956459360878323
 10
0.1256811193411299
 20
0.1965819294888144
 10
0.1255406551617977
 20
0.1973775234456157
 10
0.1261961536326527
 20
0.1977051217035443
 10
0.1267111889568699
 20
0.1977051217035443
 10
0.1261961536326527
 20
0.1983135175143497
 10
0.1256811193411299
 20
0.1985007156603408
 10
0.1257279407342415
 20
0.1991559115084556
 10
0.1259620476997943
 20
0.199483509098637
 10
0.1257747621273506
 20
0.1999047060956947
 10
0.1260088690929059
 20
0.2011214977172961
 10
0.1263834392050964
 20
0.2013086965310439
 10
0.1269452959224253
 20
0.2012150971241676
 10
0.1272730446415042
 20
0.2016362941212253
 10
0.1271794018552835
 20
0.2020574911182782
 10
0.1274135088208365
 20
0.2024786881153312
 10
0.128115828684803
 20
0.2026190868917696
 10
0.1283967570434674
 20
0.2027594863359552
 10
0.128115828684803
 20
0.2031806833330081
 10
0.126804831743093
 20
0.2035082809231896
 10
0.1266643675637609
 20
0.2042102761408618
 10
0.1270857590690605
 20
0.2044910743614858
 10
0.127460330213948
 20
0.204725072544791
 10
0.127292855876984
 20
0.2049907421855929
 10
0.1271475865642764
 20
0.205216611828904
 10
0.1265665093134414
 20
0.2056522182373229
 10
0.1261952655142973
 20
0.2060555575538456
 10
0.1262921117227698
 20
0.2064427633244179
 10
0.1266149324176788
 20
0.206781568457134
 10
0.1273089969117298
 20
0.2071687742277062
 10
0.1281644717532365
 20
0.2076205141820803
 10
0.1294718955676142
 20
0.207491445814472
 10
0.1293465531523092
 20
0.2079418128715977
 10
0.1291351055971458
 20
0.2082588372832406
 10
0.1290000558416886
 20
0.2086670157954729
 10
0.1290997708789836
 20
0.2090514497292286
 10
0.129284953882858
 20
0.2094358836629891
 10
0.1293134438935134
 20
0.2097491265974284
 10
0.1292137298889129
 20
0.2102759438653209
 10
0.1291425048622733
 20
0.2109593822665547
 10
0.129370422882132
 20
0.2114007694004176
 10
0.1297692799332306
 20
0.211600105934652
 10
0.1306951980506862
 20
0.2116570591347545
 10
0.1315214021635389
 20
0.2115573905337636
 10
0.1318917692039823
 20
0.2115004373336613
 10
0.1320911972131832
 20
0.2116428206677932
 10
0.1320769522078566
 20
0.2120984462686174
  0
LWPOLYLINE
  5
3014
330
2
100
AcDbEntity
  8
0
  6
Continuous
 62
     1
370
     0
100
AcDbPolyline
 90
       10
 70
   128
 43
0.0
 10
0.1338307339802536
 20
0.2118808246928362
 10
0.134673024394978
 20
0.2117049055387967
 10
0.1353141704601448
 20
0.2117426027865574
 10
0.1359176014434236
 20
0.2114033295599816
 10
0.1366467486778707
 20
0.2112651069859461
 10
0.1373884658851205
 20
0.2112399754874406
 10
0.1382307562998449
 20
0.211365632312221
 10
0.1386456149717627
 20
0.2114284603907352
 10
0.1391484748129586
 20
0.2114661576384911
 10
0.1393747622062076
 20
0.2115164206355069
  0
LWPOLYLINE
  5
3015
330
2
100
AcDbEntity
  8
0
  6
Continuous
 62
     1
370
     0
100
AcDbPolyline
 90
       71
 70
   128
 43
0.0
 10
0.138621013060646
 20
0.2112284981732653
 10
0.1391748137183425
 20
0.2110228954581916
 10
0.1396653225182373
 20
0.2108647404994666
 10
0.1399659567774136
 20
0.2106275070597486
 10
0.1398077281655999
 20
0.2100739630348239
 10
0.1395545627997767
 20
0.2094413405289064
 10
0.1393330423301586
 20
0.2091408456399
 10
0.1391589907538915
 20
0.2087454565737051
 10
0.1392855734368055
 20
0.2083816988999017
 10
0.1392697504723543
 20
0.2078756012958217
 10
0.139921116094774
 20
0.207330245240783
 10
0.1403958019302152
 20
0.2072195360351507
 10
0.1408546648012054
 20
0.2068715940575477
 10
0.1409021336945586
 20
0.2066027298931856
 10
0.1409337796234608
 20
0.2062864186402268
 10
0.140554030542029
 20
0.2055272725679804
 10
0.1403799789657641
 20
0.2053058548244582
 10
0.14056985350648
 20
0.2051476991979812
 10
0.1406489672960385
 20
0.2048946507298148
 10
0.1405382075775778
 20
0.2045150773598203
 10
0.1402375733184015
 20
0.204072241872776
 10
0.1404116248946663
 20
0.2038033777084139
 10
0.1406173223998333
 20
0.203407988642219
 10
0.1407122591538427
 20
0.203060046664616
 10
0.140554030542029
 20
0.202712104687013
 10
0.1403166871079599
 20
0.2024590555510994
 10
0.1400951676710388
 20
0.2019371429185708
 10
0.1394464302593303
 20
0.201699909478853
 10
0.1393356695081729
 20
0.2015259381561755
 10
0.1395730129422419
 20
0.2011621811501239
 10
0.1398004600528331
 20
0.2008229246173366
 10
0.139867028654287
 20
0.2007342078100253
 10
0.1401998685634687
 20
0.2008783720376261
 10
0.1404328560868178
 20
0.2008783720376261
 10
0.140932116983286
 20
0.2006898497402433
 10
0.1413426197444838
 20
0.2004680593913426
 10
0.1415423234834521
 20
0.2001686415856334
 10
0.1415867025510896
 20
0.1997694182898622
 10
0.1414646606314382
 20
0.1993036575555372
 10
0.1414868501652546
 20
0.1989155236102688
 10
0.1413980930626788
 20
0.1986161058045643
 10
0.1412760511430298
 20
0.1983499573858816
 10
0.1406773519717284
 20
0.1979031494446858
 10
0.1405220273003931
 20
0.1976480903765105
 10
0.1408326776757584
 20
0.1976480903765105
 10
0.1412653699707725
 20
0.1975261048499248
 10
0.1415427365617569
 20
0.1970270760640772
 10
0.1414317899253622
 20
0.1966500314693162
 10
0.1410989500161806
 20
0.1962175394542705
 10
0.1406773519717284
 20
0.1959403010173284
 10
0.1406107844029689
 20
0.195762868738205
 10
0.1408992462772124
 20
0.1957296000189305
 10
0.1412431804369538
 20
0.195740689369438
 10
0.1416980622657868
 20
0.1955854357913344
 10
0.1418311984359979
 20
0.1951751231450509
 10
0.1418536130974928
 20
0.1947605081753314
 10
0.1417426664610981
 20
0.1942725680722394
 10
0.141376541734841
 20
0.1938068073379191
 10
0.141542961689433
 20
0.1936515544275627
 10
0.1418203293131143
 20
0.1934741214806921
 10
0.141997843518266
 20
0.1930970768859312
 10
0.1419201806662499
 20
0.1925315106615393
 10
0.1417093826767196
 20
0.1922986302943792
 10
0.1416317198247059
 20
0.1921433767162708
 10
0.1411045689138165
 20
0.1913559754036237
 10
0.1416143963533136
 20
0.1916744702042517
 10
0.1421879524809187
 20
0.19110117942957
 10
0.1423472736848489
 20
0.1904004903339879
 10
0.1419967674492819
 20
0.1896042526646684
 10
0.1416781250414241
 20
0.1890628116371498
 10
0.1415825325256044
 20
0.1887443161687698
  0
LWPOLYLINE
  5
3016
330
2
100
AcDbEntity
  8
0
  6
Continuous
 62
     1
370
     0
100
AcDbPolyline
 90
        4
 70
   128
 43
0.0
 10
0.1262780443411143
 20
0.1891943386660786
 10
0.1260256545298048
 20
0.1905187685037946
 10
0.1254262304060809
 20
0.1913386532598585
 10
0.1248268073150514
 20
0.1917170614033457
  0
LWPOLYLINE
  5
3017
330
2
100
AcDbEntity
  8
0
  6
Continuous
 62
     1
370
     0
100
AcDbPolyline
 90
        5
 70
   128
 43
0.0
 10
0.1273506971665628
 20
0.1892889410358274
 10
0.1270036618214488
 20
0.1910548468183636
 10
0.1265619819752249
 20
0.1923477427554155
 10
0.1258363634621935
 20
0.1930730251417306
 10
0.1254262304060809
 20
0.1933883654838895
  0
LWPOLYLINE
  5
3018
330
2
100
AcDbEntity
  8
0
  6
Continuous
 62
     1
370
     0
100
AcDbPolyline
 90
       14
 70
   128
 43
0.0
 10
0.1298114903397677
 20
0.1895412135766535
 10
0.1294960038501542
 20
0.1915909258006846
 10
0.1296221982394616
 20
0.1923162081869996
 10
0.1290227741157353
 20
0.1927261508989075
 10
0.1292436150715441
 20
0.1934829678536385
 10
0.1292436150715441
 20
0.1944605227807795
 10
0.1285495454140132
 20
0.1950912034650975
 10
0.1280763156795919
 20
0.1950912034650975
 10
0.1276346348006734
 20
0.1947127953216056
 10
0.1274453427003673
 20
0.1941136485379565
 10
0.1273191483110623
 20
0.1943974549794466
 10
0.1272245027772554
 20
0.1950912034650975
 10
0.1270036618214488
 20
0.1954380777079206
 10
0.1266250786535313
 20
0.1956272817796666
  0
LWPOLYLINE
  5
3019
330
2
100
AcDbEntity
  8
0
  6
Continuous
 62
     1
370
     0
100
AcDbPolyline
 90
        6
 70
   128
 43
0.0
 10
0.1300638791183801
 20
0.1904241661340457
 10
0.1296852959504626
 20
0.1932937637818925
 10
0.1293698094608492
 20
0.1946812607531896
 10
0.1287388364816223
 20
0.1956903502487466
 10
0.1277923780454813
 20
0.1968571092476337
 10
0.1270036618214488
 20
0.1974877899319516
  0
LWPOLYLINE
  5
301A
330
2
100
AcDbEntity
  8
0
  6
Continuous
 62
     1
370
     0
100
AcDbPolyline
 90
        4
 70
   128
 43
0.0
 10
0.1290227741157353
 20
0.1958480204198285
 10
0.1284548988475117
 20
0.1972355180588727
 10
0.1276661836561739
 20
0.1982130729860185
 10
0.1264673354087233
 20
0.1991275601118267
  0
LWPOLYLINE
  5
301B
330
2
100
AcDbEntity
  8
0
  6
Continuous
 62
     1
370
     0
100
AcDbPolyline
 90
        4
 70
   128
 43
0.0
 10
0.1311680807993292
 20
0.1911494491881125
 10
0.1307894976314117
 20
0.1943974549794466
 10
0.1302216223631857
 20
0.1963210309330646
 10
0.1298430391952682
 20
0.1973616543292905
  0
LWPOLYLINE
  5
301C
330
2
100
AcDbEntity
  8
0
  6
Continuous
 62
     1
370
     0
100
AcDbPolyline
 90
        7
 70
   128
 43
0.0
 10
0.1316097616782477
 20
0.1916224597013487
 10
0.1314835672889425
 20
0.1966679051758877
 10
0.1311365329765232
 20
0.1991275601118267
 10
0.1304100046585265
 20
0.201030347623223
 10
0.1299367749241075
 20
0.202007902550364
 10
0.128864122098659
 20
0.203710740531572
 10
0.1279807603408221
 20
0.2044990913869671
  0
LWPOLYLINE
  5
301D
330
2
100
AcDbEntity
  8
0
  6
Continuous
 62
     1
370
     0
100
AcDbPolyline
 90
       10
 70
   128
 43
0.0
 10
0.1305677479033344
 20
0.1979715459036301
 10
0.130378455803026
 20
0.1993905774433479
 10
0.1298105805348024
 20
0.200368132370489
 10
0.129148059732772
 20
0.2009988130548022
 10
0.1286432821755471
 20
0.2007780750823922
 10
0.1284855389307415
 20
0.200273530668492
 10
0.1287063788538535
 20
0.199295975073599
 10
0.1281700524411281
 20
0.2005258025415661
 10
0.1279176636625157
 20
0.201030347623223
 10
0.1273497883942921
 20
0.2012195516949689
  0
LWPOLYLINE
  5
301E
330
2
100
AcDbEntity
  8
0
  6
Continuous
 62
     1
370
     0
100
AcDbPolyline
 90
        2
 70
   128
 43
0.0
 10
0.1294004485113844
 20
0.201345687965382
 10
0.1285486356090456
 20
0.2023863106938512
  0
LWPOLYLINE
  5
301F
330
2
100
AcDbEntity
  8
0
  6
Continuous
 62
     1
370
     0
100
AcDbPolyline
 90
        3
 70
   128
 43
0.0
 10
0.1324139528482581
 20
0.1909737844474244
 10
0.1324139528482581
 20
0.1966097239806265
 10
0.1318977474797435
 20
0.2004993155073526
  0
LWPOLYLINE
  5
3020
330
2
100
AcDbEntity
  8
0
  6
Continuous
 62
     1
370
     0
100
AcDbPolyline
 90
        2
 70
   128
 43
0.0
 10
0.1323742446635515
 20
0.2009359021750932
 10
0.1316594994041866
 20
0.2041110796402373
  0
LWPOLYLINE
  5
3021
330
2
100
AcDbEntity
  8
0
  6
Continuous
 62
     1
370
     0
100
AcDbPolyline
 90
        5
 70
   128
 43
0.0
 10
0.130706505036573
 20
0.2036744929724918
 10
0.1299917597772104
 20
0.2051827020681094
 10
0.129396138039278
 20
0.2058574269789663
 10
0.1292770145178481
 20
0.2069290494068384
 10
0.1293564308872636
 20
0.2071671876499497
  0
LWPOLYLINE
  5
3022
330
2
100
AcDbEntity
  8
0
  6
Continuous
 62
     1
370
     0
100
AcDbPolyline
 90
        8
 70
   128
 43
0.0
 10
0.1334066543678862
 20
0.1990704860486894
 10
0.1331684062923295
 20
0.2028013189692538
 10
0.1327316172932327
 20
0.2055795989173777
 10
0.1320962884032858
 20
0.206849669769884
 10
0.1314609584806443
 20
0.2076831539546495
 10
0.1307859214059909
 20
0.2080403609854358
 10
0.1300314679619194
 20
0.208080050803913
 10
0.1297138035169448
 20
0.2079212921977561
  0
LWPOLYLINE
  5
3023
330
2
100
AcDbEntity
  8
0
  6
Continuous
 62
     1
370
     0
100
AcDbPolyline
 90
        3
 70
   128
 43
0.0
 10
0.13173891474091
 20
0.2076831539546495
 10
0.1309844612968363
 20
0.208794465533247
 10
0.1298726352230837
 20
0.2095485700810534
  0
LWPOLYLINE
  5
3024
330
2
100
AcDbEntity
  8
0
  6
Continuous
 62
     1
370
     0
100
AcDbPolyline
 90
        3
 70
   128
 43
0.0
 10
0.1344787732896269
 20
0.1895846441394865
 10
0.1344787732896269
 20
0.1992689344733235
 10
0.1346773131804746
 20
0.2081197406223902
  0
LWPOLYLINE
  5
3025
330
2
100
AcDbEntity
  8
0
  6
Continuous
 62
     1
370
     0
100
AcDbPolyline
 90
        3
 70
   128
 43
0.0
 10
0.1351935185489892
 20
0.1911722328720585
 10
0.1351141021795714
 20
0.199665831322587
 10
0.1353126420704191
 20
0.2040713898217601
  0
LWPOLYLINE
  5
3026
330
2
100
AcDbEntity
  8
0
  6
Continuous
 62
     1
370
     0
100
AcDbPolyline
 90
        4
 70
   128
 43
0.0
 10
0.1363450528074508
 20
0.1913706812966927
 10
0.1359876801777696
 20
0.1973638285284377
 10
0.1361465118839085
 20
0.2022059730275996
 10
0.1360670955144906
 20
0.2064130831021385
  0
LWPOLYLINE
  5
3027
330
2
100
AcDbEntity
  8
0
  6
Continuous
 62
     1
370
     0
100
AcDbPolyline
 90
        5
 70
   128
 43
0.0
 10
0.1323742446635515
 20
0.2083181890470244
 10
0.1323742446635515
 20
0.2090722935948355
 10
0.132533076369688
 20
0.2095882598995306
 10
0.1324139528482581
 20
0.2101042262042305
 10
0.1322154119247157
 20
0.211056779176671
  0
LWPOLYLINE
  5
3028
330
2
100
AcDbEntity
  8
0
  6
Continuous
 62
     1
370
     0
100
AcDbPolyline
 90
        4
 70
   128
 43
0.0
 10
0.1336846116608465
 20
0.2094295012933737
 10
0.133525778922013
 20
0.2100645363857533
 10
0.1336051952914286
 20
0.21069957214588
 10
0.1336846116608465
 20
0.2112155384505798
  0
LWPOLYLINE
  5
3029
330
2
100
AcDbEntity
  8
0
  6
Continuous
 62
     1
370
     0
100
AcDbPolyline
 90
        7
 70
   128
 43
0.0
 10
0.1347567295498901
 20
0.2083181890470244
 10
0.135392058439837
 20
0.2089532248071558
 10
0.1361465118839085
 20
0.208992914625633
 10
0.1367818418065499
 20
0.2092310528687396
 10
0.1374171706964945
 20
0.2097073293549623
 10
0.1378539596955937
 20
0.2104217440842962
 10
0.1379333760650114
 20
0.2108583307520369
  0
LWPOLYLINE
  5
302A
330
2
100
AcDbEntity
  8
0
  6
Continuous
 62
     1
370
     0
100
AcDbPolyline
 90
        3
 70
   128
 43
0.0
 10
0.1371789226209401
 20
0.191450060933647
 10
0.1373377543270789
 20
0.1954587219158
 10
0.1377348351414691
 20
0.1978401050146556
  0
LWPOLYLINE
  5
302B
330
2
100
AcDbEntity
  8
0
  6
Continuous
 62
     1
370
     0
100
AcDbPolyline
 90
        4
 70
   128
 43
0.0
 10
0.1372186308056491
 20
0.2006183849627842
 10
0.1380524995864414
 20
0.2033569750924309
 10
0.1388069540632073
 20
0.2046667357634144
 10
0.1398393637675445
 20
0.2058574269789663
  0
LWPOLYLINE
  5
302C
330
2
100
AcDbEntity
  8
0
  6
Continuous
 62
     1
370
     0
100
AcDbPolyline
 90
        5
 70
   128
 43
0.0
 10
0.1379730842497204
 20
0.2047064249141397
 10
0.1384892885855405
 20
0.2062543238282344
 10
0.1384892885855405
 20
0.2068893595883612
 10
0.1380127924344294
 20
0.2073259462561066
 10
0.1376554187720512
 20
0.2075243946807407
  0
LWPOLYLINE
  5
302D
330
2
100
AcDbEntity
  8
0
  6
Continuous
 62
     1
370
     0
100
AcDbPolyline
 90
        3
 70
   128
 43
0.0
 10
0.1371789226209401
 20
0.2078816023792789
 10
0.1382510405099837
 20
0.2093501216564193
 10
0.1389657857693463
 20
0.2098660879611192
  0
LWPOLYLINE
  5
302E
330
2
100
AcDbEntity
  8
0
  6
Continuous
 62
     1
370
     0
100
AcDbPolyline
 90
        2
 70
   128
 43
0.0
 10
0.1381319159558593
 20
0.1980782432577669
 10
0.1383304568794017
 20
0.2002214874457641
  0
LWPOLYLINE
  5
302F
330
2
100
AcDbEntity
  8
0
  6
Continuous
 62
     1
370
     0
100
AcDbPolyline
 90
        4
 70
   128
 43
0.0
 10
0.1383304568794017
 20
0.1952205836726887
 10
0.1391643266928909
 20
0.1972050692545289
 10
0.1400379036583922
 20
0.1985942095624668
 10
0.1407129417657427
 20
0.1992292446548463
  0
LWPOLYLINE
  5
3030
330
2
100
AcDbEntity
  8
0
  6
Continuous
 62
     1
370
     0
100
AcDbPolyline
 90
        5
 70
   128
 43
0.0
 10
0.1388466612152217
 20
0.1953396531281203
 10
0.1397599473981266
 20
0.1956571703404341
 10
0.1399981965063779
 20
0.1950618250665317
 10
0.1401173200278077
 20
0.1938314440325027
 10
0.1399187801369623
 20
0.192839200573833
  0
LWPOLYLINE
  5
3031
330
2
100
AcDbEntity
  8
0
  6
Continuous
 62
     1
370
     0
100
AcDbPolyline
 90
        3
 70
   128
 43
0.0
 10
0.1395614075072811
 20
0.1891480574717458
 10
0.1403952762880735
 20
0.1923232342691332
 10
0.1409511898412971
 20
0.1939902026386596
  0
LWPOLYLINE
  5
3032
330
2
100
AcDbEntity
  8
0
  6
Continuous
 62
     1
370
     0
100
AcDbPolyline
 90
        2
 70
   128
 43
0.0
 10
0.1403555691360591
 20
0.1890289886840661
 10
0.1407526499504492
 20
0.1905371977796837
  0
LWPOLYLINE
  5
3033
330
2
100
AcDbEntity
  8
0
  6
Continuous
 62
     1
370
     0
100
AcDbPolyline
 90
       20
 70
   128
 43
0.0
 10
0.1407040006858411
 20
0.2143844931387401
 10
0.1402221531052976
 20
0.2127207005957344
 10
0.1397403065574463
 20
0.2117136677750446
 10
0.1394117740222851
 20
0.211604207932618
 10
0.139214655120806
 20
0.2124798880075387
 10
0.1391708512647091
 20
0.2158950420358943
 10
0.1393679701661882
 20
0.2189818158692184
 10
0.1398279153023371
 20
0.2208864210004151
 10
0.1402440555496945
 20
0.2222437255839753
 10
0.1406163919409527
 20
0.2227253500926102
 10
0.1410106307766078
 20
0.2225939980145928
 10
0.1413829671678684
 20
0.2214556131158903
 10
0.1415143797688536
 20
0.2195072241812734
 10
0.1415800860693475
 20
0.2142531410607228
 10
0.1417347002459984
 20
0.206972857249318
 10
0.1420632317484651
 20
0.2026820224782852
 10
0.1425888831851054
 20
0.2009306616606871
 10
0.1430926332100483
 20
0.2002957935062056
 10
0.1437715996920732
 20
0.200186333663779
 10
0.1439906210379491
 20
0.2004052533486321
  0
LWPOLYLINE
  5
3034
330
2
100
AcDbEntity
  8
0
  6
Continuous
 62
     1
370
     0
100
AcDbPolyline
 90
       10
 70
   128
 43
0.0
 10
0.1444286637297012
 20
0.2001644414281882
 10
0.144275348684319
 20
0.1994638972347004
 10
0.1437277948032817
 20
0.1992887606855156
 10
0.1429174157202692
 20
0.1994857888025345
 10
0.1422165467938473
 20
0.2002082252316132
 10
0.1416470915011077
 20
0.2014560699727422
 10
0.141296657554244
 20
0.2036014870243827
 10
0.1411433425088618
 20
0.2067320446611223
 10
0.1411646501204997
 20
0.2112918377494898
 10
0.1410770413756114
 20
0.2145975312676669
  0
LWPOLYLINE
  5
3035
330
2
100
AcDbEntity
  8
0
  6
Continuous
 62
     1
370
     0
100
AcDbPolyline
 90
        6
 70
   128
 43
0.0
 10
0.1397410108559561
 20
0.2143567193472278
 10
0.1408580200297355
 20
0.214619423503253
 10
0.141098943820006
 20
0.2148164516202718
 10
0.1412741613097851
 20
0.2166334884768809
 10
0.1412741613097851
 20
0.2187351217250964
 10
0.140025738502326
 20
0.2189540420777061
  0
LWPOLYLINE
  5
3036
330
2
100
AcDbEntity
  8
0
  6
Continuous
 62
     1
370
     0
100
AcDbPolyline
 90
       13
 70
   128
 43
0.0
 10
0.1403542710374896
 20
0.2143348271116418
 10
0.140003837090626
 20
0.2133934709977101
 10
0.1397629133003531
 20
0.2132621189196975
 10
0.1395876958105739
 20
0.2133496865265379
 10
0.1395219895100801
 20
0.214904019894869
 10
0.1396532162258306
 20
0.2178020564147982
 10
0.1398941400161036
 20
0.2195534172323962
 10
0.140156966250771
 20
0.2205166662496658
 10
0.1403978890083493
 20
0.2208888302481222
 10
0.1405731064981284
 20
0.2208888302481222
 10
0.1406826176874137
 20
0.2205166662496658
 10
0.1408140302884013
 20
0.2197285537815856
 10
0.1408797365888927
 20
0.2189842251169209
  0
LWPOLYLINE
  5
3037
330
2
100
AcDbEntity
  8
0
  6
Continuous
 62
     1
370
     0
100
AcDbPolyline
 90
        6
 70
   128
 43
0.0
 10
0.1348124352246351
 20
0.2238170030646606
 10
0.1357586076040512
 20
0.2223458601915576
 10
0.1361090415509125
 20
0.2218554787886902
 10
0.1357586076040512
 20
0.2229413223219833
 10
0.1360039110570456
 20
0.2238170030646606
 10
0.1368449539752916
 20
0.2247277107165209
  0
LWPOLYLINE
  5
3038
330
2
100
AcDbEntity
  8
0
  6
Continuous
 62
     1
370
     0
100
AcDbPolyline
 90
        5
 70
   128
 43
0.0
 10
0.1384219082852174
 20
0.2246926838073332
 10
0.1387372987341238
 20
0.2239921389460934
 10
0.1388424292279932
 20
0.2232565678434178
 10
0.1387372987341238
 20
0.2221707236423729
 10
0.1386321682402568
 20
0.2215052063580679
  0
LWPOLYLINE
  5
3039
330
2
100
AcDbEntity
  8
0
  6
Continuous
 62
     1
370
     0
100
AcDbPolyline
 90
        4
 70
   128
 43
0.0
 10
0.1389475597218601
 20
0.2235718126971005
 10
0.139543298154415
 20
0.223536785120161
 10
0.1401039930890127
 20
0.2233266223295404
 10
0.1403843400399641
 20
0.2228712685036127
  0
LWPOLYLINE
  5
303A
330
2
100
AcDbEntity
  8
0
  6
Continuous
 62
     1
370
     0
100
AcDbPolyline
 90
        6
 70
   128
 43
0.0
 10
0.1390877326809874
 20
0.2248678196887708
 10
0.1398586886033214
 20
0.2237819761554729
 10
0.1406296434929584
 20
0.2232215402664783
 10
0.1419262508519351
 20
0.2222057512193078
 10
0.1431177277170425
 20
0.2214701794488802
 10
0.1448698984840527
 20
0.2207696352553924
  0
LWPOLYLINE
  5
303B
330
2
100
AcDbEntity
  8
0
  6
Continuous
 62
     1
370
     0
100
AcDbPolyline
 90
        5
 70
   128
 43
0.0
 10
0.1409022865335314
 20
0.2299400980928396
 10
0.1414574276303273
 20
0.2286916083036838
 10
0.1422554432796872
 20
0.227824600986297
 10
0.1432963334816135
 20
0.227026955028892
 10
0.14499645328418
 20
0.226229308403735
  0
LWPOLYLINE
  5
303C
330
2
100
AcDbEntity
  8
0
  6
Continuous
 62
     1
370
     0
100
AcDbPolyline
 90
        5
 70
   128
 43
0.0
 10
0.1406247154687862
 20
0.2291771318138021
 10
0.1411798565655821
 20
0.2280673627413539
 10
0.1418390871989167
 20
0.2271309953994847
 10
0.1428105843764831
 20
0.2262639887498499
 10
0.144337222650843
 20
0.2253969814324632
  0
LWPOLYLINE
  5
303D
330
2
100
AcDbEntity
  8
0
  6
Continuous
 62
     1
370
     0
100
AcDbPolyline
 90
        5
 70
   128
 43
0.0
 10
0.1512823391640075
 20
0.2227940517140277
 10
0.154786668305679
 20
0.2215802416032347
 10
0.1575276783101693
 20
0.2208866360164271
 10
0.1597829392095317
 20
0.2205051528769061
 10
0.1624198596774809
 20
0.2200543097129025
  0
LWPOLYLINE
  5
303E
330
2
100
AcDbEntity
  8
0
  6
Continuous
 62
     1
370
     0
100
AcDbPolyline
 90
        5
 70
   128
 43
0.0
 10
0.1517333917569591
 20
0.223314255570261
 10
0.1544050087370896
 20
0.2222738471900472
 10
0.1573541967819653
 20
0.2215455612571199
 10
0.1599217242255546
 20
0.2210600377470015
 10
0.1627321272544073
 20
0.2206438742613655
  0
LWPOLYLINE
  5
303F
330
2
100
AcDbEntity
  8
0
  6
Continuous
 62
     1
370
     0
100
AcDbPolyline
 90
        5
 70
   128
 43
0.0
 10
0.1476739215184917
 20
0.2197421872656159
 10
0.1515252137165739
 20
0.2185283771548231
 10
0.1545090972409338
 20
0.2177307311974181
 10
0.1578052483422201
 20
0.2169677649183759
 10
0.1609279179153022
 20
0.2163782003699129
  0
LWPOLYLINE
  5
3040
330
2
100
AcDbEntity
  8
0
  6
Continuous
 62
     1
370
     0
100
AcDbPolyline
 90
       40
 70
   129
 43
0.0
 10
0.1468759058691318
 20
0.2205051528769061
 10
0.1457656226428454
 20
0.2203317518140789
 10
0.1451757860665653
 20
0.2204704731985384
 10
0.1449329115140012
 20
0.2211640787853508
 10
0.1446900369614348
 20
0.2227593713679128
 10
0.1448635184896413
 20
0.2248055077822255
 10
0.145453356098616
 20
0.2259499565330367
 10
0.1460778902197718
 20
0.2264008003647922
 10
0.1468065128447717
 20
0.2271290862977147
 10
0.1477086169979759
 20
0.2273718480527715
 10
0.1481596695909276
 20
0.227233127336064
 10
0.148064208227471
 20
0.22776508228462
 10
0.1482077415786036
 20
0.2281476605367305
 10
0.1487459919035303
 20
0.2283269939046057
 10
0.1493320849576761
 20
0.2283389493289146
 10
0.1501095571902622
 20
0.2282074383260223
 10
0.1508152622309322
 20
0.2279085487118166
 10
0.1510784065358968
 20
0.2274183703054268
 10
0.1512339005693347
 20
0.2268564586854413
 10
0.1513056677612506
 20
0.2265456136469266
 10
0.1512697836489454
 20
0.2262108577597941
 10
0.151341550840859
 20
0.2258043686590658
 10
0.1517123454173479
 20
0.2253261456769851
 10
0.1520711782788344
 20
0.2249913897898573
 10
0.1521788275176641
 20
0.2244892559591587
 10
0.1520472558815314
 20
0.2240827661906785
 10
0.1516884230200426
 20
0.2235208545706928
 10
0.1511262513305074
 20
0.2230306761643031
 10
0.1503009343033108
 20
0.2226480979121926
 10
0.15026373350391
 20
0.2220458066863437
 10
0.150048433993556
 20
0.2214838950663581
 10
0.1498331344832044
 20
0.2208622056570808
 10
0.1493905727147996
 20
0.220407893523613
 10
0.1488762458198728
 20
0.2200850930607943
 10
0.1481825014615081
 20
0.2199535820579019
 10
0.1476562128515813
 20
0.219941626633593
 10
0.147405030261619
 20
0.219941626633593
 10
0.1471299242416545
 20
0.219941626633593
 10
0.1472614969104841
 20
0.2202644270964165
 10
0.1472734575927894
 20
0.2205752714671792
  0
LWPOLYLINE
  5
3041
330
2
100
AcDbEntity
  8
0
  6
Continuous
 62
     1
370
     0
100
AcDbPolyline
 90
        6
 70
   128
 43
0.0
 10
0.1473930685466167
 20
0.2205633160428703
 10
0.147775823805411
 20
0.2207546055028063
 10
0.1480150467457648
 20
0.221029583600647
 10
0.1480868129049838
 20
0.2213762949120836
 10
0.1481705407792027
 20
0.2219979843213609
 10
0.1481466183818973
 20
0.2226196743983901
  0
LWPOLYLINE
  5
3042
330
2
100
AcDbEntity
  8
0
  6
Continuous
 62
     1
370
     0
100
AcDbPolyline
 90
       17
 70
   128
 43
0.0
 10
0.1476083690896677
 20
0.2232294083833586
 10
0.1478595516796299
 20
0.2228468301312481
 10
0.1483738796072513
 20
0.2227392299769736
 10
0.1492231179990563
 20
0.222882697071922
 10
0.1497015618143749
 20
0.223133763653393
 10
0.1501680449473857
 20
0.2238152315197139
 10
0.1503355006958259
 20
0.2243173653504126
 10
0.1501680449473857
 20
0.2246042988725574
 10
0.1496776394170696
 20
0.2249031878190112
 10
0.149259001078667
 20
0.2251542550682389
 10
0.1488164403429592
 20
0.2250705664303294
 10
0.1485891791176053
 20
0.2248194991811064
 10
0.1483858402895567
 20
0.2245086541425918
 10
0.1481825014615081
 20
0.224209765196138
 10
0.1478715133946298
 20
0.2239706533712193
 10
0.1476203297719706
 20
0.2236837198490744
 10
0.1475366018977516
 20
0.2232891861726503
  0
LWPOLYLINE
  5
3043
330
2
100
AcDbEntity
  8
0
  6
Continuous
 62
     1
370
     0
100
AcDbPolyline
 90
        2
 70
   128
 43
0.0
 10
0.1486257716592033
 20
0.2206745380817216
 10
0.148530083102679
 20
0.222549171183204
  0
LWPOLYLINE
  5
3044
330
2
100
AcDbEntity
  8
0
  6
Continuous
 62
     1
370
     0
100
AcDbPolyline
 90
        3
 70
   128
 43
0.0
 10
0.1495252465689993
 20
0.221439694585952
 10
0.1494486959303203
 20
0.2219179175680281
 10
0.1491424913102075
 20
0.2222813667405989
  0
LWPOLYLINE
  5
3045
330
2
100
AcDbEntity
  8
0
  6
Continuous
 62
     1
370
     0
100
AcDbPolyline
 90
        4
 70
   128
 43
0.0
 10
0.1498697425152378
 20
0.2250600473396722
 10
0.1503673242483992
 20
0.2255573994012974
 10
0.1507692174250338
 20
0.2258443329234423
 10
0.1511711106016709
 20
0.2262651686668946
  0
LWPOLYLINE
  5
3046
330
2
100
AcDbEntity
  8
0
  6
Continuous
 62
     1
370
     0
100
AcDbPolyline
 90
        3
 70
   128
 43
0.0
 10
0.1495826758129679
 20
0.2253661099413615
 10
0.1504056000840848
 20
0.2259782351447449
 10
0.1508457680637153
 20
0.2267433916489706
  0
LWPOLYLINE
  5
3047
330
2
100
AcDbEntity
  8
0
  6
Continuous
 62
     1
370
     0
100
AcDbPolyline
 90
        7
 70
   128
 43
0.0
 10
0.1490468182441209
 20
0.2252895942909403
 10
0.1490659561619637
 20
0.2255956568926297
 10
0.1492573343077093
 20
0.2260356223833782
 10
0.1492764722255521
 20
0.2265903603481283
 10
0.1491042319976517
 20
0.2269920676797833
 10
0.1486640629853266
 20
0.2271068408215414
 10
0.148472685872278
 20
0.2271642280601748
  0
LWPOLYLINE
  5
3048
330
2
100
AcDbEntity
  8
0
  6
Continuous
 62
     1
370
     0
100
AcDbPolyline
 90
        5
 70
   128
 43
0.0
 10
0.1473435580137453
 20
0.2233001873799478
 10
0.1468842510835774
 20
0.22316628515865
 10
0.1462909807938917
 20
0.2231854142381897
 10
0.1458508117815667
 20
0.2233575746185811
 10
0.145659434668518
 20
0.2234723477603393
  0
LWPOLYLINE
  5
3049
330
2
100
AcDbEntity
  8
0
  6
Continuous
 62
     1
370
     0
100
AcDbPolyline
 90
        4
 70
   128
 43
0.0
 10
0.1452766794097262
 20
0.2217698750392483
 10
0.145563745079299
 20
0.2222672264331169
 10
0.146023052009467
 20
0.2224967733843851
 10
0.1465014958247832
 20
0.2227071912561136
  0
LWPOLYLINE
  5
304A
330
2
100
AcDbEntity
  8
0
  6
Continuous
 62
     1
370
     0
100
AcDbPolyline
 90
        4
 70
   128
 43
0.0
 10
0.1480707926956433
 20
0.226093008954255
 10
0.1475923488803248
 20
0.2261121373660475
 10
0.1470947661144688
 20
0.226093008954255
 10
0.1465206337426284
 20
0.2261886530164686
  0
LWPOLYLINE
  5
304B
330
2
100
AcDbEntity
  8
0
  6
Continuous
 62
     1
370
     0
100
AcDbPolyline
 90
       10
 70
   128
 43
0.0
 10
0.1453235586338004
 20
0.2003381777023104
 10
0.1454064572533235
 20
0.2000185751018113
 10
0.1456196242469298
 20
0.1999593889404217
 10
0.1458920049827792
 20
0.2002671549763957
 10
0.1460578011891309
 20
0.2008708498160667
 10
0.1468749433966814
 20
0.2049428296741444
 10
0.1474644350525769
 20
0.2080681347769481
 42
-0.1877626103121123
 10
0.1527339427970646
 20
0.2165476149557983
 42
-0.2975275848848335
 10
0.1571736041107501
 20
0.2168374124644765
 42
-0.1126695967390892
 10
0.1594952198435424
 20
0.2147278296336851
 42
0.5218682246024878
  0
LWPOLYLINE
  5
304C
330
2
100
AcDbEntity
  8
0
  6
Continuous
 62
     1
370
     0
100
AcDbPolyline
 90
       20
 70
   128
 43
0.0
 10
0.1448669738896567
 20
0.2001266306626638
 10
0.1451768889856393
 20
0.1991530622124597
 10
0.1455163195591679
 20
0.1987842863855285
 10
0.1458114774327236
 20
0.1987842863855285
 10
0.1460918770511578
 20
0.1991383115800362
 10
0.1464460658798079
 20
0.1999938716320695
 10
0.1469330748737682
 20
0.2021622740286298
 10
0.1477760365407379
 20
0.2059300516409267
 10
0.1483368357776064
 20
0.2081574585704508
 42
-0.146957342712426
 10
0.1520327537349589
 20
0.2143683028339054
 42
-0.3428041273319609
 10
0.1576846749159424
 20
0.2148309832301813
 42
-0.4500336093659536
 10
0.1575918014880611
 20
0.2082585788633825
 42
-0.4721297501046006
 10
0.1545264196796291
 20
0.2089225970453842
 42
-0.2784131734806048
 10
0.1546448936354258
 20
0.2119378860686965
 42
-0.4993260735605439
 10
0.1573689044349956
 20
0.2120646319963039
 42
0.8536964465549932
 10
0.1553494833646751
 20
0.2096443951039458
 42
0.2140394811897069
 10
0.1564891953220634
 20
0.2093230870659111
 42
0.6683126709382457
 10
0.1571460084146223
 20
0.2137727144984296
 42
0.3074607588483795
 10
0.1528181023381122
 20
0.2136613175086621
 42
0.138495124126138
 10
0.1493624524092271
 20
0.2101367523837461
 42
1.173477404645987
  0
LWPOLYLINE
  5
304D
330
2
100
AcDbEntity
  8
0
  6
Continuous
 62
     1
370
     0
100
AcDbPolyline
 90
        8
 70
   128
 43
0.0
 10
0.1485737010735387
 20
0.2081262879266431
 10
0.1494735952578142
 20
0.2075866010825309
 10
0.1497564196458979
 20
0.2073296075380273
 10
0.1505791797183875
 20
0.207663699680084
 10
0.1515047849290283
 20
0.2077150978547851
 10
0.1523532570605779
 20
0.2073296075380273
 10
0.15284177069226
 20
0.2067899206939103
 10
0.1529703268567719
 20
0.206173135919997
  0
LWPOLYLINE
  5
304E
330
2
100
AcDbEntity
  8
0
  6
Continuous
 62
     1
370
     0
100
AcDbPolyline
 90
        2
 70
   128
 43
0.0
 10
0.1486251241589617
 20
0.2051451610742209
 10
0.1493450390933046
 20
0.2069955160637177
  0
LWPOLYLINE
  5
304F
330
2
100
AcDbEntity
  8
0
  6
Continuous
 62
     1
370
     0
100
AcDbPolyline
 90
        2
 70
   128
 43
0.0
 10
0.1490879267642808
 20
0.2055820509011837
 10
0.1496535745077491
 20
0.2068413195363634
  0
LWPOLYLINE
  5
3050
330
2
100
AcDbEntity
  8
0
  6
Continuous
 62
     1
370
     0
100
AcDbPolyline
 90
        8
 70
   128
 43
0.0
 10
0.149730708619535
 20
0.2058390444456874
 10
0.150502045606604
 20
0.2064558292196055
 10
0.1512476726000045
 20
0.206687123676761
 10
0.1520447216461335
 20
0.2065329271494067
 10
0.1523789680869408
 20
0.2062502338497982
 10
0.1516333410935402
 20
0.2060960379901958
 10
0.1506820248565364
 20
0.2059932403052946
 10
0.1501935112248542
 20
0.2059675412179416
  0
LWPOLYLINE
  5
3051
330
2
100
AcDbEntity
  8
0
  6
Continuous
 62
     1
370
     0
100
AcDbPolyline
 90
       11
 70
   128
 43
0.0
 10
0.1448477440618898
 20
0.2004842663899657
 10
0.1443939259096919
 20
0.2005069465724218
 10
0.1440308724206289
 20
0.2005069465724218
 10
0.1436451275076069
 20
0.2005069465724218
 10
0.1434409098554659
 20
0.2007337504001916
 10
0.1434182194642037
 20
0.2013914810333071
 10
0.1435770553011255
 20
0.2017770474737453
 10
0.1435770553011255
 20
0.2019131292362104
 10
0.1431232381816221
 20
0.201890449053759
 10
0.1428509472903029
 20
0.201890449053759
 10
0.1425559660077237
 20
0.201890449053759
  0
LWPOLYLINE
  5
3052
330
2
100
AcDbEntity
  8
0
  6
Continuous
 62
     1
370
     0
100
AcDbPolyline
 90
        9
 70
   128
 43
0.0
 10
0.1447115986162303
 20
0.201890449053759
 10
0.1442804718879891
 20
0.2019131292362104
 10
0.1443939259096919
 20
0.2022760154941972
 10
0.1445300713553514
 20
0.202774983514649
 10
0.1444846895401324
 20
0.2031378691048839
 10
0.1441216360510672
 20
0.2035007553628706
 10
0.1435316734859064
 20
0.2037502393730965
 10
0.1430551649424462
 20
0.203636837125331
 10
0.1423744397795396
 20
0.2033646729326537
  0
LWPOLYLINE
  5
3053
330
2
100
AcDbEntity
  8
0
  6
Continuous
 62
     1
370
     0
100
AcDbPolyline
 90
        7
 70
   128
 43
0.0
 10
0.1447796708227116
 20
0.2020945720313302
 10
0.1447115986162303
 20
0.2029337461273126
 10
0.1449611980835928
 20
0.2034100339653131
 10
0.1453469429966124
 20
0.2035461157277734
 10
0.1459369055617754
 20
0.2034553943302159
 10
0.1462545772356193
 20
0.2032739515350961
 10
0.1463453408660574
 20
0.2030017873424188
  0
LWPOLYLINE
  5
3054
330
2
100
AcDbEntity
  8
0
  6
Continuous
 62
     1
370
     0
100
AcDbPolyline
 90
        2
 70
   128
 43
0.0
 10
0.1463907226812788
 20
0.2033873531151098
 10
0.1463680312573197
 20
0.207469820011767
  0
LWPOLYLINE
  5
3055
330
2
100
AcDbEntity
  8
0
  6
Continuous
 62
     1
370
     0
100
AcDbPolyline
 90
       10
 70
   128
 43
0.0
 10
0.145233487942215
 20
0.2018677688713076
 10
0.1453242515726556
 20
0.2022533346439939
 10
0.1455057788335343
 20
0.2025708598693259
 10
0.1458461419313349
 20
0.2025028186542197
 10
0.1458915237465563
 20
0.202207974279091
 10
0.1458688323225972
 20
0.201754366623542
 10
0.1457780686921566
 20
0.2015502436459755
 10
0.1456873050617184
 20
0.2014822024308694
 10
0.145233487942215
 20
0.2016863254084359
 10
0.1448931248444144
 20
0.201754366623542
  0
LWPOLYLINE
  5
3056
330
2
100
AcDbEntity
  8
0
  6
Continuous
 62
     1
370
     0
100
AcDbPolyline
 90
        3
 70
   128
 43
0.0
 10
0.145437705594356
 20
0.2004162251748596
 10
0.1456873050617184
 20
0.2006883893675369
 10
0.1457553783008967
 20
0.2011646772055373
  0
LWPOLYLINE
  5
3057
330
2
100
AcDbEntity
  8
0
  6
Continuous
 62
     1
370
     0
100
AcDbPolyline
 90
        8
 70
   128
 43
0.0
 10
0.1440455160465197
 20
0.2041104272469441
 10
0.143925363960113
 20
0.2046908923446086
 10
0.1431844285035539
 20
0.20465085996957
 10
0.1425836701369052
 20
0.2050711969025889
 10
0.1422632649173826
 20
0.2056316454788651
 10
0.1422832909535809
 20
0.2062721581374619
 10
0.1427038211906173
 20
0.2059118694331226
 10
0.1433246055934643
 20
0.2055315655428943
  0
LWPOLYLINE
  5
3058
330
2
100
AcDbEntity
  8
0
  6
Continuous
 62
     1
370
     0
100
AcDbPolyline
 90
       23
 70
   128
 43
0.0
 10
0.1428439982805276
 20
0.2060119500368454
 10
0.1429240993272347
 20
0.2066724785490831
 10
0.1435048326903797
 20
0.2072329271253547
 10
0.1430843024533432
 20
0.2084939365889072
 10
0.1425235940936995
 20
0.210435491086095
 10
0.1420630128169635
 20
0.2120567885862302
 10
0.1422232149103776
 20
0.2134178786535008
 10
0.1426437461801086
 20
0.2139783272297724
 10
0.143264529550261
 20
0.213898263147452
 10
0.143244402309878
 20
0.2152268751133211
 10
0.1435648075294007
 20
0.2158874042933107
 10
0.143745034626316
 20
0.2159874842292815
 10
0.143704984619311
 20
0.2166680292629168
 10
0.1436449085761053
 20
0.2173485736288002
 10
0.1438051106695194
 20
0.2178489746441394
 10
0.1444859700828751
 20
0.2180291186624355
 10
0.1450667034460201
 20
0.2181091827447607
 10
0.1454271586725479
 20
0.2186696313210322
 10
0.1456073868021601
 20
0.2191700316686243
 10
0.1457275378558722
 20
0.2194702721442794
 10
0.1458276649387775
 20
0.2197905284735754
 10
0.1456073868021601
 20
0.2200307207205509
 10
0.1456274118056638
 20
0.2202709129675265
  0
LWPOLYLINE
  5
3059
330
2
100
AcDbEntity
  8
0
  6
Continuous
 62
     1
370
     0
100
AcDbPolyline
 90
       16
 70
   128
 43
0.0
 10
0.147029181672075
 20
0.2198906084095462
 10
0.1466086504023439
 20
0.218609583092348
 10
0.1464484483089299
 20
0.2181291985984016
 10
0.1463883722657266
 20
0.2177288781867804
 10
0.146868979578661
 20
0.2176688299580962
 10
0.147269484812196
 20
0.2174686700861592
 10
0.1474497129418083
 20
0.2170883655281837
 10
0.1473896368986026
 20
0.2164878845768689
 10
0.1471293077222857
 20
0.2158874042933107
 10
0.1469290556218666
 20
0.2152669074883596
 10
0.1468289285389613
 20
0.2133653853662103
 10
0.1468890045821647
 20
0.2124246322319585
 10
0.1471303941182251
 20
0.2109525231223143
 10
0.1470502930715181
 20
0.2095313854941161
 10
0.1469902170283148
 20
0.2084505200488549
 10
0.14654966075508
 20
0.2076298633719669
  0
LWPOLYLINE
  5
305A
330
2
100
AcDbEntity
  8
0
  6
Continuous
 62
     1
370
     0
100
AcDbPolyline
 90
        8
 70
   128
 43
0.0
 10
0.146349407621964
 20
0.2091110492288493
 10
0.1461091044818453
 20
0.2096915136587665
 10
0.1461091044818453
 20
0.2104721386283679
 10
0.1463293826184627
 20
0.2110526030582852
 10
0.1465696857585838
 20
0.2108524431863482
 10
0.1466297618017871
 20
0.2103720586924018
 10
0.1466698128414867
 20
0.2098916741984507
 10
0.146469559708373
 20
0.2092911932471406
  0
LWPOLYLINE
  5
305B
330
2
100
AcDbEntity
  8
0
  6
Continuous
 62
     1
370
     0
100
AcDbPolyline
 90
       10
 70
   128
 43
0.0
 10
0.1458688013417243
 20
0.2074497193536755
 10
0.145187940895674
 20
0.2075097669146031
 10
0.1444470054391149
 20
0.2078900714725834
 10
0.1439864241623765
 20
0.2090109686251313
 10
0.1437461210222555
 20
0.2098516418234122
 10
0.1437461210222555
 20
0.211472939991304
 10
0.1441065762487855
 20
0.212814013537177
 10
0.1441266012522868
 20
0.2133944779670942
 10
0.1437461210222555
 20
0.2137547666714288
 10
0.1434457418389311
 20
0.2138548466073997
  0
LWPOLYLINE
  5
305C
330
2
100
AcDbEntity
  8
0
  6
Continuous
 62
     1
370
     0
100
AcDbPolyline
 90
        4
 70
   128
 43
0.0
 10
0.1442282030247405
 20
0.2138413099473448
 10
0.1444084311543504
 20
0.2148621271639218
 10
0.1446086842874664
 20
0.2155827039048437
 10
0.1440079248881232
 20
0.2161631683347609
  0
LWPOLYLINE
  5
305D
330
2
100
AcDbEntity
  8
0
  6
Continuous
 62
     1
370
     0
100
AcDbPolyline
 90
       11
 70
   128
 43
0.0
 10
0.146511086470318
 20
0.2135210536180488
 10
0.1458903020674709
 20
0.2136211335540149
 10
0.1456700239308536
 20
0.2136011177003739
 10
0.1455899228841466
 20
0.2138413099473448
 10
0.1458702770639673
 20
0.2144417908986597
 10
0.1460705301970808
 20
0.2148621271639218
 10
0.1461506312437879
 20
0.2154826239688776
 10
0.1461506312437879
 20
0.2160230566915082
 10
0.1459303531071705
 20
0.2169037615970804
 10
0.1456299739238462
 20
0.2175843059629638
 10
0.1451493666109118
 20
0.2179445946672984
  0
LWPOLYLINE
  5
305E
330
2
100
AcDbEntity
  8
0
  6
Continuous
 62
     1
370
     0
100
AcDbPolyline
 90
        2
 70
   128
 43
0.0
 10
0.1462707822975
 20
0.2175242584020316
 10
0.1460705301970808
 20
0.2171239379904104
  0
LWPOLYLINE
  5
305F
330
2
100
AcDbEntity
  8
0
  6
Continuous
 62
     1
370
     0
100
AcDbPolyline
 90
        7
 70
   128
 43
0.0
 10
0.146350883344207
 20
0.2164233771031294
 10
0.1465311114738192
 20
0.2162232165634452
 10
0.1466712885637296
 20
0.2162032007097995
 10
0.1468715416968456
 20
0.2165434728927412
 10
0.1469316167073544
 20
0.2169037615970804
 10
0.1468314906571436
 20
0.2170839056153718
 10
0.1466512635602283
 20
0.2173040820087016
  0
LWPOLYLINE
  5
3060
330
2
100
AcDbEntity
  8
0
  6
Continuous
 62
     1
370
     0
100
AcDbPolyline
 90
        2
 70
   128
 43
0.0
 10
0.146471035430616
 20
0.2137011976363401
 10
0.1463709093804053
 20
0.2155626880512027
  0
LWPOLYLINE
  5
3061
330
2
100
AcDbEntity
  8
0
  6
Continuous
 62
     1
370
     0
100
AcDbPolyline
 90
        4
 70
   128
 43
0.0
 10
0.1442253187054781
 20
0.205304620819537
 10
0.1447059260184147
 20
0.2059051017708471
 10
0.1449462291585357
 20
0.2065856461367352
 10
0.1449662541620371
 20
0.2069459348410698
  0
LWPOLYLINE
  5
3062
330
2
100
AcDbEntity
  8
0
  6
Continuous
 62
     1
370
     0
100
AcDbPolyline
 90
        4
 70
   128
 43
0.0
 10
0.1456070635683878
 20
0.2045239958499355
 10
0.1458874177482084
 20
0.2053646690482212
 10
0.1458874177482084
 20
0.2061052616427841
 10
0.1455870385648841
 20
0.2069259189874288
  0
LWPOLYLINE
  5
3063
330
2
100
AcDbEntity
  8
0
  6
Continuous
 62
     1
370
     0
100
AcDbPolyline
 90
       29
 70
   128
 43
0.0
 10
0.1439243622452238
 20
0.1990681475826519
 10
0.1437040841086065
 20
0.1984076190704095
 10
0.1432635278353718
 20
0.198147410969793
 10
0.1428029465586333
 20
0.1981073785947545
 10
0.1426026934255197
 20
0.1979872828051426
 10
0.14274287051543
 20
0.1975869623935214
 10
0.1427829215551319
 20
0.1971866419818955
 10
0.1423223392456967
 20
0.1964860810946192
 10
0.1423023142421953
 20
0.1955453279603674
 10
0.1427829215551319
 20
0.1952651033383533
 10
0.143443755964984
 20
0.1954252315030037
 10
0.1433035788750737
 20
0.1948847987803731
 10
0.1432034517921684
 20
0.1942042544144897
 10
0.1434037049252821
 20
0.1934836776735678
 10
0.1436239830618994
 20
0.1925629403929569
 10
0.1439443872487275
 20
0.1920825558990106
 10
0.1447253737449885
 20
0.1921826358349767
 10
0.1449656768851072
 20
0.1926029721002436
 10
0.1452260060614265
 20
0.1934436452985293
 10
0.1454663092015476
 20
0.194064142103485
 10
0.1456265112949593
 20
0.1946646230547951
 10
0.1458868404712785
 20
0.194784718844407
 10
0.1462472956978063
 20
0.1948447670730864
 10
0.146347421748017
 20
0.1954652638780423
 10
0.1463273967445133
 20
0.1960056966006681
 10
0.1461471696475979
 20
0.1965861610305854
 10
0.146187219654603
 20
0.197647009954449
 10
0.1457466633813682
 20
0.1979472504301041
 10
0.1456665623346612
 20
0.1984676672990937
  0
LWPOLYLINE
  5
3064
330
2
100
AcDbEntity
  8
0
  6
Continuous
 62
     1
370
     0
100
AcDbPolyline
 90
        4
 70
   128
 43
0.0
 10
0.1439043372417225
 20
0.1952050551096738
 10
0.1442247414285481
 20
0.1957655043536973
 10
0.1446052216585796
 20
0.1969264332135271
 10
0.1446452726982815
 20
0.1981674268234339
  0
LWPOLYLINE
  5
3065
330
2
100
AcDbEntity
  8
0
  6
Continuous
 62
     1
370
     0
100
AcDbPolyline
 90
        4
 70
   128
 43
0.0
 10
0.1435038309754928
 20
0.1957855202073383
 10
0.1440044632919308
 20
0.1967863215702743
 10
0.1442247414285481
 20
0.1977070581831333
 10
0.1443448935149572
 20
0.198667827171026
  0
LWPOLYLINE
  5
3066
330
2
100
AcDbEntity
  8
0
  6
Continuous
 62
     1
370
     0
100
AcDbPolyline
 90
        3
 70
   128
 43
0.0
 10
0.1455263852447509
 20
0.1948647829267321
 10
0.1452260060614265
 20
0.1963860004908965
 10
0.1449056018745984
 20
0.1978872028691765
  0
LWPOLYLINE
  5
3067
330
2
100
AcDbEntity
  8
0
  6
Continuous
 62
     1
370
     0
100
AcDbPolyline
 90
        3
 70
   128
 43
0.0
 10
0.1470547109439838
 20
0.1942356220450125
 10
0.1468974479027065
 20
0.1965485612745568
 10
0.1465829228528488
 20
0.1974692458027902
  0
LWPOLYLINE
  5
3068
330
2
100
AcDbEntity
  8
0
  6
Continuous
 62
     1
370
     0
100
AcDbPolyline
 90
        5
 70
   128
 43
0.0
 10
0.1465829228528488
 20
0.1993330706771835
 10
0.1472793718414109
 20
0.1992881590413396
 10
0.1473243044339747
 20
0.1996699066104859
 10
0.1472344402815442
 20
0.2002312993874949
 10
0.1470322446477031
 20
0.2004558568989487
  0
LWPOLYLINE
  5
3069
330
2
100
AcDbEntity
  8
0
  6
Continuous
 62
     1
370
     0
100
AcDbPolyline
 90
        3
 70
   128
 43
0.0
 10
0.1472569065778249
 20
0.2004783127168706
 10
0.1472344402815442
 20
0.2017133773604891
 10
0.1470322446477031
 20
0.2021624917156495
  0
LWPOLYLINE
  5
306A
330
2
100
AcDbEntity
  8
0
  6
Continuous
 62
     1
370
     0
100
AcDbPolyline
 90
       14
 70
   128
 43
0.0
 10
0.1453019928482219
 20
0.1884111729017092
 10
0.1452345939593751
 20
0.1893767690657865
 10
0.1453019928482219
 20
0.1902300861402586
 10
0.1455266537456491
 20
0.1903872761979511
 10
0.1455266537456491
 20
0.1907241121312535
 10
0.1455266537456491
 20
0.1913304165441064
 10
0.1455266537456491
 20
0.1918019867171841
 10
0.1455491200419298
 20
0.1920490000465551
 10
0.1454817211530853
 20
0.1928349503350179
 10
0.1456165178980796
 20
0.1936433557736508
 10
0.1459535092442203
 20
0.1939128249209485
 10
0.146380365775491
 20
0.1940026475248751
 10
0.1469195527554727
 20
0.1938903691030265
 10
0.1473688745503272
 20
0.1936433557736508
  0
LWPOLYLINE
  5
306B
330
2
100
AcDbEntity
  8
0
  6
Continuous
 62
     1
370
     0
100
AcDbPolyline
 90
        3
 70
   128
 43
0.0
 10
0.1466948918580456
 20
0.1890848447683186
 10
0.1468072223067592
 20
0.1911283155183218
 10
0.1467847560104761
 20
0.192318468526101
  0
LWPOLYLINE
  5
306C
330
2
100
AcDbEntity
  8
0
  6
Continuous
 62
     1
370
     0
100
AcDbPolyline
 90
        3
 70
   128
 43
0.0
 10
0.14579624723564
 20
0.1919367209569547
 10
0.1461781711743445
 20
0.1921163668325692
 10
0.146380365775491
 20
0.191757075749092
  0
LWPOLYLINE
  5
306D
330
2
100
AcDbEntity
  8
0
  6
Continuous
 62
     1
370
     0
100
AcDbPolyline
 90
        4
 70
   128
 43
0.0
 10
0.1457063820505124
 20
0.1904546436517123
 10
0.1460658407256309
 20
0.1905220104377217
 10
0.146380365775491
 20
0.1902749977760978
 10
0.1464028320717716
 20
0.1902076303223365
  0
LWPOLYLINE
  5
306E
330
2
100
AcDbEntity
  8
0
  6
Continuous
 62
     1
370
     0
100
AcDbPolyline
 90
        2
 70
   128
 43
0.0
 10
0.1469644853480365
 20
0.1927900386991787
 10
0.1470992810603362
 20
0.1935984448055634
  0
LWPOLYLINE
  5
306F
330
2
100
AcDbEntity
  8
0
  6
Continuous
 62
     1
370
     0
100
AcDbPolyline
 90
        5
 70
   128
 43
0.0
 10
0.1369110702560018
 20
0.2119519602687675
 10
0.1374186402225628
 20
0.2143364337219463
 10
0.1375201542158755
 20
0.2170253077431247
 10
0.1374186402225628
 20
0.2198663830499332
 10
0.1373171262292502
 20
0.2217435215553465
  0
LWPOLYLINE
  5
3070
330
2
100
AcDbEntity
  8
0
  6
Continuous
 62
     1
370
     0
100
AcDbPolyline
 90
        2
 70
   128
 43
0.0
 10
0.1187560051121601
 20
0.2264800411094149
 10
0.1193198012321303
 20
0.226874515355947
  0
LWPOLYLINE
  5
3071
330
2
100
AcDbEntity
  8
0
  6
Continuous
 62
     1
370
     0
100
AcDbPolyline
 90
        3
 70
   128
 43
0.0
 10
0.1194889402746605
 20
0.2253529712612531
 10
0.1205037724644454
 20
0.2251275576922719
 10
0.1215749836466122
 20
0.225183911251454
  0
LWPOLYLINE
  5
3072
330
2
100
AcDbEntity
  8
0
  6
Continuous
 62
     1
370
     0
100
AcDbPolyline
 90
        2
 70
   128
 43
0.0
 10
0.1194889402746605
 20
0.2243949620906425
 10
0.1203346334219175
 20
0.2240568414032971
  0
LINE
  5
309B
102
{ACAD_REACTORS
330
30E0
102
}
330
2
100
AcDbEntity
  8
Dimensione
100
AcDbLine
 10
0.1420948890370195
 20
0.0930494373909671
 30
0.0
 11
0.1804217726018021
 21
0.0870955340876144
 31
0.0
  0
LINE
  5
309C
102
{ACAD_REACTORS
330
30E0
102
}
330
2
100
AcDbEntity
  8
Dimensione
100
AcDbLine
 10
0.1656515261573589
 20
0.1053020271784852
 30
0.0
 11
0.2039784097221415
 21
0.0993481238751325
 31
0.0
  0
LINE
  5
309D
102
{ACAD_REACTORS
330
30C6
102
}
330
2
100
AcDbEntity
  8
Dimensione
100
AcDbLine
 10
0.1420948890370195
 20
0.0930494373909671
 30
0.0
 11
0.1206737625514367
 21
0.0819075976507026
 31
0.0
  0
LINE
  5
309E
102
{ACAD_REACTORS
330
30C6
102
}
330
2
100
AcDbEntity
  8
Dimensione
100
AcDbLine
 10
0.0920351830164482
 20
0.1008259801546634
 30
0.0
 11
0.0706140565308654
 21
0.089684140414399
 31
0.0
  0
DIMENSION
  5
309F
330
2
100
AcDbEntity
  8
Dimensione
100
AcDbDimension
  2
*D15
 10
0.0568573964956749
 20
0.2301004853621827
 30
0.0
 11
0.0568573964956749
 21
0.1637344416988391
 31
0.0
 70
    32
  1
255 cm
 71
     5
 42
0.1327320873266871
  3
Bovelacci
100
AcDbAlignedDimension
 13
0.1141440140359884
 23
0.0973683980354956
 33
0.0
 14
0.1161530441268703
 24
0.2301004853621826
 34
0.0
 50
90.0
100
AcDbRotatedDimension
  0
DIMENSION
  5
30AD
102
{ACAD_XDICTIONARY
360
30BB
102
}
102
{ACAD_REACTORS
330
30C6
102
}
330
2
100
AcDbEntity
  8
Dimensione
100
AcDbDimension
  2
*D16
 10
0.1206737625514367
 20
0.0819075976507026
 30
0.0
 11
0.0956439095411511
 21
0.0857958690325508
 31
0.0
 70
    33
  1
350 mm
 71
     5
 42
0.0506601301244047
  3
Bovelacci
100
AcDbAlignedDimension
 13
0.0706140565308654
 23
0.089684140414399
 33
0.0
 14
0.1206737625514367
 24
0.0819075976507026
 34
0.0
  0
DIMENSION
  5
30C7
102
{ACAD_XDICTIONARY
360
30D5
102
}
102
{ACAD_REACTORS
330
30E0
102
}
330
2
100
AcDbEntity
  8
Dimensione
100
AcDbDimension
  2
*D17
 10
0.2039784097221415
 20
0.0993481238751325
 30
0.0
 11
0.1922000911619718
 21
0.0932218289813735
 31
0.0
 70
    33
  1
350 mm
 71
     5
 42
0.0265526102091781
  3
Bovelacci
100
AcDbAlignedDimension
 13
0.1804217726018021
 23
0.0870955340876144
 33
0.0
 14
0.2039784097221415
 24
0.0993481238751325
 34
0.0
  0
LWPOLYLINE
  5
3151
330
2
100
AcDbEntity
  8
0
  6
Continuous
 62
     1
370
     0
100
AcDbPolyline
 90
        9
 70
   128
 43
0.0
 10
0.3099858393632644
 20
0.1056242394058131
 10
0.3099858393632644
 20
0.1093540563423482
 42
0.3265156300498512
 10
0.3110911325003638
 20
0.1104894312172492
 10
0.3143326869388844
 20
0.1113769245521687
 42
-0.5462934308230969
 10
0.31579843323712
 20
0.1140394043566033
 42
-0.2516488839919457
 10
0.3163621816465447
 20
0.1146451537343387
 10
0.3163621816465447
 20
0.1154199495665145
 42
-0.8112812201042446
 10
0.3162494320266211
 20
0.116701884361362
 10
0.3162494320266211
 20
0.1236548706701503
  0
ARC
  5
3152
330
2
100
AcDbEntity
  8
0
  6
Continuous
 62
     1
370
     0
100
AcDbCircle
 10
0.3216797736866658
 20
0.1424601821347199
 30
0.0
 40
0.0263244850799739
100
AcDbArc
 50
258.0952784808058
 51
280.9896561411341
  0
ARC
  5
3153
330
2
100
AcDbEntity
  8
0
  6
Continuous
 62
     1
370
     0
100
AcDbCircle
 10
0.3213107566456537
 20
0.1428665126356504
 30
0.0
 40
0.0278891057373638
100
AcDbArc
 50
259.7794593769917
 51
280.8848850379088
  0
LWPOLYLINE
  5
3154
330
2
100
AcDbEntity
  8
0
  6
Continuous
 62
     1
370
     0
100
AcDbPolyline
 90
        4
 70
   128
 43
0.0
 10
0.31579843323712
 20
0.1140394043566033
 42
0.3877862425418213
 10
0.3161770650450086
 20
0.1134282191471221
 42
0.0899322622117975
 10
0.3263821304768594
 20
0.1133893878568525
 42
0.2673370115826191
 10
0.3271387540278035
 20
0.1139880641427399
 42
-1.295342744674457
  0
LWPOLYLINE
  5
3155
330
2
100
AcDbEntity
  8
0
  6
Continuous
 62
     1
370
     0
100
AcDbPolyline
 90
        4
 70
   128
 43
0.0
 10
0.3143326869388844
 20
0.1113769245521687
 42
0.2639550332294433
 10
0.315734211126975
 20
0.1102304380238577
 42
0.0885242694183054
 10
0.3273625236055195
 20
0.1103128701536154
 42
0.3283394128818273
 10
0.3286905177900303
 20
0.1117309044731171
 42
-16.91194667305209
  0
LWPOLYLINE
  5
3156
330
2
100
AcDbEntity
  8
0
  6
Continuous
 62
     1
370
     0
100
AcDbPolyline
 90
        3
 70
   128
 43
0.0
 10
0.3110911325003638
 20
0.1104894312172492
 10
0.3246616213357267
 20
0.1090145637593767
 10
0.3311712603734097
 20
0.111446086120879
  0
LWPOLYLINE
  5
3157
330
2
100
AcDbEntity
  8
0
  6
Continuous
 62
     1
370
     0
100
AcDbPolyline
 90
        3
 70
   128
 43
0.0
 10
0.3099858393632644
 20
0.1093540563423482
 10
0.3250739727256056
 20
0.1076750412000984
 10
0.3320707423055376
 20
0.1106056512431331
  0
LWPOLYLINE
  5
3158
330
2
100
AcDbEntity
  8
0
  6
Continuous
 62
     1
370
     0
100
AcDbPolyline
 90
        3
 70
   128
 43
0.0
 10
0.3250037511694358
 20
0.1032912765767042
 10
0.3250739727256056
 20
0.1076750412000984
 42
-0.2574591619078772
 10
0.3246616213357267
 20
0.1090145637593767
 42
-0.8131799407212312
  0
ARC
  5
3159
330
2
100
AcDbEntity
  8
0
  6
Continuous
 62
     1
370
     0
100
AcDbCircle
 10
0.3214069334834044
 20
0.1841698274950458
 30
0.0
 40
0.0334157887155409
100
AcDbArc
 50
80.8893257274814
 51
98.87870894693829
  0
ARC
  5
315A
330
2
100
AcDbEntity
  8
0
  6
Continuous
 62
     1
370
     0
100
AcDbCircle
 10
0.3215560689615968
 20
0.1802330721920195
 30
0.0
 40
0.0384619449800945
100
AcDbArc
 50
82.75355102995925
 51
97.62083515459723
  0
LWPOLYLINE
  5
315B
330
2
100
AcDbEntity
  8
0
  6
Continuous
 62
     1
370
     0
100
AcDbPolyline
 90
        4
 70
   128
 43
0.0
 10
0.3158990304269118
 20
0.1142750268632285
 42
0.3944747122529336
 10
0.3163834094308002
 20
0.1137143023544061
 42
0.0642726241848362
 10
0.3263646145109778
 20
0.1137568042083413
 42
0.1658446072113343
 10
0.3271387540278035
 20
0.1142058664121
 42
-0.3007332763893182
  0
LWPOLYLINE
  5
315C
330
2
100
AcDbEntity
  8
0
  6
Continuous
 62
     1
370
     0
100
AcDbPolyline
 90
       39
 70
   129
 43
0.0
 10
0.317860454143549
 20
0.2287102587045439
 10
0.3178094196615417
 20
0.228426054550208
 10
0.3175615370508833
 20
0.228316745352538
 10
0.3172334576626208
 20
0.2283823309112054
 10
0.3170511909915763
 20
0.2285572258678698
 10
0.3169491217177534
 20
0.2287904189430959
 10
0.3168835057781394
 20
0.2291110594966542
 10
0.3166647860826945
 20
0.2292422308143147
 10
0.3164096130530414
 20
0.2294389874903169
 10
0.3162710904450096
 20
0.2296284569265404
 10
0.3162637997162059
 20
0.2297596280438766
 10
0.3163512878422311
 20
0.2298835119214313
 10
0.3163731597188324
 20
0.2299345230005397
 10
0.3163804504476362
 20
0.230160428835987
 10
0.3165043915980612
 20
0.2302915999533218
 10
0.3166793675403019
 20
0.2303426110324302
 10
0.3167595646277144
 20
0.2303571855119892
 10
0.3168251805673284
 20
0.2305976660273211
 10
0.3169199591123482
 20
0.2308162846229881
 10
0.3170511909915763
 20
0.230932881260764
 10
0.3172772014158244
 20
0.2309693176599878
 10
0.3175542466318887
 20
0.2309183065808794
 10
0.3177802570561367
 20
0.230757986304101
 10
0.317984395293974
 20
0.2306413898666493
 10
0.3180718834199986
 20
0.2305903787875409
 10
0.3182833123866398
 20
0.2306122407072057
 10
0.3185749387505018
 20
0.2305830915477621
 10
0.3188811465719713
 20
0.2304009093513188
 10
0.3191144474152139
 20
0.2301021305170984
 10
0.3191217381440177
 20
0.2298325010426484
 10
0.3190050877223957
 20
0.2295337222084294
 10
0.3189905062647889
 20
0.2293661146918707
 10
0.3190269595989977
 20
0.2290964850170952
 10
0.3189686343881874
 20
0.2287466953040919
 10
0.3188446932377624
 20
0.2285280767084248
 10
0.3186113920847107
 20
0.2284989275489812
 10
0.3182906031154429
 20
0.2285062147887614
 10
0.3181083364443984
 20
0.2285572258678698
 10
0.3179552326885682
 20
0.2286373859060963
  0
LWPOLYLINE
  5
315D
330
2
100
AcDbEntity
  8
0
  6
Continuous
 62
     1
370
     0
100
AcDbPolyline
 90
       12
 70
   129
 43
0.0
 10
0.3172334576626208
 20
0.2298252136025441
 10
0.3174375959004583
 20
0.2299345230005397
 10
0.3175834092372938
 20
0.2299490974800987
 10
0.317860454143549
 20
0.2298762246816525
 10
0.3179771048749794
 20
0.229686755245429
 10
0.3179989767515808
 20
0.2294171255706535
 10
0.3178823260201504
 20
0.2292349433742103
 10
0.3176781877823137
 20
0.2291620705757626
 10
0.3174448866292621
 20
0.2291985069749865
 10
0.3172844921446281
 20
0.2293078163729821
 10
0.3171678417230068
 20
0.2294681366497619
 10
0.3171386788077926
 20
0.2296721805655444
  0
LWPOLYLINE
  5
315E
330
2
100
AcDbEntity
  8
0
  6
Continuous
 62
     1
370
     0
100
AcDbPolyline
 90
        2
 70
   128
 43
0.0
 10
0.3172553295392229
 20
0.2299053738410961
 10
0.3168470524439305
 20
0.2302697382339826
  0
LWPOLYLINE
  5
315F
330
2
100
AcDbEntity
  8
0
  6
Continuous
 62
     1
370
     0
100
AcDbPolyline
 90
        2
 70
   128
 43
0.0
 10
0.3174011425662494
 20
0.2300292577186521
 10
0.3171095162023874
 20
0.2304446329903214
  0
LWPOLYLINE
  5
3160
330
2
100
AcDbEntity
  8
0
  6
Continuous
 62
     1
370
     0
100
AcDbPolyline
 90
        2
 70
   128
 43
0.0
 10
0.3175834092372938
 20
0.2300875560375393
 10
0.3174303051716545
 20
0.2305466551485383
  0
LWPOLYLINE
  5
3161
330
2
100
AcDbEntity
  8
0
  6
Continuous
 62
     1
370
     0
100
AcDbPolyline
 90
        4
 70
   128
 43
0.0
 10
0.3177729663273329
 20
0.2300146830387661
 10
0.3177656755985292
 20
0.2303498982722104
 10
0.3178458729957507
 20
0.2305029313092101
 10
0.317984395293974
 20
0.2305539423883185
  0
LWPOLYLINE
  5
3162
330
2
100
AcDbEntity
  8
0
  6
Continuous
 62
     1
370
     0
100
AcDbPolyline
 90
        2
 70
   128
 43
0.0
 10
0.3180062674803845
 20
0.2291985069749865
 10
0.318312474992045
 20
0.2288195681025395
  0
LWPOLYLINE
  5
3163
330
2
100
AcDbEntity
  8
0
  6
Continuous
 62
     1
370
     0
100
AcDbPolyline
 90
        2
 70
   128
 43
0.0
 10
0.3177510944507308
 20
0.2290600486178714
 10
0.317860454143549
 20
0.2287466953040919
  0
LWPOLYLINE
  5
3164
330
2
100
AcDbEntity
  8
0
  6
Continuous
 62
     1
370
     0
100
AcDbPolyline
 90
        2
 70
   128
 43
0.0
 10
0.3176563155959025
 20
0.2290454739379868
 10
0.3175979903850922
 20
0.2286446731458751
  0
LWPOLYLINE
  5
3165
330
2
100
AcDbEntity
  8
0
  6
Continuous
 62
     1
370
     0
100
AcDbPolyline
 90
        2
 70
   128
 43
0.0
 10
0.3174375959004583
 20
0.2291256341765388
 10
0.3172844921446281
 20
0.2287831317033157
  0
LWPOLYLINE
  5
3166
330
2
100
AcDbEntity
  8
0
  6
Continuous
 62
     1
370
     0
100
AcDbPolyline
 90
        2
 70
   128
 43
0.0
 10
0.3172188762050141
 20
0.2293005289328777
 10
0.3170147376573675
 20
0.2290673358576502
  0
LWPOLYLINE
  5
3167
330
2
100
AcDbEntity
  8
0
  6
Continuous
 62
     1
370
     0
100
AcDbPolyline
 90
        2
 70
   128
 43
0.0
 10
0.317160550994203
 20
0.2293661146918707
 10
0.3169491217177534
 20
0.2292130816548711
  0
LWPOLYLINE
  5
3168
330
2
100
AcDbEntity
  8
0
  6
Continuous
 62
     1
370
     0
100
AcDbPolyline
 90
        2
 70
   128
 43
0.0
 10
0.3170293191149749
 20
0.2296721805655444
 10
0.3164606475350487
 20
0.2296430314060994
  0
LWPOLYLINE
  5
3169
330
2
100
AcDbEntity
  8
0
  6
Continuous
 62
     1
370
     0
100
AcDbPolyline
 90
       55
 70
   128
 43
0.0
 10
0.317900929414669
 20
0.2283804254152929
 10
0.3180875702751484
 20
0.2275176107765329
 10
0.3178192740575718
 20
0.2275642493515133
 10
0.3176442984251402
 20
0.2274826317451352
 10
0.3177026236359506
 20
0.2273660353076835
 10
0.3178309392856198
 20
0.2271561613196228
 10
0.317842604203858
 20
0.2269696068193757
 10
0.3178542691220968
 20
0.2266081573624655
 10
0.3178542691220968
 20
0.2262700273933718
 10
0.3177259537822366
 20
0.2262350483619741
 10
0.3175615166035073
 20
0.2261436943365664
 10
0.317497174597384
 20
0.2259989918344172
 10
0.3174851106455033
 20
0.2258301721484131
 10
0.3175011962244859
 20
0.2256090989647089
 10
0.3175615166035073
 20
0.2255005720380153
 10
0.3176942222428564
 20
0.2253518500052237
 10
0.3177424786699964
 20
0.2252433230785301
 10
0.3178359687205149
 20
0.2248336136122506
 10
0.3180675996947122
 20
0.22458922715082
 10
0.3182670601305606
 20
0.2244477402731849
 10
0.318099770852678
 20
0.2243834279832318
 10
0.317861705461003
 20
0.2241390415218011
 10
0.3176429427021451
 20
0.2238882238113439
 10
0.3175786006960219
 20
0.2237145808888943
 10
0.3176172059616571
 20
0.2235216442193621
 10
0.3177909293472096
 20
0.223463763178437
 10
0.3179003107266383
 20
0.2235216442193621
 10
0.3180675996947122
 20
0.2235152129703341
 10
0.3182477574977426
 20
0.223457331929409
 10
0.3183893097253293
 20
0.2233801573417255
 10
0.3184021782504771
 20
0.2233222763008005
 10
0.3184021782504771
 20
0.2230843210883993
 10
0.3181190734854961
 20
0.2232579640108474
 10
0.317861705461003
 20
0.2232451017131185
 10
0.3176944161831198
 20
0.2231036148354819
 10
0.3176429427021451
 20
0.2229299717127067
 10
0.3176686794426324
 20
0.2226662917045191
 10
0.3178295346128456
 20
0.2225826856674834
 10
0.3180675996947122
 20
0.222563392120725
 10
0.3181769810741408
 20
0.2226212729613244
 10
0.3181122468501678
 20
0.2225029403029881
 10
0.3181251150655073
 20
0.2222971413357254
 10
0.3179996059731084
 20
0.2221490964030364
 10
0.3176701748893639
 20
0.2223137356970415
 10
0.3174725163010792
 20
0.2227582617307591
 10
0.3174066302082539
 20
0.2235814582007877
 10
0.3172913293134532
 20
0.2252113871914123
 10
0.3169845031137627
 20
0.2263187211073933
 10
0.3165340718938516
 20
0.2269998271191315
 10
0.3162337848269892
 20
0.2273346080469456
 10
0.3159796955082674
 20
0.227600124038107
 10
0.3159450468099012
 20
0.2276809331308698
 10
0.316407027389395
 20
0.227865640029267
 10
0.3170191515023198
 20
0.2280503467273372
 10
0.3178507165454093
 20
0.2282235092693
  0
LWPOLYLINE
  5
316A
330
2
100
AcDbEntity
  8
0
  6
Continuous
 62
     1
370
     0
100
AcDbPolyline
 90
      105
 70
   128
 43
0.0
 10
0.3181972016702207
 20
0.2283389508303905
 10
0.3183819939020183
 20
0.227530858901126
 10
0.318580330041992
 20
0.2277214681892982
 10
0.3187634809071473
 20
0.2277811635780448
 10
0.3189068167035823
 20
0.2277533057166074
 10
0.3190182998254239
 20
0.227629935072918
 10
0.3190262628391681
 20
0.2274548281719013
 10
0.3189545950958545
 20
0.2271444114292516
 10
0.3188749643387973
 20
0.2269334873350524
 10
0.3189665397713749
 20
0.2270369596493775
 10
0.3191098752580015
 20
0.2270369596493775
 10
0.3191576536502736
 20
0.2268936902756714
 10
0.3191378435507588
 20
0.2266457909067238
 10
0.3190940468202631
 20
0.2264985420674701
 10
0.3190741391309984
 20
0.2263512930278909
 10
0.3192214559695923
 20
0.2264866028695252
 10
0.3193727547797716
 20
0.2265383391268512
 10
0.3195320162938859
 20
0.2265343592606525
 10
0.319635536401984
 20
0.226418947948708
 10
0.31965146273928
 20
0.2262398613818195
 10
0.3195761708534637
 20
0.225979569278053
 10
0.3194686690835893
 20
0.2256691527357288
 10
0.3193452412862272
 20
0.2254741473050223
 10
0.3192297765026086
 20
0.2251876087579355
 10
0.319118293380767
 20
0.2249488268023003
 10
0.3189829209078845
 20
0.2246901461166497
 10
0.3188833824615634
 20
0.2244951408862686
 10
0.3190625516649417
 20
0.2244075874357602
 10
0.319193942785857
 20
0.2242285008688717
 10
0.3192974628939544
 20
0.2240374753043638
 10
0.3194129276775723
 20
0.2239459421879837
 10
0.3195642261779431
 20
0.223941962321785
 10
0.3197035803126019
 20
0.2238981855965308
 10
0.3196916656885278
 20
0.2237773707052423
 10
0.3196319426207352
 20
0.2236818579229877
 10
0.3195324041744134
 20
0.2236500201953529
 10
0.3192974929454015
 20
0.2236420608636066
 10
0.3192059175128238
 20
0.223665939059171
 10
0.31911036041847
 20
0.2236619593932978
 10
0.3189710065936195
 20
0.223689817254734
 10
0.3187759110529444
 20
0.2236341015318618
 10
0.3187520217019043
 20
0.2236221623339168
 10
0.31866840928307
 20
0.2234749134946631
 10
0.3186086862152776
 20
0.2233356239871556
 10
0.3186047045535013
 20
0.2231724560837583
 10
0.3187241509988954
 20
0.2233316441209569
 10
0.3188555418100016
 20
0.2233674615144649
 10
0.3190506373506767
 20
0.2233794007124099
 10
0.319285548269881
 20
0.2233037862595208
 10
0.3194010130534988
 20
0.2231684764178851
 10
0.3194209207427635
 20
0.2229456131257424
 10
0.3193452716474826
 20
0.2228023439523618
 10
0.3191700834862624
 20
0.2227466282294882
 10
0.3190227666476686
 20
0.2227864250885438
 10
0.3189390563292769
 20
0.2228170266076769
 10
0.3188912776271957
 20
0.2227732498824227
 10
0.3189231299919801
 20
0.2227414123551135
 10
0.3189788717078055
 20
0.2227334530233672
 10
0.3189868347215496
 20
0.2223792595554634
 10
0.3189350746675006
 20
0.2223633406916453
 10
0.3189987793970701
 20
0.2223036453029
 10
0.3192257273025295
 20
0.2223315031643361
 10
0.3194964722482945
 20
0.2225185490629708
 10
0.3196995308027137
 20
0.222896620726439
 10
0.3198189772481086
 20
0.2232627531919623
 10
0.319930844842582
 20
0.2238653360249252
 10
0.3200144572614154
 20
0.2243946361935203
 10
0.3201342810538411
 20
0.2255381977695806
 10
0.3202338198099712
 20
0.2262227063094998
 10
0.3203696743452349
 20
0.226904653888556
 10
0.3206608328979172
 20
0.2278372336766816
 10
0.3209753748839872
 20
0.2283983715729115
 10
0.3212819535465038
 20
0.2287883822339977
 10
0.3216164032218383
 20
0.2289475702711964
 10
0.3219428895736195
 20
0.2289873673305775
 10
0.3223012285999942
 20
0.2288878746821255
 10
0.3225560472084625
 20
0.2286530723923635
 10
0.322814847478707
 20
0.2282630617312758
 10
0.3229744770455902
 20
0.2277644255833618
 10
0.3230182737760868
 20
0.2271794094915689
 10
0.3229575559124669
 20
0.2264288027600923
 10
0.3227912527557667
 20
0.2259733611916038
 10
0.3225980894921298
 20
0.2256541982387446
 10
0.3223615632302164
 20
0.22556357179546
 10
0.3220422523583919
 20
0.2256147954198974
 10
0.3217268841124437
 20
0.225886674950074
 10
0.321490357540722
 20
0.2263082851518082
 10
0.3214112785530095
 20
0.2266404874901172
 10
0.3213797415735109
 20
0.227113321316286
 10
0.3214073365467505
 20
0.2274561260806499
 10
0.3214861785307852
 20
0.2277240652087475
 10
0.3216004995005783
 20
0.2278422736652903
 10
0.3217227047926986
 20
0.2278895570879715
 10
0.3218606787294731
 20
0.2278383334635354
 10
0.321967115376939
 20
0.2276216177595483
 10
0.3220459576707828
 20
0.2272827535975905
 10
0.322057783999369
 20
0.2269793518524007
 10
0.3220301890261287
 20
0.2267311139334005
 10
0.3219474050358348
 20
0.2265695624562569
 10
0.3218370260723008
 20
0.2265538012485875
 10
0.3217345311212847
 20
0.226616845878938
 10
0.3216202101514916
 20
0.226786277959917
 10
0.3216004995005783
 20
0.2270699782956839
 10
0.3216478048149228
 20
0.2273300370202731
 10
0.3217227047926986
 20
0.2274088426579674
  0
LWPOLYLINE
  5
316B
330
2
100
AcDbEntity
  8
0
  6
Continuous
 62
     1
370
     0
100
AcDbPolyline
 90
        2
 70
   128
 43
0.0
 10
0.3217976047704743
 20
0.2279053180953153
 10
0.3222667155978511
 20
0.2279998849406804
  0
LWPOLYLINE
  5
316C
330
2
100
AcDbEntity
  8
0
  6
Continuous
 62
     1
370
     0
100
AcDbPolyline
 90
       11
 70
   128
 43
0.0
 10
0.3219276943849216
 20
0.2264986374223965
 10
0.3223219049247135
 20
0.2263055635299128
 10
0.3224795892025922
 20
0.2263764885637732
 10
0.3225978524884527
 20
0.226506517825905
 10
0.3226727524662284
 20
0.2267665765504941
 10
0.3226885208010736
 20
0.2270936199068631
 10
0.3226609261376423
 20
0.2274797676918277
 10
0.3226057365009715
 20
0.2277004235975697
 10
0.3225466048580408
 20
0.2278462138670438
 10
0.322459878551679
 20
0.2279407807124089
 10
0.3222943102612823
 20
0.2280038253427595
  0
LWPOLYLINE
  5
316D
330
2
100
AcDbEntity
  8
0
  6
Continuous
 62
     1
370
     0
100
AcDbPolyline
 90
       12
 70
   128
 43
0.0
 10
0.3225042930407789
 20
0.2279619655319697
 10
0.3223296427075117
 20
0.2282079499897085
 10
0.3220835445951281
 20
0.2284221942783188
 10
0.321861262409117
 20
0.228430129370682
 10
0.321575470982844
 20
0.2283190396801952
 10
0.3212817410177167
 20
0.2280333803616145
 10
0.3209721333552626
 20
0.2274223870639383
 10
0.320789544483141
 20
0.226898678379982
 10
0.3206379972063615
 20
0.2262693088258953
 10
0.3205427331910648
 20
0.2256741855126197
 10
0.3204554080244308
 20
0.2250235171537759
 10
0.3203045736175362
 20
0.2239840350785549
  0
LWPOLYLINE
  5
316E
330
2
100
AcDbEntity
  8
0
  6
Continuous
 62
     1
370
     0
100
AcDbPolyline
 90
        3
 70
   128
 43
0.0
 10
0.3205903650438087
 20
0.2241586045063219
 10
0.3208682179312274
 20
0.2257059254814241
 10
0.3213445370782853
 20
0.2267850826178126
  0
LWPOLYLINE
  5
316F
330
2
100
AcDbEntity
  8
0
  6
Continuous
 62
     1
370
     0
100
AcDbPolyline
 90
       11
 70
   128
 43
0.0
 10
0.3202540252254231
 20
0.2236118636012818
 10
0.3201353722001819
 20
0.2230625669438394
 10
0.3199792499779117
 20
0.2226568365424563
 10
0.3197544335565026
 20
0.2223010420733607
 10
0.319560841827395
 20
0.2221137820267937
 10
0.3193547601594044
 20
0.2220014258786593
 10
0.3191174544187306
 20
0.2219327637213567
 10
0.3189238623798138
 20
0.2219639738292803
 10
0.3187614953430071
 20
0.2220513618109468
 10
0.3186490871323027
 20
0.22220741215024
 10
0.3186116176254652
 20
0.22232601023983
  0
LWPOLYLINE
  5
3170
330
2
100
AcDbEntity
  8
0
  6
Continuous
 62
     1
370
     0
100
AcDbPolyline
 90
        8
 70
   128
 43
0.0
 10
0.319242352258509
 20
0.2219327637213567
 10
0.3194421888021538
 20
0.2219452478045907
 10
0.3197044744205914
 20
0.2220451198694912
 10
0.3198668417672072
 20
0.2221699601008623
 10
0.3200354539283595
 20
0.2223821883138986
 10
0.3202040660895119
 20
0.2226568365424563
 10
0.3203227191147537
 20
0.2229190008881057
 10
0.3203789230652014
 20
0.2231187450179067
  0
LWPOLYLINE
  5
3171
330
2
100
AcDbEntity
  8
0
  6
Continuous
 62
     1
370
     0
100
AcDbPolyline
 90
       29
 70
   128
 43
0.0
 10
0.3179638314298229
 20
0.2270828221634714
 10
0.3180964692210608
 20
0.2271859370971498
 10
0.3181701569172825
 20
0.2271957576528779
 10
0.3181554193160765
 20
0.2271221039857315
 10
0.3181161191494626
 20
0.2266900029392333
 10
0.3180129565606373
 20
0.2264395806712621
 10
0.3179638314298229
 20
0.2262480813370071
 10
0.3180866442568596
 20
0.2263413759152843
 10
0.3182389319764993
 20
0.2264101192044032
 10
0.3183027947085197
 20
0.2263757475598437
 10
0.3183027947085197
 20
0.226277542803866
 10
0.31825858221471
 20
0.2261302354695744
 10
0.3181947194826897
 20
0.225982928335607
 10
0.3181308567506693
 20
0.225899454313058
 10
0.3181947194826897
 20
0.2258896337573298
 10
0.3182438446135041
 20
0.2257766982679233
 10
0.3181898068456848
 20
0.2256834036896461
 10
0.3181062941852613
 20
0.2255851989336683
 10
0.318071906655653
 20
0.2254673530662343
 10
0.3180473440902457
 20
0.22525621282085
 10
0.3180620816914525
 20
0.2251285465980134
 10
0.3181455943518752
 20
0.2250499827531663
 10
0.3182340196493029
 20
0.2250450725754643
 10
0.3182978820715149
 20
0.2250990851311545
 10
0.3183322699109325
 20
0.2251580080648722
 10
0.3183470072023293
 20
0.2253347766656971
 10
0.3183273572739269
 20
0.2255066350888213
 10
0.31825858221471
 20
0.2256097500224996
 10
0.3182241943752933
 20
0.2256392114893585
  0
LWPOLYLINE
  5
3172
330
2
100
AcDbEntity
  8
0
  6
Continuous
 62
     1
370
     0
100
AcDbPolyline
 90
        4
 70
   128
 43
0.0
 10
0.3183764824047421
 20
0.2263904782932739
 10
0.3184845576305721
 20
0.2264199397601313
 10
0.3185828078922008
 20
0.2263364655372581
 10
0.3186908831180316
 20
0.2261056843807417
  0
LWPOLYLINE
  5
3173
330
2
100
AcDbEntity
  8
0
  6
Continuous
 62
     1
370
     0
100
AcDbPolyline
 90
        8
 70
   128
 43
0.0
 10
0.3184649077021696
 20
0.2264592215823928
 10
0.3183617448035353
 20
0.2267194644060922
 10
0.3182880571073137
 20
0.2269109637403472
 10
0.3182340196493029
 20
0.2270975526965746
 10
0.3182880571073137
 20
0.2272153985640087
 10
0.3183322699109325
 20
0.2272104883863067
 10
0.3183568324763396
 20
0.227274321497725
 10
0.3183666574405408
 20
0.227426538809393
  0
LWPOLYLINE
  5
3174
330
2
100
AcDbEntity
  8
0
  6
Continuous
 62
     1
370
     0
100
AcDbPolyline
 90
        5
 70
   128
 43
0.0
 10
0.3190961151033333
 20
0.2251803527689292
 10
0.3190175150799153
 20
0.2257302994825359
 10
0.3188917547326371
 20
0.2261388314356771
 10
0.3188838945753916
 20
0.2264845122728759
 10
0.3188524545660238
 20
0.2268066240167179
  0
LWPOLYLINE
  5
3175
330
2
100
AcDbEntity
  8
0
  6
Continuous
 62
     1
370
     0
100
AcDbPolyline
 90
        6
 70
   128
 43
0.0
 10
0.318346058877812
 20
0.2244299375486063
 10
0.3184371026786119
 20
0.2243996036643067
 10
0.3185281464794113
 20
0.2244602716332315
 10
0.3186928925374435
 20
0.224503605639187
 10
0.3187535884046433
 20
0.2244992721985261
 10
0.318814284271843
 20
0.2244992721985261
  0
LWPOLYLINE
  5
3176
330
2
100
AcDbEntity
  8
0
  6
Continuous
 62
     1
370
     0
100
AcDbPolyline
 90
        4
 70
   128
 43
0.0
 10
0.3183200464075562
 20
0.223645589196187
 10
0.318294033627492
 20
0.2238752603492496
 10
0.31830270455418
 20
0.2241049315023108
 10
0.3183764068114122
 20
0.2242912682487668
  0
LWPOLYLINE
  5
3177
330
2
100
AcDbEntity
  8
0
  6
Continuous
 62
     1
370
     0
100
AcDbPolyline
 90
        2
 70
   128
 43
0.0
 10
0.3180902690189805
 20
0.2240052627677673
 10
0.3181379584961486
 20
0.2242436008021504
  0
LWPOLYLINE
  5
3178
330
2
100
AcDbEntity
  8
0
  6
Continuous
 62
     1
370
     0
100
AcDbPolyline
 90
        5
 70
   128
 43
0.0
 10
0.3188489676687869
 20
0.2238145925806504
 10
0.3187622593313313
 20
0.223996596086771
 10
0.3187015634641316
 20
0.2240832642990075
 10
0.318679886147411
 20
0.224178599392566
 10
0.318679886147411
 20
0.2242956016894277
  0
LWPOLYLINE
  5
3179
330
2
100
AcDbEntity
  8
0
  6
Continuous
 62
     1
370
     0
100
AcDbPolyline
 90
        4
 70
   128
 43
0.0
 10
0.3184006499640206
 20
0.2227749438346341
 10
0.3183203013801394
 20
0.2229164449353792
 10
0.3181902133147362
 20
0.2230082294602299
 10
0.318128995419829
 20
0.2230426487822518
  0
LWPOLYLINE
  5
317A
330
2
100
AcDbEntity
  8
0
  6
Continuous
 62
     1
370
     0
100
AcDbPolyline
 90
        2
 70
   128
 43
0.0
 10
0.3184236067907889
 20
0.2227749438346341
 10
0.318404476101815
 20
0.2230005808332943
  0
LWPOLYLINE
  5
317B
330
2
100
AcDbEntity
  8
0
  6
Continuous
 62
     1
370
     0
100
AcDbPolyline
 90
        3
 70
   128
 43
0.0
 10
0.3185230860636432
 20
0.2227864168751995
 10
0.3185498690282063
 20
0.2230044052469256
 10
0.3186034346475237
 20
0.2231153114392773
  0
LWPOLYLINE
  5
317C
330
2
100
AcDbEntity
  8
0
  6
Continuous
 62
     1
370
     0
100
AcDbPolyline
 90
        3
 70
   128
 43
0.0
 10
0.3182016917281203
 20
0.2226869837234132
 10
0.3182705618986172
 20
0.2227367002993063
 10
0.3188253500200007
 20
0.2227519977535031
  0
LWPOLYLINE
  5
317D
330
2
100
AcDbEntity
  8
0
  6
Continuous
 62
     1
370
     0
100
AcDbPolyline
 90
        2
 70
   128
 43
0.0
 10
0.3181902133147362
 20
0.222323670037639
 10
0.3188712633637292
 20
0.2223504405324012
  0
LWPOLYLINE
  5
317E
330
2
100
AcDbEntity
  8
0
  6
Continuous
 62
     1
370
     0
100
AcDbPolyline
 90
       17
 70
   128
 43
0.0
 10
0.3228381469539286
 20
0.2325396464164665
 10
0.3228122141045164
 20
0.2321076345148048
 10
0.3228986566260828
 20
0.231710183565275
 10
0.3230628970762699
 20
0.2312522509495134
 10
0.3231147624652867
 20
0.2310880864268818
 10
0.3231234067484241
 20
0.2308720802757261
 10
0.3232098492699905
 20
0.2307424767052263
 10
0.3233308683044898
 20
0.2302845440894647
 10
0.323391377976644
 20
0.2294723617143412
 10
0.3240483400872014
 20
0.2294723617143412
 10
0.3241607151483723
 20
0.230120379566833
 10
0.3242558019530761
 20
0.2304487086120963
 10
0.3245756385703129
 20
0.2307943181334262
 10
0.3245842828534503
 20
0.2310103242845833
 10
0.3248436101083418
 20
0.2311917692832802
 10
0.3250424273812702
 20
0.231442336186245
 10
0.3251634467255786
 20
0.231736104279375
  0
LWPOLYLINE
  5
317F
330
2
100
AcDbEntity
  8
0
  6
Continuous
 62
     1
370
     0
100
AcDbPolyline
 90
       14
 70
   128
 43
0.0
 10
0.3125350961469111
 20
0.2270762987647247
 10
0.3124381176501122
 20
0.2273864867356838
 10
0.3122441603467048
 20
0.2275609674192669
 10
0.3120211095252384
 20
0.2276579013104358
 10
0.3118659436825124
 20
0.2277257547537975
 10
0.3117301737250315
 20
0.2284430645868845
 10
0.3116331952282319
 20
0.2287823326049995
 10
0.3114004464641431
 20
0.2289762001870103
 10
0.3114004464641431
 20
0.229170067568697
 10
0.3111773956426767
 20
0.2293251615541765
 10
0.3110028342245141
 20
0.2295578025323958
 10
0.3109155536703378
 20
0.2298776838524073
 10
0.3109349492457737
 20
0.2301975651724174
 10
0.3109349492457737
 20
0.2303623525069494
  0
LWPOLYLINE
  5
3180
330
2
100
AcDbEntity
  8
0
  6
Continuous
 62
     1
370
     0
100
AcDbPolyline
 90
        5
 70
   128
 43
0.0
 10
0.3114616947203057
 20
0.2291473224140175
 10
0.3122426686176775
 20
0.2291580157878362
 10
0.3132429570432524
 20
0.2292114824566095
 10
0.3152189319832872
 20
0.2293826385386202
 10
0.3162566645113838
 20
0.22951095842348
  0
LWPOLYLINE
  5
3181
330
2
100
AcDbEntity
  8
0
  6
Continuous
 62
     1
370
     0
100
AcDbPolyline
 90
        5
 70
   128
 43
0.0
 10
0.3192210752146651
 20
0.2300135279620822
 10
0.3202767450485144
 20
0.2302396383298385
 10
0.3212893263746209
 20
0.2305734202345128
 10
0.3224128842852973
 20
0.2309251699319549
 10
0.3230128688530125
 20
0.2310902437319145
  0
LWPOLYLINE
  5
3182
330
2
100
AcDbEntity
  8
0
  6
Continuous
 62
     1
370
     0
100
AcDbPolyline
 90
        4
 70
   128
 43
0.0
 10
0.3191779867069223
 20
0.2297874175943261
 10
0.3203629220640014
 20
0.2300673638307041
 10
0.3219033384619361
 20
0.2305303516598096
 10
0.3229482362463019
 20
0.2308318320833765
  0
LWPOLYLINE
  5
3183
330
2
100
AcDbEntity
  8
0
  6
Continuous
 62
     1
370
     0
100
AcDbPolyline
 90
        2
 70
   128
 43
0.0
 10
0.3232356997102816
 20
0.2308566846620463
 10
0.3245226649954755
 20
0.2308090412544874
  0
LWPOLYLINE
  5
3184
330
2
100
AcDbEntity
  8
0
  6
Continuous
 62
     1
370
     0
100
AcDbPolyline
 90
        2
 70
   128
 43
0.0
 10
0.3231933305784053
 20
0.2310949012991925
 10
0.3244802958635993
 20
0.2310154956867019
  0
LWPOLYLINE
  5
3185
330
2
100
AcDbEntity
  8
0
  6
Continuous
 62
     1
370
     0
100
AcDbPolyline
 90
        5
 70
   128
 43
0.0
 10
0.3183149897094929
 20
0.2282511668052614
 10
0.3189079794157392
 20
0.2283358403767504
 10
0.3195480318560965
 20
0.2284205139482395
 10
0.3202633845471063
 20
0.2284487386056201
 10
0.3209410871127893
 20
0.2284393303197175
  0
LWPOLYLINE
  5
3186
330
2
100
AcDbEntity
  8
0
  6
Continuous
 62
     1
370
     0
100
AcDbPolyline
 90
        5
 70
   128
 43
0.0
 10
0.3189456295410658
 20
0.2285145958056297
 10
0.3202163218129959
 20
0.2287121676059883
 10
0.3211199254404462
 20
0.2288815149492919
 10
0.3221082416175235
 20
0.2291449439496603
 10
0.3233318711553434
 20
0.2294554139788871
  0
LWPOLYLINE
  5
3187
330
2
100
AcDbEntity
  8
0
  6
Continuous
 62
     1
370
     0
100
AcDbPolyline
 90
        6
 70
   128
 43
0.0
 10
0.311920025133362
 20
0.227733815249909
 10
0.3132001300140759
 20
0.2277996726502442
 10
0.3142825716593739
 20
0.2279125706787882
 10
0.315666214307283
 20
0.2280442852791358
 10
0.3169557317967807
 20
0.2281759998794821
 10
0.3175204839864849
 20
0.2282700817368736
  0
LWPOLYLINE
  5
3188
330
2
100
AcDbEntity
  8
0
  6
Continuous
 62
     1
370
     0
100
AcDbPolyline
 90
       18
 70
   128
 43
0.0
 10
0.3184302562155245
 20
0.2222344641022933
 42
-0.6969890211612863
 10
0.3173808754988602
 20
0.2220893339052564
 42
-0.0031023912712712
 10
0.3168325880940225
 20
0.2242356190339511
 42
0.2042074380527084
 10
0.3152939943008367
 20
0.2268890208891902
 42
0.2103675733677307
 10
0.3139278195984558
 20
0.2272056685553946
 42
0.4712843350415534
 10
0.3129840371868386
 20
0.2254904940640523
 42
0.3581351055493958
 10
0.3139740188956406
 20
0.224942957466228
 42
0.2709800826645485
 10
0.3146010073215418
 20
0.2254838971458582
 42
0.4461401655355897
 10
0.3141918147414566
 20
0.2262161448489139
 42
0.7646613859064245
 10
0.3141324160434027
 20
0.2261039988422017
 42
-0.5302436139951089
 10
0.3140640663515699
 20
0.2254031790008592
 42
-1.282212929955851
 10
0.3141588154647602
 20
0.2266779225118296
 42
-0.4412979024662583
 10
0.314878202175221
 20
0.2251804433160433
 42
-0.6699211494341299
 10
0.3124956463426822
 20
0.2256092367886358
 42
-0.1956855568393625
 10
0.3127662413410226
 20
0.2271462970929407
 42
-0.4124404183914951
 10
0.3154787911797647
 20
0.2273046209260429
 42
-0.1575891902831175
 10
0.3170836406675896
 20
0.2245912768810733
 42
-0.018704303524191
 10
0.3174202345291319
 20
0.2227837467369526
 42
0.8630923180374331
  0
LWPOLYLINE
  5
3189
330
2
100
AcDbEntity
  8
0
  6
Continuous
 62
     1
370
     0
100
AcDbPolyline
 90
       44
 70
   128
 43
0.0
 10
0.3175596428803185
 20
0.2185146684476108
 10
0.3177150739193154
 20
0.218744599823465
 10
0.3178145494744651
 20
0.2189310307228939
 10
0.317764811541986
 20
0.2191982480783072
 10
0.3177088566777562
 20
0.2193101066179639
 10
0.317590729088118
 20
0.2193660358877931
 10
0.3173544739088419
 20
0.2192293199616541
 10
0.3175161221893989
 20
0.2194343939510246
 10
0.317628032537477
 20
0.219620824650128
 10
0.3176653359868364
 20
0.2198693991159238
 10
0.3175969463296774
 20
0.219931542682292
 10
0.3174415152906804
 20
0.2199253283857529
 10
0.3173171707692914
 20
0.2198818279093277
 10
0.3175472083971984
 20
0.2200434012219488
 10
0.3175782946049979
 20
0.2202174033279739
 10
0.317590729088118
 20
0.220441120407289
 10
0.3174974704647195
 20
0.2205591932434849
 10
0.3172798673199319
 20
0.2205343356566772
 10
0.3172985190446113
 20
0.220596479423371
 10
0.3174415152906804
 20
0.2207456239425883
 10
0.317528556672519
 20
0.2210004127049232
 10
0.3174415152906804
 20
0.22111227124458
 10
0.3173047362861713
 20
0.2211184857414447
 10
0.3171803914549732
 20
0.2210749850646954
 10
0.3173855601166414
 20
0.221248987170719
 10
0.3174974704647195
 20
0.2214416323666871
 10
0.3174415152906804
 20
0.2215348478164008
 10
0.3174536337688973
 20
0.2217371767457982
 10
0.3173728096286188
 20
0.2219236074449015
 10
0.3172360306241098
 20
0.2220230371911544
 10
0.3169997754448336
 20
0.2220168228946153
 10
0.316844344715645
 20
0.2219608936247876
 10
0.3167510860922464
 20
0.2218428207885902
 10
0.3168754309234445
 20
0.2221100383443304
 10
0.3169189516143635
 20
0.2222156823871225
 10
0.317080599585112
 20
0.2223523983132615
 10
0.3171676409669506
 20
0.2225264004192866
 10
0.3171800754500706
 20
0.2227314744086586
 10
0.3171054685513516
 20
0.2228681903347976
 10
0.3169127343728034
 20
0.2228930477212797
 10
0.3170557306188726
 20
0.2229986919643974
 10
0.3170495133773126
 20
0.2231291933936717
 10
0.3169624723052831
 20
0.2232659095201362
 10
0.3170308616526332
 20
0.2233715535629283
  0
LWPOLYLINE
  5
318A
330
2
100
AcDbEntity
  8
0
  6
Continuous
 62
     1
370
     0
100
AcDbPolyline
 90
       34
 70
   128
 43
0.0
 10
0.3169002998896841
 20
0.2238127732246921
 10
0.316831910232525
 20
0.2238314163146352
 10
0.3166453929857285
 20
0.2238438449077135
 10
0.3165645691552583
 20
0.2238127732246921
 10
0.3166826964350873
 20
0.2239681322407742
 10
0.316732434367567
 20
0.2241359198499345
 10
0.3166702619519679
 20
0.2242912788660166
 10
0.3165645691552583
 20
0.2243347795427673
 10
0.3165334829474589
 20
0.2244031374056748
 10
0.3165334829474589
 20
0.2245584964217568
 10
0.3164650932902997
 20
0.2247387130246452
 10
0.3162723588019431
 20
0.2248567858608425
 10
0.3161542315221142
 20
0.2248008565910134
 10
0.3159988004831166
 20
0.2246268544849884
 10
0.3159366280675175
 20
0.2246392830780667
 10
0.3158931073765986
 20
0.2247014268447605
 10
0.3157749800967688
 20
0.2245647109186201
 10
0.3157749800967688
 20
0.2244901385588494
 10
0.3156817214733704
 20
0.2245584964217568
 10
0.3155760283668524
 20
0.2246579261680097
 10
0.3153895114298643
 20
0.2247387130246452
 10
0.3151719079752676
 20
0.2247138554378388
 10
0.3150413459025101
 20
0.2246144256915845
 10
0.3149480875889206
 20
0.2245149959453316
 10
0.3149107841395611
 20
0.2243907088125964
 10
0.314898349656441
 20
0.2245149959453316
 10
0.3147864393083629
 20
0.2245087816487924
 10
0.314742918617444
 20
0.2244404235855594
 10
0.3147367013758839
 20
0.2243969231091357
 10
0.3146993979265245
 20
0.2244466378820986
 10
0.3145626189220152
 20
0.2244217804956164
 10
0.3144693602986174
 20
0.2243720657226534
 10
0.3143885361583383
 20
0.2242912788660166
 10
0.3143698844336588
 20
0.2242477783895928
  0
LWPOLYLINE
  5
318B
330
2
100
AcDbEntity
  8
0
  6
Continuous
 62
     1
370
     0
100
AcDbPolyline
 90
        4
 70
   128
 43
0.0
 10
0.3149418703473605
 20
0.2240799907804324
 10
0.3148050910330431
 20
0.2241483486433384
 10
0.3147615703421235
 20
0.2242602071829966
 10
0.3147242668927639
 20
0.2243409938393065
  0
LWPOLYLINE
  5
318C
330
2
100
AcDbEntity
  8
0
  6
Continuous
 62
     1
370
     0
100
AcDbPolyline
 90
        4
 70
   128
 43
0.0
 10
0.3156319835408914
 20
0.2239370603574287
 10
0.3152402976324267
 20
0.2240364901036816
 10
0.3150351289707591
 20
0.2241234912568562
 10
0.3149418703473605
 20
0.2243161364528243
  0
LWPOLYLINE
  5
318D
330
2
100
AcDbEntity
  8
0
  6
Continuous
 62
     1
370
     0
100
AcDbPolyline
 90
        3
 70
   128
 43
0.0
 10
0.3158433694441189
 20
0.2239246317643504
 10
0.315899324618158
 20
0.2241483486433384
 10
0.3158309349609996
 20
0.2244652809720416
  0
LWPOLYLINE
  5
318E
330
2
100
AcDbEntity
  8
0
  6
Continuous
 62
     1
370
     0
100
AcDbPolyline
 90
        3
 70
   128
 43
0.0
 10
0.3163780519084611
 20
0.2240240615106033
 10
0.3164402243240603
 20
0.2242042779131675
 10
0.3165148312227793
 20
0.2242788502729382
  0
LWPOLYLINE
  5
318F
330
2
100
AcDbEntity
  8
0
  6
Continuous
 62
     1
370
     0
100
AcDbPolyline
 90
        2
 70
   128
 43
0.0
 10
0.3161977522130331
 20
0.2240862050769716
 10
0.316185317729913
 20
0.2244466378820986
  0
LWPOLYLINE
  5
3190
330
2
100
AcDbEntity
  8
0
  6
Continuous
 62
     1
370
     0
100
AcDbPolyline
 90
        4
 70
   128
 43
0.0
 10
0.3164897776105376
 20
0.2222455487117651
 10
0.3165208638183372
 20
0.2228980566594387
 10
0.3166327741664152
 20
0.2233952055910317
 10
0.3167260327898138
 20
0.2235567789036529
  0
LWPOLYLINE
  5
3191
330
2
100
AcDbEntity
  8
0
  6
Continuous
 62
     1
370
     0
100
AcDbPolyline
 90
        3
 70
   128
 43
0.0
 10
0.3162908261904294
 20
0.2231404168286967
 10
0.3163343468813491
 20
0.2235194927237668
 10
0.3163965189871391
 20
0.2236748517398488
  0
LWPOLYLINE
  5
3192
330
2
100
AcDbEntity
  8
0
  6
Continuous
 62
     1
370
     0
100
AcDbPolyline
 90
        4
 70
   128
 43
0.0
 10
0.3165830362339363
 20
0.2221336903724324
 10
0.3166762948573341
 20
0.2225562667439291
 10
0.3167757704124836
 20
0.2228359130930718
 10
0.3168379428280827
 20
0.2228918423628995
  0
LWPOLYLINE
  5
3193
330
2
100
AcDbEntity
  8
0
  6
Continuous
 62
     1
370
     0
100
AcDbPolyline
 90
        5
 70
   128
 43
0.0
 10
0.3166951042746567
 20
0.2202868848164671
 10
0.3167697111733752
 20
0.2207902480445978
 10
0.3168691870383338
 20
0.2211506810500518
 10
0.3170432694922018
 20
0.2215173283520436
 10
0.317068138458442
 20
0.221585686214951
  0
LWPOLYLINE
  5
3194
330
2
100
AcDbEntity
  8
0
  6
Continuous
 62
     1
370
     0
100
AcDbPolyline
 90
        5
 70
   128
 43
0.0
 10
0.3170062767809974
 20
0.2185329691813181
 10
0.3169751905731979
 20
0.2190798328858754
 10
0.3170062767809974
 20
0.2196701970668566
 10
0.3171119698875154
 20
0.2201487029085066
 10
0.3172238802355935
 20
0.2203413481044733
  0
LWPOLYLINE
  5
3195
330
2
100
AcDbEntity
  8
0
  6
Continuous
 62
     1
370
     0
100
AcDbPolyline
 90
        3
 70
   128
 43
0.0
 10
0.3170871009212759
 20
0.2193221928548065
 10
0.3171741423031145
 20
0.2197012689502035
 10
0.317261183684953
 20
0.2198317705798034
  0
LWPOLYLINE
  5
3196
330
2
100
AcDbEntity
  8
0
  6
Continuous
 62
     1
370
     0
100
AcDbPolyline
 90
        3
 70
   128
 43
0.0
 10
0.3164837917960975
 20
0.2202865262338669
 10
0.3165583986948166
 20
0.2213553964568236
 10
0.3165957021441756
 20
0.2218525451880911
  0
LWPOLYLINE
  5
3197
330
2
100
AcDbEntity
  8
0
  6
Continuous
 62
     1
370
     0
100
AcDbPolyline
 90
        2
 70
   128
 43
0.0
 10
0.3162973058399823
 20
0.2217112111587923
 10
0.3162724371835512
 20
0.2224631488527203
  0
LWPOLYLINE
  5
3198
330
2
100
AcDbEntity
  8
0
  6
Continuous
 62
     1
370
     0
100
AcDbPolyline
 90
        3
 70
   128
 43
0.0
 10
0.3163967817049409
 20
0.2205180538031005
 10
0.3164154334296203
 20
0.2214253505131104
 10
0.3164340851542998
 20
0.2221151446406701
  0
LWPOLYLINE
  5
3199
330
2
100
AcDbEntity
  8
0
  6
Continuous
 62
     1
370
     0
100
AcDbPolyline
 90
       37
 70
   128
 43
0.0
 10
0.319168486422268
 20
0.2218241612719586
 10
0.3194867250460845
 20
0.2216925372187265
 10
0.3196623051153453
 20
0.2216376939132937
 10
0.3197500949950716
 20
0.2215060698600615
 10
0.3197281475251397
 20
0.2213579926749706
 10
0.3196897392978553
 20
0.2212428215532703
 10
0.3197775294873906
 20
0.2210618385051158
 10
0.3198159374048659
 20
0.220853433704083
 10
0.3197555820174585
 20
0.2207547157142399
 10
0.3196293839104478
 20
0.2207218096508508
 10
0.3194592905537656
 20
0.2207218096508508
 10
0.3193715006740394
 20
0.2207218096508508
 10
0.3193330924467549
 20
0.2206834192769512
 10
0.3192288418096754
 20
0.2206834192769512
 10
0.3191959206047785
 20
0.2205901855976187
 10
0.3191575126873024
 20
0.2204037180386281
 10
0.319113617437631
 20
0.2203433904226847
 10
0.3190422883152573
 20
0.2203433904226847
 10
0.3189929063530072
 20
0.2203488747331953
 10
0.3189764455956539
 20
0.2201404699321624
 10
0.3189435243907571
 20
0.2199759398155398
 10
0.3188228133061334
 20
0.2198333469409609
 10
0.3186636936844167
 20
0.2198004410778959
 10
0.3185594430473372
 20
0.219838831451797
 10
0.3184332449403264
 20
0.2200307831209726
 10
0.3183564287955666
 20
0.2201898289270832
 10
0.3183399680382133
 20
0.2202611253643734
 10
0.3182741256284189
 20
0.2202775782959051
 10
0.3182412044235214
 20
0.2203927494176055
 10
0.3182137699312024
 20
0.2204969517179606
 10
0.3181424408088296
 20
0.2205134048498179
 10
0.3179778344745343
 20
0.2205408264023708
 10
0.3179339395346712
 20
0.2205737324657599
 10
0.3178626101024892
 20
0.2205792167762705
 10
0.3177528724430227
 20
0.2205517952237176
 10
0.3176705692758751
 20
0.2205517952237176
 10
0.3175937531311152
 20
0.2205627638447388
  0
LWPOLYLINE
  5
319A
330
2
100
AcDbEntity
  8
0
  6
Continuous
 62
     1
370
     0
100
AcDbPolyline
 90
        4
 70
   128
 43
0.0
 10
0.3185210351298617
 20
0.2221367685736707
 10
0.3184167844927822
 20
0.2213908987383611
 10
0.3182850993633846
 20
0.2210289324417268
 10
0.3181479275214082
 20
0.2205737324657599
  0
LWPOLYLINE
  5
319B
330
2
100
AcDbEntity
  8
0
  6
Continuous
 62
     1
370
     0
100
AcDbPolyline
 90
        3
 70
   128
 43
0.0
 10
0.3177803069353415
 20
0.2210837759474852
 10
0.3180820851116132
 20
0.22135250836446
 10
0.3182137699312024
 20
0.2215718817865155
  0
LWPOLYLINE
  5
319C
330
2
100
AcDbEntity
  8
0
  6
Continuous
 62
     1
370
     0
100
AcDbPolyline
 90
        3
 70
   128
 43
0.0
 10
0.3177144645255472
 20
0.2213634769854826
 10
0.3180162423920097
 20
0.2214731637966724
 10
0.3180930588465794
 20
0.2215773660970261
  0
LWPOLYLINE
  5
319D
330
2
100
AcDbEntity
  8
0
  6
Continuous
 62
     1
370
     0
100
AcDbPolyline
 90
        6
 70
   128
 43
0.0
 10
0.319168486422268
 20
0.2206889035874618
 10
0.3189599851481097
 20
0.220853433704083
 10
0.3188502474886432
 20
0.2210399010627479
 10
0.3187295364040201
 20
0.2212976650590286
 10
0.3186417462144848
 20
0.2216376939132937
 10
0.3185923645620439
 20
0.22190642633027
  0
LWPOLYLINE
  5
319E
330
2
100
AcDbEntity
  8
0
  6
Continuous
 62
     1
370
     0
100
AcDbPolyline
 90
        2
 70
   128
 43
0.0
 10
0.3188831686935407
 20
0.2217583493455061
 10
0.3194647775761527
 20
0.221319602301071
  0
LWPOLYLINE
  5
319F
330
2
100
AcDbEntity
  8
0
  6
Continuous
 62
     1
370
     0
100
AcDbPolyline
 90
       13
 70
   128
 43
0.0
 10
0.3194099089013239
 20
0.221632209602783
 10
0.3195745149258108
 20
0.2215170384810827
 10
0.3195580544782659
 20
0.2213963830488717
 10
0.3195086725160157
 20
0.2213634769854826
 10
0.3194922117586632
 20
0.2212483060641064
 10
0.3195361070083347
 20
0.2211934625583494
 10
0.3195525674558789
 20
0.221078291436649
 10
0.3195415937209133
 20
0.2209850577573165
 10
0.3194647775761527
 20
0.2208863397674734
 10
0.3193660136516524
 20
0.2208698866356147
 10
0.3192507892796073
 20
0.2209192458308625
 10
0.3191739731348466
 20
0.2209302144518837
 10
0.3191575126873024
 20
0.2208150433301833
  0
LWPOLYLINE
  5
31A0
330
2
100
AcDbEntity
  8
0
  6
Continuous
 62
     1
370
     0
100
AcDbPolyline
 90
        2
 70
   128
 43
0.0
 10
0.3189270639432129
 20
0.2203488747331953
 10
0.3187953788138145
 20
0.220485983096938
  0
LWPOLYLINE
  5
31A1
330
2
100
AcDbEntity
  8
0
  6
Continuous
 62
     1
370
     0
100
AcDbPolyline
 90
       59
 70
   128
 43
0.0
 10
0.3198267850476793
 20
0.2187100671172234
 10
0.3196301355064228
 20
0.2190049051487123
 10
0.3196160890884894
 20
0.2192014637028212
 10
0.3196582283422891
 20
0.21939802225693
 10
0.3197425068498891
 20
0.2194963015339844
 10
0.3197565532678218
 20
0.219664780466356
 10
0.3197425068498891
 20
0.2198613390204648
 10
0.3198548778835462
 20
0.219931538675782
 10
0.3198408314656128
 20
0.2200719375857665
 10
0.3198548778835462
 20
0.220338695795194
 10
0.3199391563911456
 20
0.2205914139934271
 10
0.3201638987682682
 20
0.2205212145384341
 10
0.3203043626377916
 20
0.22064757363755
 10
0.3200796202606689
 20
0.2209283716578447
 10
0.3200374810068692
 20
0.221167049844885
 10
0.3202341305481258
 20
0.2212653293222636
 10
0.3203886411453909
 20
0.2212653293222636
 10
0.3202341305481258
 20
0.2214478480655053
 10
0.3200796202606689
 20
0.2215040075093026
 10
0.3200936666786024
 20
0.2217005662637371
 10
0.3201638987682682
 20
0.2217988455407915
 10
0.3201077130965351
 20
0.2219252046399088
 10
0.3201779451862017
 20
0.2222902421263892
 10
0.3202903162198589
 20
0.2223464017705135
 10
0.3204588732350575
 20
0.2223183219484507
 10
0.3205571978507813
 20
0.2224446810475679
 10
0.320529105014915
 20
0.2225710401466839
 10
0.3205993371045809
 20
0.2226973992457997
 10
0.3208100330637709
 20
0.2227395188787312
 10
0.3208943115713701
 20
0.2227816387119869
 10
0.3208100330637709
 20
0.2229079978111029
 10
0.3204167339812578
 20
0.2230062770881572
 10
0.3203745947274582
 20
0.2232168756534589
 10
0.3205010121790481
 20
0.2233011151196461
 10
0.3206133835225144
 20
0.2233713145746376
 10
0.3205631412214251
 20
0.2234510154668782
 10
0.3205195604276128
 20
0.2235187763598716
 10
0.3203452372523623
 20
0.2236494582823972
 10
0.3202338641126191
 20
0.223770460077354
 10
0.3202629179751608
 20
0.2238866218085257
 10
0.3203597641836335
 20
0.2239882633483406
 10
0.3205679835318489
 20
0.2241044250795122
 10
0.3208246259843009
 20
0.2242399470658245
 10
0.3212168531286141
 20
0.2242012265555419
 10
0.3211792504040227
 20
0.2243363366726797
 10
0.3211158161374736
 20
0.2244314439961725
 10
0.3210753012108365
 20
0.2245538975498422
 10
0.3211052157220251
 20
0.2246692277299689
 10
0.3211607706231874
 20
0.2247845579100971
 10
0.321169317626384
 20
0.2248785307904289
 10
0.3211394034250038
 20
0.2250365759707966
 10
0.3211180359170119
 20
0.2252416074911668
 10
0.3211864113229695
 20
0.2253740236313257
 10
0.3213060684382991
 20
0.225433824591596
 10
0.3215838438735358
 20
0.2254509105516267
 10
0.3218317051073916
 20
0.2254210099713295
 10
0.3219428152195246
 20
0.2254039240112987
 10
0.3220026436222849
 20
0.2254466390115383
 10
0.321998370120687
 20
0.2255833266917856
  0
LWPOLYLINE
  5
31A2
330
2
100
AcDbEntity
  8
0
  6
Continuous
 62
     1
370
     0
100
AcDbPolyline
 90
       10
 70
   128
 43
0.0
 10
0.322524504652406
 20
0.2255180402190512
 10
0.3227771917768234
 20
0.2254652644728394
 10
0.3229695355963734
 20
0.2254765736471675
 10
0.3231505648913571
 20
0.2253747916791948
 10
0.3233693090616911
 20
0.2253333249069842
 10
0.3235918242238661
 20
0.2253257854574326
 10
0.3238445113482834
 20
0.2253634825048666
 10
0.3239689689498588
 20
0.2253823309284209
 10
0.3241198269022175
 20
0.2253936401027477
 10
0.3241877131201922
 20
0.2254087190018524
  0
LWPOLYLINE
  5
31A3
330
2
100
AcDbEntity
  8
0
  6
Continuous
 62
     1
370
     0
100
AcDbPolyline
 90
       71
 70
   128
 43
0.0
 10
0.3239615883765238
 20
0.2253223422631799
 10
0.3241277285738326
 20
0.2252606614486578
 10
0.3242748812138011
 20
0.2252132149610403
 10
0.324365071491554
 20
0.2251420449291249
 10
0.3243176029080099
 20
0.2249759817216475
 10
0.324241653298263
 20
0.2247861949698723
 10
0.3241751971573775
 20
0.2246960465031704
 10
0.3241229816844974
 20
0.2245774297833119
 10
0.3241609564893716
 20
0.2244683024811708
 10
0.3241562096000363
 20
0.2243164731999469
 10
0.3243516192867621
 20
0.2241528663834353
 10
0.3244940250373944
 20
0.2241196536217455
 10
0.3246316838986916
 20
0.2240152710284647
 10
0.3246459245666975
 20
0.223934611779156
 10
0.3246554183453681
 20
0.2238397184032684
 10
0.3245414936209387
 20
0.2236119745815944
 10
0.3244892781480591
 20
0.2235455492585378
 10
0.3245462405102739
 20
0.2234981025705947
 10
0.3245699746471415
 20
0.2234221880301447
 10
0.3245367467316034
 20
0.2233083160191464
 10
0.3244465564538503
 20
0.2231754653730332
 10
0.3244987719267298
 20
0.2230948061237245
 10
0.3245604811782799
 20
0.2229761894038661
 10
0.3245889622044827
 20
0.2228718068105851
 10
0.3245414936209387
 20
0.2227674242173042
 10
0.324470290590718
 20
0.2226915094765302
 10
0.3244038347596416
 20
0.2225349356867717
 10
0.3242092135361291
 20
0.2224637656548563
 10
0.3241759853107818
 20
0.222411574258053
 10
0.3242471883410025
 20
0.2223024471562375
 10
0.3243154224741799
 20
0.2222006701964013
 10
0.324335393054616
 20
0.222174055154208
 10
0.3244352450273706
 20
0.2222173044224883
 10
0.3245051412843753
 20
0.2222173044224883
 10
0.3246549195533157
 20
0.2221607477332733
 10
0.3247780703816752
 20
0.2220942106286031
 10
0.3248379815033655
 20
0.2220043852868904
 10
0.3248512952236568
 20
0.221884618298159
 10
0.3248146826477614
 20
0.2217448900778615
 10
0.3248213395079063
 20
0.221628449894281
 10
0.3247947123771335
 20
0.2215386245525697
 10
0.3247580998012389
 20
0.2214587800269649
 10
0.3245784900498485
 20
0.2213247376446061
 10
0.3245318926484479
 20
0.2212482199241535
 10
0.3246250877610575
 20
0.2212482199241535
 10
0.3247548954495617
 20
0.2212116242661778
 10
0.324838105426857
 20
0.2210619156304235
 10
0.3248048214359386
 20
0.2209488022519952
 10
0.3247049694631841
 20
0.2208190546474816
 10
0.3245784900498485
 20
0.2207358831163988
 10
0.3245585197792207
 20
0.2206826534326618
 10
0.3246450583414937
 20
0.2206726728168795
 10
0.324748238589416
 20
0.2206759996220318
 10
0.3248847031380659
 20
0.2206294235486007
 10
0.3249246439891293
 20
0.2205063297547157
 10
0.3249313683875779
 20
0.2203819452637997
 10
0.3248980843966593
 20
0.2202355632328722
 10
0.3247882469787823
 20
0.2200958350125761
 10
0.3248381729651599
 20
0.2200492591394692
 10
0.3249213832522643
 20
0.219996029255408
 10
0.3249746375138098
 20
0.2198829158769798
 10
0.3249513386582049
 20
0.2197132460096621
 10
0.3248880992613459
 20
0.2196433818995141
 10
0.3248648004057417
 20
0.2195968058260816
 10
0.3247066551324749
 20
0.2193605854322874
 10
0.3248596033643241
 20
0.2194561338724759
 10
0.3250316702026056
 20
0.2192841466400714
 10
0.3250794665637846
 20
0.2190739399113967
 10
0.3249743146931145
 20
0.2188350686106009
 10
0.3248787219707572
 20
0.2186726363023453
 10
0.3248500442160113
 20
0.2185770876618313
  0
LWPOLYLINE
  5
31A4
330
2
100
AcDbEntity
  8
0
  6
Continuous
 62
     1
370
     0
100
AcDbPolyline
 90
        4
 70
   128
 43
0.0
 10
0.3202586977606643
 20
0.2187120944110239
 10
0.3201829808172714
 20
0.2191094233623388
 10
0.3200031535801542
 20
0.2193553887891579
 10
0.3198233266528454
 20
0.219468911232204
  0
LWPOLYLINE
  5
31A5
330
2
100
AcDbEntity
  8
0
  6
Continuous
 62
     1
370
     0
100
AcDbPolyline
 90
        5
 70
   128
 43
0.0
 10
0.3205804936082988
 20
0.2187404751219486
 10
0.3204763830047645
 20
0.2192702468567095
 10
0.3203438790508974
 20
0.219658115637825
 10
0.320126193496988
 20
0.2198757003537195
 10
0.3200031535801542
 20
0.2199703024563672
  0
LWPOLYLINE
  5
31A6
330
2
100
AcDbEntity
  8
0
  6
Continuous
 62
     1
370
     0
100
AcDbPolyline
 90
       14
 70
   128
 43
0.0
 10
0.3213187315602602
 20
0.2188161568841965
 10
0.3212240856133762
 20
0.2194310705514057
 10
0.3212619439301685
 20
0.2196486552673002
 10
0.3210821166930505
 20
0.2197716380808726
 10
0.3211483689797931
 20
0.2199986831672919
 10
0.3211483689797931
 20
0.2202919496454342
 10
0.3209401480825339
 20
0.2204811538507296
 10
0.3207981791622076
 20
0.2204811538507296
 10
0.3206656748985319
 20
0.220367631407682
 10
0.3206088872684401
 20
0.2201878873725874
 10
0.3205710289516486
 20
0.2202730293050344
 10
0.3205426352915066
 20
0.2204811538507296
 10
0.3204763830047645
 20
0.2205852161235765
 10
0.3203628080543893
 20
0.2206419773451004
  0
LWPOLYLINE
  5
31A7
330
2
100
AcDbEntity
  8
0
  6
Continuous
 62
     1
370
     0
100
AcDbPolyline
 90
        6
 70
   128
 43
0.0
 10
0.321394448193844
 20
0.2190810426514141
 10
0.3212808732434688
 20
0.2199419219457682
 10
0.3211862272965847
 20
0.2203581710371572
 10
0.3209969354028166
 20
0.2206608978858243
 10
0.3207129978719743
 20
0.2210109255854904
 10
0.3204763830047645
 20
0.2212001297907859
  0
LWPOLYLINE
  5
31A8
330
2
100
AcDbEntity
  8
0
  6
Continuous
 62
     1
370
     0
100
AcDbPolyline
 90
        4
 70
   128
 43
0.0
 10
0.3210821166930505
 20
0.2207081989371489
 10
0.3209117541125834
 20
0.2211244482288622
 10
0.3206751395551821
 20
0.2214177147070059
 10
0.320315485080947
 20
0.2216920608447484
  0
LWPOLYLINE
  5
31A9
330
2
100
AcDbEntity
  8
0
  6
Continuous
 62
     1
370
     0
100
AcDbPolyline
 90
        4
 70
   128
 43
0.0
 10
0.3217257086981287
 20
0.2192986275676341
 10
0.3216121337477534
 20
0.2202730293050344
 10
0.3214417711672857
 20
0.2208501020911197
 10
0.3213281962169105
 20
0.2211622891099875
  0
LWPOLYLINE
  5
31AA
330
2
100
AcDbEntity
  8
0
  6
Continuous
 62
     1
370
     0
100
AcDbPolyline
 90
        7
 70
   128
 43
0.0
 10
0.3218582129618043
 20
0.219440530721605
 10
0.3218203546450127
 20
0.2209541643639667
 10
0.3217162443512869
 20
0.2216920608447484
 10
0.3214982858558879
 20
0.2222628970981673
 10
0.3213563169355622
 20
0.2225561635763096
 10
0.3210345210879277
 20
0.223067014970672
 10
0.3207695125605765
 20
0.2233035202272905
  0
LWPOLYLINE
  5
31AB
330
2
100
AcDbEntity
  8
0
  6
Continuous
 62
     1
370
     0
100
AcDbPolyline
 90
       10
 70
   128
 43
0.0
 10
0.3215456088293302
 20
0.2213452565822894
 10
0.3214888211992377
 20
0.2217709660442047
 10
0.3213184586187707
 20
0.2220642325223471
 10
0.3211197023781616
 20
0.222253436727641
 10
0.3209682691109941
 20
0.222187215335918
 10
0.3209209461375524
 20
0.2220358520117479
 10
0.3209871981144861
 20
0.22174258533328
 10
0.3208263001906684
 20
0.2221115335736702
 10
0.3207505835570847
 20
0.2222628970981673
 10
0.3205802209766175
 20
0.222319658319691
  0
LWPOLYLINE
  5
31AC
330
2
100
AcDbEntity
  8
0
  6
Continuous
 62
     1
370
     0
100
AcDbPolyline
 90
        2
 70
   128
 43
0.0
 10
0.3211954190117453
 20
0.222357499200815
 10
0.3209398751410436
 20
0.2226696860193557
  0
LWPOLYLINE
  5
31AD
330
2
100
AcDbEntity
  8
0
  6
Continuous
 62
     1
370
     0
100
AcDbPolyline
 90
        3
 70
   128
 43
0.0
 10
0.3220994703128074
 20
0.2192459281454277
 10
0.3220994703128074
 20
0.2209367100053883
 10
0.321944608702253
 20
0.2221035874634061
  0
LWPOLYLINE
  5
31AE
330
2
100
AcDbEntity
  8
0
  6
Continuous
 62
     1
370
     0
100
AcDbPolyline
 90
        2
 70
   128
 43
0.0
 10
0.3220875578573954
 20
0.2222345634637283
 10
0.321873134279586
 20
0.2231871167032716
  0
LWPOLYLINE
  5
31AF
330
2
100
AcDbEntity
  8
0
  6
Continuous
 62
     1
370
     0
100
AcDbPolyline
 90
        5
 70
   128
 43
0.0
 10
0.3215872359693018
 20
0.2230561407029479
 10
0.321372812391493
 20
0.2235086034316332
 10
0.3211941258701133
 20
0.2237110209048902
 10
0.3211583888136844
 20
0.2240325076332518
 10
0.3211822137245091
 20
0.2241039491061853
  0
LWPOLYLINE
  5
31B0
330
2
100
AcDbEntity
  8
0
  6
Continuous
 62
     1
370
     0
100
AcDbPolyline
 90
        8
 70
   128
 43
0.0
 10
0.3223972807686959
 20
0.2216749386258072
 10
0.3223258063460288
 20
0.2227941885019765
 10
0.3221947696462998
 20
0.2236276724864136
 10
0.3220041709793157
 20
0.2240086937421656
 10
0.3218135720025232
 20
0.2242587389975952
 10
0.3216110608801272
 20
0.2243659011068311
 10
0.3213847248469057
 20
0.2243778080523743
 10
0.3212894255134135
 20
0.2243301804705272
  0
LWPOLYLINE
  5
31B1
330
2
100
AcDbEntity
  8
0
  6
Continuous
 62
     1
370
     0
100
AcDbPolyline
 90
        3
 70
   128
 43
0.0
 10
0.321896958880603
 20
0.2242587389975952
 10
0.3216706228473809
 20
0.2245921324711745
 10
0.3213370750252551
 20
0.2248183638355164
  0
LWPOLYLINE
  5
31B2
330
2
100
AcDbEntity
  8
0
  6
Continuous
 62
     1
370
     0
100
AcDbPolyline
 90
        3
 70
   128
 43
0.0
 10
0.322718916445218
 20
0.2188291860530463
 10
0.322718916445218
 20
0.2217344731531974
 10
0.3227784784124723
 20
0.2243897149979174
  0
LWPOLYLINE
  5
31B3
330
2
100
AcDbEntity
  8
0
  6
Continuous
 62
     1
370
     0
100
AcDbPolyline
 90
        3
 70
   128
 43
0.0
 10
0.3229333400230268
 20
0.219305462672818
 10
0.3229095151122014
 20
0.2218535422079765
 10
0.3229690770794558
 20
0.2231752097577284
  0
LWPOLYLINE
  5
31B4
330
2
100
AcDbEntity
  8
0
  6
Continuous
 62
     1
370
     0
100
AcDbPolyline
 90
        4
 70
   128
 43
0.0
 10
0.3232788003005652
 20
0.2193649972002082
 10
0.3231715885116608
 20
0.2211629413697317
 10
0.3232192380235025
 20
0.2226155847194802
 10
0.3231954131126771
 20
0.2238777177418419
  0
LWPOLYLINE
  5
31B5
330
2
100
AcDbEntity
  8
0
  6
Continuous
 62
     1
370
     0
100
AcDbPolyline
 90
        5
 70
   128
 43
0.0
 10
0.3220875578573954
 20
0.2244492495253077
 10
0.3220875578573954
 20
0.224675480889651
 10
0.3221352073692364
 20
0.2248302707810595
 10
0.3220994703128074
 20
0.2249850606724694
 10
0.3220399080357446
 20
0.2252708265642016
  0
LWPOLYLINE
  5
31B6
330
2
100
AcDbEntity
  8
0
  6
Continuous
 62
     1
370
     0
100
AcDbPolyline
 90
        4
 70
   128
 43
0.0
 10
0.3224806679565839
 20
0.2247826431992125
 10
0.3224330181349338
 20
0.2249731537269263
 10
0.3224568430457585
 20
0.2251636644549643
 10
0.3224806679565839
 20
0.2253184543463743
  0
LWPOLYLINE
  5
31B7
330
2
100
AcDbEntity
  8
0
  6
Continuous
 62
     1
370
     0
100
AcDbPolyline
 90
        7
 70
   128
 43
0.0
 10
0.322802303323297
 20
0.2244492495253077
 10
0.3229929019902811
 20
0.2246397602533471
 10
0.3232192380235025
 20
0.2246516671988902
 10
0.3234098370002949
 20
0.2247231086718223
 10
0.3236004356672784
 20
0.224865991617689
 10
0.3237314723670081
 20
0.2250803160364892
 10
0.3237552972778333
 20
0.2252112920368114
  0
LWPOLYLINE
  5
31B8
330
2
100
AcDbEntity
  8
0
  6
Continuous
 62
     1
370
     0
100
AcDbPolyline
 90
        3
 70
   128
 43
0.0
 10
0.3235289612446119
 20
0.2193888110912944
 10
0.3235766107564536
 20
0.2205914093859404
 10
0.3236957350007708
 20
0.221305824315597
  0
LWPOLYLINE
  5
31B9
330
2
100
AcDbEntity
  8
0
  6
Continuous
 62
     1
370
     0
100
AcDbPolyline
 90
        4
 70
   128
 43
0.0
 10
0.3235408737000247
 20
0.2221393083000356
 10
0.3237910343342624
 20
0.2229608853389296
 10
0.3240173706772922
 20
0.2233538135402246
 10
0.3243270935885933
 20
0.2237110209048902
  0
LWPOLYLINE
  5
31BA
330
2
100
AcDbEntity
  8
0
  6
Continuous
 62
     1
370
     0
100
AcDbPolyline
 90
        5
 70
   128
 43
0.0
 10
0.323767209733246
 20
0.2233657202854423
 10
0.3239220710339921
 20
0.2238300899596707
 10
0.3239220710339921
 20
0.2240206006877087
 10
0.3237791221886588
 20
0.2241515766880323
 10
0.3236719100899453
 20
0.2242111112154225
  0
LWPOLYLINE
  5
31BB
330
2
100
AcDbEntity
  8
0
  6
Continuous
 62
     1
370
     0
100
AcDbPolyline
 90
        3
 70
   128
 43
0.0
 10
0.3235289612446119
 20
0.2243182735249841
 10
0.3238505966113251
 20
0.2247588293081261
 10
0.3240650201891339
 20
0.2249136191995361
  0
LWPOLYLINE
  5
31BC
330
2
100
AcDbEntity
  8
0
  6
Continuous
 62
     1
370
     0
100
AcDbPolyline
 90
        2
 70
   128
 43
0.0
 10
0.3238148592450878
 20
0.2213772657885304
 10
0.3238744215221505
 20
0.2220202390449296
  0
LWPOLYLINE
  5
31BD
330
2
100
AcDbEntity
  8
0
  6
Continuous
 62
     1
370
     0
100
AcDbPolyline
 90
        4
 70
   128
 43
0.0
 10
0.3238744215221505
 20
0.2205199679130069
 10
0.3241245824661973
 20
0.221115313587559
 10
0.3243866555558477
 20
0.2215320556799404
 10
0.3245891669880527
 20
0.2217225662076542
  0
LWPOLYLINE
  5
31BE
330
2
100
AcDbEntity
  8
0
  6
Continuous
 62
     1
370
     0
100
AcDbPolyline
 90
        5
 70
   128
 43
0.0
 10
0.3240292828228965
 20
0.2205556887496364
 10
0.3243032686777679
 20
0.2206509439133306
 10
0.3243747434102433
 20
0.2204723403311599
 10
0.3244104804666723
 20
0.2201032260209512
 10
0.3243509184994187
 20
0.2198055529833503
  0
LWPOLYLINE
  5
31BF
330
2
100
AcDbEntity
  8
0
  6
Continuous
 62
     1
370
     0
100
AcDbPolyline
 90
        3
 70
   128
 43
0.0
 10
0.3242437067105143
 20
0.2186982100527241
 10
0.3244938673447519
 20
0.2196507630919403
 10
0.324660641410719
 20
0.2201508536027982
  0
LWPOLYLINE
  5
31C0
330
2
100
AcDbEntity
  8
0
  6
Continuous
 62
     1
370
     0
100
AcDbPolyline
 90
        2
 70
   128
 43
0.0
 10
0.3244819551991477
 20
0.2186624894164202
 10
0.3246010794434647
 20
0.2191149521451055
  0
LWPOLYLINE
  5
31C1
330
2
100
AcDbEntity
  8
0
  6
Continuous
 62
     1
370
     0
100
AcDbPolyline
 90
       20
 70
   128
 43
0.0
 10
0.3245864846640822
 20
0.2262691407528224
 10
0.3244419303899193
 20
0.2257700029899207
 10
0.3242973764255639
 20
0.2254678931437137
 10
0.3241988166650155
 20
0.2254350551909857
 10
0.3241396809945718
 20
0.225697759213462
 10
0.3241265398377426
 20
0.2267223054219686
 10
0.3241856755081864
 20
0.2276483375719659
 10
0.324323659049031
 20
0.2282197191113248
 10
0.3244485011232383
 20
0.2286269104863929
 10
0.3245602020406157
 20
0.2287713978389834
 10
0.3246784736913123
 20
0.2287319922155782
 10
0.3247901746086905
 20
0.2283904767459674
 10
0.3248295983889861
 20
0.2278059600655824
 10
0.3248493102791342
 20
0.2262297351294172
 10
0.3248956945321295
 20
0.2240456499859958
 10
0.3249942539828695
 20
0.2227583995546859
 10
0.3251519494138616
 20
0.2222329913094065
 10
0.3253030744213444
 20
0.2220425308630621
 10
0.3255067643659519
 20
0.2220096929103341
 10
0.3255724707697147
 20
0.22207536881579
  0
LWPOLYLINE
  5
31C2
330
2
100
AcDbEntity
  8
0
  6
Continuous
 62
     1
370
     0
100
AcDbPolyline
 90
       10
 70
   128
 43
0.0
 10
0.3257038835772403
 20
0.2220031252396569
 10
0.3256578890636257
 20
0.2217929619816105
 10
0.3254936228993145
 20
0.2217404210168551
 10
0.3252505091744107
 20
0.2217995294519607
 10
0.3250402484964842
 20
0.2220162603806843
 10
0.3248694119086623
 20
0.222390613803023
 10
0.3247642817246032
 20
0.2230342389185152
 10
0.3247182872109885
 20
0.223973406209537
 10
0.3247246794944798
 20
0.2253413441360473
 10
0.3246983968710133
 20
0.2263330521915004
  0
LWPOLYLINE
  5
31C3
330
2
100
AcDbEntity
  8
0
  6
Continuous
 62
     1
370
     0
100
AcDbPolyline
 90
        6
 70
   128
 43
0.0
 10
0.3242975877151168
 20
0.2262608086153687
 10
0.3246326904672506
 20
0.2263396198621763
 10
0.3247049676043318
 20
0.2263987282972819
 10
0.3247575328512655
 20
0.2269438393542646
 10
0.3247575328512655
 20
0.2275743293287293
 10
0.3243830060090278
 20
0.2276400054345122
  0
LWPOLYLINE
  5
31C4
330
2
100
AcDbEntity
  8
0
  6
Continuous
 62
     1
370
     0
100
AcDbPolyline
 90
       13
 70
   128
 43
0.0
 10
0.3244815657695769
 20
0.2262542409446929
 10
0.3243764355855178
 20
0.2259718341105134
 10
0.3243041584484358
 20
0.2259324284871095
 10
0.3242515932015022
 20
0.2259586987691617
 10
0.324231881311354
 20
0.226424998779661
 10
0.3242712493260791
 20
0.2272944097356398
 10
0.324343526463161
 20
0.2278198179809192
 10
0.3244223743335612
 20
0.2281087926861001
 10
0.3244946511608347
 20
0.228220441885637
 10
0.3245472164077685
 20
0.228220441885637
 10
0.3245800697645541
 20
0.2281087926861001
 10
0.3246194935448503
 20
0.2278723589456761
 10
0.3246392054349978
 20
0.2276490603462766
  0
LWPOLYLINE
  5
31C5
330
2
100
AcDbEntity
  8
0
  6
Continuous
 62
     1
370
     0
100
AcDbPolyline
 90
        6
 70
   128
 43
0.0
 10
0.3228190150257205
 20
0.2290988937305985
 10
0.3231028667395454
 20
0.2286575508686676
 10
0.3232079969236037
 20
0.2285104364478074
 10
0.3231028667395454
 20
0.2288361895077954
 10
0.3231764577754437
 20
0.2290988937305985
 10
0.3234287706509175
 20
0.2293721060261566
  0
LWPOLYLINE
  5
31C6
330
2
100
AcDbEntity
  8
0
  6
Continuous
 62
     1
370
     0
100
AcDbPolyline
 90
        5
 70
   128
 43
0.0
 10
0.3239018569438952
 20
0.2293615979534003
 10
0.323996474078567
 20
0.2291514344950284
 10
0.3240280132267279
 20
0.2289307631642257
 10
0.323996474078567
 20
0.2286050099039122
 10
0.323964934930407
 20
0.2284053547186208
  0
LWPOLYLINE
  5
31C7
330
2
100
AcDbEntity
  8
0
  6
Continuous
 62
     1
370
     0
100
AcDbPolyline
 90
        4
 70
   128
 43
0.0
 10
0.3240595523748879
 20
0.2290253366203305
 10
0.3242382739046544
 20
0.2290148283472487
 10
0.3244064823850338
 20
0.2289517795100625
 10
0.3244905864703191
 20
0.2288151733622842
  0
LWPOLYLINE
  5
31C8
330
2
100
AcDbEntity
  8
0
  6
Continuous
 62
     1
370
     0
100
AcDbPolyline
 90
        6
 70
   128
 43
0.0
 10
0.3241016042626261
 20
0.2294141387178316
 10
0.3243328910393264
 20
0.2290883856578422
 10
0.3245641775062174
 20
0.2289202548911438
 10
0.3249531597139104
 20
0.2286155181769927
 10
0.3253106027734427
 20
0.2283948466458644
 10
0.3258362540035458
 20
0.2281846833878181
  0
LWPOLYLINE
  5
31C9
330
2
100
AcDbEntity
  8
0
  6
Continuous
 62
     1
370
     0
100
AcDbPolyline
 90
        5
 70
   128
 43
0.0
 10
0.3246459704183894
 20
0.2309358222390522
 10
0.3248125127474282
 20
0.2305612753023055
 10
0.3250519174422362
 20
0.2303011731070895
 10
0.325364184502814
 20
0.230061879319868
 10
0.325874220443584
 20
0.2298225853323209
  0
LWPOLYLINE
  5
31CA
330
2
100
AcDbEntity
  8
0
  6
Continuous
 62
     1
370
     0
100
AcDbPolyline
 90
        5
 70
   128
 43
0.0
 10
0.3245626990989658
 20
0.230706932355341
 10
0.3247292414280045
 20
0.2303740016336065
 10
0.324927010618005
 20
0.2300930914310458
 10
0.3252184597712748
 20
0.2298329894361553
 10
0.3256764512535828
 20
0.2295728872409393
  0
LWPOLYLINE
  5
31CB
330
2
100
AcDbEntity
  8
0
  6
Continuous
 62
     1
370
     0
100
AcDbPolyline
 90
        5
 70
   128
 43
0.0
 10
0.3277599862075322
 20
0.2287920083254086
 10
0.3288112849500337
 20
0.2284278652921708
 10
0.3296335879513808
 20
0.2282197836161285
 10
0.3303101662211895
 20
0.2281053386742721
 10
0.3311012423615742
 20
0.2279700857250711
  0
LWPOLYLINE
  5
31CC
330
2
100
AcDbEntity
  8
0
  6
Continuous
 62
     1
370
     0
100
AcDbPolyline
 90
        5
 70
   128
 43
0.0
 10
0.3278953019854177
 20
0.2289480694822787
 10
0.3286967870794568
 20
0.2286359469682145
 10
0.3295815434929196
 20
0.2284174611883363
 10
0.3303518017259963
 20
0.2282718041353008
 10
0.3311949226346522
 20
0.22814695508961
  0
LWPOLYLINE
  5
31CD
330
2
100
AcDbEntity
  8
0
  6
Continuous
 62
     1
370
     0
100
AcDbPolyline
 90
        5
 70
   128
 43
0.0
 10
0.3266774609138774
 20
0.2278764489908851
 10
0.3278328485733022
 20
0.2275123059576473
 10
0.3287280136306101
 20
0.2272730121704257
 10
0.329716858960996
 20
0.2270441222867131
 10
0.3306536598329206
 20
0.2268672529221742
  0
LWPOLYLINE
  5
31CE
330
2
100
AcDbEntity
  8
0
  6
Continuous
 62
     1
370
     0
100
AcDbPolyline
 90
       40
 70
   129
 43
0.0
 10
0.3264380562190695
 20
0.2281053386742721
 10
0.3261049712511836
 20
0.228053318355424
 10
0.3259280202782996
 20
0.2280949347707619
 10
0.3258551579125304
 20
0.2283030164468056
 10
0.3257822955467604
 20
0.2287816042215742
 10
0.3258343400052224
 20
0.229395445145868
 10
0.3260112912879147
 20
0.2297387797711114
 10
0.3261986515242615
 20
0.229874032920638
 10
0.3264172383117615
 20
0.2300925187005148
 10
0.3266878695577227
 20
0.2301653472270318
 10
0.3268231853356083
 20
0.2301237310120196
 10
0.3267945469265713
 20
0.2302833174965863
 10
0.326837606931911
 20
0.2303980909722195
 10
0.3269990820293891
 20
0.230451890982582
 10
0.3271749099456328
 20
0.2304554776098747
 10
0.3274081516154086
 20
0.2304160243090071
 10
0.3276198631276096
 20
0.2303263574247453
 10
0.327698806419099
 20
0.2301793039028284
 10
0.3277454546291304
 20
0.2300107304168327
 10
0.3277669847867052
 20
0.2299174769052783
 10
0.3277562195530136
 20
0.2298170501391386
 10
0.3277777497105876
 20
0.2296951034089201
 10
0.3278889880835343
 20
0.2295516365142959
 10
0.3279966379419803
 20
0.2294512097481575
 10
0.3280289327136292
 20
0.229300569598948
 10
0.3279894612227894
 20
0.2291786226684039
 10
0.3278818113643427
 20
0.2290100491824082
 10
0.3277131598574821
 20
0.2288629956604912
 10
0.3274655647493232
 20
0.2287482221848581
 10
0.3274544045095029
 20
0.2285675348171034
 10
0.3273898146563967
 20
0.2283989613311078
 10
0.3273252248032913
 20
0.2282124545083246
 10
0.3271924562727698
 20
0.2280761608682843
 10
0.3270381582042918
 20
0.2279793207294386
 10
0.3268300348967824
 20
0.2279398674285709
 10
0.3266721483138043
 20
0.2279362808012783
 10
0.3265967935368157
 20
0.2279362808012783
 10
0.3265142617308263
 20
0.2279362808012783
 10
0.3265537335314752
 20
0.2280331209401253
 10
0.3265573217361668
 20
0.2281263742513541
  0
LWPOLYLINE
  5
31CF
330
2
100
AcDbEntity
  8
0
  6
Continuous
 62
     1
370
     0
100
AcDbPolyline
 90
        6
 70
   128
 43
0.0
 10
0.326593205022315
 20
0.2281227876240614
 10
0.3267080315999533
 20
0.2281801744620422
 10
0.3267797984820594
 20
0.2282626678913945
 10
0.3268013283298251
 20
0.2283666812848254
 10
0.3268264466920907
 20
0.2285531881076086
 10
0.3268192699728991
 20
0.2287396951307174
  0
LWPOLYLINE
  5
31D0
330
2
100
AcDbEntity
  8
0
  6
Continuous
 62
     1
370
     0
100
AcDbPolyline
 90
       17
 70
   128
 43
0.0
 10
0.3266577951852303
 20
0.2289226153262079
 10
0.3267331499622189
 20
0.2288078418505747
 10
0.3268874483405053
 20
0.2287755618042925
 10
0.3271422198580468
 20
0.228818601932777
 10
0.3272857530026424
 20
0.2288939219072183
 10
0.3274256979425456
 20
0.2290983622671145
 10
0.3274759346670777
 20
0.2292490024163241
 10
0.3274256979425456
 20
0.2293350824729676
 10
0.3272785762834508
 20
0.2294247491569037
 10
0.3271529847819301
 20
0.229500069331672
 10
0.3270202165612177
 20
0.2294749627402992
 10
0.3269520381936115
 20
0.2293996425655323
 10
0.3268910365451969
 20
0.2293063890539779
 10
0.3268300348967824
 20
0.2292167223700417
 10
0.3267367384767189
 20
0.2291449888225661
 10
0.3266613833899211
 20
0.2290589087659227
 10
0.3266362650276554
 20
0.2289405486629954
  0
LWPOLYLINE
  5
31D1
330
2
100
AcDbEntity
  8
0
  6
Continuous
 62
     1
370
     0
100
AcDbPolyline
 90
        2
 70
   128
 43
0.0
 10
0.326963015956091
 20
0.2281561542357168
 10
0.3269343093891337
 20
0.2287185441661616
  0
LWPOLYLINE
  5
31D2
330
2
100
AcDbEntity
  8
0
  6
Continuous
 62
     1
370
     0
100
AcDbPolyline
 90
        3
 70
   128
 43
0.0
 10
0.3272328584290298
 20
0.228385701186986
 10
0.3272098932374261
 20
0.2285291680816088
 10
0.3271180318513922
 20
0.22863820283338
  0
LWPOLYLINE
  5
31D3
330
2
100
AcDbEntity
  8
0
  6
Continuous
 62
     1
370
     0
100
AcDbPolyline
 90
        4
 70
   128
 43
0.0
 10
0.3273362072129013
 20
0.229471807013102
 10
0.3274854817328496
 20
0.2296210126315896
 10
0.3276060496858401
 20
0.2297070926882331
 10
0.3277266176388311
 20
0.2298333434112687
  0
LWPOLYLINE
  5
31D4
330
2
100
AcDbEntity
  8
0
  6
Continuous
 62
     1
370
     0
100
AcDbPolyline
 90
        3
 70
   128
 43
0.0
 10
0.3272500872022204
 20
0.2295636257936088
 10
0.3274969644835553
 20
0.2297472633546238
 10
0.3276290148774446
 20
0.2299768103058915
  0
LWPOLYLINE
  5
31D5
330
2
100
AcDbEntity
  8
0
  6
Continuous
 62
     1
370
     0
100
AcDbPolyline
 90
        7
 70
   128
 43
0.0
 10
0.3270893299315662
 20
0.2295406710984825
 10
0.327095071306919
 20
0.2296324898789893
 10
0.3271524847506427
 20
0.2297644795262138
 10
0.3271582261259955
 20
0.2299309009156389
 10
0.3271065540576254
 20
0.2300514131151353
 10
0.326974503353928
 20
0.2300858450576628
 10
0.3269170902200134
 20
0.2301030612292528
  0
LWPOLYLINE
  5
31D6
330
2
100
AcDbEntity
  8
0
  6
Continuous
 62
     1
370
     0
100
AcDbPolyline
 90
        5
 70
   128
 43
0.0
 10
0.3265783518624535
 20
0.2289438490251847
 10
0.3264405597834031
 20
0.2289036783587953
 10
0.3262625786964974
 20
0.2289094170826572
 10
0.3261305279928
 20
0.2289610651967747
 10
0.3260731148588853
 20
0.2289954971393021
  0
LWPOLYLINE
  5
31D7
330
2
100
AcDbEntity
  8
0
  6
Continuous
 62
     1
370
     0
100
AcDbPolyline
 90
        4
 70
   128
 43
0.0
 10
0.3259582882812478
 20
0.2284847553229748
 10
0.3260444079821196
 20
0.2286339607411354
 10
0.32618220006117
 20
0.2287028248265159
 10
0.326325733205765
 20
0.2287659501880344
  0
LWPOLYLINE
  5
31D8
330
2
100
AcDbEntity
  8
0
  6
Continuous
 62
     1
370
     0
100
AcDbPolyline
 90
        4
 70
   128
 43
0.0
 10
0.3267965222670229
 20
0.2297816954974769
 10
0.3266529891224275
 20
0.2297874340210146
 10
0.3265037142926705
 20
0.2297816954974769
 10
0.3263314745811185
 20
0.2298103887161409
  0
LWPOLYLINE
  5
31D9
330
2
100
AcDbEntity
  8
0
  6
Continuous
 62
     1
370
     0
100
AcDbPolyline
 90
       10
 70
   128
 43
0.0
 10
0.3259723520484701
 20
0.2220552461218935
 10
0.325997221634327
 20
0.2219593653417438
 10
0.3260611717324089
 20
0.2219416094933269
 10
0.3261428859531636
 20
0.2220339393041191
 10
0.3261926248150693
 20
0.2222150477560204
 10
0.3264377674773344
 20
0.2234366417134436
 10
0.326614614974103
 20
0.2243742332442848
 42
-0.1877626103121123
 10
0.3281954672974494
 20
0.2269180772979399
 42
-0.2975275848848335
 10
0.3295273656915549
 20
0.2270050165505433
 42
-0.1126695967390892
 10
0.3302238504113927
 20
0.2263721417013059
 42
0.5218682246024878
  0
LWPOLYLINE
  5
31DA
330
2
100
AcDbEntity
  8
0
  6
Continuous
 62
     1
370
     0
100
AcDbPolyline
 90
       20
 70
   128
 43
0.0
 10
0.325835376625227
 20
0.2219917820099995
 10
0.3259283511540217
 20
0.2216997114749382
 10
0.3260301803260803
 20
0.2215890787268589
 10
0.326118727688147
 20
0.2215890787268589
 10
0.3262028475736773
 20
0.2216952862852112
 10
0.3263091042222723
 20
0.2219519543008212
 10
0.3264552069204604
 20
0.2226024750197893
 10
0.3267080954205514
 20
0.2237328083034784
 10
0.3268763351916118
 20
0.2244010303823356
 42
-0.146957342712426
 10
0.3279851105788176
 20
0.2262642836613719
 42
-0.3428041273319609
 10
0.3296806869331127
 20
0.2264030877802547
 42
-0.4500336093659536
 10
0.3296528249047483
 20
0.2244313664702151
 42
-0.4721297501046006
 10
0.3287332103622187
 20
0.2246305719248156
 42
-0.2784131734806048
 10
0.3287687525489576
 20
0.2255351586318093
 42
-0.4993260735605439
 10
0.3295859557888287
 20
0.2255731824100915
 42
0.8536964465549932
 10
0.3289801294677325
 20
0.2248471113423841
 42
0.2140394811897069
 10
0.3293220430549489
 20
0.2247507189309737
 42
0.6683126709382457
 10
0.3295190869827167
 20
0.2260856071607292
 42
0.3074607588483795
 10
0.3282207151597636
 20
0.226052188063799
 42
0.138495124126138
 10
0.327184020181098
 20
0.2249948185263241
 42
1.173477404645987
  0
LWPOLYLINE
  5
31DB
330
2
100
AcDbEntity
  8
0
  6
Continuous
 62
     1
370
     0
100
AcDbPolyline
 90
        8
 70
   128
 43
0.0
 10
0.3269473947803916
 20
0.2243916791891933
 10
0.3272173630356743
 20
0.2242297731359596
 10
0.3273022103520993
 20
0.2241526750726085
 10
0.3275490383738462
 20
0.2242529027152255
 10
0.3278267199370384
 20
0.2242683221676359
 10
0.3280812615765033
 20
0.2241526750726085
 10
0.3282278156660079
 20
0.2239907690193735
 10
0.3282663825153615
 20
0.2238057335871994
  0
LWPOLYLINE
  5
31DC
330
2
100
AcDbEntity
  8
0
  6
Continuous
 62
     1
370
     0
100
AcDbPolyline
 90
        2
 70
   128
 43
0.0
 10
0.3269628217060184
 20
0.2234973411334666
 10
0.3271787961863213
 20
0.2240524476303157
  0
LWPOLYLINE
  5
31DD
330
2
100
AcDbEntity
  8
0
  6
Continuous
 62
     1
370
     0
100
AcDbPolyline
 90
        2
 70
   128
 43
0.0
 10
0.3271016624876142
 20
0.2236284080815555
 10
0.3272713568106547
 20
0.2240061886721094
  0
LWPOLYLINE
  5
31DE
330
2
100
AcDbEntity
  8
0
  6
Continuous
 62
     1
370
     0
100
AcDbPolyline
 90
        8
 70
   128
 43
0.0
 10
0.3272944970441904
 20
0.2237055061449066
 10
0.3275258981403111
 20
0.2238905415770819
 10
0.3277495862383313
 20
0.2239599299142287
 10
0.32798870095217
 20
0.2239136709560224
 10
0.3280889748844122
 20
0.2238288629661397
 10
0.327865286786392
 20
0.2237826042082591
 10
0.3275798919152908
 20
0.2237517649027887
 10
0.3274333378257862
 20
0.2237440551765828
  0
LWPOLYLINE
  5
31DF
330
2
100
AcDbEntity
  8
0
  6
Continuous
 62
     1
370
     0
100
AcDbPolyline
 90
       11
 70
   128
 43
0.0
 10
0.3258296076768969
 20
0.22209907272819
 10
0.3256934622312375
 20
0.222105876782927
 10
0.3255845461845186
 20
0.222105876782927
 10
0.325468822710612
 20
0.222105876782927
 10
0.3254075574149697
 20
0.2221739179312579
 10
0.3254007502975911
 20
0.2223712371211925
 10
0.3254484010486676
 20
0.222486907053324
 10
0.3254484010486676
 20
0.2225277315820635
 10
0.3253122559128165
 20
0.2225209275273281
 10
0.3252305686454209
 20
0.2225209275273281
 10
0.325142074260647
 20
0.2225209275273281
  0
LWPOLYLINE
  5
31E0
330
2
100
AcDbEntity
  8
0
  6
Continuous
 62
     1
370
     0
100
AcDbPolyline
 90
        9
 70
   128
 43
0.0
 10
0.325788764043199
 20
0.2225209275273281
 10
0.3256594260247267
 20
0.2225277315820635
 10
0.3256934622312375
 20
0.2226365974594596
 10
0.3257343058649353
 20
0.2227862878655951
 10
0.3257206913203696
 20
0.2228951535426655
 10
0.3256117752736501
 20
0.2230040194200616
 10
0.3254347865041018
 20
0.2230788646231293
 10
0.3252918339410638
 20
0.2230448439487997
 10
0.3250876163921919
 20
0.2229631946909965
  0
LWPOLYLINE
  5
31E1
330
2
100
AcDbEntity
  8
0
  6
Continuous
 62
     1
370
     0
100
AcDbPolyline
 90
        7
 70
   128
 43
0.0
 10
0.3258091857051435
 20
0.2225821644205995
 10
0.325788764043199
 20
0.2228339166493941
 10
0.3258636438834077
 20
0.2229768030007943
 10
0.3259793673573137
 20
0.2230176275295324
 10
0.3261563561268626
 20
0.2229904111102651
 10
0.3262516576290158
 20
0.2229359782717292
 10
0.3262788867181472
 20
0.222854329013926
  0
LWPOLYLINE
  5
31E2
330
2
100
AcDbEntity
  8
0
  6
Continuous
 62
     1
370
     0
100
AcDbPolyline
 90
        2
 70
   128
 43
0.0
 10
0.3262925012627136
 20
0.2229699987457333
 10
0.3262856938355259
 20
0.2241947388147304
  0
LWPOLYLINE
  5
31E3
330
2
100
AcDbEntity
  8
0
  6
Continuous
 62
     1
370
     0
100
AcDbPolyline
 90
       10
 70
   128
 43
0.0
 10
0.3259453308409945
 20
0.2225141234725926
 10
0.3259725599301266
 20
0.2226297932043985
 10
0.3260270181083902
 20
0.2227250507719981
 10
0.3261291270377304
 20
0.2227046384074663
 10
0.3261427415822968
 20
0.2226161850949277
 10
0.3261359341551091
 20
0.2224801027982629
 10
0.326108705065977
 20
0.222418865904993
 10
0.3260814759768456
 20
0.2223984535404612
 10
0.3259453308409945
 20
0.2224596904337311
 10
0.3258432219116543
 20
0.2224801027982629
  0
LWPOLYLINE
  5
31E4
330
2
100
AcDbEntity
  8
0
  6
Continuous
 62
     1
370
     0
100
AcDbPolyline
 90
        3
 70
   128
 43
0.0
 10
0.3260065961366367
 20
0.2220786603636582
 10
0.3260814759768456
 20
0.2221603096214614
 10
0.326101897948599
 20
0.2223031959728615
  0
LWPOLYLINE
  5
31E5
330
2
100
AcDbEntity
  8
0
  6
Continuous
 62
     1
370
     0
100
AcDbPolyline
 90
        8
 70
   128
 43
0.0
 10
0.3255889392722859
 20
0.2231869209852836
 10
0.3255528936463639
 20
0.2233610605145829
 10
0.3253306130093962
 20
0.2233490508020714
 10
0.3251503854994016
 20
0.223475151881977
 10
0.3250542639335447
 20
0.2236432864548599
 10
0.3250602717444042
 20
0.2238354402524389
 10
0.3251864308155151
 20
0.2237273536411371
 10
0.3253726661363692
 20
0.2236132624740686
  0
LWPOLYLINE
  5
31E6
330
2
100
AcDbEntity
  8
0
  6
Continuous
 62
     1
370
     0
100
AcDbPolyline
 90
       23
 70
   128
 43
0.0
 10
0.3252284839424883
 20
0.223757377822254
 10
0.3252525142565004
 20
0.2239555363759253
 10
0.3254267342654439
 20
0.2241236709488068
 10
0.325300575194333
 20
0.2245019737878725
 10
0.3251323626864397
 20
0.2250844401370288
 10
0.3249941883034191
 20
0.2255708293870694
 10
0.3250422489314433
 20
0.2259791564072506
 10
0.3251684083123625
 20
0.226147290980132
 10
0.3253546433234082
 20
0.226123271755436
 10
0.3253486051512934
 20
0.2265218553451967
 10
0.3254447267171502
 20
0.2267200140991935
 10
0.3254987948462248
 20
0.2267500380799848
 10
0.3254867798441232
 20
0.2269542015900753
 10
0.3254687570311616
 20
0.2271583648998404
 10
0.3255168176591858
 20
0.2273084852044422
 10
0.3257210754831925
 20
0.2273625284099309
 10
0.325895295492136
 20
0.2273865476346285
 10
0.3260034320600943
 20
0.22755468220751
 10
0.3260575004989779
 20
0.2277048023117877
 10
0.3260935458150916
 20
0.2277948744544842
 10
0.3261235839399632
 20
0.2278909513532729
 10
0.3260575004989779
 20
0.2279630090273656
 10
0.3260635080000291
 20
0.2280350667014583
  0
LWPOLYLINE
  5
31E7
330
2
100
AcDbEntity
  8
0
  6
Continuous
 62
     1
370
     0
100
AcDbPolyline
 90
       16
 70
   128
 43
0.0
 10
0.3264840389599525
 20
0.2279209753340642
 10
0.3263578795790332
 20
0.2275366677389047
 10
0.326309818951009
 20
0.2273925523907208
 10
0.3262917961380479
 20
0.2272724562672345
 10
0.3264359783319283
 20
0.2272544417986292
 10
0.3265561299019888
 20
0.2271943938370481
 10
0.3266101983408725
 20
0.2270803024696554
 10
0.3265921755279107
 20
0.226900158184261
 10
0.3265140767750156
 20
0.2267200140991935
 10
0.32645400114489
 20
0.2265338650577082
 10
0.3264239630200183
 20
0.2259634084210635
 10
0.3264419858329793
 20
0.2256811824807879
 10
0.3265144026937975
 20
0.2252395497478946
 10
0.3264903723797854
 20
0.2248132084594351
 10
0.3264723495668245
 20
0.2244889488258568
 10
0.326340182684854
 20
0.2242427518227904
  0
LWPOLYLINE
  5
31E8
330
2
100
AcDbEntity
  8
0
  6
Continuous
 62
     1
370
     0
100
AcDbPolyline
 90
        8
 70
   128
 43
0.0
 10
0.3262801067449192
 20
0.2246871075798551
 10
0.3262080158028835
 20
0.2248612469088303
 10
0.3262080158028835
 20
0.2250954343997107
 10
0.3262740992438688
 20
0.2252695737286859
 10
0.326346190185905
 20
0.2252095257671048
 10
0.3263642129988661
 20
0.2250654104189209
 10
0.3263762283107759
 20
0.2249212950707356
 10
0.3263161523708419
 20
0.2247411507853426
  0
LWPOLYLINE
  5
31E9
330
2
100
AcDbEntity
  8
0
  6
Continuous
 62
     1
370
     0
100
AcDbPolyline
 90
       10
 70
   128
 43
0.0
 10
0.3261359248608473
 20
0.224188708617303
 10
0.3259316667270322
 20
0.2242067228855812
 10
0.3257093860900644
 20
0.2243208142529754
 10
0.3255712117070428
 20
0.2246570833987397
 10
0.3254991207650066
 20
0.224909285358224
 10
0.3254991207650066
 20
0.2253956748085915
 10
0.3256072573329656
 20
0.2257979968723534
 10
0.325613264834016
 20
0.2259721362013286
 10
0.3254991207650066
 20
0.226080222812629
 10
0.3254090070100093
 20
0.2261102467934203
  0
LWPOLYLINE
  5
31EA
330
2
100
AcDbEntity
  8
0
  6
Continuous
 62
     1
370
     0
100
AcDbPolyline
 90
        4
 70
   128
 43
0.0
 10
0.3256437453657521
 20
0.2261061857954038
 10
0.3256978138046351
 20
0.2264124309603769
 10
0.3257578897445699
 20
0.2266286039826534
 10
0.3255776619247669
 20
0.2268027433116286
  0
LWPOLYLINE
  5
31EB
330
2
100
AcDbEntity
  8
0
  6
Continuous
 62
     1
370
     0
100
AcDbPolyline
 90
       11
 70
   128
 43
0.0
 10
0.3263286103994254
 20
0.226010108896615
 10
0.3261423750785712
 20
0.2260401328774048
 10
0.326076291637586
 20
0.2260341281213126
 10
0.3260522613235739
 20
0.2261061857954038
 10
0.3261363675775202
 20
0.2262863300807983
 10
0.3261964435174542
 20
0.2264124309603769
 10
0.3262204738314663
 20
0.2265985800018636
 10
0.3262204738314663
 20
0.2267607098186528
 10
0.3261543903904811
 20
0.2270249212903245
 10
0.3260642766354838
 20
0.2272290846000895
 10
0.3259200944416035
 20
0.2273371712113899
  0
LWPOLYLINE
  5
31EC
330
2
100
AcDbEntity
  8
0
  6
Continuous
 62
     1
370
     0
100
AcDbPolyline
 90
        2
 70
   128
 43
0.0
 10
0.3262565191475799
 20
0.2272110703318098
 10
0.3261964435174542
 20
0.2270909742083234
  0
LWPOLYLINE
  5
31ED
330
2
100
AcDbEntity
  8
0
  6
Continuous
 62
     1
370
     0
100
AcDbPolyline
 90
        7
 70
   128
 43
0.0
 10
0.326280549461592
 20
0.2268808059421392
 10
0.3263346179004758
 20
0.2268207577802339
 10
0.3263766710274488
 20
0.2268147530241402
 10
0.3264367469673837
 20
0.2269168346790227
 10
0.3264547694705363
 20
0.2270249212903245
 10
0.326424731655473
 20
0.2270789644958119
 10
0.3263706635263984
 20
0.2271450174138109
  0
LWPOLYLINE
  5
31EE
330
2
100
AcDbEntity
  8
0
  6
Continuous
 62
     1
370
     0
100
AcDbPolyline
 90
        2
 70
   128
 43
0.0
 10
0.3263165950875147
 20
0.2260641521021024
 10
0.3262865572724516
 20
0.2266225992265612
  0
LWPOLYLINE
  5
31EF
330
2
100
AcDbEntity
  8
0
  6
Continuous
 62
     1
370
     0
100
AcDbPolyline
 90
        4
 70
   128
 43
0.0
 10
0.3256428800699733
 20
0.2235451790570615
 10
0.3257870622638543
 20
0.2237253233424545
 10
0.3258591532058906
 20
0.2239294866522209
 10
0.3258651607069412
 20
0.2240375732635213
  0
LWPOLYLINE
  5
31F0
330
2
100
AcDbEntity
  8
0
  6
Continuous
 62
     1
370
     0
100
AcDbPolyline
 90
        4
 70
   128
 43
0.0
 10
0.3260574035288463
 20
0.223310991566181
 10
0.3261415097827924
 20
0.2235631935256667
 10
0.3261415097827924
 20
0.2237853713040356
 10
0.3260513960277952
 20
0.224031568507429
  0
LWPOLYLINE
  5
31F1
330
2
100
AcDbEntity
  8
0
  6
Continuous
 62
     1
370
     0
100
AcDbPolyline
 90
       29
 70
   128
 43
0.0
 10
0.3255525931318971
 20
0.2216742370859959
 10
0.3254865096909119
 20
0.2214760785323232
 10
0.3253543428089415
 20
0.2213980161021383
 10
0.32521616842592
 20
0.2213860063896267
 10
0.3251560924859858
 20
0.2213499776527431
 10
0.3251981456129589
 20
0.2212298815292568
 10
0.3252101609248696
 20
0.221109785405769
 10
0.325071986232039
 20
0.2208996171395861
 10
0.3250659787309885
 20
0.2206173911993106
 10
0.3252101609248696
 20
0.2205333238127064
 10
0.3254084112478251
 20
0.2205813622621015
 10
0.3253663581208521
 20
0.2204192324453123
 10
0.3253363199959804
 20
0.2202150691355473
 10
0.3253963959359145
 20
0.2199988961132707
 10
0.3254624793768998
 20
0.2197226749290874
 10
0.3255586006329482
 20
0.2195785595809035
 10
0.3257928965818265
 20
0.2196085835616933
 10
0.3258649875238622
 20
0.2197346844412734
 10
0.3259430862767579
 20
0.2199868864007591
 10
0.3260151772187942
 20
0.2201730354422459
 10
0.3260632378468178
 20
0.2203531797276389
 10
0.3261413365997134
 20
0.2203892084645224
 10
0.3262494731676718
 20
0.2204072229331263
 10
0.326279510982735
 20
0.220593371974613
 10
0.3262735034816839
 20
0.2207555017914008
 10
0.3262194353526093
 20
0.220929641120376
 10
0.3262314503547108
 20
0.221247895797535
 10
0.3260992834727404
 20
0.2213379679402316
 10
0.3260752531587283
 20
0.2214940930009285
  0
LWPOLYLINE
  5
31F2
330
2
100
AcDbEntity
  8
0
  6
Continuous
 62
     1
370
     0
100
AcDbPolyline
 90
        4
 70
   128
 43
0.0
 10
0.3255465856308467
 20
0.2205153093441025
 10
0.3256427068868943
 20
0.2206834441173096
 10
0.3257568509559039
 20
0.2210317227752585
 10
0.3257688662678144
 20
0.2214040208582305
  0
LWPOLYLINE
  5
31F3
330
2
100
AcDbEntity
  8
0
  6
Continuous
 62
     1
370
     0
100
AcDbPolyline
 90
        4
 70
   128
 43
0.0
 10
0.3254264337509778
 20
0.2206894488734018
 10
0.3255766234459092
 20
0.2209896892822826
 10
0.3256427068868943
 20
0.2212659102661403
 10
0.3256787525128171
 20
0.2215541409625082
  0
LWPOLYLINE
  5
31F4
330
2
100
AcDbEntity
  8
0
  6
Continuous
 62
     1
370
     0
100
AcDbPolyline
 90
        3
 70
   128
 43
0.0
 10
0.3260332000317552
 20
0.22041322768922
 10
0.3259430862767579
 20
0.2208695929584693
 10
0.3258469650207094
 20
0.2213199536719533
  0
LWPOLYLINE
  5
31F5
330
2
100
AcDbEntity
  8
0
  6
Continuous
 62
     1
370
     0
100
AcDbPolyline
 90
        3
 70
   128
 43
0.0
 10
0.3264916977415251
 20
0.2202244794247041
 10
0.3264445188291419
 20
0.2209183611935674
 10
0.3263501613141846
 20
0.2211945665520374
  0
LWPOLYLINE
  5
31F6
330
2
100
AcDbEntity
  8
0
  6
Continuous
 62
     1
370
     0
100
AcDbPolyline
 90
        5
 70
   128
 43
0.0
 10
0.3263501613141846
 20
0.2217537140143554
 10
0.3265590960107532
 20
0.2217402405236022
 10
0.3265725757885224
 20
0.2218547647943461
 10
0.3265456165427932
 20
0.2220231826274488
 10
0.3264849578526409
 20
0.222090549880885
  0
LWPOLYLINE
  5
31F7
330
2
100
AcDbEntity
  8
0
  6
Continuous
 62
     1
370
     0
100
AcDbPolyline
 90
        3
 70
   128
 43
0.0
 10
0.3265523564316775
 20
0.2220972866262616
 10
0.3265456165427932
 20
0.2224678060193471
 10
0.3264849578526409
 20
0.2226025403258952
  0
LWPOLYLINE
  5
31F8
330
2
100
AcDbEntity
  8
0
  6
Continuous
 62
     1
370
     0
100
AcDbPolyline
 90
       14
 70
   128
 43
0.0
 10
0.3259658823127966
 20
0.2184771446817131
 10
0.3259456626461425
 20
0.2187668235309363
 10
0.3259658823127966
 20
0.2190228186532779
 10
0.3260332805820247
 20
0.2190699756705857
 10
0.3260332805820247
 20
0.2191710264505764
 10
0.3260332805820247
 20
0.2193529177744323
 10
0.3260332805820247
 20
0.2194943888263556
 10
0.3260400204709088
 20
0.2195684928251669
 10
0.3260198008042555
 20
0.2198042779117057
 10
0.3260602398277539
 20
0.2200467995432956
 10
0.3261613372315961
 20
0.2201276402874849
 10
0.3262893941909772
 20
0.2201545870686629
 10
0.3264511502849718
 20
0.2201209035421084
 10
0.3265859468234281
 20
0.2200467995432956
  0
LWPOLYLINE
  5
31F9
330
2
100
AcDbEntity
  8
0
  6
Continuous
 62
     1
370
     0
100
AcDbPolyline
 90
        3
 70
   128
 43
0.0
 10
0.3263837520157437
 20
0.2186792462416959
 10
0.3264174511503577
 20
0.2192922874666969
 10
0.3264107112614728
 20
0.2196493333690307
  0
LWPOLYLINE
  5
31FA
330
2
100
AcDbEntity
  8
0
  6
Continuous
 62
     1
370
     0
100
AcDbPolyline
 90
        3
 70
   128
 43
0.0
 10
0.3261141586290219
 20
0.2195348090982867
 10
0.3262287358106333
 20
0.2195887028609711
 10
0.3262893941909772
 20
0.2194809155359279
  0
LWPOLYLINE
  5
31FB
330
2
100
AcDbEntity
  8
0
  6
Continuous
 62
     1
370
     0
100
AcDbPolyline
 90
        4
 70
   128
 43
0.0
 10
0.3260871990734837
 20
0.2190901859067141
 10
0.3261950366760193
 20
0.2191103959425169
 10
0.3262893941909772
 20
0.2190362921440297
 10
0.3262961340798615
 20
0.2190160819079013
  0
LWPOLYLINE
  5
31FC
330
2
100
AcDbEntity
  8
0
  6
Continuous
 62
     1
370
     0
100
AcDbPolyline
 90
        2
 70
   128
 43
0.0
 10
0.326464630062741
 20
0.219790804420954
 10
0.3265050687764308
 20
0.2200333262528694
  0
LWPOLYLINE
  5
31FD
330
2
100
AcDbEntity
  8
0
  6
Continuous
 62
     1
370
     0
100
AcDbPolyline
 90
        5
 70
   128
 43
0.0
 10
0.3234486055351304
 20
0.2255393808918306
 10
0.3236008765250988
 20
0.2262547229277842
 10
0.3236313307230926
 20
0.2270613851341378
 10
0.3236008765250988
 20
0.2279137077261803
 10
0.323570422327105
 20
0.2284768492778043
  0
LWPOLYLINE
  5
31FE
330
2
100
AcDbEntity
  8
0
  6
Continuous
 62
     1
370
     0
100
AcDbPolyline
 90
        2
 70
   128
 43
0.0
 10
0.318002085991978
 20
0.2298978051440248
 10
0.318171224827969
 20
0.2300161474179844
  0
LWPOLYLINE
  5
31FF
330
2
100
AcDbEntity
  8
0
  6
Continuous
 62
     1
370
     0
100
AcDbPolyline
 90
        3
 70
   128
 43
0.0
 10
0.3182219665407281
 20
0.2295596841895763
 10
0.3185264161976635
 20
0.2294920601188819
 10
0.3188477795523137
 20
0.2295089661866366
  0
LWPOLYLINE
  5
3200
330
2
100
AcDbEntity
  8
0
  6
Continuous
 62
     1
370
     0
100
AcDbPolyline
 90
        2
 70
   128
 43
0.0
 10
0.3182219665407281
 20
0.2292722814383931
 10
0.3184756744849052
 20
0.2291708452321895
  0
LWPOLYLINE
  5
3201
330
2
100
AcDbEntity
  8
0
  6
Continuous
 62
     1
370
     0
100
AcDbPolyline
 90
       12
 70
   128
 43
0.0
 10
0.3266980569981364
 20
0.1236025758052391
 10
0.3266980569981364
 20
0.1166184455960969
 42
-0.8779639311632411
 10
0.3265772346921794
 20
0.115479171986815
 10
0.326602377219526
 20
0.1146330939404577
 10
0.3271387540278035
 20
0.1142058664121
 10
0.3271387540278035
 20
0.1139880641427399
 42
-0.5020096845354747
 10
0.3286905177900303
 20
0.1117309044731171
 10
0.3311712603734097
 20
0.111446086120879
 42
0.4102902273640335
 10
0.3320707423055376
 20
0.1106056512431331
 10
0.3320707423055376
 20
0.1069670535129596
 10
0.3250037511694358
 20
0.1032912765767042
 10
0.3099858393632644
 20
0.1056242394058131
  0
LWPOLYLINE
  5
3202
330
2
100
AcDbEntity
  8
0
  6
Continuous
 62
     1
370
     0
100
AcDbPolyline
 90
       36
 70
   128
 43
0.0
 10
0.3162494320266211
 20
0.2102322181219365
 10
0.3162494320266211
 20
0.2171852044307248
 42
-0.8007191513799314
 10
0.3161914581389084
 20
0.2182029291561796
 42
0.1237552028959039
 10
0.3164553677752441
 20
0.2183552974557598
 10
0.3160139854481261
 20
0.2234976079669993
 10
0.3158183492885947
 20
0.2236932441265298
 10
0.3157779861708598
 20
0.2237736238175699
 10
0.3147373442289949
 20
0.2238417070342515
 10
0.314578409872898
 20
0.2239324847232694
 10
0.3144270438342249
 20
0.2241367343733142
 10
0.3141810739826549
 20
0.2242842480428448
 42
-0.6553769846132642
 10
0.3123821194126596
 20
0.2268183987474474
 42
0.2110199460729311
 10
0.3117221633105522
 20
0.227562775356673
 42
0.0898395180014138
 10
0.3111766809139408
 20
0.2288723604757655
 42
-0.3017670883996293
 10
0.3105402355766071
 20
0.2302064385893026
 42
-0.4502469052324615
 10
0.3108792955156273
 20
0.2304303565950676
 42
0.0983842267423906
 10
0.3228481695760987
 20
0.2326072087869138
 42
-0.0961326970975885
 10
0.3251404344430482
 20
0.2323756507682101
 42
0.0819904518326952
 10
0.325226905776826
 20
0.2317803703997626
 42
0.1573962916908429
 10
0.3318382048310017
 20
0.2293448529473278
 42
-0.3005892628028119
 10
0.3312550431870431
 20
0.2280103371226285
 42
0.305244834580756
 10
0.3307639597952285
 20
0.2268598925635964
 42
0.2870890953247791
 10
0.3302421836526991
 20
0.2263230184894679
 42
-0.611374115231746
 10
0.3282895788242768
 20
0.2237093519933629
 42
-0.3776471162807607
 10
0.3274514542009832
 20
0.2233489079700095
 42
0.1237136383636191
 10
0.3269224083966443
 20
0.2233859239108295
 42
0.2497157929641012
 10
0.3268483421141562
 20
0.2233277558035001
 42
-0.3700516877096065
 10
0.3269797069013292
 20
0.2228662089155308
 42
0.0842107467564301
 10
0.3266352535021575
 20
0.2215895809428233
 42
-0.1638339888494382
 10
0.3266828676958041
 20
0.2208175317732254
 42
0.0547063321655878
 10
0.3265770584110124
 20
0.2201353784599068
 42
0.1224485929576654
 10
0.3266191803155234
 20
0.2199266234899449
 42
-0.1067932883289089
 10
0.3266773754066683
 20
0.2196780870859883
 42
-0.1121516749707425
 10
0.3264075620557501
 20
0.2183878127416438
 42
-0.8573080321674435
 10
0.3266980569981364
 20
0.2171640534661676
 10
0.3266980569981364
 20
0.2101799232570254
  0
LINE
  5
3203
330
2
100
AcDbEntity
  8
Dimensione
 62
     1
100
AcDbLine
 10
0.3162494320266211
 20
0.2102322181219365
 30
0.0
 11
0.3162494320266211
 21
0.1236548706701503
 31
0.0
  0
LINE
  5
3204
330
2
100
AcDbEntity
  8
Dimensione
 62
     1
100
AcDbLine
 10
0.3266980569981364
 20
0.2101799232570254
 30
0.0
 11
0.3266980569981364
 21
0.1236025758052391
 31
0.0
  0
LWPOLYLINE
  5
320B
330
2
100
AcDbEntity
  8
Dimensione
 62
     1
100
AcDbPolyline
 90
        6
 70
     0
 43
0.0
 10
0.316535066971246
 20
0.1166433173456312
 10
0.316535066971246
 20
0.2136233927098262
 42
-0.2679491924311208
 10
0.3170835967309615
 20
0.2145734741231172
 42
-0.2679491924311255
 10
0.317623143109993
 20
0.2145734741231172
 42
-0.2979430792939217
 10
0.3178895912301787
 20
0.2140464052081826
 10
0.3178895912301787
 20
0.1164099799920818
  0
LWPOLYLINE
  5
320C
330
2
100
AcDbEntity
  8
Dimensione
 62
     1
100
AcDbPolyline
 90
        5
 70
     0
 43
0.0
 10
0.3179858338344013
 20
0.1163961585947209
 10
0.3179858338344013
 20
0.2138797081278164
 42
-0.4142135623730959
 10
0.3190948663215165
 20
0.2149887406149316
 42
-0.4142135623730952
 10
0.3200978023886768
 20
0.2139858045477713
 10
0.3200978023886767
 20
0.1161832743726161
  0
LWPOLYLINE
  5
320E
330
2
100
AcDbEntity
  8
Dimensione
 62
     1
100
AcDbPolyline
 90
        6
 70
     0
 43
0.0
 10
0.3204005876819288
 20
0.1161667951735265
 10
0.3204005876819288
 20
0.2134265787635828
 42
-0.2679491924311236
 10
0.3212379786067948
 20
0.2148769823912478
 42
-0.2679491924311208
 10
0.3221643295041716
 20
0.2148769823912478
 42
-0.2679491924311296
 10
0.3227138028692389
 20
0.2139252666055455
 10
0.3227138028692389
 20
0.1161560132944893
  0
LWPOLYLINE
  5
320F
330
2
100
AcDbEntity
  8
Dimensione
 62
     1
100
AcDbPolyline
 90
        6
 70
     0
 43
0.0
 10
0.3229711429734735
 20
0.1161673907254598
 10
0.3229711429734735
 20
0.2134828508015739
 42
-0.2679491924311236
 10
0.3237110691702894
 20
0.2147644405683101
 42
-0.2679491924311198
 10
0.3245847778431248
 20
0.2147644405683101
 42
-0.2506062375507625
 10
0.3250197870676041
 20
0.2140645385446323
 10
0.3250197870676041
 20
0.1163484448248257
  0
LWPOLYLINE
  5
3212
330
2
100
AcDbEntity
  8
Dimensione
 62
     1
100
AcDbPolyline
 90
        6
 70
     0
 43
0.0
 10
0.3251852016879688
 20
0.1163701363460776
 10
0.3251852016879688
 20
0.2139867877499567
 42
-0.2679491924311208
 10
0.325684629558862
 20
0.2148518221970596
 42
-0.2679491924311303
 10
0.3259911744663363
 20
0.2148518221970596
 42
-0.2679491924311363
 10
0.3263263485292315
 20
0.2142712836907459
 10
0.3263263485292314
 20
0.1165490289963857
  0
TEXT
  5
321F
330
2
100
AcDbEntity
  8
Text
100
AcDbText
 10
0.3467050934548801
 20
0.0631053788071426
 30
0.0
 40
0.005
  1
scala 1:20
  7
Arial
100
AcDbText
  0
LWPOLYLINE
  5
3223
330
2
100
AcDbEntity
  8
Dimensione
 62
     2
100
AcDbPolyline
 90
        5
 70
     0
 43
0.0
 10
0.1009947523255477
 20
0.1551295137595972
 10
0.1157744161986329
 20
0.1594468275605507
 42
-0.1045220413873161
 10
0.1334332085915264
 20
0.1607900025352791
 42
0.1909048442990748
 10
0.1533953355244364
 20
0.1657788437424159
 42
0.0019678449479376
 10
0.1624166630474662
 20
0.1723027592295807
 42
-1.966795092680843
  0
LWPOLYLINE
  5
3224
330
2
100
AcDbEntity
  8
Dimensione
 62
     2
100
AcDbPolyline
 90
        5
 70
     0
 43
0.0
 10
0.1009947523255477
 20
0.1522555903501654
 10
0.1157744161986329
 20
0.156572904151119
 42
-0.1045220413873161
 10
0.1334332085915264
 20
0.1579160791258474
 42
0.1909048442990748
 10
0.1533953355244364
 20
0.1629049203329842
 42
0.0019678449479376
 10
0.1624166630474662
 20
0.169428835820149
 42
-1.966795092680843
  0
LWPOLYLINE
  5
3225
330
2
100
AcDbEntity
  8
0
  6
Continuous
 62
     1
370
     0
100
AcDbPolyline
 90
       12
 70
   128
 43
0.0
 10
0.1477425751326883
 20
0.1597711857087785
 10
0.1477425751326883
 20
0.1374733341222761
 42
-0.8779639311632411
 10
0.1473398341128317
 20
0.1336757554246698
 10
0.1474236425373201
 20
0.1308554952701453
 10
0.1492115652315782
 20
0.1294314035089529
 10
0.1492115652315782
 20
0.1287053959444193
 42
-0.5020096845354747
 10
0.1543841111056681
 20
0.12118153037901
 10
0.1626532530502658
 20
0.1202321358715499
 42
0.4102902273640335
 10
0.1656515261573589
 20
0.1174306862790633
 10
0.1656515261573589
 20
0.1053020271784852
 10
0.1420948890370195
 20
0.0930494373909671
 10
0.0920351830164482
 20
0.1008259801546634
  0
LWPOLYLINE
  5
3226
330
2
100
AcDbEntity
  8
Dimensione
 62
     1
100
AcDbPolyline
 90
        2
 70
     0
 43
0.0
 10
0.1469776916745643
 20
0.1782121194045994
 10
0.1469776916745643
 20
0.1623435901703304
  0
LWPOLYLINE
  5
3227
330
2
100
AcDbEntity
  8
Dimensione
 62
     1
100
AcDbPolyline
 90
        2
 70
     0
 43
0.0
 10
0.1469776916745642
 20
0.1594696667608987
 10
0.1469776916745642
 20
0.137328317149695
  0
LWPOLYLINE
  5
3228
330
2
100
AcDbEntity
  8
Dimensione
 62
     1
100
AcDbPolyline
 90
        5
 70
     0
 43
0.0
 10
0.14312150358582
 20
0.1611983279332721
 10
0.14312150358582
 20
0.1772507445679015
 42
-0.2679491924311208
 10
0.1448091810496549
 20
0.180173887682052
 42
-0.2679491924311303
 10
0.1458450642314892
 20
0.180173887682052
 42
-0.2679491924311363
 10
0.1469776916745643
 20
0.1782121194045994
  0
LWPOLYLINE
  5
3229
330
2
100
AcDbEntity
  8
Dimensione
 62
     1
100
AcDbPolyline
 90
        2
 70
     0
 43
0.0
 10
0.1425625309228025
 20
0.158207372141726
 10
0.1425625309228025
 20
0.13662731365146
  0
LWPOLYLINE
  5
322A
330
2
100
AcDbEntity
  8
Dimensione
 62
     1
100
AcDbPolyline
 90
        6
 70
     0
 43
0.0
 10
0.1356397084882053
 20
0.1605849021735969
 10
0.1356397084882053
 20
0.1755478299318833
 42
-0.2679491924311236
 10
0.1381400830969226
 20
0.1798786057921369
 42
-0.2679491924311198
 10
0.1410925383422902
 20
0.1798786057921369
 42
-0.2506062375507625
 10
0.1425625309228026
 20
0.1775134817350015
 10
0.1425625309228025
 20
0.1610812955511577
  0
LWPOLYLINE
  5
322B
330
2
100
AcDbEntity
  8
Dimensione
 62
     1
100
AcDbPolyline
 90
        2
 70
     0
 43
0.0
 10
0.1347700992417671
 20
0.157770734770879
 10
0.1347700992417671
 20
0.1359445585164355
  0
LWPOLYLINE
  5
322C
330
2
100
AcDbEntity
  8
Dimensione
 62
     1
100
AcDbPolyline
 90
        6
 70
     0
 43
0.0
 10
0.1269532324464846
 20
0.1611566114098182
 10
0.1269532324464846
 20
0.1753576742439522
 42
-0.2679491924311236
 10
0.1297829619723692
 20
0.1802589095544622
 42
-0.2679491924311208
 10
0.1329133069615467
 20
0.1802589095544622
 42
-0.2679491924311296
 10
0.1347700992417671
 20
0.1770428509860185
 10
0.1347700992417671
 20
0.1606446581803107
  0
LWPOLYLINE
  5
322D
330
2
100
AcDbEntity
  8
Dimensione
 62
     1
100
AcDbPolyline
 90
        2
 70
     0
 43
0.0
 10
0.1259300538343497
 20
0.1582506586528853
 10
0.1259300538343496
 20
0.1360116285107632
  0
LWPOLYLINE
  5
322E
330
2
100
AcDbEntity
  8
Dimensione
 62
     1
100
AcDbPolyline
 90
        5
 70
     0
 43
0.0
 10
0.1187932440143369
 20
0.1602107077853879
 10
0.1187932440143369
 20
0.1768888987926567
 42
-0.4142135623730959
 10
0.12254091058292
 20
0.1806365653612398
 42
-0.4142135623730952
 10
0.1259300538343497
 20
0.1772474221098101
 10
0.1259300538343497
 20
0.161124582062317
  0
LWPOLYLINE
  5
322F
330
2
100
AcDbEntity
  8
Dimensione
 62
     1
100
AcDbPolyline
 90
        2
 70
     0
 43
0.0
 10
0.118468018924442
 20
0.1572656419447615
 10
0.118468018924442
 20
0.1367658357092316
  0
LWPOLYLINE
  5
3231
330
2
100
AcDbEntity
  8
Dimensione
 62
     1
100
AcDbPolyline
 90
        6
 70
     0
 43
0.0
 10
0.1138907812506016
 20
0.1588965956184087
 10
0.1138907812506016
 20
0.1760227521881394
 42
-0.2679491924311208
 10
0.1157443848792076
 20
0.1792332878499796
 42
-0.2679491924311255
 10
0.1175676316734975
 20
0.1792332878499796
 42
-0.2979430792939217
 10
0.118468018924442
 20
0.1774522051722507
 10
0.118468018924442
 20
0.1601395653541932
  0
LWPOLYLINE
  5
3232
330
2
100
AcDbEntity
  8
0
  6
Continuous
 62
     1
370
     0
100
AcDbPolyline
 90
       36
 70
   128
 43
0.0
 10
0.1129138252276371
 20
0.1586112152635449
 10
0.1129138252276371
 20
0.1841047053984149
 42
-0.8007191513799314
 10
0.1127205789352614
 20
0.187497121149931
 42
0.1237552028959039
 10
0.1136002777230471
 20
0.1880050154818649
 10
0.1121290032993203
 20
0.2051460505193298
 10
0.1114768827675494
 20
0.2057981710510983
 10
0.111342339041766
 20
0.2060661033545652
 10
0.107873532568883
 20
0.2062930474101705
 10
0.1073437513818933
 20
0.2065956397068966
 10
0.10683919791965
 20
0.2072764718737128
 10
0.1060192984144168
 20
0.2077681841054816
 42
-0.6553769846132642
 10
0.1000227831810987
 20
0.2162153531208236
 42
0.2110199460729311
 10
0.0978229295074074
 20
0.218696608484909
 42
0.0898395180014138
 10
0.096004654852036
 20
0.2230618922152172
 42
-0.3017670883996293
 10
0.0938831703942573
 20
0.2275088192603408
 42
-0.4502469052324615
 10
0.0950133701909911
 20
0.2282552126128909
 42
0.0983842267423906
 10
0.1349096170592292
 20
0.2355113865857117
 42
-0.0961326970975885
 10
0.1425504999490605
 20
0.2347395265233658
 42
0.0819904518326952
 10
0.14283873772832
 20
0.2327552586285406
 42
0.1573962916908429
 10
0.164876401242239
 20
0.2246368671204247
 42
-0.3005892628028119
 10
0.1629325290957108
 20
0.2201884810380938
 42
0.305244834580756
 10
0.1612955844563286
 20
0.2163536658413201
 42
0.2870890953247791
 10
0.1595563306478971
 20
0.2145640855942252
 42
-0.611374115231746
 10
0.1530476478864896
 20
0.205851863940542
 42
-0.3776471162807607
 10
0.1502538991421777
 20
0.204650383862697
 42
0.1237136383636191
 10
0.1484904131277145
 20
0.2047737703320972
 42
0.2497157929641012
 10
0.1482435255194211
 20
0.2045798766409994
 42
-0.3700516877096065
 10
0.1486814081433311
 20
0.203041387014435
 42
0.0842107467564301
 10
0.1475332301460919
 20
0.1987859604387432
 42
-0.1638339888494382
 10
0.1476919441249138
 20
0.1962124632067499
 42
0.0547063321655878
 10
0.1473392465089418
 20
0.1939386188290211
 42
0.1224485929576654
 10
0.1474796528573115
 20
0.1932427689291485
 42
-0.1067932883289089
 10
0.1476736364944613
 20
0.1924143142492932
 42
-0.1121516749707425
 10
0.1467742586580669
 20
0.1881133997681447
 42
-0.8573080321674435
 10
0.1477425751326883
 20
0.1840342021832241
 10
0.1477425751326883
 20
0.1626451091182102
  0
LWPOLYLINE
  5
3234
330
2
100
AcDbEntity
  8
Dimensione
 62
     1
100
AcDbPolyline
 90
        2
 70
     0
 43
0.0
 10
0.14312150358582
 20
0.1367033483611431
 10
0.14312150358582
 20
0.1583244045238404
  0
LWPOLYLINE
  5
3236
330
2
100
AcDbEntity
  8
Dimensione
 62
     1
100
AcDbPolyline
 90
        2
 70
     0
 43
0.0
 10
0.1356397084882053
 20
0.1359861298847909
 10
0.1356397084882053
 20
0.1577109787641652
  0
LWPOLYLINE
  5
3238
330
2
100
AcDbEntity
  8
Dimensione
 62
     1
100
AcDbPolyline
 90
        2
 70
     0
 43
0.0
 10
0.1269532324464846
 20
0.1359582283484999
 10
0.1269532324464846
 20
0.1582826880003865
  0
LWPOLYLINE
  5
323A
330
2
100
AcDbEntity
  8
Dimensione
 62
     1
100
AcDbPolyline
 90
        2
 70
     0
 43
0.0
 10
0.1187932440143369
 20
0.1367194709706025
 10
0.1187932440143369
 20
0.1573367843759561
  0
LWPOLYLINE
  5
323C
330
2
100
AcDbEntity
  8
Dimensione
 62
     1
100
AcDbPolyline
 90
        2
 70
     0
 43
0.0
 10
0.1138907812506016
 20
0.1375512937325218
 10
0.1138907812506016
 20
0.156022672208977
  0
DIMENSION
  5
3247
330
2
100
AcDbEntity
  8
Dimensione
100
AcDbDimension
  2
*D19
 10
0.2755399559041649
 20
0.2304303565950676
 30
0.0
 11
0.2755399559041649
 21
0.1678020128465356
 31
0.0
 70
    32
  1
255 cm
 71
     5
 42
0.1252566874970642
  3
Bovelacci
100
AcDbAlignedDimension
 13
0.3102459762517672
 23
0.1051736690980034
 33
0.0
 14
0.3108792955156273
 24
0.2304303565950676
 34
0.0
 50
90.0
100
AcDbRotatedDimension
  0
VIEWPORT
  5
7B
330
79
100
AcDbEntity
 67
     1
  8
0
100
AcDbViewport
 10
145.330337524414
 20
101.8116638660431
 30
0.0
 40
351.1337450215151
 41
222.1517806396485
 68
     1
 69
     1
 12
145.330337524414
 22
101.8116638660431
 13
0.0
 23
0.0
 14
10.0
 24
10.0
 15
10.0
 25
10.0
 16
0.0
 26
0.0
 36
1.0
 17
0.0
 27
0.0
 37
0.0
 42
50.0
 43
0.0
 44
0.0
 45
222.1517806396485
 50
0.0
 51
0.0
 72
  1000
 90
    32800
  1

281
     0
 71
     1
 74
     0
110
0.0
120
0.0
130
0.0
111
1.0
121
0.0
131
0.0
112
0.0
122
1.0
132
0.0
 79
     0
146
0.0
170
     0
  0
VIEWPORT
  5
80
330
79
100
AcDbEntity
 67
     1
  8
Sezione
100
AcDbViewport
 10
145.3303314447403
 20
101.8116623163223
 30
0.0
 40
232.5285303115845
 41
162.8986597061157
 68
     2
 69
     2
 12
0.2100067158578973
 22
0.1484909068076998
 13
0.0
 23
0.0
 14
10.0
 24
10.0
 15
10.0
 25
10.0
 16
0.0
 26
0.0
 36
1.0
 17
0.0
 27
0.0
 37
0.0
 42
50.0
 43
0.0
 44
0.0
 45
0.2752830087467564
 50
0.0
 51
0.0
 72
  1000
 90
    32864
  1

281
     0
 71
     1
 74
     0
110
0.0
120
0.0
130
0.0
111
1.0
121
0.0
131
0.0
112
0.0
122
1.0
132
0.0
 79
     0
146
0.0
170
     0
  0
ENDSEC
  0
SECTION
  2
OBJECTS
  0
DICTIONARY
  5
9
330
0
100
AcDbDictionary
281
     1
  3
ACAD_2007HEADERVARS_RT
350
14A
  3
ACAD_COLOR
350
A1
  3
ACAD_GROUP
350
9C
  3
ACAD_IMAGE_DICT
350
3205
  3
ACAD_IMAGE_VARS
350
3207
  3
ACAD_LAYOUT
350
78
  3
ACAD_MATERIAL
350
B
  3
ACAD_MLINESTYLE
350
9D
  3
ACAD_PLOTSETTINGS
350
9E
  3
ACAD_PLOTSTYLENAME
350
8
  3
ACAD_TABLESTYLE
350
A2
  3
ACAD_VISUALSTYLE
350
7F
  3
AcDbVariableDictionary
350
A9
  3
AEC_CLASSIFICATION_SYSTEM_DEFS
350
1217
  3
AEC_PROPERTY_SET_DEFS
350
10D
  3
ASE_INDEX_DICTIONARY
350
249E
  0
DICTIONARY
  5
8B
330
8A
100
AcDbDictionary
280
     1
281
     1
  3
ACAD_LAYERFILTERS
360
25D9
  3
ACAD_LAYERSTATES
360
8D
  3
ACLYDICTIONARY
360
25D8
  0
DICTIONARY
  5
3
330
2
100
AcDbDictionary
280
     1
281
     1
  3
ACAD_SORTENTS
360
A8
  0
DICTIONARY
  5
30BB
330
30AD
100
AcDbDictionary
280
     1
281
     1
  3
ACAD_DIMASSOC
360
30C6
  0
DICTIONARY
  5
30D5
330
30C7
100
AcDbDictionary
280
     1
281
     1
  3
ACAD_DIMASSOC
360
30E0
  0
DICTIONARY
  5
14A
102
{ACAD_REACTORS
330
9
102
}
330
9
100
AcDbDictionary
281
     1
  3
DIMFXL
350
14B
  0
DICTIONARY
  5
A1
102
{ACAD_REACTORS
330
9
102
}
330
9
100
AcDbDictionary
281
     1
  0
DICTIONARY
  5
9C
102
{ACAD_REACTORS
330
9
102
}
330
9
100
AcDbDictionary
281
     1
  0
DICTIONARY
  5
3205
102
{ACAD_REACTORS
330
9
102
}
330
9
100
AcDbDictionary
281
     1
  3
C3220-COL-CORINZI-55386
350
3206
  0
RASTERVARIABLES
  5
3207
102
{ACAD_REACTORS
330
9
102
}
330
9
100
AcDbRasterVariables
 90
        0
 70
     1
 71
     1
 72
     1
  0
DICTIONARY
  5
78
102
{ACAD_REACTORS
330
9
102
}
330
9
100
AcDbDictionary
281
     1
  3
Layout1
350
82
  3
Layout2
350
89
  3
Model
350
77
  0
DICTIONARY
  5
B
102
{ACAD_REACTORS
330
9
102
}
330
9
100
AcDbDictionary
281
     1
  3
ByBlock
350
A0
  3
ByLayer
350
9F
  3
Global
350
A
  0
DICTIONARY
  5
9D
102
{ACAD_REACTORS
330
9
102
}
330
9
100
AcDbDictionary
281
     1
  3
Standard
350
A3
  0
DICTIONARY
  5
9E
102
{ACAD_REACTORS
330
9
102
}
330
9
100
AcDbDictionary
281
     1
  0
ACDBDICTIONARYWDFLT
  5
8
102
{ACAD_REACTORS
330
9
102
}
330
9
100
AcDbDictionary
281
     1
  3
Normal
350
7
100
AcDbDictionaryWithDefault
340
7
  0
DICTIONARY
  5
A2
102
{ACAD_REACTORS
330
9
102
}
330
9
100
AcDbDictionary
281
     1
  3
Standard
350
A4
  0
DICTIONARY
  5
7F
102
{ACAD_REACTORS
330
9
102
}
330
9
100
AcDbDictionary
281
     1
  3
2dWireframe
350
7E
  3
3D Hidden
350
D8
  3
3dWireframe
350
A6
  3
Basic
350
D7
  3
Brighten
350
DB
  3
ColorChange
350
DF
  3
Conceptual
350
D9
  3
Dim
350
DA
  3
Facepattern
350
DE
  3
Flat
350
D3
  3
FlatWithEdges
350
D4
  3
Gouraud
350
D5
  3
GouraudWithEdges
350
D6
  3
Linepattern
350
DD
  3
Realistic
350
A5
  3
Thicken
350
DC
  0
DICTIONARY
  5
A9
102
{ACAD_REACTORS
330
9
102
}
330
9
100
AcDbDictionary
281
     1
  3
CTABLESTYLE
350
AA
  3
DIMASSOC
350
AE
  3
HIDETEXT
350
AD
  3
INDEXCTL
350
AC
  3
PROJECTNAME
350
16A
  3
SORTENTS
350
AB
  0
DICTIONARY
  5
1217
102
{ACAD_REACTORS
330
9
102
}
330
9
100
AcDbDictionary
281
     1
  0
DICTIONARY
  5
10D
102
{ACAD_REACTORS
330
9
102
}
330
9
100
AcDbDictionary
281
     1
  0
DICTIONARY
  5
249E
102
{ACAD_REACTORS
330
9
102
}
330
9
100
AcDbDictionary
281
     1
  3
ASEBlockHierarchyIndexRecord
350
24A0
1001
DCO15
1040
1602050354.187
  0
DICTIONARY
  5
25D9
102
{ACAD_REACTORS
330
8B
102
}
330
8B
100
AcDbDictionary
281
     1
  0
DICTIONARY
  5
8D
102
{ACAD_REACTORS
330
8B
102
}
330
8B
100
AcDbDictionary
281
     1
  0
DICTIONARY
  5
25D8
102
{ACAD_REACTORS
330
8B
102
}
330
8B
100
AcDbDictionary
281
     1
1001
ACAD
1000
<All
  0
SORTENTSTABLE
  5
A8
102
{ACAD_REACTORS
330
3
102
}
330
3
100
AcDbSortentsTable
330
2
331
31F2
  5
31F6
331
3039
  5
303B
331
31D4
  5
31D8
331
301B
  5
301D
331
2FFD
  5
2FFF
331
31BF
  5
31C3
331
2FDF
  5
2FE1
331
31A1
  5
31A5
331
3165
  5
3169
331
321F
  5
323A
331
305E
  5
3060
331
2FCE
  5
2FD0
331
3201
  5
3155
331
3048
  5
304A
331
3183
  5
3187
331
31E3
  5
31E7
331
302A
  5
302C
331
300C
  5
300E
331
31CE
  5
31D2
331
2FEE
  5
2FF0
331
31B0
  5
31B4
331
3174
  5
3178
331
322E
  5
3226
331
306D
  5
306F
331
3192
  5
3196
331
13
  5
D
331
22
  5
23
331
31B8
  5
31BC
331
2FD8
  5
2FDA
331
319A
  5
319E
331
3236
  5
322F
331
317C
  5
3180
331
309B
  5
309D
331
315E
  5
3162
331
3057
  5
3059
331
31FA
  5
31FE
331
3041
  5
3043
331
2FC7
  5
2FC9
331
31DC
  5
31E0
331
3005
  5
3007
331
31C7
  5
31CB
331
2FE7
  5
2FE9
331
31A9
  5
31AD
331
316D
  5
3171
331
3227
  5
3238
331
3066
  5
3068
331
2FD6
  5
2FD8
331
31EB
  5
31EF
331
3032
  5
3034
331
3157
  5
315B
331
318B
  5
318F
331
2FF6
  5
2FF8
331
3014
  5
3016
331
3023
  5
3025
331
3050
  5
3052
331
31F3
  5
31F7
331
303A
  5
303C
331
31D5
  5
31D9
331
301C
  5
301E
331
2FFE
  5
3000
331
31C0
  5
31C4
331
2FE0
  5
2FE2
331
31A2
  5
31A6
331
3166
  5
316A
331
305F
  5
3061
331
2FCF
  5
2FD1
331
3202
  5
3154
331
3049
  5
304B
331
3184
  5
3188
331
31E4
  5
31E8
331
302B
  5
302D
331
300D
  5
300F
331
31CF
  5
31D3
331
2FEF
  5
2FF1
331
31B1
  5
31B5
331
3175
  5
3179
331
322F
  5
321F
331
306E
  5
3070
331
3193
  5
3197
331
14
  5
10
331
23
  5
24
331
31B9
  5
31BD
331
2FD9
  5
2FDB
331
319B
  5
319F
331
317D
  5
3181
331
309C
  5
309E
331
315F
  5
3163
331
3058
  5
305A
331
31FB
  5
31FF
331
3042
  5
3044
331
2FC8
  5
2FCA
331
31DD
  5
31E1
331
3024
  5
3026
331
3006
  5
3008
331
31C8
  5
31CC
331
2FE8
  5
2FEA
331
31AA
  5
31AE
331
316E
  5
3172
331
3228
  5
3236
331
3067
  5
3069
331
2FD7
  5
2FD9
331
31EC
  5
31F0
331
3033
  5
3035
331
318C
  5
3190
331
2FF7
  5
2FF9
331
3015
  5
3017
331
D
  5
13
331
3158
  5
315C
331
3212
  5
321B
331
3051
  5
3053
331
31F4
  5
31F8
331
303B
  5
303D
331
31D6
  5
31DA
331
301D
  5
301F
331
2FFF
  5
3001
331
31C1
  5
31C5
331
2FE1
  5
2FE3
331
31A3
  5
31A7
331
3167
  5
316B
331
3151
  5
3153
331
3060
  5
3062
331
2FD0
  5
2FD2
331
3203
  5
320B
331
304A
  5
304C
331
3185
  5
3189
331
31E5
  5
31E9
331
302C
  5
302E
331
24
  5
18
331
300E
  5
3010
331
31B2
  5
31B6
331
2FF0
  5
2FF2
331
3194
  5
3198
331
306F
  5
3071
331
3176
  5
317A
331
15
  5
11
331
2FF8
  5
2FFA
331
31BA
  5
31BE
331
2FDA
  5
2FDC
331
319C
  5
31A0
331
3238
  5
322A
331
317E
  5
3182
331
3160
  5
3164
331
3059
  5
305B
331
31FC
  5
3200
331
3043
  5
3045
331
2FC9
  5
2FCB
331
309D
  5
309F
331
31DE
  5
31E2
331
3007
  5
3009
331
31C9
  5
31CD
331
2FE9
  5
2FEB
331
31AB
  5
31AF
331
316F
  5
3173
331
3229
  5
3232
331
3068
  5
306A
331
31ED
  5
31F1
331
3034
  5
3036
331
320B
  5
320E
331
318D
  5
3191
331
3025
  5
3027
331
3016
  5
3018
331
1D
  5
1E
331
3231
  5
321E
331
3070
  5
3072
331
3159
  5
315D
331
3052
  5
3054
331
31F5
  5
31F9
331
303C
  5
303E
331
31D7
  5
31DB
331
301E
  5
3020
331
3000
  5
3002
331
31C2
  5
31C6
331
2FE2
  5
2FE4
331
31A4
  5
31A8
331
3168
  5
316C
331
3152
  5
3156
331
3061
  5
3063
331
2FD1
  5
2FD3
331
3204
  5
320C
331
304B
  5
304D
331
3186
  5
318A
331
31E6
  5
31EA
331
302D
  5
302F
331
25
  5
25
331
300F
  5
3011
331
31B3
  5
31B7
331
2FF1
  5
2FF3
331
3195
  5
3199
331
3177
  5
317B
331
16
  5
12
331
31D0
  5
31D4
331
2FF9
  5
2FFB
331
31BB
  5
31BF
331
2FDB
  5
2FDD
331
319D
  5
31A1
331
317F
  5
3183
331
309E
  5
30AD
331
3161
  5
3165
331
305A
  5
305C
331
31FD
  5
3201
331
3044
  5
3046
331
2FCA
  5
2FCC
331
31DF
  5
31E3
331
3008
  5
300A
331
31CA
  5
31CE
331
2FEA
  5
2FEC
331
31AC
  5
31B0
331
318E
  5
3192
331
3170
  5
3174
331
322A
  5
3231
331
320C
  5
320F
331
31EE
  5
31F2
331
3035
  5
3037
331
3069
  5
306B
331
30AD
  5
3151
331
3026
  5
3028
331
3017
  5
3019
331
1E
  5
1F
331
1CA
  5
1CA
331
3178
  5
317C
331
3071
  5
309B
331
315A
  5
315E
331
3232
  5
2FC4
331
3053
  5
3055
331
31F6
  5
31FA
331
303D
  5
303F
331
31D8
  5
31DC
331
301F
  5
3021
331
3001
  5
3003
331
31C3
  5
31C7
331
2FE3
  5
2FE5
331
31A5
  5
31A9
331
3169
  5
316D
331
3223
  5
323B
331
3062
  5
3064
331
2FD2
  5
2FD4
331
3153
  5
3157
331
3187
  5
318B
331
31E7
  5
31EB
331
302E
  5
3030
331
304C
  5
304E
331
2FC3
  5
2FC3
331
3010
  5
3012
331
31B4
  5
31B8
331
2FF2
  5
2FF4
331
3196
  5
319A
331
17
  5
17
331
31D1
  5
31D5
331
3018
  5
301A
331
2FFA
  5
2FFC
331
31BC
  5
31C0
331
2FDC
  5
2FDE
331
319E
  5
31A2
331
323A
  5
3225
331
3180
  5
3184
331
3162
  5
3166
331
305B
  5
305D
331
31FE
  5
3202
331
3045
  5
3047
331
2FCB
  5
2FCD
331
309F
  5
30C7
331
31E0
  5
31E4
331
3027
  5
3029
331
3009
  5
300B
331
31CB
  5
31CF
331
2FEB
  5
2FED
331
31AD
  5
31B1
331
3171
  5
3175
331
322B
  5
322C
331
306A
  5
306C
331
31EF
  5
31F3
331
3036
  5
3038
331
318F
  5
3193
331
1F
  5
21
331
10
  5
14
331
3179
  5
317D
331
315B
  5
315F
331
3072
  5
309C
331
3054
  5
3056
331
2FC4
  5
2FC6
331
31F7
  5
31FB
331
303E
  5
3040
331
31D9
  5
31DD
331
3002
  5
3004
331
31C4
  5
31C8
331
2FE4
  5
2FE6
331
31A6
  5
31AA
331
3020
  5
3022
331
3188
  5
318C
331
316A
  5
316E
331
3224
  5
323C
331
3063
  5
3065
331
2FD3
  5
2FD5
331
3154
  5
3158
331
31E8
  5
31EC
331
302F
  5
3031
331
3011
  5
3013
331
31B5
  5
31B9
331
2FF3
  5
2FF5
331
3197
  5
319B
331
304D
  5
304F
331
10F
  5
10F
331
31F0
  5
31F4
331
31D2
  5
31D6
331
3019
  5
301B
331
2FFB
  5
2FFD
331
31BD
  5
31C1
331
2FDD
  5
2FDF
331
319F
  5
31A3
331
3163
  5
3167
331
305C
  5
305E
331
2FCC
  5
2FCE
331
31FF
  5
3203
331
3046
  5
3048
331
3181
  5
3185
331
31E1
  5
31E5
331
3028
  5
302A
331
300A
  5
300C
331
31CC
  5
31D0
331
2FEC
  5
2FEE
331
31AE
  5
31B2
331
3172
  5
3176
331
322C
  5
322B
331
306B
  5
306D
331
3037
  5
3039
331
320E
  5
3212
331
3190
  5
3194
331
11
  5
15
331
3198
  5
319C
331
3234
  5
3235
331
317A
  5
317E
331
315C
  5
3160
331
3055
  5
3057
331
2FC5
  5
2FC7
331
31F8
  5
31FC
331
303F
  5
3041
331
31DA
  5
31DE
331
3003
  5
3005
331
31C5
  5
31C9
331
2FE5
  5
2FE7
331
31A7
  5
31AB
331
3021
  5
3023
331
3189
  5
318D
331
316B
  5
316F
331
3064
  5
3066
331
2FD4
  5
2FD6
331
3155
  5
3159
331
3225
  5
2FC5
331
31E9
  5
31ED
331
3030
  5
3032
331
3012
  5
3014
331
31B6
  5
31BA
331
2FF4
  5
2FF6
331
304E
  5
3050
331
110
  5
110
331
31F1
  5
31F5
331
3038
  5
303A
331
31D3
  5
31D7
331
301A
  5
301C
331
2FFC
  5
2FFE
331
31BE
  5
31C2
331
2FDE
  5
2FE0
331
31A0
  5
31A4
331
30C7
  5
3152
331
323C
  5
321D
331
3164
  5
3168
331
305D
  5
305F
331
2FCD
  5
2FCF
331
3200
  5
3204
331
3047
  5
3049
331
3182
  5
3186
331
31E2
  5
31E6
331
3029
  5
302B
331
300B
  5
300D
331
31CD
  5
31D1
331
2FED
  5
2FEF
331
31AF
  5
31B3
331
3173
  5
3177
331
322D
  5
3227
331
306C
  5
306E
331
320F
  5
321A
331
3191
  5
3195
331
12
  5
16
331
21
  5
22
331
3199
  5
319D
331
317B
  5
317F
331
315D
  5
3161
331
3056
  5
3058
331
2FC6
  5
2FC8
331
31F9
  5
31FD
331
3040
  5
3042
331
31DB
  5
31DF
331
3004
  5
3006
331
31C6
  5
31CA
331
2FE6
  5
2FE8
331
31A8
  5
31AC
331
316C
  5
3170
331
3226
  5
3237
331
3065
  5
3067
331
2FD5
  5
2FD7
331
304F
  5
3051
331
3156
  5
315A
331
318A
  5
318E
331
31EA
  5
31EE
331
3013
  5
3015
331
31B7
  5
31BB
331
2FF5
  5
2FF7
331
3031
  5
3033
331
3022
  5
3024
  0
DIMASSOC
  5
30C6
102
{ACAD_REACTORS
330
30BB
102
}
330
30BB
100
AcDbDimAssoc
330
30AD
 90
        3
 70
     0
 71
     0
  1
AcDbOsnapPointRef
 72
     1
331
309E
 73
     2
 91
        0
 40
0.9999999999999998
 10
0.0
 20
0.0
 30
2.000000000000000E+50
 75
     0
  1
AcDbOsnapPointRef
 72
     1
331
309D
 73
     2
 91
        0
 40
0.9999999999999998
 10
0.0
 20
0.0
 30
2.000000000000000E+50
 75
     0
  0
DIMASSOC
  5
30E0
102
{ACAD_REACTORS
330
30D5
102
}
330
30D5
100
AcDbDimAssoc
330
30C7
 90
        3
 70
     0
 71
     0
  1
AcDbOsnapPointRef
 72
     1
331
309B
 73
     2
 91
        0
 40
1.0
 10
0.0
 20
0.0
 30
2.000000000000000E+50
 75
     0
  1
AcDbOsnapPointRef
 72
     1
331
309C
 73
     2
 91
        0
 40
1.0
 10
0.0
 20
0.0
 30
2.000000000000000E+50
 75
     0
  0
XRECORD
  5
14B
102
{ACAD_REACTORS
330
14A
102
}
330
14A
100
AcDbXrecord
280
     1
 40
0.18
  0
IMAGEDEF
  5
3206
102
{ACAD_REACTORS
330
3205
330
3208
102
}
330
3205
100
AcDbRasterImageDef
 90
        0
  1
\\Commander\f\Lavori\BRIOMEDIA\Amadei\Originali\Website\Classicstyl\COLONNE\C3220-COL-CORINZI-55386.jpg
 10
740.0
 20
2864.0
 11
0.01
 21
0.01
280
     1
281
     0
  0
LAYOUT
  5
82
102
{ACAD_XDICTIONARY
360
83
102
}
102
{ACAD_REACTORS
330
78
102
}
330
78
100
AcDbPlotSettings
  1

  2
C:\Documents and Settings\All Users\Dati applicazioni\Autodesk\ADT 2006\enu\Plotters\Default Windows System Printer.pc3
  4
A4
  6

 40
3.174999952316281
 41
3.174999952316281
 42
3.175003051757812
 43
3.17498779296875
 44
209.9733276367186
 45
297.0106506347656
 46
0.0
 47
0.0
 48
0.0
 49
0.0
140
0.0
141
0.0
142
1.0
143
1.0
 70
   688
 72
     1
 73
     1
 74
     5
  7

 75
    16
147
1.0
 76
     0
 77
     2
 78
   300
148
0.0
149
0.0
100
AcDbLayout
  1
Layout1
 70
     1
 71
     1
 10
-3.17498779296875
 20
-3.174999952316281
 11
293.8356628417969
 21
206.7983276844024
 12
0.0
 22
0.0
 32
0.0
 14
29.06606628894805
 24
20.36233246326446
 34
0.0
 15
261.5945966005325
 25
183.2609921693802
 35
0.0
146
0.0
 13
0.0
 23
0.0
 33
0.0
 16
1.0
 26
0.0
 36
0.0
 17
0.0
 27
1.0
 37
0.0
 76
     0
330
79
331
7B
1001
ACAD_PSEXT
1000
C:\Documents and Settings\All Users\Dati applicazioni\Autodesk\ADT 2006\enu\Plotters\Default Windows System Printer.pc3
1000
Microsoft Office Document Image Writer Driver
1000
Microsoft Document Imaging Writer Port:
1000

1070
     0
  0
LAYOUT
  5
89
102
{ACAD_REACTORS
330
78
102
}
330
78
100
AcDbPlotSettings
  1

  2
C:\Documents and Settings\All Users\Dati applicazioni\Autodesk\ADT 2006\enu\Plotters\Default Windows System Printer.pc3
  4

  6

 40
0.0
 41
0.0
 42
0.0
 43
0.0
 44
0.0
 45
0.0
 46
0.0
 47
0.0
 48
0.0
 49
0.0
140
0.0
141
0.0
142
1.0
143
1.0
 70
   688
 72
     0
 73
     0
 74
     5
  7

 75
    16
147
1.0
 76
     0
 77
     2
 78
   300
148
0.0
149
0.0
100
AcDbLayout
  1
Layout2
 70
     1
 71
     2
 10
0.0
 20
0.0
 11
12.0
 21
9.0
 12
0.0
 22
0.0
 32
0.0
 14
0.0
 24
0.0
 34
0.0
 15
0.0
 25
0.0
 35
0.0
146
0.0
 13
0.0
 23
0.0
 33
0.0
 16
1.0
 26
0.0
 36
0.0
 17
0.0
 27
1.0
 37
0.0
 76
     0
330
86
  0
LAYOUT
  5
77
102
{ACAD_REACTORS
330
78
102
}
330
78
100
AcDbPlotSettings
  1

  2
C:\Documents and Settings\All Users\Dati applicazioni\Autodesk\ADT 2006\enu\Plotters\Default Windows System Printer.pc3
  4

  6

 40
0.0
 41
0.0
 42
0.0
 43
0.0
 44
0.0
 45
0.0
 46
0.0
 47
0.0
 48
0.0
 49
0.0
140
0.0
141
0.0
142
1.0
143
1.0
 70
  1712
 72
     0
 73
     0
 74
     0
  7

 75
     0
147
1.0
 76
     0
 77
     2
 78
   300
148
0.0
149
0.0
100
AcDbLayout
  1
Model
 70
     1
 71
     0
 10
0.0
 20
0.0
 11
12.0
 21
9.0
 12
0.0
 22
0.0
 32
0.0
 14
0.0
 24
0.0
 34
0.0
 15
0.0
 25
0.0
 35
0.0
146
0.0
 13
0.0
 23
0.0
 33
0.0
 16
1.0
 26
0.0
 36
0.0
 17
0.0
 27
1.0
 37
0.0
 76
     0
330
2
  0
MATERIAL
  5
A0
102
{ACAD_XDICTIONARY
360
C7
102
}
102
{ACAD_REACTORS
330
B
102
}
330
B
100
AcDbMaterial
  1
ByBlock
  0
MATERIAL
  5
9F
102
{ACAD_XDICTIONARY
360
C5
102
}
102
{ACAD_REACTORS
330
B
102
}
330
B
100
AcDbMaterial
  1
ByLayer
  0
MATERIAL
  5
A
102
{ACAD_XDICTIONARY
360
B1
102
}
102
{ACAD_REACTORS
330
B
102
}
330
B
100
AcDbMaterial
  1
Global
  0
MLINESTYLE
  5
A3
102
{ACAD_REACTORS
330
9D
102
}
330
9D
100
AcDbMlineStyle
  2
STANDARD
 70
     0
  3

 62
   256
 51
90.0
 52
90.0
 71
     2
 49
0.5
 62
   256
  6
BYLAYER
 49
-0.5
 62
   256
  6
BYLAYER
  0
ACDBPLACEHOLDER
  5
7
102
{ACAD_REACTORS
330
8
102
}
330
8
  0
TABLESTYLE
  5
A4
102
{ACAD_XDICTIONARY
360
155
102
}
102
{ACAD_REACTORS
330
A2
102
}
330
A2
100
AcDbTableStyle
  3
Standard
 70
     0
 71
     0
 40
1.5
 41
1.5
280
     0
281
     0
  7
Standard
140
4.5
170
     2
 62
     0
 63
     7
283
     0
274
    -2
284
     1
 64
     0
275
    -2
285
     1
 65
     0
276
    -2
286
     1
 66
     0
277
    -2
287
     1
 67
     0
278
    -2
288
     1
 68
     0
279
    -2
289
     1
 69
     0
  7
Standard
140
6.0
170
     5
 62
     0
 63
     7
283
     0
274
    -2
284
     1
 64
     0
275
    -2
285
     1
 65
     0
276
    -2
286
     1
 66
     0
277
    -2
287
     1
 67
     0
278
    -2
288
     1
 68
     0
279
    -2
289
     1
 69
     0
  7
Standard
140
4.5
170
     5
 62
     0
 63
     7
283
     0
274
    -2
284
     1
 64
     0
275
    -2
285
     1
 65
     0
276
    -2
286
     1
 66
     0
277
    -2
287
     1
 67
     0
278
    -2
288
     1
 68
     0
279
    -2
289
     1
 69
     0
  0
ACAD_PROXY_OBJECT
  5
7E
102
{ACAD_REACTORS
330
7F
102
}
330
7F
100
AcDbProxyObject
 90
      499
 91
      508
 95
  1310743
 70
     1
100
AcDbVisualStyle
  2
2dWireframe
 70
     4
 71
     0
 72
     2
 73
     0
 90
        0
 40
-0.6
 41
-30.0
 62
     5
 63
     7
 74
     1
 91
        4
 64
     7
 65
   257
 75
     1
175
     1
 42
1.0
 92
        0
 66
   257
 43
1.0
 76
     1
 77
     6
 78
     2
 67
     7
 79
     5
170
     0
171
     0
290
     0
174
     0
 93
        1
 44
0.0
173
     0
291
     0
 45
0.0
1001
ACAD
1000
AcDbSavedByObjectVersion
1070
     0
1000
AcDbSavedByObjectVersion
1070
     0
1000
AcDbSavedByObjectVersion
1070
     0
  0
ACAD_PROXY_OBJECT
  5
D8
102
{ACAD_REACTORS
330
7F
102
}
330
7F
100
AcDbProxyObject
 90
      499
 91
      508
 95
  1310743
 70
     1
100
AcDbVisualStyle
  2
3D Hidden
 70
     6
 71
     1
 72
     2
 73
     2
 90
        0
 40
-0.6
 41
-30.0
 62
     5
 63
     7
 74
     2
 91
        2
 64
     7
 65
   257
 75
     2
175
     1
 42
40.0
 92
        0
 66
   257
 43
1.0
 76
     1
 77
     6
 78
     2
 67
     7
 79
     3
170
     0
171
     0
290
     0
174
     0
 93
        1
 44
0.0
173
     0
291
     0
 45
0.0
1001
ACAD
1000
AcDbSavedByObjectVersion
1070
     0
1000
AcDbSavedByObjectVersion
1070
     0
  0
ACAD_PROXY_OBJECT
  5
A6
102
{ACAD_REACTORS
330
7F
102
}
330
7F
100
AcDbProxyObject
 90
      499
 91
      508
 95
  1310743
 70
     1
100
AcDbVisualStyle
  2
3dWireframe
 70
     5
 71
     0
 72
     2
 73
     0
 90
        0
 40
-0.6
 41
-30.0
 62
     5
 63
     7
 74
     1
 91
        4
 64
     7
 65
   257
 75
     1
175
     1
 42
1.0
 92
        0
 66
   257
 43
1.0
 76
     1
 77
     6
 78
     2
 67
     7
 79
     5
170
     0
171
     0
290
     0
174
     0
 93
        1
 44
0.0
173
     0
291
     0
 45
0.0
1001
ACAD
1000
AcDbSavedByObjectVersion
1070
     0
1000
AcDbSavedByObjectVersion
1070
     0
1000
AcDbSavedByObjectVersion
1070
     0
  0
ACAD_PROXY_OBJECT
  5
D7
102
{ACAD_REACTORS
330
7F
102
}
330
7F
100
AcDbProxyObject
 90
      499
 91
      508
 95
  1310743
 70
     1
100
AcDbVisualStyle
  2
Basic
 70
     7
 71
     1
 72
     0
 73
     1
 90
        0
 40
-0.6
 41
-30.0
 62
     5
 63
     7
 74
     0
 91
        4
 64
     7
 65
   257
 75
     1
175
     1
 42
1.0
 92
        8
 66
     7
 43
1.0
 76
     1
 77
     6
 78
     2
 67
     7
 79
     5
170
     0
171
     0
290
     0
174
     0
 93
        1
 44
0.0
173
     0
291
     1
 45
0.0
1001
ACAD
1000
AcDbSavedByObjectVersion
1070
     0
1000
AcDbSavedByObjectVersion
1070
     0
  0
ACAD_PROXY_OBJECT
  5
DB
102
{ACAD_REACTORS
330
7F
102
}
330
7F
100
AcDbProxyObject
 90
      499
 91
      508
 95
  1310743
 70
     1
100
AcDbVisualStyle
  2
Brighten
 70
    12
 71
     2
 72
     2
 73
     0
 90
        0
 40
-0.6
 41
-30.0
 62
     5
 63
     7
 74
     1
 91
        4
 64
     7
 65
   257
 75
     1
175
     1
 42
1.0
 92
        8
 66
     7
 43
1.0
 76
     1
 77
     6
 78
     2
 67
     7
 79
     5
170
     0
171
     0
290
     0
174
     0
 93
        1
 44
50.0
173
     0
291
     1
 45
0.0
1001
ACAD
1000
AcDbSavedByObjectVersion
1070
     0
1000
AcDbSavedByObjectVersion
1070
     0
  0
ACAD_PROXY_OBJECT
  5
DF
102
{ACAD_REACTORS
330
7F
102
}
330
7F
100
AcDbProxyObject
 90
      499
 91
      508
 95
  1310743
 70
     1
100
AcDbVisualStyle
  2
ColorChange
 70
    16
 71
     2
 72
     2
 73
     3
 90
        0
 40
-0.6
 41
-30.0
 62
     5
 63
     8
 74
     1
 91
        4
 64
     7
 65
   257
 75
     1
175
     1
 42
1.0
 92
        8
 66
     8
 43
1.0
 76
     1
 77
     6
 78
     2
 67
     7
 79
     5
170
     0
171
     0
290
     0
174
     0
 93
        1
 44
0.0
173
     0
291
     1
 45
0.0
1001
ACAD
1000
AcDbSavedByObjectVersion
1070
     0
1000
AcDbSavedByObjectVersion
1070
     0
  0
ACAD_PROXY_OBJECT
  5
D9
102
{ACAD_REACTORS
330
7F
102
}
330
7F
100
AcDbProxyObject
 90
      499
 91
      508
 95
  1310743
 70
     1
100
AcDbVisualStyle
  2
Conceptual
 70
     9
 71
     3
 72
     2
 73
     0
 90
        0
 40
-0.6
 41
-30.0
 62
     5
 63
     7
 74
     2
 91
        2
 64
     7
 65
   257
 75
     1
175
     1
 42
40.0
 92
        8
 66
     7
 43
1.0
 76
     1
 77
     6
 78
     2
 67
     7
 79
     3
170
     0
171
     0
290
     0
174
     0
 93
        1
 44
0.0
173
     0
291
     0
 45
0.0
1001
ACAD
1000
AcDbSavedByObjectVersion
1070
     0
1000
AcDbSavedByObjectVersion
1070
     0
  0
ACAD_PROXY_OBJECT
  5
DA
102
{ACAD_REACTORS
330
7F
102
}
330
7F
100
AcDbProxyObject
 90
      499
 91
      508
 95
  1310743
 70
     1
100
AcDbVisualStyle
  2
Dim
 70
    11
 71
     2
 72
     2
 73
     0
 90
        0
 40
-0.6
 41
-30.0
 62
     5
 63
     7
 74
     1
 91
        4
 64
     7
 65
   257
 75
     1
175
     1
 42
1.0
 92
        8
 66
     7
 43
1.0
 76
     1
 77
     6
 78
     2
 67
     7
 79
     5
170
     0
171
     0
290
     0
174
     0
 93
        1
 44
-50.0
173
     0
291
     1
 45
0.0
1001
ACAD
1000
AcDbSavedByObjectVersion
1070
     0
1000
AcDbSavedByObjectVersion
1070
     0
  0
ACAD_PROXY_OBJECT
  5
DE
102
{ACAD_REACTORS
330
7F
102
}
330
7F
100
AcDbProxyObject
 90
      499
 91
      508
 95
  1310743
 70
     1
100
AcDbVisualStyle
  2
Facepattern
 70
    15
 71
     2
 72
     2
 73
     0
 90
        0
 40
-0.6
 41
-30.0
 62
     5
 63
     7
 74
     1
 91
        4
 64
     7
 65
   257
 75
     1
175
     1
 42
1.0
 92
        8
 66
     7
 43
1.0
 76
     1
 77
     6
 78
     2
 67
     7
 79
     5
170
     0
171
     0
290
     0
174
     0
 93
        1
 44
0.0
173
     0
291
     1
 45
0.0
1001
ACAD
1000
AcDbSavedByObjectVersion
1070
     0
1000
AcDbSavedByObjectVersion
1070
     0
  0
ACAD_PROXY_OBJECT
  5
D3
102
{ACAD_REACTORS
330
7F
102
}
330
7F
100
AcDbProxyObject
 90
      499
 91
      508
 95
  1310743
 70
     1
100
AcDbVisualStyle
  2
Flat
 70
     0
 71
     2
 72
     1
 73
     1
 90
        2
 40
-0.6
 41
30.0
 62
     5
 63
     7
 74
     0
 91
        4
 64
     7
 65
   257
 75
     1
175
     1
 42
1.0
 92
        8
 66
     7
 43
1.0
 76
     1
 77
     6
 78
     2
 67
     7
 79
     5
170
     0
171
     0
290
     0
174
     0
 93
       13
 44
0.0
173
     0
291
     1
 45
0.0
1001
ACAD
1000
AcDbSavedByObjectVersion
1070
     0
1000
AcDbSavedByObjectVersion
1070
     0
  0
ACAD_PROXY_OBJECT
  5
D4
102
{ACAD_REACTORS
330
7F
102
}
330
7F
100
AcDbProxyObject
 90
      499
 91
      508
 95
  1310743
 70
     1
100
AcDbVisualStyle
  2
FlatWithEdges
 70
     1
 71
     2
 72
     1
 73
     1
 90
        2
 40
-0.6
 41
30.0
 62
     5
 63
     7
 74
     1
 91
        4
 64
     7
 65
   257
 75
     1
175
     1
 42
1.0
 92
        0
 66
   257
 43
1.0
 76
     1
 77
     6
 78
     2
 67
     7
 79
     5
170
     0
171
     0
290
     0
174
     0
 93
       13
 44
0.0
173
     0
291
     1
 45
0.0
1001
ACAD
1000
AcDbSavedByObjectVersion
1070
     0
1000
AcDbSavedByObjectVersion
1070
     0
  0
ACAD_PROXY_OBJECT
  5
D5
102
{ACAD_REACTORS
330
7F
102
}
330
7F
100
AcDbProxyObject
 90
      499
 91
      508
 95
  1310743
 70
     1
100
AcDbVisualStyle
  2
Gouraud
 70
     2
 71
     2
 72
     2
 73
     1
 90
        2
 40
-0.6
 41
30.0
 62
     5
 63
     7
 74
     0
 91
        4
 64
     7
 65
   257
 75
     1
175
     1
 42
1.0
 92
        0
 66
     7
 43
1.0
 76
     1
 77
     6
 78
     2
 67
     7
 79
     5
170
     0
171
     0
290
     0
174
     0
 93
       13
 44
0.0
173
     0
291
     1
 45
0.0
1001
ACAD
1000
AcDbSavedByObjectVersion
1070
     0
1000
AcDbSavedByObjectVersion
1070
     0
  0
ACAD_PROXY_OBJECT
  5
D6
102
{ACAD_REACTORS
330
7F
102
}
330
7F
100
AcDbProxyObject
 90
      499
 91
      508
 95
  1310743
 70
     1
100
AcDbVisualStyle
  2
GouraudWithEdges
 70
     3
 71
     2
 72
     2
 73
     1
 90
        2
 40
-0.6
 41
30.0
 62
     5
 63
     7
 74
     1
 91
        4
 64
     7
 65
   257
 75
     1
175
     1
 42
1.0
 92
        0
 66
   257
 43
1.0
 76
     1
 77
     6
 78
     2
 67
     7
 79
     5
170
     0
171
     0
290
     0
174
     0
 93
       13
 44
0.0
173
     0
291
     1
 45
0.0
1001
ACAD
1000
AcDbSavedByObjectVersion
1070
     0
1000
AcDbSavedByObjectVersion
1070
     0
  0
ACAD_PROXY_OBJECT
  5
DD
102
{ACAD_REACTORS
330
7F
102
}
330
7F
100
AcDbProxyObject
 90
      499
 91
      508
 95
  1310743
 70
     1
100
AcDbVisualStyle
  2
Linepattern
 70
    14
 71
     2
 72
     2
 73
     0
 90
        0
 40
-0.6
 41
-30.0
 62
     5
 63
     7
 74
     1
 91
        4
 64
     7
 65
   257
 75
     7
175
     7
 42
1.0
 92
        8
 66
     7
 43
1.0
 76
     1
 77
     6
 78
     2
 67
     7
 79
     5
170
     0
171
     0
290
     0
174
     0
 93
        1
 44
0.0
173
     0
291
     1
 45
0.0
1001
ACAD
1000
AcDbSavedByObjectVersion
1070
     0
1000
AcDbSavedByObjectVersion
1070
     0
  0
ACAD_PROXY_OBJECT
  5
A5
102
{ACAD_REACTORS
330
7F
102
}
330
7F
100
AcDbProxyObject
 90
      499
 91
      508
 95
  1310743
 70
     1
100
AcDbVisualStyle
  2
Realistic
 70
     8
 71
     2
 72
     2
 73
     0
 90
        0
 40
-0.6
 41
-30.0
 62
     5
 63
     7
 74
     1
 91
        0
 64
     7
 65
   257
 75
     1
175
     1
 42
1.0
 92
        8
 66
     8
 43
1.0
 76
     1
 77
     6
 78
     2
 67
     7
 79
     5
170
     0
171
     0
290
     0
174
     0
 93
       13
 44
0.0
173
     0
291
     0
 45
0.0
1001
ACAD
1000
AcDbSavedByObjectVersion
1070
     0
1000
AcDbSavedByObjectVersion
1070
     0
1000
AcDbSavedByObjectVersion
1070
     0
  0
ACAD_PROXY_OBJECT
  5
DC
102
{ACAD_REACTORS
330
7F
102
}
330
7F
100
AcDbProxyObject
 90
      499
 91
      508
 95
  1310743
 70
     1
100
AcDbVisualStyle
  2
Thicken
 70
    13
 71
     2
 72
     2
 73
     0
 90
        0
 40
-0.6
 41
-30.0
 62
     5
 63
     7
 74
     1
 91
        4
 64
     7
 65
   257
 75
     1
175
     1
 42
1.0
 92
       12
 66
     7
 43
1.0
 76
     1
 77
     6
 78
     2
 67
     7
 79
     5
170
     0
171
     0
290
     0
174
     0
 93
        1
 44
0.0
173
     0
291
     1
 45
0.0
1001
ACAD
1000
AcDbSavedByObjectVersion
1070
     0
1000
AcDbSavedByObjectVersion
1070
     0
  0
DICTIONARYVAR
  5
AA
102
{ACAD_REACTORS
330
A9
102
}
330
A9
100
DictionaryVariables
280
     0
  1
STANDARD
  0
DICTIONARYVAR
  5
AE
102
{ACAD_REACTORS
330
A9
102
}
330
A9
100
DictionaryVariables
280
     0
  1
2
  0
DICTIONARYVAR
  5
AD
102
{ACAD_REACTORS
330
A9
102
}
330
A9
100
DictionaryVariables
280
     0
  1
1
  0
DICTIONARYVAR
  5
AC
102
{ACAD_REACTORS
330
A9
102
}
330
A9
100
DictionaryVariables
280
     0
  1
0
  0
DICTIONARYVAR
  5
16A
102
{ACAD_REACTORS
330
A9
102
}
330
A9
100
DictionaryVariables
280
     0
  1

  0
DICTIONARYVAR
  5
AB
102
{ACAD_REACTORS
330
A9
102
}
330
A9
100
DictionaryVariables
280
     0
  1
127
  0
XRECORD
  5
24A0
102
{ACAD_REACTORS
330
249E
102
}
330
249E
100
AcDbXrecord
280
     1
330
0
330
0
330
0
330
0
330
0
330
0
330
0
330
0
330
0
330
0
330
0
330
0
330
0
330
0
330
0
330
0
330
0
330
0
330
0
330
0
330
0
330
0
330
2B84
330
2B85
330
2B8E
330
2B8F
  0
DICTIONARY
  5
83
330
82
100
AcDbDictionary
280
     1
281
     1
  3
ADSK_XREC_LAYOUTTHUMBNAIL
360
84
  0
DICTIONARY
  5
C7
330
A0
100
AcDbDictionary
280
     1
281
     1
  3
ACAD_XREC_ROUNDTRIP
360
C8
  0
DICTIONARY
  5
C5
330
9F
100
AcDbDictionary
280
     1
281
     1
  3
ACAD_XREC_ROUNDTRIP
360
C6
  0
DICTIONARY
  5
B1
330
A
100
AcDbDictionary
280
     1
281
     1
  3
ACAD_XREC_ROUNDTRIP
360
B2
  0
DICTIONARY
  5
155
330
A4
100
AcDbDictionary
280
     1
281
     1
  3
ACAD_XREC_ROUNDTRIP
360
156
  0
XRECORD
  5
84
102
{ACAD_REACTORS
330
83
102
}
330
83
100
AcDbXrecord
280
     1
310
28000000B40000007F00000001000800000000004C59000000000000000000000001000000000000FFFFFF0000000000FFFFFF000000000000000000000000000000000000000000000000000000000000000000330000006600000099000000CC000000FF00000000330000333300006633000099330000CC330000FF3300
310
0000660000336600006666000099660000CC660000FF66000000990000339900006699000099990000CC990000FF99000000CC000033CC000066CC000099CC0000CCCC0000FFCC000000FF000033FF000066FF000099FF0000CCFF0000FFFF000000003300330033006600330099003300CC003300FF003300003333003333
310
33006633330099333300CC333300FF33330000663300336633006666330099663300CC663300FF66330000993300339933006699330099993300CC993300FF99330000CC330033CC330066CC330099CC3300CCCC3300FFCC330000FF330033FF330066FF330099FF3300CCFF3300FFFF330000006600330066006600660099
310
006600CC006600FF00660000336600333366006633660099336600CC336600FF33660000666600336666006666660099666600CC666600FF66660000996600339966006699660099996600CC996600FF99660000CC660033CC660066CC660099CC6600CCCC6600FFCC660000FF660033FF660066FF660099FF6600CCFF6600
310
FFFF660000009900330099006600990099009900CC009900FF00990000339900333399006633990099339900CC339900FF33990000669900336699006666990099669900CC669900FF66990000999900339999006699990099999900CC999900FF99990000CC990033CC990066CC990099CC9900CCCC9900FFCC990000FF99
310
0033FF990066FF990099FF9900CCFF9900FFFF99000000CC003300CC006600CC009900CC00CC00CC00FF00CC000033CC003333CC006633CC009933CC00CC33CC00FF33CC000066CC003366CC006666CC009966CC00CC66CC00FF66CC000099CC003399CC006699CC009999CC00CC99CC00FF99CC0000CCCC0033CCCC0066CC
310
CC0099CCCC00CCCCCC00FFCCCC0000FFCC0033FFCC0066FFCC0099FFCC00CCFFCC00FFFFCC000000FF003300FF006600FF009900FF00CC00FF00FF00FF000033FF003333FF006633FF009933FF00CC33FF00FF33FF000066FF003366FF006666FF009966FF00CC66FF00FF66FF000099FF003399FF006699FF009999FF00CC
310
99FF00FF99FF0000CCFF0033CCFF0066CCFF0099CCFF00CCCCFF00FFCCFF0000FFFF0033FFFF0066FFFF0099FFFF00CCFFFF00FFFFFF00000000000D0D0D001A1A1A00282828003535350043434300505050005D5D5D006B6B6B00787878008686860093939300A1A1A100AEAEAE00BBBBBB00C9C9C900D6D6D600E4E4E400
310
F1F1F100FFFFFF0000000000000000000000000000000000000000000000000000000000000000000000000000000000E2E2E2E2E2E2E2E2E2E2E2E2E2E2E2E2E2E2E2E2E2E2E2E2E2E2E2E2E2E2E2E2E2E2E2E2E2E2E2E2E2E2E2E2E2E2E2E2E2E2E2E2E2E2E2E2E2E2E2E2E2E2E2E2E2E2E2E2E2E2E2E2E2E2E2E2E2E2E2
310
E2E2E2E2E2E2E2E2E2E2E2E2E2E2E2E2E2E2E2E2E2E2E2E2E2E2E2E2E2E2E2E2E2E2E2E2E2E2E2E2E2E2E2E2E2E2E2E2E2E2E2E2E2E2E2E2E2E2E2E2E2E2E2E2E2E2E2E2E2E2E2E2E2E2E2E2E2E2E2E2E2E2E2E2E2E2E2E2E2E2E2E2E2E2E2E2E2E2E2E2E2E2F5F5F5F5F5F5F5F5F5F5F5F5F5F5F5F5F5F5F5F5F5F5F5F5F5
310
F5F5F5F5F5F5F5F5F5F5F5F5F5F5F5F5F5F5F5F5F5F5F5F5F5F5F5F5F5F5F5F5F5F5F5F5F5F5F5F5F5F5F5F5F5F5F5F5F5F5F5F5F5F5F5F5F5F5F5F5F5F5F5F5F5F5F5F5F5F5F5F5F5F5F5F5F5F5F5F5F5F5F5F5F5F5F5F5F5F5F5F5F5F5F5F5F5F5F5F5F5F5F5F5F5F5F5F5F5F5F5F5F5F5F5F5F5F5F5F5F5F5F5F5F5F5F5
310
F5F5F5F5F5F5F5F5F5F5F5F5F5F5F5F5F5F5F5F5F5F5F5F5F5F5E2E2F5E2E2E2E2E2E2E2E2E2F5F5F5F5F5F5F5F5F5E2E2E2E2E2E2E2E2E2E2E2E2E2E2E2E2F5F5F5F5F5F5F5F5F5E2E2E2E2E2E2E2E2E2E2E2E2E2E2E2E2F5F5F5F5F5F5F5F5F5E2E2E2E2E2E2E2E2E2E2E2E2E2E2E2E2F5F5F5F5F5F5F5F5F5E2E2E2E2E2
310
E2E2E2E2E2E2E2E2E2E2E2F5F5F5F5F5F5F5F5F5E2E2E2E2E2E2E2E2E2E2E2E2E2E2E2E2F5F5F5F5F5F5F5F5F5E2E2E2E2E2E2E2E2E2E2E2E2E2E2E2E2F5F5F5F5F5F5F5F5F5E2E2E2E2E2E2E2E2F5E2E2F5E2F5F5F5F5F5F5F5F5F5F5F5F5F5F5F5F5F5F5F5F5F5F5F5F5F5F5F5F5F5F5F5F5F5F5F5F5F5F5F5F5F5F5F5F5
310
F5F5F5F5F5F5F5F5F5F5F5F5F5F5F5F5F5F5F5F5F5F5F5F5F5F5F5F5F5F5F5F5F5F5F5F5F5F5F5F5F5F5F5F5F5F5F5F5F5F5F5F5F5F5F5F5F5F5F5F5F5F5F5F5F5F5F5F5F5F5F5F5F5F5F5F5F5F5F5F5F5F5F5F5F5F5F5F5F5F5F5F5F5F5F5F5F5F5F5F5F5F5F5F5F5F5F5F5F5F5F5F5F5F5F5F5F5F5F5F5F5F5F5F5F5F5F5
310
F5F5F5E2F5E2E2F5E2F5F5F5F5F5F5F5F5F5F5F5F5F5F5F5F5F5F5F5F5F5F5F5F5F5F5F5F5F5F5F5F5F5F5F5F5F5F5F5F5F5F5F5F5F5F5F5F5F5F5F5F5F5F5F5F5F5F5F5F5F5F5F5F5F5F5F5F5F5F5F5F5F5F5F5F5F5F5F5F5F5F5F5F5F5F5F5F5F5F5F5F5F5F5F5F5F5F5F5F5F5F5F5F5F5F5F5F5F5F5F5F5F5F5F5F5F5F5
310
F5F5F5F5F5F5F5F5F5F5F5F5F5F5F5F5F5F5F5F5F5F5F5F5F5F5F5F5F5F5F5F5F5F5F5F5F5F5F5F5F5F5F5F5F5F5F5F5F5F5F5F5F5F5F5F5E2F5E2E2F5E2F5F5F5F5F5F5F5F5F5F5F5F5F5F5F5F5F5F5F5F5F5F5F5F5F5F5F5F5F5F5F5F5F5F5F5F5F5F5F5F5F5F5F5F5F5F5F5F5F5F5F5F5F5F5F5F5F5F5F5F5F5F5F5F5F5
310
F5F5F5F5F5F5F5F5F5F5F5F5F5F5F5F5F5F5F5F5F5F5F5F5F5F5F5F5F5F5F5F5F5F5F5F5F5F5F5F5F5F5F5F5F5F5F5F5F5F5F5F5F5F5F5F5F5F5F5F5F5F5F5F5F5F5F5F5F5F5F5F5F5F5F5F5F5F5F5F5F5F5F5F5F5F5F5F5F5F5F5F5F5F5F5F5F5F5F5F5F5F5F5F5F5F5F5F5F5E2F5E2E2F5E2F5F5F5F5F5F5F5F5F5F5F5F5
310
F5F5F5F5F5F5F5F5F5F5F5F5F5F5F5F5F5F5F5F5F5F5F5F5F5F5F5F5F5F5F5F5F5F5F5F5F5F5F5F5F5F5F5F5F5F5F5F5F5F5F5F5F5F5F5F5F5F5F5F5F5F5F5F5F5F5F5F5F5F5F5F5F5F5F5F5F5F5F5F5F5F5F5F5F5F5F5F5F5F5F5F5F5F5F5F5F5F5F5F5F5F5F5F5F5F5F5F5F5F5F5F5F5F5F5F5F5F5F5F5F5F5F5F5F5F5F5
310
F5F5F5F5F5F5F5F5F5F5F5F5F5F5F5F5F5F5F5F5F5F5F5F5F5F5F5F5F5F5F5F5F5F5F5E2F5E2E2F5E2F5F5F5F5F5F5F5F5F5F5F5F5F5F5F5F5F5F5F5F5F5F5F5F5F5F5F5F5F5F5F5F5F5F5F5F5F5F5F5F5F5F5F5F5F5F5F5F5F5F5F5F5F5F5F5F5F5F5F5F5F5F5F5F5F5F5F5F5F5F5F5F5F5F5F5F5F5F5F5F5F5F5F5F5F5F5
310
F5F5F5F5F5F5F5F5F5F5F5F5F5F5F5F5F5F5F5F5F5F5F5F5F5F5F5F5F5F5F5F5F5F5F5F5F5F5F5F5F5F5F5F5F5F5F5F5F5F5F5F5F5F5F5F5F5F5F5F5F5F5F5F5F5F5F5F5F5F5F5F5F5F5F5F5F5F5F5F5F5F5F5F5F5F5F5F5E2F5E2E2F5E2F5F5F5F5F5F5F5F5F5F5F5F5F5F5F5F5F5F5F5F5F5F5F5F5F5F5F5F5F5F5F5F5F5
310
F5F5F5F5F5F5F5F5F5F5F5F5F5F5F5F5F5F5F5F5F5F5F5F5F5F5F5F5F5F5F5F5F5F5F5F5F5F5F5F5F5F5F5F5F5F5F5F5F5F5F5F5F5F5F5F5F5F5F5F5F5F5F5F5F5F5F5F5F5F5F5F5F5F5F5F5F5F5F5F5F5F5F5F5F5F5F5F5F5F5F5F5F5F5F5F5F5F5F5F5F5F5F5F5F5F5F5F5F5F5F5F5F5F5F5F5F5F5F5F5F5F5F5F5F5F5F5
310
F5F5F5F5F5F5F5F5F5F5F5F5F5F5E2F5E2E2F5E2F5F5F5F5F5F5F5F5F5F5F5F5F5F5F5F5F5F5F5F5F5F5F5F5F5F5F5F5F5F5F5F5F5F5F5F5F5F5F5F5F5F5F5F5F5F5F5F5F5F5F5F5F5F5F5F5F5F5F5F5F5F5F5F5F5F5F5F5F5F5F5F5F5F5F5F5F5F5F5F5F5F5F5F5F5F5F5F5F5F5F5F5F5F5F5F5F5F5F5F5F5F5F5F5F5F5F5
310
F5F5F5F5F5F5F5F5F5F5F5F5F5F5F5F5F5F5F5F5F5F5F5F5F5F5F5F5F5F5F5F5F5F5F5F5F5F5F5F5F5F5F5F5F5F5F5F5F5F5F5F5F5F5F5F5F5F5F5F5F5F5F5F5F5F5F5E2F5E2E2F5F5F5F5F5F5F5F5F5F5F5F5F5F5F5F5F5F5F5F5F5F5F5F5F5F5F5F5F5F5F5F5F5F5F5F5F5F5F5F5F5F5F5F5F5F5F5F5F5F5F5F5F5F5F5F5
310
F5F5F5F5F5F5F5F5F5F5F5F5F5F5F5F5F5F5F5F5F5F5F5F5F5F5F5F5F5F5F5F5F5F5F5F5F5F5F5F5F5F5F5F5F5F5F5F5F5F5F5F5F5F5F5F5F5F5F5F5F5F5F5F5F5F5F5F5F5F5F5F5F5F5F5F5F5F5F5F5F5F5F5F5F5F5F5F5F5F5F5F5F5F5F5F5F5F5F5F5F5F5F5F5F5F5F5F5F5F5F5F5F5F5F5F5F5F5F5F5F5F5E2E2F5F5F5
310
F5F5F5F5F5F5F5F5F5F5F5F5F5F5F5F5F5F5F5F5F5F5F5F5F5F5F5F5F5F5F5F5F5F5F5F5F5F5F5F5F5F5F5F5F5F5F5F5F5F5F5F5F5F5F5F5F5F5F5F5F5F5F5F5F5F5F5F5F5F5F5F5F5F5F5F5F5F5F5F5F5F5F5F5F5F5F5F5F5F5F5F5F5F5F5F5F5F5F5F5F5F5F5F5F5F5F5F5F5F5F5F5F5F5F5F5F5F5F5F5F5F5F5F5F5F5F5
310
F5F5F5F5F5F5F5F5F5F5F5F5F5F5F5F5F5F5F5F5F5F5F5F5F5F5F5F5F5F5F5F5F5F5F5F5F5F5F5F5F5F5F5F5F5F5F5F5E2E2F5F5F5F5F5F5F5F5F5F5F5F5F5F5F5F5F5F5F5F5F5F5F5F5F5F5F5F5F5F5F5F5F5F5F5F5F5F5F5F5F5F5F5F5F5F5F5F5F5F5F5F5F5F5F5F5F5F5F5F5F5F5F5F5F5F5F5F5F5F5F5F5F5F5F5F5F5
310
F5F5F5F5F5F5F5F5F5F5F5F5F5F5F5F5F5F5F5F5F5F5F5F5F5F5F5F5F5F5F5F5F5F5F5F5F5F5F5F5F5F5F5F5F5F5F5F5F5F5F5F5F5F5F5F5F5F5F5F5F5F5F5F5F5F5F5F5F5F5F5F5F5F5F5F5F5F5F5F5F5F5F5F5F5F5F5F5F5F5F5F5F5F5F5F5F5F5F5F5F5E2E2F5F5F5F5F5F5F5F5F5F5F5F5F5F5F5F5F5F5F5F5F5F5F5F5
310
F5F5F5F5F5F5F5F5F5F5F5F5F5F5F5F5F5F5F5F5F5F5F5F5F5F5F5F5F5F5F5F5F5F5F5F5F5F5F5F5F5F5F5F5F5F5F5F5F5F5F5F5F5F5F5F5F5F5F5F5F5F5F5F5F5F5F5F5F5F5F5F5F5F5F5F5F5F5F5F5F5F5F5F5F5F5F5F5F5F5F5F5F5F5F5F5F5F5F5F5F5F5F5F5F5F5F5F5F5F5F5F5F5F5F5F5F5F5F5F5F5F5F5F5F5F5F5
310
F5F5F5F5F5F5F5F5F5F5F5F5F5F5F5F5F5F5F5F5F5F5F5F5F5F5F5E2E2F5F5F5F5F5F5F5F5F5F5F5F5F5F5F5F5F5F5F5DCDCDCDCDCDCDCDCDCDCDCDCDCDCDCDCDCDCDCDCDCDCDCDCDCDCDCDCDCDCDCDCDCDCDCDCDCDCDCDCDCDCDCDCDCDCDCDCDCDCDCDCDCDCDCDCDCDCDCDCDCDCDCDCDCDCDCDCDCDCDCDCDCDCDCDCDCDCDC
310
DCDCDCDCDCDCDCDCDCDCDCDCDCDCDCDCDCDCDCDCDCDCDCDCDCDCDCDCDCDCDCDCDCDCDCDCDCDCDCDCDCDCDCDCDCDCDCDCDCDCDCDCDCDCDCDCDCDCDCDCDCF5F5F5F5F5F5F5F5F5F5F5F5F5F5F5F5F5F5F5E2E2F5F5F5F5F5F5F5F5F5F5F5F5F5F5F5F5F5F5F5DCDCDCDCDCDCDCDCDCDCDCDCDCDCDCDCDCDCDCDCDCDCDCDCDCDC
310
DCDCDCDCDCDCDCDCDCDCDCDCDCDCDCDCDCDCDCDCDCDCDCDCDCDCDCDCDCDCDCDCDCDCDCDCDCDCDCDCDCDCDCDCDCDCDCDCDCDCDCDCDCDCDCDCDCDCDCDCDCDCDCDCDCDCDCDCDCDCDCDCDCDCDCDCDCDCDCDCDCDCDCDCDCDCDCDCDCDCDCDCDCDCDCDCDCDCDCDCDCDCDCDCDCDCDCDCDCDCDCDCDCDCF5F5F5F5F5F5F5F5F5F5F5F5F5
310
F5F5F5F5F5F5E2E2F5F5F5F5F5F5F5F5F5F5F5F5F5F5F5F5F5F5F5DCF5F5F5F5F5F5F5F5F5F5F5F5F5F5F5F5F5F5F5F5F5F5F5F5F5F5F5F5F5F5F5F5F5F5F5F5F5F5F5F5F5F5F5F5F5F5F5F5F5F5F5F5F5F5F5F5F5F5F5F5F5F5F5F5F5F5F5F5F5F5F5F5F5F5F5F5F5F5F5F5F5F5F5F5F5F5F5F5F5F5F5F5F5F5F5F5F5F5F5
310
F5F5F5F5F5F5F5F5F5F5F5F5F5F5F5F5F5F5F5F5F5F5F5F5F5F5F5F5F5F5F5F5F5F5F5F5F5F5F5DCF5F5F5F5F5F5F5F5F5F5F5F5F5F5F5F5F5F5F5E2E2F5F5F5F5F5F5F5F5F5F5F5F5F5F5F5F5F5F5F5DCF5282828282828282828282828282828282828282828282828282828282828282828282828282828282828282828
310
28282828282828282828282828282828282828282828282828282828282828282828282828282828282828282828282828282828282828282828282828282828282828282828282828282828282828282828282828282828282828F5DCF5F5F5F5F5F5F5F5F5F5F5F5F5F5F5F5F5F5F5E2E2F5F5F5F5F5F5F5F5F5F5F5F5F5
310
F5F5F5F5F5F5DCF5282D2D2D2D2D2D2D2D2D2D2D2D2D2D2D2D2D2D2D2D2DF5F5F5F5F5F5F5F5F5F5F5F5F5F5F5F5F5F5F5F5F5F5F5F5F5F5F5F5F5F5F5F5F5F5F5F5F5F5F5F5F5F5F5F5F528F5F5F5F5F5F5F5F5F5F5F5F5F5F5F5F5F5F5F5F5F5F5F5F5F5F5F5F5F5F5F5F5F5F5F5F5F5F5F5F5F5F5F5F5F5F5F5F5F5F5F5
310
F5F5F5F5F5F5F5F5F5F5F5F5F5F5F5F528F5DCF5F5F5F5F5F5F5F5F5F5F5F5F5F5F5F5F5F5F5E2E2F5E2F5F5F5F5F5F5F5F5F5F5F5F5F5F5F5F5F5DCF5282D2D2D2D2D2D2D2D2D2D2D2D2D2D2D2D2D2D2D2D2D2D2D2D2D2D2D2D2DF5F5F5F5F5F5F5F5F5F5F5F5F5F5F5F5F5F5F5F5F5F5F5F5F5F5F5F5F5F5F5F5F5F5F5F5
310
F528F5F5F5F5F5F5F5F5F5F5F5F5F5F5F5F5F5F5F5F5F5F5F5F5F5F5F5F5F5F5F5F5F5F5F5F5F5F5F5F5F5F5F5F5F5F5F5F5F5F5F5F5F5F5F5F5F5F5F5F5F5F5F5F5F5F5F528F5DCF5F5F5F5F5F5F5F5F5F5F5F5F5F5F5F5F5E2F5E2E2F5E2F5F5F5F5F5F5F5F5F5F5F5F5F5F5F5F5F5DCF5282D2D2D2D2D2D2D2D2D2D2D2D
310
2D2D2D2D2D2D2D2D2D2D2D2D2D2D2D2D2DF5F5F5F5F5F5F5F5F5F5F5F5F5F5F5F5F5F5F5F5F5F5F5F5F5F5F5F5F5F5F5F5F5F5F5F5F528F5F5F5F5F5F5F5F52D2D2D2D2D2D2D2D2D2D2D2D2D2D2D2D2D2D2D2D2D2D2D2D2D2D2D2D2D2D2D2D2D2D2D2D2D2D2D2D2D2D2D2D2D2D2D2D2D2D2DF5F5F5F5F5F5F5F528F5DCF5F5
310
F5F5F5F5F5F5F5F5F5F5F5F5F5F5F5E2F5E2E2F5E2F5F5F5F5F5F5F5F5F5F5F5F5F5F5F5F5F5DCF5282D2D2D2D2D2D2D2D2D2D2D2D2D2D2D2D2D2D2D2D2D2D2D2D2D2D2D2D2D2D2D2D2D2D2D2D2D2D2D2D2D2D2D2D2D2D2D2D2D2D2D2D2D2D2D2D2D2D2D2D2D2D2D2D2D2D28F5F5F5F5F5F5F5F52D2D2D2D2D2D2D2D2D2D2D
310
2D2D2D2D2D2D2D2D2D2D2D2D2D2D2D2D2D2D2D2D2D2D2D2D2D2D2D2D2D2D2D2D2D2D2D2D2D2D2D2DF5F5F5F5F5F5F5F528F5DCF5F5F5F5F5F5F5F5F5F5F5F5F5F5F5F5F5E2F5E2E2F5E2F5F5F5F5F5F5F5F5F5F5F5F5F5F5F5F5F5DCF5282D2D2D2D2D2D2D2D2D2D2D2D2D2D2D2D2D2D2D2D2D2D2D2D2D2D2D2D2D2D2D2D2D
310
2D2D2D2D2D2D2D2D2D2D2D2D2D2D2D2D2D2D2D2D2D2D2D2D2D2D2D2D2DF5F5F5F528F5F5F5F5F5F5F5F5F5F5F5F52D2D2D2D2D2D2D2D2D2D2D2D2D2D2D2D2D2D2D2D2D2D2D2D2D2D2D2D2D2D2D2D2D2D2D2D2D2D2D2D2D2DF5F5F5F5F5F5F5F5F5F5F5F5F528F5DCF5F5F5F5F5F5F5F5F5F5F5F5F5F5F5F5F5E2F5E2E2F5E2
310
F5F5F5F5F5F5F5F5F5F5F5F5F5F5F5F5F5DCF5282D2D2D2D2D2D2D2D2D2D2D2D2D2D2D2D2D2D2D2D2D2D2D2D2D2D2D2D2D2D2D2D2D2D2D2D2D2D2D2D2D2D2D2D2D2D2D2D2D2D2D2D2D2D2D2D2D2D2D2D2D2DF5F5F5F528F5F5F5F5F5F5F5F5F5F5F5F52D2D2D2D2D2D2D2D2D2D2D2D2D2D2D2D2D2D2D2D2D2D2D2D2D2D2D2D
310
2D2D2D2D2D2D2D2D2D2D2D2D2D2DF5F5F5F5F5F5F5F5F5F5F5F5F528F5DCF5F5F5F5F5F5F5F5F5F5F5F5F5F5F5F5F5E2F5E2E2F5E2F5F5F5F5F5F5F5F5F5F5F5F5F5F5F5F5F5DCF5282D2D2D2D2D2D2D2D2D2D2D2D2D2D2D2D2D2D2D2D2D2D2D2D2D2D2D2D2D2D2D2D2D2D2D2D2D2D2D2D2D2D2D2D2D2D2D2D2D2D2D2D2D2D
310
2D2D2D2D2DF5F5F5F5F5F5F528F5F5F5F5F5F5F5F5F5F5F5F5F5F5F5F5F5F5F5F5F5F5F5F5F5F5F5F52D2D2D2D2D2D2D2D2D2DF5F5F5F5F5F5F5F5F5F5F5F5F5F5F5F5F5F5F5F5F5F5F5F5F5F5F5F5F528F5DCF5F5F5F5F5F5F5F5F5F5F5F5F5F5F5F5F5E2F5E2E2F5E2F5F5F5F5F5F5F5F5F5F5F5F5F5F5F5F5F5DCF5282D
310
2D2D2D2D2D2D2D2D2D2D2D2D2D2D2D2D2D2D2D2D2D2D2D2D2D2D2D2D2D2D2DF5F5F5F5F5F5F5F5F5F5F5F5F5F5F5F5F5F5F5F5F5F5F5F5F5F5F5F5F5F5F5F5F5F528F5F5F5F5F5F5F5F5F5F5F5F5F5F5F5F5F5F5F5F5F5F5F5F5F5F5F5F52D2D2D2D2D2D2D2D2D2DF5F5F5F5F5F5F5F5F5F5F5F5F5F5F5F5F5F5F5F5F5F5F5
310
F5F5F5F5F5F528F5DCF5F5F5F5F5F5F5F5F5F5F5F5F5F5F5F5F5E2F5E2E2F5E2F5F5F5F5F5F5F5F5F5F5F5F5F5F5F5F5F5DCF5282D2D2D2D2D2D2D2D2D2D2D2D2D2D2D2D2D2D2D2D2D2D2D2D2D2D2D2D2D2D2D2DF5F5F5F5F5F5F5F5F5F5F5F5F5F5F5F5F5F5F5F5F5F5F5F5F5F5F5F5F5F5F5F5F5F528F5F5F5F5F5F5F5F5
310
F5F5F5F5F5F5F5F5F5F5F5F5F5F5F5F5F5F5F5F52D2D2D2D2D2D2D2D2D2DF5F5F5F5F5F5F5F5F5F5F5F5F5F5F5F5F5F5F5F5F5F5F5F5F5F5F5F5F528F5DCF5F5F5F5F5F5F5F5F5F5F5F5F5F5F5F5F5E2F5E2E2F5E2F5F5F5F5F5F5F5F5F5F5F5F5F5F5F5F5F5DCF5282D2D2D2D2D2D2D2D2D2D2D2D2D2D2D2D2D2D2D2D2D2D
310
2D2D2D2D2D2D2D2D2D2D2D2D2D2D2D2D2D2D2D2D2D2D2D2D2D2D2D2D2D2D2D2D2D2D2D2D2D2D2D2D2D2DF5F528F5F5F5F5F5F5F5F5F5F5F5F5F5F5F5F5F5F5F5F5F5F5F5F5F5F5F5F5F5F5F5F5F5F5F5F5F5F5F5F5F5F5F5F5F5F5F5F5F5F5F5F5F5F5F5F5F5F5F5F5F5F5F5F5F5F5F528F5DCF5F5F5F5F5F5F5F5F5F5F5F5
310
F5F5F5F5F5E2F5E2E2F5E2F5F5F5F5F5F5F5F5F5F5F5F5F5F5F5F5F5DCF528F5F5F5F5F5F5F5F5F5F5F5F5F5F5F5F5F5F5F5F5F5F5F5F5F5F5F5F5F5F5F5F5F5F5F5F5F5F5F5F5F5F5F5F5F5F5F5F5F5F5F5F5F5F5F5F5F5F5F5F5F5F5F5F5F5F528F5F5F5F5F5F5F5F5F5F5F5F5F5F5F5F5F5F5F5F5F5F5F5F5F5F5F5F5F5
310
F5F5F5F5F5F5F5F5F5F5F5F5F5F5F5F5F5F5F5F5F5F5F5F5F5F5F5F5F5F5F5F5F5F5F5F5F5F528F5DCF5F5F5F5F5F5F5F5F5F5F5F5F5F5F5F5F5E2F5E2E2F5E2F5F5F5F5F5F5F5F5F5F5F5F5F5F5F5F5F5DCF52828282828282828282828282828282828282828282828282828282828282828282828282828282828282828
310
2828282828282828282828282828282828282828282828282828282828282828282828282828282828282828282828282828282828282828282828282828282828282828282828282828282828282828282828282828282828282828F5DCF5F5F5F5F5F5F5F5F5F5F5F5F5F5F5F5F5E2F5E2E2F5E2F5F5F5F5F5F5F5F5F5F5
310
F5F5F5F5F5F5F5DCF528F5F5F5F5F5F5F5F5F5F5F5F5F5F5F5F5F5F5F5F5F5F5F5F5F5F5F5F5F5F5F5F5F5F5F5F5F5F5F5F5F5F5F5F5F5F5F5F5F5F5F5F5F5F5F5F5F5F5F5F5F5F5F5F5F5F5F5F5F5F5F5F5F5F5F5F5F5F5F5F5F5F5F5F5F5F5F5F5F5F5F5F5F5F5F5F5F5F5F5F5F5F5F5F5F5F5F5F5F5F5F5F5F5F5F5F5F5
310
F5F5F5F5F5F5F5F5F5F5F5F5F5F5F5F5F528F5DCF5F5F5F5F5F5F5F5F5F5F5F5F5F5F5F5F5E2F5E2E2F5E2F5F5F5F5F5F5F5F5F5F5F5F5F5F5F5F5F5DCF528F5F5F5F5F5F5F5F5F5F5F5F5F5F5F5F5F5F5F5F5F5F5F5F5F5F5F5F5F5F5F5F5F5F5F5F5F5F5F5F5F5F5F5F5F5F5F5F5F5F5F5F5F5F5F5F5F5F5F5F5F5F5F5F5
310
F5F5F5F5F5F5F5F5F5F5F5F5F5F5F5F5F5F5F5F5F5F5F5F5F5F5F5F5F5F5F5F5F5F5F5F5F5F5F5F5F5F5F5F5F5F5F5F5F5F5F5F5F5F5F5F5F5F5F5F5F5F5F5F5F5F5F5F5F5F528F5DCF5F5F5F5F5F5F5F5F5F5F5F5F5F5F5F5F5E2F5E2E2F5E2F5F5F5F5F5F5F5F5F5F5F5F5F5F5F5F5F5DCF528F5F5F5F5F5F5F5F5F5F5F5
310
F5F5F5F5F5F5F5F5F5F5F5F5F5F5F5F5F5F5F5F5F5F5F5F5F5F5F5F5F5F5F5F5F5F5F5F5F5F5F5F5F5F5F5F5F5F5F5F5F5F5F5F5F5F5F5F5F5F5F5F5F5F5F5F5F5F5F5F5F5F5F5F5F5F5F5F5F5F5F5F5F5F5F5F5F5F5F5F5F5F5F5F5F5F5F5F5F5F5F5F5F5F5F5F5F5F5F5F5F5F5F5F5F5F5F5F5F5F5F5F5F5F5F528F5DCF5
310
F5F5F5F5F5F5F5F5F5F5F5F5F5F5F5F5E2F5E2E2F5E2F5F5F5F5F5F5F5F5F5F5F5F5F5F5F5F5F5DCF528F5F5F5F5F5F5F5F5F5F5F5F5F5F5F5F5F5F5F5F5F5F5F5F5F5F5F5F5F5F5F5F5F5F5F5F5F5F5F5F5F5F5F5F5F5F5F5F5F5F5F5F5F5F5F5F5F5F5F5F5F5F5F5F5F5F5F5F5F5F5F5F5F5F5F5F5F5F5F5F5F5F5F5F5F5
310
F5F5F5F5F5F5F5F5F5F5F5F5F5F5F5F5F5F5F5F5F5F5F5F5F5F5F5F5F5F5F5F5F5F5F5F5F5F5F5F5F5F5F5F5F5F5F5F5F528F5DCF5F5F5F5F5F5F5F5F5F5F5F5F5F5F5F5F5E2F5E2E2F5E2F5F5F5F5F5F5F5F5F5F5F5F5F5F5F5F5F5DCF528F5F5F5F5F5F5F5F5F5F5F5F5F5F5F5F5F5F5F5F5F5F5F5F5F5F5F5F5F5F5F5F5
310
F5F5F5F5F5F5F5F5F5F5F5F5F5F5F5F5F5F5F5F5F5F5F5F5F5F5F5F5F5F5F5F5F5F5F5F5F5F5F5F5F5F5F5F5F5F5F5F5F5F5F5F5F5F5F5F5F5F5F5F5F5F5F5F5F5F5F5F5F5F5F5F5F5F5F5F5F5F5F5F5F5F5F5F5F5F5F5F5F5F5F5F5F5F5F5F5F5F5F5F5F5F528F5DCF5F5F5F5F5F5F5F5F5F5F5F5F5F5F5F5F5E2F5E2E2F5
310
F5F5F5F5F5F5F5F5F5F5F5F5F5F5F5F5F5F5DCF528F5F5F5F5F5F5F5F5F5F5F5F5F5F5F5F5F5F5F5F5F5F5F5F5F5F5F5F5F5F5F5F5F5F5F5F5F5F5F5F5F5F5F5F5F5F5F5F5F5F5F5F5F5F5F5F5F5F5F5F5F5F5F5F5F5F5F5F5F5F5F5F5F5F5F5F5F5F5F5F5F5F5F5F5F5F5F5F5F5F5F5F5F5F5F5F5F5F5F5F5F5F5F5F5F5F5
310
F5F5F5F5F5F5F5F5F5F5F5F5F5F5F5F5F5F5F5F5F5F5F5F5F5F5F5F528F5DCF5F5F5F5F5F5F5F5F5F5F5F5F5F5F5F5F5F5F5E2E2F5F5F5F5F5F5F5F5F5F5F5F5F5F5F5F5F5F5F5DCF528F5F5F5F5F5F5F5F5F5F5F5F5F5F5F5F5F5F5F5F5F5F5F5F5F5F5F5F5F5F5F5F5F5F5F5F5F5F5F5F5F5F5F5F5F5F5F5F5F5F5F5F5F5
310
F5F5F5F5F5F5F5F5F5F5F5F5F5F5F5F5F5F5F5F5F5F5F5F5F5F5F5F5F5F5F5F5F5F5F5F5F5F5F5F5F5F5F5F5F5F5F5F5F5F5F5F5F5F5F5F5F5F5F5F5F5F5F5F5F5F5F5F5F5F5F5F5F5F5F5F5F5F5F5F5F528F5DCF5F5F5F5F5F5F5F5F5F5F5F5F5F5F5F5F5F5F5E2E2F5F5F5F5F5F5F5F5F5F5F5F5F5F5F5F5F5F5F5DCF528
310
F5F5F5F5F5F5F5F5F5F5F5F5F5F5F5F5F5F5F5F5F5F5F5F5F5F5F5F5F5F5F5F5F5F5F5F5F5F5F5F5F5F5F5F5F5F5F5F5F5F5F5F5F5F5F5F5F5F5F5F5F5F5F5F5F5F5F5F5F5F5F5F5F5F5F5F5F5F5F5F5F5F5F5F5F5F5F5F5F5F5F5F5F5F5F5F5F5F5F5F5F5F5F5F5F5F5F5F5F5F5F5F5F5F5F5F5F5F5F5F5F5F5F5F5F5F5F5
310
F5F5F5F5F5F5F528F5DCF5F5F5F5F5F5F5F5F5F5F5F5F5F5F5F5F5F5F5E2E2F5F5F5F5F5F5F5F5F5F5F5F5F5F5F5F5F5F5F5DCF528F5F5F5F5F5F5F5F5F5F5F5F5F5F5F5F5F5F5F5F5F5F5F5F5F5F5F5F5F5F5F5F5F5F5F5F5F5F5F5F5F5F5F5F5F5F5F5F5F5F5F5F5F5F5F5F5F5F5F5F5F5F5F5F5F5F5F5F5F5F5F5F5F5F5
310
F5F5F5F5F5F5F5F5F5F5F5F5F5F5F5F5F5F5F5F5F5F5F5F5F5F5F5F5F5F5F5F5F5F5F5F5F5F5F5F5F5F5F5F5F5F5F5F5F5F5F5F5F5F5F5F5F5F5F5F528F5DCF5F5F5F5F5F5F5F5F5F5F5F5F5F5F5F5F5F5F5E2E2F5F5F5F5F5F5F5F5F5F5F5F5F5F5F5F5F5F5F5DCF528F5F5F5F5F5F5F5F5F5F5F5F5F5F5F5F5F5F5F5F5F5
310
F5F5F5F5F5F5F5F5F5F5F5F5F5F5F5F5F5F5F5F5F5F5F5F5F5F5F5F5F5F5F5F5F5F5F5F5F5F5F5F5F5F5F5F5F5F5F5F5F5F5F5F5F5F5F5F5F5F5F5F5F5F5F5F5F5F5F5F5F5F5F5F5F5F5F5F5F5F5F5F5F5F5F5F5F5F5F5F5F5F5F5F5F5F5F5F5F5F5F5F5F5F5F5F5F5F5F5F5F5F5F5F5F528F5DCF5F5F5F5F5F5F5F5F5F5F5
310
F5F5F5F5F5F5F5F5E2E2F5F5F5F5F5F5F5F5F5F5F5F5F5F5F5F5F5F5F5DCF528F5F5F5F5F5F5F5F5F5F5F5F5F5F5F5F5F5F5F5F5F5F5F5F5F5F5F5F5F5F5F5F5F5F5F5F5F5F5F5F5F5F5F5F5F5F5F5F5F5F5F5F5F5F5F5F5F5F5F5F5F5F5F5F5F5F5F5F5F5F5F5F5F5F5F5F5F5F5F5F5F5F5F5F5F5F5F5F5F5F5F5F5F5F5F5
310
F5F5F5F5F5F5F5F5F5F5F5F5F5F5F5F5F5F5F5F5F5F5F5F5F5F5F5F5F5F5F5F5F5F5F5F5F5F5F528F5DCF5F5F5F5F5F5F5F5F5F5F5F5F5F5F5F5F5F5F5E2E2F5F5F5F5F5F5F5F5F5F5F5F5F5F5F5F5F5F5F5DCF528F5F5F5F5F5F5F5F5F5F5F5F5F5F5F5F5F5F5F5F5F5F5F5F5F5F5F5F5F5F5F5F5F5F5F5F5F5F5F5F5F5F5
310
F5F5F5F5F5F5F5F5F5F5F5F5F5F5F5F5F5F5F5F5F5F5F5F5F5F5F5F5F5F5F5F5F5F5F5F5F5F5F5F5F5F5F5F5F5F5F5F5F5F5F5F5F5F5F5F5F5F5F5F5F5F5F5F5F5F5F5F5F5F5F5F5F5F5F5F5F5F5F5F5F5F5F5F5F5F5F5F5F5F5F5F528F5DCF5F5F5F5F5F5F5F5F5F5F5F5F5F5F5F5F5F5F5E2E2F5F5F5F5F5F5F5F5F5F5F5
310
F5F5F5F5F5F5F5F5DCF528F5F5F5F5F5F5F5F5F5F5F5F5F5F5F52D2D2D2D2D2D2D2D2D2DF5F5F5F5F5F5F5F5F5F5F5F5F5F5F5F5F5F5F5F5F5F5F5F5F5F5F5F5F5F5F5F5F5F5F5F5F5F5F5F5F5F5F5F5F5F5F5F5F5F5F5F5F5F5F5F5F5F5F5F5F5F5F5F5F5F5F5F5F5F5F5F5F5F5F5F5F5F5F5F5F5F5F5F5F5F5F5F5F5F5F5
310
F5F5F5F5F5F5F5F5F5F5F5F5F5F5F5F5F5F528F5DCF5F5F5F5F5F5F5F5F5F5F5F5F5F5F5F5F5F5F5E2E2F5E2F5F5F5F5F5F5F5F5F5F5F5F5F5F5F5F5F5DCF528F5F5F5F5F5F5F5F5F5F5F5F5F5F5F52D2D2D2D2D2D2D2D2D2DF5F5F5F5F5F5F5F5F5F5F5F5F5F5F5F5F5F5F5F5F5F5F5F5F5F5F5F5F5F5F5F5F5F5F5F5F5F5
310
F5F5F5F5F5F5F5F5F5F5F5F5F5F5F5F5F5F5F5F5F5F5F5F5F5F5F5F5F5F5F5F5F5F5F5F5F5F5F5F5F5F5F5F5F5F5F5F5F5F5F5F5F5F5F5F5F5F5F5F5F5F5F5F5F5F5F5F5F5F5F528F5DCF5F5F5F5F5F5F5F5F5F5F5F5F5F5F5F5F5E2F5E2E2F5E2F5F5F5F5F5F5F5F5F5F5F5F5F5F5F5F5F5DCF528F5F5F5F5F5F5F5F5F5F5
310
F5F5F5F5F5F5F5F5F5F5F5F5F5F5F5F5F5F5F5F5F5F5F5F5F5F5F5F5F5F5F5F5F5F5F5F5F5F5F5F5F5F5F5F5F5F5F5F5F5F5F5F5F5F5F5F5F5F5F5F5F5F5F5F5F5F5F5F5F5F5F5F5F5F5F5F5F5F5F5F5F5F5F5F5F5F5F5F5F5F5F5F5F5F5F5F5F5F5F5F5F5F5F5F5F5F5F5F5F5F5F5F5F5F5F5F5F5F5F5F5F5F5F5F528F5DC
310
F5F5F5F5F5F5F5F5F5F5F5F5F5F5F5F5F5E2F5E2E2F5E2F5F5F5F5F5F5F5F5F5F5F5F5F5F5F5F5F5DCF528F5F5F5F5F5F5F5F5F5F5F5F5F5F5F5F5F5F5F5F5F5F5F5F5F5F5F5F5F5F5F5F5F5F5F5F5F5F5F5F5F5F5F5F5F5F5F5F5F5F5F5F5F5F5F5F5F5F5F5F5F5F5F5F5F5F5F5F5F5F5F5F5F5F5F5F5F5F5F5F5F5F5F5F5
310
F5F5F5F5F5F5F5F5F5F5F5F5F5F5F5F5F5F5F5F5F5F5F5F5F5F5F5F5F5F5F5F5F5F5F5F5F5F5F5F5F5F5F5F5F5F5F5F5F5F528F5DCF5F5F5F5F5F5F5F5F5F5F5F5F5F5F5F5F5E2F5E2E2F5E2F5F5F5F5F5F5F5F5F5F5F5F5F5F5F5F5F5DCF528F5F5F5F5F5F5F5F5F5F5F5F5F5F5F5F5F5F5F5F5F5F5F5F5F5F5F5F5F5F5F5
310
F5F5F5F5F5F5F5F5F5F5F5F5F5F5F5F5F5F5F5F5F5F5F5F5F5F5F5F5F5F5F5F5F5F5F5F5F5F5F5F5F5F5F5F5F5F5F5F5F5F5F5F5F5F5F5F5F5F5F5F5F5F5F5F5F5F5F5F5F5F5F5F5F5F5F5F5F5F5F5F5F5F5F5F5F5F5F5F5F5F5F5F5F5F5F5F5F5F5F5F5F5F5F528F5DCF5F5F5F5F5F5F5F5F5F5F5F5F5F5F5F5F5E2F5E2E2
310
F5E2F5F5F5F5F5F5F5F5F5F5F5F5F5F5F5F5F5DCF528F5F5F5F5F5F5F5F5F5F5F5F5F5F5F5F5F5F5F5F5F5F5F5F5F5F5F5F5F5F5F5F5F5F5F5F5F5F5F5F5F5F5F5F5F5F5F5F5F5F5F5F5F5F5F5F5F5F5F5F5F5F5F5F5F5F5F5F5F5F5F5F5F5F5F5F5F5F5F5F5F5F5F5F5F5F5F5F5F5F5F5F5F5F5F5F5F5F5F5F5F5F5F5F5F5
310
F5F5F5F5F5F5F5F5F5F5F5F5F5F5F5F5F5F5F5F5F5F5F5F5F5F5F5F5F528F5DCF5F5F5F5F5F5F5F5F5F5F5F5F5F5F5F5F5E2F5E2E2F5E2F5F5F5F5F5F5F5F5F5F5F5F5F5F5F5F5F5DCF528F5F5F5F5F5F5F5F5F5F5F5F5F5F5F5F5F5F5F5F5F5F5F5F5F5F5F5F5F5F5F5F5F5F5F5F5F5F5F5F5F5F5F5F5F5F5F5F5F5F5F5F5
310
F5F5F5F5F5F5F5F5F5F5F5F5F5F5F5F5F5F5F5F5F5F5F5F5F5F5F5F5F5F5F5F5F5F5F5F5F5F5F5F5F5F5F5F5F5F5F5F5F5F5F5F5F5F5F5F5F5F5F5F5F5F5F5F5F5F5F5F5F5F5F5F5F5F5F5F5F5F5F5F5F5F528F5DCF5F5F5F5F5F5F5F5F5F5F5F5F5F5F5F5F5E2F5E2E2F5E2F5F5F5F5F5F5F5F5F5F5F5F5F5F5F5F5F5DCF5
310
28F5F5F5F5F5F5F5F5F5F5F5F5F5F5F5F5F5F5F5F5F5F5F5F5F5F5F5F5F5F5F5F5F5F5F5F5F5F5F5F5F5F5F5F5F5F5F5F5F5F5F5F5F5F5F5F5F5F5F5F5F5F5F5F5F5F5F5F5F5F5F5F5F5F5F5F5F5F5F5F5F5F5F5F5F5F5F5F5F5F5F5F5F5F5F5F5F5F5F5F5F5F5F5F5F5F5F5F5F5F5F5F5F5F5F5F5F5F5F5F5F5F5F5F5F5F5
310
F5F5F5F5F5F5F5F528F5DCF5F5F5F5F5F5F5F5F5F5F5F5F5F5F5F5F5E2F5E2E2F5E2F5F5F5F5F5F5F5F5F5F5F5F5F5F5F5F5F5DCF528F5F5F5F5F5F5F5F5F5F5F5F5F5F5F5F5F5F5F5F5F5F5F5F5F5F5F5F5F5F5F5F5F5F5F5F5F5F5F5F5F5F5F5F5F5F5F5F5F5F5F5F5F5F5F5F5F5F5F5F5F5F5F5F5F5F5F5F5F5F5F5F5F5
310
F5F5F5F5F5F5F5F5F5F5F5F5F5F5F5F5F5F5F5F5F5F5F5F5F5F5F5F5F5F5F5F5F5F5F5F5F5F5F5F5F5F5F5F5F5F5F5F5F5F5F5F5F5F5F5F5F5F5F5F5F528F5DCF5F5F5F5F5F5F5F5F5F5F5F5F5F5F5F5F5E2F5E2E2F5E2F5F5F5F5F5F5F5F5F5F5F5F5F5F5F5F5F5DCF528F5F5F5F5F5F5F5F5F5F5F5F5F5F5F5F5F5F5F5F5
310
F5F5F5F5F5F5F5F5F5F5F5F5F5F5F5F5F5F5F5F5F5F5F5F5F5F5F5F5F5F5F5F5F5F5F5F5F5F5F5F5F5F5F5F5F5F5F5F5F5F5F5F5F5F5F5F5F5F5F5F5F5F5F5F5F5F5F5F5F5F5F5F5F5F5F5F5F5F5F5F5F5F5F5F5F5F5F5F5F5F5F5F5F5F5F5F5F5F5F5F5F5F5F5F5F5F5F5F5F5F5F5F5F5F528F5DCF5F5F5F5F5F5F5F5F5F5
310
F5F5F5F5F5F5F5E2F5E2E2F5E2F5F5F5F5F5F5F5F5F5F5F5F5F5F5F5F5F5DCF528F5F5F5F5F5F5F5F5F5DCF5F5F5F5F5F5F5F5F5F5F5F5F5F5F5F5F5F5F5F5F5F5F5F5F5F5F5F5F5F5F5F5F5F5F5F5F5F5F5F5F5F5F5F5F5F5F5F5F5F5F5F5F5F5F5F5F5F5F5F5F5F5F5F5F5F5F5F5F5F5F5F5F5F5F5F5F5F5F5F5F5F5F5F5
310
F5F5F5F5F5F5F5F5F5F5F5F5F5F5F5F5F5F5F5F5F5F5F5F5F5F5F5F5F5F5F5F5F5F5F5F5F5F5F5F528F5DCF5F5F5F5F5F5F5F5F5F5F5F5F5F5F5F5F5E2F5E2E2F5E2F5F5F5F5F5F5F5F5F5F5F5F5F5F5F5F5F5DCF528F5F5F5F5F5F5F5F50FDCF5F5F5F5F52D2D2D2D2D2D2D2DF5F5F5F5F50FF5F5F5F5F5F5F5F5F5F5F5F5
310
F5F5F5F5F5F5F5F5F5F5F5F5F5F5F5F5F5F5F5F5F5F5F5F5F5F5F5F5F5F5F5F5F5F5F5F5F5F5F5F5F5F5F5F5F5F5F5F5F5F5F5F5F5F5F5F5F5F5F5F5F5F5F5F5F5F5F5F5F5F5F5F5F5F5F5F5F5F5F5F5F5F5F5F5F5F5F5F5F5F5F5F5F528F5DCF5F5F5F5F5F5F5F5F5F5F5F5F5F5F5F5F5E2F5E2E2F5E2F5F5F5F5F5F5F5F5
310
F5F5F5F5F5F5F5F5F5DCF528F5F5F5F5DCF5F5DC0FDC0F0F0F0F0F2D2D2D2D2D2D2D2D0F0F0F0F0F0F0FF5F5F5F5F5F5F5F5F5F5F5F5F5F5F5F5F5F5F5F5F5F5F5F5F5F5F5F5F5F5F5F5F5F5F5F5F5F5F5F5F5F5F5F5F5F5F5F5F5F5F5F5F5F5F5F5F5F5F5F5F5F5F5F5F5F5F5F5F5F5F5F5F5F5F5F5F5F5F5F5F5F5F5F5F5
310
F5F5F5F5F5F5F5F5F5F5F5F5F5F5F5F5F5F5F528F5DCF5F5F5F5F5F5F5F5F5F5F5F5F5F5F5F5F5E2F5E2E2F5E2F5F5F5F5F5F5F5F5F5F5F5F5F5F5F5F5F5DCF528F5F5F5DCF5F5DCF5F5DCF5F5F5F5F5F5F5F5F5F5F5F5F5F5F5F5F5F50FF5F5F5F5F5F5F5F5F5F5F5F5F5F5F5F5F5F5F5F5F5F5F5F5F5F5F5F5F5F5F5F5F5
310
F5F5F5F5F5F5F5F5F5F5F5F5F5F5F5F5F5F5F5F5F5F5F5F5F5F5F5F5F5F5F5F5F5F5F5F5F5F5F5F5F5F5F5F5F5F5F5F5F5F5F5F5F5F5F5F5F5F5F5F5F5F5F5F5F5F5F5F5F5F5F5F528F5DCF5F5F5F5F5F5F5F5F5F5F5F5F5F5F5F5F5E2F5E2E2F5E2F5F5F5F5F5F5F5F5F5F5F5F5F5F5F5F5F5DCF528F5F5F5F5F5DCF5F5DC
310
DCF5F5F5F5F5F5F5F5F5F5F5F5F5F5F5F5F5F50FF5F5F5F5F5F5F5F5F5F5F5F5F5F5F5F5F5F5F5F5F5F5F5F5F5F5F5F5F5F5F5F5F5F5F5F5F5F5F5F5F5F5F5F5F5F5F5F5F5F5F5F5F5F5F5F5F5F5F5F5F5F5F5F5F5F5F5F5F5F5F5F5F5F5F5F5F5F5F5F5F5F5F5F5F5F5F5F5F5F5F5F5F5F5F5F5F5F5F5F5F5F5F5F5F528F5
310
DCF5F5F5F5F5F5F5F5F5F5F5F5F5F5F5F5F5E2F5E2E2F5E2F5F5F5F5F5F5F5F5F5F5F5F5F5F5F5F5F5DCF528F5F5F5F5DCF5F5DCF5DCF5F5F5F5F5F5F5F5F5F5F5F5F5F5F5F5F5F50FF5F5F5F5F5F5F5F5F5F5F5F5F5F5F5F5F5F5F5F5F5F5F5F5F5F5F5F5F5F5F5F5F5F5F5F5F5F5F5F5F5F5F5F5F5F5F5F5F5F5F5F5F5F5
310
F5F5F5F5F5F5F5F5F5F5F5F5F5F5F5F5F5F5F5F5F5F5F5F5F5F5F5F5F5F5F5F5F5F5F5F5F5F5F5F5F5F5F5F5F5F5F5F5F5F5F528F5DCF5F5F5F5F5F5F5F5F5F5F5F5F5F5F5F5F5E2F5E2E2F5E2F5F5F5F5F5F5F5F5F5F5F5F5F5F5F5F5F5DCF528F5F5F5DCF5F5DCF5F5DCF5F5F5F5F5F5F5F5F5F5F5F5F5F5F5F5F5F50FF5
310
F5F5F5F5F5F5F5F5F5F5F5F5F5F5F5F5F5F5F5F5F5F5F5F5F5F5F5F5F5F5F5F5F5F5F5F5F5F5F5F5F5F5F5F5F5F5F5F5F5F5F5F5F5F5F5F5F5F5F5F5F5F5F5F5F5F5F5F5F5F5F5F5F5F5F5F5F5F5F5F5F5F5F5F5F5F5F5F5F5F5F5F5F5F5F5F5F5F5F5F5F5F5F5F528F5DCF5F5F5F5F5F5F5F5F5F5F5F5F5F5F5F5F5E2F5E2
310
E2F5F5F5F5F5F5F5F5F5F5F5F5F5F5F5F5F5F5F5DCF528F5F5F5F5F5DCF5F5F5DC1B0F0F0F0F0F0F0F0F0F0F0F0F0F0F0F0F0F0F0F0F0F0F0F0F0FF5F5F5F5F5F5F5F5F5F5F5F5F5F5F5F5F5F5F5F5F5F5F5F5F5F5F5F5F5F5F5F5F5F5F5F5F5F5F5F5F5F5F5F5F5F5F5F5F5F5F5F5F5F5F5F5F5F5F5F5F5F5F5F5F5F5F5F5
310
F5F5F5F5F5F5F5F5F5F5F5F5F5F5F5F5F5F5F5F5F5F5F5F5F5F5F5F5F5F528F5DCF5F5F5F5F5F5F5F5F5F5F5F5F5F5F5F5F5F5F5E2E2F5F5F5F5F5F5F5F5F5F5F5F5F5F5F5F5F5F5F5DCF528F5F5F5F5DCF5F5F5DCDCBEF5F5F5F5F5F5F5F5F5F5F5F5F5F5F5F5F50FF5F5F5F5F50FF5F5F5F5F5F5F5F5F5F5F5F5F5F5F5F5
310
F5F5F5F5F5F5F5F5F5F5F5F5F5F5F5F5F5F5F5F5F5F5F5F5F5F5F5F5F5F5F5F5F5F5F5F5F5F5F5F5F5F5F5F5F5F5F5F5F5F5F5F5F5F5F5F5F5F5F5F5F5F5F5F5F5F5F5F5F5F5F5F5F5F5F5F5F5F5F5F5F5F5F528F5DCF5F5F5F5F5F5F5F5F5F5F5F5F5F5F5F5F5F5F5E2E2F5F5F5F5F5F5F5F5F5F5F5F5F5F5F5F5F5F5F5DC
310
F528F5F5F5DCF5F5F5DCF5DCF5BEBEF5F5F5F5F5F5F5F5F5F5F5F5F5F5F50FF5F5F5F5F50FF5F5F5F5F5F5F5F5F5F5F5F5F5F5F5F5F5F5F5F5F5F5F5F5F5F5F5F5F5F5F5F5F5F5F5F5F5F5F5F5F5F5F5F5F5F5F5F5F5F5F5F5F5F5F5F5F5F5F5F5F5F5F5F5F5F5F5F5F5F5F5F5F5F5F5F5F5F5F5F5F5F5F5F5F5F5F5F5F5F5
310
F5F5F5F5F5F5F5F5F528F5DCF5F5F5F5F5F5F5F5F5F5F5F5F5F5F5F5F5F5F5E2E2F5F5F5F5F5F5F5F5F5F5F5F5F5F5F5F5F5F5F5DCF528F5F5F5F5F5DCDCF5F5DCF5F5BEBEF5F5F5F5F5F5F5F5F5F5F5F5F5F50FF5F5F5F5F50FF5F5F5F5F5F5F5F5F5F5F5F5F5F5F5F5F5F5F5F5F5F5F5F5F5F5F5F5F5F5F5F5F5F5F5F5F5
310
F5F5F5F5F5F5F5F5F5F5F5F5F5F5F5F5F5F5F5F5F5F5F5F5F5F5F5F5F5F5F5F5F5F5F5F5F5F5F5F5F5F5F5F5F5F5F5F5F5F5F5F5F5F5F5F5F5F5F5F5F5F528F5DCF5F5F5F5F5F5F5F5F5F5F5F5F5F5F5F5F5F5F5E2E2F5F5F5F5F5F5F5F5F5F5F5F5F5F5F5F5F5F5F5DCF528F5F5F5F5DCF5F5F5DCDCF5F5F5BEF5F5F5F5F5
310
F5F5F5F5F5F5F5F5F50FF5F5F5F5F50FF5F5F5F5F5F5F5F5F5F5F5F5F5F5F5F5F5F5F5F5F5F5F5F5F5F5F5F5F5F5F5F5F5F5F5F5F5F5F5F5F5F5F5F5F5F5F5F5F5F5F5F5F5F5F5F5F5F5F5F5F5F5F5F5F5F5F5F5F5F5F5F5F5F5F5F5F5F5F5F5F5F5F5F5F5F5F5F5F5F5F5F5F5F5F5F5F5F5F528F5DCF5F5F5F5F5F5F5F5F5
310
F5F5F5F5F5F5F5F5F5F5E2E2F5F5F5F5F5F5F5F5F5F5F5F5F5F5F5F5F5F5F5DCF528F5F5F5DCF5F5F5DCF5DCF5F5F5BEBEBEF5F5F5F5F5F5F5F5F5F5F5F50FF5F5F5F5F50FF5F5F5F5F5F5F5F5F5F5F5F5F5F5F5F5F5F5F5F5F5F5F5F5F5F5F5F5F5F5F5F5F5F5F5F5F5F5F5F5F5F5F5F5F5F5F5F5F5F5F5F5F5F5F5F5F5F5
310
F5F5F5F5F5F5F5F5F5F5F5F5F5F5F5F5F5F5F5F5F5F5F5F5F5F5F5F5F5F5F5F5F5F5F5F5F5F5F5F5F528F5DCF5F5F5F5F5F5F5F5F5F5F5F5F5F5F5F5F5F5F5E2E2F5F5F5F5F5F5F5F5F5F5F5F5F5F5F5F5F5F5F5DCF528F5F5F5F5F5DCDCF5F5DCF5F5F5F5BEBEF5F5F5F5F5F5F5F5F5F5F5F50FF5F5F5F5F50FF5F5F5F5F5
310
F5F5F5F5F5F5F5F5F5F5F5F5F5F5F5F5F5F5F5F5F5F5F5F5F5F5F5F5F5F5F5F5F5F5F5F5F5F5F5F5F5F5F5F5F5F5F5F5F5F5F5F5F5F5F5F5F5F5F5F5F5F5F5F5F5F5F5F5F5F5F5F5F5F5F5F5F5F5F5F5F5F5F5F5F5F5F5F5F5F5F5F5F5F528F5DCF5F5F5F5F5F5F5F5F5F5F5F5F5F5F5F5F5F5F5E2E2F5F5F5F5F5F5F5F5F5
310
F5F5F5F5F5F5F5F5F5F5DCF528F5F5F5F5DCF5F5F5DCDCF5F5F5F5BEF5F5F5F5F5F5F5F5F5F5F5F5F50FF5F5F5F5F50FF5F5F5F5F5F5F5F5F5F5F5F5F5F5F5F5F5F5F5F5F5F5F5F5F5F5F5F5F5F5F5F5F5F5F5F5F5F5F5F5F5F5F5F5F5F5F5F5F5F5F5F5F5F5F5F5F5F5F5F5F5F5F5F5F5F5F5F5F5F5F5F5F5F5F5F5F5F5F5
310
F5F5F5F5F5F5F5F5F5F5F5F5F5F5F5F5F5F5F5F528F5DCF5F5F5F5F5F5F5F5F5F5F5F5F5F5F5F5F5F5F5E2E2F5F5F5F5F5F5F5F5F5F5F5F5F5F5F5F5F5F5F5DCF528F5F5F5DCF5F5F5DCF5DCF5F5F5F5BEF5F5F5F5F5F5F5F5F5F5F5F5F50FF5F5F5F5F50FF5F5F5F5F5F5F5F5F5F5F5F5F5F5F5F5F5F5F5F5F5F5F5F5F5F5
310
F5F5F5F5F5F5F5F5F5F5F5F5F5F5F5F5F5F5F5F5F5F5F5F5F5F5F5F5F5F5F5F5F5F5F5F5F5F5F5F5F5F5F5F5F5F5F5F5F5F5F5F5F5F5F5F5F5F5F5F5F5F5F5F5F5F5F5F5F5F5F5F5F528F5DCF5F5F5F5F5F5F5F5F5F5F5F5F5F5F5F5F5F5F5E2E2F5E2F5F5F5F5F5F5F5F5F5F5F5F5F5F5F5F5F5DCF528F5F5F5F5F5F5DCF5
310
F5DCBEBEF5F5BEF5F5F5F5F5F5F5F5F5F5F5F5F50FF5F52D2D2D2D2D2D2D2DF5F5F5F5F5F5F5F5F5F5F5F5F5F5F5F5F5F5F5F5F5F5F5F5F5F5F5F5F5F5F5F5F5F5F5F5F5F5F5F5F5F5F5F5F5F5F5F5F5F5F5F5F5F5F5F5F5F5F5F5F5F5F5F5F5F5F5F5F5F5F5F5F5F5F5F5F5F5F5F5F5F5F5F5F5F5F5F5F5F5F5F5F5F5F528
310
F5DCF5F5F5F5F5F5F5F5F5F5F5F5F5F5F5F5F5E2F5E2E2F5E2F5F5F5F5F5F5F5F5F5F5F5F5F5F5F5F5F5DCF528F5F5F5F5F5DCF5F5DCDCF5BEF5F5BEF5F5F5F5F5F5F5F5F5F5F5F5F50FF5F52D2D2D2D2D2D2D2DF5F5F5F5F5F5F5F5F5F5F5F5F5F5F5F5F5F5F5F5F5F5F5F5F5F5F5F5F5F5F5F5F5F5F5F5F5F5F5F5F5F5F5
310
F5F5F5F5F5F5F5F5F5F5F5F5F5F5F5F5F5F5F5F5F5F5F5F5F5F5F5F5F5F5F5F5F5F5F5F5F5F5F5F5F5F5F5F5F5F5F5F5F5F5F5F528F5DCF5F5F5F5F5F5F5F5F5F5F5F5F5F5F5F5F5E2F5E2E2F5E2F5F5F5F5F5F5F5F5F5F5F5F5F5F5F5F5F5DCF528F5F5F5F5DCF5F5DCF5DCF5BEF5F5BEBEF5F5F5F5F5F5F5F5F5F5F5F50F
310
F5F5F5F5F50FF5F5F5F5F5F5F5F5F5F5F5F5F5F5F5F5F5F5F5F5F5F5F5F5F5F5F5F5F5F5F5F5F5F5F5F5F5F5F5F5F5F5F5F5F5F5F5F5F5F5F5F5F5F5F5F5F5F5F5F5F5F5F5F5F5F5F5F5F5F5F5F5F5F5F5F5F5F5F5F5F5F5F5F5F5F5F5F5F5F5F5F5F5F5F5F5F5F5F528F5DCF5F5F5F5F5F5F5F5F5F5F5F5F5F5F5F5F5E2F5
310
E2E2F5E2F5F5F5F5F5F5F5F5F5F5F5F5F5F5F5F5F5DCF528F5F5F5DCF5F5DCF5F5DCF5F5BEF5F5BEF5F5F5F5F5F5F5F5F5F5F5F50FF5F5F5F5F50FF5F5F5F5F5F5F5F5F5F5F5F5F5F5F5F5F5F5F5F5F5F5F5F5F5F5F5F5F5F5F5F5F5F5F5F5F5F5F5F5F5F5F5F5F5F5F5F5F5F5F5F5F5F5F5F5F5F5F5F5F5F5F5F5F5F5F5F5
310
F5F5F5F5F5F5F5F5F5F5F5F5F5F5F5F5F5F5F5F5F5F5F5F5F5F5F5F5F5F5F528F5DCF5F5F5F5F5F5F5F5F5F5F5F5F5F5F5F5F5E2F5E2E2F5E2F5F5F5F5F5F5F5F5F5F5F5F5F5F5F5F5F5DCF528F5F5F5F5F5DCF5F5DCDCF5F5BEF5F5F5BEBEF5F5F5F5BEBEF5F5F5F50FF5F5F5F5F50FF5F5F5F5F5F5F5F5F5F5F5F5F5F5F5
310
F5F5F5F5F5F5F5F5F5F5F5F5F5F5F5F5F5F5F5F5F5F5F5F5F5F5F5F5F5F5F5F5F5F5F5F5F5F5F5F5F5F5F5F5F5F5F5F5F5F5F5F5F5F5F5F5F5F5F5F5F5F5F5F5F5F5F5F5F5F5F5F5F5F5F5F5F5F5F5F5F5F5F5F528F5DCF5F5F5F5F5F5F5F5F5F5F5F5F5F5F5F5F5E2F5E2E2F5E2F5F5F5F5F5F5F5F5F5F5F5F5F5F5F5F5F5
310
DCF528F5F5F5F5DCF5F5DCF5DCF5F5F5BEF5F5F5BEBEBEBEBEF5BEF5F5F5F50FF5F5F5F5F50FF5F5F5F5F5F5F5F5F5F5F5F5F5F5F5F5F5F5F5F5F5F5F5F5F5F5F5F5F5F5F5F5F5F5F5F5F5F5F5F5F5F5F5F5F5F5F5F5F5F5F5F5F5F5F5F5F5F5F5F5F5F5F5F5F5F5F5F5F5F5F5F5F5F5F5F5F5F5F5F5F5F5F5F5F5F5F5F5F5
310
F5F5F5F5F5F5F5F5F5F528F5DCF5F5F5F5F5F5F5F5F5F5F5F5F5F5F5F5F5E2F5E2E2F5E2F5F5F5F5F5F5F5F5F5F5F5F5F5F5F5F5F5DCF528F5F5F5DCF5F5DCF5F5DCF5F5F5F5BEF5F5F5F5F5F5F5F5BEBEF5F5F50FF5F5F5F5F50FF5F5F5F5F5F5F5F5F5F5F5F5F5F5F5F5F5F5F5F5F5F5F5F5F5F5F5F5F5F5F5F5F5F5F5F5
310
F5F5F5F5F5F5F5F5F5F5F5F5F5F5F5F5F5F5F5F5F5F5F5F5F5F5F5F5F5F5F5F5F5F5F5F5F5F5F5F5F5F5F5F5F5F5F5F5F5F5F5F5F5F5F5F5F5F5F5F5F5F5F528F5DCF5F5F5F5F5F5F5F5F5F5F5F5F5F5F5F5F5E2F5E2E2F5E2F5F5F5F5F5F5F5F5F5F5F5F5F5F5F5F5F5DCF528F5F5F5F5F5DCF5F5F5DCF5F5F5F5F5BEBEBE
310
F5F5F5F5F5F5F5BEBEF50FF5F5F5F5F50FF5F5F5F5F5F5F5F5F5F5F5F5F5F5F5F5F5F5F5F5F5F5F5F5F5F5F5F5F5F5F5F5F5F5F5F5F5F5F5F5F5F5F5F5F5F5F5F5F5F5F5F5F5F5F5F5F5F5F5F5F5F5F5F5F5F5F5F5F5F5F5F5F5F5F5F5F5F5F5F5F5F5F5F5F5F5F5F5F5F5F5F5F5F5F5F5F5F5F528F5DCF5F5F5F5F5F5F5F5
310
F5F5F5F5F5F5F5F5F5E2F5E2E2F5E2F5F5F5F5F5F5F5F5F5F5F5F5F5F5F5F5F5DCF528F5F5F5F5DCF5F5F5DCDCF5F5F5F5F5F5F5F5BEBEF5F5F5F5F5F5BEF50FF5F5F5F5F50FF5F5F5F5F5F5F5F5F5F5F5F5F5F5F5F5F5F5F5F5F5F5F5F5F5F5F5F5F5F5F5F5F5F5F5F5F5F5F5F5F5F5F5F5F5F5F5F5F5F5F5F5F5F5F5F5F5
310
F5F5F5F5F5F5F5F5F5F5F5F5F5F5F5F5F5F5F5F5F5F5F5F5F5F5F5F5F5F5F5F5F5F5F5F5F5F5F5F5F5F528F5DCF5F5F5F5F5F5F5F5F5F5F5F5F5F5F5F5F5E2F5E2E2F5E2F5F5F5F5F5F5F5F5F5F5F5F5F5F5F5F5F5DCF528F5F5F5DCF5F5F5DCF5DCF5F5F5F5F5F5F5F5F5BEBEF5F5F5F5F5F5BE1BF5F5F5F5F50FF5F5F5F5
310
F5F5F5F5F5F5F5F5F5F5F5F5F5F5F5F5F5F5F5F5F5F5F5F5F5F5F5F5F5F5F5F5F5F5F5F5F5F5F5F5F5F5F5F5F5F5F5F5F5F5F5F5F5F5F5F5F5F5F5F5F5F5F5F5F5F5F5F5F5F5F5F5F5F5F5F5F5F5F5F5F5F5F5F5F5F5F5F5F5F5F5F5F5F5F528F5DCF5F5F5F5F5F5F5F5F5F5F5F5F5F5F5F5F5E2F5E2E2F5E2F5F5F5F5F5F5
310
F5F5F5F5F5F5F5F5F5F5F5DCF528F5F5F5F5F5DCDCF5F5DCF5F5F5F5F5F5F5F5F5F5BEF5F5F5F5F5F5F5BEF5F5F5F5F50F0FF5F5F5F5F5F5F5F5F5F5F5F5F5F5F5F5F5F5F5F5F5F5F5F5F5F5F5F5F5F5F5F5F5F5F5F5F5F5F5F5F5F5F5F5F5F5F5F5F5F5F5F5F5F5F5F5F5F5F5F5F5F5F5F5F5F5F5F5F5F5F5F5F5F5F5F5F5
310
F5F5F5F5F5F5F5F5F5F5F5F5F5F5F5F5F5F5F5F5F528F5DCF5F5F5F5F5F5F5F5F5F5F5F5F5F5F5F5F5E2F5E2E2F5E2F5F5F5F5F5F5F5F5F5F5F5F5F5F5F5F5F5DCF528F5F5F5F5DCF5F5F5DCDCDCDCDCDCDCDCDCDCDCDCDCDCDCDCDCDCDCDCDCDCDCDCDCDCDCDCDCF5F5F5F5F5F5F5F5F5F5F5F5F5F5F5F5F5F5F5F5F5F5F5
310
F5F5F5F5F5F5F5F5F5F5F5F5F5F5F5F5F5F5F5F5F5F5F5F5F5F5F5F5F5F5F5F5F5F5F5F5F5F5F5F5F5F5F5F5F5F5F5F5F5F5F5F5F5F5F5F5F5F5F5F5F5F5F5F5F5F5F5F5F5F5F5F5F5F528F5DCF5F5F5F5F5F5F5F5F5F5F5F5F5F5F5F5F5E2F5E2E2F5E2F5F5F5F5F5F5F5F5F5F5F5F5F5F5F5F5F5DCF528F5F5F5DCF5F5F5
310
DCF5F5DCF5F5DCF5F5F5DCF5F5DCF5F5DCF5F5DCF5F5DCF5F5DCF5F5F5F5F5F5F5F5F5F5F5F5F5F5F5F5F5F5F5F5F5F5F5F5F5F5F5F5F5F5F5F5F5F5F5F5F5F5F5F5F5F5F5F5F5F5F5F5F5F5F5F5F5F5F5F5F5F5F5F5F5F5F5F5F5F5F5F5F5F5F5F5F5F5F5F5F5F5F5F5F5F5F5F5F5F5F5F5F5F5F5F5F5F5F5F5F5F5F5F5F5
310
28F5DCF5F5F5F5F5F5F5F5F5F5F5F5F5F5F5F5F5E2F5E2E2F5E2F5F5F5F5F5F5F5F5F5F5F5F5F5F5F5F5F5DCF528F5F5F5F5F5DCDCF5F5DCF5F5DCF5F5F5DCF5F5DCF5F5DCF5F5DCF5F5DCF5F5DCF5F5F5F5F5F5F5F5F5F5F5F5F5F5F5F5F5F5F5F5F5F5F5F5F5F5F5F5F5F5F5F5F5F5F5F5F5F5F5F5F5F5F5F5F5F5F5F5F5
310
F5F5F5F5F5F5F5F5F5F5F5F5F5F5F5F5F5F5F5F5F5F5F5F5F5F5F5F5F5F5F5F5F5F5F5F5F5F5F5F5F5F5F5F5F5F5F5F5F5F5F5F5F528F5DCF5F5F5F5F5F5F5F5F5F5F5F5F5F5F5F5F5E2F5E2E2F5E2F5F5F5F5F5F5F5F5F5F5F5F5F5F5F5F5F5DCF528F5F5F5F5DCF5F5F5DCF5F5DCF5F5DCDCF5DCDCF5DCDCF5F5DCF5F5DC
310
F5F5DCF5F5F5F5F5F5F5F5F5F5F5F5F5F5F5F5F5F5F5F5F5F5F5F5F5F5F5F5F5F5F5F5F5F5F5F5F5F5F5F5F5F5F5F5F5F5F5F5F5F5F5F5F5F5F5F5F5F5F5F5F5F5F5F5F5F5F5F5F5F5F5F5F5F5F5F5F5F5F5F5F5F5F5F5F5F5F5F5F5F5F5F5F5F5F5F5F5F5F5F5F5F5F528F5DCF5F5F5F5F5F5F5F5F5F5F5F5F5F5F5F5F5E2
310
F5E2E2F5E2F5F5F5F5F5F5F5F5F5F5F5F5F5F5F5F5F5DCF528F5F5F5DCF5F5F5DCF5F5DCF5F5DCF5F5DCF5F5DCF5F5F5DCF5F5DCF5F5DCF5F5F5DCF5F5F5F5F5F5F5F5F5F5F5F5F5F5F5F5F5F5F5F5F5F5F5F5F5F5F5F5F5F5F5F5F5F5F5F5F5F5F5F5F5F5F5F5F5F5F5F5F5F5F5F5F5F5F5F5F5F5F5F5F5F5F5F5F5F5F5F5
310
F5F5F5F5F5F5F5F5F5F5F5F5F5F5F5F5F5F5F5F5F5F5F5F5F5F5F5F5F5F5F5F528F5DCF5F5F5F5F5F5F5F5F5F5F5F5F5F5F5F5F5E2F5E2E2F5F5F5F5F5F5F5F5F5F5F5F5F5F5F5F5F5F5F5DCF528F5F5F5F5F5F5DCF5F5DCF5F5DCF5F5DCF5F5DCF5F5F5DCF5F5DCF5F5DCF5F5DCDCF5F5F5F5F5F5F5F5F5F5F5F5F5F5F5F5
310
F5F5F5F5F5F5F5F5F5F5F5F5F5F5F5F5F5F5F5F5F5F5F5F5F5F5F5F5F5F5F5F5F5F5F5F5F5F5F5F5F5F5F5F5F5F5F5F5F5F5F5F5F5F5F5F5F5F5F5F5F5F5F5F5F5F5F5F5F5F5F5F5F5F5F5F5F5F5F5F5F5F5F5F5F528F5DCF5F5F5F5F5F5F5F5F5F5F5F5F5F5F5F5F5F5F5E2E2F5F5F5F5F5F5F5F5F5F5F5F5F5F5F5F5F5F5
310
F5DCF528F5F5F5F5F5F5F5F5F5F5F5F5F5F5F5F5F5F5F5F5F5F5F5F5F5F5F5F5F5F5F5F5F5F5F5F5F5F5F5F5F5F5F5F5F5F5F5F5F5F5F5F5F5F5F5F5F5F5F5F5F5F5F5F5F5F5F5F5F5F5F5F5F5F5F5F5F5F5F5F5F5F5F5F5F5F5F5F5F5F5F5F5F5F5F5F5F5F5F5F5F5F5F5F5F5F5F5F5F5F5F5F5F5F5F5F5F5F5F5F5F5F5F5
310
F5F5F5F5F5F5F5F5F5F5F528F5DCF5F5F5F5F5F5F5F5F5F5F5F5F5F5F5F5F5F5F5E2E2F5F5F5F5F5F5F5F5F5F5F5F5F5F5F5F5F5F5F5DCF528F5F5F5F5F5F5F5F5F5F5F5F5F5F5F5F5F5F5F5F5F5F5F5F5F5F5F5F5F5F5F5F5F5F5F5F5F5F5F5F5F5F5F5F5F5F5F5F5F5F5F5F5F5F5F5F5F5F5F5F5F5F5F5F5F5F5F5F5F5F5
310
F5F5F5F5F5F5F5F5F5F5F5F5F5F5F5F5F5F5F5F5F5F5F5F5F5F5F5F5F5F5F5F5F5F5F5F5F5F5F5F5F5F5F5F5F5F5F5F5F5F5F5F5F5F5F5F5F5F5F5F5F5F5F5F528F5DCF5F5F5F5F5F5F5F5F5F5F5F5F5F5F5F5F5F5F5E2E2F5F5F5F5F5F5F5F5F5F5F5F5F5F5F5F5F5F5F5DCF528F5F5F5F5F5F5F5F5F5F5F5F5F5F5F5F5F5
310
F5F5F5F5F5F5F5F5F5F5F5F5F5F5F5F5F5F5F5F5F5F5F5F5F5F5F5F5F5F5F5F5F5F5F5F5F5F5F5F5F5F5F5F5F5F5F5F5F5F5F5F5F5F5F5F5F5F5F5F5F5F5F5F5F5F5F5F5F5F5F5F5F5F5F5F5F5F5F5F5F5F5F5F5F5F5F5F5F5F5F5F5F5F5F5F5F5F5F5F5F5F5F5F5F5F5F5F5F5F5F5F5F5F5F5F5F528F5DCF5F5F5F5F5F5F5
310
F5F5F5F5F5F5F5F5F5F5F5F5E2E2F5F5F5F5F5F5F5F5F5F5F5F5F5F5F5F5F5F5F5DCF528F5F5F5F5F5F5F5F5F5F5F5F5F5F5F5F5F5F5F5F5F5F5F5F5F5F5F5F5F5F5F5F5F5F5F5F5F5F5F5F5F5F5F5F5F5F5F5F5F5F5F5F5F5F5F5F5F5F5F5F5F5F5F5F5F5F5F5F5F5F5F5F5F5F5F5F5F5F5F5F5F5F5F5F5F5F5F5F5F5F5F5
310
F5F5F5F5F5F5F5F5F5F5F5F5F5F5F5F5F5F5F5F5F5F5F5F5F5F5F5F5F5F5F5F5F5F5F5F5F5F5F5F5F5F5F528F5DCF5F5F5F5F5F5F5F5F5F5F5F5F5F5F5F5F5F5F5E2E2F5F5F5F5F5F5F5F5F5F5F5F5F5F5F5F5F5F5F5DCF528F5F5F5F5F5F5F5F5F5F5F5F5F5F5F5F5F5F5F5F5F5F5F5F5F5F5F5F5F5F5F5F5F5F5F5F5F5F5
310
F5F5F5F5F5F5F5F5F5F5F5F5F5F5F5F5F5F5F5F5F5F5F5F5F5F5F5F5F5F5F5F5F5F5F5F5F5F5F5F5F5F5F5F5F5F5F5F5F5F5F5F5F5F5F5F5F5F5F5F5F5F5F5F5F5F5F5F5F5F5F5F5F5F5F5F5F5F5F5F5F5F5F5F5F5F5F5F5F5F5F5F5F5F5F5F528F5DCF5F5F5F5F5F5F5F5F5F5F5F5F5F5F5F5F5F5F5E2E2F5F5F5F5F5F5F5
310
F5F5F5F5F5F5F5F5F5F5F5F5DCF528F5F5F5F5F5F5F5F5F5F5F5F5F5F5F5F5F5F5F5F5F5F5F5F5F5F5F5F5F5F5F5F5F5F5F5F5F5F5F5F5F5F5F5F5F5F5F5F5F5F5F5F5F5F5F5F5F5F5F5F5F5F5F5F5F5F5F5F5F5F5F5F5F5F5F5F5F5F5F5F5F5F5F5F5F5F5F5F5F5F5F5F5F5F5F5F5F5F5F5F5F5F5F5F5F5F5F5F5F5F5F5F5
310
F5F5F5F5F5F5F5F5F5F5F5F5F5F5F5F5F5F5F5F5F5F528F5DCF5F5F5F5F5F5F5F5F5F5F5F5F5F5F5F5F5F5F5E2E2F5F5F5F5F5F5F5F5F5F5F5F5F5F5F5F5F5F5F5DCF528F5F5F5F5F5F5F5F5F5F5F5F5F5F5F5F5F5F5F5F5F5F5F5F5F5F5F5F5F5F5F5F5F5F5F5F5F5F5F5F5F5F5F5F5F5F5F5F5F5F5F5F5F5F5F5F5F5F5F5
310
F5F5F5F5F5F5F5F5F5F5F5F5F5F5F5F5F5F5F5F5F5F5F5F5F5F5F5F5F5F5F5F5F5F5F5F5F5F5F5F5F5F5F5F5F5F5F5F5F5F5F5F5F5F5F5F5F5F5F5F5F5F5F5F5F5F5F5F5F5F5F5F5F5F5F528F5DCF5F5F5F5F5F5F5F5F5F5F5F5F5F5F5F5F5F5F5E2E2F5E2F5F5F5F5F5F5F5F5F5F5F5F5F5F5F5F5F5DCF528F5F5F5F5F5F5
310
F5F5F5F5F5F5F5F5F5F5F5F5F5F5F5F5F5F5F5F5F5F5F5F5F5F5F5F5F5F5F5F5F5F5F5F5F5F5F5F5F5F5F5F5F5F5F5F5F5F5F5F5F5F5F5F5F5F5F5F5F5F5F5F5F5F5F5F5F5F5F5F5F5F5F5F5F5F5F5F5F5F5F5F5F5F5F5F5F5F5F5F5F5F5F5F5F5F5F5F5F5F5F5F5F5F5F5F5F5F5F5F5F5F5F5F5F5F5F5F5F5F5F5F5F5F5F5
310
F528F5DCF5F5F5F5F5F5F5F5F5F5F5F5F5F5F5F5F5E2F5E2E2F5E2F5F5F5F5F5F5F5F5F5F5F5F5F5F5F5F5F5DCF528F5F5F5F5F5F5F5F5F5F5F5F5F5F5F5F5F5F5F5F5F5F5F5F5F5F5F5F5F5F5F5F5F5F5F5F5F5F5F5F5F5F5F5F5F5F5F5F5F5F5F5F5F5F5F5F5F5F5F5F5F5F5F5F5F5F5F5F5F5F5F5F5F5F5F5F5F5F5F5F5
310
F5F5F5F5F5F5F5F5F5F5F5F5F5F5F5F5F5F5F5F5F5F5F5F5F5F5F5F5F5F5F5F5F5F5F5F5F5F5F5F5F5F5F5F5F5F5F5F5F5F5F5F5F5F528F5DCF5F5F5F5F5F5F5F5F5F5F5F5F5F5F5F5F5E2F5E2E2F5E2F5F5F5F5F5F5F5F5F5F5F5F5F5F5F5F5F5DCF528F5F5F5F5F5F5F5F5F5F5F5F5F5F5F5F5F5F5F5F5F5F5F5F5F5F5F5
310
F5F5F5F5F5F5F5F5F5F5F5F5F5F5F5F5F5F5F5F5F5F5F5F5F5F5F5F5F5F5F5F5F5F5F5F5F5F5F5F5F5F5F5F5F5F5F5F5F5F5F5F5F5F5F5F5F5F5F5F5F5F5F5F5F5F5F5F5F5F5F5F5F5F5F5F5F5F5F5F5F5F5F5F5F5F5F5F5F5F5F5F5F5F5F5F5F5F5F5F5F5F5F5F5F5F5F528F5DCF5F5F5F5F5F5F5F5F5F5F5F5F5F5F5F5F5
310
E2F5E2E2F5E2F5F5F5F5F5F5F5F5F5F5F5F5F5F5F5F5F5DCF528F5F5F5F5F5F5F5F5F5F5F5F5F5F5F5F5F5F5F5F5F5F5F5F5F5F5F5F5F5F5F5F5F5F5F5F5F5F5F5F5F5F5F5F5F5F5F5F5F5F5F5F5F5F5F5F5F5F5F5F5F5F5F5F5F5F5F5F5F5F5F5F5F5F5F5F5F5F5F5F5F5F5F5F5F5F5F5F5F5F5F5F5F5F5F5F5F5F5F5F5F5
310
F5F5F5F5F5F5F5F5F5F5F5F5F5F5F5F5F5F5F5F5F5F5F5F5F5F5F5F5F5F5F5F5F528F5DCF5F5F5F5F5F5F5F5F5F5F5F5F5F5F5F5F5E2F5E2E2F5E2F5F5F5F5F5F5F5F5F5F5F5F5F5F5F5F5F5DCF528F5F5F5F5F5F5F5F5F5F5F5F5F5F5F5F5F5F5F5F5F5F5F5F5F5F5F5F5F5F5F5F5F5F5F5F5F5F5F5F5F5F5F5F5F5F5F5F5
310
F5F5F5F5F5F5F5F5F5F5F5F5F5F5F5F5F5F5F5F5F5F5F5F5F5F5F5F5F5F5F5F5F5F5F5F5F5F5F5F5F5F5F5F5F5F5F5F5F5F5F5F5F5F5F5F5F5F5F5F5F5F5F5F5F5F5F5F5F5F5F5F5F5F5F5F5F5F5F5F5F5F5F5F5F5F528F5DCF5F5F5F5F5F5F5F5F5F5F5F5F5F5F5F5F5E2F5E2E2F5E2F5F5F5F5F5F5F5F5F5F5F5F5F5F5F5
310
F5F5DCF528F5F5F5F5F5F5F5F5F5F5F5F5F5F5F5F5F5F5F5F5F5F5F5F5F5F5F5F5F5F5F5F5F5F5F5F5F5F5F5F5F5F5F5F5F5F5F5F5F5F5F5F5F5F5F5F5F5F5F5F5F5F5F5F5F5F5F5F5F5F5F5F5F5F5F5F5F5F5F5F5F5F5F5F5F5F5F5F5F5F5F5F5F5F5F5F5F5F5F5F5F5F5F5F5F5F5F5F5F5F5F5F5F5F5F5F5F5F5F5F5F5F5
310
F5F5F5F5F5F5F5F5F5F5F5F528F5DCF5F5F5F5F5F5F5F5F5F5F5F5F5F5F5F5F5E2F5E2E2F5E2F5F5F5F5F5F5F5F5F5F5F5F5F5F5F5F5F5DCF528F5F5F5F5F5F5F5F5F5F5F5F5F5F5F5F5F5F5F5F5F5F5F5F5F5F5F5F5F5F5F5F5F5F5F5F5F5F5F5F5F5F5F5F5F5F5F5F5F5F5F5F5F5F5F5F5F5F5F5F5F5F5F5F5F5F5F5F5F5
310
F5F5F5F5F5F5F5F5F5F5F5F5F5F5F5F5F5F5F5F5F5F5F5F5F5F5F5F5F5F5F5F5F5F5F5F5F5F5F5F5F5F5F5F5F5F5F5F5F5F5F5F5F5F5F5F5F5F5F5F5F5F5F5F5F528F5DCF5F5F5F5F5F5F5F5F5F5F5F5F5F5F5F5F5E2F5E2E2F5E2F5F5F5F5F5F5F5F5F5F5F5F5F5F5F5F5F5DCF528F5F5F5F5F5F5F5F5F5F5F5F5F5F5F5F5
310
F5F5F5F5F5F5F5F5F5F5F5F5F5F5F5F5F5F5F5F5F5F5F5F5F5F5F5F5F5F5F5F5F5F5F5F5F5F5F5F5F5F5F5F5F5F5F5F5F5F5F5F5F5F5F5F5F5F5F5F5F5F5F5F5F5F5F5F5F5F5F5F5F5F5F5F5F5F5F5F5F5F5F5F5F5F5F5F5F5F5F5F5F5F5F5F5F5F5F5F5F5F5F5F5F5F5F5F5F5F5F5F5F5F5F5F5F5F528F5DCF5F5F5F5F5F5
310
F5F5F5F5F5F5F5F5F5F5F5E2F5E2E2F5E2F5F5F5F5F5F5F5F5F5F5F5F5F5F5F5F5F5DCF528282828282828282828282828282828282828282828282828282828282828282828282828282828282828282828282828282828282828282828282828282828282828282828282828282828282828282828282828282828282828
310
282828282828282828282828282828282828282828282828282828282828282828282828282828282828282828F5DCF5F5F5F5F5F5F5F5F5F5F5F5F5F5F5F5F5E2F5E2E2F5E2F5F5F5F5F5F5F5F5F5F5F5F5F5F5F5F5F5DCF528F5F5F5F5F5F5F5F5F5F5F5F5F5F5F5F5F5F5F5F5F5F5F5F5F5F5F5F5F5F5F5F5F5F5F5F5F5
310
F5F5F5F5F5F5F5F5F5F5F5F5F5F5F5F5F5F5F5F5F5F5F5F5F5F5F5F5F528F5F5F5F5F5F5F5F5F5F5F5F5F5F5F5F5F5F5F5F5F5F5F5F5F5F5F5F5F5F5F5F5F5F5F5F5F5F5F5F5F5F5F5F5F5F5F5F5F5F5F5F5F5F5F5F5F5F5F5F5F5F5F5F5F5F5F528F5DCF5F5F5F5F5F5F5F5F5F5F5F5F5F5F5F5F5E2F5E2E2F5E2F5F5F5F5
310
F5F5F5F5F5F5F5F5F5F5F5F5F5DCF528F5F5F5F5F5F5F5F5F5F5F5F5F52D2D2D2D2D2D2D2D2D2D2D2D2D2D2D2D2D2D2D2D2D2D2D2D2D2D2D2D2D2D2D2D2D2D2D2D2D2DF5F5F5F5F5F5F5F5F5F5F5F5F5F5F528F5F5F52D2D2D2DF52D2D2D2D2D2DF5F5F5F5F5F5F5F5F5F5F5F5F5F5F5F5F5F5F5F5F5F5F5F5F5F5F5F5F5F5
310
F5F5F5F5F5F5F5F5F5F5F5F5F5F5F5F5F5F5F5F5F5F5F528F5DCF5F5F5F5F5F5F5F5F5F5F5F5F5F5F5F5F5E2F5E2E2F5E2F5F5F5F5F5F5F5F5F5F5F5F5F5F5F5F5F5DCF528F5F5F5F5F5F5F5F5F5F5F5F5F52D2D2D2D2D2D2D2D2D2D2D2D2D2D2D2D2D2D2D2D2D2D2D2D2D2D2D2D2D2D2D2D2D2D2D2D2D2DF5F5F5F5F5F5F5
310
F5F5F5F5F5F5F5F528F5F5F52D2D2D2DF52D2D2D2DF52DF5F5F5F5F5F5F5F5F5F5F5F5F5F5F5F5F5F5F5F5F5F5F5F5F5F5F5F5F5F5F5F5F5F5F5F5F5F5F5F5F5F5F5F5F5F5F5F5F5F5F5F5F528F5DCF5F5F5F5F5F5F5F5F5F5F5F5F5F5F5F5F5E2F5E2E2F5E2F5F5F5F5F5F5F5F5F5F5F5F5F5F5F5F5F5DCF528F5F5F5F5F5
310
F5F5F5F5F5F5F5F5F5F5F5F5F5F5F5F5F5F5F5F5F5F5F5F5F5F5F5F5F5F5F5F5F5F5F5F5F5F5F5F5F5F5F5F5F5F5F5F5F5F5F5F5F5F5F5F5F5F5F5F5F528F5F5F5F5F5F5F5F5F5F5F5F5F5F5F5F5F5F5F5F5F5F5F5F5F5F5F5F5F5F5F5F5F5F5F5F5F5F5F5F5F5F5F5F5F5F5F5F5F5F5F5F5F5F5F5F5F5F5F5F5F5F5F5F5F5
310
F5F528F5DCF5F5F5F5F5F5F5F5F5F5F5F5F5F5F5F5F5E2F5E2E2F5E2F5F5F5F5F5F5F5F5F5F5F5F5F5F5F5F5F5DCF52828282828282828282828282828282828282828282828282828282D2D2D2D2D2D2D2D2D2D2D2D2D28282828282828282828282828282828282828282828282828282828282828282828282828282828
310
2828282828282828282828282828282828282828282828282828282828282828282828282828282828282828282828282828282828282828F5DCF5F5F5F5F5F5F5F5F5F5F5F5F5F5F5F5F5E2F5E2E2F5E2F5F5F5F5F5F5F5F5F5F5F5F5F5F5F5F5F5DCF528F5F5F5F5F5F5F5F5F5F5F5F5F5F5F5F5F5F5F5F5F5F5F5F5F5F5
310
2D2D2D2D2D2D2D2D2D2D2D2D2DF5F5F5F5F5F5F5F5F5F5F5F5F5F5F5F5F5F5F5F5F5F5F5F5F5F5F528F5F5F52D2D2D2D2D2D2D2D2D2D2DF5F52D2D2D2D2D2D2D2D2D2DF5F5F5F5F5F5F5F5F5F5F5F5F5F5F5F5F5F5F5F5F5F5F5F5F5F5F5F5F5F5F5F5F5F5F5F5F5F5F5F5F528F5DCF5F5F5F5F5F5F5F5F5F5F5F5F5F5F5F5
310
F5E2F5E2E2F5E2F5F5F5F5F5F5F5F5F5F5F5F5F5F5F5F5F5DCF528F5F5F5F5F5F5F5F5F5F5F5F5F5F5F5F5F5F5F5F5F5F5F5F5F5F52D2D2D2D2D2D2D2D2D2D2D2D2DF5F5F5F5F5F5F5F5F5F5F5F5F5F5F5F5F5F5F5F5F5F5F5F5F5F5F528F5F5F52D2D2D2D2D2D2D2D2D2D2DF52D2D2D2D2D2D2D2D2D2D2DF5F5F5F5F5F5F5
310
F5F5F5F5F5F5F5F5F5F5F5F5F5F5F5F5F5F5F5F5F5F5F5F5F5F5F5F5F5F5F5F5F5F528F5DCF5F5F5F5F5F5F5F5F5F5F5F5F5F5F5F5F5E2F5E2E2F5F5F5F5F5F5F5F5F5F5F5F5F5F5F5F5F5F5F5DCF528F5F5F5F5F5F5F5F5F5F5F5F5F5F5F5F5F5F5F5F5F5F5F5F5F5F5F5F5F5F5F5F5F5F5F5F5F5F5F5F5F5F5F5F5F5F5F5
310
F5F5F5F5F5F5F5F5F5F5F5F5F5F5F5F5F5F5F528F5F5F5F5F5F5F5F5F5F5F5F5F5F5F5F5F5F5F5F5F5F5F5F5F5F5F5F5F5F5F5F5F5F5F5F5F5F5F5F5F5F5F5F5F5F5F5F5F5F5F5F5F5F5F5F5F5F5F5F5F5F5F5F5F5F5F528F5DCF5F5F5F5F5F5F5F5F5F5F5F5F5F5F5F5F5F5F5E2E2F5F5F5F5F5F5F5F5F5F5F5F5F5F5F5F5
310
F5F5F5DCF52828282828282828282828282828282828282828282828282828282828282828282828282828282828282828282828282828282828282828282828282828282828282828282828282828282828282828282828282828282828282828282828282828282828282828282828282828282828282828282828282828
310
2828282828282828282828282828F5DCF5F5F5F5F5F5F5F5F5F5F5F5F5F5F5F5F5F5F5E2E2F5F5F5F5F5F5F5F5F5F5F5F5F5F5F5F5F5F5F5DCF5F5F5F5F5F5F5F5F5F5F5F5F5F5F5F5F5F5F5F5F5F5F5F5F5F5F5F5F5F5F5F5F5F5F5F5F5F5F5F5F5F5F5F5F5F5F5F5F5F5F5F5F5F5F5F5F5F5F5F5F5F5F5F5F5F5F5F5F5F5
310
F5F5F5F5F5F5F5F5F5F5F5F5F5F5F5F5F5F5F5F5F5F5F5F5F5F5F5F5F5F5F5F5F5F5F5F5F5F5F5F5F5F5F5F5F5F5F5F5F5F5F5F5F5F5F5F5F5F5F5F5F5F5F5F5F5F5F5F5DCF5F5F5F5F5F5F5F5F5F5F5F5F5F5F5F5F5F5F5E2E2F5F5F5F5F5F5F5F5F5F5F5F5F5F5F5F5F5F5F5DCDCDCDCDCDCDCDCDCDCDCDCDCDCDCDCDCDC
310
DCDCDCDCDCDCDCDCDCDCDCDCDCDCDCDCDCDCDCDCDCDCDCDCDCDCDCDCDCDCDCDCDCDCDCDCDCDCDCDCDCDCDCDCDCDCDCDCDCDCDCDCDCDCDCDCDCDCDCDCDCDCDCDCDCDCDCDCDCDCDCDCDCDCDCDCDCDCDCDCDCDCDCDCDCDCDCDCDCDCDCDCDCDCDCDCDCDCDCDCDCDCDCDCDCDCDCDCDCDCDCDCDCDCDCDCDCDCDCDCDCDCF5F5F5F5F5
310
F5F5F5F5F5F5F5F5F5F5F5F5F5F5E2E2F5F5F5F5F5F5F5F5F5F5F5F5F5F5F5F5F5F5F5DCDCDCDCDCDCDCDCDCDCDCDCDCDCDCDCDCDCDCDCDCDCDCDCDCDCDCDCDCDCDCDCDCDCDCDCDCDCDCDCDCDCDCDCDCDCDCDCDCDCDCDCDCDCDCDCDCDCDCDCDCDCDCDCDCDCDCDCDCDCDCDCDCDCDCDCDCDCDCDCDCDCDCDCDCDCDCDCDCDCDCDC
310
DCDCDCDCDCDCDCDCDCDCDCDCDCDCDCDCDCDCDCDCDCDCDCDCDCDCDCDCDCDCDCDCDCDCDCDCDCDCDCDCDCDCDCDCDCDCDCDCF5F5F5F5F5F5F5F5F5F5F5F5F5F5F5F5F5F5F5E2E2F5F5F5F5F5F5F5F5F5F5F5F5F5F5F5F5F5F5F5F5F5F5F5F5F5F5F5F5F5F5F5F5F5F5F5F5F5F5F5F5F5F5F5F5F5F5F5F5F5F5F5F5F5F5F5F5F5F5
310
F5F5F5F5F5F5F5F5F5F5F5F5F5F5F5F5F5F5F5F5F5F5F5F5F5F5F5F5F5F5F5F5F5F5F5F5F5F5F5F5F5F5F5F5F5F5F5F5F5F5F5F5F5F5F5F5F5F5F5F5F5F5F5F5F5F5F5F5F5F5F5F5F5F5F5F5F5F5F5F5F5F5F5F5F5F5F5F5F5F5F5F5F5F5F5F5F5F5F5F5F5F5F5F5F5F5F5F5F5F5F5F5F5F5F5F5F5F5F5F5E2E2F5F5F5F5F5
310
F5F5F5F5F5F5F5F5F5F5F5F5F5F5F5F5F5F5F5F5F5F5F5F5F5F5F5F5F5F5F5F5F5F5F5F5F5F5F5F5F5F5F5F5F5F5F5F5F5F5F5F5F5F5F5F5F5F5F5F5F5F5F5F5F5F5F5F5F5F5F5F5F5F5F5F5F5F5F5F5F5F5F5F5F5F5F5F5F5F5F5F5F5F5F5F5F5F5F5F5F5F5F5F5F5F5F5F5F5F5F5F5F5F5F5F5F5F5F5F5F5F5F5F5F5F5F5
310
F5F5F5F5F5F5F5F5F5F5F5F5F5F5F5F5F5F5F5F5F5F5F5F5F5F5F5F5F5F5F5F5F5F5F5F5F5F5F5F5F5F5F5F5F5F5E2E2F5F5F5F5F5F5F5F5F5F5F5F5F5F5F5F5F5F5F5F5F5F5F5F5F5F5F5F5F5F5F5F5F5F5F5F5F5F5F5F5F5F5F5F5F5F5F5F5F5F5F5F5F5F5F5F5F5F5F5F5F5F5F5F5F5F5F5F5F5F5F5F5F5F5F5F5F5F5F5
310
F5F5F5F5F5F5F5F5F5F5F5F5F5F5F5F5F5F5F5F5F5F5F5F5F5F5F5F5F5F5F5F5F5F5F5F5F5F5F5F5F5F5F5F5F5F5F5F5F5F5F5F5F5F5F5F5F5F5F5F5F5F5F5F5F5F5F5F5F5F5F5F5F5F5F5F5F5F5F5F5F5F5F5F5F5F5F5F5F5F5F5F5F5F5F5F5F5F5F5E2E2F5F5F5F5F5F5F5F5F5F5F5F5F5F5F5F5F5F5F5F5F5F5F5F5F5F5
310
F5F5F5F5F5F5F5F5F5F5F5F5F5F5F5F5F5F5F5F5F5F5F5F5F5F5F5F5F5F5F5F5F5F5F5F5F5F5F5F5F5F5F5F5F5F5F5F5F5F5F5F5F5F5F5F5F5F5F5F5F5F5F5F5F5F5F5F5F5F5F5F5F5F5F5F5F5F5F5F5F5F5F5F5F5F5F5F5F5F5F5F5F5F5F5F5F5F5F5F5F5F5F5F5F5F5F5F5F5F5F5F5F5F5F5F5F5F5F5F5F5F5F5F5F5F5F5
310
F5F5F5F5F5F5F5F5F5F5F5F5F5F5F5F5F5F5F5F5F5F5F5F5F5E2E2F5E2F5F5F5F5F5F5F5F5F5F5F5F5F5F5F5F5F5F5F5F5F5F5F5F5F5F5F5F5F5F5F5F5F5F5F5F5F5F5F5F5F5F5F5F5F5F5F5F5F5F5F5F5F5F5F5F5F5F5F5F5F5F5F5F5F5F5F5F5F5F5F5F5F5F5F5F5F5F5F5F5F5F5F5F5F5F5F5F5F5F5F5F5F5F5F5F5F5F5
310
F5F5F5F5F5F5F5F5F5F5F5F5F5F5F5F5F5F5F5F5F5F5F5F5F5F5F5F5F5F5F5F5F5F5F5F5F5F5F5F5F5F5F5F5F5F5F5F5F5F5F5F5F5F5F5F5F5F5F5F5F5F5F5F5F5F5F5F5F5F5F5F5F5F5F5F5E2F5E2E2F5E2F5F5F5F5F5F5F5F5F5F5F5F5F5F5F5F5F5F5F5F5F5F5F5F5F5F5F5F5F5F5F5F5F5F5F5F5F5F5F5F5F5F5F5F5F5
310
F5F5F5F5F5F5F5F5F5F5F5F5F5F5F5F5F5F5F5F5F5F5F5F5F5F5F5F5F5F5F5F5F5F5F5F5F5F5F5F5F5F5F5F5F5F5F5F5F5F5F5F5F5F5F5F5F5F5F5F5F5F5F5F5F5F5F5F5F5F5F5F5F5F5F5F5F5F5F5F5F5F5F5F5F5F5F5F5F5F5F5F5F5F5F5F5F5F5F5F5F5F5F5F5F5F5F5F5F5F5F5F5F5F5F5F5F5F5F5F5F5F5F5F5F5F5F5
310
F5F5E2F5E2E2F5E2F5F5F5F5F5F5F5F5F5F5F5F5F5F5F5F5F5F5F5F5F5F5F5F5F5F5F5F5F5F5F5F5F5F5F5F5F5F5F5F5F5F5F5F5F5F5F5F5F5F5F5F5F5F5F5F5F5F5F5F5F5F5F5F5F5F5F5F5F5F5F5F5F5F5F5F5F5F5F5F5F5F5F5F5F5F5F5F5F5F5F5F5F5F5F5F5F5F5F5F5F5F5F5F5F5F5F5F5F5F5F5F5F5F5F5F5F5F5F5
310
F5F5F5F5F5F5F5F5F5F5F5F5F5F5F5F5F5F5F5F5F5F5F5F5F5F5F5F5F5F5F5F5F5F5F5F5F5F5F5F5F5F5F5F5F5F5F5F5F5F5F5F5F5F5F5E2F5E2E2F5E2F5F5F5F5F5F5F5F5F5F5F5F5F5F5F5F5F5F5F5F5F5F5F5F5F5F5F5F5F5F5F5F5F5F5F5F5F5F5F5F5F5F5F5F5F5F5F5F5F5F5F5F5F5F5F5F5F5F5F5F5F5F5F5F5F5F5
310
F5F5F5F5F5F5F5F5F5F5F5F5F5F5F5F5F5F5F5F5F5F5F5F5F5F5F5F5F5F5F5F5F5F5F5F5F5F5F5F5F5F5F5F5F5F5F5F5F5F5F5F5F5F5F5F5F5F5F5F5F5F5F5F5F5F5F5F5F5F5F5F5F5F5F5F5F5F5F5F5F5F5F5F5F5F5F5F5F5F5F5F5F5F5F5F5F5F5F5F5F5F5F5F5F5F5F5F5E2F5E2E2F5E2F5F5F5F5F5F5F5F5F5F5F5F5F5
310
F5F5F5F5F5F5F5F5F5F5F5F5F5F5F5F5F5F5F5F5F5F5F5F5F5F5F5F5F5F5F5F5F5F5F5F5F5F5F5F5F5F5F5F5F5F5F5F5F5F5F5F5F5F5F5F5F5F5F5F5F5F5F5F5F5F5F5F5F5F5F5F5F5F5F5F5F5F5F5F5F5F5F5F5F5F5F5F5F5F5F5F5F5F5F5F5F5F5F5F5F5F5F5F5F5F5F5F5F5F5F5F5F5F5F5F5F5F5F5F5F5F5F5F5F5F5F5
310
F5F5F5F5F5F5F5F5F5F5F5F5F5F5F5F5F5F5F5F5F5F5F5F5F5F5F5F5F5F5F5F5F5F5E2F5E2E2F5E2F5F5F5F5F5F5F5F5F5F5F5F5F5F5F5F5F5F5F5F5F5F5F5F5F5F5F5F5F5F5F5F5F5F5F5F5F5F5F5F5F5F5F5F5F5F5F5F5F5F5F5F5F5F5F5F5F5F5F5F5F5F5F5F5F5F5F5F5F5F5F5F5F5F5F5F5F5F5F5F5F5F5F5F5F5F5F5
310
F5F5F5F5F5F5F5F5F5F5F5F5F5F5F5F5F5F5F5F5F5F5F5F5F5F5F5F5F5F5F5F5F5F5F5F5F5F5F5F5F5F5F5F5F5F5F5F5F5F5F5F5F5F5F5F5F5F5F5F5F5F5F5F5F5F5F5F5F5F5F5F5F5F5F5F5F5F5F5F5F5F5F5F5F5F5F5E2F5E2E2F5E2F5F5F5F5F5F5F5F5F5F5F5F5F5F5F5F5F5F5F5F5F5F5F5F5F5F5F5F5F5F5F5F5F5F5
310
F5F5F5F5F5F5F5F5F5F5F5F5F5F5F5F5F5F5F5F5F5F5F5F5F5F5F5F5F5F5F5F5F5F5F5F5F5F5F5F5F5F5F5F5F5F5F5F5F5F5F5F5F5F5F5F5F5F5F5F5F5F5F5F5F5F5F5F5F5F5F5F5F5F5F5F5F5F5F5F5F5F5F5F5F5F5F5F5F5F5F5F5F5F5F5F5F5F5F5F5F5F5F5F5F5F5F5F5F5F5F5F5F5F5F5F5F5F5F5F5F5F5F5F5F5F5F5
310
F5F5F5F5F5F5F5F5F5F5F5F5F5E2F5E2E2F5E2E2E2E2E2E2E2E2E2F5F5F5F5F5F5F5F5F5E2E2E2E2E2E2E2E2E2E2E2E2E2E2E2E2F5F5F5F5F5F5F5F5F5E2E2E2E2E2E2E2E2E2E2E2E2E2E2E2E2F5F5F5F5F5F5F5F5F5E2E2E2E2E2E2E2E2E2E2E2E2E2E2E2E2F5F5F5F5F5F5F5F5F5E2E2E2E2E2E2E2E2E2E2E2E2E2E2E2E2
310
F5F5F5F5F5F5F5F5F5E2E2E2E2E2E2E2E2E2E2E2E2E2E2E2E2F5F5F5F5F5F5F5F5F5E2E2E2E2E2E2E2E2E2E2E2E2E2E2E2E2F5F5F5F5F5F5F5F5F5E2E2E2E2E2E2E2E2F5E2E2F5F5F5F5F5F5F5F5F5F5F5F5F5F5F5F5F5F5F5F5F5F5F5F5F5F5F5F5F5F5F5F5F5F5F5F5F5F5F5F5F5F5F5F5F5F5F5F5F5F5F5F5F5F5F5F5F5
310
F5F5F5F5F5F5F5F5F5F5F5F5F5F5F5F5F5F5F5F5F5F5F5F5F5F5F5F5F5F5F5F5F5F5F5F5F5F5F5F5F5F5F5F5F5F5F5F5F5F5F5F5F5F5F5F5F5F5F5F5F5F5F5F5F5F5F5F5F5F5F5F5F5F5F5F5F5F5F5F5F5F5F5F5F5F5F5F5F5F5F5F5F5F5F5F5F5F5F5F5F5F5F5F5F5F5F5F5F5F5F5F5F5F5F5F5F5F5F5F5F5E2E2E2E2E2E2
310
E2E2E2E2E2E2E2E2E2E2E2E2E2E2E2E2E2E2E2E2E2E2E2E2E2E2E2E2E2E2E2E2E2E2E2E2E2E2E2E2E2E2E2E2E2E2E2E2E2E2E2E2E2E2E2E2E2E2E2E2E2E2E2E2E2E2E2E2E2E2E2E2E2E2E2E2E2E2E2E2E2E2E2E2E2E2E2E2E2E2E2E2E2E2E2E2E2E2E2E2E2E2E2E2E2E2E2E2E2E2E2E2E2E2E2E2E2E2E2E2E2E2E2E2E2E2E2
310
E2E2E2E2E2E2E2E2E2E2E2E2E2E2E2E2E2E2E2E2E2E2E2E2E2E2E2E2E2E2E2E2E2E2E2E2E2E2E2E2E2E2E2E2E2E2E2E2
  0
XRECORD
  5
C8
102
{ACAD_REACTORS
330
C7
102
}
330
C7
100
AcDbXrecord
280
     1
102
MATERIAL
148
0.0
149
0.0
149
0.0
 93
        0
 94
       63
282
     0
 72
     1
 77
     1
171
     1
175
     1
179
     1
273
     0
  0
XRECORD
  5
C6
102
{ACAD_REACTORS
330
C5
102
}
330
C5
100
AcDbXrecord
280
     1
102
MATERIAL
148
0.0
149
0.0
149
0.0
 93
        0
 94
       63
282
     0
 72
     1
 77
     1
171
     1
175
     1
179
     1
273
     0
  0
XRECORD
  5
B2
102
{ACAD_REACTORS
330
B1
102
}
330
B1
100
AcDbXrecord
280
     1
102
MATERIAL
148
0.0
149
0.0
149
0.0
 93
        0
 94
       63
282
     0
 72
     1
 77
     1
171
     1
175
     1
179
     1
273
     0
  0
XRECORD
  5
156
102
{ACAD_REACTORS
330
155
102
}
330
155
100
AcDbXrecord
280
     1
102
ACAD_ROUNDTRIP_PRE2007_TABLESTYLE
 90
        4
 91
        0
  1

 92
        4
 93
        0
  2

 94
        4
 95
        0
  3

  0
ENDSEC
  0
EOF
