  0
SECTION
  2
HEADER
  9
$ACADVER
  1
AC1015
  9
$ACADMAINTVER
 70
    20
  9
$DWGCODEPAGE
  3
ANSI_1252
  9
$INSBASE
 10
0.0
 20
0.0
 30
0.0
  9
$EXTMIN
 10
0.0149999999999999
 20
0.015
 30
0.0
  9
$EXTMAX
 10
0.4050000000000001
 20
0.282
 30
0.0
  9
$LIMMIN
 10
0.0
 20
0.0
  9
$LIMMAX
 10
1.0
 20
0.5
  9
$ORTHOMODE
 70
     0
  9
$REGENMODE
 70
     1
  9
$FILLMODE
 70
     1
  9
$QTEXTMODE
 70
     0
  9
$MIRRTEXT
 70
     0
  9
$LTSCALE
 40
1.0
  9
$ATTMODE
 70
     1
  9
$TEXTSIZE
 40
0.008
  9
$TRACEWID
 40
1.0
  9
$TEXTSTYLE
  7
style1
  9
$CLAYER
  8
Text
  9
$CELTYPE
  6
ACAD_ISO10W100
  9
$CECOLOR
 62
   256
  9
$CELTSCALE
 40
1.0
  9
$DISPSILH
 70
     0
  9
$DIMSCALE
 40
0.001
  9
$DIMASZ
 40
1.5
  9
$DIMEXO
 40
0.0625
  9
$DIMDLI
 40
0.38
  9
$DIMRND
 40
0.0
  9
$DIMDLE
 40
0.0
  9
$DIMEXE
 40
0.18
  9
$DIMTP
 40
0.0
  9
$DIMTM
 40
0.0
  9
$DIMTXT
 40
3.0
  9
$DIMCEN
 40
0.0
  9
$DIMTSZ
 40
0.0
  9
$DIMTOL
 70
     0
  9
$DIMLIM
 70
     0
  9
$DIMTIH
 70
     1
  9
$DIMTOH
 70
     1
  9
$DIMSE1
 70
     0
  9
$DIMSE2
 70
     0
  9
$DIMTAD
 70
     0
  9
$DIMZIN
 70
     0
  9
$DIMBLK
  1
ArchTick
  9
$DIMASO
 70
     1
  9
$DIMSHO
 70
     1
  9
$DIMPOST
  1

  9
$DIMAPOST
  1

  9
$DIMALT
 70
     0
  9
$DIMALTD
 70
     2
  9
$DIMALTF
 40
25.4
  9
$DIMLFAC
 40
1.0
  9
$DIMTOFL
 70
     0
  9
$DIMTVP
 40
0.0
  9
$DIMTIX
 70
     0
  9
$DIMSOXD
 70
     0
  9
$DIMSAH
 70
     0
  9
$DIMBLK1
  1

  9
$DIMBLK2
  1

  9
$DIMSTYLE
  2
Bovelacci
  9
$DIMCLRD
 70
     5
  9
$DIMCLRE
 70
     5
  9
$DIMCLRT
 70
     4
  9
$DIMTFAC
 40
1.0
  9
$DIMGAP
 40
2.0
  9
$DIMJUST
 70
     0
  9
$DIMSD1
 70
     0
  9
$DIMSD2
 70
     0
  9
$DIMTOLJ
 70
     1
  9
$DIMTZIN
 70
     0
  9
$DIMALTZ
 70
     0
  9
$DIMALTTZ
 70
     0
  9
$DIMUPT
 70
     0
  9
$DIMDEC
 70
     2
  9
$DIMTDEC
 70
     2
  9
$DIMALTU
 70
     2
  9
$DIMALTTD
 70
     2
  9
$DIMTXSTY
  7
ROMANS
  9
$DIMAUNIT
 70
     0
  9
$DIMADEC
 70
     0
  9
$DIMALTRND
 40
0.0
  9
$DIMAZIN
 70
     0
  9
$DIMDSEP
 70
    46
  9
$DIMATFIT
 70
     3
  9
$DIMFRAC
 70
     0
  9
$DIMLDRBLK
  1

  9
$DIMLUNIT
 70
     2
  9
$DIMLWD
 70
    -2
  9
$DIMLWE
 70
    -2
  9
$DIMTMOVE
 70
     2
  9
$LUNITS
 70
     2
  9
$LUPREC
 70
     2
  9
$SKETCHINC
 40
1.0
  9
$FILLETRAD
 40
0.0
  9
$AUNITS
 70
     0
  9
$AUPREC
 70
     0
  9
$MENU
  1
.
  9
$ELEVATION
 40
0.0
  9
$PELEVATION
 40
0.0
  9
$THICKNESS
 40
0.0
  9
$LIMCHECK
 70
     0
  9
$CHAMFERA
 40
0.0
  9
$CHAMFERB
 40
0.0
  9
$CHAMFERC
 40
0.0
  9
$CHAMFERD
 40
0.0
  9
$SKPOLY
 70
     0
  9
$TDCREATE
 40
2454297.625402373
  9
$TDUCREATE
 40
2454297.542069039
  9
$TDUPDATE
 40
2454311.541056135
  9
$TDUUPDATE
 40
2454311.457722801
  9
$TDINDWG
 40
0.1251441435
  9
$TDUSRTIMER
 40
0.1251421412
  9
$USRTIMER
 70
     1
  9
$ANGBASE
 50
0.0
  9
$ANGDIR
 70
     0
  9
$PDMODE
 70
     0
  9
$PDSIZE
 40
0.0
  9
$PLINEWID
 40
0.0
  9
$SPLFRAME
 70
     0
  9
$SPLINETYPE
 70
     6
  9
$SPLINESEGS
 70
     8
  9
$HANDSEED
  5
B4A
  9
$SURFTAB1
 70
     6
  9
$SURFTAB2
 70
     6
  9
$SURFTYPE
 70
     6
  9
$SURFU
 70
     6
  9
$SURFV
 70
     6
  9
$UCSBASE
  2

  9
$UCSNAME
  2

  9
$UCSORG
 10
0.0
 20
0.0
 30
0.0
  9
$UCSXDIR
 10
1.0
 20
0.0
 30
0.0
  9
$UCSYDIR
 10
0.0
 20
1.0
 30
0.0
  9
$UCSORTHOREF
  2

  9
$UCSORTHOVIEW
 70
     0
  9
$UCSORGTOP
 10
0.0
 20
0.0
 30
0.0
  9
$UCSORGBOTTOM
 10
0.0
 20
0.0
 30
0.0
  9
$UCSORGLEFT
 10
0.0
 20
0.0
 30
0.0
  9
$UCSORGRIGHT
 10
0.0
 20
0.0
 30
0.0
  9
$UCSORGFRONT
 10
0.0
 20
0.0
 30
0.0
  9
$UCSORGBACK
 10
0.0
 20
0.0
 30
0.0
  9
$PUCSBASE
  2

  9
$PUCSNAME
  2

  9
$PUCSORG
 10
0.0
 20
0.0
 30
0.0
  9
$PUCSXDIR
 10
1.0
 20
0.0
 30
0.0
  9
$PUCSYDIR
 10
0.0
 20
1.0
 30
0.0
  9
$PUCSORTHOREF
  2

  9
$PUCSORTHOVIEW
 70
     0
  9
$PUCSORGTOP
 10
0.0
 20
0.0
 30
0.0
  9
$PUCSORGBOTTOM
 10
0.0
 20
0.0
 30
0.0
  9
$PUCSORGLEFT
 10
0.0
 20
0.0
 30
0.0
  9
$PUCSORGRIGHT
 10
0.0
 20
0.0
 30
0.0
  9
$PUCSORGFRONT
 10
0.0
 20
0.0
 30
0.0
  9
$PUCSORGBACK
 10
0.0
 20
0.0
 30
0.0
  9
$USERI1
 70
     0
  9
$USERI2
 70
     0
  9
$USERI3
 70
     0
  9
$USERI4
 70
     0
  9
$USERI5
 70
     0
  9
$USERR1
 40
0.0
  9
$USERR2
 40
0.0
  9
$USERR3
 40
0.0
  9
$USERR4
 40
0.0
  9
$USERR5
 40
0.0
  9
$WORLDVIEW
 70
     1
  9
$SHADEDGE
 70
     3
  9
$SHADEDIF
 70
    70
  9
$TILEMODE
 70
     1
  9
$MAXACTVP
 70
    64
  9
$PINSBASE
 10
0.0
 20
0.0
 30
0.0
  9
$PLIMCHECK
 70
     0
  9
$PEXTMIN
 10
1.000000000000000E+20
 20
1.000000000000000E+20
 30
1.000000000000000E+20
  9
$PEXTMAX
 10
-1.000000000000000E+20
 20
-1.000000000000000E+20
 30
-1.000000000000000E+20
  9
$PLIMMIN
 10
0.0
 20
0.0
  9
$PLIMMAX
 10
420.0
 20
297.0
  9
$UNITMODE
 70
     0
  9
$VISRETAIN
 70
     1
  9
$PLINEGEN
 70
     0
  9
$PSLTSCALE
 70
     1
  9
$TREEDEPTH
 70
  3020
  9
$CMLSTYLE
  2
Standard
  9
$CMLJUST
 70
     0
  9
$CMLSCALE
 40
20.0
  9
$PROXYGRAPHICS
 70
     1
  9
$MEASUREMENT
 70
     1
  9
$CELWEIGHT
370
    -1
  9
$ENDCAPS
280
     0
  9
$JOINSTYLE
280
     0
  9
$LWDISPLAY
290
     0
  9
$INSUNITS
 70
     4
  9
$HYPERLINKBASE
  1

  9
$STYLESHEET
  1

  9
$XEDIT
290
     1
  9
$CEPSNTYPE
380
     0
  9
$PSTYLEMODE
290
     1
  9
$FINGERPRINTGUID
  2
{904A8C64-524F-4709-A9C6-320D2C273A6D}
  9
$VERSIONGUID
  2
{2BDAD067-3037-4321-94A2-A786336885F3}
  9
$EXTNAMES
290
     1
  9
$PSVPSCALE
 40
0.0
  9
$OLESTARTUP
290
     0
  0
ENDSEC
  0
SECTION
  2
CLASSES
  0
CLASS
  1
ACDBDICTIONARYWDFLT
  2
AcDbDictionaryWithDefault
  3
ObjectDBX Classes
 90
        0
280
     0
281
     0
  0
CLASS
  1
TABLESTYLE
  2
AcDbTableStyle
  3
ObjectDBX Classes
 90
     2047
280
     0
281
     0
  0
CLASS
  1
SORTENTSTABLE
  2
AcDbSortentsTable
  3
ObjectDBX Classes
 90
        0
280
     0
281
     0
  0
CLASS
  1
DICTIONARYVAR
  2
AcDbDictionaryVar
  3
ObjectDBX Classes
 90
        0
280
     0
281
     0
  0
CLASS
  1
ACDBPLACEHOLDER
  2
AcDbPlaceHolder
  3
ObjectDBX Classes
 90
        0
280
     0
281
     0
  0
CLASS
  1
LAYOUT
  2
AcDbLayout
  3
ObjectDBX Classes
 90
        0
280
     0
281
     0
  0
CLASS
  1
DIMASSOC
  2
AcDbDimAssoc
  3
"AcDbDimAssoc|Product Desc:     AcDim ARX App For Dimension|Company:          Autodesk, Inc.|WEB Address:      www.autodesk.com"
 90
        0
280
     0
281
     0
  0
CLASS
  1
MATERIAL
  2
AcDbMaterial
  3
ObjectDBX Classes
 90
        0
280
     0
281
     0
  0
CLASS
  1
VISUALSTYLE
  2
AcDbVisualStyle
  3
ObjectDBX Classes
 90
     4095
280
     0
281
     0
  0
ENDSEC
  0
SECTION
  2
TABLES
  0
TABLE
  2
VPORT
  5
177
330
0
100
AcDbSymbolTable
 70
     3
  0
VPORT
  5
B3F
330
177
100
AcDbSymbolTableRecord
100
AcDbViewportTableRecord
  2
*Active
 70
     0
 10
0.0
 20
0.0
 11
1.0
 21
1.0
 12
0.2041423618705487
 22
0.1475977798397513
 13
0.0
 23
0.0
 14
10.0
 24
10.0
 15
10.0
 25
10.0
 16
0.0
 26
0.0
 36
1.0
 17
0.0
 27
0.0
 37
0.0
 40
0.2836722758153221
 41
1.546526867627784
 42
50.0
 43
0.0
 44
0.0
 50
0.0
 51
0.0
 71
     0
 72
  1000
 73
     1
 74
     3
 75
     0
 76
     0
 77
     0
 78
     0
281
     0
 65
     1
110
0.0
120
0.0
130
0.0
111
1.0
121
0.0
131
0.0
112
0.0
122
1.0
132
0.0
 79
     0
146
0.0
  0
ENDTAB
  0
TABLE
  2
LTYPE
  5
172
330
0
100
AcDbSymbolTable
 70
     2
  0
LTYPE
  5
173
330
172
100
AcDbSymbolTableRecord
100
AcDbLinetypeTableRecord
  2
ByBlock
 70
     0
  3

 72
    65
 73
     0
 40
0.0
  0
LTYPE
  5
174
330
172
100
AcDbSymbolTableRecord
100
AcDbLinetypeTableRecord
  2
ByLayer
 70
     0
  3

 72
    65
 73
     0
 40
0.0
  0
LTYPE
  5
C
330
172
100
AcDbSymbolTableRecord
100
AcDbLinetypeTableRecord
  2
Continuous
 70
     0
  3
Solid line
 72
    65
 73
     0
 40
0.0
  0
LTYPE
  5
14E
330
172
100
AcDbSymbolTableRecord
100
AcDbLinetypeTableRecord
  2
ACAD_ISO10W100
 70
     0
  3
ISO dash dot __ . __ . __ . __ . __ . __ . __ .
 72
    65
 73
     4
 40
18.0
 49
12.0
 74
     0
 49
-3.0
 74
     0
 49
0.0
 74
     0
 49
-3.0
 74
     0
  0
ENDTAB
  0
TABLE
  2
LAYER
  5
16D
102
{ACAD_XDICTIONARY
360
16E
102
}
330
0
100
AcDbSymbolTable
 70
     7
  0
LAYER
  5
6
330
16D
100
AcDbSymbolTableRecord
100
AcDbLayerTableRecord
  2
0
 70
     0
 62
     7
  6
Continuous
370
    -3
390
7
  0
LAYER
  5
15F
330
16D
100
AcDbSymbolTableRecord
100
AcDbLayerTableRecord
  2
Defpoints
 70
     0
 62
     7
  6
Continuous
290
     0
370
    -3
390
7
  0
LAYER
  5
28
330
16D
100
AcDbSymbolTableRecord
100
AcDbLayerTableRecord
  2
Profilo
 70
     0
 62
     1
  6
Continuous
370
    -3
390
7
1001
AcAecLayerStandard
1000

1000

  0
LAYER
  5
14D
330
16D
100
AcDbSymbolTableRecord
100
AcDbLayerTableRecord
  2
Sezione
 70
     0
 62
     2
  6
Continuous
370
    -3
390
7
1001
AcAecLayerStandard
1000

1000

  0
LAYER
  5
E
330
16D
100
AcDbSymbolTableRecord
100
AcDbLayerTableRecord
  2
Table
 70
     0
 62
     3
  6
Continuous
370
    -3
390
7
1001
AcAecLayerStandard
1000

1000

  0
LAYER
  5
19
330
16D
100
AcDbSymbolTableRecord
100
AcDbLayerTableRecord
  2
Text
 70
     0
 62
     4
  6
Continuous
370
    -3
390
7
1001
AcAecLayerStandard
1000

1000

  0
LAYER
  5
23D
330
16D
100
AcDbSymbolTableRecord
100
AcDbLayerTableRecord
  2
Bovelacci
 70
     0
 62
     9
  6
Continuous
370
    -3
390
7
1001
AcAecLayerStandard
1000

1000

  0
ENDTAB
  0
TABLE
  2
STYLE
  5
170
330
0
100
AcDbSymbolTable
 70
     3
  0
STYLE
  5
1A
330
170
100
AcDbSymbolTableRecord
100
AcDbTextStyleTableRecord
  2
Standard
 70
     0
 40
0.0
 41
1.0
 50
0.0
 71
     0
 42
2.5
  3
txt
  4

  0
STYLE
  5
20
330
170
100
AcDbSymbolTableRecord
100
AcDbTextStyleTableRecord
  2
ROMANS
 70
     0
 40
0.0
 41
1.0
 50
0.0
 71
     0
 42
2.5
  3
romans
  4

  0
STYLE
  5
26
330
170
100
AcDbSymbolTableRecord
100
AcDbTextStyleTableRecord
  2
style1
 70
     0
 40
0.0
 41
1.0
 50
0.0
 71
     0
 42
0.008
  3
TIMES.TTF
  4

1001
ACAD
1000
Times New Roman
1071
       18
  0
ENDTAB
  0
TABLE
  2
VIEW
  5
175
330
0
100
AcDbSymbolTable
 70
     1
  0
ENDTAB
  0
TABLE
  2
UCS
  5
176
330
0
100
AcDbSymbolTable
 70
     0
  0
ENDTAB
  0
TABLE
  2
APPID
  5
17B
330
0
100
AcDbSymbolTable
 70
    10
  0
APPID
  5
1B
330
17B
100
AcDbSymbolTableRecord
100
AcDbRegAppTableRecord
  2
ACAD
 70
     0
  0
APPID
  5
157
330
17B
100
AcDbSymbolTableRecord
100
AcDbRegAppTableRecord
  2
ACAD_DSTYLE_DIMJOGGED_JOGANGLE_SYMBOL
 70
     0
  0
APPID
  5
F
330
17B
100
AcDbSymbolTableRecord
100
AcDbRegAppTableRecord
  2
AcAecLayerStandard
 70
     0
  0
APPID
  5
19C
330
17B
100
AcDbSymbolTableRecord
100
AcDbRegAppTableRecord
  2
ACAD_DSTYLE_DIMFLIPARROW_WHICH_SYMBOL
 70
     0
  0
APPID
  5
1A7
330
17B
100
AcDbSymbolTableRecord
100
AcDbRegAppTableRecord
  2
ACAD_DSTYLE_DIMEXT_LENGTH
 70
     0
  0
APPID
  5
1D2
330
17B
100
AcDbSymbolTableRecord
100
AcDbRegAppTableRecord
  2
ACAD_EXEMPT_FROM_CAD_STANDARDS
 70
     0
  0
APPID
  5
1D3
330
17B
100
AcDbSymbolTableRecord
100
AcDbRegAppTableRecord
  2
ACAD_DSTYLE_DIM_LINETYPE
 70
     0
  0
APPID
  5
1D4
330
17B
100
AcDbSymbolTableRecord
100
AcDbRegAppTableRecord
  2
ACAD_DSTYLE_DIM_EXT1_LINETYPE
 70
     0
  0
APPID
  5
1D5
330
17B
100
AcDbSymbolTableRecord
100
AcDbRegAppTableRecord
  2
ACAD_DSTYLE_DIM_EXT2_LINETYPE
 70
     0
  0
APPID
  5
243
330
17B
100
AcDbSymbolTableRecord
100
AcDbRegAppTableRecord
  2
ACAD_PSEXT
 70
     0
  0
ENDTAB
  0
TABLE
  2
DIMSTYLE
  5
17C
330
0
100
AcDbSymbolTable
 70
     7
100
AcDbDimStyleTable
 71
     2
340
156
340
17D
  0
DIMSTYLE
105
17D
330
17C
100
AcDbSymbolTableRecord
100
AcDbDimStyleTableRecord
  2
ISO-25
 70
     0
 41
2.5
 42
0.625
 43
3.75
 44
1.25
 73
     0
 74
     0
 77
     1
 78
     8
140
2.5
141
2.5
143
0.03937007874016
147
0.625
171
     3
172
     1
271
     2
272
     2
274
     3
278
    44
283
     0
284
     8
340
1A
  0
DIMSTYLE
105
156
102
{ACAD_REACTORS
330
B2B
102
}
330
17C
100
AcDbSymbolTableRecord
100
AcDbDimStyleTableRecord
  2
Bovelacci
 70
     0
 40
0.001
 41
1.5
140
3.0
141
0.0
147
2.0
176
     5
177
     5
178
     4
271
     2
272
     2
279
     2
340
20
342
152
1001
ACAD_DSTYLE_DIMJOGGED_JOGANGLE_SYMBOL
1070
   384
1040
0.7853981633974483
1001
ACAD_DSTYLE_DIMEXT_LENGTH
1070
   378
1040
0.18
  0
DIMSTYLE
105
23E
330
17C
100
AcDbSymbolTableRecord
100
AcDbDimStyleTableRecord
  2
Dim 1-100
 70
     0
 40
0.1
 41
1.5
 42
0.0
 43
5.0
 44
1.25
 45
0.005
 46
1.25
 73
     0
 74
     0
 77
     1
 78
     9
140
2.0
141
2.5
147
1.0
172
     1
174
     1
179
     2
279
     2
289
     2
340
20
342
152
  0
DIMSTYLE
105
23F
330
17C
100
AcDbSymbolTableRecord
100
AcDbDimStyleTableRecord
  2
Standard
 70
     0
 42
0.0
 73
     0
 74
     0
 77
     1
271
     2
272
     2
340
20
  0
DIMSTYLE
105
240
330
17C
100
AcDbSymbolTableRecord
100
AcDbDimStyleTableRecord
  2
Dim 1-50
 70
     0
 40
0.05
 41
1.5
 42
0.0
 43
5.0
 44
1.25
 45
0.005
 46
1.25
 73
     0
 74
     0
 77
     1
 78
     9
140
2.0
141
2.5
147
1.0
172
     1
174
     1
179
     2
279
     2
289
     2
340
20
342
152
  0
DIMSTYLE
105
241
330
17C
100
AcDbSymbolTableRecord
100
AcDbDimStyleTableRecord
  2
Dim 1-200
 70
     0
 40
0.2
 41
1.5
 42
0.0
 43
5.0
 44
1.25
 45
0.005
 46
1.25
 73
     0
 74
     0
 77
     1
 78
     9
140
2.0
141
2.5
147
1.0
172
     1
174
     1
179
     2
271
     2
272
     2
279
     2
289
     2
340
20
342
152
  0
DIMSTYLE
105
242
330
17C
100
AcDbSymbolTableRecord
100
AcDbDimStyleTableRecord
  2
AEC Scale - Italiano
 70
     0
 41
1.0
 42
10.0
 43
10.0
 44
10.0
 73
     0
 74
     0
 75
     1
 76
     1
 77
     1
140
10.0
141
1.0
147
10.0
173
     1
271
     0
272
     0
279
     2
340
1A
343
238
344
232
  0
ENDTAB
  0
TABLE
  2
BLOCK_RECORD
  5
1
330
0
100
AcDbSymbolTable
 70
    15
  0
BLOCK_RECORD
  5
2
102
{ACAD_XDICTIONARY
360
3
102
}
330
1
100
AcDbSymbolTableRecord
100
AcDbBlockTableRecord
  2
*Model_Space
340
163
  0
BLOCK_RECORD
  5
165
330
1
100
AcDbSymbolTableRecord
100
AcDbBlockTableRecord
  2
*Paper_Space
340
168
  0
BLOCK_RECORD
  5
169
330
1
100
AcDbSymbolTableRecord
100
AcDbBlockTableRecord
  2
*Paper_Space0
340
16C
  0
BLOCK_RECORD
  5
152
330
1
100
AcDbSymbolTableRecord
100
AcDbBlockTableRecord
  2
_ArchTick
340
0
310
2800000020000000200000000100080000000000000400000000000000000000000000000000000000000000000080000080000000808000800000008000800080800000C0C0C000C0DCC000F0CAA6000020400000206000002080000020A0000020C0000020E00000400000004020000040400000406000004080000040A0
310
000040C0000040E00000600000006020000060400000606000006080000060A0000060C0000060E00000800000008020000080400000806000008080000080A0000080C0000080E00000A0000000A0200000A0400000A0600000A0800000A0A00000A0C00000A0E00000C0000000C0200000C0400000C0600000C0800000C0
310
A00000C0C00000C0E00000E0000000E0200000E0400000E0600000E0800000E0A00000E0C00000E0E00040000000400020004000400040006000400080004000A0004000C0004000E00040200000402020004020400040206000402080004020A0004020C0004020E000404000004040200040404000404060004040800040
310
40A0004040C0004040E00040600000406020004060400040606000406080004060A0004060C0004060E00040800000408020004080400040806000408080004080A0004080C0004080E00040A0000040A0200040A0400040A0600040A0800040A0A00040A0C00040A0E00040C0000040C0200040C0400040C0600040C08000
310
40C0A00040C0C00040C0E00040E0000040E0200040E0400040E0600040E0800040E0A00040E0C00040E0E00080000000800020008000400080006000800080008000A0008000C0008000E00080200000802020008020400080206000802080008020A0008020C0008020E00080400000804020008040400080406000804080
310
008040A0008040C0008040E00080600000806020008060400080606000806080008060A0008060C0008060E00080800000808020008080400080806000808080008080A0008080C0008080E00080A0000080A0200080A0400080A0600080A0800080A0A00080A0C00080A0E00080C0000080C0200080C0400080C0600080C0
310
800080C0A00080C0C00080C0E00080E0000080E0200080E0400080E0600080E0800080E0A00080E0C00080E0E000C0000000C0002000C0004000C0006000C0008000C000A000C000C000C000E000C0200000C0202000C0204000C0206000C0208000C020A000C020C000C020E000C0400000C0402000C0404000C0406000C0
310
408000C040A000C040C000C040E000C0600000C0602000C0604000C0606000C0608000C060A000C060C000C060E000C0800000C0802000C0804000C0806000C0808000C080A000C080C000C080E000C0A00000C0A02000C0A04000C0A06000C0A08000C0A0A000C0A0C000C0A0E000C0C00000C0C02000C0C04000C0C06000
310
C0C08000C0C0A000F0FBFF00A4A0A000808080000000FF0000FF000000FFFF00FF000000FF00FF00FFFF0000FFFFFF00000000FF000000000000000000000000000000000000000000000000000000000000FF00FF00000000000000000000000000000000000000000000000000000000FF000000FF000000000000000000
310
0000000000000000000000000000000000FF0000000000FF0000000000000000000000000000000000000000000000000000FF0000000000FF0000000000000000000000000000000000000000000000000000FF0000000000FF0000000000000000000000000000000000000000000000000000FF0000000000FF00000000
310
00000000000000000000000000000000000000000000FF0000000000FF0000000000000000000000000000000000000000000000000000FF0000000000FF0000000000000000000000000000000000000000000000000000FF0000000000FF0000000000000000000000000000000000000000000000000000FF0000000000
310
FF0000000000000000000000000000000000000000000000000000FF0000000000FF0000000000000000000000000000000000000000000000000000FF0000000000FF0000000000000000000000000000000000000000000000000000FF0000000000FF0000000000000000000000000000000000000000000000000000FF
310
0000000000FF0000000000000000000000000000000000000000000000000000FF0000000000FF0000000000000000000000000000000000000000000000000000FF0000000000FF0000000000000000000000000000000000000000000000000000FF0000000000FF00000000000000000000000000000000000000000000
310
00000000FF0000000000FF0000000000000000000000000000000000000000000000000000FF0000000000FF0000000000000000000000000000000000000000000000000000FF0000000000FF0000000000000000000000000000000000000000000000000000FF0000000000FF0000000000000000000000000000000000
310
000000000000000000FF0000000000FF0000000000000000000000000000000000000000000000000000FF0000000000FF0000000000000000000000000000000000000000000000000000FF0000000000FF0000000000000000000000000000000000000000000000000000FF0000000000FF000000000000000000000000
310
0000000000000000000000000000FF0000000000FF0000000000000000000000000000000000000000000000000000FF0000000000FF0000000000000000000000000000000000000000000000000000FF0000000000FF0000000000000000000000000000000000000000000000000000FF000000FF000000000000000000
310
00000000000000000000000000000000000000FF00FF000000000000000000000000000000000000000000000000000000000000FF000000
102
{BLKREFS
331
280
331
2D7
331
2D8
331
2F1
331
2F2
331
4FE
331
53F
331
5CC
331
7CE
331
8C4
331
8D8
331
B3A
102
}
  0
BLOCK_RECORD
  5
232
330
1
100
AcDbSymbolTableRecord
100
AcDbBlockTableRecord
  2
_Arrivo
340
0
310
2800000020000000200000000100080000000000000400000000000000000000000000000000000000000000000080000080000000808000800000008000800080800000C0C0C000C0DCC000F0CAA6000020400000206000002080000020A0000020C0000020E00000400000004020000040400000406000004080000040A0
310
000040C0000040E00000600000006020000060400000606000006080000060A0000060C0000060E00000800000008020000080400000806000008080000080A0000080C0000080E00000A0000000A0200000A0400000A0600000A0800000A0A00000A0C00000A0E00000C0000000C0200000C0400000C0600000C0800000C0
310
A00000C0C00000C0E00000E0000000E0200000E0400000E0600000E0800000E0A00000E0C00000E0E00040000000400020004000400040006000400080004000A0004000C0004000E00040200000402020004020400040206000402080004020A0004020C0004020E000404000004040200040404000404060004040800040
310
40A0004040C0004040E00040600000406020004060400040606000406080004060A0004060C0004060E00040800000408020004080400040806000408080004080A0004080C0004080E00040A0000040A0200040A0400040A0600040A0800040A0A00040A0C00040A0E00040C0000040C0200040C0400040C0600040C08000
310
40C0A00040C0C00040C0E00040E0000040E0200040E0400040E0600040E0800040E0A00040E0C00040E0E00080000000800020008000400080006000800080008000A0008000C0008000E00080200000802020008020400080206000802080008020A0008020C0008020E00080400000804020008040400080406000804080
310
008040A0008040C0008040E00080600000806020008060400080606000806080008060A0008060C0008060E00080800000808020008080400080806000808080008080A0008080C0008080E00080A0000080A0200080A0400080A0600080A0800080A0A00080A0C00080A0E00080C0000080C0200080C0400080C0600080C0
310
800080C0A00080C0C00080C0E00080E0000080E0200080E0400080E0600080E0800080E0A00080E0C00080E0E000C0000000C0002000C0004000C0006000C0008000C000A000C000C000C000E000C0200000C0202000C0204000C0206000C0208000C020A000C020C000C020E000C0400000C0402000C0404000C0406000C0
310
408000C040A000C040C000C040E000C0600000C0602000C0604000C0606000C0608000C060A000C060C000C060E000C0800000C0802000C0804000C0806000C0808000C080A000C080C000C080E000C0A00000C0A02000C0A04000C0A06000C0A08000C0A0A000C0A0C000C0A0E000C0C00000C0C02000C0C04000C0C06000
310
C0C08000C0C0A000F0FBFF00A4A0A000808080000000FF0000FF000000FFFF00FF000000FF00FF00FFFF0000FFFFFF00000000000000000000000000000000000000000000000000000000000000000000000000000000000000FF0000000000000000000000000000000000000000000000000000000000000000FF000000
310
00000000000000000000000000000000000000000000000000000000FF0000000000000000000000000000000000000000000000000000000000000000FF00000000000000000000000000000000000000000000000000000000000000FF0000000000000000000000000000000000000000000000000000000000000000FF
310
0000000000000000000000000000000000000000000000000000000000000000FF00000000000000000000000000000000000000000000000000000000000000FF0000000000000000000000000000000000000000000000000000000000000000FF0000000000000000000000000000000000000000000000000000000000
310
0000FF0000000000000000000000000000000000000000000000000000000000000000FF00000000000000000000000000000000000000000000000000000000000000FF0000000000000000000000000000000000000000000000000000000000000000FF0000FF0000000000000000000000000000000000000000000000
310
000000000000FFFF000000000000000000000000000000000000000000000000000000000000FFFF00000000000000000000000000000000000000000000000000000000FFFFFFFFFFFF00000000000000000000000000000000000000000000000000000000FFFF0000000000000000000000000000000000000000000000
310
000000000000FF0000FF000000000000000000000000000000000000000000000000000000FF00000000000000000000000000000000000000000000000000000000000000FF000000000000000000000000000000000000000000000000000000000000FF0000000000000000000000000000000000000000000000000000
310
0000000000FF000000000000000000000000000000000000000000000000000000000000FF00000000000000000000000000000000000000000000000000000000000000FF000000000000000000000000000000000000000000000000000000000000FF000000000000000000000000000000000000000000000000000000
310
000000FF00000000000000000000000000000000000000000000000000000000000000FF000000000000000000000000000000000000000000000000000000000000FF00000000000000000000000000000000000000000000000000000000000000FF00000000000000000000000000000000000000000000000000000000
310
0000FF0000000000000000000000000000000000000000000000000000000000000000000000000000000000000000000000000000000000
  0
BLOCK_RECORD
  5
238
330
1
100
AcDbSymbolTableRecord
100
AcDbBlockTableRecord
  2
_Partenza
340
0
310
2800000020000000200000000100080000000000000400000000000000000000000000000000000000000000000080000080000000808000800000008000800080800000C0C0C000C0DCC000F0CAA6000020400000206000002080000020A0000020C0000020E00000400000004020000040400000406000004080000040A0
310
000040C0000040E00000600000006020000060400000606000006080000060A0000060C0000060E00000800000008020000080400000806000008080000080A0000080C0000080E00000A0000000A0200000A0400000A0600000A0800000A0A00000A0C00000A0E00000C0000000C0200000C0400000C0600000C0800000C0
310
A00000C0C00000C0E00000E0000000E0200000E0400000E0600000E0800000E0A00000E0C00000E0E00040000000400020004000400040006000400080004000A0004000C0004000E00040200000402020004020400040206000402080004020A0004020C0004020E000404000004040200040404000404060004040800040
310
40A0004040C0004040E00040600000406020004060400040606000406080004060A0004060C0004060E00040800000408020004080400040806000408080004080A0004080C0004080E00040A0000040A0200040A0400040A0600040A0800040A0A00040A0C00040A0E00040C0000040C0200040C0400040C0600040C08000
310
40C0A00040C0C00040C0E00040E0000040E0200040E0400040E0600040E0800040E0A00040E0C00040E0E00080000000800020008000400080006000800080008000A0008000C0008000E00080200000802020008020400080206000802080008020A0008020C0008020E00080400000804020008040400080406000804080
310
008040A0008040C0008040E00080600000806020008060400080606000806080008060A0008060C0008060E00080800000808020008080400080806000808080008080A0008080C0008080E00080A0000080A0200080A0400080A0600080A0800080A0A00080A0C00080A0E00080C0000080C0200080C0400080C0600080C0
310
800080C0A00080C0C00080C0E00080E0000080E0200080E0400080E0600080E0800080E0A00080E0C00080E0E000C0000000C0002000C0004000C0006000C0008000C000A000C000C000C000E000C0200000C0202000C0204000C0206000C0208000C020A000C020C000C020E000C0400000C0402000C0404000C0406000C0
310
408000C040A000C040C000C040E000C0600000C0602000C0604000C0606000C0608000C060A000C060C000C060E000C0800000C0802000C0804000C0806000C0808000C080A000C080C000C080E000C0A00000C0A02000C0A04000C0A06000C0A08000C0A0A000C0A0C000C0A0E000C0C00000C0C02000C0C04000C0C06000
310
C0C08000C0C0A000F0FBFF00A4A0A000808080000000FF0000FF000000FFFF00FF000000FF00FF00FFFF0000FFFFFF0000000000000000000000000000000000000000000000000000000000000000000000000000000000000000000000000000000000000000000000000000000000000000000000000000000000000000
310
000000000000000000000000000000000000000000000000000000000000000000000000000000000000000000000000000000000000000000000000000000000000000000000000000000000000000000000000000000000000000000000000000000000000000000000000000000000000FFFFFFFFFFFFFFFFFFFFFFFFFF
310
FFFFFFFFFFFFFFFFFFFFFFFFFFFFFFFFFF0000000000000000000000000000000000000000000000000000000000000000000000000000000000000000000000000000000000000000000000000000000000000000000000000000000000000000000000000000000000000000000000000000000000000000000000000000
310
00000000000000000000000000000000000000000000000000000000000000000000000000000000000000000000000000000000000000000000000000000000000000000000000000000000000000000000000000000000000000000000000000000000000000000000000000000000000000000000000000000000000000
310
00000000000000000000000000000000000000000000000000000000000000000000000000000000000000000000000000000000000000000000000000000000000000000000000000000000000000000000000000000000000000000000000000000000000000000000000000000000000000000000000000000000000000
310
00000000000000000000000000000000000000000000000000000000000000000000000000000000000000000000000000000000000000000000000000000000000000000000000000000000000000000000000000000000000000000000000000000000000000000000000000000000000000000000000000000000000000
310
000000000000000000000000000000000000000000000000000000000000000000000000000000000000000000000000000000000000000000000000000000000000000000000000000000000000000000000000000000FFFFFFFFFFFFFFFFFFFFFFFFFFFFFFFFFFFFFFFFFFFFFFFFFFFFFFFFFFFF00000000000000000000
310
00000000000000000000000000000000000000000000000000000000000000000000000000000000000000000000000000000000000000000000000000000000000000000000000000000000000000000000000000000000000000000000000000000000000000000000000000000000000000000000000000000000000000
310
0000000000000000000000000000000000000000000000000000000000000000000000000000000000000000000000000000000000000000
  0
BLOCK_RECORD
  5
8AA
330
1
100
AcDbSymbolTableRecord
100
AcDbBlockTableRecord
  2
*D11
340
0
  0
BLOCK_RECORD
  5
8D3
330
1
100
AcDbSymbolTableRecord
100
AcDbBlockTableRecord
  2
*D12
340
0
  0
BLOCK_RECORD
  5
B2E
330
1
100
AcDbSymbolTableRecord
100
AcDbBlockTableRecord
  2
*D14
340
0
  0
ENDTAB
  0
ENDSEC
  0
SECTION
  2
BLOCKS
  0
BLOCK
  5
5
330
2
100
AcDbEntity
  8
0
100
AcDbBlockBegin
  2
*Model_Space
 70
     0
 10
0.0
 20
0.0
 30
0.0
  3
*Model_Space
  1

  0
ENDBLK
  5
162
330
2
100
AcDbEntity
  8
0
100
AcDbBlockEnd
  0
BLOCK
  5
166
330
165
100
AcDbEntity
 67
     1
  8
0
100
AcDbBlockBegin
  2
*Paper_Space
 70
     0
 10
0.0
 20
0.0
 30
0.0
  3
*Paper_Space
  1

  0
ENDBLK
  5
167
330
165
100
AcDbEntity
 67
     1
  8
0
100
AcDbBlockEnd
  0
BLOCK
  5
16A
330
169
100
AcDbEntity
 67
     1
  8
0
100
AcDbBlockBegin
  2
*Paper_Space0
 70
     0
 10
0.0
 20
0.0
 30
0.0
  3
*Paper_Space0
  1

  0
ENDBLK
  5
16B
330
169
100
AcDbEntity
 67
     1
  8
0
100
AcDbBlockEnd
  0
BLOCK
  5
153
330
152
100
AcDbEntity
  8
0
 62
     1
100
AcDbBlockBegin
  2
_ArchTick
 70
     0
 10
0.0
 20
0.0
 30
0.0
  3
_ArchTick
  1

  0
LWPOLYLINE
  5
154
330
152
100
AcDbEntity
  8
0
  6
ByBlock
 62
     0
100
AcDbPolyline
 90
        2
 70
     0
 43
0.15
 10
-0.5
 20
-0.5
 10
0.5
 20
0.5
  0
ENDBLK
  5
155
330
152
100
AcDbEntity
  8
0
 62
     1
100
AcDbBlockEnd
  0
BLOCK
  5
233
330
232
100
AcDbEntity
  8
0
100
AcDbBlockBegin
  2
_Arrivo
 70
     0
 10
0.0
 20
0.0
 30
0.0
  3
_Arrivo
  1

  0
LINE
  5
234
330
232
100
AcDbEntity
  8
0
  6
ByBlock
 62
     0
370
    -2
100
AcDbLine
 10
0.025
 20
-0.0433012701891858
 30
0.0
 11
-0.15
 21
0.2598076211353328
 31
0.0
  0
LINE
  5
235
330
232
100
AcDbEntity
  8
0
  6
ByBlock
 62
     0
370
    -2
100
AcDbLine
 10
0.025
 20
0.0433012701892585
 30
0.0
 11
-0.15
 21
-0.2598076211353328
 31
0.0
  0
LINE
  5
236
330
232
100
AcDbEntity
  8
0
  6
ByBlock
 62
     0
370
    -2
100
AcDbLine
 10
-0.05
 20
0.0
 30
0.0
 11
0.05
 21
0.0
 31
0.0
  0
ENDBLK
  5
237
330
232
100
AcDbEntity
  8
0
100
AcDbBlockEnd
  0
BLOCK
  5
239
330
238
100
AcDbEntity
  8
0
100
AcDbBlockBegin
  2
_Partenza
 70
     0
 10
0.0
 20
0.0
 30
0.0
  3
_Partenza
  1

  0
LINE
  5
23A
330
238
100
AcDbEntity
  8
0
  6
ByBlock
 62
     0
370
    -2
100
AcDbLine
 10
-0.05
 20
0.05
 30
0.0
 11
0.1
 21
0.05
 31
0.0
  0
LINE
  5
23B
330
238
100
AcDbEntity
  8
0
  6
ByBlock
 62
     0
370
    -2
100
AcDbLine
 10
-0.05
 20
-0.05
 30
0.0
 11
0.1
 21
-0.05
 31
0.0
  0
ENDBLK
  5
23C
330
238
100
AcDbEntity
  8
0
100
AcDbBlockEnd
  0
BLOCK
  5
8B1
330
8AA
100
AcDbEntity
  8
0
100
AcDbBlockBegin
  2
*D11
 70
     1
 10
0.0
 20
0.0
 30
0.0
  3
*D11
  1

  0
LINE
  5
8C1
330
8AA
100
AcDbEntity
  8
Text
  6
ACAD_ISO10W100
 62
     5
370
    -2
100
AcDbLine
 10
0.2670886538023653
 20
0.1873887291946126
 30
0.0
 11
0.2655886538023653
 21
0.1873887291946126
 31
0.0
  0
LINE
  5
8C2
330
8AA
100
AcDbEntity
  8
Text
  6
ACAD_ISO10W100
 62
     5
370
    -2
100
AcDbLine
 10
0.2655886538023653
 20
0.1873887291946126
 30
0.0
 11
0.2629287825497108
 21
0.1860012548996068
 31
0.0
  0
MTEXT
  5
8C3
330
8AA
100
AcDbEntity
  8
Text
  6
ACAD_ISO10W100
 62
     4
100
AcDbMText
 10
0.2815172252309368
 20
0.1873887291946126
 30
0.0
 40
0.003
 41
0.0
 71
     5
 72
     1
  1
\A1;d 240 mm
  7
ROMANS
 73
     1
 44
1.0
1001
ACAD
1000
MTEXTBEGIN
1070
    73
1070
     1
1070
    44
1040
1.0
1070
    74
1070
     0
1000
MTEXTEND
  0
INSERT
  5
8C4
330
8AA
100
AcDbEntity
  8
Text
  6
ACAD_ISO10W100
 62
     5
370
    -2
100
AcDbBlockReference
  2
_ArchTick
 10
0.2629287825497108
 20
0.1860012548996068
 30
0.0
 41
0.0015
 42
0.0015
 43
0.0015
 50
207.5479922517093
  0
POINT
  5
8C5
330
8AA
100
AcDbEntity
  8
Defpoints
  6
ACAD_ISO10W100
 62
     0
100
AcDbPoint
 10
0.2629287825497108
 20
0.1860012548996068
 30
0.0
  0
POINT
  5
8C6
330
8AA
100
AcDbEntity
  8
Defpoints
  6
ACAD_ISO10W100
 62
     0
100
AcDbPoint
 10
0.1565339324435281
 20
0.1305022830993751
 30
0.0
  0
ENDBLK
  5
8B2
330
8AA
100
AcDbEntity
  8
0
100
AcDbBlockEnd
  0
BLOCK
  5
8D4
330
8D3
100
AcDbEntity
  8
0
100
AcDbBlockBegin
  2
*D12
 70
     1
 10
0.0
 20
0.0
 30
0.0
  3
*D12
  1

  0
LINE
  5
8D5
330
8D3
100
AcDbEntity
  8
Sezione
  6
ACAD_ISO10W100
 62
     5
370
    -2
100
AcDbLine
 10
0.2503579376781857
 20
0.1980055183402467
 30
0.0
 11
0.2488579376781857
 21
0.1980055183402467
 31
0.0
  0
LINE
  5
8D6
330
8D3
100
AcDbEntity
  8
Sezione
  6
ACAD_ISO10W100
 62
     5
370
    -2
100
AcDbLine
 10
0.2488579376781857
 20
0.1980055183402467
 30
0.0
 11
0.2466795059210188
 21
0.1959428901431722
 31
0.0
  0
MTEXT
  5
8D7
330
8D3
100
AcDbEntity
  8
Sezione
  6
ACAD_ISO10W100
 62
     4
100
AcDbMText
 10
0.2647865091067571
 20
0.1980055183402467
 30
0.0
 40
0.003
 41
0.0
 71
     5
 72
     1
  1
\A1;d 400 mm
  7
ROMANS
 73
     1
 44
1.0
1001
ACAD
1000
MTEXTBEGIN
1070
    73
1070
     1
1070
    44
1040
1.0
1070
    74
1070
     0
1000
MTEXTEND
  0
INSERT
  5
8D8
330
8D3
100
AcDbEntity
  8
Sezione
  6
ACAD_ISO10W100
 62
     5
370
    -2
100
AcDbBlockReference
  2
_ArchTick
 10
0.2466795059210188
 20
0.1959428901431722
 30
0.0
 41
0.0015
 42
0.0015
 43
0.0015
 50
223.4359082248928
  0
POINT
  5
8D9
330
8D3
100
AcDbEntity
  8
Defpoints
  6
ACAD_ISO10W100
 62
     0
100
AcDbPoint
 10
0.2466795059210188
 20
0.1959428901431722
 30
0.0
  0
POINT
  5
8DA
330
8D3
100
AcDbEntity
  8
Defpoints
  6
ACAD_ISO10W100
 62
     0
100
AcDbPoint
 10
0.1740651140154545
 20
0.127188616907357
 30
0.0
  0
ENDBLK
  5
8DB
330
8D3
100
AcDbEntity
  8
0
100
AcDbBlockEnd
  0
BLOCK
  5
B35
330
B2E
100
AcDbEntity
  8
0
100
AcDbBlockBegin
  2
*D14
 70
     1
 10
0.0
 20
0.0
 30
0.0
  3
*D14
  1

  0
LINE
  5
B37
330
B2E
100
AcDbEntity
  8
Sezione
  6
ACAD_ISO10W100
 62
     5
370
    -2
100
AcDbLine
 10
0.2490382717523074
 20
0.2002746873852521
 30
0.0
 11
0.2475382717523074
 21
0.2002746873852521
 31
0.0
  0
LINE
  5
B38
330
B2E
100
AcDbEntity
  8
Sezione
  6
ACAD_ISO10W100
 62
     5
370
    -2
100
AcDbLine
 10
0.2475382717523074
 20
0.2002746873852521
 30
0.0
 11
0.2453598399951405
 21
0.1982120591881776
 31
0.0
  0
MTEXT
  5
B39
330
B2E
100
AcDbEntity
  8
Sezione
  6
ACAD_ISO10W100
 62
     4
100
AcDbMText
 10
0.2634668431808787
 20
0.2002746873852521
 30
0.0
 40
0.003
 41
0.0
 71
     5
 72
     1
  1
\A1;d 400 mm
  7
ROMANS
 73
     1
 44
1.0
1001
ACAD
1000
MTEXTBEGIN
1070
    73
1070
     1
1070
    44
1040
1.0
1070
    74
1070
     0
1000
MTEXTEND
  0
INSERT
  5
B3A
330
B2E
100
AcDbEntity
  8
Sezione
  6
ACAD_ISO10W100
 62
     5
370
    -2
100
AcDbBlockReference
  2
_ArchTick
 10
0.2453598399951405
 20
0.1982120591881776
 30
0.0
 41
0.0015
 42
0.0015
 43
0.0015
 50
223.4359082248928
  0
POINT
  5
B3B
330
B2E
100
AcDbEntity
  8
Defpoints
  6
ACAD_ISO10W100
 62
     0
100
AcDbPoint
 10
0.2453598399951405
 20
0.1982120591881776
 30
0.0
  0
POINT
  5
B3C
330
B2E
100
AcDbEntity
  8
Defpoints
  6
ACAD_ISO10W100
 62
     0
100
AcDbPoint
 10
0.1727454480895762
 20
0.1294577859523623
 30
0.0
  0
ENDBLK
  5
B36
330
B2E
100
AcDbEntity
  8
0
100
AcDbBlockEnd
  0
ENDSEC
  0
SECTION
  2
ENTITIES
  0
LINE
  5
D
330
2
100
AcDbEntity
  8
Table
100
AcDbLine
 10
0.02
 20
0.02
 30
0.0
 11
0.4
 21
0.02
 31
0.0
  0
LINE
  5
10
330
2
100
AcDbEntity
  8
Table
100
AcDbLine
 10
0.4
 20
0.02
 30
0.0
 11
0.4
 21
0.2769999999999999
 31
0.0
  0
LINE
  5
11
330
2
100
AcDbEntity
  8
Table
100
AcDbLine
 10
0.4
 20
0.2769999999999999
 30
0.0
 11
0.02
 21
0.277
 31
0.0
  0
LINE
  5
12
330
2
100
AcDbEntity
  8
Table
100
AcDbLine
 10
0.02
 20
0.277
 30
0.0
 11
0.02
 21
0.02
 31
0.0
  0
LINE
  5
13
330
2
100
AcDbEntity
  8
Table
 62
     2
100
AcDbLine
 10
0.015
 20
0.015
 30
0.0
 11
0.4050000000000001
 21
0.015
 31
0.0
  0
LINE
  5
14
330
2
100
AcDbEntity
  8
Table
 62
     2
100
AcDbLine
 10
0.4050000000000001
 20
0.015
 30
0.0
 11
0.4050000000000001
 21
0.2819999999999998
 31
0.0
  0
LINE
  5
15
330
2
100
AcDbEntity
  8
Table
 62
     2
100
AcDbLine
 10
0.4050000000000001
 20
0.2819999999999998
 30
0.0
 11
0.0149999999999999
 21
0.282
 31
0.0
  0
LINE
  5
16
330
2
100
AcDbEntity
  8
Table
 62
     2
100
AcDbLine
 10
0.0149999999999999
 20
0.282
 30
0.0
 11
0.015
 21
0.015
 31
0.0
  0
LINE
  5
17
330
2
100
AcDbEntity
  8
Table
100
AcDbLine
 10
0.21
 20
0.2769999999999999
 30
0.0
 11
0.21
 21
0.2532994226089223
 31
0.0
  0
MTEXT
  5
18
102
{ACAD_XDICTIONARY
360
B42
102
}
330
2
100
AcDbEntity
  8
Text
100
AcDbMText
 10
0.305
 20
0.0471738284815141
 30
0.0
 40
0.005
 41
0.1900000000000001
 71
     2
 72
     5
  3
{\fTimes New Roman|b0|i0|c238|p18;\H1.6x;\C4;Bovelacci\P\H0.4375x;\T0.95;via del Commercio, 5  47100 Forli - Italy  \fTimes New Roman|b0|i0|c0|p18;\P\fTimes New Roman|b0|i0|c238|p18;tel.+39-0543721386  fax +39-0543721127\fTimes New Roman|b0|i0|c0|p18
  1
; \fTimes New Roman|b0|i0|c238|p18;www.bovelacci.it\fTimes New Roman|b0|i0|c0|p18; \fTimes New Roman|b0|i0|c238|p18;e-mail: bovelacci@bovelacci\fTimes New Roman|b0|i0|c0|p18;.it}
 73
     1
 44
1.0
1001
ACAD
1000
ACAD_MTEXT_DEFINED_HEIGHT_BEGIN
1070
    46
1040
0.0271738284815141
1000
ACAD_MTEXT_DEFINED_HEIGHT_END
1000
MTEXTBEGIN
1070
    73
1070
     1
1070
    44
1040
1.0
1070
    74
1070
     0
1000
MTEXTEND
  0
MTEXT
  5
1C
330
2
100
AcDbEntity
  8
Text
100
AcDbMText
 10
0.0219676065851835
 20
0.0500313976452307
 30
0.0
 40
0.002
 41
0.1863544980601608
 71
     1
 72
     5
  3
{\fArial|b0|i0|c0|p34;\H1.25x;Le caratteristiche tecniche indicate vengono fornite a titolo indicativo e potranno essere modificate senza preavviso. Non devono quindi essere considerate a scopo di specifica.\P\fArial|b0|i1|c0|p34;The given values are
  3
 indicative and can be changed without notice. They cannot be considered like a state.\PThis lealfet and designs embodied within are protected by copyright law and international treaties. Unauthorized repro- duction of the leaflet or any portion of i
  1
t or reproduction of any of the designs embodied therein may result in severe civil penalties and will be prosecuted to the maximum.\PAll right reserved, Bovelacci Forlì Italy.}
 73
     1
 44
1.0
1001
ACAD
1000
MTEXTBEGIN
1070
    73
1070
     1
1070
    44
1040
1.0
1070
    74
1070
     0
1000
MTEXTEND
  0
LINE
  5
1D
330
2
100
AcDbEntity
  8
Table
100
AcDbLine
 10
0.02
 20
0.0528099428524846
 30
0.0
 11
0.4
 21
0.0528099428524846
 31
0.0
  0
MTEXT
  5
1E
330
2
100
AcDbEntity
  8
Text
100
AcDbMText
 10
0.1133313047219695
 20
0.2610796890771976
 30
0.0
 40
0.003
 41
0.1103605678262056
 71
     2
 72
     5
  1
{\fTimes New Roman|b0|i0|c0|p18;Rosoni\fTimes New Roman|b0|i1|c0|p18;   Ceiling centres}
 73
     1
 44
1.0
1001
ACAD
1000
ACAD_MTEXT_DEFINED_HEIGHT_BEGIN
1070
    46
1040
0.0141952763113409
1000
ACAD_MTEXT_DEFINED_HEIGHT_END
1000
MTEXTBEGIN
1070
    73
1070
     1
1070
    44
1040
1.0
1070
    74
1070
     0
1000
MTEXTEND
  0
TEXT
  5
1F
330
2
100
AcDbEntity
  8
Text
100
AcDbText
 10
0.2180556919891047
 20
0.269976982173197
 30
0.0
 40
0.003
  1
Rosone - Ceiling centre : D 400 mm
  7
ROMANS
100
AcDbText
  0
TEXT
  5
21
330
2
100
AcDbEntity
  8
Text
100
AcDbText
 10
0.2184542410678115
 20
0.2576348370183962
 30
0.0
 40
0.003
  1
File : C - R3305
  7
ROMANS
100
AcDbText
  0
LINE
  5
22
330
2
100
AcDbEntity
  8
Table
100
AcDbLine
 10
0.4
 20
0.2654452889427402
 30
0.0
 11
0.02
 21
0.2654452889427403
 31
0.0
  0
LINE
  5
23
330
2
100
AcDbEntity
  8
Table
100
AcDbLine
 10
0.4
 20
0.2532994226089223
 30
0.0
 11
0.02
 21
0.2532994226089225
 31
0.0
  0
LINE
  5
24
330
2
100
AcDbEntity
  8
Table
100
AcDbLine
 10
0.21
 20
0.0528099428524846
 30
0.0
 11
0.21
 21
0.02
 31
0.0
  0
TEXT
  5
25
330
2
100
AcDbEntity
  8
Text
100
AcDbText
 10
0.0896473531074035
 20
0.2687784133392506
 30
0.0
 40
0.005
  1
CLASSICSTYL
  7
style1
 72
     1
 11
0.1140561490699125
 21
0.2687784133392506
 31
0.0
100
AcDbText
  0
TEXT
  5
252
330
2
100
AcDbEntity
  8
Text
  6
ACAD_ISO10W100
100
AcDbText
 10
0.2619444701437109
 20
0.0817475304515419
 30
0.0
 40
0.005
  1
scala 1 : 4
  7
style1
100
AcDbText
  0
CIRCLE
  5
A08
330
2
100
AcDbEntity
  8
Profilo
  6
Continuous
370
     0
100
AcDbCircle
 10
0.2090526440423583
 20
0.16383492257027
 30
0.0
 40
0.0067794035948282
  0
LWPOLYLINE
  5
A09
330
2
100
AcDbEntity
  8
Profilo
  6
Continuous
370
     0
100
AcDbPolyline
 90
        8
 70
   128
 43
0.0
 10
0.2056783594266194
 20
0.1582871872312741
 10
0.2060161326996774
 20
0.1592156143457939
 10
0.2060161326996774
 20
0.1600596391411817
 10
0.2056783594266194
 20
0.16086146438106
 10
0.2051716995170323
 20
0.1613678798999154
 10
0.2045805988245601
 20
0.1614944833786152
 10
0.2038206089601799
 20
0.1614522822190483
 10
0.2033561732451035
 20
0.1613256787403485
  0
LWPOLYLINE
  5
A0A
330
2
100
AcDbEntity
  8
Profilo
  6
Continuous
370
     0
100
AcDbPolyline
 90
        8
 70
   128
 43
0.0
 10
0.2112862061403038
 20
0.1577378442196031
 10
0.2107709307840877
 20
0.1585807908360883
 10
0.2101110456270701
 20
0.1591070316885275
 10
0.2092735552200033
 20
0.1593428797696519
 10
0.2085617263375137
 20
0.1592625020129419
 10
0.2080941984984483
 20
0.1588792968601074
 10
0.2076533467636374
 20
0.1582588008651622
 10
0.2074627584171051
 20
0.1578167544236835
  0
LWPOLYLINE
  5
A0B
330
2
100
AcDbEntity
  8
Profilo
  6
Continuous
370
     0
100
AcDbPolyline
 90
        8
 70
   128
 43
0.0
 10
0.2152121350378722
 20
0.1617797255637163
 10
0.2142318239053131
 20
0.1619024356869763
 10
0.2134089605737173
 20
0.1617146225012243
 10
0.2127024003908544
 20
0.161206895008084
 10
0.212321424202639
 20
0.1606002500660186
 10
0.2123295272156267
 20
0.1599957975776944
 10
0.2125397839584342
 20
0.1592642528873758
 10
0.2127665598926787
 20
0.1588396334696562
  0
LWPOLYLINE
  5
A0C
330
2
100
AcDbEntity
  8
Profilo
  6
Continuous
370
     0
100
AcDbPolyline
 90
        8
 70
   128
 43
0.0
 10
0.2144998415850998
 20
0.1673692121721442
 10
0.2137926889537192
 20
0.1666792825765335
 10
0.2134264803195882
 20
0.1659188425121516
 10
0.2133829045898259
 20
0.1650498686028352
 10
0.2136196639361096
 20
0.1643737724900904
 10
0.214097296067099
 20
0.1640032377185698
 10
0.2148003336717354
 20
0.1637115124054795
 10
0.2152737069828841
 20
0.163624067093719
  0
LWPOLYLINE
  5
A0D
330
2
100
AcDbEntity
  8
Profilo
  6
Continuous
370
     0
100
AcDbPolyline
 90
        8
 70
   128
 43
0.0
 10
0.2096856972800629
 20
0.1702973066239912
 10
0.2097842035045745
 20
0.1693142683670046
 10
0.2101504121387054
 20
0.1685538283026227
 10
0.2108026342753368
 20
0.1679779630546823
 10
0.2114788445393576
 20
0.1677415299340033
 10
0.2120663390517934
 20
0.1678839331197719
 10
0.2127327558626137
 20
0.1682517022947798
 10
0.2130962667923169
 20
0.1685672791922923
  0
LWPOLYLINE
  5
A0E
330
2
100
AcDbEntity
  8
Profilo
  6
Continuous
370
     0
100
AcDbPolyline
 90
        8
 70
   128
 43
0.0
 10
0.2043948509751021
 20
0.1683590940747757
 10
0.2052248388592877
 20
0.167823195014249
 10
0.2060477021908844
 20
0.1676353818284979
 10
0.2069045856221199
 20
0.1677862635191434
 10
0.2075110466828938
 20
0.1681675323527574
 10
0.2077660082262089
 20
0.1687156409924362
 10
0.20789397879224
 20
0.1694659669656366
 10
0.2078738961961579
 20
0.1699469302320007
  0
LWPOLYLINE
  5
A0F
330
2
100
AcDbEntity
  8
Profilo
  6
Continuous
370
     0
100
AcDbPolyline
 90
        8
 70
   128
 43
0.0
 10
0.2026114178514491
 20
0.1630140881063871
 10
0.2035478895898497
 20
0.163328871165247
 10
0.2042077747468673
 20
0.1638551120176861
 10
0.2046240687717495
 20
0.1646191236564367
 10
0.2047041030809624
 20
0.1653309912361656
 10
0.2044345404127719
 20
0.1658720683446977
 10
0.2039277002876694
 20
0.1664399403544103
 10
0.2035391467702632
 20
0.1667241148401906
  0
LWPOLYLINE
  5
A10
330
2
100
AcDbEntity
  8
Profilo
  6
Continuous
370
     0
100
AcDbPolyline
 90
       10
 70
   128
 43
0.0
 10
0.1973500997659534
 20
0.1811409718335431
 10
0.2015350057558831
 20
0.1745293001718084
 10
0.2037624575175649
 20
0.171628260385082
 10
0.2050449280537365
 20
0.170683734945372
 10
0.2068673885860224
 20
0.170683734945372
 10
0.2089598415809868
 20
0.171088531791542
 10
0.2104448077318568
 20
0.1723703857976484
 10
0.2110522945759521
 20
0.1744618334960939
 10
0.2119297764181049
 20
0.1782399320468166
 10
0.2131447475709165
 20
0.1847841386368949
  0
LWPOLYLINE
  5
A11
330
2
100
AcDbEntity
  8
Profilo
  6
Continuous
370
     0
100
AcDbPolyline
 90
       18
 70
   128
 43
0.0
 10
0.2141572256444095
 20
0.1913958119026868
 10
0.2115247851887081
 20
0.1895742276989822
 10
0.210039819037839
 20
0.1878875768467059
 10
0.2090273409643468
 20
0.1858635958239741
 10
0.2076773710448161
 20
0.1833673512793594
 10
0.2065298967399847
 20
0.1808711083388022
 10
0.2060574061272287
 20
0.1781724669751603
 10
0.2063948979732664
 20
0.1764858145188257
 10
0.2067998892026641
 20
0.1751364938370048
 10
0.20713738358408
 20
0.1742594350730093
 10
0.20713738358408
 20
0.172977581066903
 10
0.2063948979732664
 20
0.1731799794899875
 10
0.2059224098958894
 20
0.174731698594893
 10
0.2058337375661892
 20
0.1765851746779741
 10
0.2055068359963896
 20
0.1780391858033794
 10
0.2046568934361379
 20
0.1793951729498766
 10
0.2024074421947044
 20
0.182005324854829
 10
0.200136823077687
 20
0.1837408465394641
  0
LWPOLYLINE
  5
A12
330
2
100
AcDbEntity
  8
Profilo
  6
Continuous
370
     0
100
AcDbPolyline
 90
       10
 70
   128
 43
0.0
 10
0.188540470837768
 20
0.1677971989448967
 10
0.1961748041088662
 20
0.1660812164820133
 10
0.199801195260005
 20
0.1656049178217782
 10
0.201375919216225
 20
0.1658438810911549
 10
0.2026645934170497
 20
0.1671325552919796
 10
0.2038579465241734
 20
0.1688983775889619
 10
0.2040015684990766
 20
0.1708548148842843
 10
0.2029522497159504
 20
0.1727632498012928
 10
0.2009012039716977
 20
0.1760552422674544
 10
0.1971328654554676
 20
0.1815418094658834
  0
LWPOLYLINE
  5
A13
330
2
100
AcDbEntity
  8
Profilo
  6
Continuous
370
     0
100
AcDbPolyline
 90
       18
 70
   128
 43
0.0
 10
0.1931736365658048
 20
0.1869328985786845
 10
0.192600274611451
 20
0.183783427538446
 10
0.1927428872314771
 20
0.1815407556481952
 10
0.1934581278260743
 20
0.1793936548304598
 10
0.194268666386574
 20
0.1766739705009654
 10
0.1952223898351471
 20
0.174097473328024
 10
0.196796516127042
 20
0.1718551444034762
 10
0.1982278022893502
 20
0.1709011437870251
 10
0.1994682881380885
 20
0.1702334020275429
 10
0.2003271069033201
 20
0.1698518723937341
 10
0.2012335145635293
 20
0.1689454647335249
 10
0.2005653806557253
 20
0.1685635654206501
 10
0.1991340500306067
 20
0.1693266969986822
 10
0.197760743717859
 20
0.1705746017001615
 10
0.1965014482743777
 20
0.1713715885100702
 10
0.194941620419915
 20
0.1717294160685872
 10
0.1915053620812297
 20
0.1719844699537405
 10
0.1886725927539934
 20
0.1716060989307064
  0
LWPOLYLINE
  5
A14
330
2
100
AcDbEntity
  8
Profilo
  6
Continuous
370
     0
100
AcDbPolyline
 90
       10
 70
   128
 43
0.0
 10
0.1917465947790862
 20
0.1521323782938651
 10
0.1983582664408199
 20
0.1563172842837948
 10
0.2012593062275472
 20
0.1585447360454775
 10
0.2022038316672563
 20
0.1598272065816482
 10
0.2022038316672563
 20
0.161649667113934
 10
0.2017990348210872
 20
0.1637421201088993
 10
0.2005171808149799
 20
0.1652270862597693
 10
0.1984257331165344
 20
0.1658345731038637
 10
0.1946476345658126
 20
0.1667120549460166
 10
0.1881034279757343
 20
0.167927026098829
  0
LWPOLYLINE
  5
A15
330
2
100
AcDbEntity
  8
Profilo
  6
Continuous
370
     0
100
AcDbPolyline
 90
       18
 70
   128
 43
0.0
 10
0.1814917547099424
 20
0.1689395041723212
 10
0.183313338913647
 20
0.1663070637166197
 10
0.1849999897659225
 20
0.1648220975657506
 10
0.1870239707886543
 20
0.1638096194922585
 10
0.1895202153332698
 20
0.1624596495727277
 10
0.1920164582738271
 20
0.1613121752678963
 10
0.1947150996374689
 20
0.1608396846551403
 10
0.1964017520938026
 20
0.161177176501178
 10
0.1977510727756235
 20
0.1615821677305758
 10
0.198628131539619
 20
0.1619196621119916
 10
0.1999099855457263
 20
0.1619196621119916
 10
0.1997075871226408
 20
0.161177176501178
 10
0.1981558680177353
 20
0.160704688423801
 10
0.1963023919346552
 20
0.1606160160941017
 10
0.1948483808092489
 20
0.1602891145243013
 10
0.1934923936627526
 20
0.1594391719640495
 10
0.1908822417577993
 20
0.157189720722616
 10
0.1891467200731651
 20
0.1549191016055986
  0
LWPOLYLINE
  5
A16
330
2
100
AcDbEntity
  8
Profilo
  6
Continuous
370
     0
100
AcDbPolyline
 90
       10
 70
   128
 43
0.0
 10
0.2050903676677325
 20
0.1433227493656797
 10
0.2068063501306159
 20
0.1509570826367788
 10
0.207282648790851
 20
0.1545834737879166
 10
0.2070436855214743
 20
0.1561581977441366
 10
0.2057550113206497
 20
0.1574468719449613
 10
0.2039891890236665
 20
0.158640225052086
 10
0.2020327517283449
 20
0.1587838470269891
 10
0.2001243168113356
 20
0.157734528243862
 10
0.1968323243451748
 20
0.1556834824996103
 10
0.191345757146745
 20
0.1519151439833792
  0
LWPOLYLINE
  5
A17
330
2
100
AcDbEntity
  8
Profilo
  6
Continuous
370
     0
100
AcDbPolyline
 90
       18
 70
   128
 43
0.0
 10
0.1859546680339448
 20
0.1479559150937164
 10
0.1891041390741832
 20
0.1473825531393627
 10
0.1913468109644332
 20
0.1475251657593888
 10
0.1934939117821686
 20
0.1482404063539859
 10
0.1962135961116638
 20
0.1490509449144857
 10
0.1987900932846052
 20
0.1500046683630587
 10
0.2010324222091531
 20
0.1515787946549545
 10
0.2019864228256032
 20
0.1530100808172619
 10
0.2026541645850863
 20
0.1542505666660001
 10
0.2030356942188951
 20
0.1551093854312326
 10
0.2039421018791043
 20
0.1560157930914419
 10
0.2043240011919791
 20
0.1553476591836369
 10
0.2035608696139461
 20
0.1539163285585183
 10
0.2023129649124677
 20
0.1525430222457706
 10
0.2015159781025582
 20
0.1512837268022902
 10
0.2011581505440421
 20
0.1497238989478267
 10
0.2009030966588887
 20
0.1462876406091413
 10
0.2012814676819228
 20
0.1434548712819059
  0
LWPOLYLINE
  5
A18
330
2
100
AcDbEntity
  8
Profilo
  6
Continuous
370
     0
100
AcDbPolyline
 90
       10
 70
   128
 43
0.0
 10
0.2207551883187642
 20
0.1465288733069978
 10
0.2165702823288345
 20
0.1531405449687315
 10
0.2143428305671517
 20
0.1560415847554588
 10
0.213060360030981
 20
0.1569861101951679
 10
0.2112378994986943
 20
0.1569861101951679
 10
0.2091454465037299
 20
0.1565813133489988
 10
0.2076604803528599
 20
0.1552994593428916
 10
0.2070529935087646
 20
0.1532080116444461
 10
0.2061755116666117
 20
0.1494299130937242
 10
0.2049605405138002
 20
0.142885706503646
  0
LWPOLYLINE
  5
A19
330
2
100
AcDbEntity
  8
Profilo
  6
Continuous
370
     0
100
AcDbPolyline
 90
       18
 70
   128
 43
0.0
 10
0.203948062440308
 20
0.136274033237854
 10
0.2065805028960095
 20
0.1380956174415586
 10
0.2080654690468786
 20
0.139782268293835
 10
0.2090779471203707
 20
0.1418062493165659
 10
0.2104279170399006
 20
0.1443024938611814
 10
0.2115753913447329
 20
0.1467987368017387
 10
0.212047881957488
 20
0.1494973781653806
 10
0.2117103901114503
 20
0.1511840306217151
 10
0.2113053988820535
 20
0.1525333513035361
 10
0.2109679045006367
 20
0.1534104100675315
 10
0.2109679045006367
 20
0.1546922640736379
 10
0.2117103901114503
 20
0.1544898656505533
 10
0.2121828781888273
 20
0.152938146545647
 10
0.2122715505185275
 20
0.1510846704625668
 10
0.2125984520883271
 20
0.1496306593371615
 10
0.2134483946485788
 20
0.1482746721906643
 10
0.2156978458900123
 20
0.145664520285711
 10
0.2179684650070297
 20
0.1439289986010768
  0
LWPOLYLINE
  5
A1A
330
2
100
AcDbEntity
  8
Profilo
  6
Continuous
370
     0
100
AcDbPolyline
 90
       10
 70
   128
 43
0.0
 10
0.2295648172469495
 20
0.1598726461956441
 10
0.2219304839758505
 20
0.1615886286585275
 10
0.2183040928247117
 20
0.1620649273187626
 10
0.2167293688684917
 20
0.161825964049386
 10
0.2154406946676679
 20
0.1605372898485613
 10
0.2142473415605433
 20
0.1587714675515781
 10
0.2141037195856401
 20
0.1568150302562565
 10
0.2151530383687663
 20
0.1549065953392472
 10
0.2172040841130189
 20
0.1516146028730865
 10
0.22097242262925
 20
0.1461280356746575
  0
LWPOLYLINE
  5
A1B
330
2
100
AcDbEntity
  8
Profilo
  6
Continuous
370
     0
100
AcDbPolyline
 90
       18
 70
   128
 43
0.0
 10
0.2249316515189119
 20
0.1407369465618564
 10
0.2255050134732666
 20
0.1438864176020949
 10
0.2253624008532395
 20
0.1461290894923457
 10
0.2246471602586424
 20
0.1482761903100802
 10
0.2238366216981427
 20
0.1509958746395754
 10
0.2228828982495696
 20
0.1535723718125168
 10
0.2213087719576747
 20
0.1558147007370647
 10
0.2198774857953674
 20
0.1567687013535148
 10
0.2186369999466282
 20
0.157436443112998
 10
0.2177781811813966
 20
0.1578179727468068
 10
0.2168717735211874
 20
0.158724380407016
 10
0.2175399074289914
 20
0.1591062797198908
 10
0.2189712380541109
 20
0.1583431481418587
 10
0.2203445443668586
 20
0.1570952434403794
 10
0.221603839810339
 20
0.1562982566304707
 10
0.2231636676648017
 20
0.1559404290719537
 10
0.226599926003487
 20
0.1556853751868004
 10
0.2294326953307233
 20
0.1560637462098344
  0
LWPOLYLINE
  5
A1C
330
2
100
AcDbEntity
  8
Profilo
  6
Continuous
370
     0
100
AcDbPolyline
 90
       10
 70
   128
 43
0.0
 10
0.2263586933056314
 20
0.1755374668466758
 10
0.2197470216438968
 20
0.1713525608567461
 10
0.2168459818571695
 20
0.1691251090950634
 10
0.2159014564174604
 20
0.1678426385588927
 10
0.2159014564174604
 20
0.1660201780266068
 10
0.2163062532636304
 20
0.1639277250316415
 10
0.2175881072697368
 20
0.1624427588807715
 10
0.2196795549681823
 20
0.1618352720366771
 10
0.2234576535189041
 20
0.1609577901945234
 10
0.2300018601089824
 20
0.1597428190417118
  0
LWPOLYLINE
  5
A1D
330
2
100
AcDbEntity
  8
Profilo
  6
Continuous
370
     0
100
AcDbPolyline
 90
       18
 70
   128
 43
0.0
 10
0.2366135333747752
 20
0.1587303409682197
 10
0.2347919491710706
 20
0.1613627814239211
 10
0.2331052983187942
 20
0.1628477475747903
 10
0.2310813172960624
 20
0.1638602256482824
 10
0.2285850727514478
 20
0.1652101955678122
 10
0.2260888298108905
 20
0.1663576698726445
 10
0.2233901884472478
 20
0.1668301604854006
 10
0.2217035359909141
 20
0.166492668639362
 10
0.2203542153090932
 20
0.1660876774099651
 10
0.2194771565450977
 20
0.1657501830285493
 10
0.2181953025389913
 20
0.1657501830285493
 10
0.2183977009620759
 20
0.166492668639362
 10
0.2199494200669814
 20
0.1669651567167398
 10
0.2218028961500624
 20
0.1670538290464392
 10
0.2232569072754678
 20
0.1673807306162387
 10
0.224612894421965
 20
0.1682306731764913
 10
0.2272230463269174
 20
0.1704801244179248
 10
0.2289585680115516
 20
0.1727507435349422
  0
LWPOLYLINE
  5
A1E
330
2
100
AcDbEntity
  8
Profilo
  6
Continuous
370
     0
100
AcDbPolyline
 90
       10
 70
   128
 43
0.0
 10
0.2130149204169851
 20
0.1843470957748612
 10
0.2112989379541008
 20
0.1767127625037621
 10
0.2108226392938666
 20
0.1730863713526243
 10
0.2110616025632432
 20
0.1715116473964042
 10
0.212350276764067
 20
0.1702229731955795
 10
0.2141160990610502
 20
0.1690296200884549
 10
0.2160725363563727
 20
0.1688859981135518
 10
0.2179809712733811
 20
0.1699353168966788
 10
0.2212729637395427
 20
0.1719863626409306
 10
0.2267595309379717
 20
0.1757547011571616
  0
LWPOLYLINE
  5
A1F
330
2
100
AcDbEntity
  8
Profilo
  6
Continuous
370
     0
100
AcDbPolyline
 90
       18
 70
   128
 43
0.0
 10
0.2321506200507719
 20
0.1797139300468236
 10
0.2290011490105344
 20
0.1802872920011782
 10
0.2267584771202835
 20
0.1801446793811521
 10
0.2246113763025481
 20
0.179429438786554
 10
0.2218916919730529
 20
0.1786189002260543
 10
0.2193151948001124
 20
0.1776651767774813
 10
0.2170728658755636
 20
0.1760910504855864
 10
0.2161188652591135
 20
0.174659764323279
 10
0.2154511234996304
 20
0.1734192784745407
 10
0.2150695938658225
 20
0.1725604597093082
 10
0.2141631862056132
 20
0.171654052049099
 10
0.2137812868927376
 20
0.1723221859569031
 10
0.2145444184707705
 20
0.1737535165820225
 10
0.2157923231722489
 20
0.1751268228947702
 10
0.2165893099821585
 20
0.1763861183382507
 10
0.2169471375406746
 20
0.1779459461927142
 10
0.217202191425828
 20
0.1813822045313995
 10
0.2168238204027948
 20
0.1842149738586349
  0
LWPOLYLINE
  5
A20
330
2
100
AcDbEntity
  8
Profilo
  6
Continuous
370
     0
100
AcDbPolyline
 90
        6
 70
   128
 43
0.0
 10
0.200136823077687
 20
0.1837408465394641
 10
0.1988261515258114
 20
0.1846320579064034
 10
0.1973473007080249
 20
0.185453245729319
 10
0.1954740920385141
 20
0.1861430435647304
 10
0.1939243900669152
 20
0.1866802217061925
 10
0.1931736365658048
 20
0.1869328985786845
  0
LWPOLYLINE
  5
A21
330
2
100
AcDbEntity
  8
Profilo
  6
Continuous
370
     0
100
AcDbPolyline
 90
       13
 70
   128
 43
0.0
 10
0.2002786496188631
 20
0.1840087530835546
 10
0.2005105987262739
 20
0.1862981351119193
 10
0.2008875131735146
 20
0.1880079277076701
 10
0.2013804034421516
 20
0.1894569052993531
 10
0.2020472536398121
 20
0.1905581263441616
 10
0.2025691359622628
 20
0.1912826151400036
 10
0.2029750424633199
 20
0.1915434317481295
 10
0.2042217641618174
 20
0.1912826151400036
 10
0.2055554620217603
 20
0.1902393519156154
 10
0.2064832533806471
 20
0.1890511909320582
 10
0.2073240635073312
 20
0.1880079277076701
 10
0.2080489003479999
 20
0.1867328283894243
 10
0.208541790616636
 20
0.1857765034997256
  0
LWPOLYLINE
  5
A22
330
2
100
AcDbEntity
  8
Profilo
  6
Continuous
370
     0
100
AcDbPolyline
 90
        3
 70
   128
 43
0.0
 10
0.2056714378431548
 20
0.1796328430023544
 10
0.2049176064132934
 20
0.1837769153856388
 10
0.2044827053230436
 20
0.1860373201078516
  0
LWPOLYLINE
  5
A23
330
2
100
AcDbEntity
  8
Profilo
  6
Continuous
370
     0
100
AcDbPolyline
 90
        2
 70
   128
 43
0.0
 10
0.2037868605361894
 20
0.1856026268303475
 10
0.2022792002118439
 20
0.1876022149444343
  0
LWPOLYLINE
  5
A24
330
2
100
AcDbEntity
  8
Profilo
  6
Continuous
370
     0
100
AcDbPolyline
 90
        2
 70
   128
 43
0.0
 10
0.2037288738931813
 20
0.1828495710102085
 10
0.2017863124785859
 20
0.1848781380345055
  0
LWPOLYLINE
  5
A25
330
2
100
AcDbEntity
  8
Profilo
  6
Continuous
370
     0
100
AcDbPolyline
 90
        2
 70
   128
 43
0.0
 10
0.2052365342175269
 20
0.1851969140671108
 10
0.2060193577012037
 20
0.187863029948502
  0
LWPOLYLINE
  5
A26
330
2
100
AcDbEntity
  8
Profilo
  6
Continuous
370
     0
100
AcDbPolyline
 90
        2
 70
   128
 43
0.0
 10
0.206918157006275
 20
0.1837769153856388
 10
0.2074400393287266
 20
0.1851099741283631
  0
LWPOLYLINE
  5
A27
330
2
100
AcDbEntity
  8
Profilo
  6
Continuous
370
     0
100
AcDbPolyline
 90
       11
 70
   128
 43
0.0
 10
0.1959296539286366
 20
0.1863058057168474
 10
0.1961577441898812
 20
0.1877648792490185
 10
0.1963630236502367
 20
0.1884260221939171
 10
0.1967963959072159
 20
0.1893151450774577
 10
0.1972981929607278
 20
0.1897483080837152
 10
0.1978228008151297
 20
0.1899534895472752
 10
0.1985983046609081
 20
0.1898850957260883
 10
0.1993738110420646
 20
0.1895887203622029
 10
0.1998984188964665
 20
0.1891555589600027
 10
0.2005142598129121
 20
0.1885172144901852
 10
0.2006739227422449
 20
0.1882892329474868
  0
LWPOLYLINE
  5
A28
330
2
100
AcDbEntity
  8
Profilo
  6
Continuous
370
     0
100
AcDbPolyline
 90
        2
 70
   128
 43
0.0
 10
0.2094711463040926
 20
0.1752926697273414
 10
0.2073783434268877
 20
0.1775453717634687
  0
LWPOLYLINE
  5
A29
330
2
100
AcDbEntity
  8
Profilo
  6
Continuous
370
     0
100
AcDbPolyline
 90
        2
 70
   128
 43
0.0
 10
0.2099742237237767
 20
0.1778068476393959
 10
0.2080222839438943
 20
0.1802606841009742
  0
LWPOLYLINE
  5
A2A
330
2
100
AcDbEntity
  8
Profilo
  6
Continuous
370
     0
100
AcDbPolyline
 90
        2
 70
   128
 43
0.0
 10
0.210638285005023
 20
0.180683064629958
 10
0.2092095459444425
 20
0.1831167894134551
  0
LWPOLYLINE
  5
A2B
330
2
100
AcDbEntity
  8
Profilo
  6
Continuous
370
     0
100
AcDbPolyline
 90
        2
 70
   128
 43
0.0
 10
0.2116855687553643
 20
0.1839100409638017
 10
0.2108001537137025
 20
0.1868667126869794
  0
LWPOLYLINE
  5
A2C
330
2
100
AcDbEntity
  8
Profilo
  6
Continuous
370
     0
100
AcDbPolyline
 90
        2
 70
   128
 43
0.0
 10
0.2140198461572251
 20
0.1832462978410301
 10
0.2158309253751622
 20
0.185680021020469
  0
LWPOLYLINE
  5
A2D
330
2
100
AcDbEntity
  8
Profilo
  6
Continuous
370
     0
100
AcDbPolyline
 90
        2
 70
   128
 43
0.0
 10
0.2140815496651993
 20
0.1802836429818471
 10
0.2163755804678247
 20
0.1822547574639652
  0
LWPOLYLINE
  5
A2E
330
2
100
AcDbEntity
  8
Profilo
  6
Continuous
370
     0
100
AcDbPolyline
 90
        2
 70
   128
 43
0.0
 10
0.213759579406696
 20
0.1774878775157833
 10
0.2158121356846663
 20
0.1787751355929905
  0
LWPOLYLINE
  5
A2F
330
2
100
AcDbEntity
  8
Profilo
  6
Continuous
370
     0
100
AcDbPolyline
 90
        2
 70
   128
 43
0.0
 10
0.2133962621946623
 20
0.1744448208578961
 10
0.2146841406932984
 20
0.1753096984061195
  0
LWPOLYLINE
  5
A30
330
2
100
AcDbEntity
  8
Profilo
  6
Continuous
370
     0
100
AcDbPolyline
 90
        6
 70
   128
 43
0.0
 10
0.1886725927539934
 20
0.1716060989307064
 10
0.1871156264107206
 20
0.1713094957895005
 10
0.1854892534908887
 20
0.1708444578260919
 10
0.1836769342110336
 20
0.1700076600003704
 10
0.1822012871315644
 20
0.1692916975339682
 10
0.1814917547099424
 20
0.1689395041723212
  0
LWPOLYLINE
  5
A31
330
2
100
AcDbEntity
  8
Profilo
  6
Continuous
370
     0
100
AcDbPolyline
 90
       13
 70
   128
 43
0.0
 10
0.1885834407289608
 20
0.1718958239737751
 10
0.1871286159587169
 20
0.1736786743174989
 10
0.1861861287814111
 20
0.1751541990179484
 10
0.1855100729518786
 20
0.1765273069501485
 10
0.1852029263803101
 20
0.1777775221153193
 10
0.1850596619690639
 20
0.1786588395849384
 10
0.1851622560162363
 20
0.1791302840166158
 10
0.1862282465757485
 20
0.179827424191624
 10
0.1879090118770956
 20
0.1800327924919158
 10
0.1894052161271049
 20
0.1798486833646966
 10
0.190737457169901
 20
0.1797055274064383
 10
0.1921516255898097
 20
0.1793164330771115
 10
0.1931763754556664
 20
0.1789887353139208
  0
LWPOLYLINE
  5
A32
330
2
100
AcDbEntity
  8
Profilo
  6
Continuous
370
     0
100
AcDbPolyline
 90
        3
 70
   128
 43
0.0
 10
0.1954909535441396
 20
0.172614865404396
 10
0.1920276125442642
 20
0.1750121277724168
 10
0.1901217435269005
 20
0.176302953769659
  0
LWPOLYLINE
  5
A33
330
2
100
AcDbEntity
  8
Profilo
  6
Continuous
370
     0
100
AcDbPolyline
 90
        2
 70
   128
 43
0.0
 10
0.1899370815237229
 20
0.1755035426379616
 10
0.1874570823696016
 20
0.1758513881139421
  0
LWPOLYLINE
  5
A34
330
2
100
AcDbEntity
  8
Profilo
  6
Continuous
370
     0
100
AcDbPolyline
 90
        2
 70
   128
 43
0.0
 10
0.1918427832146388
 20
0.173515835450067
 10
0.189034771366535
 20
0.1735766505999075
  0
LWPOLYLINE
  5
A35
330
2
100
AcDbEntity
  8
Profilo
  6
Continuous
370
     0
100
AcDbPolyline
 90
        2
 70
   128
 43
0.0
 10
0.1912490378604024
 20
0.1762417344824443
 10
0.1899173490350212
 20
0.1786805028953853
  0
LWPOLYLINE
  5
A36
330
2
100
AcDbEntity
  8
Profilo
  6
Continuous
370
     0
100
AcDbPolyline
 90
        2
 70
   128
 43
0.0
 10
0.1934422154346689
 20
0.1764267306628215
 10
0.1928686270871549
 20
0.1777383720687085
  0
LWPOLYLINE
  5
A37
330
2
100
AcDbEntity
  8
Profilo
  6
Continuous
370
     0
100
AcDbPolyline
 90
       11
 70
   128
 43
0.0
 10
0.1838839748913066
 20
0.170444881123609
 10
0.1830135382729075
 20
0.1716378860829057
 10
0.1826911941116918
 20
0.1722505392410327
 10
0.1823689297531206
 20
0.1731856845229802
 10
0.1824174613533534
 20
0.1738468011213823
 10
0.1826433299204084
 20
0.1743628400969501
 10
0.183240055683346
 20
0.1748628423903837
 10
0.183997990533896
 20
0.1752016391817732
 10
0.1846752356700514
 20
0.1752663015882407
 10
0.1855620786615426
 20
0.1752503891730499
 10
0.1858361846964063
 20
0.1752020806182579
  0
LWPOLYLINE
  5
A38
330
2
100
AcDbEntity
  8
Profilo
  6
Continuous
370
     0
100
AcDbPolyline
 90
        2
 70
   128
 43
0.0
 10
0.201246719117687
 20
0.172232699069371
 10
0.1981739831257898
 20
0.1723457648489499
  0
LWPOLYLINE
  5
A39
330
2
100
AcDbEntity
  8
Profilo
  6
Continuous
370
     0
100
AcDbPolyline
 90
        2
 70
   128
 43
0.0
 10
0.199824656321884
 20
0.1743662207750138
 10
0.1967093020651567
 20
0.1747211153220962
  0
LWPOLYLINE
  5
A3A
330
2
100
AcDbEntity
  8
Profilo
  6
Continuous
370
     0
100
AcDbPolyline
 90
        2
 70
   128
 43
0.0
 10
0.1982604260187864
 20
0.1768695755482974
 10
0.1955292516425513
 20
0.1775802077679667
  0
LWPOLYLINE
  5
A3B
330
2
100
AcDbEntity
  8
Profilo
  6
Continuous
370
     0
100
AcDbPolyline
 90
        2
 70
   128
 43
0.0
 10
0.1967191506120893
 20
0.1798919338383791
 10
0.1940023850067649
 20
0.181356533483457
  0
LWPOLYLINE
  5
A3C
330
2
100
AcDbEntity
  8
Profilo
  6
Continuous
370
     0
100
AcDbPolyline
 90
        2
 70
   128
 43
0.0
 10
0.1988390712551937
 20
0.1810731799553271
 10
0.1983987954877509
 20
0.1840747085153089
  0
LWPOLYLINE
  5
A3D
330
2
100
AcDbEntity
  8
Profilo
  6
Continuous
370
     0
100
AcDbPolyline
 90
        2
 70
   128
 43
0.0
 10
0.2009776155653493
 20
0.1790218975829956
 10
0.2012059518853353
 20
0.1820378107365834
  0
LWPOLYLINE
  5
A3E
330
2
100
AcDbEntity
  8
Profilo
  6
Continuous
370
     0
100
AcDbPolyline
 90
        2
 70
   128
 43
0.0
 10
0.2027268529318813
 20
0.1768173255102066
 10
0.2032680004792708
 20
0.1791789308886575
  0
LWPOLYLINE
  5
A3F
330
2
100
AcDbEntity
  8
Profilo
  6
Continuous
370
     0
100
AcDbPolyline
 90
        2
 70
   128
 43
0.0
 10
0.204621714865858
 20
0.1744086554475293
 10
0.2049208217063438
 20
0.1759308838465041
  0
LWPOLYLINE
  5
A40
330
2
100
AcDbEntity
  8
Profilo
  6
Continuous
370
     0
100
AcDbPolyline
 90
        6
 70
   128
 43
0.0
 10
0.1891467200731651
 20
0.1549191016055986
 10
0.1882555087062259
 20
0.153608430053723
 10
0.1874343208833102
 20
0.1521295792359365
 10
0.1867445230478988
 20
0.1502563705664266
 10
0.1862073449064359
 20
0.1487066685948268
 10
0.1859546680339448
 20
0.1479559150937164
  0
LWPOLYLINE
  5
A41
330
2
100
AcDbEntity
  8
Profilo
  6
Continuous
370
     0
100
AcDbPolyline
 90
       13
 70
   128
 43
0.0
 10
0.1888788135290747
 20
0.1550609281467747
 10
0.1865894315007091
 20
0.1552928772541855
 10
0.1848796389049583
 20
0.1556697917014271
 10
0.1834306613132761
 20
0.1561626819700632
 10
0.1823294402684668
 20
0.1568295321677238
 10
0.1816049514726257
 20
0.1573514144901744
 10
0.1813441348644997
 20
0.1577573209912315
 10
0.1816049514726257
 20
0.1590040426897299
 10
0.1826482146970139
 20
0.160337740549672
 10
0.1838363756805701
 20
0.1612655319085587
 10
0.1848796389049583
 20
0.1621063420352438
 10
0.1861547382232041
 20
0.1628311788759125
 10
0.1871110631129027
 20
0.1633240691445486
  0
LWPOLYLINE
  5
A42
330
2
100
AcDbEntity
  8
Profilo
  6
Continuous
370
     0
100
AcDbPolyline
 90
        3
 70
   128
 43
0.0
 10
0.1932547236102749
 20
0.1604537163710664
 10
0.1891106512269904
 20
0.159699884941205
 10
0.1868502465047768
 20
0.1592649838509552
  0
LWPOLYLINE
  5
A43
330
2
100
AcDbEntity
  8
Profilo
  6
Continuous
370
     0
100
AcDbPolyline
 90
        2
 70
   128
 43
0.0
 10
0.1872849397822818
 20
0.1585691390641011
 10
0.1852853516681949
 20
0.1570614787397564
  0
LWPOLYLINE
  5
A44
330
2
100
AcDbEntity
  8
Profilo
  6
Continuous
370
     0
100
AcDbPolyline
 90
        2
 70
   128
 43
0.0
 10
0.1900379956024207
 20
0.1585111524210938
 10
0.1880094285781229
 20
0.1565685910064984
  0
LWPOLYLINE
  5
A45
330
2
100
AcDbEntity
  8
Profilo
  6
Continuous
370
     0
100
AcDbPolyline
 90
        2
 70
   128
 43
0.0
 10
0.1876906525455184
 20
0.1600188127454385
 10
0.1850245366641263
 20
0.1608016362291154
  0
LWPOLYLINE
  5
A46
330
2
100
AcDbEntity
  8
Profilo
  6
Continuous
370
     0
100
AcDbPolyline
 90
        2
 70
   128
 43
0.0
 10
0.1891106512269904
 20
0.1617004355341867
 10
0.1877775924842653
 20
0.1622223178566382
  0
LWPOLYLINE
  5
A47
330
2
100
AcDbEntity
  8
Profilo
  6
Continuous
370
     0
100
AcDbPolyline
 90
       11
 70
   128
 43
0.0
 10
0.1865817608957809
 20
0.1507119324565482
 10
0.1851226873636098
 20
0.1509400227177928
 10
0.1844615444187112
 20
0.1511453021781492
 10
0.1835724215351715
 20
0.1515786744351284
 10
0.1831392585289131
 20
0.1520804714886395
 10
0.182934077065354
 20
0.1526050793430413
 10
0.1830024708865401
 20
0.1533805831888197
 10
0.1832988462504255
 20
0.1541560895699772
 10
0.1837320076526257
 20
0.1546806974243782
 10
0.1843703521224431
 20
0.1552965383408238
 10
0.1845983336651424
 20
0.1554562012701566
  0
LWPOLYLINE
  5
A48
330
2
100
AcDbEntity
  8
Profilo
  6
Continuous
370
     0
100
AcDbPolyline
 90
        2
 70
   128
 43
0.0
 10
0.197594896885287
 20
0.1642534248320051
 10
0.1953421948491605
 20
0.1621606219547993
  0
LWPOLYLINE
  5
A49
330
2
100
AcDbEntity
  8
Profilo
  6
Continuous
370
     0
100
AcDbPolyline
 90
        2
 70
   128
 43
0.0
 10
0.1950807189732333
 20
0.1647565022516884
 10
0.1926268825116551
 20
0.1628045624718069
  0
LWPOLYLINE
  5
A4A
330
2
100
AcDbEntity
  8
Profilo
  6
Continuous
370
     0
100
AcDbPolyline
 90
        2
 70
   128
 43
0.0
 10
0.1922045019826704
 20
0.1654205635329347
 10
0.1897707771991741
 20
0.1639918244723542
  0
LWPOLYLINE
  5
A4B
330
2
100
AcDbEntity
  8
Profilo
  6
Continuous
370
     0
100
AcDbPolyline
 90
        2
 70
   128
 43
0.0
 10
0.1889775256488266
 20
0.1664678472832759
 10
0.1860208539256498
 20
0.1655824322416142
  0
LWPOLYLINE
  5
A4C
330
2
100
AcDbEntity
  8
Profilo
  6
Continuous
370
     0
100
AcDbPolyline
 90
        2
 70
   128
 43
0.0
 10
0.1896412687715983
 20
0.1688021246851368
 10
0.1872075455921602
 20
0.1706132039030739
  0
LWPOLYLINE
  5
A4D
330
2
100
AcDbEntity
  8
Profilo
  6
Continuous
370
     0
100
AcDbPolyline
 90
        2
 70
   128
 43
0.0
 10
0.1926039236307822
 20
0.1688638281931118
 10
0.190632809148664
 20
0.1711578589957363
  0
LWPOLYLINE
  5
A4E
330
2
100
AcDbEntity
  8
Profilo
  6
Continuous
370
     0
100
AcDbPolyline
 90
        2
 70
   128
 43
0.0
 10
0.195399689096845
 20
0.1685418579346076
 10
0.1941124310196378
 20
0.1705944142125788
  0
LWPOLYLINE
  5
A4F
330
2
100
AcDbEntity
  8
Profilo
  6
Continuous
370
     0
100
AcDbPolyline
 90
        2
 70
   128
 43
0.0
 10
0.1984427457547331
 20
0.168178540722574
 10
0.1975778682065097
 20
0.169466419221211
  0
LWPOLYLINE
  5
A50
330
2
100
AcDbEntity
  8
Profilo
  6
Continuous
370
     0
100
AcDbPolyline
 90
        6
 70
   128
 43
0.0
 10
0.2012814676819228
 20
0.1434548712819059
 10
0.2015780708231287
 20
0.1418979049386322
 10
0.2020431087865373
 20
0.1402715320188013
 10
0.202879906612258
 20
0.1384592127389452
 10
0.203595869078661
 20
0.136983565659476
 10
0.203948062440308
 20
0.136274033237854
  0
LWPOLYLINE
  5
A51
330
2
100
AcDbEntity
  8
Profilo
  6
Continuous
370
     0
100
AcDbPolyline
 90
       13
 70
   128
 43
0.0
 10
0.2009917426388541
 20
0.1433657192568725
 10
0.1992088922951303
 20
0.1419108944866294
 10
0.1977333675946809
 20
0.1409684073093227
 10
0.1963602596624807
 20
0.1402923514797902
 10
0.1951100444973091
 20
0.1399852049082217
 10
0.1942287270276899
 20
0.1398419404969755
 10
0.1937572825960134
 20
0.1399445345441479
 10
0.1930601424210052
 20
0.1410105251036602
 10
0.1928547741207125
 20
0.1426912904050073
 10
0.1930388832479317
 20
0.1441874946550166
 10
0.1931820392061909
 20
0.1455197356978126
 10
0.1935711335355177
 20
0.1469339041177213
 10
0.1938988312987076
 20
0.1479586539835789
  0
LWPOLYLINE
  5
A52
330
2
100
AcDbEntity
  8
Profilo
  6
Continuous
370
     0
100
AcDbPolyline
 90
        3
 70
   128
 43
0.0
 10
0.2002727012082333
 20
0.1502732320720512
 10
0.1978754388402124
 20
0.1468098910721767
 10
0.1965846128429702
 20
0.144904022054813
  0
LWPOLYLINE
  5
A53
330
2
100
AcDbEntity
  8
Profilo
  6
Continuous
370
     0
100
AcDbPolyline
 90
        2
 70
   128
 43
0.0
 10
0.1973840239746676
 20
0.1447193600516345
 10
0.1970361784986872
 20
0.1422393608975132
  0
LWPOLYLINE
  5
A54
330
2
100
AcDbEntity
  8
Profilo
  6
Continuous
370
     0
100
AcDbPolyline
 90
        2
 70
   128
 43
0.0
 10
0.1993717311625622
 20
0.1466250617425504
 10
0.1993109160127209
 20
0.1438170498944467
  0
LWPOLYLINE
  5
A55
330
2
100
AcDbEntity
  8
Profilo
  6
Continuous
370
     0
100
AcDbPolyline
 90
        2
 70
   128
 43
0.0
 10
0.1966458321301849
 20
0.146031316388314
 10
0.1942070637172431
 20
0.1446996275629329
  0
LWPOLYLINE
  5
A56
330
2
100
AcDbEntity
  8
Profilo
  6
Continuous
370
     0
100
AcDbPolyline
 90
        2
 70
   128
 43
0.0
 10
0.1964608359498077
 20
0.1482244939625805
 10
0.1951491945439208
 20
0.1476509056150665
  0
LWPOLYLINE
  5
A57
330
2
100
AcDbEntity
  8
Profilo
  6
Continuous
370
     0
100
AcDbPolyline
 90
       11
 70
   128
 43
0.0
 10
0.2024426854890202
 20
0.1386662534192182
 10
0.2012496805297235
 20
0.1377958168008191
 10
0.2006370273715956
 20
0.1374734726396034
 10
0.199701882089649
 20
0.1371512082810322
 10
0.1990407654912469
 20
0.137199739881265
 10
0.1985247265156791
 20
0.1374256084483201
 10
0.1980247242222455
 20
0.1380223342112585
 10
0.1976859274308551
 20
0.1387802690618076
 10
0.1976212650243885
 20
0.139457514197963
 10
0.1976371774395784
 20
0.1403443571894543
 10
0.1976854859943704
 20
0.1406184632243179
  0
LWPOLYLINE
  5
A58
330
2
100
AcDbEntity
  8
Profilo
  6
Continuous
370
     0
100
AcDbPolyline
 90
        2
 70
   128
 43
0.0
 10
0.2006548675432582
 20
0.1560289976455986
 10
0.2005418017636793
 20
0.1529562616537015
  0
LWPOLYLINE
  5
A59
330
2
100
AcDbEntity
  8
Profilo
  6
Continuous
370
     0
100
AcDbPolyline
 90
        2
 70
   128
 43
0.0
 10
0.1985213458376154
 20
0.1546069348497956
 10
0.198166451290533
 20
0.1514915805930692
  0
LWPOLYLINE
  5
A5A
330
2
100
AcDbEntity
  8
Profilo
  6
Continuous
370
     0
100
AcDbPolyline
 90
        2
 70
   128
 43
0.0
 10
0.1960179910643318
 20
0.153042704546698
 10
0.1953073588446626
 20
0.1503115301704629
  0
LWPOLYLINE
  5
A5B
330
2
100
AcDbEntity
  8
Profilo
  6
Continuous
370
     0
100
AcDbPolyline
 90
        2
 70
   128
 43
0.0
 10
0.1929956327742493
 20
0.1515014291400019
 10
0.1915310331291722
 20
0.1487846635346766
  0
LWPOLYLINE
  5
A5C
330
2
100
AcDbEntity
  8
Profilo
  6
Continuous
370
     0
100
AcDbPolyline
 90
        2
 70
   128
 43
0.0
 10
0.1918143866573012
 20
0.1536213497831054
 10
0.1888128580973194
 20
0.1531810740156634
  0
LWPOLYLINE
  5
A5D
330
2
100
AcDbEntity
  8
Profilo
  6
Continuous
370
     0
100
AcDbPolyline
 90
        2
 70
   128
 43
0.0
 10
0.1938656690296328
 20
0.155759894093261
 10
0.1908497558760449
 20
0.1559882304132478
  0
LWPOLYLINE
  5
A5E
330
2
100
AcDbEntity
  8
Profilo
  6
Continuous
370
     0
100
AcDbPolyline
 90
        2
 70
   128
 43
0.0
 10
0.1960702411024218
 20
0.1575091314597929
 10
0.1937086357239717
 20
0.1580502790071834
  0
LWPOLYLINE
  5
A5F
330
2
100
AcDbEntity
  8
Profilo
  6
Continuous
370
     0
100
AcDbPolyline
 90
        2
 70
   128
 43
0.0
 10
0.1984789111651
 20
0.1594039933937696
 10
0.1969566827661251
 20
0.1597031002342555
  0
LWPOLYLINE
  5
A60
330
2
100
AcDbEntity
  8
Profilo
  6
Continuous
370
     0
100
AcDbPolyline
 90
        6
 70
   128
 43
0.0
 10
0.2179684650070297
 20
0.1439289986010768
 10
0.2192791365589053
 20
0.1430377872341375
 10
0.2207579873766927
 20
0.1422165994112219
 10
0.2226311960462026
 20
0.1415268015758104
 10
0.2241808980178024
 20
0.1409896234343475
 10
0.2249316515189119
 20
0.1407369465618564
  0
LWPOLYLINE
  5
A61
330
2
100
AcDbEntity
  8
Profilo
  6
Continuous
370
     0
100
AcDbPolyline
 90
       13
 70
   128
 43
0.0
 10
0.2178266384658545
 20
0.1436610920569863
 10
0.2175946893584437
 20
0.1413717100286207
 10
0.2172177749112021
 20
0.1396619174328708
 10
0.2167248846425651
 20
0.1382129398411878
 10
0.2160580344449046
 20
0.1371117187963784
 10
0.2155361521224539
 20
0.1363872300005373
 10
0.2151302456213977
 20
0.1361264133924114
 10
0.2138835239228993
 20
0.1363872300005373
 10
0.2125498260629564
 20
0.1374304932249255
 10
0.2116220347040705
 20
0.1386186542084817
 10
0.2107812245773855
 20
0.1396619174328708
 10
0.2100563877367167
 20
0.1409370167511166
 10
0.2095634974680807
 20
0.1418933416408152
  0
LWPOLYLINE
  5
A62
330
2
100
AcDbEntity
  8
Profilo
  6
Continuous
370
     0
100
AcDbPolyline
 90
        3
 70
   128
 43
0.0
 10
0.2124338502415619
 20
0.1480370021381865
 10
0.2131876816714242
 20
0.1438929297549021
 10
0.2136225827616731
 20
0.1416325250326893
  0
LWPOLYLINE
  5
A63
330
2
100
AcDbEntity
  8
Profilo
  6
Continuous
370
     0
100
AcDbPolyline
 90
        2
 70
   128
 43
0.0
 10
0.2143184275485273
 20
0.1420672183101934
 10
0.2158260878728728
 20
0.1400676301961066
  0
LWPOLYLINE
  5
A64
330
2
100
AcDbEntity
  8
Profilo
  6
Continuous
370
     0
100
AcDbPolyline
 90
        2
 70
   128
 43
0.0
 10
0.2143764141915354
 20
0.1448202741303324
 10
0.2163189756061308
 20
0.1427917071060345
  0
LWPOLYLINE
  5
A65
330
2
100
AcDbEntity
  8
Profilo
  6
Continuous
370
     0
100
AcDbPolyline
 90
        2
 70
   128
 43
0.0
 10
0.2128687538671898
 20
0.1424729310734301
 10
0.212085930383513
 20
0.1398068151920388
  0
LWPOLYLINE
  5
A66
330
2
100
AcDbEntity
  8
Profilo
  6
Continuous
370
     0
100
AcDbPolyline
 90
        2
 70
   128
 43
0.0
 10
0.2111871310784417
 20
0.1438929297549021
 10
0.210665248755991
 20
0.1425598710121778
  0
LWPOLYLINE
  5
A67
330
2
100
AcDbEntity
  8
Profilo
  6
Continuous
370
     0
100
AcDbPolyline
 90
       11
 70
   128
 43
0.0
 10
0.2221756341560801
 20
0.1413640394236935
 10
0.2219475438948355
 20
0.1399049658915223
 10
0.22174226443448
 20
0.1392438229466228
 10
0.2213088921775008
 20
0.1383547000630831
 10
0.2208070951239889
 20
0.1379215370568247
 10
0.2202824872695879
 20
0.1377163555932657
 10
0.2195069834238095
 20
0.1377847494144517
 10
0.2187314770426521
 20
0.1380811247783371
 10
0.2182068691882502
 20
0.1385142861805373
 10
0.2175910282718054
 20
0.1391526306503548
 10
0.2174313653424718
 20
0.1393806121930541
  0
LWPOLYLINE
  5
A68
330
2
100
AcDbEntity
  8
Profilo
  6
Continuous
370
     0
100
AcDbPolyline
 90
        2
 70
   128
 43
0.0
 10
0.2086341417806241
 20
0.1523771754131986
 10
0.2107269446578299
 20
0.1501244733770721
  0
LWPOLYLINE
  5
A69
330
2
100
AcDbEntity
  8
Profilo
  6
Continuous
370
     0
100
AcDbPolyline
 90
        2
 70
   128
 43
0.0
 10
0.20813106436094
 20
0.149862997501145
 10
0.2100830041408224
 20
0.1474091610395667
  0
LWPOLYLINE
  5
A6A
330
2
100
AcDbEntity
  8
Profilo
  6
Continuous
370
     0
100
AcDbPolyline
 90
        2
 70
   128
 43
0.0
 10
0.2074670030796937
 20
0.1469867805105829
 10
0.2088957421402751
 20
0.1445530557270858
  0
LWPOLYLINE
  5
A6B
330
2
100
AcDbEntity
  8
Profilo
  6
Continuous
370
     0
100
AcDbPolyline
 90
        2
 70
   128
 43
0.0
 10
0.2064197193293524
 20
0.1437598041767392
 10
0.2073051343710142
 20
0.1408031324535615
  0
LWPOLYLINE
  5
A6C
330
2
100
AcDbEntity
  8
Profilo
  6
Continuous
370
     0
100
AcDbPolyline
 90
        2
 70
   128
 43
0.0
 10
0.2040854419274924
 20
0.1444235472995108
 10
0.2022743627095545
 20
0.1419898241200719
  0
LWPOLYLINE
  5
A6D
330
2
100
AcDbEntity
  8
Profilo
  6
Continuous
370
     0
100
AcDbPolyline
 90
        2
 70
   128
 43
0.0
 10
0.2040237384195174
 20
0.1473862021586938
 10
0.201729707616892
 20
0.1454150876765756
  0
LWPOLYLINE
  5
A6E
330
2
100
AcDbEntity
  8
Profilo
  6
Continuous
370
     0
100
AcDbPolyline
 90
        2
 70
   128
 43
0.0
 10
0.2043457086780216
 20
0.1501819676247567
 10
0.2022931524000504
 20
0.1488947095475495
  0
LWPOLYLINE
  5
A6F
330
2
100
AcDbEntity
  8
Profilo
  6
Continuous
370
     0
100
AcDbPolyline
 90
        2
 70
   128
 43
0.0
 10
0.2047090258900543
 20
0.1532250242826447
 10
0.2034211473914182
 20
0.1523601467344213
  0
LWPOLYLINE
  5
A70
330
2
100
AcDbEntity
  8
Profilo
  6
Continuous
370
     0
100
AcDbPolyline
 90
        6
 70
   128
 43
0.0
 10
0.2294326953307233
 20
0.1560637462098344
 10
0.2309896616739961
 20
0.1563603493510404
 10
0.232616034593828
 20
0.1568253873144489
 10
0.2344283538736831
 20
0.1576621851401696
 10
0.2359040009531532
 20
0.1583781476065726
 10
0.2366135333747752
 20
0.1587303409682197
  0
LWPOLYLINE
  5
A71
330
2
100
AcDbEntity
  8
Profilo
  6
Continuous
370
     0
100
AcDbPolyline
 90
       13
 70
   128
 43
0.0
 10
0.2295218473557568
 20
0.1557740211667657
 10
0.2309766721259998
 20
0.1539911708230419
 10
0.2319191593033065
 20
0.1525156461225925
 10
0.2325952151328381
 20
0.1511425381903924
 10
0.2329023617044066
 20
0.1498923230252216
 10
0.2330456261156537
 20
0.1490110055556015
 10
0.2329430320684804
 20
0.1485395611239251
 10
0.2318770415089681
 20
0.1478424209489169
 10
0.2301962762076211
 20
0.147637052648625
 10
0.2287000719576127
 20
0.1478211617758434
 10
0.2273678309148157
 20
0.1479643177341026
 10
0.225953662494907
 20
0.1483534120634293
 10
0.2249289126290503
 20
0.1486811098266201
  0
LWPOLYLINE
  5
A72
330
2
100
AcDbEntity
  8
Profilo
  6
Continuous
370
     0
100
AcDbPolyline
 90
        3
 70
   128
 43
0.0
 10
0.2226143345405771
 20
0.1550549797361449
 10
0.2260776755404525
 20
0.1526577173681241
 10
0.2279835445578162
 20
0.1513668913708819
  0
LWPOLYLINE
  5
A73
330
2
100
AcDbEntity
  8
Profilo
  6
Continuous
370
     0
100
AcDbPolyline
 90
        2
 70
   128
 43
0.0
 10
0.2281682065609947
 20
0.1521663025025792
 10
0.230648205715116
 20
0.1518184570265988
  0
LWPOLYLINE
  5
A74
330
2
100
AcDbEntity
  8
Profilo
  6
Continuous
370
     0
100
AcDbPolyline
 90
        2
 70
   128
 43
0.0
 10
0.2262625048700779
 20
0.1541540096904739
 10
0.2290705167181817
 20
0.1540931945406334
  0
LWPOLYLINE
  5
A75
330
2
100
AcDbEntity
  8
Profilo
  6
Continuous
370
     0
100
AcDbPolyline
 90
        2
 70
   128
 43
0.0
 10
0.2268562502243143
 20
0.1514281106580966
 10
0.2281879390496955
 20
0.1489893422451556
  0
LWPOLYLINE
  5
A76
330
2
100
AcDbEntity
  8
Profilo
  6
Continuous
370
     0
100
AcDbPolyline
 90
        2
 70
   128
 43
0.0
 10
0.2246630726500478
 20
0.1512431144777193
 10
0.2252366609975618
 20
0.1499314730718324
  0
LWPOLYLINE
  5
A77
330
2
100
AcDbEntity
  8
Profilo
  6
Continuous
370
     0
100
AcDbPolyline
 90
       11
 70
   128
 43
0.0
 10
0.2342213131934101
 20
0.1572249640169319
 10
0.2350917498118092
 20
0.1560319590576351
 10
0.2354140939730258
 20
0.1554193058995072
 10
0.2357363583315961
 20
0.1544841606175606
 10
0.2356878267313633
 20
0.1538230440191586
 10
0.2354619581643091
 20
0.1533070050435907
 10
0.2348652324013707
 20
0.1528070027501571
 10
0.2341072975508207
 20
0.1524682059587668
 10
0.2334300524146662
 20
0.1524035435523001
 10
0.2325432094231741
 20
0.1524194559674901
 10
0.2322691033883113
 20
0.1524677645222829
  0
LWPOLYLINE
  5
A78
330
2
100
AcDbEntity
  8
Profilo
  6
Continuous
370
     0
100
AcDbPolyline
 90
        2
 70
   128
 43
0.0
 10
0.2168585689670306
 20
0.1554371460711699
 10
0.2199313049589269
 20
0.1553240802915909
  0
LWPOLYLINE
  5
A79
330
2
100
AcDbEntity
  8
Profilo
  6
Continuous
370
     0
100
AcDbPolyline
 90
        2
 70
   128
 43
0.0
 10
0.2182806317628327
 20
0.153303624365527
 10
0.22139598601956
 20
0.1529487298184446
  0
LWPOLYLINE
  5
A7A
330
2
100
AcDbEntity
  8
Profilo
  6
Continuous
370
     0
100
AcDbPolyline
 90
        2
 70
   128
 43
0.0
 10
0.2198448620659303
 20
0.1508002695922435
 10
0.2225760364421663
 20
0.1500896373725742
  0
LWPOLYLINE
  5
A7B
330
2
100
AcDbEntity
  8
Profilo
  6
Continuous
370
     0
100
AcDbPolyline
 90
        2
 70
   128
 43
0.0
 10
0.2213861374726274
 20
0.1477779113021609
 10
0.2241029030779527
 20
0.1463133116570838
  0
LWPOLYLINE
  5
A7C
330
2
100
AcDbEntity
  8
Profilo
  6
Continuous
370
     0
100
AcDbPolyline
 90
        2
 70
   128
 43
0.0
 10
0.2192662168295238
 20
0.1465966651852129
 10
0.2197064925969658
 20
0.1435951366252319
  0
LWPOLYLINE
  5
A7D
330
2
100
AcDbEntity
  8
Profilo
  6
Continuous
370
     0
100
AcDbPolyline
 90
        2
 70
   128
 43
0.0
 10
0.2171276725193674
 20
0.1486479475575453
 10
0.2168993361993814
 20
0.1456320344039574
  0
LWPOLYLINE
  5
A7E
330
2
100
AcDbEntity
  8
Profilo
  6
Continuous
370
     0
100
AcDbPolyline
 90
        2
 70
   128
 43
0.0
 10
0.2153784351528354
 20
0.1508525196303334
 10
0.2148372876054458
 20
0.1484909142518833
  0
LWPOLYLINE
  5
A7F
330
2
100
AcDbEntity
  8
Profilo
  6
Continuous
370
     0
100
AcDbPolyline
 90
        2
 70
   128
 43
0.0
 10
0.2134835732188587
 20
0.1532611896930116
 10
0.2131844663783737
 20
0.1517389612940367
  0
LWPOLYLINE
  5
A80
330
2
100
AcDbEntity
  8
Profilo
  6
Continuous
370
     0
100
AcDbPolyline
 90
        6
 70
   128
 43
0.0
 10
0.2289585680115516
 20
0.1727507435349422
 10
0.2298497793784917
 20
0.1740614150868169
 10
0.2306709672014073
 20
0.1755402659046044
 10
0.2313607650368188
 20
0.1774134745741143
 10
0.2318979431782808
 20
0.178963176545714
 10
0.2321506200507719
 20
0.1797139300468236
  0
LWPOLYLINE
  5
A81
330
2
100
AcDbEntity
  8
Profilo
  6
Continuous
370
     0
100
AcDbPolyline
 90
       13
 70
   128
 43
0.0
 10
0.229226474555642
 20
0.1726089169937661
 10
0.2315158565840076
 20
0.1723769678863554
 10
0.2332256491797584
 20
0.1720000534391137
 10
0.2346746267714406
 20
0.1715071631704776
 10
0.2357758478162499
 20
0.1708403129728162
 10
0.236500336612091
 20
0.1703184306503656
 10
0.236761153220217
 20
0.1699125241493093
 10
0.236500336612091
 20
0.168665802450811
 10
0.2354570733877028
 20
0.1673321045908689
 10
0.2342689124041466
 20
0.1664043132319821
 10
0.2332256491797584
 20
0.1655635031052971
 10
0.2319505498615126
 20
0.1648386662646284
 10
0.230994224971814
 20
0.1643457759959923
  0
LWPOLYLINE
  5
A82
330
2
100
AcDbEntity
  8
Profilo
  6
Continuous
370
     0
100
AcDbPolyline
 90
        3
 70
   128
 43
0.0
 10
0.2248505644744418
 20
0.1672161287694736
 10
0.2289946368577271
 20
0.1679699601993358
 10
0.2312550415799399
 20
0.1684048612895856
  0
LWPOLYLINE
  5
A83
330
2
100
AcDbEntity
  8
Profilo
  6
Continuous
370
     0
100
AcDbPolyline
 90
        2
 70
   128
 43
0.0
 10
0.2308203483024349
 20
0.1691007060764389
 10
0.2328199364165218
 20
0.1706083664007845
  0
LWPOLYLINE
  5
A84
330
2
100
AcDbEntity
  8
Profilo
  6
Continuous
370
     0
100
AcDbPolyline
 90
        2
 70
   128
 43
0.0
 10
0.228067292482296
 20
0.1691586927194471
 10
0.2300958595065938
 20
0.1711012541340424
  0
LWPOLYLINE
  5
A85
330
2
100
AcDbEntity
  8
Profilo
  6
Continuous
370
     0
100
AcDbPolyline
 90
        2
 70
   128
 43
0.0
 10
0.2304146355391992
 20
0.1676510323951024
 10
0.2330807514205904
 20
0.1668682089114255
  0
LWPOLYLINE
  5
A86
330
2
100
AcDbEntity
  8
Profilo
  6
Continuous
370
     0
100
AcDbPolyline
 90
        2
 70
   128
 43
0.0
 10
0.2289946368577271
 20
0.1659694096063542
 10
0.2303276956004514
 20
0.1654475272839027
  0
LWPOLYLINE
  5
A87
330
2
100
AcDbEntity
  8
Profilo
  6
Continuous
370
     0
100
AcDbPolyline
 90
       11
 70
   128
 43
0.0
 10
0.2315235271889358
 20
0.1769579126839926
 10
0.2329826007211069
 20
0.1767298224227471
 10
0.2336437436660055
 20
0.1765245429623916
 10
0.2345328665495452
 20
0.1760911707054125
 10
0.2349660295558036
 20
0.1755893736519014
 10
0.2351712110193627
 20
0.1750647657974995
 10
0.2351028171981766
 20
0.1742892619517211
 10
0.2348064418342912
 20
0.1735137555705637
 10
0.234373280432091
 20
0.1729891477161618
 10
0.2337349359622736
 20
0.1723733067997171
 10
0.2335069544195751
 20
0.1722136438703834
  0
LWPOLYLINE
  5
A88
330
2
100
AcDbEntity
  8
Profilo
  6
Continuous
370
     0
100
AcDbPolyline
 90
        2
 70
   128
 43
0.0
 10
0.2205103911994297
 20
0.1634164203085358
 10
0.2227630932355571
 20
0.1655092231857416
  0
LWPOLYLINE
  5
A89
330
2
100
AcDbEntity
  8
Profilo
  6
Continuous
370
     0
100
AcDbPolyline
 90
        2
 70
   128
 43
0.0
 10
0.2230245691114843
 20
0.1629133428888525
 10
0.2254784055730625
 20
0.164865282668734
  0
LWPOLYLINE
  5
A8A
330
2
100
AcDbEntity
  8
Profilo
  6
Continuous
370
     0
100
AcDbPolyline
 90
        2
 70
   128
 43
0.0
 10
0.2259007861020463
 20
0.1622492816076053
 10
0.2283345108855435
 20
0.1636780206681867
  0
LWPOLYLINE
  5
A8B
330
2
100
AcDbEntity
  8
Profilo
  6
Continuous
370
     0
100
AcDbPolyline
 90
        2
 70
   128
 43
0.0
 10
0.2291277624358901
 20
0.1612019978572641
 10
0.2320844341590678
 20
0.1620874128989267
  0
LWPOLYLINE
  5
A8C
330
2
100
AcDbEntity
  8
Profilo
  6
Continuous
370
     0
100
AcDbPolyline
 90
        2
 70
   128
 43
0.0
 10
0.2284640193131184
 20
0.1588677204554041
 10
0.2308977424925573
 20
0.157056641237467
  0
LWPOLYLINE
  5
A8D
330
2
100
AcDbEntity
  8
Profilo
  6
Continuous
370
     0
100
AcDbPolyline
 90
        2
 70
   128
 43
0.0
 10
0.2255013644539345
 20
0.158806016947429
 10
0.2274724789360527
 20
0.1565119861448037
  0
LWPOLYLINE
  5
A8E
330
2
100
AcDbEntity
  8
Profilo
  6
Continuous
370
     0
100
AcDbPolyline
 90
        2
 70
   128
 43
0.0
 10
0.2227055989878717
 20
0.1591279872059332
 10
0.2239928570650789
 20
0.1570754309279621
  0
LWPOLYLINE
  5
A8F
330
2
100
AcDbEntity
  8
Profilo
  6
Continuous
370
     0
100
AcDbPolyline
 90
        2
 70
   128
 43
0.0
 10
0.2196625423299836
 20
0.1594913044179669
 10
0.220527419878207
 20
0.1582034259193299
  0
LWPOLYLINE
  5
A90
330
2
100
AcDbEntity
  8
Profilo
  6
Continuous
370
     0
100
AcDbPolyline
 90
        6
 70
   128
 43
0.0
 10
0.2168238204027948
 20
0.1842149738586349
 10
0.2165272172615889
 20
0.1857719402019078
 10
0.2160621792981794
 20
0.1873983131217396
 10
0.2152253814724587
 20
0.1892106324015956
 10
0.2145094190060557
 20
0.1906862794810649
 10
0.2141572256444095
 20
0.1913958119026868
  0
LWPOLYLINE
  5
A91
330
2
100
AcDbEntity
  8
Profilo
  6
Continuous
370
     0
100
AcDbPolyline
 90
       13
 70
   128
 43
0.0
 10
0.2171135454458626
 20
0.1843041258836684
 10
0.2188963957895873
 20
0.1857589506539115
 10
0.2203719204900367
 20
0.1867014378312182
 10
0.221745028422236
 20
0.1873774936607506
 10
0.2229952435874076
 20
0.1876846402323182
 10
0.2238765610570268
 20
0.1878279046435654
 10
0.2243480054887033
 20
0.1877253105963921
 10
0.2250451456637124
 20
0.1866593200368798
 10
0.2252505139640042
 20
0.1849785547355336
 10
0.225066404836785
 20
0.1834823504855243
 10
0.2249232488785267
 20
0.1821501094427274
 10
0.224534154549199
 20
0.1807359410228187
 10
0.2242064567860091
 20
0.179711191156962
  0
LWPOLYLINE
  5
A92
330
2
100
AcDbEntity
  8
Profilo
  6
Continuous
370
     0
100
AcDbPolyline
 90
        3
 70
   128
 43
0.0
 10
0.2178325868764834
 20
0.1773966130684887
 10
0.2202298492445052
 20
0.1808599540683642
 10
0.2215206752417473
 20
0.1827658230857279
  0
LWPOLYLINE
  5
A93
330
2
100
AcDbEntity
  8
Profilo
  6
Continuous
370
     0
100
AcDbPolyline
 90
        2
 70
   128
 43
0.0
 10
0.22072126411005
 20
0.1829504850889063
 10
0.2210691095860304
 20
0.1854304842430277
  0
LWPOLYLINE
  5
A94
330
2
100
AcDbEntity
  8
Profilo
  6
Continuous
370
     0
100
AcDbPolyline
 90
        2
 70
   128
 43
0.0
 10
0.2187335569221553
 20
0.1810447833979896
 10
0.2187943720719958
 20
0.1838527952460942
  0
LWPOLYLINE
  5
A95
330
2
100
AcDbEntity
  8
Profilo
  6
Continuous
370
     0
100
AcDbPolyline
 90
        2
 70
   128
 43
0.0
 10
0.2214594559545326
 20
0.181638528752226
 10
0.2238982243674736
 20
0.182970217577608
  0
LWPOLYLINE
  5
A96
330
2
100
AcDbEntity
  8
Profilo
  6
Continuous
370
     0
100
AcDbPolyline
 90
        2
 70
   128
 43
0.0
 10
0.221644452134909
 20
0.1794453511779603
 10
0.2229560935407968
 20
0.1800189395254743
  0
LWPOLYLINE
  5
A97
330
2
100
AcDbEntity
  8
Profilo
  6
Continuous
370
     0
100
AcDbPolyline
 90
       11
 70
   128
 43
0.0
 10
0.2156626025956974
 20
0.1890035917213226
 10
0.2168556075549941
 20
0.1898740283397218
 10
0.2174682607131211
 20
0.1901963725009375
 10
0.2184034059950686
 20
0.1905186368595087
 10
0.2190645225934698
 20
0.190470105259275
 10
0.2195805615690376
 20
0.1902442366922208
 10
0.2200805638624721
 20
0.1896475109292823
 10
0.2204193606538616
 20
0.1888895760787332
 10
0.2204840230603291
 20
0.1882123309425778
 10
0.2204681106451383
 20
0.1873254879510866
 10
0.2204198020903463
 20
0.187051381916223
  0
LWPOLYLINE
  5
A98
330
2
100
AcDbEntity
  8
Profilo
  6
Continuous
370
     0
100
AcDbPolyline
 90
        2
 70
   128
 43
0.0
 10
0.2174504205414585
 20
0.1716408474949422
 10
0.2175634863210383
 20
0.1747135834868385
  0
LWPOLYLINE
  5
A99
330
2
100
AcDbEntity
  8
Profilo
  6
Continuous
370
     0
100
AcDbPolyline
 90
        2
 70
   128
 43
0.0
 10
0.2195839422471022
 20
0.1730629102907444
 10
0.2199388367941846
 20
0.1761782645474716
  0
LWPOLYLINE
  5
A9A
330
2
100
AcDbEntity
  8
Profilo
  6
Continuous
370
     0
100
AcDbPolyline
 90
        2
 70
   128
 43
0.0
 10
0.2220872970203849
 20
0.1746271405938429
 10
0.222797929240055
 20
0.1773583149700779
  0
LWPOLYLINE
  5
A9B
330
2
100
AcDbEntity
  8
Profilo
  6
Continuous
370
     0
100
AcDbPolyline
 90
        2
 70
   128
 43
0.0
 10
0.2251096553104674
 20
0.176168416000539
 10
0.2265742549555454
 20
0.1788851816058643
  0
LWPOLYLINE
  5
A9C
330
2
100
AcDbEntity
  8
Profilo
  6
Continuous
370
     0
100
AcDbPolyline
 90
        2
 70
   128
 43
0.0
 10
0.2262909014274155
 20
0.1740484953574355
 10
0.2292924299873973
 20
0.1744887711248775
  0
LWPOLYLINE
  5
A9D
330
2
100
AcDbEntity
  8
Profilo
  6
Continuous
370
     0
100
AcDbPolyline
 90
        2
 70
   128
 43
0.0
 10
0.2242396190550839
 20
0.171909951047279
 10
0.2272555322086718
 20
0.171681614727293
  0
LWPOLYLINE
  5
A9E
330
2
100
AcDbEntity
  8
Profilo
  6
Continuous
370
     0
100
AcDbPolyline
 90
        2
 70
   128
 43
0.0
 10
0.2220350469822949
 20
0.1701607136807479
 10
0.2243966523607459
 20
0.1696195661333575
  0
LWPOLYLINE
  5
A9F
330
2
100
AcDbEntity
  8
Profilo
  6
Continuous
370
     0
100
AcDbPolyline
 90
        2
 70
   128
 43
0.0
 10
0.2196263769196167
 20
0.1682658517467712
 10
0.2211486053185916
 20
0.1679667449062854
  0
LWPOLYLINE
  5
AA0
330
2
100
AcDbEntity
  8
Profilo
  6
Continuous
370
     0
100
AcDbPolyline
 90
        2
 70
   128
 43
0.0
 10
0.1994987722450712
 20
0.1851112060448386
 10
0.1983980579269908
 20
0.1876487310197796
  0
LWPOLYLINE
  5
AA1
330
2
100
AcDbEntity
  8
Profilo
  6
Continuous
370
     0
100
AcDbPolyline
 90
        2
 70
   128
 43
0.0
 10
0.2088193461135552
 20
0.1871518740820126
 10
0.2087128247188041
 20
0.1902394930727112
  0
LWPOLYLINE
  5
AA2
330
2
100
AcDbEntity
  8
Profilo
  6
Continuous
370
     0
100
AcDbPolyline
 90
        2
 70
   128
 43
0.0
 10
0.1872524321845952
 20
0.172123919359136
 10
0.1846798085089207
 20
0.1731398979178835
  0
LWPOLYLINE
  5
AA3
330
2
100
AcDbEntity
  8
Profilo
  6
Continuous
370
     0
100
AcDbPolyline
 90
        2
 70
   128
 43
0.0
 10
0.1924001029643141
 20
0.1801575305533274
 10
0.1901415046377006
 20
0.1822654848788008
  0
LWPOLYLINE
  5
AA4
330
2
100
AcDbEntity
  8
Profilo
  6
Continuous
370
     0
100
AcDbPolyline
 90
        2
 70
   128
 43
0.0
 10
0.1877763605677898
 20
0.1542810507729828
 10
0.1852388355928496
 20
0.1531803364549025
  0
LWPOLYLINE
  5
AA5
330
2
100
AcDbEntity
  8
Profilo
  6
Continuous
370
     0
100
AcDbPolyline
 90
        2
 70
   128
 43
0.0
 10
0.1857356925306157
 20
0.1636016246414669
 10
0.1826480735399181
 20
0.1634951032467158
  0
LWPOLYLINE
  5
AA6
330
2
100
AcDbEntity
  8
Profilo
  6
Continuous
370
     0
100
AcDbPolyline
 90
        2
 70
   128
 43
0.0
 10
0.2007636472534933
 20
0.1420347107125068
 10
0.1997476686947457
 20
0.1394620870368324
  0
LWPOLYLINE
  5
AA7
330
2
100
AcDbEntity
  8
Profilo
  6
Continuous
370
     0
100
AcDbPolyline
 90
        2
 70
   128
 43
0.0
 10
0.1927300360593009
 20
0.1471823814922257
 10
0.1906220817338276
 20
0.1449237831656132
  0
LWPOLYLINE
  5
AA8
330
2
100
AcDbEntity
  8
Profilo
  6
Continuous
370
     0
100
AcDbPolyline
 90
        2
 70
   128
 43
0.0
 10
0.2186065158396464
 20
0.1425586390957023
 10
0.2197072301577259
 20
0.1400211141207612
  0
LWPOLYLINE
  5
AA9
330
2
100
AcDbEntity
  8
Profilo
  6
Continuous
370
     0
100
AcDbPolyline
 90
        2
 70
   128
 43
0.0
 10
0.2092859419711615
 20
0.1405179710585282
 10
0.2093924633659125
 20
0.1374303520678297
  0
LWPOLYLINE
  5
AAA
330
2
100
AcDbEntity
  8
Profilo
  6
Continuous
370
     0
100
AcDbPolyline
 90
        2
 70
   128
 43
0.0
 10
0.2308528559001224
 20
0.1555459257814049
 10
0.2334254795757968
 20
0.1545299472226573
  0
LWPOLYLINE
  5
AAB
330
2
100
AcDbEntity
  8
Profilo
  6
Continuous
370
     0
100
AcDbPolyline
 90
        2
 70
   128
 43
0.0
 10
0.2257051851204035
 20
0.1475123145872135
 10
0.2279637834470161
 20
0.1454043602617401
  0
LWPOLYLINE
  5
AAC
330
2
100
AcDbEntity
  8
Profilo
  6
Continuous
370
     0
100
AcDbPolyline
 90
        2
 70
   128
 43
0.0
 10
0.2303289275169269
 20
0.173388794367558
 10
0.232866452491868
 20
0.1744895086856384
  0
LWPOLYLINE
  5
AAD
330
2
100
AcDbEntity
  8
Profilo
  6
Continuous
370
     0
100
AcDbPolyline
 90
        2
 70
   128
 43
0.0
 10
0.232369595554101
 20
0.164068220499074
 10
0.2354572145447995
 20
0.1641747418938251
  0
LWPOLYLINE
  5
AAE
330
2
100
AcDbEntity
  8
Profilo
  6
Continuous
370
     0
100
AcDbPolyline
 90
        2
 70
   128
 43
0.0
 10
0.2173416408312243
 20
0.185635134428034
 10
0.218357619389971
 20
0.1882077581037085
  0
LWPOLYLINE
  5
AAF
330
2
100
AcDbEntity
  8
Profilo
  6
Continuous
370
     0
100
AcDbPolyline
 90
        2
 70
   128
 43
0.0
 10
0.2253752520254157
 20
0.1804874636483151
 10
0.2274832063508891
 20
0.1827460619749277
  0
LWPOLYLINE
  5
AB0
330
2
100
AcDbEntity
  8
Profilo
  6
Continuous
370
     0
100
AcDbPolyline
 90
       25
 70
   128
 43
0.0
 10
0.2107316249666487
 20
0.1940171505075079
 10
0.2124806862896702
 20
0.1930181673017377
 10
0.2140155740443537
 20
0.1925186765008822
 10
0.2156932441779298
 20
0.1920905406121149
 10
0.2174779985602959
 20
0.1915196948991702
 10
0.2192984485373848
 20
0.1910202024942564
 10
0.22033360810746
 20
0.1907347796377832
 10
0.2214758493909472
 20
0.1906991021817386
 10
0.2217257160186299
 20
0.1915196948991702
 10
0.2219755826463126
 20
0.1926257104730733
 10
0.2228679598374961
 20
0.1934106257344603
 10
0.2239745080616386
 20
0.1943025733639803
 10
0.2246170186251386
 20
0.1944809622482606
 10
0.2253666159728085
 20
0.1944809622482606
 10
0.2236889458392333
 20
0.1953372340257942
 10
0.2226180932098134
 20
0.1958367248266506
 10
0.2215115449856699
 20
0.1958724022826952
 10
0.2206905589839336
 20
0.1958724022826952
 10
0.2191199730991484
 20
0.1945879962204526
 10
0.2184417669409249
 20
0.1938387600191684
 10
0.2170139634350323
 20
0.1943025733639803
 10
0.2160144994596798
 20
0.1945879962204526
 10
0.2147651713920236
 20
0.1946593527366001
 10
0.2125163793490148
 20
0.1949090981370278
 10
0.2116953933472776
 20
0.1950161321092199
  0
LWPOLYLINE
  5
AB1
330
2
100
AcDbEntity
  8
Profilo
  6
Continuous
370
     0
100
AcDbPolyline
 90
        5
 70
   128
 43
0.0
 10
0.2205120835456973
 20
0.196229181655315
 10
0.2166927056179033
 20
0.1976562991457933
 10
0.2150507310790508
 20
0.1979774010623685
 10
0.2129090258202111
 20
0.1979774010623685
 10
0.2123022083160557
 20
0.1980130785184131
  0
LWPOLYLINE
  5
AB2
330
2
100
AcDbEntity
  8
Profilo
  6
Continuous
370
     0
100
AcDbPolyline
 90
       25
 70
   128
 43
0.0
 10
0.19905358157034
 20
0.1923621833900575
 10
0.2010517978498458
 20
0.1921085800434352
 10
0.2026609960852066
 20
0.1922344868301038
 10
0.2043748016953537
 20
0.192480957410432
 10
0.206242152936563
 20
0.1926365606729923
 10
0.2081151768783092
 20
0.1928717459091289
 10
0.2091807662163752
 20
0.1930041879912454
 10
0.210249712730715
 20
0.1934083431347875
 10
0.2101665321562085
 20
0.1942620917696654
 10
0.209974124983312
 20
0.1953795367397482
 10
0.2104981999391824
 20
0.1964462018509852
 10
0.2111791836148504
 20
0.1976937116824637
 10
0.2117045195033582
 20
0.1981043996692491
 10
0.2123970571504947
 20
0.1983912581551466
 10
0.210519411028915
 20
0.1985403335595843
 10
0.2093389253481512
 20
0.1985920053273893
 10
0.2083029549207924
 20
0.1982015093263079
 10
0.2075444627573089
 20
0.1978873315852403
 10
0.2065849515247549
 20
0.1960996579156871
 10
0.2062450910175086
 20
0.1951479156638238
 10
0.2047484788991976
 20
0.1950300265736229
 10
0.2037158679904958
 20
0.1949112446042158
 10
0.2025343324028763
 20
0.194499072275915
 10
0.2003611460344135
 20
0.1938692314820156
 10
0.1995616937430715
 20
0.1936539402371378
  0
LWPOLYLINE
  5
AB3
330
2
100
AcDbEntity
  8
Profilo
  6
Continuous
370
     0
100
AcDbPolyline
 90
        5
 70
   128
 43
0.0
 10
0.2072430393979556
 20
0.1981486531519283
 10
0.2031682600838969
 20
0.198005525136963
 10
0.2015283930309724
 20
0.1976738281731527
 10
0.1995497153776582
 20
0.1968542330535859
 10
0.1989754359342624
 20
0.1966549757196874
  0
LWPOLYLINE
  5
AB4
330
2
100
AcDbEntity
  8
Profilo
  6
Continuous
370
     0
100
AcDbPolyline
 90
       25
 70
   128
 43
0.0
 10
0.1888978047936685
 20
0.1863641994130574
 10
0.1908409657149792
 20
0.1868945847361858
 10
0.192279488587102
 20
0.1876267209434572
 10
0.1937685183053639
 20
0.1885102750812862
 10
0.1954341791065217
 20
0.1893686381331752
 10
0.1970746260967986
 20
0.1903026961901202
 10
0.1980084188857263
 20
0.1908328401044135
 10
0.1988413332141357
 20
0.1916152988906137
 10
0.1984377689258747
 20
0.1923722279525282
 10
0.1978323802002966
 20
0.1933309814517599
 10
0.1979083672595743
 20
0.1945170063190047
 10
0.1980601127952792
 20
0.1959301562893026
 10
0.198388296381951
 20
0.1965106198555007
 10
0.1989183417496476
 20
0.1970406652231973
 10
0.1971265742411696
 20
0.1964598488755853
 10
0.1960161737528297
 20
0.1960558350520967
 10
0.1952084982287237
 20
0.195298615070199
 10
0.1946279734596366
 20
0.1947180903011119
 10
0.1944256137664779
 20
0.1926993061351365
 10
0.1944758395915938
 20
0.1916899519629758
 10
0.1931382644890545
 20
0.1910083079830778
 10
0.192229712297213
 20
0.1905034046658716
 10
0.191295847272198
 20
0.1896704529937554
 10
0.189529114502895
 20
0.1882569135568777
 10
0.1888729052862534
 20
0.1877520732353442
  0
LWPOLYLINE
  5
AB5
330
2
100
AcDbEntity
  8
Profilo
  6
Continuous
370
     0
100
AcDbPolyline
 90
        5
 70
   128
 43
0.0
 10
0.1942494911532173
 20
0.1948441702222268
 10
0.1905396586654926
 20
0.1931525866446369
 10
0.1891515539918722
 20
0.1922185886563406
 10
0.1876371396800436
 20
0.1907041743445128
 10
0.1871828271368083
 20
0.1903003173434859
  0
LWPOLYLINE
  5
AB6
330
2
100
AcDbEntity
  8
Profilo
  6
Continuous
370
     0
100
AcDbPolyline
 90
       25
 70
   128
 43
0.0
 10
0.1818104195885373
 20
0.1769363372651465
 10
0.1834026965161812
 20
0.1781699649005346
 10
0.1844515419580275
 20
0.179396869427682
 10
0.1854891045078859
 20
0.1807829940149657
 10
0.1866994931112704
 20
0.1822134388626133
 10
0.1878576199664965
 20
0.1837041678684543
 10
0.1885174547190238
 20
0.1845513040097395
 10
0.1889875332053896
 20
0.1855929441814053
 10
0.1883250242079426
 20
0.1861378180822597
 10
0.1873988188752898
 20
0.1867919185815041
 10
0.1870151496970247
 20
0.1879167416700605
 10
0.1866145552105318
 20
0.1892803925064377
 10
0.1866956235192885
 20
0.1899422613360104
 10
0.1869824820051869
 20
0.190634798983147
 10
0.1855493734705633
 20
0.1894125149072949
 10
0.1846781065831906
 20
0.1886143229347446
 10
0.1842216872392872
 20
0.187605658850059
 10
0.1839075094982188
 20
0.1868471666865763
 10
0.1844931087733444
 20
0.1849046136131229
 10
0.1849257745042467
 20
0.1839913125435575
 10
0.1839508701016919
 20
0.1828496877907848
 10
0.1833046954618731
 20
0.1820355300788648
 10
0.1827606734840122
 20
0.1809086084042861
 10
0.1816693633625248
 20
0.1789265688899291
 10
0.1812562991252649
 20
0.1782090368543039
  0
LWPOLYLINE
  5
AB7
330
2
100
AcDbEntity
  8
Profilo
  6
Continuous
370
     0
100
AcDbPolyline
 90
        5
 70
   128
 43
0.0
 10
0.1835095887449358
 20
0.1868188104370447
 10
0.1807294914500859
 20
0.1838362995622753
 10
0.1798044755091284
 20
0.1824421932764992
 10
0.1789848803895606
 20
0.1804635156231851
 10
0.1787196997128402
 20
0.1799165425224634
  0
LWPOLYLINE
  5
AB8
330
2
100
AcDbEntity
  8
Profilo
  6
Continuous
370
     0
100
AcDbPolyline
 90
       25
 70
   128
 43
0.0
 10
0.1788704161051213
 20
0.1655139034945603
 10
0.1798693993108906
 20
0.1672629648175818
 10
0.1803688901117471
 20
0.1687978525722653
 10
0.1807970260005134
 20
0.1704755227058414
 10
0.181367871713459
 20
0.1722602770882076
 10
0.1818673641183728
 20
0.1740807270652964
 10
0.1821527869748452
 20
0.1751158866353717
 10
0.1821884644308898
 20
0.1762581279188589
 10
0.181367871713459
 20
0.1765079945465415
 10
0.180261856139555
 20
0.1767578611742251
 10
0.1794769408781689
 20
0.1776502383654077
 10
0.178584993248649
 20
0.1787567865895503
 10
0.1784066043643677
 20
0.1793992971530502
 10
0.1784066043643677
 20
0.1801488945007201
 10
0.1775503325868342
 20
0.1784712243671449
 10
0.1770508417859786
 20
0.177400371737725
 10
0.177015164329934
 20
0.1762938235135816
 10
0.177015164329934
 20
0.1754728375118453
 10
0.1782995703921757
 20
0.1739022516270601
 10
0.1790488065934599
 20
0.1732240454688365
 10
0.178584993248649
 20
0.171796241962944
 10
0.1782995703921757
 20
0.1707967779875914
 10
0.1782282138760292
 20
0.1695474499199352
 10
0.1779784684756014
 20
0.1672986578769273
 10
0.1778714345034094
 20
0.1664776718751892
  0
LWPOLYLINE
  5
AB9
330
2
100
AcDbEntity
  8
Profilo
  6
Continuous
370
     0
100
AcDbPolyline
 90
        5
 70
   128
 43
0.0
 10
0.1766583849573142
 20
0.1752943620736089
 10
0.1752312674668359
 20
0.171474984145815
 10
0.1749101655502598
 20
0.1698330096069625
 10
0.1749101655502598
 20
0.1676913043481227
 10
0.1748744880942161
 20
0.1670844868439674
  0
LWPOLYLINE
  5
ABA
330
2
100
AcDbEntity
  8
Profilo
  6
Continuous
370
     0
100
AcDbPolyline
 90
       25
 70
   128
 43
0.0
 10
0.1805253832225717
 20
0.1538358600982517
 10
0.180778986569194
 20
0.1558340763777575
 10
0.1806530797825254
 20
0.1574432746131182
 10
0.1804066092021972
 20
0.1591570802232662
 10
0.1802510059396361
 20
0.1610244314644746
 10
0.1800158207034994
 20
0.1628974554062208
 10
0.1798833786213838
 20
0.1639630447442868
 10
0.1794792234778417
 20
0.1650319912586275
 10
0.1786254748429639
 20
0.164948810684121
 10
0.1775080298728802
 20
0.1647564035112237
 10
0.1764413647616432
 20
0.165280478467094
 10
0.1751938549301655
 20
0.1659614621427621
 10
0.1747831669433801
 20
0.1664867980312699
 10
0.1744963084574818
 20
0.1671793356784064
 10
0.1743472330530449
 20
0.1653016895568267
 10
0.1742955612852399
 20
0.1641212038760638
 10
0.1746860572863205
 20
0.1630852334487041
 10
0.1750002350273889
 20
0.1623267412852214
 10
0.1767879086969422
 20
0.1613672300526665
 10
0.1777396509488045
 20
0.1610273695454203
 10
0.1778575400390054
 20
0.1595307574271092
 10
0.1779763220084125
 20
0.1584981465184083
 10
0.1783884943367142
 20
0.157316610930788
 10
0.1790183351306136
 20
0.1551434245623251
 10
0.1792336263754906
 20
0.1543439722709832
  0
LWPOLYLINE
  5
ABB
330
2
100
AcDbEntity
  8
Profilo
  6
Continuous
370
     0
100
AcDbPolyline
 90
        5
 70
   128
 43
0.0
 10
0.1747389134607009
 20
0.1620253179258673
 10
0.1748820414756662
 20
0.1579505386118085
 10
0.1752137384394765
 20
0.156310671558884
 10
0.1760333335590434
 20
0.1543319939055707
 10
0.176232590892941
 20
0.1537577144621749
  0
LWPOLYLINE
  5
ABC
330
2
100
AcDbEntity
  8
Profilo
  6
Continuous
370
     0
100
AcDbPolyline
 90
       25
 70
   128
 43
0.0
 10
0.1865233671995719
 20
0.1436800833215801
 10
0.1859929818764434
 20
0.1456232442428909
 10
0.185260845669172
 20
0.1470617671150136
 10
0.1843772915313431
 20
0.1485507968332755
 10
0.1835189284794541
 20
0.1502164576344342
 10
0.182584870422509
 20
0.1518569046247102
 10
0.1820547265082158
 20
0.1527906974136379
 10
0.1812722677220155
 20
0.1536236117420473
 10
0.1805153386601011
 20
0.1532200474537864
 10
0.1795565851608694
 20
0.1526146587282082
 10
0.1783705602936245
 20
0.1526906457874868
 10
0.1769574103233258
 20
0.1528423913231909
 10
0.1763769467571277
 20
0.1531705749098626
 10
0.175846901389431
 20
0.1537006202775593
 10
0.1764277177370439
 20
0.1519088527690813
 10
0.1768317315605326
 20
0.1507984522807413
 10
0.1775889515424294
 20
0.1499907767566353
 10
0.1781694763115165
 20
0.1494102519875482
 10
0.1801882604774927
 20
0.1492078922943896
 10
0.1811976146496535
 20
0.1492581181195054
 10
0.1818792586295515
 20
0.1479205430169661
 10
0.1823841619467568
 20
0.1470119908251255
 10
0.1832171136188738
 20
0.1460781258001096
 10
0.1846306530557507
 20
0.1443113930308066
 10
0.1851354933772842
 20
0.1436551838141651
  0
LWPOLYLINE
  5
ABD
330
2
100
AcDbEntity
  8
Profilo
  6
Continuous
370
     0
100
AcDbPolyline
 90
        5
 70
   128
 43
0.0
 10
0.1780433963904024
 20
0.149031769681129
 10
0.1797349799679924
 20
0.1453219371934051
 10
0.1806689779562878
 20
0.1439338325197839
 10
0.1821833922681164
 20
0.1424194182079561
 10
0.1825872492691425
 20
0.14196510566472
  0
LWPOLYLINE
  5
ABE
330
2
100
AcDbEntity
  8
Profilo
  6
Continuous
370
     0
100
AcDbPolyline
 90
       25
 70
   128
 43
0.0
 10
0.1959512293474828
 20
0.1365926981164498
 10
0.1947176017120946
 20
0.1381849750440938
 10
0.1934906971849464
 20
0.1392338204859391
 10
0.1921045725976627
 20
0.1402713830357975
 10
0.190674127750015
 20
0.1414817716391821
 10
0.1891833987441749
 20
0.1426398984944082
 10
0.1883362626028897
 20
0.1432997332469363
 10
0.187294622431224
 20
0.1437698117333022
 10
0.1867497485303695
 20
0.1431073027358543
 10
0.1860956480311251
 20
0.1421810974032014
 10
0.1849708249425679
 20
0.1417974282249372
 10
0.1836071741061915
 20
0.1413968337384444
 10
0.1829453052766188
 20
0.1414779020472001
 10
0.1822527676294823
 20
0.1417647605330985
 10
0.1834750517053343
 20
0.140331651998475
 10
0.1842732436778847
 20
0.1394603851111031
 10
0.1852819077625694
 20
0.1390039657671989
 10
0.1860403999260529
 20
0.1386897880261304
 10
0.1879829529995063
 20
0.139275387301256
 10
0.1888962540690717
 20
0.1397080530321584
 10
0.1900378788218444
 20
0.1387331486296035
 10
0.1908520365337645
 20
0.1380869739897848
 10
0.1919789582083431
 20
0.1375429520119247
 10
0.1939609977226993
 20
0.1364516418904365
 10
0.1946785297583253
 20
0.1360385776531765
  0
LWPOLYLINE
  5
ABF
330
2
100
AcDbEntity
  8
Profilo
  6
Continuous
370
     0
100
AcDbPolyline
 90
        5
 70
   128
 43
0.0
 10
0.1860687561755845
 20
0.1382918672728475
 10
0.189051267050353
 20
0.1355117699779984
 10
0.19044537333613
 20
0.13458675403704
 10
0.1924240509894433
 20
0.1337671589174731
 10
0.192971024090165
 20
0.1335019782407518
  0
LWPOLYLINE
  5
AC0
330
2
100
AcDbEntity
  8
Profilo
  6
Continuous
370
     0
100
AcDbPolyline
 90
       25
 70
   128
 43
0.0
 10
0.207373663118068
 20
0.133652694633033
 10
0.2056246017950465
 20
0.1346516778388032
 10
0.204089714040363
 20
0.1351511686396587
 10
0.2024120439067878
 20
0.1355793045284259
 10
0.2006272895244208
 20
0.1361501502413707
 10
0.1988068395473319
 20
0.1366496426462844
 10
0.1977716799772566
 20
0.1369350655027568
 10
0.1966294386937695
 20
0.1369707429588014
 10
0.1963795720660868
 20
0.1361501502413707
 10
0.1961297054384041
 20
0.1350441346674667
 10
0.1952373282472215
 20
0.1342592194060805
 10
0.194130780023078
 20
0.1333672717765606
 10
0.1934882694595781
 20
0.1331888828922794
 10
0.1927386721119082
 20
0.1331888828922794
 10
0.1944163422454843
 20
0.1323326111147458
 10
0.1954871948749042
 20
0.1318331203138903
 10
0.1965937430990468
 20
0.1317974428578457
 10
0.197414729100784
 20
0.1317974428578457
 10
0.1989853149855683
 20
0.1330818489200882
 10
0.1996635211437918
 20
0.1338310851213715
 10
0.2010913246496844
 20
0.1333672717765606
 10
0.2020907886250369
 20
0.1330818489200882
 10
0.2033401166926931
 20
0.1330104924039408
 10
0.2055889087357019
 20
0.132760747003513
 10
0.2064098947374391
 20
0.132653713031321
  0
LWPOLYLINE
  5
AC1
330
2
100
AcDbEntity
  8
Profilo
  6
Continuous
370
     0
100
AcDbPolyline
 90
        5
 70
   128
 43
0.0
 10
0.1975932045390203
 20
0.1314406634852259
 10
0.2014125824668134
 20
0.1300135459947476
 10
0.2030545570056668
 20
0.1296924440781724
 10
0.2051962622645056
 20
0.1296924440781724
 10
0.205803079768661
 20
0.1296567666221278
  0
LWPOLYLINE
  5
AC2
330
2
100
AcDbEntity
  8
Profilo
  6
Continuous
370
     0
100
AcDbPolyline
 90
       25
 70
   128
 43
0.0
 10
0.2190517065143775
 20
0.1353076617504834
 10
0.2170534902348717
 20
0.1355612650971056
 10
0.215444291999511
 20
0.1354353583104371
 10
0.213730486389363
 20
0.1351888877301088
 10
0.2118631351481546
 20
0.1350332844675486
 10
0.2099901112064084
 20
0.1347980992314111
 10
0.2089245218683415
 20
0.1346656571492955
 10
0.2078555753540017
 20
0.1342615020057534
 10
0.2079387559285082
 20
0.1334077533708755
 10
0.2081311631014056
 20
0.1322903084007918
 10
0.2076070881455343
 20
0.1312236432895557
 10
0.2069261044698671
 20
0.1299761334580771
 10
0.2064007685813594
 20
0.1295654454712918
 10
0.205708230934222
 20
0.1292785869853934
 10
0.2075858770558017
 20
0.1291295115809565
 10
0.2087663627365655
 20
0.1290778398131516
 10
0.2098023331639252
 20
0.1294683358142321
 10
0.2105608253274078
 20
0.1297825135553006
 10
0.2115203365599627
 20
0.1315701872248538
 10
0.2118601970672089
 20
0.1325219294767161
 10
0.21335680918552
 20
0.1326398185669171
 10
0.2143894200942209
 20
0.132758600536325
 10
0.2155709556818413
 20
0.1331707728646259
 10
0.2177441420503041
 20
0.1338006136585252
 10
0.2185435943416452
 20
0.1340159049034022
  0
LWPOLYLINE
  5
AC3
330
2
100
AcDbEntity
  8
Profilo
  6
Continuous
370
     0
100
AcDbPolyline
 90
        5
 70
   128
 43
0.0
 10
0.2108622486867619
 20
0.1295211919886126
 10
0.2149370280008198
 20
0.1296643200035779
 10
0.2165768950537443
 20
0.1299960169673882
 10
0.2185555727070585
 20
0.130815612086955
 10
0.2191298521504543
 20
0.1310148694208535
  0
LWPOLYLINE
  5
AC4
330
2
100
AcDbEntity
  8
Profilo
  6
Continuous
370
     0
100
AcDbPolyline
 90
       25
 70
   128
 43
0.0
 10
0.2292074832910482
 20
0.1413056457274835
 10
0.2272643223697375
 20
0.1407752604043551
 10
0.2258257994976147
 20
0.1400431241970836
 10
0.2243367697793537
 20
0.1391595700592547
 10
0.222671108978195
 20
0.1383012070073657
 10
0.221030661987919
 20
0.1373671489504207
 10
0.2200968691989904
 20
0.1368370050361274
 10
0.219263954870581
 20
0.1360545462499272
 10
0.219667519158842
 20
0.1352976171880127
 10
0.220272907884421
 20
0.134338863688781
 10
0.2201969208251424
 20
0.1331528388215362
 10
0.2200451752894375
 20
0.1317396888512383
 10
0.2197169917027657
 20
0.1311592252850393
 10
0.2191869463350691
 20
0.1306291799173427
 10
0.2209787138435471
 20
0.1312099962649555
 10
0.222089114331887
 20
0.1316140100884442
 10
0.222896789855993
 20
0.132371230070341
 10
0.2234773146250801
 20
0.132951754839429
 10
0.2236796743182396
 20
0.1349705390054043
 10
0.2236294484931229
 20
0.1359798931775651
 10
0.2249670235956631
 20
0.1366615371574631
 10
0.2258755757875037
 20
0.1371664404746693
 10
0.2268094408125196
 20
0.1379993921467855
 10
0.2285761735818217
 20
0.1394129315836623
 10
0.2292323827984632
 20
0.1399177719051958
  0
LWPOLYLINE
  5
AC5
330
2
100
AcDbEntity
  8
Profilo
  6
Continuous
370
     0
100
AcDbPolyline
 90
        5
 70
   128
 43
0.0
 10
0.2238557969314994
 20
0.1328256749183141
 10
0.2275656294192241
 20
0.134517258495904
 10
0.2289537340928445
 20
0.1354512564841994
 10
0.2304681484046731
 20
0.1369656707960281
 10
0.2309224609479084
 20
0.137369527797055
  0
LWPOLYLINE
  5
AC6
330
2
100
AcDbEntity
  8
Profilo
  6
Continuous
370
     0
100
AcDbPolyline
 90
       25
 70
   128
 43
0.0
 10
0.2362948684961794
 20
0.1507335078753944
 10
0.2347025915685355
 20
0.1494998802400063
 10
0.2336537461266892
 20
0.1482729757128589
 10
0.2326161835768308
 20
0.1468868511255743
 10
0.2314057949734471
 20
0.1454564062779275
 10
0.2302476681182202
 20
0.1439656772720865
 10
0.2295878333656929
 20
0.1431185411308014
 10
0.2291177548793271
 20
0.1420769009591356
 10
0.2297802638767741
 20
0.1415320270582812
 10
0.2307064692094278
 20
0.1408779265590367
 10
0.231090138387692
 20
0.1397531034704795
 10
0.2314907328741849
 20
0.1383894526341032
 10
0.2314096645654282
 20
0.1377275838045304
 10
0.2311228060795307
 20
0.1370350461573939
 10
0.2325559146141543
 20
0.1382573302332459
 10
0.2334271815015261
 20
0.1390555222057963
 10
0.2338836008454304
 20
0.1400641862904819
 10
0.2341977785864979
 20
0.1408226784539646
 10
0.2336121793113732
 20
0.1427652315274179
 10
0.2331795135804699
 20
0.1436785325969834
 10
0.2341544179830248
 20
0.1448201573497561
 10
0.2348005926228445
 20
0.1456343150616761
 10
0.2353446146007045
 20
0.1467612367362547
 10
0.2364359247221928
 20
0.1487432762506118
 10
0.2368489889594518
 20
0.149460808286237
  0
LWPOLYLINE
  5
AC7
330
2
100
AcDbEntity
  8
Profilo
  6
Continuous
370
     0
100
AcDbPolyline
 90
        5
 70
   128
 43
0.0
 10
0.2345956993397809
 20
0.1408510347034961
 10
0.2373757966346308
 20
0.1438335455782655
 10
0.2383008125755892
 20
0.1452276518640416
 10
0.2391204076951561
 20
0.1472063295173558
 10
0.2393855883718765
 20
0.1477533026180775
  0
LWPOLYLINE
  5
AC8
330
2
100
AcDbEntity
  8
Profilo
  6
Continuous
370
     0
100
AcDbPolyline
 90
       25
 70
   128
 43
0.0
 10
0.2392348719795962
 20
0.1621559416459806
 10
0.2382358887738261
 20
0.1604068803229581
 10
0.2377363979729696
 20
0.1588719925682747
 10
0.2373082620842033
 20
0.1571943224346994
 10
0.2367374163712586
 20
0.1554095680523333
 10
0.2362379239663439
 20
0.1535891180752436
 10
0.2359525011098715
 20
0.1525539585051683
 10
0.2359168236538269
 20
0.151411717221682
 10
0.2367374163712586
 20
0.1511618505939984
 10
0.2378434319451617
 20
0.1509119839663158
 10
0.2386283472065487
 20
0.1500196067751331
 10
0.2395202948360686
 20
0.1489130585509906
 10
0.239698683720349
 20
0.1482705479874897
 10
0.239698683720349
 20
0.1475209506398207
 10
0.2405549554978825
 20
0.149198620773396
 10
0.241054446298739
 20
0.1502694734028158
 10
0.2410901237547827
 20
0.1513760216269584
 10
0.2410901237547827
 20
0.1521970076286956
 10
0.239805717692541
 20
0.1537675935134808
 10
0.2390564814912568
 20
0.1544457996717043
 10
0.2395202948360686
 20
0.1558736031775969
 10
0.239805717692541
 20
0.1568730671529495
 10
0.2398770742086884
 20
0.1581223952206048
 10
0.2401268196091162
 20
0.1603711872636135
 10
0.2402338535813073
 20
0.1611921732653507
  0
LWPOLYLINE
  5
AC9
330
2
100
AcDbEntity
  8
Profilo
  6
Continuous
370
     0
100
AcDbPolyline
 90
        5
 70
   128
 43
0.0
 10
0.2414469031274025
 20
0.1523754830669319
 10
0.2428740206178817
 20
0.1561948609947259
 10
0.2431951225344568
 20
0.1578368355335784
 10
0.2431951225344568
 20
0.1599785407924181
 10
0.2432307999905015
 20
0.1605853582965735
  0
LWPOLYLINE
  5
ACA
330
2
100
AcDbEntity
  8
Profilo
  6
Continuous
370
     0
100
AcDbPolyline
 90
       25
 70
   128
 43
0.0
 10
0.237579904862145
 20
0.1738339850422892
 10
0.2373263015155227
 20
0.1718357687627834
 10
0.2374522083021922
 20
0.1702265705274226
 10
0.2376986788825204
 20
0.1685127649172746
 10
0.2378542821450806
 20
0.1666454136760662
 10
0.2380894673812173
 20
0.1647723897343201
 10
0.2382219094633338
 20
0.1637068003962541
 10
0.2386260646068758
 20
0.1626378538819133
 10
0.2394798132417528
 20
0.1627210344564198
 10
0.2405972582118365
 20
0.1629134416293172
 10
0.2416639233230735
 20
0.1623893666734459
 10
0.2429114331545512
 20
0.1617083829977788
 10
0.2433221211413374
 20
0.161183047109271
 10
0.2436089796272349
 20
0.1604905094621336
 10
0.2437580550316727
 20
0.1623681555837133
 10
0.2438097267994776
 20
0.1635486412644771
 10
0.2434192307983962
 20
0.1645846116918368
 10
0.2431050530573278
 20
0.1653431038553195
 10
0.2413173793877754
 20
0.1663026150878744
 10
0.2403656371359122
 20
0.1666424755951206
 10
0.2402477480457112
 20
0.1681390877134317
 10
0.2401289660763042
 20
0.1691716986221325
 10
0.2397167937480034
 20
0.1703532342097529
 10
0.2390869529541031
 20
0.1725264205782158
 10
0.2388716617092261
 20
0.1733258728695568
  0
LWPOLYLINE
  5
ACB
330
2
100
AcDbEntity
  8
Profilo
  6
Continuous
370
     0
100
AcDbPolyline
 90
        5
 70
   128
 43
0.0
 10
0.2433663746240167
 20
0.1656445272146736
 10
0.2432232466090505
 20
0.1697193065287315
 10
0.2428915496452411
 20
0.1713591735816569
 10
0.2420719545256733
 20
0.1733378512349701
 10
0.2418726971917757
 20
0.173912130678366
  0
LWPOLYLINE
  5
ACC
330
2
100
AcDbEntity
  8
Profilo
  6
Continuous
370
     0
100
AcDbPolyline
 90
       25
 70
   128
 43
0.0
 10
0.2315819208851457
 20
0.1839897618189608
 10
0.2321123062082742
 20
0.1820466008976491
 10
0.2328444424155456
 20
0.1806080780255273
 10
0.2337279965533745
 20
0.1791190483072653
 10
0.2345863596052635
 20
0.1774533875061066
 10
0.2355204176622085
 20
0.1758129405158306
 10
0.2360505615765009
 20
0.1748791477269029
 10
0.2368330203627011
 20
0.1740462333984927
 10
0.2375899494246156
 20
0.1744497976867545
 10
0.2385487029238482
 20
0.1750551864123326
 10
0.2397347277910931
 20
0.1749791993530541
 10
0.2411478777613909
 20
0.17482745381735
 10
0.241728341327589
 20
0.1744992702306782
 10
0.2422583866952856
 20
0.1739692248629816
 10
0.2416775703476728
 20
0.1757609923714596
 10
0.2412735565241841
 20
0.1768713928597996
 10
0.2405163365422873
 20
0.1776790683839047
 10
0.2399358117732002
 20
0.1782595931529927
 10
0.237917027607224
 20
0.1784619528461513
 10
0.2369076734350632
 20
0.1784117270210355
 10
0.2362260294551661
 20
0.1797493021235748
 10
0.2357211261379599
 20
0.1806578543154154
 10
0.2348881744658429
 20
0.1815917193404313
 10
0.233474635028966
 20
0.1833584521097333
 10
0.2329697947074325
 20
0.1840146613263758
  0
LWPOLYLINE
  5
ACD
330
2
100
AcDbEntity
  8
Profilo
  6
Continuous
370
     0
100
AcDbPolyline
 90
        5
 70
   128
 43
0.0
 10
0.2400618916943151
 20
0.1786380754594119
 10
0.2383703081167252
 20
0.1823479079471357
 10
0.2374363101284289
 20
0.183736012620757
 10
0.2359218958166012
 20
0.1852504269325848
 10
0.2355180388155742
 20
0.1857047394758209
  0
LWPOLYLINE
  5
ACE
330
2
100
AcDbEntity
  8
Profilo
  6
Continuous
370
     0
100
AcDbPolyline
 90
       25
 70
   128
 43
0.0
 10
0.2221540587372348
 20
0.1910771470240911
 10
0.2233876863726221
 20
0.1894848700964471
 10
0.2246145908997703
 20
0.1884360246546009
 10
0.226000715487054
 20
0.1873984621047433
 10
0.2274311603347017
 20
0.1861880735013588
 10
0.2289218893405418
 20
0.1850299466461327
 10
0.2297690254818279
 20
0.1843701118936045
 10
0.2308106656534936
 20
0.1839000334072387
 10
0.2313555395543472
 20
0.1845625424046857
 10
0.2320096400535925
 20
0.1854887477373395
 10
0.2331344631421488
 20
0.1858724169156036
 10
0.234498113978526
 20
0.1862730114020965
 10
0.2351599828080979
 20
0.1861919430933399
 10
0.2358525204552353
 20
0.1859050846074424
 10
0.2346302363793833
 20
0.1873381931420659
 10
0.2338320444068329
 20
0.1882094600294377
 10
0.2328233803221473
 20
0.188665879373342
 10
0.2320648881586647
 20
0.1889800571144105
 10
0.2301223350852113
 20
0.1883944578392849
 10
0.2292090340156458
 20
0.1879617921083825
 10
0.2280674092628732
 20
0.1889366965109374
 10
0.2272532515509522
 20
0.1895828711507561
 10
0.2261263298763745
 20
0.1901268931286162
 10
0.2241442903620174
 20
0.1912182032501044
 10
0.2234267583263922
 20
0.1916312674873644
  0
LWPOLYLINE
  5
ACF
330
2
100
AcDbEntity
  8
Profilo
  6
Continuous
370
     0
100
AcDbPolyline
 90
        5
 70
   128
 43
0.0
 10
0.2320365319091331
 20
0.1893779778676925
 10
0.2290540210343637
 20
0.1921580751625425
 10
0.2276599147485867
 20
0.1930830911035009
 10
0.2256812370952734
 20
0.1939026862230677
 10
0.2251342639945517
 20
0.194167866899789
  0
LWPOLYLINE
  5
AD0
330
2
100
AcDbEntity
  8
Profilo
  6
Continuous
370
     0
100
AcDbPolyline
 90
        8
 70
   128
 43
0.0
 10
0.2062482694251018
 20
0.189693166988985
 10
0.2068020645574662
 20
0.1910015088033679
 10
0.2075068947259306
 20
0.1916053596118785
 10
0.2084634524899402
 20
0.1920079268175523
 10
0.2093193176945047
 20
0.1918569641154249
 10
0.2102255304464804
 20
0.1911021506047859
 10
0.2107289805668127
 20
0.1902970161934383
 10
0.2109807056269788
 20
0.189592525187567
  0
LWPOLYLINE
  5
AD1
330
2
100
AcDbEntity
  8
Profilo
  6
Continuous
370
     0
100
AcDbPolyline
 90
        8
 70
   128
 43
0.0
 10
0.1887851117554562
 20
0.1801364702394728
 10
0.1882515666798796
 20
0.1814531999020157
 10
0.1883229698700633
 20
0.1823785770952457
 10
0.1887147003505754
 20
0.1833396235777882
 10
0.1894266351908853
 20
0.1838380649173366
 10
0.1906011581249092
 20
0.1839451203475524
 10
0.1915264671210157
 20
0.1837317973395982
 10
0.1922026139855899
 20
0.1834116434690993
  0
LWPOLYLINE
  5
AD2
330
2
100
AcDbEntity
  8
Profilo
  6
Continuous
370
     0
100
AcDbPolyline
 90
        8
 70
   128
 43
0.0
 10
0.1831943996236434
 20
0.1610305479530134
 10
0.1818860578092614
 20
0.1615843430853787
 10
0.1812822070007498
 20
0.1622891732538432
 10
0.180879639795076
 20
0.1632457310178519
 10
0.1810306024972044
 20
0.1641015962224164
 10
0.1817854160078425
 20
0.1650078089743929
 10
0.18259055041919
 20
0.1655112590947243
 10
0.1832950414250623
 20
0.1657629841548904
  0
LWPOLYLINE
  5
AD3
330
2
100
AcDbEntity
  8
Profilo
  6
Continuous
370
     0
100
AcDbPolyline
 90
        8
 70
   128
 43
0.0
 10
0.1927510963731556
 20
0.1435673902833678
 10
0.1914343667106127
 20
0.1430338452077922
 10
0.1905089895173835
 20
0.1431052483979749
 10
0.189547943034841
 20
0.143496978878487
 10
0.1890495016952927
 20
0.144208913718797
 10
0.188942446265076
 20
0.1453834366528208
 10
0.189155769273031
 20
0.1463087456489274
 10
0.1894759231435299
 20
0.1469848925135015
  0
LWPOLYLINE
  5
AD4
330
2
100
AcDbEntity
  8
Profilo
  6
Continuous
370
     0
100
AcDbPolyline
 90
        8
 70
   128
 43
0.0
 10
0.2118570186596149
 20
0.137976678151555
 10
0.2113032235272505
 20
0.136668336337173
 10
0.210598393358786
 20
0.1360644855286623
 10
0.2096418355947764
 20
0.1356619183229886
 10
0.2087859703902128
 20
0.135812881025116
 10
0.2078797576382363
 20
0.136567694535755
 10
0.207376307517904
 20
0.1373728289471026
 10
0.2071245824577379
 20
0.1380773199529739
  0
LWPOLYLINE
  5
AD5
330
2
100
AcDbEntity
  8
Profilo
  6
Continuous
370
     0
100
AcDbPolyline
 90
        8
 70
   128
 43
0.0
 10
0.2293201763292605
 20
0.1475333749010672
 10
0.2298537214048371
 20
0.1462166452385243
 10
0.2297823182146543
 20
0.1452912680452951
 10
0.2293905877341422
 20
0.1443302215627527
 10
0.2286786528938323
 20
0.1438317802232043
 10
0.2275041299598084
 20
0.1437247247929876
 10
0.2265788209637018
 20
0.1439380478009427
 10
0.2259026740991268
 20
0.1442582016714415
  0
LWPOLYLINE
  5
AD6
330
2
100
AcDbEntity
  8
Profilo
  6
Continuous
370
     0
100
AcDbPolyline
 90
        8
 70
   128
 43
0.0
 10
0.2349108884610733
 20
0.1666392971875275
 10
0.2362192302754553
 20
0.1660855020551621
 10
0.2368230810839669
 20
0.1653806718866977
 10
0.2372256482896407
 20
0.164424114122689
 10
0.2370746855875132
 20
0.1635682489181245
 10
0.2363198720768742
 20
0.1626620361661479
 10
0.2355147376655267
 20
0.1621585860458166
 10
0.2348102466596553
 20
0.1619068609856504
  0
LWPOLYLINE
  5
AD7
330
2
100
AcDbEntity
  8
Profilo
  6
Continuous
370
     0
100
AcDbPolyline
 90
        8
 70
   128
 43
0.0
 10
0.2253541917115611
 20
0.1841024548571721
 10
0.226670921374104
 20
0.1846359999327487
 10
0.2275962985673332
 20
0.184564596742566
 10
0.2285573450498766
 20
0.1841728662620539
 10
0.229055786389424
 20
0.1834609314217439
 10
0.2291628418196407
 20
0.18228640848772
 10
0.2289495188116866
 20
0.1813610994916135
 10
0.2286293649411877
 20
0.1806849526270384
  0
CIRCLE
  5
AD8
330
2
100
AcDbEntity
  8
Profilo
  6
Continuous
370
     0
100
AcDbCircle
 10
0.197770688644241
 20
0.2034332575683106
 30
0.0
 40
0.0013399767756686
  0
CIRCLE
  5
AD9
330
2
100
AcDbEntity
  8
Profilo
  6
Continuous
370
     0
100
AcDbCircle
 10
0.1946986175912966
 20
0.2024260170982104
 30
0.0
 40
0.0013399767756686
  0
CIRCLE
  5
ADA
330
2
100
AcDbEntity
  8
Profilo
  6
Continuous
370
     0
100
AcDbCircle
 10
0.1917150438846211
 20
0.2011808496975029
 30
0.0
 40
0.0013399767756686
  0
CIRCLE
  5
ADB
330
2
100
AcDbEntity
  8
Profilo
  6
Continuous
370
     0
100
AcDbCircle
 10
0.1888383622482555
 20
0.1997054322372764
 30
0.0
 40
0.0013399767756686
  0
CIRCLE
  5
ADC
330
2
100
AcDbEntity
  8
Profilo
  6
Continuous
370
     0
100
AcDbCircle
 10
0.1860863083810806
 20
0.1980088611567967
 30
0.0
 40
0.0013399767756686
  0
CIRCLE
  5
ADD
330
2
100
AcDbEntity
  8
Profilo
  6
Continuous
370
     0
100
AcDbCircle
 10
0.1834758496103395
 20
0.1961015963809438
 30
0.0
 40
0.0013399767756686
  0
CIRCLE
  5
ADE
330
2
100
AcDbEntity
  8
Profilo
  6
Continuous
370
     0
100
AcDbCircle
 10
0.1810230802824191
 20
0.1939953968312902
 30
0.0
 40
0.0013399767756686
  0
CIRCLE
  5
ADF
330
2
100
AcDbEntity
  8
Profilo
  6
Continuous
370
     0
100
AcDbCircle
 10
0.1787431225358547
 20
0.1917032479284422
 30
0.0
 40
0.0013399767756686
  0
CIRCLE
  5
AE0
330
2
100
AcDbEntity
  8
Profilo
  6
Continuous
370
     0
100
AcDbCircle
 10
0.1766500330683161
 20
0.1892392815326027
 30
0.0
 40
0.0013399767756686
  0
CIRCLE
  5
AE1
330
2
100
AcDbEntity
  8
Profilo
  6
Continuous
370
     0
100
AcDbCircle
 10
0.1747567164723942
 20
0.1866186888159533
 30
0.0
 40
0.0013399767756686
  0
CIRCLE
  5
AE2
330
2
100
AcDbEntity
  8
Profilo
  6
Continuous
370
     0
100
AcDbCircle
 10
0.1730748456744942
 20
0.1838576266040284
 30
0.0
 40
0.0013399767756686
  0
CIRCLE
  5
AE3
330
2
100
AcDbEntity
  8
Profilo
  6
Continuous
370
     0
100
AcDbCircle
 10
0.1716147899673639
 20
0.1809731177635103
 30
0.0
 40
0.0013399767756686
  0
CIRCLE
  5
AE4
330
2
100
AcDbEntity
  8
Profilo
  6
Continuous
370
     0
100
AcDbCircle
 10
0.1703855510799559
 20
0.1779829462505984
 30
0.0
 40
0.0013399767756686
  0
CIRCLE
  5
AE5
330
2
100
AcDbEntity
  8
Profilo
  6
Continuous
370
     0
100
AcDbCircle
 10
0.1693947076787752
 20
0.1749055474670009
 30
0.0
 40
0.0013399767756686
  0
CIRCLE
  5
AE6
330
2
100
AcDbEntity
  8
Profilo
  6
Continuous
370
     0
100
AcDbCircle
 10
0.1686483686428768
 20
0.17175989459956
 30
0.0
 40
0.0013399767756686
  0
CIRCLE
  5
AE7
330
2
100
AcDbEntity
  8
Profilo
  6
Continuous
370
     0
100
AcDbCircle
 10
0.1681511354006022
 20
0.1685653816442367
 30
0.0
 40
0.0013399767756686
  0
CIRCLE
  5
AE8
330
2
100
AcDbEntity
  8
Profilo
  6
Continuous
370
     0
100
AcDbCircle
 10
0.1679060735602351
 20
0.1653417038356859
 30
0.0
 40
0.0013399767756686
  0
CIRCLE
  5
AE9
330
2
100
AcDbEntity
  8
Profilo
  6
Continuous
370
     0
100
AcDbCircle
 10
0.167914694009514
 20
0.1621087362195781
 30
0.0
 40
0.0013399767756686
  0
CIRCLE
  5
AEA
330
2
100
AcDbEntity
  8
Profilo
  6
Continuous
370
     0
100
AcDbCircle
 10
0.1681769436005012
 20
0.1588864111163377
 30
0.0
 40
0.0013399767756686
  0
CIRCLE
  5
AEB
330
2
100
AcDbEntity
  8
Profilo
  6
Continuous
370
     0
100
AcDbCircle
 10
0.1686912054772622
 20
0.1556945952317572
 30
0.0
 40
0.0013399767756686
  0
CIRCLE
  5
AEC
330
2
100
AcDbEntity
  8
Profilo
  6
Continuous
370
     0
100
AcDbCircle
 10
0.1694543090443177
 20
0.1525529671721526
 30
0.0
 40
0.0013399767756686
  0
CIRCLE
  5
AED
330
2
100
AcDbEntity
  8
Profilo
  6
Continuous
370
     0
100
AcDbCircle
 10
0.1704615495144188
 20
0.1494808961192082
 30
0.0
 40
0.0013399767756686
  0
CIRCLE
  5
AEE
330
2
100
AcDbEntity
  8
Profilo
  6
Continuous
370
     0
100
AcDbCircle
 10
0.1717067169151254
 20
0.1464973224125328
 30
0.0
 40
0.0013399767756686
  0
CIRCLE
  5
AEF
330
2
100
AcDbEntity
  8
Profilo
  6
Continuous
370
     0
100
AcDbCircle
 10
0.1731821343753528
 20
0.1436206407761671
 30
0.0
 40
0.0013399767756686
  0
CIRCLE
  5
AF0
330
2
100
AcDbEntity
  8
Profilo
  6
Continuous
370
     0
100
AcDbCircle
 10
0.1748787054558325
 20
0.1408685869089923
 30
0.0
 40
0.0013399767756686
  0
CIRCLE
  5
AF1
330
2
100
AcDbEntity
  8
Profilo
  6
Continuous
370
     0
100
AcDbCircle
 10
0.1767859702316854
 20
0.1382581281382511
 30
0.0
 40
0.0013399767756686
  0
CIRCLE
  5
AF2
330
2
100
AcDbEntity
  8
Profilo
  6
Continuous
370
     0
100
AcDbCircle
 10
0.1788921697813381
 20
0.1358053588103307
 30
0.0
 40
0.0013399767756686
  0
CIRCLE
  5
AF3
330
2
100
AcDbEntity
  8
Profilo
  6
Continuous
370
     0
100
AcDbCircle
 10
0.1811843186841862
 20
0.1335254010637663
 30
0.0
 40
0.0013399767756686
  0
CIRCLE
  5
AF4
330
2
100
AcDbEntity
  8
Profilo
  6
Continuous
370
     0
100
AcDbCircle
 10
0.1836482850800265
 20
0.1314323115962277
 30
0.0
 40
0.0013399767756686
  0
CIRCLE
  5
AF5
330
2
100
AcDbEntity
  8
Profilo
  6
Continuous
370
     0
100
AcDbCircle
 10
0.1862688777966759
 20
0.1295389950003059
 30
0.0
 40
0.0013399767756686
  0
CIRCLE
  5
AF6
330
2
100
AcDbEntity
  8
Profilo
  6
Continuous
370
     0
100
AcDbCircle
 10
0.1890299400086009
 20
0.1278571242024058
 30
0.0
 40
0.0013399767756686
  0
CIRCLE
  5
AF7
330
2
100
AcDbEntity
  8
Profilo
  6
Continuous
370
     0
100
AcDbCircle
 10
0.191914448849118
 20
0.1263970684952764
 30
0.0
 40
0.0013399767756686
  0
CIRCLE
  5
AF8
330
2
100
AcDbEntity
  8
Profilo
  6
Continuous
370
     0
100
AcDbCircle
 10
0.1949046203620308
 20
0.1251678296078684
 30
0.0
 40
0.0013399767756686
  0
CIRCLE
  5
AF9
330
2
100
AcDbEntity
  8
Profilo
  6
Continuous
370
     0
100
AcDbCircle
 10
0.1979820191456274
 20
0.1241769862066868
 30
0.0
 40
0.0013399767756686
  0
CIRCLE
  5
AFA
330
2
100
AcDbEntity
  8
Profilo
  6
Continuous
370
     0
100
AcDbCircle
 10
0.2011276720130692
 20
0.1234306471707893
 30
0.0
 40
0.0013399767756686
  0
CIRCLE
  5
AFB
330
2
100
AcDbEntity
  8
Profilo
  6
Continuous
370
     0
100
AcDbCircle
 10
0.2043221849683916
 20
0.1229334139285139
 30
0.0
 40
0.0013399767756686
  0
CIRCLE
  5
AFC
330
2
100
AcDbEntity
  8
Profilo
  6
Continuous
370
     0
100
AcDbCircle
 10
0.2075458627769424
 20
0.1226883520881468
 30
0.0
 40
0.0013399767756686
  0
CIRCLE
  5
AFD
330
2
100
AcDbEntity
  8
Profilo
  6
Continuous
370
     0
100
AcDbCircle
 10
0.2107788303930502
 20
0.1226969725374256
 30
0.0
 40
0.0013399767756686
  0
CIRCLE
  5
AFE
330
2
100
AcDbEntity
  8
Profilo
  6
Continuous
370
     0
100
AcDbCircle
 10
0.2140011554962915
 20
0.1229592221284128
 30
0.0
 40
0.0013399767756686
  0
CIRCLE
  5
AFF
330
2
100
AcDbEntity
  8
Profilo
  6
Continuous
370
     0
100
AcDbCircle
 10
0.2171929713808711
 20
0.1234734840051739
 30
0.0
 40
0.0013399767756686
  0
CIRCLE
  5
B00
330
2
100
AcDbEntity
  8
Profilo
  6
Continuous
370
     0
100
AcDbCircle
 10
0.2203345994404757
 20
0.1242365875722293
 30
0.0
 40
0.0013399767756686
  0
CIRCLE
  5
B01
330
2
100
AcDbEntity
  8
Profilo
  6
Continuous
370
     0
100
AcDbCircle
 10
0.2234066704934201
 20
0.1252438280423305
 30
0.0
 40
0.0013399767756686
  0
CIRCLE
  5
B02
330
2
100
AcDbEntity
  8
Profilo
  6
Continuous
370
     0
100
AcDbCircle
 10
0.2263902442000956
 20
0.1264889954430379
 30
0.0
 40
0.0013399767756686
  0
CIRCLE
  5
B03
330
2
100
AcDbEntity
  8
Profilo
  6
Continuous
370
     0
100
AcDbCircle
 10
0.2292669258364621
 20
0.1279644129032644
 30
0.0
 40
0.0013399767756686
  0
CIRCLE
  5
B04
330
2
100
AcDbEntity
  8
Profilo
  6
Continuous
370
     0
100
AcDbCircle
 10
0.232018979703636
 20
0.1296609839837441
 30
0.0
 40
0.0013399767756686
  0
CIRCLE
  5
B05
330
2
100
AcDbEntity
  8
Profilo
  6
Continuous
370
     0
100
AcDbCircle
 10
0.2346294384743772
 20
0.131568248759597
 30
0.0
 40
0.0013399767756686
  0
CIRCLE
  5
B06
330
2
100
AcDbEntity
  8
Profilo
  6
Continuous
370
     0
100
AcDbCircle
 10
0.2370822078022976
 20
0.1336744483092507
 30
0.0
 40
0.0013399767756686
  0
CIRCLE
  5
B07
330
2
100
AcDbEntity
  8
Profilo
  6
Continuous
370
     0
100
AcDbCircle
 10
0.2393621655488629
 20
0.1359665972120987
 30
0.0
 40
0.0013399767756686
  0
CIRCLE
  5
B08
330
2
100
AcDbEntity
  8
Profilo
  6
Continuous
370
     0
100
AcDbCircle
 10
0.2414552550164006
 20
0.1384305636079381
 30
0.0
 40
0.0013399767756686
  0
CIRCLE
  5
B09
330
2
100
AcDbEntity
  8
Profilo
  6
Continuous
370
     0
100
AcDbCircle
 10
0.2433485716123225
 20
0.1410511563245875
 30
0.0
 40
0.0013399767756686
  0
CIRCLE
  5
B0A
330
2
100
AcDbEntity
  8
Profilo
  6
Continuous
370
     0
100
AcDbCircle
 10
0.2450304424102225
 20
0.1438122185365125
 30
0.0
 40
0.0013399767756686
  0
CIRCLE
  5
B0B
330
2
100
AcDbEntity
  8
Profilo
  6
Continuous
370
     0
100
AcDbCircle
 10
0.2464904981173528
 20
0.1466967273770305
 30
0.0
 40
0.0013399767756686
  0
CIRCLE
  5
B0C
330
2
100
AcDbEntity
  8
Profilo
  6
Continuous
370
     0
100
AcDbCircle
 10
0.2477197370047608
 20
0.1496868988899425
 30
0.0
 40
0.0013399767756686
  0
CIRCLE
  5
B0D
330
2
100
AcDbEntity
  8
Profilo
  6
Continuous
370
     0
100
AcDbCircle
 10
0.2487105804059424
 20
0.152764297673539
 30
0.0
 40
0.0013399767756686
  0
CIRCLE
  5
B0E
330
2
100
AcDbEntity
  8
Profilo
  6
Continuous
370
     0
100
AcDbCircle
 10
0.2494569194418399
 20
0.1559099505409809
 30
0.0
 40
0.0013399767756686
  0
CIRCLE
  5
B0F
330
2
100
AcDbEntity
  8
Profilo
  6
Continuous
370
     0
100
AcDbCircle
 10
0.2499541526841154
 20
0.1591044634963032
 30
0.0
 40
0.0013399767756686
  0
CIRCLE
  5
B10
330
2
100
AcDbEntity
  8
Profilo
  6
Continuous
370
     0
100
AcDbCircle
 10
0.2501992145244816
 20
0.1623281413048541
 30
0.0
 40
0.0013399767756686
  0
CIRCLE
  5
B11
330
2
100
AcDbEntity
  8
Profilo
  6
Continuous
370
     0
100
AcDbCircle
 10
0.2501905940752036
 20
0.1655611089209628
 30
0.0
 40
0.0013399767756686
  0
CIRCLE
  5
B12
330
2
100
AcDbEntity
  8
Profilo
  6
Continuous
370
     0
100
AcDbCircle
 10
0.2499283444842155
 20
0.1687834340242031
 30
0.0
 40
0.0013399767756686
  0
CIRCLE
  5
B13
330
2
100
AcDbEntity
  8
Profilo
  6
Continuous
370
     0
100
AcDbCircle
 10
0.2494140826074545
 20
0.1719752499087828
 30
0.0
 40
0.0013399767756686
  0
CIRCLE
  5
B14
330
2
100
AcDbEntity
  8
Profilo
  6
Continuous
370
     0
100
AcDbCircle
 10
0.248650979040399
 20
0.1751168779683874
 30
0.0
 40
0.0013399767756686
  0
CIRCLE
  5
B15
330
2
100
AcDbEntity
  8
Profilo
  6
Continuous
370
     0
100
AcDbCircle
 10
0.2476437385702979
 20
0.1781889490213326
 30
0.0
 40
0.0013399767756686
  0
CIRCLE
  5
B16
330
2
100
AcDbEntity
  8
Profilo
  6
Continuous
370
     0
100
AcDbCircle
 10
0.2463985711695913
 20
0.1811725227280081
 30
0.0
 40
0.0013399767756686
  0
CIRCLE
  5
B17
330
2
100
AcDbEntity
  8
Profilo
  6
Continuous
370
     0
100
AcDbCircle
 10
0.2449231537093639
 20
0.1840492043643738
 30
0.0
 40
0.0013399767756686
  0
CIRCLE
  5
B18
330
2
100
AcDbEntity
  8
Profilo
  6
Continuous
370
     0
100
AcDbCircle
 10
0.2432265826288851
 20
0.1868012582315477
 30
0.0
 40
0.0013399767756686
  0
CIRCLE
  5
B19
330
2
100
AcDbEntity
  8
Profilo
  6
Continuous
370
     0
100
AcDbCircle
 10
0.2413193178530322
 20
0.1894117170022889
 30
0.0
 40
0.0013399767756686
  0
CIRCLE
  5
B1A
330
2
100
AcDbEntity
  8
Profilo
  6
Continuous
370
     0
100
AcDbCircle
 10
0.2392131183033785
 20
0.1918644863302093
 30
0.0
 40
0.0013399767756686
  0
CIRCLE
  5
B1B
330
2
100
AcDbEntity
  8
Profilo
  6
Continuous
370
     0
100
AcDbCircle
 10
0.2369209694005305
 20
0.1941444440767746
 30
0.0
 40
0.0013399767756686
  0
CIRCLE
  5
B1C
330
2
100
AcDbEntity
  8
Profilo
  6
Continuous
370
     0
100
AcDbCircle
 10
0.2344570030046911
 20
0.1962375335443132
 30
0.0
 40
0.0013399767756686
  0
CIRCLE
  5
B1D
330
2
100
AcDbEntity
  8
Profilo
  6
Continuous
370
     0
100
AcDbCircle
 10
0.2318364102880417
 20
0.198130850140235
 30
0.0
 40
0.0013399767756686
  0
CIRCLE
  5
B1E
330
2
100
AcDbEntity
  8
Profilo
  6
Continuous
370
     0
100
AcDbCircle
 10
0.2290753480761167
 20
0.1998127209381342
 30
0.0
 40
0.0013399767756686
  0
CIRCLE
  5
B1F
330
2
100
AcDbEntity
  8
Profilo
  6
Continuous
370
     0
100
AcDbCircle
 10
0.2261908392355987
 20
0.2012727766452644
 30
0.0
 40
0.0013399767756686
  0
CIRCLE
  5
B20
330
2
100
AcDbEntity
  8
Profilo
  6
Continuous
370
     0
100
AcDbCircle
 10
0.2232006677226868
 20
0.2025020155326724
 30
0.0
 40
0.0013399767756686
  0
CIRCLE
  5
B21
330
2
100
AcDbEntity
  8
Profilo
  6
Continuous
370
     0
100
AcDbCircle
 10
0.2201232689390902
 20
0.203492858933854
 30
0.0
 40
0.0013399767756686
  0
CIRCLE
  5
B22
330
2
100
AcDbEntity
  8
Profilo
  6
Continuous
370
     0
100
AcDbCircle
 10
0.2169776160716483
 20
0.2042391979697515
 30
0.0
 40
0.0013399767756686
  0
CIRCLE
  5
B23
330
2
100
AcDbEntity
  8
Profilo
  6
Continuous
370
     0
100
AcDbCircle
 10
0.213783103116326
 20
0.204736431212027
 30
0.0
 40
0.0013399767756686
  0
CIRCLE
  5
B24
330
2
100
AcDbEntity
  8
Profilo
  6
Continuous
370
     0
100
AcDbCircle
 10
0.2105594253077743
 20
0.2049814930523941
 30
0.0
 40
0.0013399767756686
  0
CIRCLE
  5
B25
330
2
100
AcDbEntity
  8
Profilo
  6
Continuous
370
     0
100
AcDbCircle
 10
0.2073264576916665
 20
0.2049728726031152
 30
0.0
 40
0.0013399767756686
  0
CIRCLE
  5
B26
330
2
100
AcDbEntity
  8
Profilo
  6
Continuous
370
     0
100
AcDbCircle
 10
0.2041041325884261
 20
0.2047106230121281
 30
0.0
 40
0.0013399767756686
  0
CIRCLE
  5
B27
330
2
100
AcDbEntity
  8
Profilo
  6
Continuous
370
     0
100
AcDbCircle
 10
0.2009123167038456
 20
0.2041963611353661
 30
0.0
 40
0.0013399767756686
  0
CIRCLE
  5
B28
330
2
100
AcDbEntity
  8
Profilo
  6
Continuous
370
     0
100
AcDbCircle
 10
0.2090526440423583
 20
0.16383492257027
 30
0.0
 40
0.0437475279879633
  0
CIRCLE
  5
B29
330
2
100
AcDbEntity
  8
Profilo
  6
Continuous
370
     0
100
AcDbCircle
 10
0.2090526440423583
 20
0.16383492257027
 30
0.0
 40
0.0469428682386617
  0
CIRCLE
  5
B2A
102
{ACAD_REACTORS
330
B2D
102
}
330
2
100
AcDbEntity
  8
Profilo
  6
Continuous
370
     0
100
AcDbCircle
 10
0.2090526440423583
 20
0.16383492257027
 30
0.0
 40
0.05
  0
DIMENSION
  5
B2B
102
{ACAD_XDICTIONARY
360
B2C
102
}
102
{ACAD_REACTORS
330
B2D
102
}
330
2
100
AcDbEntity
  8
Sezione
  6
ACAD_ISO10W100
100
AcDbDimension
  2
*D14
 10
0.1727454480895762
 20
0.1294577859523623
 30
0.0
 11
0.2634668431808787
 21
0.2002746873852521
 31
0.0
 70
    35
  1
d 400 mm
 71
     5
 42
0.1000000000000001
  3
Bovelacci
100
AcDbDiametricDimension
 15
0.2453598399951405
 25
0.1982120591881776
 35
0.0
 40
0.0
1001
ACAD
1000
DSTYLE
1002
{
1070
   288
1070
     1
1002
}
  0
ENDSEC
  0
SECTION
  2
OBJECTS
  0
DICTIONARY
  5
9
330
0
100
AcDbDictionary
281
     1
  3
ACAD_2007HEADERVARS_RT
350
208
  3
ACAD_COLOR
350
184
  3
ACAD_GROUP
350
17F
  3
ACAD_LAYOUT
350
164
  3
ACAD_MATERIAL
350
B
  3
ACAD_MLINESTYLE
350
180
  3
ACAD_PLOTSETTINGS
350
181
  3
ACAD_PLOTSTYLENAME
350
8
  3
ACAD_TABLESTYLE
350
185
  3
ACAD_VISUALSTYLE
350
17A
  3
ACDBHEADERROUNDTRIPXREC
350
B41
  3
AcDbVariableDictionary
350
18B
  3
DWGPROPS
350
B40
  0
DICTIONARY
  5
16E
330
16D
100
AcDbDictionary
280
     1
281
     1
  3
ACAD_LAYERSTATES
360
16F
  0
DICTIONARY
  5
3
330
2
100
AcDbDictionary
280
     1
281
     1
  3
ACAD_SORTENTS
360
18A
  0
DICTIONARY
  5
B42
330
18
100
AcDbDictionary
280
     1
281
     1
  3
ACAD_MTEXT_RT
360
B43
  0
DICTIONARY
  5
B2C
330
B2B
100
AcDbDictionary
280
     1
281
     1
  3
ACAD_DIMASSOC
360
B2D
  0
DICTIONARY
  5
208
102
{ACAD_REACTORS
330
9
102
}
330
9
100
AcDbDictionary
281
     1
  3
DIMFXL
350
209
  0
DICTIONARY
  5
184
102
{ACAD_REACTORS
330
9
102
}
330
9
100
AcDbDictionary
281
     1
  0
DICTIONARY
  5
17F
102
{ACAD_REACTORS
330
9
102
}
330
9
100
AcDbDictionary
281
     1
  0
DICTIONARY
  5
164
102
{ACAD_REACTORS
330
9
102
}
330
9
100
AcDbDictionary
281
     1
  3
Layout1
350
168
  3
Layout2
350
16C
  3
Model
350
163
  0
DICTIONARY
  5
B
102
{ACAD_REACTORS
330
9
102
}
330
9
100
AcDbDictionary
281
     1
  3
ByBlock
350
183
  3
ByLayer
350
182
  3
Global
350
A
  0
DICTIONARY
  5
180
102
{ACAD_REACTORS
330
9
102
}
330
9
100
AcDbDictionary
281
     1
  3
Standard
350
186
  0
DICTIONARY
  5
181
102
{ACAD_REACTORS
330
9
102
}
330
9
100
AcDbDictionary
281
     1
  0
ACDBDICTIONARYWDFLT
  5
8
102
{ACAD_REACTORS
330
9
102
}
330
9
100
AcDbDictionary
281
     1
  3
Normal
350
7
100
AcDbDictionaryWithDefault
340
7
  0
DICTIONARY
  5
185
102
{ACAD_REACTORS
330
9
102
}
330
9
100
AcDbDictionary
281
     1
  3
Standard
350
187
  0
DICTIONARY
  5
17A
102
{ACAD_REACTORS
330
9
102
}
330
9
100
AcDbDictionary
281
     1
  3
2dWireframe
350
179
  3
3D Hidden
350
1BD
  3
3dWireframe
350
189
  3
Basic
350
1BC
  3
Brighten
350
1C0
  3
ColorChange
350
1C4
  3
Conceptual
350
1BE
  3
Dim
350
1BF
  3
Facepattern
350
1C3
  3
Flat
350
1B8
  3
FlatWithEdges
350
1B9
  3
Gouraud
350
1BA
  3
GouraudWithEdges
350
1BB
  3
Linepattern
350
1C2
  3
Realistic
350
188
  3
Thicken
350
1C1
  0
DICTIONARY
  5
B41
102
{ACAD_REACTORS
330
9
102
}
330
9
100
AcDbDictionary
281
     1
  0
DICTIONARY
  5
18B
102
{ACAD_REACTORS
330
9
102
}
330
9
100
AcDbDictionary
281
     1
  3
CTABLESTYLE
350
18C
  3
DIMASSOC
350
190
  3
HIDETEXT
350
18F
  3
INDEXCTL
350
18E
  3
PROJECTNAME
350
2F9
  3
SORTENTS
350
18D
  0
XRECORD
  5
B40
102
{ACAD_REACTORS
330
9
102
}
330
9
100
AcDbXrecord
280
     1
  1
DWGPROPS COOKIE
  2

  3

  4

  6

  7

  8
Mario
  9

300
=
301
=
302
=
303
=
304
=
305
=
306
=
307
=
308
=
309
=
 40
0.1251425231481481
 41
2454297.625402373
 42
2454311.541056135
  1

 90
        0
  0
DICTIONARY
  5
16F
102
{ACAD_REACTORS
330
16E
102
}
330
16E
100
AcDbDictionary
281
     1
  0
SORTENTSTABLE
  5
18A
102
{ACAD_REACTORS
330
3
102
}
330
3
100
AcDbSortentsTable
330
2
331
18
  5
1C
331
16
  5
12
331
14
  5
10
331
12
  5
16
331
23
  5
24
331
21
  5
22
331
10
  5
14
331
1F
  5
21
331
1D
  5
1E
331
15
  5
11
331
13
  5
D
331
24
  5
18
331
11
  5
15
331
22
  5
23
331
D
  5
13
331
1E
  5
1F
331
1C
  5
1D
  0
XRECORD
  5
B43
102
{ACAD_REACTORS
330
B42
102
}
330
B42
100
AcDbXrecord
280
     1
 40
7955300.0
  1
{\fTimes New Roman|b0|i0|c238|p18;\H1.6x;\C4;Bovelacci\P\pt0.09;\H0.4375x;\T0.95;via del Commercio, 5  47100 Forli - Italy  \fTimes New Roman|b0|i0|c0|p18;\P\fTimes New Roman|b0|i0|c238|p18;tel.+39-0543721386  fax +39-0543721127\fTimes New Roman|b0|i
  1
0|c0|p18; \fTimes New Roman|b0|i0|c238|p18;www.bovelacci.it\fTimes New Roman|b0|i0|c0|p18; \fTimes New Roman|b0|i0|c238|p18;e-mail: bovelacci@bovelacci\fTimes New Roman|b0|i0|c0|p18;.it}
  0
DIMASSOC
  5
B2D
102
{ACAD_REACTORS
330
B2C
102
}
330
B2C
100
AcDbDimAssoc
330
B2B
 90
        2
 70
     0
 71
     0
  1
AcDbOsnapPointRef
 72
     3
331
B2A
 73
     2
 91
        0
 40
0.0
 10
0.0
 20
0.0
 30
0.0
 75
     0
  0
XRECORD
  5
209
102
{ACAD_REACTORS
330
208
102
}
330
208
100
AcDbXrecord
280
     1
 40
0.18
  0
LAYOUT
  5
168
102
{ACAD_XDICTIONARY
360
B46
102
}
102
{ACAD_REACTORS
330
164
102
}
330
164
100
AcDbPlotSettings
  1

  2
C:\Documents and Settings\All Users\Dati applicazioni\Autodesk\ADT 2006\enu\Plotters\Default Windows System Printer.pc3
  4

  6

 40
0.0
 41
0.0
 42
0.0
 43
0.0
 44
0.0
 45
0.0
 46
0.0
 47
0.0
 48
0.0
 49
0.0
140
0.0
141
0.0
142
1.0
143
1.0
 70
   688
 72
     0
 73
     0
 74
     5
  7

 75
    16
147
1.0
148
0.0
149
0.0
100
AcDbLayout
  1
Layout1
 70
     1
 71
     1
 10
0.0
 20
0.0
 11
420.0
 21
297.0
 12
0.0
 22
0.0
 32
0.0
 14
1.000000000000000E+20
 24
1.000000000000000E+20
 34
1.000000000000000E+20
 15
-1.000000000000000E+20
 25
-1.000000000000000E+20
 35
-1.000000000000000E+20
146
0.0
 13
0.0
 23
0.0
 33
0.0
 16
1.0
 26
0.0
 36
0.0
 17
0.0
 27
1.0
 37
0.0
 76
     0
330
165
  0
LAYOUT
  5
16C
102
{ACAD_XDICTIONARY
360
B48
102
}
102
{ACAD_REACTORS
330
164
102
}
330
164
100
AcDbPlotSettings
  1

  2
C:\Documents and Settings\All Users\Dati applicazioni\Autodesk\ADT 2006\enu\Plotters\Default Windows System Printer.pc3
  4

  6

 40
0.0
 41
0.0
 42
0.0
 43
0.0
 44
0.0
 45
0.0
 46
0.0
 47
0.0
 48
0.0
 49
0.0
140
0.0
141
0.0
142
1.0
143
1.0
 70
   688
 72
     0
 73
     0
 74
     5
  7

 75
    16
147
1.0
148
0.0
149
0.0
100
AcDbLayout
  1
Layout2
 70
     1
 71
     2
 10
0.0
 20
0.0
 11
12.0
 21
9.0
 12
0.0
 22
0.0
 32
0.0
 14
0.0
 24
0.0
 34
0.0
 15
0.0
 25
0.0
 35
0.0
146
0.0
 13
0.0
 23
0.0
 33
0.0
 16
1.0
 26
0.0
 36
0.0
 17
0.0
 27
1.0
 37
0.0
 76
     0
330
169
  0
LAYOUT
  5
163
102
{ACAD_XDICTIONARY
360
B44
102
}
102
{ACAD_REACTORS
330
164
102
}
330
164
100
AcDbPlotSettings
  1

  2
C:\Documents and Settings\All Users\Dati applicazioni\Autodesk\ADT 2006\enu\Plotters\Default Windows System Printer.pc3
  4

  6

 40
0.0
 41
0.0
 42
0.0
 43
0.0
 44
0.0
 45
0.0
 46
0.0
 47
0.0
 48
0.0
 49
0.0
140
0.0
141
0.0
142
1.0
143
1.0
 70
  1712
 72
     0
 73
     0
 74
     0
  7

 75
     0
147
1.0
148
0.0
149
0.0
100
AcDbLayout
  1
Model
 70
     1
 71
     0
 10
0.0
 20
0.0
 11
12.0
 21
9.0
 12
0.0
 22
0.0
 32
0.0
 14
0.0
 24
0.0
 34
0.0
 15
0.0
 25
0.0
 35
0.0
146
0.0
 13
0.0
 23
0.0
 33
0.0
 16
1.0
 26
0.0
 36
0.0
 17
0.0
 27
1.0
 37
0.0
 76
     0
330
2
  0
MATERIAL
  5
183
102
{ACAD_XDICTIONARY
360
1B0
102
}
102
{ACAD_REACTORS
330
B
102
}
330
B
100
AcDbMaterial
  1
ByBlock
  0
MATERIAL
  5
182
102
{ACAD_XDICTIONARY
360
1AE
102
}
102
{ACAD_REACTORS
330
B
102
}
330
B
100
AcDbMaterial
  1
ByLayer
  0
MATERIAL
  5
A
102
{ACAD_XDICTIONARY
360
193
102
}
102
{ACAD_REACTORS
330
B
102
}
330
B
100
AcDbMaterial
  1
Global
  0
MLINESTYLE
  5
186
102
{ACAD_REACTORS
330
180
102
}
330
180
100
AcDbMlineStyle
  2
STANDARD
 70
     0
  3

 62
   256
 51
90.0
 52
90.0
 71
     2
 49
0.5
 62
   256
  6
BYLAYER
 49
-0.5
 62
   256
  6
BYLAYER
  0
ACDBPLACEHOLDER
  5
7
102
{ACAD_REACTORS
330
8
102
}
330
8
  0
TABLESTYLE
  5
187
102
{ACAD_XDICTIONARY
360
21A
102
}
102
{ACAD_REACTORS
330
185
102
}
330
185
100
AcDbTableStyle
  3
Standard
 70
     0
 71
     0
 40
1.5
 41
1.5
280
     0
281
     0
  7
Standard
140
4.5
170
     2
 62
     0
 63
     7
283
     0
274
    -2
284
     1
 64
     0
275
    -2
285
     1
 65
     0
276
    -2
286
     1
 66
     0
277
    -2
287
     1
 67
     0
278
    -2
288
     1
 68
     0
279
    -2
289
     1
 69
     0
  7
Standard
140
6.0
170
     5
 62
     0
 63
     7
283
     0
274
    -2
284
     1
 64
     0
275
    -2
285
     1
 65
     0
276
    -2
286
     1
 66
     0
277
    -2
287
     1
 67
     0
278
    -2
288
     1
 68
     0
279
    -2
289
     1
 69
     0
  7
Standard
140
4.5
170
     5
 62
     0
 63
     7
283
     0
274
    -2
284
     1
 64
     0
275
    -2
285
     1
 65
     0
276
    -2
286
     1
 66
     0
277
    -2
287
     1
 67
     0
278
    -2
288
     1
 68
     0
279
    -2
289
     1
 69
     0
  0
VISUALSTYLE
  5
179
102
{ACAD_REACTORS
330
17A
102
}
330
17A
100
AcDbVisualStyle
  2
2dWireframe
 70
     4
 71
     0
 72
     2
 73
     0
 90
        0
 40
-0.6
 41
-30.0
 62
     5
 63
     7
 74
     1
 91
        4
 64
     7
 65
   257
 75
     1
175
     1
 42
1.0
 92
        0
 66
   257
 43
1.0
 76
     1
 77
     6
 78
     2
 67
     7
 79
     5
170
     0
171
     0
290
     0
174
     0
 93
        1
 44
0.0
173
     0
291
     0
 45
0.0
1001
ACAD
1000
AcDbSavedByObjectVersion
1070
     0
1000
AcDbSavedByObjectVersion
1070
     0
1000
AcDbSavedByObjectVersion
1070
     0
1001
ACAD
1000
AcRTDxfName
1000
VISUALSTYLE
  0
VISUALSTYLE
  5
1BD
102
{ACAD_REACTORS
330
17A
102
}
330
17A
100
AcDbVisualStyle
  2
3D Hidden
 70
     6
 71
     1
 72
     2
 73
     2
 90
        0
 40
-0.6
 41
-30.0
 62
     5
 63
     7
 74
     2
 91
        2
 64
     7
 65
   257
 75
     2
175
     1
 42
40.0
 92
        0
 66
   257
 43
1.0
 76
     1
 77
     6
 78
     2
 67
     7
 79
     3
170
     0
171
     0
290
     0
174
     0
 93
        1
 44
0.0
173
     0
291
     0
 45
0.0
1001
ACAD
1000
AcDbSavedByObjectVersion
1070
     0
1000
AcDbSavedByObjectVersion
1070
     0
1001
ACAD
1000
AcRTDxfName
1000
VISUALSTYLE
  0
VISUALSTYLE
  5
189
102
{ACAD_REACTORS
330
17A
102
}
330
17A
100
AcDbVisualStyle
  2
3dWireframe
 70
     5
 71
     0
 72
     2
 73
     0
 90
        0
 40
-0.6
 41
-30.0
 62
     5
 63
     7
 74
     1
 91
        4
 64
     7
 65
   257
 75
     1
175
     1
 42
1.0
 92
        0
 66
   257
 43
1.0
 76
     1
 77
     6
 78
     2
 67
     7
 79
     5
170
     0
171
     0
290
     0
174
     0
 93
        1
 44
0.0
173
     0
291
     0
 45
0.0
1001
ACAD
1000
AcDbSavedByObjectVersion
1070
     0
1000
AcDbSavedByObjectVersion
1070
     0
1000
AcDbSavedByObjectVersion
1070
     0
1001
ACAD
1000
AcRTDxfName
1000
VISUALSTYLE
  0
VISUALSTYLE
  5
1BC
102
{ACAD_REACTORS
330
17A
102
}
330
17A
100
AcDbVisualStyle
  2
Basic
 70
     7
 71
     1
 72
     0
 73
     1
 90
        0
 40
-0.6
 41
-30.0
 62
     5
 63
     7
 74
     0
 91
        4
 64
     7
 65
   257
 75
     1
175
     1
 42
1.0
 92
        8
 66
     7
 43
1.0
 76
     1
 77
     6
 78
     2
 67
     7
 79
     5
170
     0
171
     0
290
     0
174
     0
 93
        1
 44
0.0
173
     0
291
     1
 45
0.0
1001
ACAD
1000
AcDbSavedByObjectVersion
1070
     0
1000
AcDbSavedByObjectVersion
1070
     0
1001
ACAD
1000
AcRTDxfName
1000
VISUALSTYLE
  0
VISUALSTYLE
  5
1C0
102
{ACAD_REACTORS
330
17A
102
}
330
17A
100
AcDbVisualStyle
  2
Brighten
 70
    12
 71
     2
 72
     2
 73
     0
 90
        0
 40
-0.6
 41
-30.0
 62
     5
 63
     7
 74
     1
 91
        4
 64
     7
 65
   257
 75
     1
175
     1
 42
1.0
 92
        8
 66
     7
 43
1.0
 76
     1
 77
     6
 78
     2
 67
     7
 79
     5
170
     0
171
     0
290
     0
174
     0
 93
        1
 44
50.0
173
     0
291
     1
 45
0.0
1001
ACAD
1000
AcDbSavedByObjectVersion
1070
     0
1000
AcDbSavedByObjectVersion
1070
     0
1001
ACAD
1000
AcRTDxfName
1000
VISUALSTYLE
  0
VISUALSTYLE
  5
1C4
102
{ACAD_REACTORS
330
17A
102
}
330
17A
100
AcDbVisualStyle
  2
ColorChange
 70
    16
 71
     2
 72
     2
 73
     3
 90
        0
 40
-0.6
 41
-30.0
 62
     5
 63
     8
 74
     1
 91
        4
 64
     7
 65
   257
 75
     1
175
     1
 42
1.0
 92
        8
 66
     8
 43
1.0
 76
     1
 77
     6
 78
     2
 67
     7
 79
     5
170
     0
171
     0
290
     0
174
     0
 93
        1
 44
0.0
173
     0
291
     1
 45
0.0
1001
ACAD
1000
AcDbSavedByObjectVersion
1070
     0
1000
AcDbSavedByObjectVersion
1070
     0
1001
ACAD
1000
AcRTDxfName
1000
VISUALSTYLE
  0
VISUALSTYLE
  5
1BE
102
{ACAD_REACTORS
330
17A
102
}
330
17A
100
AcDbVisualStyle
  2
Conceptual
 70
     9
 71
     3
 72
     2
 73
     0
 90
        0
 40
-0.6
 41
-30.0
 62
     5
 63
     7
 74
     2
 91
        2
 64
     7
 65
   257
 75
     1
175
     1
 42
40.0
 92
        8
 66
     7
 43
1.0
 76
     1
 77
     6
 78
     2
 67
     7
 79
     3
170
     0
171
     0
290
     0
174
     0
 93
        1
 44
0.0
173
     0
291
     0
 45
0.0
1001
ACAD
1000
AcDbSavedByObjectVersion
1070
     0
1000
AcDbSavedByObjectVersion
1070
     0
1001
ACAD
1000
AcRTDxfName
1000
VISUALSTYLE
  0
VISUALSTYLE
  5
1BF
102
{ACAD_REACTORS
330
17A
102
}
330
17A
100
AcDbVisualStyle
  2
Dim
 70
    11
 71
     2
 72
     2
 73
     0
 90
        0
 40
-0.6
 41
-30.0
 62
     5
 63
     7
 74
     1
 91
        4
 64
     7
 65
   257
 75
     1
175
     1
 42
1.0
 92
        8
 66
     7
 43
1.0
 76
     1
 77
     6
 78
     2
 67
     7
 79
     5
170
     0
171
     0
290
     0
174
     0
 93
        1
 44
-50.0
173
     0
291
     1
 45
0.0
1001
ACAD
1000
AcDbSavedByObjectVersion
1070
     0
1000
AcDbSavedByObjectVersion
1070
     0
1001
ACAD
1000
AcRTDxfName
1000
VISUALSTYLE
  0
VISUALSTYLE
  5
1C3
102
{ACAD_REACTORS
330
17A
102
}
330
17A
100
AcDbVisualStyle
  2
Facepattern
 70
    15
 71
     2
 72
     2
 73
     0
 90
        0
 40
-0.6
 41
-30.0
 62
     5
 63
     7
 74
     1
 91
        4
 64
     7
 65
   257
 75
     1
175
     1
 42
1.0
 92
        8
 66
     7
 43
1.0
 76
     1
 77
     6
 78
     2
 67
     7
 79
     5
170
     0
171
     0
290
     0
174
     0
 93
        1
 44
0.0
173
     0
291
     1
 45
0.0
1001
ACAD
1000
AcDbSavedByObjectVersion
1070
     0
1000
AcDbSavedByObjectVersion
1070
     0
1001
ACAD
1000
AcRTDxfName
1000
VISUALSTYLE
  0
VISUALSTYLE
  5
1B8
102
{ACAD_REACTORS
330
17A
102
}
330
17A
100
AcDbVisualStyle
  2
Flat
 70
     0
 71
     2
 72
     1
 73
     1
 90
        2
 40
-0.6
 41
30.0
 62
     5
 63
     7
 74
     0
 91
        4
 64
     7
 65
   257
 75
     1
175
     1
 42
1.0
 92
        8
 66
     7
 43
1.0
 76
     1
 77
     6
 78
     2
 67
     7
 79
     5
170
     0
171
     0
290
     0
174
     0
 93
       13
 44
0.0
173
     0
291
     1
 45
0.0
1001
ACAD
1000
AcDbSavedByObjectVersion
1070
     0
1000
AcDbSavedByObjectVersion
1070
     0
1001
ACAD
1000
AcRTDxfName
1000
VISUALSTYLE
  0
VISUALSTYLE
  5
1B9
102
{ACAD_REACTORS
330
17A
102
}
330
17A
100
AcDbVisualStyle
  2
FlatWithEdges
 70
     1
 71
     2
 72
     1
 73
     1
 90
        2
 40
-0.6
 41
30.0
 62
     5
 63
     7
 74
     1
 91
        4
 64
     7
 65
   257
 75
     1
175
     1
 42
1.0
 92
        0
 66
   257
 43
1.0
 76
     1
 77
     6
 78
     2
 67
     7
 79
     5
170
     0
171
     0
290
     0
174
     0
 93
       13
 44
0.0
173
     0
291
     1
 45
0.0
1001
ACAD
1000
AcDbSavedByObjectVersion
1070
     0
1000
AcDbSavedByObjectVersion
1070
     0
1001
ACAD
1000
AcRTDxfName
1000
VISUALSTYLE
  0
VISUALSTYLE
  5
1BA
102
{ACAD_REACTORS
330
17A
102
}
330
17A
100
AcDbVisualStyle
  2
Gouraud
 70
     2
 71
     2
 72
     2
 73
     1
 90
        2
 40
-0.6
 41
30.0
 62
     5
 63
     7
 74
     0
 91
        4
 64
     7
 65
   257
 75
     1
175
     1
 42
1.0
 92
        0
 66
     7
 43
1.0
 76
     1
 77
     6
 78
     2
 67
     7
 79
     5
170
     0
171
     0
290
     0
174
     0
 93
       13
 44
0.0
173
     0
291
     1
 45
0.0
1001
ACAD
1000
AcDbSavedByObjectVersion
1070
     0
1000
AcDbSavedByObjectVersion
1070
     0
1001
ACAD
1000
AcRTDxfName
1000
VISUALSTYLE
  0
VISUALSTYLE
  5
1BB
102
{ACAD_REACTORS
330
17A
102
}
330
17A
100
AcDbVisualStyle
  2
GouraudWithEdges
 70
     3
 71
     2
 72
     2
 73
     1
 90
        2
 40
-0.6
 41
30.0
 62
     5
 63
     7
 74
     1
 91
        4
 64
     7
 65
   257
 75
     1
175
     1
 42
1.0
 92
        0
 66
   257
 43
1.0
 76
     1
 77
     6
 78
     2
 67
     7
 79
     5
170
     0
171
     0
290
     0
174
     0
 93
       13
 44
0.0
173
     0
291
     1
 45
0.0
1001
ACAD
1000
AcDbSavedByObjectVersion
1070
     0
1000
AcDbSavedByObjectVersion
1070
     0
1001
ACAD
1000
AcRTDxfName
1000
VISUALSTYLE
  0
VISUALSTYLE
  5
1C2
102
{ACAD_REACTORS
330
17A
102
}
330
17A
100
AcDbVisualStyle
  2
Linepattern
 70
    14
 71
     2
 72
     2
 73
     0
 90
        0
 40
-0.6
 41
-30.0
 62
     5
 63
     7
 74
     1
 91
        4
 64
     7
 65
   257
 75
     7
175
     7
 42
1.0
 92
        8
 66
     7
 43
1.0
 76
     1
 77
     6
 78
     2
 67
     7
 79
     5
170
     0
171
     0
290
     0
174
     0
 93
        1
 44
0.0
173
     0
291
     1
 45
0.0
1001
ACAD
1000
AcDbSavedByObjectVersion
1070
     0
1000
AcDbSavedByObjectVersion
1070
     0
1001
ACAD
1000
AcRTDxfName
1000
VISUALSTYLE
  0
VISUALSTYLE
  5
188
102
{ACAD_REACTORS
330
17A
102
}
330
17A
100
AcDbVisualStyle
  2
Realistic
 70
     8
 71
     2
 72
     2
 73
     0
 90
        0
 40
-0.6
 41
-30.0
 62
     5
 63
     7
 74
     1
 91
        0
 64
     7
 65
   257
 75
     1
175
     1
 42
1.0
 92
        8
 66
     8
 43
1.0
 76
     1
 77
     6
 78
     2
 67
     7
 79
     5
170
     0
171
     0
290
     0
174
     0
 93
       13
 44
0.0
173
     0
291
     0
 45
0.0
1001
ACAD
1000
AcDbSavedByObjectVersion
1070
     0
1000
AcDbSavedByObjectVersion
1070
     0
1000
AcDbSavedByObjectVersion
1070
     0
1001
ACAD
1000
AcRTDxfName
1000
VISUALSTYLE
  0
VISUALSTYLE
  5
1C1
102
{ACAD_REACTORS
330
17A
102
}
330
17A
100
AcDbVisualStyle
  2
Thicken
 70
    13
 71
     2
 72
     2
 73
     0
 90
        0
 40
-0.6
 41
-30.0
 62
     5
 63
     7
 74
     1
 91
        4
 64
     7
 65
   257
 75
     1
175
     1
 42
1.0
 92
       12
 66
     7
 43
1.0
 76
     1
 77
     6
 78
     2
 67
     7
 79
     5
170
     0
171
     0
290
     0
174
     0
 93
        1
 44
0.0
173
     0
291
     1
 45
0.0
1001
ACAD
1000
AcDbSavedByObjectVersion
1070
     0
1000
AcDbSavedByObjectVersion
1070
     0
1001
ACAD
1000
AcRTDxfName
1000
VISUALSTYLE
  0
DICTIONARYVAR
  5
18C
102
{ACAD_REACTORS
330
18B
102
}
330
18B
100
DictionaryVariables
280
     0
  1
STANDARD
  0
DICTIONARYVAR
  5
190
102
{ACAD_REACTORS
330
18B
102
}
330
18B
100
DictionaryVariables
280
     0
  1
2
  0
DICTIONARYVAR
  5
18F
102
{ACAD_REACTORS
330
18B
102
}
330
18B
100
DictionaryVariables
280
     0
  1
1
  0
DICTIONARYVAR
  5
18E
102
{ACAD_REACTORS
330
18B
102
}
330
18B
100
DictionaryVariables
280
     0
  1
0
  0
DICTIONARYVAR
  5
2F9
102
{ACAD_REACTORS
330
18B
102
}
330
18B
100
DictionaryVariables
280
     0
  1

  0
DICTIONARYVAR
  5
18D
102
{ACAD_REACTORS
330
18B
102
}
330
18B
100
DictionaryVariables
280
     0
  1
127
  0
DICTIONARY
  5
B46
330
168
100
AcDbDictionary
280
     1
281
     1
  3
ACAD_XREC_ROUNDTRIP
360
B47
  0
DICTIONARY
  5
B48
330
16C
100
AcDbDictionary
280
     1
281
     1
  3
ACAD_XREC_ROUNDTRIP
360
B49
  0
DICTIONARY
  5
B44
330
163
100
AcDbDictionary
280
     1
281
     1
  3
ACAD_XREC_ROUNDTRIP
360
B45
  0
DICTIONARY
  5
1B0
330
183
100
AcDbDictionary
280
     1
281
     1
  3
ACAD_XREC_ROUNDTRIP
360
1B1
  0
DICTIONARY
  5
1AE
330
182
100
AcDbDictionary
280
     1
281
     1
  3
ACAD_XREC_ROUNDTRIP
360
1AF
  0
DICTIONARY
  5
193
330
A
100
AcDbDictionary
280
     1
281
     1
  3
ACAD_XREC_ROUNDTRIP
360
194
  0
DICTIONARY
  5
21A
330
187
100
AcDbDictionary
280
     1
281
     1
  3
ACAD_XREC_ROUNDTRIP
360
21B
  0
XRECORD
  5
B47
102
{ACAD_REACTORS
330
B46
102
}
330
B46
100
AcDbXrecord
280
     1
102
SHADEPLOT
 70
     0
102
SHADEPLOTRESLEVEL
 70
     2
102
SHADEPLOTCUSTOMDPI
 70
   300
  0
XRECORD
  5
B49
102
{ACAD_REACTORS
330
B48
102
}
330
B48
100
AcDbXrecord
280
     1
102
SHADEPLOT
 70
     0
102
SHADEPLOTRESLEVEL
 70
     2
102
SHADEPLOTCUSTOMDPI
 70
   300
  0
XRECORD
  5
B45
102
{ACAD_REACTORS
330
B44
102
}
330
B44
100
AcDbXrecord
280
     1
102
SHADEPLOT
 70
     0
102
SHADEPLOTRESLEVEL
 70
     2
102
SHADEPLOTCUSTOMDPI
 70
   300
  0
XRECORD
  5
1B1
102
{ACAD_REACTORS
330
1B0
102
}
330
1B0
100
AcDbXrecord
280
     1
102
MATERIAL
148
0.0
149
0.0
149
0.0
 93
        0
 94
       63
282
     0
 72
     1
 77
     1
171
     1
175
     1
179
     1
273
     0
  0
XRECORD
  5
1AF
102
{ACAD_REACTORS
330
1AE
102
}
330
1AE
100
AcDbXrecord
280
     1
102
MATERIAL
148
0.0
149
0.0
149
0.0
 93
        0
 94
       63
282
     0
 72
     1
 77
     1
171
     1
175
     1
179
     1
273
     0
  0
XRECORD
  5
194
102
{ACAD_REACTORS
330
193
102
}
330
193
100
AcDbXrecord
280
     1
102
MATERIAL
148
0.0
149
0.0
149
0.0
 93
        0
 94
       63
282
     0
 72
     1
 77
     1
171
     1
175
     1
179
     1
273
     0
  0
XRECORD
  5
21B
102
{ACAD_REACTORS
330
21A
102
}
330
21A
100
AcDbXrecord
280
     1
102
ACAD_ROUNDTRIP_PRE2007_TABLESTYLE
 90
        4
 91
        0
  1

 92
        4
 93
        0
  2

 94
        4
 95
        0
  3

  0
ENDSEC
  0
EOF
