  0
SECTION
  2
HEADER
  9
$ACADVER
  1
AC1015
  9
$ACADMAINTVER
 70
    20
  9
$DWGCODEPAGE
  3
ANSI_1252
  9
$INSBASE
 10
0.0
 20
0.0
 30
0.0
  9
$EXTMIN
 10
0.0149999999999999
 20
0.015
 30
0.0
  9
$EXTMAX
 10
0.9145039253974081
 20
0.4676191606218766
 30
0.0
  9
$LIMMIN
 10
0.0
 20
0.0
  9
$LIMMAX
 10
1.0
 20
0.5
  9
$ORTHOMODE
 70
     0
  9
$REGENMODE
 70
     1
  9
$FILLMODE
 70
     1
  9
$QTEXTMODE
 70
     0
  9
$MIRRTEXT
 70
     0
  9
$LTSCALE
 40
1.0
  9
$ATTMODE
 70
     1
  9
$TEXTSIZE
 40
0.008
  9
$TRACEWID
 40
1.0
  9
$TEXTSTYLE
  7
style1
  9
$CLAYER
  8
Text
  9
$CELTYPE
  6
ACAD_ISO10W100
  9
$CECOLOR
 62
   256
  9
$CELTSCALE
 40
1.0
  9
$DISPSILH
 70
     0
  9
$DIMSCALE
 40
0.001
  9
$DIMASZ
 40
1.5
  9
$DIMEXO
 40
0.0625
  9
$DIMDLI
 40
0.38
  9
$DIMRND
 40
0.0
  9
$DIMDLE
 40
0.0
  9
$DIMEXE
 40
0.18
  9
$DIMTP
 40
0.0
  9
$DIMTM
 40
0.0
  9
$DIMTXT
 40
3.0
  9
$DIMCEN
 40
0.0
  9
$DIMTSZ
 40
0.0
  9
$DIMTOL
 70
     0
  9
$DIMLIM
 70
     0
  9
$DIMTIH
 70
     1
  9
$DIMTOH
 70
     1
  9
$DIMSE1
 70
     0
  9
$DIMSE2
 70
     0
  9
$DIMTAD
 70
     0
  9
$DIMZIN
 70
     0
  9
$DIMBLK
  1
ArchTick
  9
$DIMASO
 70
     1
  9
$DIMSHO
 70
     1
  9
$DIMPOST
  1

  9
$DIMAPOST
  1

  9
$DIMALT
 70
     0
  9
$DIMALTD
 70
     2
  9
$DIMALTF
 40
25.4
  9
$DIMLFAC
 40
1.0
  9
$DIMTOFL
 70
     0
  9
$DIMTVP
 40
0.0
  9
$DIMTIX
 70
     0
  9
$DIMSOXD
 70
     0
  9
$DIMSAH
 70
     0
  9
$DIMBLK1
  1

  9
$DIMBLK2
  1

  9
$DIMSTYLE
  2
Bovelacci
  9
$DIMCLRD
 70
     5
  9
$DIMCLRE
 70
     5
  9
$DIMCLRT
 70
     4
  9
$DIMTFAC
 40
1.0
  9
$DIMGAP
 40
2.0
  9
$DIMJUST
 70
     0
  9
$DIMSD1
 70
     0
  9
$DIMSD2
 70
     0
  9
$DIMTOLJ
 70
     1
  9
$DIMTZIN
 70
     0
  9
$DIMALTZ
 70
     0
  9
$DIMALTTZ
 70
     0
  9
$DIMUPT
 70
     0
  9
$DIMDEC
 70
     2
  9
$DIMTDEC
 70
     2
  9
$DIMALTU
 70
     2
  9
$DIMALTTD
 70
     2
  9
$DIMTXSTY
  7
ROMANS
  9
$DIMAUNIT
 70
     0
  9
$DIMADEC
 70
     0
  9
$DIMALTRND
 40
0.0
  9
$DIMAZIN
 70
     0
  9
$DIMDSEP
 70
    46
  9
$DIMATFIT
 70
     3
  9
$DIMFRAC
 70
     0
  9
$DIMLDRBLK
  1

  9
$DIMLUNIT
 70
     2
  9
$DIMLWD
 70
    -2
  9
$DIMLWE
 70
    -2
  9
$DIMTMOVE
 70
     2
  9
$LUNITS
 70
     2
  9
$LUPREC
 70
     2
  9
$SKETCHINC
 40
1.0
  9
$FILLETRAD
 40
0.0
  9
$AUNITS
 70
     0
  9
$AUPREC
 70
     0
  9
$MENU
  1
.
  9
$ELEVATION
 40
0.0
  9
$PELEVATION
 40
0.0
  9
$THICKNESS
 40
0.0
  9
$LIMCHECK
 70
     0
  9
$CHAMFERA
 40
0.0
  9
$CHAMFERB
 40
0.0
  9
$CHAMFERC
 40
0.0
  9
$CHAMFERD
 40
0.0
  9
$SKPOLY
 70
     0
  9
$TDCREATE
 40
2454297.625402373
  9
$TDUCREATE
 40
2454297.542069039
  9
$TDUPDATE
 40
2454311.549219653
  9
$TDUUPDATE
 40
2454311.465886320
  9
$TDINDWG
 40
0.1292350347
  9
$TDUSRTIMER
 40
0.1292330324
  9
$USRTIMER
 70
     1
  9
$ANGBASE
 50
0.0
  9
$ANGDIR
 70
     0
  9
$PDMODE
 70
     0
  9
$PDSIZE
 40
0.0
  9
$PLINEWID
 40
0.0
  9
$SPLFRAME
 70
     0
  9
$SPLINETYPE
 70
     6
  9
$SPLINESEGS
 70
     8
  9
$HANDSEED
  5
F38
  9
$SURFTAB1
 70
     6
  9
$SURFTAB2
 70
     6
  9
$SURFTYPE
 70
     6
  9
$SURFU
 70
     6
  9
$SURFV
 70
     6
  9
$UCSBASE
  2

  9
$UCSNAME
  2

  9
$UCSORG
 10
0.0
 20
0.0
 30
0.0
  9
$UCSXDIR
 10
1.0
 20
0.0
 30
0.0
  9
$UCSYDIR
 10
0.0
 20
1.0
 30
0.0
  9
$UCSORTHOREF
  2

  9
$UCSORTHOVIEW
 70
     0
  9
$UCSORGTOP
 10
0.0
 20
0.0
 30
0.0
  9
$UCSORGBOTTOM
 10
0.0
 20
0.0
 30
0.0
  9
$UCSORGLEFT
 10
0.0
 20
0.0
 30
0.0
  9
$UCSORGRIGHT
 10
0.0
 20
0.0
 30
0.0
  9
$UCSORGFRONT
 10
0.0
 20
0.0
 30
0.0
  9
$UCSORGBACK
 10
0.0
 20
0.0
 30
0.0
  9
$PUCSBASE
  2

  9
$PUCSNAME
  2

  9
$PUCSORG
 10
0.0
 20
0.0
 30
0.0
  9
$PUCSXDIR
 10
1.0
 20
0.0
 30
0.0
  9
$PUCSYDIR
 10
0.0
 20
1.0
 30
0.0
  9
$PUCSORTHOREF
  2

  9
$PUCSORTHOVIEW
 70
     0
  9
$PUCSORGTOP
 10
0.0
 20
0.0
 30
0.0
  9
$PUCSORGBOTTOM
 10
0.0
 20
0.0
 30
0.0
  9
$PUCSORGLEFT
 10
0.0
 20
0.0
 30
0.0
  9
$PUCSORGRIGHT
 10
0.0
 20
0.0
 30
0.0
  9
$PUCSORGFRONT
 10
0.0
 20
0.0
 30
0.0
  9
$PUCSORGBACK
 10
0.0
 20
0.0
 30
0.0
  9
$USERI1
 70
     0
  9
$USERI2
 70
     0
  9
$USERI3
 70
     0
  9
$USERI4
 70
     0
  9
$USERI5
 70
     0
  9
$USERR1
 40
0.0
  9
$USERR2
 40
0.0
  9
$USERR3
 40
0.0
  9
$USERR4
 40
0.0
  9
$USERR5
 40
0.0
  9
$WORLDVIEW
 70
     1
  9
$SHADEDGE
 70
     3
  9
$SHADEDIF
 70
    70
  9
$TILEMODE
 70
     1
  9
$MAXACTVP
 70
    64
  9
$PINSBASE
 10
0.0
 20
0.0
 30
0.0
  9
$PLIMCHECK
 70
     0
  9
$PEXTMIN
 10
1.000000000000000E+20
 20
1.000000000000000E+20
 30
1.000000000000000E+20
  9
$PEXTMAX
 10
-1.000000000000000E+20
 20
-1.000000000000000E+20
 30
-1.000000000000000E+20
  9
$PLIMMIN
 10
0.0
 20
0.0
  9
$PLIMMAX
 10
420.0
 20
297.0
  9
$UNITMODE
 70
     0
  9
$VISRETAIN
 70
     1
  9
$PLINEGEN
 70
     0
  9
$PSLTSCALE
 70
     1
  9
$TREEDEPTH
 70
  3020
  9
$CMLSTYLE
  2
Standard
  9
$CMLJUST
 70
     0
  9
$CMLSCALE
 40
20.0
  9
$PROXYGRAPHICS
 70
     1
  9
$MEASUREMENT
 70
     1
  9
$CELWEIGHT
370
    -1
  9
$ENDCAPS
280
     0
  9
$JOINSTYLE
280
     0
  9
$LWDISPLAY
290
     0
  9
$INSUNITS
 70
     4
  9
$HYPERLINKBASE
  1

  9
$STYLESHEET
  1

  9
$XEDIT
290
     1
  9
$CEPSNTYPE
380
     0
  9
$PSTYLEMODE
290
     1
  9
$FINGERPRINTGUID
  2
{904A8C64-524F-4709-A9C6-320D2C273A6D}
  9
$VERSIONGUID
  2
{584C3905-32C6-4B51-B986-6788C209A27C}
  9
$EXTNAMES
290
     1
  9
$PSVPSCALE
 40
0.0
  9
$OLESTARTUP
290
     0
  0
ENDSEC
  0
SECTION
  2
CLASSES
  0
CLASS
  1
ACDBDICTIONARYWDFLT
  2
AcDbDictionaryWithDefault
  3
ObjectDBX Classes
 90
        0
280
     0
281
     0
  0
CLASS
  1
TABLESTYLE
  2
AcDbTableStyle
  3
ObjectDBX Classes
 90
     2047
280
     0
281
     0
  0
CLASS
  1
SORTENTSTABLE
  2
AcDbSortentsTable
  3
ObjectDBX Classes
 90
        0
280
     0
281
     0
  0
CLASS
  1
DICTIONARYVAR
  2
AcDbDictionaryVar
  3
ObjectDBX Classes
 90
        0
280
     0
281
     0
  0
CLASS
  1
ACDBPLACEHOLDER
  2
AcDbPlaceHolder
  3
ObjectDBX Classes
 90
        0
280
     0
281
     0
  0
CLASS
  1
LAYOUT
  2
AcDbLayout
  3
ObjectDBX Classes
 90
        0
280
     0
281
     0
  0
CLASS
  1
DIMASSOC
  2
AcDbDimAssoc
  3
"AcDbDimAssoc|Product Desc:     AcDim ARX App For Dimension|Company:          Autodesk, Inc.|WEB Address:      www.autodesk.com"
 90
        0
280
     0
281
     0
  0
CLASS
  1
MATERIAL
  2
AcDbMaterial
  3
ObjectDBX Classes
 90
        0
280
     0
281
     0
  0
CLASS
  1
VISUALSTYLE
  2
AcDbVisualStyle
  3
ObjectDBX Classes
 90
     4095
280
     0
281
     0
  0
ENDSEC
  0
SECTION
  2
TABLES
  0
TABLE
  2
VPORT
  5
177
330
0
100
AcDbSymbolTable
 70
     3
  0
VPORT
  5
F2D
330
177
100
AcDbSymbolTableRecord
100
AcDbViewportTableRecord
  2
*Active
 70
     0
 10
0.0
 20
0.0
 11
1.0
 21
1.0
 12
0.2060086628834276
 22
0.1482631753813986
 13
0.0
 23
0.0
 14
10.0
 24
10.0
 15
10.0
 25
10.0
 16
0.0
 26
0.0
 36
1.0
 17
0.0
 27
0.0
 37
0.0
 40
0.2807758777916228
 41
1.546526867627784
 42
50.0
 43
0.0
 44
0.0
 50
0.0
 51
0.0
 71
     0
 72
  1000
 73
     1
 74
     3
 75
     0
 76
     0
 77
     0
 78
     0
281
     0
 65
     1
110
0.0
120
0.0
130
0.0
111
1.0
121
0.0
131
0.0
112
0.0
122
1.0
132
0.0
 79
     0
146
0.0
  0
ENDTAB
  0
TABLE
  2
LTYPE
  5
172
330
0
100
AcDbSymbolTable
 70
     2
  0
LTYPE
  5
173
330
172
100
AcDbSymbolTableRecord
100
AcDbLinetypeTableRecord
  2
ByBlock
 70
     0
  3

 72
    65
 73
     0
 40
0.0
  0
LTYPE
  5
174
330
172
100
AcDbSymbolTableRecord
100
AcDbLinetypeTableRecord
  2
ByLayer
 70
     0
  3

 72
    65
 73
     0
 40
0.0
  0
LTYPE
  5
C
330
172
100
AcDbSymbolTableRecord
100
AcDbLinetypeTableRecord
  2
Continuous
 70
     0
  3
Solid line
 72
    65
 73
     0
 40
0.0
  0
LTYPE
  5
14E
330
172
100
AcDbSymbolTableRecord
100
AcDbLinetypeTableRecord
  2
ACAD_ISO10W100
 70
     0
  3
ISO dash dot __ . __ . __ . __ . __ . __ . __ .
 72
    65
 73
     4
 40
18.0
 49
12.0
 74
     0
 49
-3.0
 74
     0
 49
0.0
 74
     0
 49
-3.0
 74
     0
  0
ENDTAB
  0
TABLE
  2
LAYER
  5
16D
102
{ACAD_XDICTIONARY
360
16E
102
}
330
0
100
AcDbSymbolTable
 70
     7
  0
LAYER
  5
6
330
16D
100
AcDbSymbolTableRecord
100
AcDbLayerTableRecord
  2
0
 70
     0
 62
     7
  6
Continuous
370
    -3
390
7
  0
LAYER
  5
15F
330
16D
100
AcDbSymbolTableRecord
100
AcDbLayerTableRecord
  2
Defpoints
 70
     0
 62
     7
  6
Continuous
290
     0
370
    -3
390
7
  0
LAYER
  5
28
330
16D
100
AcDbSymbolTableRecord
100
AcDbLayerTableRecord
  2
Profilo
 70
     0
 62
     1
  6
Continuous
370
    -3
390
7
1001
AcAecLayerStandard
1000

1000

  0
LAYER
  5
14D
330
16D
100
AcDbSymbolTableRecord
100
AcDbLayerTableRecord
  2
Sezione
 70
     0
 62
     2
  6
Continuous
370
    -3
390
7
1001
AcAecLayerStandard
1000

1000

  0
LAYER
  5
E
330
16D
100
AcDbSymbolTableRecord
100
AcDbLayerTableRecord
  2
Table
 70
     0
 62
     3
  6
Continuous
370
    -3
390
7
1001
AcAecLayerStandard
1000

1000

  0
LAYER
  5
19
330
16D
100
AcDbSymbolTableRecord
100
AcDbLayerTableRecord
  2
Text
 70
     0
 62
     4
  6
Continuous
370
    -3
390
7
1001
AcAecLayerStandard
1000

1000

  0
LAYER
  5
23D
330
16D
100
AcDbSymbolTableRecord
100
AcDbLayerTableRecord
  2
Bovelacci
 70
     0
 62
     9
  6
Continuous
370
    -3
390
7
1001
AcAecLayerStandard
1000

1000

  0
ENDTAB
  0
TABLE
  2
STYLE
  5
170
330
0
100
AcDbSymbolTable
 70
     3
  0
STYLE
  5
1A
330
170
100
AcDbSymbolTableRecord
100
AcDbTextStyleTableRecord
  2
Standard
 70
     0
 40
0.0
 41
1.0
 50
0.0
 71
     0
 42
2.5
  3
txt
  4

  0
STYLE
  5
20
330
170
100
AcDbSymbolTableRecord
100
AcDbTextStyleTableRecord
  2
ROMANS
 70
     0
 40
0.0
 41
1.0
 50
0.0
 71
     0
 42
2.5
  3
romans
  4

  0
STYLE
  5
26
330
170
100
AcDbSymbolTableRecord
100
AcDbTextStyleTableRecord
  2
style1
 70
     0
 40
0.0
 41
1.0
 50
0.0
 71
     0
 42
0.008
  3
TIMES.TTF
  4

1001
ACAD
1000
Times New Roman
1071
       18
  0
ENDTAB
  0
TABLE
  2
VIEW
  5
175
330
0
100
AcDbSymbolTable
 70
     1
  0
ENDTAB
  0
TABLE
  2
UCS
  5
176
330
0
100
AcDbSymbolTable
 70
     0
  0
ENDTAB
  0
TABLE
  2
APPID
  5
17B
330
0
100
AcDbSymbolTable
 70
    10
  0
APPID
  5
1B
330
17B
100
AcDbSymbolTableRecord
100
AcDbRegAppTableRecord
  2
ACAD
 70
     0
  0
APPID
  5
157
330
17B
100
AcDbSymbolTableRecord
100
AcDbRegAppTableRecord
  2
ACAD_DSTYLE_DIMJOGGED_JOGANGLE_SYMBOL
 70
     0
  0
APPID
  5
F
330
17B
100
AcDbSymbolTableRecord
100
AcDbRegAppTableRecord
  2
AcAecLayerStandard
 70
     0
  0
APPID
  5
19C
330
17B
100
AcDbSymbolTableRecord
100
AcDbRegAppTableRecord
  2
ACAD_DSTYLE_DIMFLIPARROW_WHICH_SYMBOL
 70
     0
  0
APPID
  5
1A7
330
17B
100
AcDbSymbolTableRecord
100
AcDbRegAppTableRecord
  2
ACAD_DSTYLE_DIMEXT_LENGTH
 70
     0
  0
APPID
  5
1D2
330
17B
100
AcDbSymbolTableRecord
100
AcDbRegAppTableRecord
  2
ACAD_EXEMPT_FROM_CAD_STANDARDS
 70
     0
  0
APPID
  5
1D3
330
17B
100
AcDbSymbolTableRecord
100
AcDbRegAppTableRecord
  2
ACAD_DSTYLE_DIM_LINETYPE
 70
     0
  0
APPID
  5
1D4
330
17B
100
AcDbSymbolTableRecord
100
AcDbRegAppTableRecord
  2
ACAD_DSTYLE_DIM_EXT1_LINETYPE
 70
     0
  0
APPID
  5
1D5
330
17B
100
AcDbSymbolTableRecord
100
AcDbRegAppTableRecord
  2
ACAD_DSTYLE_DIM_EXT2_LINETYPE
 70
     0
  0
APPID
  5
243
330
17B
100
AcDbSymbolTableRecord
100
AcDbRegAppTableRecord
  2
ACAD_PSEXT
 70
     0
  0
ENDTAB
  0
TABLE
  2
DIMSTYLE
  5
17C
330
0
100
AcDbSymbolTable
 70
     7
100
AcDbDimStyleTable
 71
     2
340
156
340
17D
  0
DIMSTYLE
105
17D
330
17C
100
AcDbSymbolTableRecord
100
AcDbDimStyleTableRecord
  2
ISO-25
 70
     0
 41
2.5
 42
0.625
 43
3.75
 44
1.25
 73
     0
 74
     0
 77
     1
 78
     8
140
2.5
141
2.5
143
0.03937007874016
147
0.625
171
     3
172
     1
271
     2
272
     2
274
     3
278
    44
283
     0
284
     8
340
1A
  0
DIMSTYLE
105
156
102
{ACAD_REACTORS
330
F0D
102
}
330
17C
100
AcDbSymbolTableRecord
100
AcDbDimStyleTableRecord
  2
Bovelacci
 70
     0
 40
0.001
 41
1.5
140
3.0
141
0.0
147
2.0
176
     5
177
     5
178
     4
271
     2
272
     2
279
     2
340
20
342
152
1001
ACAD_DSTYLE_DIMJOGGED_JOGANGLE_SYMBOL
1070
   384
1040
0.7853981633974483
1001
ACAD_DSTYLE_DIMEXT_LENGTH
1070
   378
1040
0.18
  0
DIMSTYLE
105
23E
330
17C
100
AcDbSymbolTableRecord
100
AcDbDimStyleTableRecord
  2
Dim 1-100
 70
     0
 40
0.1
 41
1.5
 42
0.0
 43
5.0
 44
1.25
 45
0.005
 46
1.25
 73
     0
 74
     0
 77
     1
 78
     9
140
2.0
141
2.5
147
1.0
172
     1
174
     1
179
     2
279
     2
289
     2
340
20
342
152
  0
DIMSTYLE
105
23F
330
17C
100
AcDbSymbolTableRecord
100
AcDbDimStyleTableRecord
  2
Standard
 70
     0
 42
0.0
 73
     0
 74
     0
 77
     1
271
     2
272
     2
340
20
  0
DIMSTYLE
105
240
330
17C
100
AcDbSymbolTableRecord
100
AcDbDimStyleTableRecord
  2
Dim 1-50
 70
     0
 40
0.05
 41
1.5
 42
0.0
 43
5.0
 44
1.25
 45
0.005
 46
1.25
 73
     0
 74
     0
 77
     1
 78
     9
140
2.0
141
2.5
147
1.0
172
     1
174
     1
179
     2
279
     2
289
     2
340
20
342
152
  0
DIMSTYLE
105
241
330
17C
100
AcDbSymbolTableRecord
100
AcDbDimStyleTableRecord
  2
Dim 1-200
 70
     0
 40
0.2
 41
1.5
 42
0.0
 43
5.0
 44
1.25
 45
0.005
 46
1.25
 73
     0
 74
     0
 77
     1
 78
     9
140
2.0
141
2.5
147
1.0
172
     1
174
     1
179
     2
271
     2
272
     2
279
     2
289
     2
340
20
342
152
  0
DIMSTYLE
105
242
330
17C
100
AcDbSymbolTableRecord
100
AcDbDimStyleTableRecord
  2
AEC Scale - Italiano
 70
     0
 41
1.0
 42
10.0
 43
10.0
 44
10.0
 73
     0
 74
     0
 75
     1
 76
     1
 77
     1
140
10.0
141
1.0
147
10.0
173
     1
271
     0
272
     0
279
     2
340
1A
343
238
344
232
  0
ENDTAB
  0
TABLE
  2
BLOCK_RECORD
  5
1
330
0
100
AcDbSymbolTable
 70
     9
  0
BLOCK_RECORD
  5
2
102
{ACAD_XDICTIONARY
360
3
102
}
330
1
100
AcDbSymbolTableRecord
100
AcDbBlockTableRecord
  2
*Model_Space
340
163
  0
BLOCK_RECORD
  5
165
330
1
100
AcDbSymbolTableRecord
100
AcDbBlockTableRecord
  2
*Paper_Space
340
168
  0
BLOCK_RECORD
  5
169
330
1
100
AcDbSymbolTableRecord
100
AcDbBlockTableRecord
  2
*Paper_Space0
340
16C
  0
BLOCK_RECORD
  5
152
330
1
100
AcDbSymbolTableRecord
100
AcDbBlockTableRecord
  2
_ArchTick
340
0
310
2800000020000000200000000100080000000000000400000000000000000000000000000000000000000000000080000080000000808000800000008000800080800000C0C0C000C0DCC000F0CAA6000020400000206000002080000020A0000020C0000020E00000400000004020000040400000406000004080000040A0
310
000040C0000040E00000600000006020000060400000606000006080000060A0000060C0000060E00000800000008020000080400000806000008080000080A0000080C0000080E00000A0000000A0200000A0400000A0600000A0800000A0A00000A0C00000A0E00000C0000000C0200000C0400000C0600000C0800000C0
310
A00000C0C00000C0E00000E0000000E0200000E0400000E0600000E0800000E0A00000E0C00000E0E00040000000400020004000400040006000400080004000A0004000C0004000E00040200000402020004020400040206000402080004020A0004020C0004020E000404000004040200040404000404060004040800040
310
40A0004040C0004040E00040600000406020004060400040606000406080004060A0004060C0004060E00040800000408020004080400040806000408080004080A0004080C0004080E00040A0000040A0200040A0400040A0600040A0800040A0A00040A0C00040A0E00040C0000040C0200040C0400040C0600040C08000
310
40C0A00040C0C00040C0E00040E0000040E0200040E0400040E0600040E0800040E0A00040E0C00040E0E00080000000800020008000400080006000800080008000A0008000C0008000E00080200000802020008020400080206000802080008020A0008020C0008020E00080400000804020008040400080406000804080
310
008040A0008040C0008040E00080600000806020008060400080606000806080008060A0008060C0008060E00080800000808020008080400080806000808080008080A0008080C0008080E00080A0000080A0200080A0400080A0600080A0800080A0A00080A0C00080A0E00080C0000080C0200080C0400080C0600080C0
310
800080C0A00080C0C00080C0E00080E0000080E0200080E0400080E0600080E0800080E0A00080E0C00080E0E000C0000000C0002000C0004000C0006000C0008000C000A000C000C000C000E000C0200000C0202000C0204000C0206000C0208000C020A000C020C000C020E000C0400000C0402000C0404000C0406000C0
310
408000C040A000C040C000C040E000C0600000C0602000C0604000C0606000C0608000C060A000C060C000C060E000C0800000C0802000C0804000C0806000C0808000C080A000C080C000C080E000C0A00000C0A02000C0A04000C0A06000C0A08000C0A0A000C0A0C000C0A0E000C0C00000C0C02000C0C04000C0C06000
310
C0C08000C0C0A000F0FBFF00A4A0A000808080000000FF0000FF000000FFFF00FF000000FF00FF00FFFF0000FFFFFF00000000FF000000000000000000000000000000000000000000000000000000000000FF00FF00000000000000000000000000000000000000000000000000000000FF000000FF000000000000000000
310
0000000000000000000000000000000000FF0000000000FF0000000000000000000000000000000000000000000000000000FF0000000000FF0000000000000000000000000000000000000000000000000000FF0000000000FF0000000000000000000000000000000000000000000000000000FF0000000000FF00000000
310
00000000000000000000000000000000000000000000FF0000000000FF0000000000000000000000000000000000000000000000000000FF0000000000FF0000000000000000000000000000000000000000000000000000FF0000000000FF0000000000000000000000000000000000000000000000000000FF0000000000
310
FF0000000000000000000000000000000000000000000000000000FF0000000000FF0000000000000000000000000000000000000000000000000000FF0000000000FF0000000000000000000000000000000000000000000000000000FF0000000000FF0000000000000000000000000000000000000000000000000000FF
310
0000000000FF0000000000000000000000000000000000000000000000000000FF0000000000FF0000000000000000000000000000000000000000000000000000FF0000000000FF0000000000000000000000000000000000000000000000000000FF0000000000FF00000000000000000000000000000000000000000000
310
00000000FF0000000000FF0000000000000000000000000000000000000000000000000000FF0000000000FF0000000000000000000000000000000000000000000000000000FF0000000000FF0000000000000000000000000000000000000000000000000000FF0000000000FF0000000000000000000000000000000000
310
000000000000000000FF0000000000FF0000000000000000000000000000000000000000000000000000FF0000000000FF0000000000000000000000000000000000000000000000000000FF0000000000FF0000000000000000000000000000000000000000000000000000FF0000000000FF000000000000000000000000
310
0000000000000000000000000000FF0000000000FF0000000000000000000000000000000000000000000000000000FF0000000000FF0000000000000000000000000000000000000000000000000000FF0000000000FF0000000000000000000000000000000000000000000000000000FF000000FF000000000000000000
310
00000000000000000000000000000000000000FF00FF000000000000000000000000000000000000000000000000000000000000FF000000
102
{BLKREFS
331
8C4
331
8D8
331
B3A
331
F28
102
}
  0
BLOCK_RECORD
  5
232
330
1
100
AcDbSymbolTableRecord
100
AcDbBlockTableRecord
  2
_Arrivo
340
0
310
2800000020000000200000000100080000000000000400000000000000000000000000000000000000000000000080000080000000808000800000008000800080800000C0C0C000C0DCC000F0CAA6000020400000206000002080000020A0000020C0000020E00000400000004020000040400000406000004080000040A0
310
000040C0000040E00000600000006020000060400000606000006080000060A0000060C0000060E00000800000008020000080400000806000008080000080A0000080C0000080E00000A0000000A0200000A0400000A0600000A0800000A0A00000A0C00000A0E00000C0000000C0200000C0400000C0600000C0800000C0
310
A00000C0C00000C0E00000E0000000E0200000E0400000E0600000E0800000E0A00000E0C00000E0E00040000000400020004000400040006000400080004000A0004000C0004000E00040200000402020004020400040206000402080004020A0004020C0004020E000404000004040200040404000404060004040800040
310
40A0004040C0004040E00040600000406020004060400040606000406080004060A0004060C0004060E00040800000408020004080400040806000408080004080A0004080C0004080E00040A0000040A0200040A0400040A0600040A0800040A0A00040A0C00040A0E00040C0000040C0200040C0400040C0600040C08000
310
40C0A00040C0C00040C0E00040E0000040E0200040E0400040E0600040E0800040E0A00040E0C00040E0E00080000000800020008000400080006000800080008000A0008000C0008000E00080200000802020008020400080206000802080008020A0008020C0008020E00080400000804020008040400080406000804080
310
008040A0008040C0008040E00080600000806020008060400080606000806080008060A0008060C0008060E00080800000808020008080400080806000808080008080A0008080C0008080E00080A0000080A0200080A0400080A0600080A0800080A0A00080A0C00080A0E00080C0000080C0200080C0400080C0600080C0
310
800080C0A00080C0C00080C0E00080E0000080E0200080E0400080E0600080E0800080E0A00080E0C00080E0E000C0000000C0002000C0004000C0006000C0008000C000A000C000C000C000E000C0200000C0202000C0204000C0206000C0208000C020A000C020C000C020E000C0400000C0402000C0404000C0406000C0
310
408000C040A000C040C000C040E000C0600000C0602000C0604000C0606000C0608000C060A000C060C000C060E000C0800000C0802000C0804000C0806000C0808000C080A000C080C000C080E000C0A00000C0A02000C0A04000C0A06000C0A08000C0A0A000C0A0C000C0A0E000C0C00000C0C02000C0C04000C0C06000
310
C0C08000C0C0A000F0FBFF00A4A0A000808080000000FF0000FF000000FFFF00FF000000FF00FF00FFFF0000FFFFFF00000000000000000000000000000000000000000000000000000000000000000000000000000000000000FF0000000000000000000000000000000000000000000000000000000000000000FF000000
310
00000000000000000000000000000000000000000000000000000000FF0000000000000000000000000000000000000000000000000000000000000000FF00000000000000000000000000000000000000000000000000000000000000FF0000000000000000000000000000000000000000000000000000000000000000FF
310
0000000000000000000000000000000000000000000000000000000000000000FF00000000000000000000000000000000000000000000000000000000000000FF0000000000000000000000000000000000000000000000000000000000000000FF0000000000000000000000000000000000000000000000000000000000
310
0000FF0000000000000000000000000000000000000000000000000000000000000000FF00000000000000000000000000000000000000000000000000000000000000FF0000000000000000000000000000000000000000000000000000000000000000FF0000FF0000000000000000000000000000000000000000000000
310
000000000000FFFF000000000000000000000000000000000000000000000000000000000000FFFF00000000000000000000000000000000000000000000000000000000FFFFFFFFFFFF00000000000000000000000000000000000000000000000000000000FFFF0000000000000000000000000000000000000000000000
310
000000000000FF0000FF000000000000000000000000000000000000000000000000000000FF00000000000000000000000000000000000000000000000000000000000000FF000000000000000000000000000000000000000000000000000000000000FF0000000000000000000000000000000000000000000000000000
310
0000000000FF000000000000000000000000000000000000000000000000000000000000FF00000000000000000000000000000000000000000000000000000000000000FF000000000000000000000000000000000000000000000000000000000000FF000000000000000000000000000000000000000000000000000000
310
000000FF00000000000000000000000000000000000000000000000000000000000000FF000000000000000000000000000000000000000000000000000000000000FF00000000000000000000000000000000000000000000000000000000000000FF00000000000000000000000000000000000000000000000000000000
310
0000FF0000000000000000000000000000000000000000000000000000000000000000000000000000000000000000000000000000000000
  0
BLOCK_RECORD
  5
238
330
1
100
AcDbSymbolTableRecord
100
AcDbBlockTableRecord
  2
_Partenza
340
0
310
2800000020000000200000000100080000000000000400000000000000000000000000000000000000000000000080000080000000808000800000008000800080800000C0C0C000C0DCC000F0CAA6000020400000206000002080000020A0000020C0000020E00000400000004020000040400000406000004080000040A0
310
000040C0000040E00000600000006020000060400000606000006080000060A0000060C0000060E00000800000008020000080400000806000008080000080A0000080C0000080E00000A0000000A0200000A0400000A0600000A0800000A0A00000A0C00000A0E00000C0000000C0200000C0400000C0600000C0800000C0
310
A00000C0C00000C0E00000E0000000E0200000E0400000E0600000E0800000E0A00000E0C00000E0E00040000000400020004000400040006000400080004000A0004000C0004000E00040200000402020004020400040206000402080004020A0004020C0004020E000404000004040200040404000404060004040800040
310
40A0004040C0004040E00040600000406020004060400040606000406080004060A0004060C0004060E00040800000408020004080400040806000408080004080A0004080C0004080E00040A0000040A0200040A0400040A0600040A0800040A0A00040A0C00040A0E00040C0000040C0200040C0400040C0600040C08000
310
40C0A00040C0C00040C0E00040E0000040E0200040E0400040E0600040E0800040E0A00040E0C00040E0E00080000000800020008000400080006000800080008000A0008000C0008000E00080200000802020008020400080206000802080008020A0008020C0008020E00080400000804020008040400080406000804080
310
008040A0008040C0008040E00080600000806020008060400080606000806080008060A0008060C0008060E00080800000808020008080400080806000808080008080A0008080C0008080E00080A0000080A0200080A0400080A0600080A0800080A0A00080A0C00080A0E00080C0000080C0200080C0400080C0600080C0
310
800080C0A00080C0C00080C0E00080E0000080E0200080E0400080E0600080E0800080E0A00080E0C00080E0E000C0000000C0002000C0004000C0006000C0008000C000A000C000C000C000E000C0200000C0202000C0204000C0206000C0208000C020A000C020C000C020E000C0400000C0402000C0404000C0406000C0
310
408000C040A000C040C000C040E000C0600000C0602000C0604000C0606000C0608000C060A000C060C000C060E000C0800000C0802000C0804000C0806000C0808000C080A000C080C000C080E000C0A00000C0A02000C0A04000C0A06000C0A08000C0A0A000C0A0C000C0A0E000C0C00000C0C02000C0C04000C0C06000
310
C0C08000C0C0A000F0FBFF00A4A0A000808080000000FF0000FF000000FFFF00FF000000FF00FF00FFFF0000FFFFFF0000000000000000000000000000000000000000000000000000000000000000000000000000000000000000000000000000000000000000000000000000000000000000000000000000000000000000
310
000000000000000000000000000000000000000000000000000000000000000000000000000000000000000000000000000000000000000000000000000000000000000000000000000000000000000000000000000000000000000000000000000000000000000000000000000000000000FFFFFFFFFFFFFFFFFFFFFFFFFF
310
FFFFFFFFFFFFFFFFFFFFFFFFFFFFFFFFFF0000000000000000000000000000000000000000000000000000000000000000000000000000000000000000000000000000000000000000000000000000000000000000000000000000000000000000000000000000000000000000000000000000000000000000000000000000
310
00000000000000000000000000000000000000000000000000000000000000000000000000000000000000000000000000000000000000000000000000000000000000000000000000000000000000000000000000000000000000000000000000000000000000000000000000000000000000000000000000000000000000
310
00000000000000000000000000000000000000000000000000000000000000000000000000000000000000000000000000000000000000000000000000000000000000000000000000000000000000000000000000000000000000000000000000000000000000000000000000000000000000000000000000000000000000
310
00000000000000000000000000000000000000000000000000000000000000000000000000000000000000000000000000000000000000000000000000000000000000000000000000000000000000000000000000000000000000000000000000000000000000000000000000000000000000000000000000000000000000
310
000000000000000000000000000000000000000000000000000000000000000000000000000000000000000000000000000000000000000000000000000000000000000000000000000000000000000000000000000000FFFFFFFFFFFFFFFFFFFFFFFFFFFFFFFFFFFFFFFFFFFFFFFFFFFFFFFFFFFF00000000000000000000
310
00000000000000000000000000000000000000000000000000000000000000000000000000000000000000000000000000000000000000000000000000000000000000000000000000000000000000000000000000000000000000000000000000000000000000000000000000000000000000000000000000000000000000
310
0000000000000000000000000000000000000000000000000000000000000000000000000000000000000000000000000000000000000000
  0
BLOCK_RECORD
  5
B2E
330
1
100
AcDbSymbolTableRecord
100
AcDbBlockTableRecord
  2
*D6
340
0
  0
BLOCK_RECORD
  5
F0E
330
1
100
AcDbSymbolTableRecord
100
AcDbBlockTableRecord
  2
*D8
340
0
  0
ENDTAB
  0
ENDSEC
  0
SECTION
  2
BLOCKS
  0
BLOCK
  5
5
330
2
100
AcDbEntity
  8
0
100
AcDbBlockBegin
  2
*Model_Space
 70
     0
 10
0.0
 20
0.0
 30
0.0
  3
*Model_Space
  1

  0
ENDBLK
  5
162
330
2
100
AcDbEntity
  8
0
100
AcDbBlockEnd
  0
BLOCK
  5
166
330
165
100
AcDbEntity
 67
     1
  8
0
100
AcDbBlockBegin
  2
*Paper_Space
 70
     0
 10
0.0
 20
0.0
 30
0.0
  3
*Paper_Space
  1

  0
ENDBLK
  5
167
330
165
100
AcDbEntity
 67
     1
  8
0
100
AcDbBlockEnd
  0
BLOCK
  5
16A
330
169
100
AcDbEntity
 67
     1
  8
0
100
AcDbBlockBegin
  2
*Paper_Space0
 70
     0
 10
0.0
 20
0.0
 30
0.0
  3
*Paper_Space0
  1

  0
ENDBLK
  5
16B
330
169
100
AcDbEntity
 67
     1
  8
0
100
AcDbBlockEnd
  0
BLOCK
  5
153
330
152
100
AcDbEntity
  8
0
 62
     1
100
AcDbBlockBegin
  2
_ArchTick
 70
     0
 10
0.0
 20
0.0
 30
0.0
  3
_ArchTick
  1

  0
LWPOLYLINE
  5
154
330
152
100
AcDbEntity
  8
0
  6
ByBlock
 62
     0
100
AcDbPolyline
 90
        2
 70
     0
 43
0.15
 10
-0.5
 20
-0.5
 10
0.5
 20
0.5
  0
ENDBLK
  5
155
330
152
100
AcDbEntity
  8
0
 62
     1
100
AcDbBlockEnd
  0
BLOCK
  5
233
330
232
100
AcDbEntity
  8
0
100
AcDbBlockBegin
  2
_Arrivo
 70
     0
 10
0.0
 20
0.0
 30
0.0
  3
_Arrivo
  1

  0
LINE
  5
234
330
232
100
AcDbEntity
  8
0
  6
ByBlock
 62
     0
370
    -2
100
AcDbLine
 10
0.025
 20
-0.0433012701891858
 30
0.0
 11
-0.15
 21
0.2598076211353328
 31
0.0
  0
LINE
  5
235
330
232
100
AcDbEntity
  8
0
  6
ByBlock
 62
     0
370
    -2
100
AcDbLine
 10
0.025
 20
0.0433012701892585
 30
0.0
 11
-0.15
 21
-0.2598076211353328
 31
0.0
  0
LINE
  5
236
330
232
100
AcDbEntity
  8
0
  6
ByBlock
 62
     0
370
    -2
100
AcDbLine
 10
-0.05
 20
0.0
 30
0.0
 11
0.05
 21
0.0
 31
0.0
  0
ENDBLK
  5
237
330
232
100
AcDbEntity
  8
0
100
AcDbBlockEnd
  0
BLOCK
  5
239
330
238
100
AcDbEntity
  8
0
100
AcDbBlockBegin
  2
_Partenza
 70
     0
 10
0.0
 20
0.0
 30
0.0
  3
_Partenza
  1

  0
LINE
  5
23A
330
238
100
AcDbEntity
  8
0
  6
ByBlock
 62
     0
370
    -2
100
AcDbLine
 10
-0.05
 20
0.05
 30
0.0
 11
0.1
 21
0.05
 31
0.0
  0
LINE
  5
23B
330
238
100
AcDbEntity
  8
0
  6
ByBlock
 62
     0
370
    -2
100
AcDbLine
 10
-0.05
 20
-0.05
 30
0.0
 11
0.1
 21
-0.05
 31
0.0
  0
ENDBLK
  5
23C
330
238
100
AcDbEntity
  8
0
100
AcDbBlockEnd
  0
BLOCK
  5
B35
330
B2E
100
AcDbEntity
  8
0
100
AcDbBlockBegin
  2
*D6
 70
     1
 10
0.0
 20
0.0
 30
0.0
  3
*D6
  1

  0
LINE
  5
B37
330
B2E
100
AcDbEntity
  8
Sezione
  6
ACAD_ISO10W100
 62
     5
370
    -2
100
AcDbLine
 10
0.2490382717523074
 20
0.2002746873852521
 30
0.0
 11
0.2475382717523074
 21
0.2002746873852521
 31
0.0
  0
LINE
  5
B38
330
B2E
100
AcDbEntity
  8
Sezione
  6
ACAD_ISO10W100
 62
     5
370
    -2
100
AcDbLine
 10
0.2475382717523074
 20
0.2002746873852521
 30
0.0
 11
0.2453598399951405
 21
0.1982120591881776
 31
0.0
  0
MTEXT
  5
B39
330
B2E
100
AcDbEntity
  8
Sezione
  6
ACAD_ISO10W100
 62
     4
100
AcDbMText
 10
0.2634668431808787
 20
0.2002746873852521
 30
0.0
 40
0.003
 41
0.0
 71
     5
 72
     1
  1
\A1;d 400 mm
  7
ROMANS
 73
     1
 44
1.0
1001
ACAD
1000
MTEXTBEGIN
1070
    73
1070
     1
1070
    44
1040
1.0
1070
    74
1070
     0
1000
MTEXTEND
  0
INSERT
  5
B3A
330
B2E
100
AcDbEntity
  8
Sezione
  6
ACAD_ISO10W100
 62
     5
370
    -2
100
AcDbBlockReference
  2
_ArchTick
 10
0.2453598399951405
 20
0.1982120591881776
 30
0.0
 41
0.0015
 42
0.0015
 43
0.0015
 50
223.4359082248928
  0
POINT
  5
B3B
330
B2E
100
AcDbEntity
  8
Defpoints
  6
ACAD_ISO10W100
 62
     0
100
AcDbPoint
 10
0.2453598399951405
 20
0.1982120591881776
 30
0.0
  0
POINT
  5
B3C
330
B2E
100
AcDbEntity
  8
Defpoints
  6
ACAD_ISO10W100
 62
     0
100
AcDbPoint
 10
0.1727454480895762
 20
0.1294577859523623
 30
0.0
  0
ENDBLK
  5
B36
330
B2E
100
AcDbEntity
  8
0
100
AcDbBlockEnd
  0
BLOCK
  5
F15
330
F0E
100
AcDbEntity
  8
0
100
AcDbBlockBegin
  2
*D8
 70
     1
 10
0.0
 20
0.0
 30
0.0
  3
*D8
  1

  0
LINE
  5
F25
330
F0E
100
AcDbEntity
  8
Text
  6
ACAD_ISO10W100
 62
     5
370
    -2
100
AcDbLine
 10
0.2547820556108338
 20
0.1949596782512033
 30
0.0
 11
0.2532820556108338
 21
0.1949596782512033
 31
0.0
  0
LINE
  5
F26
330
F0E
100
AcDbEntity
  8
Text
  6
ACAD_ISO10W100
 62
     5
370
    -2
100
AcDbLine
 10
0.2532820556108338
 20
0.1949596782512033
 30
0.0
 11
0.2509836868545414
 21
0.1930315960278271
 31
0.0
  0
MTEXT
  5
F27
330
F0E
100
AcDbEntity
  8
Text
  6
ACAD_ISO10W100
 62
     4
100
AcDbMText
 10
0.2692106270394052
 20
0.1949596782512033
 30
0.0
 40
0.003
 41
0.0
 71
     5
 72
     1
  1
\A1;d 435 mm
  7
ROMANS
 73
     1
 44
1.0
1001
ACAD
1000
MTEXTBEGIN
1070
    73
1070
     1
1070
    44
1040
1.0
1070
    74
1070
     0
1000
MTEXTEND
  0
INSERT
  5
F28
330
F0E
100
AcDbEntity
  8
Text
  6
ACAD_ISO10W100
 62
     5
370
    -2
100
AcDbBlockReference
  2
_ArchTick
 10
0.2509836868545414
 20
0.1930315960278271
 30
0.0
 41
0.0015
 42
0.0015
 43
0.0015
 50
219.9930044538004
  0
POINT
  5
F29
330
F0E
100
AcDbEntity
  8
Defpoints
  6
ACAD_ISO10W100
 62
     0
100
AcDbPoint
 10
0.2509836868545414
 20
0.1930315960278271
 30
0.0
  0
POINT
  5
F2A
330
F0E
100
AcDbEntity
  8
Defpoints
  6
ACAD_ISO10W100
 62
     0
100
AcDbPoint
 10
0.1676678194389444
 20
0.1231386154304406
 30
0.0
  0
ENDBLK
  5
F16
330
F0E
100
AcDbEntity
  8
0
100
AcDbBlockEnd
  0
ENDSEC
  0
SECTION
  2
ENTITIES
  0
LINE
  5
D
330
2
100
AcDbEntity
  8
Table
100
AcDbLine
 10
0.02
 20
0.02
 30
0.0
 11
0.4
 21
0.02
 31
0.0
  0
LINE
  5
10
330
2
100
AcDbEntity
  8
Table
100
AcDbLine
 10
0.4
 20
0.02
 30
0.0
 11
0.4
 21
0.2769999999999999
 31
0.0
  0
LINE
  5
11
330
2
100
AcDbEntity
  8
Table
100
AcDbLine
 10
0.4
 20
0.2769999999999999
 30
0.0
 11
0.02
 21
0.277
 31
0.0
  0
LINE
  5
12
330
2
100
AcDbEntity
  8
Table
100
AcDbLine
 10
0.02
 20
0.277
 30
0.0
 11
0.02
 21
0.02
 31
0.0
  0
LINE
  5
13
330
2
100
AcDbEntity
  8
Table
 62
     2
100
AcDbLine
 10
0.015
 20
0.015
 30
0.0
 11
0.4050000000000001
 21
0.015
 31
0.0
  0
LINE
  5
14
330
2
100
AcDbEntity
  8
Table
 62
     2
100
AcDbLine
 10
0.4050000000000001
 20
0.015
 30
0.0
 11
0.4050000000000001
 21
0.2819999999999998
 31
0.0
  0
LINE
  5
15
330
2
100
AcDbEntity
  8
Table
 62
     2
100
AcDbLine
 10
0.4050000000000001
 20
0.2819999999999998
 30
0.0
 11
0.0149999999999999
 21
0.282
 31
0.0
  0
LINE
  5
16
330
2
100
AcDbEntity
  8
Table
 62
     2
100
AcDbLine
 10
0.0149999999999999
 20
0.282
 30
0.0
 11
0.015
 21
0.015
 31
0.0
  0
LINE
  5
17
330
2
100
AcDbEntity
  8
Table
100
AcDbLine
 10
0.21
 20
0.2769999999999999
 30
0.0
 11
0.21
 21
0.2532994226089223
 31
0.0
  0
MTEXT
  5
18
102
{ACAD_XDICTIONARY
360
F30
102
}
330
2
100
AcDbEntity
  8
Text
100
AcDbMText
 10
0.305
 20
0.0471738284815141
 30
0.0
 40
0.005
 41
0.1900000000000001
 71
     2
 72
     5
  3
{\fTimes New Roman|b0|i0|c238|p18;\H1.6x;\C4;Bovelacci\P\H0.4375x;\T0.95;via del Commercio, 5  47100 Forli - Italy  \fTimes New Roman|b0|i0|c0|p18;\P\fTimes New Roman|b0|i0|c238|p18;tel.+39-0543721386  fax +39-0543721127\fTimes New Roman|b0|i0|c0|p18
  1
; \fTimes New Roman|b0|i0|c238|p18;www.bovelacci.it\fTimes New Roman|b0|i0|c0|p18; \fTimes New Roman|b0|i0|c238|p18;e-mail: bovelacci@bovelacci\fTimes New Roman|b0|i0|c0|p18;.it}
 73
     1
 44
1.0
1001
ACAD
1000
ACAD_MTEXT_DEFINED_HEIGHT_BEGIN
1070
    46
1040
0.0271738284815141
1000
ACAD_MTEXT_DEFINED_HEIGHT_END
1000
MTEXTBEGIN
1070
    73
1070
     1
1070
    44
1040
1.0
1070
    74
1070
     0
1000
MTEXTEND
  0
MTEXT
  5
1C
330
2
100
AcDbEntity
  8
Text
100
AcDbMText
 10
0.0219676065851835
 20
0.0500313976452307
 30
0.0
 40
0.002
 41
0.1863544980601608
 71
     1
 72
     5
  3
{\fArial|b0|i0|c0|p34;\H1.25x;Le caratteristiche tecniche indicate vengono fornite a titolo indicativo e potranno essere modificate senza preavviso. Non devono quindi essere considerate a scopo di specifica.\P\fArial|b0|i1|c0|p34;The given values are
  3
 indicative and can be changed without notice. They cannot be considered like a state.\PThis lealfet and designs embodied within are protected by copyright law and international treaties. Unauthorized repro- duction of the leaflet or any portion of i
  1
t or reproduction of any of the designs embodied therein may result in severe civil penalties and will be prosecuted to the maximum.\PAll right reserved, Bovelacci Forlì Italy.}
 73
     1
 44
1.0
1001
ACAD
1000
MTEXTBEGIN
1070
    73
1070
     1
1070
    44
1040
1.0
1070
    74
1070
     0
1000
MTEXTEND
  0
LINE
  5
1D
330
2
100
AcDbEntity
  8
Table
100
AcDbLine
 10
0.02
 20
0.0528099428524846
 30
0.0
 11
0.4
 21
0.0528099428524846
 31
0.0
  0
MTEXT
  5
1E
330
2
100
AcDbEntity
  8
Text
100
AcDbMText
 10
0.1133313047219695
 20
0.2610796890771976
 30
0.0
 40
0.003
 41
0.1103605678262056
 71
     2
 72
     5
  1
{\fTimes New Roman|b0|i0|c0|p18;Rosoni\fTimes New Roman|b0|i1|c0|p18;   Ceiling centres}
 73
     1
 44
1.0
1001
ACAD
1000
ACAD_MTEXT_DEFINED_HEIGHT_BEGIN
1070
    46
1040
0.0141952763113409
1000
ACAD_MTEXT_DEFINED_HEIGHT_END
1000
MTEXTBEGIN
1070
    73
1070
     1
1070
    44
1040
1.0
1070
    74
1070
     0
1000
MTEXTEND
  0
TEXT
  5
1F
330
2
100
AcDbEntity
  8
Text
100
AcDbText
 10
0.2180556919891047
 20
0.269976982173197
 30
0.0
 40
0.003
  1
Rosone - Ceiling centre : D 435 mm
  7
ROMANS
100
AcDbText
  0
TEXT
  5
21
330
2
100
AcDbEntity
  8
Text
100
AcDbText
 10
0.2184542410678115
 20
0.2576348370183962
 30
0.0
 40
0.003
  1
File : C - R3307
  7
ROMANS
100
AcDbText
  0
LINE
  5
22
330
2
100
AcDbEntity
  8
Table
100
AcDbLine
 10
0.4
 20
0.2654452889427402
 30
0.0
 11
0.02
 21
0.2654452889427403
 31
0.0
  0
LINE
  5
23
330
2
100
AcDbEntity
  8
Table
100
AcDbLine
 10
0.4
 20
0.2532994226089223
 30
0.0
 11
0.02
 21
0.2532994226089225
 31
0.0
  0
LINE
  5
24
330
2
100
AcDbEntity
  8
Table
100
AcDbLine
 10
0.21
 20
0.0528099428524846
 30
0.0
 11
0.21
 21
0.02
 31
0.0
  0
TEXT
  5
25
330
2
100
AcDbEntity
  8
Text
100
AcDbText
 10
0.0896473531074035
 20
0.2687784133392506
 30
0.0
 40
0.005
  1
CLASSICSTYL
  7
style1
 72
     1
 11
0.1140561490699125
 21
0.2687784133392506
 31
0.0
100
AcDbText
  0
TEXT
  5
252
330
2
100
AcDbEntity
  8
Text
  6
ACAD_ISO10W100
100
AcDbText
 10
0.2619444701437109
 20
0.0817475304515419
 30
0.0
 40
0.005
  1
scala 1 : 4
  7
style1
100
AcDbText
  0
CIRCLE
  5
D2E
330
2
100
AcDbEntity
  8
Profilo
  6
Continuous
370
     0
100
AcDbCircle
 10
0.2093257531467429
 20
0.1580851057291339
 30
0.0
 40
0.0096415310448331
  0
CIRCLE
  5
D2F
330
2
100
AcDbEntity
  8
Profilo
  6
Continuous
370
     0
100
AcDbCircle
 10
0.2093257531467429
 20
0.1580851057291339
 30
0.0
 40
0.044160235518306
  0
CIRCLE
  5
D30
330
2
100
AcDbEntity
  8
Profilo
  6
Continuous
370
     0
100
AcDbCircle
 10
0.2093257531467429
 20
0.1580851057291339
 30
0.0
 40
0.045563102637332
  0
CIRCLE
  5
D31
330
2
100
AcDbEntity
  8
Profilo
  6
Continuous
370
     0
100
AcDbCircle
 10
0.2093257531467429
 20
0.1580851057291339
 30
0.0
 40
0.050072255380652
  0
CIRCLE
  5
D32
330
2
100
AcDbEntity
  8
Profilo
  6
Continuous
370
     0
100
AcDbCircle
 10
0.2093257531467429
 20
0.1580851057291339
 30
0.0
 40
0.0510463197714439
  0
CIRCLE
  5
D33
102
{ACAD_REACTORS
330
F1E
102
}
330
2
100
AcDbEntity
  8
Profilo
  6
Continuous
370
     0
100
AcDbCircle
 10
0.2093257531467429
 20
0.1580851057291339
 30
0.0
 40
0.054375
  0
LWPOLYLINE
  5
D34
330
2
100
AcDbEntity
  8
Profilo
  6
Continuous
370
     0
100
AcDbPolyline
 90
       15
 70
   128
 43
0.0
 10
0.2089413275218489
 20
0.1665987618555029
 10
0.2096481358750655
 20
0.1661572106588259
 10
0.2094714337867617
 20
0.1650974876603561
 10
0.2086762739005116
 20
0.1645676264772364
 10
0.2083228697239043
 20
0.1634195934923233
 10
0.2088529759888153
 20
0.1622715605074101
 10
0.2099131894964027
 20
0.1615650787191731
 10
0.2117685628902386
 20
0.1610352175360544
 10
0.2132705311297052
 20
0.1610352175360544
 10
0.214242393104259
 20
0.1613884581140569
 10
0.2146841488139
 20
0.1621832505209666
 10
0.2146841488139
 20
0.1630663522820896
 10
0.2150375529905091
 20
0.1641260752805594
 10
0.2156560107884537
 20
0.1640377652941169
 10
0.2159210634320292
 20
0.1636845240838831
  0
LWPOLYLINE
  5
D35
330
2
100
AcDbEntity
  8
Profilo
  6
Continuous
370
     0
100
AcDbPolyline
 90
        2
 70
   128
 43
0.0
 10
0.213358881684977
 20
0.1623598704938528
 10
0.2132705311297052
 20
0.1650974876603561
  0
LWPOLYLINE
  5
D36
330
2
100
AcDbEntity
  8
Profilo
  6
Continuous
370
     0
100
AcDbPolyline
 90
        3
 70
   128
 43
0.0
 10
0.2102665936730119
 20
0.1630663522820896
 10
0.2115035092689012
 20
0.1646559364636791
 10
0.2115035092689012
 20
0.1662455206452694
  0
LWPOLYLINE
  5
D37
330
2
100
AcDbEntity
  8
Profilo
  6
Continuous
370
     0
100
AcDbPolyline
 90
        2
 70
   128
 43
0.0
 10
0.2098248379633691
 20
0.1643026958856766
 10
0.2106199978496192
 20
0.1655390388570324
  0
LWPOLYLINE
  5
D38
330
2
100
AcDbEntity
  8
Profilo
  6
Continuous
370
     0
100
AcDbPolyline
 90
       15
 70
   128
 43
0.0
 10
0.2011099909590984
 20
0.1603503596608598
 10
0.2017483468948863
 20
0.1608861275272988
 10
0.2027015994098206
 20
0.1603906014389171
 10
0.202959809422662
 20
0.1594706233373596
 10
0.2039424457774305
 20
0.1587797542898691
 10
0.2051981018733374
 20
0.1589291536050016
 10
0.206197629973193
 20
0.1597191616912748
 10
0.2072748998137381
 20
0.1613199905373996
 10
0.2077390335247439
 20
0.1627484472188121
 10
0.2077034036375379
 20
0.1637819002243568
 10
0.207084021161485
 20
0.1644476392313571
 10
0.2062441414770183
 20
0.1647205326833056
 10
0.2053454929103111
 20
0.1653841124442128
 10
0.2056205946682397
 20
0.1659450114764181
 10
0.206038452794326
 20
0.1660879339831756
  0
LWPOLYLINE
  5
D39
330
2
100
AcDbEntity
  8
Profilo
  6
Continuous
370
     0
100
AcDbPolyline
 90
        2
 70
   128
 43
0.0
 10
0.2065065155204397
 20
0.1632418138657299
 10
0.2038755850520744
 20
0.1640037577229629
  0
LWPOLYLINE
  5
D3A
330
2
100
AcDbEntity
  8
Profilo
  6
Continuous
370
     0
100
AcDbPolyline
 90
        3
 70
   128
 43
0.0
 10
0.2048790418648956
 20
0.1605191880804704
 10
0.2037494854105314
 20
0.1621867732441502
 10
0.2022377010164308
 20
0.1626779817702516
  0
LWPOLYLINE
  5
D3B
330
2
100
AcDbEntity
  8
Profilo
  6
Continuous
370
     0
100
AcDbPolyline
 90
        2
 70
   128
 43
0.0
 10
0.2035666992026818
 20
0.1604811046186011
 10
0.2026365850814944
 20
0.1616193975989398
  0
LWPOLYLINE
  5
D3C
330
2
100
AcDbEntity
  8
Profilo
  6
Continuous
370
     0
100
AcDbPolyline
 90
       15
 70
   128
 43
0.0
 10
0.2046325584961862
 20
0.1509714535257215
 10
0.2043202758082056
 20
0.1517441274739366
 10
0.2050861203506019
 20
0.1524975985074745
 10
0.2060408628010233
 20
0.1524588819549266
 10
0.2070015696434594
 20
0.1531799343867148
 10
0.207247501523998
 20
0.1544203012262763
 10
0.2068050303548325
 20
0.1556150348632168
 10
0.205615446337509
 20
0.1571342626834124
 10
0.2044003285067699
 20
0.1580170974639821
 10
0.2034064460509074
 20
0.1583025659691819
 10
0.2025818909190295
 20
0.1579192228962339
 10
0.2020628167275671
 20
0.1572047785637233
 10
0.2011540171927936
 20
0.1565551704117402
 10
0.2007055816316132
 20
0.1569901350643436
 10
0.2006987795124342
 20
0.1574317072415109
  0
LWPOLYLINE
  5
D3D
330
2
100
AcDbEntity
  8
Profilo
  6
Continuous
370
     0
100
AcDbPolyline
 90
        2
 70
   128
 43
0.0
 10
0.2035502399330919
 20
0.1569973618628943
 10
0.2020125860368758
 20
0.15473065189768
  0
LWPOLYLINE
  5
D3E
330
2
100
AcDbEntity
  8
Profilo
  6
Continuous
370
     0
100
AcDbPolyline
 90
        3
 70
   128
 43
0.0
 10
0.2056366939101347
 20
0.1546082048007204
 10
0.2037016740332368
 20
0.1540492449294199
 10
0.2027673398940201
 20
0.1527632443125245
  0
LWPOLYLINE
  5
D3F
330
2
100
AcDbEntity
  8
Profilo
  6
Continuous
370
     0
100
AcDbPolyline
 90
        2
 70
   128
 43
0.0
 10
0.2052673772496422
 20
0.1533483243232889
 10
0.2038973752230824
 20
0.1528154851029382
  0
LWPOLYLINE
  5
D40
330
2
100
AcDbEntity
  8
Profilo
  6
Continuous
370
     0
100
AcDbPolyline
 90
       15
 70
   128
 43
0.0
 10
0.214640961524525
 20
0.151423372951553
 10
0.2138096042734681
 20
0.1513651438473328
 10
0.2133296697158311
 20
0.1523263406439796
 10
0.2136615229878522
 20
0.1532223906001353
 10
0.2132726361149348
 20
0.1543588945581419
 10
0.212168974280118
 20
0.1549760841083762
 10
0.2108959839586769
 20
0.1549244620172358
 10
0.2090835107629515
 20
0.1542625676006461
 10
0.2078683929322124
 20
0.1533797328200762
 10
0.207289769680873
 20
0.1525227090534628
 10
0.2073995490598274
 20
0.1516200509980287
 10
0.2079186232512881
 20
0.150905606665518
 10
0.2082556028165444
 20
0.1498405469873173
 10
0.207703352640042
 20
0.149548470894325
 10
0.2072812905731086
 20
0.1496784550015432
  0
LWPOLYLINE
  5
D41
330
2
100
AcDbEntity
  8
Profilo
  6
Continuous
370
     0
100
AcDbPolyline
 90
        2
 70
   128
 43
0.0
 10
0.2085755273045357
 20
0.1522561349121471
 10
0.2102561354021048
 20
0.150093287253774
  0
LWPOLYLINE
  5
D42
330
2
100
AcDbEntity
  8
Profilo
  6
Continuous
370
     0
100
AcDbPolyline
 90
        3
 70
   128
 43
0.0
 10
0.2114925004338559
 20
0.1535021804285219
 10
0.2114261488353878
 20
0.1514891390660308
 10
0.2123604829746046
 20
0.1502031384491346
  0
LWPOLYLINE
  5
D43
330
2
100
AcDbEntity
  8
Profilo
  6
Continuous
370
     0
100
AcDbPolyline
 90
        2
 70
   128
 43
0.0
 10
0.212576592847272
 20
0.1527616149335764
 10
0.2126599991513896
 20
0.1512940092045211
  0
LWPOLYLINE
  5
D44
330
2
100
AcDbEntity
  8
Profilo
  6
Continuous
370
     0
100
AcDbPolyline
 90
       15
 70
   128
 43
0.0
 10
0.2173039272320576
 20
0.1610815806520319
 10
0.2171024028820891
 20
0.1602729191382741
 10
0.2160399424706991
 20
0.1601135003949416
 10
0.2152902966216654
 20
0.1607060062760121
 10
0.2140892444739872
 20
0.1606873519186201
 10
0.2131612120674458
 20
0.1598284291986051
 10
0.2128169319506092
 20
0.1586017913547696
 10
0.212886345929279
 20
0.1566734902881576
 10
0.213350479640285
 20
0.1552450336067452
 10
0.2139867532601389
 20
0.1544298952846116
 10
0.2148791557794745
 20
0.154255364999082
 10
0.2157190354639411
 20
0.1545282584510316
 10
0.2168360998235581
 20
0.1545196235218395
 10
0.2169432260053679
 20
0.1539041459164657
 10
0.2166891794218184
 20
0.1535429083355563
  0
LWPOLYLINE
  5
D45
330
2
100
AcDbEntity
  8
Profilo
  6
Continuous
370
     0
100
AcDbPolyline
 90
        2
 70
   128
 43
0.0
 10
0.2146376012906703
 20
0.1555703475110452
 10
0.2172139281129528
 20
0.156500344110896
  0
LWPOLYLINE
  5
D46
330
2
100
AcDbEntity
  8
Profilo
  6
Continuous
370
     0
100
AcDbPolyline
 90
        3
 70
   128
 43
0.0
 10
0.2143539358518183
 20
0.1587296030538669
 10
0.2162479481856554
 20
0.1580444349423884
 10
0.2177597325797559
 20
0.1585356434684898
  0
LWPOLYLINE
  5
D47
330
2
100
AcDbEntity
  8
Profilo
  6
Continuous
370
     0
100
AcDbPolyline
 90
        2
 70
   128
 43
0.0
 10
0.2153932584707476
 20
0.1595317888845271
 10
0.2168148084281274
 20
0.1591575978822378
  0
LWPOLYLINE
  5
D48
330
2
100
AcDbEntity
  8
Profilo
  6
Continuous
370
     0
100
AcDbPolyline
 90
        9
 70
   128
 43
0.0
 10
0.2066148860976931
 20
0.1661440438219296
 10
0.2067062598924174
 20
0.1653525055065156
 10
0.2071022123510442
 20
0.1647740731986221
 10
0.2076199968618883
 20
0.1645305227531931
 10
0.2081073221374776
 20
0.1645000789475141
 10
0.2085469385043232
 20
0.1650271595799436
 10
0.2088078542377686
 20
0.1656264991253933
 10
0.2088687697749964
 20
0.1661440438219296
 10
0.2085032745961043
 20
0.1666311447127876
  0
LWPOLYLINE
  5
D49
330
2
100
AcDbEntity
  8
Profilo
  6
Continuous
370
     0
100
AcDbPolyline
 90
        9
 70
   128
 43
0.0
 10
0.2008235435715234
 20
0.1579972667846151
 10
0.2016045772997046
 20
0.1578395696363439
 10
0.2022770551540436
 20
0.1580373973890288
 10
0.20266868960549
 20
0.1584545784954791
 10
0.2028482351772069
 20
0.1589086447210548
 10
0.2024828006354831
 20
0.1594896216042411
 10
0.2019934222510446
 20
0.1599229733176826
 10
0.2015200319311532
 20
0.1601408375428861
 10
0.2009438272331695
 20
0.1599437534245746
  0
LWPOLYLINE
  5
D4A
330
2
100
AcDbEntity
  8
Profilo
  6
Continuous
370
     0
100
AcDbPolyline
 90
        9
 70
   128
 43
0.0
 10
0.2067819656988322
 20
0.1499718801830893
 10
0.2071732972944851
 20
0.1506659563009428
 10
0.2071929590065213
 20
0.1513666528839139
 10
0.2069172178978356
 20
0.1518680354325935
 10
0.2065408578880969
 20
0.1521791075988212
 10
0.2058753905538015
 20
0.1520110904268787
 10
0.2053120223454154
 20
0.1516795769694199
 10
0.2049585355005483
 20
0.1512966797689911
 10
0.2049679165916114
 20
0.1506877741943743
  0
LWPOLYLINE
  5
D4B
330
2
100
AcDbEntity
  8
Profilo
  6
Continuous
370
     0
100
AcDbPolyline
 90
        9
 70
   128
 43
0.0
 10
0.2162558156189984
 20
0.1531586955278032
 10
0.2157166381178026
 20
0.1537453553076874
 10
0.2150563118697786
 20
0.1539805818590793
 10
0.2144942600410697
 20
0.1538732722090787
 10
0.2140821111913276
 20
0.1536114591551859
 10
0.2140362643020559
 20
0.1529266419490462
 10
0.2141774619855283
 20
0.1522884036511666
 10
0.2144323854207162
 20
0.1518338959419014
 10
0.2150143879518271
 20
0.1516546557191599
  0
LWPOLYLINE
  5
D4C
330
2
100
AcDbEntity
  8
Profilo
  6
Continuous
370
     0
100
AcDbPolyline
 90
        9
 70
   128
 43
0.0
 10
0.2161525547466692
 20
0.1631536423282321
 10
0.2154279931293067
 20
0.1628221418941796
 10
0.2150002273523288
 20
0.1622668233150251
 10
0.2149286013274327
 20
0.1616991197553239
 10
0.2150502393396056
 20
0.1612262382230923
 10
0.2156873717380527
 20
0.1609710150855596
 10
0.2163380049139593
 20
0.1609080755820076
 10
0.2168490431062988
 20
0.161010071569961
 10
0.217199359361004
 20
0.1615082005947726
  0
CIRCLE
  5
D4D
330
2
100
AcDbEntity
  8
Profilo
  6
Continuous
370
     0
100
AcDbCircle
 10
0.2093257531467429
 20
0.1580851057291339
 30
0.0
 40
0.0020599736910827
  0
LWPOLYLINE
  5
D4E
330
2
100
AcDbEntity
  8
Profilo
  6
Continuous
370
     0
100
AcDbPolyline
 90
       12
 70
   128
 43
0.0
 10
0.2029162097793086
 20
0.1655527810238803
 10
0.2023148119690602
 20
0.1668096664356684
 10
0.2025335020818789
 20
0.1681211993416448
 10
0.2036269516682036
 20
0.1693780853856633
 10
0.2051031089519578
 20
0.1700884990167241
 10
0.2069619739331435
 20
0.1706349707974514
 10
0.2084381312168978
 20
0.1707442651535964
 10
0.2101329786134708
 20
0.1705803239354939
 10
0.2110077380869785
 20
0.1699792046605781
 10
0.211827825032282
 20
0.1687223186165598
 10
0.2118824975604863
 20
0.1680665524796869
 10
0.2113904457844081
 20
0.1677386694112511
  0
LWPOLYLINE
  5
D4F
330
2
100
AcDbEntity
  8
Profilo
  6
Continuous
370
     0
100
AcDbPolyline
 90
       12
 70
   128
 43
0.0
 10
0.2002429140693778
 20
0.1542969063176102
 10
0.1988617028645141
 20
0.1541133419635127
 10
0.1976819399093124
 20
0.1547266145769854
 10
0.1968244647515734
 20
0.1561549460788946
 10
0.1966049789255403
 20
0.1577783849677196
 10
0.1966596742469431
 20
0.1597151396881798
 10
0.1970118868243862
 20
0.1611528225054093
 10
0.1976915408365655
 20
0.1627140575435731
 10
0.1985335547833493
 20
0.1633602471694486
 10
0.199982345248717
 20
0.1637517970551134
 10
0.2006229106466949
 20
0.1636011508386946
 10
0.2007826936145952
 20
0.1630318603503878
  0
LWPOLYLINE
  5
D50
330
2
100
AcDbEntity
  8
Profilo
  6
Continuous
370
     0
100
AcDbPolyline
 90
       12
 70
   128
 43
0.0
 10
0.2101217932500194
 20
0.148276194441903
 10
0.2098695555900195
 20
0.1469058600201598
 10
0.2089217318722198
 20
0.1459733504336794
 10
0.2072983334939042
 20
0.1455992218050429
 10
0.205686526509611
 20
0.145892148585935
 10
0.203861465096077
 20
0.1465426570503231
 10
0.2026029871564478
 20
0.1473218995402682
 10
0.2013281890399927
 20
0.1484507370763829
 10
0.2009738228045989
 20
0.1494512235032669
 10
0.2010491376094698
 20
0.1509501006849176
 10
0.2013903562692344
 20
0.1515127623397671
 10
0.2019811593502964
 20
0.1514888045369571
  0
LWPOLYLINE
  5
D51
330
2
100
AcDbEntity
  8
Profilo
  6
Continuous
370
     0
100
AcDbPolyline
 90
       12
 70
   128
 43
0.0
 10
0.2189005720643422
 20
0.1558110645725165
 10
0.2201258918220823
 20
0.1551477156780225
 10
0.2207198675043411
 20
0.1539581204452704
 10
0.2205740272869985
 20
0.1522985647346994
 10
0.219797361613434
 20
0.1508561645526804
 10
0.2186147163069129
 20
0.1493214461731819
 10
0.2174847215886846
 20
0.148365361700216
 10
0.216017199011743
 20
0.1475017866271479
 10
0.2149561746870212
 20
0.1474739316183701
 10
0.2135539313309191
 20
0.148008738775927
 10
0.2131242506622701
 20
0.1485071290192085
 10
0.2133296040791243
 20
0.1490616127710837
  0
LWPOLYLINE
  5
D52
330
2
100
AcDbEntity
  8
Profilo
  6
Continuous
370
     0
100
AcDbPolyline
 90
       12
 70
   128
 43
0.0
 10
0.2144472765706684
 20
0.1664885822897591
 10
0.2154568034880384
 20
0.1674489445483051
 10
0.2167717243659659
 20
0.1676462438480899
 10
0.2183049885330366
 20
0.1669947106413698
 10
0.2194367897331713
 20
0.1658103315226109
 10
0.220530936150638
 20
0.1642113149365331
 10
0.2210910389472964
 20
0.1628411797461794
 10
0.2214588582319425
 20
0.1611786234630714
 10
0.2211574753717684
 20
0.1601609216940054
 10
0.2202155265123284
 20
0.1589925735131523
 10
0.2196087505950306
 20
0.1587379339683121
 10
0.2191448629052903
 20
0.1591045815759896
  0
LWPOLYLINE
  5
D53
330
2
100
AcDbEntity
  8
Profilo
  6
Continuous
370
     0
100
AcDbPolyline
 90
        3
 70
   128
 43
0.0
 10
0.2128092886276054
 20
0.1709782524772116
 10
0.2140667567763046
 20
0.1739838482195579
 10
0.2142523732564445
 20
0.1745849674944726
  0
LWPOLYLINE
  5
D54
330
2
100
AcDbEntity
  8
Profilo
  6
Continuous
370
     0
100
AcDbPolyline
 90
        2
 70
   128
 43
0.0
 10
0.2149240957563059
 20
0.1767603419103613
 10
0.2149388645037895
 20
0.1768081705232706
  0
LWPOLYLINE
  5
D55
330
2
100
AcDbEntity
  8
Profilo
  6
Continuous
370
     0
100
AcDbPolyline
 90
        3
 70
   128
 43
0.0
 10
0.2157381728230145
 20
0.1795110223585176
 10
0.2168550537592022
 20
0.1835471084917828
 10
0.21693723921382
 20
0.1838579367477549
  0
LWPOLYLINE
  5
D56
330
2
100
AcDbEntity
  8
Profilo
  6
Continuous
370
     0
100
AcDbPolyline
 90
       11
 70
   128
 43
0.0
 10
0.2177360051683781
 20
0.1868788974486579
 10
0.2188779353472388
 20
0.1911977172153486
 10
0.2202447475745846
 20
0.1948044322326096
 10
0.2217209048583406
 20
0.19600667078244
 10
0.2241264951215686
 20
0.1966077900573551
 10
0.2257666690121756
 20
0.1961706126327736
 10
0.2269694646326705
 20
0.1948590797267971
 10
0.2274615164087468
 20
0.1927278388336148
 10
0.2265867569352391
 20
0.1898315368151843
 10
0.2250559271232806
 20
0.1864980573721716
 10
0.223774368202859
 20
0.1841852016941019
  0
LWPOLYLINE
  5
D57
330
2
100
AcDbEntity
  8
Profilo
  6
Continuous
370
     0
100
AcDbPolyline
 90
        3
 70
   128
 43
0.0
 10
0.221736715760672
 20
0.1805078085241506
 10
0.2211195080258541
 20
0.1793939210615644
 10
0.2201808878108692
 20
0.1778099706878866
  0
LWPOLYLINE
  5
D58
330
2
100
AcDbEntity
  8
Profilo
  6
Continuous
370
     0
100
AcDbPolyline
 90
        3
 70
   128
 43
0.0
 10
0.2175646684757488
 20
0.1733950203945381
 10
0.2169097262874064
 20
0.1722897853831881
 10
0.2165270185899767
 20
0.1697760139273811
  0
LWPOLYLINE
  5
D59
330
2
100
AcDbEntity
  8
Profilo
  6
Continuous
370
     0
100
AcDbPolyline
 90
        3
 70
   128
 43
0.0
 10
0.2142854459113597
 20
0.1697760139273811
 10
0.2152148788908335
 20
0.1721258435328539
 10
0.2150508613062207
 20
0.1694481308589453
  0
LWPOLYLINE
  5
D5A
330
2
100
AcDbEntity
  8
Profilo
  6
Continuous
370
     0
100
AcDbPolyline
 90
        2
 70
   128
 43
0.0
 10
0.2159256207797284
 20
0.1735466707949764
 10
0.2242905117284195
 20
0.1944765491641729
  0
LWPOLYLINE
  5
D5B
330
2
100
AcDbEntity
  8
Profilo
  6
Continuous
370
     0
100
AcDbPolyline
 90
        2
 70
   128
 43
0.0
 10
0.2225956653096102
 20
0.1918534833522208
 10
0.2221036125557703
 20
0.1933289581085306
  0
LWPOLYLINE
  5
D5C
330
2
100
AcDbEntity
  8
Profilo
  6
Continuous
370
     0
100
AcDbPolyline
 90
        2
 70
   128
 43
0.0
 10
0.2216115598019321
 20
0.1891211231841236
 10
0.2207914728566287
 20
0.1904873035842879
  0
LWPOLYLINE
  5
D5D
330
2
100
AcDbEntity
  8
Profilo
  6
Continuous
370
     0
100
AcDbPolyline
 90
        2
 70
   128
 43
0.0
 10
0.2205727827438099
 20
0.1864980573721716
 10
0.2197526957985083
 20
0.1875910015658563
  0
LWPOLYLINE
  5
D5E
330
2
100
AcDbEntity
  8
Profilo
  6
Continuous
370
     0
100
AcDbPolyline
 90
        2
 70
   128
 43
0.0
 10
0.218713917762626
 20
0.1817983981612256
 10
0.218003175873731
 20
0.1827820479987648
  0
LWPOLYLINE
  5
D5F
330
2
100
AcDbEntity
  8
Profilo
  6
Continuous
370
     0
100
AcDbPolyline
 90
        2
 70
   128
 43
0.0
 10
0.2177844857609141
 20
0.1797764516241884
 10
0.2171284154224614
 20
0.1808693958178744
  0
LWPOLYLINE
  5
D60
330
2
100
AcDbEntity
  8
Profilo
  6
Continuous
370
     0
100
AcDbPolyline
 90
        2
 70
   128
 43
0.0
 10
0.2228690269728695
 20
0.1885200039092079
 10
0.2243451842566237
 20
0.1888478876098756
  0
LWPOLYLINE
  5
D61
330
2
100
AcDbEntity
  8
Profilo
  6
Continuous
370
     0
100
AcDbPolyline
 90
        2
 70
   128
 43
0.0
 10
0.2236891148959348
 20
0.1914709527895966
 10
0.2258213415403797
 20
0.1920720720645116
  0
LWPOLYLINE
  5
D62
330
2
100
AcDbEntity
  8
Profilo
  6
Continuous
370
     0
100
AcDbPolyline
 90
        2
 70
   128
 43
0.0
 10
0.2218302499147491
 20
0.1858969380972566
 10
0.2230877170856864
 20
0.1861701743037351
  0
LWPOLYLINE
  5
D63
330
2
100
AcDbEntity
  8
Profilo
  6
Continuous
370
     0
100
AcDbPolyline
 90
        2
 70
   128
 43
0.0
 10
0.2192059705164642
 20
0.1793392741996069
 10
0.2201900750463802
 20
0.1794485685557529
  0
LWPOLYLINE
  5
D64
330
2
100
AcDbEntity
  8
Profilo
  6
Continuous
370
     0
100
AcDbPolyline
 90
       79
 70
   128
 43
0.0
 10
0.2142854459113597
 20
0.1695027777209026
 10
0.2121532192669147
 20
0.1709236049830241
 10
0.211770511569485
 20
0.1722351378889996
 10
0.2119345291540977
 20
0.1734373764388303
 10
0.2124265819079358
 20
0.1743663787821819
 10
0.213191996325035
 20
0.1745849674944726
 10
0.2145041360241784
 20
0.1745849674944726
 10
0.2149961887780165
 20
0.1745849674944726
 10
0.2153242239472419
 20
0.1750221449190541
 10
0.2153242239472419
 20
0.1760604422507826
 10
0.214886843721608
 20
0.1768255027438006
 10
0.2155429140600606
 20
0.1766069140315098
 10
0.2162536559489538
 20
0.1766615615256976
 10
0.2169643988156107
 20
0.1773719751567581
 10
0.2170737438720192
 20
0.1783009775001096
 10
0.2167457087027937
 20
0.1791753323492736
 10
0.2152695514190377
 20
0.1796671572680436
 10
0.2147228261369953
 20
0.1796671572680436
 10
0.2146134810805869
 20
0.1802136296810011
 10
0.2151602063626292
 20
0.1807601014617284
 10
0.2152148788908335
 20
0.1818530456554133
 10
0.2153242239472419
 20
0.1827820479987648
 10
0.2156522591164691
 20
0.1833285197794921
 10
0.2166363636463853
 20
0.1838203446982621
 10
0.2175111231198929
 20
0.1839296390544078
 10
0.2184952286275691
 20
0.1840935809047414
 10
0.2195340056856896
 20
0.1844761108351351
 10
0.2196433507420998
 20
0.1854051138107169
 10
0.2193153155728726
 20
0.1863341161540684
 10
0.218440556099365
 20
0.1869352354289841
 10
0.2170737438720192
 20
0.1868259410728383
 10
0.2154335690036503
 20
0.1864980573721716
 10
0.2148321711934038
 20
0.1863887630160258
 10
0.2148321711934038
 20
0.1871538241412748
 10
0.2142854459113597
 20
0.1874817072097116
 10
0.2149961887780165
 20
0.1879735321284806
 10
0.2159256207797284
 20
0.1885200039092079
 10
0.2160896383643411
 20
0.1893397118964144
 10
0.2161443108925454
 20
0.1902687148719961
 10
0.2159256207797284
 20
0.1909791278708267
 10
0.2154335690036503
 20
0.1912523640773059
 10
0.2150508613062207
 20
0.1913070115714934
 10
0.2159802933079327
 20
0.1915256002837841
 10
0.2172924330070742
 20
0.1915256002837841
 10
0.2182765385147523
 20
0.1918534833522208
 10
0.218932607875443
 20
0.1927278388336148
 10
0.2193153155728726
 20
0.1934382524646757
 10
0.2193699881010769
 20
0.1943126073138397
 10
0.218713917762626
 20
0.1951323153010451
 10
0.2175657956480972
 20
0.19600667078244
 10
0.2164176735335666
 20
0.1962799069889186
 10
0.2154335690036503
 20
0.1961159651385851
 10
0.2155429140600606
 20
0.1968263787696458
 10
0.2144494634959724
 20
0.1968810262638343
 10
0.2132466688532393
 20
0.1964438482070216
 10
0.2122078917951189
 20
0.1958973764262944
 10
0.2114424764002595
 20
0.1951323153010451
 10
0.2110050971523858
 20
0.1946951378764636
 10
0.2104583718703433
 20
0.1939300773834456
 10
0.2104583718703433
 20
0.1937114880389236
 10
0.2097476299814484
 20
0.1939300773834456
 10
0.2098023025096526
 20
0.1946404910145064
 10
0.2098023025096526
 20
0.1957334345759609
 10
0.2087088519455661
 20
0.1967717319076885
 10
0.2076154023592415
 20
0.1974821455387494
 10
0.2065766253011212
 20
0.1974821455387494
 10
0.205592520771205
 20
0.1974821455387494
 10
0.2047724328481396
 20
0.1970996149761251
 10
0.2041163634874489
 20
0.1964438482070216
 10
0.2038430008464277
 20
0.1963892013450644
 10
0.2040070184310405
 20
0.1973728505503731
 10
0.2037883283182236
 20
0.1981925591698099
 10
0.203132257979771
 20
0.1988483253066831
 10
0.2017654457524251
 20
0.1987936778124946
 10
0.2011093763917343
 20
0.1985750891002039
 10
0.2005626511096921
 20
0.1981379116756216
 10
0.2001799434122623
 20
0.1973182036884158
 10
0.2001799434122623
 20
0.1964984957012094
 10
0.2002346159404666
 20
0.1961706126327736
  0
LWPOLYLINE
  5
D65
330
2
100
AcDbEntity
  8
Profilo
  6
Continuous
370
     0
100
AcDbPolyline
 90
       10
 70
   128
 43
0.0
 10
0.202202825978059
 20
0.1902687148719961
 10
0.2013280655267913
 20
0.1929464275459056
 10
0.2013827380549954
 20
0.1944219016699844
 10
0.2017654457524251
 20
0.1963345538508759
 10
0.2020934809216506
 20
0.1963892013450644
 10
0.2025308611472862
 20
0.1961159651385851
 10
0.2024761886190819
 20
0.1952416096571911
 10
0.202257498506265
 20
0.1938207823950696
 10
0.202257498506265
 20
0.1920720720645116
 10
0.202257498506265
 20
0.1909791278708267
  0
LWPOLYLINE
  5
D66
330
2
100
AcDbEntity
  8
Profilo
  6
Continuous
370
     0
100
AcDbPolyline
 90
       12
 70
   128
 43
0.0
 10
0.2068499879421424
 20
0.1813065732424556
 10
0.2052644856019778
 20
0.1812519263804983
 10
0.20438972515071
 20
0.1816891038050798
 10
0.2038430008464277
 20
0.1831645785613898
 10
0.2035149656772024
 20
0.1860608799475901
 10
0.2040616909592447
 20
0.1888478876098756
 10
0.2047177603199354
 20
0.1910884228592026
 10
0.2059752274908728
 20
0.1930010744078631
 10
0.2071780221336059
 20
0.1938207823950696
 10
0.2082714726976923
 20
0.1936568411769664
 10
0.2082714726976923
 20
0.1928371331897608
 10
0.2090368871147916
 20
0.1933836049704881
  0
LWPOLYLINE
  5
D67
330
2
100
AcDbEntity
  8
Profilo
  6
Continuous
370
     0
100
AcDbPolyline
 90
       13
 70
   128
 43
0.0
 10
0.2069046604703465
 20
0.1920720720645116
 10
0.2061392450754854
 20
0.1910884228592026
 10
0.2057565373780558
 20
0.1896675955970814
 10
0.2057018648498516
 20
0.1879735321284806
 10
0.2056471923216473
 20
0.1858969380972566
 10
0.2056471923216473
 20
0.1842575221228436
 10
0.2059205549626685
 20
0.1836017559859713
 10
0.2062485901318939
 20
0.1835471084917828
 10
0.2063032626600981
 20
0.1840389334105528
 10
0.2063579351883042
 20
0.1850225832480928
 10
0.2065219527729169
 20
0.1877002959220023
 10
0.2065219527729169
 20
0.1899954786655179
 10
0.2073420397182203
 20
0.1916348946399301
  0
LWPOLYLINE
  5
D68
330
2
100
AcDbEntity
  8
Profilo
  6
Continuous
370
     0
100
AcDbPolyline
 90
       11
 70
   128
 43
0.0
 10
0.2110050971523858
 20
0.1934928993266328
 10
0.2120438742105062
 20
0.1928917800517181
 10
0.2124265819079358
 20
0.1919081308464094
 10
0.2123719093797315
 20
0.1910884228592026
 10
0.211770511569485
 20
0.1898861843093721
 10
0.2106223894549561
 20
0.1885746514033964
 10
0.2094742673404272
 20
0.1869352354289841
 10
0.2089275420583831
 20
0.1855144081668629
 10
0.2079981100566711
 20
0.1830552835730139
 10
0.2079981100566711
 20
0.1809786901740191
 10
0.2080527825848755
 20
0.1795032160499403
  0
LWPOLYLINE
  5
D69
330
2
100
AcDbEntity
  8
Profilo
  6
Continuous
370
     0
100
AcDbPolyline
 90
        7
 70
   128
 43
0.0
 10
0.2104036993421391
 20
0.1863341161540684
 10
0.2120985467387104
 20
0.1878095902781471
 10
0.2134106864378538
 20
0.1883014151969171
 10
0.2146681536087911
 20
0.1885746514033964
 10
0.2150508613062207
 20
0.1889571819660206
 10
0.2152695514190377
 20
0.1896675955970814
 10
0.2152695514190377
 20
0.1899408311713294
  0
LWPOLYLINE
  5
D6A
330
2
100
AcDbEntity
  8
Profilo
  6
Continuous
370
     0
100
AcDbPolyline
 90
        4
 70
   128
 43
0.0
 10
0.2122078917951189
 20
0.1902140673778086
 10
0.2136293765506707
 20
0.1908698335146808
 10
0.2147774986651996
 20
0.1912523640773059
 10
0.2152695514190377
 20
0.1913070115714934
  0
LWPOLYLINE
  5
D6B
330
2
100
AcDbEntity
  8
Profilo
  6
Continuous
370
     0
100
AcDbPolyline
 90
        5
 70
   128
 43
0.0
 10
0.208490162810511
 20
0.1805415127494376
 10
0.20963828492504
 20
0.1836017559859713
 10
0.2108410795677731
 20
0.1852411719603836
 10
0.2121532192669147
 20
0.1863341161540684
 10
0.2141214293045088
 20
0.1867712935786508
  0
LWPOLYLINE
  5
D6C
330
2
100
AcDbEntity
  8
Profilo
  6
Continuous
370
     0
100
AcDbPolyline
 90
        5
 70
   128
 43
0.0
 10
0.2092555772276085
 20
0.1809240433120618
 10
0.2104583718703433
 20
0.1828913423549106
 10
0.2120438742105062
 20
0.1845854058235113
 10
0.213191996325035
 20
0.1854051138107169
 10
0.2148321711934038
 20
0.1858969380972566
  0
LWPOLYLINE
  5
D6D
330
2
100
AcDbEntity
  8
Profilo
  6
Continuous
370
     0
100
AcDbPolyline
 90
        4
 70
   128
 43
0.0
 10
0.2109504246241815
 20
0.1820716343677041
 10
0.2121532192669147
 20
0.1829459892168678
 10
0.2136840490788749
 20
0.1832192254233471
 10
0.2148321711934038
 20
0.1832738729175348
  0
LWPOLYLINE
  5
D6E
330
2
100
AcDbEntity
  8
Profilo
  6
Continuous
370
     0
100
AcDbPolyline
 90
        7
 70
   128
 43
0.0
 10
0.2122078917951189
 20
0.1820716343677041
 10
0.2134653589660579
 20
0.1823448705741833
 10
0.2145041360241784
 20
0.1823995174361406
 10
0.2148321711934038
 20
0.1820169868735164
 10
0.2147774986651996
 20
0.1815798094489348
 10
0.214176101832713
 20
0.1815798094489348
 10
0.2134106864378538
 20
0.1815798094489348
  0
LWPOLYLINE
  5
D6F
330
2
100
AcDbEntity
  8
Profilo
  6
Continuous
370
     0
100
AcDbPolyline
 90
        4
 70
   128
 43
0.0
 10
0.2099116475660612
 20
0.1782463300059221
 10
0.2114424764002595
 20
0.1798857459803344
 10
0.2128639611558096
 20
0.1802682765429583
 10
0.2138480666634877
 20
0.1802682765429583
  0
LWPOLYLINE
  5
D70
330
2
100
AcDbEntity
  8
Profilo
  6
Continuous
370
     0
100
AcDbPolyline
 90
        8
 70
   128
 43
0.0
 10
0.2106223894549561
 20
0.1762790309630733
 10
0.211770511569485
 20
0.1784102718562556
 10
0.2130826512686266
 20
0.1789020967750257
 10
0.2147228261369953
 20
0.1789020967750257
 10
0.2152695514190377
 20
0.1786835074305036
 10
0.2160896383643411
 20
0.1780823887878189
 10
0.21581627572332
 20
0.1775359163748614
 10
0.2143947909677681
 20
0.1775905638690488
  0
LWPOLYLINE
  5
D71
330
2
100
AcDbEntity
  8
Profilo
  6
Continuous
370
     0
100
AcDbPolyline
 90
        6
 70
   128
 43
0.0
 10
0.2105677169267518
 20
0.1722351378889996
 10
0.2104583718703433
 20
0.1741477900698911
 10
0.2111691147369984
 20
0.1757325585501159
 10
0.2125359269643461
 20
0.1762790309630733
 10
0.2137387216070792
 20
0.1763336778250306
 10
0.2146134810805869
 20
0.1760057947565941
  0
LWPOLYLINE
  5
D72
330
2
100
AcDbEntity
  8
Profilo
  6
Continuous
370
     0
100
AcDbPolyline
 90
        4
 70
   128
 43
0.0
 10
0.20963828492504
 20
0.1711968411895024
 10
0.2080527825848755
 20
0.1750221449190541
 10
0.2071233496054016
 20
0.1784102718562556
 10
0.2068499879421424
 20
0.1807601014617284
  0
LWPOLYLINE
  5
D73
330
2
100
AcDbEntity
  8
Profilo
  6
Continuous
370
     0
100
AcDbPolyline
 90
        3
 70
   128
 43
0.0
 10
0.2076700748874458
 20
0.1710875468333576
 10
0.2057565373780558
 20
0.1761697366069276
 10
0.2042803800943015
 20
0.1814158675986006
  0
LWPOLYLINE
  5
D74
330
2
100
AcDbEntity
  8
Profilo
  6
Continuous
370
     0
100
AcDbPolyline
 90
        2
 70
   128
 43
0.0
 10
0.2029682403951582
 20
0.1866073517283174
 10
0.2015467556396082
 20
0.1909791278708267
  0
LWPOLYLINE
  5
D75
330
2
100
AcDbEntity
  8
Profilo
  6
Continuous
370
     0
100
AcDbPolyline
 90
       15
 70
   128
 43
0.0
 10
0.2101303367011162
 20
0.1718526073263756
 10
0.2111144422087943
 20
0.1702131913519633
 10
0.2124812544361418
 20
0.1690656002963203
 10
0.213957411719896
 20
0.1683551866652596
 10
0.2160349658361368
 20
0.1680819504587811
 10
0.2179485033455268
 20
0.1680819504587811
 10
0.2211741805540583
 20
0.1696120720770476
 10
0.2248372370104636
 20
0.1719072548205631
 10
0.2282269318036079
 20
0.1752953811255333
 10
0.2299764517283851
 20
0.1790660379931279
 10
0.2304138309762571
 20
0.1825634592864741
 10
0.2293750539181367
 20
0.1863887630160258
 10
0.2283362768600163
 20
0.1874817072097116
 10
0.2270241371608748
 20
0.1885746514033964
 10
0.2266961019916493
 20
0.1895583012409364
  0
LWPOLYLINE
  5
D76
330
2
100
AcDbEntity
  8
Profilo
  6
Continuous
370
     0
100
AcDbPolyline
 90
       12
 70
   128
 43
0.0
 10
0.227297498824134
 20
0.1911430697211601
 10
0.2288283286360944
 20
0.1911977172153486
 10
0.2310152287865055
 20
0.1911977172153486
 10
0.232546058598464
 20
0.1903233617339536
 10
0.2338581982976056
 20
0.1889025344718329
 10
0.2346236127147048
 20
0.1863341161540684
 10
0.234678285242909
 20
0.1850225832480928
 10
0.2362697177083248
 20
0.1856234515274136
 10
0.2381941895278032
 20
0.1853611453255566
 10
0.2394188527907133
 20
0.1843119186214379
 10
0.2402936132419828
 20
0.1829129507363298
 10
0.2402061368057513
 20
0.1816014178303544
  0
LWPOLYLINE
  5
D77
330
2
100
AcDbEntity
  8
Profilo
  6
Continuous
370
     0
100
AcDbPolyline
 90
        5
 70
   128
 43
0.0
 10
0.2363571931667945
 20
0.1767924636310314
 10
0.2381941895278032
 20
0.1792406582202581
 10
0.2386315687756753
 20
0.1815139822189916
 10
0.2385440933172056
 20
0.1830878213268241
 10
0.2374943809712349
 20
0.1842244830100753
  0
LWPOLYLINE
  5
D78
330
2
100
AcDbEntity
  8
Profilo
  6
Continuous
370
     0
100
AcDbPolyline
 90
        4
 70
   128
 43
0.0
 10
0.2355699101295183
 20
0.1772296416878441
 10
0.2362697177083248
 20
0.1795904006657091
 10
0.2367945733924284
 20
0.1823009020890228
 10
0.2360072893773921
 20
0.1836124343627684
  0
LWPOLYLINE
  5
D79
330
2
100
AcDbEntity
  8
Profilo
  6
Continuous
370
     0
100
AcDbPolyline
 90
        6
 70
   128
 43
0.0
 10
0.2354824336932867
 20
0.1820385952549358
 10
0.2354824336932867
 20
0.1802898849243779
 10
0.2345201977835476
 20
0.1781914321483698
 10
0.233208058084406
 20
0.1764427218178126
 10
0.2317209664905615
 20
0.1749563176891116
 10
0.2301463984604872
 20
0.1742568334304421
  0
LWPOLYLINE
  5
D7A
330
2
100
AcDbEntity
  8
Profilo
  6
Continuous
370
     0
100
AcDbPolyline
 90
       11
 70
   128
 43
0.0
 10
0.2315460145958602
 20
0.1828255151249671
 10
0.2323332986108983
 20
0.1833501281609113
 10
0.2330331061897048
 20
0.1830003857154614
 10
0.2330331061897048
 20
0.1820385952549358
 10
0.2324207740693679
 20
0.1801150137016531
 10
0.2308462070170555
 20
0.1773170772992069
 10
0.229184162550748
 20
0.1756558019477803
 10
0.2281344511825392
 20
0.1740819628399478
 10
0.2282219266410088
 20
0.1725081230998841
 10
0.2289217351975772
 20
0.1722458168980278
 10
0.2296215427763819
 20
0.1723332525093896
  0
LWPOLYLINE
  5
D7B
330
2
100
AcDbEntity
  8
Profilo
  6
Continuous
370
     0
100
AcDbPolyline
 90
       41
 70
   128
 43
0.0
 10
0.229303407445272
 20
0.1853758440574782
 10
0.228185204841493
 20
0.1856767593247144
 10
0.2271960247501283
 20
0.1855477956387556
 10
0.2265079004469417
 20
0.1846450492048189
 10
0.2265939161070598
 20
0.1836563269802424
 10
0.2267659474272977
 20
0.1825386417019391
 10
0.2268089552573559
 20
0.1820657742211956
 10
0.2260348143162893
 20
0.1827105932832169
 10
0.225604736015697
 20
0.1827965690738556
 10
0.2251316498850446
 20
0.1828825448644943
 10
0.224529541241976
 20
0.1836993148755621
 10
0.2239274316211457
 20
0.1840862065656669
 10
0.2231962985101372
 20
0.1845590734141802
 10
0.2224651663768906
 20
0.1846450492048189
 10
0.221863056756062
 20
0.1845590734141802
 10
0.2210889158149935
 20
0.1845160855188601
 10
0.2207878610045792
 20
0.1840002307750279
 10
0.2207878610045792
 20
0.1833124238176878
 10
0.2213039549652898
 20
0.1824526652790698
 10
0.2213899706254097
 20
0.1816358952680021
 10
0.2214329784554677
 20
0.1810770519966198
 10
0.2217770410959421
 20
0.1804322335668289
 10
0.2219060645861202
 20
0.1794435113422533
 10
0.2216050097757058
 20
0.1791855839703366
 10
0.2217340332658839
 20
0.1774660668931011
 10
0.2212179393051716
 20
0.1774660668931011
 10
0.2205728218542831
 20
0.1778099706878866
 10
0.2198846975510964
 20
0.1778099706878866
 10
0.2189385252897917
 20
0.1778099706878866
 10
0.2178203226860109
 20
0.1775520426837398
 10
0.2173902443854185
 20
0.1765633210913944
 10
0.2176912991958328
 20
0.1754886230761798
 10
0.217906338346129
 20
0.1748867919094786
 10
0.2173902443854185
 20
0.1745858766422431
 10
0.2171752052351223
 20
0.1738550817895831
 10
0.2176482913657746
 20
0.1732962391504309
 10
0.2184654391591393
 20
0.1723934927164941
 10
0.2184224313290795
 20
0.1713617825965986
 10
0.2179923540062489
 20
0.1706309883761696
 10
0.2176482913657746
 20
0.1702440966860641
 10
0.2170031739148842
 20
0.1699431814188286
  0
LWPOLYLINE
  5
D7C
330
2
100
AcDbEntity
  8
Profilo
  6
Continuous
370
     0
100
AcDbPolyline
 90
        5
 70
   128
 43
0.0
 10
0.2195836427406803
 20
0.1709319036434051
 10
0.2201427445314508
 20
0.1722645290305363
 10
0.2200137210412727
 20
0.1737691059989441
 10
0.2193686035903841
 20
0.1742419734796876
 10
0.2187664939695537
 20
0.1742419734796876
  0
LWPOLYLINE
  5
D7D
330
2
100
AcDbEntity
  8
Profilo
  6
Continuous
370
     0
100
AcDbPolyline
 90
        7
 70
   128
 43
0.0
 10
0.2202717680216288
 20
0.1706309883761696
 10
0.221648017605764
 20
0.1728233723019186
 10
0.221648017605764
 20
0.1748008161188396
 10
0.2210889158149935
 20
0.1762194172966089
 10
0.2200997367013926
 20
0.1767352726726721
 10
0.219196572270146
 20
0.1767782605679911
 10
0.2187234861394938
 20
0.1761764294012898
  0
LWPOLYLINE
  5
D7E
330
2
100
AcDbEntity
  8
Profilo
  6
Continuous
370
     0
100
AcDbPolyline
 90
        3
 70
   128
 43
0.0
 10
0.2219490724161801
 20
0.1711038552246821
 10
0.2228952436997229
 20
0.1741989855843686
 10
0.2226371976971286
 20
0.1759614899246931
  0
LWPOLYLINE
  5
D7F
330
2
100
AcDbEntity
  8
Profilo
  6
Continuous
370
     0
100
AcDbPolyline
 90
        7
 70
   128
 43
0.0
 10
0.2240994629413837
 20
0.1735541665223476
 10
0.2241424707714419
 20
0.1753596593902221
 10
0.2235403611506115
 20
0.1764773453007556
 10
0.222852235869663
 20
0.1770791758352266
 10
0.2221641115664762
 20
0.1772511274165043
 10
0.2215189941155876
 20
0.1769932000445886
 10
0.2214759862855277
 20
0.1767352726726721
  0
LWPOLYLINE
  5
D80
330
2
100
AcDbEntity
  8
Profilo
  6
Continuous
370
     0
100
AcDbPolyline
 90
        5
 70
   128
 43
0.0
 10
0.2244865334119161
 20
0.1739410575802219
 10
0.2245725490720343
 20
0.1754886230761798
 10
0.22427149426162
 20
0.1772511274165043
 10
0.2235403611506115
 20
0.1781968617457611
 10
0.2229382515297811
 20
0.1788416801755519
  0
LWPOLYLINE
  5
D81
330
2
100
AcDbEntity
  8
Profilo
  6
Continuous
370
     0
100
AcDbPolyline
 90
        8
 70
   128
 43
0.0
 10
0.2252606733752227
 20
0.1757465504480963
 10
0.2249596185648066
 20
0.1779819222691644
 10
0.2240564551113238
 20
0.1795294871328921
 10
0.2234113376604334
 20
0.1800023539814053
 10
0.2230242671899009
 20
0.1800883304042744
 10
0.2225941898670687
 20
0.1800453418767244
 10
0.2223361428867143
 20
0.1797444266094889
 10
0.2223361428867143
 20
0.1794005234469343
  0
LWPOLYLINE
  5
D82
330
2
100
AcDbEntity
  8
Profilo
  6
Continuous
370
     0
100
AcDbPolyline
 90
        6
 70
   128
 43
0.0
 10
0.2252606733752227
 20
0.1796584508188499
 10
0.2247445803922723
 20
0.1816358952680021
 10
0.2240134472812637
 20
0.1827965690738556
 10
0.2233683298303752
 20
0.1833124238176878
 10
0.2227662202095448
 20
0.1836563269802424
 10
0.2225081742069506
 20
0.1837423034031123
  0
LWPOLYLINE
  5
D83
330
2
100
AcDbEntity
  8
Profilo
  6
Continuous
370
     0
100
AcDbPolyline
 90
        5
 70
   128
 43
0.0
 10
0.2262498534665855
 20
0.1738980696849021
 10
0.2273680560703664
 20
0.1766492968820333
 10
0.2277981343709587
 20
0.1787127164895931
 10
0.2277551265408988
 20
0.1806041851481066
 10
0.2271960247501283
 20
0.1819368105352376
  0
LWPOLYLINE
  5
D84
330
2
100
AcDbEntity
  8
Profilo
  6
Continuous
370
     0
100
AcDbPolyline
 90
        8
 70
   128
 43
0.0
 10
0.2288733301224415
 20
0.1787986922802321
 10
0.2292604005929739
 20
0.1803462577761901
 10
0.2292173927629157
 20
0.1823237015931121
 10
0.2290453614426776
 20
0.1839572428797089
 10
0.2284002439917891
 20
0.1847740128907766
 10
0.2277121187108406
 20
0.1848170007860956
 10
0.2273680560703664
 20
0.1840432186703478
 10
0.2273680560703664
 20
0.1833983996083266
  0
LWPOLYLINE
  5
D85
330
2
100
AcDbEntity
  8
Profilo
  6
Continuous
370
     0
100
AcDbPolyline
 90
       11
 70
   128
 43
0.0
 10
0.2319681065381598
 20
0.1851484135986214
 10
0.2314176061178479
 20
0.1875557370009669
 10
0.2302477943135503
 20
0.1891376920545034
 10
0.2290779815314892
 20
0.1899630604033126
 10
0.2280457936100663
 20
0.1901006217947806
 10
0.2272888563876804
 20
0.1901006217947806
 10
0.2280457936100663
 20
0.1894815958492891
 10
0.2289403566708525
 20
0.1885874471208623
 10
0.2297661068124377
 20
0.1875557370009669
 10
0.2305918559762627
 20
0.1859737813151991
 10
0.230935918616737
 20
0.1848045104360659
  0
LWPOLYLINE
  5
D86
330
2
100
AcDbEntity
  8
Profilo
  6
Continuous
370
     0
100
AcDbPolyline
 90
        4
 70
   128
 43
0.0
 10
0.2138704192757501
 20
0.1934708743051721
 10
0.2156595444195606
 20
0.1942274616421307
 10
0.2171734198420943
 20
0.1938835584795761
 10
0.2182056067857551
 20
0.1934708743051721
  0
LWPOLYLINE
  5
D87
330
2
100
AcDbEntity
  8
Profilo
  6
Continuous
370
     0
100
AcDbPolyline
 90
        2
 70
   128
 43
0.0
 10
0.2117372324692273
 20
0.1932645325340849
 10
0.2131134820533642
 20
0.1948464875876221
  0
LWPOLYLINE
  5
D88
330
2
100
AcDbEntity
  8
Profilo
  6
Continuous
370
     0
100
AcDbPolyline
 90
       12
 70
   128
 43
0.0
 10
0.2083305109322868
 20
0.1891358446763509
 10
0.2087480220606021
 20
0.1907671775810562
 10
0.2093932656427632
 20
0.1918673785189021
 10
0.2103421541263176
 20
0.1923226339485836
 10
0.2109114862386895
 20
0.1921329445023316
 10
0.2111392196702937
 20
0.1915259366305259
 10
0.2106837537848455
 20
0.1907671775810562
 10
0.2101144206947118
 20
0.1900842938043026
 10
0.2097348653012911
 20
0.1893634723911916
 10
0.2092414436809466
 20
0.1886805892466694
 10
0.2087859768177349
 20
0.1876942018501284
 10
0.2083305109322868
 20
0.1868595662634809
  0
LWPOLYLINE
  5
D89
330
2
100
AcDbEntity
  8
Profilo
  6
Continuous
370
     0
100
AcDbPolyline
 90
        3
 70
   128
 43
0.0
 10
0.2038357732312813
 20
0.1909775472940363
 10
0.2042141641104126
 20
0.1935494131658956
 10
0.2054250135547661
 20
0.1948353464179411
  0
LWPOLYLINE
  5
D8A
330
2
100
AcDbEntity
  8
Profilo
  6
Continuous
370
     0
100
AcDbPolyline
 90
        2
 70
   128
 43
0.0
 10
0.1932945310899238
 20
0.1691804113023771
 10
0.1932536071699092
 20
0.1692092370701144
  0
LWPOLYLINE
  5
D8B
330
2
100
AcDbEntity
  8
Profilo
  6
Continuous
370
     0
100
AcDbPolyline
 90
        3
 70
   128
 43
0.0
 10
0.1909300421738037
 20
0.1708046516060124
 10
0.187436631346408
 20
0.1731140877042389
 10
0.1871664128102831
 20
0.1732883019298248
  0
LWPOLYLINE
  5
D8C
330
2
100
AcDbEntity
  8
Profilo
  6
Continuous
370
     0
100
AcDbPolyline
 90
       11
 70
   128
 43
0.0
 10
0.1845401407047067
 20
0.1749815016918206
 10
0.1807855748545481
 20
0.1774021305331294
 10
0.1777777532413314
 20
0.1798165824426994
 10
0.1770905141214242
 20
0.1815920035896819
 10
0.177262183990786
 20
0.1840656119566565
 10
0.178184806035139
 20
0.1854904147694223
 10
0.1798038322391964
 20
0.1862290554254369
 10
0.1819828151393725
 20
0.1860384348183298
 10
0.1844670465038565
 20
0.1843114825763216
 10
0.1871643214226778
 20
0.1818254751100278
 10
0.1889679544008533
 20
0.1798919284376856
  0
LWPOLYLINE
  5
D8D
330
2
100
AcDbEntity
  8
Profilo
  6
Continuous
370
     0
100
AcDbPolyline
 90
        3
 70
   128
 43
0.0
 10
0.1918356939048493
 20
0.1768176288200858
 10
0.192704336155442
 20
0.1758864192262186
 10
0.1939207128821234
 20
0.1745042707707188
  0
LWPOLYLINE
  5
D8E
330
2
100
AcDbEntity
  8
Profilo
  6
Continuous
370
     0
100
AcDbPolyline
 90
        3
 70
   128
 43
0.0
 10
0.1973111238921666
 20
0.1706518036540284
 10
0.1981598765852173
 20
0.1696873802167238
 10
0.2004323521263558
 20
0.1685466054674276
  0
LWPOLYLINE
  5
D8F
330
2
100
AcDbEntity
  8
Profilo
  6
Continuous
370
     0
100
AcDbPolyline
 90
        2
 70
   128
 43
0.0
 10
0.1966604021979704
 20
0.1691398392131494
 10
0.1793397984489182
 20
0.1835630113642826
  0
LWPOLYLINE
  5
D90
330
2
100
AcDbEntity
  8
Profilo
  6
Continuous
370
     0
100
AcDbPolyline
 90
        2
 70
   128
 43
0.0
 10
0.1813107459357788
 20
0.1811405447202968
 10
0.1797554333910972
 20
0.1811285215168684
  0
LWPOLYLINE
  5
D91
330
2
100
AcDbEntity
  8
Profilo
  6
Continuous
370
     0
100
AcDbPolyline
 90
        2
 70
   128
 43
0.0
 10
0.1836052695523821
 20
0.1793602590378021
 10
0.1820525339774085
 20
0.1790024829655759
  0
LWPOLYLINE
  5
D92
330
2
100
AcDbEntity
  8
Profilo
  6
Continuous
370
     0
100
AcDbPolyline
 90
        2
 70
   128
 43
0.0
 10
0.1857789536211847
 20
0.1775617514344419
 10
0.1844860811208697
 20
0.1771195407309351
  0
LWPOLYLINE
  5
D93
330
2
100
AcDbEntity
  8
Profilo
  6
Continuous
370
     0
100
AcDbPolyline
 90
        2
 70
   128
 43
0.0
 10
0.1896741742686866
 20
0.1743415912172196
 10
0.1885190363586595
 20
0.1739696000286969
  0
LWPOLYLINE
  5
D94
330
2
100
AcDbEntity
  8
Profilo
  6
Continuous
370
     0
100
AcDbPolyline
 90
        2
 70
   128
 43
0.0
 10
0.1913099494146911
 20
0.1728328330138764
 10
0.1900677608332533
 20
0.1725466113730961
  0
LWPOLYLINE
  5
D95
330
2
100
AcDbEntity
  8
Profilo
  6
Continuous
370
     0
100
AcDbPolyline
 90
        2
 70
   128
 43
0.0
 10
0.1845655466815508
 20
0.1803704253131546
 10
0.1847098684384941
 20
0.1818756559526308
  0
LWPOLYLINE
  5
D96
330
2
100
AcDbEntity
  8
Profilo
  6
Continuous
370
     0
100
AcDbPolyline
 90
        2
 70
   128
 43
0.0
 10
0.182012448624711
 20
0.1820622686298921
 10
0.1820996444902255
 20
0.1842758927459054
  0
LWPOLYLINE
  5
D97
330
2
100
AcDbEntity
  8
Profilo
  6
Continuous
370
     0
100
AcDbPolyline
 90
        2
 70
   128
 43
0.0
 10
0.1867392307503514
 20
0.1785719177097944
 10
0.1868679464013816
 20
0.1798522746880223
  0
LWPOLYLINE
  5
D98
330
2
100
AcDbEntity
  8
Profilo
  6
Continuous
370
     0
100
AcDbPolyline
 90
        2
 70
   128
 43
0.0
 10
0.1921649927998263
 20
0.1740496500997041
 10
0.1923651527142062
 20
0.1750193629390344
  0
LWPOLYLINE
  5
D99
330
2
100
AcDbEntity
  8
Profilo
  6
Continuous
370
     0
100
AcDbPolyline
 90
       79
 70
   128
 43
0.0
 10
0.1999995311491958
 20
0.1663303085334004
 10
0.1979893498540334
 20
0.1647415002590489
 10
0.1966237447550849
 20
0.1647828095662008
 10
0.1955310321691498
 20
0.1653103117020244
 10
0.1947995510999156
 20
0.1660653591918336
 10
0.1948281869433258
 20
0.1668608591877574
 10
0.1952336604093555
 20
0.1681087781989164
 10
0.1953857130724205
 20
0.1685767481768157
 10
0.1950713010760391
 20
0.1690238234158353
 10
0.1940838216328479
 20
0.1693446749365528
 10
0.1932210479428774
 20
0.1691651183169321
 10
0.1936316750461769
 20
0.1697215306605886
 10
0.1937993335130129
 20
0.1704143733698296
 10
0.193343321624356
 20
0.1713098598896068
 10
0.1924935773727386
 20
0.1717009307299383
 10
0.1915606480538442
 20
0.1716591412521781
 10
0.1906367370729213
 20
0.1704072145065433
 10
0.1904677896695155
 20
0.1698872478644323
 10
0.1899142740395145
 20
0.1699521237985711
 10
0.1895634958948893
 20
0.1706409595078731
 10
0.1885409389378781
 20
0.1710306945018359
 10
0.1876911946862608
 20
0.1714217653421681
 10
0.1872728375802718
 20
0.1719026143946253
 10
0.1871091893103854
 20
0.1729905356786746
 10
0.1872755597440835
 20
0.1738562551895834
 10
0.1874237471051606
 20
0.1748428559632241
 10
0.1873809392865072
 20
0.1759489999026763
 10
0.1865311944336038
 20
0.1763400709383786
 10
0.1855462922592625
 20
0.1763151684650223
 10
0.1847042783124788
 20
0.1756689788391468
 10
0.1843858552157158
 20
0.1743352893503389
 10
0.1841908492377495
 20
0.1726740687182294
 10
0.1841089522036102
 20
0.1720683315984694
 10
0.1833813358350776
 20
0.1723047484879071
 10
0.1829005531028525
 20
0.1718861032861114
 10
0.182652431433409
 20
0.1727140421790116
 10
0.182419916169021
 20
0.1737668536078838
 10
0.1816910117673522
 20
0.1741761472989885
 10
0.1808243721741061
 20
0.1745152216704802
 10
0.1800811503009462
 20
0.1745267647032984
 10
0.1796692348653667
 20
0.1741432302865864
 10
0.1794989988275367
 20
0.1737961406415131
 10
0.1795783188919682
 20
0.1747476306300711
 10
0.1799837923579961
 20
0.1759955496412302
 10
0.1799760623553083
 20
0.1770328110373429
 10
0.1793472374591118
 20
0.1779269607808446
 10
0.178789857128411
 20
0.1785104673153556
 10
0.1779751909918996
 20
0.1788326544870726
 10
0.176992865485122
 20
0.1784619982150118
 10
0.1758065147619749
 20
0.1776402598993611
 10
0.1751918624423093
 20
0.1766327655121169
 10
0.1750436753833764
 20
0.1756461656683819
 10
0.1744018213509726
 20
0.1759696888818373
 10
0.1740119536887138
 20
0.1749466426020201
 10
0.1740560507430793
 20
0.1736676214701609
 10
0.1742547765267854
 20
0.1725108167128663
 10
0.1747458665305483
 20
0.1715464465244748
 10
0.1750264893483954
 20
0.1709953788869394
 10
0.1755851577122341
 20
0.1702389955507616
 10
0.1757930485327339
 20
0.1701714477285156
 10
0.1753655263899514
 20
0.1695630398459251
 10
0.1747067776172066
 20
0.1698345663951691
 10
0.1736673265211426
 20
0.1701723045295511
 10
0.1723419522711396
 20
0.1694532227660484
 10
0.1713284142533878
 20
0.1686328202967673
 10
0.1710074144890612
 20
0.1676448846066639
 10
0.170703309465077
 20
0.1667089455807711
 10
0.1708136965442345
 20
0.1658107871728866
 10
0.1712346312212176
 20
0.1649841850562616
 10
0.1712021297736735
 20
0.1647073149261724
 10
0.1703173080082383
 20
0.1651672692397494
 10
0.1694701398228968
 20
0.1652125864767469
 10
0.168643732281172
 20
0.1647912693868431
 10
0.1682733369302481
 20
0.1634744667070696
 10
0.1682784905675197
 20
0.1627829600395671
 10
0.1685253236025392
 20
0.1621278981437035
 10
0.1691866490428477
 20
0.1615106177957551
 10
0.1699662376655393
 20
0.1612573140972836
 10
0.1702949677346979
 20
0.1612079893211801
  0
LWPOLYLINE
  5
D9A
330
2
100
AcDbEntity
  8
Profilo
  6
Continuous
370
     0
100
AcDbPolyline
 90
       10
 70
   128
 43
0.0
 10
0.1765162164087091
 20
0.1612560815957276
 10
0.1736992444759711
 20
0.1612515936906418
 10
0.1723128799359816
 20
0.1617595369339535
 10
0.1706121027983247
 20
0.1627145556116549
 10
0.1706614983849199
 20
0.1630434226013248
 10
0.1710565193823044
 20
0.1633749612837331
 10
0.1718711861201019
 20
0.1630527739166461
 10
0.1731548941849113
 20
0.1624057274897351
 10
0.1748180165399003
 20
0.1618653462793546
 10
0.1758574682372522
 20
0.1615276079496016
  0
LWPOLYLINE
  5
D9B
330
2
100
AcDbEntity
  8
Profilo
  6
Continuous
370
     0
100
AcDbPolyline
 90
       12
 70
   128
 43
0.0
 10
0.1864757716279577
 20
0.1629063411944236
 10
0.1860377967143858
 20
0.1613815520531753
 10
0.1853517004305107
 20
0.1606847006795519
 10
0.1837794934476324
 20
0.1606206817418186
 10
0.1809235786990885
 20
0.1612037081057196
 10
0.1784419243043143
 20
0.1625849074789303
 10
0.1765137852373932
 20
0.1639012299880939
 10
0.1750833242443264
 20
0.1656881941678956
 10
0.1746754196069826
 20
0.1670854235491039
 10
0.175169231777561
 20
0.1680746962108526
 10
0.1759488204002525
 20
0.1678213925123811
 10
0.1756656209148435
 20
0.1687182139486201
  0
LWPOLYLINE
  5
D9C
330
2
100
AcDbEntity
  8
Profilo
  6
Continuous
370
     0
100
AcDbPolyline
 90
       13
 70
   128
 43
0.0
 10
0.1762540685624145
 20
0.1662850599475736
 10
0.1769530481841048
 20
0.1652531423276751
 10
0.1781860720278896
 20
0.1644501059081309
 10
0.1797803273883805
 20
0.1638746148425726
 10
0.1817383909331357
 20
0.1631809153322952
 10
0.1832975681785188
 20
0.1626743079353521
 10
0.1840057125378588
 20
0.1627316483757781
 10
0.1841590538353497
 20
0.1630267413566406
 10
0.1837081952818185
 20
0.1632307202790086
 10
0.1827895834344132
 20
0.1635866814595331
 10
0.1802936115681478
 20
0.1645701301744576
 10
0.1781107630638399
 20
0.1652793806474001
 10
0.1768050066214197
 20
0.1665659370776029
  0
LWPOLYLINE
  5
D9D
330
2
100
AcDbEntity
  8
Profilo
  6
Continuous
370
     0
100
AcDbPolyline
 90
       11
 70
   128
 43
0.0
 10
0.1761698861553533
 20
0.1706238667437498
 10
0.1770625843231581
 20
0.1714260463622576
 10
0.1781163534919993
 20
0.1714860586907909
 10
0.17887904737435
 20
0.1711807583281086
 10
0.179836602037561
 20
0.1702372828785966
 10
0.1807291547091179
 20
0.1687400679034428
 10
0.1819335427094941
 20
0.1671415314879739
 10
0.1831158823322595
 20
0.1661825050757966
 10
0.1851674385179754
 20
0.1645386514233309
 10
0.1871423962017838
 20
0.1638969487726344
 10
0.1885625502224553
 20
0.1634929988577449
  0
LWPOLYLINE
  5
D9E
330
2
100
AcDbEntity
  8
Profilo
  6
Continuous
370
     0
100
AcDbPolyline
 90
        7
 70
   128
 43
0.0
 10
0.1827924513966169
 20
0.1678397177780601
 10
0.1819129287647012
 20
0.1699075600177971
 10
0.181850648936857
 20
0.1713074612871123
 10
0.1819793645878853
 20
0.1725878182653404
 10
0.1817338195860039
 20
0.1730700033595369
 10
0.1811257550342818
 20
0.1734975199014148
 10
0.1808658925609094
 20
0.1735819543373246
  0
LWPOLYLINE
  5
D9F
330
2
100
AcDbEntity
  8
Profilo
  6
Continuous
370
     0
100
AcDbPolyline
 90
        4
 70
   128
 43
0.0
 10
0.1796599246314674
 20
0.1707545776325994
 10
0.1794755169205384
 20
0.1723091328528094
 10
0.179466497981279
 20
0.1735192703160541
 10
0.1795665777888987
 20
0.1740041272983579
  0
LWPOLYLINE
  5
DA0
330
2
100
AcDbEntity
  8
Profilo
  6
Continuous
370
     0
100
AcDbPolyline
 90
        5
 70
   128
 43
0.0
 10
0.1877102293032758
 20
0.1642298234967811
 10
0.1851545542767283
 20
0.1662674196823171
 10
0.183967061016693
 20
0.1679179527619969
 10
0.1833330827853707
 20
0.1695036101029069
 10
0.1835255126970611
 20
0.1715105843383509
  0
LWPOLYLINE
  5
DA1
330
2
100
AcDbEntity
  8
Profilo
  6
Continuous
370
     0
100
AcDbPolyline
 90
        5
 70
   128
 43
0.0
 10
0.1875829471816334
 20
0.1650759843105479
 10
0.1860836185927788
 20
0.1668278388305426
 10
0.1849624156596796
 20
0.1688592355641039
 10
0.1845376162819948
 20
0.1702044682811004
 10
0.1845767054974825
 20
0.1719163493403129
  0
LWPOLYLINE
  5
DA2
330
2
100
AcDbEntity
  8
Profilo
  6
Continuous
370
     0
100
AcDbPolyline
 90
        4
 70
   128
 43
0.0
 10
0.1870152598785352
 20
0.1670425051099704
 10
0.1865553829870308
 20
0.1684566213002123
 10
0.1867685723397638
 20
0.1699969615994956
 10
0.1870713887293237
 20
0.1711057776224251
  0
LWPOLYLINE
  5
DA3
330
2
100
AcDbEntity
  8
Profilo
  6
Continuous
370
     0
100
AcDbPolyline
 90
        7
 70
   128
 43
0.0
 10
0.187403838604224
 20
0.1682384274569179
 10
0.1875325542552523
 20
0.1695187844351466
 10
0.1878015817654183
 20
0.1705236069342839
 10
0.1882667583917285
 20
0.1707173784748311
 10
0.1886656440898129
 20
0.1705302865568676
 10
0.1884798022482119
 20
0.1699583241804519
 10
0.188243275883444
 20
0.1692303708814981
  0
LWPOLYLINE
  5
DA4
330
2
100
AcDbEntity
  8
Profilo
  6
Continuous
370
     0
100
AcDbPolyline
 90
        4
 70
   128
 43
0.0
 10
0.1903323407542937
 20
0.1648724853634198
 10
0.1892462156341583
 20
0.1668349974984589
 10
0.1893216703966017
 20
0.1683051182827581
 10
0.1896257757227316
 20
0.1692410582385579
  0
LWPOLYLINE
  5
DA5
330
2
100
AcDbEntity
  8
Profilo
  6
Continuous
370
     0
100
AcDbPolyline
 90
        8
 70
   128
 43
0.0
 10
0.1924229846507792
 20
0.1649405122309989
 10
0.1907508433565307
 20
0.1666910309046241
 10
0.1906885635286883
 20
0.1680909321739403
 10
0.19119540543676
 20
0.1696508311703646
 10
0.1915722436606657
 20
0.1701032499902289
 10
0.1923973622658205
 20
0.1706974431472629
 10
0.1928326147134366
 20
0.1702685905636463
 10
0.19234137891128
 20
0.1689335652284706
  0
LWPOLYLINE
  5
DA6
330
2
100
AcDbEntity
  8
Profilo
  6
Continuous
370
     0
100
AcDbPolyline
 90
        6
 70
   128
 43
0.0
 10
0.196252060769737
 20
0.1636388838834641
 10
0.1943992309690133
 20
0.1641259325832653
 10
0.1931116582035042
 20
0.1652916096105478
 10
0.193014300260554
 20
0.1667603945484796
 10
0.1933340119917428
 20
0.1679212070402499
 10
0.1939161628638661
 20
0.1686518312974051
  0
LWPOLYLINE
  5
DA7
330
2
100
AcDbEntity
  8
Profilo
  6
Continuous
370
     0
100
AcDbPolyline
 90
        4
 70
   128
 43
0.0
 10
0.1969523293279972
 20
0.1624340901964348
 10
0.1928243021214672
 20
0.1621082717252984
 10
0.1893147913340164
 20
0.1622713172364051
 10
0.1869954971759906
 20
0.1627374721272326
  0
LWPOLYLINE
  5
DA8
330
2
100
AcDbEntity
  8
Profilo
  6
Continuous
370
     0
100
AcDbPolyline
 90
        3
 70
   128
 43
0.0
 10
0.1964480640874875
 20
0.1605284374013051
 10
0.1910232987765087
 20
0.1602790380924966
 10
0.1855777740244893
 20
0.1604962727198488
  0
LWPOLYLINE
  5
DA9
330
2
100
AcDbEntity
  8
Profilo
  6
Continuous
370
     0
100
AcDbPolyline
 90
        2
 70
   128
 43
0.0
 10
0.1802349057476515
 20
0.1608526105308006
 10
0.1756378366128235
 20
0.1608516513148584
  0
LWPOLYLINE
  5
DAA
330
2
100
AcDbEntity
  8
Profilo
  6
Continuous
370
     0
100
AcDbPolyline
 90
       15
 70
   128
 43
0.0
 10
0.1964807110312794
 20
0.1631047021250566
 10
0.1983439936027924
 20
0.1635340346839124
 10
0.1998577857606721
 20
0.1644793252204961
 10
0.2009895869608086
 20
0.1656637043392541
 10
0.2018914495641208
 20
0.1675551410881806
 10
0.2024827651738955
 20
0.1693750234056613
 10
0.2020243221139228
 20
0.1729156583178046
 10
0.2009734203059973
 20
0.1771086825031676
 10
0.1987985940024507
 20
0.1813794624317648
 10
0.195753117606566
 20
0.1842085518086549
 10
0.1925620299158782
 20
0.1857052868085696
 10
0.1886029501127541
 20
0.1858994349795434
 10
0.1872424986510772
 20
0.1852492376191919
 10
0.1857975734876973
 20
0.1843390569377858
 10
0.1847606984579091
 20
0.1843310414688333
  0
LWPOLYLINE
  5
DAB
330
2
100
AcDbEntity
  8
Profilo
  6
Continuous
370
     0
100
AcDbPolyline
 90
       12
 70
   128
 43
0.0
 10
0.1834393359095737
 20
0.1853927242377876
 10
0.1838604154815186
 20
0.1868655169101941
 10
0.1845362047929964
 20
0.1889453825487302
 10
0.1858408186985265
 20
0.1901310975138569
 10
0.1875975791907257
 20
0.1909399567549486
 10
0.1902768162310301
 20
0.1908742242151436
 10
0.1915410528879348
 20
0.1905209349227263
 10
0.1914613728726646
 20
0.1922201556488939
 10
0.1923055353926201
 20
0.1939693800391311
 10
0.1936818510472696
 20
0.1948098751330651
 10
0.195282664415938
 20
0.1952095169093583
 10
0.1965029746270996
 20
0.1947210359180301
  0
LWPOLYLINE
  5
DAC
330
2
100
AcDbEntity
  8
Profilo
  6
Continuous
370
     0
100
AcDbPolyline
 90
        5
 70
   128
 43
0.0
 10
0.1998871728600998
 20
0.1895744244165861
 10
0.1981264645370135
 20
0.1920780455097416
 10
0.1960995625549486
 20
0.1931965136428523
 10
0.1945757212125869
 20
0.1935996625687911
 10
0.1931703127577967
 20
0.1929525745788994
  0
LWPOLYLINE
  5
DAD
330
2
100
AcDbEntity
  8
Profilo
  6
Continuous
370
     0
100
AcDbPolyline
 90
        4
 70
   128
 43
0.0
 10
0.1992281079824866
 20
0.1889607692029396
 10
0.1971991452078291
 20
0.1903558404046994
 10
0.1947834944927411
 20
0.1916925988262623
 10
0.1932928690374176
 20
0.1913491329948446
  0
LWPOLYLINE
  5
DAE
330
2
100
AcDbEntity
  8
Profilo
  6
Continuous
370
     0
100
AcDbPolyline
 90
        6
 70
   128
 43
0.0
 10
0.1946274896505393
 20
0.1903636225456301
 10
0.19629061200553
 20
0.1898232413352486
 10
0.1979890119435819
 20
0.1882596430333989
 10
0.1992466608325428
 20
0.1864713428118583
 10
0.2002007785903021
 20
0.1845977105249281
 10
0.2003794593724634
 20
0.1828840548163486
  0
LWPOLYLINE
  5
DAF
330
2
100
AcDbEntity
  8
Profilo
  6
Continuous
370
     0
100
AcDbPolyline
 90
       11
 70
   128
 43
0.0
 10
0.1926626639822579
 20
0.1868630371252051
 10
0.192407011475936
 20
0.1877739030614596
 10
0.1929558887423485
 20
0.1883313832601374
 10
0.1938706058271435
 20
0.1880341736628071
 10
0.1955108195666318
 20
0.1868573918195938
 10
0.1976852472364107
 20
0.184495279666612
 10
0.1987516139992492
 20
0.1824012191306308
 10
0.199924045286389
 20
0.1809165412629351
 10
0.2014478872300387
 20
0.1805133921416264
 10
0.2019136079893665
 20
0.1810978925554054
 10
0.2020467042160678
 20
0.1817904682032066
  0
LWPOLYLINE
  5
DB0
330
2
100
AcDbEntity
  8
Profilo
  6
Continuous
370
     0
100
AcDbPolyline
 90
       41
 70
   128
 43
0.0
 10
0.1895441533110577
 20
0.1855182859625401
 10
0.1889124222775783
 20
0.1845478000211201
 10
0.1887294005727451
 20
0.1835671818788209
 10
0.1893753213473772
 20
0.1826337727865559
 10
0.1903422323626244
 20
0.1824100465705041
 10
0.1914583748312405
 20
0.1822282743332641
 10
0.1919213886805248
 20
0.1821230531226574
 10
0.1910689066029273
 20
0.1815860613845859
 10
0.1908542372632027
 20
0.1812036005947014
 10
0.1906262777730968
 20
0.1807802369277884
 10
0.1896634215285874
 20
0.1804599933931964
 10
0.1891094035602999
 20
0.1800069092220068
 10
0.188433747906231
 20
0.1794576842047706
 10
0.1881260478159934
 20
0.1787889042055861
 10
0.1880217535466108
 20
0.1781896959467589
 10
0.1878234147577444
 20
0.1774401601700204
 10
0.188220990720671
 20
0.1769944321483401
 10
0.1888751340094039
 20
0.1767818881096723
 10
0.1898522947745497
 20
0.1770070426345358
 10
0.1906556695166497
 20
0.1768364525746791
 10
0.1912004512018653
 20
0.1767046633836593
 10
0.1919200311743799
 20
0.1768326265468052
 10
0.1929002323400083
 20
0.1766498032077836
 10
0.1930525047951422
 20
0.1762837791273396
 10
0.1947277331674683
 20
0.1758751277594446
 10
0.194568251362913
 20
0.1753842932350891
 10
0.194041827162211
 20
0.1748770221966639
 10
0.1938291850582842
 20
0.1742225770940976
 10
0.1935368017499339
 20
0.1733227137994453
 10
0.193436562251291
 20
0.1721795357899761
 10
0.1942439908606985
 20
0.1714649752449396
 10
0.1953591204637738
 20
0.1714191954336244
 10
0.1959979466684735
 20
0.1714377337605176
 10
0.1961246522896757
 20
0.1708539113047191
 10
0.1967532287444751
 20
0.1704235688906978
 10
0.1974309113321979
 20
0.1707008086653439
 10
0.1985419867658233
 20
0.1711989984093016
 10
0.1995099112478975
 20
0.1708392795719561
 10
0.2000720366516563
 20
0.1702044238980636
 10
0.2003336713115953
 20
0.1697576447746016
 10
0.2004205064816594
 20
0.1690511136877151
  0
LWPOLYLINE
  5
DB1
330
2
100
AcDbEntity
  8
Profilo
  6
Continuous
370
     0
100
AcDbPolyline
 90
        5
 70
   128
 43
0.0
 10
0.2002775844877966
 20
0.1718108173496946
 10
0.1991829543845203
 20
0.1727543586428386
 10
0.1977121462033081
 20
0.1730965898643328
 10
0.1970630702487099
 20
0.1726291707965261
 10
0.1968770081433977
 20
0.172056530518111
  0
LWPOLYLINE
  5
DB2
330
2
100
AcDbEntity
  8
Profilo
  6
Continuous
370
     0
100
AcDbPolyline
 90
        7
 70
   128
 43
0.0
 10
0.2007764143196269
 20
0.1723722754507259
 10
0.1991166178108211
 20
0.1743586504770171
 10
0.1972359569831301
 20
0.1749697142218676
 10
0.1957140151340564
 20
0.1748763486926539
 10
0.194917734360601
 20
0.1740949915287226
 10
0.1945977572846668
 20
0.1732493151013073
 10
0.195023941083292
 20
0.1726134073957256
  0
LWPOLYLINE
  5
DB3
330
2
100
AcDbEntity
  8
Profilo
  6
Continuous
370
     0
100
AcDbPolyline
 90
        3
 70
   128
 43
0.0
 10
0.2008450067846645
 20
0.1741136106172409
 10
0.198193745893505
 20
0.1759699208629341
 10
0.1964377640555099
 20
0.1762691483244831
  0
LWPOLYLINE
  5
DB4
330
2
100
AcDbEntity
  8
Profilo
  6
Continuous
370
     0
100
AcDbPolyline
 90
        7
 70
   128
 43
0.0
 10
0.1991791294748991
 20
0.1769159413713014
 10
0.1974752938681606
 20
0.1775147722277278
 10
0.1962262492944635
 20
0.1772875158900408
 10
0.1954412320368773
 20
0.1768190457204526
 10
0.1950650542610893
 20
0.1762177365787106
 10
0.1951110055131888
 20
0.1755244894820296
 10
0.1953430188706003
 20
0.1754038826637639
  0
LWPOLYLINE
  5
DB5
330
2
100
AcDbEntity
  8
Profilo
  6
Continuous
370
     0
100
AcDbPolyline
 90
        5
 70
   128
 43
0.0
 10
0.1989307855666276
 20
0.1774036231764235
 10
0.197485543618061
 20
0.1779636529686421
 10
0.1957162713275408
 20
0.1782219766232544
 10
0.194590891974565
 20
0.1778188756936551
 10
0.1937915710997728
 20
0.1774454952683321
  0
LWPOLYLINE
  5
DB6
330
2
100
AcDbEntity
  8
Profilo
  6
Continuous
370
     0
100
AcDbPolyline
 90
        8
 70
   128
 43
0.0
 10
0.1974528822141969
 20
0.1786978020124456
 10
0.19523388622477
 20
0.1791022497546948
 10
0.1934829717209077
 20
0.1787215141097696
 10
0.1928338963675972
 20
0.1782540948465921
 10
0.1926325165769639
 20
0.1779125371291079
 10
0.1925404998945659
 20
0.1774902251031423
 10
0.1927469464180458
 20
0.1771518199095221
 10
0.1930740177617682
 20
0.1770455479878736
  0
LWPOLYLINE
  5
DB7
330
2
100
AcDbEntity
  8
Profilo
  6
Continuous
370
     0
100
AcDbPolyline
 90
        6
 70
   128
 43
0.0
 10
0.1937324438754934
 20
0.1799066457073101
 10
0.1916923009441067
 20
0.1800268760530816
 10
0.1903625020013048
 20
0.1796901950745131
 10
0.1896725427300279
 20
0.1792360598015421
 10
0.1891594092809932
 20
0.1787696914447763
 10
0.1889979002436436
 20
0.1785508432882878
  0
LWPOLYLINE
  5
DB8
330
2
100
AcDbEntity
  8
Profilo
  6
Continuous
370
     0
100
AcDbPolyline
 90
        5
 70
   128
 43
0.0
 10
0.1995165653480075
 20
0.1790673562145246
 10
0.1972455364020895
 20
0.1809810060466871
 10
0.1954160092422635
 20
0.1820276665422464
 10
0.1936038254988367
 20
0.1825712596250241
 10
0.1921636514856909
 20
0.1824513261153984
  0
LWPOLYLINE
  5
DB9
330
2
100
AcDbEntity
  8
Profilo
  6
Continuous
370
     0
100
AcDbPolyline
 90
        8
 70
   128
 43
0.0
 10
0.1956664951658203
 20
0.1830768064483989
 10
0.1943142842699109
 20
0.1839231563798241
 10
0.1924203332918405
 20
0.1844933172476451
 10
0.1908135826050684
 20
0.1848344977580986
 10
0.1898374359080339
 20
0.1844733504165694
 10
0.1895839095839964
 20
0.1838321883743019
 10
0.1902134989043365
 20
0.1832658535343559
 10
0.1908267582751026
 20
0.1830665934858946
  0
LWPOLYLINE
  5
DBA
330
2
100
AcDbEntity
  8
Profilo
  6
Continuous
370
     0
100
AcDbPolyline
 90
       11
 70
   128
 43
0.0
 10
0.1905838898355565
 20
0.1879822855219716
 10
0.1881242752416393
 20
0.1882026323522921
 10
0.1862582548517383
 20
0.1875789262088551
 10
0.185111790875366
 20
0.1867214209860323
 10
0.1846619986085116
 20
0.1857822607450548
 10
0.1844280921431185
 20
0.1850623706672779
 10
0.1852507272677268
 20
0.1855909712079396
 10
0.186377548430757
 20
0.1861654440835541
 10
0.1876139338900682
 20
0.1866319631762246
 10
0.1893736336782208
 20
0.1869284461080549
 10
0.1905919975701699
 20
0.1868943445516121
  0
LWPOLYLINE
  5
DBB
330
2
100
AcDbEntity
  8
Profilo
  6
Continuous
370
     0
100
AcDbPolyline
 90
        4
 70
   128
 43
0.0
 10
0.1770762664260131
 20
0.1733421439145266
 10
0.1769095791835529
 20
0.1752775013858631
 10
0.1777044637602039
 20
0.1766110105496753
 10
0.178415913040407
 20
0.1774651522452786
  0
LWPOLYLINE
  5
DBC
330
2
100
AcDbEntity
  8
Profilo
  6
Continuous
370
     0
100
AcDbPolyline
 90
        2
 70
   128
 43
0.0
 10
0.1766133181365975
 20
0.1712495995877933
 10
0.1755340739844442
 20
0.1730473417187144
  0
LWPOLYLINE
  5
DBD
330
2
100
AcDbEntity
  8
Profilo
  6
Continuous
370
     0
100
AcDbPolyline
 90
       12
 70
   128
 43
0.0
 10
0.1794871987774265
 20
0.1667337801583726
 10
0.1780647270221499
 20
0.1676349664286206
 10
0.1772177649833768
 20
0.1685886103290539
 10
0.1770780140075843
 20
0.1696317385691296
 10
0.17743435268968
 20
0.1701145883219904
 10
0.1780820249821565
 20
0.1701435999379896
 10
0.1786629010214912
 20
0.1694759566987609
 10
0.1791364284869327
 20
0.1687234660612476
 10
0.1797046813220842
 20
0.1681397413644786
 10
0.1802016661204727
 20
0.1674594470203401
 10
0.1809990292804374
 20
0.1667214618235581
 10
0.1816520681948875
 20
0.1660303714448673
  0
LWPOLYLINE
  5
DBE
330
2
100
AcDbEntity
  8
Profilo
  6
Continuous
370
     0
100
AcDbPolyline
 90
        3
 70
   128
 43
0.0
 10
0.17634668516693
 20
0.1630281479862454
 10
0.1740176245826301
 20
0.1641827693592071
 10
0.1731688024396849
 20
0.1657317308420246
  0
LWPOLYLINE
  5
DBF
330
2
100
AcDbEntity
  8
Profilo
  6
Continuous
370
     0
100
AcDbPolyline
 90
        2
 70
   128
 43
0.0
 10
0.1938195704248695
 20
0.1462671455077368
 10
0.193779509303864
 20
0.1462371321990407
  0
LWPOLYLINE
  5
DC0
330
2
100
AcDbEntity
  8
Profilo
  6
Continuous
370
     0
100
AcDbPolyline
 90
        3
 70
   128
 43
0.0
 10
0.1915441588419746
 20
0.144520300773125
 10
0.1882682312777905
 20
0.1419115246434086
 10
0.1880190415834589
 20
0.1417083667001723
  0
LWPOLYLINE
  5
DC1
330
2
100
AcDbEntity
  8
Profilo
  6
Continuous
370
     0
100
AcDbPolyline
 90
       11
 70
   128
 43
0.0
 10
0.1855971502039466
 20
0.1397338610019267
 10
0.1821347707166881
 20
0.1369110721333135
 10
0.1789090225002781
 20
0.1347965704603688
 10
0.1770081280820221
 20
0.1346916025237185
 10
0.1747086356329035
 20
0.1356192572944503
 10
0.1736386735244775
 20
0.1369370112845875
 10
0.1734364911267664
 20
0.1387050492214529
 10
0.1742911248439025
 20
0.1407184801004865
 10
0.1767012237365789
 20
0.1425474669364095
 10
0.1798990611253721
 20
0.1443445092689663
 10
0.1822953265295357
 20
0.1454623673846939
  0
LWPOLYLINE
  5
DC2
330
2
100
AcDbEntity
  8
Profilo
  6
Continuous
370
     0
100
AcDbPolyline
 90
        3
 70
   128
 43
0.0
 10
0.1861053394560733
 20
0.1472397388993669
 10
0.187259397625823
 20
0.1477781071822942
 10
0.1889497800010192
 20
0.148507842832974
  0
LWPOLYLINE
  5
DC3
330
2
100
AcDbEntity
  8
Profilo
  6
Continuous
370
     0
100
AcDbPolyline
 90
        3
 70
   128
 43
0.0
 10
0.1936613885761814
 20
0.1505418375076676
 10
0.1948408887768717
 20
0.1510510260552159
 10
0.1966280635973269
 20
0.1528597599424501
  0
LWPOLYLINE
  5
DC4
330
2
100
AcDbEntity
  8
Profilo
  6
Continuous
370
     0
100
AcDbPolyline
 90
        2
 70
   128
 43
0.0
 10
0.1948982681479698
 20
0.1494557416929853
 10
0.175828655376696
 20
0.1374398739387791
  0
LWPOLYLINE
  5
DC5
330
2
100
AcDbEntity
  8
Profilo
  6
Continuous
370
     0
100
AcDbPolyline
 90
        2
 70
   128
 43
0.0
 10
0.1787416143324271
 20
0.138565773028135
 10
0.1782724310705229
 20
0.1370828675234529
  0
LWPOLYLINE
  5
DC6
330
2
100
AcDbEntity
  8
Profilo
  6
Continuous
370
     0
100
AcDbPolyline
 90
        2
 70
   128
 43
0.0
 10
0.1811438134231569
 20
0.1401978561347658
 10
0.1810042570075846
 20
0.1386105579616043
  0
LWPOLYLINE
  5
DC7
330
2
100
AcDbEntity
  8
Profilo
  6
Continuous
370
     0
100
AcDbPolyline
 90
        2
 70
   128
 43
0.0
 10
0.1835260011166005
 20
0.1417093831188158
 10
0.1835470489135885
 20
0.1403431376801748
  0
LWPOLYLINE
  5
DC8
330
2
100
AcDbEntity
  8
Profilo
  6
Continuous
370
     0
100
AcDbPolyline
 90
        2
 70
   128
 43
0.0
 10
0.1877922448516216
 20
0.1444188738662987
 10
0.1877890722504264
 20
0.1432053208307366
  0
LWPOLYLINE
  5
DC9
330
2
100
AcDbEntity
  8
Profilo
  6
Continuous
370
     0
100
AcDbPolyline
 90
        2
 70
   128
 43
0.0
 10
0.1897326414915169
 20
0.1455083565528644
 10
0.1896209970662035
 20
0.1442385176568605
  0
LWPOLYLINE
  5
DCA
330
2
100
AcDbEntity
  8
Profilo
  6
Continuous
370
     0
100
AcDbPolyline
 90
        2
 70
   128
 43
0.0
 10
0.1804798301566633
 20
0.1414232925021381
 10
0.179092868624016
 20
0.1420256924975755
  0
LWPOLYLINE
  5
DCB
330
2
100
AcDbEntity
  8
Profilo
  6
Continuous
370
     0
100
AcDbPolyline
 90
        2
 70
   128
 43
0.0
 10
0.1780818408578604
 20
0.1395179602951332
 10
0.1760035042219811
 20
0.1402849359622301
  0
LWPOLYLINE
  5
DCC
330
2
100
AcDbEntity
  8
Profilo
  6
Continuous
370
     0
100
AcDbPolyline
 90
        2
 70
   128
 43
0.0
 10
0.1828620178501072
 20
0.142934819486188
 10
0.1816841013263897
 20
0.1434528874099876
  0
LWPOLYLINE
  5
DCD
330
2
100
AcDbEntity
  8
Profilo
  6
Continuous
370
     0
100
AcDbPolyline
 90
        2
 70
   128
 43
0.0
 10
0.1888396026098354
 20
0.1466975682945794
 10
0.187979203710192
 20
0.1471875894324674
  0
LWPOLYLINE
  5
DCE
330
2
100
AcDbEntity
  8
Profilo
  6
Continuous
370
     0
100
AcDbPolyline
 90
       79
 70
   128
 43
0.0
 10
0.1986021382010142
 20
0.1517632493145382
 10
0.1994920044815007
 20
0.149360484537261
 10
0.199030721812571
 20
0.1480744821871557
 10
0.1981913707099138
 20
0.1471982578864019
 10
0.197247237793162
 20
0.1467359005548733
 10
0.1964995213005877
 20
0.1470089578781137
 10
0.1954379779849873
 20
0.1477802142422173
 10
0.1950398989450032
 20
0.1480694355942735
 10
0.1945175464755414
 20
0.1479085658629339
 10
0.1939072506164585
 20
0.1470685656763523
 10
0.1938114073770921
 20
0.1461925330895037
 10
0.1934091185451815
 20
0.146755003541934
 10
0.1928019952872936
 20
0.1471285563909145
 10
0.191809421574172
 20
0.1469715838655436
 10
0.1911749056885198
 20
0.1462842765935259
 10
0.1909263588295679
 20
0.1453840944267343
 10
0.191831507724533
 20
0.144118536227737
 10
0.1922738177689601
 20
0.1437971791698963
 10
0.1920410713527243
 20
0.1432908022892882
 10
0.1912775532547907
 20
0.1431700543895737
 10
0.1905909057717228
 20
0.1423179796687636
 10
0.1899563898860688
 20
0.1416306723967459
 10
0.1893697958059074
 20
0.1413813816738955
 10
0.1882845510830008
 20
0.1415619290857521
 10
0.1875126141922417
 20
0.1419876788120721
 10
0.1866200935104132
 20
0.1424334897731758
 10
0.1855548597653803
 20
0.1427345943938136
 10
0.1849203435081126
 20
0.1420472866103108
 10
0.1846396756580013
 20
0.1411028936920212
 10
0.184994041893395
 20
0.1401024072651373
 10
0.1861640578241398
 20
0.139387436186761
 10
0.1876837123701147
 20
0.1386886290739712
 10
0.188234495029686
 20
0.1384235573018579
 10
0.1877848033831632
 20
0.1378046098497959
 10
0.1880343885954864
 20
0.1372179898174227
 10
0.1871702981037674
 20
0.1372378592750735
 10
0.186097163765762
 20
0.1373420607411337
 10
0.185482658486368
 20
0.1367753101664112
 10
0.1848923732335413
 20
0.136055866677124
 10
0.184651726967564
 20
0.1353525876649101
 10
0.184889201003962
 20
0.1348423141530469
 10
0.1851666970439022
 20
0.1345731534610607
 10
0.1842862875379988
 20
0.1349426179016535
 10
0.1832247442224002
 20
0.135713874265757
 10
0.1822358613103264
 20
0.1360270539953369
 10
0.1811911567908151
 20
0.1357053134464591
 10
0.18046396910435
 20
0.1353555266863834
 10
0.1799058052143002
 20
0.1346802944600801
 10
0.1799547650015469
 20
0.1336315082985968
 10
0.180369682046594
 20
0.1322492906082728
 10
0.1811379281363052
 20
0.1313533886270019
 10
0.1820304480271079
 20
0.1309075782406119
 10
0.1815244153628566
 20
0.1303971129516168
 10
0.1823769144605531
 20
0.1297101880844375
 10
0.1836069625816882
 20
0.1293568876094312
 10
0.1847685589285799
 20
0.1291884147318032
 10
0.1858374846373021
 20
0.1293574623028885
 10
0.1864482983246223
 20
0.1294540611973737
 10
0.1873402996439566
 20
0.1297516510801099
 10
0.1874687832369748
 20
0.1299284935746167
 10
0.1879153019106869
 20
0.1293338874796305
 10
0.1874535002508785
 20
0.128791286484851
 10
0.1868110841438674
 20
0.1279070765697416
 10
0.1870854083736386
 20
0.1264243622674787
 10
0.1875524570161033
 20
0.125206912025948
 10
0.1883928453094885
 20
0.1245963341907656
 10
0.1891890025984323
 20
0.1240178920613668
 10
0.1900773134883361
 20
0.1238453302006363
 10
0.1909935347864451
 20
0.1239902287664933
 10
0.1912468104282023
 20
0.1238737604775858
 10
0.1905359429185633
 20
0.1231743786713396
 10
0.1902310542986515
 20
0.122382677644643
 10
0.1903763766877587
 20
0.1214665232261693
 10
0.1915142719989599
 20
0.1207073419077801
 10
0.1921735264826498
 20
0.1204985559961069
 10
0.1928728029698803
 20
0.1205308829043105
 10
0.1936642322670464
 20
0.1209690906558971
 10
0.1941460445331131
 20
0.1216322483479709
 10
0.1942945383607739
 20
0.1219296470282879
  0
LWPOLYLINE
  5
DCF
330
2
100
AcDbEntity
  8
Profilo
  6
Continuous
370
     0
100
AcDbPolyline
 90
       10
 70
   128
 43
0.0
 10
0.1961712714561833
 20
0.1278612674493317
 10
0.1953050475076664
 20
0.1251807810975411
 10
0.1943935545729508
 20
0.1240192331621847
 10
0.1929597087971578
 20
0.1226968149840037
 10
0.1926622017793437
 20
0.1228454184672096
 10
0.1924689579563629
 20
0.123323556848002
 10
0.1930271222180302
 20
0.1239987895857912
 10
0.1940391875465311
 20
0.1250197201637823
 10
0.1950670536893639
 20
0.1264344565394428
 10
0.1957094701679907
 20
0.1273186669660372
  0
LWPOLYLINE
  5
DD0
330
2
100
AcDbEntity
  8
Profilo
  6
Continuous
370
     0
100
AcDbPolyline
 90
       12
 70
   128
 43
0.0
 10
0.1976794531304282
 20
0.1378433256011279
 10
0.1989942720877842
 20
0.1369556009481169
 10
0.1994450017160627
 20
0.136087745689529
 10
0.1990200486675757
 20
0.1345727050537761
 10
0.197583031453231
 20
0.1320367337768044
 10
0.1955025594068845
 20
0.130103354272403
 10
0.193654834567802
 20
0.1286763510738953
 10
0.1915132938835685
 20
0.1278681041250302
 10
0.1900584003107876
 20
0.127911931385491
 10
0.1892701424521768
 20
0.1286872767326951
 10
0.1897519547182415
 20
0.1293504344247699
 10
0.1888115133935635
 20
0.1293582287734786
  0
LWPOLYLINE
  5
DD1
330
2
100
AcDbEntity
  8
Profilo
  6
Continuous
370
     0
100
AcDbPolyline
 90
       13
 70
   128
 43
0.0
 10
0.1913074206848079
 20
0.1291659898069448
 10
0.192504829243317
 20
0.1295118788495667
 10
0.1936495875851455
 20
0.1304364023102055
 10
0.1946895641128793
 20
0.1317747927400687
 10
0.1959543864638745
 20
0.1334226568959632
 10
0.1969180109960077
 20
0.1347489722801129
 10
0.1970823056380002
 20
0.1354401767580983
 10
0.1968490406025011
 20
0.135677201744301
 10
0.1965157221640953
 20
0.1353114427325432
 10
0.1958933162917268
 20
0.134547789003244
 10
0.1941867032587988
 20
0.1324778810613502
 10
0.1928376286908442
 20
0.1306210392166495
 10
0.1912105398830962
 20
0.1297767588445472
  0
LWPOLYLINE
  5
DD2
330
2
100
AcDbEntity
  8
Profilo
  6
Continuous
370
     0
100
AcDbPolyline
 90
       11
 70
   128
 43
0.0
 10
0.1871549564139503
 20
0.1304266926154791
 10
0.1866678971652272
 20
0.1315235861597146
 10
0.1869364546304392
 20
0.1325443250238014
 10
0.187462497900947
 20
0.1331753470100926
 10
0.1886556970391452
 20
0.1337944856645729
 10
0.1903554470414458
 20
0.1341806888274387
 10
0.1922479218758503
 20
0.1348321549648372
 10
0.193525373231008
 20
0.1356602713081245
 10
0.1957227366853225
 20
0.1371034384722186
 10
0.1969433276602589
 20
0.1387834378224117
 10
0.1977663585860884
 20
0.140009257169336
  0
LWPOLYLINE
  5
DD3
330
2
100
AcDbEntity
  8
Profilo
  6
Continuous
370
     0
100
AcDbPolyline
 90
        7
 70
   128
 43
0.0
 10
0.1918493246360134
 20
0.1358647770975047
 10
0.1896109023590409
 20
0.1356672997609558
 10
0.1882602716094794
 20
0.136040661407517
 10
0.1870823550857601
 20
0.1365587293313165
 10
0.186547892231399
 20
0.1364742055457734
 10
0.1859533975582632
 20
0.1360280116683463
 10
0.1857927937173186
 20
0.1358069594453116
  0
LWPOLYLINE
  5
DD4
330
2
100
AcDbEntity
  8
Profilo
  6
Continuous
370
     0
100
AcDbPolyline
 90
        4
 70
   128
 43
0.0
 10
0.1881091241715005
 20
0.133786308336313
 10
0.1865736691828079
 20
0.1340913101629186
 10
0.1854199730572752
 20
0.1344566856836384
 10
0.1849897730261317
 20
0.1347016962841975
  0
LWPOLYLINE
  5
DD5
330
2
100
AcDbEntity
  8
Profilo
  6
Continuous
370
     0
100
AcDbPolyline
 90
        5
 70
   128
 43
0.0
 10
0.1968022150630784
 20
0.1394263431405122
 10
0.1940745989179451
 20
0.1376254036019859
 10
0.1921378930790974
 20
0.1370060731703719
 10
0.1904339332848721
 20
0.1368931191078801
 10
0.1885846514731532
 20
0.1376963199753479
  0
LWPOLYLINE
  5
DD6
330
2
100
AcDbEntity
  8
Profilo
  6
Continuous
370
     0
100
AcDbPolyline
 90
        5
 70
   128
 43
0.0
 10
0.1959581359686452
 20
0.1395667687207437
 10
0.1938287052976938
 20
0.1386821753145963
 10
0.1915502614365908
 20
0.1382435840719726
 10
0.190139598868253
 20
0.138255275626649
 10
0.1885235824636487
 20
0.1388214520194002
  0
LWPOLYLINE
  5
DD7
330
2
100
AcDbEntity
  8
Profilo
  6
Continuous
370
     0
100
AcDbPolyline
 90
        4
 70
   128
 43
0.0
 10
0.1939124385237764
 20
0.1396345543587273
 10
0.1924254243314536
 20
0.1396341713791752
 10
0.1910263527855206
 20
0.1403129178318942
 10
0.1900653814920918
 20
0.1409435563271474
  0
LWPOLYLINE
  5
DD8
330
2
100
AcDbEntity
  8
Profilo
  6
Continuous
370
     0
100
AcDbPolyline
 90
        7
 70
   128
 43
0.0
 10
0.1928951262126189
 20
0.1403736750170465
 10
0.1917172096889014
 20
0.140891742940846
 10
0.1908447007759726
 20
0.1414581105360164
 10
0.1908041605725773
 20
0.1419603984967516
 10
0.1911053580198237
 20
0.1422819467570106
 10
0.191591898277668
 20
0.1419284545681
 10
0.1922111323398673
 20
0.1414785546871235
  0
LWPOLYLINE
  5
DD9
330
2
100
AcDbEntity
  8
Profilo
  6
Continuous
370
     0
100
AcDbPolyline
 90
        4
 70
   128
 43
0.0
 10
0.1970012843065482
 20
0.1421187127608835
 10
0.1947991932320699
 20
0.1416921959892598
 10
0.1934243420843238
 20
0.1422182500388999
 10
0.192628184004354
 20
0.1427966927430123
  0
LWPOLYLINE
  5
DDA
330
2
100
AcDbEntity
  8
Profilo
  6
Continuous
370
     0
100
AcDbPolyline
 90
        8
 70
   128
 43
0.0
 10
0.1975826314040531
 20
0.1441280547200442
 10
0.1954010691356878
 20
0.1430786938651045
 10
0.1940504383861244
 20
0.1434520555116658
 10
0.1927235090438674
 20
0.1444161261104732
 10
0.1924096825924585
 20
0.1449143256628206
 10
0.1920995469898904
 20
0.1458826758724342
 10
0.192641910437226
 20
0.1461641028125541
 10
0.1937597947705533
 20
0.1452843642853846
  0
LWPOLYLINE
  5
DDB
330
2
100
AcDbEntity
  8
Profilo
  6
Continuous
370
     0
100
AcDbPolyline
 90
        6
 70
   128
 43
0.0
 10
0.2000038031192854
 20
0.147367497234621
 10
0.1989680363834764
 20
0.1457558577043828
 10
0.1974615297847481
 20
0.1448915172469242
 10
0.1960345470395843
 20
0.145252803847772
 10
0.1950293451133261
 20
0.1459155785602938
 10
0.1945143746653722
 20
0.1466950122526582
  0
LWPOLYLINE
  5
DDC
330
2
100
AcDbEntity
  8
Profilo
  6
Continuous
370
     0
100
AcDbPolyline
 90
        4
 70
   128
 43
0.0
 10
0.2013660248912536
 20
0.1476611904861022
 10
0.2004002661112966
 20
0.1436345198672257
 10
0.1991607021402419
 20
0.1403471605976016
 10
0.1980006611839328
 20
0.1382854305586822
  0
LWPOLYLINE
  5
DDD
330
2
100
AcDbEntity
  8
Profilo
  6
Continuous
370
     0
100
AcDbPolyline
 90
        3
 70
   128
 43
0.0
 10
0.2030225818708668
 20
0.1465927266441017
 10
0.2015834300370809
 20
0.1413563996209163
 10
0.1996940679375089
 20
0.1362445270124807
  0
LWPOLYLINE
  5
DDE
330
2
100
AcDbEntity
  8
Profilo
  6
Continuous
370
     0
100
AcDbPolyline
 90
        2
 70
   128
 43
0.0
 10
0.1977041334441515
 20
0.1312732717614095
 10
0.1962844732257468
 20
0.1269009027908451
  0
LWPOLYLINE
  5
DDF
330
2
100
AcDbEntity
  8
Profilo
  6
Continuous
370
     0
100
AcDbPolyline
 90
       15
 70
   128
 43
0.0
 10
0.2005824969780878
 20
0.1474198853143788
 10
0.2007499634302512
 20
0.1493246434026418
 10
0.2003187262083781
 20
0.1510564561391363
 10
0.1995420605348154
 20
0.1524988563211553
 10
0.1980218881606034
 20
0.1539410647260415
 10
0.1964738037961328
 20
0.1550658138537692
 10
0.1929647931946315
 20
0.1557239249529617
 10
0.1886522437020908
 20
0.1560201736716506
 10
0.1839184323337264
 20
0.1552715345210242
 10
0.1802867044843577
 20
0.1532493510455589
 10
0.1778771245825581
 20
0.1506769628543111
 10
0.1764690557581739
 20
0.1469716492932752
 10
0.1766670275729342
 20
0.1454768610314975
 10
0.177086154409908
 20
0.1438213942407994
 10
0.1767733655686374
 20
0.142832790571012
  0
LWPOLYLINE
  5
DE0
330
2
100
AcDbEntity
  8
Profilo
  6
Continuous
370
     0
100
AcDbPolyline
 90
       12
 70
   128
 43
0.0
 10
0.1753553217698212
 20
0.1419041781272709
 10
0.1740847334452908
 20
0.1427597665630124
 10
0.1723154940586066
 20
0.1440451942196605
 10
0.1715909599824599
 20
0.1456523618504727
 10
0.17136455797759
 20
0.1475730916157034
 10
0.1722550031153176
 20
0.1501008849897007
 10
0.1729816718109038
 20
0.1511940731051013
 10
0.1713409943878279
 20
0.1516433809889403
 10
0.169938243697711
 20
0.1529867673179139
 10
0.1695641902886216
 20
0.154555448557462
 10
0.169678786908836
 20
0.156201408643644
 10
0.1705204565323832
 20
0.15721104369412
  0
LWPOLYLINE
  5
DE1
330
2
100
AcDbEntity
  8
Profilo
  6
Continuous
370
     0
100
AcDbPolyline
 90
        5
 70
   128
 43
0.0
 10
0.1764609497040013
 20
0.1588392170586588
 10
0.1735357757550505
 20
0.1579383453999531
 10
0.1718457021903976
 20
0.1563562727228169
 10
0.1709913919058241
 20
0.1550315933537417
 10
0.1711725140586591
 20
0.1534950092990263
  0
LWPOLYLINE
  5
DE2
330
2
100
AcDbEntity
  8
Profilo
  6
Continuous
370
     0
100
AcDbPolyline
 90
        4
 70
   128
 43
0.0
 10
0.1768409082461204
 20
0.1580227792224386
 10
0.1748871327106691
 20
0.1565242216639881
 10
0.1728693227796914
 20
0.1546398823799477
 10
0.1727353495988434
 20
0.1531160765484122
  0
LWPOLYLINE
  5
DE3
330
2
100
AcDbEntity
  8
Profilo
  6
Continuous
370
     0
100
AcDbPolyline
 90
        6
 70
   128
 43
0.0
 10
0.1740850461839436
 20
0.1540808367023615
 10
0.1751129123267763
 20
0.155495573078022
 10
0.1771248171247225
 20
0.1566276689587344
 10
0.1792142265831575
 20
0.1572711489702922
 10
0.1812909953805661
 20
0.1575995846632509
 10
0.1829759942071528
 20
0.1572399714490022
  0
LWPOLYLINE
  5
DE4
330
2
100
AcDbEntity
  8
Profilo
  6
Continuous
370
     0
100
AcDbPolyline
 90
       11
 70
   128
 43
0.0
 10
0.1768071362364036
 20
0.1511304360619853
 10
0.1758618502831499
 20
0.1511687691338407
 10
0.1755012675106399
 20
0.1518630532901287
 10
0.1760665937591312
 20
0.152641158117722
 10
0.1776926337192872
 20
0.153837448494555
 10
0.1806110709776014
 20
0.1551755193012191
 10
0.1829321663478165
 20
0.1555425940669094
 10
0.1847064801009512
 20
0.1561988517901613
 10
0.1855607907571386
 20
0.1575235316707215
 10
0.1851488134591025
 20
0.1581470789947316
 10
0.1845312638721718
 20
0.1584876786734901
  0
LWPOLYLINE
  5
DE5
330
2
100
AcDbEntity
  8
Profilo
  6
Continuous
370
     0
100
AcDbPolyline
 90
       41
 70
   128
 43
0.0
 10
0.1771223977979108
 20
0.147749005204536
 10
0.1778501691512524
 20
0.1468482966398991
 10
0.1787262356083517
 20
0.1463712049839309
 10
0.1798135609043
 20
0.1466970728734406
 10
0.180325129115701
 20
0.1475475246923223
 10
0.180842911777356
 20
0.1485528685498009
 10
0.1810860622434163
 20
0.148960705746051
 10
0.181333340285727
 20
0.1479840075382238
 10
0.1816307456380279
 20
0.1476616579800728
 10
0.1819629450557372
 20
0.1473140290536805
 10
0.181969975813418
 20
0.146299337653557
 10
0.1822296834994681
 20
0.1456324245458921
 10
0.1825432384515703
 20
0.1448201179692553
 10
0.1830842014707095
 20
0.1443208134081248
 10
0.183621853688228
 20
0.1440364581284687
 10
0.1842734145164897
 20
0.1436162074379798
 10
0.184820184785103
 20
0.143856587114675
 10
0.1852244675710519
 20
0.1444130346320124
 10
0.1853122921756736
 20
0.1454119463197173
 10
0.1857227894118765
 20
0.1461232858756508
 10
0.1860164751797288
 20
0.146600678947633
 10
0.1861171374198918
 20
0.1473245829615552
 10
0.1865939115658842
 20
0.1482003141486791
 10
0.1869890759291229
 20
0.1482320261981801
 10
0.1878954005119605
 20
0.1496989828405079
 10
0.1883129292968703
 20
0.1493956304216044
 10
0.1886326986992247
 20
0.1487382158835636
 10
0.1891894029547458
 20
0.1483337465664065
 10
0.1899548723937466
 20
0.1477776004650829
 10
0.1910111235803508
 20
0.1473290056041869
 10
0.191940220205046
 20
0.1478761044926799
 10
0.1923283533911935
 20
0.1489225090285031
 10
0.1925081305483046
 20
0.1495357975113189
 10
0.193102532889485
 20
0.149475890657476
 10
0.1937060536533757
 20
0.1499407192714703
 10
0.1936517983955194
 20
0.1506709055143864
 10
0.1935213329842006
 20
0.1518815501429364
 10
0.1941625510427246
 20
0.1526909417949586
 10
0.1949400409710192
 20
0.153029373630971
 10
0.1954458027239703
 20
0.1531401406373125
 10
0.1961445872613794
 20
0.1530043956787436
  0
LWPOLYLINE
  5
DE6
330
2
100
AcDbEntity
  8
Profilo
  6
Continuous
370
     0
100
AcDbPolyline
 90
        5
 70
   128
 43
0.0
 10
0.1934757877856351
 20
0.1537212641161489
 10
0.1922401673859307
 20
0.1529717793179696
 10
0.1914601814291891
 20
0.1516787128764564
 10
0.1917041478788554
 20
0.1509169645248182
 10
0.1921912647945837
 20
0.150563053369431
  0
LWPOLYLINE
  5
DE7
330
2
100
AcDbEntity
  8
Profilo
  6
Continuous
370
     0
100
AcDbPolyline
 90
        7
 70
   128
 43
0.0
 10
0.1930959562953588
 20
0.1543691795730803
 10
0.1906938960543732
 20
0.1534044429279837
 10
0.1895315837415515
 20
0.1518046572746726
 10
0.1891500737406914
 20
0.1503283530264716
 10
0.1896471242717118
 20
0.149329592365746
 10
0.1903525319944083
 20
0.1487639476947992
 10
0.1910890141980664
 20
0.1489727662857433
  0
LWPOLYLINE
  5
DE8
330
2
100
AcDbEntity
  8
Profilo
  6
Continuous
370
     0
100
AcDbPolyline
 90
        3
 70
   128
 43
0.0
 10
0.1914610443755736
 20
0.1549725170432795
 10
0.1888763037482519
 20
0.153024649509096
 10
0.1880490932913367
 20
0.1514470779103764
  0
LWPOLYLINE
  5
DE9
330
2
100
AcDbEntity
  8
Profilo
  6
Continuous
370
     0
100
AcDbPolyline
 90
        7
 70
   128
 43
0.0
 10
0.1882810850518499
 20
0.1542541413993431
 10
0.1871850489055848
 20
0.1528187463542515
 10
0.1870152065264053
 20
0.1515606083028688
 10
0.1872181644604112
 20
0.1506692472808768
 10
0.1876737981123478
 20
0.1501256662122564
 10
0.1883473149988591
 20
0.1499551433158221
 10
0.188533714969644
 20
0.150138531574774
  0
LWPOLYLINE
  5
DEA
330
2
100
AcDbEntity
  8
Profilo
  6
Continuous
370
     0
100
AcDbPolyline
 90
        5
 70
   128
 43
0.0
 10
0.1877405296051043
 20
0.1541686542727291
 10
0.1867613052988055
 20
0.152967206223074
 10
0.1859688896983247
 20
0.1513643546813985
 10
0.1860045001189565
 20
0.1501694902767529
 10
0.1861126022712476
 20
0.1492939100533789
  0
LWPOLYLINE
  5
DEB
330
2
100
AcDbEntity
  8
Profilo
  6
Continuous
370
     0
100
AcDbPolyline
 90
        8
 70
   128
 43
0.0
 10
0.1860529951379099
 20
0.153163007913037
 10
0.1849826350059604
 20
0.1511775985433518
 10
0.1848036737846605
 20
0.1493947261103314
 10
0.1850476406059442
 20
0.1486329782701791
 10
0.1853102515212193
 20
0.1483359075687844
 10
0.1856834594067962
 20
0.1481178929104296
 10
0.1860690973555226
 20
0.1482096622660384
 10
0.1862712385626892
 20
0.1484878857689646
  0
LWPOLYLINE
  5
DEC
330
2
100
AcDbEntity
  8
Profilo
  6
Continuous
370
     0
100
AcDbPolyline
 90
        6
 70
   128
 43
0.0
 10
0.1837536377915433
 20
0.1499982140327955
 10
0.1830088531009881
 20
0.1480950760238095
 10
0.1829181252671413
 20
0.1467263219298344
 10
0.1831368244375291
 20
0.1459297961518157
 10
0.1834218001460908
 20
0.1452976614935023
 10
0.183580028074111
 20
0.145076429471548
  0
LWPOLYLINE
  5
DED
330
2
100
AcDbEntity
  8
Profilo
  6
Continuous
370
     0
100
AcDbPolyline
 90
        5
 70
   128
 43
0.0
 10
0.1863392413652498
 20
0.1552398857338003
 10
0.1838174656834592
 20
0.153671359175512
 10
0.1822566774147524
 20
0.152254811328889
 10
0.1811796940975138
 20
0.1506993016715818
 10
0.1808487193984476
 20
0.1492925532991126
  0
LWPOLYLINE
  5
DEE
330
2
100
AcDbEntity
  8
Profilo
  6
Continuous
370
     0
100
AcDbPolyline
 90
        8
 70
   128
 43
0.0
 10
0.1813362904777307
 20
0.1528172396592064
 10
0.1801135077135676
 20
0.1517927471872452
 10
0.1789859894661542
 20
0.150167682165692
 10
0.1781649942505171
 20
0.148745002030854
 10
0.1782068198646343
 20
0.1477050306877755
 10
0.178738257260285
 20
0.1472657828580383
 10
0.1794714274996831
 20
0.1476895507936863
 10
0.1798504426347359
 20
0.1482112203731582
  0
LWPOLYLINE
  5
DEF
330
2
100
AcDbEntity
  8
Profilo
  6
Continuous
370
     0
100
AcDbPolyline
 90
       11
 70
   128
 43
0.0
 10
0.1751002912165073
 20
0.1494992711393865
 10
0.174130666218554
 20
0.1472281295674923
 10
0.174147213998193
 20
0.1452607029183198
 10
0.1746084730759776
 20
0.1439053671962757
 10
0.1753626740886087
 20
0.1431873728550017
 10
0.1759750491651939
 20
0.1427424563187717
 10
0.1757265284101539
 20
0.1436881753648626
 10
0.1755283791273641
 20
0.1449373678560346
 10
0.1754667572228284
 20
0.1462574026316007
 10
0.1757285623380776
 20
0.1480225948463238
 10
0.1761374899934953
 20
0.1491707898045055
  0
LWPOLYLINE
  5
DF0
330
2
100
AcDbEntity
  8
Profilo
  6
Continuous
370
     0
100
AcDbPolyline
 90
        4
 70
   128
 43
0.0
 10
0.1848498081045857
 20
0.132128705319324
 10
0.1829576645794457
 20
0.1325682346800314
 10
0.1819350548424143
 20
0.1337362918301318
 10
0.1813425677351894
 20
0.134676864603628
  0
LWPOLYLINE
  5
DF1
330
2
100
AcDbEntity
  8
Profilo
  6
Continuous
370
     0
100
AcDbPolyline
 90
        2
 70
   128
 43
0.0
 10
0.1866968771332152
 20
0.1310417835735235
 10
0.1846536179808903
 20
0.1305708942599034
  0
LWPOLYLINE
  5
DF2
330
2
100
AcDbEntity
  8
Profilo
  6
Continuous
370
     0
100
AcDbPolyline
 90
       12
 70
   128
 43
0.0
 10
0.1918797545858002
 20
0.1323795415368187
 10
0.1905831075646861
 20
0.1313051723773219
 10
0.1894144126553829
 20
0.1307943557831072
 10
0.1883791533188271
 20
0.130983789060417
 10
0.1880300506234976
 20
0.1314718960653959
 10
0.1882026006822154
 20
0.1320968341019583
 10
0.1890170677032241
 20
0.1324429669372259
 10
0.1898790568616063
 20
0.1326607859237802
 10
0.1906098118213552
 20
0.1330208456342147
 10
0.1914103869389939
 20
0.1332832837517057
 10
0.1923586513364411
 20
0.1338135712134404
 10
0.1932177174669967
 20
0.1342210894567589
  0
LWPOLYLINE
  5
DF3
330
2
100
AcDbEntity
  8
Profilo
  6
Continuous
370
     0
100
AcDbPolyline
 90
        3
 70
   128
 43
0.0
 10
0.1944335481333859
 20
0.128247632286953
 10
0.1926157186513002
 20
0.1263893616677215
 10
0.1908802682722043
 20
0.1260607392593224
  0
LWPOLYLINE
  5
DF4
330
2
100
AcDbEntity
  8
Profilo
  6
Continuous
370
     0
100
AcDbPolyline
 90
        2
 70
   128
 43
0.0
 10
0.2157736272456781
 20
0.1396858990613733
 10
0.2157897920312841
 20
0.1396385240487476
  0
LWPOLYLINE
  5
DF5
330
2
100
AcDbEntity
  8
Profilo
  6
Continuous
370
     0
100
AcDbPolyline
 90
        3
 70
   128
 43
0.0
 10
0.2167318344651736
 20
0.136982049338679
 10
0.2182006107132217
 20
0.1330603009232489
 10
0.2183168215486013
 20
0.1327605281836583
  0
LWPOLYLINE
  5
DF6
330
2
100
AcDbEntity
  8
Profilo
  6
Continuous
370
     0
100
AcDbPolyline
 90
       11
 70
   128
 43
0.0
 10
0.2194462824645811
 20
0.1298470167891658
 10
0.221060980109664
 20
0.1256818084839896
 10
0.222075179685989
 20
0.1219605226712707
 10
0.2215876014463873
 20
0.1201202277717094
 10
0.2199947670865967
 20
0.1182199415828723
 10
0.2184108720925622
 20
0.1176095555248228
 10
0.2166668902947925
 20
0.1179636224071907
 10
0.2150161000797386
 20
0.119398611731539
 10
0.2140213917471776
 20
0.1222559400031228
 10
0.2133004890251264
 20
0.1258525807101595
 10
0.2129778295127895
 20
0.1284770016926208
  0
LWPOLYLINE
  5
DF7
330
2
100
AcDbEntity
  8
Profilo
  6
Continuous
370
     0
100
AcDbPolyline
 90
        3
 70
   128
 43
0.0
 10
0.2124648074949711
 20
0.1326497773169256
 10
0.2123094124182767
 20
0.1339137168081063
 10
0.2121377494534506
 20
0.1357468666985294
  0
LWPOLYLINE
  5
DF8
330
2
100
AcDbEntity
  8
Profilo
  6
Continuous
370
     0
100
AcDbPolyline
 90
        3
 70
   128
 43
0.0
 10
0.2116592726845425
 20
0.1408564116571162
 10
0.2115394912052562
 20
0.1421355309234883
 10
0.2103715504469966
 20
0.144394164691699
  0
LWPOLYLINE
  5
DF9
330
2
100
AcDbEntity
  8
Profilo
  6
Continuous
370
     0
100
AcDbPolyline
 90
        2
 70
   128
 43
0.0
 10
0.2130744279940959
 20
0.1416971319694825
 10
0.2186093628981993
 20
0.1198477451419254
  0
LWPOLYLINE
  5
DFA
330
2
100
AcDbEntity
  8
Profilo
  6
Continuous
370
     0
100
AcDbPolyline
 90
        2
 70
   128
 43
0.0
 10
0.2184387230538149
 20
0.122966055691036
 10
0.2197040643956889
 20
0.1220615928904673
  0
LWPOLYLINE
  5
DFB
330
2
100
AcDbEntity
  8
Profilo
  6
Continuous
370
     0
100
AcDbPolyline
 90
        2
 70
   128
 43
0.0
 10
0.2176288401230249
 20
0.1257550242058935
 10
0.2190953250898281
 20
0.1251317960568258
  0
LWPOLYLINE
  5
DFC
330
2
100
AcDbEntity
  8
Profilo
  6
Continuous
370
     0
100
AcDbPolyline
 90
        2
 70
   128
 43
0.0
 10
0.2169274290163532
 20
0.1284877068603091
 10
0.2182333097705963
 20
0.1280855314457611
  0
LWPOLYLINE
  5
DFD
330
2
100
AcDbEntity
  8
Profilo
  6
Continuous
370
     0
100
AcDbPolyline
 90
        2
 70
   128
 43
0.0
 10
0.2156688920013874
 20
0.1333824244516796
 10
0.2168220691360413
 20
0.1330043986170745
  0
LWPOLYLINE
  5
DFE
330
2
100
AcDbEntity
  8
Profilo
  6
Continuous
370
     0
100
AcDbPolyline
 90
        2
 70
   128
 43
0.0
 10
0.2152323479304936
 20
0.1355645199854742
 10
0.2164055364624335
 20
0.1350659380282883
  0
LWPOLYLINE
  5
DFF
330
2
100
AcDbEntity
  8
Profilo
  6
Continuous
370
     0
100
AcDbPolyline
 90
        2
 70
   128
 43
0.0
 10
0.2162581987672052
 20
0.1255022192566265
 10
0.215256687641995
 20
0.124369292289153
  0
LWPOLYLINE
  5
E00
330
2
100
AcDbEntity
  8
Profilo
  6
Continuous
370
     0
100
AcDbPolyline
 90
        2
 70
   128
 43
0.0
 10
0.2173292579327234
 20
0.1226328158761007
 10
0.2159575793861723
 20
0.1208932087908975
  0
LWPOLYLINE
  5
E01
330
2
100
AcDbEntity
  8
Profilo
  6
Continuous
370
     0
100
AcDbPolyline
 90
        2
 70
   128
 43
0.0
 10
0.2155567876605318
 20
0.1282349019110431
 10
0.2147000795619363
 20
0.1272747285182043
  0
LWPOLYLINE
  5
E02
330
2
100
AcDbEntity
  8
Profilo
  6
Continuous
370
     0
100
AcDbPolyline
 90
        2
 70
   128
 43
0.0
 10
0.2138253761632036
 20
0.135082676175847
 10
0.213093460484961
 20
0.1344158130549373
  0
LWPOLYLINE
  5
E03
330
2
100
AcDbEntity
  8
Profilo
  6
Continuous
370
     0
100
AcDbPolyline
 90
       79
 70
   128
 43
0.0
 10
0.2120244166255638
 20
0.1459327807886503
 10
0.2145845655275096
 20
0.1460365987636733
 10
0.2156650822586368
 20
0.1452004962945445
 10
0.2162390473346374
 20
0.1441314577590868
 10
0.2163870221714195
 20
0.1430906577234449
 10
0.2158962721216486
 20
0.1424639164341603
 10
0.2148347288060481
 20
0.1416926600700576
 10
0.2144366497660641
 20
0.1414034387180005
 10
0.2144282301822127
 20
0.1408569405172532
 10
0.2150385260412957
 20
0.1400169403306707
 10
0.2158420653517457
 20
0.1396550790363666
 10
0.2151828100770299
 20
0.1394462925499797
 10
0.2146399288014588
 20
0.1389843181980032
 10
0.2144824963990679
 20
0.1379918173222471
 10
0.2149400882669514
 20
0.1371759672270935
 10
0.2157194071792166
 20
0.1366614135297106
 10
0.2172027309421071
 20
0.1371311822936233
 10
0.2176450409865342
 20
0.137452539351464
 10
0.2180547114205407
 20
0.1370747052939917
 10
0.2179336094296182
 20
0.1363112432785968
 10
0.2185317949038037
 20
0.1353948971462179
 10
0.2189893867716854
 20
0.1345790470510643
 10
0.2190452087985335
 20
0.1339441278588053
 10
0.2185381389435541
 20
0.1329677910118651
 10
0.2178946852741959
 20
0.1323651993025233
 10
0.2171948897960867
 20
0.1316541248554012
 10
0.2165793469543455
 20
0.1307340738056725
 10
0.2170369391938429
 20
0.1299182231990338
 10
0.2178483790972674
 20
0.129359458750152
 10
0.2189094034219892
 20
0.1293873137589298
 10
0.2199509361313313
 20
0.1302791268203287
 10
0.2210851402698689
 20
0.1315084609051537
 10
0.2215074397080379
 20
0.1319503746602896
 10
0.2219571313545607
 20
0.1313314272082277
 10
0.2225921662310916
 20
0.1313875212915349
 10
0.2223062506072981
 20
0.1305718623988005
 10
0.2218755323763037
 20
0.129583451017631
 10
0.2222246516290411
 20
0.1288238862082046
 10
0.2227264748729816
 20
0.1280401713073495
 10
0.2233209691745017
 20
0.1275939779414074
 10
0.2238796516360217
 20
0.1276621459842294
 10
0.2242213896582789
 20
0.1278428851732198
 10
0.2235979465951806
 20
0.1271197367665837
 10
0.2225364032795802
 20
0.1263484804024801
 10
0.2219329700317142
 20
0.1255047747238342
 10
0.2219161320266512
 20
0.1244117783855673
 10
0.2220240856509185
 20
0.1236120917445151
 10
0.222493787532084
 20
0.1228725881066439
 10
0.223506371851462
 20
0.1225950588839777
 10
0.2249491554109593
 20
0.1225625396871552
 10
0.2260386099257907
 20
0.1230163361993867
 10
0.2267384046128757
 20
0.1237274100717944
 10
0.2270675132593549
 20
0.1230884019596624
 10
0.2279842543393684
 20
0.1236869053238458
 10
0.2287003688316619
 20
0.1247475747539099
 10
0.2292195490715443
 20
0.1258002575466474
 10
0.229389091487219
 20
0.1268691048796859
 10
0.2294859722889306
 20
0.1274798739172884
 10
0.2294785910584505
 20
0.1284201779157049
 10
0.2293501074654323
 20
0.1285970204102127
 10
0.230053593325179
 20
0.1288379415161835
 10
0.2304269329761013
 20
0.128231069109836
 10
0.2310693490831124
 20
0.1273468591947266
 10
0.2325642650310512
 20
0.1271495731238254
 10
0.2338664549842465
 20
0.1272175499642291
 10
0.2347068432776317
 20
0.1278281277994123
 10
0.2355030005665757
 20
0.1284065699288112
 10
0.2359416198099549
 20
0.1291980792416027
 10
0.2360869410364187
 20
0.1301142335968479
 10
0.2362759754390904
 20
0.130319122365781
 10
0.2367214569220728
 20
0.1294269263248302
 10
0.2373801935775255
 20
0.1288923109444071
 10
0.2382964152950446
 20
0.1287474134647497
 10
0.2393700686239288
 20
0.1295950162861347
 10
0.2397723566648136
 20
0.1301574861638514
 10
0.2399577002664373
 20
0.1308325271877355
 10
0.2397855050314703
 20
0.1317206348202985
 10
0.2393036927654037
 20
0.1323837925123734
 10
0.2390667369288586
 20
0.1326169197811224
  0
LWPOLYLINE
  5
E04
330
2
100
AcDbEntity
  8
Profilo
  6
Continuous
370
     0
100
AcDbPolyline
 90
       10
 70
   128
 43
0.0
 10
0.2340053730956235
 20
0.1362347705351418
 10
0.2362869891863077
 20
0.1345826267684411
 10
0.2371100201121372
 20
0.1333568074215167
 10
0.2379246318257309
 20
0.1315844893623592
 10
0.2376913667902336
 20
0.1313474643761565
 10
0.2371769145421307
 20
0.1313114314644043
 10
0.2367072122893478
 20
0.1320509356137615
 10
0.2360489949963895
 20
0.1333289518380244
 10
0.2350211288535551
 20
0.1347436882136849
 10
0.2343787123749283
 20
0.1356278986402794
  0
LWPOLYLINE
  5
E05
330
2
100
AcDbEntity
  8
Profilo
  6
Continuous
370
     0
100
AcDbPolyline
 90
       12
 70
   128
 43
0.0
 10
0.2249779254122668
 20
0.140753762151934
 10
0.226228503130537
 20
0.1417299072849699
 10
0.2271931656444258
 20
0.1418903946114711
 10
0.2285027371997152
 20
0.1410180669419722
 10
0.2304705264673749
 20
0.1388677241344091
 10
0.2316663784248654
 20
0.1362916305143264
 10
0.2324525607393734
 20
0.1340933715264295
 10
0.2325594768012937
 20
0.1318068832609262
 10
0.232068207760646
 20
0.1304367406163167
 10
0.2310872254415467
 20
0.1299266577321591
 10
0.230605413175482
 20
0.1305898154242339
 10
0.2303073879578132
 20
0.1296978111604167
  0
LWPOLYLINE
  5
E06
330
2
100
AcDbEntity
  8
Profilo
  6
Continuous
370
     0
100
AcDbPolyline
 90
       13
 70
   128
 43
0.0
 10
0.2312614958490009
 20
0.1320121549461829
 10
0.2313025554148886
 20
0.133257843750758
 10
0.2307770311352577
 20
0.1346322670923742
 10
0.22982551661641
 20
0.1360349289338054
 10
0.2286491562743009
 20
0.1377470645012679
 10
0.2276855317421678
 20
0.1390733798854175
 10
0.2270789270557482
 20
0.1394432273055623
 10
0.2267814200379323
 20
0.1392946238223564
 10
0.2270262764674538
 20
0.1388645933990306
 10
0.2275602203309361
 20
0.1380366682581625
 10
0.2290014473372075
 20
0.1357739460815649
 10
0.2303505219051622
 20
0.1339171042368642
 10
0.2306506821616807
 20
0.1321087538406682
  0
LWPOLYLINE
  5
E07
330
2
100
AcDbEntity
  8
Profilo
  6
Continuous
370
     0
100
AcDbPolyline
 90
       11
 70
   128
 43
0.0
 10
0.2287793141996026
 20
0.1284525053353937
 10
0.2275855968615517
 20
0.1283282432092635
 10
0.2266978053341422
 20
0.1288990821923738
 10
0.2262602240725187
 20
0.1295943755902321
 10
0.2260401070320626
 20
0.1309204997719626
 10
0.2261980576343046
 20
0.13265640142833
 10
0.2261632834044445
 20
0.1346575660592299
 10
0.2257704521381409
 20
0.1361283965181985
 10
0.2250769412528282
 20
0.1386641765295224
 10
0.2238563502778916
 20
0.1403441758797154
 10
0.222944857343176
 20
0.1415057238150718
  0
LWPOLYLINE
  5
E08
330
2
100
AcDbEntity
  8
Profilo
  6
Continuous
370
     0
100
AcDbPolyline
 90
        7
 70
   128
 43
0.0
 10
0.2250580280752796
 20
0.1345975753446686
 10
0.224554129658852
 20
0.1324076853989368
 10
0.223781673777216
 20
0.1312385343172918
 10
0.2229249656786187
 20
0.1302783609244522
 10
0.2228401944707823
 20
0.1297439372579333
 10
0.2230808411083753
 20
0.1290406577342335
 10
0.2232414449493198
 20
0.1288196055111989
  0
LWPOLYLINE
  5
E09
330
2
100
AcDbEntity
  8
Profilo
  6
Continuous
370
     0
100
AcDbPolyline
 90
        4
 70
   128
 43
0.0
 10
0.2258789838286237
 20
0.1303981511511573
 10
0.2251144281683448
 20
0.1290320974264207
 10
0.2244104236893349
 20
0.128047774453638
 10
0.2240444656405084
 20
0.1277143423500839
  0
LWPOLYLINE
  5
E0A
330
2
100
AcDbEntity
  8
Profilo
  6
Continuous
370
     0
100
AcDbPolyline
 90
        5
 70
   128
 43
0.0
 10
0.2232013047951025
 20
0.1404086384937026
 10
0.2240712203356931
 20
0.1372580004616747
 10
0.2240617635611102
 20
0.1352247001249903
 10
0.2236426367241382
 20
0.1335692333342923
 10
0.2223072877980297
 20
0.1320586645347376
  0
LWPOLYLINE
  5
E0B
330
2
100
AcDbEntity
  8
Profilo
  6
Continuous
370
     0
100
AcDbPolyline
 90
        5
 70
   128
 43
0.0
 10
0.2228069173471923
 20
0.1396492654614091
 10
0.2229901854047132
 20
0.1373507021501922
 10
0.2227032325901899
 20
0.1350482411215207
 10
0.2222561945539834
 20
0.1337102341826956
 10
0.2212183522740752
 20
0.132348269377831
  0
LWPOLYLINE
  5
E0C
330
2
100
AcDbEntity
  8
Profilo
  6
Continuous
370
     0
100
AcDbPolyline
 90
        4
 70
   128
 43
0.0
 10
0.2221102940986625
 20
0.1377246384902099
 10
0.2216511456775567
 20
0.1363102856055875
 10
0.2205732825567459
 20
0.1351894336838283
 10
0.2196765532456322
 20
0.1344703736855791
  0
LWPOLYLINE
  5
E0D
330
2
100
AcDbEntity
  8
Profilo
  6
Continuous
370
     0
100
AcDbPolyline
 90
        7
 70
   128
 43
0.0
 10
0.2210929817875051
 20
0.1369855178318907
 10
0.2202362736889078
 20
0.1360253444390519
 10
0.2194280060150646
 20
0.1353705563638558
 10
0.2189377741651466
 20
0.1354872158551824
 10
0.2187250387267844
 20
0.1358730355270103
 10
0.2192115789846286
 20
0.1362265277159209
 10
0.2198308130468263
 20
0.1366764275968974
  0
LWPOLYLINE
  5
E0E
330
2
100
AcDbEntity
  8
Profilo
  6
Continuous
370
     0
100
AcDbPolyline
 90
        4
 70
   128
 43
0.0
 10
0.2207022249026629
 20
0.1414299525627317
 10
0.2204273828924491
 20
0.1392038385660572
 10
0.2195022233912258
 20
0.1380588370643551
 10
0.218706065311256
 20
0.1374803943602418
  0
LWPOLYLINE
  5
E0F
330
2
100
AcDbEntity
  8
Profilo
  6
Continuous
370
     0
100
AcDbPolyline
 90
        8
 70
   128
 43
0.0
 10
0.2189708732716973
 20
0.1426037673209354
 10
0.2192947349355201
 20
0.1402047079724932
 10
0.2185222790538822
 20
0.1390355568908483
 10
0.217195349711627
 20
0.1380714862920408
 10
0.2166245560741817
 20
0.137926971728707
 10
0.2156077631255169
 20
0.1379312519142277
 10
0.21550770972261
 20
0.1385340359121882
 10
0.2166898360382543
 20
0.1393253529363617
  0
LWPOLYLINE
  5
E10
330
2
100
AcDbEntity
  8
Profilo
  6
Continuous
370
     0
100
AcDbPolyline
 90
        6
 70
   128
 43
0.0
 10
0.2166381635653511
 20
0.1459074812470801
 10
0.2178508543189306
 20
0.1444243845399788
 10
0.2182073548021481
 20
0.142724515732135
 10
0.2174227889072267
 20
0.1414790181932076
 10
0.2164818282200542
 20
0.14072782300066
 10
0.2155814081078926
 20
0.1404789152573617
  0
LWPOLYLINE
  5
E11
330
2
100
AcDbEntity
  8
Profilo
  6
Continuous
370
     0
100
AcDbPolyline
 90
        4
 70
   128
 43
0.0
 10
0.2167797943623846
 20
0.1472937873457911
 10
0.2203109498179678
 20
0.1451309865129615
 10
0.223054367940076
 20
0.1429362412399952
 10
0.2246567173587604
 20
0.1411958671094883
  0
LWPOLYLINE
  5
E12
330
2
100
AcDbEntity
  8
Profilo
  6
Continuous
370
     0
100
AcDbPolyline
 90
        3
 70
   128
 43
0.0
 10
0.2183078681205952
 20
0.1485390931708141
 10
0.2228431886833224
 20
0.145552264403085
 10
0.2271210234407501
 20
0.1421757187575595
  0
LWPOLYLINE
  5
E13
330
2
100
AcDbEntity
  8
Profilo
  6
Continuous
370
     0
100
AcDbPolyline
 90
        2
 70
   128
 43
0.0
 10
0.2312340445653085
 20
0.1387469762346946
 10
0.2349537154326846
 20
0.1360456628154724
  0
LWPOLYLINE
  5
E14
330
2
100
AcDbEntity
  8
Profilo
  6
Continuous
370
     0
100
AcDbPolyline
 90
       15
 70
   128
 43
0.0
 10
0.2167671657776324
 20
0.1464740406193833
 10
0.2150073831655295
 20
0.1472219132994196
 10
0.2132270717473172
 20
0.1473469418961399
 10
0.2116152647630241
 20
0.1470540151152488
 10
0.2097738839636917
 20
0.1460539121794028
 10
0.2082257995992211
 20
0.144929163051675
 10
0.2065155548405819
 20
0.1417952631672049
 10
0.2049011544839505
 20
0.1377853307591156
 10
0.2041503244655177
 20
0.1330518663901227
 10
0.2049512696126036
 20
0.1289729988939067
 10
0.2066531550253696
 20
0.1258864405595425
 10
0.2097420004365258
 20
0.1234022826688723
 10
0.2112248052085394
 20
0.1231286500774601
 10
0.2129287650027667
 20
0.1230156960149692
 10
0.2137723258973487
 20
0.1224127208145894
  0
LWPOLYLINE
  5
E15
330
2
100
AcDbEntity
  8
Profilo
  6
Continuous
370
     0
100
AcDbPolyline
 90
       12
 70
   128
 43
0.0
 10
0.2142172891804783
 20
0.1207771239930282
 10
0.2130109428382649
 20
0.1198331140542907
 10
0.2112417034515808
 20
0.1185476863976426
 10
0.2094893028609856
 20
0.1183552556539759
 10
0.2075926182346563
 20
0.1187334726910003
 10
0.2054637065545836
 20
0.1203614674524726
 10
0.2046485758501112
 20
0.1213903841563044
 10
0.2037142614533457
 20
0.119968850973763
 10
0.2020031513291566
 20
0.1190498849948533
 10
0.2003956579540826
 20
0.1191788882244746
 10
0.1988656691917007
 20
0.1197965057255667
 10
0.198165539415191
 20
0.120908975494323
  0
LWPOLYLINE
  5
E16
330
2
100
AcDbEntity
  8
Profilo
  6
Continuous
370
     0
100
AcDbPolyline
 90
        5
 70
   128
 43
0.0
 10
0.1984527678721868
 20
0.1270618534746294
 10
0.1984056192718152
 20
0.1240014630768925
 10
0.1993879983474381
 20
0.1219052202566381
 10
0.2003838468969956
 20
0.1206833744564161
 10
0.201901194998351
 20
0.1203808012739222
  0
LWPOLYLINE
  5
E17
330
2
100
AcDbEntity
  8
Profilo
  6
Continuous
370
     0
100
AcDbPolyline
 90
        4
 70
   128
 43
0.0
 10
0.1993466600431456
 20
0.1271709223557908
 10
0.2001681231305063
 20
0.1248496916488108
 10
0.2013366987254129
 20
0.1223483475033728
 10
0.2027445242013908
 20
0.1217500495386469
  0
LWPOLYLINE
  5
E18
330
2
100
AcDbEntity
  8
Profilo
  6
Continuous
370
     0
100
AcDbPolyline
 90
        6
 70
   128
 43
0.0
 10
0.20224406195236
 20
0.1233318145539938
 10
0.2012161958095272
 20
0.1247465509296543
 10
0.2007612214187339
 20
0.1270098229643088
 10
0.2007948985915017
 20
0.1291958157040719
 10
0.2011242945373154
 20
0.1312724324123695
 10
0.2019870003009902
 20
0.1327638349317398
  0
LWPOLYLINE
  5
E19
330
2
100
AcDbEntity
  8
Profilo
  6
Continuous
370
     0
100
AcDbPolyline
 90
       11
 70
   128
 43
0.0
 10
0.205891231793501
 20
0.1250089520982364
 10
0.2055626654516248
 20
0.1241217773032822
 10
0.2047909357760424
 20
0.1239933883110411
 10
0.2042256095275494
 20
0.1247714931386342
 10
0.203590343750502
 20
0.1266876230951443
 10
0.2032196095003957
 20
0.1298767084859995
 10
0.2035877585674796
 20
0.1321976337035883
 10
0.2035119134864835
 20
0.1340879011496344
 10
0.2025160645653106
 20
0.1353097474613424
 10
0.2017957278332005
 20
0.1351106204873952
 10
0.2012809649720388
 20
0.1346285470176255
  0
LWPOLYLINE
  5
E1A
330
2
100
AcDbEntity
  8
Profilo
  6
Continuous
370
     0
100
AcDbPolyline
 90
       41
 70
   128
 43
0.0
 10
0.2092045848250591
 20
0.1242638640603907
 10
0.210286103290942
 20
0.1246776814949073
 10
0.2110105638426649
 20
0.1253634407780696
 10
0.2110366470577584
 20
0.1264982473018929
 10
0.2103859025847202
 20
0.1272475816478073
 10
0.2095897673997928
 20
0.1280506905593497
 10
0.2092770288029139
 20
0.1284079690191162
 10
0.2102823371153306
 20
0.1283413280679996
 10
0.2106808130712138
 20
0.1285245658746875
 10
0.2111140830925072
 20
0.1287330830496177
 10
0.2120812845842294
 20
0.1284262128108415
 10
0.2127958107296362
 20
0.1284671220139519
 10
0.2136652540014463
 20
0.1285143139575413
 10
0.2143072876241678
 20
0.1288745067672087
 10
0.2147438692381041
 20
0.1292979737983279
 10
0.2153448947645735
 20
0.1297877803645488
 10
0.2152852414116868
 20
0.1303820711966321
 10
0.2148809586257379
 20
0.1309385187139695
 10
0.2139580764512967
 20
0.1313307255638673
 10
0.2134084029534584
 20
0.1319409476468326
 10
0.2130451290547874
 20
0.1323677819823311
 10
0.2123877617680758
 20
0.1326872161043825
 10
0.2117022232296293
 20
0.1334112710820547
 10
0.2117941757821189
 20
0.1337968942869429
 10
0.2106790868068272
 20
0.1351121747198189
 10
0.211096615591737
 20
0.1354155271387224
 10
0.2118206681516561
 20
0.1355164936479398
 10
0.2123773724071771
 20
0.1359209629650969
 10
0.213142841846178
 20
0.1364771090664205
 10
0.2138958804788
 20
0.1373430402046768
 10
0.213662665162289
 20
0.1383957264580097
 10
0.2127874150604132
 20
0.1390882198384457
 10
0.212259697249209
 20
0.1394487146388416
 10
0.2125003524778498
 20
0.1399955126228058
 10
0.2122447723680504
 20
0.1407131349192192
 10
0.211533558186904
 20
0.1408871750608127
 10
0.2103418506947285
 20
0.1411372048455965
 10
0.2097702207670212
 20
0.1419971552341023
 10
0.2096886105648589
 20
0.1428411732855256
 10
0.2097395538584532
 20
0.1433564101837387
 10
0.2100845912833193
 20
0.1439790462724288
  0
LWPOLYLINE
  5
E1B
330
2
100
AcDbEntity
  8
Profilo
  6
Continuous
370
     0
100
AcDbPolyline
 90
        5
 70
   128
 43
0.0
 10
0.208578104492016
 20
0.1416623916702266
 10
0.2089090791910824
 20
0.1402556432977575
 10
0.2098978295402798
 20
0.1391142530656952
 10
0.210697685052887
 20
0.1391108857613159
 10
0.2111848019686152
 20
0.139464796916703
  0
LWPOLYLINE
  5
E1C
330
2
100
AcDbEntity
  8
Profilo
  6
Continuous
370
     0
100
AcDbPolyline
 90
        7
 70
   128
 43
0.0
 10
0.2078445258891985
 20
0.1415013673434164
 10
0.20801976752605
 20
0.1389187522802619
 10
0.2091820798388734
 20
0.1373189666269518
 10
0.21046823554037
 20
0.1364999259530405
 10
0.2115717104361198
 20
0.1366640150820174
 10
0.2123276534606084
 20
0.1371601038772323
 10
0.2123566406959512
 20
0.1379250685695008
  0
LWPOLYLINE
  5
E1D
330
2
100
AcDbEntity
  8
Profilo
  6
Continuous
370
     0
100
AcDbPolyline
 90
        3
 70
   128
 43
0.0
 10
0.2067655022891213
 20
0.1401329152401706
 10
0.2078193056204912
 20
0.1370727566527691
 10
0.2090640432802644
 20
0.1357985363235249
  0
LWPOLYLINE
  5
E1E
330
2
100
AcDbEntity
  8
Profilo
  6
Continuous
370
     0
100
AcDbPolyline
 90
        7
 70
   128
 43
0.0
 10
0.2064660566539817
 20
0.1368866039214666
 10
0.2074925046694299
 20
0.1354006501398914
 10
0.2086365808800642
 20
0.134850334399283
 10
0.2095470330391524
 20
0.1347679131610334
 10
0.2102048078982558
 20
0.1350332707267285
 10
0.2105751129740181
 20
0.1356211288775521
 10
0.2104583011340537
 20
0.1358550758729886
  0
LWPOLYLINE
  5
E1F
330
2
100
AcDbEntity
  8
Profilo
  6
Continuous
370
     0
100
AcDbPolyline
 90
        5
 70
   128
 43
0.0
 10
0.2063803189233617
 20
0.1363460881664972
 10
0.2072203669680252
 20
0.1350435226438748
 10
0.2084998994842325
 20
0.1337945822575865
 10
0.2096472872875132
 20
0.1334592163731671
 10
0.2105134189666788
 20
0.1332914584605675
  0
LWPOLYLINE
  5
E20
330
2
100
AcDbEntity
  8
Profilo
  6
Continuous
370
     0
100
AcDbPolyline
 90
        8
 70
   128
 43
0.0
 10
0.2068152686178788
 20
0.1344303856995225
 10
0.2083727456655565
 20
0.1327988874852254
 10
0.2100130560519897
 20
0.1320777473689394
 10
0.2108129111929794
 20
0.1320743805760451
 10
0.2111765934550699
 20
0.1322323385030057
 10
0.2114992652956236
 20
0.1325199100600626
 10
0.2115311561318087
 20
0.1329150318345741
 10
0.211329014924642
 20
0.1331932553375012
  0
LWPOLYLINE
  5
E21
330
2
100
AcDbEntity
  8
Profilo
  6
Continuous
370
     0
100
AcDbPolyline
 90
        6
 70
   128
 43
0.0
 10
0.2091146259642453
 20
0.1312655918192811
 10
0.2106944666425683
 20
0.1299691574986741
 10
0.2119681927003274
 20
0.129459901924926
 10
0.2127933154922149
 20
0.1294217571941662
 10
0.21348257361511
 20
0.1294974448466272
 10
0.2137418728899458
 20
0.1295795640941483
  0
LWPOLYLINE
  5
E22
330
2
100
AcDbEntity
  8
Profilo
  6
Continuous
370
     0
100
AcDbPolyline
 90
        5
 70
   128
 43
0.0
 10
0.2049284953817167
 20
0.1353444125811571
 10
0.2056409812442847
 20
0.1324613600237145
 10
0.2065058882048074
 20
0.1305392248122525
 10
0.2076524596528645
 20
0.1290342738914289
 10
0.2088880800525689
 20
0.1282847890932505
  0
LWPOLYLINE
  5
E23
330
2
100
AcDbEntity
  8
Profilo
  6
Continuous
370
     0
100
AcDbPolyline
 90
        8
 70
   128
 43
0.0
 10
0.2056865718713698
 20
0.129837684730472
 10
0.2062830614581691
 20
0.1283581636301556
 10
0.207480167836401
 20
0.1267836573450868
 10
0.2085795155753106
 20
0.1255632121561842
 10
0.2095815119234689
 20
0.1252816218603638
 10
0.2101634846209101
 20
0.125651313814369
 10
0.209987019428059
 20
0.1264795516418888
 10
0.2096080042930061
 20
0.1270012212213606
  0
LWPOLYLINE
  5
E24
330
2
100
AcDbEntity
  8
Profilo
  6
Continuous
370
     0
100
AcDbPolyline
 90
       11
 70
   128
 43
0.0
 10
0.2069151177043781
 20
0.1228815883380485
 10
0.2087754710932187
 20
0.1212575988230342
 10
0.2106517185733753
 20
0.1206653684269096
 10
0.2120832563374382
 20
0.1206852301073424
 10
0.2129991704644477
 20
0.1211806454416817
 10
0.213611545541033
 20
0.1216255619779115
 10
0.2126353161429009
 20
0.1216814479515435
 10
0.21138603198826
 20
0.1218790184939639
 10
0.2101115620974951
 20
0.1222283257589257
 10
0.2085136667689955
 20
0.1230227916124708
 10
0.2075480340670327
 20
0.1237665166787808
  0
LWPOLYLINE
  5
E25
330
2
100
AcDbEntity
  8
Profilo
  6
Continuous
370
     0
100
AcDbPolyline
 90
        4
 70
   128
 43
0.0
 10
0.2264482739246461
 20
0.1267861298648766
 10
0.2254455521569767
 20
0.1251224164775108
 10
0.224018660005612
 20
0.1245108063332627
 10
0.2229410335552497
 20
0.1242379705805726
  0
LWPOLYLINE
  5
E26
330
2
100
AcDbEntity
  8
Profilo
  6
Continuous
370
     0
100
AcDbPolyline
 90
        2
 70
   128
 43
0.0
 10
0.2280527736533227
 20
0.1282069196095938
 10
0.2278692142015135
 20
0.1261181518779168
  0
LWPOLYLINE
  5
E27
330
2
100
AcDbEntity
  8
Profilo
  6
Continuous
370
     0
100
AcDbPolyline
 90
       12
 70
   128
 43
0.0
 10
0.2283820874377156
 20
0.1335495189290516
 10
0.2290031872625313
 20
0.13198433600177
 10
0.2291278561248777
 20
0.1307149900840953
 10
0.2286277816435085
 20
0.1297889380479975
 10
0.2280556856301334
 20
0.1296077550143607
 10
0.2275146551387052
 20
0.129964976345819
 10
0.2274371474010692
 20
0.130846541441865
 10
0.2274963585334415
 20
0.1317336516164639
 10
0.227379737100863
 20
0.1325399054522615
 10
0.227377534935723
 20
0.1333823954729527
 10
0.2271662314037019
 20
0.1344481163448949
 10
0.2270441245565191
 20
0.1353910668489919
  0
LWPOLYLINE
  5
E28
330
2
100
AcDbEntity
  8
Profilo
  6
Continuous
370
     0
100
AcDbPolyline
 90
        3
 70
   128
 43
0.0
 10
0.2331009322608697
 20
0.1347014907463326
 10
0.23430651243949
 20
0.1323983949703903
 10
0.2340827672623629
 20
0.1306463336697167
  0
LWPOLYLINE
  5
E29
330
2
100
AcDbEntity
  8
Profilo
  6
Continuous
370
     0
100
AcDbPolyline
 90
        2
 70
   128
 43
0.0
 10
0.2288169412169392
 20
0.1585317308638214
 10
0.2288669927248694
 20
0.1585324648044966
  0
LWPOLYLINE
  5
E2A
330
2
100
AcDbEntity
  8
Profilo
  6
Continuous
370
     0
100
AcDbPolyline
 90
        3
 70
   128
 43
0.0
 10
0.2316845574297481
 20
0.1586075045693358
 10
0.235868238637094
 20
0.1587925068829901
 10
0.2361892505775511
 20
0.1588103950842589
  0
LWPOLYLINE
  5
E2B
330
2
100
AcDbEntity
  8
Profilo
  6
Continuous
370
     0
100
AcDbPolyline
 90
       11
 70
   128
 43
0.0
 10
0.239309187192104
 20
0.1589842517140981
 10
0.2437695047055754
 20
0.1592328002798891
 10
0.2476220627315317
 20
0.1590474208387209
 10
0.2492216172255386
 20
0.1580150239781191
 10
0.2505366839018581
 20
0.1559129277543349
 10
0.2506277450693606
 20
0.1542179344340639
 10
0.2497520874402888
 20
0.1526687218647917
 10
0.2478772092619543
 20
0.1515421631616988
 10
0.2448523468108625
 20
0.151479102314631
 10
0.2412089670372577
 20
0.151904906184344
 10
0.2386132870876771
 20
0.152409029436566
  0
LWPOLYLINE
  5
E2C
330
2
100
AcDbEntity
  8
Profilo
  6
Continuous
370
     0
100
AcDbPolyline
 90
        3
 70
   128
 43
0.0
 10
0.2344862091171506
 20
0.1532105750851395
 10
0.2332361115083188
 20
0.1534533643674857
 10
0.2314396355862502
 20
0.1538565776555604
  0
LWPOLYLINE
  5
E2D
330
2
100
AcDbEntity
  8
Profilo
  6
Continuous
370
     0
100
AcDbPolyline
 90
        3
 70
   128
 43
0.0
 10
0.2264323121050769
 20
0.1549804554323199
 10
0.2251787828789649
 20
0.1552618060670538
 10
0.2226697809730584
 20
0.1548489846167124
  0
LWPOLYLINE
  5
E2E
330
2
100
AcDbEntity
  8
Profilo
  6
Continuous
370
     0
100
AcDbPolyline
 90
        2
 70
   128
 43
0.0
 10
0.2260700466139518
 20
0.1565861449750767
 10
0.2485604372814797
 20
0.1550983490365083
  0
LWPOLYLINE
  5
E2F
330
2
100
AcDbEntity
  8
Profilo
  6
Continuous
370
     0
100
AcDbPolyline
 90
        2
 70
   128
 43
0.0
 10
0.2455420171020837
 20
0.1558996718539806
 10
0.2467932243206352
 20
0.1568235886063509
  0
LWPOLYLINE
  5
E30
330
2
100
AcDbEntity
  8
Profilo
  6
Continuous
370
     0
100
AcDbPolyline
 90
        2
 70
   128
 43
0.0
 10
0.2426392828332187
 20
0.1559912660830842
 10
0.2436851768022663
 20
0.1571933880773754
  0
LWPOLYLINE
  5
E31
330
2
100
AcDbEntity
  8
Profilo
  6
Continuous
370
     0
100
AcDbPolyline
 90
        2
 70
   128
 43
0.0
 10
0.2398235992357645
 20
0.15616862985993
 10
0.2406096301301535
 20
0.1572863172229416
  0
LWPOLYLINE
  5
E32
330
2
100
AcDbEntity
  8
Profilo
  6
Continuous
370
     0
100
AcDbPolyline
 90
        2
 70
   128
 43
0.0
 10
0.234779536849393
 20
0.1564842409492466
 10
0.2354954121148562
 20
0.1574641611703975
  0
LWPOLYLINE
  5
E33
330
2
100
AcDbEntity
  8
Profilo
  6
Continuous
370
     0
100
AcDbPolyline
 90
        2
 70
   128
 43
0.0
 10
0.2325693411360987
 20
0.1567433674692657
 10
0.2334060559493629
 20
0.1577050657695501
  0
LWPOLYLINE
  5
E34
330
2
100
AcDbEntity
  8
Profilo
  6
Continuous
370
     0
100
AcDbPolyline
 90
        2
 70
   128
 43
0.0
 10
0.2424561631554294
 20
0.1546095876645412
 10
0.2432241567725857
 20
0.1533070002964342
  0
LWPOLYLINE
  5
E35
330
2
100
AcDbEntity
  8
Profilo
  6
Continuous
370
     0
100
AcDbPolyline
 90
        2
 70
   128
 43
0.0
 10
0.2455161034224851
 20
0.1547415310549466
 10
0.2467466960949558
 20
0.1528994190821246
  0
LWPOLYLINE
  5
E36
330
2
100
AcDbEntity
  8
Profilo
  6
Continuous
370
     0
100
AcDbPolyline
 90
        2
 70
   128
 43
0.0
 10
0.2396404795579752
 20
0.154786951441387
 10
0.2402889213583226
 20
0.1536754637257202
  0
LWPOLYLINE
  5
E37
330
2
100
AcDbEntity
  8
Profilo
  6
Continuous
370
     0
100
AcDbPolyline
 90
        2
 70
   128
 43
0.0
 10
0.2325928236443833
 20
0.1552563598759317
 10
0.233000873777975
 20
0.1543541946634783
  0
LWPOLYLINE
  5
E38
330
2
100
AcDbEntity
  8
Profilo
  6
Continuous
370
     0
100
AcDbPolyline
 90
       79
 70
   128
 43
0.0
 10
0.2217172338465811
 20
0.1568964122881779
 10
0.2224096266037581
 20
0.1593633401026626
 10
0.2235387053379387
 20
0.1601326027087683
 10
0.2247327863659176
 20
0.1603481248593259
 10
0.22576837276128
 20
0.1601672323933354
 10
0.2262127890431174
 20
0.1595068276511644
 10
0.2266182625091453
 20
0.1582589086400053
 10
0.2267703151722102
 20
0.1577909386621059
 10
0.2272874640526794
 20
0.1576140539305924
 10
0.2282749434958705
 20
0.1579349054513107
 10
0.2288674013403913
 20
0.1585872954590661
 10
0.2288622480052655
 20
0.1578957878616569
 10
0.2291338521829953
 20
0.1572367191612244
 10
0.2300291273205079
 20
0.1567802924115144
 10
0.2309464505334872
 20
0.1569633765950019
 10
0.2316766429682939
 20
0.1575455470877735
 10
0.2316882385751171
 20
0.1591014383497226
 10
0.2315192911717112
 20
0.1596214049918329
 10
0.2320052278403483
 20
0.1598942675828161
 10
0.2326939007917872
 20
0.1595431700078971
 10
0.2337502472294783
 20
0.1598289116734376
 10
0.2346675704424577
 20
0.1600119958569259
 10
0.2352886644325327
 20
0.1598688849388498
 10
0.2360605227503907
 20
0.1590849281711153
 10
0.2364347834033005
 20
0.1582867562870823
 10
0.2368948066944849
 20
0.157401477149126
 10
0.2375796140417901
 20
0.1565317497083715
 10
0.2384969378560555
 20
0.156714834087229
 10
0.2392791031463108
 20
0.1573138915844051
 10
0.239580486006485
 20
0.1583315933534711
 10
0.2390541726905084
 20
0.1595977352154024
 10
0.2382354948523311
 20
0.1610563125761423
 10
0.2379457075989784
 20
0.1615945020690259
 10
0.2386733239675092
 20
0.1618309189584636
 10
0.2388162118929226
 20
0.1624522070408889
 10
0.2395035968112236
 20
0.1619282326643019
 10
0.2403105326428996
 20
0.1612131593698119
 10
0.241140805486614
 20
0.1613104730756504
 10
0.2420412345605385
 20
0.1615455541187186
 10
0.2426492985109743
 20
0.1619730704652266
 10
0.2427571092247137
 20
0.1625254741444996
 10
0.2426908188977759
 20
0.1629063377983811
 10
0.2431859194006343
 20
0.1620899430635768
 10
0.2435913928666639
 20
0.1608420240524178
 10
0.2442073335216132
 20
0.1600074055369334
 10
0.2452416315816936
 20
0.1596536371991831
 10
0.2460355382771624
 20
0.1595091904347394
 10
0.2468839938943539
 20
0.1597273842780338
 10
0.2474608456329594
 20
0.1606046479470378
 10
0.2479376178660909
 20
0.1619667676684389
 10
0.2478426916957428
 20
0.1631431313182453
 10
0.2473826687067042
 20
0.1640284095262948
 10
0.24809210170047
 20
0.1641439460829066
 10
0.2478061797491051
 20
0.1652007663715314
 10
0.247018714724044
 20
0.1662095966051454
 10
0.2461779894116862
 20
0.1670286632280578
 10
0.2452138466783875
 20
0.1675201996375748
 10
0.2446629086193823
 20
0.1678010767676039
 10
0.2437663454487318
 20
0.1680846267156471
 10
0.2435584546282303
 20
0.1680170788934003
 10
0.2435467141264488
 20
0.1687605824204843
 10
0.2442392523798738
 20
0.1689281156413069
 10
0.2452787034759377
 20
0.1692658537756889
 10
0.245928288112319
 20
0.1706266385806274
 10
0.246266037120737
 20
0.1718861008199756
 10
0.2459450373564103
 20
0.1728740365100789
 10
0.2456409323324244
 20
0.1738099755359708
 10
0.2450237030430511
 20
0.1744717170544184
 10
0.2441972952021825
 20
0.1748930330190446
 10
0.2440608492463205
 20
0.1751361295310664
 10
0.2450470394537998
 20
0.1752841038593769
 10
0.2457590497164155
 20
0.1757453944100624
 10
0.2461799834899682
 20
0.1765719972612241
 10
0.2457056424281507
 20
0.1778550259321901
 10
0.245295015626997
 20
0.1784114373459398
 10
0.2447102877851659
 20
0.1787963087342974
 10
0.2438124359800895
 20
0.1789069816853036
 10
0.2430328473573979
 20
0.1786536779868321
 10
0.2427379067689195
 20
0.1785003598823061
  0
LWPOLYLINE
  5
E39
330
2
100
AcDbEntity
  8
Profilo
  6
Continuous
370
     0
100
AcDbPolyline
 90
       10
 70
   128
 43
0.0
 10
0.2377330787951415
 20
0.1748046941934708
 10
0.2400094190369799
 20
0.1764640995431396
 10
0.2414295730576494
 20
0.1768680494580288
 10
0.243366876560076
 20
0.1770951148367754
 10
0.2435202178575668
 20
0.1768000218559128
 10
0.2433955127056322
 20
0.1762996139109438
 10
0.2425470564871528
 20
0.1760814198722794
 10
0.2411281904996212
 20
0.1758503467590569
 10
0.2394650681446304
 20
0.1753099655486753
 10
0.2384256164472802
 20
0.1749722272189234
  0
LWPOLYLINE
  5
E3A
330
2
100
AcDbEntity
  8
Profilo
  6
Continuous
370
     0
100
AcDbPolyline
 90
       12
 70
   128
 43
0.0
 10
0.2306456276209197
 20
0.1676155264557278
 10
0.230103708199028
 20
0.1691065419789083
 10
0.2302491727920053
 20
0.1700735838600373
 10
0.2314834855723617
 20
0.1710494963467124
 10
0.2341366634368178
 20
0.1722564826811459
 10
0.2369562126384057
 20
0.1725977487701356
 10
0.2392898248692088
 20
0.1726661531980478
 10
0.2414974433136532
 20
0.1720612726839534
 10
0.2426487159216925
 20
0.1711706506996891
 10
0.2428306933647377
 20
0.1700800567929951
 10
0.2420511047420462
 20
0.1698267530945234
 10
0.2428073563527011
 20
0.1692676697926666
  0
LWPOLYLINE
  5
E3B
330
2
100
AcDbEntity
  8
Profilo
  6
Continuous
370
     0
100
AcDbPolyline
 90
       13
 70
   128
 43
0.0
 10
0.2409011201671447
 20
0.1708902518804564
 10
0.2397290878159186
 20
0.1713142408584666
 10
0.2382595376073641
 20
0.1712391577378771
 10
0.236631492766195
 20
0.1707676600007411
 10
0.2346396397407577
 20
0.1701779538188861
 10
0.2330804624953746
 20
0.1696713464219431
 10
0.2325412655394388
 20
0.1692087202202591
 10
0.2325906611260358
 20
0.1688798532305881
 10
0.2330753091602489
 20
0.1689798388245339
 10
0.2340277104883341
 20
0.1692318066766368
 10
0.2366250507966434
 20
0.1699032754062951
 10
0.2388078993009515
 20
0.1706125258792376
 10
0.2406204973492994
 20
0.1703391842429209
  0
LWPOLYLINE
  5
E3C
330
2
100
AcDbEntity
  8
Profilo
  6
Continuous
370
     0
100
AcDbPolyline
 90
       11
 70
   128
 43
0.0
 10
0.2435195118124244
 20
0.1674295646244136
 10
0.2432688131732714
 20
0.1662558728627154
 10
0.2424515703691981
 20
0.1655879318922939
 10
0.2416550870061656
 20
0.1653866248580329
 10
0.2403258480554609
 20
0.1655870760211641
 10
0.2387237168938903
 20
0.1662737190830614
 10
0.2368097504035003
 20
0.1668590407046441
 10
0.235289515973923
 20
0.1669399475766878
 10
0.2326635392209173
 20
0.1670639786475844
 10
0.2306885815371089
 20
0.1664222759968876
 10
0.2293022169971195
 20
0.1659143327535759
  0
LWPOLYLINE
  5
E3D
330
2
100
AcDbEntity
  8
Profilo
  6
Continuous
370
     0
100
AcDbPolyline
 90
        7
 70
   128
 43
0.0
 10
0.2365252622836653
 20
0.1657893422713673
 10
0.2384522582124084
 20
0.1646333931898323
 10
0.2393254849723103
 20
0.1635374564368306
 10
0.2399739267726577
 20
0.1624259687211639
 10
0.2404559981393088
 20
0.1621802005164048
 10
0.2411992206137565
 20
0.1621917437445941
 10
0.241459083087129
 20
0.1622761781805046
  0
LWPOLYLINE
  5
E3E
330
2
100
AcDbEntity
  8
Profilo
  6
Continuous
370
     0
100
AcDbPolyline
 90
        4
 70
   128
 43
0.0
 10
0.240772841307006
 20
0.1652724241477909
 10
0.2418357749113547
 20
0.1641231546888389
 10
0.2425543723406278
 20
0.1631494341150328
 10
0.2427583978591397
 20
0.1626983511415371
  0
LWPOLYLINE
  5
E3F
330
2
100
AcDbEntity
  8
Profilo
  6
Continuous
370
     0
100
AcDbPolyline
 90
        5
 70
   128
 43
0.0
 10
0.2304248537617468
 20
0.1658192107652356
 10
0.2336901072783082
 20
0.1656729489137201
 10
0.235620968509039
 20
0.1650356306279266
 10
0.237065893672419
 20
0.1641254499465206
 10
0.2380898844609618
 20
0.1623886662185819
  0
LWPOLYLINE
  5
E40
330
2
100
AcDbEntity
  8
Profilo
  6
Continuous
370
     0
100
AcDbPolyline
 90
        5
 70
   128
 43
0.0
 10
0.2310251880086369
 20
0.1652094668409066
 10
0.2332678845681872
 20
0.1646734699954274
 10
0.2353689818367481
 20
0.1636890620645606
 10
0.2365033597044483
 20
0.1628504367445071
 10
0.2374779543051044
 20
0.1614425198108694
  0
LWPOLYLINE
  5
E41
330
2
100
AcDbEntity
  8
Profilo
  6
Continuous
370
     0
100
AcDbPolyline
 90
        4
 70
   128
 43
0.0
 10
0.2326403486085606
 20
0.1639521963190564
 10
0.233843593470759
 20
0.1630784611438261
 10
0.2345765089728111
 20
0.1617069901071028
 10
0.2349832710732649
 20
0.1606319480929816
  0
LWPOLYLINE
  5
E42
330
2
100
AcDbEntity
  8
Profilo
  6
Continuous
370
     0
100
AcDbPolyline
 90
        7
 70
   128
 43
0.0
 10
0.2330289273342494
 20
0.1627562739721091
 10
0.2336773691345968
 20
0.1616447862564423
 10
0.2340503411530825
 20
0.1606737373753726
 10
0.2337879014108601
 20
0.1602435489453876
 10
0.2333552262320939
 20
0.1601604503558456
 10
0.2331693843904929
 20
0.1607324127322606
 10
0.232932858025725
 20
0.1614603660312154
  0
LWPOLYLINE
  5
E43
330
2
100
AcDbEntity
  8
Profilo
  6
Continuous
370
     0
100
AcDbPolyline
 90
        4
 70
   128
 43
0.0
 10
0.2286812682041485
 20
0.1637580479527129
 10
0.2307134975747793
 20
0.1628087506115599
 10
0.2315165687057553
 20
0.1615750467166974
 10
0.2318206740318852
 20
0.1606391067608989
  0
LWPOLYLINE
  5
E44
330
2
100
AcDbEntity
  8
Profilo
  6
Continuous
370
     0
100
AcDbPolyline
 90
        8
 70
   128
 43
0.0
 10
0.2270298869522289
 20
0.1624741634106173
 10
0.229411606736491
 20
0.1620408240471926
 10
0.2302848334963929
 20
0.1609448872941911
 10
0.2307916754044665
 20
0.1593849882977659
 10
0.2307527319873709
 20
0.1587974738334081
 10
0.2304344549881438
 20
0.1578317689239246
 10
0.2298302551371218
 20
0.1579228829824181
 10
0.2294429650458589
 20
0.1592916823264033
  0
LWPOLYLINE
  5
E45
330
2
100
AcDbEntity
  8
Profilo
  6
Continuous
370
     0
100
AcDbPolyline
 90
        6
 70
   128
 43
0.0
 10
0.2231670213525909
 20
0.1612765283915051
 10
0.2249522721919526
 20
0.1619715637481509
 10
0.2266791082063158
 20
0.1617853275059464
 10
0.2276212025620037
 20
0.1606542810931376
 10
0.2280448588015123
 20
0.1595272422194348
 10
0.2280033390159968
 20
0.1585939750816501
  0
LWPOLYLINE
  5
E46
330
2
100
AcDbEntity
  8
Profilo
  6
Continuous
370
     0
100
AcDbPolyline
 90
        4
 70
   128
 43
0.0
 10
0.221892332227041
 20
0.1618396194278378
 10
0.2250404650981075
 20
0.1645296056211293
 10
0.2279755547139768
 20
0.1664605377154118
 10
0.2301259020728885
 20
0.1674466573885369
  0
LWPOLYLINE
  5
E47
330
2
100
AcDbEntity
  8
Profilo
  6
Continuous
370
     0
100
AcDbPolyline
 90
        3
 70
   128
 43
0.0
 10
0.2211801767673193
 20
0.1636777245960908
 10
0.2254223108587467
 20
0.1670680899222436
 10
0.2299555202366648
 20
0.1700931425571794
  0
LWPOLYLINE
  5
E48
330
2
100
AcDbEntity
  8
Profilo
  6
Continuous
370
     0
100
AcDbPolyline
 90
        2
 70
   128
 43
0.0
 10
0.2344874415814448
 20
0.1729453183904479
 10
0.2382059848228515
 20
0.1756481838536673
  0
LWPOLYLINE
  5
E49
330
2
100
AcDbEntity
  8
Profilo
  6
Continuous
370
     0
100
AcDbPolyline
 90
       15
 70
   128
 43
0.0
 10
0.2226680552455988
 20
0.1615742932604746
 10
0.2214129833263474
 20
0.1601317459077321
 10
0.2207439275812053
 20
0.1584772050935766
 10
0.2205244417551704
 20
0.1568537662047515
 10
0.2209065782091635
 20
0.1547934601932641
 10
0.2214978938189382
 20
0.1529735778757843
 10
0.22394991503052
 20
0.1503786101306503
 10
0.2272647102312124
 20
0.1476040868911714
 10
0.2315344831284118
 20
0.1454272841772241
 10
0.235661222301804
 20
0.14492858890442
 10
0.2391226252336498
 20
0.145593379136772
 10
0.2424397055081222
 20
0.1477633986879527
 10
0.2431581574411474
 20
0.1490890727078082
 10
0.2437921356724697
 20
0.1506747300487183
 10
0.2446262738181701
 20
0.151290674550299
  0
LWPOLYLINE
  5
E4A
330
2
100
AcDbEntity
  8
Profilo
  6
Continuous
370
     0
100
AcDbPolyline
 90
       12
 70
   128
 43
0.0
 10
0.2463193200497091
 20
0.1512084325664226
 10
0.2468443453325459
 20
0.1497694139028244
 10
0.2475201346440254
 20
0.1476895482642883
 10
0.2471616255932769
 20
0.1459634518934102
 10
0.246215812033137
 20
0.144276473112185
 10
0.2440096271180785
 20
0.142754835834284
 10
0.2427791799418539
 20
0.1422975532134436
 10
0.2438424193115516
 20
0.1409696895066585
 10
0.2441876457864254
 20
0.1390583509682134
 10
0.2435682136530275
 20
0.1375693981092305
 10
0.242508031975257
 20
0.1363051466307702
 10
0.2412336583532912
 20
0.1359830557088419
  0
LWPOLYLINE
  5
E4B
330
2
100
AcDbEntity
  8
Profilo
  6
Continuous
370
     0
100
AcDbPolyline
 90
        5
 70
   128
 43
0.0
 10
0.2354706821306323
 20
0.1381575700647634
 10
0.2383667166420302
 20
0.1371670164388238
 10
0.240663933865255
 20
0.1374535398043703
 10
0.2421337124011025
 20
0.1380230769398961
 10
0.2428903629476711
 20
0.139372660483747
  0
LWPOLYLINE
  5
E4C
330
2
100
AcDbEntity
  8
Profilo
  6
Continuous
370
     0
100
AcDbPolyline
 90
        4
 70
   128
 43
0.0
 10
0.2356431793324436
 20
0.1390414161766559
 10
0.238104646976387
 20
0.139105374262463
 10
0.2408446763434391
 20
0.1394437978470626
 10
0.2418487335186707
 20
0.1405978352009972
  0
LWPOLYLINE
  5
E4D
330
2
100
AcDbEntity
  8
Profilo
  6
Continuous
370
     0
100
AcDbPolyline
 90
        6
 70
   128
 43
0.0
 10
0.2401897342535832
 20
0.1406106595887472
 10
0.2385266118985942
 20
0.1400702783783657
 10
0.2362335174631268
 20
0.1403369615408566
 10
0.2341649216421082
 20
0.1410444993416341
 10
0.2322917307349694
 20
0.1419994833560091
 10
0.2311399133926225
 20
0.1432808340181356
  0
LWPOLYLINE
  5
E4E
330
2
100
AcDbEntity
  8
Profilo
  6
Continuous
370
     0
100
AcDbPolyline
 90
       11
 70
   128
 43
0.0
 10
0.2397217191256917
 20
0.1445975882352743
 10
0.2404639399121073
 20
0.1440109509861752
 10
0.2403475675149806
 20
0.1432373180689014
 10
0.2394328504301857
 20
0.1429401084715711
 10
0.2374141946279256
 20
0.142928051534723
 10
0.234266631002253
 20
0.1435609438926328
 10
0.232173064268423
 20
0.1446282797967595
 10
0.2303518756773535
 20
0.1451402716029916
 10
0.2288820965402198
 20
0.1445707342720958
 10
0.2288488812544678
 20
0.1438241197101092
 10
0.2291482898970525
 20
0.1431855822419571
  0
LWPOLYLINE
  5
E4F
330
2
100
AcDbEntity
  8
Profilo
  6
Continuous
370
     0
100
AcDbPolyline
 90
       41
 70
   128
 43
0.0
 10
0.2414542223544149
 20
0.1475185293607243
 10
0.241394866172449
 20
0.1486749911650293
 10
0.2409665409598247
 20
0.1495759053660922
 10
0.2398953359773389
 20
0.1499513864789618
 10
0.238981585563609
 20
0.1495640487547924
 10
0.2379717642980292
 20
0.1490550535013154
 10
0.2375353307495036
 20
0.1488680265366481
 10
0.2379093674134385
 20
0.1498035383716431
 10
0.237858233745575
 20
0.150239135122351
 10
0.2377938099273305
 20
0.1507156347500892
 10
0.2383845425655036
 20
0.1515406699125123
 10
0.2385664363231648
 20
0.1522328662981524
 10
0.2387902268643316
 20
0.153074339099922
 10
0.2386460624459552
 20
0.1537962550599307
 10
0.2383782325047115
 20
0.1543423273579338
 10
0.2380981258799153
 20
0.1550652951542601
 10
0.2375144878116746
 20
0.1551922074109941
 10
0.2368603445229435
 20
0.1549796633723272
 10
0.2362021473669031
 20
0.1542231488484797
 10
0.2354519332263223
 20
0.1538889472805044
 10
0.2349337318418669
 20
0.1536753523354259
 10
0.2344267942754232
 20
0.1531488694660976
 10
0.2335263340120726
 20
0.1527206288648987
 10
0.2331879994516245
 20
0.1529272450628691
 10
0.2315925119815763
 20
0.1522731764327969
 10
0.2314330301770227
 20
0.1527640109571514
 10
0.2315607498663397
 20
0.1534838262296144
 10
0.2313481077624128
 20
0.1541382713321817
 10
0.2310557244540625
 20
0.155038134626833
 10
0.2304648767372619
 20
0.1560219043630896
 10
0.2293916451202644
 20
0.1561254013586457
 10
0.2284625776225013
 20
0.1555069812689162
 10
0.2279566529215984
 20
0.1551164908255126
 10
0.2275109836912872
 20
0.1555143374184253
 10
0.2267495057326929
 20
0.1554930237746998
 10
0.2263642064533187
 20
0.1548704002546945
 10
0.2257581561298262
 20
0.1538142825313406
 10
0.2247636513469917
 20
0.1535363694480538
 10
0.2239357235399328
 20
0.1537195694549402
 10
0.2234614464739213
 20
0.1539272363639522
 10
0.2229759067924721
 20
0.1544477915879531
  0
LWPOLYLINE
  5
E50
330
2
100
AcDbEntity
  8
Profilo
  6
Continuous
370
     0
100
AcDbPolyline
 90
        5
 70
   128
 43
0.0
 10
0.2247136462275865
 20
0.152299151866194
 10
0.2261538202407305
 20
0.1521792183565682
 10
0.2275448875196648
 20
0.1527668668402397
 10
0.2277952589628782
 20
0.1535265340833213
 10
0.2276091968575642
 20
0.1540991743617356
  0
LWPOLYLINE
  5
E51
330
2
100
AcDbEntity
  8
Profilo
  6
Continuous
370
     0
100
AcDbPolyline
 90
        7
 70
   128
 43
0.0
 10
0.2246401012079016
 20
0.151551717902278
 10
0.2271504667367044
 20
0.1509203106584879
 10
0.2290311275643955
 20
0.1515313744033383
 10
0.2302075255036033
 20
0.1525014836768936
 10
0.2303924599638911
 20
0.153601656996511
 10
0.2301542507238866
 20
0.1544739014043394
 10
0.2294356836169094
 20
0.1547378569934098
  0
LWPOLYLINE
  5
E52
330
2
100
AcDbEntity
  8
Profilo
  6
Continuous
370
     0
100
AcDbPolyline
 90
        3
 70
   128
 43
0.0
 10
0.2256081398681751
 20
0.1501026305202963
 10
0.2288441667717418
 20
0.1501592160365006
 10
0.230440667409475
 20
0.1509492761625916
  0
LWPOLYLINE
  5
E53
330
2
100
AcDbEntity
  8
Profilo
  6
Continuous
370
     0
100
AcDbPolyline
 90
        7
 70
   128
 43
0.0
 10
0.2286030316116019
 20
0.1488146754312107
 10
0.2303334475190972
 20
0.1493317005335765
 10
0.23121036788217
 20
0.15024972475272
 10
0.2315701003276107
 20
0.1510901466480789
 10
0.2315209938955451
 20
0.1517977277114703
 10
0.2310763381320608
 20
0.1523315669256776
 10
0.2308177444738906
 20
0.1522927658614707
  0
LWPOLYLINE
  5
E54
330
2
100
AcDbEntity
  8
Profilo
  6
Continuous
370
     0
100
AcDbPolyline
 90
        5
 70
   128
 43
0.0
 10
0.2290905982267048
 20
0.1485661054497984
 10
0.2305890007767886
 20
0.1489625237338993
 10
0.2321722109619966
 20
0.1497934876669257
 10
0.2328457252020684
 20
0.1507810845563333
 10
0.2332729218662344
 20
0.1515529846878398
  0
LWPOLYLINE
  5
E55
330
2
100
AcDbEntity
  8
Profilo
  6
Continuous
370
     0
100
AcDbPolyline
 90
        8
 70
   128
 43
0.0
 10
0.2310469463885081
 20
0.1483877825725685
 10
0.233079880272621
 20
0.1493648705932328
 10
0.234272609064833
 20
0.1507020539237369
 10
0.2345229799067585
 20
0.1514617209714485
 10
0.2344851369905604
 20
0.151856415040497
 10
0.2343113512696585
 20
0.1522521586953104
 10
0.2339454229416251
 20
0.1524045880260449
 10
0.2336183515979027
 20
0.1522983161043964
  0
LWPOLYLINE
  5
E56
330
2
100
AcDbEntity
  8
Profilo
  6
Continuous
370
     0
100
AcDbPolyline
 90
        6
 70
   128
 43
0.0
 10
0.2347673847272116
 20
0.1495966262674328
 10
0.2364885646537793
 20
0.1506985238021018
 10
0.2373664984836772
 20
0.1517525406425401
 10
0.2376577532435693
 20
0.1525254916804574
 10
0.2377987624819777
 20
0.1532044038805202
 10
0.2378007903190635
 20
0.1534763883885736
  0
LWPOLYLINE
  5
E57
330
2
100
AcDbEntity
  8
Profilo
  6
Continuous
370
     0
100
AcDbPolyline
 90
        5
 70
   128
 43
0.0
 10
0.2295946101721551
 20
0.1468758044312852
 10
0.2325567263335166
 20
0.1466625065177224
 10
0.2346520565009342
 20
0.1468911094726892
 10
0.2364376599436007
 20
0.1475165083095268
 10
0.2375322900468788
 20
0.1484600496026708
  0
LWPOLYLINE
  5
E58
330
2
100
AcDbEntity
  8
Profilo
  6
Continuous
370
     0
100
AcDbPolyline
 90
        8
 70
   128
 43
0.0
 10
0.2350660780963523
 20
0.1458951055273609
 10
0.236657511699093
 20
0.1460052036722542
 10
0.238524882376403
 20
0.1466571702941341
 10
0.2400253118601405
 20
0.1473255738208236
 10
0.2406027540457885
 20
0.1481915127901837
 10
0.2404309955576807
 20
0.1488592428128634
 10
0.2395887638312697
 20
0.1489473540053904
 10
0.2389755044605034
 20
0.1487480939569292
  0
LWPOLYLINE
  5
E59
330
2
100
AcDbEntity
  8
Profilo
  6
Continuous
370
     0
100
AcDbPolyline
 90
       11
 70
   128
 43
0.0
 10
0.2420613604391111
 20
0.1449139700476424
 10
0.2441807470624563
 20
0.1461814309018838
 10
0.2453237839968594
 20
0.1477828390370814
 10
0.2457472639134437
 20
0.1491504499527063
 10
0.245559128962082
 20
0.1501746278091506
 10
0.2453252224966889
 20
0.1508945178869276
 10
0.2449704003028668
 20
0.1499833382720345
 10
0.2443964495164828
 20
0.1488562510912552
 10
0.2436704057108852
 20
0.1477521000779513
 10
0.2424210469721579
 20
0.1464779147636208
 10
0.2414153254862814
 20
0.1457893671747041
  0
LWPOLYLINE
  5
E5A
330
2
100
AcDbEntity
  8
Profilo
  6
Continuous
370
     0
100
AcDbPolyline
 90
        4
 70
   128
 43
0.0
 10
0.2443839980027196
 20
0.1646976752417706
 10
0.2456564253941824
 20
0.1632299144601321
 10
0.2457971672833885
 20
0.1616838614530221
 10
0.2457236446171133
 20
0.1605746669110178
  0
LWPOLYLINE
  5
E5B
330
2
100
AcDbEntity
  8
Profilo
  6
Continuous
370
     0
100
AcDbPolyline
 90
        2
 70
   128
 43
0.0
 10
0.2435285643413518
 20
0.1666626933406728
 10
0.2454583775135042
 20
0.1658426532015124
  0
LWPOLYLINE
  5
E5C
330
2
100
AcDbEntity
  8
Profilo
  6
Continuous
370
     0
100
AcDbPolyline
 90
       12
 70
   128
 43
0.0
 10
0.2385492140004874
 20
0.1686268433450746
 10
0.2402297218237432
 20
0.1687338762569006
 10
0.2414754663273158
 20
0.1684601939305116
 10
0.2422016626374788
 20
0.1676984290195426
 10
0.242197190551714
 20
0.1670983447415903
 10
0.2416902652603436
 20
0.1666941816293764
 10
0.2408278958230862
 20
0.1668928859867603
 10
0.2400025011570221
 20
0.1672233312398748
 10
0.2391996701881229
 20
0.1673615638035228
 10
0.2383977340575782
 20
0.1676198131540014
 10
0.2373188768953991
 20
0.1677481774136471
 10
0.2363843445830245
 20
0.1679234346315693
  0
LWPOLYLINE
  5
E5D
330
2
100
AcDbEntity
  8
Profilo
  6
Continuous
370
     0
100
AcDbPolyline
 90
        3
 70
   128
 43
0.0
 10
0.238911826941246
 20
0.1734707103321019
 10
0.2414747459498834
 20
0.1739055894824556
 10
0.2430719142046964
 20
0.1731513784566651
  0
LWPOLYLINE
  5
E5E
330
2
100
AcDbEntity
  8
Profilo
  6
Continuous
370
     0
100
AcDbPolyline
 90
       12
 70
   128
 43
0.0
 10
0.2050073205627569
 20
0.1703605649641473
 10
0.2038166853656341
 20
0.1763704932518676
 10
0.2022688591204922
 20
0.1825589337790076
 10
0.2014354139936251
 20
0.1862481966319633
 10
0.2009591599147757
 20
0.1887473743061473
 10
0.2003638418273343
 20
0.1908300225787108
 10
0.1997089927133561
 20
0.1924366371591034
 10
0.1990541426216178
 20
0.193507713756776
 10
0.1985778885427685
 20
0.1949358154655186
 10
0.198756484555659
 20
0.1956498663198894
 10
0.1995303976782292
 20
0.1944002768505666
 10
0.199649460709061
 20
0.1930911837229252
  0
LWPOLYLINE
  5
E5F
330
2
100
AcDbEntity
  8
Profilo
  6
Continuous
370
     0
100
AcDbPolyline
 90
        8
 70
   128
 43
0.0
 10
0.1956106533303553
 20
0.1951867655392506
 10
0.1954935771114793
 20
0.1959766625837248
 10
0.1959618810092216
 20
0.1968250694198323
 10
0.1966643353891904
 20
0.197176134491941
 10
0.1977180184257872
 20
0.1972639007599676
 10
0.1983619351851988
 20
0.1970883682239138
 10
0.1988009697837807
 20
0.1965325154038188
 10
0.1989765836232138
 20
0.1958303852596022
  0
LWPOLYLINE
  5
E60
330
2
100
AcDbEntity
  8
Profilo
  6
Continuous
370
     0
100
AcDbPolyline
 90
        6
 70
   128
 43
0.0
 10
0.1983619351851988
 20
0.1972931566041309
 10
0.1984497421049162
 20
0.1978490094242259
 10
0.1990643905429293
 20
0.1980830530163741
 10
0.19956196276207
 20
0.1981415634402384
 10
0.1999766393589581
 20
0.1980781658729386
 10
0.2002058804992436
 20
0.1979952867483476
  0
LWPOLYLINE
  5
E61
330
2
100
AcDbEntity
  8
Profilo
  6
Continuous
370
     0
100
AcDbPolyline
 90
       12
 70
   128
 43
0.0
 10
0.1963166285932533
 20
0.1577713577973284
 10
0.1902329206227388
 20
0.1584961664104541
 10
0.1838690593196084
 20
0.1589364294654854
 10
0.1801028131348977
 20
0.1592838209648841
 10
0.1775787833184824
 20
0.1596031647930671
 10
0.1754141037016303
 20
0.1596805573562643
 10
0.1736837629308034
 20
0.1595542300479784
 10
0.172462748746021
 20
0.1592624114719919
 10
0.1709573727059846
 20
0.1592507746245871
 10
0.1703334591910792
 20
0.1596412833752788
 10
0.1717610417056167
 20
0.1599911741115331
 10
0.1730428557550264
 20
0.1596998777591944
  0
LWPOLYLINE
  5
E62
330
2
100
AcDbEntity
  8
Profilo
  6
Continuous
370
     0
100
AcDbPolyline
 90
        8
 70
   128
 43
0.0
 10
0.1698017788961525
 20
0.1565063140779642
 10
0.1690143636235337
 20
0.1566390595876483
 10
0.168352194636519
 20
0.1573466151917028
 10
0.1682353822532292
 20
0.1581231740805856
 10
0.168477517537104
 20
0.1591524074670034
 10
0.1688434401209607
 20
0.1597105661602884
 10
0.1695077567196942
 20
0.1599563449083681
 10
0.1702297898294702
 20
0.1599063934478864
  0
LWPOLYLINE
  5
E63
330
2
100
AcDbEntity
  8
Profilo
  6
Continuous
370
     0
100
AcDbPolyline
 90
        6
 70
   128
 43
0.0
 10
0.1686486747974953
 20
0.1597738492500256
 10
0.1681471611812596
 20
0.1600291265609776
 10
0.1681145093107599
 20
0.1606860154105809
 10
0.1682126208625156
 20
0.1611773154272432
 10
0.1684010576476229
 20
0.1615521053811719
 10
0.1685507197872873
 20
0.1617445156034648
  0
LWPOLYLINE
  5
E64
330
2
100
AcDbEntity
  8
Profilo
  6
Continuous
370
     0
100
AcDbPolyline
 90
       12
 70
   128
 43
0.0
 10
0.2056041045927922
 20
0.1456157396083645
 10
0.2030348014865079
 20
0.140053767678895
 10
0.2006495451466249
 20
0.1341374246837552
 10
0.1991553221213403
 20
0.1306628615848297
 10
0.1980716399850273
 20
0.1283610492505613
 10
0.1973291124945006
 20
0.1263262322125302
 10
0.1969145521999865
 20
0.1246415430619092
 10
0.1968147740247854
 20
0.1233901126657283
 10
0.1963606545450424
 20
0.1219548189897676
 10
0.1957964587739002
 20
0.1214821158162284
 10
0.1959048401670582
 20
0.1229479496529051
 10
0.1965779817860191
 20
0.1240770117340033
  0
LWPOLYLINE
  5
E65
330
2
100
AcDbEntity
  8
Profilo
  6
Continuous
370
     0
100
AcDbPolyline
 90
        8
 70
   128
 43
0.0
 10
0.1986136935057895
 20
0.1200076990174401
 10
0.1982441203229274
 20
0.1192998432098044
 10
0.1973665734849134
 20
0.1188887297859326
 10
0.1965919250817656
 20
0.1190176045014195
 10
0.195687889880478
 20
0.1195659394485546
 10
0.1952701257151403
 20
0.1200864330281751
 10
0.195241661353867
 20
0.1207941854682954
 10
0.1955122885172784
 20
0.1214654439121471
  0
LWPOLYLINE
  5
E66
330
2
100
AcDbEntity
  8
Profilo
  6
Continuous
370
     0
100
AcDbPolyline
 90
        6
 70
   128
 43
0.0
 10
0.195149754125408
 20
0.1199207557483287
 10
0.1947519947450383
 20
0.1195226729829594
 10
0.1941171663412592
 20
0.1196946090266961
 10
0.1936802303957936
 20
0.1199397387118019
 10
0.1933820141368319
 20
0.1202347692092735
 10
0.193245269285688
 20
0.1204365643910239
  0
LWPOLYLINE
  5
E67
330
2
100
AcDbEntity
  8
Profilo
  6
Continuous
370
     0
100
AcDbPolyline
 90
       12
 70
   128
 43
0.0
 10
0.2200347723997087
 20
0.150692361580138
 10
0.2245305637231389
 20
0.146530065270126
 10
0.2294202555363398
 20
0.1424333011549969
 10
0.2322630211046519
 20
0.1399385115644062
 10
0.2341172985278259
 20
0.138196569477921
 10
0.2358230709179505
 20
0.1368615908243326
 10
0.2372971993363819
 20
0.1359467229770569
 10
0.2384565472175542
 20
0.1354651150336496
 10
0.2396812619841561
 20
0.1345896916054729
 10
0.2399564833361882
 20
0.1339070362269434
 10
0.2385958842063705
 20
0.1344630806236151
 10
0.2377300945567207
 20
0.1354521757174809
  0
LWPOLYLINE
  5
E68
330
2
100
AcDbEntity
  8
Profilo
  6
Continuous
370
     0
100
AcDbPolyline
 90
        8
 70
   128
 43
0.0
 10
0.2422293104497086
 20
0.1361307658290233
 10
0.2427883169339875
 20
0.1355605413710869
 10
0.2429081321483899
 20
0.134598903697848
 10
0.2425461854892034
 20
0.1339019937634264
 10
0.2417453257239064
 20
0.1332116500115571
 10
0.2411212106865896
 20
0.1329751740414048
 10
0.2404393021451217
 20
0.1331668103569394
 10
0.2398845258206119
 20
0.1336316223509572
  0
LWPOLYLINE
  5
E69
330
2
100
AcDbEntity
  8
Profilo
  6
Continuous
370
     0
100
AcDbPolyline
 90
        6
 70
   128
 43
0.0
 10
0.2412415822763219
 20
0.1328094967615584
 10
0.2414972670761433
 20
0.1323081907712721
 10
0.2411375734160828
 20
0.1317575642405892
 10
0.2407694205991238
 20
0.1314177627009747
 10
0.2403966760299792
 20
0.1312253116222001
 10
0.240162500924523
 20
0.1311576176809956
  0
LWPOLYLINE
  5
E6A
330
2
100
AcDbEntity
  8
Profilo
  6
Continuous
370
     0
100
AcDbPolyline
 90
       12
 70
   128
 43
0.0
 10
0.2196659395852034
 20
0.1659855046956908
 10
0.2250137945356947
 20
0.1689750360343256
 10
0.2304210466106475
 20
0.1723594395624241
 10
0.2336721953791976
 20
0.1742921378995856
 10
0.2359018839876032
 20
0.1755173708179724
 10
0.2376986367922971
 20
0.1767271256738314
 10
0.2390242585531848
 20
0.1778463953996207
 10
0.2398405531237362
 20
0.1788001757175234
 10
0.2410515879557646
 20
0.1796944279603231
 10
0.2417858798768897
 20
0.1797452269073283
 10
0.2408366019764418
 20
0.1786230474070484
 10
0.2396283729268891
 20
0.1781052797120656
  0
LWPOLYLINE
  5
E6B
330
2
100
AcDbEntity
  8
Profilo
  6
Continuous
370
     0
100
AcDbPolyline
 90
        8
 70
   128
 43
0.0
 10
0.2403733295517085
 20
0.1825939841819918
 10
0.2410883877417884
 20
0.1829494218934056
 10
0.2420399844546708
 20
0.1827662105503534
 10
0.2425909375203279
 20
0.1822066218082966
 10
0.243000014166439
 20
0.1812316309585846
 10
0.2430320540258233
 20
0.1805649871918881
 10
0.2426390757312529
 20
0.1799756725082473
 10
0.2420255779431404
 20
0.1795916836750771
  0
LWPOLYLINE
  5
E6C
330
2
100
AcDbEntity
  8
Profilo
  6
Continuous
370
     0
100
AcDbPolyline
 90
        6
 70
   128
 43
0.0
 10
0.2432268193492906
 20
0.1806282702816254
 10
0.2437826006263588
 20
0.1807165289062341
 10
0.2441951261226816
 20
0.1802042869514282
 10
0.2444045311142116
 20
0.1797491483654101
 10
0.2444723785603209
 20
0.1793351765600859
 10
0.2444643952369727
 20
0.1790915442218381
  0
LWPOLYLINE
  5
E6D
330
2
100
AcDbEntity
  8
Profilo
  6
Continuous
370
     0
100
AcDbPolyline
 90
        5
 70
   128
 43
0.0
 10
0.2109458574988635
 20
0.2036718239736319
 10
0.2112327777848541
 20
0.2045035076750648
 10
0.2114623142091999
 20
0.2056219788161481
 10
0.2114623142091999
 20
0.2067117713397126
 10
0.2114049303475535
 20
0.2076294915259338
  0
LWPOLYLINE
  5
E6E
330
2
100
AcDbEntity
  8
Profilo
  6
Continuous
370
     0
100
AcDbPolyline
 90
        6
 70
   128
 43
0.0
 10
0.2114049303475535
 20
0.2036718239736319
 10
0.2116057743521953
 20
0.2045608655423331
 10
0.2116918506335441
 20
0.205392549243766
 10
0.2117205420754864
 20
0.2062815901802371
 10
0.2117492344951906
 20
0.2071132738816701
 10
0.2117205420754864
 20
0.2077442066282402
  0
LWPOLYLINE
  5
E6F
330
2
100
AcDbEntity
  8
Profilo
  6
Continuous
370
     0
100
AcDbPolyline
 90
        5
 70
   128
 43
0.0
 10
0.2124378427904627
 20
0.2035571088713257
 10
0.2126960706567491
 20
0.2051344404216346
 10
0.2126673792148068
 20
0.2062242329451991
 10
0.2126960706567491
 20
0.2073140254687636
 10
0.2126386867951044
 20
0.2077155280107211
  0
LWPOLYLINE
  5
E70
330
2
100
AcDbEntity
  8
Profilo
  6
Continuous
370
     0
100
AcDbPolyline
 90
        5
 70
   128
 43
0.0
 10
0.2128969146613908
 20
0.2036718239736319
 10
0.2130403748043861
 20
0.2051631190391536
 10
0.2130403748043861
 20
0.2063389480475053
 10
0.2130116833624437
 20
0.2071419531314194
 10
0.2130690672240902
 20
0.2077155280107211
  0
LWPOLYLINE
  5
E71
330
2
100
AcDbEntity
  8
Profilo
  6
Continuous
370
     0
100
AcDbPolyline
 90
        5
 70
   128
 43
0.0
 10
0.2037945774443628
 20
0.2033640159828531
 10
0.2039478612705991
 20
0.2042303444992701
 10
0.2039996042860483
 20
0.2053709528123602
 10
0.2038291231756196
 20
0.2064473281815523
 10
0.2036288827381457
 20
0.2073447728957131
  0
LWPOLYLINE
  5
E72
330
2
100
AcDbEntity
  8
Profilo
  6
Continuous
370
     0
100
AcDbPolyline
 90
        6
 70
   128
 43
0.0
 10
0.2042479983444973
 20
0.2034358307983529
 10
0.2043072928839606
 20
0.2043453457144866
 10
0.2042622054285363
 20
0.2051802553064807
 10
0.2041514669879215
 20
0.2060628390041157
 10
0.2040497021614093
 20
0.2068887717824108
 10
0.2039226633663187
 20
0.2075074482165704
  0
LWPOLYLINE
  5
E73
330
2
100
AcDbEntity
  8
Profilo
  6
Continuous
370
     0
100
AcDbPolyline
 90
        5
 70
   128
 43
0.0
 10
0.2052861393168754
 20
0.2034841111347546
 10
0.2052944389523591
 20
0.2050824188543683
 10
0.2050956196392501
 20
0.2061543058931898
 10
0.2049534767315019
 20
0.2072351695927541
 10
0.2048339905250528
 20
0.2076227521584661
  0
LWPOLYLINE
  5
E74
330
2
100
AcDbEntity
  8
Profilo
  6
Continuous
370
     0
100
AcDbPolyline
 90
        5
 70
   128
 43
0.0
 10
0.2057216138556246
 20
0.2036692285663364
 10
0.2056300178204093
 20
0.2051646054256626
 10
0.2054460776385092
 20
0.2063259580277459
 10
0.205292121765101
 20
0.2071145884561949
 10
0.2052590722567835
 20
0.2076900784906378
  0
LWPOLYLINE
  5
E75
330
2
100
AcDbEntity
  8
Profilo
  6
Continuous
370
     0
100
AcDbPolyline
 90
        5
 70
   128
 43
0.0
 10
0.196779493292574
 20
0.2019412909495408
 10
0.1967953663025348
 20
0.2028209323976873
 10
0.1966680418243224
 20
0.2039555923206539
 10
0.1963312774141972
 20
0.2049920466016001
 10
0.1959931109850269
 20
0.2058471177763883
  0
LWPOLYLINE
  5
E76
330
2
100
AcDbEntity
  8
Profilo
  6
Continuous
370
     0
100
AcDbPolyline
 90
        6
 70
   128
 43
0.0
 10
0.1972160975167741
 20
0.2020831522614419
 10
0.1971323825627119
 20
0.2029907452492659
 10
0.1969572415733011
 20
0.2038083224867599
 10
0.1967097999980574
 20
0.2046627168057961
 10
0.196480083713098
 20
0.205462561454839
 10
0.1962578266593712
 20
0.2060537477095096
  0
LWPOLYLINE
  5
E77
330
2
100
AcDbEntity
  8
Profilo
  6
Continuous
370
     0
100
AcDbPolyline
 90
        5
 70
   128
 43
0.0
 10
0.1982339045424889
 20
0.2022932392144361
 10
0.1979920715826003
 20
0.2038731674628196
 10
0.1976280199896559
 20
0.2049007556006129
 10
0.1973185427623515
 20
0.2059460760247111
 10
0.1971398963580544
 20
0.2063101950450979
  0
LWPOLYLINE
  5
E78
330
2
100
AcDbEntity
  8
Profilo
  6
Continuous
370
     0
100
AcDbPolyline
 90
        5
 70
   128
 43
0.0
 10
0.198635058920658
 20
0.2025442007697589
 10
0.1983106621056088
 20
0.2040068382817426
 10
0.1979473109595489
 20
0.2051251181221848
 10
0.1976718815592288
 20
0.2058799551967064
 10
0.1975492124695267
 20
0.2064431899117011
  0
LWPOLYLINE
  5
E79
330
2
100
AcDbEntity
  8
Profilo
  6
Continuous
370
     0
100
AcDbPolyline
 90
        5
 70
   128
 43
0.0
 10
0.1900733396970436
 20
0.1994386810857683
 10
0.1899514110445447
 20
0.2003099757738282
 10
0.1896481542238887
 20
0.2014107482136469
 10
0.1891533987715039
 20
0.2023817604621549
 10
0.1886856331304311
 20
0.2031734034074309
  0
LWPOLYLINE
  5
E7A
330
2
100
AcDbEntity
  8
Profilo
  6
Continuous
370
     0
100
AcDbPolyline
 90
        6
 70
   128
 43
0.0
 10
0.190482376600304
 20
0.1996470957977616
 10
0.190257713492718
 20
0.2005304189057863
 10
0.1899568315217407
 20
0.2013105323238096
 10
0.1895787796446625
 20
0.2021156992405413
 10
0.1892267682785746
 20
0.2028697609305391
 10
0.1889147656725054
 20
0.2034189000380969
  0
LWPOLYLINE
  5
E7B
330
2
100
AcDbEntity
  8
Profilo
  6
Continuous
370
     0
100
AcDbPolyline
 90
        5
 70
   128
 43
0.0
 10
0.191454787892475
 20
0.2000138163293274
 10
0.1909687770672831
 20
0.2015364620295233
 10
0.1904484573529395
 20
0.2024944486359656
 10
0.1899792661625116
 20
0.2034784865265388
 10
0.1897458584277327
 20
0.2038101761828756
  0
LWPOLYLINE
  5
E7C
330
2
100
AcDbEntity
  8
Profilo
  6
Continuous
370
     0
100
AcDbPolyline
 90
        5
 70
   128
 43
0.0
 10
0.1918117443579187
 20
0.2003244425020034
 10
0.1912625344892332
 20
0.2017183256768844
 10
0.1907287192901225
 20
0.2027659969946563
 10
0.1903385983488253
 20
0.2034684541213151
 10
0.1901293301978429
 20
0.2040055648089089
  0
LWPOLYLINE
  5
E7D
330
2
100
AcDbEntity
  8
Profilo
  6
Continuous
370
     0
100
AcDbPolyline
 90
        5
 70
   128
 43
0.0
 10
0.1838412444157419
 20
0.1959178089520671
 10
0.1835845163888655
 20
0.1967593027131598
 10
0.1831127944151447
 20
0.1977990829991081
 10
0.1824722304417339
 20
0.1986807436710144
 10
0.1818863835312676
 20
0.1993894655101526
  0
LWPOLYLINE
  5
E7E
330
2
100
AcDbEntity
  8
Profilo
  6
Continuous
370
     0
100
AcDbPolyline
 90
        6
 70
   128
 43
0.0
 10
0.1842126421519872
 20
0.1961876452022546
 10
0.183852562842203
 20
0.1970249480839794
 10
0.183433348602353
 20
0.1977483887011326
 10
0.182933995315336
 20
0.1984845023338731
 10
0.1824683565562104
 20
0.1991742135634313
 10
0.1820742909374394
 20
0.1996677838965594
  0
LWPOLYLINE
  5
E7F
330
2
100
AcDbEntity
  8
Profilo
  6
Continuous
370
     0
100
AcDbPolyline
 90
        5
 70
   128
 43
0.0
 10
0.1851157137173533
 20
0.1967019694358278
 10
0.1843974922263527
 20
0.1981298399973269
 10
0.1837337163888186
 20
0.1989946362627928
 10
0.1831163642795327
 20
0.1998931613411401
 10
0.1828339424873383
 20
0.2001842543332731
  0
LWPOLYLINE
  5
E80
330
2
100
AcDbEntity
  8
Profilo
  6
Continuous
370
     0
100
AcDbPolyline
 90
        5
 70
   128
 43
0.0
 10
0.1854196828172226
 20
0.1970646115785793
 10
0.1846591832645908
 20
0.1983554183865578
 10
0.1839680483142647
 20
0.1993066840367946
 10
0.1834728419042992
 20
0.1999394643898101
 10
0.1831821275684343
 20
0.2004372256023059
  0
LWPOLYLINE
  5
E81
330
2
100
AcDbEntity
  8
Profilo
  6
Continuous
370
     0
100
AcDbPolyline
 90
        5
 70
   128
 43
0.0
 10
0.1782366623176336
 20
0.1914653701054736
 10
0.1778514564124317
 20
0.1922563425704428
 10
0.1772228846461932
 20
0.1932095278610481
 10
0.1764522849626946
 20
0.1939801275445473
 10
0.1757627822780847
 20
0.1945884771937554
  0
LWPOLYLINE
  5
E82
330
2
100
AcDbEntity
  8
Profilo
  6
Continuous
370
     0
100
AcDbPolyline
 90
        6
 70
   128
 43
0.0
 10
0.1785612758420001
 20
0.1917899836298408
 10
0.1780746466776559
 20
0.1925606491094688
 10
0.1775474226148129
 20
0.1932096034167954
 10
0.1769390636530409
 20
0.1938585382048858
 10
0.1763712630724967
 20
0.1944669159945128
 10
0.1759048376443832
 20
0.1948927642135436
  0
LWPOLYLINE
  5
E83
330
2
100
AcDbEntity
  8
Profilo
  6
Continuous
370
     0
100
AcDbPolyline
 90
        5
 70
   128
 43
0.0
 10
0.1793727710614981
 20
0.1924392471958484
 10
0.1784400239014374
 20
0.1937371837065938
 10
0.1776491363047796
 20
0.1944874954769341
 10
0.1768988245344403
 20
0.1952783830735919
 10
0.1765743428466582
 20
0.1955217117259728
  0
LWPOLYLINE
  5
E84
330
2
100
AcDbEntity
  8
Profilo
  6
Continuous
370
     0
100
AcDbPolyline
 90
        5
 70
   128
 43
0.0
 10
0.179616268067738
 20
0.1928449758555789
 10
0.1786632048541
 20
0.1940009223491013
 10
0.1778317681887778
 20
0.1948323590144229
 10
0.1772436699354554
 20
0.1953798814414259
 10
0.1768786677664842
 20
0.1958260366457988
  0
LWPOLYLINE
  5
E85
330
2
100
AcDbEntity
  8
Profilo
  6
Continuous
370
     0
100
AcDbPolyline
 90
        5
 70
   128
 43
0.0
 10
0.1733975968145137
 20
0.1861909983671891
 10
0.1728933980787985
 20
0.1869119731688607
 10
0.172123454043037
 20
0.1877550928788268
 10
0.1712417933711306
 20
0.1883956568522366
 10
0.1704656127568017
 20
0.1888886547241539
  0
LWPOLYLINE
  5
E86
330
2
100
AcDbEntity
  8
Profilo
  6
Continuous
370
     0
100
AcDbPolyline
 90
        6
 70
   128
 43
0.0
 10
0.1736674330647006
 20
0.1865623961034352
 10
0.1730662364708557
 20
0.1872474478391653
 10
0.1724439845912008
 20
0.1878059364278644
 10
0.171741599771341
 20
0.1883517134431306
 10
0.1710856185040921
 20
0.1888637775125546
 10
0.1705583182086539
 20
0.1892114178210264
  0
LWPOLYLINE
  5
E87
330
2
100
AcDbEntity
  8
Profilo
  6
Continuous
370
     0
100
AcDbPolyline
 90
        5
 70
   128
 43
0.0
 10
0.1743673702328293
 20
0.1873306119780989
 10
0.1732430647344003
 20
0.1884666549335929
 10
0.1723445396560539
 20
0.1890840070428789
 10
0.171479743390586
 20
0.1897477828804129
 10
0.1711211916232642
 20
0.1899373556340588
  0
LWPOLYLINE
  5
E88
330
2
100
AcDbEntity
  8
Profilo
  6
Continuous
370
     0
100
AcDbPolyline
 90
        5
 70
   128
 43
0.0
 10
0.1745443994410252
 20
0.1877694367686698
 10
0.1734222401457366
 20
0.1887620597086983
 10
0.1724709744955
 20
0.1894531946590254
 10
0.171804465329604
 20
0.1899019773407419
 10
0.1713741628922971
 20
0.1902855407151549
  0
LWPOLYLINE
  5
E89
330
2
100
AcDbEntity
  8
Profilo
  6
Continuous
370
     0
100
AcDbPolyline
 90
        5
 70
   128
 43
0.0
 10
0.1694432017590087
 20
0.1802245662740456
 10
0.1688324252389926
 20
0.1808577906200236
 10
0.1679400675111678
 20
0.1815700843439391
 10
0.1669690552626601
 20
0.1820648397963239
 10
0.166125308861332
 20
0.1824303466471781
  0
LWPOLYLINE
  5
E8A
330
2
100
AcDbEntity
  8
Profilo
  6
Continuous
370
     0
100
AcDbPolyline
 90
        6
 70
   128
 43
0.0
 10
0.1696516164710021
 20
0.1806336031773059
 10
0.1689506559030498
 20
0.1812161729218486
 10
0.1682486981129987
 20
0.1816704439493481
 10
0.1674695824803969
 20
0.1820996243503441
 10
0.1667415729623194
 20
0.1825027659827338
 10
0.1661663816828423
 20
0.1827636383224996
  0
LWPOLYLINE
  5
E8B
330
2
100
AcDbEntity
  8
Profilo
  6
Continuous
370
     0
100
AcDbPolyline
 90
        5
 70
   128
 43
0.0
 10
0.1702227608117236
 20
0.1815018553362286
 10
0.168934581107651
 20
0.1824480315885976
 10
0.1679505432170778
 20
0.1829172227790246
 10
0.1669925566106353
 20
0.1834375424933684
 10
0.1666087634982478
 20
0.1835686914379286
  0
LWPOLYLINE
  5
E8C
330
2
100
AcDbEntity
  8
Profilo
  6
Continuous
370
     0
100
AcDbPolyline
 90
        5
 70
   128
 43
0.0
 10
0.1703289631752439
 20
0.1819629709349206
 10
0.1690653390843853
 20
0.1827678286503461
 10
0.1680176677666143
 20
0.1833016438494558
 10
0.1672891593558248
 20
0.1836406362668364
 10
0.1668041521242819
 20
0.1839521632080381
  0
LWPOLYLINE
  5
E8D
330
2
100
AcDbEntity
  8
Profilo
  6
Continuous
370
     0
100
AcDbPolyline
 90
        5
 70
   128
 43
0.0
 10
0.1664708474812677
 20
0.1737129871856296
 10
0.1657685325219268
 20
0.1742428689909654
 10
0.1647757339108615
 20
0.1748067976933786
 10
0.1637392796299153
 20
0.1751435621035029
 10
0.1628487432782233
 20
0.1753725779415769
  0
LWPOLYLINE
  5
E8E
330
2
100
AcDbEntity
  8
Profilo
  6
Continuous
370
     0
100
AcDbPolyline
 90
        6
 70
   128
 43
0.0
 10
0.1666127087931688
 20
0.1741495914098296
 10
0.1658292442266518
 20
0.1746153343626366
 10
0.1650648650566566
 20
0.1749542021685999
 10
0.1642282030239262
 20
0.1752562181094853
 10
0.1634460912654791
 20
0.1755405106199001
 10
0.1628371721202129
 20
0.1757081914481706
  0
LWPOLYLINE
  5
E8F
330
2
100
AcDbEntity
  8
Profilo
  6
Continuous
370
     0
100
AcDbPolyline
 90
        5
 70
   128
 43
0.0
 10
0.1670409968372954
 20
0.1750965006032958
 10
0.1656206621871199
 20
0.1758295121530263
 10
0.1645753417630206
 20
0.1761389893803298
 10
0.1635477536252273
 20
0.1765030409732751
 10
0.1631481694279397
 20
0.1765725367864761
  0
LWPOLYLINE
  5
E90
330
2
100
AcDbEntity
  8
Profilo
  6
Continuous
370
     0
100
AcDbPolyline
 90
        5
 70
   128
 43
0.0
 10
0.1670737573014858
 20
0.1755685528137143
 10
0.1656997830339044
 20
0.1761658270364121
 10
0.1645815031934621
 20
0.1765291781824721
 10
0.1638089338326337
 20
0.1767500332171503
 10
0.163281164294542
 20
0.1769818528979494
  0
LWPOLYLINE
  5
E91
330
2
100
AcDbEntity
  8
Profilo
  6
Continuous
370
     0
100
AcDbPolyline
 90
        5
 70
   128
 43
0.0
 10
0.1645537232082894
 20
0.1668165977897893
 10
0.1637771631347693
 20
0.1672300896058591
 10
0.1627083696371797
 20
0.1676317674905444
 10
0.1616319942679868
 20
0.1678022486009729
 10
0.1607165959264289
 20
0.1678891342962754
  0
LWPOLYLINE
  5
E92
330
2
100
AcDbEntity
  8
Profilo
  6
Continuous
370
     0
100
AcDbPolyline
 90
        6
 70
   128
 43
0.0
 10
0.16462553802379
 20
0.1672700186899239
 10
0.1637788609565014
 20
0.1676074667137846
 10
0.1629708819585591
 20
0.1678225872481919
 10
0.1620972749216651
 20
0.1679900020941684
 10
0.161280319110025
 20
0.1681484452574894
 10
0.1606526657092111
 20
0.1682188057157703
  0
LWPOLYLINE
  5
E93
330
2
100
AcDbEntity
  8
Profilo
  6
Continuous
370
     0
100
AcDbPolyline
 90
        5
 70
   128
 43
0.0
 10
0.164900423898267
 20
0.1682722688709791
 10
0.1633829076548956
 20
0.1687740665409909
 10
0.1623020439553304
 20
0.1689162094487389
 10
0.1612301569165098
 20
0.1691150287618479
 10
0.1608246207234014
 20
0.1691211602261257
  0
LWPOLYLINE
  5
E94
330
2
100
AcDbEntity
  8
Profilo
  6
Continuous
370
     0
100
AcDbPolyline
 90
        5
 70
   128
 43
0.0
 10
0.1648589357917736
 20
0.1687436342010511
 10
0.1634084431538943
 20
0.1691186180574198
 10
0.1622470905518103
 20
0.1693025582393202
 10
0.1614494834626186
 20
0.1693998377073653
 10
0.160891947055573
 20
0.1695462419578553
  0
LWPOLYLINE
  5
E95
330
2
100
AcDbEntity
  8
Profilo
  6
Continuous
370
     0
100
AcDbPolyline
 90
        5
 70
   128
 43
0.0
 10
0.1637390349022443
 20
0.1597052100812556
 10
0.1629073512008112
 20
0.1599921303672461
 10
0.1617888800597278
 20
0.1602216667915901
 10
0.1606990875361641
 20
0.1602216667915901
 10
0.1597813673499431
 20
0.1601642829299446
  0
LWPOLYLINE
  5
E96
330
2
100
AcDbEntity
  8
Profilo
  6
Continuous
370
     0
100
AcDbPolyline
 90
        6
 70
   128
 43
0.0
 10
0.1637390349022443
 20
0.1601642829299446
 10
0.162849993333543
 20
0.1603651269345853
 10
0.1620183096321099
 20
0.1604512032159351
 10
0.1611292686956389
 20
0.1604798946578773
 10
0.1602975849942076
 20
0.1605085870775806
 10
0.1596666522476369
 20
0.1604798946578773
  0
LWPOLYLINE
  5
E97
330
2
100
AcDbEntity
  8
Profilo
  6
Continuous
370
     0
100
AcDbPolyline
 90
        5
 70
   128
 43
0.0
 10
0.1638537500045521
 20
0.1611971953728539
 10
0.1622764184542422
 20
0.1614554232391401
 10
0.1611866259306769
 20
0.1614267317971986
 10
0.1600968334071133
 20
0.1614554232391401
 10
0.159695330865155
 20
0.1613980393774946
  0
LWPOLYLINE
  5
E98
330
2
100
AcDbEntity
  8
Profilo
  6
Continuous
370
     0
100
AcDbPolyline
 90
        5
 70
   128
 43
0.0
 10
0.1637390349022443
 20
0.1616562672437818
 10
0.162247739836724
 20
0.1617997273867771
 10
0.1610719108283706
 20
0.1617997273867771
 10
0.1602689057444574
 20
0.1617710359448348
 10
0.159695330865155
 20
0.1618284198064803
  0
LWPOLYLINE
  5
E99
330
2
100
AcDbEntity
  8
Profilo
  6
Continuous
370
     0
100
AcDbPolyline
 90
        5
 70
   128
 43
0.0
 10
0.1640468428930236
 20
0.1525539300267539
 10
0.1631805143766076
 20
0.1527072138529903
 10
0.1620399060635176
 20
0.1527589568684395
 10
0.1609635306943247
 20
0.1525884757580108
 10
0.1600660859801638
 20
0.152388235320537
  0
LWPOLYLINE
  5
E9A
330
2
100
AcDbEntity
  8
Profilo
  6
Continuous
370
     0
100
AcDbPolyline
 90
        6
 70
   128
 43
0.0
 10
0.1639750280775249
 20
0.1530073509268885
 10
0.1630655131613903
 20
0.1530666454663526
 10
0.1622306035693963
 20
0.1530215580109266
 10
0.1613480198717614
 20
0.1529108195703119
 10
0.1605220870934652
 20
0.1528090547438005
 10
0.1599034106593056
 20
0.1526820159487098
  0
LWPOLYLINE
  5
E9B
330
2
100
AcDbEntity
  8
Profilo
  6
Continuous
370
     0
100
AcDbPolyline
 90
        5
 70
   128
 43
0.0
 10
0.1639267477411224
 20
0.1540454918992665
 10
0.1623284400215077
 20
0.1540537915347512
 10
0.1612565529826869
 20
0.1538549722216413
 10
0.1601756892831236
 20
0.1537128293138931
 10
0.1597881067174107
 20
0.153593343107444
  0
LWPOLYLINE
  5
E9C
330
2
100
AcDbEntity
  8
Profilo
  6
Continuous
370
     0
100
AcDbPolyline
 90
        5
 70
   128
 43
0.0
 10
0.1637416303095412
 20
0.1544809664380157
 10
0.1622462534502134
 20
0.1543893704028005
 10
0.161084900848131
 20
0.1542054302208994
 10
0.160296270419682
 20
0.1540514743474922
 10
0.1597207803852392
 20
0.1540184248391738
  0
LWPOLYLINE
  5
E9D
330
2
100
AcDbEntity
  8
Profilo
  6
Continuous
370
     0
100
AcDbPolyline
 90
        5
 70
   128
 43
0.0
 10
0.1654695679263352
 20
0.1455388458749644
 10
0.1645899264781896
 20
0.1455547188849259
 10
0.1634552665552231
 20
0.1454273944067136
 10
0.1624188122742769
 20
0.1450906299965892
 10
0.1615637410994884
 20
0.1447524635674172
  0
LWPOLYLINE
  5
E9E
330
2
100
AcDbEntity
  8
Profilo
  6
Continuous
370
     0
100
AcDbPolyline
 90
        6
 70
   128
 43
0.0
 10
0.1653277066144341
 20
0.1459754500991654
 10
0.1644201136266119
 20
0.1458917351451031
 10
0.1636025363891171
 20
0.1457165941556914
 10
0.1627481420700807
 20
0.1454691525804476
 10
0.1619482974210378
 20
0.1452394362954882
 10
0.1613571111663673
 20
0.1450171792417624
  0
LWPOLYLINE
  5
E9F
330
2
100
AcDbEntity
  8
Profilo
  6
Continuous
370
     0
100
AcDbPolyline
 90
        5
 70
   128
 43
0.0
 10
0.1651176196614408
 20
0.1469932571248801
 10
0.1635376914130564
 20
0.1467514241649916
 10
0.1625101032752648
 20
0.1463873725720472
 10
0.1614647828511657
 20
0.1460778953447436
 10
0.1611006638307799
 20
0.1458992489404455
  0
LWPOLYLINE
  5
EA0
330
2
100
AcDbEntity
  8
Profilo
  6
Continuous
370
     0
100
AcDbPolyline
 90
        5
 70
   128
 43
0.0
 10
0.1648666581061188
 20
0.14739441150305
 10
0.1634040205941343
 20
0.1470700146879999
 10
0.1622857407536919
 20
0.14670666354194
 10
0.1615309036791695
 20
0.1464312341416209
 10
0.1609676689641758
 20
0.146308565051918
  0
LWPOLYLINE
  5
EA1
330
2
100
AcDbEntity
  8
Profilo
  6
Continuous
370
     0
100
AcDbPolyline
 90
        5
 70
   128
 43
0.0
 10
0.1679721777901086
 20
0.138832692279434
 10
0.167100883102048
 20
0.138710763626935
 10
0.16600011066223
 20
0.1384075068062808
 10
0.1650290984137221
 20
0.137912751353895
 10
0.1642374554684451
 20
0.1374449857128223
  0
LWPOLYLINE
  5
EA2
330
2
100
AcDbEntity
  8
Profilo
  6
Continuous
370
     0
100
AcDbPolyline
 90
        6
 70
   128
 43
0.0
 10
0.1677637630781152
 20
0.1392417291826943
 10
0.1668804399700913
 20
0.1390170660751102
 10
0.1661003265520673
 20
0.138716184104131
 10
0.1652951596353365
 20
0.1383381322270528
 10
0.1645410979453388
 20
0.1379861208609649
 10
0.1639919588377801
 20
0.1376741182548966
  0
LWPOLYLINE
  5
EA3
330
2
100
AcDbEntity
  8
Profilo
  6
Continuous
370
     0
100
AcDbPolyline
 90
        5
 70
   128
 43
0.0
 10
0.1673970425465505
 20
0.1402141404748653
 10
0.1658743968463536
 20
0.1397281296496743
 10
0.1649164102399111
 20
0.1392078099353306
 10
0.163932372349338
 20
0.1387386187449037
 10
0.1636006826930014
 20
0.1385052110101239
  0
LWPOLYLINE
  5
EA4
330
2
100
AcDbEntity
  8
Profilo
  6
Continuous
370
     0
100
AcDbPolyline
 90
        5
 70
   128
 43
0.0
 10
0.1670864163738734
 20
0.1405710969403099
 10
0.1656925331989923
 20
0.1400218870716245
 10
0.1646448618812196
 20
0.1394880718725146
 10
0.1639424047545627
 20
0.1390979509312164
 10
0.163405294066969
 20
0.1388886827802333
  0
LWPOLYLINE
  5
EA5
330
2
100
AcDbEntity
  8
Profilo
  6
Continuous
370
     0
100
AcDbPolyline
 90
        5
 70
   128
 43
0.0
 10
0.1714930499238108
 20
0.1326005969981332
 10
0.1706515561627171
 20
0.1323438689712559
 10
0.1696117758767687
 20
0.131872146997535
 10
0.1687301152048625
 20
0.131231583024125
 10
0.1680213933657235
 20
0.1306457361136596
  0
LWPOLYLINE
  5
EA6
330
2
100
AcDbEntity
  8
Profilo
  6
Continuous
370
     0
100
AcDbPolyline
 90
        6
 70
   128
 43
0.0
 10
0.1712232136736222
 20
0.1329719947343783
 10
0.1703859107918983
 20
0.1326119154245941
 10
0.1696624701747442
 20
0.1321927011847443
 10
0.1689263565420037
 20
0.1316933478977264
 10
0.1682366453124455
 20
0.1312277091386024
 10
0.1677430749793167
 20
0.1308336435198298
  0
LWPOLYLINE
  5
EA7
330
2
100
AcDbEntity
  8
Profilo
  6
Continuous
370
     0
100
AcDbPolyline
 90
        5
 70
   128
 43
0.0
 10
0.170708889440048
 20
0.1338750662997445
 10
0.1692810188785501
 20
0.1331568448087438
 10
0.168416222613084
 20
0.1324930689712098
 10
0.1675176975347375
 20
0.1318757168619239
 10
0.1672266045426038
 20
0.1315932950697295
  0
LWPOLYLINE
  5
EA8
330
2
100
AcDbEntity
  8
Profilo
  6
Continuous
370
     0
100
AcDbPolyline
 90
        5
 70
   128
 43
0.0
 10
0.1703462472972975
 20
0.1341790353996139
 10
0.1690554404893181
 20
0.1334185358469821
 10
0.1681041748390831
 20
0.132727400896655
 10
0.1674713944860676
 20
0.1322321944866903
 10
0.1669736332735709
 20
0.1319414801508255
  0
LWPOLYLINE
  5
EA9
330
2
100
AcDbEntity
  8
Profilo
  6
Continuous
370
     0
100
AcDbPolyline
 90
        5
 70
   128
 43
0.0
 10
0.1759454887704023
 20
0.1269960149000239
 10
0.1751545163054331
 20
0.126610808994822
 10
0.1742013310148279
 20
0.1259822372285834
 10
0.1734307313313293
 20
0.1252116375450848
 10
0.1728223816821224
 20
0.1245221348604758
  0
LWPOLYLINE
  5
EAA
330
2
100
AcDbEntity
  8
Profilo
  6
Continuous
370
     0
100
AcDbPolyline
 90
        6
 70
   128
 43
0.0
 10
0.175620875246036
 20
0.1273206284243904
 10
0.174850209766408
 20
0.1268339992600479
 10
0.1742012554590815
 20
0.1263067751972033
 10
0.173552320670991
 20
0.1256984162354321
 10
0.172943942881364
 20
0.1251306156548869
 10
0.1725180946623332
 20
0.1246641902267744
  0
LWPOLYLINE
  5
EAB
330
2
100
AcDbEntity
  8
Profilo
  6
Continuous
370
     0
100
AcDbPolyline
 90
        5
 70
   128
 43
0.0
 10
0.1749716116800285
 20
0.1281321236438892
 10
0.173673675169283
 20
0.1271993764838286
 10
0.1729233633989436
 20
0.1264084888871708
 10
0.1721324758022841
 20
0.1256581771168305
 10
0.1718891471499031
 20
0.1253336954290484
  0
LWPOLYLINE
  5
EAC
330
2
100
AcDbEntity
  8
Profilo
  6
Continuous
370
     0
100
AcDbPolyline
 90
        5
 70
   128
 43
0.0
 10
0.1745658830202981
 20
0.1283756206501291
 10
0.1734099365267756
 20
0.1274225574364904
 10
0.1725784998614549
 20
0.126591120771168
 10
0.1720309774344511
 20
0.1260030225178465
 10
0.1715848222300771
 20
0.1256380203488745
  0
LWPOLYLINE
  5
EAD
330
2
100
AcDbEntity
  8
Profilo
  6
Continuous
370
     0
100
AcDbPolyline
 90
        5
 70
   128
 43
0.0
 10
0.1812198605086886
 20
0.122156949396904
 10
0.1804988857070171
 20
0.1216527506611888
 10
0.1796557659970491
 20
0.1208828066254281
 10
0.1790152020236402
 20
0.1200011459535219
 10
0.1785222041517221
 20
0.1192249653391938
  0
LWPOLYLINE
  5
EAE
330
2
100
AcDbEntity
  8
Profilo
  6
Continuous
370
     0
100
AcDbPolyline
 90
        6
 70
   128
 43
0.0
 10
0.1808484627724418
 20
0.1224267856470917
 10
0.1801634110367106
 20
0.1218255890532459
 10
0.1796049224480124
 20
0.1212033371735912
 10
0.1790591454327473
 20
0.1205009523537321
 10
0.1785470813633214
 20
0.1198449710864823
 10
0.1781994410548505
 20
0.1193176707910459
  0
LWPOLYLINE
  5
EAF
330
2
100
AcDbEntity
  8
Profilo
  6
Continuous
370
     0
100
AcDbPolyline
 90
        5
 70
   128
 43
0.0
 10
0.1800802468977789
 20
0.1231267228152205
 10
0.178944203942283
 20
0.1220024173167906
 10
0.1783268518329972
 20
0.1211038922384441
 10
0.1776630759954632
 20
0.1202390959729782
 10
0.1774735032418171
 20
0.1198805442056545
  0
LWPOLYLINE
  5
EB0
330
2
100
AcDbEntity
  8
Profilo
  6
Continuous
370
     0
100
AcDbPolyline
 90
        5
 70
   128
 43
0.0
 10
0.1796414221072079
 20
0.1233037520234172
 10
0.1786487991671777
 20
0.1221815927281268
 10
0.1779576642168513
 20
0.1212303270778911
 10
0.1775088815351342
 20
0.1205638179119942
 10
0.1771253181607211
 20
0.1201335154746882
  0
LWPOLYLINE
  5
EB1
330
2
100
AcDbEntity
  8
Profilo
  6
Continuous
370
     0
100
AcDbPolyline
 90
        5
 70
   128
 43
0.0
 10
0.1871862926018312
 20
0.1182025543413991
 10
0.1865530682558525
 20
0.1175917778213837
 10
0.1858407745319379
 20
0.1166994200935582
 10
0.185346019079553
 20
0.1157284078450504
 10
0.184980512228698
 20
0.1148846614437232
  0
LWPOLYLINE
  5
EB2
330
2
100
AcDbEntity
  8
Profilo
  6
Continuous
370
     0
100
AcDbPolyline
 90
        6
 70
   128
 43
0.0
 10
0.1867772556985708
 20
0.1184109690533925
 10
0.1861946859540281
 20
0.1177100084854418
 10
0.1857404149265296
 20
0.1170080506953889
 10
0.1853112345255335
 20
0.1162289350627889
 10
0.1849080928931438
 20
0.1155009255447105
 10
0.1846472205533764
 20
0.1149257342652325
  0
LWPOLYLINE
  5
EB3
330
2
100
AcDbEntity
  8
Profilo
  6
Continuous
370
     0
100
AcDbPolyline
 90
        5
 70
   128
 43
0.0
 10
0.1859090035396472
 20
0.118982113394114
 10
0.1849628272872792
 20
0.1176939336900422
 10
0.1844936360968514
 20
0.1167098957994689
 10
0.1839733163825076
 20
0.1157519091930265
 10
0.1838421674379482
 20
0.115368116080639
  0
LWPOLYLINE
  5
EB4
330
2
100
AcDbEntity
  8
Profilo
  6
Continuous
370
     0
100
AcDbPolyline
 90
        5
 70
   128
 43
0.0
 10
0.1854478879409562
 20
0.1190883157576351
 10
0.1846430302255317
 20
0.1178246916667764
 10
0.184109215026421
 20
0.1167770203490045
 10
0.1837702226090396
 20
0.116048511938215
 10
0.1834586956678379
 20
0.1155635047066723
  0
LWPOLYLINE
  5
EB5
330
2
100
AcDbEntity
  8
Profilo
  6
Continuous
370
     0
100
AcDbPolyline
 90
        5
 70
   128
 43
0.0
 10
0.1936978716902472
 20
0.1152302000636589
 10
0.1931679898849108
 20
0.1145278851043172
 10
0.1926040611824984
 20
0.1135350864932517
 10
0.1922672967723747
 20
0.1124986322123064
 10
0.1920382809343
 20
0.1116080958606144
  0
LWPOLYLINE
  5
EB6
330
2
100
AcDbEntity
  8
Profilo
  6
Continuous
370
     0
100
AcDbPolyline
 90
        6
 70
   128
 43
0.0
 10
0.1932612674660471
 20
0.1153720613755608
 10
0.1927955245132402
 20
0.114588596809042
 10
0.1924566567072768
 20
0.1138242176390469
 10
0.1921546407663913
 20
0.1129875556063164
 10
0.1918703482559766
 20
0.1122054438478711
 10
0.1917026674277052
 20
0.1115965247026031
  0
LWPOLYLINE
  5
EB7
330
2
100
AcDbEntity
  8
Profilo
  6
Continuous
370
     0
100
AcDbPolyline
 90
        5
 70
   128
 43
0.0
 10
0.1923143582725809
 20
0.1158003494196866
 10
0.1915813467228505
 20
0.114380014769511
 10
0.1912718694955462
 20
0.1133346943454118
 10
0.1909078179026017
 20
0.1123071062076195
 10
0.1908383220893998
 20
0.11190752201033
  0
LWPOLYLINE
  5
EB8
330
2
100
AcDbEntity
  8
Profilo
  6
Continuous
370
     0
100
AcDbPolyline
 90
        5
 70
   128
 43
0.0
 10
0.1918423060621616
 20
0.1158331098838769
 10
0.1912450318394646
 20
0.1144591356162947
 10
0.1908816806934047
 20
0.1133408557758524
 10
0.1906608256587265
 20
0.1125682864150249
 10
0.1904290059779274
 20
0.1120405168769331
  0
LWPOLYLINE
  5
EB9
330
2
100
AcDbEntity
  8
Profilo
  6
Continuous
370
     0
100
AcDbPolyline
 90
        5
 70
   128
 43
0.0
 10
0.2005942610860866
 20
0.1133130757906814
 10
0.2001807692700178
 20
0.1125365157171605
 10
0.1997790913853324
 20
0.11146772221957
 10
0.1996086102749039
 20
0.1103913468503771
 10
0.1995217245796024
 20
0.1094759485088201
  0
LWPOLYLINE
  5
EBA
330
2
100
AcDbEntity
  8
Profilo
  6
Continuous
370
     0
100
AcDbPolyline
 90
        6
 70
   128
 43
0.0
 10
0.2001408401859538
 20
0.1133848906061802
 10
0.1998033921620922
 20
0.1125382135388916
 10
0.199588271627686
 20
0.1117302345409494
 10
0.1994208567817086
 20
0.1108566275040562
 10
0.1992624136183867
 20
0.1100396716924154
 10
0.1991920531601056
 20
0.1094120182916013
  0
LWPOLYLINE
  5
EBB
330
2
100
AcDbEntity
  8
Profilo
  6
Continuous
370
     0
100
AcDbPolyline
 90
        5
 70
   128
 43
0.0
 10
0.1991385900048977
 20
0.1136597764806581
 10
0.1986367923348861
 20
0.1121422602372858
 10
0.1984946494271379
 20
0.1110613965377224
 10
0.1982958301140288
 20
0.1099895094989009
 10
0.1982896986497503
 20
0.1095839733057925
  0
LWPOLYLINE
  5
EBC
330
2
100
AcDbEntity
  8
Profilo
  6
Continuous
370
     0
100
AcDbPolyline
 90
        5
 70
   128
 43
0.0
 10
0.1986672246748248
 20
0.1136182883741638
 10
0.198292240818457
 20
0.1121677957362847
 10
0.1981083006365568
 20
0.1110064431342023
 10
0.1980110211685115
 20
0.1102088360450097
 10
0.1978646169180216
 20
0.1096512996379641
  0
LWPOLYLINE
  5
EBD
330
2
100
AcDbEntity
  8
Profilo
  6
Continuous
370
     0
100
AcDbPolyline
 90
        5
 70
   128
 43
0.0
 10
0.2077056487946223
 20
0.1124983874846363
 10
0.2074187285086317
 20
0.1116667037832032
 10
0.2071891920842859
 20
0.1105482326421189
 10
0.2071891920842859
 20
0.1094584401185545
 10
0.2072465759459323
 20
0.1085407199323342
  0
LWPOLYLINE
  5
EBE
330
2
100
AcDbEntity
  8
Profilo
  6
Continuous
370
     0
100
AcDbPolyline
 90
        6
 70
   128
 43
0.0
 10
0.2072465759459323
 20
0.1124983874846363
 10
0.2070457319412905
 20
0.1116093459159341
 10
0.2069596556599417
 20
0.110777662214501
 10
0.2069309642179995
 20
0.1098886212780309
 10
0.2069022717982953
 20
0.1090569375765979
 10
0.2069309642179995
 20
0.108426004830028
  0
LWPOLYLINE
  5
EBF
330
2
100
AcDbEntity
  8
Profilo
  6
Continuous
370
     0
100
AcDbPolyline
 90
        5
 70
   128
 43
0.0
 10
0.2062136635030232
 20
0.1126131025869425
 10
0.2059554356367368
 20
0.1110357710366334
 10
0.2059841270786791
 20
0.109945978513068
 10
0.2059554356367368
 20
0.1088561859895035
 10
0.2060128194983814
 20
0.108454683447547
  0
LWPOLYLINE
  5
EC0
330
2
100
AcDbEntity
  8
Profilo
  6
Continuous
370
     0
100
AcDbPolyline
 90
        5
 70
   128
 43
0.0
 10
0.2057545916320951
 20
0.1124983874846363
 10
0.2056111314890997
 20
0.1110070924191144
 10
0.2056111314890997
 20
0.1098312634107618
 10
0.205639822931042
 20
0.1090282583268478
 10
0.2055824390693956
 20
0.108454683447547
  0
LWPOLYLINE
  5
EC1
330
2
100
AcDbEntity
  8
Profilo
  6
Continuous
370
     0
100
AcDbPolyline
 90
        5
 70
   128
 43
0.0
 10
0.2148569288491231
 20
0.1128061954754139
 10
0.2147036450228867
 20
0.1119398669589978
 10
0.2146519020074376
 20
0.1107992586459078
 10
0.2148223831178662
 20
0.1097228832767149
 10
0.21502262355534
 20
0.108825438562555
  0
LWPOLYLINE
  5
EC2
330
2
100
AcDbEntity
  8
Profilo
  6
Continuous
370
     0
100
AcDbPolyline
 90
        6
 70
   128
 43
0.0
 10
0.2144035079489885
 20
0.1127343806599152
 10
0.2143442134095252
 20
0.1118248657437814
 10
0.2143893008649496
 20
0.1109899561517875
 10
0.2145000393055643
 20
0.1101073724541516
 10
0.2146018041320765
 20
0.1092814396758563
 10
0.2147288429271672
 20
0.1086627632416967
  0
LWPOLYLINE
  5
EC3
330
2
100
AcDbEntity
  8
Profilo
  6
Continuous
370
     0
100
AcDbPolyline
 90
        5
 70
   128
 43
0.0
 10
0.2133653669766105
 20
0.1126861003235135
 10
0.2133570673411267
 20
0.1110877926038988
 10
0.2135558866542357
 20
0.1100159055650781
 10
0.2136980295619839
 20
0.1089350418655139
 10
0.213817515768433
 20
0.1085474592998019
  0
LWPOLYLINE
  5
EC4
330
2
100
AcDbEntity
  8
Profilo
  6
Continuous
370
     0
100
AcDbPolyline
 90
        5
 70
   128
 43
0.0
 10
0.2129298924378613
 20
0.1125009828919316
 10
0.2130214884730766
 20
0.1110056060326045
 10
0.2132054286549767
 20
0.1098442534305212
 10
0.2133593845283848
 20
0.1090556230020722
 10
0.2133924340367024
 20
0.1084801329676294
  0
LWPOLYLINE
  5
EC5
330
2
100
AcDbEntity
  8
Profilo
  6
Continuous
370
     0
100
AcDbPolyline
 90
        5
 70
   128
 43
0.0
 10
0.2218720130009117
 20
0.1142289205087263
 10
0.221856139990951
 20
0.1133492790605807
 10
0.2219834644691634
 20
0.1122146191376143
 10
0.2223202288792886
 20
0.111178164856668
 10
0.2226583953084589
 20
0.1103230936818788
  0
LWPOLYLINE
  5
EC6
330
2
100
AcDbEntity
  8
Profilo
  6
Continuous
370
     0
100
AcDbPolyline
 90
        6
 70
   128
 43
0.0
 10
0.2214354087767116
 20
0.1140870591968252
 10
0.2215191237307739
 20
0.1131794662090021
 10
0.2216942647201847
 20
0.1123618889715082
 10
0.2219417062954284
 20
0.1115074946524709
 10
0.2221714225803897
 20
0.1107076500034289
 10
0.2223936796341145
 20
0.1101164637487577
  0
LWPOLYLINE
  5
EC7
330
2
100
AcDbEntity
  8
Profilo
  6
Continuous
370
     0
100
AcDbPolyline
 90
        5
 70
   128
 43
0.0
 10
0.2204176017509969
 20
0.113876972243831
 10
0.2206594347108854
 20
0.1122970439954475
 10
0.2210234863038298
 20
0.1112694558576552
 10
0.2213329635311343
 20
0.110224135433556
 10
0.2215116099354315
 20
0.1098600164131702
  0
LWPOLYLINE
  5
EC8
330
2
100
AcDbEntity
  8
Profilo
  6
Continuous
370
     0
100
AcDbPolyline
 90
        5
 70
   128
 43
0.0
 10
0.2200164473728279
 20
0.1136260106885091
 10
0.2203408441878771
 20
0.1121633731765245
 10
0.220704195333937
 20
0.1110450933360822
 10
0.2209796247342569
 20
0.1102902562615608
 10
0.2211022938239591
 20
0.109727021546567
  0
LWPOLYLINE
  5
EC9
330
2
100
AcDbEntity
  8
Profilo
  6
Continuous
370
     0
100
AcDbPolyline
 90
        5
 70
   128
 43
0.0
 10
0.2285781665964421
 20
0.1167315303724997
 10
0.228700095248941
 20
0.1158602356844391
 10
0.2290033520695971
 20
0.1147594632446211
 10
0.229498107521982
 20
0.1137884509961133
 10
0.2299658731630547
 20
0.1129968080508362
  0
LWPOLYLINE
  5
ECA
330
2
100
AcDbEntity
  8
Profilo
  6
Continuous
370
     0
100
AcDbPolyline
 90
        6
 70
   128
 43
0.0
 10
0.2281691296931818
 20
0.1165231156605064
 10
0.2283937928007678
 20
0.1156397925524816
 10
0.2286946747717451
 20
0.1148596791344584
 10
0.229072726648825
 20
0.1140545122177267
 10
0.2294247380149129
 20
0.113300450527729
 10
0.2297367406209805
 20
0.1127513114201712
  0
LWPOLYLINE
  5
ECB
330
2
100
AcDbEntity
  8
Profilo
  6
Continuous
370
     0
100
AcDbPolyline
 90
        5
 70
   128
 43
0.0
 10
0.2271967184010108
 20
0.1161563951289408
 10
0.2276827292262027
 20
0.1146337494287448
 10
0.2282030489405464
 20
0.1136757628223023
 10
0.2286722401309742
 20
0.1126917249317291
 10
0.2289056478657531
 20
0.1123600352753926
  0
LWPOLYLINE
  5
ECC
330
2
100
AcDbEntity
  8
Profilo
  6
Continuous
370
     0
100
AcDbPolyline
 90
        5
 70
   128
 43
0.0
 10
0.2268397619355671
 20
0.1158457689562637
 10
0.2273889718042525
 20
0.1144518857813827
 10
0.2279227870033633
 20
0.1134042144636109
 10
0.2283129079446606
 20
0.112701757336953
 10
0.2285221760956428
 20
0.1121646466493593
  0
LWPOLYLINE
  5
ECD
330
2
100
AcDbEntity
  8
Profilo
  6
Continuous
370
     0
100
AcDbPolyline
 90
        5
 70
   128
 43
0.0
 10
0.2348102618777439
 20
0.120252402506201
 10
0.235066989904622
 20
0.1194109087451082
 10
0.2355387118783412
 20
0.1183711284591599
 10
0.236179275851752
 20
0.1174894677872528
 10
0.2367651227622183
 20
0.1167807459481147
  0
LWPOLYLINE
  5
ECE
330
2
100
AcDbEntity
  8
Profilo
  6
Continuous
370
     0
100
AcDbPolyline
 90
        6
 70
   128
 43
0.0
 10
0.2344388641414987
 20
0.1199825662560134
 10
0.2347989434512829
 20
0.1191452633742886
 10
0.2352181576911327
 20
0.1184218227571353
 10
0.2357175109781497
 20
0.117685709124395
 10
0.2361831497372755
 20
0.1169959978948367
 10
0.2365772153560464
 20
0.1165024275617079
  0
LWPOLYLINE
  5
ECF
330
2
100
AcDbEntity
  8
Profilo
  6
Continuous
370
     0
100
AcDbPolyline
 90
        5
 70
   128
 43
0.0
 10
0.2335357925761325
 20
0.1194682420224392
 10
0.2342540140671332
 20
0.1180403714609412
 10
0.2349177899046673
 20
0.1171755751954752
 10
0.2355351420139531
 20
0.1162770501171279
 10
0.2358175638061475
 20
0.115985957124995
  0
LWPOLYLINE
  5
ED0
330
2
100
AcDbEntity
  8
Profilo
  6
Continuous
370
     0
100
AcDbPolyline
 90
        5
 70
   128
 43
0.0
 10
0.2332318234762631
 20
0.1191055998796879
 10
0.2339923230288949
 20
0.1178147930717092
 10
0.234683457979223
 20
0.1168635274214735
 10
0.2351786643891867
 20
0.116230747068458
 10
0.2354693787250515
 20
0.1157329858559612
  0
LWPOLYLINE
  5
ED1
330
2
100
AcDbEntity
  8
Profilo
  6
Continuous
370
     0
100
AcDbPolyline
 90
        5
 70
   128
 43
0.0
 10
0.240414843975854
 20
0.1247048413527944
 10
0.240800049881054
 20
0.1239138688878242
 10
0.2414286216472926
 20
0.1229606835972191
 10
0.2421992213307913
 20
0.1221900839137206
 10
0.2428887240154011
 20
0.1215817342645126
  0
LWPOLYLINE
  5
ED2
330
2
100
AcDbEntity
  8
Profilo
  6
Continuous
370
     0
100
AcDbPolyline
 90
        6
 70
   128
 43
0.0
 10
0.2400902304514858
 20
0.1243802278284271
 10
0.24057685961583
 20
0.1236095623487991
 10
0.2411040836786729
 20
0.1229606080414717
 10
0.2417124426404449
 20
0.1223116732533821
 10
0.2422802432209892
 20
0.1217032954637553
 10
0.2427466686491027
 20
0.1212774472447244
  0
LWPOLYLINE
  5
ED3
330
2
100
AcDbEntity
  8
Profilo
  6
Continuous
370
     0
100
AcDbPolyline
 90
        5
 70
   128
 43
0.0
 10
0.2392787352319878
 20
0.1237309642624197
 10
0.2402114823920485
 20
0.1224330277516734
 10
0.2410023699887063
 20
0.121682715981334
 10
0.2417526817590455
 20
0.1208918283846753
 10
0.2420771634468277
 20
0.1206484997322943
  0
LWPOLYLINE
  5
ED4
330
2
100
AcDbEntity
  8
Profilo
  6
Continuous
370
     0
100
AcDbPolyline
 90
        5
 70
   128
 43
0.0
 10
0.2390352382257479
 20
0.1233252356026892
 10
0.2399883014393875
 20
0.1221692891091668
 10
0.2408197381047081
 20
0.1213378524438453
 10
0.2414078363580305
 20
0.1207903300168413
 10
0.2417728385270017
 20
0.1203441748124682
  0
LWPOLYLINE
  5
ED5
330
2
100
AcDbEntity
  8
Profilo
  6
Continuous
370
     0
100
AcDbPolyline
 90
        5
 70
   128
 43
0.0
 10
0.245253909478972
 20
0.129979213091079
 10
0.2457581082146873
 20
0.1292582382894073
 10
0.2465280522504489
 20
0.1284151185794404
 10
0.2474097129223551
 20
0.1277745546060304
 10
0.2481858935366841
 20
0.1272815567341134
  0
LWPOLYLINE
  5
ED6
330
2
100
AcDbEntity
  8
Profilo
  6
Continuous
370
     0
100
AcDbPolyline
 90
        6
 70
   128
 43
0.0
 10
0.2449840732287853
 20
0.1296078153548329
 10
0.2455852698226301
 20
0.1289227636191019
 10
0.246207521702285
 20
0.1283642750304036
 10
0.2469099065221449
 20
0.1278184980151375
 10
0.2475658877893938
 20
0.1273064339457134
 10
0.248093188084832
 20
0.1269587936372409
  0
LWPOLYLINE
  5
ED7
330
2
100
AcDbEntity
  8
Profilo
  6
Continuous
370
     0
100
AcDbPolyline
 90
        5
 70
   128
 43
0.0
 10
0.2442841360606565
 20
0.1288395994801691
 10
0.2454084415590856
 20
0.1277035565246742
 10
0.2463069666374338
 20
0.1270862044153884
 10
0.2471717629028998
 20
0.1264224285778551
 10
0.2475303146702217
 20
0.1262328558242082
  0
LWPOLYLINE
  5
ED8
330
2
100
AcDbEntity
  8
Profilo
  6
Continuous
370
     0
100
AcDbPolyline
 90
        5
 70
   128
 43
0.0
 10
0.2441071068524606
 20
0.1284007746895983
 10
0.2452292661477493
 20
0.1274081517495697
 10
0.2461805317979859
 20
0.1267170167992425
 10
0.2468470409638818
 20
0.1262682341175263
 10
0.2472773434011888
 20
0.1258846707431131
  0
LWPOLYLINE
  5
ED9
330
2
100
AcDbEntity
  8
Profilo
  6
Continuous
370
     0
100
AcDbPolyline
 90
        5
 70
   128
 43
0.0
 10
0.2492083045344771
 20
0.1359456451842224
 10
0.2498190810544933
 20
0.1353124208382436
 10
0.2507114387823179
 20
0.1346001271143291
 10
0.2516824510308258
 20
0.1341053716619433
 10
0.2525261974321538
 20
0.1337398648110901
  0
LWPOLYLINE
  5
EDA
330
2
100
AcDbEntity
  8
Profilo
  6
Continuous
370
     0
100
AcDbPolyline
 90
        6
 70
   128
 43
0.0
 10
0.2489998898224837
 20
0.1355366082809621
 10
0.2497008503904361
 20
0.1349540385364185
 10
0.2504028081804872
 20
0.1344997675089198
 10
0.251181923813089
 20
0.1340705871079239
 10
0.2519099333311665
 20
0.1336674454755342
 10
0.2524851246106436
 20
0.1334065731357676
  0
LWPOLYLINE
  5
EDB
330
2
100
AcDbEntity
  8
Profilo
  6
Continuous
370
     0
100
AcDbPolyline
 90
        5
 70
   128
 43
0.0
 10
0.2484287454817622
 20
0.1346683561220384
 10
0.2497169251858349
 20
0.1337221798696703
 10
0.2507009630764081
 20
0.1332529886792434
 10
0.2516589496828505
 20
0.1327326689648988
 10
0.2520427427952381
 20
0.1326015200203384
  0
LWPOLYLINE
  5
EDC
330
2
100
AcDbEntity
  8
Profilo
  6
Continuous
370
     0
100
AcDbPolyline
 90
        5
 70
   128
 43
0.0
 10
0.2483225431182419
 20
0.1342072405233464
 10
0.2495861672091006
 20
0.133402382807922
 10
0.2506338385268716
 20
0.1328685676088121
 10
0.2513623469376611
 20
0.1325295751914308
 10
0.2518473541692039
 20
0.132218048250229
  0
LWPOLYLINE
  5
EDD
330
2
100
AcDbEntity
  8
Profilo
  6
Continuous
370
     0
100
AcDbPolyline
 90
        5
 70
   128
 43
0.0
 10
0.2521806588122182
 20
0.1424572242726385
 10
0.252882973771559
 20
0.1419273424673028
 10
0.2538757723826244
 20
0.1413634137648895
 10
0.2549122266635706
 20
0.1410266493547651
 10
0.2558027630152626
 20
0.1407976335166902
  0
LWPOLYLINE
  5
EDE
330
2
100
AcDbEntity
  8
Profilo
  6
Continuous
370
     0
100
AcDbPolyline
 90
        6
 70
   128
 43
0.0
 10
0.2520387975003171
 20
0.1420206200484383
 10
0.2528222620668341
 20
0.1415548770956305
 10
0.2535866412368293
 20
0.1412160092896672
 10
0.2544233032695597
 20
0.1409139933487825
 10
0.2552054150280067
 20
0.1406297008383669
 10
0.255814334173273
 20
0.1404620200100974
  0
LWPOLYLINE
  5
EDF
330
2
100
AcDbEntity
  8
Profilo
  6
Continuous
370
     0
100
AcDbPolyline
 90
        5
 70
   128
 43
0.0
 10
0.2516105094561905
 20
0.1410737108549712
 10
0.253030844106366
 20
0.1403406993052409
 10
0.2540761645304652
 20
0.1400312220779373
 10
0.2551037526682585
 20
0.1396671704849929
 10
0.2555033368655462
 20
0.139597674671791
  0
LWPOLYLINE
  5
EE0
330
2
100
AcDbEntity
  8
Profilo
  6
Continuous
370
     0
100
AcDbPolyline
 90
        5
 70
   128
 43
0.0
 10
0.2515777489920001
 20
0.1406016586445537
 10
0.2529517232595815
 20
0.1400043844218559
 10
0.2540700031000238
 20
0.139641033275796
 10
0.2548425724608521
 20
0.1394201782411177
 10
0.2553703419989439
 20
0.1391883585603185
  0
LWPOLYLINE
  5
EE1
330
2
100
AcDbEntity
  8
Profilo
  6
Continuous
370
     0
100
AcDbPolyline
 90
        5
 70
   128
 43
0.0
 10
0.2540977830851964
 20
0.1493536136684787
 10
0.2548743431587166
 20
0.1489401218524091
 10
0.255943136656306
 20
0.1485384439677237
 10
0.257019512025499
 20
0.1483679628572951
 10
0.2579349103670569
 20
0.1482810771619926
  0
LWPOLYLINE
  5
EE2
330
2
100
AcDbEntity
  8
Profilo
  6
Continuous
370
     0
100
AcDbPolyline
 90
        6
 70
   128
 43
0.0
 10
0.2540259682696959
 20
0.1489001927683441
 10
0.2548726453369845
 20
0.1485627447444834
 10
0.2556806243349285
 20
0.1483476242100762
 10
0.2565542313718208
 20
0.1481802093640997
 10
0.2573711871834607
 20
0.1480217662007778
 10
0.2579988405842748
 20
0.1479514057424968
  0
LWPOLYLINE
  5
EE3
330
2
100
AcDbEntity
  8
Profilo
  6
Continuous
370
     0
100
AcDbPolyline
 90
        5
 70
   128
 43
0.0
 10
0.2537510823952189
 20
0.147897942587289
 10
0.2552685986385903
 20
0.1473961449172764
 10
0.2563494623381555
 20
0.1472540020095291
 10
0.2574213493769761
 20
0.1470551826964192
 10
0.2578268855700845
 20
0.1470490512321416
  0
LWPOLYLINE
  5
EE4
330
2
100
AcDbEntity
  8
Profilo
  6
Continuous
370
     0
100
AcDbPolyline
 90
        5
 70
   128
 43
0.0
 10
0.2537925705017123
 20
0.1474265772572169
 10
0.2552430631395914
 20
0.1470515934008482
 10
0.2564044157416756
 20
0.1468676532189481
 10
0.2572020228308673
 20
0.1467703737509018
 10
0.2577595592379129
 20
0.1466239695004118
  0
LWPOLYLINE
  5
EE5
330
2
100
AcDbEntity
  8
Profilo
  6
Continuous
370
     0
100
AcDbPolyline
 90
        5
 70
   128
 43
0.0
 10
0.2549124713912416
 20
0.1564650013770125
 10
0.2557441550926747
 20
0.156178081091022
 10
0.2568626262337581
 20
0.155948544666677
 10
0.2579524187573217
 20
0.155948544666677
 10
0.2588701389435428
 20
0.1560059285283226
  0
LWPOLYLINE
  5
EE6
330
2
100
AcDbEntity
  8
Profilo
  6
Continuous
370
     0
100
AcDbPolyline
 90
        6
 70
   128
 43
0.0
 10
0.2549124713912416
 20
0.1560059285283226
 10
0.2558015129599429
 20
0.1558050845236817
 10
0.256633196661376
 20
0.155719008242332
 10
0.257522237597847
 20
0.1556903168003906
 10
0.25835392129928
 20
0.1556616243806864
 10
0.258984854045849
 20
0.1556903168003906
  0
LWPOLYLINE
  5
EE7
330
2
100
AcDbEntity
  8
Profilo
  6
Continuous
370
     0
100
AcDbPolyline
 90
        5
 70
   128
 43
0.0
 10
0.2547977562889354
 20
0.1549730160854143
 10
0.2563750878392437
 20
0.154714788219127
 10
0.257464880362809
 20
0.1547434796610693
 10
0.2585546728863726
 20
0.154714788219127
 10
0.2589561754283309
 20
0.1547721720807726
  0
LWPOLYLINE
  5
EE8
330
2
100
AcDbEntity
  8
Profilo
  6
Continuous
370
     0
100
AcDbPolyline
 90
        5
 70
   128
 43
0.0
 10
0.2549124713912416
 20
0.1545139442144862
 10
0.2564037664567618
 20
0.1543704840714909
 10
0.2575795954651152
 20
0.1543704840714909
 10
0.2583826005490284
 20
0.1543991755134332
 10
0.2589561754283309
 20
0.1543417916517868
  0
LWPOLYLINE
  5
EE9
330
2
100
AcDbEntity
  8
Profilo
  6
Continuous
370
     0
100
AcDbPolyline
 90
        5
 70
   128
 43
0.0
 10
0.2546046634004622
 20
0.1636162814315141
 10
0.2554709919168783
 20
0.1634629976052769
 10
0.2566116002299701
 20
0.1634112545898286
 10
0.2576879755991612
 20
0.1635817357002571
 10
0.258585420313322
 20
0.1637819761377311
  0
LWPOLYLINE
  5
EEA
330
2
100
AcDbEntity
  8
Profilo
  6
Continuous
370
     0
100
AcDbPolyline
 90
        6
 70
   128
 43
0.0
 10
0.2546764782159627
 20
0.1631628605313796
 10
0.2555859931320956
 20
0.1631035659919153
 10
0.2564209027240896
 20
0.1631486534473406
 10
0.2573034864217245
 20
0.1632593918879553
 10
0.2581294192000207
 20
0.1633611567144676
 10
0.2587480956341803
 20
0.1634881955095581
  0
LWPOLYLINE
  5
EEB
330
2
100
AcDbEntity
  8
Profilo
  6
Continuous
370
     0
100
AcDbPolyline
 90
        5
 70
   128
 43
0.0
 10
0.2547247585523635
 20
0.1621247195590014
 10
0.2563230662719782
 20
0.1621164199235169
 10
0.2573949533107989
 20
0.1623152392366258
 10
0.2584758170103623
 20
0.1624573821443741
 10
0.2588633995760752
 20
0.1625768683508231
  0
LWPOLYLINE
  5
EEC
330
2
100
AcDbEntity
  8
Profilo
  6
Continuous
370
     0
100
AcDbPolyline
 90
        5
 70
   128
 43
0.0
 10
0.2549098759839445
 20
0.1616892450202523
 10
0.2564052528432725
 20
0.1617808410554676
 10
0.2575666054453549
 20
0.1619647812373676
 10
0.2583552358738039
 20
0.1621187371107758
 10
0.2589307259082467
 20
0.1621517866190933
  0
LWPOLYLINE
  5
EED
330
2
100
AcDbEntity
  8
Profilo
  6
Continuous
370
     0
100
AcDbPolyline
 90
        5
 70
   128
 43
0.0
 10
0.2531819383671507
 20
0.1706313655833029
 10
0.2540615798152963
 20
0.1706154925733421
 10
0.2551962397382628
 20
0.1707428170515544
 10
0.256232694019209
 20
0.1710795814616788
 10
0.2570877651939973
 20
0.1714177478908498
  0
LWPOLYLINE
  5
EEE
330
2
100
AcDbEntity
  8
Profilo
  6
Continuous
370
     0
100
AcDbPolyline
 90
        6
 70
   128
 43
0.0
 10
0.2533237996790518
 20
0.1701947613591026
 10
0.254231392666874
 20
0.1702784763131641
 10
0.2550489699043688
 20
0.1704536173025756
 10
0.2559033642234052
 20
0.1707010588778196
 10
0.2567032088724481
 20
0.1709307751627798
 10
0.2572943951271185
 20
0.1711530322165046
  0
LWPOLYLINE
  5
EEF
330
2
100
AcDbEntity
  8
Profilo
  6
Continuous
370
     0
100
AcDbPolyline
 90
        5
 70
   128
 43
0.0
 10
0.2535338866320451
 20
0.1691769543333878
 10
0.2551138148804295
 20
0.1694187872932756
 10
0.256141403018221
 20
0.1697828388862208
 10
0.2571867234423202
 20
0.1700923161135244
 10
0.257550842462706
 20
0.1702709625178226
  0
LWPOLYLINE
  5
EF0
330
2
100
AcDbEntity
  8
Profilo
  6
Continuous
370
     0
100
AcDbPolyline
 90
        5
 70
   128
 43
0.0
 10
0.253784848187367
 20
0.1687757999552181
 10
0.2552474856993516
 20
0.1691001967702673
 10
0.2563657655397939
 20
0.1694635479163271
 10
0.2571206026143162
 20
0.1697389773166471
 10
0.25768383732931
 20
0.1698616464063491
  0
LWPOLYLINE
  5
EF1
330
2
100
AcDbEntity
  8
Profilo
  6
Continuous
370
     0
100
AcDbPolyline
 90
        5
 70
   128
 43
0.0
 10
0.2506793285033773
 20
0.1773375191788331
 10
0.2515506231914379
 20
0.1774594478313321
 10
0.2526513956312559
 20
0.1777627046519871
 10
0.2536224078797638
 20
0.1782574601043729
 10
0.2544140508250408
 20
0.1787252257454456
  0
LWPOLYLINE
  5
EF2
330
2
100
AcDbEntity
  8
Profilo
  6
Continuous
370
     0
100
AcDbPolyline
 90
        6
 70
   128
 43
0.0
 10
0.2508877432153707
 20
0.1769284822755728
 10
0.2517710663233945
 20
0.1771531453831578
 10
0.2525511797414185
 20
0.1774540273541361
 10
0.2533563466581494
 20
0.1778320792312151
 10
0.2541104083481489
 20
0.1781840905973031
 10
0.2546595474557058
 20
0.1784960932033706
  0
LWPOLYLINE
  5
EF3
330
2
100
AcDbEntity
  8
Profilo
  6
Continuous
370
     0
100
AcDbPolyline
 90
        5
 70
   128
 43
0.0
 10
0.2512544637469354
 20
0.1759560709834019
 10
0.2527771094471323
 20
0.1764420818085936
 10
0.2537350960535747
 20
0.1769624015229374
 10
0.2547191339441479
 20
0.1774315927133643
 10
0.2550508236004845
 20
0.1776650004481434
  0
LWPOLYLINE
  5
EF4
330
2
100
AcDbEntity
  8
Profilo
  6
Continuous
370
     0
100
AcDbPolyline
 90
        5
 70
   128
 43
0.0
 10
0.2515650899196125
 20
0.1755991145179581
 10
0.2529589730944934
 20
0.1761483243866436
 10
0.2540066444122662
 20
0.1766821395857534
 10
0.2547091015389249
 20
0.1770722605270516
 10
0.2552462122265169
 20
0.1772815286780339
  0
LWPOLYLINE
  5
EF5
330
2
100
AcDbEntity
  8
Profilo
  6
Continuous
370
     0
100
AcDbPolyline
 90
        5
 70
   128
 43
0.0
 10
0.2471584563696769
 20
0.1835696144601348
 10
0.2479999501307688
 20
0.1838263424870121
 10
0.2490397304167171
 20
0.1842980644607321
 10
0.2499213910886233
 20
0.1849386284341421
 10
0.2506301129277623
 20
0.1855244753446084
  0
LWPOLYLINE
  5
EF6
330
2
100
AcDbEntity
  8
Profilo
  6
Continuous
370
     0
100
AcDbPolyline
 90
        6
 70
   128
 43
0.0
 10
0.2474282926198636
 20
0.1831982167238889
 10
0.2482655955015893
 20
0.1835582960336738
 10
0.2489890361187416
 20
0.1839775102735239
 10
0.249725149751482
 20
0.1844768635605416
 10
0.2504148609810404
 20
0.1849425023196656
 10
0.2509084313141692
 20
0.1853365679384373
  0
LWPOLYLINE
  5
EF7
330
2
100
AcDbEntity
  8
Profilo
  6
Continuous
370
     0
100
AcDbPolyline
 90
        5
 70
   128
 43
0.0
 10
0.2479426168534378
 20
0.1822951451585236
 10
0.2493704874149358
 20
0.1830133666495233
 10
0.2502352836804018
 20
0.1836771424870573
 10
0.2511338087587482
 20
0.1842944945963431
 10
0.2514249017508821
 20
0.1845769163885376
  0
LWPOLYLINE
  5
EF8
330
2
100
AcDbEntity
  8
Profilo
  6
Continuous
370
     0
100
AcDbPolyline
 90
        5
 70
   128
 43
0.0
 10
0.2483052589961883
 20
0.1819911760586541
 10
0.2495960658041678
 20
0.1827516756112859
 10
0.2505473314544044
 20
0.1834428105616131
 10
0.2511801118074182
 20
0.1839380169715776
 10
0.2516778730199149
 20
0.1842287313074423
  0
LWPOLYLINE
  5
EF9
330
2
100
AcDbEntity
  8
Profilo
  6
Continuous
370
     0
100
AcDbPolyline
 90
        5
 70
   128
 43
0.0
 10
0.2427060175230835
 20
0.1891741965582441
 10
0.2434969899880528
 20
0.1895594024634459
 10
0.2444501752786579
 20
0.1901879742296839
 10
0.2452207749621564
 20
0.1909585739131832
 10
0.2458291246113635
 20
0.1916480765977914
  0
LWPOLYLINE
  5
EFA
330
2
100
AcDbEntity
  8
Profilo
  6
Continuous
370
     0
100
AcDbPolyline
 90
        6
 70
   128
 43
0.0
 10
0.2430306310474498
 20
0.1888495830338769
 10
0.2438012965270779
 20
0.1893362121982201
 10
0.2444502508344044
 20
0.1898634362610639
 10
0.2450991856224949
 20
0.1904717952228359
 10
0.2457075634121217
 20
0.1910395958033801
 10
0.2461334116311526
 20
0.1915060212314936
  0
LWPOLYLINE
  5
EFB
330
2
100
AcDbEntity
  8
Profilo
  6
Continuous
370
     0
100
AcDbPolyline
 90
        5
 70
   128
 43
0.0
 10
0.2436798946134573
 20
0.1880380878143789
 10
0.2449778311242028
 20
0.1889708349744396
 10
0.2457281428945439
 20
0.1897617225710973
 10
0.2465190304912017
 20
0.1905120343414376
 10
0.2467623591435828
 20
0.1908365160292189
  0
LWPOLYLINE
  5
EFC
330
2
100
AcDbEntity
  8
Profilo
  6
Continuous
370
     0
100
AcDbPolyline
 90
        5
 70
   128
 43
0.0
 10
0.2440856232731878
 20
0.1877945908081389
 10
0.2452415697667103
 20
0.1887476540217776
 10
0.2460730064320327
 20
0.1895790906870991
 10
0.2466205288590348
 20
0.1901671889404216
 10
0.2470666840634088
 20
0.1905321911093926
  0
LWPOLYLINE
  5
EFD
330
2
100
AcDbEntity
  8
Profilo
  6
Continuous
370
     0
100
AcDbPolyline
 90
        5
 70
   128
 43
0.0
 10
0.2374316457847989
 20
0.1940132620613631
 10
0.2381526205864706
 20
0.1945174607970783
 10
0.2389957402964367
 20
0.1952874048328391
 10
0.2396363042698457
 20
0.1961690655047461
 10
0.2401293021417636
 20
0.1969452461190741
  0
LWPOLYLINE
  5
EFE
330
2
100
AcDbEntity
  8
Profilo
  6
Continuous
370
     0
100
AcDbPolyline
 90
        6
 70
   128
 43
0.0
 10
0.2378030435210441
 20
0.1937434258111754
 10
0.2384880952567752
 20
0.1943446224050211
 10
0.2390465838454734
 20
0.1949668742846761
 10
0.2395923608607386
 20
0.1956692591045359
 10
0.2401044249301645
 20
0.1963252403717848
 10
0.2404520652386353
 20
0.1968525406672221
  0
LWPOLYLINE
  5
EFF
330
2
100
AcDbEntity
  8
Profilo
  6
Continuous
370
     0
100
AcDbPolyline
 90
        5
 70
   128
 43
0.0
 10
0.238571259395707
 20
0.1930434886430473
 10
0.2397073023512028
 20
0.1941677941414766
 10
0.2403246544604887
 20
0.1950663192198239
 10
0.2409884302980227
 20
0.1959311154852898
 10
0.2411780030516688
 20
0.1962896672526126
  0
LWPOLYLINE
  5
F00
330
2
100
AcDbEntity
  8
Profilo
  6
Continuous
370
     0
100
AcDbPolyline
 90
        5
 70
   128
 43
0.0
 10
0.2390100841862797
 20
0.1928664594348509
 10
0.2400027071263082
 20
0.1939886187301411
 10
0.2406938420766345
 20
0.1949398843803768
 10
0.2411426247583517
 20
0.1956063935462728
 10
0.2415261881327648
 20
0.1960366959835799
  0
LWPOLYLINE
  5
F01
330
2
100
AcDbEntity
  8
Profilo
  6
Continuous
370
     0
100
AcDbPolyline
 90
        5
 70
   128
 43
0.0
 10
0.2314652136916546
 20
0.1979676571168689
 10
0.2320984380376334
 20
0.1985784336368844
 10
0.232810731761548
 20
0.1994707913647098
 10
0.2333054872139328
 20
0.2004418036132176
 10
0.2336709940647879
 20
0.2012855500145449
  0
LWPOLYLINE
  5
F02
330
2
100
AcDbEntity
  8
Profilo
  6
Continuous
370
     0
100
AcDbPolyline
 90
        6
 70
   128
 43
0.0
 10
0.2318742505949149
 20
0.1977592424048756
 10
0.2324568203394577
 20
0.1984602029728261
 10
0.2329110913669563
 20
0.1991621607628781
 10
0.233340271767954
 20
0.1999412763954791
 10
0.233743413400342
 20
0.2006692859135566
 10
0.2340042857401094
 20
0.2012444771930346
  0
LWPOLYLINE
  5
F03
330
2
100
AcDbEntity
  8
Profilo
  6
Continuous
370
     0
100
AcDbPolyline
 90
        5
 70
   128
 43
0.0
 10
0.2327425027538386
 20
0.1971880980641541
 10
0.2336886790062067
 20
0.1984762777682251
 10
0.2341578701966345
 20
0.1994603156587981
 10
0.2346781899109782
 20
0.2004183022652406
 10
0.2348093388555377
 20
0.2008020953776281
  0
LWPOLYLINE
  5
F04
330
2
100
AcDbEntity
  8
Profilo
  6
Continuous
370
     0
100
AcDbPolyline
 90
        5
 70
   128
 43
0.0
 10
0.2332036183525297
 20
0.1970818957006328
 10
0.2340084760679559
 20
0.1983455197914916
 10
0.2345422912670649
 20
0.1993931911092636
 10
0.2348812836844463
 20
0.2001216995200521
 10
0.2351928106256479
 20
0.2006067067515948
  0
LWPOLYLINE
  5
F05
330
2
100
AcDbEntity
  8
Profilo
  6
Continuous
370
     0
100
AcDbPolyline
 90
        5
 70
   128
 43
0.0
 10
0.2249536346032386
 20
0.2009400113946084
 10
0.2254835164085751
 20
0.2016423263539508
 10
0.2260474451109875
 20
0.2026351249650153
 10
0.226384209521111
 20
0.2036715792459616
 10
0.2266132253591858
 20
0.2045621155976536
  0
LWPOLYLINE
  5
F06
330
2
100
AcDbEntity
  8
Profilo
  6
Continuous
370
     0
100
AcDbPolyline
 90
        6
 70
   128
 43
0.0
 10
0.2253902388274387
 20
0.2007981500827071
 10
0.2258559817802457
 20
0.2015816146492261
 10
0.2261948495862089
 20
0.2023459938192204
 10
0.2264968655270945
 20
0.2031826558519508
 10
0.2267811580375092
 20
0.2039647676103969
 10
0.2269488388657805
 20
0.204573686755664
  0
LWPOLYLINE
  5
F07
330
2
100
AcDbEntity
  8
Profilo
  6
Continuous
370
     0
100
AcDbPolyline
 90
        5
 70
   128
 43
0.0
 10
0.2263371480209049
 20
0.2003698620385814
 10
0.2270701595706352
 20
0.2017901966887571
 10
0.2273796367979397
 20
0.2028355171128561
 10
0.2277436883908841
 20
0.2038631052506486
 10
0.227813184204086
 20
0.2042626894479371
  0
LWPOLYLINE
  5
F08
330
2
100
AcDbEntity
  8
Profilo
  6
Continuous
370
     0
100
AcDbPolyline
 90
        5
 70
   128
 43
0.0
 10
0.2268092002313242
 20
0.2003371015743911
 10
0.2274064744540211
 20
0.2017110758419733
 10
0.2277698256000811
 20
0.2028293556824156
 10
0.2279906806347593
 20
0.2036019250432432
 10
0.2282225003155585
 20
0.204129694581334
  0
LWPOLYLINE
  5
F09
330
2
100
AcDbEntity
  8
Profilo
  6
Continuous
370
     0
100
AcDbPolyline
 90
        5
 70
   128
 43
0.0
 10
0.2180572452073992
 20
0.2028571356675866
 10
0.218470737023468
 20
0.2036336957411066
 10
0.2188724149081533
 20
0.2047024892386978
 10
0.2190428960185819
 20
0.2057788646078901
 10
0.2191297817138834
 20
0.2066942629494471
  0
LWPOLYLINE
  5
F0A
330
2
100
AcDbEntity
  8
Profilo
  6
Continuous
370
     0
100
AcDbPolyline
 90
        6
 70
   128
 43
0.0
 10
0.2185106661075337
 20
0.2027853208520869
 10
0.2188481141313936
 20
0.2036319979193756
 10
0.2190632346657999
 20
0.2044399769173186
 10
0.2192306495117773
 20
0.2053135839542108
 10
0.2193890926750991
 20
0.2061305397658526
 10
0.2194594531333802
 20
0.2067581931666658
  0
LWPOLYLINE
  5
F0B
330
2
100
AcDbEntity
  8
Profilo
  6
Continuous
370
     0
100
AcDbPolyline
 90
        5
 70
   128
 43
0.0
 10
0.219512916288588
 20
0.2025104349776091
 10
0.2200147139585997
 20
0.2040279512209814
 10
0.2201568568663479
 20
0.2051088149205456
 10
0.2203556761794569
 20
0.2061807019593663
 10
0.2203618076437355
 20
0.2065862381524756
  0
LWPOLYLINE
  5
F0C
330
2
100
AcDbEntity
  8
Profilo
  6
Continuous
370
     0
100
AcDbPolyline
 90
        5
 70
   128
 43
0.0
 10
0.219984281618661
 20
0.2025519230841041
 10
0.2203592654750288
 20
0.2040024157219824
 10
0.220543205656929
 20
0.2051637683240656
 10
0.2206404851249744
 20
0.2059613754132574
 10
0.2207868893754643
 20
0.2065189118203031
  0
DIMENSION
  5
F0D
102
{ACAD_XDICTIONARY
360
F17
102
}
102
{ACAD_REACTORS
330
F1E
102
}
330
2
100
AcDbEntity
  8
Text
  6
ACAD_ISO10W100
100
AcDbDimension
  2
*D8
 10
0.1676678194389444
 20
0.1231386154304406
 30
0.0
 11
0.2692106270394052
 21
0.1949596782512033
 31
0.0
 70
    35
  1
d 435 mm
 71
     5
 42
0.1087499999999999
  3
Bovelacci
100
AcDbDiametricDimension
 15
0.2509836868545414
 25
0.1930315960278271
 35
0.0
 40
0.0
1001
ACAD
1000
DSTYLE
1002
{
1070
   288
1070
     1
1002
}
  0
ENDSEC
  0
SECTION
  2
OBJECTS
  0
DICTIONARY
  5
9
330
0
100
AcDbDictionary
281
     1
  3
ACAD_2007HEADERVARS_RT
350
208
  3
ACAD_COLOR
350
184
  3
ACAD_GROUP
350
17F
  3
ACAD_LAYOUT
350
164
  3
ACAD_MATERIAL
350
B
  3
ACAD_MLINESTYLE
350
180
  3
ACAD_PLOTSETTINGS
350
181
  3
ACAD_PLOTSTYLENAME
350
8
  3
ACAD_TABLESTYLE
350
185
  3
ACAD_VISUALSTYLE
350
17A
  3
ACDBHEADERROUNDTRIPXREC
350
F2F
  3
AcDbVariableDictionary
350
18B
  3
DWGPROPS
350
F2E
  0
DICTIONARY
  5
16E
330
16D
100
AcDbDictionary
280
     1
281
     1
  3
ACAD_LAYERSTATES
360
16F
  0
DICTIONARY
  5
3
330
2
100
AcDbDictionary
280
     1
281
     1
  3
ACAD_SORTENTS
360
18A
  0
DICTIONARY
  5
F30
330
18
100
AcDbDictionary
280
     1
281
     1
  3
ACAD_MTEXT_RT
360
F31
  0
DICTIONARY
  5
F17
330
F0D
100
AcDbDictionary
280
     1
281
     1
  3
ACAD_DIMASSOC
360
F1E
  0
DICTIONARY
  5
208
102
{ACAD_REACTORS
330
9
102
}
330
9
100
AcDbDictionary
281
     1
  3
DIMFXL
350
209
  0
DICTIONARY
  5
184
102
{ACAD_REACTORS
330
9
102
}
330
9
100
AcDbDictionary
281
     1
  0
DICTIONARY
  5
17F
102
{ACAD_REACTORS
330
9
102
}
330
9
100
AcDbDictionary
281
     1
  0
DICTIONARY
  5
164
102
{ACAD_REACTORS
330
9
102
}
330
9
100
AcDbDictionary
281
     1
  3
Layout1
350
168
  3
Layout2
350
16C
  3
Model
350
163
  0
DICTIONARY
  5
B
102
{ACAD_REACTORS
330
9
102
}
330
9
100
AcDbDictionary
281
     1
  3
ByBlock
350
183
  3
ByLayer
350
182
  3
Global
350
A
  0
DICTIONARY
  5
180
102
{ACAD_REACTORS
330
9
102
}
330
9
100
AcDbDictionary
281
     1
  3
Standard
350
186
  0
DICTIONARY
  5
181
102
{ACAD_REACTORS
330
9
102
}
330
9
100
AcDbDictionary
281
     1
  0
ACDBDICTIONARYWDFLT
  5
8
102
{ACAD_REACTORS
330
9
102
}
330
9
100
AcDbDictionary
281
     1
  3
Normal
350
7
100
AcDbDictionaryWithDefault
340
7
  0
DICTIONARY
  5
185
102
{ACAD_REACTORS
330
9
102
}
330
9
100
AcDbDictionary
281
     1
  3
Standard
350
187
  0
DICTIONARY
  5
17A
102
{ACAD_REACTORS
330
9
102
}
330
9
100
AcDbDictionary
281
     1
  3
2dWireframe
350
179
  3
3D Hidden
350
1BD
  3
3dWireframe
350
189
  3
Basic
350
1BC
  3
Brighten
350
1C0
  3
ColorChange
350
1C4
  3
Conceptual
350
1BE
  3
Dim
350
1BF
  3
Facepattern
350
1C3
  3
Flat
350
1B8
  3
FlatWithEdges
350
1B9
  3
Gouraud
350
1BA
  3
GouraudWithEdges
350
1BB
  3
Linepattern
350
1C2
  3
Realistic
350
188
  3
Thicken
350
1C1
  0
DICTIONARY
  5
F2F
102
{ACAD_REACTORS
330
9
102
}
330
9
100
AcDbDictionary
281
     1
  0
DICTIONARY
  5
18B
102
{ACAD_REACTORS
330
9
102
}
330
9
100
AcDbDictionary
281
     1
  3
CTABLESTYLE
350
18C
  3
DIMASSOC
350
190
  3
HIDETEXT
350
18F
  3
INDEXCTL
350
18E
  3
PROJECTNAME
350
2F9
  3
SORTENTS
350
18D
  0
XRECORD
  5
F2E
102
{ACAD_REACTORS
330
9
102
}
330
9
100
AcDbXrecord
280
     1
  1
DWGPROPS COOKIE
  2

  3

  4

  6

  7

  8
Mario
  9

300
=
301
=
302
=
303
=
304
=
305
=
306
=
307
=
308
=
309
=
 40
0.1292337615740741
 41
2454297.625402373
 42
2454311.549219653
  1

 90
        0
  0
DICTIONARY
  5
16F
102
{ACAD_REACTORS
330
16E
102
}
330
16E
100
AcDbDictionary
281
     1
  0
SORTENTSTABLE
  5
18A
102
{ACAD_REACTORS
330
3
102
}
330
3
100
AcDbSortentsTable
330
2
331
18
  5
1C
331
16
  5
12
331
14
  5
10
331
23
  5
24
331
12
  5
16
331
10
  5
14
331
21
  5
22
331
1F
  5
21
331
1D
  5
1E
331
15
  5
11
331
24
  5
18
331
13
  5
D
331
22
  5
23
331
11
  5
15
331
1E
  5
1F
331
D
  5
13
331
1C
  5
1D
  0
XRECORD
  5
F31
102
{ACAD_REACTORS
330
F30
102
}
330
F30
100
AcDbXrecord
280
     1
 40
7955300.0
  1
{\fTimes New Roman|b0|i0|c238|p18;\H1.6x;\C4;Bovelacci\P\pt0.09;\H0.4375x;\T0.95;via del Commercio, 5  47100 Forli - Italy  \fTimes New Roman|b0|i0|c0|p18;\P\fTimes New Roman|b0|i0|c238|p18;tel.+39-0543721386  fax +39-0543721127\fTimes New Roman|b0|i
  1
0|c0|p18; \fTimes New Roman|b0|i0|c238|p18;www.bovelacci.it\fTimes New Roman|b0|i0|c0|p18; \fTimes New Roman|b0|i0|c238|p18;e-mail: bovelacci@bovelacci\fTimes New Roman|b0|i0|c0|p18;.it}
  0
DIMASSOC
  5
F1E
102
{ACAD_REACTORS
330
F17
102
}
330
F17
100
AcDbDimAssoc
330
F0D
 90
        2
 70
     0
 71
     0
  1
AcDbOsnapPointRef
 72
     3
331
D33
 73
     2
 91
        0
 40
0.0
 10
0.0
 20
0.0
 30
0.0
 75
     0
  0
XRECORD
  5
209
102
{ACAD_REACTORS
330
208
102
}
330
208
100
AcDbXrecord
280
     1
 40
0.18
  0
LAYOUT
  5
168
102
{ACAD_XDICTIONARY
360
F34
102
}
102
{ACAD_REACTORS
330
164
102
}
330
164
100
AcDbPlotSettings
  1

  2
C:\Documents and Settings\All Users\Dati applicazioni\Autodesk\ADT 2006\enu\Plotters\Default Windows System Printer.pc3
  4

  6

 40
0.0
 41
0.0
 42
0.0
 43
0.0
 44
0.0
 45
0.0
 46
0.0
 47
0.0
 48
0.0
 49
0.0
140
0.0
141
0.0
142
1.0
143
1.0
 70
   688
 72
     0
 73
     0
 74
     5
  7

 75
    16
147
1.0
148
0.0
149
0.0
100
AcDbLayout
  1
Layout1
 70
     1
 71
     1
 10
0.0
 20
0.0
 11
420.0
 21
297.0
 12
0.0
 22
0.0
 32
0.0
 14
1.000000000000000E+20
 24
1.000000000000000E+20
 34
1.000000000000000E+20
 15
-1.000000000000000E+20
 25
-1.000000000000000E+20
 35
-1.000000000000000E+20
146
0.0
 13
0.0
 23
0.0
 33
0.0
 16
1.0
 26
0.0
 36
0.0
 17
0.0
 27
1.0
 37
0.0
 76
     0
330
165
  0
LAYOUT
  5
16C
102
{ACAD_XDICTIONARY
360
F36
102
}
102
{ACAD_REACTORS
330
164
102
}
330
164
100
AcDbPlotSettings
  1

  2
C:\Documents and Settings\All Users\Dati applicazioni\Autodesk\ADT 2006\enu\Plotters\Default Windows System Printer.pc3
  4

  6

 40
0.0
 41
0.0
 42
0.0
 43
0.0
 44
0.0
 45
0.0
 46
0.0
 47
0.0
 48
0.0
 49
0.0
140
0.0
141
0.0
142
1.0
143
1.0
 70
   688
 72
     0
 73
     0
 74
     5
  7

 75
    16
147
1.0
148
0.0
149
0.0
100
AcDbLayout
  1
Layout2
 70
     1
 71
     2
 10
0.0
 20
0.0
 11
12.0
 21
9.0
 12
0.0
 22
0.0
 32
0.0
 14
0.0
 24
0.0
 34
0.0
 15
0.0
 25
0.0
 35
0.0
146
0.0
 13
0.0
 23
0.0
 33
0.0
 16
1.0
 26
0.0
 36
0.0
 17
0.0
 27
1.0
 37
0.0
 76
     0
330
169
  0
LAYOUT
  5
163
102
{ACAD_XDICTIONARY
360
F32
102
}
102
{ACAD_REACTORS
330
164
102
}
330
164
100
AcDbPlotSettings
  1

  2
C:\Documents and Settings\All Users\Dati applicazioni\Autodesk\ADT 2006\enu\Plotters\Default Windows System Printer.pc3
  4

  6

 40
0.0
 41
0.0
 42
0.0
 43
0.0
 44
0.0
 45
0.0
 46
0.0
 47
0.0
 48
0.0
 49
0.0
140
0.0
141
0.0
142
1.0
143
1.0
 70
  1712
 72
     0
 73
     0
 74
     0
  7

 75
     0
147
1.0
148
0.0
149
0.0
100
AcDbLayout
  1
Model
 70
     1
 71
     0
 10
0.0
 20
0.0
 11
12.0
 21
9.0
 12
0.0
 22
0.0
 32
0.0
 14
0.0
 24
0.0
 34
0.0
 15
0.0
 25
0.0
 35
0.0
146
0.0
 13
0.0
 23
0.0
 33
0.0
 16
1.0
 26
0.0
 36
0.0
 17
0.0
 27
1.0
 37
0.0
 76
     0
330
2
  0
MATERIAL
  5
183
102
{ACAD_XDICTIONARY
360
1B0
102
}
102
{ACAD_REACTORS
330
B
102
}
330
B
100
AcDbMaterial
  1
ByBlock
  0
MATERIAL
  5
182
102
{ACAD_XDICTIONARY
360
1AE
102
}
102
{ACAD_REACTORS
330
B
102
}
330
B
100
AcDbMaterial
  1
ByLayer
  0
MATERIAL
  5
A
102
{ACAD_XDICTIONARY
360
193
102
}
102
{ACAD_REACTORS
330
B
102
}
330
B
100
AcDbMaterial
  1
Global
  0
MLINESTYLE
  5
186
102
{ACAD_REACTORS
330
180
102
}
330
180
100
AcDbMlineStyle
  2
STANDARD
 70
     0
  3

 62
   256
 51
90.0
 52
90.0
 71
     2
 49
0.5
 62
   256
  6
BYLAYER
 49
-0.5
 62
   256
  6
BYLAYER
  0
ACDBPLACEHOLDER
  5
7
102
{ACAD_REACTORS
330
8
102
}
330
8
  0
TABLESTYLE
  5
187
102
{ACAD_XDICTIONARY
360
21A
102
}
102
{ACAD_REACTORS
330
185
102
}
330
185
100
AcDbTableStyle
  3
Standard
 70
     0
 71
     0
 40
1.5
 41
1.5
280
     0
281
     0
  7
Standard
140
4.5
170
     2
 62
     0
 63
     7
283
     0
274
    -2
284
     1
 64
     0
275
    -2
285
     1
 65
     0
276
    -2
286
     1
 66
     0
277
    -2
287
     1
 67
     0
278
    -2
288
     1
 68
     0
279
    -2
289
     1
 69
     0
  7
Standard
140
6.0
170
     5
 62
     0
 63
     7
283
     0
274
    -2
284
     1
 64
     0
275
    -2
285
     1
 65
     0
276
    -2
286
     1
 66
     0
277
    -2
287
     1
 67
     0
278
    -2
288
     1
 68
     0
279
    -2
289
     1
 69
     0
  7
Standard
140
4.5
170
     5
 62
     0
 63
     7
283
     0
274
    -2
284
     1
 64
     0
275
    -2
285
     1
 65
     0
276
    -2
286
     1
 66
     0
277
    -2
287
     1
 67
     0
278
    -2
288
     1
 68
     0
279
    -2
289
     1
 69
     0
  0
VISUALSTYLE
  5
179
102
{ACAD_REACTORS
330
17A
102
}
330
17A
100
AcDbVisualStyle
  2
2dWireframe
 70
     4
 71
     0
 72
     2
 73
     0
 90
        0
 40
-0.6
 41
-30.0
 62
     5
 63
     7
 74
     1
 91
        4
 64
     7
 65
   257
 75
     1
175
     1
 42
1.0
 92
        0
 66
   257
 43
1.0
 76
     1
 77
     6
 78
     2
 67
     7
 79
     5
170
     0
171
     0
290
     0
174
     0
 93
        1
 44
0.0
173
     0
291
     0
 45
0.0
1001
ACAD
1000
AcDbSavedByObjectVersion
1070
     0
1000
AcDbSavedByObjectVersion
1070
     0
1000
AcDbSavedByObjectVersion
1070
     0
1001
ACAD
1000
AcRTDxfName
1000
VISUALSTYLE
  0
VISUALSTYLE
  5
1BD
102
{ACAD_REACTORS
330
17A
102
}
330
17A
100
AcDbVisualStyle
  2
3D Hidden
 70
     6
 71
     1
 72
     2
 73
     2
 90
        0
 40
-0.6
 41
-30.0
 62
     5
 63
     7
 74
     2
 91
        2
 64
     7
 65
   257
 75
     2
175
     1
 42
40.0
 92
        0
 66
   257
 43
1.0
 76
     1
 77
     6
 78
     2
 67
     7
 79
     3
170
     0
171
     0
290
     0
174
     0
 93
        1
 44
0.0
173
     0
291
     0
 45
0.0
1001
ACAD
1000
AcDbSavedByObjectVersion
1070
     0
1000
AcDbSavedByObjectVersion
1070
     0
1001
ACAD
1000
AcRTDxfName
1000
VISUALSTYLE
  0
VISUALSTYLE
  5
189
102
{ACAD_REACTORS
330
17A
102
}
330
17A
100
AcDbVisualStyle
  2
3dWireframe
 70
     5
 71
     0
 72
     2
 73
     0
 90
        0
 40
-0.6
 41
-30.0
 62
     5
 63
     7
 74
     1
 91
        4
 64
     7
 65
   257
 75
     1
175
     1
 42
1.0
 92
        0
 66
   257
 43
1.0
 76
     1
 77
     6
 78
     2
 67
     7
 79
     5
170
     0
171
     0
290
     0
174
     0
 93
        1
 44
0.0
173
     0
291
     0
 45
0.0
1001
ACAD
1000
AcDbSavedByObjectVersion
1070
     0
1000
AcDbSavedByObjectVersion
1070
     0
1000
AcDbSavedByObjectVersion
1070
     0
1001
ACAD
1000
AcRTDxfName
1000
VISUALSTYLE
  0
VISUALSTYLE
  5
1BC
102
{ACAD_REACTORS
330
17A
102
}
330
17A
100
AcDbVisualStyle
  2
Basic
 70
     7
 71
     1
 72
     0
 73
     1
 90
        0
 40
-0.6
 41
-30.0
 62
     5
 63
     7
 74
     0
 91
        4
 64
     7
 65
   257
 75
     1
175
     1
 42
1.0
 92
        8
 66
     7
 43
1.0
 76
     1
 77
     6
 78
     2
 67
     7
 79
     5
170
     0
171
     0
290
     0
174
     0
 93
        1
 44
0.0
173
     0
291
     1
 45
0.0
1001
ACAD
1000
AcDbSavedByObjectVersion
1070
     0
1000
AcDbSavedByObjectVersion
1070
     0
1001
ACAD
1000
AcRTDxfName
1000
VISUALSTYLE
  0
VISUALSTYLE
  5
1C0
102
{ACAD_REACTORS
330
17A
102
}
330
17A
100
AcDbVisualStyle
  2
Brighten
 70
    12
 71
     2
 72
     2
 73
     0
 90
        0
 40
-0.6
 41
-30.0
 62
     5
 63
     7
 74
     1
 91
        4
 64
     7
 65
   257
 75
     1
175
     1
 42
1.0
 92
        8
 66
     7
 43
1.0
 76
     1
 77
     6
 78
     2
 67
     7
 79
     5
170
     0
171
     0
290
     0
174
     0
 93
        1
 44
50.0
173
     0
291
     1
 45
0.0
1001
ACAD
1000
AcDbSavedByObjectVersion
1070
     0
1000
AcDbSavedByObjectVersion
1070
     0
1001
ACAD
1000
AcRTDxfName
1000
VISUALSTYLE
  0
VISUALSTYLE
  5
1C4
102
{ACAD_REACTORS
330
17A
102
}
330
17A
100
AcDbVisualStyle
  2
ColorChange
 70
    16
 71
     2
 72
     2
 73
     3
 90
        0
 40
-0.6
 41
-30.0
 62
     5
 63
     8
 74
     1
 91
        4
 64
     7
 65
   257
 75
     1
175
     1
 42
1.0
 92
        8
 66
     8
 43
1.0
 76
     1
 77
     6
 78
     2
 67
     7
 79
     5
170
     0
171
     0
290
     0
174
     0
 93
        1
 44
0.0
173
     0
291
     1
 45
0.0
1001
ACAD
1000
AcDbSavedByObjectVersion
1070
     0
1000
AcDbSavedByObjectVersion
1070
     0
1001
ACAD
1000
AcRTDxfName
1000
VISUALSTYLE
  0
VISUALSTYLE
  5
1BE
102
{ACAD_REACTORS
330
17A
102
}
330
17A
100
AcDbVisualStyle
  2
Conceptual
 70
     9
 71
     3
 72
     2
 73
     0
 90
        0
 40
-0.6
 41
-30.0
 62
     5
 63
     7
 74
     2
 91
        2
 64
     7
 65
   257
 75
     1
175
     1
 42
40.0
 92
        8
 66
     7
 43
1.0
 76
     1
 77
     6
 78
     2
 67
     7
 79
     3
170
     0
171
     0
290
     0
174
     0
 93
        1
 44
0.0
173
     0
291
     0
 45
0.0
1001
ACAD
1000
AcDbSavedByObjectVersion
1070
     0
1000
AcDbSavedByObjectVersion
1070
     0
1001
ACAD
1000
AcRTDxfName
1000
VISUALSTYLE
  0
VISUALSTYLE
  5
1BF
102
{ACAD_REACTORS
330
17A
102
}
330
17A
100
AcDbVisualStyle
  2
Dim
 70
    11
 71
     2
 72
     2
 73
     0
 90
        0
 40
-0.6
 41
-30.0
 62
     5
 63
     7
 74
     1
 91
        4
 64
     7
 65
   257
 75
     1
175
     1
 42
1.0
 92
        8
 66
     7
 43
1.0
 76
     1
 77
     6
 78
     2
 67
     7
 79
     5
170
     0
171
     0
290
     0
174
     0
 93
        1
 44
-50.0
173
     0
291
     1
 45
0.0
1001
ACAD
1000
AcDbSavedByObjectVersion
1070
     0
1000
AcDbSavedByObjectVersion
1070
     0
1001
ACAD
1000
AcRTDxfName
1000
VISUALSTYLE
  0
VISUALSTYLE
  5
1C3
102
{ACAD_REACTORS
330
17A
102
}
330
17A
100
AcDbVisualStyle
  2
Facepattern
 70
    15
 71
     2
 72
     2
 73
     0
 90
        0
 40
-0.6
 41
-30.0
 62
     5
 63
     7
 74
     1
 91
        4
 64
     7
 65
   257
 75
     1
175
     1
 42
1.0
 92
        8
 66
     7
 43
1.0
 76
     1
 77
     6
 78
     2
 67
     7
 79
     5
170
     0
171
     0
290
     0
174
     0
 93
        1
 44
0.0
173
     0
291
     1
 45
0.0
1001
ACAD
1000
AcDbSavedByObjectVersion
1070
     0
1000
AcDbSavedByObjectVersion
1070
     0
1001
ACAD
1000
AcRTDxfName
1000
VISUALSTYLE
  0
VISUALSTYLE
  5
1B8
102
{ACAD_REACTORS
330
17A
102
}
330
17A
100
AcDbVisualStyle
  2
Flat
 70
     0
 71
     2
 72
     1
 73
     1
 90
        2
 40
-0.6
 41
30.0
 62
     5
 63
     7
 74
     0
 91
        4
 64
     7
 65
   257
 75
     1
175
     1
 42
1.0
 92
        8
 66
     7
 43
1.0
 76
     1
 77
     6
 78
     2
 67
     7
 79
     5
170
     0
171
     0
290
     0
174
     0
 93
       13
 44
0.0
173
     0
291
     1
 45
0.0
1001
ACAD
1000
AcDbSavedByObjectVersion
1070
     0
1000
AcDbSavedByObjectVersion
1070
     0
1001
ACAD
1000
AcRTDxfName
1000
VISUALSTYLE
  0
VISUALSTYLE
  5
1B9
102
{ACAD_REACTORS
330
17A
102
}
330
17A
100
AcDbVisualStyle
  2
FlatWithEdges
 70
     1
 71
     2
 72
     1
 73
     1
 90
        2
 40
-0.6
 41
30.0
 62
     5
 63
     7
 74
     1
 91
        4
 64
     7
 65
   257
 75
     1
175
     1
 42
1.0
 92
        0
 66
   257
 43
1.0
 76
     1
 77
     6
 78
     2
 67
     7
 79
     5
170
     0
171
     0
290
     0
174
     0
 93
       13
 44
0.0
173
     0
291
     1
 45
0.0
1001
ACAD
1000
AcDbSavedByObjectVersion
1070
     0
1000
AcDbSavedByObjectVersion
1070
     0
1001
ACAD
1000
AcRTDxfName
1000
VISUALSTYLE
  0
VISUALSTYLE
  5
1BA
102
{ACAD_REACTORS
330
17A
102
}
330
17A
100
AcDbVisualStyle
  2
Gouraud
 70
     2
 71
     2
 72
     2
 73
     1
 90
        2
 40
-0.6
 41
30.0
 62
     5
 63
     7
 74
     0
 91
        4
 64
     7
 65
   257
 75
     1
175
     1
 42
1.0
 92
        0
 66
     7
 43
1.0
 76
     1
 77
     6
 78
     2
 67
     7
 79
     5
170
     0
171
     0
290
     0
174
     0
 93
       13
 44
0.0
173
     0
291
     1
 45
0.0
1001
ACAD
1000
AcDbSavedByObjectVersion
1070
     0
1000
AcDbSavedByObjectVersion
1070
     0
1001
ACAD
1000
AcRTDxfName
1000
VISUALSTYLE
  0
VISUALSTYLE
  5
1BB
102
{ACAD_REACTORS
330
17A
102
}
330
17A
100
AcDbVisualStyle
  2
GouraudWithEdges
 70
     3
 71
     2
 72
     2
 73
     1
 90
        2
 40
-0.6
 41
30.0
 62
     5
 63
     7
 74
     1
 91
        4
 64
     7
 65
   257
 75
     1
175
     1
 42
1.0
 92
        0
 66
   257
 43
1.0
 76
     1
 77
     6
 78
     2
 67
     7
 79
     5
170
     0
171
     0
290
     0
174
     0
 93
       13
 44
0.0
173
     0
291
     1
 45
0.0
1001
ACAD
1000
AcDbSavedByObjectVersion
1070
     0
1000
AcDbSavedByObjectVersion
1070
     0
1001
ACAD
1000
AcRTDxfName
1000
VISUALSTYLE
  0
VISUALSTYLE
  5
1C2
102
{ACAD_REACTORS
330
17A
102
}
330
17A
100
AcDbVisualStyle
  2
Linepattern
 70
    14
 71
     2
 72
     2
 73
     0
 90
        0
 40
-0.6
 41
-30.0
 62
     5
 63
     7
 74
     1
 91
        4
 64
     7
 65
   257
 75
     7
175
     7
 42
1.0
 92
        8
 66
     7
 43
1.0
 76
     1
 77
     6
 78
     2
 67
     7
 79
     5
170
     0
171
     0
290
     0
174
     0
 93
        1
 44
0.0
173
     0
291
     1
 45
0.0
1001
ACAD
1000
AcDbSavedByObjectVersion
1070
     0
1000
AcDbSavedByObjectVersion
1070
     0
1001
ACAD
1000
AcRTDxfName
1000
VISUALSTYLE
  0
VISUALSTYLE
  5
188
102
{ACAD_REACTORS
330
17A
102
}
330
17A
100
AcDbVisualStyle
  2
Realistic
 70
     8
 71
     2
 72
     2
 73
     0
 90
        0
 40
-0.6
 41
-30.0
 62
     5
 63
     7
 74
     1
 91
        0
 64
     7
 65
   257
 75
     1
175
     1
 42
1.0
 92
        8
 66
     8
 43
1.0
 76
     1
 77
     6
 78
     2
 67
     7
 79
     5
170
     0
171
     0
290
     0
174
     0
 93
       13
 44
0.0
173
     0
291
     0
 45
0.0
1001
ACAD
1000
AcDbSavedByObjectVersion
1070
     0
1000
AcDbSavedByObjectVersion
1070
     0
1000
AcDbSavedByObjectVersion
1070
     0
1001
ACAD
1000
AcRTDxfName
1000
VISUALSTYLE
  0
VISUALSTYLE
  5
1C1
102
{ACAD_REACTORS
330
17A
102
}
330
17A
100
AcDbVisualStyle
  2
Thicken
 70
    13
 71
     2
 72
     2
 73
     0
 90
        0
 40
-0.6
 41
-30.0
 62
     5
 63
     7
 74
     1
 91
        4
 64
     7
 65
   257
 75
     1
175
     1
 42
1.0
 92
       12
 66
     7
 43
1.0
 76
     1
 77
     6
 78
     2
 67
     7
 79
     5
170
     0
171
     0
290
     0
174
     0
 93
        1
 44
0.0
173
     0
291
     1
 45
0.0
1001
ACAD
1000
AcDbSavedByObjectVersion
1070
     0
1000
AcDbSavedByObjectVersion
1070
     0
1001
ACAD
1000
AcRTDxfName
1000
VISUALSTYLE
  0
DICTIONARYVAR
  5
18C
102
{ACAD_REACTORS
330
18B
102
}
330
18B
100
DictionaryVariables
280
     0
  1
STANDARD
  0
DICTIONARYVAR
  5
190
102
{ACAD_REACTORS
330
18B
102
}
330
18B
100
DictionaryVariables
280
     0
  1
2
  0
DICTIONARYVAR
  5
18F
102
{ACAD_REACTORS
330
18B
102
}
330
18B
100
DictionaryVariables
280
     0
  1
1
  0
DICTIONARYVAR
  5
18E
102
{ACAD_REACTORS
330
18B
102
}
330
18B
100
DictionaryVariables
280
     0
  1
0
  0
DICTIONARYVAR
  5
2F9
102
{ACAD_REACTORS
330
18B
102
}
330
18B
100
DictionaryVariables
280
     0
  1

  0
DICTIONARYVAR
  5
18D
102
{ACAD_REACTORS
330
18B
102
}
330
18B
100
DictionaryVariables
280
     0
  1
127
  0
DICTIONARY
  5
F34
330
168
100
AcDbDictionary
280
     1
281
     1
  3
ACAD_XREC_ROUNDTRIP
360
F35
  0
DICTIONARY
  5
F36
330
16C
100
AcDbDictionary
280
     1
281
     1
  3
ACAD_XREC_ROUNDTRIP
360
F37
  0
DICTIONARY
  5
F32
330
163
100
AcDbDictionary
280
     1
281
     1
  3
ACAD_XREC_ROUNDTRIP
360
F33
  0
DICTIONARY
  5
1B0
330
183
100
AcDbDictionary
280
     1
281
     1
  3
ACAD_XREC_ROUNDTRIP
360
1B1
  0
DICTIONARY
  5
1AE
330
182
100
AcDbDictionary
280
     1
281
     1
  3
ACAD_XREC_ROUNDTRIP
360
1AF
  0
DICTIONARY
  5
193
330
A
100
AcDbDictionary
280
     1
281
     1
  3
ACAD_XREC_ROUNDTRIP
360
194
  0
DICTIONARY
  5
21A
330
187
100
AcDbDictionary
280
     1
281
     1
  3
ACAD_XREC_ROUNDTRIP
360
21B
  0
XRECORD
  5
F35
102
{ACAD_REACTORS
330
F34
102
}
330
F34
100
AcDbXrecord
280
     1
102
SHADEPLOT
 70
     0
102
SHADEPLOTRESLEVEL
 70
     2
102
SHADEPLOTCUSTOMDPI
 70
   300
  0
XRECORD
  5
F37
102
{ACAD_REACTORS
330
F36
102
}
330
F36
100
AcDbXrecord
280
     1
102
SHADEPLOT
 70
     0
102
SHADEPLOTRESLEVEL
 70
     2
102
SHADEPLOTCUSTOMDPI
 70
   300
  0
XRECORD
  5
F33
102
{ACAD_REACTORS
330
F32
102
}
330
F32
100
AcDbXrecord
280
     1
102
SHADEPLOT
 70
     0
102
SHADEPLOTRESLEVEL
 70
     2
102
SHADEPLOTCUSTOMDPI
 70
   300
  0
XRECORD
  5
1B1
102
{ACAD_REACTORS
330
1B0
102
}
330
1B0
100
AcDbXrecord
280
     1
102
MATERIAL
148
0.0
149
0.0
149
0.0
 93
        0
 94
       63
282
     0
 72
     1
 77
     1
171
     1
175
     1
179
     1
273
     0
  0
XRECORD
  5
1AF
102
{ACAD_REACTORS
330
1AE
102
}
330
1AE
100
AcDbXrecord
280
     1
102
MATERIAL
148
0.0
149
0.0
149
0.0
 93
        0
 94
       63
282
     0
 72
     1
 77
     1
171
     1
175
     1
179
     1
273
     0
  0
XRECORD
  5
194
102
{ACAD_REACTORS
330
193
102
}
330
193
100
AcDbXrecord
280
     1
102
MATERIAL
148
0.0
149
0.0
149
0.0
 93
        0
 94
       63
282
     0
 72
     1
 77
     1
171
     1
175
     1
179
     1
273
     0
  0
XRECORD
  5
21B
102
{ACAD_REACTORS
330
21A
102
}
330
21A
100
AcDbXrecord
280
     1
102
ACAD_ROUNDTRIP_PRE2007_TABLESTYLE
 90
        4
 91
        0
  1

 92
        4
 93
        0
  2

 94
        4
 95
        0
  3

  0
ENDSEC
  0
EOF
