  0
SECTION
  2
HEADER
  9
$ACADVER
  1
AC1015
  9
$ACADMAINTVER
 70
    20
  9
$DWGCODEPAGE
  3
ANSI_1252
  9
$INSBASE
 10
0.0
 20
0.0
 30
0.0
  9
$EXTMIN
 10
0.0149999999999999
 20
0.015
 30
0.0
  9
$EXTMAX
 10
1.06620131254924
 20
0.6077505006835788
 30
0.0
  9
$LIMMIN
 10
0.0
 20
0.0
  9
$LIMMAX
 10
1.0
 20
0.5
  9
$ORTHOMODE
 70
     0
  9
$REGENMODE
 70
     1
  9
$FILLMODE
 70
     1
  9
$QTEXTMODE
 70
     0
  9
$MIRRTEXT
 70
     0
  9
$LTSCALE
 40
1.0
  9
$ATTMODE
 70
     1
  9
$TEXTSIZE
 40
0.008
  9
$TRACEWID
 40
1.0
  9
$TEXTSTYLE
  7
style1
  9
$CLAYER
  8
Text
  9
$CELTYPE
  6
ACAD_ISO10W100
  9
$CECOLOR
 62
   256
  9
$CELTSCALE
 40
1.0
  9
$DISPSILH
 70
     0
  9
$DIMSCALE
 40
0.001
  9
$DIMASZ
 40
1.5
  9
$DIMEXO
 40
0.0625
  9
$DIMDLI
 40
0.38
  9
$DIMRND
 40
0.0
  9
$DIMDLE
 40
0.0
  9
$DIMEXE
 40
0.18
  9
$DIMTP
 40
0.0
  9
$DIMTM
 40
0.0
  9
$DIMTXT
 40
3.0
  9
$DIMCEN
 40
0.0
  9
$DIMTSZ
 40
0.0
  9
$DIMTOL
 70
     0
  9
$DIMLIM
 70
     0
  9
$DIMTIH
 70
     1
  9
$DIMTOH
 70
     1
  9
$DIMSE1
 70
     0
  9
$DIMSE2
 70
     0
  9
$DIMTAD
 70
     0
  9
$DIMZIN
 70
     0
  9
$DIMBLK
  1
ArchTick
  9
$DIMASO
 70
     1
  9
$DIMSHO
 70
     1
  9
$DIMPOST
  1

  9
$DIMAPOST
  1

  9
$DIMALT
 70
     0
  9
$DIMALTD
 70
     2
  9
$DIMALTF
 40
25.4
  9
$DIMLFAC
 40
1.0
  9
$DIMTOFL
 70
     0
  9
$DIMTVP
 40
0.0
  9
$DIMTIX
 70
     0
  9
$DIMSOXD
 70
     0
  9
$DIMSAH
 70
     0
  9
$DIMBLK1
  1

  9
$DIMBLK2
  1

  9
$DIMSTYLE
  2
Bovelacci
  9
$DIMCLRD
 70
     5
  9
$DIMCLRE
 70
     5
  9
$DIMCLRT
 70
     4
  9
$DIMTFAC
 40
1.0
  9
$DIMGAP
 40
2.0
  9
$DIMJUST
 70
     0
  9
$DIMSD1
 70
     0
  9
$DIMSD2
 70
     0
  9
$DIMTOLJ
 70
     1
  9
$DIMTZIN
 70
     0
  9
$DIMALTZ
 70
     0
  9
$DIMALTTZ
 70
     0
  9
$DIMUPT
 70
     0
  9
$DIMDEC
 70
     2
  9
$DIMTDEC
 70
     2
  9
$DIMALTU
 70
     2
  9
$DIMALTTD
 70
     2
  9
$DIMTXSTY
  7
ROMANS
  9
$DIMAUNIT
 70
     0
  9
$DIMADEC
 70
     0
  9
$DIMALTRND
 40
0.0
  9
$DIMAZIN
 70
     0
  9
$DIMDSEP
 70
    46
  9
$DIMATFIT
 70
     3
  9
$DIMFRAC
 70
     0
  9
$DIMLDRBLK
  1

  9
$DIMLUNIT
 70
     2
  9
$DIMLWD
 70
    -2
  9
$DIMLWE
 70
    -2
  9
$DIMTMOVE
 70
     2
  9
$LUNITS
 70
     2
  9
$LUPREC
 70
     2
  9
$SKETCHINC
 40
1.0
  9
$FILLETRAD
 40
0.0
  9
$AUNITS
 70
     0
  9
$AUPREC
 70
     0
  9
$MENU
  1
.
  9
$ELEVATION
 40
0.0
  9
$PELEVATION
 40
0.0
  9
$THICKNESS
 40
0.0
  9
$LIMCHECK
 70
     0
  9
$CHAMFERA
 40
0.0
  9
$CHAMFERB
 40
0.0
  9
$CHAMFERC
 40
0.0
  9
$CHAMFERD
 40
0.0
  9
$SKPOLY
 70
     0
  9
$TDCREATE
 40
2454297.625402373
  9
$TDUCREATE
 40
2454297.542069039
  9
$TDUPDATE
 40
2454311.597018762
  9
$TDUUPDATE
 40
2454311.513685428
  9
$TDINDWG
 40
0.1745699537
  9
$TDUSRTIMER
 40
0.1745679514
  9
$USRTIMER
 70
     1
  9
$ANGBASE
 50
0.0
  9
$ANGDIR
 70
     0
  9
$PDMODE
 70
     0
  9
$PDSIZE
 40
0.0
  9
$PLINEWID
 40
0.0
  9
$SPLFRAME
 70
     0
  9
$SPLINETYPE
 70
     6
  9
$SPLINESEGS
 70
     8
  9
$HANDSEED
  5
1DBE
  9
$SURFTAB1
 70
     6
  9
$SURFTAB2
 70
     6
  9
$SURFTYPE
 70
     6
  9
$SURFU
 70
     6
  9
$SURFV
 70
     6
  9
$UCSBASE
  2

  9
$UCSNAME
  2

  9
$UCSORG
 10
0.0
 20
0.0
 30
0.0
  9
$UCSXDIR
 10
1.0
 20
0.0
 30
0.0
  9
$UCSYDIR
 10
0.0
 20
1.0
 30
0.0
  9
$UCSORTHOREF
  2

  9
$UCSORTHOVIEW
 70
     0
  9
$UCSORGTOP
 10
0.0
 20
0.0
 30
0.0
  9
$UCSORGBOTTOM
 10
0.0
 20
0.0
 30
0.0
  9
$UCSORGLEFT
 10
0.0
 20
0.0
 30
0.0
  9
$UCSORGRIGHT
 10
0.0
 20
0.0
 30
0.0
  9
$UCSORGFRONT
 10
0.0
 20
0.0
 30
0.0
  9
$UCSORGBACK
 10
0.0
 20
0.0
 30
0.0
  9
$PUCSBASE
  2

  9
$PUCSNAME
  2

  9
$PUCSORG
 10
0.0
 20
0.0
 30
0.0
  9
$PUCSXDIR
 10
1.0
 20
0.0
 30
0.0
  9
$PUCSYDIR
 10
0.0
 20
1.0
 30
0.0
  9
$PUCSORTHOREF
  2

  9
$PUCSORTHOVIEW
 70
     0
  9
$PUCSORGTOP
 10
0.0
 20
0.0
 30
0.0
  9
$PUCSORGBOTTOM
 10
0.0
 20
0.0
 30
0.0
  9
$PUCSORGLEFT
 10
0.0
 20
0.0
 30
0.0
  9
$PUCSORGRIGHT
 10
0.0
 20
0.0
 30
0.0
  9
$PUCSORGFRONT
 10
0.0
 20
0.0
 30
0.0
  9
$PUCSORGBACK
 10
0.0
 20
0.0
 30
0.0
  9
$USERI1
 70
     0
  9
$USERI2
 70
     0
  9
$USERI3
 70
     0
  9
$USERI4
 70
     0
  9
$USERI5
 70
     0
  9
$USERR1
 40
0.0
  9
$USERR2
 40
0.0
  9
$USERR3
 40
0.0
  9
$USERR4
 40
0.0
  9
$USERR5
 40
0.0
  9
$WORLDVIEW
 70
     1
  9
$SHADEDGE
 70
     3
  9
$SHADEDIF
 70
    70
  9
$TILEMODE
 70
     1
  9
$MAXACTVP
 70
    64
  9
$PINSBASE
 10
0.0
 20
0.0
 30
0.0
  9
$PLIMCHECK
 70
     0
  9
$PEXTMIN
 10
1.000000000000000E+20
 20
1.000000000000000E+20
 30
1.000000000000000E+20
  9
$PEXTMAX
 10
-1.000000000000000E+20
 20
-1.000000000000000E+20
 30
-1.000000000000000E+20
  9
$PLIMMIN
 10
0.0
 20
0.0
  9
$PLIMMAX
 10
420.0
 20
297.0
  9
$UNITMODE
 70
     0
  9
$VISRETAIN
 70
     1
  9
$PLINEGEN
 70
     0
  9
$PSLTSCALE
 70
     1
  9
$TREEDEPTH
 70
  3020
  9
$CMLSTYLE
  2
Standard
  9
$CMLJUST
 70
     0
  9
$CMLSCALE
 40
20.0
  9
$PROXYGRAPHICS
 70
     1
  9
$MEASUREMENT
 70
     1
  9
$CELWEIGHT
370
    -1
  9
$ENDCAPS
280
     0
  9
$JOINSTYLE
280
     0
  9
$LWDISPLAY
290
     0
  9
$INSUNITS
 70
     4
  9
$HYPERLINKBASE
  1

  9
$STYLESHEET
  1

  9
$XEDIT
290
     1
  9
$CEPSNTYPE
380
     0
  9
$PSTYLEMODE
290
     1
  9
$FINGERPRINTGUID
  2
{904A8C64-524F-4709-A9C6-320D2C273A6D}
  9
$VERSIONGUID
  2
{C3A4C4B4-B231-4087-9FC4-7FBE2038B62C}
  9
$EXTNAMES
290
     1
  9
$PSVPSCALE
 40
0.0
  9
$OLESTARTUP
290
     0
  0
ENDSEC
  0
SECTION
  2
CLASSES
  0
CLASS
  1
ACDBDICTIONARYWDFLT
  2
AcDbDictionaryWithDefault
  3
ObjectDBX Classes
 90
        0
280
     0
281
     0
  0
CLASS
  1
TABLESTYLE
  2
AcDbTableStyle
  3
ObjectDBX Classes
 90
     2047
280
     0
281
     0
  0
CLASS
  1
SORTENTSTABLE
  2
AcDbSortentsTable
  3
ObjectDBX Classes
 90
        0
280
     0
281
     0
  0
CLASS
  1
DICTIONARYVAR
  2
AcDbDictionaryVar
  3
ObjectDBX Classes
 90
        0
280
     0
281
     0
  0
CLASS
  1
ACDBPLACEHOLDER
  2
AcDbPlaceHolder
  3
ObjectDBX Classes
 90
        0
280
     0
281
     0
  0
CLASS
  1
LAYOUT
  2
AcDbLayout
  3
ObjectDBX Classes
 90
        0
280
     0
281
     0
  0
CLASS
  1
DIMASSOC
  2
AcDbDimAssoc
  3
"AcDbDimAssoc|Product Desc:     AcDim ARX App For Dimension|Company:          Autodesk, Inc.|WEB Address:      www.autodesk.com"
 90
        0
280
     0
281
     0
  0
CLASS
  1
MATERIAL
  2
AcDbMaterial
  3
ObjectDBX Classes
 90
        0
280
     0
281
     0
  0
CLASS
  1
VISUALSTYLE
  2
AcDbVisualStyle
  3
ObjectDBX Classes
 90
     4095
280
     0
281
     0
  0
ENDSEC
  0
SECTION
  2
TABLES
  0
TABLE
  2
VPORT
  5
177
330
0
100
AcDbSymbolTable
 70
     6
  0
VPORT
  5
1DB3
330
177
100
AcDbSymbolTableRecord
100
AcDbViewportTableRecord
  2
*Active
 70
     0
 10
0.0
 20
0.0
 11
1.0
 21
1.0
 12
0.208940993895103
 22
0.1487983107062294
 13
0.0
 23
0.0
 14
10.0
 24
10.0
 15
10.0
 25
10.0
 16
0.0
 26
0.0
 36
1.0
 17
0.0
 27
0.0
 37
0.0
 40
0.2767916535732354
 41
1.546526867627784
 42
50.0
 43
0.0
 44
0.0
 50
0.0
 51
0.0
 71
     0
 72
  1000
 73
     1
 74
     3
 75
     0
 76
     0
 77
     0
 78
     0
281
     0
 65
     1
110
0.0
120
0.0
130
0.0
111
1.0
121
0.0
131
0.0
112
0.0
122
1.0
132
0.0
 79
     0
146
0.0
  0
ENDTAB
  0
TABLE
  2
LTYPE
  5
172
330
0
100
AcDbSymbolTable
 70
     2
  0
LTYPE
  5
173
330
172
100
AcDbSymbolTableRecord
100
AcDbLinetypeTableRecord
  2
ByBlock
 70
     0
  3

 72
    65
 73
     0
 40
0.0
  0
LTYPE
  5
174
330
172
100
AcDbSymbolTableRecord
100
AcDbLinetypeTableRecord
  2
ByLayer
 70
     0
  3

 72
    65
 73
     0
 40
0.0
  0
LTYPE
  5
C
330
172
100
AcDbSymbolTableRecord
100
AcDbLinetypeTableRecord
  2
Continuous
 70
     0
  3
Solid line
 72
    65
 73
     0
 40
0.0
  0
LTYPE
  5
14E
330
172
100
AcDbSymbolTableRecord
100
AcDbLinetypeTableRecord
  2
ACAD_ISO10W100
 70
     0
  3
ISO dash dot __ . __ . __ . __ . __ . __ . __ .
 72
    65
 73
     4
 40
18.0
 49
12.0
 74
     0
 49
-3.0
 74
     0
 49
0.0
 74
     0
 49
-3.0
 74
     0
  0
ENDTAB
  0
TABLE
  2
LAYER
  5
16D
102
{ACAD_XDICTIONARY
360
16E
102
}
330
0
100
AcDbSymbolTable
 70
     8
  0
LAYER
  5
6
330
16D
100
AcDbSymbolTableRecord
100
AcDbLayerTableRecord
  2
0
 70
     0
 62
     7
  6
Continuous
370
    -3
390
7
  0
LAYER
  5
15F
330
16D
100
AcDbSymbolTableRecord
100
AcDbLayerTableRecord
  2
Defpoints
 70
     0
 62
     7
  6
Continuous
290
     0
370
    -3
390
7
  0
LAYER
  5
28
330
16D
100
AcDbSymbolTableRecord
100
AcDbLayerTableRecord
  2
Profilo
 70
     0
 62
     1
  6
Continuous
370
    -3
390
7
1001
AcAecLayerStandard
1000

1000

  0
LAYER
  5
14D
330
16D
100
AcDbSymbolTableRecord
100
AcDbLayerTableRecord
  2
Sezione
 70
     0
 62
     2
  6
Continuous
370
    -3
390
7
1001
AcAecLayerStandard
1000

1000

  0
LAYER
  5
E
330
16D
100
AcDbSymbolTableRecord
100
AcDbLayerTableRecord
  2
Table
 70
     0
 62
     3
  6
Continuous
370
    -3
390
7
1001
AcAecLayerStandard
1000

1000

  0
LAYER
  5
19
330
16D
100
AcDbSymbolTableRecord
100
AcDbLayerTableRecord
  2
Text
 70
     0
 62
     4
  6
Continuous
370
    -3
390
7
1001
AcAecLayerStandard
1000

1000

  0
LAYER
  5
23D
330
16D
100
AcDbSymbolTableRecord
100
AcDbLayerTableRecord
  2
Bovelacci
 70
     0
 62
     9
  6
Continuous
370
    -3
390
7
1001
AcAecLayerStandard
1000

1000

  0
LAYER
  5
1826
330
16D
100
AcDbSymbolTableRecord
100
AcDbLayerTableRecord
  2
Layer1
 70
     0
 62
     7
  6
Continuous
370
    -3
390
7
1001
AcAecLayerStandard
1000

1000

  0
ENDTAB
  0
TABLE
  2
STYLE
  5
170
330
0
100
AcDbSymbolTable
 70
     3
  0
STYLE
  5
1A
330
170
100
AcDbSymbolTableRecord
100
AcDbTextStyleTableRecord
  2
Standard
 70
     0
 40
0.0
 41
1.0
 50
0.0
 71
     0
 42
2.5
  3
txt
  4

  0
STYLE
  5
20
330
170
100
AcDbSymbolTableRecord
100
AcDbTextStyleTableRecord
  2
ROMANS
 70
     0
 40
0.0
 41
1.0
 50
0.0
 71
     0
 42
2.5
  3
romans
  4

  0
STYLE
  5
26
330
170
100
AcDbSymbolTableRecord
100
AcDbTextStyleTableRecord
  2
style1
 70
     0
 40
0.0
 41
1.0
 50
0.0
 71
     0
 42
0.008
  3
TIMES.TTF
  4

1001
ACAD
1000
Times New Roman
1071
       18
  0
ENDTAB
  0
TABLE
  2
VIEW
  5
175
330
0
100
AcDbSymbolTable
 70
     0
  0
ENDTAB
  0
TABLE
  2
UCS
  5
176
330
0
100
AcDbSymbolTable
 70
     0
  0
ENDTAB
  0
TABLE
  2
APPID
  5
17B
330
0
100
AcDbSymbolTable
 70
    10
  0
APPID
  5
1B
330
17B
100
AcDbSymbolTableRecord
100
AcDbRegAppTableRecord
  2
ACAD
 70
     0
  0
APPID
  5
157
330
17B
100
AcDbSymbolTableRecord
100
AcDbRegAppTableRecord
  2
ACAD_DSTYLE_DIMJOGGED_JOGANGLE_SYMBOL
 70
     0
  0
APPID
  5
F
330
17B
100
AcDbSymbolTableRecord
100
AcDbRegAppTableRecord
  2
AcAecLayerStandard
 70
     0
  0
APPID
  5
19C
330
17B
100
AcDbSymbolTableRecord
100
AcDbRegAppTableRecord
  2
ACAD_DSTYLE_DIMFLIPARROW_WHICH_SYMBOL
 70
     0
  0
APPID
  5
1A7
330
17B
100
AcDbSymbolTableRecord
100
AcDbRegAppTableRecord
  2
ACAD_DSTYLE_DIMEXT_LENGTH
 70
     0
  0
APPID
  5
1D2
330
17B
100
AcDbSymbolTableRecord
100
AcDbRegAppTableRecord
  2
ACAD_EXEMPT_FROM_CAD_STANDARDS
 70
     0
  0
APPID
  5
1D3
330
17B
100
AcDbSymbolTableRecord
100
AcDbRegAppTableRecord
  2
ACAD_DSTYLE_DIM_LINETYPE
 70
     0
  0
APPID
  5
1D4
330
17B
100
AcDbSymbolTableRecord
100
AcDbRegAppTableRecord
  2
ACAD_DSTYLE_DIM_EXT1_LINETYPE
 70
     0
  0
APPID
  5
1D5
330
17B
100
AcDbSymbolTableRecord
100
AcDbRegAppTableRecord
  2
ACAD_DSTYLE_DIM_EXT2_LINETYPE
 70
     0
  0
APPID
  5
243
330
17B
100
AcDbSymbolTableRecord
100
AcDbRegAppTableRecord
  2
ACAD_PSEXT
 70
     0
  0
ENDTAB
  0
TABLE
  2
DIMSTYLE
  5
17C
330
0
100
AcDbSymbolTable
 70
     7
100
AcDbDimStyleTable
 71
     2
340
156
340
17D
  0
DIMSTYLE
105
17D
330
17C
100
AcDbSymbolTableRecord
100
AcDbDimStyleTableRecord
  2
ISO-25
 70
     0
 41
2.5
 42
0.625
 43
3.75
 44
1.25
 73
     0
 74
     0
 77
     1
 78
     8
140
2.5
141
2.5
143
0.03937007874016
147
0.625
171
     3
172
     1
271
     2
272
     2
274
     3
278
    44
283
     0
284
     8
340
1A
  0
DIMSTYLE
105
156
102
{ACAD_REACTORS
330
1D8C
102
}
330
17C
100
AcDbSymbolTableRecord
100
AcDbDimStyleTableRecord
  2
Bovelacci
 70
     0
 40
0.001
 41
1.5
140
3.0
141
0.0
147
2.0
176
     5
177
     5
178
     4
271
     2
272
     2
279
     2
340
20
342
152
1001
ACAD_DSTYLE_DIMJOGGED_JOGANGLE_SYMBOL
1070
   384
1040
0.7853981633974483
1001
ACAD_DSTYLE_DIMEXT_LENGTH
1070
   378
1040
0.18
  0
DIMSTYLE
105
23E
330
17C
100
AcDbSymbolTableRecord
100
AcDbDimStyleTableRecord
  2
Dim 1-100
 70
     0
 40
0.1
 41
1.5
 42
0.0
 43
5.0
 44
1.25
 45
0.005
 46
1.25
 73
     0
 74
     0
 77
     1
 78
     9
140
2.0
141
2.5
147
1.0
172
     1
174
     1
179
     2
279
     2
289
     2
340
20
342
152
  0
DIMSTYLE
105
23F
330
17C
100
AcDbSymbolTableRecord
100
AcDbDimStyleTableRecord
  2
Standard
 70
     0
 42
0.0
 73
     0
 74
     0
 77
     1
271
     2
272
     2
340
20
  0
DIMSTYLE
105
240
330
17C
100
AcDbSymbolTableRecord
100
AcDbDimStyleTableRecord
  2
Dim 1-50
 70
     0
 40
0.05
 41
1.5
 42
0.0
 43
5.0
 44
1.25
 45
0.005
 46
1.25
 73
     0
 74
     0
 77
     1
 78
     9
140
2.0
141
2.5
147
1.0
172
     1
174
     1
179
     2
279
     2
289
     2
340
20
342
152
  0
DIMSTYLE
105
241
330
17C
100
AcDbSymbolTableRecord
100
AcDbDimStyleTableRecord
  2
Dim 1-200
 70
     0
 40
0.2
 41
1.5
 42
0.0
 43
5.0
 44
1.25
 45
0.005
 46
1.25
 73
     0
 74
     0
 77
     1
 78
     9
140
2.0
141
2.5
147
1.0
172
     1
174
     1
179
     2
271
     2
272
     2
279
     2
289
     2
340
20
342
152
  0
DIMSTYLE
105
242
330
17C
100
AcDbSymbolTableRecord
100
AcDbDimStyleTableRecord
  2
AEC Scale - Italiano
 70
     0
 41
1.0
 42
10.0
 43
10.0
 44
10.0
 73
     0
 74
     0
 75
     1
 76
     1
 77
     1
140
10.0
141
1.0
147
10.0
173
     1
271
     0
272
     0
279
     2
340
1A
343
238
344
232
  0
ENDTAB
  0
TABLE
  2
BLOCK_RECORD
  5
1
330
0
100
AcDbSymbolTable
 70
    10
  0
BLOCK_RECORD
  5
2
102
{ACAD_XDICTIONARY
360
3
102
}
330
1
100
AcDbSymbolTableRecord
100
AcDbBlockTableRecord
  2
*Model_Space
340
163
  0
BLOCK_RECORD
  5
165
330
1
100
AcDbSymbolTableRecord
100
AcDbBlockTableRecord
  2
*Paper_Space
340
168
  0
BLOCK_RECORD
  5
169
330
1
100
AcDbSymbolTableRecord
100
AcDbBlockTableRecord
  2
*Paper_Space0
340
16C
  0
BLOCK_RECORD
  5
152
330
1
100
AcDbSymbolTableRecord
100
AcDbBlockTableRecord
  2
_ArchTick
340
0
310
2800000020000000200000000100080000000000000400000000000000000000000000000000000000000000000080000080000000808000800000008000800080800000C0C0C000C0DCC000F0CAA6000020400000206000002080000020A0000020C0000020E00000400000004020000040400000406000004080000040A0
310
000040C0000040E00000600000006020000060400000606000006080000060A0000060C0000060E00000800000008020000080400000806000008080000080A0000080C0000080E00000A0000000A0200000A0400000A0600000A0800000A0A00000A0C00000A0E00000C0000000C0200000C0400000C0600000C0800000C0
310
A00000C0C00000C0E00000E0000000E0200000E0400000E0600000E0800000E0A00000E0C00000E0E00040000000400020004000400040006000400080004000A0004000C0004000E00040200000402020004020400040206000402080004020A0004020C0004020E000404000004040200040404000404060004040800040
310
40A0004040C0004040E00040600000406020004060400040606000406080004060A0004060C0004060E00040800000408020004080400040806000408080004080A0004080C0004080E00040A0000040A0200040A0400040A0600040A0800040A0A00040A0C00040A0E00040C0000040C0200040C0400040C0600040C08000
310
40C0A00040C0C00040C0E00040E0000040E0200040E0400040E0600040E0800040E0A00040E0C00040E0E00080000000800020008000400080006000800080008000A0008000C0008000E00080200000802020008020400080206000802080008020A0008020C0008020E00080400000804020008040400080406000804080
310
008040A0008040C0008040E00080600000806020008060400080606000806080008060A0008060C0008060E00080800000808020008080400080806000808080008080A0008080C0008080E00080A0000080A0200080A0400080A0600080A0800080A0A00080A0C00080A0E00080C0000080C0200080C0400080C0600080C0
310
800080C0A00080C0C00080C0E00080E0000080E0200080E0400080E0600080E0800080E0A00080E0C00080E0E000C0000000C0002000C0004000C0006000C0008000C000A000C000C000C000E000C0200000C0202000C0204000C0206000C0208000C020A000C020C000C020E000C0400000C0402000C0404000C0406000C0
310
408000C040A000C040C000C040E000C0600000C0602000C0604000C0606000C0608000C060A000C060C000C060E000C0800000C0802000C0804000C0806000C0808000C080A000C080C000C080E000C0A00000C0A02000C0A04000C0A06000C0A08000C0A0A000C0A0C000C0A0E000C0C00000C0C02000C0C04000C0C06000
310
C0C08000C0C0A000F0FBFF00A4A0A000808080000000FF0000FF000000FFFF00FF000000FF00FF00FFFF0000FFFFFF00000000FF000000000000000000000000000000000000000000000000000000000000FF00FF00000000000000000000000000000000000000000000000000000000FF000000FF000000000000000000
310
0000000000000000000000000000000000FF0000000000FF0000000000000000000000000000000000000000000000000000FF0000000000FF0000000000000000000000000000000000000000000000000000FF0000000000FF0000000000000000000000000000000000000000000000000000FF0000000000FF00000000
310
00000000000000000000000000000000000000000000FF0000000000FF0000000000000000000000000000000000000000000000000000FF0000000000FF0000000000000000000000000000000000000000000000000000FF0000000000FF0000000000000000000000000000000000000000000000000000FF0000000000
310
FF0000000000000000000000000000000000000000000000000000FF0000000000FF0000000000000000000000000000000000000000000000000000FF0000000000FF0000000000000000000000000000000000000000000000000000FF0000000000FF0000000000000000000000000000000000000000000000000000FF
310
0000000000FF0000000000000000000000000000000000000000000000000000FF0000000000FF0000000000000000000000000000000000000000000000000000FF0000000000FF0000000000000000000000000000000000000000000000000000FF0000000000FF00000000000000000000000000000000000000000000
310
00000000FF0000000000FF0000000000000000000000000000000000000000000000000000FF0000000000FF0000000000000000000000000000000000000000000000000000FF0000000000FF0000000000000000000000000000000000000000000000000000FF0000000000FF0000000000000000000000000000000000
310
000000000000000000FF0000000000FF0000000000000000000000000000000000000000000000000000FF0000000000FF0000000000000000000000000000000000000000000000000000FF0000000000FF0000000000000000000000000000000000000000000000000000FF0000000000FF000000000000000000000000
310
0000000000000000000000000000FF0000000000FF0000000000000000000000000000000000000000000000000000FF0000000000FF0000000000000000000000000000000000000000000000000000FF0000000000FF0000000000000000000000000000000000000000000000000000FF000000FF000000000000000000
310
00000000000000000000000000000000000000FF00FF000000000000000000000000000000000000000000000000000000000000FF000000
102
{BLKREFS
331
180C
331
1CC2
331
1CD6
331
1DAE
102
}
  0
BLOCK_RECORD
  5
232
330
1
100
AcDbSymbolTableRecord
100
AcDbBlockTableRecord
  2
_Arrivo
340
0
310
2800000020000000200000000100080000000000000400000000000000000000000000000000000000000000000080000080000000808000800000008000800080800000C0C0C000C0DCC000F0CAA6000020400000206000002080000020A0000020C0000020E00000400000004020000040400000406000004080000040A0
310
000040C0000040E00000600000006020000060400000606000006080000060A0000060C0000060E00000800000008020000080400000806000008080000080A0000080C0000080E00000A0000000A0200000A0400000A0600000A0800000A0A00000A0C00000A0E00000C0000000C0200000C0400000C0600000C0800000C0
310
A00000C0C00000C0E00000E0000000E0200000E0400000E0600000E0800000E0A00000E0C00000E0E00040000000400020004000400040006000400080004000A0004000C0004000E00040200000402020004020400040206000402080004020A0004020C0004020E000404000004040200040404000404060004040800040
310
40A0004040C0004040E00040600000406020004060400040606000406080004060A0004060C0004060E00040800000408020004080400040806000408080004080A0004080C0004080E00040A0000040A0200040A0400040A0600040A0800040A0A00040A0C00040A0E00040C0000040C0200040C0400040C0600040C08000
310
40C0A00040C0C00040C0E00040E0000040E0200040E0400040E0600040E0800040E0A00040E0C00040E0E00080000000800020008000400080006000800080008000A0008000C0008000E00080200000802020008020400080206000802080008020A0008020C0008020E00080400000804020008040400080406000804080
310
008040A0008040C0008040E00080600000806020008060400080606000806080008060A0008060C0008060E00080800000808020008080400080806000808080008080A0008080C0008080E00080A0000080A0200080A0400080A0600080A0800080A0A00080A0C00080A0E00080C0000080C0200080C0400080C0600080C0
310
800080C0A00080C0C00080C0E00080E0000080E0200080E0400080E0600080E0800080E0A00080E0C00080E0E000C0000000C0002000C0004000C0006000C0008000C000A000C000C000C000E000C0200000C0202000C0204000C0206000C0208000C020A000C020C000C020E000C0400000C0402000C0404000C0406000C0
310
408000C040A000C040C000C040E000C0600000C0602000C0604000C0606000C0608000C060A000C060C000C060E000C0800000C0802000C0804000C0806000C0808000C080A000C080C000C080E000C0A00000C0A02000C0A04000C0A06000C0A08000C0A0A000C0A0C000C0A0E000C0C00000C0C02000C0C04000C0C06000
310
C0C08000C0C0A000F0FBFF00A4A0A000808080000000FF0000FF000000FFFF00FF000000FF00FF00FFFF0000FFFFFF00000000000000000000000000000000000000000000000000000000000000000000000000000000000000FF0000000000000000000000000000000000000000000000000000000000000000FF000000
310
00000000000000000000000000000000000000000000000000000000FF0000000000000000000000000000000000000000000000000000000000000000FF00000000000000000000000000000000000000000000000000000000000000FF0000000000000000000000000000000000000000000000000000000000000000FF
310
0000000000000000000000000000000000000000000000000000000000000000FF00000000000000000000000000000000000000000000000000000000000000FF0000000000000000000000000000000000000000000000000000000000000000FF0000000000000000000000000000000000000000000000000000000000
310
0000FF0000000000000000000000000000000000000000000000000000000000000000FF00000000000000000000000000000000000000000000000000000000000000FF0000000000000000000000000000000000000000000000000000000000000000FF0000FF0000000000000000000000000000000000000000000000
310
000000000000FFFF000000000000000000000000000000000000000000000000000000000000FFFF00000000000000000000000000000000000000000000000000000000FFFFFFFFFFFF00000000000000000000000000000000000000000000000000000000FFFF0000000000000000000000000000000000000000000000
310
000000000000FF0000FF000000000000000000000000000000000000000000000000000000FF00000000000000000000000000000000000000000000000000000000000000FF000000000000000000000000000000000000000000000000000000000000FF0000000000000000000000000000000000000000000000000000
310
0000000000FF000000000000000000000000000000000000000000000000000000000000FF00000000000000000000000000000000000000000000000000000000000000FF000000000000000000000000000000000000000000000000000000000000FF000000000000000000000000000000000000000000000000000000
310
000000FF00000000000000000000000000000000000000000000000000000000000000FF000000000000000000000000000000000000000000000000000000000000FF00000000000000000000000000000000000000000000000000000000000000FF00000000000000000000000000000000000000000000000000000000
310
0000FF0000000000000000000000000000000000000000000000000000000000000000000000000000000000000000000000000000000000
  0
BLOCK_RECORD
  5
238
330
1
100
AcDbSymbolTableRecord
100
AcDbBlockTableRecord
  2
_Partenza
340
0
310
2800000020000000200000000100080000000000000400000000000000000000000000000000000000000000000080000080000000808000800000008000800080800000C0C0C000C0DCC000F0CAA6000020400000206000002080000020A0000020C0000020E00000400000004020000040400000406000004080000040A0
310
000040C0000040E00000600000006020000060400000606000006080000060A0000060C0000060E00000800000008020000080400000806000008080000080A0000080C0000080E00000A0000000A0200000A0400000A0600000A0800000A0A00000A0C00000A0E00000C0000000C0200000C0400000C0600000C0800000C0
310
A00000C0C00000C0E00000E0000000E0200000E0400000E0600000E0800000E0A00000E0C00000E0E00040000000400020004000400040006000400080004000A0004000C0004000E00040200000402020004020400040206000402080004020A0004020C0004020E000404000004040200040404000404060004040800040
310
40A0004040C0004040E00040600000406020004060400040606000406080004060A0004060C0004060E00040800000408020004080400040806000408080004080A0004080C0004080E00040A0000040A0200040A0400040A0600040A0800040A0A00040A0C00040A0E00040C0000040C0200040C0400040C0600040C08000
310
40C0A00040C0C00040C0E00040E0000040E0200040E0400040E0600040E0800040E0A00040E0C00040E0E00080000000800020008000400080006000800080008000A0008000C0008000E00080200000802020008020400080206000802080008020A0008020C0008020E00080400000804020008040400080406000804080
310
008040A0008040C0008040E00080600000806020008060400080606000806080008060A0008060C0008060E00080800000808020008080400080806000808080008080A0008080C0008080E00080A0000080A0200080A0400080A0600080A0800080A0A00080A0C00080A0E00080C0000080C0200080C0400080C0600080C0
310
800080C0A00080C0C00080C0E00080E0000080E0200080E0400080E0600080E0800080E0A00080E0C00080E0E000C0000000C0002000C0004000C0006000C0008000C000A000C000C000C000E000C0200000C0202000C0204000C0206000C0208000C020A000C020C000C020E000C0400000C0402000C0404000C0406000C0
310
408000C040A000C040C000C040E000C0600000C0602000C0604000C0606000C0608000C060A000C060C000C060E000C0800000C0802000C0804000C0806000C0808000C080A000C080C000C080E000C0A00000C0A02000C0A04000C0A06000C0A08000C0A0A000C0A0C000C0A0E000C0C00000C0C02000C0C04000C0C06000
310
C0C08000C0C0A000F0FBFF00A4A0A000808080000000FF0000FF000000FFFF00FF000000FF00FF00FFFF0000FFFFFF0000000000000000000000000000000000000000000000000000000000000000000000000000000000000000000000000000000000000000000000000000000000000000000000000000000000000000
310
000000000000000000000000000000000000000000000000000000000000000000000000000000000000000000000000000000000000000000000000000000000000000000000000000000000000000000000000000000000000000000000000000000000000000000000000000000000000FFFFFFFFFFFFFFFFFFFFFFFFFF
310
FFFFFFFFFFFFFFFFFFFFFFFFFFFFFFFFFF0000000000000000000000000000000000000000000000000000000000000000000000000000000000000000000000000000000000000000000000000000000000000000000000000000000000000000000000000000000000000000000000000000000000000000000000000000
310
00000000000000000000000000000000000000000000000000000000000000000000000000000000000000000000000000000000000000000000000000000000000000000000000000000000000000000000000000000000000000000000000000000000000000000000000000000000000000000000000000000000000000
310
00000000000000000000000000000000000000000000000000000000000000000000000000000000000000000000000000000000000000000000000000000000000000000000000000000000000000000000000000000000000000000000000000000000000000000000000000000000000000000000000000000000000000
310
00000000000000000000000000000000000000000000000000000000000000000000000000000000000000000000000000000000000000000000000000000000000000000000000000000000000000000000000000000000000000000000000000000000000000000000000000000000000000000000000000000000000000
310
000000000000000000000000000000000000000000000000000000000000000000000000000000000000000000000000000000000000000000000000000000000000000000000000000000000000000000000000000000FFFFFFFFFFFFFFFFFFFFFFFFFFFFFFFFFFFFFFFFFFFFFFFFFFFFFFFFFFFF00000000000000000000
310
00000000000000000000000000000000000000000000000000000000000000000000000000000000000000000000000000000000000000000000000000000000000000000000000000000000000000000000000000000000000000000000000000000000000000000000000000000000000000000000000000000000000000
310
0000000000000000000000000000000000000000000000000000000000000000000000000000000000000000000000000000000000000000
  0
BLOCK_RECORD
  5
17F2
330
1
100
AcDbSymbolTableRecord
100
AcDbBlockTableRecord
  2
*D4
340
0
  0
BLOCK_RECORD
  5
1CA8
330
1
100
AcDbSymbolTableRecord
100
AcDbBlockTableRecord
  2
*D6
340
0
  0
BLOCK_RECORD
  5
1CD1
330
1
100
AcDbSymbolTableRecord
100
AcDbBlockTableRecord
  2
*D7
340
0
  0
BLOCK_RECORD
  5
1DA2
330
1
100
AcDbSymbolTableRecord
100
AcDbBlockTableRecord
  2
*D9
340
0
  0
ENDTAB
  0
ENDSEC
  0
SECTION
  2
BLOCKS
  0
BLOCK
  5
5
330
2
100
AcDbEntity
  8
0
100
AcDbBlockBegin
  2
*Model_Space
 70
     0
 10
0.0
 20
0.0
 30
0.0
  3
*Model_Space
  1

  0
ENDBLK
  5
162
330
2
100
AcDbEntity
  8
0
100
AcDbBlockEnd
  0
BLOCK
  5
166
330
165
100
AcDbEntity
 67
     1
  8
0
100
AcDbBlockBegin
  2
*Paper_Space
 70
     0
 10
0.0
 20
0.0
 30
0.0
  3
*Paper_Space
  1

  0
ENDBLK
  5
167
330
165
100
AcDbEntity
 67
     1
  8
0
100
AcDbBlockEnd
  0
BLOCK
  5
16A
330
169
100
AcDbEntity
 67
     1
  8
0
100
AcDbBlockBegin
  2
*Paper_Space0
 70
     0
 10
0.0
 20
0.0
 30
0.0
  3
*Paper_Space0
  1

  0
ENDBLK
  5
16B
330
169
100
AcDbEntity
 67
     1
  8
0
100
AcDbBlockEnd
  0
BLOCK
  5
153
330
152
100
AcDbEntity
  8
0
 62
     1
100
AcDbBlockBegin
  2
_ArchTick
 70
     0
 10
0.0
 20
0.0
 30
0.0
  3
_ArchTick
  1

  0
LWPOLYLINE
  5
154
330
152
100
AcDbEntity
  8
0
  6
ByBlock
 62
     0
100
AcDbPolyline
 90
        2
 70
     0
 43
0.15
 10
-0.5
 20
-0.5
 10
0.5
 20
0.5
  0
ENDBLK
  5
155
330
152
100
AcDbEntity
  8
0
 62
     1
100
AcDbBlockEnd
  0
BLOCK
  5
233
330
232
100
AcDbEntity
  8
0
100
AcDbBlockBegin
  2
_Arrivo
 70
     0
 10
0.0
 20
0.0
 30
0.0
  3
_Arrivo
  1

  0
LINE
  5
234
330
232
100
AcDbEntity
  8
0
  6
ByBlock
 62
     0
370
    -2
100
AcDbLine
 10
0.025
 20
-0.0433012701891858
 30
0.0
 11
-0.15
 21
0.2598076211353328
 31
0.0
  0
LINE
  5
235
330
232
100
AcDbEntity
  8
0
  6
ByBlock
 62
     0
370
    -2
100
AcDbLine
 10
0.025
 20
0.0433012701892585
 30
0.0
 11
-0.15
 21
-0.2598076211353328
 31
0.0
  0
LINE
  5
236
330
232
100
AcDbEntity
  8
0
  6
ByBlock
 62
     0
370
    -2
100
AcDbLine
 10
-0.05
 20
0.0
 30
0.0
 11
0.05
 21
0.0
 31
0.0
  0
ENDBLK
  5
237
330
232
100
AcDbEntity
  8
0
100
AcDbBlockEnd
  0
BLOCK
  5
239
330
238
100
AcDbEntity
  8
0
100
AcDbBlockBegin
  2
_Partenza
 70
     0
 10
0.0
 20
0.0
 30
0.0
  3
_Partenza
  1

  0
LINE
  5
23A
330
238
100
AcDbEntity
  8
0
  6
ByBlock
 62
     0
370
    -2
100
AcDbLine
 10
-0.05
 20
0.05
 30
0.0
 11
0.1
 21
0.05
 31
0.0
  0
LINE
  5
23B
330
238
100
AcDbEntity
  8
0
  6
ByBlock
 62
     0
370
    -2
100
AcDbLine
 10
-0.05
 20
-0.05
 30
0.0
 11
0.1
 21
-0.05
 31
0.0
  0
ENDBLK
  5
23C
330
238
100
AcDbEntity
  8
0
100
AcDbBlockEnd
  0
BLOCK
  5
17F9
330
17F2
100
AcDbEntity
  8
0
100
AcDbBlockBegin
  2
*D4
 70
     1
 10
0.0
 20
0.0
 30
0.0
  3
*D4
  1

  0
LINE
  5
1809
330
17F2
100
AcDbEntity
  8
Text
  6
ACAD_ISO10W100
 62
     5
370
    -2
100
AcDbLine
 10
0.2752844982296152
 20
0.2095478102390275
 30
0.0
 11
0.2737844982296151
 21
0.2095478102390275
 31
0.0
  0
LINE
  5
180A
330
17F2
100
AcDbEntity
  8
Text
  6
ACAD_ISO10W100
 62
     5
370
    -2
100
AcDbLine
 10
0.2737844982296151
 20
0.2095478102390275
 30
0.0
 11
0.2714845230051905
 21
0.2076216446264612
 31
0.0
  0
MTEXT
  5
180B
330
17F2
100
AcDbEntity
  8
Text
  6
ACAD_ISO10W100
 62
     4
100
AcDbMText
 10
0.2897130696581866
 20
0.2095478102390275
 30
0.0
 40
0.003
 41
0.0
 71
     5
 72
     1
  1
\A1;d 335 mm
  7
ROMANS
 73
     1
 44
1.0
1001
ACAD
1000
MTEXTBEGIN
1070
    73
1070
     1
1070
    44
1040
1.0
1070
    74
1070
     0
1000
MTEXTEND
  0
INSERT
  5
180C
330
17F2
100
AcDbEntity
  8
Text
  6
ACAD_ISO10W100
 62
     5
370
    -2
100
AcDbBlockReference
  2
_ArchTick
 10
0.2714845230051905
 20
0.2076216446264612
 30
0.0
 41
0.0015
 42
0.0015
 43
0.0015
 50
219.9452421704756
  0
POINT
  5
180D
330
17F2
100
AcDbEntity
  8
Defpoints
  6
ACAD_ISO10W100
 62
     0
100
AcDbPoint
 10
0.2714845230051905
 20
0.2076216446264612
 30
0.0
  0
POINT
  5
180E
330
17F2
100
AcDbEntity
  8
Defpoints
  6
ACAD_ISO10W100
 62
     0
100
AcDbPoint
 10
0.1430692396414827
 20
0.1000773979248426
 30
0.0
  0
ENDBLK
  5
17FA
330
17F2
100
AcDbEntity
  8
0
100
AcDbBlockEnd
  0
BLOCK
  5
1CAF
330
1CA8
100
AcDbEntity
  8
0
100
AcDbBlockBegin
  2
*D6
 70
     1
 10
0.0
 20
0.0
 30
0.0
  3
*D6
  1

  0
LINE
  5
1CBF
330
1CA8
100
AcDbEntity
  8
Text
  6
ACAD_ISO10W100
 62
     5
370
    -2
100
AcDbLine
 10
0.2691906163671416
 20
0.2054122756710057
 30
0.0
 11
0.2676906163671416
 21
0.2054122756710057
 31
0.0
  0
LINE
  5
1CC0
330
1CA8
100
AcDbEntity
  8
Text
  6
ACAD_ISO10W100
 62
     5
370
    -2
100
AcDbLine
 10
0.2676906163671416
 20
0.2054122756710057
 30
0.0
 11
0.2653415959966366
 21
0.2035462362022504
 31
0.0
  0
MTEXT
  5
1CC1
330
1CA8
100
AcDbEntity
  8
Text
  6
ACAD_ISO10W100
 62
     4
100
AcDbMText
 10
0.283619187795713
 20
0.2054122756710057
 30
0.0
 40
0.003
 41
0.0
 71
     5
 72
     1
  1
\A1;d 575 mm
  7
ROMANS
 73
     1
 44
1.0
1001
ACAD
1000
MTEXTBEGIN
1070
    73
1070
     1
1070
    44
1040
1.0
1070
    74
1070
     0
1000
MTEXTEND
  0
INSERT
  5
1CC2
330
1CA8
100
AcDbEntity
  8
Text
  6
ACAD_ISO10W100
 62
     5
370
    -2
100
AcDbBlockReference
  2
_ArchTick
 10
0.2653415959966366
 20
0.2035462362022504
 30
0.0
 41
0.0015
 42
0.0015
 43
0.0015
 50
218.4632953061788
  0
POINT
  5
1CC3
330
1CA8
100
AcDbEntity
  8
Defpoints
  6
ACAD_ISO10W100
 62
     0
100
AcDbPoint
 10
0.2653415959966366
 20
0.2035462362022504
 30
0.0
  0
POINT
  5
1CC4
330
1CA8
100
AcDbEntity
  8
Defpoints
  6
ACAD_ISO10W100
 62
     0
100
AcDbPoint
 10
0.152784369909937
 20
0.1141318449910611
 30
0.0
  0
ENDBLK
  5
1CB0
330
1CA8
100
AcDbEntity
  8
0
100
AcDbBlockEnd
  0
BLOCK
  5
1CD2
330
1CD1
100
AcDbEntity
  8
0
100
AcDbBlockBegin
  2
*D7
 70
     1
 10
0.0
 20
0.0
 30
0.0
  3
*D7
  1

  0
LINE
  5
1CD3
330
1CD1
100
AcDbEntity
  8
Sezione
  6
ACAD_ISO10W100
 62
     5
370
    -2
100
AcDbLine
 10
0.2562973870742004
 20
0.2029310940913176
 30
0.0
 11
0.2547973870742004
 21
0.2029310940913175
 31
0.0
  0
LINE
  5
1CD4
330
1CD1
100
AcDbEntity
  8
Sezione
  6
ACAD_ISO10W100
 62
     5
370
    -2
100
AcDbLine
 10
0.2547973870742004
 20
0.2029310940913175
 30
0.0
 11
0.2526178576673925
 21
0.2008696257881754
 31
0.0
  0
MTEXT
  5
1CD5
330
1CD1
100
AcDbEntity
  8
Sezione
  6
ACAD_ISO10W100
 62
     4
100
AcDbMText
 10
0.2707259585027718
 20
0.2029310940913175
 30
0.0
 40
0.003
 41
0.0
 71
     5
 72
     1
  1
\A1;d 480 mm
  7
ROMANS
 73
     1
 44
1.0
1001
ACAD
1000
MTEXTBEGIN
1070
    73
1070
     1
1070
    44
1040
1.0
1070
    74
1070
     0
1000
MTEXTEND
  0
INSERT
  5
1CD6
330
1CD1
100
AcDbEntity
  8
Sezione
  6
ACAD_ISO10W100
 62
     5
370
    -2
100
AcDbBlockReference
  2
_ArchTick
 10
0.2526178576673925
 20
0.2008696257881754
 30
0.0
 41
0.0015
 42
0.0015
 43
0.0015
 50
223.4054090887448
  0
POINT
  5
1CD7
330
1CD1
100
AcDbEntity
  8
Defpoints
  6
ACAD_ISO10W100
 62
     0
100
AcDbPoint
 10
0.2526178576673925
 20
0.2008696257881754
 30
0.0
  0
POINT
  5
1CD8
330
1CD1
100
AcDbEntity
  8
Defpoints
  6
ACAD_ISO10W100
 62
     0
100
AcDbPoint
 10
0.1663436619896651
 20
0.1192687447846005
 30
0.0
  0
ENDBLK
  5
1CD9
330
1CD1
100
AcDbEntity
  8
0
100
AcDbBlockEnd
  0
BLOCK
  5
1DA9
330
1DA2
100
AcDbEntity
  8
0
100
AcDbBlockBegin
  2
*D9
 70
     1
 10
0.0
 20
0.0
 30
0.0
  3
*D9
  1

  0
LINE
  5
1DAB
330
1DA2
100
AcDbEntity
  8
Sezione
  6
ACAD_ISO10W100
 62
     5
370
    -2
100
AcDbLine
 10
0.2549649902511389
 20
0.2069811191221192
 30
0.0
 11
0.2534649902511389
 21
0.2069811191221192
 31
0.0
  0
LINE
  5
1DAC
330
1DA2
100
AcDbEntity
  8
Sezione
  6
ACAD_ISO10W100
 62
     5
370
    -2
100
AcDbLine
 10
0.2534649902511389
 20
0.2069811191221192
 30
0.0
 11
0.251285460844331
 21
0.204919650818977
 31
0.0
  0
MTEXT
  5
1DAD
330
1DA2
100
AcDbEntity
  8
Sezione
  6
ACAD_ISO10W100
 62
     4
100
AcDbMText
 10
0.2693935616797103
 20
0.2069811191221191
 30
0.0
 40
0.003
 41
0.0
 71
     5
 72
     1
  1
\A1;d 480 mm
  7
ROMANS
 73
     1
 44
1.0
1001
ACAD
1000
MTEXTBEGIN
1070
    73
1070
     1
1070
    44
1040
1.0
1070
    74
1070
     0
1000
MTEXTEND
  0
INSERT
  5
1DAE
330
1DA2
100
AcDbEntity
  8
Sezione
  6
ACAD_ISO10W100
 62
     5
370
    -2
100
AcDbBlockReference
  2
_ArchTick
 10
0.251285460844331
 20
0.204919650818977
 30
0.0
 41
0.0015
 42
0.0015
 43
0.0015
 50
223.4054090887448
  0
POINT
  5
1DAF
330
1DA2
100
AcDbEntity
  8
Defpoints
  6
ACAD_ISO10W100
 62
     0
100
AcDbPoint
 10
0.251285460844331
 20
0.204919650818977
 30
0.0
  0
POINT
  5
1DB0
330
1DA2
100
AcDbEntity
  8
Defpoints
  6
ACAD_ISO10W100
 62
     0
100
AcDbPoint
 10
0.1650112651666035
 20
0.123318769815402
 30
0.0
  0
ENDBLK
  5
1DAA
330
1DA2
100
AcDbEntity
  8
0
100
AcDbBlockEnd
  0
ENDSEC
  0
SECTION
  2
ENTITIES
  0
LINE
  5
D
330
2
100
AcDbEntity
  8
Table
100
AcDbLine
 10
0.02
 20
0.02
 30
0.0
 11
0.4
 21
0.02
 31
0.0
  0
LINE
  5
10
330
2
100
AcDbEntity
  8
Table
100
AcDbLine
 10
0.4
 20
0.02
 30
0.0
 11
0.4
 21
0.2769999999999999
 31
0.0
  0
LINE
  5
11
330
2
100
AcDbEntity
  8
Table
100
AcDbLine
 10
0.4
 20
0.2769999999999999
 30
0.0
 11
0.02
 21
0.277
 31
0.0
  0
LINE
  5
12
330
2
100
AcDbEntity
  8
Table
100
AcDbLine
 10
0.02
 20
0.277
 30
0.0
 11
0.02
 21
0.02
 31
0.0
  0
LINE
  5
13
330
2
100
AcDbEntity
  8
Table
 62
     2
100
AcDbLine
 10
0.015
 20
0.015
 30
0.0
 11
0.4050000000000001
 21
0.015
 31
0.0
  0
LINE
  5
14
330
2
100
AcDbEntity
  8
Table
 62
     2
100
AcDbLine
 10
0.4050000000000001
 20
0.015
 30
0.0
 11
0.4050000000000001
 21
0.2819999999999998
 31
0.0
  0
LINE
  5
15
330
2
100
AcDbEntity
  8
Table
 62
     2
100
AcDbLine
 10
0.4050000000000001
 20
0.2819999999999998
 30
0.0
 11
0.0149999999999999
 21
0.282
 31
0.0
  0
LINE
  5
16
330
2
100
AcDbEntity
  8
Table
 62
     2
100
AcDbLine
 10
0.0149999999999999
 20
0.282
 30
0.0
 11
0.015
 21
0.015
 31
0.0
  0
LINE
  5
17
330
2
100
AcDbEntity
  8
Table
100
AcDbLine
 10
0.21
 20
0.2769999999999999
 30
0.0
 11
0.21
 21
0.2532994226089223
 31
0.0
  0
MTEXT
  5
18
102
{ACAD_XDICTIONARY
360
1DB6
102
}
330
2
100
AcDbEntity
  8
Text
100
AcDbMText
 10
0.305
 20
0.0471738284815141
 30
0.0
 40
0.005
 41
0.1900000000000001
 71
     2
 72
     5
  3
{\fTimes New Roman|b0|i0|c238|p18;\H1.6x;\C4;Bovelacci\P\H0.4375x;\T0.95;via del Commercio, 5  47100 Forli - Italy  \fTimes New Roman|b0|i0|c0|p18;\P\fTimes New Roman|b0|i0|c238|p18;tel.+39-0543721386  fax +39-0543721127\fTimes New Roman|b0|i0|c0|p18
  1
; \fTimes New Roman|b0|i0|c238|p18;www.bovelacci.it\fTimes New Roman|b0|i0|c0|p18; \fTimes New Roman|b0|i0|c238|p18;e-mail: bovelacci@bovelacci\fTimes New Roman|b0|i0|c0|p18;.it}
 73
     1
 44
1.0
1001
ACAD
1000
ACAD_MTEXT_DEFINED_HEIGHT_BEGIN
1070
    46
1040
0.0271738284815141
1000
ACAD_MTEXT_DEFINED_HEIGHT_END
1000
MTEXTBEGIN
1070
    73
1070
     1
1070
    44
1040
1.0
1070
    74
1070
     0
1000
MTEXTEND
  0
MTEXT
  5
1C
330
2
100
AcDbEntity
  8
Text
100
AcDbMText
 10
0.0219676065851835
 20
0.0500313976452307
 30
0.0
 40
0.002
 41
0.1863544980601608
 71
     1
 72
     5
  3
{\fArial|b0|i0|c0|p34;\H1.25x;Le caratteristiche tecniche indicate vengono fornite a titolo indicativo e potranno essere modificate senza preavviso. Non devono quindi essere considerate a scopo di specifica.\P\fArial|b0|i1|c0|p34;The given values are
  3
 indicative and can be changed without notice. They cannot be considered like a state.\PThis lealfet and designs embodied within are protected by copyright law and international treaties. Unauthorized repro- duction of the leaflet or any portion of i
  1
t or reproduction of any of the designs embodied therein may result in severe civil penalties and will be prosecuted to the maximum.\PAll right reserved, Bovelacci Forlì Italy.}
 73
     1
 44
1.0
1001
ACAD
1000
MTEXTBEGIN
1070
    73
1070
     1
1070
    44
1040
1.0
1070
    74
1070
     0
1000
MTEXTEND
  0
LINE
  5
1D
330
2
100
AcDbEntity
  8
Table
100
AcDbLine
 10
0.02
 20
0.0528099428524846
 30
0.0
 11
0.4
 21
0.0528099428524846
 31
0.0
  0
MTEXT
  5
1E
330
2
100
AcDbEntity
  8
Text
100
AcDbMText
 10
0.1133313047219695
 20
0.2610796890771976
 30
0.0
 40
0.003
 41
0.1103605678262056
 71
     2
 72
     5
  1
{\fTimes New Roman|b0|i0|c0|p18;Rosoni\fTimes New Roman|b0|i1|c0|p18;   Ceiling centres}
 73
     1
 44
1.0
1001
ACAD
1000
ACAD_MTEXT_DEFINED_HEIGHT_BEGIN
1070
    46
1040
0.0141952763113409
1000
ACAD_MTEXT_DEFINED_HEIGHT_END
1000
MTEXTBEGIN
1070
    73
1070
     1
1070
    44
1040
1.0
1070
    74
1070
     0
1000
MTEXTEND
  0
TEXT
  5
1F
330
2
100
AcDbEntity
  8
Text
100
AcDbText
 10
0.2180556919891047
 20
0.269976982173197
 30
0.0
 40
0.003
  1
Rosone - Ceiling centre : D 480 mm
  7
ROMANS
100
AcDbText
  0
TEXT
  5
21
330
2
100
AcDbEntity
  8
Text
100
AcDbText
 10
0.2184542410678115
 20
0.2576348370183962
 30
0.0
 40
0.003
  1
File : C - R3316
  7
ROMANS
100
AcDbText
  0
LINE
  5
22
330
2
100
AcDbEntity
  8
Table
100
AcDbLine
 10
0.4
 20
0.2654452889427402
 30
0.0
 11
0.02
 21
0.2654452889427403
 31
0.0
  0
LINE
  5
23
330
2
100
AcDbEntity
  8
Table
100
AcDbLine
 10
0.4
 20
0.2532994226089223
 30
0.0
 11
0.02
 21
0.2532994226089225
 31
0.0
  0
LINE
  5
24
330
2
100
AcDbEntity
  8
Table
100
AcDbLine
 10
0.21
 20
0.0528099428524846
 30
0.0
 11
0.21
 21
0.02
 31
0.0
  0
TEXT
  5
25
330
2
100
AcDbEntity
  8
Text
100
AcDbText
 10
0.0896473531074035
 20
0.2687784133392506
 30
0.0
 40
0.005
  1
CLASSICSTYL
  7
style1
 72
     1
 11
0.1140561490699125
 21
0.2687784133392506
 31
0.0
100
AcDbText
  0
TEXT
  5
252
330
2
100
AcDbEntity
  8
Text
  6
ACAD_ISO10W100
100
AcDbText
 10
0.2951589460841571
 20
0.0876218606849342
 30
0.0
 40
0.005
  1
scala 1 : 4
  7
style1
100
AcDbText
  0
CIRCLE
  5
1D41
102
{ACAD_REACTORS
330
1D8E
102
}
330
2
100
AcDbEntity
  8
Sezione
  6
ACAD_ISO10W100
 62
     3
 48
0.001
100
AcDbCircle
 10
0.2081483630054674
 20
0.1641192103171896
 30
0.0
 40
0.0593757960376077
  0
CIRCLE
  5
1D42
330
2
100
AcDbEntity
  8
Profilo
  6
Continuous
370
     0
100
AcDbCircle
 10
0.2081483630054674
 20
0.1641192103171896
 30
0.0
 40
0.0061922954166994
  0
CIRCLE
  5
1D43
330
2
100
AcDbEntity
  8
Profilo
  6
Continuous
370
     0
100
AcDbCircle
 10
0.2081483630054674
 20
0.1641192103171896
 30
0.0
 40
0.0048502429620217
  0
LWPOLYLINE
  5
1D44
330
2
100
AcDbEntity
  8
Profilo
  6
Continuous
370
     0
100
AcDbPolyline
 90
        8
 70
   128
 43
0.0
 10
0.192319021919674
 20
0.1679128437927735
 10
0.1925857960498826
 20
0.1709792555345977
 10
0.1942740856643995
 20
0.1741010944855004
 10
0.1962156215541139
 20
0.1762104448637716
 10
0.1995922059340932
 20
0.1783197952420419
 10
0.202293472922983
 20
0.1794166570476807
 10
0.2044882525124224
 20
0.1798385264715649
 10
0.2061443094003211
 20
0.1798385264715649
  0
LWPOLYLINE
  5
1D45
330
2
100
AcDbEntity
  8
Profilo
  6
Continuous
370
     0
100
AcDbPolyline
 90
        9
 70
   128
 43
0.0
 10
0.1950943259450171
 20
0.1661041583700408
 10
0.1951182330471312
 20
0.1668449296404881
 10
0.1946117456476809
 20
0.1687011586903135
 10
0.1952026467552151
 20
0.1714854998209139
 10
0.1969753526532884
 20
0.1741010944855004
 10
0.1994233759424521
 20
0.176294818096778
 10
0.2019558155151738
 20
0.1774760547648488
 10
0.2045726662205064
 20
0.1781510471466035
 10
0.2075956407119634
 20
0.1777692648256799
  0
LWPOLYLINE
  5
1D46
330
2
100
AcDbEntity
  8
Profilo
  6
Continuous
370
     0
100
AcDbPolyline
 90
        8
 70
   128
 43
0.0
 10
0.2045157757058361
 20
0.1482758584079548
 10
0.2012883177880584
 20
0.1485566433616048
 10
0.1981664788371565
 20
0.1502449329761217
 10
0.1960571284588853
 20
0.1521864688658361
 10
0.193947778080615
 20
0.1555630532458154
 10
0.1928509162749762
 20
0.1582643202347052
 10
0.192429046851092
 20
0.1604590998241446
 10
0.192429046851092
 20
0.162400635713859
  0
LWPOLYLINE
  5
1D47
330
2
100
AcDbEntity
  8
Profilo
  6
Continuous
370
     0
100
AcDbPolyline
 90
        9
 70
   128
 43
0.0
 10
0.2066153856055839
 20
0.1510103790565935
 10
0.2054226436821688
 20
0.1510890803588534
 10
0.2035664146323434
 20
0.150582592959404
 10
0.2007820735017431
 20
0.1511734940669374
 10
0.1981664788371565
 20
0.1529461999650106
 10
0.1959727552258789
 20
0.1553942232541752
 10
0.1947915185578081
 20
0.157926662826896
 10
0.1941165261760535
 20
0.1605435135322286
 10
0.19479507128874
 20
0.1632700107235032
  0
LWPOLYLINE
  5
1D48
330
2
100
AcDbEntity
  8
Profilo
  6
Continuous
370
     0
100
AcDbPolyline
 90
        8
 70
   128
 43
0.0
 10
0.2239901246944528
 20
0.1604683443709729
 10
0.2237109299610521
 20
0.1572591650997814
 10
0.2220226403465352
 20
0.1541373261488788
 10
0.2200811044568208
 20
0.1520279757706076
 10
0.2167045200768415
 20
0.1499186253923372
 10
0.2140032530879518
 20
0.1488217635866984
 10
0.2118084734985123
 20
0.1483998941628142
 10
0.2100496445075057
 20
0.1483998941628142
  0
LWPOLYLINE
  5
1D49
330
2
100
AcDbEntity
  8
Profilo
  6
Continuous
370
     0
100
AcDbPolyline
 90
        9
 70
   128
 43
0.0
 10
0.2213677773401032
 20
0.162786551815516
 10
0.2211784929638036
 20
0.161393490993891
 10
0.2216849803632529
 20
0.1595372619440656
 10
0.2210940792557196
 20
0.1567529208134653
 10
0.2193213733576464
 20
0.1541373261488788
 10
0.2168733500684818
 20
0.1519436025376011
 10
0.2143409104957609
 20
0.1507623658695303
 10
0.2117240597904283
 20
0.1500873734877757
 10
0.2090797008186171
 20
0.1506194642046848
  0
LWPOLYLINE
  5
1D4A
330
2
100
AcDbEntity
  8
Profilo
  6
Continuous
370
     0
100
AcDbPolyline
 90
        8
 70
   128
 43
0.0
 10
0.2115474596912062
 20
0.1799828756287582
 10
0.2150084082228755
 20
0.1796817772727743
 10
0.2181302471737782
 20
0.1779934876582574
 10
0.2202395975520485
 20
0.176051951768543
 10
0.2223489479303197
 20
0.1726753673885637
 10
0.2234458097359585
 20
0.169974100399674
 10
0.2238676791598428
 20
0.1677793208102345
 10
0.2238676791598428
 20
0.1660230272627099
  0
LWPOLYLINE
  5
1D4B
330
2
100
AcDbEntity
  8
Profilo
  6
Continuous
370
     0
100
AcDbPolyline
 90
        9
 70
   128
 43
0.0
 10
0.2090528440762482
 20
0.1774937204525675
 10
0.2108740823287659
 20
0.1771493402755258
 10
0.2127303113785913
 20
0.177655827674976
 10
0.2155146525091917
 20
0.1770649265674427
 10
0.2181302471737782
 20
0.1752922206693686
 10
0.2203239707850559
 20
0.1728441973802048
 10
0.2215052074531266
 20
0.1703117578074831
 10
0.2221801998348804
 20
0.1676949071021505
 10
0.221689854395824
 20
0.1648710264423338
  0
ELLIPSE
  5
1D4C
330
2
100
AcDbEntity
  8
Profilo
  6
Continuous
370
     0
100
AcDbEllipse
 10
0.1688633034166663
 20
0.2048716790199607
 30
0.0
 11
-0.0011742792579854
 21
0.001233394548153
 31
0.0
210
0.0
220
0.0
230
1.0
 40
0.7518853900957119
 41
0.0
 42
6.283185307179585
  0
LWPOLYLINE
  5
1D4D
330
2
100
AcDbEntity
  8
Profilo
  6
Continuous
370
     0
100
AcDbPolyline
 90
       26
 70
   128
 43
0.0
 10
0.1688018830681223
 20
0.2034328521372071
 10
0.168987477279296
 20
0.2029505369546178
 10
0.1685524283541818
 20
0.2024613413374456
 10
0.1675599671989522
 20
0.2022439207010531
 10
0.1665947004647504
 20
0.2020672666376615
 10
0.1653983107697415
 20
0.2019585563194652
 10
0.1645961873824578
 20
0.2014829484736775
 10
0.1626509917453921
 20
0.1984728652354695
 10
0.1610400976746152
 20
0.193142817088974
 10
0.157447735002877
 20
0.1837268108869308
 10
0.1556413908499431
 20
0.18050274998642
 10
0.1537887937746433
 20
0.1784974383661397
 10
0.1524340382354173
 20
0.1778741199253735
 10
0.1513803374795394
 20
0.1778311324467008
 10
0.1511462707529162
 20
0.1780962121219731
 10
0.1518665765090551
 20
0.1792161482087688
 10
0.1529070161536644
 20
0.1796161263137248
 10
0.154827832361858
 20
0.1817760051475206
 10
0.1566686131663285
 20
0.1854557965436434
 10
0.1586694622027721
 20
0.1906555037609425
 10
0.160750346642938
 20
0.1973751235405696
 10
0.1617107534592982
 20
0.2005749434919408
 10
0.1638716707277131
 20
0.2029748088628247
 10
0.166032587996129
 20
0.2043347314867094
 10
0.1669929948124892
 20
0.2044147264559306
 10
0.1676159758333163
 20
0.2044174269230463
  0
LWPOLYLINE
  5
1D4E
330
2
100
AcDbEntity
  8
Profilo
  6
Continuous
370
     0
100
AcDbPolyline
 90
       28
 70
   129
 43
0.0
 10
0.153880452288709
 20
0.1767828796344577
 10
0.1544958925044509
 20
0.1772910417534781
 10
0.1554324298356228
 20
0.1777189677484425
 10
0.1567703417804246
 20
0.1785480743636858
 10
0.1581082537252264
 20
0.1807679404625622
 10
0.1603855875311332
 20
0.1859397861493546
 10
0.161750258642002
 20
0.1897911201040319
 10
0.1631216259830696
 20
0.1945911245891263
 10
0.1641384382369683
 20
0.1972924074323374
 10
0.1651820096569331
 20
0.1986029307919155
 10
0.1666537148565931
 20
0.1995390189058994
 10
0.1676437679444248
 20
0.1999134541514926
 10
0.1685267895189385
 20
0.199806472652752
 10
0.1692760204140645
 20
0.1994855281565291
 10
0.1698647014637394
 20
0.1987099122906561
 10
0.1694900885916496
 20
0.1978808056754138
 10
0.1688211300437755
 20
0.1977738241766722
 10
0.1681254174807808
 20
0.1979610417994688
 10
0.1680183833919887
 20
0.1982284955463214
 10
0.1671353618174759
 20
0.1975063704298197
 10
0.1660382746408521
 20
0.1956876849512221
 10
0.1643073995777392
 20
0.1898674879741884
 10
0.162724624522855
 20
0.1853352337912166
 10
0.1598585195257124
 20
0.1794775095372019
 10
0.1577624140392094
 20
0.1770403531558962
 10
0.1568213052431891
 20
0.1763562392554696
 10
0.1558801938716957
 20
0.1766555401052965
 10
0.1544257546440576
 20
0.1766982962056829
  0
LWPOLYLINE
  5
1D4F
330
2
100
AcDbEntity
  8
Profilo
  6
Continuous
370
     0
100
AcDbPolyline
 90
       22
 70
   128
 43
0.0
 10
0.153604848331064
 20
0.1759894166814078
 10
0.1533063741718154
 20
0.174796092941971
 10
0.1541421023328077
 20
0.1735431045635154
 10
0.15509721912731
 20
0.1722304482871919
 10
0.1552166103362932
 20
0.1700228012430711
 10
0.1556344731290528
 20
0.1650108428409742
 10
0.1553956932865587
 20
0.1600585507073198
 10
0.1549778304937991
 20
0.1573735735156549
 10
0.1538436281735581
 20
0.1552852573789953
 10
0.1533063741718154
 20
0.1544499312502168
 10
0.153604848331064
 20
0.1538532701952107
 10
0.1540227136992968
 20
0.1537936039267673
 10
0.1546793563345504
 20
0.1545095975186601
 10
0.1555747788122973
 20
0.1552255911105529
 10
0.1564702012900451
 20
0.1555835887212111
 10
0.1575447092935315
 20
0.1577912373947565
 10
0.1581416576120297
 20
0.1614905395205299
 10
0.1580819632952742
 20
0.1664428300247589
 10
0.1573059294510374
 20
0.172409447092521
 10
0.1561717271307964
 20
0.1741994318869648
 10
0.1552763046530486
 20
0.1749154254788567
 10
0.153604848331064
 20
0.1760490829498511
  0
LWPOLYLINE
  5
1D50
330
2
100
AcDbEntity
  8
Profilo
  6
Continuous
370
     0
100
AcDbPolyline
 90
        2
 70
   128
 43
0.0
 10
0.1536045830573295
 20
0.1760965008338962
 10
0.1538792366653799
 20
0.1767466803384907
  0
LWPOLYLINE
  5
1D51
330
2
100
AcDbEntity
  8
Profilo
  6
Continuous
370
     0
100
AcDbPolyline
 90
        4
 70
   128
 43
0.0
 10
0.1563077378680399
 20
0.1741315158419876
 10
0.1570160522211758
 20
0.1747961434541325
 10
0.1570449619073247
 20
0.1753162867319229
 10
0.1567847644300849
 20
0.1763421235505287
  0
LWPOLYLINE
  5
1D52
330
2
100
AcDbEntity
  8
Profilo
  6
Continuous
370
     0
100
AcDbPolyline
 90
       26
 70
   129
 43
0.0
 10
0.1503236543257488
 20
0.1529134246281971
 10
0.1497217379195378
 20
0.1536353786551208
 10
0.1499625034518329
 20
0.1545979823949277
 10
0.1503637827729566
 20
0.1549990685085818
 10
0.151166338839729
 20
0.1562825401616574
 10
0.1517281293742071
 20
0.1586489436698313
 10
0.1521305702337224
 20
0.1621954693196776
 10
0.1520904417865164
 20
0.1652838252253497
 10
0.151970059020368
 20
0.1688935921011188
 10
0.1513280141669501
 20
0.1720220562922712
 10
0.150726095185265
 20
0.1735862892025606
 10
0.1500757006478816
 20
0.1749617532778733
 10
0.1500757006478816
 20
0.1755526054343324
 10
0.1504134945557677
 20
0.1756088759819983
 10
0.1513142740176748
 20
0.1753275183553968
 10
0.1521869035580122
 20
0.1747366661989378
 10
0.1530876830199194
 20
0.1726827504735346
 10
0.1534254743523323
 20
0.1707413791023116
 10
0.1538755382859319
 20
0.1673856199619477
 10
0.1539318355535973
 20
0.1645720371782404
 10
0.1536505758569072
 20
0.1602859531985519
 10
0.1531720349166473
 20
0.1576130500428563
 10
0.1524120024871148
 20
0.1553340472385185
 10
0.1518771642791895
 20
0.1540679354746774
 10
0.1512297289604602
 20
0.153955392749922
 10
0.1507511905956743
 20
0.153448948044385
  0
LWPOLYLINE
  5
1D53
330
2
100
AcDbEntity
  8
Profilo
  6
Continuous
370
     0
100
AcDbPolyline
 90
       27
 70
   129
 43
0.0
 10
0.1523004020844206
 20
0.1532737800161905
 10
0.1518126074691203
 20
0.1524031344807051
 10
0.151481602508467
 20
0.1514105982117788
 10
0.1514641820080559
 20
0.1507663204829315
 10
0.1514641820080559
 20
0.1501394564143286
 10
0.1518154507914818
 20
0.1468911382704314
 10
0.153349590611333
 20
0.1418675034119559
 10
0.1560863630731187
 20
0.1358343308687224
 10
0.1596088995167152
 20
0.129922636814517
 10
0.1623266212035824
 20
0.1267534875215908
 10
0.1641732766623173
 20
0.1251863249059475
 10
0.1652294421460029
 20
0.1249112112342503
 10
0.1660329073548
 20
0.1253745267011774
 10
0.1665273492663098
 20
0.1261158301447194
 10
0.1664346425346709
 20
0.1268571352176868
 10
0.1660329073548
 20
0.1270733484504827
 10
0.1655693711211338
 20
0.1270733484504827
 10
0.1643332702055676
 20
0.1277219897782948
 10
0.1608103809221489
 20
0.1310887459049963
 10
0.1570328443061365
 20
0.1375940605079842
 10
0.1545297393726356
 20
0.1428449642448777
 10
0.1531377914255966
 20
0.1471512221300111
 10
0.1528905717575778
 20
0.1497766731837451
 10
0.1533232074643477
 20
0.1518461482842468
 10
0.1534468172983562
 20
0.1527110028448548
 10
0.153168694527967
 20
0.1532052056836919
 10
0.1527051557188276
 20
0.153359644172667
  0
LWPOLYLINE
  5
1D54
330
2
100
AcDbEntity
  8
Profilo
  6
Continuous
370
     0
100
AcDbPolyline
 90
        4
 70
   128
 43
0.0
 10
0.1514366656528828
 20
0.1508654090491166
 10
0.1508754262696591
 20
0.1518003565659105
 10
0.1504563684573566
 20
0.1526455504898088
 10
0.1504114702338691
 20
0.1530045697496642
  0
LWPOLYLINE
  5
1D55
330
2
100
AcDbEntity
  8
Profilo
  6
Continuous
370
     0
100
AcDbPolyline
 90
        3
 70
   128
 43
0.0
 10
0.1523278076942484
 20
0.1533139469609546
 10
0.1522005947732973
 20
0.1537702021312739
 10
0.1518488855839622
 20
0.1540319871100919
  0
LWPOLYLINE
  5
1D56
330
2
100
AcDbEntity
  8
Profilo
  6
Continuous
370
     0
100
AcDbPolyline
 90
       33
 70
   128
 43
0.0
 10
0.1680455495465279
 20
0.1309014320627584
 10
0.1680168535609358
 20
0.1310113808270115
 10
0.1674081250282325
 20
0.1314677060625866
 10
0.1670276709830295
 20
0.1311254617285484
 10
0.1658863088474213
 20
0.1314296785522655
 10
0.1640220835108325
 20
0.1332930070048872
 10
0.1614730424381626
 20
0.1371337464410922
 10
0.1596797044246555
 20
0.140305594061086
 10
0.1579296137563432
 20
0.1442604143988297
 10
0.1569023888644855
 20
0.1474546926772804
 10
0.1566741169524585
 20
0.1496602654639394
 10
0.1567882516207349
 20
0.1515235939165611
 10
0.15747306993229
 20
0.1526263803098906
 10
0.1579676612212427
 20
0.1528165162320698
 10
0.1580057061106682
 20
0.1535390324104655
 10
0.1575872071760397
 20
0.1540714110372574
 10
0.1571844366559606
 20
0.1542304168032673
 10
0.1563359264217071
 20
0.1536947728096629
 10
0.1554874136119796
 20
0.1527573958208535
 10
0.1550110566729547
 20
0.1522366301028819
 10
0.154653789612554
 20
0.1503767544008976
 10
0.1545054346324844
 20
0.1485189057030627
 10
0.1547717514339378
 20
0.1463133329164037
 10
0.155532659524343
 20
0.1440317051091033
 10
0.1571686129489039
 20
0.1398867488491804
 10
0.158733771767419
 20
0.136943610518913
 10
0.1601034083905274
 20
0.134738037732254
 10
0.1610925883929596
 20
0.1334831429270664
 10
0.1626524494631972
 20
0.1315817869641236
 10
0.164136220754583
 20
0.1305170280811152
 10
0.1649732186238401
 20
0.13006070284554
 10
0.1661906731137724
 20
0.1296043776099649
 10
0.1664287198107551
 20
0.129639367698317
  0
LWPOLYLINE
  5
1D57
330
2
100
AcDbEntity
  8
Profilo
  6
Continuous
370
     0
100
AcDbPolyline
 90
        5
 70
   128
 43
0.0
 10
0.1552141172782807
 20
0.1526074382494114
 10
0.1545784312680783
 20
0.1526166461275851
 10
0.1542283420513571
 20
0.1529297335385917
 10
0.1540625099104668
 20
0.153380945639906
 10
0.1540164475731135
 20
0.1537308661930339
  0
LWPOLYLINE
  5
1D58
330
2
100
AcDbEntity
  8
Profilo
  6
Continuous
370
     0
100
AcDbPolyline
 90
        6
 70
   128
 43
0.0
 10
0.1571859690624867
 20
0.1542716151737771
 10
0.1572511980710492
 20
0.1547062674333144
 10
0.1571279874353791
 20
0.1549598156709944
 10
0.1569395477911456
 20
0.1551988734360845
 10
0.1565844106470434
 20
0.1553872235089491
 10
0.1564177131471739
 20
0.1554524216737645
  0
LWPOLYLINE
  5
1D59
330
2
100
AcDbEntity
  8
Profilo
  6
Continuous
370
     0
100
AcDbPolyline
 90
       21
 70
   128
 43
0.0
 10
0.1683347931462803
 20
0.1999671795380002
 10
0.168301935259786
 20
0.200656853035017
 10
0.168959082687777
 20
0.200886745286972
 10
0.1695176590317592
 20
0.2007225367683503
 10
0.170371951203243
 20
0.2005254871977742
 10
0.1709962407447406
 20
0.2008210615536388
 10
0.1719491065757065
 20
0.2017077846212316
 10
0.1724091092602057
 20
0.2028900820446891
 10
0.1725405382307098
 20
0.2043351111426312
 10
0.1725733961172041
 20
0.2051889931582698
 10
0.1729019698312001
 20
0.2055502512474676
 10
0.17352626194817
 20
0.2058786666552865
 10
0.1743476962331595
 20
0.2056487760327561
 10
0.1748734146906482
 20
0.2048277350690719
 10
0.1750377015476457
 20
0.2030871316152651
 10
0.1745448409766522
 20
0.2018391504584744
 10
0.17352626194817
 20
0.2004269624124866
 10
0.1726062540036984
 20
0.1996387641301813
 10
0.1714891038912073
 20
0.1992446649890291
 10
0.1702405222327398
 20
0.1990147743664978
 10
0.169714803775251
 20
0.1990147743664978
  0
LWPOLYLINE
  5
1D5A
330
2
100
AcDbEntity
  8
Profilo
  6
Continuous
370
     0
100
AcDbPolyline
 90
        6
 70
   128
 43
0.0
 10
0.1503841006806658
 20
0.1756964363694393
 10
0.1502432660822043
 20
0.175957864504279
 10
0.1504444594694941
 20
0.1763801689845195
 10
0.1506858920493362
 20
0.1771443414017255
 10
0.150846848819547
 20
0.1777878533010309
 10
0.1510882813993882
 20
0.1780693901643333
  0
LWPOLYLINE
  5
1D5B
330
2
100
AcDbEntity
  8
Profilo
  6
Continuous
370
     0
100
AcDbPolyline
 90
        5
 70
   128
 43
0.0
 10
0.1516516275196519
 20
0.1752138024449603
 10
0.1522753298532698
 20
0.1756964363694393
 10
0.152516762433112
 20
0.1764002793424069
 10
0.1526575996070457
 20
0.1770840119574879
 10
0.1523960474309275
 20
0.1778079636589191
  0
ELLIPSE
  5
1D5C
330
2
100
AcDbEntity
  8
Profilo
  6
Continuous
370
     0
100
AcDbEllipse
 10
0.1673958943026962
 20
0.1248341507283885
 30
0.0
 11
-0.001233394548153
 21
-0.0011742792579854
 31
0.0
210
0.0
220
0.0
230
1.0
 40
0.7518853900957119
 41
0.0
 42
6.283185307179585
  0
LWPOLYLINE
  5
1D5D
330
2
100
AcDbEntity
  8
Profilo
  6
Continuous
370
     0
100
AcDbPolyline
 90
       26
 70
   128
 43
0.0
 10
0.1688347211854489
 20
0.1247727303798445
 10
0.1693170363680391
 20
0.1249583245910182
 10
0.1698062319852113
 20
0.1245232756659049
 10
0.1700236526216038
 20
0.1235308145106744
 10
0.1702003066849954
 20
0.1225655477764727
 10
0.1703090170031917
 20
0.1213691580814638
 10
0.1707846248489794
 20
0.1205670346941801
 10
0.1737947080871874
 20
0.1186218390571143
 10
0.1791247562336829
 20
0.1170109449863375
 10
0.1885407624357261
 20
0.1134185823145992
 10
0.1917648233362369
 20
0.1116122381616662
 10
0.1937701349565172
 20
0.1097596410863664
 10
0.1943934533972834
 20
0.1084048855471396
 10
0.1944364408759561
 20
0.1073511847912616
 10
0.1941713612006838
 20
0.1071171180646384
 10
0.1930514251138881
 20
0.1078374238207773
 10
0.1926514470089321
 20
0.1088778634653866
 10
0.1904915681751363
 20
0.1107986796735803
 10
0.1868117767790135
 20
0.1126394604780516
 10
0.1816120695617144
 20
0.1146403095144943
 10
0.1748924497820873
 20
0.1167211939546602
 10
0.1716926298307161
 20
0.1176816007710204
 10
0.1692927644598322
 20
0.1198425180394353
 10
0.1679328418359475
 20
0.1220034353078512
 10
0.1678528468667263
 20
0.1229638421242114
 10
0.1678501463996106
 20
0.1235868231450385
  0
LWPOLYLINE
  5
1D5E
330
2
100
AcDbEntity
  8
Profilo
  6
Continuous
370
     0
100
AcDbPolyline
 90
       28
 70
   129
 43
0.0
 10
0.1954846936881992
 20
0.1098512996004313
 10
0.1949765315691788
 20
0.1104667398161732
 10
0.1945486055742144
 20
0.111403277147345
 10
0.1937194989589711
 20
0.1127411890921477
 10
0.1914996328600947
 20
0.1140791010369486
 10
0.1863277871733023
 20
0.1163564348428554
 10
0.182476453218625
 20
0.1177211059537242
 10
0.1776764487335306
 20
0.1190924732947918
 10
0.1749751658903195
 20
0.1201092855486905
 10
0.1736646425307414
 20
0.1211528569686553
 10
0.1727285544167575
 20
0.1226245621683153
 10
0.1723541191711634
 20
0.123614615256147
 10
0.1724611006699049
 20
0.1244976368306607
 10
0.1727820451661278
 20
0.1252468677257876
 10
0.1735576610320008
 20
0.1258355487754625
 10
0.1743867676472431
 20
0.1254609359033718
 10
0.1744937491459847
 20
0.1247919773554977
 10
0.1743065315231881
 20
0.1240962647925039
 10
0.1740390777763355
 20
0.1239892307037109
 10
0.1747612028928372
 20
0.123106209129199
 10
0.1765798883714348
 20
0.1220091219525743
 10
0.1824000853484685
 20
0.1202782468894623
 10
0.1869323395314403
 20
0.1186954718345772
 10
0.192790063785455
 20
0.1158293668374346
 10
0.1952272201667607
 20
0.1137332613509316
 10
0.1959113340671873
 20
0.1127921525549114
 10
0.1956120332173604
 20
0.1118510411834179
 10
0.195569277116974
 20
0.1103966019557798
  0
LWPOLYLINE
  5
1D5F
330
2
100
AcDbEntity
  8
Profilo
  6
Continuous
370
     0
100
AcDbPolyline
 90
       22
 70
   128
 43
0.0
 10
0.1962781566412482
 20
0.1095756956427862
 10
0.1974714803806859
 20
0.1092772214835376
 10
0.1987244687591415
 20
0.1101129496445299
 10
0.200037125035465
 20
0.1110680664390322
 10
0.2022447720795858
 20
0.1111874576480154
 10
0.2072567304816827
 20
0.111605320440775
 10
0.2122090226153372
 20
0.1113665405982809
 10
0.214893999807002
 20
0.1109486778055213
 10
0.2169823159436607
 20
0.1098144754852803
 10
0.2178176420724402
 20
0.1092772214835376
 10
0.2184143031274463
 20
0.1095756956427862
 10
0.2184739693958896
 20
0.109993561011019
 10
0.2177579758039968
 20
0.1106502036462726
 10
0.217041982212104
 20
0.1115456261240204
 10
0.2166839846014458
 20
0.1124410486017673
 10
0.2144763359279004
 20
0.1135155566052537
 10
0.210777033802127
 20
0.1141125049237519
 10
0.205824743297898
 20
0.1140528106069965
 10
0.1998581262301359
 20
0.1132767767627596
 10
0.1980681414356921
 20
0.1121425744425186
 10
0.1973521478438002
 20
0.1112471519647709
 10
0.1962184903728058
 20
0.1095756956427862
  0
LWPOLYLINE
  5
1D60
330
2
100
AcDbEntity
  8
Profilo
  6
Continuous
370
     0
100
AcDbPolyline
 90
        2
 70
   128
 43
0.0
 10
0.1961710724887607
 20
0.1095754303690517
 10
0.1955208929841662
 20
0.1098500839771022
  0
LWPOLYLINE
  5
1D61
330
2
100
AcDbEntity
  8
Profilo
  6
Continuous
370
     0
100
AcDbPolyline
 90
        4
 70
   128
 43
0.0
 10
0.1981360574806693
 20
0.1122785851797621
 10
0.1974714298685244
 20
0.112986899532898
 10
0.196951286590734
 20
0.113015809219047
 10
0.1959254497721282
 20
0.1127556117418071
  0
LWPOLYLINE
  5
1D62
330
2
100
AcDbEntity
  8
Profilo
  6
Continuous
370
     0
100
AcDbPolyline
 90
       26
 70
   129
 43
0.0
 10
0.2193541486944598
 20
0.1062945016374719
 10
0.2186321946675362
 20
0.10569258523126
 10
0.2176695909277292
 20
0.1059333507635551
 10
0.2172685048140751
 20
0.1063346300846788
 10
0.2159850331609995
 20
0.1071371861514512
 10
0.2136186296528256
 20
0.1076989766859293
 10
0.2100721040029793
 20
0.1081014175454447
 10
0.2069837480973073
 20
0.1080612890982386
 10
0.2033739812215382
 20
0.1079409063320902
 10
0.2002455170303858
 20
0.1072988614786723
 10
0.1986812841200963
 20
0.1066969424969872
 10
0.1973058200447836
 20
0.1060465479596038
 10
0.1967149678883245
 20
0.1060465479596038
 10
0.1966586973406587
 20
0.1063843418674899
 10
0.1969400549672601
 20
0.107285121329397
 10
0.1975309071237191
 20
0.1081577508697353
 10
0.1995848228491223
 20
0.1090585303316425
 10
0.2015261942203454
 20
0.1093963216640545
 10
0.2048819533607093
 20
0.1098463855976541
 10
0.2076955361444165
 20
0.1099026828653196
 10
0.2119816201241051
 20
0.1096214231686294
 10
0.2146545232798006
 20
0.1091428822283704
 10
0.2169335260841384
 20
0.108382849798837
 10
0.2181996378479795
 20
0.1078480115909117
 10
0.218312180572735
 20
0.1072005762721824
 10
0.2188186252782719
 20
0.1067220379073965
  0
LWPOLYLINE
  5
1D63
330
2
100
AcDbEntity
  8
Profilo
  6
Continuous
370
     0
100
AcDbPolyline
 90
       27
 70
   129
 43
0.0
 10
0.2189937933064664
 20
0.1082712493961428
 10
0.2198644388419519
 20
0.1077834547808425
 10
0.2208569751108781
 20
0.1074524498201892
 10
0.2215012528397255
 20
0.1074350293197781
 10
0.2221281169083284
 20
0.1074350293197781
 10
0.2253764350522255
 20
0.1077862981032041
 10
0.2304000699107011
 20
0.1093204379230552
 10
0.2364332424539345
 20
0.1120572103848409
 10
0.2423449365081399
 20
0.1155797468284374
 10
0.2455140858010662
 20
0.1182974685153046
 10
0.2470812484167094
 20
0.1201441239740395
 10
0.2473563620884066
 20
0.1212002894577251
 10
0.2468930466214795
 20
0.1220037546665222
 10
0.2461517431779375
 20
0.1224981965780321
 10
0.2454104381049701
 20
0.1224054898463931
 10
0.2451942248721743
 20
0.1220037546665222
 10
0.2451942248721743
 20
0.121540218432856
 10
0.2445455835443621
 20
0.1203041175172899
 10
0.2411788274176606
 20
0.1167812282338712
 10
0.2346735128146728
 20
0.1130036916178596
 10
0.2294226090777792
 20
0.1105005866843578
 10
0.2251163511926459
 20
0.1091086387373197
 10
0.2224909001389118
 20
0.1088614190693009
 10
0.2204214250384101
 20
0.1092940547760699
 10
0.2195565704778021
 20
0.1094176646100784
 10
0.219062367638965
 20
0.1091395418396892
 10
0.2189079291499899
 20
0.1086760030305498
  0
LWPOLYLINE
  5
1D64
330
2
100
AcDbEntity
  8
Profilo
  6
Continuous
370
     0
100
AcDbPolyline
 90
        4
 70
   128
 43
0.0
 10
0.2214021642735403
 20
0.107407512964605
 10
0.2204672167567464
 20
0.1068462735813822
 10
0.2196220228328482
 20
0.1064272157690789
 10
0.2192630035729927
 20
0.1063823175455913
  0
LWPOLYLINE
  5
1D65
330
2
100
AcDbEntity
  8
Profilo
  6
Continuous
370
     0
100
AcDbPolyline
 90
        3
 70
   128
 43
0.0
 10
0.2189536263617024
 20
0.1082986550059706
 10
0.218497371191383
 20
0.1081714420850195
 10
0.218235586212565
 20
0.1078197328956845
  0
LWPOLYLINE
  5
1D66
330
2
100
AcDbEntity
  8
Profilo
  6
Continuous
370
     0
100
AcDbPolyline
 90
       33
 70
   128
 43
0.0
 10
0.2413661412598985
 20
0.1240163968582502
 10
0.2412561924956455
 20
0.123987700872658
 10
0.2407998672600703
 20
0.1233789723399548
 10
0.2411421115941085
 20
0.1229985182947517
 10
0.2408378947703914
 20
0.1218571561591435
 10
0.2389745663177697
 20
0.1199929308225547
 10
0.2351338268815647
 20
0.1174438897498848
 10
0.2319619792615709
 20
0.1156505517363777
 10
0.2280071589238272
 20
0.1139004610680654
 10
0.2248128806453765
 20
0.1128732361762077
 10
0.2226073078587175
 20
0.1126449642641807
 10
0.2207439794060958
 20
0.1127590989324572
 10
0.2196411930127663
 20
0.1134439172440123
 10
0.2194510570905871
 20
0.1139385085329649
 10
0.2187285409121914
 20
0.1139765534223904
 10
0.2181961622853995
 20
0.1135580544877619
 10
0.2180371565193896
 20
0.1131552839676828
 10
0.218572800512994
 20
0.1123067737334293
 10
0.2195101775018035
 20
0.1114582609237018
 10
0.220030943219775
 20
0.1109819039846769
 10
0.2218908189217593
 20
0.1106246369242763
 10
0.2237486676195942
 20
0.1104762819442075
 10
0.2259542404062532
 20
0.1107425987456601
 10
0.2282358682135536
 20
0.1115035068360652
 10
0.2323808244734765
 20
0.113139460260627
 10
0.2353239628037439
 20
0.1147046190791412
 10
0.2375295355904029
 20
0.1160742557022496
 10
0.2387844303955905
 20
0.1170634357046827
 10
0.2406857863585333
 20
0.1186232967749194
 10
0.2417505452415417
 20
0.1201070680663052
 10
0.2422068704771169
 20
0.1209440659355623
 10
0.242663195712692
 20
0.1221615204254947
 10
0.24262820562434
 20
0.1223995671224773
  0
LWPOLYLINE
  5
1D67
330
2
100
AcDbEntity
  8
Profilo
  6
Continuous
370
     0
100
AcDbPolyline
 90
        5
 70
   128
 43
0.0
 10
0.2196601350732456
 20
0.1111849645900029
 10
0.2196509271950719
 20
0.1105492785798006
 10
0.2193378397840652
 20
0.1101991893630794
 10
0.2188866276827509
 20
0.110033357222189
 10
0.218536707129623
 20
0.1099872948848366
  0
LWPOLYLINE
  5
1D68
330
2
100
AcDbEntity
  8
Profilo
  6
Continuous
370
     0
100
AcDbPolyline
 90
        6
 70
   128
 43
0.0
 10
0.2179959581488799
 20
0.1131568163742089
 10
0.2175613058893425
 20
0.1132220453827715
 10
0.2173077576516626
 20
0.1130988347471014
 10
0.2170686998865724
 20
0.1129103951028678
 10
0.2168803498137079
 20
0.1125552579587656
 10
0.2168151516488924
 20
0.1123885604588961
  0
LWPOLYLINE
  5
1D69
330
2
100
AcDbEntity
  8
Profilo
  6
Continuous
370
     0
100
AcDbPolyline
 90
       21
 70
   128
 43
0.0
 10
0.1723003937846567
 20
0.1243056404580025
 10
0.1716107202876399
 20
0.1242727825715082
 10
0.1713808280356849
 20
0.1249299299994993
 10
0.1715450365543066
 20
0.1254885063434823
 10
0.1717420861248827
 20
0.1263427985149652
 10
0.1714465117690181
 20
0.1269670880564628
 10
0.1705597887014253
 20
0.1279199538874287
 10
0.1693774912779679
 20
0.1283799565719288
 10
0.1679324621800257
 20
0.1285113855424329
 10
0.1670785801643871
 20
0.1285442434289263
 10
0.1667173220751893
 20
0.1288728171429223
 10
0.1663889066673704
 20
0.1294971092598931
 10
0.1666187972899008
 20
0.1303185435448826
 10
0.167439838253585
 20
0.1308442620023704
 10
0.1691804417073918
 20
0.131008548859368
 10
0.1704284228641825
 20
0.1305156882883744
 10
0.1718406109101703
 20
0.1294971092598931
 10
0.1726288091924756
 20
0.1285771013154207
 10
0.1730229083336278
 20
0.1274599512029295
 10
0.1732527989561591
 20
0.126211369544462
 10
0.1732527989561591
 20
0.1256856510869733
  0
LWPOLYLINE
  5
1D6A
330
2
100
AcDbEntity
  8
Profilo
  6
Continuous
370
     0
100
AcDbPolyline
 90
        6
 70
   128
 43
0.0
 10
0.1965711369532176
 20
0.106354947992388
 10
0.1963097088183779
 20
0.1062141133939274
 10
0.1958874043381374
 20
0.1064153067812164
 10
0.1951232319209314
 20
0.1066567393610585
 10
0.194479720021626
 20
0.1068176961312692
 10
0.1941981831583236
 20
0.1070591287111113
  0
LWPOLYLINE
  5
1D6B
330
2
100
AcDbEntity
  8
Profilo
  6
Continuous
370
     0
100
AcDbPolyline
 90
        5
 70
   128
 43
0.0
 10
0.1970537708776966
 20
0.1076224748313741
 10
0.1965711369532176
 20
0.1082461771649921
 10
0.19586729398025
 20
0.1084876097448342
 10
0.195183561365169
 20
0.1086284469187679
 10
0.1944596096637378
 20
0.1083668947426497
  0
ELLIPSE
  5
1D6C
330
2
100
AcDbEntity
  8
Profilo
  6
Continuous
370
     0
100
AcDbEllipse
 10
0.2474334225942684
 20
0.1233667416144184
 30
0.0
 11
0.0011742792579854
 21
-0.001233394548153
 31
0.0
210
0.0
220
0.0
230
1.0
 40
0.7518853900957118
 41
0.0
 42
6.283185307179585
  0
LWPOLYLINE
  5
1D6D
330
2
100
AcDbEntity
  8
Profilo
  6
Continuous
370
     0
100
AcDbPolyline
 90
       26
 70
   128
 43
0.0
 10
0.2474948429428124
 20
0.1248055684971721
 10
0.2473092487316387
 20
0.1252878836797613
 10
0.2477442976567529
 20
0.1257770792969335
 10
0.2487367588119826
 20
0.125994499933326
 10
0.2497020255461843
 20
0.1261711539967176
 10
0.2508984152411932
 20
0.1262798643149139
 10
0.2517005386284769
 20
0.1267554721607016
 10
0.2536457342655426
 20
0.1297655553989097
 10
0.2552566283363195
 20
0.1350956035454052
 10
0.2588489910080577
 20
0.1445116097474484
 10
0.2606553351609907
 20
0.1477356706479591
 10
0.2625079322362906
 20
0.1497409822682394
 10
0.2638626877755174
 20
0.1503643007090056
 10
0.2649163885313953
 20
0.1504072881876792
 10
0.2651504552580185
 20
0.150142208512406
 10
0.2644301495018796
 20
0.1490222724256103
 10
0.2633897098572703
 20
0.1486222943206543
 10
0.2614688936490767
 20
0.1464624154868586
 10
0.2596281128446053
 20
0.1427826240907357
 10
0.2576272638081626
 20
0.1375829168734366
 10
0.2555463793679968
 20
0.1308632970938095
 10
0.2545859725516365
 20
0.1276634771424383
 10
0.2524250552832216
 20
0.1252636117715544
 10
0.2502641380148058
 20
0.1239036891476697
 10
0.2493037311984455
 20
0.1238236941784485
 10
0.2486807501776184
 20
0.1238209937113328
  0
LWPOLYLINE
  5
1D6E
330
2
100
AcDbEntity
  8
Profilo
  6
Continuous
370
     0
100
AcDbPolyline
 90
       28
 70
   129
 43
0.0
 10
0.2624162737222257
 20
0.1514555409999214
 10
0.2618008335064838
 20
0.150947378880901
 10
0.2608642961753119
 20
0.1505194528859366
 10
0.2595263842305092
 20
0.1496903462706933
 10
0.2581884722857083
 20
0.147470480171817
 10
0.2559111384798015
 20
0.1422986344850245
 10
0.2545464673689327
 20
0.1384473005303473
 10
0.2531751000278652
 20
0.1336472960452528
 10
0.2521582877739664
 20
0.1309460132020417
 10
0.2511147163540016
 20
0.1296354898424636
 10
0.2496430111543416
 20
0.1286994017284797
 10
0.2486529580665099
 20
0.1283249664828865
 10
0.2477699364919962
 20
0.1284319479816272
 10
0.2470207055968693
 20
0.12875289247785
 10
0.2464320245471944
 20
0.129528508343723
 10
0.2468066374192851
 20
0.1303576149589654
 10
0.2474755959671592
 20
0.1304645964577069
 10
0.248171308530153
 20
0.1302773788349103
 10
0.248278342618946
 20
0.1300099250880577
 10
0.2491613641934579
 20
0.1307320502045595
 10
0.2502584513700826
 20
0.132550735683157
 10
0.2519893264331946
 20
0.1383709326601907
 10
0.2535721014880798
 20
0.1429031868431625
 10
0.2564382064852223
 20
0.1487609110971773
 10
0.2585343119717253
 20
0.151198067478483
 10
0.2594754207677456
 20
0.1518821813789095
 10
0.260416532139239
 20
0.1515828805290826
 10
0.2618709713668771
 20
0.1515401244286962
  0
LWPOLYLINE
  5
1D6F
330
2
100
AcDbEntity
  8
Profilo
  6
Continuous
370
     0
100
AcDbPolyline
 90
       22
 70
   128
 43
0.0
 10
0.2626918776798707
 20
0.1522490039529714
 10
0.2629903518391194
 20
0.1534423276924082
 10
0.262154623678127
 20
0.1546953160708637
 10
0.2611995068836247
 20
0.1560079723471872
 10
0.2610801156746415
 20
0.158215619391308
 10
0.260662252881882
 20
0.1632275777934049
 10
0.2609010327243761
 20
0.1681798699270593
 10
0.2613188955171356
 20
0.1708648471187242
 10
0.2624530978373766
 20
0.1729531632553838
 10
0.2629903518391194
 20
0.1737884893841624
 10
0.2626918776798707
 20
0.1743851504391685
 10
0.262274012311638
 20
0.1744448167076118
 10
0.2616173696763843
 20
0.173728823115719
 10
0.2607219471986365
 20
0.1730128295238262
 10
0.2598265247208896
 20
0.172654831913168
 10
0.2587520167174032
 20
0.1704471832396226
 10
0.258155068398905
 20
0.1667478811138492
 10
0.2582147627156605
 20
0.1617955906096202
 10
0.2589907965598973
 20
0.1558289735418581
 10
0.2601249988801383
 20
0.1540389887474143
 10
0.2610204213578861
 20
0.1533229951555224
 10
0.2626918776798707
 20
0.152189337684528
  0
LWPOLYLINE
  5
1D70
330
2
100
AcDbEntity
  8
Profilo
  6
Continuous
370
     0
100
AcDbPolyline
 90
        2
 70
   128
 43
0.0
 10
0.2626921429536052
 20
0.152141919800483
 10
0.2624174893455548
 20
0.1514917402958884
  0
LWPOLYLINE
  5
1D71
330
2
100
AcDbEntity
  8
Profilo
  6
Continuous
370
     0
100
AcDbPolyline
 90
        4
 70
   128
 43
0.0
 10
0.2599889881428949
 20
0.1541069047923915
 10
0.259280673789759
 20
0.1534422771802466
 10
0.25925176410361
 20
0.1529221339024562
 10
0.2595119615808498
 20
0.1518962970838504
  0
LWPOLYLINE
  5
1D72
330
2
100
AcDbEntity
  8
Profilo
  6
Continuous
370
     0
100
AcDbPolyline
 90
       26
 70
   129
 43
0.0
 10
0.265973071685185
 20
0.175324996006182
 10
0.2665749880913969
 20
0.1746030419792583
 10
0.2663342225591018
 20
0.1736404382394514
 10
0.2659329432379781
 20
0.1732393521257973
 10
0.2651303871712058
 20
0.1719558804727217
 10
0.2645685966367276
 20
0.1695894769645478
 10
0.2641661557772123
 20
0.1660429513147015
 10
0.2642062842244183
 20
0.1629545954090295
 10
0.2643266669905667
 20
0.1593448285332604
 10
0.2649687118439846
 20
0.1562163643421079
 10
0.2655706308256697
 20
0.1546521314318185
 10
0.2662210253630532
 20
0.1532766673565058
 10
0.2662210253630532
 20
0.1526858152000468
 10
0.265883231455167
 20
0.1526295446523809
 10
0.2649824519932599
 20
0.1529109022789823
 10
0.2641098224529216
 20
0.1535017544354413
 10
0.2632090429910145
 20
0.1555556701608445
 10
0.2628712516586024
 20
0.1574970415320676
 10
0.2624211877250028
 20
0.1608528006724315
 10
0.2623648904573374
 20
0.1636663834561396
 10
0.2626461501540275
 20
0.1679524674358273
 10
0.2631246910942865
 20
0.1706253705915228
 10
0.2638847235238199
 20
0.1729043733958606
 10
0.2644195617317452
 20
0.1741704851597017
 10
0.2650669970504746
 20
0.1742830278844571
 10
0.2655455354152604
 20
0.1747894725899941
  0
LWPOLYLINE
  5
1D73
330
2
100
AcDbEntity
  8
Profilo
  6
Continuous
370
     0
100
AcDbPolyline
 90
       27
 70
   129
 43
0.0
 10
0.2639963239265141
 20
0.1749646406181886
 10
0.2644841185418144
 20
0.175835286153674
 10
0.2648151235024677
 20
0.1768278224226003
 10
0.2648325440028788
 20
0.1774721001514476
 10
0.2648325440028788
 20
0.1780989642200506
 10
0.2644812752194529
 20
0.1813472823639477
 10
0.2629471353996017
 20
0.1863709172224233
 10
0.260210362937816
 20
0.1924040897656567
 10
0.2566878264942195
 20
0.1983157838198621
 10
0.2539701048073523
 20
0.2014849331127884
 10
0.2521234493486174
 20
0.2030520957284316
 10
0.2510672838649318
 20
0.2033272094001288
 10
0.2502638186561347
 20
0.2028638939332017
 10
0.2497693767446249
 20
0.2021225904896597
 10
0.2498620834762638
 20
0.2013812854166923
 10
0.2502638186561347
 20
0.2011650721838964
 10
0.2507273548898009
 20
0.2011650721838964
 10
0.2519634558053671
 20
0.2005164308560843
 10
0.2554863450887858
 20
0.1971496747293828
 10
0.2592638817047973
 20
0.190644360126395
 10
0.2617669866382991
 20
0.1853934563895014
 10
0.2631589345853373
 20
0.181087198504368
 10
0.263406154253356
 20
0.178461747450634
 10
0.262973518546587
 20
0.1763922723501323
 10
0.2628499087125785
 20
0.1755274177895243
 10
0.2631280314829677
 20
0.1750332149506872
 10
0.2635915702921071
 20
0.1748787764617121
  0
LWPOLYLINE
  5
1D74
330
2
100
AcDbEntity
  8
Profilo
  6
Continuous
370
     0
100
AcDbPolyline
 90
        4
 70
   128
 43
0.0
 10
0.2648600603580519
 20
0.1773730115852625
 10
0.2654212997412747
 20
0.1764380640684686
 10
0.2658403575535781
 20
0.1755928701445704
 10
0.2658852557770656
 20
0.1752338508847149
  0
LWPOLYLINE
  5
1D75
330
2
100
AcDbEntity
  8
Profilo
  6
Continuous
370
     0
100
AcDbPolyline
 90
        3
 70
   128
 43
0.0
 10
0.2639689183166864
 20
0.1749244736734246
 10
0.2640961312376374
 20
0.1744682185031052
 10
0.2644478404269725
 20
0.1742064335242872
  0
LWPOLYLINE
  5
1D76
330
2
100
AcDbEntity
  8
Profilo
  6
Continuous
370
     0
100
AcDbPolyline
 90
       33
 70
   128
 43
0.0
 10
0.2482511764644068
 20
0.1973369885716207
 10
0.248279872449999
 20
0.1972270398073677
 10
0.2488886009827022
 20
0.1967707145717925
 10
0.2492690550279052
 20
0.1971129589058307
 10
0.2504104171635134
 20
0.1968087420821136
 10
0.2522746425001022
 20
0.1949454136294919
 10
0.2548236835727721
 20
0.1911046741932869
 10
0.2566170215862792
 20
0.1879328265732931
 10
0.2583671122545915
 20
0.1839780062355494
 10
0.2593943371464492
 20
0.1807837279570987
 10
0.2596226090584762
 20
0.1785781551704397
 10
0.2595084743901998
 20
0.176714826717818
 10
0.2588236560786447
 20
0.1756120403244885
 10
0.258329064789692
 20
0.1754219044023093
 10
0.2582910199002665
 20
0.1746993882239136
 10
0.258709518834895
 20
0.1741670095971217
 10
0.2591122893549741
 20
0.1740080038311118
 10
0.2599607995892276
 20
0.1745436478247162
 10
0.2608093123989551
 20
0.1754810248135257
 10
0.26128566933798
 20
0.1760017905314972
 10
0.2616429363983807
 20
0.1778616662334815
 10
0.2617912913784494
 20
0.1797195149313164
 10
0.2615249745769969
 20
0.1819250877179754
 10
0.2607640664865917
 20
0.1842067155252758
 10
0.2591281130620299
 20
0.1883516717851987
 10
0.2575629542435157
 20
0.1912948101154661
 10
0.2561933176204073
 20
0.1935003829021251
 10
0.2552041376179742
 20
0.1947552777073127
 10
0.2536442765477375
 20
0.1966566336702555
 10
0.2521605052563517
 20
0.1977213925532639
 10
0.2513235073870947
 20
0.1981777177888391
 10
0.2501060528971623
 20
0.1986340430244142
 10
0.2498680062001787
 20
0.1985990529360622
  0
LWPOLYLINE
  5
1D77
330
2
100
AcDbEntity
  8
Profilo
  6
Continuous
370
     0
100
AcDbPolyline
 90
        5
 70
   128
 43
0.0
 10
0.261082608732654
 20
0.1756309823849678
 10
0.2617182947428564
 20
0.1756217745067941
 10
0.2620683839595776
 20
0.1753086870957874
 10
0.2622342161004679
 20
0.1748574749944731
 10
0.2622802784378203
 20
0.1745075544413452
  0
LWPOLYLINE
  5
1D78
330
2
100
AcDbEntity
  8
Profilo
  6
Continuous
370
     0
100
AcDbPolyline
 90
        6
 70
   128
 43
0.0
 10
0.259110756948448
 20
0.1739668054606021
 10
0.2590455279398855
 20
0.1735321532010647
 10
0.2591687385755556
 20
0.1732786049633848
 10
0.2593571782197891
 20
0.1730395471982946
 10
0.2597123153638913
 20
0.1728511971254301
 10
0.2598790128637608
 20
0.1727859989606146
  0
LWPOLYLINE
  5
1D79
330
2
100
AcDbEntity
  8
Profilo
  6
Continuous
370
     0
100
AcDbPolyline
 90
       21
 70
   128
 43
0.0
 10
0.2479619328646544
 20
0.1282712410963789
 10
0.2479947907511487
 20
0.1275815675993621
 10
0.2473376433231577
 20
0.1273516753474071
 10
0.2467790669791755
 20
0.1275158838660289
 10
0.2459247748076917
 20
0.1277129334366049
 10
0.2453004852661941
 20
0.1274173590807404
 10
0.2443476194352282
 20
0.1265306360131475
 10
0.2438876167507281
 20
0.1253483385896901
 10
0.2437561877802249
 20
0.1239033094917479
 10
0.2437233298937306
 20
0.1230494274761094
 10
0.2433947561797346
 20
0.1226881693869115
 10
0.2427704640627638
 20
0.1223597539790926
 10
0.2419490297777743
 20
0.122589644601623
 10
0.2414233113202865
 20
0.1234106855653072
 10
0.241259024463289
 20
0.125151289019114
 10
0.2417518850342825
 20
0.1263992701759047
 10
0.2427704640627638
 20
0.1278114582218934
 10
0.2436904720072363
 20
0.1285996565041978
 10
0.2448076221197274
 20
0.12899375564535
 10
0.2460562037781949
 20
0.1292236462678813
 10
0.2465819222356837
 20
0.1292236462678813
  0
LWPOLYLINE
  5
1D7A
330
2
100
AcDbEntity
  8
Profilo
  6
Continuous
370
     0
100
AcDbPolyline
 90
        6
 70
   128
 43
0.0
 10
0.265912625330269
 20
0.1525419842649398
 10
0.2660534599287295
 20
0.1522805561301002
 10
0.2658522665414406
 20
0.1518582516498597
 10
0.2656108339615985
 20
0.1510940792326536
 10
0.2654498771913877
 20
0.1504505673333483
 10
0.2652084446115456
 20
0.1501690304700458
  0
LWPOLYLINE
  5
1D7B
330
2
100
AcDbEntity
  8
Profilo
  6
Continuous
370
     0
100
AcDbPolyline
 90
        5
 70
   128
 43
0.0
 10
0.2646450984912828
 20
0.1530246181894188
 10
0.2640213961576649
 20
0.1525419842649398
 10
0.2637799635778228
 20
0.1518381412919723
 10
0.263639126403889
 20
0.1511544086768912
 10
0.2639006785800072
 20
0.15043045697546
  0
ELLIPSE
  5
1D7C
330
2
100
AcDbEntity
  8
Profilo
  6
Continuous
370
     0
100
AcDbEllipse
 10
0.2489008317082385
 20
0.2034042699059906
 30
0.0
 11
0.001233394548153
 21
0.0011742792579854
 31
0.0
210
0.0
220
0.0
230
1.0
 40
0.7518853900957119
 41
0.0
 42
6.283185307179585
  0
LWPOLYLINE
  5
1D7D
330
2
100
AcDbEntity
  8
Profilo
  6
Continuous
370
     0
100
AcDbPolyline
 90
       26
 70
   128
 43
0.0
 10
0.2474620048254849
 20
0.2034656902545346
 10
0.2469796896428956
 20
0.2032800960433609
 10
0.2464904940257234
 20
0.2037151449684751
 10
0.2462730733893309
 20
0.2047076061237047
 10
0.2460964193259393
 20
0.2056728728579065
 10
0.245987709007743
 20
0.2068692625529154
 10
0.2455121011619553
 20
0.2076713859401991
 10
0.2425020179237473
 20
0.2096165815772648
 10
0.2371719697772518
 20
0.2112274756480417
 10
0.2277559635752086
 20
0.2148198383197799
 10
0.2245319026746969
 20
0.2166261824727138
 10
0.2225265910544175
 20
0.2184787795480136
 10
0.2219032726136513
 20
0.2198335350872396
 10
0.2218602851349777
 20
0.2208872358431175
 10
0.22212536481025
 20
0.2211213025697407
 10
0.2232453008970467
 20
0.2204009968136027
 10
0.2236452790020026
 20
0.2193605571689925
 10
0.2258051578357984
 20
0.2174397409607989
 10
0.2294849492319212
 20
0.2155989601563284
 10
0.2346846564492203
 20
0.2135981111198848
 10
0.2414042762288474
 20
0.2115172266797189
 10
0.2446040961802186
 20
0.2105568198633587
 10
0.2470039615511025
 20
0.2083959025949438
 10
0.2483638841749872
 20
0.2062349853265279
 10
0.2484438791442084
 20
0.2052745785101677
 10
0.2484465796113241
 20
0.2046515974893406
  0
LWPOLYLINE
  5
1D7E
330
2
100
AcDbEntity
  8
Profilo
  6
Continuous
370
     0
100
AcDbPolyline
 90
       28
 70
   129
 43
0.0
 10
0.2208120323227355
 20
0.2183871210339479
 10
0.2213201944417559
 20
0.2177716808182069
 10
0.2217481204367203
 20
0.2168351434870341
 10
0.2225772270519627
 20
0.2154972315422323
 10
0.22479709315084
 20
0.2141593195974305
 10
0.2299689388376324
 20
0.2118819857915237
 10
0.2338202727923097
 20
0.2105173146806549
 10
0.2386202772774041
 20
0.2091459473395874
 10
0.2413215601206152
 20
0.2081291350856886
 10
0.2426320834801933
 20
0.2070855636657238
 10
0.2435681715941772
 20
0.2056138584660638
 10
0.2439426068397704
 20
0.2046238053782321
 10
0.2438356253410298
 20
0.2037407838037184
 10
0.2435146808448069
 20
0.2029915529085915
 10
0.242739064978934
 20
0.2024028718589175
 10
0.2419099583636907
 20
0.2027774847310073
 10
0.24180297686495
 20
0.2034464432788814
 10
0.2419901944877466
 20
0.2041421558418761
 10
0.2422576482345992
 20
0.2042491899306682
 10
0.2415355231180975
 20
0.205132211505181
 10
0.2397168376394999
 20
0.2062292986818048
 10
0.2338966406624662
 20
0.2079601737449177
 10
0.2293643864794944
 20
0.2095429487998019
 10
0.2235066622254788
 20
0.2124090537969445
 10
0.221069505844174
 20
0.2145051592834475
 10
0.2203853919437474
 20
0.2154462680794678
 10
0.2206846927935743
 20
0.2163873794509612
 10
0.2207274488939607
 20
0.2178418186785993
  0
LWPOLYLINE
  5
1D7F
330
2
100
AcDbEntity
  8
Profilo
  6
Continuous
370
     0
100
AcDbPolyline
 90
       22
 70
   128
 43
0.0
 10
0.2200185693696856
 20
0.2186627249915929
 10
0.2188252456302488
 20
0.2189611991508416
 10
0.2175722572517932
 20
0.2181254709898492
 10
0.2162596009754688
 20
0.2171703541953469
 10
0.2140519539313489
 20
0.2170509629863637
 10
0.209039995529252
 20
0.2166331001936042
 10
0.2040877033955976
 20
0.2168718800360982
 10
0.2014027262039328
 20
0.2172897428288578
 10
0.1993144100672731
 20
0.2184239451490988
 10
0.1984790839384946
 20
0.2189611991508416
 10
0.1978824228834884
 20
0.2186627249915929
 10
0.1978227566150451
 20
0.2182448596233601
 10
0.1985387502069379
 20
0.2175882169881065
 10
0.1992547437988298
 20
0.2166927945103596
 10
0.1996127414094889
 20
0.2157973720326118
 10
0.2018203900830343
 20
0.2147228640291254
 10
0.2055196922088077
 20
0.2141259157106272
 10
0.2104719827130367
 20
0.2141856100273827
 10
0.2164385997807988
 20
0.2149616438716195
 10
0.2182285845752418
 20
0.2160958461918605
 10
0.2189445781671345
 20
0.2169912686696083
 10
0.2200782356381289
 20
0.2186627249915929
  0
LWPOLYLINE
  5
1D80
330
2
100
AcDbEntity
  8
Profilo
  6
Continuous
370
     0
100
AcDbPolyline
 90
        2
 70
   128
 43
0.0
 10
0.220125653522174
 20
0.2186629902653274
 10
0.2207758330267685
 20
0.218388336657277
  0
LWPOLYLINE
  5
1D81
330
2
100
AcDbEntity
  8
Profilo
  6
Continuous
370
     0
100
AcDbPolyline
 90
        4
 70
   128
 43
0.0
 10
0.2181606685302645
 20
0.215959835454617
 10
0.2188252961424094
 20
0.2152515211014812
 10
0.2193454394202007
 20
0.2152226114153322
 10
0.2203712762388065
 20
0.215482808892572
  0
LWPOLYLINE
  5
1D82
330
2
100
AcDbEntity
  8
Profilo
  6
Continuous
370
     0
100
AcDbPolyline
 90
       26
 70
   129
 43
0.0
 10
0.1969425773164749
 20
0.2219439189969081
 10
0.1976645313433986
 20
0.2225458354031191
 10
0.1986271350832055
 20
0.222305069870824
 10
0.1990282211968596
 20
0.2219037905497003
 10
0.2003116928499352
 20
0.2211012344829279
 10
0.2026780963581091
 20
0.2205394439484498
 10
0.2062246220079555
 20
0.2201370030889345
 10
0.2093129779136275
 20
0.2201771315361405
 10
0.2129227447893966
 20
0.2202975143022889
 10
0.216051208980549
 20
0.2209395591557068
 10
0.2176154418908375
 20
0.2215414781373919
 10
0.2189909059661511
 20
0.2221918726747754
 10
0.2195817581226102
 20
0.2221918726747754
 10
0.2196380286702761
 20
0.2218540787668892
 10
0.2193566710436746
 20
0.2209532993049821
 10
0.2187658188872156
 20
0.2200806697646447
 10
0.2167119031618125
 20
0.2191798903027375
 10
0.2147705317905894
 20
0.2188420989703246
 10
0.2114147726502255
 20
0.218392035036725
 10
0.2086011898665173
 20
0.2183357377690596
 10
0.2043151058868297
 20
0.2186169974657497
 10
0.2016422027311341
 20
0.2190955384060096
 10
0.1993631999267954
 20
0.219855570835543
 10
0.1980970881629543
 20
0.2203904090434674
 10
0.1979845454381989
 20
0.2210378443621968
 10
0.1974781007326628
 20
0.2215163827269826
  0
LWPOLYLINE
  5
1D83
330
2
100
AcDbEntity
  8
Profilo
  6
Continuous
370
     0
100
AcDbPolyline
 90
       27
 70
   129
 43
0.0
 10
0.1973029327044674
 20
0.2199671712382363
 10
0.1964322871689829
 20
0.2204549658535366
 10
0.1954397509000566
 20
0.2207859708141899
 10
0.1947954731712093
 20
0.220803391314601
 10
0.1941686091026063
 20
0.220803391314601
 10
0.1909202909587092
 20
0.2204521225311751
 10
0.1858966561002336
 20
0.2189179827113239
 10
0.1798634835570002
 20
0.2161812102495391
 10
0.1739517895027948
 20
0.2126586738059417
 10
0.1707826402098685
 20
0.2099409521190745
 10
0.1692154775942253
 20
0.2080942966603396
 10
0.1689403639225281
 20
0.207038131176654
 10
0.1694036793894543
 20
0.2062346659678569
 10
0.1701449828329972
 20
0.2057402240563471
 10
0.1708862879059646
 20
0.205832930787986
 10
0.1711025011387605
 20
0.2062346659678569
 10
0.1711025011387605
 20
0.2066982022015231
 10
0.1717511424665726
 20
0.2079343031170893
 10
0.1751178985932741
 20
0.211457192400508
 10
0.1816232131962619
 20
0.2152347290165204
 10
0.1868741169331546
 20
0.2177378339500213
 10
0.1911803748182889
 20
0.2191297818970603
 10
0.1938058258720229
 20
0.2193770015650791
 10
0.1958753009725246
 20
0.2189443658583092
 10
0.1967401555331326
 20
0.2188207560243007
 10
0.1972343583719697
 20
0.2190988787946899
 10
0.1973887968609448
 20
0.2195624176038293
  0
LWPOLYLINE
  5
1D84
330
2
100
AcDbEntity
  8
Profilo
  6
Continuous
370
     0
100
AcDbPolyline
 90
        4
 70
   128
 43
0.0
 10
0.1948945617373935
 20
0.2208309076697741
 10
0.1958295092541883
 20
0.2213921470529978
 10
0.1966747031780865
 20
0.2218112048653003
 10
0.197033722437942
 20
0.2218561030887878
  0
LWPOLYLINE
  5
1D85
330
2
100
AcDbEntity
  8
Profilo
  6
Continuous
370
     0
100
AcDbPolyline
 90
        3
 70
   128
 43
0.0
 10
0.1973430996492323
 20
0.2199397656284086
 10
0.1977993548195517
 20
0.2200669785493596
 10
0.1980611397983688
 20
0.2204186877386947
  0
LWPOLYLINE
  5
1D86
330
2
100
AcDbEntity
  8
Profilo
  6
Continuous
370
     0
100
AcDbPolyline
 90
       33
 70
   128
 43
0.0
 10
0.1749305847510362
 20
0.204222023776129
 10
0.1750405335152892
 20
0.2042507197617212
 10
0.1754968587508644
 20
0.2048594482944244
 10
0.1751546144168262
 20
0.2052399023396274
 10
0.1754588312405433
 20
0.2063812644752356
 10
0.177322159693165
 20
0.2082454898118244
 10
0.18116289912937
 20
0.2107945308844943
 10
0.1843347467493638
 20
0.2125878688980014
 10
0.1882895670871075
 20
0.2143379595663137
 10
0.1914838453655582
 20
0.2153651844581714
 10
0.1936894181522172
 20
0.2155934563701984
 10
0.1955527466048389
 20
0.215479321701922
 10
0.1966555329981684
 20
0.2147945033903669
 10
0.1968456689203476
 20
0.2142999121014142
 10
0.1975681850987433
 20
0.2142618672119887
 10
0.1981005637255352
 20
0.2146803661466172
 10
0.1982595694915451
 20
0.2150831366666963
 10
0.1977239254979398
 20
0.2159316469009498
 10
0.1967865485091312
 20
0.2167801597106773
 10
0.1962657827911597
 20
0.2172565166497022
 10
0.1944059070891754
 20
0.2176137837101029
 10
0.1925480583913405
 20
0.2177621386901725
 10
0.1903424856046806
 20
0.21749582188872
 10
0.1880608577973802
 20
0.2167349137983139
 10
0.1839159015374582
 20
0.215098960373753
 10
0.1809727632071908
 20
0.2135338015552388
 10
0.1787671904205318
 20
0.2121641649321295
 10
0.1775122956153442
 20
0.2111749849296973
 10
0.1756109396524014
 20
0.2096151238594597
 10
0.174546180769393
 20
0.2081313525680739
 10
0.1740898555338178
 20
0.2072943546988168
 10
0.1736335302982427
 20
0.2060769002088845
 10
0.1736685203865947
 20
0.2058388535119018
  0
LWPOLYLINE
  5
1D87
330
2
100
AcDbEntity
  8
Profilo
  6
Continuous
370
     0
100
AcDbPolyline
 90
        5
 70
   128
 43
0.0
 10
0.1966365909376883
 20
0.2170534560443762
 10
0.1966457988158628
 20
0.2176891420545786
 10
0.1969588862268695
 20
0.2180392312712998
 10
0.1974100983281838
 20
0.2182050634121901
 10
0.1977600188813117
 20
0.2182511257495434
  0
LWPOLYLINE
  5
1D88
330
2
100
AcDbEntity
  8
Profilo
  6
Continuous
370
     0
100
AcDbPolyline
 90
        6
 70
   128
 43
0.0
 10
0.1983007678620549
 20
0.2150816042601702
 10
0.1987354201215922
 20
0.2150163752516077
 10
0.1989889683592713
 20
0.2151395858872778
 10
0.1992280261243623
 20
0.2153280255315113
 10
0.1994163761972268
 20
0.2156831626756135
 10
0.1994815743620423
 20
0.215849860175483
  0
LWPOLYLINE
  5
1D89
330
2
100
AcDbEntity
  8
Profilo
  6
Continuous
370
     0
100
AcDbPolyline
 90
       21
 70
   128
 43
0.0
 10
0.2439963322262772
 20
0.2039327801763766
 10
0.2446860057232948
 20
0.2039656380628709
 10
0.2449158979752498
 20
0.2033084906348799
 10
0.2447516894566281
 20
0.2027499142908977
 10
0.244554639886052
 20
0.2018956221194139
 10
0.2448502142419157
 20
0.2012713325779163
 10
0.2457369373095094
 20
0.2003184667469504
 10
0.2469192347329669
 20
0.1998584640624512
 10
0.2483642638309091
 20
0.1997270350919471
 10
0.2492181458465476
 20
0.1996941772054528
 10
0.2495794039357454
 20
0.1993656034914568
 10
0.2499078193435643
 20
0.1987413113744869
 10
0.249677928721033
 20
0.1979198770894974
 10
0.2488568877573497
 20
0.1973941586320087
 10
0.2471162843035429
 20
0.1972298717750112
 10
0.2458683031467514
 20
0.1977227323460047
 10
0.2444561151007635
 20
0.1987413113744869
 10
0.2436679168184591
 20
0.1996613193189585
 10
0.2432738176773061
 20
0.2007784694314496
 10
0.2430439270547756
 20
0.2020270510899171
 10
0.2430439270547756
 20
0.2025527695474059
  0
LWPOLYLINE
  5
1D8A
330
2
100
AcDbEntity
  8
Profilo
  6
Continuous
370
     0
100
AcDbPolyline
 90
        6
 70
   128
 43
0.0
 10
0.2197255890577171
 20
0.221883472641992
 10
0.2199870171925568
 20
0.2220243072404526
 10
0.2204093216727973
 20
0.2218231138531628
 10
0.2211734940900033
 20
0.2215816812733207
 10
0.2218170059893087
 20
0.2214207245031099
 10
0.2220985428526111
 20
0.2211792919232687
  0
LWPOLYLINE
  5
1D8B
330
2
100
AcDbEntity
  8
Profilo
  6
Continuous
370
     0
100
AcDbPolyline
 90
        5
 70
   128
 43
0.0
 10
0.2192429551332381
 20
0.220615945803005
 10
0.2197255890577171
 20
0.2199922434693871
 10
0.2204294320306847
 20
0.219750810889545
 10
0.2211131646457657
 20
0.2196099737156112
 10
0.2218371163471961
 20
0.2198715258917294
  0
DIMENSION
  5
1D8C
102
{ACAD_XDICTIONARY
360
1D8D
102
}
102
{ACAD_REACTORS
330
1D8E
102
}
330
2
100
AcDbEntity
  8
Sezione
  6
ACAD_ISO10W100
100
AcDbDimension
  2
*D9
 10
0.1650112651666035
 20
0.123318769815402
 30
0.0
 11
0.2693935616797103
 21
0.2069811191221191
 31
0.0
 70
    35
  1
d 480 mm
 71
     5
 42
0.1187515920752156
  3
Bovelacci
100
AcDbDiametricDimension
 15
0.251285460844331
 25
0.204919650818977
 35
0.0
 40
0.0
1001
ACAD
1000
DSTYLE
1002
{
1070
   288
1070
     1
1002
}
  0
CIRCLE
  5
1D8F
330
2
100
AcDbEntity
  8
Profilo
  6
Continuous
370
     0
100
AcDbCircle
 10
0.2081483630054674
 20
0.1641192103171896
 30
0.0
 40
0.0061922954166994
  0
CIRCLE
  5
1D90
330
2
100
AcDbEntity
  8
Profilo
  6
Continuous
370
     0
100
AcDbCircle
 10
0.2081483630054674
 20
0.1641192103171896
 30
0.0
 40
0.0048502429620217
  0
LWPOLYLINE
  5
1D91
330
2
100
AcDbEntity
  8
Profilo
  6
Continuous
370
     0
100
AcDbPolyline
 90
        8
 70
   128
 43
0.0
 10
0.1858579635555253
 20
0.1681260426033438
 10
0.1862708922616376
 20
0.1728724152443828
 10
0.188979109623453
 20
0.1778802162608247
 10
0.1920563382086424
 20
0.181223421665671
 10
0.1966459640070765
 20
0.184090558341256
 10
0.2004523403441861
 20
0.1856361548480934
 10
0.2038734842284095
 20
0.1862937498095223
 10
0.2064297884021368
 20
0.1862937498095223
  0
LWPOLYLINE
  5
1D92
330
2
100
AcDbEntity
  8
Profilo
  6
Continuous
370
     0
100
AcDbPolyline
 90
        9
 70
   128
 43
0.0
 10
0.1886280122900854
 20
0.165864658827072
 10
0.1886350443028703
 20
0.1660825485997273
 10
0.1879724094058483
 20
0.1685110436553109
 10
0.1891503134893803
 20
0.1740613578210195
 10
0.1920767112598566
 20
0.1783792034395371
 10
0.1958277468074886
 20
0.1817405829182402
 10
0.1997668218135457
 20
0.1835779337026599
 10
0.2041562295794814
 20
0.1847101407469455
 10
0.208040273179149
 20
0.1842196109114341
  0
LWPOLYLINE
  5
1D93
330
2
100
AcDbEntity
  8
Profilo
  6
Continuous
370
     0
100
AcDbPolyline
 90
        8
 70
   128
 43
0.0
 10
0.2043512853249228
 20
0.141810562469061
 10
0.1993951580782728
 20
0.1422417395733598
 10
0.194387357061832
 20
0.1449499569351754
 10
0.1910441516569859
 20
0.1480271855203646
 10
0.1881770149814009
 20
0.1526168113187987
 10
0.1866314184745635
 20
0.1564231876559083
 10
0.1859738235131347
 20
0.1598443315401317
 10
0.1859738235131347
 20
0.162400635713859
  0
LWPOLYLINE
  5
1D94
330
2
100
AcDbEntity
  8
Profilo
  6
Continuous
370
     0
100
AcDbPolyline
 90
        9
 70
   128
 43
0.0
 10
0.2068042944769115
 20
0.1445286536568057
 10
0.2060776697021375
 20
0.1445765989121089
 10
0.2037565296673455
 20
0.143943256717572
 10
0.1982062155016383
 20
0.1451211608011019
 10
0.1938883698831194
 20
0.1480475585715792
 10
0.1905269904044167
 20
0.151798594119212
 10
0.1886896396199971
 20
0.1557376691252675
 10
0.1874573363179704
 20
0.1605151360304638
 10
0.1882439804471014
 20
0.1636759914673509
  0
LWPOLYLINE
  5
1D95
330
2
100
AcDbEntity
  8
Profilo
  6
Continuous
370
     0
100
AcDbPolyline
 90
        2
 70
   128
 43
0.0
 10
0.1887592864016792
 20
0.1657465689595983
 10
0.1887696717939007
 20
0.1657882990409045
  0
LWPOLYLINE
  5
1D96
330
2
100
AcDbEntity
  8
Profilo
  6
Continuous
370
     0
100
AcDbPolyline
 90
        8
 70
   128
 43
0.0
 10
0.2304704731810742
 20
0.1604768741740625
 10
0.2300258337492971
 20
0.1553660053899963
 10
0.2273176163874818
 20
0.1503582043735545
 10
0.2242403878022923
 20
0.1470149989687081
 10
0.2196507620038582
 20
0.1441478622931231
 10
0.2158443856667486
 20
0.1426022657862858
 10
0.2124232417825252
 20
0.1419446708248569
 10
0.2098669376087979
 20
0.1419446708248569
  0
LWPOLYLINE
  5
1D97
330
2
100
AcDbEntity
  8
Profilo
  6
Continuous
370
     0
100
AcDbPolyline
 90
        9
 70
   128
 43
0.0
 10
0.2278711168044823
 20
0.1627041169729021
 10
0.2277517642713958
 20
0.1618257278472127
 10
0.2283243166050849
 20
0.1597273769790678
 10
0.227146412521555
 20
0.1541770628133605
 10
0.2242200147510777
 20
0.1498592171948416
 10
0.2204689792034449
 20
0.146497837716139
 10
0.2165299041973894
 20
0.1446604869317193
 10
0.2119024342625869
 20
0.1434668739577636
 10
0.2086701728679227
 20
0.1441172608004949
  0
LWPOLYLINE
  5
1D98
330
2
100
AcDbEntity
  8
Profilo
  6
Continuous
370
     0
100
AcDbPolyline
 90
        8
 70
   128
 43
0.0
 10
0.2116866886314225
 20
0.1864503692825831
 10
0.2169015679326606
 20
0.1859966810610193
 10
0.221909368949103
 20
0.1832884636992036
 10
0.2252525743539478
 20
0.1802112351140144
 10
0.2281197110295336
 20
0.175621609315581
 10
0.2296653075363712
 20
0.1718152329784708
 10
0.2303229024978
 20
0.1683940890942474
 10
0.2303229024978
 20
0.1660282867790548
  0
LWPOLYLINE
  5
1D99
330
2
100
AcDbEntity
  8
Profilo
  6
Continuous
370
     0
100
AcDbPolyline
 90
        9
 70
   128
 43
0.0
 10
0.2090680105166382
 20
0.1840604672452698
 10
0.2106108585990147
 20
0.1837687282072703
 10
0.2125401963435876
 20
0.1842951639168084
 10
0.2180905105092971
 20
0.183117259833278
 10
0.2224083561278154
 20
0.1801908620627997
 10
0.225769735606518
 20
0.1764398265151683
 10
0.2276070863909381
 20
0.1725007515091103
 10
0.2287781629718877
 20
0.1679606520062176
 10
0.2282666256471991
 20
0.1650147280862515
  0
LWPOLYLINE
  5
1D9A
330
2
100
AcDbEntity
  8
Profilo
  6
Continuous
370
     0
100
AcDbPolyline
 90
       18
 70
   129
 43
0.0
 10
0.2081629763660463
 20
0.1840786617097059
 10
0.2068786997772393
 20
0.1855539107604265
 10
0.2063554752576103
 20
0.1864105079803824
 10
0.2062044715956021
 20
0.1876600554412826
 10
0.2067360012922003
 20
0.1887423542510589
 10
0.2075921873141623
 20
0.1892658294714307
 10
0.2085435024006354
 20
0.1890754762506439
 10
0.2091618592436236
 20
0.18850441143734
 10
0.2093996884225983
 20
0.1881237024202951
 10
0.2099229113128026
 20
0.1884568218444069
 10
0.2109217941903799
 20
0.1884568218444069
 10
0.2116828478889826
 20
0.187933346624036
 10
0.2118291734730872
 20
0.1872423497523863
 10
0.211635281727303
 20
0.1863629183874493
 10
0.2107790973347646
 20
0.1856490873708194
 10
0.210018043636162
 20
0.1851732017433816
 10
0.2091618592436236
 20
0.1842214279130319
 10
0.2088288977412897
 20
0.1836503630997279
  0
LWPOLYLINE
  5
1D9B
330
2
100
AcDbEntity
  8
Profilo
  6
Continuous
370
     0
100
AcDbPolyline
 90
       18
 70
   129
 43
0.0
 10
0.2079804983741188
 20
0.1772692896048944
 10
0.2066962217853118
 20
0.178744538655615
 10
0.2061729972656829
 20
0.1796011358755709
 10
0.2060219936036746
 20
0.1808506833364711
 10
0.2065535233002728
 20
0.1819329821462474
 10
0.2074097093222348
 20
0.1824564573666192
 10
0.2083610244087079
 20
0.1822661041458324
 10
0.2089793812516961
 20
0.1816950393325285
 10
0.2092172104306708
 20
0.1813143303154836
 10
0.2097404333208751
 20
0.1816474497395955
 10
0.2107393161984524
 20
0.1816474497395955
 10
0.2115003698970551
 20
0.1811239745192246
 10
0.2116466954811597
 20
0.1804329776475748
 10
0.2114528037353755
 20
0.1795535462826379
 10
0.2105966193428371
 20
0.1788397152660079
 10
0.2098355656442345
 20
0.1783638296385701
 10
0.2089793812516961
 20
0.1774120558082204
 10
0.2086464197493622
 20
0.1768409909949165
  0
LWPOLYLINE
  5
1D9C
330
2
100
AcDbEntity
  8
Profilo
  6
Continuous
370
     0
100
AcDbPolyline
 90
       18
 70
   129
 43
0.0
 10
0.2272520352641901
 20
0.1641314774408831
 10
0.2287272843149099
 20
0.1654157540296901
 10
0.2295838815348667
 20
0.165938978549319
 10
0.2308334289957669
 20
0.1660899822113273
 10
0.2319157278055432
 20
0.1655584525147291
 10
0.232439203025914
 20
0.1647022664927671
 10
0.2322488498051282
 20
0.163750951406294
 10
0.2316777849918242
 20
0.1631325945633057
 10
0.2312970759747793
 20
0.1628947653843311
 10
0.2316301953988912
 20
0.1623715424941268
 10
0.2316301953988912
 20
0.1613726596165494
 10
0.2311067201785203
 20
0.1606116059179468
 10
0.2304157233068697
 20
0.1604652803338422
 10
0.2295362919419336
 20
0.1606591720796264
 10
0.2288224609253037
 20
0.1615153564721647
 10
0.228346575297865
 20
0.1622764101707674
 10
0.2273948014675161
 20
0.1631325945633057
 10
0.2268237366542122
 20
0.1634655560656397
  0
LWPOLYLINE
  5
1D9D
330
2
100
AcDbEntity
  8
Profilo
  6
Continuous
370
     0
100
AcDbPolyline
 90
       18
 70
   129
 43
0.0
 10
0.2208403341508397
 20
0.1641314774408831
 10
0.2223155832015594
 20
0.1654157540296901
 10
0.2231721804215162
 20
0.165938978549319
 10
0.2244217278824164
 20
0.1660899822113273
 10
0.2255040266921927
 20
0.1655584525147291
 10
0.2260275019125636
 20
0.1647022664927671
 10
0.2258371486917778
 20
0.163750951406294
 10
0.2252660838784738
 20
0.1631325945633057
 10
0.2248853748614289
 20
0.1628947653843311
 10
0.2252184942855408
 20
0.1623715424941268
 10
0.2252184942855408
 20
0.1613726596165494
 10
0.2246950190651699
 20
0.1606116059179468
 10
0.2240040221935192
 20
0.1604652803338422
 10
0.2231245908285832
 20
0.1606591720796264
 10
0.2224107598119533
 20
0.1615153564721647
 10
0.2219348741845145
 20
0.1622764101707674
 10
0.2209831003541657
 20
0.1631325945633057
 10
0.2204120355408618
 20
0.1634655560656397
  0
LWPOLYLINE
  5
1D9E
330
2
100
AcDbEntity
  8
Profilo
  6
Continuous
370
     0
100
AcDbPolyline
 90
       18
 70
   129
 43
0.0
 10
0.1960565095733252
 20
0.1643681545632341
 10
0.1945812605226046
 20
0.163083877974427
 10
0.1937246633026487
 20
0.162560653454799
 10
0.1924751158417485
 20
0.1624096497927898
 10
0.1913928170319722
 20
0.162941179489388
 10
0.1908693418116013
 20
0.16379736551135
 10
0.1910596950323872
 20
0.1647486805978231
 10
0.1916307598456911
 20
0.1653670374408114
 10
0.192011468862736
 20
0.165604866619786
 10
0.1916783494386242
 20
0.1661280895099904
 10
0.1916783494386242
 20
0.1671269723875677
 10
0.192201824658995
 20
0.1678880260861704
 10
0.1928928215306448
 20
0.1680343516702749
 10
0.1937722528955817
 20
0.1678404599244907
 10
0.1944860839122117
 20
0.1669842755319524
 10
0.1949619695396495
 20
0.1662232218333497
 10
0.1959137433699992
 20
0.1653670374408114
 10
0.1964848081833032
 20
0.1650340759384774
  0
LWPOLYLINE
  5
1D9F
330
2
100
AcDbEntity
  8
Profilo
  6
Continuous
370
     0
100
AcDbPolyline
 90
       18
 70
   129
 43
0.0
 10
0.1891838479986741
 20
0.1644941922263852
 10
0.1877085989479535
 20
0.1632099156375781
 10
0.1868520017279976
 20
0.1626866911179501
 10
0.1856024542670974
 20
0.1625356874559409
 10
0.1845201554573211
 20
0.1630672171525391
 10
0.1839966802369503
 20
0.1639234031745012
 10
0.1841870334577361
 20
0.1648747182609742
 10
0.1847580982710401
 20
0.1654930751039625
 10
0.185138807288085
 20
0.1657309042829371
 10
0.1848056878639731
 20
0.1662541271731415
 10
0.1848056878639731
 20
0.1672530100507188
 10
0.185329163084344
 20
0.1680140637493215
 10
0.1860201599559937
 20
0.168160389333426
 10
0.1868995913209307
 20
0.1679664975876418
 10
0.1876134223375606
 20
0.1671103131951035
 10
0.1880893079649984
 20
0.1663492594965008
 10
0.1890410817953482
 20
0.1654930751039625
 10
0.1896121466086521
 20
0.1651601136016285
  0
LWPOLYLINE
  5
1DA0
330
2
100
AcDbEntity
  8
Profilo
  6
Continuous
370
     0
100
AcDbPolyline
 90
       18
 70
   129
 43
0.0
 10
0.207998616014739
 20
0.1448886784365384
 10
0.2092828926035461
 20
0.1434134293858187
 10
0.2098061171231741
 20
0.1425568321658619
 10
0.2099571207851833
 20
0.1413072847049617
 10
0.2094255910885851
 20
0.1402249858951854
 10
0.208569405066623
 20
0.1397015106748145
 10
0.20761808998015
 20
0.1398918638956004
 10
0.2069997331371617
 20
0.1404629287089043
 10
0.2067619039581871
 20
0.1408436377259492
 10
0.2062386810679827
 20
0.1405105183018374
 10
0.2052397981904054
 20
0.1405105183018374
 10
0.2044787444918027
 20
0.1410339935222082
 10
0.2043324189076982
 20
0.1417249903938589
 10
0.2045263106534824
 20
0.1426044217587949
 10
0.2053824950460207
 20
0.1433182527754249
 10
0.2061435487446234
 20
0.1437941384028636
 10
0.2069997331371617
 20
0.1447459122332124
 10
0.2073326946394957
 20
0.1453169770465164
  0
LWPOLYLINE
  5
1DA1
330
2
100
AcDbEntity
  8
Profilo
  6
Continuous
370
     0
100
AcDbPolyline
 90
       18
 70
   129
 43
0.0
 10
0.2081228904109106
 20
0.1517185527172293
 10
0.2094071669997176
 20
0.1502433036665096
 10
0.2099303915193457
 20
0.1493867064465528
 10
0.2100813951813548
 20
0.1481371589856526
 10
0.2095498654847566
 20
0.1470548601758763
 10
0.2086936794627946
 20
0.1465313849555054
 10
0.2077423643763216
 20
0.1467217381762913
 10
0.2071240075333333
 20
0.1472928029895952
 10
0.2068861783543586
 20
0.1476735120066401
 10
0.2063629554641543
 20
0.1473403925825283
 10
0.205364072586577
 20
0.1473403925825283
 10
0.2046030188879743
 20
0.1478638678028992
 10
0.2044566933038697
 20
0.1485548646745498
 10
0.204650585049654
 20
0.1494342960394859
 10
0.2055067694421923
 20
0.1501481270561158
 10
0.206267823140795
 20
0.1506240126835545
 10
0.2071240075333333
 20
0.1515757865139033
 10
0.2074569690356673
 20
0.1521468513272073
  0
ENDSEC
  0
SECTION
  2
OBJECTS
  0
DICTIONARY
  5
9
330
0
100
AcDbDictionary
281
     1
  3
ACAD_2007HEADERVARS_RT
350
208
  3
ACAD_COLOR
350
184
  3
ACAD_GROUP
350
17F
  3
ACAD_LAYOUT
350
164
  3
ACAD_MATERIAL
350
B
  3
ACAD_MLINESTYLE
350
180
  3
ACAD_PLOTSETTINGS
350
181
  3
ACAD_PLOTSTYLENAME
350
8
  3
ACAD_TABLESTYLE
350
185
  3
ACAD_VISUALSTYLE
350
17A
  3
ACDBHEADERROUNDTRIPXREC
350
1DB5
  3
AcDbVariableDictionary
350
18B
  3
DWGPROPS
350
1DB4
  0
DICTIONARY
  5
16E
330
16D
100
AcDbDictionary
280
     1
281
     1
  3
ACAD_LAYERSTATES
360
16F
  0
DICTIONARY
  5
3
330
2
100
AcDbDictionary
280
     1
281
     1
  3
ACAD_SORTENTS
360
18A
  0
DICTIONARY
  5
1DB6
330
18
100
AcDbDictionary
280
     1
281
     1
  3
ACAD_MTEXT_RT
360
1DB7
  0
DICTIONARY
  5
1D8D
330
1D8C
100
AcDbDictionary
280
     1
281
     1
  3
ACAD_DIMASSOC
360
1D8E
  0
DICTIONARY
  5
208
102
{ACAD_REACTORS
330
9
102
}
330
9
100
AcDbDictionary
281
     1
  3
DIMFXL
350
209
  0
DICTIONARY
  5
184
102
{ACAD_REACTORS
330
9
102
}
330
9
100
AcDbDictionary
281
     1
  0
DICTIONARY
  5
17F
102
{ACAD_REACTORS
330
9
102
}
330
9
100
AcDbDictionary
281
     1
  0
DICTIONARY
  5
164
102
{ACAD_REACTORS
330
9
102
}
330
9
100
AcDbDictionary
281
     1
  3
Layout1
350
168
  3
Layout2
350
16C
  3
Model
350
163
  0
DICTIONARY
  5
B
102
{ACAD_REACTORS
330
9
102
}
330
9
100
AcDbDictionary
281
     1
  3
ByBlock
350
183
  3
ByLayer
350
182
  3
Global
350
A
  0
DICTIONARY
  5
180
102
{ACAD_REACTORS
330
9
102
}
330
9
100
AcDbDictionary
281
     1
  3
Standard
350
186
  0
DICTIONARY
  5
181
102
{ACAD_REACTORS
330
9
102
}
330
9
100
AcDbDictionary
281
     1
  0
ACDBDICTIONARYWDFLT
  5
8
102
{ACAD_REACTORS
330
9
102
}
330
9
100
AcDbDictionary
281
     1
  3
Normal
350
7
100
AcDbDictionaryWithDefault
340
7
  0
DICTIONARY
  5
185
102
{ACAD_REACTORS
330
9
102
}
330
9
100
AcDbDictionary
281
     1
  3
Standard
350
187
  0
DICTIONARY
  5
17A
102
{ACAD_REACTORS
330
9
102
}
330
9
100
AcDbDictionary
281
     1
  3
2dWireframe
350
179
  3
3D Hidden
350
1BD
  3
3dWireframe
350
189
  3
Basic
350
1BC
  3
Brighten
350
1C0
  3
ColorChange
350
1C4
  3
Conceptual
350
1BE
  3
Dim
350
1BF
  3
Facepattern
350
1C3
  3
Flat
350
1B8
  3
FlatWithEdges
350
1B9
  3
Gouraud
350
1BA
  3
GouraudWithEdges
350
1BB
  3
Linepattern
350
1C2
  3
Realistic
350
188
  3
Thicken
350
1C1
  0
DICTIONARY
  5
1DB5
102
{ACAD_REACTORS
330
9
102
}
330
9
100
AcDbDictionary
281
     1
  0
DICTIONARY
  5
18B
102
{ACAD_REACTORS
330
9
102
}
330
9
100
AcDbDictionary
281
     1
  3
CTABLESTYLE
350
18C
  3
DIMASSOC
350
190
  3
HIDETEXT
350
18F
  3
INDEXCTL
350
18E
  3
PROJECTNAME
350
2F9
  3
SORTENTS
350
18D
  0
XRECORD
  5
1DB4
102
{ACAD_REACTORS
330
9
102
}
330
9
100
AcDbXrecord
280
     1
  1
DWGPROPS COOKIE
  2

  3

  4

  6

  7

  8
Mario
  9

300
=
301
=
302
=
303
=
304
=
305
=
306
=
307
=
308
=
309
=
 40
0.1745685069444444
 41
2454297.625402373
 42
2454311.597018762
  1

 90
        0
  0
DICTIONARY
  5
16F
102
{ACAD_REACTORS
330
16E
102
}
330
16E
100
AcDbDictionary
281
     1
  0
SORTENTSTABLE
  5
18A
102
{ACAD_REACTORS
330
3
102
}
330
3
100
AcDbSortentsTable
330
2
331
18
  5
1C
331
16
  5
12
331
14
  5
10
331
23
  5
24
331
12
  5
16
331
10
  5
14
331
21
  5
22
331
1F
  5
21
331
1D
  5
1E
331
15
  5
11
331
24
  5
18
331
13
  5
D
331
22
  5
23
331
11
  5
15
331
1E
  5
1F
331
D
  5
13
331
1C
  5
1D
  0
XRECORD
  5
1DB7
102
{ACAD_REACTORS
330
1DB6
102
}
330
1DB6
100
AcDbXrecord
280
     1
 40
7955300.0
  1
{\fTimes New Roman|b0|i0|c238|p18;\H1.6x;\C4;Bovelacci\P\pt0.09;\H0.4375x;\T0.95;via del Commercio, 5  47100 Forli - Italy  \fTimes New Roman|b0|i0|c0|p18;\P\fTimes New Roman|b0|i0|c238|p18;tel.+39-0543721386  fax +39-0543721127\fTimes New Roman|b0|i
  1
0|c0|p18; \fTimes New Roman|b0|i0|c238|p18;www.bovelacci.it\fTimes New Roman|b0|i0|c0|p18; \fTimes New Roman|b0|i0|c238|p18;e-mail: bovelacci@bovelacci\fTimes New Roman|b0|i0|c0|p18;.it}
  0
DIMASSOC
  5
1D8E
102
{ACAD_REACTORS
330
1D8D
102
}
330
1D8D
100
AcDbDimAssoc
330
1D8C
 90
        2
 70
     0
 71
     0
  1
AcDbOsnapPointRef
 72
     3
331
1D41
 73
     2
 91
        0
 40
0.0
 10
0.0
 20
0.0
 30
0.0
 75
     0
  0
XRECORD
  5
209
102
{ACAD_REACTORS
330
208
102
}
330
208
100
AcDbXrecord
280
     1
 40
0.18
  0
LAYOUT
  5
168
102
{ACAD_XDICTIONARY
360
1DBA
102
}
102
{ACAD_REACTORS
330
164
102
}
330
164
100
AcDbPlotSettings
  1

  2
C:\Documents and Settings\All Users\Dati applicazioni\Autodesk\ADT 2006\enu\Plotters\Default Windows System Printer.pc3
  4

  6

 40
0.0
 41
0.0
 42
0.0
 43
0.0
 44
0.0
 45
0.0
 46
0.0
 47
0.0
 48
0.0
 49
0.0
140
0.0
141
0.0
142
1.0
143
1.0
 70
   688
 72
     0
 73
     0
 74
     5
  7

 75
    16
147
1.0
148
0.0
149
0.0
100
AcDbLayout
  1
Layout1
 70
     1
 71
     1
 10
0.0
 20
0.0
 11
420.0
 21
297.0
 12
0.0
 22
0.0
 32
0.0
 14
1.000000000000000E+20
 24
1.000000000000000E+20
 34
1.000000000000000E+20
 15
-1.000000000000000E+20
 25
-1.000000000000000E+20
 35
-1.000000000000000E+20
146
0.0
 13
0.0
 23
0.0
 33
0.0
 16
1.0
 26
0.0
 36
0.0
 17
0.0
 27
1.0
 37
0.0
 76
     0
330
165
  0
LAYOUT
  5
16C
102
{ACAD_XDICTIONARY
360
1DBC
102
}
102
{ACAD_REACTORS
330
164
102
}
330
164
100
AcDbPlotSettings
  1

  2
C:\Documents and Settings\All Users\Dati applicazioni\Autodesk\ADT 2006\enu\Plotters\Default Windows System Printer.pc3
  4

  6

 40
0.0
 41
0.0
 42
0.0
 43
0.0
 44
0.0
 45
0.0
 46
0.0
 47
0.0
 48
0.0
 49
0.0
140
0.0
141
0.0
142
1.0
143
1.0
 70
   688
 72
     0
 73
     0
 74
     5
  7

 75
    16
147
1.0
148
0.0
149
0.0
100
AcDbLayout
  1
Layout2
 70
     1
 71
     2
 10
0.0
 20
0.0
 11
12.0
 21
9.0
 12
0.0
 22
0.0
 32
0.0
 14
0.0
 24
0.0
 34
0.0
 15
0.0
 25
0.0
 35
0.0
146
0.0
 13
0.0
 23
0.0
 33
0.0
 16
1.0
 26
0.0
 36
0.0
 17
0.0
 27
1.0
 37
0.0
 76
     0
330
169
  0
LAYOUT
  5
163
102
{ACAD_XDICTIONARY
360
1DB8
102
}
102
{ACAD_REACTORS
330
164
102
}
330
164
100
AcDbPlotSettings
  1

  2
C:\Documents and Settings\All Users\Dati applicazioni\Autodesk\ADT 2006\enu\Plotters\Default Windows System Printer.pc3
  4

  6

 40
0.0
 41
0.0
 42
0.0
 43
0.0
 44
0.0
 45
0.0
 46
0.0
 47
0.0
 48
0.0
 49
0.0
140
0.0
141
0.0
142
1.0
143
1.0
 70
  1712
 72
     0
 73
     0
 74
     0
  7

 75
     0
147
1.0
148
0.0
149
0.0
100
AcDbLayout
  1
Model
 70
     1
 71
     0
 10
0.0
 20
0.0
 11
12.0
 21
9.0
 12
0.0
 22
0.0
 32
0.0
 14
0.0
 24
0.0
 34
0.0
 15
0.0
 25
0.0
 35
0.0
146
0.0
 13
0.0
 23
0.0
 33
0.0
 16
1.0
 26
0.0
 36
0.0
 17
0.0
 27
1.0
 37
0.0
 76
     0
330
2
  0
MATERIAL
  5
183
102
{ACAD_XDICTIONARY
360
1B0
102
}
102
{ACAD_REACTORS
330
B
102
}
330
B
100
AcDbMaterial
  1
ByBlock
  0
MATERIAL
  5
182
102
{ACAD_XDICTIONARY
360
1AE
102
}
102
{ACAD_REACTORS
330
B
102
}
330
B
100
AcDbMaterial
  1
ByLayer
  0
MATERIAL
  5
A
102
{ACAD_XDICTIONARY
360
193
102
}
102
{ACAD_REACTORS
330
B
102
}
330
B
100
AcDbMaterial
  1
Global
  0
MLINESTYLE
  5
186
102
{ACAD_REACTORS
330
180
102
}
330
180
100
AcDbMlineStyle
  2
STANDARD
 70
     0
  3

 62
   256
 51
90.0
 52
90.0
 71
     2
 49
0.5
 62
   256
  6
BYLAYER
 49
-0.5
 62
   256
  6
BYLAYER
  0
ACDBPLACEHOLDER
  5
7
102
{ACAD_REACTORS
330
8
102
}
330
8
  0
TABLESTYLE
  5
187
102
{ACAD_XDICTIONARY
360
21A
102
}
102
{ACAD_REACTORS
330
185
102
}
330
185
100
AcDbTableStyle
  3
Standard
 70
     0
 71
     0
 40
1.5
 41
1.5
280
     0
281
     0
  7
Standard
140
4.5
170
     2
 62
     0
 63
     7
283
     0
274
    -2
284
     1
 64
     0
275
    -2
285
     1
 65
     0
276
    -2
286
     1
 66
     0
277
    -2
287
     1
 67
     0
278
    -2
288
     1
 68
     0
279
    -2
289
     1
 69
     0
  7
Standard
140
6.0
170
     5
 62
     0
 63
     7
283
     0
274
    -2
284
     1
 64
     0
275
    -2
285
     1
 65
     0
276
    -2
286
     1
 66
     0
277
    -2
287
     1
 67
     0
278
    -2
288
     1
 68
     0
279
    -2
289
     1
 69
     0
  7
Standard
140
4.5
170
     5
 62
     0
 63
     7
283
     0
274
    -2
284
     1
 64
     0
275
    -2
285
     1
 65
     0
276
    -2
286
     1
 66
     0
277
    -2
287
     1
 67
     0
278
    -2
288
     1
 68
     0
279
    -2
289
     1
 69
     0
  0
VISUALSTYLE
  5
179
102
{ACAD_REACTORS
330
17A
102
}
330
17A
100
AcDbVisualStyle
  2
2dWireframe
 70
     4
 71
     0
 72
     2
 73
     0
 90
        0
 40
-0.6
 41
-30.0
 62
     5
 63
     7
 74
     1
 91
        4
 64
     7
 65
   257
 75
     1
175
     1
 42
1.0
 92
        0
 66
   257
 43
1.0
 76
     1
 77
     6
 78
     2
 67
     7
 79
     5
170
     0
171
     0
290
     0
174
     0
 93
        1
 44
0.0
173
     0
291
     0
 45
0.0
1001
ACAD
1000
AcDbSavedByObjectVersion
1070
     0
1000
AcDbSavedByObjectVersion
1070
     0
1000
AcDbSavedByObjectVersion
1070
     0
1001
ACAD
1000
AcRTDxfName
1000
VISUALSTYLE
  0
VISUALSTYLE
  5
1BD
102
{ACAD_REACTORS
330
17A
102
}
330
17A
100
AcDbVisualStyle
  2
3D Hidden
 70
     6
 71
     1
 72
     2
 73
     2
 90
        0
 40
-0.6
 41
-30.0
 62
     5
 63
     7
 74
     2
 91
        2
 64
     7
 65
   257
 75
     2
175
     1
 42
40.0
 92
        0
 66
   257
 43
1.0
 76
     1
 77
     6
 78
     2
 67
     7
 79
     3
170
     0
171
     0
290
     0
174
     0
 93
        1
 44
0.0
173
     0
291
     0
 45
0.0
1001
ACAD
1000
AcDbSavedByObjectVersion
1070
     0
1000
AcDbSavedByObjectVersion
1070
     0
1001
ACAD
1000
AcRTDxfName
1000
VISUALSTYLE
  0
VISUALSTYLE
  5
189
102
{ACAD_REACTORS
330
17A
102
}
330
17A
100
AcDbVisualStyle
  2
3dWireframe
 70
     5
 71
     0
 72
     2
 73
     0
 90
        0
 40
-0.6
 41
-30.0
 62
     5
 63
     7
 74
     1
 91
        4
 64
     7
 65
   257
 75
     1
175
     1
 42
1.0
 92
        0
 66
   257
 43
1.0
 76
     1
 77
     6
 78
     2
 67
     7
 79
     5
170
     0
171
     0
290
     0
174
     0
 93
        1
 44
0.0
173
     0
291
     0
 45
0.0
1001
ACAD
1000
AcDbSavedByObjectVersion
1070
     0
1000
AcDbSavedByObjectVersion
1070
     0
1000
AcDbSavedByObjectVersion
1070
     0
1001
ACAD
1000
AcRTDxfName
1000
VISUALSTYLE
  0
VISUALSTYLE
  5
1BC
102
{ACAD_REACTORS
330
17A
102
}
330
17A
100
AcDbVisualStyle
  2
Basic
 70
     7
 71
     1
 72
     0
 73
     1
 90
        0
 40
-0.6
 41
-30.0
 62
     5
 63
     7
 74
     0
 91
        4
 64
     7
 65
   257
 75
     1
175
     1
 42
1.0
 92
        8
 66
     7
 43
1.0
 76
     1
 77
     6
 78
     2
 67
     7
 79
     5
170
     0
171
     0
290
     0
174
     0
 93
        1
 44
0.0
173
     0
291
     1
 45
0.0
1001
ACAD
1000
AcDbSavedByObjectVersion
1070
     0
1000
AcDbSavedByObjectVersion
1070
     0
1001
ACAD
1000
AcRTDxfName
1000
VISUALSTYLE
  0
VISUALSTYLE
  5
1C0
102
{ACAD_REACTORS
330
17A
102
}
330
17A
100
AcDbVisualStyle
  2
Brighten
 70
    12
 71
     2
 72
     2
 73
     0
 90
        0
 40
-0.6
 41
-30.0
 62
     5
 63
     7
 74
     1
 91
        4
 64
     7
 65
   257
 75
     1
175
     1
 42
1.0
 92
        8
 66
     7
 43
1.0
 76
     1
 77
     6
 78
     2
 67
     7
 79
     5
170
     0
171
     0
290
     0
174
     0
 93
        1
 44
50.0
173
     0
291
     1
 45
0.0
1001
ACAD
1000
AcDbSavedByObjectVersion
1070
     0
1000
AcDbSavedByObjectVersion
1070
     0
1001
ACAD
1000
AcRTDxfName
1000
VISUALSTYLE
  0
VISUALSTYLE
  5
1C4
102
{ACAD_REACTORS
330
17A
102
}
330
17A
100
AcDbVisualStyle
  2
ColorChange
 70
    16
 71
     2
 72
     2
 73
     3
 90
        0
 40
-0.6
 41
-30.0
 62
     5
 63
     8
 74
     1
 91
        4
 64
     7
 65
   257
 75
     1
175
     1
 42
1.0
 92
        8
 66
     8
 43
1.0
 76
     1
 77
     6
 78
     2
 67
     7
 79
     5
170
     0
171
     0
290
     0
174
     0
 93
        1
 44
0.0
173
     0
291
     1
 45
0.0
1001
ACAD
1000
AcDbSavedByObjectVersion
1070
     0
1000
AcDbSavedByObjectVersion
1070
     0
1001
ACAD
1000
AcRTDxfName
1000
VISUALSTYLE
  0
VISUALSTYLE
  5
1BE
102
{ACAD_REACTORS
330
17A
102
}
330
17A
100
AcDbVisualStyle
  2
Conceptual
 70
     9
 71
     3
 72
     2
 73
     0
 90
        0
 40
-0.6
 41
-30.0
 62
     5
 63
     7
 74
     2
 91
        2
 64
     7
 65
   257
 75
     1
175
     1
 42
40.0
 92
        8
 66
     7
 43
1.0
 76
     1
 77
     6
 78
     2
 67
     7
 79
     3
170
     0
171
     0
290
     0
174
     0
 93
        1
 44
0.0
173
     0
291
     0
 45
0.0
1001
ACAD
1000
AcDbSavedByObjectVersion
1070
     0
1000
AcDbSavedByObjectVersion
1070
     0
1001
ACAD
1000
AcRTDxfName
1000
VISUALSTYLE
  0
VISUALSTYLE
  5
1BF
102
{ACAD_REACTORS
330
17A
102
}
330
17A
100
AcDbVisualStyle
  2
Dim
 70
    11
 71
     2
 72
     2
 73
     0
 90
        0
 40
-0.6
 41
-30.0
 62
     5
 63
     7
 74
     1
 91
        4
 64
     7
 65
   257
 75
     1
175
     1
 42
1.0
 92
        8
 66
     7
 43
1.0
 76
     1
 77
     6
 78
     2
 67
     7
 79
     5
170
     0
171
     0
290
     0
174
     0
 93
        1
 44
-50.0
173
     0
291
     1
 45
0.0
1001
ACAD
1000
AcDbSavedByObjectVersion
1070
     0
1000
AcDbSavedByObjectVersion
1070
     0
1001
ACAD
1000
AcRTDxfName
1000
VISUALSTYLE
  0
VISUALSTYLE
  5
1C3
102
{ACAD_REACTORS
330
17A
102
}
330
17A
100
AcDbVisualStyle
  2
Facepattern
 70
    15
 71
     2
 72
     2
 73
     0
 90
        0
 40
-0.6
 41
-30.0
 62
     5
 63
     7
 74
     1
 91
        4
 64
     7
 65
   257
 75
     1
175
     1
 42
1.0
 92
        8
 66
     7
 43
1.0
 76
     1
 77
     6
 78
     2
 67
     7
 79
     5
170
     0
171
     0
290
     0
174
     0
 93
        1
 44
0.0
173
     0
291
     1
 45
0.0
1001
ACAD
1000
AcDbSavedByObjectVersion
1070
     0
1000
AcDbSavedByObjectVersion
1070
     0
1001
ACAD
1000
AcRTDxfName
1000
VISUALSTYLE
  0
VISUALSTYLE
  5
1B8
102
{ACAD_REACTORS
330
17A
102
}
330
17A
100
AcDbVisualStyle
  2
Flat
 70
     0
 71
     2
 72
     1
 73
     1
 90
        2
 40
-0.6
 41
30.0
 62
     5
 63
     7
 74
     0
 91
        4
 64
     7
 65
   257
 75
     1
175
     1
 42
1.0
 92
        8
 66
     7
 43
1.0
 76
     1
 77
     6
 78
     2
 67
     7
 79
     5
170
     0
171
     0
290
     0
174
     0
 93
       13
 44
0.0
173
     0
291
     1
 45
0.0
1001
ACAD
1000
AcDbSavedByObjectVersion
1070
     0
1000
AcDbSavedByObjectVersion
1070
     0
1001
ACAD
1000
AcRTDxfName
1000
VISUALSTYLE
  0
VISUALSTYLE
  5
1B9
102
{ACAD_REACTORS
330
17A
102
}
330
17A
100
AcDbVisualStyle
  2
FlatWithEdges
 70
     1
 71
     2
 72
     1
 73
     1
 90
        2
 40
-0.6
 41
30.0
 62
     5
 63
     7
 74
     1
 91
        4
 64
     7
 65
   257
 75
     1
175
     1
 42
1.0
 92
        0
 66
   257
 43
1.0
 76
     1
 77
     6
 78
     2
 67
     7
 79
     5
170
     0
171
     0
290
     0
174
     0
 93
       13
 44
0.0
173
     0
291
     1
 45
0.0
1001
ACAD
1000
AcDbSavedByObjectVersion
1070
     0
1000
AcDbSavedByObjectVersion
1070
     0
1001
ACAD
1000
AcRTDxfName
1000
VISUALSTYLE
  0
VISUALSTYLE
  5
1BA
102
{ACAD_REACTORS
330
17A
102
}
330
17A
100
AcDbVisualStyle
  2
Gouraud
 70
     2
 71
     2
 72
     2
 73
     1
 90
        2
 40
-0.6
 41
30.0
 62
     5
 63
     7
 74
     0
 91
        4
 64
     7
 65
   257
 75
     1
175
     1
 42
1.0
 92
        0
 66
     7
 43
1.0
 76
     1
 77
     6
 78
     2
 67
     7
 79
     5
170
     0
171
     0
290
     0
174
     0
 93
       13
 44
0.0
173
     0
291
     1
 45
0.0
1001
ACAD
1000
AcDbSavedByObjectVersion
1070
     0
1000
AcDbSavedByObjectVersion
1070
     0
1001
ACAD
1000
AcRTDxfName
1000
VISUALSTYLE
  0
VISUALSTYLE
  5
1BB
102
{ACAD_REACTORS
330
17A
102
}
330
17A
100
AcDbVisualStyle
  2
GouraudWithEdges
 70
     3
 71
     2
 72
     2
 73
     1
 90
        2
 40
-0.6
 41
30.0
 62
     5
 63
     7
 74
     1
 91
        4
 64
     7
 65
   257
 75
     1
175
     1
 42
1.0
 92
        0
 66
   257
 43
1.0
 76
     1
 77
     6
 78
     2
 67
     7
 79
     5
170
     0
171
     0
290
     0
174
     0
 93
       13
 44
0.0
173
     0
291
     1
 45
0.0
1001
ACAD
1000
AcDbSavedByObjectVersion
1070
     0
1000
AcDbSavedByObjectVersion
1070
     0
1001
ACAD
1000
AcRTDxfName
1000
VISUALSTYLE
  0
VISUALSTYLE
  5
1C2
102
{ACAD_REACTORS
330
17A
102
}
330
17A
100
AcDbVisualStyle
  2
Linepattern
 70
    14
 71
     2
 72
     2
 73
     0
 90
        0
 40
-0.6
 41
-30.0
 62
     5
 63
     7
 74
     1
 91
        4
 64
     7
 65
   257
 75
     7
175
     7
 42
1.0
 92
        8
 66
     7
 43
1.0
 76
     1
 77
     6
 78
     2
 67
     7
 79
     5
170
     0
171
     0
290
     0
174
     0
 93
        1
 44
0.0
173
     0
291
     1
 45
0.0
1001
ACAD
1000
AcDbSavedByObjectVersion
1070
     0
1000
AcDbSavedByObjectVersion
1070
     0
1001
ACAD
1000
AcRTDxfName
1000
VISUALSTYLE
  0
VISUALSTYLE
  5
188
102
{ACAD_REACTORS
330
17A
102
}
330
17A
100
AcDbVisualStyle
  2
Realistic
 70
     8
 71
     2
 72
     2
 73
     0
 90
        0
 40
-0.6
 41
-30.0
 62
     5
 63
     7
 74
     1
 91
        0
 64
     7
 65
   257
 75
     1
175
     1
 42
1.0
 92
        8
 66
     8
 43
1.0
 76
     1
 77
     6
 78
     2
 67
     7
 79
     5
170
     0
171
     0
290
     0
174
     0
 93
       13
 44
0.0
173
     0
291
     0
 45
0.0
1001
ACAD
1000
AcDbSavedByObjectVersion
1070
     0
1000
AcDbSavedByObjectVersion
1070
     0
1000
AcDbSavedByObjectVersion
1070
     0
1001
ACAD
1000
AcRTDxfName
1000
VISUALSTYLE
  0
VISUALSTYLE
  5
1C1
102
{ACAD_REACTORS
330
17A
102
}
330
17A
100
AcDbVisualStyle
  2
Thicken
 70
    13
 71
     2
 72
     2
 73
     0
 90
        0
 40
-0.6
 41
-30.0
 62
     5
 63
     7
 74
     1
 91
        4
 64
     7
 65
   257
 75
     1
175
     1
 42
1.0
 92
       12
 66
     7
 43
1.0
 76
     1
 77
     6
 78
     2
 67
     7
 79
     5
170
     0
171
     0
290
     0
174
     0
 93
        1
 44
0.0
173
     0
291
     1
 45
0.0
1001
ACAD
1000
AcDbSavedByObjectVersion
1070
     0
1000
AcDbSavedByObjectVersion
1070
     0
1001
ACAD
1000
AcRTDxfName
1000
VISUALSTYLE
  0
DICTIONARYVAR
  5
18C
102
{ACAD_REACTORS
330
18B
102
}
330
18B
100
DictionaryVariables
280
     0
  1
STANDARD
  0
DICTIONARYVAR
  5
190
102
{ACAD_REACTORS
330
18B
102
}
330
18B
100
DictionaryVariables
280
     0
  1
2
  0
DICTIONARYVAR
  5
18F
102
{ACAD_REACTORS
330
18B
102
}
330
18B
100
DictionaryVariables
280
     0
  1
1
  0
DICTIONARYVAR
  5
18E
102
{ACAD_REACTORS
330
18B
102
}
330
18B
100
DictionaryVariables
280
     0
  1
0
  0
DICTIONARYVAR
  5
2F9
102
{ACAD_REACTORS
330
18B
102
}
330
18B
100
DictionaryVariables
280
     0
  1

  0
DICTIONARYVAR
  5
18D
102
{ACAD_REACTORS
330
18B
102
}
330
18B
100
DictionaryVariables
280
     0
  1
127
  0
DICTIONARY
  5
1DBA
330
168
100
AcDbDictionary
280
     1
281
     1
  3
ACAD_XREC_ROUNDTRIP
360
1DBB
  0
DICTIONARY
  5
1DBC
330
16C
100
AcDbDictionary
280
     1
281
     1
  3
ACAD_XREC_ROUNDTRIP
360
1DBD
  0
DICTIONARY
  5
1DB8
330
163
100
AcDbDictionary
280
     1
281
     1
  3
ACAD_XREC_ROUNDTRIP
360
1DB9
  0
DICTIONARY
  5
1B0
330
183
100
AcDbDictionary
280
     1
281
     1
  3
ACAD_XREC_ROUNDTRIP
360
1B1
  0
DICTIONARY
  5
1AE
330
182
100
AcDbDictionary
280
     1
281
     1
  3
ACAD_XREC_ROUNDTRIP
360
1AF
  0
DICTIONARY
  5
193
330
A
100
AcDbDictionary
280
     1
281
     1
  3
ACAD_XREC_ROUNDTRIP
360
194
  0
DICTIONARY
  5
21A
330
187
100
AcDbDictionary
280
     1
281
     1
  3
ACAD_XREC_ROUNDTRIP
360
21B
  0
XRECORD
  5
1DBB
102
{ACAD_REACTORS
330
1DBA
102
}
330
1DBA
100
AcDbXrecord
280
     1
102
SHADEPLOT
 70
     0
102
SHADEPLOTRESLEVEL
 70
     2
102
SHADEPLOTCUSTOMDPI
 70
   300
  0
XRECORD
  5
1DBD
102
{ACAD_REACTORS
330
1DBC
102
}
330
1DBC
100
AcDbXrecord
280
     1
102
SHADEPLOT
 70
     0
102
SHADEPLOTRESLEVEL
 70
     2
102
SHADEPLOTCUSTOMDPI
 70
   300
  0
XRECORD
  5
1DB9
102
{ACAD_REACTORS
330
1DB8
102
}
330
1DB8
100
AcDbXrecord
280
     1
102
SHADEPLOT
 70
     0
102
SHADEPLOTRESLEVEL
 70
     2
102
SHADEPLOTCUSTOMDPI
 70
   300
  0
XRECORD
  5
1B1
102
{ACAD_REACTORS
330
1B0
102
}
330
1B0
100
AcDbXrecord
280
     1
102
MATERIAL
148
0.0
149
0.0
149
0.0
 93
        0
 94
       63
282
     0
 72
     1
 77
     1
171
     1
175
     1
179
     1
273
     0
  0
XRECORD
  5
1AF
102
{ACAD_REACTORS
330
1AE
102
}
330
1AE
100
AcDbXrecord
280
     1
102
MATERIAL
148
0.0
149
0.0
149
0.0
 93
        0
 94
       63
282
     0
 72
     1
 77
     1
171
     1
175
     1
179
     1
273
     0
  0
XRECORD
  5
194
102
{ACAD_REACTORS
330
193
102
}
330
193
100
AcDbXrecord
280
     1
102
MATERIAL
148
0.0
149
0.0
149
0.0
 93
        0
 94
       63
282
     0
 72
     1
 77
     1
171
     1
175
     1
179
     1
273
     0
  0
XRECORD
  5
21B
102
{ACAD_REACTORS
330
21A
102
}
330
21A
100
AcDbXrecord
280
     1
102
ACAD_ROUNDTRIP_PRE2007_TABLESTYLE
 90
        4
 91
        0
  1

 92
        4
 93
        0
  2

 94
        4
 95
        0
  3

  0
ENDSEC
  0
EOF
