  0
SECTION
  2
HEADER
  9
$ACADVER
  1
AC1015
  9
$ACADMAINTVER
 70
    20
  9
$DWGCODEPAGE
  3
ANSI_1252
  9
$INSBASE
 10
0.0
 20
0.0
 30
0.0
  9
$EXTMIN
 10
0.0149999999999999
 20
-0.1019819952819346
 30
0.0
  9
$EXTMAX
 10
1.296793315009053
 20
0.667933885513129
 30
0.0
  9
$LIMMIN
 10
0.0
 20
0.0
  9
$LIMMAX
 10
1.0
 20
0.5
  9
$ORTHOMODE
 70
     0
  9
$REGENMODE
 70
     1
  9
$FILLMODE
 70
     1
  9
$QTEXTMODE
 70
     0
  9
$MIRRTEXT
 70
     0
  9
$LTSCALE
 40
1.0
  9
$ATTMODE
 70
     1
  9
$TEXTSIZE
 40
0.008
  9
$TRACEWID
 40
1.0
  9
$TEXTSTYLE
  7
style1
  9
$CLAYER
  8
Text
  9
$CELTYPE
  6
ACAD_ISO10W100
  9
$CECOLOR
 62
   256
  9
$CELTSCALE
 40
1.0
  9
$DISPSILH
 70
     0
  9
$DIMSCALE
 40
0.001
  9
$DIMASZ
 40
1.5
  9
$DIMEXO
 40
0.0625
  9
$DIMDLI
 40
0.38
  9
$DIMRND
 40
0.0
  9
$DIMDLE
 40
0.0
  9
$DIMEXE
 40
0.18
  9
$DIMTP
 40
0.0
  9
$DIMTM
 40
0.0
  9
$DIMTXT
 40
3.0
  9
$DIMCEN
 40
0.0
  9
$DIMTSZ
 40
0.0
  9
$DIMTOL
 70
     0
  9
$DIMLIM
 70
     0
  9
$DIMTIH
 70
     1
  9
$DIMTOH
 70
     1
  9
$DIMSE1
 70
     0
  9
$DIMSE2
 70
     0
  9
$DIMTAD
 70
     0
  9
$DIMZIN
 70
     0
  9
$DIMBLK
  1
ArchTick
  9
$DIMASO
 70
     1
  9
$DIMSHO
 70
     1
  9
$DIMPOST
  1

  9
$DIMAPOST
  1

  9
$DIMALT
 70
     0
  9
$DIMALTD
 70
     2
  9
$DIMALTF
 40
25.4
  9
$DIMLFAC
 40
1.0
  9
$DIMTOFL
 70
     0
  9
$DIMTVP
 40
0.0
  9
$DIMTIX
 70
     0
  9
$DIMSOXD
 70
     0
  9
$DIMSAH
 70
     0
  9
$DIMBLK1
  1

  9
$DIMBLK2
  1

  9
$DIMSTYLE
  2
Bovelacci
  9
$DIMCLRD
 70
     5
  9
$DIMCLRE
 70
     5
  9
$DIMCLRT
 70
     4
  9
$DIMTFAC
 40
1.0
  9
$DIMGAP
 40
2.0
  9
$DIMJUST
 70
     0
  9
$DIMSD1
 70
     0
  9
$DIMSD2
 70
     0
  9
$DIMTOLJ
 70
     1
  9
$DIMTZIN
 70
     0
  9
$DIMALTZ
 70
     0
  9
$DIMALTTZ
 70
     0
  9
$DIMUPT
 70
     0
  9
$DIMDEC
 70
     2
  9
$DIMTDEC
 70
     2
  9
$DIMALTU
 70
     2
  9
$DIMALTTD
 70
     2
  9
$DIMTXSTY
  7
ROMANS
  9
$DIMAUNIT
 70
     0
  9
$DIMADEC
 70
     0
  9
$DIMALTRND
 40
0.0
  9
$DIMAZIN
 70
     0
  9
$DIMDSEP
 70
    46
  9
$DIMATFIT
 70
     3
  9
$DIMFRAC
 70
     0
  9
$DIMLDRBLK
  1

  9
$DIMLUNIT
 70
     2
  9
$DIMLWD
 70
    -2
  9
$DIMLWE
 70
    -2
  9
$DIMTMOVE
 70
     2
  9
$LUNITS
 70
     2
  9
$LUPREC
 70
     2
  9
$SKETCHINC
 40
1.0
  9
$FILLETRAD
 40
0.0
  9
$AUNITS
 70
     0
  9
$AUPREC
 70
     0
  9
$MENU
  1
.
  9
$ELEVATION
 40
0.0
  9
$PELEVATION
 40
0.0
  9
$THICKNESS
 40
0.0
  9
$LIMCHECK
 70
     0
  9
$CHAMFERA
 40
0.0
  9
$CHAMFERB
 40
0.0
  9
$CHAMFERC
 40
0.0
  9
$CHAMFERD
 40
0.0
  9
$SKPOLY
 70
     0
  9
$TDCREATE
 40
2454297.625402373
  9
$TDUCREATE
 40
2454297.542069039
  9
$TDUPDATE
 40
2454311.734656030
  9
$TDUUPDATE
 40
2454311.651322697
  9
$TDINDWG
 40
0.1903128704
  9
$TDUSRTIMER
 40
0.1903108681
  9
$USRTIMER
 70
     1
  9
$ANGBASE
 50
0.0
  9
$ANGDIR
 70
     0
  9
$PDMODE
 70
     0
  9
$PDSIZE
 40
0.0
  9
$PLINEWID
 40
0.0
  9
$SPLFRAME
 70
     0
  9
$SPLINETYPE
 70
     6
  9
$SPLINESEGS
 70
     8
  9
$HANDSEED
  5
25C4
  9
$SURFTAB1
 70
     6
  9
$SURFTAB2
 70
     6
  9
$SURFTYPE
 70
     6
  9
$SURFU
 70
     6
  9
$SURFV
 70
     6
  9
$UCSBASE
  2

  9
$UCSNAME
  2

  9
$UCSORG
 10
0.0
 20
0.0
 30
0.0
  9
$UCSXDIR
 10
1.0
 20
0.0
 30
0.0
  9
$UCSYDIR
 10
0.0
 20
1.0
 30
0.0
  9
$UCSORTHOREF
  2

  9
$UCSORTHOVIEW
 70
     0
  9
$UCSORGTOP
 10
0.0
 20
0.0
 30
0.0
  9
$UCSORGBOTTOM
 10
0.0
 20
0.0
 30
0.0
  9
$UCSORGLEFT
 10
0.0
 20
0.0
 30
0.0
  9
$UCSORGRIGHT
 10
0.0
 20
0.0
 30
0.0
  9
$UCSORGFRONT
 10
0.0
 20
0.0
 30
0.0
  9
$UCSORGBACK
 10
0.0
 20
0.0
 30
0.0
  9
$PUCSBASE
  2

  9
$PUCSNAME
  2

  9
$PUCSORG
 10
0.0
 20
0.0
 30
0.0
  9
$PUCSXDIR
 10
1.0
 20
0.0
 30
0.0
  9
$PUCSYDIR
 10
0.0
 20
1.0
 30
0.0
  9
$PUCSORTHOREF
  2

  9
$PUCSORTHOVIEW
 70
     0
  9
$PUCSORGTOP
 10
0.0
 20
0.0
 30
0.0
  9
$PUCSORGBOTTOM
 10
0.0
 20
0.0
 30
0.0
  9
$PUCSORGLEFT
 10
0.0
 20
0.0
 30
0.0
  9
$PUCSORGRIGHT
 10
0.0
 20
0.0
 30
0.0
  9
$PUCSORGFRONT
 10
0.0
 20
0.0
 30
0.0
  9
$PUCSORGBACK
 10
0.0
 20
0.0
 30
0.0
  9
$USERI1
 70
     0
  9
$USERI2
 70
     0
  9
$USERI3
 70
     0
  9
$USERI4
 70
     0
  9
$USERI5
 70
     0
  9
$USERR1
 40
0.0
  9
$USERR2
 40
0.0
  9
$USERR3
 40
0.0
  9
$USERR4
 40
0.0
  9
$USERR5
 40
0.0
  9
$WORLDVIEW
 70
     1
  9
$SHADEDGE
 70
     3
  9
$SHADEDIF
 70
    70
  9
$TILEMODE
 70
     1
  9
$MAXACTVP
 70
    64
  9
$PINSBASE
 10
0.0
 20
0.0
 30
0.0
  9
$PLIMCHECK
 70
     0
  9
$PEXTMIN
 10
1.000000000000000E+20
 20
1.000000000000000E+20
 30
1.000000000000000E+20
  9
$PEXTMAX
 10
-1.000000000000000E+20
 20
-1.000000000000000E+20
 30
-1.000000000000000E+20
  9
$PLIMMIN
 10
0.0
 20
0.0
  9
$PLIMMAX
 10
420.0
 20
297.0
  9
$UNITMODE
 70
     0
  9
$VISRETAIN
 70
     1
  9
$PLINEGEN
 70
     0
  9
$PSLTSCALE
 70
     1
  9
$TREEDEPTH
 70
  3020
  9
$CMLSTYLE
  2
Standard
  9
$CMLJUST
 70
     0
  9
$CMLSCALE
 40
20.0
  9
$PROXYGRAPHICS
 70
     1
  9
$MEASUREMENT
 70
     1
  9
$CELWEIGHT
370
    -1
  9
$ENDCAPS
280
     0
  9
$JOINSTYLE
280
     0
  9
$LWDISPLAY
290
     0
  9
$INSUNITS
 70
     4
  9
$HYPERLINKBASE
  1

  9
$STYLESHEET
  1

  9
$XEDIT
290
     1
  9
$CEPSNTYPE
380
     0
  9
$PSTYLEMODE
290
     1
  9
$FINGERPRINTGUID
  2
{904A8C64-524F-4709-A9C6-320D2C273A6D}
  9
$VERSIONGUID
  2
{17E23006-0D8E-47F9-815D-21D61EEE8C9E}
  9
$EXTNAMES
290
     1
  9
$PSVPSCALE
 40
0.0
  9
$OLESTARTUP
290
     0
  0
ENDSEC
  0
SECTION
  2
CLASSES
  0
CLASS
  1
ACDBDICTIONARYWDFLT
  2
AcDbDictionaryWithDefault
  3
ObjectDBX Classes
 90
        0
280
     0
281
     0
  0
CLASS
  1
TABLESTYLE
  2
AcDbTableStyle
  3
ObjectDBX Classes
 90
     2047
280
     0
281
     0
  0
CLASS
  1
SORTENTSTABLE
  2
AcDbSortentsTable
  3
ObjectDBX Classes
 90
        0
280
     0
281
     0
  0
CLASS
  1
DICTIONARYVAR
  2
AcDbDictionaryVar
  3
ObjectDBX Classes
 90
        0
280
     0
281
     0
  0
CLASS
  1
ACDBPLACEHOLDER
  2
AcDbPlaceHolder
  3
ObjectDBX Classes
 90
        0
280
     0
281
     0
  0
CLASS
  1
LAYOUT
  2
AcDbLayout
  3
ObjectDBX Classes
 90
        0
280
     0
281
     0
  0
CLASS
  1
DIMASSOC
  2
AcDbDimAssoc
  3
"AcDbDimAssoc|Product Desc:     AcDim ARX App For Dimension|Company:          Autodesk, Inc.|WEB Address:      www.autodesk.com"
 90
        0
280
     0
281
     0
  0
CLASS
  1
MATERIAL
  2
AcDbMaterial
  3
ObjectDBX Classes
 90
        0
280
     0
281
     0
  0
CLASS
  1
VISUALSTYLE
  2
AcDbVisualStyle
  3
ObjectDBX Classes
 90
     4095
280
     0
281
     0
  0
ENDSEC
  0
SECTION
  2
TABLES
  0
TABLE
  2
VPORT
  5
177
330
0
100
AcDbSymbolTable
 70
     9
  0
VPORT
  5
25B9
330
177
100
AcDbSymbolTableRecord
100
AcDbViewportTableRecord
  2
*Active
 70
     0
 10
0.0
 20
0.0
 11
1.0
 21
1.0
 12
0.2094724671221926
 22
0.1482097736681688
 13
0.0
 23
0.0
 14
10.0
 24
10.0
 15
10.0
 25
10.0
 16
0.0
 26
0.0
 36
1.0
 17
0.0
 27
0.0
 37
0.0
 40
0.2728785509393281
 41
1.546526867627784
 42
50.0
 43
0.0
 44
0.0
 50
0.0
 51
0.0
 71
     0
 72
  1000
 73
     1
 74
     3
 75
     0
 76
     0
 77
     0
 78
     0
281
     0
 65
     1
110
0.0
120
0.0
130
0.0
111
1.0
121
0.0
131
0.0
112
0.0
122
1.0
132
0.0
 79
     0
146
0.0
  0
ENDTAB
  0
TABLE
  2
LTYPE
  5
172
330
0
100
AcDbSymbolTable
 70
     2
  0
LTYPE
  5
173
330
172
100
AcDbSymbolTableRecord
100
AcDbLinetypeTableRecord
  2
ByBlock
 70
     0
  3

 72
    65
 73
     0
 40
0.0
  0
LTYPE
  5
174
330
172
100
AcDbSymbolTableRecord
100
AcDbLinetypeTableRecord
  2
ByLayer
 70
     0
  3

 72
    65
 73
     0
 40
0.0
  0
LTYPE
  5
C
330
172
100
AcDbSymbolTableRecord
100
AcDbLinetypeTableRecord
  2
Continuous
 70
     0
  3
Solid line
 72
    65
 73
     0
 40
0.0
  0
LTYPE
  5
14E
330
172
100
AcDbSymbolTableRecord
100
AcDbLinetypeTableRecord
  2
ACAD_ISO10W100
 70
     0
  3
ISO dash dot __ . __ . __ . __ . __ . __ . __ .
 72
    65
 73
     4
 40
18.0
 49
12.0
 74
     0
 49
-3.0
 74
     0
 49
0.0
 74
     0
 49
-3.0
 74
     0
  0
ENDTAB
  0
TABLE
  2
LAYER
  5
16D
102
{ACAD_XDICTIONARY
360
16E
102
}
330
0
100
AcDbSymbolTable
 70
     8
  0
LAYER
  5
6
330
16D
100
AcDbSymbolTableRecord
100
AcDbLayerTableRecord
  2
0
 70
     0
 62
     7
  6
Continuous
370
    -3
390
7
  0
LAYER
  5
15F
330
16D
100
AcDbSymbolTableRecord
100
AcDbLayerTableRecord
  2
Defpoints
 70
     0
 62
     7
  6
Continuous
290
     0
370
    -3
390
7
  0
LAYER
  5
28
330
16D
100
AcDbSymbolTableRecord
100
AcDbLayerTableRecord
  2
Profilo
 70
     0
 62
     1
  6
Continuous
370
    -3
390
7
1001
AcAecLayerStandard
1000

1000

  0
LAYER
  5
14D
330
16D
100
AcDbSymbolTableRecord
100
AcDbLayerTableRecord
  2
Sezione
 70
     0
 62
     2
  6
Continuous
370
    -3
390
7
1001
AcAecLayerStandard
1000

1000

  0
LAYER
  5
E
330
16D
100
AcDbSymbolTableRecord
100
AcDbLayerTableRecord
  2
Table
 70
     0
 62
     3
  6
Continuous
370
    -3
390
7
1001
AcAecLayerStandard
1000

1000

  0
LAYER
  5
19
330
16D
100
AcDbSymbolTableRecord
100
AcDbLayerTableRecord
  2
Text
 70
     0
 62
     4
  6
Continuous
370
    -3
390
7
1001
AcAecLayerStandard
1000

1000

  0
LAYER
  5
23D
330
16D
100
AcDbSymbolTableRecord
100
AcDbLayerTableRecord
  2
Bovelacci
 70
     0
 62
     9
  6
Continuous
370
    -3
390
7
1001
AcAecLayerStandard
1000

1000

  0
LAYER
  5
1826
330
16D
100
AcDbSymbolTableRecord
100
AcDbLayerTableRecord
  2
Layer1
 70
     0
 62
     7
  6
Continuous
370
    -3
390
7
1001
AcAecLayerStandard
1000

1000

  0
ENDTAB
  0
TABLE
  2
STYLE
  5
170
330
0
100
AcDbSymbolTable
 70
     3
  0
STYLE
  5
1A
330
170
100
AcDbSymbolTableRecord
100
AcDbTextStyleTableRecord
  2
Standard
 70
     0
 40
0.0
 41
1.0
 50
0.0
 71
     0
 42
2.5
  3
txt
  4

  0
STYLE
  5
20
330
170
100
AcDbSymbolTableRecord
100
AcDbTextStyleTableRecord
  2
ROMANS
 70
     0
 40
0.0
 41
1.0
 50
0.0
 71
     0
 42
2.5
  3
romans
  4

  0
STYLE
  5
26
330
170
100
AcDbSymbolTableRecord
100
AcDbTextStyleTableRecord
  2
style1
 70
     0
 40
0.0
 41
1.0
 50
0.0
 71
     0
 42
0.008
  3
TIMES.TTF
  4

1001
ACAD
1000
Times New Roman
1071
       18
  0
ENDTAB
  0
TABLE
  2
VIEW
  5
175
330
0
100
AcDbSymbolTable
 70
     3
  0
ENDTAB
  0
TABLE
  2
UCS
  5
176
330
0
100
AcDbSymbolTable
 70
     0
  0
ENDTAB
  0
TABLE
  2
APPID
  5
17B
330
0
100
AcDbSymbolTable
 70
    10
  0
APPID
  5
1B
330
17B
100
AcDbSymbolTableRecord
100
AcDbRegAppTableRecord
  2
ACAD
 70
     0
  0
APPID
  5
157
330
17B
100
AcDbSymbolTableRecord
100
AcDbRegAppTableRecord
  2
ACAD_DSTYLE_DIMJOGGED_JOGANGLE_SYMBOL
 70
     0
  0
APPID
  5
F
330
17B
100
AcDbSymbolTableRecord
100
AcDbRegAppTableRecord
  2
AcAecLayerStandard
 70
     0
  0
APPID
  5
19C
330
17B
100
AcDbSymbolTableRecord
100
AcDbRegAppTableRecord
  2
ACAD_DSTYLE_DIMFLIPARROW_WHICH_SYMBOL
 70
     0
  0
APPID
  5
1A7
330
17B
100
AcDbSymbolTableRecord
100
AcDbRegAppTableRecord
  2
ACAD_DSTYLE_DIMEXT_LENGTH
 70
     0
  0
APPID
  5
1D2
330
17B
100
AcDbSymbolTableRecord
100
AcDbRegAppTableRecord
  2
ACAD_EXEMPT_FROM_CAD_STANDARDS
 70
     0
  0
APPID
  5
1D3
330
17B
100
AcDbSymbolTableRecord
100
AcDbRegAppTableRecord
  2
ACAD_DSTYLE_DIM_LINETYPE
 70
     0
  0
APPID
  5
1D4
330
17B
100
AcDbSymbolTableRecord
100
AcDbRegAppTableRecord
  2
ACAD_DSTYLE_DIM_EXT1_LINETYPE
 70
     0
  0
APPID
  5
1D5
330
17B
100
AcDbSymbolTableRecord
100
AcDbRegAppTableRecord
  2
ACAD_DSTYLE_DIM_EXT2_LINETYPE
 70
     0
  0
APPID
  5
243
330
17B
100
AcDbSymbolTableRecord
100
AcDbRegAppTableRecord
  2
ACAD_PSEXT
 70
     0
  0
ENDTAB
  0
TABLE
  2
DIMSTYLE
  5
17C
330
0
100
AcDbSymbolTable
 70
     7
100
AcDbDimStyleTable
 71
     2
340
156
340
17D
  0
DIMSTYLE
105
17D
330
17C
100
AcDbSymbolTableRecord
100
AcDbDimStyleTableRecord
  2
ISO-25
 70
     0
 41
2.5
 42
0.625
 43
3.75
 44
1.25
 73
     0
 74
     0
 77
     1
 78
     8
140
2.5
141
2.5
143
0.03937007874016
147
0.625
171
     3
172
     1
271
     2
272
     2
274
     3
278
    44
283
     0
284
     8
340
1A
  0
DIMSTYLE
105
156
102
{ACAD_REACTORS
330
2582
330
2585
102
}
330
17C
100
AcDbSymbolTableRecord
100
AcDbDimStyleTableRecord
  2
Bovelacci
 70
     0
 40
0.001
 41
1.5
140
3.0
141
0.0
147
2.0
176
     5
177
     5
178
     4
271
     2
272
     2
279
     2
340
20
342
152
1001
ACAD_DSTYLE_DIMJOGGED_JOGANGLE_SYMBOL
1070
   384
1040
0.7853981633974483
1001
ACAD_DSTYLE_DIMEXT_LENGTH
1070
   378
1040
0.18
  0
DIMSTYLE
105
23E
330
17C
100
AcDbSymbolTableRecord
100
AcDbDimStyleTableRecord
  2
Dim 1-100
 70
     0
 40
0.1
 41
1.5
 42
0.0
 43
5.0
 44
1.25
 45
0.005
 46
1.25
 73
     0
 74
     0
 77
     1
 78
     9
140
2.0
141
2.5
147
1.0
172
     1
174
     1
179
     2
279
     2
289
     2
340
20
342
152
  0
DIMSTYLE
105
23F
330
17C
100
AcDbSymbolTableRecord
100
AcDbDimStyleTableRecord
  2
Standard
 70
     0
 42
0.0
 73
     0
 74
     0
 77
     1
271
     2
272
     2
340
20
  0
DIMSTYLE
105
240
330
17C
100
AcDbSymbolTableRecord
100
AcDbDimStyleTableRecord
  2
Dim 1-50
 70
     0
 40
0.05
 41
1.5
 42
0.0
 43
5.0
 44
1.25
 45
0.005
 46
1.25
 73
     0
 74
     0
 77
     1
 78
     9
140
2.0
141
2.5
147
1.0
172
     1
174
     1
179
     2
279
     2
289
     2
340
20
342
152
  0
DIMSTYLE
105
241
330
17C
100
AcDbSymbolTableRecord
100
AcDbDimStyleTableRecord
  2
Dim 1-200
 70
     0
 40
0.2
 41
1.5
 42
0.0
 43
5.0
 44
1.25
 45
0.005
 46
1.25
 73
     0
 74
     0
 77
     1
 78
     9
140
2.0
141
2.5
147
1.0
172
     1
174
     1
179
     2
271
     2
272
     2
279
     2
289
     2
340
20
342
152
  0
DIMSTYLE
105
242
330
17C
100
AcDbSymbolTableRecord
100
AcDbDimStyleTableRecord
  2
AEC Scale - Italiano
 70
     0
 41
1.0
 42
10.0
 43
10.0
 44
10.0
 73
     0
 74
     0
 75
     1
 76
     1
 77
     1
140
10.0
141
1.0
147
10.0
173
     1
271
     0
272
     0
279
     2
340
1A
343
238
344
232
  0
ENDTAB
  0
TABLE
  2
BLOCK_RECORD
  5
1
330
0
100
AcDbSymbolTable
 70
    15
  0
BLOCK_RECORD
  5
2
102
{ACAD_XDICTIONARY
360
3
102
}
330
1
100
AcDbSymbolTableRecord
100
AcDbBlockTableRecord
  2
*Model_Space
340
163
  0
BLOCK_RECORD
  5
165
330
1
100
AcDbSymbolTableRecord
100
AcDbBlockTableRecord
  2
*Paper_Space
340
168
  0
BLOCK_RECORD
  5
169
330
1
100
AcDbSymbolTableRecord
100
AcDbBlockTableRecord
  2
*Paper_Space0
340
16C
  0
BLOCK_RECORD
  5
152
330
1
100
AcDbSymbolTableRecord
100
AcDbBlockTableRecord
  2
_ArchTick
340
0
310
2800000020000000200000000100080000000000000400000000000000000000000000000000000000000000000080000080000000808000800000008000800080800000C0C0C000C0DCC000F0CAA6000020400000206000002080000020A0000020C0000020E00000400000004020000040400000406000004080000040A0
310
000040C0000040E00000600000006020000060400000606000006080000060A0000060C0000060E00000800000008020000080400000806000008080000080A0000080C0000080E00000A0000000A0200000A0400000A0600000A0800000A0A00000A0C00000A0E00000C0000000C0200000C0400000C0600000C0800000C0
310
A00000C0C00000C0E00000E0000000E0200000E0400000E0600000E0800000E0A00000E0C00000E0E00040000000400020004000400040006000400080004000A0004000C0004000E00040200000402020004020400040206000402080004020A0004020C0004020E000404000004040200040404000404060004040800040
310
40A0004040C0004040E00040600000406020004060400040606000406080004060A0004060C0004060E00040800000408020004080400040806000408080004080A0004080C0004080E00040A0000040A0200040A0400040A0600040A0800040A0A00040A0C00040A0E00040C0000040C0200040C0400040C0600040C08000
310
40C0A00040C0C00040C0E00040E0000040E0200040E0400040E0600040E0800040E0A00040E0C00040E0E00080000000800020008000400080006000800080008000A0008000C0008000E00080200000802020008020400080206000802080008020A0008020C0008020E00080400000804020008040400080406000804080
310
008040A0008040C0008040E00080600000806020008060400080606000806080008060A0008060C0008060E00080800000808020008080400080806000808080008080A0008080C0008080E00080A0000080A0200080A0400080A0600080A0800080A0A00080A0C00080A0E00080C0000080C0200080C0400080C0600080C0
310
800080C0A00080C0C00080C0E00080E0000080E0200080E0400080E0600080E0800080E0A00080E0C00080E0E000C0000000C0002000C0004000C0006000C0008000C000A000C000C000C000E000C0200000C0202000C0204000C0206000C0208000C020A000C020C000C020E000C0400000C0402000C0404000C0406000C0
310
408000C040A000C040C000C040E000C0600000C0602000C0604000C0606000C0608000C060A000C060C000C060E000C0800000C0802000C0804000C0806000C0808000C080A000C080C000C080E000C0A00000C0A02000C0A04000C0A06000C0A08000C0A0A000C0A0C000C0A0E000C0C00000C0C02000C0C04000C0C06000
310
C0C08000C0C0A000F0FBFF00A4A0A000808080000000FF0000FF000000FFFF00FF000000FF00FF00FFFF0000FFFFFF00000000FF000000000000000000000000000000000000000000000000000000000000FF00FF00000000000000000000000000000000000000000000000000000000FF000000FF000000000000000000
310
0000000000000000000000000000000000FF0000000000FF0000000000000000000000000000000000000000000000000000FF0000000000FF0000000000000000000000000000000000000000000000000000FF0000000000FF0000000000000000000000000000000000000000000000000000FF0000000000FF00000000
310
00000000000000000000000000000000000000000000FF0000000000FF0000000000000000000000000000000000000000000000000000FF0000000000FF0000000000000000000000000000000000000000000000000000FF0000000000FF0000000000000000000000000000000000000000000000000000FF0000000000
310
FF0000000000000000000000000000000000000000000000000000FF0000000000FF0000000000000000000000000000000000000000000000000000FF0000000000FF0000000000000000000000000000000000000000000000000000FF0000000000FF0000000000000000000000000000000000000000000000000000FF
310
0000000000FF0000000000000000000000000000000000000000000000000000FF0000000000FF0000000000000000000000000000000000000000000000000000FF0000000000FF0000000000000000000000000000000000000000000000000000FF0000000000FF00000000000000000000000000000000000000000000
310
00000000FF0000000000FF0000000000000000000000000000000000000000000000000000FF0000000000FF0000000000000000000000000000000000000000000000000000FF0000000000FF0000000000000000000000000000000000000000000000000000FF0000000000FF0000000000000000000000000000000000
310
000000000000000000FF0000000000FF0000000000000000000000000000000000000000000000000000FF0000000000FF0000000000000000000000000000000000000000000000000000FF0000000000FF0000000000000000000000000000000000000000000000000000FF0000000000FF000000000000000000000000
310
0000000000000000000000000000FF0000000000FF0000000000000000000000000000000000000000000000000000FF0000000000FF0000000000000000000000000000000000000000000000000000FF0000000000FF0000000000000000000000000000000000000000000000000000FF000000FF000000000000000000
310
00000000000000000000000000000000000000FF00FF000000000000000000000000000000000000000000000000000000000000FF000000
102
{BLKREFS
331
180C
331
1CC2
331
20F7
331
23C8
331
23DE
331
23DF
331
23EB
331
23EC
331
25A6
331
25A7
331
25B0
331
25B1
102
}
  0
BLOCK_RECORD
  5
232
330
1
100
AcDbSymbolTableRecord
100
AcDbBlockTableRecord
  2
_Arrivo
340
0
310
2800000020000000200000000100080000000000000400000000000000000000000000000000000000000000000080000080000000808000800000008000800080800000C0C0C000C0DCC000F0CAA6000020400000206000002080000020A0000020C0000020E00000400000004020000040400000406000004080000040A0
310
000040C0000040E00000600000006020000060400000606000006080000060A0000060C0000060E00000800000008020000080400000806000008080000080A0000080C0000080E00000A0000000A0200000A0400000A0600000A0800000A0A00000A0C00000A0E00000C0000000C0200000C0400000C0600000C0800000C0
310
A00000C0C00000C0E00000E0000000E0200000E0400000E0600000E0800000E0A00000E0C00000E0E00040000000400020004000400040006000400080004000A0004000C0004000E00040200000402020004020400040206000402080004020A0004020C0004020E000404000004040200040404000404060004040800040
310
40A0004040C0004040E00040600000406020004060400040606000406080004060A0004060C0004060E00040800000408020004080400040806000408080004080A0004080C0004080E00040A0000040A0200040A0400040A0600040A0800040A0A00040A0C00040A0E00040C0000040C0200040C0400040C0600040C08000
310
40C0A00040C0C00040C0E00040E0000040E0200040E0400040E0600040E0800040E0A00040E0C00040E0E00080000000800020008000400080006000800080008000A0008000C0008000E00080200000802020008020400080206000802080008020A0008020C0008020E00080400000804020008040400080406000804080
310
008040A0008040C0008040E00080600000806020008060400080606000806080008060A0008060C0008060E00080800000808020008080400080806000808080008080A0008080C0008080E00080A0000080A0200080A0400080A0600080A0800080A0A00080A0C00080A0E00080C0000080C0200080C0400080C0600080C0
310
800080C0A00080C0C00080C0E00080E0000080E0200080E0400080E0600080E0800080E0A00080E0C00080E0E000C0000000C0002000C0004000C0006000C0008000C000A000C000C000C000E000C0200000C0202000C0204000C0206000C0208000C020A000C020C000C020E000C0400000C0402000C0404000C0406000C0
310
408000C040A000C040C000C040E000C0600000C0602000C0604000C0606000C0608000C060A000C060C000C060E000C0800000C0802000C0804000C0806000C0808000C080A000C080C000C080E000C0A00000C0A02000C0A04000C0A06000C0A08000C0A0A000C0A0C000C0A0E000C0C00000C0C02000C0C04000C0C06000
310
C0C08000C0C0A000F0FBFF00A4A0A000808080000000FF0000FF000000FFFF00FF000000FF00FF00FFFF0000FFFFFF00000000000000000000000000000000000000000000000000000000000000000000000000000000000000FF0000000000000000000000000000000000000000000000000000000000000000FF000000
310
00000000000000000000000000000000000000000000000000000000FF0000000000000000000000000000000000000000000000000000000000000000FF00000000000000000000000000000000000000000000000000000000000000FF0000000000000000000000000000000000000000000000000000000000000000FF
310
0000000000000000000000000000000000000000000000000000000000000000FF00000000000000000000000000000000000000000000000000000000000000FF0000000000000000000000000000000000000000000000000000000000000000FF0000000000000000000000000000000000000000000000000000000000
310
0000FF0000000000000000000000000000000000000000000000000000000000000000FF00000000000000000000000000000000000000000000000000000000000000FF0000000000000000000000000000000000000000000000000000000000000000FF0000FF0000000000000000000000000000000000000000000000
310
000000000000FFFF000000000000000000000000000000000000000000000000000000000000FFFF00000000000000000000000000000000000000000000000000000000FFFFFFFFFFFF00000000000000000000000000000000000000000000000000000000FFFF0000000000000000000000000000000000000000000000
310
000000000000FF0000FF000000000000000000000000000000000000000000000000000000FF00000000000000000000000000000000000000000000000000000000000000FF000000000000000000000000000000000000000000000000000000000000FF0000000000000000000000000000000000000000000000000000
310
0000000000FF000000000000000000000000000000000000000000000000000000000000FF00000000000000000000000000000000000000000000000000000000000000FF000000000000000000000000000000000000000000000000000000000000FF000000000000000000000000000000000000000000000000000000
310
000000FF00000000000000000000000000000000000000000000000000000000000000FF000000000000000000000000000000000000000000000000000000000000FF00000000000000000000000000000000000000000000000000000000000000FF00000000000000000000000000000000000000000000000000000000
310
0000FF0000000000000000000000000000000000000000000000000000000000000000000000000000000000000000000000000000000000
  0
BLOCK_RECORD
  5
238
330
1
100
AcDbSymbolTableRecord
100
AcDbBlockTableRecord
  2
_Partenza
340
0
310
2800000020000000200000000100080000000000000400000000000000000000000000000000000000000000000080000080000000808000800000008000800080800000C0C0C000C0DCC000F0CAA6000020400000206000002080000020A0000020C0000020E00000400000004020000040400000406000004080000040A0
310
000040C0000040E00000600000006020000060400000606000006080000060A0000060C0000060E00000800000008020000080400000806000008080000080A0000080C0000080E00000A0000000A0200000A0400000A0600000A0800000A0A00000A0C00000A0E00000C0000000C0200000C0400000C0600000C0800000C0
310
A00000C0C00000C0E00000E0000000E0200000E0400000E0600000E0800000E0A00000E0C00000E0E00040000000400020004000400040006000400080004000A0004000C0004000E00040200000402020004020400040206000402080004020A0004020C0004020E000404000004040200040404000404060004040800040
310
40A0004040C0004040E00040600000406020004060400040606000406080004060A0004060C0004060E00040800000408020004080400040806000408080004080A0004080C0004080E00040A0000040A0200040A0400040A0600040A0800040A0A00040A0C00040A0E00040C0000040C0200040C0400040C0600040C08000
310
40C0A00040C0C00040C0E00040E0000040E0200040E0400040E0600040E0800040E0A00040E0C00040E0E00080000000800020008000400080006000800080008000A0008000C0008000E00080200000802020008020400080206000802080008020A0008020C0008020E00080400000804020008040400080406000804080
310
008040A0008040C0008040E00080600000806020008060400080606000806080008060A0008060C0008060E00080800000808020008080400080806000808080008080A0008080C0008080E00080A0000080A0200080A0400080A0600080A0800080A0A00080A0C00080A0E00080C0000080C0200080C0400080C0600080C0
310
800080C0A00080C0C00080C0E00080E0000080E0200080E0400080E0600080E0800080E0A00080E0C00080E0E000C0000000C0002000C0004000C0006000C0008000C000A000C000C000C000E000C0200000C0202000C0204000C0206000C0208000C020A000C020C000C020E000C0400000C0402000C0404000C0406000C0
310
408000C040A000C040C000C040E000C0600000C0602000C0604000C0606000C0608000C060A000C060C000C060E000C0800000C0802000C0804000C0806000C0808000C080A000C080C000C080E000C0A00000C0A02000C0A04000C0A06000C0A08000C0A0A000C0A0C000C0A0E000C0C00000C0C02000C0C04000C0C06000
310
C0C08000C0C0A000F0FBFF00A4A0A000808080000000FF0000FF000000FFFF00FF000000FF00FF00FFFF0000FFFFFF0000000000000000000000000000000000000000000000000000000000000000000000000000000000000000000000000000000000000000000000000000000000000000000000000000000000000000
310
000000000000000000000000000000000000000000000000000000000000000000000000000000000000000000000000000000000000000000000000000000000000000000000000000000000000000000000000000000000000000000000000000000000000000000000000000000000000FFFFFFFFFFFFFFFFFFFFFFFFFF
310
FFFFFFFFFFFFFFFFFFFFFFFFFFFFFFFFFF0000000000000000000000000000000000000000000000000000000000000000000000000000000000000000000000000000000000000000000000000000000000000000000000000000000000000000000000000000000000000000000000000000000000000000000000000000
310
00000000000000000000000000000000000000000000000000000000000000000000000000000000000000000000000000000000000000000000000000000000000000000000000000000000000000000000000000000000000000000000000000000000000000000000000000000000000000000000000000000000000000
310
00000000000000000000000000000000000000000000000000000000000000000000000000000000000000000000000000000000000000000000000000000000000000000000000000000000000000000000000000000000000000000000000000000000000000000000000000000000000000000000000000000000000000
310
00000000000000000000000000000000000000000000000000000000000000000000000000000000000000000000000000000000000000000000000000000000000000000000000000000000000000000000000000000000000000000000000000000000000000000000000000000000000000000000000000000000000000
310
000000000000000000000000000000000000000000000000000000000000000000000000000000000000000000000000000000000000000000000000000000000000000000000000000000000000000000000000000000FFFFFFFFFFFFFFFFFFFFFFFFFFFFFFFFFFFFFFFFFFFFFFFFFFFFFFFFFFFF00000000000000000000
310
00000000000000000000000000000000000000000000000000000000000000000000000000000000000000000000000000000000000000000000000000000000000000000000000000000000000000000000000000000000000000000000000000000000000000000000000000000000000000000000000000000000000000
310
0000000000000000000000000000000000000000000000000000000000000000000000000000000000000000000000000000000000000000
  0
BLOCK_RECORD
  5
1CA8
330
1
100
AcDbSymbolTableRecord
100
AcDbBlockTableRecord
  2
*D5
340
0
  0
BLOCK_RECORD
  5
20DD
330
1
100
AcDbSymbolTableRecord
100
AcDbBlockTableRecord
  2
*D7
340
0
  0
BLOCK_RECORD
  5
23AE
330
1
100
AcDbSymbolTableRecord
100
AcDbBlockTableRecord
  2
*D9
340
0
  0
BLOCK_RECORD
  5
23D8
330
1
100
AcDbSymbolTableRecord
100
AcDbBlockTableRecord
  2
*D10
340
0
  0
BLOCK_RECORD
  5
23E5
330
1
100
AcDbSymbolTableRecord
100
AcDbBlockTableRecord
  2
*D11
340
0
  0
BLOCK_RECORD
  5
2588
330
1
100
AcDbSymbolTableRecord
100
AcDbBlockTableRecord
  2
*D13
340
0
  0
BLOCK_RECORD
  5
2595
330
1
100
AcDbSymbolTableRecord
100
AcDbBlockTableRecord
  2
*D14
340
0
  0
ENDTAB
  0
ENDSEC
  0
SECTION
  2
BLOCKS
  0
BLOCK
  5
5
330
2
100
AcDbEntity
  8
0
100
AcDbBlockBegin
  2
*Model_Space
 70
     0
 10
0.0
 20
0.0
 30
0.0
  3
*Model_Space
  1

  0
ENDBLK
  5
162
330
2
100
AcDbEntity
  8
0
100
AcDbBlockEnd
  0
BLOCK
  5
166
330
165
100
AcDbEntity
 67
     1
  8
0
100
AcDbBlockBegin
  2
*Paper_Space
 70
     0
 10
0.0
 20
0.0
 30
0.0
  3
*Paper_Space
  1

  0
ENDBLK
  5
167
330
165
100
AcDbEntity
 67
     1
  8
0
100
AcDbBlockEnd
  0
BLOCK
  5
16A
330
169
100
AcDbEntity
 67
     1
  8
0
100
AcDbBlockBegin
  2
*Paper_Space0
 70
     0
 10
0.0
 20
0.0
 30
0.0
  3
*Paper_Space0
  1

  0
ENDBLK
  5
16B
330
169
100
AcDbEntity
 67
     1
  8
0
100
AcDbBlockEnd
  0
BLOCK
  5
153
330
152
100
AcDbEntity
  8
0
 62
     1
100
AcDbBlockBegin
  2
_ArchTick
 70
     0
 10
0.0
 20
0.0
 30
0.0
  3
_ArchTick
  1

  0
LWPOLYLINE
  5
154
330
152
100
AcDbEntity
  8
0
  6
ByBlock
 62
     0
100
AcDbPolyline
 90
        2
 70
     0
 43
0.15
 10
-0.5
 20
-0.5
 10
0.5
 20
0.5
  0
ENDBLK
  5
155
330
152
100
AcDbEntity
  8
0
 62
     1
100
AcDbBlockEnd
  0
BLOCK
  5
233
330
232
100
AcDbEntity
  8
0
100
AcDbBlockBegin
  2
_Arrivo
 70
     0
 10
0.0
 20
0.0
 30
0.0
  3
_Arrivo
  1

  0
LINE
  5
234
330
232
100
AcDbEntity
  8
0
  6
ByBlock
 62
     0
370
    -2
100
AcDbLine
 10
0.025
 20
-0.0433012701891858
 30
0.0
 11
-0.15
 21
0.2598076211353328
 31
0.0
  0
LINE
  5
235
330
232
100
AcDbEntity
  8
0
  6
ByBlock
 62
     0
370
    -2
100
AcDbLine
 10
0.025
 20
0.0433012701892585
 30
0.0
 11
-0.15
 21
-0.2598076211353328
 31
0.0
  0
LINE
  5
236
330
232
100
AcDbEntity
  8
0
  6
ByBlock
 62
     0
370
    -2
100
AcDbLine
 10
-0.05
 20
0.0
 30
0.0
 11
0.05
 21
0.0
 31
0.0
  0
ENDBLK
  5
237
330
232
100
AcDbEntity
  8
0
100
AcDbBlockEnd
  0
BLOCK
  5
239
330
238
100
AcDbEntity
  8
0
100
AcDbBlockBegin
  2
_Partenza
 70
     0
 10
0.0
 20
0.0
 30
0.0
  3
_Partenza
  1

  0
LINE
  5
23A
330
238
100
AcDbEntity
  8
0
  6
ByBlock
 62
     0
370
    -2
100
AcDbLine
 10
-0.05
 20
0.05
 30
0.0
 11
0.1
 21
0.05
 31
0.0
  0
LINE
  5
23B
330
238
100
AcDbEntity
  8
0
  6
ByBlock
 62
     0
370
    -2
100
AcDbLine
 10
-0.05
 20
-0.05
 30
0.0
 11
0.1
 21
-0.05
 31
0.0
  0
ENDBLK
  5
23C
330
238
100
AcDbEntity
  8
0
100
AcDbBlockEnd
  0
BLOCK
  5
1CAF
330
1CA8
100
AcDbEntity
  8
0
100
AcDbBlockBegin
  2
*D5
 70
     1
 10
0.0
 20
0.0
 30
0.0
  3
*D5
  1

  0
LINE
  5
1CBF
330
1CA8
100
AcDbEntity
  8
Text
  6
ACAD_ISO10W100
 62
     5
370
    -2
100
AcDbLine
 10
0.2691906163671416
 20
0.2054122756710057
 30
0.0
 11
0.2676906163671416
 21
0.2054122756710057
 31
0.0
  0
LINE
  5
1CC0
330
1CA8
100
AcDbEntity
  8
Text
  6
ACAD_ISO10W100
 62
     5
370
    -2
100
AcDbLine
 10
0.2676906163671416
 20
0.2054122756710057
 30
0.0
 11
0.2653415959966366
 21
0.2035462362022504
 31
0.0
  0
MTEXT
  5
1CC1
330
1CA8
100
AcDbEntity
  8
Text
  6
ACAD_ISO10W100
 62
     4
100
AcDbMText
 10
0.283619187795713
 20
0.2054122756710057
 30
0.0
 40
0.003
 41
0.0
 71
     5
 72
     1
  1
\A1;d 575 mm
  7
ROMANS
 73
     1
 44
1.0
1001
ACAD
1000
MTEXTBEGIN
1070
    73
1070
     1
1070
    44
1040
1.0
1070
    74
1070
     0
1000
MTEXTEND
  0
INSERT
  5
1CC2
330
1CA8
100
AcDbEntity
  8
Text
  6
ACAD_ISO10W100
 62
     5
370
    -2
100
AcDbBlockReference
  2
_ArchTick
 10
0.2653415959966366
 20
0.2035462362022504
 30
0.0
 41
0.0015
 42
0.0015
 43
0.0015
 50
218.4632953061788
  0
POINT
  5
1CC3
330
1CA8
100
AcDbEntity
  8
Defpoints
  6
ACAD_ISO10W100
 62
     0
100
AcDbPoint
 10
0.2653415959966366
 20
0.2035462362022504
 30
0.0
  0
POINT
  5
1CC4
330
1CA8
100
AcDbEntity
  8
Defpoints
  6
ACAD_ISO10W100
 62
     0
100
AcDbPoint
 10
0.152784369909937
 20
0.1141318449910611
 30
0.0
  0
ENDBLK
  5
1CB0
330
1CA8
100
AcDbEntity
  8
0
100
AcDbBlockEnd
  0
BLOCK
  5
20E4
330
20DD
100
AcDbEntity
  8
0
100
AcDbBlockBegin
  2
*D7
 70
     1
 10
0.0
 20
0.0
 30
0.0
  3
*D7
  1

  0
LINE
  5
20F4
330
20DD
100
AcDbEntity
  8
Text
  6
ACAD_ISO10W100
 62
     5
370
    -2
100
AcDbLine
 10
0.2576625582371847
 20
0.19359400421819
 30
0.0
 11
0.2561625582371847
 21
0.19359400421819
 31
0.0
  0
LINE
  5
20F5
330
20DD
100
AcDbEntity
  8
Text
  6
ACAD_ISO10W100
 62
     5
370
    -2
100
AcDbLine
 10
0.2561625582371847
 20
0.19359400421819
 30
0.0
 11
0.2537669396148421
 21
0.1917881771455483
 31
0.0
  0
MTEXT
  5
20F6
330
20DD
100
AcDbEntity
  8
Text
  6
ACAD_ISO10W100
 62
     4
100
AcDbMText
 10
0.272091129665756
 20
0.19359400421819
 30
0.0
 40
0.003
 41
0.0
 71
     5
 72
     1
  1
\A1;d 460 mm
  7
ROMANS
 73
     1
 44
1.0
1001
ACAD
1000
MTEXTBEGIN
1070
    73
1070
     1
1070
    44
1040
1.0
1070
    74
1070
     0
1000
MTEXTEND
  0
INSERT
  5
20F7
330
20DD
100
AcDbEntity
  8
Text
  6
ACAD_ISO10W100
 62
     5
370
    -2
100
AcDbBlockReference
  2
_ArchTick
 10
0.2537669396148421
 20
0.1917881771455483
 30
0.0
 41
0.0015
 42
0.0015
 43
0.0015
 50
217.0091357843495
  0
POINT
  5
20F8
330
20DD
100
AcDbEntity
  8
Defpoints
  6
ACAD_ISO10W100
 62
     0
100
AcDbPoint
 10
0.2537669396148421
 20
0.1917881771455483
 30
0.0
  0
POINT
  5
20F9
330
20DD
100
AcDbEntity
  8
Defpoints
  6
ACAD_ISO10W100
 62
     0
100
AcDbPoint
 10
0.1619348924250465
 20
0.1225648060276147
 30
0.0
  0
ENDBLK
  5
20E5
330
20DD
100
AcDbEntity
  8
0
100
AcDbBlockEnd
  0
BLOCK
  5
23B5
330
23AE
100
AcDbEntity
  8
0
100
AcDbBlockBegin
  2
*D9
 70
     1
 10
0.0
 20
0.0
 30
0.0
  3
*D9
  1

  0
LINE
  5
23C5
330
23AE
100
AcDbEntity
  8
Text
  6
ACAD_ISO10W100
 62
     5
370
    -2
100
AcDbLine
 10
0.2546132161146366
 20
0.189098188936143
 30
0.0
 11
0.2531132161146367
 21
0.189098188936143
 31
0.0
  0
LINE
  5
23C6
330
23AE
100
AcDbEntity
  8
Text
  6
ACAD_ISO10W100
 62
     5
370
    -2
100
AcDbLine
 10
0.2531132161146367
 20
0.189098188936143
 30
0.0
 11
0.2505606070808934
 21
0.1875220585097975
 31
0.0
  0
MTEXT
  5
23C7
330
23AE
100
AcDbEntity
  8
Text
  6
ACAD_ISO10W100
 62
     4
100
AcDbMText
 10
0.2690417875432081
 20
0.189098188936143
 30
0.0
 40
0.003
 41
0.0
 71
     5
 72
     1
  1
\A1;d 770 mm
  7
ROMANS
 73
     1
 44
1.0
1001
ACAD
1000
MTEXTBEGIN
1070
    73
1070
     1
1070
    44
1040
1.0
1070
    74
1070
     0
1000
MTEXTEND
  0
INSERT
  5
23C8
330
23AE
100
AcDbEntity
  8
Text
  6
ACAD_ISO10W100
 62
     5
370
    -2
100
AcDbBlockReference
  2
_ArchTick
 10
0.2505606070808934
 20
0.1875220585097975
 30
0.0
 41
0.0015
 42
0.0015
 43
0.0015
 50
211.6936132992798
  0
POINT
  5
23C9
330
23AE
100
AcDbEntity
  8
Defpoints
  6
ACAD_ISO10W100
 62
     0
100
AcDbPoint
 10
0.2505606070808934
 20
0.1875220585097975
 30
0.0
  0
POINT
  5
23CA
330
23AE
100
AcDbEntity
  8
Defpoints
  6
ACAD_ISO10W100
 62
     0
100
AcDbPoint
 10
0.1685455495883884
 20
0.1368811550954381
 30
0.0
  0
ENDBLK
  5
23B6
330
23AE
100
AcDbEntity
  8
0
100
AcDbBlockEnd
  0
BLOCK
  5
23D9
330
23D8
100
AcDbEntity
  8
0
100
AcDbBlockBegin
  2
*D10
 70
     1
 10
0.0
 20
0.0
 30
0.0
  3
*D10
  1

  0
LINE
  5
23DA
330
23D8
100
AcDbEntity
  8
Sezione
  6
ACAD_ISO10W100
 62
     5
370
    -2
100
AcDbLine
 10
0.2083322835768352
 20
0.2131304394322044
 30
0.0
 11
0.2643770579637239
 21
0.2131304394322044
 31
0.0
  0
LINE
  5
23DB
330
23D8
100
AcDbEntity
  8
Sezione
  6
ACAD_ISO10W100
 62
     5
370
    -2
100
AcDbLine
 10
0.2083373947075343
 20
0.1056304395537091
 30
0.0
 11
0.2643770579637238
 21
0.1056304395537091
 31
0.0
  0
LINE
  5
23DC
330
23D8
100
AcDbEntity
  8
Sezione
  6
ACAD_ISO10W100
 62
     5
370
    -2
100
AcDbLine
 10
0.2641970579637238
 20
0.2131304394322044
 30
0.0
 11
0.2641970579637238
 21
0.1628804394929568
 31
0.0
  0
LINE
  5
23DD
330
23D8
100
AcDbEntity
  8
Sezione
  6
ACAD_ISO10W100
 62
     5
370
    -2
100
AcDbLine
 10
0.2641970579637238
 20
0.1056304395537091
 30
0.0
 11
0.2641970579637238
 21
0.1558804394929568
 31
0.0
  0
INSERT
  5
23DE
330
23D8
100
AcDbEntity
  8
Sezione
  6
ACAD_ISO10W100
 62
     5
370
    -2
100
AcDbBlockReference
  2
_ArchTick
 10
0.2641970579637238
 20
0.2131304394322044
 30
0.0
 41
0.0015
 42
0.0015
 43
0.0015
 50
90.0
  0
INSERT
  5
23DF
330
23D8
100
AcDbEntity
  8
Sezione
  6
ACAD_ISO10W100
 62
     5
370
    -2
100
AcDbBlockReference
  2
_ArchTick
 10
0.2641970579637238
 20
0.1056304395537091
 30
0.0
 41
0.0015
 42
0.0015
 43
0.0015
 50
270.0
  0
MTEXT
  5
23E0
330
23D8
100
AcDbEntity
  8
Sezione
  6
ACAD_ISO10W100
 62
     4
100
AcDbMText
 10
0.2641970579637238
 20
0.1593804394929568
 30
0.0
 40
0.003
 41
0.0
 71
     5
 72
     1
  1
\A1;430 mm
  7
ROMANS
 73
     1
 44
1.0
1001
ACAD
1000
MTEXTBEGIN
1070
    73
1070
     1
1070
    44
1040
1.0
1070
    74
1070
     0
1000
MTEXTEND
  0
POINT
  5
23E1
330
23D8
100
AcDbEntity
  8
Defpoints
  6
ACAD_ISO10W100
 62
     0
100
AcDbPoint
 10
0.2082697835768352
 20
0.2131304394322044
 30
0.0
  0
POINT
  5
23E2
330
23D8
100
AcDbEntity
  8
Defpoints
  6
ACAD_ISO10W100
 62
     0
100
AcDbPoint
 10
0.2082748947075343
 20
0.1056304395537091
 30
0.0
  0
POINT
  5
23E3
330
23D8
100
AcDbEntity
  8
Defpoints
  6
ACAD_ISO10W100
 62
     0
100
AcDbPoint
 10
0.2641970579637238
 20
0.1056304395537091
 30
0.0
  0
ENDBLK
  5
23E4
330
23D8
100
AcDbEntity
  8
0
100
AcDbBlockEnd
  0
BLOCK
  5
23E6
330
23E5
100
AcDbEntity
  8
0
100
AcDbBlockBegin
  2
*D11
 70
     1
 10
0.0
 20
0.0
 30
0.0
  3
*D11
  1

  0
LINE
  5
23E7
330
23E5
100
AcDbEntity
  8
Sezione
  6
ACAD_ISO10W100
 62
     5
370
    -2
100
AcDbLine
 10
0.1719918684902775
 20
0.1590099531845926
 30
0.0
 11
0.1719918684902775
 21
0.084945782242584
 31
0.0
  0
LINE
  5
23E8
330
23E5
100
AcDbEntity
  8
Sezione
  6
ACAD_ISO10W100
 62
     5
370
    -2
100
AcDbLine
 10
0.244503588355941
 20
0.1590095376092292
 30
0.0
 11
0.244503588355941
 21
0.084945782242584
 31
0.0
  0
LINE
  5
23E9
330
23E5
100
AcDbEntity
  8
Sezione
  6
ACAD_ISO10W100
 62
     5
370
    -2
100
AcDbLine
 10
0.1719918684902775
 20
0.085125782242584
 30
0.0
 11
0.1966762998516807
 21
0.085125782242584
 31
0.0
  0
LINE
  5
23EA
330
23E5
100
AcDbEntity
  8
Sezione
  6
ACAD_ISO10W100
 62
     5
370
    -2
100
AcDbLine
 10
0.244503588355941
 20
0.085125782242584
 30
0.0
 11
0.2198191569945378
 21
0.085125782242584
 31
0.0
  0
INSERT
  5
23EB
330
23E5
100
AcDbEntity
  8
Sezione
  6
ACAD_ISO10W100
 62
     5
370
    -2
100
AcDbBlockReference
  2
_ArchTick
 10
0.1719918684902775
 20
0.085125782242584
 30
0.0
 41
0.0015
 42
0.0015
 43
0.0015
 50
180.0
  0
INSERT
  5
23EC
330
23E5
100
AcDbEntity
  8
Sezione
  6
ACAD_ISO10W100
 62
     5
370
    -2
100
AcDbBlockReference
  2
_ArchTick
 10
0.244503588355941
 20
0.085125782242584
 30
0.0
 41
0.0015
 42
0.0015
 43
0.0015
  0
MTEXT
  5
23ED
330
23E5
100
AcDbEntity
  8
Sezione
  6
ACAD_ISO10W100
 62
     4
100
AcDbMText
 10
0.2082477284231092
 20
0.085125782242584
 30
0.0
 40
0.003
 41
0.0
 71
     5
 72
     1
  1
\A1;300 mm
  7
ROMANS
 73
     1
 44
1.0
1001
ACAD
1000
MTEXTBEGIN
1070
    73
1070
     1
1070
    44
1040
1.0
1070
    74
1070
     0
1000
MTEXTEND
  0
POINT
  5
23EE
330
23E5
100
AcDbEntity
  8
Defpoints
  6
ACAD_ISO10W100
 62
     0
100
AcDbPoint
 10
0.1719918684902775
 20
0.1590724531845926
 30
0.0
  0
POINT
  5
23EF
330
23E5
100
AcDbEntity
  8
Defpoints
  6
ACAD_ISO10W100
 62
     0
100
AcDbPoint
 10
0.244503588355941
 20
0.1590720376092292
 30
0.0
  0
POINT
  5
23F0
330
23E5
100
AcDbEntity
  8
Defpoints
  6
ACAD_ISO10W100
 62
     0
100
AcDbPoint
 10
0.244503588355941
 20
0.085125782242584
 30
0.0
  0
ENDBLK
  5
23F1
330
23E5
100
AcDbEntity
  8
0
100
AcDbBlockEnd
  0
BLOCK
  5
2593
330
2588
100
AcDbEntity
  8
0
100
AcDbBlockBegin
  2
*D13
 70
     1
 10
0.0
 20
0.0
 30
0.0
  3
*D13
  1

  0
LINE
  5
25A2
330
2588
100
AcDbEntity
  8
Sezione
  6
ACAD_ISO10W100
 62
     5
370
    -2
100
AcDbLine
 10
0.2096957985231044
 20
0.2168609694771284
 30
0.0
 11
0.265740572909993
 21
0.2168609694771284
 31
0.0
  0
LINE
  5
25A3
330
2588
100
AcDbEntity
  8
Sezione
  6
ACAD_ISO10W100
 62
     5
370
    -2
100
AcDbLine
 10
0.2097009096538035
 20
0.1093609695986331
 30
0.0
 11
0.265740572909993
 21
0.109360969598633
 31
0.0
  0
LINE
  5
25A4
330
2588
100
AcDbEntity
  8
Sezione
  6
ACAD_ISO10W100
 62
     5
370
    -2
100
AcDbLine
 10
0.265560572909993
 20
0.2168609694771284
 30
0.0
 11
0.265560572909993
 21
0.1666109695378807
 31
0.0
  0
LINE
  5
25A5
330
2588
100
AcDbEntity
  8
Sezione
  6
ACAD_ISO10W100
 62
     5
370
    -2
100
AcDbLine
 10
0.265560572909993
 20
0.109360969598633
 30
0.0
 11
0.265560572909993
 21
0.1596109695378807
 31
0.0
  0
INSERT
  5
25A6
330
2588
100
AcDbEntity
  8
Sezione
  6
ACAD_ISO10W100
 62
     5
370
    -2
100
AcDbBlockReference
  2
_ArchTick
 10
0.265560572909993
 20
0.2168609694771284
 30
0.0
 41
0.0015
 42
0.0015
 43
0.0015
 50
90.0
  0
INSERT
  5
25A7
330
2588
100
AcDbEntity
  8
Sezione
  6
ACAD_ISO10W100
 62
     5
370
    -2
100
AcDbBlockReference
  2
_ArchTick
 10
0.265560572909993
 20
0.109360969598633
 30
0.0
 41
0.0015
 42
0.0015
 43
0.0015
 50
270.0
  0
MTEXT
  5
25A8
330
2588
100
AcDbEntity
  8
Sezione
  6
ACAD_ISO10W100
 62
     4
100
AcDbMText
 10
0.265560572909993
 20
0.1631109695378808
 30
0.0
 40
0.003
 41
0.0
 71
     5
 72
     1
  1
\A1;435 mm
  7
ROMANS
 73
     1
 44
1.0
1001
ACAD
1000
MTEXTBEGIN
1070
    73
1070
     1
1070
    44
1040
1.0
1070
    74
1070
     0
1000
MTEXTEND
  0
POINT
  5
25A9
330
2588
100
AcDbEntity
  8
Defpoints
  6
ACAD_ISO10W100
 62
     0
100
AcDbPoint
 10
0.2096332985231044
 20
0.2168609694771284
 30
0.0
  0
POINT
  5
25AA
330
2588
100
AcDbEntity
  8
Defpoints
  6
ACAD_ISO10W100
 62
     0
100
AcDbPoint
 10
0.2096384096538035
 20
0.1093609695986331
 30
0.0
  0
POINT
  5
25AB
330
2588
100
AcDbEntity
  8
Defpoints
  6
ACAD_ISO10W100
 62
     0
100
AcDbPoint
 10
0.265560572909993
 20
0.109360969598633
 30
0.0
  0
ENDBLK
  5
2594
330
2588
100
AcDbEntity
  8
0
100
AcDbBlockEnd
  0
BLOCK
  5
25A0
330
2595
100
AcDbEntity
  8
0
100
AcDbBlockBegin
  2
*D14
 70
     1
 10
0.0
 20
0.0
 30
0.0
  3
*D14
  1

  0
LINE
  5
25AC
330
2595
100
AcDbEntity
  8
Sezione
  6
ACAD_ISO10W100
 62
     5
370
    -2
100
AcDbLine
 10
0.1733553834365467
 20
0.1627404832295166
 30
0.0
 11
0.1733553834365467
 21
0.0886763122875079
 31
0.0
  0
LINE
  5
25AD
330
2595
100
AcDbEntity
  8
Sezione
  6
ACAD_ISO10W100
 62
     5
370
    -2
100
AcDbLine
 10
0.2458671033022102
 20
0.1627400676541531
 30
0.0
 11
0.2458671033022102
 21
0.0886763122875079
 31
0.0
  0
LINE
  5
25AE
330
2595
100
AcDbEntity
  8
Sezione
  6
ACAD_ISO10W100
 62
     5
370
    -2
100
AcDbLine
 10
0.1733553834365467
 20
0.0888563122875079
 30
0.0
 11
0.1980398147979498
 21
0.0888563122875079
 31
0.0
  0
LINE
  5
25AF
330
2595
100
AcDbEntity
  8
Sezione
  6
ACAD_ISO10W100
 62
     5
370
    -2
100
AcDbLine
 10
0.2458671033022102
 20
0.0888563122875079
 30
0.0
 11
0.221182671940807
 21
0.0888563122875079
 31
0.0
  0
INSERT
  5
25B0
330
2595
100
AcDbEntity
  8
Sezione
  6
ACAD_ISO10W100
 62
     5
370
    -2
100
AcDbBlockReference
  2
_ArchTick
 10
0.1733553834365467
 20
0.0888563122875079
 30
0.0
 41
0.0015
 42
0.0015
 43
0.0015
 50
180.0
  0
INSERT
  5
25B1
330
2595
100
AcDbEntity
  8
Sezione
  6
ACAD_ISO10W100
 62
     5
370
    -2
100
AcDbBlockReference
  2
_ArchTick
 10
0.2458671033022102
 20
0.0888563122875079
 30
0.0
 41
0.0015
 42
0.0015
 43
0.0015
  0
MTEXT
  5
25B2
330
2595
100
AcDbEntity
  8
Sezione
  6
ACAD_ISO10W100
 62
     4
100
AcDbMText
 10
0.2096112433693784
 20
0.0888563122875079
 30
0.0
 40
0.003
 41
0.0
 71
     5
 72
     1
  1
\A1;305 mm
  7
ROMANS
 73
     1
 44
1.0
1001
ACAD
1000
MTEXTBEGIN
1070
    73
1070
     1
1070
    44
1040
1.0
1070
    74
1070
     0
1000
MTEXTEND
  0
POINT
  5
25B3
330
2595
100
AcDbEntity
  8
Defpoints
  6
ACAD_ISO10W100
 62
     0
100
AcDbPoint
 10
0.1733553834365467
 20
0.1628029832295166
 30
0.0
  0
POINT
  5
25B4
330
2595
100
AcDbEntity
  8
Defpoints
  6
ACAD_ISO10W100
 62
     0
100
AcDbPoint
 10
0.2458671033022102
 20
0.1628025676541531
 30
0.0
  0
POINT
  5
25B5
330
2595
100
AcDbEntity
  8
Defpoints
  6
ACAD_ISO10W100
 62
     0
100
AcDbPoint
 10
0.2458671033022102
 20
0.0888563122875079
 30
0.0
  0
ENDBLK
  5
25A1
330
2595
100
AcDbEntity
  8
0
100
AcDbBlockEnd
  0
ENDSEC
  0
SECTION
  2
ENTITIES
  0
LINE
  5
D
330
2
100
AcDbEntity
  8
Table
100
AcDbLine
 10
0.02
 20
0.02
 30
0.0
 11
0.4
 21
0.02
 31
0.0
  0
LINE
  5
10
330
2
100
AcDbEntity
  8
Table
100
AcDbLine
 10
0.4
 20
0.02
 30
0.0
 11
0.4
 21
0.2769999999999999
 31
0.0
  0
LINE
  5
11
330
2
100
AcDbEntity
  8
Table
100
AcDbLine
 10
0.4
 20
0.2769999999999999
 30
0.0
 11
0.02
 21
0.277
 31
0.0
  0
LINE
  5
12
330
2
100
AcDbEntity
  8
Table
100
AcDbLine
 10
0.02
 20
0.277
 30
0.0
 11
0.02
 21
0.02
 31
0.0
  0
LINE
  5
13
330
2
100
AcDbEntity
  8
Table
 62
     2
100
AcDbLine
 10
0.015
 20
0.015
 30
0.0
 11
0.4050000000000001
 21
0.015
 31
0.0
  0
LINE
  5
14
330
2
100
AcDbEntity
  8
Table
 62
     2
100
AcDbLine
 10
0.4050000000000001
 20
0.015
 30
0.0
 11
0.4050000000000001
 21
0.2819999999999998
 31
0.0
  0
LINE
  5
15
330
2
100
AcDbEntity
  8
Table
 62
     2
100
AcDbLine
 10
0.4050000000000001
 20
0.2819999999999998
 30
0.0
 11
0.0149999999999999
 21
0.282
 31
0.0
  0
LINE
  5
16
330
2
100
AcDbEntity
  8
Table
 62
     2
100
AcDbLine
 10
0.0149999999999999
 20
0.282
 30
0.0
 11
0.015
 21
0.015
 31
0.0
  0
LINE
  5
17
330
2
100
AcDbEntity
  8
Table
100
AcDbLine
 10
0.21
 20
0.2769999999999999
 30
0.0
 11
0.21
 21
0.2532994226089223
 31
0.0
  0
MTEXT
  5
18
102
{ACAD_XDICTIONARY
360
25BC
102
}
330
2
100
AcDbEntity
  8
Text
100
AcDbMText
 10
0.305
 20
0.0471738284815141
 30
0.0
 40
0.005
 41
0.1900000000000001
 71
     2
 72
     5
  3
{\fTimes New Roman|b0|i0|c238|p18;\H1.6x;\C4;Bovelacci\P\H0.4375x;\T0.95;via del Commercio, 5  47100 Forli - Italy  \fTimes New Roman|b0|i0|c0|p18;\P\fTimes New Roman|b0|i0|c238|p18;tel.+39-0543721386  fax +39-0543721127\fTimes New Roman|b0|i0|c0|p18
  1
; \fTimes New Roman|b0|i0|c238|p18;www.bovelacci.it\fTimes New Roman|b0|i0|c0|p18; \fTimes New Roman|b0|i0|c238|p18;e-mail: bovelacci@bovelacci\fTimes New Roman|b0|i0|c0|p18;.it}
 73
     1
 44
1.0
1001
ACAD
1000
ACAD_MTEXT_DEFINED_HEIGHT_BEGIN
1070
    46
1040
0.0271738284815141
1000
ACAD_MTEXT_DEFINED_HEIGHT_END
1000
MTEXTBEGIN
1070
    73
1070
     1
1070
    44
1040
1.0
1070
    74
1070
     0
1000
MTEXTEND
  0
MTEXT
  5
1C
330
2
100
AcDbEntity
  8
Text
100
AcDbMText
 10
0.0219676065851835
 20
0.0500313976452307
 30
0.0
 40
0.002
 41
0.1863544980601608
 71
     1
 72
     5
  3
{\fArial|b0|i0|c0|p34;\H1.25x;Le caratteristiche tecniche indicate vengono fornite a titolo indicativo e potranno essere modificate senza preavviso. Non devono quindi essere considerate a scopo di specifica.\P\fArial|b0|i1|c0|p34;The given values are
  3
 indicative and can be changed without notice. They cannot be considered like a state.\PThis lealfet and designs embodied within are protected by copyright law and international treaties. Unauthorized repro- duction of the leaflet or any portion of i
  1
t or reproduction of any of the designs embodied therein may result in severe civil penalties and will be prosecuted to the maximum.\PAll right reserved, Bovelacci Forlì Italy.}
 73
     1
 44
1.0
1001
ACAD
1000
MTEXTBEGIN
1070
    73
1070
     1
1070
    44
1040
1.0
1070
    74
1070
     0
1000
MTEXTEND
  0
LINE
  5
1D
330
2
100
AcDbEntity
  8
Table
100
AcDbLine
 10
0.02
 20
0.0528099428524846
 30
0.0
 11
0.4
 21
0.0528099428524846
 31
0.0
  0
MTEXT
  5
1E
330
2
100
AcDbEntity
  8
Text
100
AcDbMText
 10
0.1133313047219695
 20
0.2610796890771976
 30
0.0
 40
0.003
 41
0.1103605678262056
 71
     2
 72
     5
  1
{\fTimes New Roman|b0|i0|c0|p18;Rosoni\fTimes New Roman|b0|i1|c0|p18;   Ceiling centres}
 73
     1
 44
1.0
1001
ACAD
1000
ACAD_MTEXT_DEFINED_HEIGHT_BEGIN
1070
    46
1040
0.0141952763113409
1000
ACAD_MTEXT_DEFINED_HEIGHT_END
1000
MTEXTBEGIN
1070
    73
1070
     1
1070
    44
1040
1.0
1070
    74
1070
     0
1000
MTEXTEND
  0
TEXT
  5
1F
330
2
100
AcDbEntity
  8
Text
100
AcDbText
 10
0.2180556919891047
 20
0.269976982173197
 30
0.0
 40
0.003
  1
Rosone - Ceiling centre : 435 x 305 mm
  7
ROMANS
100
AcDbText
  0
TEXT
  5
21
330
2
100
AcDbEntity
  8
Text
100
AcDbText
 10
0.2184542410678115
 20
0.2576348370183962
 30
0.0
 40
0.003
  1
File : C - R3325
  7
ROMANS
100
AcDbText
  0
LINE
  5
22
330
2
100
AcDbEntity
  8
Table
100
AcDbLine
 10
0.4
 20
0.2654452889427402
 30
0.0
 11
0.02
 21
0.2654452889427403
 31
0.0
  0
LINE
  5
23
330
2
100
AcDbEntity
  8
Table
100
AcDbLine
 10
0.4
 20
0.2532994226089223
 30
0.0
 11
0.02
 21
0.2532994226089225
 31
0.0
  0
LINE
  5
24
330
2
100
AcDbEntity
  8
Table
100
AcDbLine
 10
0.21
 20
0.0528099428524846
 30
0.0
 11
0.21
 21
0.02
 31
0.0
  0
TEXT
  5
25
330
2
100
AcDbEntity
  8
Text
100
AcDbText
 10
0.0896473531074035
 20
0.2687784133392506
 30
0.0
 40
0.005
  1
CLASSICSTYL
  7
style1
 72
     1
 11
0.1140561490699125
 21
0.2687784133392506
 31
0.0
100
AcDbText
  0
TEXT
  5
252
330
2
100
AcDbEntity
  8
Text
  6
ACAD_ISO10W100
100
AcDbText
 10
0.2902575860481816
 20
0.0868436711709033
 30
0.0
 40
0.005
  1
scala 1 : 4
  7
style1
100
AcDbText
  0
ELLIPSE
  5
24C0
330
2
100
AcDbEntity
  8
Profilo
  6
Continuous
370
     0
100
AcDbEllipse
 10
0.2096359778545251
 20
0.1631979960949206
 30
0.0
 11
0.0
 21
-0.0051623481090064
 31
0.0
210
0.0
220
0.0
230
1.0
 40
0.7614212554930547
 41
0.0
 42
6.283185307179585
  0
ELLIPSE
  5
24C1
330
2
100
AcDbEntity
  8
Profilo
  6
Continuous
370
     0
100
AcDbEllipse
 10
0.2096329367453598
 20
0.1633309013718112
 30
0.0
 11
0.0
 21
-0.0459422262282071
 31
0.0
210
0.0
220
0.0
230
1.0
 40
0.6447174111475207
 41
0.0
 42
6.283185307179585
  0
CIRCLE
  5
24C2
330
2
100
AcDbEntity
  8
Profilo
  6
Continuous
370
     0
100
AcDbCircle
 10
0.2070663494153504
 20
0.2109219993950804
 30
0.0
 40
0.0010936324140752
  0
CIRCLE
  5
24C3
330
2
100
AcDbEntity
  8
Profilo
  6
Continuous
370
     0
100
AcDbCircle
 10
0.2046904597589807
 20
0.2104220540337041
 30
0.0
 40
0.0010936324140752
  0
CIRCLE
  5
24C4
330
2
100
AcDbEntity
  8
Profilo
  6
Continuous
370
     0
100
AcDbCircle
 10
0.2023458325960228
 20
0.2097346270106284
 30
0.0
 40
0.0010936324140752
  0
CIRCLE
  5
24C5
330
2
100
AcDbEntity
  8
Profilo
  6
Continuous
370
     0
100
AcDbCircle
 10
0.2000949929133011
 20
0.2086409945965535
 30
0.0
 40
0.0010936324140752
  0
CIRCLE
  5
24C6
330
2
100
AcDbEntity
  8
Profilo
  6
Continuous
370
     0
100
AcDbCircle
 10
0.1979066754972687
 20
0.2073598805207784
 30
0.0
 40
0.0010936324140752
  0
CIRCLE
  5
24C7
330
2
100
AcDbEntity
  8
Profilo
  6
Continuous
370
     0
100
AcDbCircle
 10
0.1958434026146174
 20
0.2060162754260153
 30
0.0
 40
0.0010936324140752
  0
CIRCLE
  5
24C8
330
2
100
AcDbEntity
  8
Profilo
  6
Continuous
370
     0
100
AcDbCircle
 10
0.1939568431996872
 20
0.2044463675523911
 30
0.0
 40
0.0010936324140752
  0
CIRCLE
  5
24C9
330
2
100
AcDbEntity
  8
Profilo
  6
Continuous
370
     0
100
AcDbCircle
 10
0.1920186175705505
 20
0.2026340608847992
 30
0.0
 40
0.0010936324140752
  0
CIRCLE
  5
24CA
330
2
100
AcDbEntity
  8
Profilo
  6
Continuous
370
     0
100
AcDbCircle
 10
0.1902992239550303
 20
0.2006967687373367
 30
0.0
 40
0.0010936324140752
  0
CIRCLE
  5
24CB
330
2
100
AcDbEntity
  8
Profilo
  6
Continuous
370
     0
100
AcDbCircle
 10
0.1887027286876208
 20
0.1986896939194356
 30
0.0
 40
0.0010936324140752
  0
CIRCLE
  5
24CC
330
2
100
AcDbEntity
  8
Profilo
  6
Continuous
370
     0
100
AcDbCircle
 10
0.1870771198322025
 20
0.1964399346304022
 30
0.0
 40
0.0010936324140752
  0
CIRCLE
  5
24CD
330
2
100
AcDbEntity
  8
Profilo
  6
Continuous
370
     0
100
AcDbCircle
 10
0.1856390832171233
 20
0.1940651881405522
 30
0.0
 40
0.0010936324140752
  0
CIRCLE
  5
24CE
330
2
100
AcDbEntity
  8
Profilo
  6
Continuous
370
     0
100
AcDbCircle
 10
0.184451138388938
 20
0.1916279489107664
 30
0.0
 40
0.0010936324140752
  0
CIRCLE
  5
24CF
330
2
100
AcDbEntity
  8
Profilo
  6
Continuous
370
     0
100
AcDbCircle
 10
0.1833496475612846
 20
0.189305131989598
 30
0.0
 40
0.0010936324140752
  0
CIRCLE
  5
24D0
330
2
100
AcDbEntity
  8
Profilo
  6
Continuous
370
     0
100
AcDbCircle
 10
0.1822867499866139
 20
0.1868678927598122
 30
0.0
 40
0.0010936324140752
  0
CIRCLE
  5
24D1
330
2
100
AcDbEntity
  8
Profilo
  6
Continuous
370
     0
100
AcDbCircle
 10
0.1815052066922498
 20
0.1844619007604677
 30
0.0
 40
0.0010936324140752
  0
CIRCLE
  5
24D2
330
2
100
AcDbEntity
  8
Profilo
  6
Continuous
370
     0
100
AcDbCircle
 10
0.1807990382949927
 20
0.1819412197057577
 30
0.0
 40
0.0010936324140752
  0
CIRCLE
  5
24D3
330
2
100
AcDbEntity
  8
Profilo
  6
Continuous
370
     0
100
AcDbCircle
 10
0.1801596110913624
 20
0.1794093197990749
 30
0.0
 40
0.0010936324140752
  0
CIRCLE
  5
24D4
330
2
100
AcDbEntity
  8
Profilo
  6
Continuous
370
     0
100
AcDbCircle
 10
0.1796431502391791
 20
0.176902001896007
 30
0.0
 40
0.0010936324140752
  0
CIRCLE
  5
24D5
330
2
100
AcDbEntity
  8
Profilo
  6
Continuous
370
     0
100
AcDbCircle
 10
0.1792241028050816
 20
0.1741896882559963
 30
0.0
 40
0.0010936324140752
  0
CIRCLE
  5
24D6
330
2
100
AcDbEntity
  8
Profilo
  6
Continuous
370
     0
100
AcDbCircle
 10
0.1787814228518194
 20
0.1715102997695235
 30
0.0
 40
0.0010936324140752
  0
CIRCLE
  5
24D7
330
2
100
AcDbEntity
  8
Profilo
  6
Continuous
370
     0
100
AcDbCircle
 10
0.1784344834345897
 20
0.1688973415491874
 30
0.0
 40
0.0010936324140752
  0
CIRCLE
  5
24D8
330
2
100
AcDbEntity
  8
Profilo
  6
Continuous
370
     0
100
AcDbCircle
 10
0.1781885507316965
 20
0.1663162793562245
 30
0.0
 40
0.0010936324140752
  0
CIRCLE
  5
24D9
330
2
100
AcDbEntity
  8
Profilo
  6
Continuous
370
     0
100
AcDbCircle
 10
0.1780655843802494
 20
0.1637352154423146
 30
0.0
 40
0.0010936324140752
  0
CIRCLE
  5
24DA
330
2
100
AcDbEntity
  8
Profilo
  6
Continuous
370
     0
100
AcDbCircle
 10
0.1781905473096279
 20
0.1611192317975636
 30
0.0
 40
0.0010936324140752
  0
CIRCLE
  5
24DB
330
2
100
AcDbEntity
  8
Profilo
  6
Continuous
370
     0
100
AcDbCircle
 10
0.1783872918398626
 20
0.1585381678836537
 30
0.0
 40
0.0010936324140752
  0
CIRCLE
  5
24DC
330
2
100
AcDbEntity
  8
Profilo
  6
Continuous
370
     0
100
AcDbCircle
 10
0.1786578199891526
 20
0.1559325236870759
 30
0.0
 40
0.0010936324140752
  0
CIRCLE
  5
24DD
330
2
100
AcDbEntity
  8
Profilo
  6
Continuous
370
     0
100
AcDbCircle
 10
0.1790772917640633
 20
0.15309607815679
 30
0.0
 40
0.0010936324140752
  0
CIRCLE
  5
24DE
330
2
100
AcDbEntity
  8
Profilo
  6
Continuous
370
     0
100
AcDbCircle
 10
0.1794953789910629
 20
0.1503921076667032
 30
0.0
 40
0.0010936324140752
  0
CIRCLE
  5
24DF
330
2
100
AcDbEntity
  8
Profilo
  6
Continuous
370
     0
100
AcDbCircle
 10
0.1801157707010097
 20
0.14796133919676
 30
0.0
 40
0.0010936324140752
  0
CIRCLE
  5
24E0
330
2
100
AcDbEntity
  8
Profilo
  6
Continuous
370
     0
100
AcDbCircle
 10
0.1808316254933804
 20
0.1454667184389358
 30
0.0
 40
0.0010936324140752
  0
CIRCLE
  5
24E1
330
2
100
AcDbEntity
  8
Profilo
  6
Continuous
370
     0
100
AcDbCircle
 10
0.1815087891079667
 20
0.1429914342389811
 30
0.0
 40
0.0010936324140752
  0
CIRCLE
  5
24E2
330
2
100
AcDbEntity
  8
Profilo
  6
Continuous
370
     0
100
AcDbCircle
 10
0.1822868859932856
 20
0.1406437358694621
 30
0.0
 40
0.0010936324140752
  0
CIRCLE
  5
24E3
330
2
100
AcDbEntity
  8
Profilo
  6
Continuous
370
     0
100
AcDbCircle
 10
0.1832155640245452
 20
0.1382458047847717
 30
0.0
 40
0.0010936324140752
  0
CIRCLE
  5
24E4
330
2
100
AcDbEntity
  8
Profilo
  6
Continuous
370
     0
100
AcDbCircle
 10
0.1841829359537235
 20
0.1357898588636335
 30
0.0
 40
0.0010936324140752
  0
CIRCLE
  5
24E5
330
2
100
AcDbEntity
  8
Profilo
  6
Continuous
370
     0
100
AcDbCircle
 10
0.1853654078734641
 20
0.1335963349520925
 30
0.0
 40
0.0010936324140752
  0
CIRCLE
  5
24E6
330
2
100
AcDbEntity
  8
Profilo
  6
Continuous
370
     0
100
AcDbCircle
 10
0.1866036452484769
 20
0.1313531083769854
 30
0.0
 40
0.0010936324140752
  0
CIRCLE
  5
24E7
330
2
100
AcDbEntity
  8
Profilo
  6
Continuous
370
     0
100
AcDbCircle
 10
0.1879192704193289
 20
0.1291098835228261
 30
0.0
 40
0.0010936324140752
  0
CIRCLE
  5
24E8
330
2
100
AcDbEntity
  8
Profilo
  6
Continuous
370
     0
100
AcDbCircle
 10
0.1892944801127749
 20
0.1270710400276132
 30
0.0
 40
0.0010936324140752
  0
CIRCLE
  5
24E9
330
2
100
AcDbEntity
  8
Profilo
  6
Continuous
370
     0
100
AcDbCircle
 10
0.1908809734495931
 20
0.1249245048465877
 30
0.0
 40
0.0010936324140752
  0
CIRCLE
  5
24EA
330
2
100
AcDbEntity
  8
Profilo
  6
Continuous
370
     0
100
AcDbCircle
 10
0.1925642001711429
 20
0.1231260552423601
 30
0.0
 40
0.0010936324140752
  0
CIRCLE
  5
24EB
330
2
100
AcDbEntity
  8
Profilo
  6
Continuous
370
     0
100
AcDbCircle
 10
0.1944056080914127
 20
0.1215126762534124
 30
0.0
 40
0.0010936324140752
  0
CIRCLE
  5
24EC
330
2
100
AcDbEntity
  8
Profilo
  6
Continuous
370
     0
100
AcDbCircle
 10
0.1963403546699036
 20
0.1198689328797142
 30
0.0
 40
0.0010936324140752
  0
CIRCLE
  5
24ED
330
2
100
AcDbEntity
  8
Profilo
  6
Continuous
370
     0
100
AcDbCircle
 10
0.1984685734581231
 20
0.1184959236884966
 30
0.0
 40
0.0010936324140752
  0
CIRCLE
  5
24EE
330
2
100
AcDbEntity
  8
Profilo
  6
Continuous
370
     0
100
AcDbCircle
 10
0.2007128793803672
 20
0.1172776190068623
 30
0.0
 40
0.0010936324140752
  0
CIRCLE
  5
24EF
330
2
100
AcDbEntity
  8
Profilo
  6
Continuous
370
     0
100
AcDbCircle
 10
0.2031199172845455
 20
0.1164413404141573
 30
0.0
 40
0.0010936324140752
  0
CIRCLE
  5
24F0
330
2
100
AcDbEntity
  8
Profilo
  6
Continuous
370
     0
100
AcDbCircle
 10
0.2055576981366516
 20
0.1156097995879
 30
0.0
 40
0.0010936324140752
  0
CIRCLE
  5
24F1
330
2
100
AcDbEntity
  8
Profilo
  6
Continuous
370
     0
100
AcDbCircle
 10
0.2081889511984871
 20
0.1150876695017562
 30
0.0
 40
0.0010936324140752
  0
LWPOLYLINE
  5
24F2
330
2
100
AcDbEntity
  8
Profilo
  6
Continuous
370
     0
100
AcDbPolyline
 90
       80
 70
   128
 43
0.0
 10
0.2096474894591644
 20
0.214736407344418
 10
0.2070612573255854
 20
0.2136930179711935
 10
0.2050757965795873
 20
0.2129596141343013
 10
0.2025292294315595
 20
0.2123556340989916
 10
0.1999826622835317
 20
0.2117947964781726
 10
0.1979108781034047
 20
0.2117085133701364
 10
0.1965728499136958
 20
0.2115790878476078
 10
0.1962275534570523
 20
0.2112339571364075
 10
0.1953211478782466
 20
0.2097671494626239
 10
0.1940694458427983
 20
0.2080846348792216
 10
0.1928609041643468
 20
0.2068766748086004
 10
0.1912639029521215
 20
0.2054530078283623
 10
0.1896237413828985
 20
0.2040724832626148
 10
0.1875138236523386
 20
0.2026582780476991
 10
0.1866049536326531
 20
0.2020923687967588
 10
0.1863665611396039
 20
0.2019285535949935
 10
0.186351660248721
 20
0.2012435049203489
 10
0.1859675230069533
 20
0.1992157460432606
 10
0.1850623822901893
 20
0.1968349452626858
 10
0.1841334240851877
 20
0.194977919793363
 10
0.1831091877668352
 20
0.1932399339328334
 10
0.1816316684151433
 20
0.1912333840036959
 10
0.1800834011132955
 20
0.1896144394729049
 10
0.1800108388341475
 20
0.1872271180250307
 10
0.1796773667974867
 20
0.1849653568532474
 10
0.1792460298005916
 20
0.1829838312110432
 10
0.1784599874055488
 20
0.1805316059768147
 10
0.1775072089921761
 20
0.1784841164450466
 10
0.1766258884837824
 20
0.1772222924615781
 10
0.1761971383337715
 20
0.1766985154293783
 10
0.1760779856093813
 20
0.1759610553209576
 10
0.1761922230526791
 20
0.1750095249232935
 10
0.17661109911837
 20
0.1730684019483286
 10
0.17661109911837
 20
0.1708608505996931
 10
0.1763445423638761
 20
0.1681585029624069
 10
0.1760399037414821
 20
0.1657987063371182
 10
0.1755448693802581
 20
0.16397176645917
 10
0.1753163944936633
 20
0.1627918681465257
 10
0.1755448693802581
 20
0.1615358471955544
 10
0.1761920326433393
 20
0.1595006934102097
 10
0.176725146152328
 20
0.1577879383502241
 10
0.1769917029068229
 20
0.1561513059285664
 10
0.1772582596613177
 20
0.1539056924002944
 10
0.1771059403501207
 20
0.1517362015103485
 10
0.1768013044478602
 20
0.1494905897030234
 10
0.1769155446112915
 20
0.1490338538730631
 10
0.1780605167716847
 20
0.1471135818891218
 10
0.1787078704441056
 20
0.1458575609381505
 10
0.1793552213963923
 20
0.1439164379631856
 10
0.1799644932009132
 20
0.1418611318912033
 10
0.1804976067099029
 20
0.1396916410012583
 10
0.1806499260210999
 20
0.137864702844257
 10
0.1808022453322968
 20
0.1361519460633245
 10
0.1813734379890513
 20
0.1354287835806414
 10
0.1826342606318623
 20
0.1339659461310481
 10
0.1838528069610377
 20
0.1324054363477165
 10
0.1851855907335109
 20
0.1303501285547881
 10
0.1863279760470216
 20
0.1281806376648422
 10
0.1871657254582708
 20
0.1261253315928608
 10
0.1875465223761961
 20
0.124831250183199
 10
0.1876607598194948
 20
0.124184208617895
 10
0.188582689199736
 20
0.1236791881845045
 10
0.1896108370699479
 20
0.1229560239808736
 10
0.1910959374334846
 20
0.1218141878478658
 10
0.1926952806805853
 20
0.1204820442585683
 10
0.1942565420597877
 20
0.11914990066927
 10
0.1960843601934841
 20
0.1173229607913218
 10
0.1976075397047865
 20
0.1156863283696632
 10
0.1979121783271804
 20
0.1153057151780299
 10
0.1982548933772066
 20
0.1149631641660331
 10
0.1990926427884558
 20
0.1150392868043593
 10
0.2005777458721261
 20
0.1149251037073427
 10
0.202592004670658
 20
0.1145081389571585
 10
0.2038662321309694
 20
0.1142833833094414
 10
0.2052528908659863
 20
0.1138526010776681
 10
0.2065271183262969
 20
0.1133843607185732
 10
0.2079512550595937
 20
0.1126913647117602
 10
0.2089818782512192
 20
0.112129477313414
 10
0.2094503450693159
 20
0.1117736130572311
 10
0.2096451256632215
 20
0.1115937982133763
  0
LWPOLYLINE
  5
24F3
102
{ACAD_REACTORS
330
2587
102
}
330
2
100
AcDbEntity
  8
Profilo
  6
Continuous
370
     0
100
AcDbPolyline
 90
       80
 70
   128
 43
0.0
 10
0.2096332985231044
 20
0.2168609694771284
 10
0.2063666357142282
 20
0.2154910831603054
 10
0.204517447043224
 20
0.2148080164871491
 10
0.2020995435872959
 20
0.2142345521605478
 10
0.1997333888361121
 20
0.2137134472675664
 10
0.1977778964515002
 20
0.2136320073365621
 10
0.1956992377748687
 20
0.213430941703229
 10
0.1947060996863883
 20
0.2124382803300744
 10
0.1937252177256028
 20
0.2108509498669813
 10
0.1926072187393359
 20
0.2093481564342374
 10
0.1915372969735787
 20
0.2082787495658058
 10
0.1900018133211117
 20
0.2069099231942415
 10
0.1884631738841718
 20
0.2056148498426999
 10
0.1864676145270609
 20
0.2042772951083966
 10
0.1855492754656478
 20
0.2037054899447357
 10
0.1844611304887789
 20
0.2029577537779819
 10
0.184428230227945
 20
0.2014452079672813
 10
0.1841055078124818
 20
0.199741641711169
 10
0.183295283501945
 20
0.1976105005137398
 10
0.182439332627782
 20
0.1958994196865831
 10
0.1814987543298774
 20
0.1943033897927124
 10
0.1801531268402912
 20
0.1924759560330234
 10
0.17817939506769
 20
0.1904121249008357
 10
0.1780877669869849
 20
0.1873975326793333
 10
0.1777801738132558
 20
0.185311293892985
 10
0.1773824340084336
 20
0.1834841109064689
 10
0.1766615297580405
 20
0.1812350978692247
 10
0.1758307625016464
 20
0.179449806308325
 10
0.1750878948263781
 20
0.1783862111232937
 10
0.1743771840401254
 20
0.1775179805550566
 10
0.1741320284907613
 20
0.1760006636918518
 10
0.1742892994241514
 20
0.1746906897510003
 10
0.1746837376312114
 20
0.1728628148050681
 10
0.1746837376312114
 20
0.1709556769655141
 10
0.1744293334964972
 20
0.1683765323714734
 10
0.1741452383805273
 20
0.1661758701879989
 10
0.1736660985940672
 20
0.1644075897380697
 10
0.1733553834365467
 20
0.1628029832295166
 10
0.1736707212923207
 20
0.1610694406096309
 10
0.1743535108941805
 20
0.1589222516047979
 10
0.1748446205859715
 20
0.1573444438857283
 10
0.1750826974920019
 20
0.1558826749502709
 10
0.1753228882111364
 20
0.1538591826952089
 10
0.1751876828396164
 20
0.1519334464278792
 10
0.1748416180685057
 20
0.1493824433112527
 10
0.175114688113694
 20
0.1482907005302509
 10
0.1763745945176958
 20
0.1461776683940288
 10
0.1769265452684838
 20
0.1451067519283784
 10
0.1775165756503843
 20
0.1433375083269146
 10
0.1781036763849413
 20
0.1413569937262951
 10
0.1785895683936831
 20
0.1393796694441542
 10
0.1787296703396113
 20
0.1376992679975117
 10
0.1789333925734546
 20
0.1354085102813753
 10
0.1798865576868132
 20
0.1342017488819902
 10
0.1811438803104022
 20
0.1327429722408073
 10
0.1822816831336553
 20
0.131285865198854
 10
0.1835209253048788
 20
0.1293748094488913
 10
0.1845787247219015
 20
0.1273659546680399
 10
0.1853442142435215
 20
0.1254879285653692
 10
0.1856672048693009
 20
0.1243902931995322
 10
0.1859235721986849
 20
0.1229382271053669
 10
0.1875621085185097
 20
0.1220406590919172
 10
0.188468518761437
 20
0.1214031209901716
 10
0.1898913315829562
 20
0.1203091753350449
 10
0.191452971396693
 20
0.1190084361282286
 10
0.1929477432803408
 20
0.117733024586772
 10
0.1946972089743417
 20
0.1159843995006371
 10
0.1961477107776128
 20
0.1144258581328659
 10
0.1964741529911154
 20
0.1140180036993446
 10
0.1975306122813614
 20
0.1129620500755406
 10
0.1991060675857519
 20
0.1131052048336647
 10
0.2003074288548936
 20
0.1130128374068819
 10
0.202229183352211
 20
0.1126150216522852
 10
0.2034111143543937
 20
0.1124065457904573
 10
0.2046341970346932
 20
0.1120265804295819
 10
0.2057711482676148
 20
0.1116087849651466
 10
0.2070678307955662
 20
0.1109778091655871
 10
0.2079317239608287
 20
0.1105068216242406
 10
0.2087435945635063
 20
0.1099856199255571
 10
0.2096384096538035
 20
0.1093609695986331
  0
LWPOLYLINE
  5
24F4
330
2
100
AcDbEntity
  8
Profilo
  6
Continuous
370
     0
100
AcDbPolyline
 90
       80
 70
   128
 43
0.0
 10
0.2096474894591644
 20
0.214736407344418
 10
0.212234548513303
 20
0.2136930179711935
 10
0.2142200092593021
 20
0.2129596141343013
 10
0.2167665764073299
 20
0.2123556340989916
 10
0.2193131435553568
 20
0.2117947964781726
 10
0.2213849277354838
 20
0.2117085133701364
 10
0.2227229559251926
 20
0.2115790878476078
 10
0.223068252381837
 20
0.2112339571364075
 10
0.2239746579606419
 20
0.2097671494626239
 10
0.2252263599960911
 20
0.2080846348792216
 10
0.2264349016745426
 20
0.2068766748086004
 10
0.228031902886767
 20
0.2054530078283623
 10
0.22967206445599
 20
0.2040724832626148
 10
0.2317819821865508
 20
0.2026582780476991
 10
0.2326908522062354
 20
0.2020923687967588
 10
0.2329292446992854
 20
0.2019285535949935
 10
0.2329441455901675
 20
0.2012435049203489
 10
0.2333282828319352
 20
0.1992157460432606
 10
0.2342334235486991
 20
0.1968349452626858
 10
0.2351623817537016
 20
0.194977919793363
 10
0.2361866180720533
 20
0.1932399339328334
 10
0.2376641374237451
 20
0.1912333840036959
 10
0.239212404725593
 20
0.1896144394729049
 10
0.2392849670047419
 20
0.1872271180250307
 10
0.2396184390414027
 20
0.1849653568532474
 10
0.2400497760382969
 20
0.1829838312110432
 10
0.2408358184333397
 20
0.1805316059768147
 10
0.2417885968467124
 20
0.1784841164450466
 10
0.242669917355107
 20
0.1772222924615781
 10
0.2430986675051179
 20
0.1766985154293783
 10
0.2432178202295072
 20
0.1759610553209576
 10
0.2431035827862102
 20
0.1750095249232935
 10
0.2426847067205184
 20
0.1730684019483286
 10
0.2426847067205184
 20
0.1708608505996931
 10
0.2429512634750133
 20
0.1681585029624069
 10
0.2432559020974072
 20
0.1657987063371182
 10
0.2437509364586303
 20
0.16397176645917
 10
0.2439794113452252
 20
0.1627918681465257
 10
0.2437509364586303
 20
0.1615358471955544
 10
0.2431037731955501
 20
0.1595006934102097
 10
0.2425706596865604
 20
0.1577879383502241
 10
0.2423041029320656
 20
0.1561513059285664
 10
0.2420375461775717
 20
0.1539056924002944
 10
0.2421898654887677
 20
0.1517362015103485
 10
0.2424945013910291
 20
0.1494905897030234
 10
0.2423802612275978
 20
0.1490338538730631
 10
0.2412352890672038
 20
0.1471135818891218
 10
0.2405879353947837
 20
0.1458575609381505
 10
0.2399405844424962
 20
0.1439164379631856
 10
0.2393313126379752
 20
0.1418611318912033
 10
0.2387981991289865
 20
0.1396916410012583
 10
0.2386458798177895
 20
0.137864702844257
 10
0.2384935605065925
 20
0.1361519460633245
 10
0.2379223678498372
 20
0.1354287835806414
 10
0.2366615452070262
 20
0.1339659461310481
 10
0.2354429988778508
 20
0.1324054363477165
 10
0.2341102151053775
 20
0.1303501285547881
 10
0.2329678297918678
 20
0.1281806376648422
 10
0.2321300803806177
 20
0.1261253315928608
 10
0.2317492834626924
 20
0.124831250183199
 10
0.2316350460193945
 20
0.124184208617895
 10
0.2307131166391534
 20
0.1236791881845045
 10
0.2296849687689406
 20
0.1229560239808736
 10
0.2281998684054038
 20
0.1218141878478658
 10
0.2266005251583032
 20
0.1204820442585683
 10
0.2250392637791017
 20
0.11914990066927
 10
0.2232114456454053
 20
0.1173229607913218
 10
0.221688266134102
 20
0.1156863283696632
 10
0.2213836275117089
 20
0.1153057151780299
 10
0.2210409124616819
 20
0.1149631641660331
 10
0.2202031630504326
 20
0.1150392868043593
 10
0.2187180599667624
 20
0.1149251037073427
 10
0.2167038011682305
 20
0.1145081389571585
 10
0.2154295737079199
 20
0.1142833833094414
 10
0.2140429149729031
 20
0.1138526010776681
 10
0.2127686875125916
 20
0.1133843607185732
 10
0.2113445507792957
 20
0.1126913647117602
 10
0.2103139275876693
 20
0.112129477313414
 10
0.2098454607695726
 20
0.1117736130572311
 10
0.2096451256632215
 20
0.1115937982133763
  0
LWPOLYLINE
  5
24F5
102
{ACAD_REACTORS
330
2584
330
2587
102
}
330
2
100
AcDbEntity
  8
Profilo
  6
Continuous
370
     0
100
AcDbPolyline
 90
       80
 70
   128
 43
0.0
 10
0.2096332985231044
 20
0.2168609694771284
 10
0.212903102790378
 20
0.2154238920058091
 10
0.2147574829900869
 20
0.2147389076482673
 10
0.2171801969778528
 20
0.2141643023876085
 10
0.2195530970630515
 20
0.2136417119508103
 10
0.2215129374138673
 20
0.2135600909410806
 10
0.2235639050886375
 20
0.2133617038181201
 10
0.2245328214037114
 20
0.2123932525917009
 10
0.2255109188104323
 20
0.2108104282849723
 10
0.2266339167421238
 20
0.2093009153628147
 10
0.2277090212870514
 20
0.2082263282094132
 10
0.229246804983726
 20
0.2068554514342757
 10
0.2307892401725342
 20
0.2055571831970608
 10
0.2327890752082571
 20
0.2042167626225861
 10
0.2337070602371842
 20
0.2036451778977719
 10
0.2347634343134131
 20
0.2029192736118466
 10
0.2347956616062892
 20
0.201437666609551
 10
0.2351206802249195
 20
0.1997219793043738
 10
0.2359344533096801
 20
0.1975815037302171
 10
0.236793133812409
 20
0.195864966263847
 10
0.2377368399513096
 20
0.1942636288610266
 10
0.2390873986689013
 20
0.1924294982312133
 10
0.2410452229982376
 20
0.1903823007050205
 10
0.241136138238794
 20
0.1873911611450891
 10
0.2414446989822541
 20
0.1852983598545137
 10
0.2418436949329206
 20
0.183465406240348
 10
0.2425670345954611
 20
0.1812087954206412
 10
0.2434023636559328
 20
0.179413700692538
 10
0.2441504078635301
 20
0.1783426940464299
 10
0.244850576587796
 20
0.1774873420508083
 10
0.2450910210909332
 20
0.1759991827975442
 10
0.2449353591116374
 20
0.1747026104935365
 10
0.2445400072117156
 20
0.172870501383013
 10
0.2445400072117156
 20
0.1709521315577582
 10
0.2447948657136518
 20
0.1683683805968998
 10
0.2450797289188176
 20
0.1661617686284753
 10
0.2455594629782747
 20
0.1643912949953599
 10
0.2458671033022102
 20
0.1628025676541531
 10
0.2455550131153938
 20
0.1610868788137916
 10
0.2448735555259616
 20
0.1589438786285182
 10
0.2443808753779166
 20
0.1573610254419275
 10
0.2441417336554219
 20
0.1558927186374417
 10
0.2439005571519497
 20
0.1538609216194802
 10
0.2440364023865913
 20
0.1519260717525528
 10
0.2443809181978562
 20
0.1493864867337002
 10
0.2441137865505996
 20
0.1483184858577005
 10
0.2428581773560829
 20
0.1462126607185299
 10
0.2423026596410305
 20
0.1451348234891014
 10
0.2417104861337125
 20
0.1433591535898602
 10
0.2411225564579349
 20
0.141375842654484
 10
0.2406348989120268
 20
0.1393913335669801
 10
0.2404943401781454
 20
0.1377054533446307
 10
0.2402925398182349
 20
0.1354363061687778
 10
0.2393536560505585
 20
0.1342476257675944
 10
0.238096202566789
 20
0.1327886972992118
 10
0.236955380871626
 20
0.131327724192392
 10
0.2357126413279611
 20
0.1294112750868219
 10
0.2346516793781259
 20
0.1273964143760571
 10
0.2338834881735841
 20
0.125511760055879
 10
0.2335583362620188
 20
0.1244067798833388
 10
0.2333072829441554
 20
0.1229848123823594
 10
0.2316955394237736
 20
0.1221019211017218
 10
0.2307845776036121
 20
0.1214611815755298
 10
0.2293594359494657
 20
0.1203654453712213
 10
0.2277963864640224
 20
0.1190635320042421
 10
0.2262991286433549
 20
0.1177859993412946
 10
0.2245467334756255
 20
0.116034446189027
 10
0.2230935143678636
 20
0.1144729851203294
 10
0.2227678873561285
 20
0.1140661491937331
 10
0.2217381138335261
 20
0.1130368685646275
 10
0.2201902401850628
 20
0.1131775170978706
 10
0.2189782702584966
 20
0.1130843340177003
 10
0.2170530571717448
 20
0.1126858023124626
 10
0.2158676753510511
 20
0.1124767177752028
 10
0.2146384768209251
 20
0.1120948524519418
 10
0.2134963930471001
 20
0.1116751709327239
 10
0.2121949452081069
 20
0.1110418762957623
 10
0.2113248182710079
 20
0.1105674901526115
 10
0.2105144531033594
 20
0.1100266920410888
 10
0.2096384096538035
 20
0.1093609695986331
  0
CIRCLE
  5
24F6
330
2
100
AcDbEntity
  8
Profilo
  6
Continuous
370
     0
100
AcDbCircle
 10
0.212205606293699
 20
0.2109219993950804
 30
0.0
 40
0.0010936324140752
  0
CIRCLE
  5
24F7
330
2
100
AcDbEntity
  8
Profilo
  6
Continuous
370
     0
100
AcDbCircle
 10
0.2145814959500696
 20
0.2104220540337041
 30
0.0
 40
0.0010936324140752
  0
CIRCLE
  5
24F8
330
2
100
AcDbEntity
  8
Profilo
  6
Continuous
370
     0
100
AcDbCircle
 10
0.2169261231130275
 20
0.2097346270106284
 30
0.0
 40
0.0010936324140752
  0
CIRCLE
  5
24F9
330
2
100
AcDbEntity
  8
Profilo
  6
Continuous
370
     0
100
AcDbCircle
 10
0.2191769627957492
 20
0.2086409945965535
 30
0.0
 40
0.0010936324140752
  0
CIRCLE
  5
24FA
330
2
100
AcDbEntity
  8
Profilo
  6
Continuous
370
     0
100
AcDbCircle
 10
0.2213652802117816
 20
0.2073598805207784
 30
0.0
 40
0.0010936324140752
  0
CIRCLE
  5
24FB
330
2
100
AcDbEntity
  8
Profilo
  6
Continuous
370
     0
100
AcDbCircle
 10
0.223428553094432
 20
0.2060162754260153
 30
0.0
 40
0.0010936324140752
  0
CIRCLE
  5
24FC
330
2
100
AcDbEntity
  8
Profilo
  6
Continuous
370
     0
100
AcDbCircle
 10
0.2253151125093631
 20
0.2044463675523911
 30
0.0
 40
0.0010936324140752
  0
CIRCLE
  5
24FD
330
2
100
AcDbEntity
  8
Profilo
  6
Continuous
370
     0
100
AcDbCircle
 10
0.2272533381384998
 20
0.2026340608847992
 30
0.0
 40
0.0010936324140752
  0
CIRCLE
  5
24FE
330
2
100
AcDbEntity
  8
Profilo
  6
Continuous
370
     0
100
AcDbCircle
 10
0.22897273175402
 20
0.2006967687373367
 30
0.0
 40
0.0010936324140752
  0
CIRCLE
  5
24FF
330
2
100
AcDbEntity
  8
Profilo
  6
Continuous
370
     0
100
AcDbCircle
 10
0.2305692270214295
 20
0.1986896939194356
 30
0.0
 40
0.0010936324140752
  0
CIRCLE
  5
2500
330
2
100
AcDbEntity
  8
Profilo
  6
Continuous
370
     0
100
AcDbCircle
 10
0.2321948358768469
 20
0.1964399346304022
 30
0.0
 40
0.0010936324140752
  0
CIRCLE
  5
2501
330
2
100
AcDbEntity
  8
Profilo
  6
Continuous
370
     0
100
AcDbCircle
 10
0.233632872491927
 20
0.1940651881405522
 30
0.0
 40
0.0010936324140752
  0
CIRCLE
  5
2502
330
2
100
AcDbEntity
  8
Profilo
  6
Continuous
370
     0
100
AcDbCircle
 10
0.2348208173201123
 20
0.1916279489107664
 30
0.0
 40
0.0010936324140752
  0
CIRCLE
  5
2503
330
2
100
AcDbEntity
  8
Profilo
  6
Continuous
370
     0
100
AcDbCircle
 10
0.2359223081477657
 20
0.189305131989598
 30
0.0
 40
0.0010936324140752
  0
CIRCLE
  5
2504
330
2
100
AcDbEntity
  8
Profilo
  6
Continuous
370
     0
100
AcDbCircle
 10
0.2369852057224355
 20
0.1868678927598122
 30
0.0
 40
0.0010936324140752
  0
CIRCLE
  5
2505
330
2
100
AcDbEntity
  8
Profilo
  6
Continuous
370
     0
100
AcDbCircle
 10
0.2377667490168005
 20
0.1844619007604677
 30
0.0
 40
0.0010936324140752
  0
CIRCLE
  5
2506
330
2
100
AcDbEntity
  8
Profilo
  6
Continuous
370
     0
100
AcDbCircle
 10
0.2384729174140567
 20
0.1819412197057577
 30
0.0
 40
0.0010936324140752
  0
CIRCLE
  5
2507
330
2
100
AcDbEntity
  8
Profilo
  6
Continuous
370
     0
100
AcDbCircle
 10
0.2391123446176879
 20
0.1794093197990749
 30
0.0
 40
0.0010936324140752
  0
CIRCLE
  5
2508
330
2
100
AcDbEntity
  8
Profilo
  6
Continuous
370
     0
100
AcDbCircle
 10
0.2396288054698712
 20
0.176902001896007
 30
0.0
 40
0.0010936324140752
  0
CIRCLE
  5
2509
330
2
100
AcDbEntity
  8
Profilo
  6
Continuous
370
     0
100
AcDbCircle
 10
0.2400478529039678
 20
0.1741896882559963
 30
0.0
 40
0.0010936324140752
  0
CIRCLE
  5
250A
330
2
100
AcDbEntity
  8
Profilo
  6
Continuous
370
     0
100
AcDbCircle
 10
0.24049053285723
 20
0.1715102997695235
 30
0.0
 40
0.0010936324140752
  0
CIRCLE
  5
250B
330
2
100
AcDbEntity
  8
Profilo
  6
Continuous
370
     0
100
AcDbCircle
 10
0.2408374722744597
 20
0.1688973415491874
 30
0.0
 40
0.0010936324140752
  0
CIRCLE
  5
250C
330
2
100
AcDbEntity
  8
Profilo
  6
Continuous
370
     0
100
AcDbCircle
 10
0.2410834049773538
 20
0.1663162793562245
 30
0.0
 40
0.0010936324140752
  0
CIRCLE
  5
250D
330
2
100
AcDbEntity
  8
Profilo
  6
Continuous
370
     0
100
AcDbCircle
 10
0.2412063713288008
 20
0.1637352154423146
 30
0.0
 40
0.0010936324140752
  0
CIRCLE
  5
250E
330
2
100
AcDbEntity
  8
Profilo
  6
Continuous
370
     0
100
AcDbCircle
 10
0.2410814083994224
 20
0.1611192317975636
 30
0.0
 40
0.0010936324140752
  0
CIRCLE
  5
250F
330
2
100
AcDbEntity
  8
Profilo
  6
Continuous
370
     0
100
AcDbCircle
 10
0.2408846638691877
 20
0.1585381678836537
 30
0.0
 40
0.0010936324140752
  0
CIRCLE
  5
2510
330
2
100
AcDbEntity
  8
Profilo
  6
Continuous
370
     0
100
AcDbCircle
 10
0.2406141357198976
 20
0.1559325236870759
 30
0.0
 40
0.0010936324140752
  0
CIRCLE
  5
2511
330
2
100
AcDbEntity
  8
Profilo
  6
Continuous
370
     0
100
AcDbCircle
 10
0.240194663944987
 20
0.15309607815679
 30
0.0
 40
0.0010936324140752
  0
CIRCLE
  5
2512
330
2
100
AcDbEntity
  8
Profilo
  6
Continuous
370
     0
100
AcDbCircle
 10
0.2397765767179873
 20
0.1503921076667032
 30
0.0
 40
0.0010936324140752
  0
CIRCLE
  5
2513
330
2
100
AcDbEntity
  8
Profilo
  6
Continuous
370
     0
100
AcDbCircle
 10
0.2391561850080397
 20
0.14796133919676
 30
0.0
 40
0.0010936324140752
  0
CIRCLE
  5
2514
330
2
100
AcDbEntity
  8
Profilo
  6
Continuous
370
     0
100
AcDbCircle
 10
0.238440330215669
 20
0.1454667184389358
 30
0.0
 40
0.0010936324140752
  0
CIRCLE
  5
2515
330
2
100
AcDbEntity
  8
Profilo
  6
Continuous
370
     0
100
AcDbCircle
 10
0.2377631666010835
 20
0.1429914342389811
 30
0.0
 40
0.0010936324140752
  0
CIRCLE
  5
2516
330
2
100
AcDbEntity
  8
Profilo
  6
Continuous
370
     0
100
AcDbCircle
 10
0.2369850697157647
 20
0.1406437358694621
 30
0.0
 40
0.0010936324140752
  0
CIRCLE
  5
2517
330
2
100
AcDbEntity
  8
Profilo
  6
Continuous
370
     0
100
AcDbCircle
 10
0.2360563916845051
 20
0.1382458047847717
 30
0.0
 40
0.0010936324140752
  0
CIRCLE
  5
2518
330
2
100
AcDbEntity
  8
Profilo
  6
Continuous
370
     0
100
AcDbCircle
 10
0.2350890197553268
 20
0.1357898588636335
 30
0.0
 40
0.0010936324140752
  0
CIRCLE
  5
2519
330
2
100
AcDbEntity
  8
Profilo
  6
Continuous
370
     0
100
AcDbCircle
 10
0.2339065478355862
 20
0.1335963349520925
 30
0.0
 40
0.0010936324140752
  0
CIRCLE
  5
251A
330
2
100
AcDbEntity
  8
Profilo
  6
Continuous
370
     0
100
AcDbCircle
 10
0.2326683104605725
 20
0.1313531083769854
 30
0.0
 40
0.0010936324140752
  0
CIRCLE
  5
251B
330
2
100
AcDbEntity
  8
Profilo
  6
Continuous
370
     0
100
AcDbCircle
 10
0.2313526852897214
 20
0.1291098835228261
 30
0.0
 40
0.0010936324140752
  0
CIRCLE
  5
251C
330
2
100
AcDbEntity
  8
Profilo
  6
Continuous
370
     0
100
AcDbCircle
 10
0.2299774755962753
 20
0.1270710400276132
 30
0.0
 40
0.0010936324140752
  0
CIRCLE
  5
251D
330
2
100
AcDbEntity
  8
Profilo
  6
Continuous
370
     0
100
AcDbCircle
 10
0.2283909822594563
 20
0.1249245048465877
 30
0.0
 40
0.0010936324140752
  0
CIRCLE
  5
251E
330
2
100
AcDbEntity
  8
Profilo
  6
Continuous
370
     0
100
AcDbCircle
 10
0.2267077555379073
 20
0.1231260552423601
 30
0.0
 40
0.0010936324140752
  0
CIRCLE
  5
251F
330
2
100
AcDbEntity
  8
Profilo
  6
Continuous
370
     0
100
AcDbCircle
 10
0.2248663476176376
 20
0.1215126762534124
 30
0.0
 40
0.0010936324140752
  0
CIRCLE
  5
2520
330
2
100
AcDbEntity
  8
Profilo
  6
Continuous
370
     0
100
AcDbCircle
 10
0.2229316010391467
 20
0.1198689328797142
 30
0.0
 40
0.0010936324140752
  0
CIRCLE
  5
2521
330
2
100
AcDbEntity
  8
Profilo
  6
Continuous
370
     0
100
AcDbCircle
 10
0.2208033822509263
 20
0.1184959236884966
 30
0.0
 40
0.0010936324140752
  0
CIRCLE
  5
2522
330
2
100
AcDbEntity
  8
Profilo
  6
Continuous
370
     0
100
AcDbCircle
 10
0.2185590763286831
 20
0.1172776190068623
 30
0.0
 40
0.0010936324140752
  0
CIRCLE
  5
2523
330
2
100
AcDbEntity
  8
Profilo
  6
Continuous
370
     0
100
AcDbCircle
 10
0.2161520384245048
 20
0.1164413404141573
 30
0.0
 40
0.0010936324140752
  0
CIRCLE
  5
2524
330
2
100
AcDbEntity
  8
Profilo
  6
Continuous
370
     0
100
AcDbCircle
 10
0.2137142575723978
 20
0.1156097995879
 30
0.0
 40
0.0010936324140752
  0
CIRCLE
  5
2525
330
2
100
AcDbEntity
  8
Profilo
  6
Continuous
370
     0
100
AcDbCircle
 10
0.2110830045105632
 20
0.1150876695017562
 30
0.0
 40
0.0010936324140752
  0
CIRCLE
  5
2526
330
2
100
AcDbEntity
  8
Profilo
  6
Continuous
370
     0
100
AcDbCircle
 10
0.2096240908714739
 20
0.2111945027108364
 30
0.0
 40
0.0010936324140752
  0
LWPOLYLINE
  5
2527
330
2
100
AcDbEntity
  8
Profilo
  6
Continuous
370
     0
100
AcDbPolyline
 90
       22
 70
   128
 43
0.0
 10
0.2075983150280358
 20
0.1735687431274604
 10
0.2083342471251905
 20
0.1799437563755477
 10
0.2088248694300037
 20
0.1839649188694237
 10
0.2094136151077273
 20
0.1874466574830986
 10
0.2093890659035991
 20
0.1892572810647532
 10
0.2094229397250962
 20
0.1906623101915095
 10
0.2093890659035991
 20
0.1922196895726724
 10
0.2093721303529181
 20
0.1934554377707336
 10
0.2093213209807401
 20
0.1945219050400979
 10
0.208779364317998
 20
0.1957068680990765
 10
0.2085585738083184
 20
0.1963745386532718
 10
0.2083045296675616
 20
0.1962729700960537
 10
0.2078133823769976
 20
0.1965438178610208
 10
0.2076101476084189
 20
0.1971193712976404
 10
0.2072883585448031
 20
0.1980165593592558
 10
0.2073391679169811
 20
0.1987613937245722
 10
0.2076101476084189
 20
0.1991168828143603
 10
0.2079149984012194
 20
0.1991338100467557
 10
0.2082198491940208
 20
0.1989476018856635
 10
0.2083384034890587
 20
0.1983212633099622
 10
0.2084230839625987
 20
0.1974579331550323
 10
0.2085246999868222
 20
0.1967130987897168
  0
LWPOLYLINE
  5
2528
330
2
100
AcDbEntity
  8
Profilo
  6
Continuous
370
     0
100
AcDbPolyline
 90
        7
 70
   128
 43
0.0
 10
0.207475212669918
 20
0.1964730559718717
 10
0.2065968951888222
 20
0.1967784121614029
 10
0.2058713268000034
 20
0.1967784121614029
 10
0.2053366981766989
 20
0.1961295326249521
 10
0.2054894499891093
 20
0.1955188219668375
 10
0.205718574987592
 20
0.1947554357953782
 10
0.2060622665655176
 20
0.194450079605847
  0
LWPOLYLINE
  5
2529
330
2
100
AcDbEntity
  8
Profilo
  6
Continuous
370
     0
100
AcDbPolyline
 90
      102
 70
   128
 43
0.0
 10
0.2082007783386033
 20
0.1875795937370306
 10
0.207857089480812
 20
0.1884574899853932
 10
0.2077807135746073
 20
0.1892590467561357
 10
0.2079334653870177
 20
0.1898697556933033
 10
0.2081625903855004
 20
0.1901751101618867
 10
0.2083153421979118
 20
0.190709481342382
 10
0.2083535301510146
 20
0.1910530064102485
 10
0.2083535301510146
 20
0.191892732059328
 10
0.2082389662917061
 20
0.1926179510733981
 10
0.2077807135746073
 20
0.1932668288889019
 10
0.2072460849513018
 20
0.1938393706686803
 10
0.206787832234202
 20
0.1941065562589275
 10
0.206367767470206
 20
0.1941447251372636
 10
0.2057567629406949
 20
0.1940683856596443
 10
0.2053366981766989
 20
0.1935340144791491
 10
0.2053366981766989
 20
0.1929614744203176
 10
0.2053748861298008
 20
0.1922744260055307
 10
0.2052221370375238
 20
0.1920072404152835
 10
0.2046875084142183
 20
0.1928469660643621
 10
0.2043056288831917
 20
0.1934195078441405
 10
0.2038473761660919
 20
0.1939157084253526
 10
0.2033127502629199
 20
0.1941828940155998
 10
0.202625369827204
 20
0.193992047902972
 10
0.2023198689225156
 20
0.1936866934343877
 10
0.2023198689225156
 20
0.1933813372448574
 10
0.2017470523461082
 20
0.193304999488185
 10
0.2012124237228028
 20
0.1932668288889019
 10
0.2006396071463954
 20
0.1931904911322295
 10
0.2004868580541184
 20
0.1927324577084066
 10
0.2005250460072203
 20
0.1921599176495752
 10
0.2006396071463954
 20
0.1916255464690799
 10
0.2008305469119096
 20
0.1909384980542938
 10
0.2006777950994982
 20
0.1905186352297541
 10
0.2006014191932934
 20
0.1900606018059312
 10
0.2008305469119096
 20
0.1896025701030552
 10
0.2010978598634951
 20
0.1894117239904274
 10
0.2011562203260502
 20
0.189082019846043
 10
0.2010083865148655
 20
0.1889194798658318
 10
0.2008014170031001
 20
0.1889194798658318
 10
0.2005353145108863
 20
0.1887126117388069
 10
0.2004613976052945
 20
0.1882693216659339
 10
0.2003726967745563
 20
0.1877521496274239
 10
0.2003726967745563
 20
0.1871463195743397
 10
0.2007275000975073
 20
0.1867621336972185
 10
0.2010231704400109
 20
0.1868655677607309
 10
0.2011710042511956
 20
0.1867178055504039
 10
0.2009788186645747
 20
0.1860676456295591
 10
0.2009492508142847
 20
0.1857277896201985
 10
0.2006979322472173
 20
0.1854027096597761
 10
0.200505749380729
 20
0.1854913676743512
 10
0.2002544308136616
 20
0.1860085397128603
 10
0.200121378207488
 20
0.1863631734921061
 10
0.199914411415856
 20
0.1869394497263679
 10
0.1996039571482069
 20
0.1871019897065791
 10
0.1993082895258367
 20
0.1869542257753052
 10
0.1989534862028857
 20
0.1865257117513703
 10
0.1988056523917001
 20
0.1861563036441343
 10
0.1984656329938945
 20
0.1858903296004097
 10
0.1979925609899162
 20
0.1863483957222209
 10
0.1974455748004777
 20
0.1865995937170073
 10
0.1968838019657604
 20
0.1864075016389197
 10
0.1964994335126529
 20
0.1861119754973197
 10
0.1964846495875074
 20
0.1857868955368973
 10
0.1964676106717553
 20
0.1851146214501016
 10
0.1966745801835217
 20
0.1848486474063779
 10
0.1969554638807465
 20
0.184627001509468
 10
0.1969850317310373
 20
0.1842280413043555
 10
0.1968076300695618
 20
0.1837995272804207
 10
0.1965415275773481
 20
0.1836517633491468
 10
0.1966006632779289
 20
0.1831198152616995
 10
0.1967780649394044
 20
0.1826765251888265
 10
0.1971624333925128
 20
0.1824253271940401
 10
0.1975172367154638
 20
0.1823218931305277
 10
0.1977833392076767
 20
0.1822332351159534
 10
0.1980494416998895
 20
0.1820706951357422
 10
0.1976798544517939
 20
0.1818638252877704
 10
0.1973546189791338
 20
0.1815239692784098
 10
0.1971033004120655
 20
0.1811397851222356
 10
0.1969702478058919
 20
0.1808885871274492
 10
0.1971397638005785
 20
0.1801976097911941
 10
0.1976687236658334
 20
0.179329022143893
 10
0.1981221182246424
 20
0.178913609687692
 10
0.1972531117602474
 20
0.1784226683197989
 10
0.1967619345482154
 20
0.178233844319621
 10
0.1965730185619681
 20
0.1772519615838348
 10
0.1965352359087451
 20
0.1762323143922018
 10
0.1971397638005785
 20
0.1753637267449006
 10
0.1971397638005785
 20
0.1747972547443677
 10
0.1963085399894064
 20
0.1746461969209836
 10
0.1960440586967131
 20
0.1750993721120837
 10
0.1955906641379042
 20
0.1755903134799768
 10
0.194835005633178
 20
0.1755147845682847
 10
0.1936637379430002
 20
0.1756280796567697
 10
0.1928702967850511
 20
0.1756280796567697
 10
0.1923791195730191
 20
0.1748727853770067
 10
0.192454684879465
 20
0.1737776075527346
 10
0.1922764698980963
 20
0.1721204356314177
 10
0.1926431411631653
 20
0.1709209994101322
 10
0.1934098162082469
 20
0.1700214209534581
 10
0.1945356250286878
 20
0.1691013374160599
 10
0.195741370409982
 20
0.1683958731499233
 10
0.1968000762590505
 20
0.1679255642128146
  0
LWPOLYLINE
  5
252A
330
2
100
AcDbEntity
  8
Profilo
  6
Continuous
370
     0
100
AcDbPolyline
 90
       22
 70
   128
 43
0.0
 10
0.2020935973439919
 20
0.1664264543682217
 10
0.2010054841325053
 20
0.1654270472315114
 10
0.1999761883659883
 20
0.1648685552611351
 10
0.1984763557598417
 20
0.1642218802574931
 10
0.1965648064791685
 20
0.1639573311576914
 10
0.1951237940381258
 20
0.1639573311576914
 10
0.1930946098675108
 20
0.1641336972242255
 10
0.1922711737983251
 20
0.164662795423828
 10
0.1914771450915567
 20
0.1651331043609367
 10
0.1909477908069557
 20
0.1660443284643804
 10
0.1910948330593156
 20
0.1667497910095701
 10
0.1915065524539756
 20
0.1671025231426384
 10
0.1922123563533538
 20
0.1671025231426384
 10
0.1928593428077623
 20
0.1668085802720638
 10
0.1934769191796193
 20
0.1664264543682217
 10
0.1943885800561953
 20
0.1657503838728589
 10
0.1956825529650115
 20
0.1654270472315114
 10
0.196917708428858
 20
0.1654270472315114
 10
0.1983587235900341
 20
0.1656622008395923
 10
0.1996232864162988
 20
0.166367665105728
 10
0.2006819922653673
 20
0.1670143401093709
 10
0.2013289787197758
 20
0.1675434383089733
  0
LWPOLYLINE
  5
252B
330
2
100
AcDbEntity
  8
Profilo
  6
Continuous
370
     0
100
AcDbPolyline
 90
        6
 70
   128
 43
0.0
 10
0.1923888059681327
 20
0.1671613124051312
 10
0.1923888059681327
 20
0.1678667749503209
 10
0.1924476234131023
 20
0.168454662412417
 10
0.1926828904728508
 20
0.1690425481535662
 10
0.1929769749775707
 20
0.1693658865158607
 10
0.1934475118172003
 20
0.1696598293864353
  0
LWPOLYLINE
  5
252C
330
2
100
AcDbEntity
  8
Profilo
  6
Continuous
370
     0
100
AcDbPolyline
 90
       22
 70
   128
 43
0.0
 10
0.2008053611965608
 20
0.17264843758793
 10
0.2001873251221566
 20
0.1730145053374921
 10
0.2000957654311926
 20
0.1736322426212542
 10
0.1997524111498123
 20
0.1741127051442861
 10
0.19895125569348
 20
0.1743643763994322
 10
0.1983103296963347
 20
0.1740898268779709
 10
0.1984247820301725
 20
0.1731746583645384
 10
0.198539231643877
 20
0.1719163038097511
 10
0.199157267718282
 20
0.1710011370172655
 10
0.2003246673787349
 20
0.1701546067446715
 10
0.2014462871937062
 20
0.1701088484910942
 10
0.2024763445975808
 20
0.1706579475340177
 10
0.2035521845670705
 20
0.172030700304167
 10
0.2040328783848964
 20
0.1741355851315474
 10
0.204104012593999
 20
0.1764543870839095
 10
0.2036919912645285
 20
0.1774610721044967
 10
0.2029137230108049
 20
0.178948217927168
 10
0.2020210051433759
 20
0.1801379359620627
 10
0.2010138376622426
 20
0.1810759827418105
 10
0.199937997692752
 20
0.1820826677623977
 10
0.1987705980322991
 20
0.182608888539006
 10
0.197580308449105
 20
0.1832723857972915
  0
LWPOLYLINE
  5
252D
330
2
100
AcDbEntity
  8
Profilo
  6
Continuous
370
     0
100
AcDbPolyline
 90
        6
 70
   128
 43
0.0
 10
0.2042413548505773
 20
0.1768662130870489
 10
0.203898000569197
 20
0.1788795814072763
 10
0.2030739551901244
 20
0.1806183984850946
 10
0.201860775684189
 20
0.1819682712679817
 10
0.2003042418968735
 20
0.1831579893028756
 10
0.1975339002528031
 20
0.184972608922922
  0
LWPOLYLINE
  5
252E
330
2
100
AcDbEntity
  8
Profilo
  6
Continuous
370
     0
100
AcDbPolyline
 90
       27
 70
   128
 43
0.0
 10
0.2058007692591863
 20
0.1716836042717595
 10
0.2067156181321315
 20
0.174280524989177
 10
0.2070083697714742
 20
0.1764751055620328
 10
0.2069351818616385
 20
0.1804619282841289
 10
0.2067156181321315
 20
0.1824736272859919
 10
0.2060569269436112
 20
0.1837903752855157
 10
0.2056909873944328
 20
0.1837172230013086
 10
0.2054714236649258
 20
0.1820347101388524
 10
0.2055812055296793
 20
0.1807545374209596
 10
0.2051054868358817
 20
0.1806082328525438
 10
0.2047029533317854
 20
0.181486065425875
 10
0.2047761412416211
 20
0.1824370502834149
 10
0.2051420807907986
 20
0.183461187425161
 10
0.2052152687006343
 20
0.1851071232850394
 10
0.2048859231063747
 20
0.1861312604267864
 10
0.2042272319178544
 20
0.1865701775739259
 10
0.2036051346842511
 20
0.1864238712845632
 10
0.2030196314055657
 20
0.1856557679980168
 10
0.2030196314055657
 20
0.1847047831404778
 10
0.2030562253604835
 20
0.1841561384275003
 10
0.202690285811306
 20
0.1843390199984931
 10
0.2025073160367168
 20
0.1851071232850394
 10
0.2025805039465525
 20
0.1860215311400015
 10
0.2024707220817989
 20
0.1868627884317027
 10
0.2020681885777027
 20
0.1873382808604722
 10
0.2016290611186895
 20
0.1873748561421031
 10
0.2012265276145932
 20
0.1872285515736873
  0
LWPOLYLINE
  5
252F
330
2
100
AcDbEntity
  8
Profilo
  6
Continuous
370
     0
100
AcDbPolyline
 90
        6
 70
   128
 43
0.0
 10
0.2071913395460625
 20
0.1839001045723005
 10
0.2063496785829539
 20
0.1867530591449178
 10
0.2055446115747614
 20
0.1883624180022192
 10
0.2044102016924427
 20
0.1894231321465431
 10
0.2033489769998262
 20
0.1902643877172974
 10
0.2021779704424562
 20
0.1909227617170597
  0
LWPOLYLINE
  5
2530
330
2
100
AcDbEntity
  8
Profilo
  6
Continuous
370
     0
100
AcDbPolyline
 90
        3
 70
   128
 43
0.0
 10
0.2055812055296793
 20
0.1901180831488824
 10
0.2045565775121141
 20
0.1917640172878139
 10
0.203641728639169
 20
0.1930076130031306
  0
LWPOLYLINE
  5
2531
330
2
100
AcDbEntity
  8
Profilo
  6
Continuous
370
     0
100
AcDbPolyline
 90
        7
 70
   128
 43
0.0
 10
0.199110655511973
 20
0.1783831880800264
 10
0.1996537437502186
 20
0.1775870402449708
 10
0.2005226876515451
 20
0.177514662386808
 10
0.2010295736340855
 20
0.1779489260938902
 10
0.2009933659381133
 20
0.1785641318649596
 10
0.200377865028057
 20
0.1790707717092577
 10
0.1997623641180006
 20
0.1792517137732439
  0
LWPOLYLINE
  5
2532
330
2
100
AcDbEntity
  8
Profilo
  6
Continuous
370
     0
100
AcDbPolyline
 90
        5
 70
   128
 43
0.0
 10
0.2020071351830606
 20
0.1785279420754042
 10
0.2009933659381133
 20
0.1796859774803261
 10
0.2000882170609481
 20
0.1802288053932326
 10
0.199110655511973
 20
0.180590691242152
 10
0.198350329258296
 20
0.180590691242152
  0
LWPOLYLINE
  5
2533
330
2
100
AcDbEntity
  8
Profilo
  6
Continuous
370
     0
100
AcDbPolyline
 90
        5
 70
   128
 43
0.0
 10
0.1989296251925137
 20
0.1693360435779816
 10
0.1973003550375101
 20
0.1695893635001306
 10
0.1961779708650477
 20
0.1706026431887269
 10
0.195055583972451
 20
0.1721225644425681
 10
0.1937159617845572
 20
0.1740405578929902
  0
LWPOLYLINE
  5
2534
330
2
100
AcDbEntity
  8
Profilo
  6
Continuous
370
     0
100
AcDbPolyline
 90
        2
 70
   128
 43
0.0
 10
0.1950917916684232
 20
0.1728463361404069
 10
0.1947659360053422
 20
0.1748367074489918
  0
LWPOLYLINE
  5
2535
330
2
100
AcDbEntity
  8
Profilo
  6
Continuous
370
     0
100
AcDbPolyline
 90
        8
 70
   129
 43
0.0
 10
0.1954857132301069
 20
0.1659146310322628
 10
0.1966320236961441
 20
0.1659146310322628
 10
0.1977783314420478
 20
0.1662726808908399
 10
0.1979574413473124
 20
0.166845559976184
 10
0.1970977105378842
 20
0.1673826330431023
 10
0.1961663341342705
 20
0.1671319995188565
 10
0.1957364687295569
 20
0.1667739496602794
 10
0.1951991362936305
 20
0.1663442894857976
  0
LWPOLYLINE
  5
2536
330
2
100
AcDbEntity
  8
Profilo
  6
Continuous
370
     0
100
AcDbPolyline
 90
       22
 70
   128
 43
0.0
 10
0.2116736406810145
 20
0.1735687431274604
 10
0.2109377085838597
 20
0.1799437563755477
 10
0.2104470862790457
 20
0.1839649188694237
 10
0.209858340601323
 20
0.1874466574830986
 10
0.2098828898054503
 20
0.1892572810647532
 10
0.2098490159839541
 20
0.1906623101915095
 10
0.2098828898054503
 20
0.1922196895726724
 10
0.2098998253561322
 20
0.1934554377707336
 10
0.2099506347283102
 20
0.1945219050400979
 10
0.2104925913910522
 20
0.1957068680990765
 10
0.2107133819007318
 20
0.1963745386532718
 10
0.2109674260414887
 20
0.1962729700960537
 10
0.2114585733320526
 20
0.1965438178610208
 10
0.2116618081006305
 20
0.1971193712976404
 10
0.2119835971642472
 20
0.1980165593592558
 10
0.2119327877920683
 20
0.1987613937245722
 10
0.2116618081006305
 20
0.1991168828143603
 10
0.21135695730783
 20
0.1991338100467557
 10
0.2110521065150295
 20
0.1989476018856635
 10
0.2109335522199915
 20
0.1983212633099622
 10
0.2108488717464507
 20
0.1974579331550323
 10
0.2107472557222281
 20
0.1967130987897168
  0
LWPOLYLINE
  5
2537
330
2
100
AcDbEntity
  8
Profilo
  6
Continuous
370
     0
100
AcDbPolyline
 90
        7
 70
   128
 43
0.0
 10
0.2117967430391314
 20
0.1964730559718717
 10
0.2126750605202281
 20
0.1967784121614029
 10
0.2134006289090469
 20
0.1967784121614029
 10
0.2139352575323514
 20
0.1961295326249521
 10
0.2137825057199401
 20
0.1955188219668375
 10
0.2135533807214573
 20
0.1947554357953782
 10
0.2132096891435327
 20
0.194450079605847
  0
LWPOLYLINE
  5
2538
330
2
100
AcDbEntity
  8
Profilo
  6
Continuous
370
     0
100
AcDbPolyline
 90
      102
 70
   128
 43
0.0
 10
0.211071177370447
 20
0.1875795937370306
 10
0.2114148662282382
 20
0.1884574899853932
 10
0.211491242134443
 20
0.1892590467561357
 10
0.2113384903220326
 20
0.1898697556933033
 10
0.211109365323549
 20
0.1901751101618867
 10
0.2109566135111385
 20
0.190709481342382
 10
0.2109184255580356
 20
0.1910530064102485
 10
0.2109184255580356
 20
0.191892732059328
 10
0.2110329894173442
 20
0.1926179510733981
 10
0.211491242134443
 20
0.1932668288889019
 10
0.2120258707577485
 20
0.1938393706686803
 10
0.2124841234748473
 20
0.1941065562589275
 10
0.2129041882388443
 20
0.1941447251372636
 10
0.2135151927683554
 20
0.1940683856596443
 10
0.2139352575323514
 20
0.1935340144791491
 10
0.2139352575323514
 20
0.1929614744203176
 10
0.2138970695792486
 20
0.1922744260055307
 10
0.2140498186715265
 20
0.1920072404152835
 10
0.2145844472948311
 20
0.1928469660643621
 10
0.2149663268258586
 20
0.1934195078441405
 10
0.2154245795429583
 20
0.1939157084253526
 10
0.2159592054461294
 20
0.1941828940155998
 10
0.2166465858818463
 20
0.193992047902972
 10
0.2169520867865347
 20
0.1936866934343877
 10
0.2169520867865347
 20
0.1933813372448574
 10
0.2175249033629421
 20
0.193304999488185
 10
0.2180595319862466
 20
0.1932668288889019
 10
0.2186323485626549
 20
0.1931904911322295
 10
0.2187850976549319
 20
0.1927324577084066
 10
0.2187469097018291
 20
0.1921599176495752
 10
0.2186323485626549
 20
0.1916255464690799
 10
0.2184414087971407
 20
0.1909384980542938
 10
0.2185941606095521
 20
0.1905186352297541
 10
0.2186705365157568
 20
0.1900606018059312
 10
0.2184414087971407
 20
0.1896025701030552
 10
0.2181740958455551
 20
0.1894117239904274
 10
0.2181157353829992
 20
0.189082019846043
 10
0.2182635691941848
 20
0.1889194798658318
 10
0.2184705387059502
 20
0.1889194798658318
 10
0.218736641198163
 20
0.1887126117388069
 10
0.2188105581037558
 20
0.1882693216659339
 10
0.218899258934494
 20
0.1877521496274239
 10
0.218899258934494
 20
0.1871463195743397
 10
0.218544455611543
 20
0.1867621336972185
 10
0.2182487852690393
 20
0.1868655677607309
 10
0.2181009514578547
 20
0.1867178055504039
 10
0.2182931370444747
 20
0.1860676456295591
 10
0.2183227048947647
 20
0.1857277896201985
 10
0.218574023461833
 20
0.1854027096597761
 10
0.2187662063283204
 20
0.1854913676743512
 10
0.2190175248953887
 20
0.1860085397128603
 10
0.2191505775015614
 20
0.1863631734921061
 10
0.2193575442931943
 20
0.1869394497263679
 10
0.2196679985608434
 20
0.1871019897065791
 10
0.2199636661832136
 20
0.1869542257753052
 10
0.2203184695061646
 20
0.1865257117513703
 10
0.2204663033173493
 20
0.1861563036441343
 10
0.2208063227151558
 20
0.1858903296004097
 10
0.221279394719134
 20
0.1863483957222209
 10
0.2218263809085725
 20
0.1865995937170073
 10
0.2223881537432899
 20
0.1864075016389197
 10
0.2227725221963974
 20
0.1861119754973197
 10
0.2227873061215428
 20
0.1857868955368973
 10
0.2228043450372941
 20
0.1851146214501016
 10
0.2225973755255286
 20
0.1848486474063779
 10
0.2223164918283038
 20
0.184627001509468
 10
0.222286923978013
 20
0.1842280413043555
 10
0.2224643256394885
 20
0.1837995272804207
 10
0.2227304281317022
 20
0.1836517633491468
 10
0.2226712924311214
 20
0.1831198152616995
 10
0.2224938907696459
 20
0.1826765251888265
 10
0.2221095223165375
 20
0.1824253271940401
 10
0.2217547189935864
 20
0.1823218931305277
 10
0.2214886165013727
 20
0.1822332351159534
 10
0.2212225140091599
 20
0.1820706951357422
 10
0.2215921012572564
 20
0.1818638252877704
 10
0.2219173367299165
 20
0.1815239692784098
 10
0.2221686552969848
 20
0.1811397851222356
 10
0.2223017079031584
 20
0.1808885871274492
 10
0.2221321919084718
 20
0.1801976097911941
 10
0.2216032320432169
 20
0.179329022143893
 10
0.2211498374844079
 20
0.178913609687692
 10
0.2220188439488029
 20
0.1784226683197989
 10
0.2225100211608348
 20
0.178233844319621
 10
0.2226989371470822
 20
0.1772519615838348
 10
0.2227367198003052
 20
0.1762323143922018
 10
0.2221321919084718
 20
0.1753637267449006
 10
0.2221321919084718
 20
0.1747972547443677
 10
0.2229634157196429
 20
0.1746461969209836
 10
0.2232278970123371
 20
0.1750993721120837
 10
0.2236812915711461
 20
0.1755903134799768
 10
0.2244369500758723
 20
0.1755147845682847
 10
0.2256082177660501
 20
0.1756280796567697
 10
0.2264016589239992
 20
0.1756280796567697
 10
0.2268928361360312
 20
0.1748727853770067
 10
0.2268172708295852
 20
0.1737776075527346
 10
0.226995485810954
 20
0.1721204356314177
 10
0.226628814545885
 20
0.1709209994101322
 10
0.2258621395008025
 20
0.1700214209534581
 10
0.2247363306803625
 20
0.1691013374160599
 10
0.2235305852990683
 20
0.1683958731499233
 10
0.2224718794499998
 20
0.1679255642128146
  0
LWPOLYLINE
  5
2539
330
2
100
AcDbEntity
  8
Profilo
  6
Continuous
370
     0
100
AcDbPolyline
 90
       22
 70
   128
 43
0.0
 10
0.2171783583650584
 20
0.1664264543682217
 10
0.218266471576545
 20
0.1654270472315114
 10
0.219295767343062
 20
0.1648685552611351
 10
0.2207955999492086
 20
0.1642218802574931
 10
0.2227071492298818
 20
0.1639573311576914
 10
0.2241481616709244
 20
0.1639573311576914
 10
0.2261773458415386
 20
0.1641336972242255
 10
0.2270007819107251
 20
0.164662795423828
 10
0.2277948106174936
 20
0.1651331043609367
 10
0.2283241649020937
 20
0.1660443284643804
 10
0.2281771226497347
 20
0.1667497910095701
 10
0.2277654032550747
 20
0.1671025231426384
 10
0.2270595993556956
 20
0.1671025231426384
 10
0.2264126129012871
 20
0.1668085802720638
 10
0.225795036529431
 20
0.1664264543682217
 10
0.224883375652855
 20
0.1657503838728589
 10
0.2235894027440388
 20
0.1654270472315114
 10
0.2223542472801923
 20
0.1654270472315114
 10
0.2209132321190161
 20
0.1656622008395923
 10
0.2196486692927506
 20
0.166367665105728
 10
0.218589963443683
 20
0.1670143401093709
 10
0.2179429769892744
 20
0.1675434383089733
  0
LWPOLYLINE
  5
253A
330
2
100
AcDbEntity
  8
Profilo
  6
Continuous
370
     0
100
AcDbPolyline
 90
        6
 70
   128
 43
0.0
 10
0.2268831497409176
 20
0.1671613124051312
 10
0.2268831497409176
 20
0.1678667749503209
 10
0.2268243322959471
 20
0.168454662412417
 10
0.2265890652361986
 20
0.1690425481535662
 10
0.2262949807314796
 20
0.1693658865158607
 10
0.22582444389185
 20
0.1696598293864353
  0
LWPOLYLINE
  5
253B
330
2
100
AcDbEntity
  8
Profilo
  6
Continuous
370
     0
100
AcDbPolyline
 90
       22
 70
   128
 43
0.0
 10
0.2184665945124895
 20
0.17264843758793
 10
0.2190846305868936
 20
0.1730145053374921
 10
0.2191761902778577
 20
0.1736322426212542
 10
0.2195195445592379
 20
0.1741127051442861
 10
0.2203207000155702
 20
0.1743643763994322
 10
0.2209616260127156
 20
0.1740898268779709
 10
0.2208471736788777
 20
0.1731746583645384
 10
0.2207327240651733
 20
0.1719163038097511
 10
0.2201146879907683
 20
0.1710011370172655
 10
0.2189472883303154
 20
0.1701546067446715
 10
0.2178256685153441
 20
0.1701088484910942
 10
0.2167956111114695
 20
0.1706579475340177
 10
0.2157197711419798
 20
0.172030700304167
 10
0.2152390773241539
 20
0.1741355851315474
 10
0.2151679431150513
 20
0.1764543870839095
 10
0.2155799644445209
 20
0.1774610721044967
 10
0.2163582326982454
 20
0.178948217927168
 10
0.2172509505656743
 20
0.1801379359620627
 10
0.2182581180468077
 20
0.1810759827418105
 10
0.2193339580162974
 20
0.1820826677623977
 10
0.2205013576767503
 20
0.182608888539006
 10
0.2216916472599453
 20
0.1832723857972915
  0
LWPOLYLINE
  5
253C
330
2
100
AcDbEntity
  8
Profilo
  6
Continuous
370
     0
100
AcDbPolyline
 90
        6
 70
   128
 43
0.0
 10
0.215030600858473
 20
0.1768662130870489
 10
0.2153739551398532
 20
0.1788795814072763
 10
0.2161980005189259
 20
0.1806183984850946
 10
0.2174111800248613
 20
0.1819682712679817
 10
0.2189677138121768
 20
0.1831579893028756
 10
0.2217380554562471
 20
0.184972608922922
  0
LWPOLYLINE
  5
253D
330
2
100
AcDbEntity
  8
Profilo
  6
Continuous
370
     0
100
AcDbPolyline
 90
       27
 70
   128
 43
0.0
 10
0.213471186449864
 20
0.1716836042717595
 10
0.2125563375769188
 20
0.174280524989177
 10
0.2122635859375761
 20
0.1764751055620328
 10
0.2123367738474118
 20
0.1804619282841289
 10
0.2125563375769188
 20
0.1824736272859919
 10
0.2132150287654391
 20
0.1837903752855157
 10
0.2135809683146175
 20
0.1837172230013086
 10
0.2138005320441236
 20
0.1820347101388524
 10
0.2136907501793701
 20
0.1807545374209596
 10
0.2141664688731686
 20
0.1806082328525438
 10
0.2145690023772648
 20
0.181486065425875
 10
0.2144958144674292
 20
0.1824370502834149
 10
0.2141298749182516
 20
0.183461187425161
 10
0.214056687008416
 20
0.1851071232850394
 10
0.2143860326026756
 20
0.1861312604267864
 10
0.2150447237911959
 20
0.1865701775739259
 10
0.2156668210247992
 20
0.1864238712845632
 10
0.2162523243034846
 20
0.1856557679980168
 10
0.2162523243034846
 20
0.1847047831404778
 10
0.2162157303485659
 20
0.1841561384275003
 10
0.2165816698977443
 20
0.1843390199984931
 10
0.2167646396723335
 20
0.1851071232850394
 10
0.2166914517624978
 20
0.1860215311400015
 10
0.2168012336272513
 20
0.1868627884317027
 10
0.2172037671313476
 20
0.1873382808604722
 10
0.2176428945903608
 20
0.1873748561421031
 10
0.218045428094457
 20
0.1872285515736873
  0
LWPOLYLINE
  5
253E
330
2
100
AcDbEntity
  8
Profilo
  6
Continuous
370
     0
100
AcDbPolyline
 90
        6
 70
   128
 43
0.0
 10
0.2120806161629869
 20
0.1839001045723005
 10
0.2129222771260963
 20
0.1867530591449178
 10
0.2137273441342888
 20
0.1883624180022192
 10
0.2148617540166067
 20
0.1894231321465431
 10
0.2159229787092241
 20
0.1902643877172974
 10
0.2170939852665941
 20
0.1909227617170597
  0
LWPOLYLINE
  5
253F
330
2
100
AcDbEntity
  8
Profilo
  6
Continuous
370
     0
100
AcDbPolyline
 90
        3
 70
   128
 43
0.0
 10
0.2136907501793701
 20
0.1901180831488824
 10
0.2147153781969362
 20
0.1917640172878139
 10
0.2156302270698813
 20
0.1930076130031306
  0
LWPOLYLINE
  5
2540
330
2
100
AcDbEntity
  8
Profilo
  6
Continuous
370
     0
100
AcDbPolyline
 90
        7
 70
   128
 43
0.0
 10
0.2201613001970772
 20
0.1783831880800264
 10
0.2196182119588317
 20
0.1775870402449708
 10
0.2187492680575052
 20
0.177514662386808
 10
0.2182423820749648
 20
0.1779489260938902
 10
0.2182785897709369
 20
0.1785641318649596
 10
0.2188940906809933
 20
0.1790707717092577
 10
0.2195095915910488
 20
0.1792517137732439
  0
LWPOLYLINE
  5
2541
330
2
100
AcDbEntity
  8
Profilo
  6
Continuous
370
     0
100
AcDbPolyline
 90
        5
 70
   128
 43
0.0
 10
0.2172648205259897
 20
0.1785279420754042
 10
0.2182785897709369
 20
0.1796859774803261
 10
0.2191837386481021
 20
0.1802288053932326
 10
0.2201613001970772
 20
0.180590691242152
 10
0.2209216264507543
 20
0.180590691242152
  0
LWPOLYLINE
  5
2542
330
2
100
AcDbEntity
  8
Profilo
  6
Continuous
370
     0
100
AcDbPolyline
 90
        5
 70
   128
 43
0.0
 10
0.2203423305165366
 20
0.1693360435779816
 10
0.2219716006715402
 20
0.1695893635001306
 10
0.2230939848440026
 20
0.1706026431887269
 10
0.2242163717365992
 20
0.1721225644425681
 10
0.2255559939244931
 20
0.1740405578929902
  0
LWPOLYLINE
  5
2543
330
2
100
AcDbEntity
  8
Profilo
  6
Continuous
370
     0
100
AcDbPolyline
 90
        2
 70
   128
 43
0.0
 10
0.2241801640406271
 20
0.1728463361404069
 10
0.2245060197037081
 20
0.1748367074489918
  0
LWPOLYLINE
  5
2544
330
2
100
AcDbEntity
  8
Profilo
  6
Continuous
370
     0
100
AcDbPolyline
 90
        8
 70
   129
 43
0.0
 10
0.2237862424789434
 20
0.1659146310322628
 10
0.2226399320129062
 20
0.1659146310322628
 10
0.2214936242670025
 20
0.1662726808908399
 10
0.2213145143617379
 20
0.166845559976184
 10
0.2221742451711652
 20
0.1673826330431023
 10
0.2231056215747797
 20
0.1671319995188565
 10
0.2235354869794934
 20
0.1667739496602794
 10
0.2240728194154189
 20
0.1663442894857976
  0
LWPOLYLINE
  5
2545
330
2
100
AcDbEntity
  8
Profilo
  6
Continuous
370
     0
100
AcDbPolyline
 90
       22
 70
   128
 43
0.0
 10
0.2075983150280358
 20
0.1530930596161619
 10
0.2083342471251905
 20
0.1467180463680746
 10
0.2088248694300037
 20
0.1426968838741978
 10
0.2094136151077273
 20
0.1392151452605237
 10
0.2093890659035991
 20
0.1374045216788691
 10
0.2094229397250962
 20
0.1359994925521128
 10
0.2093890659035991
 20
0.1344421131709499
 10
0.2093721303529181
 20
0.1332063649728887
 10
0.2093213209807401
 20
0.1321398977035244
 10
0.208779364317998
 20
0.1309549346445458
 10
0.2085585738083184
 20
0.1302872640903505
 10
0.2083045296675616
 20
0.1303888326475686
 10
0.2078133823769976
 20
0.1301179848826015
 10
0.2076101476084189
 20
0.1295424314459819
 10
0.2072883585448031
 20
0.1286452433843666
 10
0.2073391679169811
 20
0.1279004090190501
 10
0.2076101476084189
 20
0.127544919929262
 10
0.2079149984012194
 20
0.1275279926968666
 10
0.2082198491940208
 20
0.1277142008579579
 10
0.2083384034890587
 20
0.1283405394336601
 10
0.2084230839625987
 20
0.12920386958859
 10
0.2085246999868222
 20
0.1299487039539056
  0
LWPOLYLINE
  5
2546
330
2
100
AcDbEntity
  8
Profilo
  6
Continuous
370
     0
100
AcDbPolyline
 90
        7
 70
   128
 43
0.0
 10
0.207475212669918
 20
0.1301887467717506
 10
0.2065968951888222
 20
0.1298833905822194
 10
0.2058713268000034
 20
0.1298833905822194
 10
0.2053366981766989
 20
0.1305322701186702
 10
0.2054894499891093
 20
0.1311429807767848
 10
0.205718574987592
 20
0.1319063669482441
 10
0.2060622665655176
 20
0.1322117231377753
  0
LWPOLYLINE
  5
2547
330
2
100
AcDbEntity
  8
Profilo
  6
Continuous
370
     0
100
AcDbPolyline
 90
      102
 70
   128
 43
0.0
 10
0.2082007783386033
 20
0.1390822090065917
 10
0.207857089480812
 20
0.1382043127582291
 10
0.2077807135746073
 20
0.1374027559874866
 10
0.2079334653870177
 20
0.136792047050319
 10
0.2081625903855004
 20
0.1364866925817356
 10
0.2083153421979118
 20
0.1359523214012404
 10
0.2083535301510146
 20
0.1356087963333739
 10
0.2083535301510146
 20
0.1347690706842943
 10
0.2082389662917061
 20
0.1340438516702243
 10
0.2077807135746073
 20
0.1333949738547204
 10
0.2072460849513018
 20
0.132822432074942
 10
0.206787832234202
 20
0.1325552464846948
 10
0.206367767470206
 20
0.1325170776063587
 10
0.2057567629406949
 20
0.132593417083978
 10
0.2053366981766989
 20
0.1331277882644732
 10
0.2053366981766989
 20
0.1337003283233047
 10
0.2053748861298008
 20
0.1343873767380916
 10
0.2052221370375238
 20
0.1346545623283388
 10
0.2046875084142183
 20
0.1338148366792602
 10
0.2043056288831917
 20
0.1332422948994818
 10
0.2038473761660919
 20
0.1327460943182697
 10
0.2033127502629199
 20
0.1324789087280225
 10
0.202625369827204
 20
0.1326697548406504
 10
0.2023198689225156
 20
0.1329751093092346
 10
0.2023198689225156
 20
0.1332804654987649
 10
0.2017470523461082
 20
0.1333568032554373
 10
0.2012124237228028
 20
0.1333949738547204
 10
0.2006396071463954
 20
0.1334713116113928
 10
0.2004868580541184
 20
0.1339293450352157
 10
0.2005250460072203
 20
0.1345018850940471
 10
0.2006396071463954
 20
0.1350362562745415
 10
0.2008305469119096
 20
0.1357233046893285
 10
0.2006777950994982
 20
0.1361431675138682
 10
0.2006014191932934
 20
0.1366012009376911
 10
0.2008305469119096
 20
0.1370592326405671
 10
0.2010978598634951
 20
0.1372500787531949
 10
0.2011562203260502
 20
0.1375797828975793
 10
0.2010083865148655
 20
0.1377423228777905
 10
0.2008014170031001
 20
0.1377423228777905
 10
0.2005353145108863
 20
0.1379491910048154
 10
0.2004613976052945
 20
0.1383924810776884
 10
0.2003726967745563
 20
0.1389096531161984
 10
0.2003726967745563
 20
0.1395154831692826
 10
0.2007275000975073
 20
0.1398996690464038
 10
0.2010231704400109
 20
0.1397962349828914
 10
0.2011710042511956
 20
0.1399439971932184
 10
0.2009788186645747
 20
0.1405941571140632
 10
0.2009492508142847
 20
0.1409340131234238
 10
0.2006979322472173
 20
0.1412590930838462
 10
0.200505749380729
 20
0.1411704350692711
 10
0.2002544308136616
 20
0.140653263030762
 10
0.200121378207488
 20
0.1402986292515163
 10
0.199914411415856
 20
0.1397223530172544
 10
0.1996039571482069
 20
0.1395598130370432
 10
0.1993082895258367
 20
0.1397075769683171
 10
0.1989534862028857
 20
0.140136090992252
 10
0.1988056523917001
 20
0.1405054990994881
 10
0.1984656329938945
 20
0.1407714731432126
 10
0.1979925609899162
 20
0.1403134070214014
 10
0.1974455748004777
 20
0.140062209026615
 10
0.1968838019657604
 20
0.1402543011047026
 10
0.1964994335126529
 20
0.1405498272463026
 10
0.1964846495875074
 20
0.140874907206725
 10
0.1964676106717553
 20
0.1415471812935207
 10
0.1966745801835217
 20
0.1418131553372444
 10
0.1969554638807465
 20
0.1420348012341543
 10
0.1969850317310373
 20
0.1424337614392668
 10
0.1968076300695618
 20
0.1428622754632016
 10
0.1965415275773481
 20
0.1430100393944755
 10
0.1966006632779289
 20
0.1435419874819228
 10
0.1967780649394044
 20
0.1439852775547958
 10
0.1971624333925128
 20
0.1442364755495822
 10
0.1975172367154638
 20
0.1443399096130946
 10
0.1977833392076767
 20
0.1444285676276689
 10
0.1980494416998895
 20
0.1445911076078801
 10
0.1976798544517939
 20
0.1447979774558519
 10
0.1973546189791338
 20
0.1451378334652125
 10
0.1971033004120655
 20
0.1455220176213867
 10
0.1969702478058919
 20
0.1457732156161731
 10
0.1971397638005785
 20
0.1464641929524282
 10
0.1976687236658334
 20
0.1473327805997293
 10
0.1981221182246424
 20
0.1477481930559303
 10
0.1972531117602474
 20
0.1482391344238234
 10
0.1967619345482154
 20
0.1484279584240014
 10
0.1965730185619681
 20
0.1494098411597875
 10
0.1965352359087451
 20
0.1504294883514206
 10
0.1971397638005785
 20
0.1512980759987217
 10
0.1971397638005785
 20
0.1518645479992546
 10
0.1963085399894064
 20
0.1520156058226387
 10
0.1960440586967131
 20
0.1515624306315386
 10
0.1955906641379042
 20
0.1510714892636455
 10
0.194835005633178
 20
0.1511470181753376
 10
0.1936637379430002
 20
0.1510337230868526
 10
0.1928702967850511
 20
0.1510337230868526
 10
0.1923791195730191
 20
0.1517890173666156
 10
0.192454684879465
 20
0.1528841951908877
 10
0.1922764698980963
 20
0.1545413671122047
 10
0.1926431411631653
 20
0.1557408033334902
 10
0.1934098162082469
 20
0.1566403817901643
 10
0.1945356250286878
 20
0.1575604653275624
 10
0.195741370409982
 20
0.158265929593699
 10
0.1968000762590505
 20
0.1587362385308078
  0
LWPOLYLINE
  5
2548
330
2
100
AcDbEntity
  8
Profilo
  6
Continuous
370
     0
100
AcDbPolyline
 90
       22
 70
   128
 43
0.0
 10
0.2020935973439919
 20
0.1602353483754006
 10
0.2010054841325053
 20
0.161234755512111
 10
0.1999761883659883
 20
0.1617932474824872
 10
0.1984763557598417
 20
0.1624399224861293
 10
0.1965648064791685
 20
0.1627044715859309
 10
0.1951237940381258
 20
0.1627044715859309
 10
0.1930946098675108
 20
0.1625281055193968
 10
0.1922711737983251
 20
0.1619990073197943
 10
0.1914771450915567
 20
0.1615286983826856
 10
0.1909477908069557
 20
0.1606174742792419
 10
0.1910948330593156
 20
0.1599120117340522
 10
0.1915065524539756
 20
0.1595592796009839
 10
0.1922123563533538
 20
0.1595592796009839
 10
0.1928593428077623
 20
0.1598532224715585
 10
0.1934769191796193
 20
0.1602353483754006
 10
0.1943885800561953
 20
0.1609114188707634
 10
0.1956825529650115
 20
0.161234755512111
 10
0.196917708428858
 20
0.161234755512111
 10
0.1983587235900341
 20
0.1609996019040301
 10
0.1996232864162988
 20
0.1602941376378943
 10
0.2006819922653673
 20
0.1596474626342514
 10
0.2013289787197758
 20
0.159118364434649
  0
LWPOLYLINE
  5
2549
330
2
100
AcDbEntity
  8
Profilo
  6
Continuous
370
     0
100
AcDbPolyline
 90
        6
 70
   128
 43
0.0
 10
0.1923888059681327
 20
0.1595004903384911
 10
0.1923888059681327
 20
0.1587950277933006
 10
0.1924476234131023
 20
0.1582071403312053
 10
0.1926828904728508
 20
0.1576192545900561
 10
0.1929769749775707
 20
0.1572959162277616
 10
0.1934475118172003
 20
0.157001973357187
  0
LWPOLYLINE
  5
254A
330
2
100
AcDbEntity
  8
Profilo
  6
Continuous
370
     0
100
AcDbPolyline
 90
       22
 70
   128
 43
0.0
 10
0.2008053611965608
 20
0.1540133651556923
 10
0.2001873251221566
 20
0.1536472974061303
 10
0.2000957654311926
 20
0.1530295601223681
 10
0.1997524111498123
 20
0.1525490975993362
 10
0.19895125569348
 20
0.1522974263441901
 10
0.1983103296963347
 20
0.1525719758656514
 10
0.1984247820301725
 20
0.1534871443790839
 10
0.198539231643877
 20
0.1547454989338712
 10
0.199157267718282
 20
0.1556606657263568
 10
0.2003246673787349
 20
0.1565071959989508
 10
0.2014462871937062
 20
0.1565529542525281
 10
0.2024763445975808
 20
0.1560038552096046
 10
0.2035521845670705
 20
0.1546311024394553
 10
0.2040328783848964
 20
0.152526217612075
 10
0.204104012593999
 20
0.1502074156597128
 10
0.2036919912645285
 20
0.1492007306391256
 10
0.2029137230108049
 20
0.1477135848164544
 10
0.2020210051433759
 20
0.1465238667815596
 10
0.2010138376622426
 20
0.1455858200018119
 10
0.199937997692752
 20
0.1445791349812246
 10
0.1987705980322991
 20
0.1440529142046163
 10
0.197580308449105
 20
0.1433894169463308
  0
LWPOLYLINE
  5
254B
330
2
100
AcDbEntity
  8
Profilo
  6
Continuous
370
     0
100
AcDbPolyline
 90
        6
 70
   128
 43
0.0
 10
0.2042413548505773
 20
0.1497955896565735
 10
0.203898000569197
 20
0.147782221336346
 10
0.2030739551901244
 20
0.1460434042585277
 10
0.201860775684189
 20
0.1446935314756406
 10
0.2003042418968735
 20
0.1435038134407467
 10
0.1975339002528031
 20
0.1416891938207003
  0
LWPOLYLINE
  5
254C
330
2
100
AcDbEntity
  8
Profilo
  6
Continuous
370
     0
100
AcDbPolyline
 90
       27
 70
   128
 43
0.0
 10
0.2058007692591863
 20
0.1549781984718628
 10
0.2067156181321315
 20
0.1523812777544453
 10
0.2070083697714742
 20
0.1501866971815895
 10
0.2069351818616385
 20
0.1461998744594934
 10
0.2067156181321315
 20
0.1441881754576304
 10
0.2060569269436112
 20
0.1428714274581067
 10
0.2056909873944328
 20
0.1429445797423137
 10
0.2054714236649258
 20
0.1446270926047699
 10
0.2055812055296793
 20
0.1459072653226627
 10
0.2051054868358817
 20
0.1460535698910785
 10
0.2047029533317854
 20
0.1451757373177465
 10
0.2047761412416211
 20
0.1442247524602074
 10
0.2051420807907986
 20
0.1432006153184604
 10
0.2052152687006343
 20
0.1415546794585829
 10
0.2048859231063747
 20
0.1405305423168359
 10
0.2042272319178544
 20
0.1400916251696964
 10
0.2036051346842511
 20
0.1402379314590592
 10
0.2030196314055657
 20
0.1410060347456055
 10
0.2030196314055657
 20
0.1419570196031445
 10
0.2030562253604835
 20
0.142505664316122
 10
0.202690285811306
 20
0.1423227827451292
 10
0.2025073160367168
 20
0.1415546794585829
 10
0.2025805039465525
 20
0.1406402716036208
 10
0.2024707220817989
 20
0.1397990143119197
 10
0.2020681885777027
 20
0.1393235218831501
 10
0.2016290611186895
 20
0.1392869466015192
 10
0.2012265276145932
 20
0.139433251169935
  0
LWPOLYLINE
  5
254D
330
2
100
AcDbEntity
  8
Profilo
  6
Continuous
370
     0
100
AcDbPolyline
 90
        6
 70
   128
 43
0.0
 10
0.2071913395460625
 20
0.1427616981713218
 10
0.2063496785829539
 20
0.1399087435987045
 10
0.2055446115747614
 20
0.1382993847414031
 10
0.2044102016924427
 20
0.1372386705970792
 10
0.2033489769998262
 20
0.136397415026325
 10
0.2021779704424562
 20
0.1357390410265626
  0
LWPOLYLINE
  5
254E
330
2
100
AcDbEntity
  8
Profilo
  6
Continuous
370
     0
100
AcDbPolyline
 90
        3
 70
   128
 43
0.0
 10
0.2055812055296793
 20
0.1365437195947399
 10
0.2045565775121141
 20
0.1348977854558084
 10
0.203641728639169
 20
0.1336541897404917
  0
LWPOLYLINE
  5
254F
330
2
100
AcDbEntity
  8
Profilo
  6
Continuous
370
     0
100
AcDbPolyline
 90
        7
 70
   128
 43
0.0
 10
0.199110655511973
 20
0.1482786146635959
 10
0.1996537437502186
 20
0.1490747624986515
 10
0.2005226876515451
 20
0.1491471403568143
 10
0.2010295736340855
 20
0.1487128766497321
 10
0.2009933659381133
 20
0.1480976708786628
 10
0.200377865028057
 20
0.1475910310343647
 10
0.1997623641180006
 20
0.1474100889703784
  0
LWPOLYLINE
  5
2550
330
2
100
AcDbEntity
  8
Profilo
  6
Continuous
370
     0
100
AcDbPolyline
 90
        5
 70
   128
 43
0.0
 10
0.2020071351830606
 20
0.1481338606682181
 10
0.2009933659381133
 20
0.1469758252632962
 10
0.2000882170609481
 20
0.1464329973503897
 10
0.199110655511973
 20
0.1460711115014703
 10
0.198350329258296
 20
0.1460711115014703
  0
LWPOLYLINE
  5
2551
330
2
100
AcDbEntity
  8
Profilo
  6
Continuous
370
     0
100
AcDbPolyline
 90
        5
 70
   128
 43
0.0
 10
0.1989296251925137
 20
0.1573257591656407
 10
0.1973003550375101
 20
0.1570724392434917
 10
0.1961779708650477
 20
0.1560591595548955
 10
0.195055583972451
 20
0.1545392383010542
 10
0.1937159617845572
 20
0.1526212448506321
  0
LWPOLYLINE
  5
2552
330
2
100
AcDbEntity
  8
Profilo
  6
Continuous
370
     0
100
AcDbPolyline
 90
        2
 70
   128
 43
0.0
 10
0.1950917916684232
 20
0.1538154666032154
 10
0.1947659360053422
 20
0.1518250952946305
  0
LWPOLYLINE
  5
2553
330
2
100
AcDbEntity
  8
Profilo
  6
Continuous
370
     0
100
AcDbPolyline
 90
        8
 70
   129
 43
0.0
 10
0.1954857132301069
 20
0.1607471717113595
 10
0.1966320236961441
 20
0.1607471717113595
 10
0.1977783314420478
 20
0.1603891218527824
 10
0.1979574413473124
 20
0.1598162427674383
 10
0.1970977105378842
 20
0.15927916970052
 10
0.1961663341342705
 20
0.1595298032247658
 10
0.1957364687295569
 20
0.159887853083343
 10
0.1951991362936305
 20
0.1603175132578247
  0
LWPOLYLINE
  5
2554
330
2
100
AcDbEntity
  8
Profilo
  6
Continuous
370
     0
100
AcDbPolyline
 90
       22
 70
   128
 43
0.0
 10
0.2116736406810145
 20
0.1530930596161619
 10
0.2109377085838597
 20
0.1467180463680746
 10
0.2104470862790457
 20
0.1426968838741978
 10
0.209858340601323
 20
0.1392151452605237
 10
0.2098828898054503
 20
0.1374045216788691
 10
0.2098490159839541
 20
0.1359994925521128
 10
0.2098828898054503
 20
0.1344421131709499
 10
0.2098998253561322
 20
0.1332063649728887
 10
0.2099506347283102
 20
0.1321398977035244
 10
0.2104925913910522
 20
0.1309549346445458
 10
0.2107133819007318
 20
0.1302872640903505
 10
0.2109674260414887
 20
0.1303888326475686
 10
0.2114585733320526
 20
0.1301179848826015
 10
0.2116618081006305
 20
0.1295424314459819
 10
0.2119835971642472
 20
0.1286452433843666
 10
0.2119327877920683
 20
0.1279004090190501
 10
0.2116618081006305
 20
0.127544919929262
 10
0.21135695730783
 20
0.1275279926968666
 10
0.2110521065150295
 20
0.1277142008579579
 10
0.2109335522199915
 20
0.1283405394336601
 10
0.2108488717464507
 20
0.12920386958859
 10
0.2107472557222281
 20
0.1299487039539056
  0
LWPOLYLINE
  5
2555
330
2
100
AcDbEntity
  8
Profilo
  6
Continuous
370
     0
100
AcDbPolyline
 90
        7
 70
   128
 43
0.0
 10
0.2117967430391314
 20
0.1301887467717506
 10
0.2126750605202281
 20
0.1298833905822194
 10
0.2134006289090469
 20
0.1298833905822194
 10
0.2139352575323514
 20
0.1305322701186702
 10
0.2137825057199401
 20
0.1311429807767848
 10
0.2135533807214573
 20
0.1319063669482441
 10
0.2132096891435327
 20
0.1322117231377753
  0
LWPOLYLINE
  5
2556
330
2
100
AcDbEntity
  8
Profilo
  6
Continuous
370
     0
100
AcDbPolyline
 90
      102
 70
   128
 43
0.0
 10
0.211071177370447
 20
0.1390822090065917
 10
0.2114148662282382
 20
0.1382043127582291
 10
0.211491242134443
 20
0.1374027559874866
 10
0.2113384903220326
 20
0.136792047050319
 10
0.211109365323549
 20
0.1364866925817356
 10
0.2109566135111385
 20
0.1359523214012404
 10
0.2109184255580356
 20
0.1356087963333739
 10
0.2109184255580356
 20
0.1347690706842943
 10
0.2110329894173442
 20
0.1340438516702243
 10
0.211491242134443
 20
0.1333949738547204
 10
0.2120258707577485
 20
0.132822432074942
 10
0.2124841234748473
 20
0.1325552464846948
 10
0.2129041882388443
 20
0.1325170776063587
 10
0.2135151927683554
 20
0.132593417083978
 10
0.2139352575323514
 20
0.1331277882644732
 10
0.2139352575323514
 20
0.1337003283233047
 10
0.2138970695792486
 20
0.1343873767380916
 10
0.2140498186715265
 20
0.1346545623283388
 10
0.2145844472948311
 20
0.1338148366792602
 10
0.2149663268258586
 20
0.1332422948994818
 10
0.2154245795429583
 20
0.1327460943182697
 10
0.2159592054461294
 20
0.1324789087280225
 10
0.2166465858818463
 20
0.1326697548406504
 10
0.2169520867865347
 20
0.1329751093092346
 10
0.2169520867865347
 20
0.1332804654987649
 10
0.2175249033629421
 20
0.1333568032554373
 10
0.2180595319862466
 20
0.1333949738547204
 10
0.2186323485626549
 20
0.1334713116113928
 10
0.2187850976549319
 20
0.1339293450352157
 10
0.2187469097018291
 20
0.1345018850940471
 10
0.2186323485626549
 20
0.1350362562745415
 10
0.2184414087971407
 20
0.1357233046893285
 10
0.2185941606095521
 20
0.1361431675138682
 10
0.2186705365157568
 20
0.1366012009376911
 10
0.2184414087971407
 20
0.1370592326405671
 10
0.2181740958455551
 20
0.1372500787531949
 10
0.2181157353829992
 20
0.1375797828975793
 10
0.2182635691941848
 20
0.1377423228777905
 10
0.2184705387059502
 20
0.1377423228777905
 10
0.218736641198163
 20
0.1379491910048154
 10
0.2188105581037558
 20
0.1383924810776884
 10
0.218899258934494
 20
0.1389096531161984
 10
0.218899258934494
 20
0.1395154831692826
 10
0.218544455611543
 20
0.1398996690464038
 10
0.2182487852690393
 20
0.1397962349828914
 10
0.2181009514578547
 20
0.1399439971932184
 10
0.2182931370444747
 20
0.1405941571140632
 10
0.2183227048947647
 20
0.1409340131234238
 10
0.218574023461833
 20
0.1412590930838462
 10
0.2187662063283204
 20
0.1411704350692711
 10
0.2190175248953887
 20
0.140653263030762
 10
0.2191505775015614
 20
0.1402986292515163
 10
0.2193575442931943
 20
0.1397223530172544
 10
0.2196679985608434
 20
0.1395598130370432
 10
0.2199636661832136
 20
0.1397075769683171
 10
0.2203184695061646
 20
0.140136090992252
 10
0.2204663033173493
 20
0.1405054990994881
 10
0.2208063227151558
 20
0.1407714731432126
 10
0.221279394719134
 20
0.1403134070214014
 10
0.2218263809085725
 20
0.140062209026615
 10
0.2223881537432899
 20
0.1402543011047026
 10
0.2227725221963974
 20
0.1405498272463026
 10
0.2227873061215428
 20
0.140874907206725
 10
0.2228043450372941
 20
0.1415471812935207
 10
0.2225973755255286
 20
0.1418131553372444
 10
0.2223164918283038
 20
0.1420348012341543
 10
0.222286923978013
 20
0.1424337614392668
 10
0.2224643256394885
 20
0.1428622754632016
 10
0.2227304281317022
 20
0.1430100393944755
 10
0.2226712924311214
 20
0.1435419874819228
 10
0.2224938907696459
 20
0.1439852775547958
 10
0.2221095223165375
 20
0.1442364755495822
 10
0.2217547189935864
 20
0.1443399096130946
 10
0.2214886165013727
 20
0.1444285676276689
 10
0.2212225140091599
 20
0.1445911076078801
 10
0.2215921012572564
 20
0.1447979774558519
 10
0.2219173367299165
 20
0.1451378334652125
 10
0.2221686552969848
 20
0.1455220176213867
 10
0.2223017079031584
 20
0.1457732156161731
 10
0.2221321919084718
 20
0.1464641929524282
 10
0.2216032320432169
 20
0.1473327805997293
 10
0.2211498374844079
 20
0.1477481930559303
 10
0.2220188439488029
 20
0.1482391344238234
 10
0.2225100211608348
 20
0.1484279584240014
 10
0.2226989371470822
 20
0.1494098411597875
 10
0.2227367198003052
 20
0.1504294883514206
 10
0.2221321919084718
 20
0.1512980759987217
 10
0.2221321919084718
 20
0.1518645479992546
 10
0.2229634157196429
 20
0.1520156058226387
 10
0.2232278970123371
 20
0.1515624306315386
 10
0.2236812915711461
 20
0.1510714892636455
 10
0.2244369500758723
 20
0.1511470181753376
 10
0.2256082177660501
 20
0.1510337230868526
 10
0.2264016589239992
 20
0.1510337230868526
 10
0.2268928361360312
 20
0.1517890173666156
 10
0.2268172708295852
 20
0.1528841951908877
 10
0.226995485810954
 20
0.1545413671122047
 10
0.226628814545885
 20
0.1557408033334902
 10
0.2258621395008025
 20
0.1566403817901643
 10
0.2247363306803625
 20
0.1575604653275624
 10
0.2235305852990683
 20
0.158265929593699
 10
0.2224718794499998
 20
0.1587362385308078
  0
LWPOLYLINE
  5
2557
330
2
100
AcDbEntity
  8
Profilo
  6
Continuous
370
     0
100
AcDbPolyline
 90
       22
 70
   128
 43
0.0
 10
0.2171783583650584
 20
0.1602353483754006
 10
0.218266471576545
 20
0.161234755512111
 10
0.219295767343062
 20
0.1617932474824872
 10
0.2207955999492086
 20
0.1624399224861293
 10
0.2227071492298818
 20
0.1627044715859309
 10
0.2241481616709244
 20
0.1627044715859309
 10
0.2261773458415386
 20
0.1625281055193968
 10
0.2270007819107251
 20
0.1619990073197943
 10
0.2277948106174936
 20
0.1615286983826856
 10
0.2283241649020937
 20
0.1606174742792419
 10
0.2281771226497347
 20
0.1599120117340522
 10
0.2277654032550747
 20
0.1595592796009839
 10
0.2270595993556956
 20
0.1595592796009839
 10
0.2264126129012871
 20
0.1598532224715585
 10
0.225795036529431
 20
0.1602353483754006
 10
0.224883375652855
 20
0.1609114188707634
 10
0.2235894027440388
 20
0.161234755512111
 10
0.2223542472801923
 20
0.161234755512111
 10
0.2209132321190161
 20
0.1609996019040301
 10
0.2196486692927506
 20
0.1602941376378943
 10
0.218589963443683
 20
0.1596474626342514
 10
0.2179429769892744
 20
0.159118364434649
  0
LWPOLYLINE
  5
2558
330
2
100
AcDbEntity
  8
Profilo
  6
Continuous
370
     0
100
AcDbPolyline
 90
        6
 70
   128
 43
0.0
 10
0.2268831497409176
 20
0.1595004903384911
 10
0.2268831497409176
 20
0.1587950277933006
 10
0.2268243322959471
 20
0.1582071403312053
 10
0.2265890652361986
 20
0.1576192545900561
 10
0.2262949807314796
 20
0.1572959162277616
 10
0.22582444389185
 20
0.157001973357187
  0
LWPOLYLINE
  5
2559
330
2
100
AcDbEntity
  8
Profilo
  6
Continuous
370
     0
100
AcDbPolyline
 90
       22
 70
   128
 43
0.0
 10
0.2184665945124895
 20
0.1540133651556923
 10
0.2190846305868936
 20
0.1536472974061303
 10
0.2191761902778577
 20
0.1530295601223681
 10
0.2195195445592379
 20
0.1525490975993362
 10
0.2203207000155702
 20
0.1522974263441901
 10
0.2209616260127156
 20
0.1525719758656514
 10
0.2208471736788777
 20
0.1534871443790839
 10
0.2207327240651733
 20
0.1547454989338712
 10
0.2201146879907683
 20
0.1556606657263568
 10
0.2189472883303154
 20
0.1565071959989508
 10
0.2178256685153441
 20
0.1565529542525281
 10
0.2167956111114695
 20
0.1560038552096046
 10
0.2157197711419798
 20
0.1546311024394553
 10
0.2152390773241539
 20
0.152526217612075
 10
0.2151679431150513
 20
0.1502074156597128
 10
0.2155799644445209
 20
0.1492007306391256
 10
0.2163582326982454
 20
0.1477135848164544
 10
0.2172509505656743
 20
0.1465238667815596
 10
0.2182581180468077
 20
0.1455858200018119
 10
0.2193339580162974
 20
0.1445791349812246
 10
0.2205013576767503
 20
0.1440529142046163
 10
0.2216916472599453
 20
0.1433894169463308
  0
LWPOLYLINE
  5
255A
330
2
100
AcDbEntity
  8
Profilo
  6
Continuous
370
     0
100
AcDbPolyline
 90
        6
 70
   128
 43
0.0
 10
0.215030600858473
 20
0.1497955896565735
 10
0.2153739551398532
 20
0.147782221336346
 10
0.2161980005189259
 20
0.1460434042585277
 10
0.2174111800248613
 20
0.1446935314756406
 10
0.2189677138121768
 20
0.1435038134407467
 10
0.2217380554562471
 20
0.1416891938207003
  0
LWPOLYLINE
  5
255B
330
2
100
AcDbEntity
  8
Profilo
  6
Continuous
370
     0
100
AcDbPolyline
 90
       27
 70
   128
 43
0.0
 10
0.213471186449864
 20
0.1549781984718628
 10
0.2125563375769188
 20
0.1523812777544453
 10
0.2122635859375761
 20
0.1501866971815895
 10
0.2123367738474118
 20
0.1461998744594934
 10
0.2125563375769188
 20
0.1441881754576304
 10
0.2132150287654391
 20
0.1428714274581067
 10
0.2135809683146175
 20
0.1429445797423137
 10
0.2138005320441236
 20
0.1446270926047699
 10
0.2136907501793701
 20
0.1459072653226627
 10
0.2141664688731686
 20
0.1460535698910785
 10
0.2145690023772648
 20
0.1451757373177465
 10
0.2144958144674292
 20
0.1442247524602074
 10
0.2141298749182516
 20
0.1432006153184604
 10
0.214056687008416
 20
0.1415546794585829
 10
0.2143860326026756
 20
0.1405305423168359
 10
0.2150447237911959
 20
0.1400916251696964
 10
0.2156668210247992
 20
0.1402379314590592
 10
0.2162523243034846
 20
0.1410060347456055
 10
0.2162523243034846
 20
0.1419570196031445
 10
0.2162157303485659
 20
0.142505664316122
 10
0.2165816698977443
 20
0.1423227827451292
 10
0.2167646396723335
 20
0.1415546794585829
 10
0.2166914517624978
 20
0.1406402716036208
 10
0.2168012336272513
 20
0.1397990143119197
 10
0.2172037671313476
 20
0.1393235218831501
 10
0.2176428945903608
 20
0.1392869466015192
 10
0.218045428094457
 20
0.139433251169935
  0
LWPOLYLINE
  5
255C
330
2
100
AcDbEntity
  8
Profilo
  6
Continuous
370
     0
100
AcDbPolyline
 90
        6
 70
   128
 43
0.0
 10
0.2120806161629869
 20
0.1427616981713218
 10
0.2129222771260963
 20
0.1399087435987045
 10
0.2137273441342888
 20
0.1382993847414031
 10
0.2148617540166067
 20
0.1372386705970792
 10
0.2159229787092241
 20
0.136397415026325
 10
0.2170939852665941
 20
0.1357390410265626
  0
LWPOLYLINE
  5
255D
330
2
100
AcDbEntity
  8
Profilo
  6
Continuous
370
     0
100
AcDbPolyline
 90
        3
 70
   128
 43
0.0
 10
0.2136907501793701
 20
0.1365437195947399
 10
0.2147153781969362
 20
0.1348977854558084
 10
0.2156302270698813
 20
0.1336541897404917
  0
LWPOLYLINE
  5
255E
330
2
100
AcDbEntity
  8
Profilo
  6
Continuous
370
     0
100
AcDbPolyline
 90
        7
 70
   128
 43
0.0
 10
0.2201613001970772
 20
0.1482786146635959
 10
0.2196182119588317
 20
0.1490747624986515
 10
0.2187492680575052
 20
0.1491471403568143
 10
0.2182423820749648
 20
0.1487128766497321
 10
0.2182785897709369
 20
0.1480976708786628
 10
0.2188940906809933
 20
0.1475910310343647
 10
0.2195095915910488
 20
0.1474100889703784
  0
LWPOLYLINE
  5
255F
330
2
100
AcDbEntity
  8
Profilo
  6
Continuous
370
     0
100
AcDbPolyline
 90
        5
 70
   128
 43
0.0
 10
0.2172648205259897
 20
0.1481338606682181
 10
0.2182785897709369
 20
0.1469758252632962
 10
0.2191837386481021
 20
0.1464329973503897
 10
0.2201613001970772
 20
0.1460711115014703
 10
0.2209216264507543
 20
0.1460711115014703
  0
LWPOLYLINE
  5
2560
330
2
100
AcDbEntity
  8
Profilo
  6
Continuous
370
     0
100
AcDbPolyline
 90
        5
 70
   128
 43
0.0
 10
0.2203423305165366
 20
0.1573257591656407
 10
0.2219716006715402
 20
0.1570724392434917
 10
0.2230939848440026
 20
0.1560591595548955
 10
0.2242163717365992
 20
0.1545392383010542
 10
0.2255559939244931
 20
0.1526212448506321
  0
LWPOLYLINE
  5
2561
330
2
100
AcDbEntity
  8
Profilo
  6
Continuous
370
     0
100
AcDbPolyline
 90
        2
 70
   128
 43
0.0
 10
0.2241801640406271
 20
0.1538154666032154
 10
0.2245060197037081
 20
0.1518250952946305
  0
LWPOLYLINE
  5
2562
330
2
100
AcDbEntity
  8
Profilo
  6
Continuous
370
     0
100
AcDbPolyline
 90
        8
 70
   129
 43
0.0
 10
0.2237862424789434
 20
0.1607471717113595
 10
0.2226399320129062
 20
0.1607471717113595
 10
0.2214936242670025
 20
0.1603891218527824
 10
0.2213145143617379
 20
0.1598162427674383
 10
0.2221742451711652
 20
0.15927916970052
 10
0.2231056215747797
 20
0.1595298032247658
 10
0.2235354869794934
 20
0.159887853083343
 10
0.2240728194154189
 20
0.1603175132578247
  0
LWPOLYLINE
  5
2563
330
2
100
AcDbEntity
  8
Profilo
  6
Continuous
370
     0
100
AcDbPolyline
 90
       12
 70
   128
 43
0.0
 10
0.207920846688076
 20
0.1991303526647021
 10
0.2081194789909049
 20
0.1997468611924731
 10
0.2083181112937347
 20
0.2000289914844417
 10
0.2086003768187379
 20
0.2002588755535228
 10
0.2089453686204374
 20
0.2004365133997181
 10
0.2093426332260961
 20
0.2005514554342582
 10
0.2098026213883186
 20
0.2006037016571458
 10
0.2103671551584585
 20
0.200520108388905
 10
0.2107957801823324
 20
0.2003111217764104
 10
0.211182591315253
 20
0.1999244990386675
 10
0.2113337708905461
 20
0.1995414971729215
 10
0.2113921721551029
 20
0.199137775108106
  0
LWPOLYLINE
  5
2564
330
2
100
AcDbEntity
  8
Profilo
  6
Continuous
370
     0
100
AcDbPolyline
 90
       18
 70
   128
 43
0.0
 10
0.1910758846099017
 20
0.1655982246435439
 10
0.1903836269749617
 20
0.16562128877211
 10
0.1898990488066101
 20
0.1654829040007142
 10
0.1896682944482075
 20
0.165136942072226
 10
0.1895529199891401
 20
0.1645372730085661
 10
0.1892298660634835
 20
0.16451420888
 10
0.1887914376787585
 20
0.1643988882371712
 10
0.1885376084285426
 20
0.1638684132801558
 10
0.1883299316820868
 20
0.1632226176803106
 10
0.1884222339694752
 20
0.1624384373090706
 10
0.188837587462386
 20
0.1618157058377907
 10
0.1892067911716702
 20
0.1615619987026191
 10
0.1893683181344976
 20
0.1613544215455267
 10
0.1893452432426843
 20
0.1607547542028129
 10
0.1894606177017526
 20
0.1604087922743247
 10
0.1899451985902376
 20
0.1602012151172323
 10
0.1906836060088051
 20
0.1600167020887042
 10
0.1910528097180884
 20
0.1600628303458365
  0
LWPOLYLINE
  5
2565
330
2
100
AcDbEntity
  8
Profilo
  6
Continuous
370
     0
100
AcDbPolyline
 90
       18
 70
   128
 43
0.0
 10
0.2281960710991477
 20
0.1655982246435439
 10
0.2288883287340886
 20
0.16562128877211
 10
0.2293729069024402
 20
0.1654829040007142
 10
0.2296036612608419
 20
0.165136942072226
 10
0.2297190357199101
 20
0.1645372730085661
 10
0.2300420896455668
 20
0.16451420888
 10
0.2304805180302909
 20
0.1643988882371712
 10
0.2307343472805068
 20
0.1638684132801558
 10
0.2309420240269626
 20
0.1632226176803106
 10
0.2308497217395751
 20
0.1624384373090706
 10
0.2304343682466643
 20
0.1618157058377907
 10
0.2300651645373801
 20
0.1615619987026191
 10
0.2299036375745527
 20
0.1613544215455267
 10
0.229926712466366
 20
0.1607547542028129
 10
0.2298113380072977
 20
0.1604087922743247
 10
0.2293267571188127
 20
0.1602012151172323
 10
0.2285883497002452
 20
0.1600167020887042
 10
0.2282191459909619
 20
0.1600628303458365
  0
LWPOLYLINE
  5
2566
330
2
100
AcDbEntity
  8
Profilo
  6
Continuous
370
     0
100
AcDbPolyline
 90
       12
 70
   128
 43
0.0
 10
0.2080626618947348
 20
0.1272591508092589
 10
0.2082637256126232
 20
0.1266434309558431
 10
0.2084634697551391
 20
0.1263620867344626
 10
0.2087466402864202
 20
0.1261333183755564
 10
0.209092330423789
 20
0.1259570433728845
 10
0.2094900455381154
 20
0.1258436699807257
 10
0.2099502363006265
 20
0.1257932394414647
 10
0.2105144357860535
 20
0.1258790599096926
 10
0.2109422327368142
 20
0.1260897364015294
 10
0.2113275151069314
 20
0.1264778826229049
 10
0.2114771820435062
 20
0.1268614781145976
 10
0.2115339896225292
 20
0.1272654275078224
  0
LWPOLYLINE
  5
2567
330
2
100
AcDbEntity
  8
Profilo
  6
Continuous
370
     0
100
AcDbPolyline
 90
       18
 70
   128
 43
0.0
 10
0.2086361792148301
 20
0.1685116601693268
 10
0.2074099321879388
 20
0.170509027126517
 10
0.2066378495176144
 20
0.1714623163317768
 10
0.205911184915027
 20
0.1712353423836781
 10
0.2057749361520831
 20
0.1705998173941356
 10
0.2049120200664192
 20
0.1706906059408073
 10
0.2043216042267748
 20
0.1706906059408073
 10
0.2036403576919243
 20
0.1700550809512658
 10
0.203504106208847
 20
0.1696919233226852
 10
0.2031407752676204
 20
0.169101791746006
 10
0.2031407752676204
 20
0.1681485025407463
 10
0.2031407752676204
 20
0.1677853449121658
 10
0.2028228596739974
 20
0.1672406084692959
 10
0.2028228596739974
 20
0.1665596866249981
 10
0.2031407752676204
 20
0.1662419241302269
 10
0.2041853554638318
 20
0.1658333713678379
 10
0.2050028534817596
 20
0.165697187687357
 10
0.2058203514996875
 20
0.1656063974197384
  0
LWPOLYLINE
  5
2568
330
2
100
AcDbEntity
  8
Profilo
  6
Continuous
370
     0
100
AcDbPolyline
 90
       18
 70
   128
 43
0.0
 10
0.2106357764942202
 20
0.1685116601693268
 10
0.2118620235211115
 20
0.170509027126517
 10
0.2126341061914359
 20
0.1714623163317768
 10
0.2133607707940233
 20
0.1712353423836781
 10
0.2134970195569663
 20
0.1705998173941356
 10
0.2143599356426311
 20
0.1706906059408073
 10
0.2149503514822755
 20
0.1706906059408073
 10
0.2156315980171259
 20
0.1700550809512658
 10
0.2157678495002024
 20
0.1696919233226852
 10
0.2161311804414299
 20
0.169101791746006
 10
0.2161311804414299
 20
0.1681485025407463
 10
0.2161311804414299
 20
0.1677853449121658
 10
0.2164490960350529
 20
0.1672406084692959
 10
0.2164490960350529
 20
0.1665596866249981
 10
0.2161311804414299
 20
0.1662419241302269
 10
0.2150866002452185
 20
0.1658333713678379
 10
0.2142691022272907
 20
0.165697187687357
 10
0.2134516042093628
 20
0.1656063974197384
  0
LWPOLYLINE
  5
2569
330
2
100
AcDbEntity
  8
Profilo
  6
Continuous
370
     0
100
AcDbPolyline
 90
       19
 70
   128
 43
0.0
 10
0.2068321486479034
 20
0.1712878347019524
 10
0.2068321486479034
 20
0.1720480543313618
 10
0.2071756389359554
 20
0.1723423327865552
 10
0.2074945936205454
 20
0.1721706700675343
 10
0.2078626195120574
 20
0.1725875642589019
 10
0.2080834317828046
 20
0.1731270741864419
 10
0.2086477370617372
 20
0.1734703996244837
 10
0.2091875067372089
 20
0.1738627703244271
 10
0.2097027408092187
 20
0.1738627703244271
 10
0.2101934419979019
 20
0.1738137233415786
 10
0.2109049554573323
 20
0.1735930153606571
 10
0.2113956566460156
 20
0.1732742134140386
 10
0.2116164716368971
 20
0.1727347034864985
 10
0.2117391469340675
 20
0.1722687623122834
 10
0.2119599592048147
 20
0.1721461465761109
 10
0.2123034494928657
 20
0.1721706700675343
 10
0.2126714753843786
 20
0.1720235308399376
 10
0.2126714753843786
 20
0.1717537758761676
 10
0.2126714753843786
 20
0.1715085444038209
  0
LWPOLYLINE
  5
256A
330
2
100
AcDbEntity
  8
Profilo
  6
Continuous
370
     0
100
AcDbPolyline
 90
        2
 70
   128
 43
0.0
 10
0.2061597371064059
 20
0.1667493590519316
 10
0.2043554590073378
 20
0.1680431100398136
  0
LWPOLYLINE
  5
256B
330
2
100
AcDbEntity
  8
Profilo
  6
Continuous
370
     0
100
AcDbPolyline
 90
        2
 70
   128
 43
0.0
 10
0.2067873099685855
 20
0.16757265482223
 10
0.2052183750930017
 20
0.1690624285306139
  0
LWPOLYLINE
  5
256C
330
2
100
AcDbEntity
  8
Profilo
  6
Continuous
370
     0
100
AcDbPolyline
 90
        2
 70
   128
 43
0.0
 10
0.2071403207236122
 20
0.1683567457042381
 10
0.2062774073580809
 20
0.1695720869155401
  0
LWPOLYLINE
  5
256D
330
2
100
AcDbEntity
  8
Profilo
  6
Continuous
370
     0
100
AcDbPolyline
 90
        2
 70
   128
 43
0.0
 10
0.2127100468762937
 20
0.16749424504565
 10
0.2142005358241381
 20
0.1692192463628261
  0
LWPOLYLINE
  5
256E
330
2
100
AcDbEntity
  8
Profilo
  6
Continuous
370
     0
100
AcDbPolyline
 90
        2
 70
   128
 43
0.0
 10
0.213533738638022
 20
0.1667885639402211
 10
0.2152203464854134
 20
0.1686311782013199
  0
LWPOLYLINE
  5
256F
330
2
100
AcDbEntity
  8
Profilo
  6
Continuous
370
     0
100
AcDbPolyline
 90
        2
 70
   128
 43
0.0
 10
0.2140044196447237
 20
0.1663965184992175
 10
0.2152595708093499
 20
0.1673766321017274
  0
LWPOLYLINE
  5
2570
330
2
100
AcDbEntity
  8
Profilo
  6
Continuous
370
     0
100
AcDbPolyline
 90
       18
 70
   128
 43
0.0
 10
0.2086361792148301
 20
0.1581501425742955
 10
0.2074099321879388
 20
0.1561527756171053
 10
0.2066378495176144
 20
0.1551994864118455
 10
0.205911184915027
 20
0.1554264603599442
 10
0.2057749361520831
 20
0.1560619853494867
 10
0.2049120200664192
 20
0.155971196802815
 10
0.2043216042267748
 20
0.155971196802815
 10
0.2036403576919243
 20
0.1566067217923566
 10
0.203504106208847
 20
0.1569698794209371
 10
0.2031407752676204
 20
0.1575600109976163
 10
0.2031407752676204
 20
0.158513300202876
 10
0.2031407752676204
 20
0.1588764578314565
 10
0.2028228596739974
 20
0.1594211942743264
 10
0.2028228596739974
 20
0.1601021161186242
 10
0.2031407752676204
 20
0.1604198786133955
 10
0.2041853554638318
 20
0.1608284313757844
 10
0.2050028534817596
 20
0.1609646150562654
 10
0.2058203514996875
 20
0.161055405323884
  0
LWPOLYLINE
  5
2571
330
2
100
AcDbEntity
  8
Profilo
  6
Continuous
370
     0
100
AcDbPolyline
 90
       18
 70
   128
 43
0.0
 10
0.2106357764942202
 20
0.1581501425742955
 10
0.2118620235211115
 20
0.1561527756171053
 10
0.2126341061914359
 20
0.1551994864118455
 10
0.2133607707940233
 20
0.1554264603599442
 10
0.2134970195569663
 20
0.1560619853494867
 10
0.2143599356426311
 20
0.155971196802815
 10
0.2149503514822755
 20
0.155971196802815
 10
0.2156315980171259
 20
0.1566067217923566
 10
0.2157678495002024
 20
0.1569698794209371
 10
0.2161311804414299
 20
0.1575600109976163
 10
0.2161311804414299
 20
0.158513300202876
 10
0.2161311804414299
 20
0.1588764578314565
 10
0.2164490960350529
 20
0.1594211942743264
 10
0.2164490960350529
 20
0.1601021161186242
 10
0.2161311804414299
 20
0.1604198786133955
 10
0.2150866002452185
 20
0.1608284313757844
 10
0.2142691022272907
 20
0.1609646150562654
 10
0.2134516042093628
 20
0.161055405323884
  0
LWPOLYLINE
  5
2572
330
2
100
AcDbEntity
  8
Profilo
  6
Continuous
370
     0
100
AcDbPolyline
 90
       19
 70
   128
 43
0.0
 10
0.2068321486479034
 20
0.1553739680416699
 10
0.2068321486479034
 20
0.1546137484122605
 10
0.2071756389359554
 20
0.1543194699570671
 10
0.2074945936205454
 20
0.1544911326760872
 10
0.2078626195120574
 20
0.1540742384847205
 10
0.2080834317828046
 20
0.1535347285571804
 10
0.2086477370617372
 20
0.1531914031191386
 10
0.2091875067372089
 20
0.1527990324191952
 10
0.2097027408092187
 20
0.1527990324191952
 10
0.2101934419979019
 20
0.1528480794020437
 10
0.2109049554573323
 20
0.1530687873829652
 10
0.2113956566460156
 20
0.1533875893295837
 10
0.2116164716368971
 20
0.1539270992571238
 10
0.2117391469340675
 20
0.1543930404313389
 10
0.2119599592048147
 20
0.1545156561675114
 10
0.2123034494928657
 20
0.1544911326760872
 10
0.2126714753843786
 20
0.1546382719036847
 10
0.2126714753843786
 20
0.1549080268674547
 10
0.2126714753843786
 20
0.1551532583398014
  0
LWPOLYLINE
  5
2573
330
2
100
AcDbEntity
  8
Profilo
  6
Continuous
370
     0
100
AcDbPolyline
 90
        2
 70
   128
 43
0.0
 10
0.2061597371064059
 20
0.1599124436916908
 10
0.2043554590073378
 20
0.1586186927038087
  0
LWPOLYLINE
  5
2574
330
2
100
AcDbEntity
  8
Profilo
  6
Continuous
370
     0
100
AcDbPolyline
 90
        2
 70
   128
 43
0.0
 10
0.2067873099685855
 20
0.1590891479213923
 10
0.2052183750930017
 20
0.1575993742130084
  0
LWPOLYLINE
  5
2575
330
2
100
AcDbEntity
  8
Profilo
  6
Continuous
370
     0
100
AcDbPolyline
 90
        2
 70
   128
 43
0.0
 10
0.2071403207236122
 20
0.1583050570393842
 10
0.2062774073580809
 20
0.1570897158280822
  0
LWPOLYLINE
  5
2576
330
2
100
AcDbEntity
  8
Profilo
  6
Continuous
370
     0
100
AcDbPolyline
 90
        2
 70
   128
 43
0.0
 10
0.2127100468762937
 20
0.1591675576979723
 10
0.2142005358241381
 20
0.1574425563807962
  0
LWPOLYLINE
  5
2577
330
2
100
AcDbEntity
  8
Profilo
  6
Continuous
370
     0
100
AcDbPolyline
 90
        2
 70
   128
 43
0.0
 10
0.213533738638022
 20
0.1598732388034012
 10
0.2152203464854134
 20
0.1580306245423024
  0
LWPOLYLINE
  5
2578
330
2
100
AcDbEntity
  8
Profilo
  6
Continuous
370
     0
100
AcDbPolyline
 90
        2
 70
   128
 43
0.0
 10
0.2140044196447237
 20
0.1602652842444048
 10
0.2152595708093499
 20
0.159285170641895
  0
LWPOLYLINE
  5
2579
330
2
100
AcDbEntity
  8
Profilo
  6
Continuous
370
     0
100
AcDbPolyline
 90
        2
 70
   128
 43
0.0
 10
0.2099251851600192
 20
0.157638579101298
 10
0.2099644067638222
 20
0.155286306455273
  0
LWPOLYLINE
  5
257A
330
2
100
AcDbEntity
  8
Profilo
  6
Continuous
370
     0
100
AcDbPolyline
 90
       21
 70
   128
 43
0.0
 10
0.202794649170283
 20
0.1602614603006902
 10
0.202621626923617
 20
0.1605381644475035
 10
0.2023101852475355
 20
0.1605381644475035
 10
0.2020679519260951
 20
0.1607802810062022
 10
0.2020679519260951
 20
0.1612299248145375
 10
0.2021717658181219
 20
0.1616449793138113
 10
0.2022063713555087
 20
0.1620600355340311
 10
0.2019295352168149
 20
0.1623713272689597
 10
0.2016526963579877
 20
0.1626480314157739
 10
0.2012374435100128
 20
0.1629593231507025
 10
0.2012374435100128
 20
0.163512731444329
 10
0.2012720463272661
 20
0.1639623752526642
 10
0.201445068573934
 20
0.164204490090416
 10
0.2016873018953744
 20
0.1644811942372302
 10
0.201825721324788
 20
0.1648270735602733
 10
0.2018603241420414
 20
0.165242129780494
 10
0.2018603241420414
 20
0.1654842463391928
 10
0.201998743571455
 20
0.1658647132503512
 10
0.2021717658181219
 20
0.1660722404999877
 10
0.20244860467695
 20
0.1662797694705711
 10
0.2027600463530306
 20
0.1664527091320931
  0
LWPOLYLINE
  5
257B
330
2
100
AcDbEntity
  8
Profilo
  6
Continuous
370
     0
100
AcDbPolyline
 90
       19
 70
   128
 43
0.0
 10
0.2161961589885994
 20
0.1604291562374138
 10
0.2167406236143556
 20
0.1605652056840467
 10
0.2172850882401127
 20
0.1608373080192065
 10
0.2174484268117995
 20
0.1613543010792524
 10
0.2174756499070807
 20
0.1617896627503725
 10
0.2178295528658689
 20
0.1619801336966056
 10
0.2182106789199383
 20
0.1620073435859313
 10
0.2186462511645708
 20
0.1623610755890716
 10
0.2188640359268199
 20
0.1628780686491176
 10
0.2188640359268199
 20
0.1633406419305103
 10
0.2187551435456954
 20
0.1636671623233763
 10
0.2185373560633128
 20
0.163939264658536
 10
0.2179384452469935
 20
0.1644018362189819
 10
0.2175573219130575
 20
0.164456257718582
 10
0.2176662142941821
 20
0.1651093002252608
 10
0.217640645040021
 20
0.165614427357351
 10
0.2173939806212373
 20
0.1659528153991197
 10
0.2169856341920202
 20
0.1661704962346793
 10
0.2163594975602863
 20
0.1663337572915857
  0
LWPOLYLINE
  5
257C
330
2
100
AcDbEntity
  8
Profilo
  6
Continuous
370
     0
100
AcDbPolyline
 90
        2
 70
   128
 43
0.0
 10
0.2146607579178339
 20
0.1646524077891449
 10
0.2164634093771165
 20
0.1648926450739747
  0
LWPOLYLINE
  5
257D
330
2
100
AcDbEntity
  8
Profilo
  6
Continuous
370
     0
100
AcDbPolyline
 90
        2
 70
   128
 43
0.0
 10
0.2144204042085882
 20
0.1626103857052543
 10
0.2168239385809196
 20
0.1621299094146487
  0
LWPOLYLINE
  5
257E
330
2
100
AcDbEntity
  8
Profilo
  6
Continuous
370
     0
100
AcDbPolyline
 90
        2
 70
   128
 43
0.0
 10
0.2051667932029322
 20
0.1633911586018968
 10
0.2037847614148653
 20
0.1633911586018968
  0
LWPOLYLINE
  5
257F
330
2
100
AcDbEntity
  8
Profilo
  6
Continuous
370
     0
100
AcDbPolyline
 90
        2
 70
   128
 43
0.0
 10
0.2052869714176222
 20
0.16453228914673
 10
0.2031838785018156
 20
0.1650728247585427
  0
LWPOLYLINE
  5
2580
330
2
100
AcDbEntity
  8
Profilo
  6
Continuous
370
     0
100
AcDbPolyline
 90
        2
 70
   128
 43
0.0
 10
0.2095034991965037
 20
0.1690764594096015
 10
0.2095034991965037
 20
0.1726673404672141
  0
LWPOLYLINE
  5
2581
330
2
100
AcDbEntity
  8
Profilo
  6
Continuous
370
     0
100
AcDbPolyline
 90
        2
 70
   128
 43
0.0
 10
0.2091175993082797
 20
0.15697871820353
 10
0.2090432227001389
 20
0.1551573851701473
  0
DIMENSION
  5
2582
102
{ACAD_XDICTIONARY
360
2583
102
}
102
{ACAD_REACTORS
330
2584
102
}
330
2
100
AcDbEntity
  8
Sezione
  6
ACAD_ISO10W100
100
AcDbDimension
  2
*D13
 10
0.265560572909993
 20
0.109360969598633
 30
0.0
 11
0.265560572909993
 21
0.1631109695378808
 31
0.0
 70
    32
  1
435 mm
 71
     5
 42
0.1074999998784954
  3
Bovelacci
100
AcDbAlignedDimension
 13
0.2096332985231044
 23
0.2168609694771284
 33
0.0
 14
0.2096384096538035
 24
0.1093609695986331
 34
0.0
 50
90.0
100
AcDbRotatedDimension
  0
DIMENSION
  5
2585
102
{ACAD_XDICTIONARY
360
2586
102
}
102
{ACAD_REACTORS
330
2587
102
}
330
2
100
AcDbEntity
  8
Sezione
  6
ACAD_ISO10W100
100
AcDbDimension
  2
*D14
 10
0.2458671033022102
 20
0.0888563122875079
 30
0.0
 11
0.2096112433693784
 21
0.0888563122875079
 31
0.0
 70
    32
  1
305 mm
 71
     5
 42
0.0725117198656635
  3
Bovelacci
100
AcDbAlignedDimension
 13
0.1733553834365467
 23
0.1628029832295166
 33
0.0
 14
0.2458671033022102
 24
0.1628025676541531
 34
0.0
100
AcDbRotatedDimension
  0
ENDSEC
  0
SECTION
  2
OBJECTS
  0
DICTIONARY
  5
9
330
0
100
AcDbDictionary
281
     1
  3
ACAD_2007HEADERVARS_RT
350
208
  3
ACAD_COLOR
350
184
  3
ACAD_GROUP
350
17F
  3
ACAD_LAYOUT
350
164
  3
ACAD_MATERIAL
350
B
  3
ACAD_MLINESTYLE
350
180
  3
ACAD_PLOTSETTINGS
350
181
  3
ACAD_PLOTSTYLENAME
350
8
  3
ACAD_TABLESTYLE
350
185
  3
ACAD_VISUALSTYLE
350
17A
  3
ACDBHEADERROUNDTRIPXREC
350
25BB
  3
AcDbVariableDictionary
350
18B
  3
DWGPROPS
350
25BA
  0
DICTIONARY
  5
16E
330
16D
100
AcDbDictionary
280
     1
281
     1
  3
ACAD_LAYERSTATES
360
16F
  0
DICTIONARY
  5
3
330
2
100
AcDbDictionary
280
     1
281
     1
  3
ACAD_SORTENTS
360
18A
  0
DICTIONARY
  5
25BC
330
18
100
AcDbDictionary
280
     1
281
     1
  3
ACAD_MTEXT_RT
360
25BD
  0
DICTIONARY
  5
2583
330
2582
100
AcDbDictionary
280
     1
281
     1
  3
ACAD_DIMASSOC
360
2584
  0
DICTIONARY
  5
2586
330
2585
100
AcDbDictionary
280
     1
281
     1
  3
ACAD_DIMASSOC
360
2587
  0
DICTIONARY
  5
208
102
{ACAD_REACTORS
330
9
102
}
330
9
100
AcDbDictionary
281
     1
  3
DIMFXL
350
209
  0
DICTIONARY
  5
184
102
{ACAD_REACTORS
330
9
102
}
330
9
100
AcDbDictionary
281
     1
  0
DICTIONARY
  5
17F
102
{ACAD_REACTORS
330
9
102
}
330
9
100
AcDbDictionary
281
     1
  0
DICTIONARY
  5
164
102
{ACAD_REACTORS
330
9
102
}
330
9
100
AcDbDictionary
281
     1
  3
Layout1
350
168
  3
Layout2
350
16C
  3
Model
350
163
  0
DICTIONARY
  5
B
102
{ACAD_REACTORS
330
9
102
}
330
9
100
AcDbDictionary
281
     1
  3
ByBlock
350
183
  3
ByLayer
350
182
  3
Global
350
A
  0
DICTIONARY
  5
180
102
{ACAD_REACTORS
330
9
102
}
330
9
100
AcDbDictionary
281
     1
  3
Standard
350
186
  0
DICTIONARY
  5
181
102
{ACAD_REACTORS
330
9
102
}
330
9
100
AcDbDictionary
281
     1
  0
ACDBDICTIONARYWDFLT
  5
8
102
{ACAD_REACTORS
330
9
102
}
330
9
100
AcDbDictionary
281
     1
  3
Normal
350
7
100
AcDbDictionaryWithDefault
340
7
  0
DICTIONARY
  5
185
102
{ACAD_REACTORS
330
9
102
}
330
9
100
AcDbDictionary
281
     1
  3
Standard
350
187
  0
DICTIONARY
  5
17A
102
{ACAD_REACTORS
330
9
102
}
330
9
100
AcDbDictionary
281
     1
  3
2dWireframe
350
179
  3
3D Hidden
350
1BD
  3
3dWireframe
350
189
  3
Basic
350
1BC
  3
Brighten
350
1C0
  3
ColorChange
350
1C4
  3
Conceptual
350
1BE
  3
Dim
350
1BF
  3
Facepattern
350
1C3
  3
Flat
350
1B8
  3
FlatWithEdges
350
1B9
  3
Gouraud
350
1BA
  3
GouraudWithEdges
350
1BB
  3
Linepattern
350
1C2
  3
Realistic
350
188
  3
Thicken
350
1C1
  0
DICTIONARY
  5
25BB
102
{ACAD_REACTORS
330
9
102
}
330
9
100
AcDbDictionary
281
     1
  0
DICTIONARY
  5
18B
102
{ACAD_REACTORS
330
9
102
}
330
9
100
AcDbDictionary
281
     1
  3
CTABLESTYLE
350
18C
  3
DIMASSOC
350
190
  3
HIDETEXT
350
18F
  3
INDEXCTL
350
18E
  3
PROJECTNAME
350
2F9
  3
SORTENTS
350
18D
  0
XRECORD
  5
25BA
102
{ACAD_REACTORS
330
9
102
}
330
9
100
AcDbXrecord
280
     1
  1
DWGPROPS COOKIE
  2

  3

  4

  6

  7

  8
Mario
  9

300
=
301
=
302
=
303
=
304
=
305
=
306
=
307
=
308
=
309
=
 40
0.1903114236111111
 41
2454297.625402373
 42
2454311.73465603
  1

 90
        0
  0
DICTIONARY
  5
16F
102
{ACAD_REACTORS
330
16E
102
}
330
16E
100
AcDbDictionary
281
     1
  0
SORTENTSTABLE
  5
18A
102
{ACAD_REACTORS
330
3
102
}
330
3
100
AcDbSortentsTable
330
2
331
15
  5
11
331
13
  5
D
331
24
  5
18
331
11
  5
15
331
22
  5
23
331
D
  5
13
331
1E
  5
1F
331
1C
  5
1D
331
18
  5
1C
331
16
  5
12
331
14
  5
10
331
12
  5
16
331
23
  5
24
331
21
  5
22
331
10
  5
14
331
1F
  5
21
331
1D
  5
1E
  0
XRECORD
  5
25BD
102
{ACAD_REACTORS
330
25BC
102
}
330
25BC
100
AcDbXrecord
280
     1
 40
7955300.0
  1
{\fTimes New Roman|b0|i0|c238|p18;\H1.6x;\C4;Bovelacci\P\pt0.09;\H0.4375x;\T0.95;via del Commercio, 5  47100 Forli - Italy  \fTimes New Roman|b0|i0|c0|p18;\P\fTimes New Roman|b0|i0|c238|p18;tel.+39-0543721386  fax +39-0543721127\fTimes New Roman|b0|i
  1
0|c0|p18; \fTimes New Roman|b0|i0|c238|p18;www.bovelacci.it\fTimes New Roman|b0|i0|c0|p18; \fTimes New Roman|b0|i0|c238|p18;e-mail: bovelacci@bovelacci\fTimes New Roman|b0|i0|c0|p18;.it}
  0
DIMASSOC
  5
2584
102
{ACAD_REACTORS
330
2583
102
}
330
2583
100
AcDbDimAssoc
330
2582
 90
        3
 70
     0
 71
     0
  1
AcDbOsnapPointRef
 72
    13
331
24F5
 73
     2
 91
        1
 40
0.0
 10
0.0
 20
0.0
 30
2.000000000000000E+50
 75
     0
  1
AcDbOsnapPointRef
 72
     1
331
24F5
 73
     2
 91
       79
 40
1.0
 10
0.0
 20
0.0
 30
2.000000000000000E+50
 75
     0
  0
DIMASSOC
  5
2587
102
{ACAD_REACTORS
330
2586
102
}
330
2586
100
AcDbDimAssoc
330
2585
 90
        3
 70
     0
 71
     0
  1
AcDbOsnapPointRef
 72
     1
331
24F3
 73
     2
 91
       37
 40
1.0
 10
0.0
 20
0.0
 30
2.000000000000000E+50
 75
     0
  1
AcDbOsnapPointRef
 72
     1
331
24F5
 73
     2
 91
       37
 40
1.0
 10
0.0
 20
0.0
 30
2.000000000000000E+50
 75
     0
  0
XRECORD
  5
209
102
{ACAD_REACTORS
330
208
102
}
330
208
100
AcDbXrecord
280
     1
 40
0.18
  0
LAYOUT
  5
168
102
{ACAD_XDICTIONARY
360
25C0
102
}
102
{ACAD_REACTORS
330
164
102
}
330
164
100
AcDbPlotSettings
  1

  2
C:\Documents and Settings\All Users\Dati applicazioni\Autodesk\ADT 2006\enu\Plotters\Default Windows System Printer.pc3
  4

  6

 40
0.0
 41
0.0
 42
0.0
 43
0.0
 44
0.0
 45
0.0
 46
0.0
 47
0.0
 48
0.0
 49
0.0
140
0.0
141
0.0
142
1.0
143
1.0
 70
   688
 72
     0
 73
     0
 74
     5
  7

 75
    16
147
1.0
148
0.0
149
0.0
100
AcDbLayout
  1
Layout1
 70
     1
 71
     1
 10
0.0
 20
0.0
 11
420.0
 21
297.0
 12
0.0
 22
0.0
 32
0.0
 14
1.000000000000000E+20
 24
1.000000000000000E+20
 34
1.000000000000000E+20
 15
-1.000000000000000E+20
 25
-1.000000000000000E+20
 35
-1.000000000000000E+20
146
0.0
 13
0.0
 23
0.0
 33
0.0
 16
1.0
 26
0.0
 36
0.0
 17
0.0
 27
1.0
 37
0.0
 76
     0
330
165
  0
LAYOUT
  5
16C
102
{ACAD_XDICTIONARY
360
25C2
102
}
102
{ACAD_REACTORS
330
164
102
}
330
164
100
AcDbPlotSettings
  1

  2
C:\Documents and Settings\All Users\Dati applicazioni\Autodesk\ADT 2006\enu\Plotters\Default Windows System Printer.pc3
  4

  6

 40
0.0
 41
0.0
 42
0.0
 43
0.0
 44
0.0
 45
0.0
 46
0.0
 47
0.0
 48
0.0
 49
0.0
140
0.0
141
0.0
142
1.0
143
1.0
 70
   688
 72
     0
 73
     0
 74
     5
  7

 75
    16
147
1.0
148
0.0
149
0.0
100
AcDbLayout
  1
Layout2
 70
     1
 71
     2
 10
0.0
 20
0.0
 11
12.0
 21
9.0
 12
0.0
 22
0.0
 32
0.0
 14
0.0
 24
0.0
 34
0.0
 15
0.0
 25
0.0
 35
0.0
146
0.0
 13
0.0
 23
0.0
 33
0.0
 16
1.0
 26
0.0
 36
0.0
 17
0.0
 27
1.0
 37
0.0
 76
     0
330
169
  0
LAYOUT
  5
163
102
{ACAD_XDICTIONARY
360
25BE
102
}
102
{ACAD_REACTORS
330
164
102
}
330
164
100
AcDbPlotSettings
  1

  2
C:\Documents and Settings\All Users\Dati applicazioni\Autodesk\ADT 2006\enu\Plotters\Default Windows System Printer.pc3
  4

  6

 40
0.0
 41
0.0
 42
0.0
 43
0.0
 44
0.0
 45
0.0
 46
0.0
 47
0.0
 48
0.0
 49
0.0
140
0.0
141
0.0
142
1.0
143
1.0
 70
  1712
 72
     0
 73
     0
 74
     0
  7

 75
     0
147
1.0
148
0.0
149
0.0
100
AcDbLayout
  1
Model
 70
     1
 71
     0
 10
0.0
 20
0.0
 11
12.0
 21
9.0
 12
0.0
 22
0.0
 32
0.0
 14
0.0
 24
0.0
 34
0.0
 15
0.0
 25
0.0
 35
0.0
146
0.0
 13
0.0
 23
0.0
 33
0.0
 16
1.0
 26
0.0
 36
0.0
 17
0.0
 27
1.0
 37
0.0
 76
     0
330
2
  0
MATERIAL
  5
183
102
{ACAD_XDICTIONARY
360
1B0
102
}
102
{ACAD_REACTORS
330
B
102
}
330
B
100
AcDbMaterial
  1
ByBlock
  0
MATERIAL
  5
182
102
{ACAD_XDICTIONARY
360
1AE
102
}
102
{ACAD_REACTORS
330
B
102
}
330
B
100
AcDbMaterial
  1
ByLayer
  0
MATERIAL
  5
A
102
{ACAD_XDICTIONARY
360
193
102
}
102
{ACAD_REACTORS
330
B
102
}
330
B
100
AcDbMaterial
  1
Global
  0
MLINESTYLE
  5
186
102
{ACAD_REACTORS
330
180
102
}
330
180
100
AcDbMlineStyle
  2
STANDARD
 70
     0
  3

 62
   256
 51
90.0
 52
90.0
 71
     2
 49
0.5
 62
   256
  6
BYLAYER
 49
-0.5
 62
   256
  6
BYLAYER
  0
ACDBPLACEHOLDER
  5
7
102
{ACAD_REACTORS
330
8
102
}
330
8
  0
TABLESTYLE
  5
187
102
{ACAD_XDICTIONARY
360
21A
102
}
102
{ACAD_REACTORS
330
185
102
}
330
185
100
AcDbTableStyle
  3
Standard
 70
     0
 71
     0
 40
1.5
 41
1.5
280
     0
281
     0
  7
Standard
140
4.5
170
     2
 62
     0
 63
     7
283
     0
274
    -2
284
     1
 64
     0
275
    -2
285
     1
 65
     0
276
    -2
286
     1
 66
     0
277
    -2
287
     1
 67
     0
278
    -2
288
     1
 68
     0
279
    -2
289
     1
 69
     0
  7
Standard
140
6.0
170
     5
 62
     0
 63
     7
283
     0
274
    -2
284
     1
 64
     0
275
    -2
285
     1
 65
     0
276
    -2
286
     1
 66
     0
277
    -2
287
     1
 67
     0
278
    -2
288
     1
 68
     0
279
    -2
289
     1
 69
     0
  7
Standard
140
4.5
170
     5
 62
     0
 63
     7
283
     0
274
    -2
284
     1
 64
     0
275
    -2
285
     1
 65
     0
276
    -2
286
     1
 66
     0
277
    -2
287
     1
 67
     0
278
    -2
288
     1
 68
     0
279
    -2
289
     1
 69
     0
  0
VISUALSTYLE
  5
179
102
{ACAD_REACTORS
330
17A
102
}
330
17A
100
AcDbVisualStyle
  2
2dWireframe
 70
     4
 71
     0
 72
     2
 73
     0
 90
        0
 40
-0.6
 41
-30.0
 62
     5
 63
     7
 74
     1
 91
        4
 64
     7
 65
   257
 75
     1
175
     1
 42
1.0
 92
        0
 66
   257
 43
1.0
 76
     1
 77
     6
 78
     2
 67
     7
 79
     5
170
     0
171
     0
290
     0
174
     0
 93
        1
 44
0.0
173
     0
291
     0
 45
0.0
1001
ACAD
1000
AcDbSavedByObjectVersion
1070
     0
1000
AcDbSavedByObjectVersion
1070
     0
1000
AcDbSavedByObjectVersion
1070
     0
1001
ACAD
1000
AcRTDxfName
1000
VISUALSTYLE
  0
VISUALSTYLE
  5
1BD
102
{ACAD_REACTORS
330
17A
102
}
330
17A
100
AcDbVisualStyle
  2
3D Hidden
 70
     6
 71
     1
 72
     2
 73
     2
 90
        0
 40
-0.6
 41
-30.0
 62
     5
 63
     7
 74
     2
 91
        2
 64
     7
 65
   257
 75
     2
175
     1
 42
40.0
 92
        0
 66
   257
 43
1.0
 76
     1
 77
     6
 78
     2
 67
     7
 79
     3
170
     0
171
     0
290
     0
174
     0
 93
        1
 44
0.0
173
     0
291
     0
 45
0.0
1001
ACAD
1000
AcDbSavedByObjectVersion
1070
     0
1000
AcDbSavedByObjectVersion
1070
     0
1001
ACAD
1000
AcRTDxfName
1000
VISUALSTYLE
  0
VISUALSTYLE
  5
189
102
{ACAD_REACTORS
330
17A
102
}
330
17A
100
AcDbVisualStyle
  2
3dWireframe
 70
     5
 71
     0
 72
     2
 73
     0
 90
        0
 40
-0.6
 41
-30.0
 62
     5
 63
     7
 74
     1
 91
        4
 64
     7
 65
   257
 75
     1
175
     1
 42
1.0
 92
        0
 66
   257
 43
1.0
 76
     1
 77
     6
 78
     2
 67
     7
 79
     5
170
     0
171
     0
290
     0
174
     0
 93
        1
 44
0.0
173
     0
291
     0
 45
0.0
1001
ACAD
1000
AcDbSavedByObjectVersion
1070
     0
1000
AcDbSavedByObjectVersion
1070
     0
1000
AcDbSavedByObjectVersion
1070
     0
1001
ACAD
1000
AcRTDxfName
1000
VISUALSTYLE
  0
VISUALSTYLE
  5
1BC
102
{ACAD_REACTORS
330
17A
102
}
330
17A
100
AcDbVisualStyle
  2
Basic
 70
     7
 71
     1
 72
     0
 73
     1
 90
        0
 40
-0.6
 41
-30.0
 62
     5
 63
     7
 74
     0
 91
        4
 64
     7
 65
   257
 75
     1
175
     1
 42
1.0
 92
        8
 66
     7
 43
1.0
 76
     1
 77
     6
 78
     2
 67
     7
 79
     5
170
     0
171
     0
290
     0
174
     0
 93
        1
 44
0.0
173
     0
291
     1
 45
0.0
1001
ACAD
1000
AcDbSavedByObjectVersion
1070
     0
1000
AcDbSavedByObjectVersion
1070
     0
1001
ACAD
1000
AcRTDxfName
1000
VISUALSTYLE
  0
VISUALSTYLE
  5
1C0
102
{ACAD_REACTORS
330
17A
102
}
330
17A
100
AcDbVisualStyle
  2
Brighten
 70
    12
 71
     2
 72
     2
 73
     0
 90
        0
 40
-0.6
 41
-30.0
 62
     5
 63
     7
 74
     1
 91
        4
 64
     7
 65
   257
 75
     1
175
     1
 42
1.0
 92
        8
 66
     7
 43
1.0
 76
     1
 77
     6
 78
     2
 67
     7
 79
     5
170
     0
171
     0
290
     0
174
     0
 93
        1
 44
50.0
173
     0
291
     1
 45
0.0
1001
ACAD
1000
AcDbSavedByObjectVersion
1070
     0
1000
AcDbSavedByObjectVersion
1070
     0
1001
ACAD
1000
AcRTDxfName
1000
VISUALSTYLE
  0
VISUALSTYLE
  5
1C4
102
{ACAD_REACTORS
330
17A
102
}
330
17A
100
AcDbVisualStyle
  2
ColorChange
 70
    16
 71
     2
 72
     2
 73
     3
 90
        0
 40
-0.6
 41
-30.0
 62
     5
 63
     8
 74
     1
 91
        4
 64
     7
 65
   257
 75
     1
175
     1
 42
1.0
 92
        8
 66
     8
 43
1.0
 76
     1
 77
     6
 78
     2
 67
     7
 79
     5
170
     0
171
     0
290
     0
174
     0
 93
        1
 44
0.0
173
     0
291
     1
 45
0.0
1001
ACAD
1000
AcDbSavedByObjectVersion
1070
     0
1000
AcDbSavedByObjectVersion
1070
     0
1001
ACAD
1000
AcRTDxfName
1000
VISUALSTYLE
  0
VISUALSTYLE
  5
1BE
102
{ACAD_REACTORS
330
17A
102
}
330
17A
100
AcDbVisualStyle
  2
Conceptual
 70
     9
 71
     3
 72
     2
 73
     0
 90
        0
 40
-0.6
 41
-30.0
 62
     5
 63
     7
 74
     2
 91
        2
 64
     7
 65
   257
 75
     1
175
     1
 42
40.0
 92
        8
 66
     7
 43
1.0
 76
     1
 77
     6
 78
     2
 67
     7
 79
     3
170
     0
171
     0
290
     0
174
     0
 93
        1
 44
0.0
173
     0
291
     0
 45
0.0
1001
ACAD
1000
AcDbSavedByObjectVersion
1070
     0
1000
AcDbSavedByObjectVersion
1070
     0
1001
ACAD
1000
AcRTDxfName
1000
VISUALSTYLE
  0
VISUALSTYLE
  5
1BF
102
{ACAD_REACTORS
330
17A
102
}
330
17A
100
AcDbVisualStyle
  2
Dim
 70
    11
 71
     2
 72
     2
 73
     0
 90
        0
 40
-0.6
 41
-30.0
 62
     5
 63
     7
 74
     1
 91
        4
 64
     7
 65
   257
 75
     1
175
     1
 42
1.0
 92
        8
 66
     7
 43
1.0
 76
     1
 77
     6
 78
     2
 67
     7
 79
     5
170
     0
171
     0
290
     0
174
     0
 93
        1
 44
-50.0
173
     0
291
     1
 45
0.0
1001
ACAD
1000
AcDbSavedByObjectVersion
1070
     0
1000
AcDbSavedByObjectVersion
1070
     0
1001
ACAD
1000
AcRTDxfName
1000
VISUALSTYLE
  0
VISUALSTYLE
  5
1C3
102
{ACAD_REACTORS
330
17A
102
}
330
17A
100
AcDbVisualStyle
  2
Facepattern
 70
    15
 71
     2
 72
     2
 73
     0
 90
        0
 40
-0.6
 41
-30.0
 62
     5
 63
     7
 74
     1
 91
        4
 64
     7
 65
   257
 75
     1
175
     1
 42
1.0
 92
        8
 66
     7
 43
1.0
 76
     1
 77
     6
 78
     2
 67
     7
 79
     5
170
     0
171
     0
290
     0
174
     0
 93
        1
 44
0.0
173
     0
291
     1
 45
0.0
1001
ACAD
1000
AcDbSavedByObjectVersion
1070
     0
1000
AcDbSavedByObjectVersion
1070
     0
1001
ACAD
1000
AcRTDxfName
1000
VISUALSTYLE
  0
VISUALSTYLE
  5
1B8
102
{ACAD_REACTORS
330
17A
102
}
330
17A
100
AcDbVisualStyle
  2
Flat
 70
     0
 71
     2
 72
     1
 73
     1
 90
        2
 40
-0.6
 41
30.0
 62
     5
 63
     7
 74
     0
 91
        4
 64
     7
 65
   257
 75
     1
175
     1
 42
1.0
 92
        8
 66
     7
 43
1.0
 76
     1
 77
     6
 78
     2
 67
     7
 79
     5
170
     0
171
     0
290
     0
174
     0
 93
       13
 44
0.0
173
     0
291
     1
 45
0.0
1001
ACAD
1000
AcDbSavedByObjectVersion
1070
     0
1000
AcDbSavedByObjectVersion
1070
     0
1001
ACAD
1000
AcRTDxfName
1000
VISUALSTYLE
  0
VISUALSTYLE
  5
1B9
102
{ACAD_REACTORS
330
17A
102
}
330
17A
100
AcDbVisualStyle
  2
FlatWithEdges
 70
     1
 71
     2
 72
     1
 73
     1
 90
        2
 40
-0.6
 41
30.0
 62
     5
 63
     7
 74
     1
 91
        4
 64
     7
 65
   257
 75
     1
175
     1
 42
1.0
 92
        0
 66
   257
 43
1.0
 76
     1
 77
     6
 78
     2
 67
     7
 79
     5
170
     0
171
     0
290
     0
174
     0
 93
       13
 44
0.0
173
     0
291
     1
 45
0.0
1001
ACAD
1000
AcDbSavedByObjectVersion
1070
     0
1000
AcDbSavedByObjectVersion
1070
     0
1001
ACAD
1000
AcRTDxfName
1000
VISUALSTYLE
  0
VISUALSTYLE
  5
1BA
102
{ACAD_REACTORS
330
17A
102
}
330
17A
100
AcDbVisualStyle
  2
Gouraud
 70
     2
 71
     2
 72
     2
 73
     1
 90
        2
 40
-0.6
 41
30.0
 62
     5
 63
     7
 74
     0
 91
        4
 64
     7
 65
   257
 75
     1
175
     1
 42
1.0
 92
        0
 66
     7
 43
1.0
 76
     1
 77
     6
 78
     2
 67
     7
 79
     5
170
     0
171
     0
290
     0
174
     0
 93
       13
 44
0.0
173
     0
291
     1
 45
0.0
1001
ACAD
1000
AcDbSavedByObjectVersion
1070
     0
1000
AcDbSavedByObjectVersion
1070
     0
1001
ACAD
1000
AcRTDxfName
1000
VISUALSTYLE
  0
VISUALSTYLE
  5
1BB
102
{ACAD_REACTORS
330
17A
102
}
330
17A
100
AcDbVisualStyle
  2
GouraudWithEdges
 70
     3
 71
     2
 72
     2
 73
     1
 90
        2
 40
-0.6
 41
30.0
 62
     5
 63
     7
 74
     1
 91
        4
 64
     7
 65
   257
 75
     1
175
     1
 42
1.0
 92
        0
 66
   257
 43
1.0
 76
     1
 77
     6
 78
     2
 67
     7
 79
     5
170
     0
171
     0
290
     0
174
     0
 93
       13
 44
0.0
173
     0
291
     1
 45
0.0
1001
ACAD
1000
AcDbSavedByObjectVersion
1070
     0
1000
AcDbSavedByObjectVersion
1070
     0
1001
ACAD
1000
AcRTDxfName
1000
VISUALSTYLE
  0
VISUALSTYLE
  5
1C2
102
{ACAD_REACTORS
330
17A
102
}
330
17A
100
AcDbVisualStyle
  2
Linepattern
 70
    14
 71
     2
 72
     2
 73
     0
 90
        0
 40
-0.6
 41
-30.0
 62
     5
 63
     7
 74
     1
 91
        4
 64
     7
 65
   257
 75
     7
175
     7
 42
1.0
 92
        8
 66
     7
 43
1.0
 76
     1
 77
     6
 78
     2
 67
     7
 79
     5
170
     0
171
     0
290
     0
174
     0
 93
        1
 44
0.0
173
     0
291
     1
 45
0.0
1001
ACAD
1000
AcDbSavedByObjectVersion
1070
     0
1000
AcDbSavedByObjectVersion
1070
     0
1001
ACAD
1000
AcRTDxfName
1000
VISUALSTYLE
  0
VISUALSTYLE
  5
188
102
{ACAD_REACTORS
330
17A
102
}
330
17A
100
AcDbVisualStyle
  2
Realistic
 70
     8
 71
     2
 72
     2
 73
     0
 90
        0
 40
-0.6
 41
-30.0
 62
     5
 63
     7
 74
     1
 91
        0
 64
     7
 65
   257
 75
     1
175
     1
 42
1.0
 92
        8
 66
     8
 43
1.0
 76
     1
 77
     6
 78
     2
 67
     7
 79
     5
170
     0
171
     0
290
     0
174
     0
 93
       13
 44
0.0
173
     0
291
     0
 45
0.0
1001
ACAD
1000
AcDbSavedByObjectVersion
1070
     0
1000
AcDbSavedByObjectVersion
1070
     0
1000
AcDbSavedByObjectVersion
1070
     0
1001
ACAD
1000
AcRTDxfName
1000
VISUALSTYLE
  0
VISUALSTYLE
  5
1C1
102
{ACAD_REACTORS
330
17A
102
}
330
17A
100
AcDbVisualStyle
  2
Thicken
 70
    13
 71
     2
 72
     2
 73
     0
 90
        0
 40
-0.6
 41
-30.0
 62
     5
 63
     7
 74
     1
 91
        4
 64
     7
 65
   257
 75
     1
175
     1
 42
1.0
 92
       12
 66
     7
 43
1.0
 76
     1
 77
     6
 78
     2
 67
     7
 79
     5
170
     0
171
     0
290
     0
174
     0
 93
        1
 44
0.0
173
     0
291
     1
 45
0.0
1001
ACAD
1000
AcDbSavedByObjectVersion
1070
     0
1000
AcDbSavedByObjectVersion
1070
     0
1001
ACAD
1000
AcRTDxfName
1000
VISUALSTYLE
  0
DICTIONARYVAR
  5
18C
102
{ACAD_REACTORS
330
18B
102
}
330
18B
100
DictionaryVariables
280
     0
  1
STANDARD
  0
DICTIONARYVAR
  5
190
102
{ACAD_REACTORS
330
18B
102
}
330
18B
100
DictionaryVariables
280
     0
  1
2
  0
DICTIONARYVAR
  5
18F
102
{ACAD_REACTORS
330
18B
102
}
330
18B
100
DictionaryVariables
280
     0
  1
1
  0
DICTIONARYVAR
  5
18E
102
{ACAD_REACTORS
330
18B
102
}
330
18B
100
DictionaryVariables
280
     0
  1
0
  0
DICTIONARYVAR
  5
2F9
102
{ACAD_REACTORS
330
18B
102
}
330
18B
100
DictionaryVariables
280
     0
  1

  0
DICTIONARYVAR
  5
18D
102
{ACAD_REACTORS
330
18B
102
}
330
18B
100
DictionaryVariables
280
     0
  1
127
  0
DICTIONARY
  5
25C0
330
168
100
AcDbDictionary
280
     1
281
     1
  3
ACAD_XREC_ROUNDTRIP
360
25C1
  0
DICTIONARY
  5
25C2
330
16C
100
AcDbDictionary
280
     1
281
     1
  3
ACAD_XREC_ROUNDTRIP
360
25C3
  0
DICTIONARY
  5
25BE
330
163
100
AcDbDictionary
280
     1
281
     1
  3
ACAD_XREC_ROUNDTRIP
360
25BF
  0
DICTIONARY
  5
1B0
330
183
100
AcDbDictionary
280
     1
281
     1
  3
ACAD_XREC_ROUNDTRIP
360
1B1
  0
DICTIONARY
  5
1AE
330
182
100
AcDbDictionary
280
     1
281
     1
  3
ACAD_XREC_ROUNDTRIP
360
1AF
  0
DICTIONARY
  5
193
330
A
100
AcDbDictionary
280
     1
281
     1
  3
ACAD_XREC_ROUNDTRIP
360
194
  0
DICTIONARY
  5
21A
330
187
100
AcDbDictionary
280
     1
281
     1
  3
ACAD_XREC_ROUNDTRIP
360
21B
  0
XRECORD
  5
25C1
102
{ACAD_REACTORS
330
25C0
102
}
330
25C0
100
AcDbXrecord
280
     1
102
SHADEPLOT
 70
     0
102
SHADEPLOTRESLEVEL
 70
     2
102
SHADEPLOTCUSTOMDPI
 70
   300
  0
XRECORD
  5
25C3
102
{ACAD_REACTORS
330
25C2
102
}
330
25C2
100
AcDbXrecord
280
     1
102
SHADEPLOT
 70
     0
102
SHADEPLOTRESLEVEL
 70
     2
102
SHADEPLOTCUSTOMDPI
 70
   300
  0
XRECORD
  5
25BF
102
{ACAD_REACTORS
330
25BE
102
}
330
25BE
100
AcDbXrecord
280
     1
102
SHADEPLOT
 70
     0
102
SHADEPLOTRESLEVEL
 70
     2
102
SHADEPLOTCUSTOMDPI
 70
   300
  0
XRECORD
  5
1B1
102
{ACAD_REACTORS
330
1B0
102
}
330
1B0
100
AcDbXrecord
280
     1
102
MATERIAL
148
0.0
149
0.0
149
0.0
 93
        0
 94
       63
282
     0
 72
     1
 77
     1
171
     1
175
     1
179
     1
273
     0
  0
XRECORD
  5
1AF
102
{ACAD_REACTORS
330
1AE
102
}
330
1AE
100
AcDbXrecord
280
     1
102
MATERIAL
148
0.0
149
0.0
149
0.0
 93
        0
 94
       63
282
     0
 72
     1
 77
     1
171
     1
175
     1
179
     1
273
     0
  0
XRECORD
  5
194
102
{ACAD_REACTORS
330
193
102
}
330
193
100
AcDbXrecord
280
     1
102
MATERIAL
148
0.0
149
0.0
149
0.0
 93
        0
 94
       63
282
     0
 72
     1
 77
     1
171
     1
175
     1
179
     1
273
     0
  0
XRECORD
  5
21B
102
{ACAD_REACTORS
330
21A
102
}
330
21A
100
AcDbXrecord
280
     1
102
ACAD_ROUNDTRIP_PRE2007_TABLESTYLE
 90
        4
 91
        0
  1

 92
        4
 93
        0
  2

 94
        4
 95
        0
  3

  0
ENDSEC
  0
EOF
