  0
SECTION
  2
HEADER
  9
$ACADVER
  1
AC1015
  9
$ACADMAINTVER
 70
    20
  9
$DWGCODEPAGE
  3
ANSI_1252
  9
$INSBASE
 10
0.0
 20
0.0
 30
0.0
  9
$EXTMIN
 10
0.0149999999999999
 20
0.015
 30
0.0
  9
$EXTMAX
 10
0.7953169683345664
 20
0.3559831101712668
 30
0.0
  9
$LIMMIN
 10
0.0
 20
0.0
  9
$LIMMAX
 10
1.0
 20
0.5
  9
$ORTHOMODE
 70
     0
  9
$REGENMODE
 70
     1
  9
$FILLMODE
 70
     1
  9
$QTEXTMODE
 70
     0
  9
$MIRRTEXT
 70
     0
  9
$LTSCALE
 40
1.0
  9
$ATTMODE
 70
     1
  9
$TEXTSIZE
 40
0.008
  9
$TRACEWID
 40
1.0
  9
$TEXTSTYLE
  7
style1
  9
$CLAYER
  8
Text
  9
$CELTYPE
  6
ACAD_ISO10W100
  9
$CECOLOR
 62
   256
  9
$CELTSCALE
 40
1.0
  9
$DISPSILH
 70
     0
  9
$DIMSCALE
 40
0.001
  9
$DIMASZ
 40
1.5
  9
$DIMEXO
 40
0.0625
  9
$DIMDLI
 40
0.38
  9
$DIMRND
 40
0.0
  9
$DIMDLE
 40
0.0
  9
$DIMEXE
 40
0.18
  9
$DIMTP
 40
0.0
  9
$DIMTM
 40
0.0
  9
$DIMTXT
 40
3.0
  9
$DIMCEN
 40
0.0
  9
$DIMTSZ
 40
0.0
  9
$DIMTOL
 70
     0
  9
$DIMLIM
 70
     0
  9
$DIMTIH
 70
     1
  9
$DIMTOH
 70
     1
  9
$DIMSE1
 70
     0
  9
$DIMSE2
 70
     0
  9
$DIMTAD
 70
     0
  9
$DIMZIN
 70
     0
  9
$DIMBLK
  1
ArchTick
  9
$DIMASO
 70
     1
  9
$DIMSHO
 70
     1
  9
$DIMPOST
  1

  9
$DIMAPOST
  1

  9
$DIMALT
 70
     0
  9
$DIMALTD
 70
     2
  9
$DIMALTF
 40
25.4
  9
$DIMLFAC
 40
1.0
  9
$DIMTOFL
 70
     0
  9
$DIMTVP
 40
0.0
  9
$DIMTIX
 70
     0
  9
$DIMSOXD
 70
     0
  9
$DIMSAH
 70
     0
  9
$DIMBLK1
  1

  9
$DIMBLK2
  1

  9
$DIMSTYLE
  2
Bovelacci
  9
$DIMCLRD
 70
     5
  9
$DIMCLRE
 70
     5
  9
$DIMCLRT
 70
     4
  9
$DIMTFAC
 40
1.0
  9
$DIMGAP
 40
2.0
  9
$DIMJUST
 70
     0
  9
$DIMSD1
 70
     0
  9
$DIMSD2
 70
     0
  9
$DIMTOLJ
 70
     1
  9
$DIMTZIN
 70
     0
  9
$DIMALTZ
 70
     0
  9
$DIMALTTZ
 70
     0
  9
$DIMUPT
 70
     0
  9
$DIMDEC
 70
     2
  9
$DIMTDEC
 70
     2
  9
$DIMALTU
 70
     2
  9
$DIMALTTD
 70
     2
  9
$DIMTXSTY
  7
ROMANS
  9
$DIMAUNIT
 70
     0
  9
$DIMADEC
 70
     0
  9
$DIMALTRND
 40
0.0
  9
$DIMAZIN
 70
     0
  9
$DIMDSEP
 70
    46
  9
$DIMATFIT
 70
     3
  9
$DIMFRAC
 70
     0
  9
$DIMLDRBLK
  1

  9
$DIMLUNIT
 70
     2
  9
$DIMLWD
 70
    -2
  9
$DIMLWE
 70
    -2
  9
$DIMTMOVE
 70
     2
  9
$LUNITS
 70
     2
  9
$LUPREC
 70
     2
  9
$SKETCHINC
 40
1.0
  9
$FILLETRAD
 40
0.0
  9
$AUNITS
 70
     0
  9
$AUPREC
 70
     0
  9
$MENU
  1
.
  9
$ELEVATION
 40
0.0
  9
$PELEVATION
 40
0.0
  9
$THICKNESS
 40
0.0
  9
$LIMCHECK
 70
     0
  9
$CHAMFERA
 40
0.0
  9
$CHAMFERB
 40
0.0
  9
$CHAMFERC
 40
0.0
  9
$CHAMFERD
 40
0.0
  9
$SKPOLY
 70
     0
  9
$TDCREATE
 40
2454297.625402373
  9
$TDUCREATE
 40
2454297.542069039
  9
$TDUPDATE
 40
2454305.919457998
  9
$TDUUPDATE
 40
2454305.836124664
  9
$TDINDWG
 40
0.0876032639
  9
$TDUSRTIMER
 40
0.0876012616
  9
$USRTIMER
 70
     1
  9
$ANGBASE
 50
0.0
  9
$ANGDIR
 70
     0
  9
$PDMODE
 70
     0
  9
$PDSIZE
 40
0.0
  9
$PLINEWID
 40
0.0
  9
$SPLFRAME
 70
     0
  9
$SPLINETYPE
 70
     6
  9
$SPLINESEGS
 70
     8
  9
$HANDSEED
  5
50E
  9
$SURFTAB1
 70
     6
  9
$SURFTAB2
 70
     6
  9
$SURFTYPE
 70
     6
  9
$SURFU
 70
     6
  9
$SURFV
 70
     6
  9
$UCSBASE
  2

  9
$UCSNAME
  2

  9
$UCSORG
 10
0.0
 20
0.0
 30
0.0
  9
$UCSXDIR
 10
1.0
 20
0.0
 30
0.0
  9
$UCSYDIR
 10
0.0
 20
1.0
 30
0.0
  9
$UCSORTHOREF
  2

  9
$UCSORTHOVIEW
 70
     0
  9
$UCSORGTOP
 10
0.0
 20
0.0
 30
0.0
  9
$UCSORGBOTTOM
 10
0.0
 20
0.0
 30
0.0
  9
$UCSORGLEFT
 10
0.0
 20
0.0
 30
0.0
  9
$UCSORGRIGHT
 10
0.0
 20
0.0
 30
0.0
  9
$UCSORGFRONT
 10
0.0
 20
0.0
 30
0.0
  9
$UCSORGBACK
 10
0.0
 20
0.0
 30
0.0
  9
$PUCSBASE
  2

  9
$PUCSNAME
  2

  9
$PUCSORG
 10
0.0
 20
0.0
 30
0.0
  9
$PUCSXDIR
 10
1.0
 20
0.0
 30
0.0
  9
$PUCSYDIR
 10
0.0
 20
1.0
 30
0.0
  9
$PUCSORTHOREF
  2

  9
$PUCSORTHOVIEW
 70
     0
  9
$PUCSORGTOP
 10
0.0
 20
0.0
 30
0.0
  9
$PUCSORGBOTTOM
 10
0.0
 20
0.0
 30
0.0
  9
$PUCSORGLEFT
 10
0.0
 20
0.0
 30
0.0
  9
$PUCSORGRIGHT
 10
0.0
 20
0.0
 30
0.0
  9
$PUCSORGFRONT
 10
0.0
 20
0.0
 30
0.0
  9
$PUCSORGBACK
 10
0.0
 20
0.0
 30
0.0
  9
$USERI1
 70
     0
  9
$USERI2
 70
     0
  9
$USERI3
 70
     0
  9
$USERI4
 70
     0
  9
$USERI5
 70
     0
  9
$USERR1
 40
0.0
  9
$USERR2
 40
0.0
  9
$USERR3
 40
0.0
  9
$USERR4
 40
0.0
  9
$USERR5
 40
0.0
  9
$WORLDVIEW
 70
     1
  9
$SHADEDGE
 70
     3
  9
$SHADEDIF
 70
    70
  9
$TILEMODE
 70
     1
  9
$MAXACTVP
 70
    64
  9
$PINSBASE
 10
0.0
 20
0.0
 30
0.0
  9
$PLIMCHECK
 70
     0
  9
$PEXTMIN
 10
1.000000000000000E+20
 20
1.000000000000000E+20
 30
1.000000000000000E+20
  9
$PEXTMAX
 10
-1.000000000000000E+20
 20
-1.000000000000000E+20
 30
-1.000000000000000E+20
  9
$PLIMMIN
 10
0.0
 20
0.0
  9
$PLIMMAX
 10
420.0
 20
297.0
  9
$UNITMODE
 70
     0
  9
$VISRETAIN
 70
     1
  9
$PLINEGEN
 70
     0
  9
$PSLTSCALE
 70
     1
  9
$TREEDEPTH
 70
  3020
  9
$CMLSTYLE
  2
Standard
  9
$CMLJUST
 70
     0
  9
$CMLSCALE
 40
20.0
  9
$PROXYGRAPHICS
 70
     1
  9
$MEASUREMENT
 70
     1
  9
$CELWEIGHT
370
    -1
  9
$ENDCAPS
280
     0
  9
$JOINSTYLE
280
     0
  9
$LWDISPLAY
290
     0
  9
$INSUNITS
 70
     4
  9
$HYPERLINKBASE
  1

  9
$STYLESHEET
  1

  9
$XEDIT
290
     1
  9
$CEPSNTYPE
380
     0
  9
$PSTYLEMODE
290
     1
  9
$FINGERPRINTGUID
  2
{904A8C64-524F-4709-A9C6-320D2C273A6D}
  9
$VERSIONGUID
  2
{C594130D-90A6-40B7-AAB8-94080E28BC13}
  9
$EXTNAMES
290
     1
  9
$PSVPSCALE
 40
0.0
  9
$OLESTARTUP
290
     0
  0
ENDSEC
  0
SECTION
  2
CLASSES
  0
CLASS
  1
ACDBDICTIONARYWDFLT
  2
AcDbDictionaryWithDefault
  3
ObjectDBX Classes
 90
        0
280
     0
281
     0
  0
CLASS
  1
TABLESTYLE
  2
AcDbTableStyle
  3
ObjectDBX Classes
 90
     2047
280
     0
281
     0
  0
CLASS
  1
SORTENTSTABLE
  2
AcDbSortentsTable
  3
ObjectDBX Classes
 90
        0
280
     0
281
     0
  0
CLASS
  1
DICTIONARYVAR
  2
AcDbDictionaryVar
  3
ObjectDBX Classes
 90
        0
280
     0
281
     0
  0
CLASS
  1
ACDBPLACEHOLDER
  2
AcDbPlaceHolder
  3
ObjectDBX Classes
 90
        0
280
     0
281
     0
  0
CLASS
  1
LAYOUT
  2
AcDbLayout
  3
ObjectDBX Classes
 90
        0
280
     0
281
     0
  0
CLASS
  1
DIMASSOC
  2
AcDbDimAssoc
  3
"AcDbDimAssoc|Product Desc:     AcDim ARX App For Dimension|Company:          Autodesk, Inc.|WEB Address:      www.autodesk.com"
 90
        0
280
     0
281
     0
  0
CLASS
  1
MATERIAL
  2
AcDbMaterial
  3
ObjectDBX Classes
 90
        0
280
     0
281
     0
  0
CLASS
  1
VISUALSTYLE
  2
AcDbVisualStyle
  3
ObjectDBX Classes
 90
     4095
280
     0
281
     0
  0
ENDSEC
  0
SECTION
  2
TABLES
  0
TABLE
  2
VPORT
  5
177
330
0
100
AcDbSymbolTable
 70
     7
  0
VPORT
  5
503
330
177
100
AcDbSymbolTableRecord
100
AcDbViewportTableRecord
  2
*Active
 70
     0
 10
0.0
 20
0.0
 11
1.0
 21
1.0
 12
0.1986760227860935
 22
0.1473615044406687
 13
0.0
 23
0.0
 14
10.0
 24
10.0
 15
10.0
 25
10.0
 16
0.0
 26
0.0
 36
1.0
 17
0.0
 27
0.0
 37
0.0
 40
0.2801750812118385
 41
1.546526867627784
 42
50.0
 43
0.0
 44
0.0
 50
0.0
 51
0.0
 71
     0
 72
  1000
 73
     1
 74
     3
 75
     0
 76
     0
 77
     0
 78
     0
281
     0
 65
     1
110
0.0
120
0.0
130
0.0
111
1.0
121
0.0
131
0.0
112
0.0
122
1.0
132
0.0
 79
     0
146
0.0
  0
ENDTAB
  0
TABLE
  2
LTYPE
  5
172
330
0
100
AcDbSymbolTable
 70
     2
  0
LTYPE
  5
173
330
172
100
AcDbSymbolTableRecord
100
AcDbLinetypeTableRecord
  2
ByBlock
 70
     0
  3

 72
    65
 73
     0
 40
0.0
  0
LTYPE
  5
174
330
172
100
AcDbSymbolTableRecord
100
AcDbLinetypeTableRecord
  2
ByLayer
 70
     0
  3

 72
    65
 73
     0
 40
0.0
  0
LTYPE
  5
C
330
172
100
AcDbSymbolTableRecord
100
AcDbLinetypeTableRecord
  2
Continuous
 70
     0
  3
Solid line
 72
    65
 73
     0
 40
0.0
  0
LTYPE
  5
14E
330
172
100
AcDbSymbolTableRecord
100
AcDbLinetypeTableRecord
  2
ACAD_ISO10W100
 70
     0
  3
ISO dash dot __ . __ . __ . __ . __ . __ . __ .
 72
    65
 73
     4
 40
18.0
 49
12.0
 74
     0
 49
-3.0
 74
     0
 49
0.0
 74
     0
 49
-3.0
 74
     0
  0
ENDTAB
  0
TABLE
  2
LAYER
  5
16D
102
{ACAD_XDICTIONARY
360
16E
102
}
330
0
100
AcDbSymbolTable
 70
     7
  0
LAYER
  5
6
330
16D
100
AcDbSymbolTableRecord
100
AcDbLayerTableRecord
  2
0
 70
     0
 62
     7
  6
Continuous
370
    -3
390
7
  0
LAYER
  5
15F
330
16D
100
AcDbSymbolTableRecord
100
AcDbLayerTableRecord
  2
Defpoints
 70
     0
 62
     7
  6
Continuous
290
     0
370
    -3
390
7
  0
LAYER
  5
28
330
16D
100
AcDbSymbolTableRecord
100
AcDbLayerTableRecord
  2
Profilo
 70
     0
 62
     1
  6
Continuous
370
    -3
390
7
1001
AcAecLayerStandard
1000

1000

  0
LAYER
  5
14D
330
16D
100
AcDbSymbolTableRecord
100
AcDbLayerTableRecord
  2
Sezione
 70
     0
 62
     2
  6
Continuous
370
    -3
390
7
1001
AcAecLayerStandard
1000

1000

  0
LAYER
  5
E
330
16D
100
AcDbSymbolTableRecord
100
AcDbLayerTableRecord
  2
Table
 70
     0
 62
     3
  6
Continuous
370
    -3
390
7
1001
AcAecLayerStandard
1000

1000

  0
LAYER
  5
19
330
16D
100
AcDbSymbolTableRecord
100
AcDbLayerTableRecord
  2
Text
 70
     0
 62
     4
  6
Continuous
370
    -3
390
7
1001
AcAecLayerStandard
1000

1000

  0
LAYER
  5
23D
330
16D
100
AcDbSymbolTableRecord
100
AcDbLayerTableRecord
  2
Bovelacci
 70
     0
 62
     9
  6
Continuous
370
    -3
390
7
1001
AcAecLayerStandard
1000

1000

  0
ENDTAB
  0
TABLE
  2
STYLE
  5
170
330
0
100
AcDbSymbolTable
 70
     3
  0
STYLE
  5
1A
330
170
100
AcDbSymbolTableRecord
100
AcDbTextStyleTableRecord
  2
Standard
 70
     0
 40
0.0
 41
1.0
 50
0.0
 71
     0
 42
2.5
  3
txt
  4

  0
STYLE
  5
20
330
170
100
AcDbSymbolTableRecord
100
AcDbTextStyleTableRecord
  2
ROMANS
 70
     0
 40
0.0
 41
1.0
 50
0.0
 71
     0
 42
2.5
  3
romans
  4

  0
STYLE
  5
26
330
170
100
AcDbSymbolTableRecord
100
AcDbTextStyleTableRecord
  2
style1
 70
     0
 40
0.0
 41
1.0
 50
0.0
 71
     0
 42
0.008
  3
TIMES.TTF
  4

1001
ACAD
1000
Times New Roman
1071
       18
  0
ENDTAB
  0
TABLE
  2
VIEW
  5
175
330
0
100
AcDbSymbolTable
 70
     1
  0
ENDTAB
  0
TABLE
  2
UCS
  5
176
330
0
100
AcDbSymbolTable
 70
     0
  0
ENDTAB
  0
TABLE
  2
APPID
  5
17B
330
0
100
AcDbSymbolTable
 70
    10
  0
APPID
  5
1B
330
17B
100
AcDbSymbolTableRecord
100
AcDbRegAppTableRecord
  2
ACAD
 70
     0
  0
APPID
  5
157
330
17B
100
AcDbSymbolTableRecord
100
AcDbRegAppTableRecord
  2
ACAD_DSTYLE_DIMJOGGED_JOGANGLE_SYMBOL
 70
     0
  0
APPID
  5
F
330
17B
100
AcDbSymbolTableRecord
100
AcDbRegAppTableRecord
  2
AcAecLayerStandard
 70
     0
  0
APPID
  5
19C
330
17B
100
AcDbSymbolTableRecord
100
AcDbRegAppTableRecord
  2
ACAD_DSTYLE_DIMFLIPARROW_WHICH_SYMBOL
 70
     0
  0
APPID
  5
1A7
330
17B
100
AcDbSymbolTableRecord
100
AcDbRegAppTableRecord
  2
ACAD_DSTYLE_DIMEXT_LENGTH
 70
     0
  0
APPID
  5
1D2
330
17B
100
AcDbSymbolTableRecord
100
AcDbRegAppTableRecord
  2
ACAD_EXEMPT_FROM_CAD_STANDARDS
 70
     0
  0
APPID
  5
1D3
330
17B
100
AcDbSymbolTableRecord
100
AcDbRegAppTableRecord
  2
ACAD_DSTYLE_DIM_LINETYPE
 70
     0
  0
APPID
  5
1D4
330
17B
100
AcDbSymbolTableRecord
100
AcDbRegAppTableRecord
  2
ACAD_DSTYLE_DIM_EXT1_LINETYPE
 70
     0
  0
APPID
  5
1D5
330
17B
100
AcDbSymbolTableRecord
100
AcDbRegAppTableRecord
  2
ACAD_DSTYLE_DIM_EXT2_LINETYPE
 70
     0
  0
APPID
  5
243
330
17B
100
AcDbSymbolTableRecord
100
AcDbRegAppTableRecord
  2
ACAD_PSEXT
 70
     0
  0
ENDTAB
  0
TABLE
  2
DIMSTYLE
  5
17C
330
0
100
AcDbSymbolTable
 70
     7
100
AcDbDimStyleTable
 71
     2
340
156
340
17D
  0
DIMSTYLE
105
17D
330
17C
100
AcDbSymbolTableRecord
100
AcDbDimStyleTableRecord
  2
ISO-25
 70
     0
 41
2.5
 42
0.625
 43
3.75
 44
1.25
 73
     0
 74
     0
 77
     1
 78
     8
140
2.5
141
2.5
143
0.03937007874016
147
0.625
171
     3
172
     1
271
     2
272
     2
274
     3
278
    44
283
     0
284
     8
340
1A
  0
DIMSTYLE
105
156
102
{ACAD_REACTORS
330
4E3
102
}
330
17C
100
AcDbSymbolTableRecord
100
AcDbDimStyleTableRecord
  2
Bovelacci
 70
     0
 40
0.001
 41
1.5
140
3.0
141
0.0
147
2.0
176
     5
177
     5
178
     4
271
     2
272
     2
279
     2
340
20
342
152
1001
ACAD_DSTYLE_DIMJOGGED_JOGANGLE_SYMBOL
1070
   384
1040
0.7853981633974483
1001
ACAD_DSTYLE_DIMEXT_LENGTH
1070
   378
1040
0.18
  0
DIMSTYLE
105
23E
330
17C
100
AcDbSymbolTableRecord
100
AcDbDimStyleTableRecord
  2
Dim 1-100
 70
     0
 40
0.1
 41
1.5
 42
0.0
 43
5.0
 44
1.25
 45
0.005
 46
1.25
 73
     0
 74
     0
 77
     1
 78
     9
140
2.0
141
2.5
147
1.0
172
     1
174
     1
179
     2
279
     2
289
     2
340
20
342
152
  0
DIMSTYLE
105
23F
330
17C
100
AcDbSymbolTableRecord
100
AcDbDimStyleTableRecord
  2
Standard
 70
     0
 42
0.0
 73
     0
 74
     0
 77
     1
271
     2
272
     2
340
20
  0
DIMSTYLE
105
240
330
17C
100
AcDbSymbolTableRecord
100
AcDbDimStyleTableRecord
  2
Dim 1-50
 70
     0
 40
0.05
 41
1.5
 42
0.0
 43
5.0
 44
1.25
 45
0.005
 46
1.25
 73
     0
 74
     0
 77
     1
 78
     9
140
2.0
141
2.5
147
1.0
172
     1
174
     1
179
     2
279
     2
289
     2
340
20
342
152
  0
DIMSTYLE
105
241
330
17C
100
AcDbSymbolTableRecord
100
AcDbDimStyleTableRecord
  2
Dim 1-200
 70
     0
 40
0.2
 41
1.5
 42
0.0
 43
5.0
 44
1.25
 45
0.005
 46
1.25
 73
     0
 74
     0
 77
     1
 78
     9
140
2.0
141
2.5
147
1.0
172
     1
174
     1
179
     2
271
     2
272
     2
279
     2
289
     2
340
20
342
152
  0
DIMSTYLE
105
242
330
17C
100
AcDbSymbolTableRecord
100
AcDbDimStyleTableRecord
  2
AEC Scale - Italiano
 70
     0
 41
1.0
 42
10.0
 43
10.0
 44
10.0
 73
     0
 74
     0
 75
     1
 76
     1
 77
     1
140
10.0
141
1.0
147
10.0
173
     1
271
     0
272
     0
279
     2
340
1A
343
238
344
232
  0
ENDTAB
  0
TABLE
  2
BLOCK_RECORD
  5
1
330
0
100
AcDbSymbolTable
 70
    12
  0
BLOCK_RECORD
  5
2
102
{ACAD_XDICTIONARY
360
3
102
}
330
1
100
AcDbSymbolTableRecord
100
AcDbBlockTableRecord
  2
*Model_Space
340
163
  0
BLOCK_RECORD
  5
165
330
1
100
AcDbSymbolTableRecord
100
AcDbBlockTableRecord
  2
*Paper_Space
340
168
  0
BLOCK_RECORD
  5
169
330
1
100
AcDbSymbolTableRecord
100
AcDbBlockTableRecord
  2
*Paper_Space0
340
16C
  0
BLOCK_RECORD
  5
152
330
1
100
AcDbSymbolTableRecord
100
AcDbBlockTableRecord
  2
_ArchTick
340
0
310
2800000020000000200000000100080000000000000400000000000000000000000000000000000000000000000080000080000000808000800000008000800080800000C0C0C000C0DCC000F0CAA6000020400000206000002080000020A0000020C0000020E00000400000004020000040400000406000004080000040A0
310
000040C0000040E00000600000006020000060400000606000006080000060A0000060C0000060E00000800000008020000080400000806000008080000080A0000080C0000080E00000A0000000A0200000A0400000A0600000A0800000A0A00000A0C00000A0E00000C0000000C0200000C0400000C0600000C0800000C0
310
A00000C0C00000C0E00000E0000000E0200000E0400000E0600000E0800000E0A00000E0C00000E0E00040000000400020004000400040006000400080004000A0004000C0004000E00040200000402020004020400040206000402080004020A0004020C0004020E000404000004040200040404000404060004040800040
310
40A0004040C0004040E00040600000406020004060400040606000406080004060A0004060C0004060E00040800000408020004080400040806000408080004080A0004080C0004080E00040A0000040A0200040A0400040A0600040A0800040A0A00040A0C00040A0E00040C0000040C0200040C0400040C0600040C08000
310
40C0A00040C0C00040C0E00040E0000040E0200040E0400040E0600040E0800040E0A00040E0C00040E0E00080000000800020008000400080006000800080008000A0008000C0008000E00080200000802020008020400080206000802080008020A0008020C0008020E00080400000804020008040400080406000804080
310
008040A0008040C0008040E00080600000806020008060400080606000806080008060A0008060C0008060E00080800000808020008080400080806000808080008080A0008080C0008080E00080A0000080A0200080A0400080A0600080A0800080A0A00080A0C00080A0E00080C0000080C0200080C0400080C0600080C0
310
800080C0A00080C0C00080C0E00080E0000080E0200080E0400080E0600080E0800080E0A00080E0C00080E0E000C0000000C0002000C0004000C0006000C0008000C000A000C000C000C000E000C0200000C0202000C0204000C0206000C0208000C020A000C020C000C020E000C0400000C0402000C0404000C0406000C0
310
408000C040A000C040C000C040E000C0600000C0602000C0604000C0606000C0608000C060A000C060C000C060E000C0800000C0802000C0804000C0806000C0808000C080A000C080C000C080E000C0A00000C0A02000C0A04000C0A06000C0A08000C0A0A000C0A0C000C0A0E000C0C00000C0C02000C0C04000C0C06000
310
C0C08000C0C0A000F0FBFF00A4A0A000808080000000FF0000FF000000FFFF00FF000000FF00FF00FFFF0000FFFFFF00000000FF000000000000000000000000000000000000000000000000000000000000FF00FF00000000000000000000000000000000000000000000000000000000FF000000FF000000000000000000
310
0000000000000000000000000000000000FF0000000000FF0000000000000000000000000000000000000000000000000000FF0000000000FF0000000000000000000000000000000000000000000000000000FF0000000000FF0000000000000000000000000000000000000000000000000000FF0000000000FF00000000
310
00000000000000000000000000000000000000000000FF0000000000FF0000000000000000000000000000000000000000000000000000FF0000000000FF0000000000000000000000000000000000000000000000000000FF0000000000FF0000000000000000000000000000000000000000000000000000FF0000000000
310
FF0000000000000000000000000000000000000000000000000000FF0000000000FF0000000000000000000000000000000000000000000000000000FF0000000000FF0000000000000000000000000000000000000000000000000000FF0000000000FF0000000000000000000000000000000000000000000000000000FF
310
0000000000FF0000000000000000000000000000000000000000000000000000FF0000000000FF0000000000000000000000000000000000000000000000000000FF0000000000FF0000000000000000000000000000000000000000000000000000FF0000000000FF00000000000000000000000000000000000000000000
310
00000000FF0000000000FF0000000000000000000000000000000000000000000000000000FF0000000000FF0000000000000000000000000000000000000000000000000000FF0000000000FF0000000000000000000000000000000000000000000000000000FF0000000000FF0000000000000000000000000000000000
310
000000000000000000FF0000000000FF0000000000000000000000000000000000000000000000000000FF0000000000FF0000000000000000000000000000000000000000000000000000FF0000000000FF0000000000000000000000000000000000000000000000000000FF0000000000FF000000000000000000000000
310
0000000000000000000000000000FF0000000000FF0000000000000000000000000000000000000000000000000000FF0000000000FF0000000000000000000000000000000000000000000000000000FF0000000000FF0000000000000000000000000000000000000000000000000000FF000000FF000000000000000000
310
00000000000000000000000000000000000000FF00FF000000000000000000000000000000000000000000000000000000000000FF000000
102
{BLKREFS
331
211
331
260
331
261
331
280
331
2D7
331
2D8
331
2F1
331
2F2
331
4FE
102
}
  0
BLOCK_RECORD
  5
232
330
1
100
AcDbSymbolTableRecord
100
AcDbBlockTableRecord
  2
_Arrivo
340
0
310
2800000020000000200000000100080000000000000400000000000000000000000000000000000000000000000080000080000000808000800000008000800080800000C0C0C000C0DCC000F0CAA6000020400000206000002080000020A0000020C0000020E00000400000004020000040400000406000004080000040A0
310
000040C0000040E00000600000006020000060400000606000006080000060A0000060C0000060E00000800000008020000080400000806000008080000080A0000080C0000080E00000A0000000A0200000A0400000A0600000A0800000A0A00000A0C00000A0E00000C0000000C0200000C0400000C0600000C0800000C0
310
A00000C0C00000C0E00000E0000000E0200000E0400000E0600000E0800000E0A00000E0C00000E0E00040000000400020004000400040006000400080004000A0004000C0004000E00040200000402020004020400040206000402080004020A0004020C0004020E000404000004040200040404000404060004040800040
310
40A0004040C0004040E00040600000406020004060400040606000406080004060A0004060C0004060E00040800000408020004080400040806000408080004080A0004080C0004080E00040A0000040A0200040A0400040A0600040A0800040A0A00040A0C00040A0E00040C0000040C0200040C0400040C0600040C08000
310
40C0A00040C0C00040C0E00040E0000040E0200040E0400040E0600040E0800040E0A00040E0C00040E0E00080000000800020008000400080006000800080008000A0008000C0008000E00080200000802020008020400080206000802080008020A0008020C0008020E00080400000804020008040400080406000804080
310
008040A0008040C0008040E00080600000806020008060400080606000806080008060A0008060C0008060E00080800000808020008080400080806000808080008080A0008080C0008080E00080A0000080A0200080A0400080A0600080A0800080A0A00080A0C00080A0E00080C0000080C0200080C0400080C0600080C0
310
800080C0A00080C0C00080C0E00080E0000080E0200080E0400080E0600080E0800080E0A00080E0C00080E0E000C0000000C0002000C0004000C0006000C0008000C000A000C000C000C000E000C0200000C0202000C0204000C0206000C0208000C020A000C020C000C020E000C0400000C0402000C0404000C0406000C0
310
408000C040A000C040C000C040E000C0600000C0602000C0604000C0606000C0608000C060A000C060C000C060E000C0800000C0802000C0804000C0806000C0808000C080A000C080C000C080E000C0A00000C0A02000C0A04000C0A06000C0A08000C0A0A000C0A0C000C0A0E000C0C00000C0C02000C0C04000C0C06000
310
C0C08000C0C0A000F0FBFF00A4A0A000808080000000FF0000FF000000FFFF00FF000000FF00FF00FFFF0000FFFFFF00000000000000000000000000000000000000000000000000000000000000000000000000000000000000FF0000000000000000000000000000000000000000000000000000000000000000FF000000
310
00000000000000000000000000000000000000000000000000000000FF0000000000000000000000000000000000000000000000000000000000000000FF00000000000000000000000000000000000000000000000000000000000000FF0000000000000000000000000000000000000000000000000000000000000000FF
310
0000000000000000000000000000000000000000000000000000000000000000FF00000000000000000000000000000000000000000000000000000000000000FF0000000000000000000000000000000000000000000000000000000000000000FF0000000000000000000000000000000000000000000000000000000000
310
0000FF0000000000000000000000000000000000000000000000000000000000000000FF00000000000000000000000000000000000000000000000000000000000000FF0000000000000000000000000000000000000000000000000000000000000000FF0000FF0000000000000000000000000000000000000000000000
310
000000000000FFFF000000000000000000000000000000000000000000000000000000000000FFFF00000000000000000000000000000000000000000000000000000000FFFFFFFFFFFF00000000000000000000000000000000000000000000000000000000FFFF0000000000000000000000000000000000000000000000
310
000000000000FF0000FF000000000000000000000000000000000000000000000000000000FF00000000000000000000000000000000000000000000000000000000000000FF000000000000000000000000000000000000000000000000000000000000FF0000000000000000000000000000000000000000000000000000
310
0000000000FF000000000000000000000000000000000000000000000000000000000000FF00000000000000000000000000000000000000000000000000000000000000FF000000000000000000000000000000000000000000000000000000000000FF000000000000000000000000000000000000000000000000000000
310
000000FF00000000000000000000000000000000000000000000000000000000000000FF000000000000000000000000000000000000000000000000000000000000FF00000000000000000000000000000000000000000000000000000000000000FF00000000000000000000000000000000000000000000000000000000
310
0000FF0000000000000000000000000000000000000000000000000000000000000000000000000000000000000000000000000000000000
  0
BLOCK_RECORD
  5
238
330
1
100
AcDbSymbolTableRecord
100
AcDbBlockTableRecord
  2
_Partenza
340
0
310
2800000020000000200000000100080000000000000400000000000000000000000000000000000000000000000080000080000000808000800000008000800080800000C0C0C000C0DCC000F0CAA6000020400000206000002080000020A0000020C0000020E00000400000004020000040400000406000004080000040A0
310
000040C0000040E00000600000006020000060400000606000006080000060A0000060C0000060E00000800000008020000080400000806000008080000080A0000080C0000080E00000A0000000A0200000A0400000A0600000A0800000A0A00000A0C00000A0E00000C0000000C0200000C0400000C0600000C0800000C0
310
A00000C0C00000C0E00000E0000000E0200000E0400000E0600000E0800000E0A00000E0C00000E0E00040000000400020004000400040006000400080004000A0004000C0004000E00040200000402020004020400040206000402080004020A0004020C0004020E000404000004040200040404000404060004040800040
310
40A0004040C0004040E00040600000406020004060400040606000406080004060A0004060C0004060E00040800000408020004080400040806000408080004080A0004080C0004080E00040A0000040A0200040A0400040A0600040A0800040A0A00040A0C00040A0E00040C0000040C0200040C0400040C0600040C08000
310
40C0A00040C0C00040C0E00040E0000040E0200040E0400040E0600040E0800040E0A00040E0C00040E0E00080000000800020008000400080006000800080008000A0008000C0008000E00080200000802020008020400080206000802080008020A0008020C0008020E00080400000804020008040400080406000804080
310
008040A0008040C0008040E00080600000806020008060400080606000806080008060A0008060C0008060E00080800000808020008080400080806000808080008080A0008080C0008080E00080A0000080A0200080A0400080A0600080A0800080A0A00080A0C00080A0E00080C0000080C0200080C0400080C0600080C0
310
800080C0A00080C0C00080C0E00080E0000080E0200080E0400080E0600080E0800080E0A00080E0C00080E0E000C0000000C0002000C0004000C0006000C0008000C000A000C000C000C000E000C0200000C0202000C0204000C0206000C0208000C020A000C020C000C020E000C0400000C0402000C0404000C0406000C0
310
408000C040A000C040C000C040E000C0600000C0602000C0604000C0606000C0608000C060A000C060C000C060E000C0800000C0802000C0804000C0806000C0808000C080A000C080C000C080E000C0A00000C0A02000C0A04000C0A06000C0A08000C0A0A000C0A0C000C0A0E000C0C00000C0C02000C0C04000C0C06000
310
C0C08000C0C0A000F0FBFF00A4A0A000808080000000FF0000FF000000FFFF00FF000000FF00FF00FFFF0000FFFFFF0000000000000000000000000000000000000000000000000000000000000000000000000000000000000000000000000000000000000000000000000000000000000000000000000000000000000000
310
000000000000000000000000000000000000000000000000000000000000000000000000000000000000000000000000000000000000000000000000000000000000000000000000000000000000000000000000000000000000000000000000000000000000000000000000000000000000FFFFFFFFFFFFFFFFFFFFFFFFFF
310
FFFFFFFFFFFFFFFFFFFFFFFFFFFFFFFFFF0000000000000000000000000000000000000000000000000000000000000000000000000000000000000000000000000000000000000000000000000000000000000000000000000000000000000000000000000000000000000000000000000000000000000000000000000000
310
00000000000000000000000000000000000000000000000000000000000000000000000000000000000000000000000000000000000000000000000000000000000000000000000000000000000000000000000000000000000000000000000000000000000000000000000000000000000000000000000000000000000000
310
00000000000000000000000000000000000000000000000000000000000000000000000000000000000000000000000000000000000000000000000000000000000000000000000000000000000000000000000000000000000000000000000000000000000000000000000000000000000000000000000000000000000000
310
00000000000000000000000000000000000000000000000000000000000000000000000000000000000000000000000000000000000000000000000000000000000000000000000000000000000000000000000000000000000000000000000000000000000000000000000000000000000000000000000000000000000000
310
000000000000000000000000000000000000000000000000000000000000000000000000000000000000000000000000000000000000000000000000000000000000000000000000000000000000000000000000000000FFFFFFFFFFFFFFFFFFFFFFFFFFFFFFFFFFFFFFFFFFFFFFFFFFFFFFFFFFFF00000000000000000000
310
00000000000000000000000000000000000000000000000000000000000000000000000000000000000000000000000000000000000000000000000000000000000000000000000000000000000000000000000000000000000000000000000000000000000000000000000000000000000000000000000000000000000000
310
0000000000000000000000000000000000000000000000000000000000000000000000000000000000000000000000000000000000000000
  0
BLOCK_RECORD
  5
266
330
1
100
AcDbSymbolTableRecord
100
AcDbBlockTableRecord
  2
*D6
340
0
  0
BLOCK_RECORD
  5
2C5
330
1
100
AcDbSymbolTableRecord
100
AcDbBlockTableRecord
  2
*D8
340
0
  0
BLOCK_RECORD
  5
2DF
330
1
100
AcDbSymbolTableRecord
100
AcDbBlockTableRecord
  2
*D9
340
0
  0
BLOCK_RECORD
  5
4E4
330
1
100
AcDbSymbolTableRecord
100
AcDbBlockTableRecord
  2
*D11
340
0
  0
ENDTAB
  0
ENDSEC
  0
SECTION
  2
BLOCKS
  0
BLOCK
  5
5
330
2
100
AcDbEntity
  8
0
100
AcDbBlockBegin
  2
*Model_Space
 70
     0
 10
0.0
 20
0.0
 30
0.0
  3
*Model_Space
  1

  0
ENDBLK
  5
162
330
2
100
AcDbEntity
  8
0
100
AcDbBlockEnd
  0
BLOCK
  5
166
330
165
100
AcDbEntity
 67
     1
  8
0
100
AcDbBlockBegin
  2
*Paper_Space
 70
     0
 10
0.0
 20
0.0
 30
0.0
  3
*Paper_Space
  1

  0
ENDBLK
  5
167
330
165
100
AcDbEntity
 67
     1
  8
0
100
AcDbBlockEnd
  0
BLOCK
  5
16A
330
169
100
AcDbEntity
 67
     1
  8
0
100
AcDbBlockBegin
  2
*Paper_Space0
 70
     0
 10
0.0
 20
0.0
 30
0.0
  3
*Paper_Space0
  1

  0
ENDBLK
  5
16B
330
169
100
AcDbEntity
 67
     1
  8
0
100
AcDbBlockEnd
  0
BLOCK
  5
153
330
152
100
AcDbEntity
  8
0
 62
     1
100
AcDbBlockBegin
  2
_ArchTick
 70
     0
 10
0.0
 20
0.0
 30
0.0
  3
_ArchTick
  1

  0
LWPOLYLINE
  5
154
330
152
100
AcDbEntity
  8
0
  6
ByBlock
 62
     0
100
AcDbPolyline
 90
        2
 70
     0
 43
0.15
 10
-0.5
 20
-0.5
 10
0.5
 20
0.5
  0
ENDBLK
  5
155
330
152
100
AcDbEntity
  8
0
 62
     1
100
AcDbBlockEnd
  0
BLOCK
  5
233
330
232
100
AcDbEntity
  8
0
100
AcDbBlockBegin
  2
_Arrivo
 70
     0
 10
0.0
 20
0.0
 30
0.0
  3
_Arrivo
  1

  0
LINE
  5
234
330
232
100
AcDbEntity
  8
0
  6
ByBlock
 62
     0
370
    -2
100
AcDbLine
 10
0.025
 20
-0.0433012701891858
 30
0.0
 11
-0.15
 21
0.2598076211353328
 31
0.0
  0
LINE
  5
235
330
232
100
AcDbEntity
  8
0
  6
ByBlock
 62
     0
370
    -2
100
AcDbLine
 10
0.025
 20
0.0433012701892585
 30
0.0
 11
-0.15
 21
-0.2598076211353328
 31
0.0
  0
LINE
  5
236
330
232
100
AcDbEntity
  8
0
  6
ByBlock
 62
     0
370
    -2
100
AcDbLine
 10
-0.05
 20
0.0
 30
0.0
 11
0.05
 21
0.0
 31
0.0
  0
ENDBLK
  5
237
330
232
100
AcDbEntity
  8
0
100
AcDbBlockEnd
  0
BLOCK
  5
239
330
238
100
AcDbEntity
  8
0
100
AcDbBlockBegin
  2
_Partenza
 70
     0
 10
0.0
 20
0.0
 30
0.0
  3
_Partenza
  1

  0
LINE
  5
23A
330
238
100
AcDbEntity
  8
0
  6
ByBlock
 62
     0
370
    -2
100
AcDbLine
 10
-0.05
 20
0.05
 30
0.0
 11
0.1
 21
0.05
 31
0.0
  0
LINE
  5
23B
330
238
100
AcDbEntity
  8
0
  6
ByBlock
 62
     0
370
    -2
100
AcDbLine
 10
-0.05
 20
-0.05
 30
0.0
 11
0.1
 21
-0.05
 31
0.0
  0
ENDBLK
  5
23C
330
238
100
AcDbEntity
  8
0
100
AcDbBlockEnd
  0
BLOCK
  5
26D
330
266
100
AcDbEntity
  8
0
100
AcDbBlockBegin
  2
*D6
 70
     1
 10
0.0
 20
0.0
 30
0.0
  3
*D6
  1

  0
LINE
  5
27D
330
266
100
AcDbEntity
  8
Text
  6
ACAD_ISO10W100
 62
     5
370
    -2
100
AcDbLine
 10
0.265324276937575
 20
0.1924574125485932
 30
0.0
 11
0.263824276937575
 21
0.1924574125485932
 31
0.0
  0
LINE
  5
27E
330
266
100
AcDbEntity
  8
Text
  6
ACAD_ISO10W100
 62
     5
370
    -2
100
AcDbLine
 10
0.263824276937575
 20
0.1924574125485932
 30
0.0
 11
0.2613215374025681
 21
0.1908032375820575
 31
0.0
  0
MTEXT
  5
27F
330
266
100
AcDbEntity
  8
Text
  6
ACAD_ISO10W100
 62
     4
100
AcDbMText
 10
0.2797528483661464
 20
0.1924574125485932
 30
0.0
 40
0.003
 41
0.0
 71
     5
 72
     1
  1
\A1;d 120 mm
  7
ROMANS
 73
     1
 44
1.0
1001
ACAD
1000
MTEXTBEGIN
1070
    73
1070
     1
1070
    44
1040
1.0
1070
    74
1070
     0
1000
MTEXTEND
  0
INSERT
  5
280
330
266
100
AcDbEntity
  8
Text
  6
ACAD_ISO10W100
 62
     5
370
    -2
100
AcDbBlockReference
  2
_ArchTick
 10
0.2613215374025681
 20
0.1908032375820575
 30
0.0
 41
0.0015
 42
0.0015
 43
0.0015
 50
213.4625388295094
  0
POINT
  5
281
330
266
100
AcDbEntity
  8
Defpoints
  6
ACAD_ISO10W100
 62
     0
100
AcDbPoint
 10
0.2613215374025681
 20
0.1908032375820575
 30
0.0
  0
POINT
  5
282
330
266
100
AcDbEntity
  8
Defpoints
  6
ACAD_ISO10W100
 62
     0
100
AcDbPoint
 10
0.1612119560022933
 20
0.1246362389206268
 30
0.0
  0
ENDBLK
  5
26E
330
266
100
AcDbEntity
  8
0
100
AcDbBlockEnd
  0
BLOCK
  5
2D0
330
2C5
100
AcDbEntity
  8
0
100
AcDbBlockBegin
  2
*D8
 70
     1
 10
0.0
 20
0.0
 30
0.0
  3
*D8
  1

  0
LINE
  5
2D3
330
2C5
100
AcDbEntity
  8
Text
  6
ACAD_ISO10W100
 62
     5
370
    -2
100
AcDbLine
 10
0.1650797227868191
 20
0.124595709950333
 30
0.0
 11
0.1650797227868191
 21
0.1060944378993535
 31
0.0
  0
LINE
  5
2D4
330
2C5
100
AcDbEntity
  8
Text
  6
ACAD_ISO10W100
 62
     5
370
    -2
100
AcDbLine
 10
0.2550797227868189
 20
0.124595709950333
 30
0.0
 11
0.2550797227868189
 21
0.1060944378993535
 31
0.0
  0
LINE
  5
2D5
330
2C5
100
AcDbEntity
  8
Text
  6
ACAD_ISO10W100
 62
     5
370
    -2
100
AcDbLine
 10
0.1650797227868191
 20
0.1062744378993535
 30
0.0
 11
0.1999368656439618
 21
0.1062744378993535
 31
0.0
  0
LINE
  5
2D6
330
2C5
100
AcDbEntity
  8
Text
  6
ACAD_ISO10W100
 62
     5
370
    -2
100
AcDbLine
 10
0.2550797227868189
 20
0.1062744378993535
 30
0.0
 11
0.2202225799296761
 21
0.1062744378993535
 31
0.0
  0
INSERT
  5
2D7
330
2C5
100
AcDbEntity
  8
Text
  6
ACAD_ISO10W100
 62
     5
370
    -2
100
AcDbBlockReference
  2
_ArchTick
 10
0.1650797227868191
 20
0.1062744378993535
 30
0.0
 41
0.0015
 42
0.0015
 43
0.0015
 50
180.0
  0
INSERT
  5
2D8
330
2C5
100
AcDbEntity
  8
Text
  6
ACAD_ISO10W100
 62
     5
370
    -2
100
AcDbBlockReference
  2
_ArchTick
 10
0.2550797227868189
 20
0.1062744378993535
 30
0.0
 41
0.0015
 42
0.0015
 43
0.0015
  0
MTEXT
  5
2D9
330
2C5
100
AcDbEntity
  8
Text
  6
ACAD_ISO10W100
 62
     4
100
AcDbMText
 10
0.210079722786819
 20
0.1062744378993535
 30
0.0
 40
0.003
 41
0.0
 71
     5
 72
     1
  1
\A1;90 mm
  7
ROMANS
 73
     1
 44
1.0
1001
ACAD
1000
MTEXTBEGIN
1070
    73
1070
     1
1070
    44
1040
1.0
1070
    74
1070
     0
1000
MTEXTEND
  0
POINT
  5
2DA
330
2C5
100
AcDbEntity
  8
Defpoints
  6
ACAD_ISO10W100
 62
     0
100
AcDbPoint
 10
0.1650797227868191
 20
0.124658209950333
 30
0.0
  0
POINT
  5
2DB
330
2C5
100
AcDbEntity
  8
Defpoints
  6
ACAD_ISO10W100
 62
     0
100
AcDbPoint
 10
0.2550797227868189
 20
0.124658209950333
 30
0.0
  0
POINT
  5
2DC
330
2C5
100
AcDbEntity
  8
Defpoints
  6
ACAD_ISO10W100
 62
     0
100
AcDbPoint
 10
0.2550797227868189
 20
0.1062744378993535
 30
0.0
  0
ENDBLK
  5
2D1
330
2C5
100
AcDbEntity
  8
0
100
AcDbBlockEnd
  0
BLOCK
  5
2EA
330
2DF
100
AcDbEntity
  8
0
100
AcDbBlockBegin
  2
*D9
 70
     1
 10
0.0
 20
0.0
 30
0.0
  3
*D9
  1

  0
LINE
  5
2ED
330
2DF
100
AcDbEntity
  8
Text
  6
ACAD_ISO10W100
 62
     5
370
    -2
100
AcDbLine
 10
0.2518566651931464
 20
0.1197979324732989
 30
0.0
 11
0.2714595524708644
 21
0.1197979324732989
 31
0.0
  0
LINE
  5
2EE
330
2DF
100
AcDbEntity
  8
Text
  6
ACAD_ISO10W100
 62
     5
370
    -2
100
AcDbLine
 10
0.2518566651931464
 20
0.2098859792004421
 30
0.0
 11
0.2714595524708645
 21
0.2098859792004421
 31
0.0
  0
LINE
  5
2EF
330
2DF
100
AcDbEntity
  8
Text
  6
ACAD_ISO10W100
 62
     5
370
    -2
100
AcDbLine
 10
0.2712795524708644
 20
0.1197979324732989
 30
0.0
 11
0.2712795524708644
 21
0.1613419558368705
 31
0.0
  0
LINE
  5
2F0
330
2DF
100
AcDbEntity
  8
Text
  6
ACAD_ISO10W100
 62
     5
370
    -2
100
AcDbLine
 10
0.2712795524708644
 20
0.2098859792004421
 30
0.0
 11
0.2712795524708644
 21
0.1683419558368705
 31
0.0
  0
INSERT
  5
2F1
330
2DF
100
AcDbEntity
  8
Text
  6
ACAD_ISO10W100
 62
     5
370
    -2
100
AcDbBlockReference
  2
_ArchTick
 10
0.2712795524708644
 20
0.1197979324732989
 30
0.0
 41
0.0015
 42
0.0015
 43
0.0015
 50
270.0
  0
INSERT
  5
2F2
330
2DF
100
AcDbEntity
  8
Text
  6
ACAD_ISO10W100
 62
     5
370
    -2
100
AcDbBlockReference
  2
_ArchTick
 10
0.2712795524708644
 20
0.2098859792004421
 30
0.0
 41
0.0015
 42
0.0015
 43
0.0015
 50
90.0
  0
MTEXT
  5
2F3
330
2DF
100
AcDbEntity
  8
Text
  6
ACAD_ISO10W100
 62
     4
100
AcDbMText
 10
0.2712795524708644
 20
0.1648419558368706
 30
0.0
 40
0.003
 41
0.0
 71
     5
 72
     1
  1
\A1;90 mm
  7
ROMANS
 73
     1
 44
1.0
1001
ACAD
1000
MTEXTBEGIN
1070
    73
1070
     1
1070
    44
1040
1.0
1070
    74
1070
     0
1000
MTEXTEND
  0
POINT
  5
2F4
330
2DF
100
AcDbEntity
  8
Defpoints
  6
ACAD_ISO10W100
 62
     0
100
AcDbPoint
 10
0.2517941651931463
 20
0.1197979324732989
 30
0.0
  0
POINT
  5
2F5
330
2DF
100
AcDbEntity
  8
Defpoints
  6
ACAD_ISO10W100
 62
     0
100
AcDbPoint
 10
0.2517941651931463
 20
0.2098859792004421
 30
0.0
  0
POINT
  5
2F6
330
2DF
100
AcDbEntity
  8
Defpoints
  6
ACAD_ISO10W100
 62
     0
100
AcDbPoint
 10
0.2712795524708644
 20
0.2098859792004421
 30
0.0
  0
ENDBLK
  5
2EB
330
2DF
100
AcDbEntity
  8
0
100
AcDbBlockEnd
  0
BLOCK
  5
4EB
330
4E4
100
AcDbEntity
  8
0
100
AcDbBlockBegin
  2
*D11
 70
     1
 10
0.0
 20
0.0
 30
0.0
  3
*D11
  1

  0
LINE
  5
4FB
330
4E4
100
AcDbEntity
  8
Text
  6
ACAD_ISO10W100
 62
     5
370
    -2
100
AcDbLine
 10
0.2719438839007483
 20
0.1970560400174176
 30
0.0
 11
0.2704438839007483
 21
0.1970560400174176
 31
0.0
  0
LINE
  5
4FC
330
4E4
100
AcDbEntity
  8
Text
  6
ACAD_ISO10W100
 62
     5
370
    -2
100
AcDbLine
 10
0.2704438839007483
 20
0.1970560400174176
 30
0.0
 11
0.2679040154966245
 21
0.1954594597689697
 31
0.0
  0
MTEXT
  5
4FD
330
4E4
100
AcDbEntity
  8
Text
  6
ACAD_ISO10W100
 62
     4
100
AcDbMText
 10
0.2863724553293197
 20
0.1970560400174176
 30
0.0
 40
0.003
 41
0.0
 71
     5
 72
     1
  1
\A1;d 280 mm
  7
ROMANS
 73
     1
 44
1.0
1001
ACAD
1000
MTEXTBEGIN
1070
    73
1070
     1
1070
    44
1040
1.0
1070
    74
1070
     0
1000
MTEXTEND
  0
INSERT
  5
4FE
330
4E4
100
AcDbEntity
  8
Text
  6
ACAD_ISO10W100
 62
     5
370
    -2
100
AcDbBlockReference
  2
_ArchTick
 10
0.2679040154966245
 20
0.1954594597689697
 30
0.0
 41
0.0015
 42
0.0015
 43
0.0015
 50
212.1537752595364
  0
POINT
  5
4FF
330
4E4
100
AcDbEntity
  8
Defpoints
  6
ACAD_ISO10W100
 62
     0
100
AcDbPoint
 10
0.2679040154966245
 20
0.1954594597689697
 30
0.0
  0
POINT
  5
500
330
4E4
100
AcDbEntity
  8
Defpoints
  6
ACAD_ISO10W100
 62
     0
100
AcDbPoint
 10
0.1493768233041824
 20
0.1209523815080696
 30
0.0
  0
ENDBLK
  5
4EC
330
4E4
100
AcDbEntity
  8
0
100
AcDbBlockEnd
  0
ENDSEC
  0
SECTION
  2
ENTITIES
  0
LINE
  5
D
330
2
100
AcDbEntity
  8
Table
100
AcDbLine
 10
0.02
 20
0.02
 30
0.0
 11
0.4
 21
0.02
 31
0.0
  0
LINE
  5
10
330
2
100
AcDbEntity
  8
Table
100
AcDbLine
 10
0.4
 20
0.02
 30
0.0
 11
0.4
 21
0.2769999999999999
 31
0.0
  0
LINE
  5
11
330
2
100
AcDbEntity
  8
Table
100
AcDbLine
 10
0.4
 20
0.2769999999999999
 30
0.0
 11
0.02
 21
0.277
 31
0.0
  0
LINE
  5
12
330
2
100
AcDbEntity
  8
Table
100
AcDbLine
 10
0.02
 20
0.277
 30
0.0
 11
0.02
 21
0.02
 31
0.0
  0
LINE
  5
13
330
2
100
AcDbEntity
  8
Table
 62
     2
100
AcDbLine
 10
0.015
 20
0.015
 30
0.0
 11
0.4050000000000001
 21
0.015
 31
0.0
  0
LINE
  5
14
330
2
100
AcDbEntity
  8
Table
 62
     2
100
AcDbLine
 10
0.4050000000000001
 20
0.015
 30
0.0
 11
0.4050000000000001
 21
0.2819999999999998
 31
0.0
  0
LINE
  5
15
330
2
100
AcDbEntity
  8
Table
 62
     2
100
AcDbLine
 10
0.4050000000000001
 20
0.2819999999999998
 30
0.0
 11
0.0149999999999999
 21
0.282
 31
0.0
  0
LINE
  5
16
330
2
100
AcDbEntity
  8
Table
 62
     2
100
AcDbLine
 10
0.0149999999999999
 20
0.282
 30
0.0
 11
0.015
 21
0.015
 31
0.0
  0
LINE
  5
17
330
2
100
AcDbEntity
  8
Table
100
AcDbLine
 10
0.21
 20
0.2769999999999999
 30
0.0
 11
0.21
 21
0.2532994226089223
 31
0.0
  0
MTEXT
  5
18
102
{ACAD_XDICTIONARY
360
506
102
}
330
2
100
AcDbEntity
  8
Text
100
AcDbMText
 10
0.305
 20
0.0471738284815141
 30
0.0
 40
0.005
 41
0.1900000000000001
 71
     2
 72
     5
  3
{\fTimes New Roman|b0|i0|c238|p18;\H1.6x;\C4;Bovelacci\P\H0.4375x;\T0.95;via del Commercio, 5  47100 Forli - Italy  \fTimes New Roman|b0|i0|c0|p18;\P\fTimes New Roman|b0|i0|c238|p18;tel.+39-0543721386  fax +39-0543721127\fTimes New Roman|b0|i0|c0|p18
  1
; \fTimes New Roman|b0|i0|c238|p18;www.bovelacci.it\fTimes New Roman|b0|i0|c0|p18; \fTimes New Roman|b0|i0|c238|p18;e-mail: bovelacci@bovelacci\fTimes New Roman|b0|i0|c0|p18;.it}
 73
     1
 44
1.0
1001
ACAD
1000
ACAD_MTEXT_DEFINED_HEIGHT_BEGIN
1070
    46
1040
0.0271738284815141
1000
ACAD_MTEXT_DEFINED_HEIGHT_END
1000
MTEXTBEGIN
1070
    73
1070
     1
1070
    44
1040
1.0
1070
    74
1070
     0
1000
MTEXTEND
  0
MTEXT
  5
1C
330
2
100
AcDbEntity
  8
Text
100
AcDbMText
 10
0.0219676065851835
 20
0.0500313976452307
 30
0.0
 40
0.002
 41
0.1863544980601608
 71
     1
 72
     5
  3
{\fArial|b0|i0|c0|p34;\H1.25x;Le caratteristiche tecniche indicate vengono fornite a titolo indicativo e potranno essere modificate senza preavviso. Non devono quindi essere considerate a scopo di specifica.\P\fArial|b0|i1|c0|p34;The given values are
  3
 indicative and can be changed without notice. They cannot be considered like a state.\PThis lealfet and designs embodied within are protected by copyright law and international treaties. Unauthorized repro- duction of the leaflet or any portion of i
  1
t or reproduction of any of the designs embodied therein may result in severe civil penalties and will be prosecuted to the maximum.\PAll right reserved, Bovelacci Forlì Italy.}
 73
     1
 44
1.0
1001
ACAD
1000
MTEXTBEGIN
1070
    73
1070
     1
1070
    44
1040
1.0
1070
    74
1070
     0
1000
MTEXTEND
  0
LINE
  5
1D
330
2
100
AcDbEntity
  8
Table
100
AcDbLine
 10
0.02
 20
0.0528099428524846
 30
0.0
 11
0.4
 21
0.0528099428524846
 31
0.0
  0
MTEXT
  5
1E
330
2
100
AcDbEntity
  8
Text
100
AcDbMText
 10
0.1133313047219695
 20
0.2610796890771976
 30
0.0
 40
0.003
 41
0.1103605678262056
 71
     2
 72
     5
  1
{\fTimes New Roman|b0|i0|c0|p18;Rosoni\fTimes New Roman|b0|i1|c0|p18;   Ceiling centres}
 73
     1
 44
1.0
1001
ACAD
1000
ACAD_MTEXT_DEFINED_HEIGHT_BEGIN
1070
    46
1040
0.0141952763113409
1000
ACAD_MTEXT_DEFINED_HEIGHT_END
1000
MTEXTBEGIN
1070
    73
1070
     1
1070
    44
1040
1.0
1070
    74
1070
     0
1000
MTEXTEND
  0
TEXT
  5
1F
330
2
100
AcDbEntity
  8
Text
100
AcDbText
 10
0.2180556919891047
 20
0.269976982173197
 30
0.0
 40
0.003
  1
Rosone - Ceiling centre : D 280 mm
  7
ROMANS
100
AcDbText
  0
TEXT
  5
21
330
2
100
AcDbEntity
  8
Text
100
AcDbText
 10
0.2184542410678115
 20
0.2576348370183962
 30
0.0
 40
0.003
  1
File : E - B21
  7
ROMANS
100
AcDbText
  0
LINE
  5
22
330
2
100
AcDbEntity
  8
Table
100
AcDbLine
 10
0.4
 20
0.2654452889427402
 30
0.0
 11
0.02
 21
0.2654452889427403
 31
0.0
  0
LINE
  5
23
330
2
100
AcDbEntity
  8
Table
100
AcDbLine
 10
0.4
 20
0.2532994226089223
 30
0.0
 11
0.02
 21
0.2532994226089225
 31
0.0
  0
LINE
  5
24
330
2
100
AcDbEntity
  8
Table
100
AcDbLine
 10
0.21
 20
0.0528099428524846
 30
0.0
 11
0.21
 21
0.02
 31
0.0
  0
TEXT
  5
25
330
2
100
AcDbEntity
  8
Text
100
AcDbText
 10
0.0947789320547719
 20
0.2687784133392506
 30
0.0
 40
0.005
  1
EUROSTYL
  7
style1
 72
     1
 11
0.1140561490699125
 21
0.2687784133392506
 31
0.0
100
AcDbText
  0
TEXT
  5
252
330
2
100
AcDbEntity
  8
Text
  6
ACAD_ISO10W100
100
AcDbText
 10
0.2566441918658445
 20
0.0816278556557504
 30
0.0
 40
0.005
  1
scala 1 : 2
  7
style1
100
AcDbText
  0
CIRCLE
  5
3F7
330
2
100
AcDbEntity
  8
Profilo
  6
Continuous
370
     0
100
AcDbCircle
 10
0.2125722426927334
 20
0.2145657558854132
 30
0.0
 40
0.0026902745339013
  0
CIRCLE
  5
3F8
330
2
100
AcDbEntity
  8
Profilo
  6
Continuous
370
     0
100
AcDbCircle
 10
0.2086404194004034
 20
0.1582059206385197
 30
0.0
 40
0.0118217761993947
  0
CIRCLE
  5
3F9
330
2
100
AcDbEntity
  8
Profilo
  6
Continuous
370
     0
100
AcDbCircle
 10
0.2086404194004034
 20
0.1582059206385197
 30
0.0
 40
0.0514242628355302
  0
CIRCLE
  5
3FA
330
2
100
AcDbEntity
  8
Profilo
  6
Continuous
370
     0
100
AcDbCircle
 10
0.2086404194004034
 20
0.1582059206385197
 30
0.0
 40
0.0604696593075243
  0
CIRCLE
  5
3FB
330
2
100
AcDbEntity
  8
Profilo
  6
Continuous
370
     0
100
AcDbCircle
 10
0.2086404194004034
 20
0.1582059206385197
 30
0.0
 40
0.065750765305058
  0
CIRCLE
  5
3FC
102
{ACAD_REACTORS
330
4F4
102
}
330
2
100
AcDbEntity
  8
Profilo
  6
Continuous
370
     0
100
AcDbCircle
 10
0.2086404194004034
 20
0.1582059206385197
 30
0.0
 40
0.07
  0
LWPOLYLINE
  5
3FD
330
2
100
AcDbEntity
  8
Profilo
  6
Continuous
370
     0
100
AcDbPolyline
 90
        8
 70
   128
 43
0.0
 10
0.2144465765689516
 20
0.1483927311227865
 10
0.2142882212483601
 20
0.1500810799144369
 10
0.2144993652968117
 20
0.1518749554453115
 10
0.215132802873667
 20
0.15319397611323
 10
0.2160301677953369
 20
0.1543547186995208
 10
0.216874749420642
 20
0.1550933715106389
 10
0.2179304750944004
 20
0.1555154612858106
 10
0.2199363598491877
 20
0.1556737428037848
  0
LWPOLYLINE
  5
3FE
330
2
100
AcDbEntity
  8
Profilo
  6
Continuous
370
     0
100
AcDbPolyline
 90
        8
 70
   128
 43
0.0
 10
0.2197675184720735
 20
0.1606954619189177
 10
0.2181128688667828
 20
0.1610665855284327
 10
0.2164720389529544
 20
0.1618217334764241
 10
0.2154133187277269
 20
0.1628317682138752
 10
0.2145866879382459
 20
0.1640439021553827
 10
0.2141451774443086
 20
0.1650754032852512
 10
0.2140699833877593
 20
0.1662098909803785
 10
0.2145393011966681
 20
0.168166512426306
  0
LWPOLYLINE
  5
3FF
330
2
100
AcDbEntity
  8
Profilo
  6
Continuous
370
     0
100
AcDbPolyline
 90
        8
 70
   128
 43
0.0
 10
0.2097111876543336
 20
0.1695577312819355
 10
0.2088469132793842
 20
0.1680987494949927
 10
0.2076216805744286
 20
0.1667715810625107
 10
0.2063339179138064
 20
0.1660767961921551
 10
0.204925667068091
 20
0.1656651935806338
 10
0.2038082169511404
 20
0.1655640435272082
 10
0.2027060187946843
 20
0.1658431057074442
 10
0.2009901883973273
 20
0.1668940827461708
  0
LWPOLYLINE
  5
400
330
2
100
AcDbEntity
  8
Profilo
  6
Continuous
370
     0
100
AcDbPolyline
 90
        8
 70
   128
 43
0.0
 10
0.1981750915037355
 20
0.1627321841696049
 10
0.1992955901697011
 20
0.161459360226793
 10
0.2001791846277394
 20
0.1598839770787322
 10
0.2004420237592603
 20
0.1584445416765322
 10
0.2003983076614022
 20
0.1569780233312458
 10
0.2001491960023325
 20
0.1558840080303961
 10
0.1995431941358545
 20
0.1549219902476285
 10
0.198013434822448
 20
0.1536149083330301
  0
LWPOLYLINE
  5
401
330
2
100
AcDbEntity
  8
Profilo
  6
Continuous
370
     0
100
AcDbPolyline
 90
        8
 70
   128
 43
0.0
 10
0.2011017228029177
 20
0.1496514946993547
 10
0.2026585034377837
 20
0.150323828027945
 10
0.2044298275500778
 20
0.1506773561296207
 10
0.205880033727553
 20
0.1504825209968067
 10
0.2072612665389377
 20
0.1499877654258163
 10
0.2082247571835885
 20
0.1494127768391039
 10
0.2089524255893169
 20
0.1485391549713365
 10
0.2097228127363808
 20
0.1466803568833076
  0
LWPOLYLINE
  5
402
330
2
100
AcDbEntity
  8
Profilo
  6
Continuous
370
     0
100
AcDbPolyline
 90
       12
 70
   128
 43
0.0
 10
0.2183064813978979
 20
0.1653957866869272
 10
0.2205418632324625
 20
0.1669318744382203
 10
0.2217992658538732
 20
0.1679093807642714
 10
0.2226375306471484
 20
0.1696782087715468
 10
0.222544391321563
 20
0.1723779943664086
 10
0.2217992658538732
 20
0.1739606274198219
 10
0.2209144259663065
 20
0.1753570689557174
 10
0.21975016810198
 20
0.1764742214971652
 10
0.2186790441317419
 20
0.1772189910035794
 10
0.2173750718475385
 20
0.1772655363056995
 10
0.2161642443204175
 20
0.1768466045321996
 10
0.2150465506873866
 20
0.1760552897236652
  0
LWPOLYLINE
  5
403
330
2
100
AcDbEntity
  8
Profilo
  6
Continuous
370
     0
100
AcDbPolyline
 90
        3
 70
   128
 43
0.0
 10
0.2161642443204175
 20
0.1687006990091503
 10
0.2173750718475385
 20
0.1713539358655466
 10
0.2182133420723107
 20
0.1739140786813554
  0
LWPOLYLINE
  5
404
330
2
100
AcDbEntity
  8
Profilo
  6
Continuous
370
     0
100
AcDbPolyline
 90
        3
 70
   128
 43
0.0
 10
0.217328502184744
 20
0.1674904489907715
 10
0.2183996207234851
 20
0.1695385625561502
 10
0.2190981819598774
 20
0.1716332248599944
  0
LWPOLYLINE
  5
405
330
2
100
AcDbEntity
  8
Profilo
  6
Continuous
370
     0
100
AcDbPolyline
 90
        4
 70
   128
 43
0.0
 10
0.2088526877689161
 20
0.1708884553535811
 10
0.2093183898283455
 20
0.1727969261399077
 10
0.2098306669820682
 20
0.1747519422283553
 10
0.2100169456332408
 20
0.1756363545138207
  0
LWPOLYLINE
  5
406
330
2
100
AcDbEntity
  8
Profilo
  6
Continuous
370
     0
100
AcDbPolyline
 90
        4
 70
   128
 43
0.0
 10
0.2073158617392468
 20
0.1708884553535811
 10
0.2074090010648339
 20
0.1727503774014422
 10
0.2080609872069348
 20
0.1754501629963031
 10
0.2087129733490374
 20
0.1766604130146828
  0
LWPOLYLINE
  5
407
330
2
100
AcDbEntity
  8
Profilo
  6
Continuous
370
     0
100
AcDbPolyline
 90
       12
 70
   128
 43
0.0
 10
0.2047894278696829
 20
0.1696206826843881
 10
0.2040192925800126
 20
0.1722213343645594
 10
0.2034781875976892
 20
0.1737192613881174
 10
0.2020549702620722
 20
0.175063096496518
 10
0.1994585399450293
 20
0.1758087953639754
 10
0.19772311003422
 20
0.1755891994418376
 10
0.1961215846493209
 20
0.1751791908671317
 10
0.1946993339791698
 20
0.174417134959233
 10
0.1936600205770722
 20
0.1736285819619522
 10
0.1932128037681748
 20
0.1724028139133552
 10
0.1932370652781066
 20
0.1711217914660822
 10
0.1936442640560936
 20
0.1698142719294297
  0
LWPOLYLINE
  5
408
330
2
100
AcDbEntity
  8
Profilo
  6
Continuous
370
     0
100
AcDbPolyline
 90
        3
 70
   128
 43
0.0
 10
0.2009842818069265
 20
0.1686045682248877
 10
0.1988350698885155
 20
0.1705760289133939
 10
0.1966592691262259
 20
0.1721643989111924
  0
LWPOLYLINE
  5
409
330
2
100
AcDbEntity
  8
Profilo
  6
Continuous
370
     0
100
AcDbPolyline
 90
        3
 70
   128
 43
0.0
 10
0.2024950734391651
 20
0.1693378554302817
 10
0.2008781955181595
 20
0.1709894515943872
 10
0.1991019205783078
 20
0.1723011090596546
  0
LWPOLYLINE
  5
40A
330
2
100
AcDbEntity
  8
Profilo
  6
Continuous
370
     0
100
AcDbPolyline
 90
        4
 70
   128
 43
0.0
 10
0.1966442066497438
 20
0.162326918612301
 10
0.1949730529229277
 20
0.1633595774968172
 10
0.1932720244788781
 20
0.1644509152176211
 10
0.1924884616805953
 20
0.1649013751689087
  0
LWPOLYLINE
  5
40B
330
2
100
AcDbEntity
  8
Profilo
  6
Continuous
370
     0
100
AcDbPolyline
 90
        4
 70
   128
 43
0.0
 10
0.1961693012891781
 20
0.1608653102023724
 10
0.1944272898271768
 20
0.1615292565198859
 10
0.1920611159425898
 20
0.1629836118188458
 10
0.1911115745742704
 20
0.1639776753109484
  0
LWPOLYLINE
  5
40C
330
2
100
AcDbEntity
  8
Profilo
  6
Continuous
370
     0
100
AcDbPolyline
 90
       12
 70
   128
 43
0.0
 10
0.196594313746534
 20
0.1580707655079515
 10
0.1938829621270168
 20
0.1581419688879037
 10
0.1922911382350494
 20
0.1580902323750787
 10
0.1905732767549841
 20
0.1571519401400695
 10
0.1890617338952174
 20
0.1549130217906692
 10
0.1887343046929326
 20
0.1531946709935842
 10
0.1886293474587861
 20
0.1515448302228409
 10
0.188914606068437
 20
0.1499567012289845
 10
0.1893433990312145
 20
0.1487245791683199
 10
0.1903709761271808
 20
0.1479204675498432
 10
0.1915967980920572
 20
0.1475476839105773
 10
0.192966154410062
 20
0.1475309072045049
  0
LWPOLYLINE
  5
40D
330
2
100
AcDbEntity
  8
Profilo
  6
Continuous
370
     0
100
AcDbPolyline
 90
        3
 70
   128
 43
0.0
 10
0.1963848412250739
 20
0.1541378599132964
 10
0.1938457276833481
 20
0.1527030527698815
 10
0.1916627386347331
 20
0.1511245765994226
  0
LWPOLYLINE
  5
40E
330
2
100
AcDbEntity
  8
Profilo
  6
Continuous
370
     0
100
AcDbPolyline
 90
        3
 70
   128
 43
0.0
 10
0.1961543039393894
 20
0.1558013063481248
 10
0.1940838998898082
 20
0.154773935347852
 10
0.1922875403672217
 20
0.1534899219391405
  0
LWPOLYLINE
  5
40F
330
2
100
AcDbEntity
  8
Profilo
  6
Continuous
370
     0
100
AcDbPolyline
 90
        4
 70
   128
 43
0.0
 10
0.2010140838157073
 20
0.1480703027388247
 10
0.1995155519526792
 20
0.1468000502419134
 10
0.1979519814047033
 20
0.145519517958128
 10
0.1972814343118723
 20
0.1449135052331288
  0
LWPOLYLINE
  5
410
330
2
100
AcDbEntity
  8
Profilo
  6
Continuous
370
     0
100
AcDbPolyline
 90
        4
 70
   128
 43
0.0
 10
0.2022574021911085
 20
0.1471669790632467
 10
0.2010876405732118
 20
0.1457153984063141
 10
0.1989732785471434
 20
0.1439144538179285
 10
0.1977344435656969
 20
0.143318568824644
  0
LWPOLYLINE
  5
411
330
2
100
AcDbEntity
  8
Profilo
  6
Continuous
370
     0
100
AcDbPolyline
 90
       12
 70
   128
 43
0.0
 10
0.2050465082049586
 20
0.1467076281282064
 10
0.2041409360383162
 20
0.144150982556959
 10
0.2036982397512992
 20
0.1426210806100155
 10
0.2040597603042722
 20
0.1406973490089996
 10
0.2057220057585278
 20
0.1385679225035775
 10
0.207255073293416
 20
0.137725519228521
 10
0.2087917315402452
 20
0.1371158701308815
 10
0.2103902817267456
 20
0.1368964083420579
 10
0.2116946037539764
 20
0.13692346802756
 10
0.2127768981342408
 20
0.1376522677651896
 10
0.2135102362627601
 20
0.1387028972529459
 10
0.2139493462320099
 20
0.1400000482150271
  0
LWPOLYLINE
  5
412
330
2
100
AcDbEntity
  8
Profilo
  6
Continuous
370
     0
100
AcDbPolyline
 90
        3
 70
   128
 43
0.0
 10
0.2087221931297434
 20
0.1452930732556651
 10
0.2093021465780736
 20
0.1424348529852278
 10
0.2101287859112502
 20
0.1398709310636538
  0
LWPOLYLINE
  5
413
330
2
100
AcDbEntity
  8
Profilo
  6
Continuous
370
     0
100
AcDbPolyline
 90
        3
 70
   128
 43
0.0
 10
0.2070689216192785
 20
0.1455878524854598
 10
0.2074062194671973
 20
0.1433013061241296
 10
0.2080722831660771
 20
0.1411960847302679
  0
LWPOLYLINE
  5
414
330
2
100
AcDbEntity
  8
Profilo
  6
Continuous
370
     0
100
AcDbPolyline
 90
        4
 70
   128
 43
0.0
 10
0.2159232975501075
 20
0.1478207663057452
 10
0.2166683076523468
 20
0.1460030482038429
 10
0.2174029963539399
 20
0.1441202980079684
 10
0.2177721382577948
 20
0.1432953015950166
  0
LWPOLYLINE
  5
415
330
2
100
AcDbEntity
  8
Profilo
  6
Continuous
370
     0
100
AcDbPolyline
 90
        4
 70
   128
 43
0.0
 10
0.2171666159255088
 20
0.1487240899813241
 10
0.2181856749489148
 20
0.1471630174804143
 10
0.2192451012368688
 20
0.1445956172139774
 10
0.2194290004802009
 20
0.1432332765426379
  0
LWPOLYLINE
  5
416
330
2
100
AcDbEntity
  8
Profilo
  6
Continuous
370
     0
100
AcDbPolyline
 90
       12
 70
   128
 43
0.0
 10
0.2184653657829385
 20
0.151234740185126
 10
0.2206170430242038
 20
0.1495834429449568
 10
0.2219352655641027
 20
0.1486896480551153
 10
0.223876559033535
 20
0.1484390087754653
 10
0.2264154260816762
 20
0.1493618691679684
 10
0.2276903431275719
 20
0.1505595861088355
 10
0.2287450073873531
 20
0.1518326430160258
 10
0.2294477071256795
 20
0.1532851371651586
 10
0.2298250295080069
 20
0.1545339830311877
 10
0.2294663471248788
 20
0.1557885176585109
 10
0.2286937530486723
 20
0.1568106260307934
 10
0.2275957816164633
 20
0.1576290861199715
  0
LWPOLYLINE
  5
417
330
2
100
AcDbEntity
  8
Profilo
  6
Continuous
370
     0
100
AcDbPolyline
 90
        3
 70
   128
 43
0.0
 10
0.2209465365198506
 20
0.1542934027895989
 10
0.2238440810045381
 20
0.1539617326585495
 10
0.2265379612574938
 20
0.1539556179369751
  0
LWPOLYLINE
  5
418
330
2
100
AcDbEntity
  8
Profilo
  6
Continuous
370
     0
100
AcDbPolyline
 90
        3
 70
   128
 43
0.0
 10
0.2201552958194368
 20
0.1528121399379615
 10
0.2224341614033636
 20
0.1524263475700794
 10
0.2246421709305297
 20
0.1524092626035419
  0
LWPOLYLINE
  5
419
330
2
100
AcDbEntity
  8
Profilo
  6
Continuous
370
     0
100
AcDbPolyline
 90
        4
 70
   128
 43
0.0
 10
0.220767821217539
 20
0.1619231601821464
 10
0.2227267946457145
 20
0.1620700011101172
 10
0.2247444277824242
 20
0.1621869297805264
 10
0.2256431171185087
 20
0.1622830666817244
  0
LWPOLYLINE
  5
41A
330
2
100
AcDbEntity
  8
Profilo
  6
Continuous
370
     0
100
AcDbPolyline
 90
        4
 70
   128
 43
0.0
 10
0.2202929158569733
 20
0.1633847685920758
 10
0.222092490587878
 20
0.1638715533845428
 10
0.2248616140684752
 20
0.1640857573455444
 10
0.2262141050328081
 20
0.1638396694996852
  0
LWPOLYLINE
  5
41B
330
2
100
AcDbEntity
  8
Profilo
  6
Continuous
370
     0
100
AcDbPolyline
 90
       11
 70
   128
 43
0.0
 10
0.2043012500618266
 20
0.1715274781946466
 10
0.2041913382707963
 20
0.1741274310750603
 10
0.2046676154565932
 20
0.1766541451201772
 10
0.2060964470139839
 20
0.1783752422860773
 10
0.2077817376066096
 20
0.17958367104125
 10
0.2094303873145586
 20
0.1797667664113173
 10
0.2115919496614842
 20
0.1798766229460885
 10
0.2133505111604637
 20
0.1793639579717076
 10
0.2145961545889714
 20
0.1783020034507813
 10
0.2149991608684145
 20
0.1770203358603116
 10
0.2150465506873866
 20
0.1760552897236652
  0
LWPOLYLINE
  5
41C
330
2
100
AcDbEntity
  8
Profilo
  6
Continuous
370
     0
100
AcDbPolyline
 90
       11
 70
   128
 43
0.0
 10
0.1946299882123574
 20
0.1581957130401451
 10
0.1921233214720692
 20
0.1588946103396916
 10
0.1898674513590903
 20
0.1601283744406733
 10
0.1886721239176163
 20
0.1620191222772512
 10
0.1880436233091116
 20
0.1639953538990583
 10
0.188378950041834
 20
0.1656198925278342
 10
0.188942429768183
 20
0.167709608019443
 10
0.189973428521583
 20
0.1692236772028489
 10
0.1913683322770601
 20
0.1700801925082923
 10
0.1927118063798867
 20
0.1700674171898687
 10
0.1936442640560936
 20
0.1698142719294297
  0
LWPOLYLINE
  5
41D
330
2
100
AcDbEntity
  8
Profilo
  6
Continuous
370
     0
100
AcDbPolyline
 90
       11
 70
   128
 43
0.0
 10
0.2043206660677248
 20
0.1448780544396547
 10
0.2028813726147869
 20
0.1427100438450058
 10
0.2010108910249644
 20
0.1409458379483944
 10
0.1988433064810595
 20
0.1403932872096555
 10
0.1967695811504273
 20
0.1404062367664015
 10
0.1953281747606363
 20
0.1412271614849548
 10
0.1935148620365672
 20
0.1424088201508152
 10
0.1923934928095454
 20
0.1438572313418599
 10
0.1920099473129577
 20
0.1454485414334349
 10
0.1924372536920684
 20
0.1467223134429013
 10
0.192966154410062
 20
0.1475309072045049
  0
LWPOLYLINE
  5
41E
330
2
100
AcDbEntity
  8
Profilo
  6
Continuous
370
     0
100
AcDbPolyline
 90
       11
 70
   128
 43
0.0
 10
0.2199810962058388
 20
0.1499790539284847
 10
0.2215982306724256
 20
0.147940252393476
 10
0.2226980795875628
 20
0.1456161490852351
 10
0.2225537661074137
 20
0.1433839061116079
 10
0.2219006339782565
 20
0.1414156777560088
 10
0.220674469105042
 20
0.1402984985055039
 10
0.2189903004829843
 20
0.1389390882324973
 10
0.2172662574333481
 20
0.1383201863948428
 10
0.2156343095247488
 20
0.1384471548126339
 10
0.2145549252878214
 20
0.139247164526825
 10
0.2139493462320099
 20
0.1400000482150271
  0
LWPOLYLINE
  5
41F
330
2
100
AcDbEntity
  8
Profilo
  6
Continuous
370
     0
100
AcDbPolyline
 90
       11
 70
   128
 43
0.0
 10
0.219969096454266
 20
0.1664493035896689
 10
0.222407833971934
 20
0.1673572655393664
 10
0.224958059573803
 20
0.1676850965981184
 10
0.2270364534819402
 20
0.1668580453080083
 10
0.2287065209576087
 20
0.1656286637298806
 10
0.2293901157799427
 20
0.1641172842629891
 10
0.230162555052795
 20
0.1620954638437552
 10
0.2302184070770716
 20
0.1602645502813401
 10
0.2295933532982757
 20
0.1587517109874578
 10
0.2284989507738226
 20
0.1579723721726917
 10
0.2275957816164633
 20
0.1576290861199715
  0
LWPOLYLINE
  5
420
330
2
100
AcDbEntity
  8
Profilo
  6
Continuous
370
     0
100
AcDbPolyline
 90
       87
 70
   128
 43
0.0
 10
0.1927897388938204
 20
0.1748252704086387
 10
0.1903637549357724
 20
0.1771692636453678
 10
0.1882612329707654
 20
0.1781391893928673
 10
0.1868865099952226
 20
0.1788666362807508
 10
0.1861582167394522
 20
0.1796607517110073
 10
0.1862377990463389
 20
0.1807744369796723
 10
0.1868347043684759
 20
0.1812915039128579
 10
0.1867551166300905
 20
0.1820472181802354
 10
0.1860786290010685
 20
0.182842708148759
 10
0.1860786290010685
 20
0.183956393417425
 10
0.1861980078928964
 20
0.1848712070530459
 10
0.1869540886918026
 20
0.1855871456192756
 10
0.1875325704432067
 20
0.1861349143184555
 10
0.1884264482731732
 20
0.1860246645865126
 10
0.1891417113655385
 20
0.1866858140573572
 10
0.1896146536116385
 20
0.1880824686466845
 10
0.1893814957022928
 20
0.1890475216560218
 10
0.1893814957022928
 20
0.1890475216560218
 10
0.1880285150127483
 20
0.1894850406232588
 10
0.1872592244348683
 20
0.1897338093024715
 10
0.1868745009534172
 20
0.1904794022248283
 10
0.1871530553220142
 20
0.1917521834253913
 10
0.1878295429510379
 20
0.1923885740256724
 10
0.1885458271650011
 20
0.1925078976927689
 10
0.1883070693813453
 20
0.1934227113283889
 10
0.1876703729057658
 20
0.19405910192867
 10
0.1873122307987833
 20
0.1954909824974765
 10
0.1876703729057658
 20
0.1963262447308026
 10
0.1881478939045762
 20
0.1970024110322307
 10
0.1891455677290301
 20
0.1975737447362603
 10
0.1902995817883613
 20
0.1975339690351133
 10
0.1909362782639408
 20
0.1973350974020683
 10
0.1911750360475966
 20
0.1980908116694459
 10
0.190697515048788
 20
0.1992044969381109
 10
0.190697515048788
 20
0.200437502437527
 10
0.1910158660023262
 20
0.2017102870744346
 10
0.1920107045848882
 20
0.2022671262724217
 10
0.1930851309058339
 20
0.2023466776747166
 10
0.1937218273814152
 20
0.2024262256406652
 10
0.1938810028581843
 20
0.2037387825423752
 10
0.1945972870721475
 20
0.2048922400758419
 10
0.1955125379163241
 20
0.2053297590430788
 10
0.1967461397140406
 20
0.2057275057455143
 10
0.1980593292501427
 20
0.2054490827101744
 10
0.1990541678327047
 20
0.2049320157769897
 10
0.1996112765698987
 20
0.2040569778425158
 10
0.2001285941536504
 20
0.2038581062094717
 10
0.2004867362606328
 20
0.2046933684427977
 10
0.2015213714281361
 20
0.2048922400758419
 10
0.2023172379489877
 20
0.2047331441439447
 10
0.2031926976397218
 20
0.2039774298765672
 10
0.2035508397467043
 20
0.2027841966419536
 10
0.203630427485088
 20
0.2014318640390965
 10
0.2036702240700292
 20
0.2007556977376676
 10
0.2045058871758221
 20
0.2014318640390965
 10
0.2055803134967695
 20
0.2016307356721406
 10
0.2068537064479285
 20
0.2014318640390965
 10
0.2075699906618935
 20
0.200636374070572
 10
0.2076495784002772
 20
0.1996817881701495
 10
0.2076097872468348
 20
0.1984487826707343
 10
0.2074904083550051
 20
0.1975339690351133
 10
0.2083658626142422
 20
0.1976930649670104
 10
0.2093607066283012
 20
0.1974941933339654
 10
0.2098382276271116
 20
0.1964600594675953
 10
0.2097586398887279
 20
0.1950281788987888
 10
0.2090423556747629
 20
0.1943917882985077
 10
0.2087638013061659
 20
0.1936360740311301
 10
0.2087638013061659
 20
0.1928008083614586
 10
0.2095198766735733
 20
0.1927212603955092
 10
0.2101565731491528
 20
0.1918064467598891
 10
0.2100769908422662
 20
0.190971184526563
 10
0.2109524451015032
 20
0.1916075751268441
 10
0.2119870802690065
 20
0.1916075751268441
 10
0.212902331113183
 20
0.191249607561902
 10
0.2136584119120892
 20
0.1906927649275695
 10
0.2139767574341287
 20
0.189857499257898
 10
0.2139767574341287
 20
0.1887835896903799
 10
0.2135788241737038
 20
0.1873914848227204
 10
0.2136584119120892
 20
0.1870732895225798
 10
0.2142951083876687
 20
0.1864766711871003
 10
0.2144940750178821
 20
0.1854823130218762
 10
0.2142553118027275
 20
0.1841697561201662
 10
0.2139369662806863
 20
0.1833344904504946
 10
0.2135390275887625
 20
0.1820219335487846
 10
0.2133798575434922
 20
0.1808684760153171
 10
0.2133798575434922
 20
0.1797547907466529
 10
0.2133550844816752
 20
0.1793993729501987
  0
LWPOLYLINE
  5
421
330
2
100
AcDbEntity
  8
Profilo
  6
Continuous
370
     0
100
AcDbPolyline
 90
        6
 70
   128
 43
0.0
 10
0.200738008215396
 20
0.1770072708740685
 10
0.1993095188423732
 20
0.1846954414082961
 10
0.1979909086713916
 20
0.1916147948890997
 10
0.1970019578325284
 20
0.1954039639160382
 10
0.195463583825964
 20
0.1989185551784435
 10
0.1940350944529412
 20
0.2014446712994137
  0
LWPOLYLINE
  5
422
330
2
100
AcDbEntity
  8
Profilo
  6
Continuous
370
     0
100
AcDbPolyline
 90
        8
 70
   128
 43
0.0
 10
0.2035400419289248
 20
0.1781055784958542
 10
0.2023313218229801
 20
0.1818398347189615
 10
0.2010127170834972
 20
0.1872215540929208
 10
0.2001336454466769
 20
0.1913402171245674
 10
0.1994743430769346
 20
0.1969965142630591
 10
0.1991446891763149
 20
0.1997422884720413
 10
0.1993095188423732
 20
0.2021036558724853
 10
0.1995842277104745
 20
0.2035314609353244
  0
LWPOLYLINE
  5
423
330
2
100
AcDbEntity
  8
Profilo
  6
Continuous
370
     0
100
AcDbPolyline
 90
        4
 70
   128
 43
0.0
 10
0.2007929478164174
 20
0.1944154853382577
 10
0.2013423655526199
 20
0.1974358373117732
 10
0.2021664975884205
 20
0.1989734714186183
 10
0.2029906241927242
 20
0.2002365277609312
  0
LWPOLYLINE
  5
424
330
2
100
AcDbEntity
  8
Profilo
  6
Continuous
370
     0
100
AcDbPolyline
 90
        6
 70
   128
 43
0.0
 10
0.204309228932207
 20
0.179368634838167
 10
0.2035949869614433
 20
0.18315780730145
 10
0.2028257999581629
 20
0.1873862993771026
 10
0.2028807395591843
 20
0.1912853008843917
 10
0.2037598111960046
 20
0.1949097246271484
 10
0.204199349730166
 20
0.1974907535519489
  0
LWPOLYLINE
  5
425
330
2
100
AcDbEntity
  8
Profilo
  6
Continuous
370
     0
100
AcDbPolyline
 90
        4
 70
   128
 43
0.0
 10
0.2030455692252426
 20
0.1905714000711444
 10
0.2038147562285248
 20
0.1924934409865288
 10
0.2049685367334464
 20
0.1947449793429666
 10
0.206287141472931
 20
0.1962826134498118
  0
LWPOLYLINE
  5
426
330
2
100
AcDbEntity
  8
Profilo
  6
Continuous
370
     0
100
AcDbPolyline
 90
        4
 70
   128
 43
0.0
 10
0.2046388828328267
 20
0.1840913696390548
 10
0.2046388828328267
 20
0.186727314804031
 10
0.2050234763344678
 20
0.1892534274886567
 10
0.2060673722058495
 20
0.1913402171245674
  0
LWPOLYLINE
  5
427
330
2
100
AcDbEntity
  8
Profilo
  6
Continuous
370
     0
100
AcDbPolyline
 90
        5
 70
   128
 43
0.0
 10
0.2063970261064691
 20
0.1796981288428759
 10
0.206012432604828
 20
0.1833225525856318
 10
0.2065069107400108
 20
0.186287991755317
 10
0.2072760977432912
 20
0.1882100326707005
 10
0.2082650485821562
 20
0.1900222445420788
  0
LWPOLYLINE
  5
428
330
2
100
AcDbEntity
  8
Profilo
  6
Continuous
370
     0
100
AcDbPolyline
 90
        5
 70
   128
 43
0.0
 10
0.2088694113508753
 20
0.1804120296561223
 10
0.2089243509518968
 20
0.1838717081146973
 10
0.2095287137206194
 20
0.1858486652702566
 10
0.2106275546245195
 20
0.1881551164305256
 10
0.2116165054633845
 20
0.1898025830177222
  0
LWPOLYLINE
  5
429
330
2
100
AcDbEntity
  8
Profilo
  6
Continuous
370
     0
100
AcDbPolyline
 90
        4
 70
   128
 43
0.0
 10
0.2115615658623631
 20
0.1804669458962981
 10
0.2119461593640042
 20
0.1826086517723854
 10
0.2123856924666667
 20
0.1842561149232357
 10
0.212770285968306
 20
0.1851896806971859
  0
LWPOLYLINE
  5
42A
330
2
100
AcDbEntity
  8
Profilo
  6
Continuous
370
     0
100
AcDbPolyline
 90
        6
 70
   128
 43
0.0
 10
0.1983755021730327
 20
0.1774465939227826
 10
0.1973316063016492
 20
0.1805767783766495
 10
0.1960130015621664
 20
0.1820594962433198
 10
0.1946943968226817
 20
0.1834323850659832
 10
0.1926065996484196
 20
0.1848052704523012
 10
0.1911781102753951
 20
0.185958497750608
  0
LWPOLYLINE
  5
42B
330
2
100
AcDbEntity
  8
Profilo
  6
Continuous
370
     0
100
AcDbPolyline
 90
        5
 70
   128
 43
0.0
 10
0.1974414909351891
 20
0.1823889902480279
 10
0.1959031169286265
 20
0.1844208636437629
 10
0.1942548582885222
 20
0.1859035815104332
 10
0.1926065996484196
 20
0.1870018925685642
 10
0.191782473044116
 20
0.1873862993771026
  0
LWPOLYLINE
  5
42C
330
2
100
AcDbEntity
  8
Profilo
  6
Continuous
370
     0
100
AcDbPolyline
 90
        5
 70
   128
 43
0.0
 10
0.1956284080605253
 20
0.1774465939227826
 10
0.1933208470506804
 20
0.1806316911804798
 10
0.1915627037770362
 20
0.1820045800031432
 10
0.1897496209023723
 20
0.18315780730145
 10
0.1888156096645288
 20
0.183597130350165
  0
LWPOLYLINE
  5
42D
330
2
100
AcDbEntity
  8
Profilo
  6
Continuous
370
     0
100
AcDbPolyline
 90
        5
 70
   128
 43
0.0
 10
0.1940900340539609
 20
0.1756343820514051
 10
0.1927164842819595
 20
0.1772818486386017
 10
0.1912330553079136
 20
0.1787096502650954
 10
0.1896397362688325
 20
0.1795333835586942
 10
0.1888156096645288
 20
0.18013745189159
  0
LWPOLYLINE
  5
42E
330
2
100
AcDbEntity
  8
Profilo
  6
Continuous
370
     0
100
AcDbPolyline
 90
        4
 70
   128
 43
0.0
 10
0.197551375568729
 20
0.1856290037459
 10
0.1957932322950866
 20
0.1882100326707005
 10
0.1939252098194013
 20
0.1901869898262606
 10
0.191287994908935
 20
0.1915598786489249
  0
LWPOLYLINE
  5
42F
330
2
100
AcDbEntity
  8
Profilo
  6
Continuous
370
     0
100
AcDbPolyline
 90
        3
 70
   128
 43
0.0
 10
0.1951339299253443
 20
0.1925483572267045
 10
0.1934856712852417
 20
0.1948548083869718
 10
0.191782473044116
 20
0.1965571912143441
  0
LWPOLYLINE
  5
430
330
2
100
AcDbEntity
  8
Profilo
  6
Continuous
370
     0
100
AcDbPolyline
 90
       87
 70
   128
 43
0.0
 10
0.1879363488560009
 20
0.1482666891694498
 10
0.1849574085429408
 20
0.1466837750625708
 10
0.1833852393222257
 20
0.1449838813863565
 10
0.1822685834572442
 20
0.1439012355932262
 10
0.1812882798096871
 20
0.1434539827099969
 10
0.180253694463101
 20
0.1438738176559465
 10
0.1799463884755055
 20
0.1446012908217592
 10
0.1792030675333545
 20
0.144759126936063
 10
0.1782374654412904
 20
0.1443615688874161
 10
0.1771782878094241
 20
0.1447057165618187
 10
0.1763451384464167
 20
0.1451019455948924
 10
0.1758978822237192
 20
0.1460422583494311
 10
0.1755556839250618
 20
0.1467616970256963
 10
0.1759367610914
 20
0.1475777563198618
 10
0.1755289990298972
 20
0.1484623183670325
 10
0.174346848773107
 20
0.1493437031753916
 10
0.1733569790636447
 20
0.1494201746067406
 10
0.1733569790636447
 20
0.1494201746067406
 10
0.172522779772722
 20
0.1482686143017656
 10
0.172048462837129
 20
0.1476138492342932
 10
0.1712204757359148
 20
0.1474783563441811
 10
0.170096066915056
 20
0.1481365883126732
 10
0.1696998696616012
 20
0.1489766217909957
 10
0.1698077301053795
 20
0.14969472160117
 10
0.1688639104233369
 20
0.1497503424153005
 10
0.1680619169648188
 20
0.1493414635938456
 10
0.1665894456218402
 20
0.1494433256389164
 10
0.165905736029478
 20
0.1500420492483795
 10
0.1654102257662091
 20
0.1507051455841307
 10
0.165175153290612
 20
0.1518305416000193
 10
0.1655695921864597
 20
0.1529157828234248
 10
0.1659554803801859
 20
0.1534598624411164
 10
0.1653105336144274
 20
0.1539204631385899
 10
0.1641037938787593
 20
0.1538104613554071
 10
0.1629311359639127
 20
0.1541914810088841
 10
0.1618190216959585
 20
0.1548875628406997
 10
0.1615968581768554
 20
0.1560057833326195
 10
0.1618532162896999
 20
0.15705220622167
 10
0.1619743117095391
 20
0.1576823222270186
 10
0.1607751838425691
 20
0.1582393094901472
 10
0.159899524534014
 20
0.1592769742394883
 10
0.1597662473341865
 20
0.1602826303151249
 10
0.1597691716607861
 20
0.1615787658338651
 10
0.1604397655863237
 20
0.1627416458497589
 10
0.1612389474911604
 20
0.1635280110967833
 10
0.1622433140882562
 20
0.1637874513991021
 10
0.1625923121756367
 20
0.1642179949438142
 10
0.1619086025832763
 20
0.1648167185532755
 10
0.1620391842704996
 20
0.1658621697856278
 10
0.1624364297734433
 20
0.1665699204796923
 10
0.1634256886742167
 20
0.1671690035718071
 10
0.1646711929149147
 20
0.1671408876086645
 10
0.1659819316127662
 20
0.1667986862895415
 10
0.1666373018009042
 20
0.1666275882128109
 10
0.1662524635350933
 20
0.1676312979331679
 10
0.1663953413649557
 20
0.1687145928012929
 10
0.1669779795898949
 20
0.1698642067509882
 10
0.1679558795030245
 20
0.1702996136010694
 10
0.1688883386076905
 20
0.1700803227724562
 10
0.1700487003798961
 20
0.1696614594832057
 10
0.1708818497429052
 20
0.1692652304501311
 10
0.1710010707640601
 20
0.170147000274789
 10
0.1714976326336706
 20
0.1710316984427472
 10
0.1726287144898058
 20
0.1711662829611668
 10
0.1739659198716217
 20
0.1706481150942823
 10
0.1743498193040109
 20
0.1697702328145246
 10
0.1749824682487022
 20
0.169271783315616
 10
0.1757768531066814
 20
0.1690136720288694
 10
0.1760861478556122
 20
0.169708160760507
 10
0.1771529373561782
 20
0.1700310021324166
 10
0.1779227266607182
 20
0.1696972046360122
 10
0.1775880134773138
 20
0.1707264666245248
 10
0.1779077333270502
 20
0.1717104631425669
 10
0.1785310087772773
 20
0.1724703003609641
 10
0.1792942394091936
 20
0.1730173020944087
 10
0.1801869984435653
 20
0.1730619553908318
 10
0.181208347135666
 20
0.1727300990840471
 10
0.1824093494013204
 20
0.1719214580016101
 10
0.1827365650786794
 20
0.1718988226835448
 10
0.1835007328655911
 20
0.1723199918107275
 10
0.1845079077482075
 20
0.1722019467493671
 10
0.1856824416514728
 20
0.1715692670490306
 10
0.1863784523330578
 20
0.1710083911791135
 10
0.1875037983089138
 20
0.1702243266043614
 10
0.1885516153634035
 20
0.1697165089154761
 10
0.1896107929952679
 20
0.1693723612410735
 10
0.1899411601094896
 20
0.1692389705199976
  0
LWPOLYLINE
  5
431
330
2
100
AcDbEntity
  8
Profilo
  6
Continuous
370
     0
100
AcDbPolyline
 90
        6
 70
   128
 43
0.0
 10
0.1883172933910304
 20
0.1565002177265561
 10
0.1805639812135171
 20
0.1575174189506122
 10
0.1735758120452611
 20
0.1584015439707035
 10
0.1696664955350366
 20
0.1586319134549904
 10
0.1658485369010789
 20
0.1582549012599131
 10
0.1630046302107646
 20
0.1576769399443848
  0
LWPOLYLINE
  5
432
330
2
100
AcDbEntity
  8
Profilo
  6
Continuous
370
     0
100
AcDbPolyline
 90
        8
 70
   128
 43
0.0
 10
0.1881386168067272
 20
0.1595045058688694
 10
0.1842136130380452
 20
0.1595088933700247
 10
0.1786878224852055
 20
0.1599178684856318
 10
0.1744990930954844
 20
0.1603545585480254
 10
0.1689158992071376
 20
0.1614754166741016
 10
0.1662026440958562
 20
0.1620103880770863
 10
0.1640077854102861
 20
0.1628968530617704
 10
0.1627347518100228
 20
0.1635993327499338
  0
LWPOLYLINE
  5
433
330
2
100
AcDbEntity
  8
Profilo
  6
Continuous
370
     0
100
AcDbPolyline
 90
        4
 70
   128
 43
0.0
 10
0.1717780748581801
 20
0.1619319025032685
 10
0.1690753288497613
 20
0.1633877699102609
 10
0.1678676227174398
 20
0.1646467211233426
 10
0.1669210538788806
 20
0.1658208179752457
  0
LWPOLYLINE
  5
434
330
2
100
AcDbEntity
  8
Profilo
  6
Continuous
370
     0
100
AcDbPolyline
 90
        6
 70
   128
 43
0.0
 10
0.187175070697789
 20
0.1606263520552184
 10
0.183350640628156
 20
0.1611179862604838
 10
0.1790914138296371
 20
0.1616931218607202
 10
0.1754002203094667
 20
0.1629502302531199
 10
0.1722248365661534
 20
0.164906285592937
 10
0.169905957065213
 20
0.1661218933807492
  0
LWPOLYLINE
  5
435
330
2
100
AcDbEntity
  8
Profilo
  6
Continuous
370
     0
100
AcDbPolyline
 90
        4
 70
   128
 43
0.0
 10
0.1761301154978823
 20
0.1628863850975123
 10
0.1745398378165872
 20
0.1642118687159709
 10
0.1727550353748077
 20
0.1660049427991773
 10
0.1717001297111784
 20
0.1677341654992278
  0
LWPOLYLINE
  5
436
330
2
100
AcDbEntity
  8
Profilo
  6
Continuous
370
     0
100
AcDbPolyline
 90
        4
 70
   128
 43
0.0
 10
0.1827853516482245
 20
0.1623992768589247
 10
0.1802784188224769
 20
0.163213828711143
 10
0.1779947888208009
 20
0.1643602106162588
 10
0.1763327155040459
 20
0.1659978680482527
  0
LWPOLYLINE
  5
437
330
2
100
AcDbEntity
  8
Profilo
  6
Continuous
370
     0
100
AcDbPolyline
 90
        5
 70
   128
 43
0.0
 10
0.1875068680851852
 20
0.1627137844095027
 10
0.18394099033889
 20
0.1634680227849702
 10
0.181273492240001
 20
0.1648546705368171
 10
0.1796832145587059
 20
0.1661801541552758
 10
0.1782653012653343
 20
0.1676807065605369
  0
LWPOLYLINE
  5
438
330
2
100
AcDbEntity
  8
Profilo
  6
Continuous
370
     0
100
AcDbPolyline
 90
        5
 70
   128
 43
0.0
 10
0.1875919171219229
 20
0.1652857699905786
 10
0.1843185446499886
 20
0.166407120094905
 10
0.1826251050310594
 20
0.1675928166025232
 10
0.1807711001389907
 20
0.1693506090097693
 10
0.1795098689216685
 20
0.1708002523224746
  0
LWPOLYLINE
  5
439
330
2
100
AcDbEntity
  8
Profilo
  6
Continuous
370
     0
100
AcDbPolyline
 90
        4
 70
   128
 43
0.0
 10
0.1883716101693855
 20
0.1678631311330835
 10
0.186453572767878
 20
0.1688907248016073
 10
0.1850225654012194
 20
0.1698178397342412
 10
0.1842535375164476
 20
0.1704720975796173
  0
LWPOLYLINE
  5
43A
330
2
100
AcDbEntity
  8
Profilo
  6
Continuous
370
     0
100
AcDbPolyline
 90
        6
 70
   128
 43
0.0
 10
0.1871694178263878
 20
0.1543890992482523
 10
0.183869853939717
 20
0.1543635754692126
 10
0.1820522341774302
 20
0.1535676928579742
 10
0.1803390680431234
 20
0.1527378712056614
 10
0.178388211642684
 20
0.151176503014076
 10
0.1768499998133104
 20
0.1501742957209576
  0
LWPOLYLINE
  5
43B
330
2
100
AcDbEntity
  8
Profilo
  6
Continuous
370
     0
100
AcDbPolyline
 90
        5
 70
   128
 43
0.0
 10
0.1821802942497206
 20
0.1550280862316454
 10
0.179772484104687
 20
0.1541928890179046
 10
0.1778529956848465
 20
0.1530834869163592
 10
0.1762990998651743
 20
0.1518552965782208
 10
0.1756788381387599
 20
0.1511902938375397
  0
LWPOLYLINE
  5
43C
330
2
100
AcDbEntity
  8
Profilo
  6
Continuous
370
     0
100
AcDbPolyline
 90
        5
 70
   128
 43
0.0
 10
0.1863205190604769
 20
0.1517764574916763
 10
0.1825782359909118
 20
0.1505660857378802
 10
0.1807292449798654
 20
0.1493182380984911
 10
0.1790721872225609
 20
0.1479502606495114
 10
0.1783657408288912
 20
0.1471977214635424
  0
LWPOLYLINE
  5
43D
330
2
100
AcDbEntity
  8
Profilo
  6
Continuous
370
     0
100
AcDbPolyline
 90
        5
 70
   128
 43
0.0
 10
0.1875686512579249
 20
0.1497533726025705
 10
0.1855773672026244
 20
0.1489561443145612
 10
0.1837610423988425
 20
0.1479865344895169
 10
0.1824852628217395
 20
0.146725745621416
 10
0.1816560905712043
 20
0.1461286220247694
  0
LWPOLYLINE
  5
43E
330
2
100
AcDbEntity
  8
Profilo
  6
Continuous
370
     0
100
AcDbPolyline
 90
        4
 70
   128
 43
0.0
 10
0.1791328145188695
 20
0.1561338119612622
 10
0.1761348139910892
 20
0.1552593001450199
 10
0.1736773653149977
 20
0.1540936185551515
 10
0.1715567262289002
 20
0.1520097241072732
  0
LWPOLYLINE
  5
43F
330
2
100
AcDbEntity
  8
Profilo
  6
Continuous
370
     0
100
AcDbPolyline
 90
        3
 70
   128
 43
0.0
 10
0.1718050865156171
 20
0.1559728823449865
 10
0.169102181179211
 20
0.1551180278299949
 10
0.1669568016967118
 20
0.1540242552688217
  0
LWPOLYLINE
  5
440
330
2
100
AcDbEntity
  8
Profilo
  6
Continuous
370
     0
100
AcDbPolyline
 90
       87
 70
   128
 43
0.0
 10
0.2116952806050689
 20
0.1354437879984632
 10
0.2122801781991888
 20
0.1321215000424115
 10
0.2134110461497267
 20
0.13010098222575
 10
0.214095637846974
 20
0.1287044234399354
 10
0.2142180701292597
 20
0.1276338905262769
 10
0.2134990789139197
 20
0.1267796775238733
 10
0.2127122480465042
 20
0.1267122137330635
 10
0.2123324381780895
 20
0.1260540475489779
 10
0.2124121508946077
 20
0.1250128531938886
 10
0.2117575431179903
 20
0.1241118628851535
 10
0.2111232496021176
 20
0.1234419322593022
 10
0.2100907492559048
 20
0.1233071389354315
 10
0.2093007773250373
 20
0.1232040077910054
 10
0.2086424181362043
 20
0.1238186099035773
 10
0.2076751442305105
 20
0.1237041498430437
 10
0.2064715929459029
 20
0.1228522210224482
 10
0.2060929777303679
 20
0.1219344299568535
 10
0.2060929777303679
 20
0.1219344299568535
 10
0.2069303949047312
 20
0.120785207581047
 10
0.2074065414949742
 20
0.1201317718354903
 10
0.2072795408056296
 20
0.1193024397018102
 10
0.206306063568489
 20
0.1184364682302571
 10
0.2053847125705828
 20
0.1183192468712678
 10
0.2047350897769145
 20
0.1186437332941733
 10
0.2043905349178188
 20
0.1177632952121675
 10
0.2045315721772776
 20
0.1168742036029479
 10
0.2039796769468387
 20
0.1155052772401584
 10
0.2031989790733422
 20
0.1150400465473477
 10
0.2024152158900583
 20
0.1147736963192284
 10
0.2012722592858653
 20
0.1148978956038221
 10
0.2003620218706532
 20
0.1156083872670263
 10
0.1999638174146538
 20
0.1161435185963907
 10
0.1993264606088252
 20
0.1156724712152942
 10
0.1990581754354166
 20
0.1144908011057984
 10
0.1983334329868642
 20
0.1134932787026138
 10
0.197327757616357
 20
0.1126506962967192
 10
0.1961956144279286
 20
0.1127849553696548
 10
0.1952796261340117
 20
0.1133521288793994
 10
0.1947177707437737
 20
0.113662014021611
 10
0.1938174934883607
 20
0.112693694179815
 10
0.1925600220591426
 20
0.1121815487303691
 10
0.1915624013755492
 20
0.112365559398868
 10
0.1903306069110651
 20
0.1127688685010407
 10
0.1894318672135944
 20
0.113765990911041
 10
0.1889309502114165
 20
0.1147690582944579
 10
0.1889945741683923
 20
0.115804439153817
 10
0.188692949264649
 20
0.1162694013311299
 10
0.1879122513911542
 20
0.1158041706383183
 10
0.1869583201446636
 20
0.1162514234004471
 10
0.1864079648465096
 20
0.1168479333168378
 10
0.1861439007801275
 20
0.1179739012972279
 10
0.1865555226270283
 20
0.1191497579109927
 10
0.1872860159542855
 20
0.1202905984676369
 10
0.1876512604208271
 20
0.1208610203422368
 10
0.1865777541865923
 20
0.1208051807628275
 10
0.1855916312207386
 20
0.1212758221781226
 10
0.1846783284957356
 20
0.1221851943060191
 10
0.1845664196656822
 20
0.1232497805068292
 10
0.1850631233470994
 20
0.1240688372217472
 10
0.1858200575150131
 20
0.1250429709717665
 10
0.1864543510308858
 20
0.1257129015976178
 10
0.185652579414896
 20
0.1260987693876129
 10
0.1849646275137735
 20
0.1268444145582402
 10
0.1851861535461128
 20
0.127961726231354
 10
0.1860921796603991
 20
0.1290733614465472
 10
0.1870457267718424
 20
0.1291671909598174
 10
0.1877152796912063
 20
0.1296148464951939
 10
0.188206236533585
 20
0.1302905906167763
 10
0.1876413158335579
 20
0.1307993562236812
 10
0.1876639315281692
 20
0.1319136968001161
 10
0.1882192697894391
 20
0.1325426608353045
 10
0.187136951406375
 20
0.1325423891272529
 10
0.1862999139728869
 20
0.1331505324202141
 10
0.1857698685413054
 20
0.1339781052120424
 10
0.1854854902141769
 20
0.1348730135095496
 10
0.1857189001191417
 20
0.1357358764341202
 10
0.1863501283252253
 20
0.1366046875246648
 10
0.1874903218063919
 20
0.1374970247186774
 10
0.1876129644782642
 20
0.1378012306229078
 10
0.1874485496681049
 20
0.1386581457939985
 10
0.1878720513479648
 20
0.1395795480990979
 10
0.1888367164362761
 20
0.1405010874420077
 10
0.1895852202160688
 20
0.1409897127606018
 10
0.1906786609701749
 20
0.1418176911057393
 10
0.1914854175691121
 20
0.1426573000473875
 10
0.1921400253457277
 20
0.1435582903561227
 10
0.1923689765128975
 20
0.1438312681531676
  0
LWPOLYLINE
  5
441
330
2
100
AcDbEntity
  8
Profilo
  6
Continuous
370
     0
100
AcDbPolyline
 90
        6
 70
   128
 43
0.0
 10
0.2039824479539691
 20
0.1383503880286677
 10
0.2006191268759017
 20
0.131290882424305
 10
0.1976188109817676
 20
0.1249179482562218
 10
0.1961916713445311
 20
0.121271155400544
 10
0.1953704171476682
 20
0.1175235577874075
 10
0.1950412755252435
 20
0.1146402419292584
  0
LWPOLYLINE
  5
442
330
2
100
AcDbEntity
  8
Profilo
  6
Continuous
370
     0
100
AcDbPolyline
 90
        8
 70
   128
 43
0.0
 10
0.2010699860383485
 20
0.1391088325908302
 10
0.199852920409276
 20
0.1353772879925622
 10
0.1977563987723914
 20
0.1302483291406008
 10
0.1960466932766887
 20
0.1263995554100629
 10
0.1932553920576512
 20
0.1214359866900531
 10
0.1919081620793508
 20
0.1190208429911247
 10
0.1903868351451072
 20
0.1172073410810527
 10
0.1893253482432231
 20
0.1162136923419047
  0
LWPOLYLINE
  5
443
330
2
100
AcDbEntity
  8
Profilo
  6
Continuous
370
     0
100
AcDbPolyline
 90
        4
 70
   128
 43
0.0
 10
0.1937057091522851
 20
0.1242991393726623
 10
0.1914859025199223
 20
0.1221785629397817
 10
0.1899153670459255
 20
0.1214190034727983
 10
0.1885062287267003
 20
0.1208815788910459
  0
LWPOLYLINE
  5
444
330
2
100
AcDbEntity
  8
Profilo
  6
Continuous
370
     0
100
AcDbPolyline
 90
        6
 70
   128
 43
0.0
 10
0.1997052947900146
 20
0.1385391153218299
 10
0.1980559089901475
 20
0.1350537895074336
 10
0.1961927490661515
 20
0.1311807507808672
 10
0.1938565264106098
 20
0.1280586849876241
 10
0.1910149596930977
 20
0.1256431699287493
 10
0.1891422748115412
 20
0.1238134279338067
  0
LWPOLYLINE
  5
445
330
2
100
AcDbEntity
  8
Profilo
  6
Continuous
370
     0
100
AcDbPolyline
 90
        4
 70
   128
 43
0.0
 10
0.1941427967792164
 20
0.128733127324688
 10
0.1923907641173435
 20
0.1276302803370431
 10
0.1901339150401979
 20
0.1264869227083735
 10
0.1881633427456661
 20
0.1260180070042763
  0
LWPOLYLINE
  5
446
330
2
100
AcDbEntity
  8
Profilo
  6
Continuous
370
     0
100
AcDbPolyline
 90
        4
 70
   128
 43
0.0
 10
0.1966626453157014
 20
0.1349121083091312
 10
0.1951132756218767
 20
0.1327795838744244
 10
0.1933173211614714
 20
0.1309619741712485
 10
0.1912462074885399
 20
0.129887312490239
  0
LWPOLYLINE
  5
447
330
2
100
AcDbEntity
  8
Profilo
  6
Continuous
370
     0
100
AcDbPolyline
 90
        5
 70
   128
 43
0.0
 10
0.1978225596785423
 20
0.1394997254612854
 10
0.1960033195332438
 20
0.1363414466701876
 10
0.1938602369080249
 20
0.1342330029415678
 10
0.1921082042461519
 20
0.133130155953923
 10
0.1902429347988834
 20
0.1322453364708956
  0
LWPOLYLINE
  5
448
330
2
100
AcDbEntity
  8
Profilo
  6
Continuous
370
     0
100
AcDbPolyline
 90
        5
 70
   128
 43
0.0
 10
0.1954027376295484
 20
0.1403753991557187
 10
0.193324742583034
 20
0.1376087531749056
 10
0.1916737765719196
 20
0.1363645967613961
 10
0.1894290976294093
 20
0.1351445210539718
 10
0.1876606630305686
 20
0.1343929833055916
  0
LWPOLYLINE
  5
449
330
2
100
AcDbEntity
  8
Profilo
  6
Continuous
370
     0
100
AcDbPolyline
 90
        4
 70
   128
 43
0.0
 10
0.1931924599221857
 20
0.1419133797028936
 10
0.19162245411472
 20
0.1404067616405785
 10
0.190298509821311
 20
0.1393322870295729
 10
0.1894386309485851
 20
0.1388030748414727
  0
LWPOLYLINE
  5
44A
330
2
100
AcDbEntity
  8
Profilo
  6
Continuous
370
     0
100
AcDbPolyline
 90
        6
 70
   128
 43
0.0
 10
0.2056355278825299
 20
0.1366063220060835
 10
0.2046401811238978
 20
0.1334603629892496
 10
0.2048354350716652
 20
0.1314857626177791
 10
0.2050952449117711
 20
0.1296000158093847
 10
0.2059773465233923
 20
0.1272621518117142
 10
0.2064551687039666
 20
0.1254895263424877
  0
LWPOLYLINE
  5
44B
330
2
100
AcDbEntity
  8
Profilo
  6
Continuous
370
     0
100
AcDbPolyline
 90
        5
 70
   128
 43
0.0
 10
0.2034860911759184
 20
0.1320588413549454
 10
0.2035363566743948
 20
0.1295107876938085
 10
0.2039983062300232
 20
0.1273424216211935
 10
0.2046862044385949
 20
0.1254850471894383
 10
0.2051269882140512
 20
0.1246896460845467
  0
LWPOLYLINE
  5
44C
330
2
100
AcDbEntity
  8
Profilo
  6
Continuous
370
     0
100
AcDbPolyline
 90
        5
 70
   128
 43
0.0
 10
0.2078579737046964
 20
0.1349916206000924
 10
0.2078526765820252
 20
0.1310584724595268
 10
0.2084680805659504
 20
0.1289143713829394
 10
0.2092570454252789
 20
0.1269156875253204
 10
0.2097544487806042
 20
0.1260112696818102
  0
LWPOLYLINE
  5
44D
330
2
100
AcDbEntity
  8
Profilo
  6
Continuous
370
     0
100
AcDbPolyline
 90
        5
 70
   128
 43
0.0
 10
0.2101677358317355
 20
0.1355534972478763
 10
0.2103106043763072
 20
0.1334133164818975
 10
0.2106714828870049
 20
0.1313862630276999
 10
0.2114763267852828
 20
0.1297833193609782
 10
0.2117879967562291
 20
0.1288102083498702
  0
LWPOLYLINE
  5
44E
330
2
100
AcDbEntity
  8
Profilo
  6
Continuous
370
     0
100
AcDbPolyline
 90
        4
 70
   128
 43
0.0
 10
0.2014927604886856
 20
0.1295022039402108
 10
0.201398037537871
 20
0.1263806969894084
 10
0.2017472732061238
 20
0.1236833089912509
 10
0.2030738610835103
 20
0.121022502570831
  0
LWPOLYLINE
  5
44F
330
2
100
AcDbEntity
  8
Profilo
  6
Continuous
370
     0
100
AcDbPolyline
 90
        3
 70
   128
 43
0.0
 10
0.1993814211657467
 20
0.122483390486752
 10
0.1993591924395786
 20
0.1196486101807829
 10
0.1997364732417515
 20
0.117270238734643
  0
LWPOLYLINE
  5
450
330
2
100
AcDbEntity
  8
Profilo
  6
Continuous
370
     0
100
AcDbPolyline
 90
       87
 70
   128
 43
0.0
 10
0.2312324980002016
 20
0.1540773804796015
 10
0.234572924906365
 20
0.1536070077092261
 10
0.2368440089573023
 20
0.1540581526998695
 10
0.2383837657595988
 20
0.1542776776960782
 10
0.2394397367189269
 20
0.1540633048525909
 10
0.2400299610568217
 20
0.1531155372375242
 10
0.2398509788249543
 20
0.1523463691559809
 10
0.2403595643591621
 20
0.1517817639696667
 10
0.241374431619372
 20
0.1515358285179741
 10
0.2420290393959894
 20
0.1506348382092389
 10
0.2424701738073447
 20
0.1498245692792838
 10
0.2422793097226867
 20
0.1488009496691375
 10
0.2421332785179084
 20
0.1480177724403181
 10
0.2413453129960656
 20
0.1475815581412795
 10
0.2411552669074182
 20
0.1466262558863435
 10
0.2415935815631178
 20
0.1452183501108618
 10
0.2423494542007207
 20
0.1445746526064039
 10
0.2423494542007207
 20
0.1445746526064039
 10
0.2437012057681633
 20
0.145015954422499
 10
0.2444697974801537
 20
0.1452668739897528
 10
0.2452192938387585
 20
0.1448898114332885
 10
0.245742060639792
 20
0.1436963796620886
 10
0.2455688316609701
 20
0.1427838993997027
 10
0.2450594822508398
 20
0.1422663432277725
 10
0.2457903553189704
 20
0.1416665817539727
 10
0.2466795145975154
 20
0.1415259717418172
 10
0.2478108959298544
 20
0.140578066676447
 10
0.248012107701449
 20
0.139691814686217
 10
0.2480232256783188
 20
0.1388641048565774
 10
0.2475519121248573
 20
0.137815468219946
 10
0.2465949155685776
 20
0.1371693349931239
 10
0.2459629234865714
 20
0.1369559847254241
 10
0.246213962083367
 20
0.1362042607361217
 10
0.2472548924631914
 20
0.1355839502281463
 10
0.2479796349117438
 20
0.1345864278249617
 10
0.2484702076190735
 20
0.1333696014279803
 10
0.2479926681675961
 20
0.1323343576064325
 10
0.2471701981558161
 20
0.1316384672239231
 10
0.2467018570080468
 20
0.1311998707690697
 10
0.2473445829318719
 20
0.1300444289317307
 10
0.2474430821572897
 20
0.1286902408874483
 10
0.2469597958667757
 20
0.1277983096592371
 10
0.2461955806939697
 20
0.1267514328736111
 10
0.2449695350883589
 20
0.1262048083980413
 10
0.2438607694506329
 20
0.1260383728869757
 10
0.2428957246214465
 20
0.1264188331470412
 10
0.2423603120916999
 20
0.126275652031392
 10
0.2425615238632963
 20
0.1253894000411638
 10
0.2418413802428108
 20
0.1246203662173694
 10
0.2411039964597192
 20
0.1242812789262605
 10
0.239951536990713
 20
0.1243780823162711
 10
0.2389604290419121
 20
0.1251329176326167
 10
0.2381011600488618
 20
0.1261801971914903
 10
0.237671523355248
 20
0.1267038353746502
 10
0.2373928982811668
 20
0.1256656148963006
 10
0.23664056294132
 20
0.1248731924193408
 10
0.2354934725903119
 20
0.1242856013531081
 10
0.2344464092165668
 20
0.1245081449590816
 10
0.2338209298693548
 20
0.1252336406762272
 10
0.2331283791401655
 20
0.126254551732578
 10
0.2326872447288102
 20
0.1270648206625332
 10
0.2320725015977578
 20
0.1264215302472563
 10
0.2311507620706303
 20
0.1259976661382928
 10
0.2301565908318717
 20
0.1265536182098844
 10
0.2293793403833801
 20
0.1277588144228509
 10
0.2295847654757372
 20
0.1286946865309567
 10
0.2293659229924787
 20
0.12946980236598
 10
0.2288749661500999
 20
0.1301455464875624
 10
0.2282165312076041
 20
0.1297654921932983
 10
0.2271637189749873
 20
0.1301313511726699
 10
0.2267371475911644
 20
0.1308538698205214
 10
0.2264029512271881
 20
0.1298244399071969
 10
0.2255659137937001
 20
0.1292162966142357
 10
0.2246150522511725
 20
0.1289679275093539
 10
0.2236760661474266
 20
0.1289740095205828
 10
0.2229275623676339
 20
0.129462634839176
 10
0.222296334161552
 20
0.1303314459297206
 10
0.2218000102210083
 20
0.131691581727483
 10
0.2215485918833393
 20
0.131902226633941
 10
0.220682810155495
 20
0.1320106602079684
 10
0.2199373737053227
 20
0.1326981632111915
 10
0.219359035614396
 20
0.1339003855474176
 10
0.2191256257094294
 20
0.1347632484719882
 10
0.2186760632842957
 20
0.1360590318059857
 10
0.2181268492285986
 20
0.1370857563580675
 10
0.2174722414519812
 20
0.1379867466668018
 10
0.2172833739408342
 20
0.1382888469446265
  0
LWPOLYLINE
  5
451
330
2
100
AcDbEntity
  8
Profilo
  6
Continuous
370
     0
100
AcDbPolyline
 90
        6
 70
   128
 43
0.0
 10
0.2260847607372531
 20
0.1476402295328628
 10
0.2317594261734401
 20
0.1422600139015405
 10
0.2368932981421354
 20
0.1374371989575084
 10
0.2399205938498545
 20
0.1349529875384822
 10
0.2432309894767484
 20
0.1330138570324831
 10
0.2458714754572926
 20
0.1318098311473735
  0
LWPOLYLINE
  5
452
330
2
100
AcDbEntity
  8
Profilo
  6
Continuous
370
     0
100
AcDbPolyline
 90
        8
 70
   128
 43
0.0
 10
0.2244634368667617
 20
0.1451046859085484
 10
0.2276362527101379
 20
0.1427940770151278
 10
0.2318663216332342
 20
0.139215231002109
 10
0.2349983949158576
 20
0.136399867959235
 10
0.238856469778
 20
0.1322113556586969
 10
0.2407370909720294
 20
0.1301837433620595
 10
0.2419917179042363
 20
0.1281764725582873
 10
0.242608716520522
 20
0.1268598841764524
  0
LWPOLYLINE
  5
453
330
2
100
AcDbEntity
  8
Profilo
  6
Continuous
370
     0
100
AcDbPolyline
 90
        4
 70
   128
 43
0.0
 10
0.2362726053971562
 20
0.1335243955023627
 10
0.2376034354583238
 20
0.1307579397841082
 10
0.2378404972871773
 20
0.1290295550039538
 10
0.2379161707496051
 20
0.1275233114941389
  0
LWPOLYLINE
  5
454
330
2
100
AcDbEntity
  8
Profilo
  6
Continuous
370
     0
100
AcDbPolyline
 90
        6
 70
   128
 43
0.0
 10
0.224583557400081
 20
0.1436307350859803
 10
0.227388610984834
 20
0.1409850510655496
 10
0.2304963416238464
 20
0.138016245892551
 10
0.2327436701376053
 20
0.134829594724814
 10
0.2341628690681967
 20
0.1313806689782754
 10
0.2353243656621144
 20
0.1290342184469447
  0
LWPOLYLINE
  5
455
330
2
100
AcDbEntity
  8
Profilo
  6
Continuous
370
     0
100
AcDbPolyline
 90
        4
 70
   128
 43
0.0
 10
0.232190699766962
 20
0.1353102681681787
 10
0.2326981617138186
 20
0.1333031876269651
 10
0.2330881547184449
 20
0.1308034796679437
 10
0.2329251797267633
 20
0.1287844511249031
  0
LWPOLYLINE
  5
456
330
2
100
AcDbEntity
  8
Profilo
  6
Continuous
370
     0
100
AcDbPolyline
 90
        4
 70
   128
 43
0.0
 10
0.2270928156586669
 20
0.1396161966709916
 10
0.2286421853524916
 20
0.1374836722362848
 10
0.2298158544553905
 20
0.1352139457563249
 10
0.2301979091277089
 20
0.1329121108790597
  0
LWPOLYLINE
  5
457
330
2
100
AcDbEntity
  8
Profilo
  6
Continuous
370
     0
100
AcDbPolyline
 90
        5
 70
   128
 43
0.0
 10
0.223088165721981
 20
0.142136992447817
 10
0.2255296912247859
 20
0.1394308304335031
 10
0.2268726914205887
 20
0.1367410927940024
 10
0.2273801533674453
 20
0.1347340122527888
 10
0.2276452667442295
 20
0.132686611333109
  0
LWPOLYLINE
  5
458
330
2
100
AcDbEntity
  8
Profilo
  6
Continuous
370
     0
100
AcDbPolyline
 90
        5
 70
   128
 43
0.0
 10
0.2215075844122405
 20
0.1401062029729542
 10
0.223496685316974
 20
0.1372749716176472
 10
0.2241697718267626
 20
0.1353203441591589
 10
0.224636488838531
 20
0.1328085034958776
 10
0.2248047673668874
 20
0.130894384310844
  0
LWPOLYLINE
  5
459
330
2
100
AcDbEntity
  8
Profilo
  6
Continuous
370
     0
100
AcDbPolyline
 90
        4
 70
   128
 43
0.0
 10
0.2193618646170512
 20
0.1384793660826408
 10
0.2203095850670087
 20
0.1365206312435417
 10
0.2209223498611303
 20
0.1349294544812575
 10
0.2211599433763498
 20
0.1339481255163742
  0
LWPOLYLINE
  5
45A
330
2
100
AcDbEntity
  8
Profilo
  6
Continuous
370
     0
100
AcDbPolyline
 90
        6
 70
   128
 43
0.0
 10
0.2282542958838649
 20
0.1486734559305861
 10
0.2309387016431101
 20
0.1467546701100079
 10
0.2328769949815543
 20
0.14633018257748
 10
0.2347507324276583
 20
0.1459945486080282
 10
0.2372467576056112
 20
0.1461110373879782
 10
0.2390802797831582
 20
0.1460177018917904
  0
LWPOLYLINE
  5
45B
330
2
100
AcDbEntity
  8
Profilo
  6
Continuous
370
     0
100
AcDbPolyline
 90
        5
 70
   128
 43
0.0
 10
0.2319149945191798
 20
0.1452239713416067
 10
0.2343538704507344
 20
0.1444843847876064
 10
0.2365588593970413
 20
0.1442536629562231
 10
0.2385378996904104
 20
0.1443339327657024
 10
0.2394305807717478
 20
0.1445073505888715
  0
LWPOLYLINE
  5
45C
330
2
100
AcDbEntity
  8
Profilo
  6
Continuous
370
     0
100
AcDbPolyline
 90
        5
 70
   128
 43
0.0
 10
0.2304767417060314
 20
0.1502881573365772
 10
0.2342157509737428
 20
0.1490677098567151
 10
0.2364450825636661
 20
0.1489904301554582
 10
0.2385897474199672
 20
0.1491231530476628
 10
0.2396036059933453
 20
0.1493167312663112
  0
LWPOLYLINE
  5
45D
330
2
100
AcDbEntity
  8
Profilo
  6
Continuous
370
     0
100
AcDbPolyline
 90
        5
 70
   128
 43
0.0
 10
0.2306561210090197
 20
0.1526585010914986
 10
0.2327357026807884
 20
0.1521330249240645
 10
0.2347750626699911
 20
0.1518498468174013
 10
0.2365482631318694
 20
0.1521199620174166
 10
0.2375700580177205
 20
0.1521156699343721
  0
LWPOLYLINE
  5
45E
330
2
100
AcDbEntity
  8
Profilo
  6
Continuous
370
     0
100
AcDbPolyline
 90
        4
 70
   128
 43
0.0
 10
0.233730528134503
 20
0.1425381567927751
 10
0.2366699866591644
 20
0.1414834712173024
 10
0.239343274848322
 20
0.1409820753434631
 10
0.2422837903317065
 20
0.1414215009860377
  0
LWPOLYLINE
  5
45F
330
2
100
AcDbEntity
  8
Profilo
  6
Continuous
370
     0
100
AcDbPolyline
 90
        3
 70
   128
 43
0.0
 10
0.2397533766743953
 20
0.1383612211341177
 10
0.2424425439025024
 20
0.1374640850693812
 10
0.2448210957440475
 20
0.1370879432389688
  0
LWPOLYLINE
  5
460
330
2
100
AcDbEntity
  8
Profilo
  6
Continuous
370
     0
100
AcDbPolyline
 90
       87
 70
   128
 43
0.0
 10
0.2195482306469219
 20
0.178416475136446
 10
0.2210278304177466
 20
0.1814480567330231
 10
0.2213005696019936
 20
0.1837473974877558
 10
0.221567599942974
 20
0.1852796301826086
 10
0.2220977936046877
 20
0.1862176733927273
 10
0.2231815635218342
 20
0.1864861337955829
 10
0.2238577772865737
 20
0.1860782255689378
 10
0.2245519103013154
 20
0.1863874465576564
 10
0.2250994200456751
 20
0.1872766444445605
 10
0.2261585976775413
 20
0.187620792118964
 10
0.2270655272532382
 20
0.1877899490060749
 10
0.2279800671079004
 20
0.1872921106193236
 10
0.2286797867907995
 20
0.1869112116171249
 10
0.2288511565051687
 20
0.1860270142413681
 10
0.2297009754686512
 20
0.1855510650388225
 10
0.2311754201082474
 20
0.1855328602372123
 10
0.2320211903049876
 20
0.1860528243665785
 10
0.2320211903049876
 20
0.1860528243665785
 10
0.2320192015436489
 20
0.1874747862640288
 10
0.2320180707548884
 20
0.1882832988305906
 10
0.2326082856682954
 20
0.1888795934884911
 10
0.2339048505566625
 20
0.1890079835621891
 10
0.2347191401578217
 20
0.1885612611049606
 10
0.2350539677038788
 20
0.1879169073767145
 10
0.2358502269605422
 20
0.1884266724827696
 10
0.2362587203566362
 20
0.1892288623253185
 10
0.2375098477046971
 20
0.1900119511396
 10
0.2384149012919752
 20
0.1899294479798524
 10
0.2392055357628513
 20
0.1896842454004312
 10
0.2400572045716471
 20
0.1889119530325515
 10
0.2403759855879619
 20
0.1878021290739101
 10
0.2403835974566617
 20
0.1871351400275988
 10
0.2411761046477976
 20
0.1871415964331476
 10
0.2420877201758602
 20
0.1879398935651356
 10
0.2432603780907068
 20
0.1883209132186127
 10
0.2445692440682967
 20
0.1884114555527655
 10
0.2454062516447435
 20
0.1876373806114698
 10
0.245813925516652
 20
0.186640123192891
 10
0.2460863301592389
 20
0.1860591705342339
 10
0.2473838338810277
 20
0.1863133880485302
 10
0.2487021811794181
 20
0.1859885992594518
 10
0.2494011145091781
 20
0.1852533447762904
 10
0.2501605980221504
 20
0.1842030302385672
 10
0.250301599863594
 20
0.1828680753235828
 10
0.2501172620160992
 20
0.1817621451373917
 10
0.24945720755402
 20
0.1809619016501224
 10
0.2494279293163759
 20
0.1804084486767915
 10
0.250332982903654
 20
0.1803259455170439
 10
0.2508418409159037
 20
0.1794034037133122
 10
0.2509364679733539
 20
0.178597326325863
 10
0.2504882729172346
 20
0.1775311861307259
 10
0.2494641126714543
 20
0.1768218433983709
 10
0.248202561901014
 20
0.176328257204834
 10
0.2475717873550052
 20
0.1760814615252338
 10
0.248473093823341
 20
0.1754956455612077
 10
0.2489942479782299
 20
0.1745352601217015
 10
0.2491986098781427
 20
0.1732627367433873
 10
0.2486633979548467
 20
0.172335690055048
 10
0.2477801267775919
 20
0.1719650143520183
 10
0.2465951727201043
 20
0.1716218383343148
 10
0.2456882431444074
 20
0.1714526814472038
 10
0.2461100826110558
 20
0.1706692383159306
 10
0.2462283681556399
 20
0.1696616307193527
 10
0.2453924105071101
 20
0.1688879163225988
 10
0.2440060171978848
 20
0.1685211333301301
 10
0.2431794297756602
 20
0.1690057045887928
 10
0.2423746247634606
 20
0.1690370969846792
 10
0.2415802399054814
 20
0.1687789856979326
 10
0.2417382254316662
 20
0.1680353336196027
 10
0.2410649359935262
 20
0.1671471063275084
 10
0.2402459621184259
 20
0.1669646833741972
 10
0.2411217357896354
 20
0.1663287324067796
 10
0.2414414556393718
 20
0.1653447358887375
 10
0.2413838363190772
 20
0.1643636625483368
 10
0.2410878893191273
 20
0.1634725131404896
 10
0.2403918786375405
 20
0.1629116372705724
 10
0.2393705299454416
 20
0.1625797809637878
 10
0.2379235913995894
 20
0.1625280539221076
 10
0.2376455636496415
 20
0.1623540337296258
 10
0.237274895925154
 20
0.1615641341928046
 10
0.2363906891826366
 20
0.1610676321110657
 10
0.2350685914971431
 20
0.1608891070339772
 10
0.2341758324627696
 20
0.1609337603304003
 10
0.2328045468498667
 20
0.1609066201277284
 10
0.2316583572974091
 20
0.1607015618563511
 10
0.2305991796655429
 20
0.1603574141819485
 10
0.2302535019571155
 20
0.1602711446246098
  0
LWPOLYLINE
  5
461
330
2
100
AcDbEntity
  8
Profilo
  6
Continuous
370
     0
100
AcDbPolyline
 90
        6
 70
   128
 43
0.0
 10
0.2240795867043632
 20
0.1715314970304432
 10
0.2309500438967797
 20
0.1752658465078446
 10
0.2371232671614598
 20
0.1786581171190659
 10
0.2404213784400631
 20
0.1807695828825454
 10
0.2432885696505542
 20
0.183318731934352
 10
0.2452496213557735
 20
0.1854579188721689
  0
LWPOLYLINE
  5
462
330
2
100
AcDbEntity
  8
Profilo
  6
Continuous
370
     0
100
AcDbPolyline
 90
        8
 70
   128
 43
0.0
 10
0.2259900153612515
 20
0.1692060003284971
 10
0.2291679890215745
 20
0.1715095100959231
 10
0.2338788370276854
 20
0.1744266204713368
 10
0.2375242702673062
 20
0.1765354041507078
 10
0.2426999928822886
 20
0.1789103299066877
 10
0.2452095106784624
 20
0.1800723402902874
 10
0.2475062397000107
 20
0.1806452806190036
 10
0.2489490527177713
 20
0.180825232988984
  0
LWPOLYLINE
  5
463
330
2
100
AcDbEntity
  8
Profilo
  6
Continuous
370
     0
100
AcDbPolyline
 90
        4
 70
   128
 43
0.0
 10
0.2406527597779748
 20
0.176858680476048
 10
0.2436950646213882
 20
0.1772694932466753
 10
0.2454121123630524
 20
0.1769608521738853
 10
0.2468680194541035
 20
0.1765673670712376
  0
LWPOLYLINE
  5
464
330
2
100
AcDbEntity
  8
Profilo
  6
Continuous
370
     0
100
AcDbPolyline
 90
        6
 70
   128
 43
0.0
 10
0.227428945181922
 20
0.1688647658914036
 10
0.2308119494374312
 20
0.1707149690576814
 10
0.2345957925242177
 20
0.1727531852813592
 10
0.2383209405851494
 20
0.1739057923426505
 10
0.2420396204785631
 20
0.1741897540654892
 10
0.244630149732979
 20
0.1745693098791497
  0
LWPOLYLINE
  5
465
330
2
100
AcDbEntity
  8
Profilo
  6
Continuous
370
     0
100
AcDbPolyline
 90
        4
 70
   128
 43
0.0
 10
0.2376929157327121
 20
0.173528422531075
 10
0.2397585771257396
 20
0.1733908255260922
 10
0.2422564551351185
 20
0.1729892786741381
 10
0.2441263033454748
 20
0.1722103661143793
  0
LWPOLYLINE
  5
466
330
2
100
AcDbEntity
  8
Profilo
  6
Continuous
370
     0
100
AcDbPolyline
 90
        4
 70
   128
 43
0.0
 10
0.2320224015465941
 20
0.1700106517144978
 10
0.2345293343723418
 20
0.170825203566716
 10
0.2370506562298831
 20
0.1712400451601112
 10
0.2393578926758677
 20
0.1708920946504805
  0
LWPOLYLINE
  5
467
330
2
100
AcDbEntity
  8
Profilo
  6
Continuous
370
     0
100
AcDbPolyline
 90
        5
 70
   128
 43
0.0
 10
0.228387477409836
 20
0.1669809720311183
 10
0.2317156633002659
 20
0.1684667507183065
 10
0.2346887656933883
 20
0.168912845164895
 10
0.2367544270864175
 20
0.1687752481599113
 10
0.2387835456114102
 20
0.168394704285978
  0
LWPOLYLINE
  5
468
330
2
100
AcDbEntity
  8
Profilo
  6
Continuous
370
     0
100
AcDbPolyline
 90
        5
 70
   128
 43
0.0
 10
0.2298304464874266
 20
0.1648502014172254
 10
0.2331377735001185
 20
0.1658670501904432
 10
0.2352047298516526
 20
0.1659031803992636
 10
0.2377378557705632
 20
0.165570853202455
 10
0.2396102922195047
 20
0.1651394002359668
  0
LWPOLYLINE
  5
469
330
2
100
AcDbEntity
  8
Profilo
  6
Continuous
370
     0
100
AcDbPolyline
 90
        4
 70
   128
 43
0.0
 10
0.2307145964310282
 20
0.1623067803776833
 10
0.232870325688401
 20
0.1626028337344864
 10
0.2345729794516862
 20
0.162693907024292
 10
0.2355796991923251
 20
0.1626166245579491
  0
LWPOLYLINE
  5
46A
330
2
100
AcDbEntity
  8
Profilo
  6
Continuous
370
     0
100
AcDbPolyline
 90
        6
 70
   128
 43
0.0
 10
0.2237673532361983
 20
0.1739141320848939
 10
0.2264217539936377
 20
0.1758742162474797
 10
0.2274244312091975
 20
0.177586468896047
 10
0.2283226547967774
 20
0.1792647825035408
 10
0.2289831815819066
 20
0.1816746405265287
 10
0.2296385384261816
 20
0.1833895814867547
  0
LWPOLYLINE
  5
46B
330
2
100
AcDbEntity
  8
Profilo
  6
Continuous
370
     0
100
AcDbPolyline
 90
        5
 70
   128
 43
0.0
 10
0.2281792261220039
 20
0.1763297140163739
 10
0.2296362688435727
 20
0.178420678049516
 10
0.2305370774015787
 20
0.1804464501883903
 10
0.2310722933594163
 20
0.1823534340906735
 10
0.2311832168333388
 20
0.1832560133045397
  0
LWPOLYLINE
  5
46C
330
2
100
AcDbEntity
  8
Profilo
  6
Continuous
370
     0
100
AcDbPolyline
 90
        5
 70
   128
 43
0.0
 10
0.2229184544702856
 20
0.1765267738414699
 10
0.2252345864046534
 20
0.1797056439579973
 10
0.2259969851154937
 20
0.1818019835525674
 10
0.2265334960318361
 20
0.1838826946686546
 10
0.2266626917346441
 20
0.1849067504307705
  0
LWPOLYLINE
  5
46D
330
2
100
AcDbEntity
  8
Profilo
  6
Continuous
370
     0
100
AcDbPolyline
 90
        5
 70
   128
 43
0.0
 10
0.220719554849371
 20
0.1774298501992478
 10
0.2218619384603342
 20
0.1792452688334752
 10
0.2227614537382598
 20
0.1810973085928847
 10
0.2230525079942895
 20
0.1828671926340942
 10
0.223372341992331
 20
0.1838376509919975
  0
LWPOLYLINE
  5
46E
330
2
100
AcDbEntity
  8
Profilo
  6
Continuous
370
     0
100
AcDbPolyline
 90
        4
 70
   128
 43
0.0
 10
0.2312946182912248
 20
0.177226426752452
 10
0.2332060265188007
 20
0.1796961021701672
 10
0.2345089738131707
 20
0.1820836104764732
 10
0.2349997244489617
 20
0.1850159968795325
  0
LWPOLYLINE
  5
46F
330
2
100
AcDbEntity
  8
Profilo
  6
Continuous
370
     0
100
AcDbPolyline
 90
        3
 70
   128
 43
0.0
 10
0.2371282827209085
 20
0.1816637520000394
 10
0.2388125081954817
 20
0.1839440717254676
 10
0.2399052532753851
 20
0.1860899747358217
  0
LWPOLYLINE
  5
470
330
2
100
AcDbEntity
  8
Profilo
  6
Continuous
370
     0
100
AcDbPolyline
 90
       49
 70
   128
 43
0.0
 10
0.2172865655896408
 20
0.1932770686897952
 10
0.2146515395728186
 20
0.1934526522082248
 10
0.2130705283079257
 20
0.1951206990696476
 10
0.2130705283079257
 20
0.1967887459310703
 10
0.2138179512992162
 20
0.1989304518071576
 10
0.2150028760129621
 20
0.2000370478947024
 10
0.2171109000853184
 20
0.2007393854047645
 10
0.2186919113502113
 20
0.2005638018863357
 10
0.2190814529464193
 20
0.2004474025494058
 10
0.2192090659890271
 20
0.2016591783052632
 10
0.2197195344539564
 20
0.2022969537528504
 10
0.2203576159614953
 20
0.2025733218534781
 10
0.221187125180194
 20
0.2028071754854589
 10
0.2223782146440298
 20
0.2029985077761002
 10
0.2233353369053364
 20
0.2028496933904512
 10
0.2243775381493835
 20
0.202509546714161
 10
0.22524958685945
 20
0.2020205856522227
 10
0.2260790960781487
 20
0.20138280676829
 10
0.2267809868227391
 20
0.2007025134157105
 10
0.2273552590932246
 20
0.2000859952024462
 10
0.2277381090840473
 20
0.1992568874642185
 10
0.2277381090840473
 20
0.1985553334409688
 10
0.227674299846994
 20
0.1974711148364364
 10
0.2286118252639631
 20
0.1970603924927453
 10
0.2296114924481378
 20
0.1960824669325233
 10
0.2298241844734845
 20
0.1953596556749496
 10
0.2300156121846444
 20
0.194105362014099
 10
0.2299730726932749
 20
0.1927235146382696
 10
0.2296540319395055
 20
0.1909164813398191
 10
0.2292499122029989
 20
0.1900023343552587
 10
0.2282077055274565
 20
0.1896409270082991
 10
0.2273782017402548
 20
0.1896409270082991
 10
0.2263998043017656
 20
0.189896037874603
 10
0.2256341043201202
 20
0.1901936666459
 10
0.2249109438298442
 20
0.1908314420934872
 10
0.2249960228125831
 20
0.189896037874603
 10
0.2248684043384765
 20
0.189130708712037
 10
0.2242303228309377
 20
0.1883866333474485
 10
0.2233370098066845
 20
0.1879189329561796
 10
0.2219970321230564
 20
0.187855154380517
 10
0.2209973703703805
 20
0.187855154380517
 10
0.2196573926867507
 20
0.188131525917491
 10
0.2185088481457813
 20
0.18859922630876
 10
0.2175091809616065
 20
0.189279523097685
 10
0.216998717928176
 20
0.1901511487409068
 10
0.216722211234279
 20
0.1912778886867786
 10
0.2167647507256467
 20
0.192362107291311
 10
0.2170625217337323
 20
0.1929148469289118
 10
0.2172865655896408
 20
0.1932770686897952
  0
ELLIPSE
  5
471
330
2
100
AcDbEntity
  8
Profilo
  6
Continuous
370
     0
100
AcDbEllipse
 10
0.2221571852694419
 20
0.1955156073505576
 30
0.0
 11
-0.0021239926761124
 21
0.0014153139463241
 31
0.0
210
0.0
220
0.0
230
1.0
 40
0.8388651508592468
 41
0.0
 42
6.283185307179585
  0
LWPOLYLINE
  5
472
330
2
100
AcDbEntity
  8
Profilo
  6
Continuous
370
     0
100
AcDbPolyline
 90
        2
 70
   128
 43
0.0
 10
0.2221807851277175
 20
0.1981811153973457
 10
0.222841581159374
 20
0.2009409820599267
  0
LWPOLYLINE
  5
473
330
2
100
AcDbEntity
  8
Profilo
  6
Continuous
370
     0
100
AcDbPolyline
 90
        2
 70
   128
 43
0.0
 10
0.223549582339077
 20
0.1975442265269426
 10
0.2251543781331728
 20
0.1998323172922881
  0
LWPOLYLINE
  5
474
330
2
100
AcDbEntity
  8
Profilo
  6
Continuous
370
     0
100
AcDbPolyline
 90
        2
 70
   128
 43
0.0
 10
0.2253667768576337
 20
0.1947371822746379
 10
0.2283875641481396
 20
0.1940059382247864
  0
LWPOLYLINE
  5
475
330
2
100
AcDbEntity
  8
Profilo
  6
Continuous
370
     0
100
AcDbPolyline
 90
        2
 70
   128
 43
0.0
 10
0.2250127735520346
 20
0.1936049304303101
 10
0.2276559685416617
 20
0.1923075587401221
  0
LWPOLYLINE
  5
476
330
2
100
AcDbEntity
  8
Profilo
  6
Continuous
370
     0
100
AcDbPolyline
 90
        2
 70
   128
 43
0.0
 10
0.2216615882456987
 20
0.1927085665345992
 10
0.2214019843731931
 20
0.1894061627447162
  0
LWPOLYLINE
  5
477
330
2
100
AcDbEntity
  8
Profilo
  6
Continuous
370
     0
100
AcDbPolyline
 90
        2
 70
   128
 43
0.0
 10
0.2207175884832611
 20
0.1930623933030072
 10
0.219466790563269
 20
0.190184587820636
  0
LWPOLYLINE
  5
478
330
2
100
AcDbEntity
  8
Profilo
  6
Continuous
370
     0
100
AcDbPolyline
 90
        2
 70
   128
 43
0.0
 10
0.2187823946733369
 20
0.1954920202738694
 10
0.2167764012885931
 20
0.1959402022217248
  0
LWPOLYLINE
  5
479
330
2
100
AcDbEntity
  8
Profilo
  6
Continuous
370
     0
100
AcDbPolyline
 90
        2
 70
   128
 43
0.0
 10
0.2190183932560716
 20
0.19669503678461
 10
0.2167528014303175
 20
0.1979452308850743
  0
LWPOLYLINE
  5
47A
330
2
100
AcDbEntity
  8
Profilo
  6
Continuous
370
     0
100
AcDbPolyline
 90
        5
 70
   128
 43
0.0
 10
0.2152493519551017
 20
0.1793977784858071
 10
0.2161079088244426
 20
0.1824945616597463
 10
0.216817153817159
 20
0.1848451320620911
 10
0.2174144121866581
 20
0.1867479775505537
 10
0.2180481919478778
 20
0.1888307947708679
  0
LWPOLYLINE
  5
47B
330
2
100
AcDbEntity
  8
Profilo
  6
Continuous
370
     0
100
AcDbPolyline
 90
        5
 70
   128
 43
0.0
 10
0.2170784523170026
 20
0.1786888775555119
 10
0.2181983131176877
 20
0.1815244847130372
 10
0.2190568699870286
 20
0.1836885027815692
 10
0.2197661149797467
 20
0.1856659685162877
 10
0.2204380292875572
 20
0.1879046068310756
  0
LWPOLYLINE
  5
47C
330
2
100
AcDbEntity
  8
Profilo
  6
Continuous
370
     0
100
AcDbPolyline
 90
       49
 70
   128
 43
0.0
 10
0.1779575816206089
 20
0.1772664750727183
 10
0.1769763239514364
 20
0.1748146746999407
 10
0.1749013577652436
 20
0.1738264984617207
 10
0.1733149509282017
 20
0.1743419532893141
 10
0.1715090340050571
 20
0.1757146183082731
 10
0.1708227604586929
 20
0.1771835056755612
 10
0.1708062130560182
 20
0.1794053899324791
 10
0.1714617622545254
 20
0.1808547627071649
 10
0.1716928395756485
 20
0.1811892694073601
 10
0.1705798069456217
 20
0.1816850959250286
 10
0.1701309898810168
 20
0.1823676637368629
 10
0.1700653262276435
 20
0.1830599177523319
 10
0.1700992506526584
 20
0.1839210926465798
 10
0.1702853497170127
 20
0.1851130109720332
 10
0.1707226476526407
 20
0.1859773021613672
 10
0.171368204261592
 20
0.1868633833422545
 10
0.1721027117370968
 20
0.1875416536727642
 10
0.1729656079461839
 20
0.1881334793067449
 10
0.1738295015404214
 20
0.188590794866008
 10
0.1745933050955382
 20
0.1889464456457411
 10
0.1755001405661523
 20
0.1890543492429967
 10
0.1761673580914957
 20
0.1888375571273401
 10
0.1771787931217779
 20
0.1884418289622224
 10
0.1778591245696346
 20
0.1892065484350532
 10
0.1790981011947645
 20
0.1898550928073462
 10
0.17985126100173
 20
0.1898340139817004
 10
0.1811033195771741
 20
0.1896284744966595
 10
0.1824043891027165
 20
0.1891610027134297
 10
0.1840243908815575
 20
0.1882991729269702
 10
0.1847689164617317
 20
0.1876323452646166
 10
0.184790575699701
 20
0.1865294668024119
 10
0.1845342449325573
 20
0.1857405618203031
 10
0.1839892786450348
 20
0.1848888841540387
 10
0.1834696025557359
 20
0.1842526325453136
 10
0.1826395731792199
 20
0.1837619495006092
 10
0.1835554863084889
 20
0.1835538086212968
 10
0.1842439213183626
 20
0.1831959365223746
 10
0.1847544010128426
 20
0.1823591530139489
 10
0.1849231616118436
 20
0.1813650344719634
 10
0.1845697427655024
 20
0.1800709313005021
 10
0.1842608302952995
 20
0.1791201964765284
 10
0.1835839094678173
 20
0.1779312054705099
 10
0.1827841801810701
 20
0.1769834020697435
 10
0.1818282653383199
 20
0.1762428853491044
 10
0.1808415583382337
 20
0.176026753291321
 10
0.1796845197030701
 20
0.1761119615898056
 10
0.1786665119599056
 20
0.1764874610246893
 10
0.178232841627681
 20
0.1769414640237751
 10
0.1779575816206089
 20
0.1772664750727183
  0
ELLIPSE
  5
47D
330
2
100
AcDbEntity
  8
Profilo
  6
Continuous
370
     0
100
AcDbEllipse
 10
0.1773337090945086
 20
0.1825904561463315
 30
0.0
 11
-0.0020023933841016
 21
-0.0015826810133898
 31
0.0
210
0.0
220
0.0
230
1.0
 40
0.8388651508592467
 41
0.0
 42
6.283185307179585
  0
LWPOLYLINE
  5
47E
330
2
100
AcDbEntity
  8
Profilo
  6
Continuous
370
     0
100
AcDbPolyline
 90
        2
 70
   128
 43
0.0
 10
0.1748059530546444
 20
0.1834365882304273
 10
0.1723853610846897
 20
0.1849178883032224
  0
LWPOLYLINE
  5
47F
330
2
100
AcDbEntity
  8
Profilo
  6
Continuous
370
     0
100
AcDbPolyline
 90
        2
 70
   128
 43
0.0
 10
0.1758346519651612
 20
0.1845415822532946
 10
0.1741544575057825
 20
0.1867748926817566
  0
LWPOLYLINE
  5
480
330
2
100
AcDbEntity
  8
Profilo
  6
Continuous
370
     0
100
AcDbPolyline
 90
        2
 70
   128
 43
0.0
 10
0.1790658536811647
 20
0.1854024125636194
 10
0.1806947827089351
 20
0.1880493851621566
  0
LWPOLYLINE
  5
481
330
2
100
AcDbEntity
  8
Profilo
  6
Continuous
370
     0
100
AcDbPolyline
 90
        2
 70
   128
 43
0.0
 10
0.1800332961383051
 20
0.1847158503512291
 10
0.1820839621095553
 20
0.1868287682696631
  0
LWPOLYLINE
  5
482
330
2
100
AcDbEntity
  8
Profilo
  6
Continuous
370
     0
100
AcDbPolyline
 90
        2
 70
   128
 43
0.0
 10
0.1798502156513353
 20
0.1812516920514086
 10
0.1829107662867317
 20
0.1799842952034439
  0
LWPOLYLINE
  5
483
330
2
100
AcDbEntity
  8
Profilo
  6
Continuous
370
     0
100
AcDbPolyline
 90
        2
 70
   128
 43
0.0
 10
0.1792219944283213
 20
0.1804632334104638
 10
0.1815724322711534
 20
0.1783843630975282
  0
LWPOLYLINE
  5
484
330
2
100
AcDbEntity
  8
Profilo
  6
Continuous
370
     0
100
AcDbPolyline
 90
        2
 70
   128
 43
0.0
 10
0.1763132740908395
 20
0.1793735507512285
 10
0.1752671416823566
 20
0.1776042335094815
  0
LWPOLYLINE
  5
485
330
2
100
AcDbEntity
  8
Profilo
  6
Continuous
370
     0
100
AcDbPolyline
 90
        2
 70
   128
 43
0.0
 10
0.1752420649718032
 20
0.1799697512875084
 10
0.1733529533494489
 20
0.1782013766416702
  0
LWPOLYLINE
  5
486
330
2
100
AcDbEntity
  8
Profilo
  6
Continuous
370
     0
100
AcDbPolyline
 90
        5
 70
   128
 43
0.0
 10
0.1905280373764191
 20
0.1710400332276113
 10
0.1878481302225554
 20
0.1728135279614501
 10
0.1858317736803203
 20
0.1742144262342221
 10
0.1842066230652224
 20
0.1753704642920492
 10
0.1824215948924979
 20
0.1766168505811078
  0
LWPOLYLINE
  5
487
330
2
100
AcDbEntity
  8
Profilo
  6
Continuous
370
     0
100
AcDbPolyline
 90
        5
 70
   128
 43
0.0
 10
0.1917674653218297
 20
0.1725605486109661
 10
0.1894166986757571
 20
0.174501850323847
 10
0.1876239038535632
 20
0.1759871047883549
 10
0.1859623909367338
 20
0.1772727073781509
 10
0.1840409523197037
 20
0.178603513142514
  0
LWPOLYLINE
  5
488
330
2
100
AcDbEntity
  8
Profilo
  6
Continuous
370
     0
100
AcDbPolyline
 90
       49
 70
   128
 43
0.0
 10
0.1810312365919542
 20
0.1349148430719963
 10
0.1830598120175042
 20
0.133223963589561
 10
0.1833584236538235
 20
0.1309451902260433
 10
0.1823779703085473
 20
0.1295957119677381
 10
0.180514429277894
 20
0.1283023597285363
 10
0.1789053641869158
 20
0.1281035859596197
 10
0.1767871132572802
 20
0.128774448439401
 10
0.1756112536783621
 20
0.1298457935949554
 10
0.1753645257206389
 20
0.1301689294420701
 10
0.1745490206820863
 20
0.129263591326655
 10
0.1737611680164994
 20
0.129047665986408
 10
0.1730825041393518
 20
0.129199134396189
 10
0.1722739613683599
 20
0.1294975161191124
 10
0.1711978874515696
 20
0.1300428298654149
 10
0.1705110301776911
 20
0.1307258055822488
 10
0.1698678048596387
 20
0.1316135805451192
 10
0.1694497067344243
 20
0.1325217357248726
 10
0.1691534967017072
 20
0.1335252829660191
 10
0.1689855215610161
 20
0.1344882128778079
 10
0.1688833058483221
 20
0.1353245353610716
 10
0.169060911000541
 20
0.1362203311899125
 10
0.169473274109093
 20
0.1367879003171931
 10
0.1701621845722736
 20
0.1376275454653778
 10
0.1696451271136967
 20
0.1385108904351363
 10
0.1694111895951187
 20
0.1398896384606488
 10
0.1696639759294369
 20
0.1405994222875292
 10
0.1702463629738065
 20
0.1417266855605951
 10
0.1710930076536867
 20
0.1428196194856061
 10
0.1724132645686167
 20
0.1440940126835092
 10
0.173277526419165
 20
0.1445960375080951
 10
0.1743331192399433
 20
0.1442758284799524
 10
0.1750042019006861
 20
0.1437882583871149
 10
0.1756457916507659
 20
0.1430067817756012
 10
0.1760903141460821
 20
0.1423159278847147
 10
0.1763004882700108
 20
0.1413748936377973
 10
0.1767814747319039
 20
0.142181659718818
 10
0.1773345694411577
 20
0.1427258117606244
 10
0.1782881447504521
 20
0.14295272647578
 10
0.1792857575608482
 20
0.1428060278192563
 10
0.1804073103851727
 20
0.1420700066500061
 10
0.1812160537317153
 20
0.1414824202145021
 10
0.1821376713362677
 20
0.1404712118234917
 10
0.1827919559962281
 20
0.1394177367158961
 10
0.1832008353172319
 20
0.1382797754243786
 10
0.1831014798876736
 20
0.1372745728233874
 10
0.1826628973787427
 20
0.1362004945021028
 10
0.1819911945012882
 20
0.135348347311086
 10
0.1814254004879763
 20
0.1350761969579145
 10
0.1810312365919542
 20
0.1349148430719963
  0
ELLIPSE
  5
489
330
2
100
AcDbEntity
  8
Profilo
  6
Continuous
370
     0
100
AcDbEllipse
 10
0.1757750424863735
 20
0.1359667056701877
 30
0.0
 11
0.0008864455058897
 21
-0.0023934646059481
 31
0.0
210
0.0
220
0.0
230
1.0
 40
0.8388651508592467
 41
0.0
 42
6.283185307179585
  0
LWPOLYLINE
  5
48A
330
2
100
AcDbEntity
  8
Profilo
  6
Continuous
370
     0
100
AcDbPolyline
 90
        2
 70
   128
 43
0.0
 10
0.1741892034801966
 20
0.133824136010343
 10
0.1720323993382122
 20
0.1319797631402871
  0
LWPOLYLINE
  5
48B
330
2
100
AcDbEntity
  8
Profilo
  6
Continuous
370
     0
100
AcDbPolyline
 90
        2
 70
   128
 43
0.0
 10
0.1734561771597252
 20
0.1351439487442442
 10
0.1708129640820248
 20
0.1342361197311169
  0
LWPOLYLINE
  5
48C
330
2
100
AcDbEntity
  8
Profilo
  6
Continuous
370
     0
100
AcDbPolyline
 90
        2
 70
   128
 43
0.0
 10
0.173635975126164
 20
0.1384830153868756
 10
0.1716219213400836
 20
0.140850178469912
  0
LWPOLYLINE
  5
48D
330
2
100
AcDbEntity
  8
Profilo
  6
Continuous
370
     0
100
AcDbPolyline
 90
        2
 70
   128
 43
0.0
 10
0.1745878907524363
 20
0.1391909484485553
 10
0.1732120770326164
 20
0.1417941752277744
  0
LWPOLYLINE
  5
48E
330
2
100
AcDbEntity
  8
Profilo
  6
Continuous
370
     0
100
AcDbPolyline
 90
        2
 70
   128
 43
0.0
 10
0.1778259260951478
 20
0.1379463447725663
 10
0.1799770542846188
 20
0.1404654542331735
  0
LWPOLYLINE
  5
48F
330
2
100
AcDbEntity
  8
Profilo
  6
Continuous
370
     0
100
AcDbPolyline
 90
        2
 70
   128
 43
0.0
 10
0.1783816637893081
 20
0.1371052237653306
 10
0.1810851121846169
 20
0.1386982167361043
  0
LWPOLYLINE
  5
490
330
2
100
AcDbEntity
  8
Profilo
  6
Continuous
370
     0
100
AcDbPolyline
 90
        2
 70
   128
 43
0.0
 10
0.1785191695669026
 20
0.1340021358741098
 10
0.1798786175664715
 20
0.132460455733974
  0
LWPOLYLINE
  5
491
330
2
100
AcDbEntity
  8
Profilo
  6
Continuous
370
     0
100
AcDbPolyline
 90
        2
 70
   128
 43
0.0
 10
0.1776211273395438
 20
0.1331675915589016
 10
0.1787191839741402
 20
0.1308244818224659
  0
LWPOLYLINE
  5
492
330
2
100
AcDbEntity
  8
Profilo
  6
Continuous
370
     0
100
AcDbPolyline
 90
        5
 70
   128
 43
0.0
 10
0.1908374191376601
 20
0.1449459805867342
 10
0.1883225885605351
 20
0.1429452774371763
 10
0.1863671666912803
 20
0.1414605097821856
 10
0.1847655100048142
 20
0.1402721351057491
 10
0.1830285221619745
 20
0.1389596269751835
  0
LWPOLYLINE
  5
493
330
2
100
AcDbEntity
  8
Profilo
  6
Continuous
370
     0
100
AcDbPolyline
 90
        5
 70
   128
 43
0.0
 10
0.1897743273726287
 20
0.1465946117043603
 10
0.1872016128850513
 20
0.1449587949878123
 10
0.1852350478807401
 20
0.1437127146602898
 10
0.1834989314326736
 20
0.1425297950220895
 10
0.1816395027522424
 20
0.1411136399021026
  0
LWPOLYLINE
  5
494
330
2
100
AcDbEntity
  8
Profilo
  6
Continuous
370
     0
100
AcDbPolyline
 90
       49
 70
   128
 43
0.0
 10
0.2222598438029648
 20
0.1247506886335995
 10
0.2244948300338712
 20
0.1261574680153526
 10
0.2267543483607464
 20
0.1257372848622599
 10
0.2277348017060226
 20
0.1243878066039555
 10
0.2283889869327942
 20
0.1222158059417432
 10
0.2280808035628221
 20
0.1206240696291932
 10
0.2267881998942818
 20
0.1188168011865577
 10
0.2254059295100055
 20
0.1180295561316863
 10
0.2250223659250354
 20
0.117894758367992
 10
0.2256313887232386
 20
0.1168394021236859
 10
0.2255932860623846
 20
0.1160233851125473
 10
0.225239512372742
 20
0.1154247437225438
 10
0.2247058810338987
 20
0.1147479788746847
 10
0.2238547317145605
 20
0.1138930829789791
 10
0.2229929326382545
 20
0.1134508939961395
 10
0.2219498409203224
 20
0.1131134879166663
 10
0.2209569345928044
 20
0.1129964883543043
 10
0.2199109705156863
 20
0.1130248890246682
 10
0.2189432625752394
 20
0.1131626968796738
 10
0.2181162862354926
 20
0.1133239218201546
 10
0.2173192167855282
 20
0.1137696504921032
 10
0.2169068536769745
 20
0.1143372196193838
 10
0.2163211887281451
 20
0.1152518770245682
 10
0.2153212981967505
 20
0.11503309476684
 10
0.2139377402338953
 20
0.1152366635362351
 10
0.2133408109734296
 20
0.1156964128915579
 10
0.2124486873860134
 20
0.116598639393623
 10
0.2116708730490322
 20
0.1177415814899677
 10
0.2108668349174982
 20
0.1193910295877626
 10
0.2106564525361423
 20
0.1203681256549068
 10
0.2112871855396963
 20
0.1212731040542144
 10
0.2119582682004391
 20
0.1217606741470519
 10
0.2128997587603438
 20
0.122129372705987
 10
0.2136941648605133
 20
0.1223386531288851
 10
0.214654088989173
 20
0.122247745024416
 10
0.2140354418414818
 20
0.1229544947627702
 10
0.2136888381609234
 20
0.1236486713185768
 10
0.2137677004184211
 20
0.1246256958335169
 10
0.2142154984438582
 20
0.1255291496196661
 10
0.2152620750558098
 20
0.126368366692091
 10
0.2160708184023508
 20
0.1269559531275951
 10
0.2173173302340763
 20
0.1275199829782599
 10
0.2185214296789975
 20
0.1278167029562301
 10
0.2197300458394251
 20
0.1278539209208292
 10
0.2206553478070765
 20
0.1274488036056213
 10
0.2215413275448503
 20
0.126699778398004
 10
0.2221442000794076
 20
0.1257976230356527
 10
0.2222281904807739
 20
0.1251754218682571
 10
0.2222598438029648
 20
0.1247506886335995
  0
ELLIPSE
  5
495
330
2
100
AcDbEntity
  8
Profilo
  6
Continuous
370
     0
100
AcDbEllipse
 10
0.21963520972035
 20
0.120076794397164
 30
0.0
 11
0.002550246835916
 21
0.000103438536044
 31
0.0
210
0.0
220
0.0
230
1.0
 40
0.838865150859247
 41
0.0
 42
6.283185307179585
  0
LWPOLYLINE
  5
496
330
2
100
AcDbEntity
  8
Profilo
  6
Continuous
370
     0
100
AcDbPolyline
 90
        2
 70
   128
 43
0.0
 10
0.2211828633537112
 20
0.1179064814400198
 10
0.222270477056844
 20
0.1152852962456013
  0
LWPOLYLINE
  5
497
330
2
100
AcDbEntity
  8
Profilo
  6
Continuous
370
     0
100
AcDbPolyline
 90
        2
 70
   128
 43
0.0
 10
0.2197011292624948
 20
0.1176171765454875
 10
0.2197477282003482
 20
0.1148227969309409
  0
LWPOLYLINE
  5
498
330
2
100
AcDbEntity
  8
Profilo
  6
Continuous
370
     0
100
AcDbPolyline
 90
        2
 70
   128
 43
0.0
 10
0.2165810488008601
 20
0.1188200029110103
 10
0.2137073660781203
 20
0.1176360175547034
  0
LWPOLYLINE
  5
499
330
2
100
AcDbEntity
  8
Profilo
  6
Continuous
370
     0
100
AcDbPolyline
 90
        2
 70
   128
 43
0.0
 10
0.216201922555179
 20
0.1199440918172784
 10
0.2133009569428899
 20
0.119440056528825
  0
LWPOLYLINE
  5
49A
330
2
100
AcDbEntity
  8
Profilo
  6
Continuous
370
     0
100
AcDbPolyline
 90
        2
 70
   128
 43
0.0
 10
0.2183862189407171
 20
0.1226390427428149
 10
0.2166551386405724
 20
0.125463334858816
  0
LWPOLYLINE
  5
49B
330
2
100
AcDbEntity
  8
Profilo
  6
Continuous
370
     0
100
AcDbPolyline
 90
        2
 70
   128
 43
0.0
 10
0.2193579049475522
 20
0.122907660012637
 10
0.2186782900998507
 20
0.1259710541253501
  0
LWPOLYLINE
  5
49C
330
2
100
AcDbEntity
  8
Profilo
  6
Continuous
370
     0
100
AcDbPolyline
 90
        2
 70
   128
 43
0.0
 10
0.2223516085292341
 20
0.1220795288850186
 10
0.2242379260073888
 20
0.1228960354003811
  0
LWPOLYLINE
  5
49D
330
2
100
AcDbEntity
  8
Profilo
  6
Continuous
370
     0
100
AcDbPolyline
 90
        2
 70
   128
 43
0.0
 10
0.2228677970284301
 20
0.1209675515968226
 10
0.2254355449725394
 20
0.1212878047861724
  0
LWPOLYLINE
  5
49E
330
2
100
AcDbEntity
  8
Profilo
  6
Continuous
370
     0
100
AcDbPolyline
 90
        5
 70
   128
 43
0.0
 10
0.2157499421602866
 20
0.137176714408639
 10
0.2168755985415418
 20
0.1341667171269741
 10
0.2176834379062316
 20
0.1318481819780216
 10
0.2183187102507846
 20
0.1299576879787868
 10
0.2190302208985886
 20
0.127900127054528
  0
LWPOLYLINE
  5
49F
330
2
100
AcDbEntity
  8
Profilo
  6
Continuous
370
     0
100
AcDbPolyline
 90
        5
 70
   128
 43
0.0
 10
0.2138534873709281
 20
0.1366751090908876
 10
0.2146142290203292
 20
0.1337228170478147
 10
0.2151916198287707
 20
0.1314674425881853
 10
0.2157801537722686
 20
0.1294507554560223
 10
0.2165524022651353
 20
0.1272447176941646
  0
LWPOLYLINE
  5
4A0
330
2
100
AcDbEntity
  8
Profilo
  6
Continuous
370
     0
100
AcDbPolyline
 90
       49
 70
   128
 43
0.0
 10
0.244666869396845
 20
0.1608205277244891
 10
0.2440195914263834
 20
0.163380844679521
 10
0.2451174389142745
 20
0.1653999305729269
 10
0.2467038457513164
 20
0.1659153854005212
 10
0.2489716954870522
 20
0.1658663674068891
 10
0.2503902927806207
 20
0.165081394033522
 10
0.2517096707091133
 20
0.1632935782293962
 10
0.2520312402089078
 20
0.161735688872456
 10
0.2520409128342733
 20
0.1613292434257704
 10
0.2532328146620399
 20
0.1615823355119658
 10
0.2539971185881564
 20
0.1612939346039298
 10
0.2544571383007794
 20
0.1607724854680547
 10
0.2549358787669027
 20
0.1600558400667634
 10
0.2554859134748411
 20
0.1589821716000727
 10
0.2556401496280893
 20
0.1580259080623926
 10
0.255638708811077
 20
0.1569296046743974
 10
0.2554431570782401
 20
0.1559491397884346
 10
0.2550929257602876
 20
0.154963145126877
 10
0.2546628245025977
 20
0.1540853851533982
 10
0.254253940729438
 20
0.1533487051631858
 10
0.2535837195657449
 20
0.1527283848033692
 10
0.2529165020404014
 20
0.1525115926877126
 10
0.2518656307328231
 20
0.1522372369039945
 10
0.2517647218579706
 20
0.1512186770628244
 10
0.2511435735300973
 20
0.1499657414558467
 10
0.2505218646239327
 20
0.1495400983568603
 10
0.2493881148803754
 20
0.1489704417276226
 10
0.2480607545033016
 20
0.1485838848653252
 10
0.2462435746948357
 20
0.1483289066545382
 10
0.245249289381974
 20
0.1484307604097211
 10
0.2445835109952184
 20
0.1493102768477205
 10
0.2443271802280746
 20
0.1500991818298293
 10
0.2442674636441036
 20
0.1511085266823685
 10
0.2443139111195622
 20
0.1519287229877858
 10
0.2446970027337676
 20
0.1528135729362886
 10
0.2438336713075577
 20
0.1524436022151113
 10
0.2430663637430934
 20
0.1523284748789856
 10
0.2421615279893603
 20
0.1527053945219049
 10
0.2414406695787792
 20
0.1534104583255348
 10
0.2409659366724723
 20
0.1546651441694821
 10
0.2406570242022694
 20
0.1556158789934557
 10
0.2405057932771017
 20
0.1569756770028475
 10
0.2405956829999349
 20
0.1582125351419695
 10
0.2409337695454285
 20
0.1593734984006011
 10
0.2416049930408539
 20
0.1601283247313628
 10
0.2425911411410715
 20
0.1607394800159091
 10
0.2436354397357656
 20
0.1610340645298603
 10
0.2442531426718519
 20
0.1609216734137416
 10
0.244666869396845
 20
0.1608205277244891
  0
ELLIPSE
  5
4A1
330
2
100
AcDbEntity
  8
Profilo
  6
Continuous
370
     0
100
AcDbEllipse
 10
0.2483009504313378
 20
0.1568800396283584
 30
0.0
 11
0.0006896937184083
 21
0.0024573931369699
 31
0.0
210
0.0
220
0.0
230
1.0
 40
0.8388651508592468
 41
0.0
 42
6.283185307179585
  0
LWPOLYLINE
  5
4A2
330
2
100
AcDbEntity
  8
Profilo
  6
Continuous
370
     0
100
AcDbPolyline
 90
        2
 70
   128
 43
0.0
 10
0.2508432919857439
 20
0.1576812821144634
 10
0.2536722783628955
 20
0.1579056734435608
  0
LWPOLYLINE
  5
4A3
330
2
100
AcDbEntity
  8
Profilo
  6
Continuous
370
     0
100
AcDbPolyline
 90
        2
 70
   128
 43
0.0
 10
0.2506605562755555
 20
0.1561826691226303
 10
0.2533325690806889
 20
0.1553634765564967
  0
LWPOLYLINE
  5
4A4
330
2
100
AcDbEntity
  8
Profilo
  6
Continuous
370
     0
100
AcDbPolyline
 90
        2
 70
   128
 43
0.0
 10
0.2485524425361911
 20
0.153586990056456
 10
0.248790462726735
 20
0.1504880837810399
  0
LWPOLYLINE
  5
4A5
330
2
100
AcDbEntity
  8
Profilo
  6
Continuous
370
     0
100
AcDbPolyline
 90
        2
 70
   128
 43
0.0
 10
0.2473662140040604
 20
0.1535737821452273
 10
0.2469491323752904
 20
0.1506590444262147
  0
LWPOLYLINE
  5
4A6
330
2
100
AcDbEntity
  8
Profilo
  6
Continuous
370
     0
100
AcDbPolyline
 90
        2
 70
   128
 43
0.0
 10
0.2454781480691148
 20
0.1564839570912103
 10
0.2422571534168993
 20
0.1557103561524505
  0
LWPOLYLINE
  5
4A7
330
2
100
AcDbEntity
  8
Profilo
  6
Continuous
370
     0
100
AcDbPolyline
 90
        2
 70
   128
 43
0.0
 10
0.245522945353571
 20
0.1574910927011616
 10
0.2423994718831255
 20
0.1577913814129807
  0
LWPOLYLINE
  5
4A8
330
2
100
AcDbEntity
  8
Profilo
  6
Continuous
370
     0
100
AcDbPolyline
 90
        2
 70
   128
 43
0.0
 10
0.2472356501416988
 20
0.1600823674083721
 10
0.2470420104572037
 20
0.1621286763270379
  0
LWPOLYLINE
  5
4A9
330
2
100
AcDbEntity
  8
Profilo
  6
Continuous
370
     0
100
AcDbPolyline
 90
        2
 70
   128
 43
0.0
 10
0.2484527144061632
 20
0.1602296719647577
 10
0.2489416132755677
 20
0.1627707090572165
  0
LWPOLYLINE
  5
4AA
330
2
100
AcDbEntity
  8
Profilo
  6
Continuous
370
     0
100
AcDbPolyline
 90
        5
 70
   128
 43
0.0
 10
0.2308373463725462
 20
0.1584690964838086
 10
0.2340478708529388
 20
0.1586095190072524
 10
0.2365025649070225
 20
0.1586613531360789
 10
0.2384968414945361
 20
0.1586813382654605
 10
0.2406735671010749
 20
0.1587222038109103
  0
LWPOLYLINE
  5
4AB
330
2
100
AcDbEntity
  8
Profilo
  6
Continuous
370
     0
100
AcDbPolyline
 90
        5
 70
   128
 43
0.0
 10
0.2307283646196245
 20
0.1565104562308742
 10
0.2337712433031902
 20
0.1563216561200872
 10
0.2360946554519112
 20
0.1561738383742001
 10
0.238194505880591
 20
0.1561103768200488
 10
0.2405312103773751
 20
0.1561631256227417
  0
CIRCLE
  5
4AC
330
2
100
AcDbEntity
  8
Profilo
  6
Continuous
370
     0
100
AcDbCircle
 10
0.1999324204970991
 20
0.2140276101378457
 30
0.0
 40
0.0026902745339013
  0
CIRCLE
  5
4AD
330
2
100
AcDbEntity
  8
Profilo
  6
Continuous
370
     0
100
AcDbCircle
 10
0.1877292537279145
 20
0.2106903317877061
 30
0.0
 40
0.0026902745339013
  0
CIRCLE
  5
4AE
330
2
100
AcDbEntity
  8
Profilo
  6
Continuous
370
     0
100
AcDbCircle
 10
0.1765746601229721
 20
0.2047212659067305
 30
0.0
 40
0.0026902745339013
  0
CIRCLE
  5
4AF
330
2
100
AcDbEntity
  8
Profilo
  6
Continuous
370
     0
100
AcDbCircle
 10
0.167027977583148
 20
0.1964197263828405
 30
0.0
 40
0.0026902745339013
  0
CIRCLE
  5
4B0
330
2
100
AcDbEntity
  8
Profilo
  6
Continuous
370
     0
100
AcDbCircle
 10
0.159567916634469
 20
0.1862019870719748
 30
0.0
 40
0.0026902745339013
  0
CIRCLE
  5
4B1
330
2
100
AcDbEntity
  8
Profilo
  6
Continuous
370
     0
100
AcDbCircle
 10
0.1545685558833976
 20
0.174580408088742
 30
0.0
 40
0.0026902745339013
  0
CIRCLE
  5
4B2
330
2
100
AcDbEntity
  8
Profilo
  6
Continuous
370
     0
100
AcDbCircle
 10
0.1522805841535091
 20
0.1621377439308497
 30
0.0
 40
0.0026902745339013
  0
CIRCLE
  5
4B3
330
2
100
AcDbEntity
  8
Profilo
  6
Continuous
370
     0
100
AcDbCircle
 10
0.1528187299010766
 20
0.1494979217352162
 30
0.0
 40
0.0026902745339013
  0
CIRCLE
  5
4B4
330
2
100
AcDbEntity
  8
Profilo
  6
Continuous
370
     0
100
AcDbCircle
 10
0.1561560082512161
 20
0.1372947549660316
 30
0.0
 40
0.0026902745339013
  0
CIRCLE
  5
4B5
330
2
100
AcDbEntity
  8
Profilo
  6
Continuous
370
     0
100
AcDbCircle
 10
0.1621250741321918
 20
0.1261401613610883
 30
0.0
 40
0.0026902745339013
  0
CIRCLE
  5
4B6
330
2
100
AcDbEntity
  8
Profilo
  6
Continuous
370
     0
100
AcDbCircle
 10
0.1704266136560817
 20
0.116593478821266
 30
0.0
 40
0.0026902745339013
  0
CIRCLE
  5
4B7
330
2
100
AcDbEntity
  8
Profilo
  6
Continuous
370
     0
100
AcDbCircle
 10
0.1806443529669475
 20
0.1091334178725852
 30
0.0
 40
0.0026902745339013
  0
CIRCLE
  5
4B8
330
2
100
AcDbEntity
  8
Profilo
  6
Continuous
370
     0
100
AcDbCircle
 10
0.1922659319501803
 20
0.1041340571215156
 30
0.0
 40
0.0026902745339013
  0
CIRCLE
  5
4B9
330
2
100
AcDbEntity
  8
Profilo
  6
Continuous
370
     0
100
AcDbCircle
 10
0.2047085961080717
 20
0.1018460853916271
 30
0.0
 40
0.0026902745339013
  0
CIRCLE
  5
4BA
330
2
100
AcDbEntity
  8
Profilo
  6
Continuous
370
     0
100
AcDbCircle
 10
0.217348418303706
 20
0.1023842311391946
 30
0.0
 40
0.0026902745339013
  0
CIRCLE
  5
4BB
330
2
100
AcDbEntity
  8
Profilo
  6
Continuous
370
     0
100
AcDbCircle
 10
0.2295515850728906
 20
0.1057215094893341
 30
0.0
 40
0.0026902745339013
  0
CIRCLE
  5
4BC
330
2
100
AcDbEntity
  8
Profilo
  6
Continuous
370
     0
100
AcDbCircle
 10
0.2407061786778348
 20
0.1116905753703089
 30
0.0
 40
0.0026902745339013
  0
CIRCLE
  5
4BD
330
2
100
AcDbEntity
  8
Profilo
  6
Continuous
370
     0
100
AcDbCircle
 10
0.2502528612176571
 20
0.1199921148941988
 30
0.0
 40
0.0026902745339013
  0
CIRCLE
  5
4BE
330
2
100
AcDbEntity
  8
Profilo
  6
Continuous
370
     0
100
AcDbCircle
 10
0.2577129221663379
 20
0.1302098542050655
 30
0.0
 40
0.0026902745339013
  0
CIRCLE
  5
4BF
330
2
100
AcDbEntity
  8
Profilo
  6
Continuous
370
     0
100
AcDbCircle
 10
0.2627122829174076
 20
0.1418314331882974
 30
0.0
 40
0.0026902745339013
  0
CIRCLE
  5
4C0
330
2
100
AcDbEntity
  8
Profilo
  6
Continuous
370
     0
100
AcDbCircle
 10
0.265000254647296
 20
0.1542740973461897
 30
0.0
 40
0.0026902745339013
  0
CIRCLE
  5
4C1
330
2
100
AcDbEntity
  8
Profilo
  6
Continuous
370
     0
100
AcDbCircle
 10
0.2644621088997285
 20
0.1669139195418231
 30
0.0
 40
0.0026902745339013
  0
CIRCLE
  5
4C2
330
2
100
AcDbEntity
  8
Profilo
  6
Continuous
370
     0
100
AcDbCircle
 10
0.261124830549589
 20
0.1791170863110077
 30
0.0
 40
0.0026902745339013
  0
CIRCLE
  5
4C3
330
2
100
AcDbEntity
  8
Profilo
  6
Continuous
370
     0
100
AcDbCircle
 10
0.2551557646686133
 20
0.1902716799159511
 30
0.0
 40
0.0026902745339013
  0
CIRCLE
  5
4C4
330
2
100
AcDbEntity
  8
Profilo
  6
Continuous
370
     0
100
AcDbCircle
 10
0.2468542251447234
 20
0.1998183624557733
 30
0.0
 40
0.0026902745339013
  0
CIRCLE
  5
4C5
330
2
100
AcDbEntity
  8
Profilo
  6
Continuous
370
     0
100
AcDbCircle
 10
0.2366364858338577
 20
0.2072784234044541
 30
0.0
 40
0.0026902745339013
  0
CIRCLE
  5
4C6
330
2
100
AcDbEntity
  8
Profilo
  6
Continuous
370
     0
100
AcDbCircle
 10
0.2250149068506249
 20
0.2122777841555247
 30
0.0
 40
0.0026902745339013
  0
ELLIPSE
  5
4C7
330
2
100
AcDbEntity
  8
Profilo
  6
Continuous
370
     0
100
AcDbEllipse
 10
0.1936629689546747
 20
0.2125967744881566
 30
0.0
 11
-0.0027183859304809
 21
-0.002019451006133
 31
0.0
210
0.0
220
0.0
230
1.0
 40
0.7224579911888566
 41
0.0
 42
6.283185307179585
  0
ELLIPSE
  5
4C8
330
2
100
AcDbEntity
  8
Profilo
  6
Continuous
370
     0
100
AcDbEllipse
 10
0.1819353813102398
 20
0.2079002859624656
 30
0.0
 11
-0.0022008601957444
 21
-0.0025737169292671
 31
0.0
210
0.0
220
0.0
230
1.0
 40
0.7224579911888567
 41
0.0
 42
6.283185307179585
  0
ELLIPSE
  5
4C9
330
2
100
AcDbEntity
  8
Profilo
  6
Continuous
370
     0
100
AcDbEllipse
 10
0.1715468957861737
 20
0.2007119144538326
 30
0.0
 11
-0.0015729741408015
 21
-0.0029989259386617
 31
0.0
210
0.0
220
0.0
230
1.0
 40
0.7224579911888568
 41
0.0
 42
6.283185307179585
  0
ELLIPSE
  5
4CA
330
2
100
AcDbEntity
  8
Profilo
  6
Continuous
370
     0
100
AcDbEllipse
 10
0.1630184344251904
 20
0.1913921149257279
 30
0.0
 11
-0.0008662125942708
 21
-0.0032737562790676
 31
0.0
210
0.0
220
0.0
230
1.0
 40
0.7224579911888568
 41
0.0
 42
6.283185307179585
  0
ELLIPSE
  5
4CB
330
2
100
AcDbEntity
  8
Profilo
  6
Continuous
370
     0
100
AcDbEllipse
 10
0.1567776498916837
 20
0.1804082210425831
 30
0.0
 11
-0.0001160155312746
 21
-0.0033844268096254
 31
0.0
210
0.0
220
0.0
230
1.0
 40
0.7224579911888565
 41
0.0
 42
6.283185307179585
  0
ELLIPSE
  5
4CC
330
2
100
AcDbEntity
  8
Profilo
  6
Continuous
370
     0
100
AcDbEllipse
 10
0.1531374811814088
 20
0.1683110111084448
 30
0.0
 11
0.0006399990348985
 21
-0.0033253880478129
 31
0.0
210
0.0
220
0.0
230
1.0
 40
0.7224579911888565
 41
0.0
 42
6.283185307179585
  0
ELLIPSE
  5
4CD
330
2
100
AcDbEntity
  8
Profilo
  6
Continuous
370
     0
100
AcDbEllipse
 10
0.152280461553522
 20
0.1557070897429628
 30
0.0
 11
0.0013639213770585
 21
-0.0030996004436719
 31
0.0
210
0.0
220
0.0
230
1.0
 40
0.7224579911888566
 41
0.0
 42
6.283185307179585
  0
ELLIPSE
  5
4CE
330
2
100
AcDbEntity
  8
Profilo
  6
Continuous
370
     0
100
AcDbEllipse
 10
0.1542495655507656
 20
0.1432284701927918
 30
0.0
 11
0.002019451006133
 21
-0.0027183859304809
 31
0.0
210
0.0
220
0.0
230
1.0
 40
0.7224579911888567
 41
0.0
 42
6.283185307179585
  0
ELLIPSE
  5
4CF
330
2
100
AcDbEntity
  8
Profilo
  6
Continuous
370
     0
100
AcDbEllipse
 10
0.1589460540764576
 20
0.1315008825483569
 30
0.0
 11
0.002573716929267
 21
-0.0022008601957444
 31
0.0
210
0.0
220
0.0
230
1.0
 40
0.7224579911888568
 41
0.0
 42
6.283185307179585
  0
ELLIPSE
  5
4D0
330
2
100
AcDbEntity
  8
Profilo
  6
Continuous
370
     0
100
AcDbEllipse
 10
0.1661344255850887
 20
0.1211123970242908
 30
0.0
 11
0.0029989259386617
 21
-0.0015729741408015
 31
0.0
210
0.0
220
0.0
230
1.0
 40
0.7224579911888566
 41
0.0
 42
6.283185307179585
  0
ELLIPSE
  5
4D1
330
2
100
AcDbEntity
  8
Profilo
  6
Continuous
370
     0
100
AcDbEllipse
 10
0.1754542251131943
 20
0.1125839356633075
 30
0.0
 11
0.0032737562790676
 21
-0.0008662125942708
 31
0.0
210
0.0
220
0.0
230
1.0
 40
0.7224579911888564
 41
0.0
 42
6.283185307179585
  0
ELLIPSE
  5
4D2
330
2
100
AcDbEntity
  8
Profilo
  6
Continuous
370
     0
100
AcDbEllipse
 10
0.1864381189963391
 20
0.1063431511298009
 30
0.0
 11
0.0033844268096254
 21
-0.0001160155312746
 31
0.0
210
0.0
220
0.0
230
1.0
 40
0.7224579911888565
 41
0.0
 42
6.283185307179585
  0
ELLIPSE
  5
4D3
330
2
100
AcDbEntity
  8
Profilo
  6
Continuous
370
     0
100
AcDbEllipse
 10
0.1985353289304774
 20
0.1027029824195259
 30
0.0
 11
0.0033253880478129
 21
0.0006399990348985
 31
0.0
210
0.0
220
0.0
230
1.0
 40
0.7224579911888566
 41
0.0
 42
6.283185307179585
  0
ELLIPSE
  5
4D4
330
2
100
AcDbEntity
  8
Profilo
  6
Continuous
370
     0
100
AcDbEllipse
 10
0.2111392502959595
 20
0.1018459627916392
 30
0.0
 11
0.0030996004436719
 21
0.0013639213770584
 31
0.0
210
0.0
220
0.0
230
1.0
 40
0.7224579911888568
 41
0.0
 42
6.283185307179585
  0
ELLIPSE
  5
4D5
330
2
100
AcDbEntity
  8
Profilo
  6
Continuous
370
     0
100
AcDbEllipse
 10
0.2236178698461304
 20
0.1038150667888827
 30
0.0
 11
0.0027183859304809
 21
0.002019451006133
 31
0.0
210
0.0
220
0.0
230
1.0
 40
0.7224579911888566
 41
0.0
 42
6.283185307179585
  0
ELLIPSE
  5
4D6
330
2
100
AcDbEntity
  8
Profilo
  6
Continuous
370
     0
100
AcDbEllipse
 10
0.2353454574905653
 20
0.1085115553145747
 30
0.0
 11
0.0022008601957444
 21
0.002573716929267
 31
0.0
210
0.0
220
0.0
230
1.0
 40
0.7224579911888567
 41
0.0
 42
6.283185307179585
  0
ELLIPSE
  5
4D7
330
2
100
AcDbEntity
  8
Profilo
  6
Continuous
370
     0
100
AcDbEllipse
 10
0.2457339430146315
 20
0.1156999268232067
 30
0.0
 11
0.0015729741408015
 21
0.0029989259386617
 31
0.0
210
0.0
220
0.0
230
1.0
 40
0.7224579911888566
 41
0.0
 42
6.283185307179585
  0
ELLIPSE
  5
4D8
330
2
100
AcDbEntity
  8
Profilo
  6
Continuous
370
     0
100
AcDbEllipse
 10
0.2542624043756148
 20
0.1250197263513114
 30
0.0
 11
0.0008662125942708
 21
0.0032737562790676
 31
0.0
210
0.0
220
0.0
230
1.0
 40
0.7224579911888564
 41
0.0
 42
6.283185307179585
  0
ELLIPSE
  5
4D9
330
2
100
AcDbEntity
  8
Profilo
  6
Continuous
370
     0
100
AcDbEllipse
 10
0.2605031889091214
 20
0.1360036202344571
 30
0.0
 11
0.0001160155312746
 21
0.0033844268096254
 31
0.0
210
0.0
220
0.0
230
1.0
 40
0.7224579911888565
 41
0.0
 42
6.283185307179585
  0
ELLIPSE
  5
4DA
330
2
100
AcDbEntity
  8
Profilo
  6
Continuous
370
     0
100
AcDbEllipse
 10
0.2641433576193963
 20
0.1481008301685945
 30
0.0
 11
-0.0006399990348985
 21
0.0033253880478129
 31
0.0
210
0.0
220
0.0
230
1.0
 40
0.7224579911888567
 41
0.0
 42
6.283185307179585
  0
ELLIPSE
  5
4DB
330
2
100
AcDbEntity
  8
Profilo
  6
Continuous
370
     0
100
AcDbEllipse
 10
0.2650003772472831
 20
0.1607047515340766
 30
0.0
 11
-0.0013639213770584
 21
0.0030996004436719
 31
0.0
210
0.0
220
0.0
230
1.0
 40
0.7224579911888566
 41
0.0
 42
6.283185307179585
  0
ELLIPSE
  5
4DC
330
2
100
AcDbEntity
  8
Profilo
  6
Continuous
370
     0
100
AcDbEllipse
 10
0.2630312732500395
 20
0.1731833710842475
 30
0.0
 11
-0.002019451006133
 21
0.0027183859304809
 31
0.0
210
0.0
220
0.0
230
1.0
 40
0.7224579911888566
 41
0.0
 42
6.283185307179585
  0
ELLIPSE
  5
4DD
330
2
100
AcDbEntity
  8
Profilo
  6
Continuous
370
     0
100
AcDbEllipse
 10
0.2583347847243476
 20
0.1849109587286825
 30
0.0
 11
-0.002573716929267
 21
0.0022008601957444
 31
0.0
210
0.0
220
0.0
230
1.0
 40
0.7224579911888567
 41
0.0
 42
6.283185307179585
  0
ELLIPSE
  5
4DE
330
2
100
AcDbEntity
  8
Profilo
  6
Continuous
370
     0
100
AcDbEllipse
 10
0.2511464132157164
 20
0.1952994442527486
 30
0.0
 11
-0.0029989259386617
 21
0.0015729741408015
 31
0.0
210
0.0
220
0.0
230
1.0
 40
0.7224579911888566
 41
0.0
 42
6.283185307179585
  0
ELLIPSE
  5
4DF
330
2
100
AcDbEntity
  8
Profilo
  6
Continuous
370
     0
100
AcDbEllipse
 10
0.2418266136876108
 20
0.2038279056137319
 30
0.0
 11
-0.0032737562790676
 21
0.0008662125942708
 31
0.0
210
0.0
220
0.0
230
1.0
 40
0.7224579911888564
 41
0.0
 42
6.283185307179585
  0
ELLIPSE
  5
4E0
330
2
100
AcDbEntity
  8
Profilo
  6
Continuous
370
     0
100
AcDbEllipse
 10
0.230842719804466
 20
0.2100686901472394
 30
0.0
 11
-0.0033844268096254
 21
0.0001160155312746
 31
0.0
210
0.0
220
0.0
230
1.0
 40
0.7224579911888565
 41
0.0
 42
6.283185307179585
  0
ELLIPSE
  5
4E1
330
2
100
AcDbEntity
  8
Profilo
  6
Continuous
370
     0
100
AcDbEllipse
 10
0.2187455098703277
 20
0.2137088588575135
 30
0.0
 11
-0.0033253880478129
 21
-0.0006399990348985
 31
0.0
210
0.0
220
0.0
230
1.0
 40
0.7224579911888567
 41
0.0
 42
6.283185307179585
  0
ELLIPSE
  5
4E2
330
2
100
AcDbEntity
  8
Profilo
  6
Continuous
370
     0
100
AcDbEllipse
 10
0.2061415885048456
 20
0.2145658784854011
 30
0.0
 11
-0.0030996004436719
 21
-0.0013639213770584
 31
0.0
210
0.0
220
0.0
230
1.0
 40
0.7224579911888566
 41
0.0
 42
6.283185307179585
  0
DIMENSION
  5
4E3
102
{ACAD_XDICTIONARY
360
4ED
102
}
102
{ACAD_REACTORS
330
4F4
102
}
330
2
100
AcDbEntity
  8
Text
  6
ACAD_ISO10W100
100
AcDbDimension
  2
*D11
 10
0.1493768233041824
 20
0.1209523815080696
 30
0.0
 11
0.2863724553293197
 21
0.1970560400174176
 31
0.0
 70
    35
  1
d 280 mm
 71
     5
 42
0.14
  3
Bovelacci
100
AcDbDiametricDimension
 15
0.2679040154966245
 25
0.1954594597689697
 35
0.0
 40
0.0
1001
ACAD
1000
DSTYLE
1002
{
1070
   288
1070
     1
1002
}
  0
ENDSEC
  0
SECTION
  2
OBJECTS
  0
DICTIONARY
  5
9
330
0
100
AcDbDictionary
281
     1
  3
ACAD_2007HEADERVARS_RT
350
208
  3
ACAD_COLOR
350
184
  3
ACAD_GROUP
350
17F
  3
ACAD_LAYOUT
350
164
  3
ACAD_MATERIAL
350
B
  3
ACAD_MLINESTYLE
350
180
  3
ACAD_PLOTSETTINGS
350
181
  3
ACAD_PLOTSTYLENAME
350
8
  3
ACAD_TABLESTYLE
350
185
  3
ACAD_VISUALSTYLE
350
17A
  3
ACDBHEADERROUNDTRIPXREC
350
505
  3
AcDbVariableDictionary
350
18B
  3
DWGPROPS
350
504
  0
DICTIONARY
  5
16E
330
16D
100
AcDbDictionary
280
     1
281
     1
  3
ACAD_LAYERSTATES
360
16F
  0
DICTIONARY
  5
3
330
2
100
AcDbDictionary
280
     1
281
     1
  3
ACAD_SORTENTS
360
18A
  0
DICTIONARY
  5
506
330
18
100
AcDbDictionary
280
     1
281
     1
  3
ACAD_MTEXT_RT
360
507
  0
DICTIONARY
  5
4ED
330
4E3
100
AcDbDictionary
280
     1
281
     1
  3
ACAD_DIMASSOC
360
4F4
  0
DICTIONARY
  5
208
102
{ACAD_REACTORS
330
9
102
}
330
9
100
AcDbDictionary
281
     1
  3
DIMFXL
350
209
  0
DICTIONARY
  5
184
102
{ACAD_REACTORS
330
9
102
}
330
9
100
AcDbDictionary
281
     1
  0
DICTIONARY
  5
17F
102
{ACAD_REACTORS
330
9
102
}
330
9
100
AcDbDictionary
281
     1
  0
DICTIONARY
  5
164
102
{ACAD_REACTORS
330
9
102
}
330
9
100
AcDbDictionary
281
     1
  3
Layout1
350
168
  3
Layout2
350
16C
  3
Model
350
163
  0
DICTIONARY
  5
B
102
{ACAD_REACTORS
330
9
102
}
330
9
100
AcDbDictionary
281
     1
  3
ByBlock
350
183
  3
ByLayer
350
182
  3
Global
350
A
  0
DICTIONARY
  5
180
102
{ACAD_REACTORS
330
9
102
}
330
9
100
AcDbDictionary
281
     1
  3
Standard
350
186
  0
DICTIONARY
  5
181
102
{ACAD_REACTORS
330
9
102
}
330
9
100
AcDbDictionary
281
     1
  0
ACDBDICTIONARYWDFLT
  5
8
102
{ACAD_REACTORS
330
9
102
}
330
9
100
AcDbDictionary
281
     1
  3
Normal
350
7
100
AcDbDictionaryWithDefault
340
7
  0
DICTIONARY
  5
185
102
{ACAD_REACTORS
330
9
102
}
330
9
100
AcDbDictionary
281
     1
  3
Standard
350
187
  0
DICTIONARY
  5
17A
102
{ACAD_REACTORS
330
9
102
}
330
9
100
AcDbDictionary
281
     1
  3
2dWireframe
350
179
  3
3D Hidden
350
1BD
  3
3dWireframe
350
189
  3
Basic
350
1BC
  3
Brighten
350
1C0
  3
ColorChange
350
1C4
  3
Conceptual
350
1BE
  3
Dim
350
1BF
  3
Facepattern
350
1C3
  3
Flat
350
1B8
  3
FlatWithEdges
350
1B9
  3
Gouraud
350
1BA
  3
GouraudWithEdges
350
1BB
  3
Linepattern
350
1C2
  3
Realistic
350
188
  3
Thicken
350
1C1
  0
DICTIONARY
  5
505
102
{ACAD_REACTORS
330
9
102
}
330
9
100
AcDbDictionary
281
     1
  0
DICTIONARY
  5
18B
102
{ACAD_REACTORS
330
9
102
}
330
9
100
AcDbDictionary
281
     1
  3
CTABLESTYLE
350
18C
  3
DIMASSOC
350
190
  3
HIDETEXT
350
18F
  3
INDEXCTL
350
18E
  3
PROJECTNAME
350
2F9
  3
SORTENTS
350
18D
  0
XRECORD
  5
504
102
{ACAD_REACTORS
330
9
102
}
330
9
100
AcDbXrecord
280
     1
  1
DWGPROPS COOKIE
  2

  3

  4

  6

  7

  8
Mario
  9

300
=
301
=
302
=
303
=
304
=
305
=
306
=
307
=
308
=
309
=
 40
0.0876020023148148
 41
2454297.625402373
 42
2454305.919457998
  1

 90
        0
  0
DICTIONARY
  5
16F
102
{ACAD_REACTORS
330
16E
102
}
330
16E
100
AcDbDictionary
281
     1
  0
SORTENTSTABLE
  5
18A
102
{ACAD_REACTORS
330
3
102
}
330
3
100
AcDbSortentsTable
330
2
331
14
  5
10
331
23
  5
24
331
12
  5
16
331
10
  5
14
331
21
  5
22
331
1F
  5
21
331
1D
  5
1E
331
15
  5
11
331
24
  5
18
331
13
  5
D
331
22
  5
23
331
11
  5
15
331
1E
  5
1F
331
D
  5
13
331
1C
  5
1D
331
18
  5
1C
331
16
  5
12
  0
XRECORD
  5
507
102
{ACAD_REACTORS
330
506
102
}
330
506
100
AcDbXrecord
280
     1
 40
7955300.0
  1
{\fTimes New Roman|b0|i0|c238|p18;\H1.6x;\C4;Bovelacci\P\pt0.09;\H0.4375x;\T0.95;via del Commercio, 5  47100 Forli - Italy  \fTimes New Roman|b0|i0|c0|p18;\P\fTimes New Roman|b0|i0|c238|p18;tel.+39-0543721386  fax +39-0543721127\fTimes New Roman|b0|i
  1
0|c0|p18; \fTimes New Roman|b0|i0|c238|p18;www.bovelacci.it\fTimes New Roman|b0|i0|c0|p18; \fTimes New Roman|b0|i0|c238|p18;e-mail: bovelacci@bovelacci\fTimes New Roman|b0|i0|c0|p18;.it}
  0
DIMASSOC
  5
4F4
102
{ACAD_REACTORS
330
4ED
102
}
330
4ED
100
AcDbDimAssoc
330
4E3
 90
        2
 70
     0
 71
     0
  1
AcDbOsnapPointRef
 72
     3
331
3FC
 73
     2
 91
        0
 40
0.0
 10
0.0
 20
0.0
 30
0.0
 75
     0
  0
XRECORD
  5
209
102
{ACAD_REACTORS
330
208
102
}
330
208
100
AcDbXrecord
280
     1
 40
0.18
  0
LAYOUT
  5
168
102
{ACAD_XDICTIONARY
360
50A
102
}
102
{ACAD_REACTORS
330
164
102
}
330
164
100
AcDbPlotSettings
  1

  2
C:\Documents and Settings\All Users\Dati applicazioni\Autodesk\ADT 2006\enu\Plotters\Default Windows System Printer.pc3
  4

  6

 40
0.0
 41
0.0
 42
0.0
 43
0.0
 44
0.0
 45
0.0
 46
0.0
 47
0.0
 48
0.0
 49
0.0
140
0.0
141
0.0
142
1.0
143
1.0
 70
   688
 72
     0
 73
     0
 74
     5
  7

 75
    16
147
1.0
148
0.0
149
0.0
100
AcDbLayout
  1
Layout1
 70
     1
 71
     1
 10
0.0
 20
0.0
 11
420.0
 21
297.0
 12
0.0
 22
0.0
 32
0.0
 14
1.000000000000000E+20
 24
1.000000000000000E+20
 34
1.000000000000000E+20
 15
-1.000000000000000E+20
 25
-1.000000000000000E+20
 35
-1.000000000000000E+20
146
0.0
 13
0.0
 23
0.0
 33
0.0
 16
1.0
 26
0.0
 36
0.0
 17
0.0
 27
1.0
 37
0.0
 76
     0
330
165
  0
LAYOUT
  5
16C
102
{ACAD_XDICTIONARY
360
50C
102
}
102
{ACAD_REACTORS
330
164
102
}
330
164
100
AcDbPlotSettings
  1

  2
C:\Documents and Settings\All Users\Dati applicazioni\Autodesk\ADT 2006\enu\Plotters\Default Windows System Printer.pc3
  4

  6

 40
0.0
 41
0.0
 42
0.0
 43
0.0
 44
0.0
 45
0.0
 46
0.0
 47
0.0
 48
0.0
 49
0.0
140
0.0
141
0.0
142
1.0
143
1.0
 70
   688
 72
     0
 73
     0
 74
     5
  7

 75
    16
147
1.0
148
0.0
149
0.0
100
AcDbLayout
  1
Layout2
 70
     1
 71
     2
 10
0.0
 20
0.0
 11
12.0
 21
9.0
 12
0.0
 22
0.0
 32
0.0
 14
0.0
 24
0.0
 34
0.0
 15
0.0
 25
0.0
 35
0.0
146
0.0
 13
0.0
 23
0.0
 33
0.0
 16
1.0
 26
0.0
 36
0.0
 17
0.0
 27
1.0
 37
0.0
 76
     0
330
169
  0
LAYOUT
  5
163
102
{ACAD_XDICTIONARY
360
508
102
}
102
{ACAD_REACTORS
330
164
102
}
330
164
100
AcDbPlotSettings
  1

  2
C:\Documents and Settings\All Users\Dati applicazioni\Autodesk\ADT 2006\enu\Plotters\Default Windows System Printer.pc3
  4

  6

 40
0.0
 41
0.0
 42
0.0
 43
0.0
 44
0.0
 45
0.0
 46
0.0
 47
0.0
 48
0.0
 49
0.0
140
0.0
141
0.0
142
1.0
143
1.0
 70
  1712
 72
     0
 73
     0
 74
     0
  7

 75
     0
147
1.0
148
0.0
149
0.0
100
AcDbLayout
  1
Model
 70
     1
 71
     0
 10
0.0
 20
0.0
 11
12.0
 21
9.0
 12
0.0
 22
0.0
 32
0.0
 14
0.0
 24
0.0
 34
0.0
 15
0.0
 25
0.0
 35
0.0
146
0.0
 13
0.0
 23
0.0
 33
0.0
 16
1.0
 26
0.0
 36
0.0
 17
0.0
 27
1.0
 37
0.0
 76
     0
330
2
  0
MATERIAL
  5
183
102
{ACAD_XDICTIONARY
360
1B0
102
}
102
{ACAD_REACTORS
330
B
102
}
330
B
100
AcDbMaterial
  1
ByBlock
  0
MATERIAL
  5
182
102
{ACAD_XDICTIONARY
360
1AE
102
}
102
{ACAD_REACTORS
330
B
102
}
330
B
100
AcDbMaterial
  1
ByLayer
  0
MATERIAL
  5
A
102
{ACAD_XDICTIONARY
360
193
102
}
102
{ACAD_REACTORS
330
B
102
}
330
B
100
AcDbMaterial
  1
Global
  0
MLINESTYLE
  5
186
102
{ACAD_REACTORS
330
180
102
}
330
180
100
AcDbMlineStyle
  2
STANDARD
 70
     0
  3

 62
   256
 51
90.0
 52
90.0
 71
     2
 49
0.5
 62
   256
  6
BYLAYER
 49
-0.5
 62
   256
  6
BYLAYER
  0
ACDBPLACEHOLDER
  5
7
102
{ACAD_REACTORS
330
8
102
}
330
8
  0
TABLESTYLE
  5
187
102
{ACAD_XDICTIONARY
360
21A
102
}
102
{ACAD_REACTORS
330
185
102
}
330
185
100
AcDbTableStyle
  3
Standard
 70
     0
 71
     0
 40
1.5
 41
1.5
280
     0
281
     0
  7
Standard
140
4.5
170
     2
 62
     0
 63
     7
283
     0
274
    -2
284
     1
 64
     0
275
    -2
285
     1
 65
     0
276
    -2
286
     1
 66
     0
277
    -2
287
     1
 67
     0
278
    -2
288
     1
 68
     0
279
    -2
289
     1
 69
     0
  7
Standard
140
6.0
170
     5
 62
     0
 63
     7
283
     0
274
    -2
284
     1
 64
     0
275
    -2
285
     1
 65
     0
276
    -2
286
     1
 66
     0
277
    -2
287
     1
 67
     0
278
    -2
288
     1
 68
     0
279
    -2
289
     1
 69
     0
  7
Standard
140
4.5
170
     5
 62
     0
 63
     7
283
     0
274
    -2
284
     1
 64
     0
275
    -2
285
     1
 65
     0
276
    -2
286
     1
 66
     0
277
    -2
287
     1
 67
     0
278
    -2
288
     1
 68
     0
279
    -2
289
     1
 69
     0
  0
VISUALSTYLE
  5
179
102
{ACAD_REACTORS
330
17A
102
}
330
17A
100
AcDbVisualStyle
  2
2dWireframe
 70
     4
 71
     0
 72
     2
 73
     0
 90
        0
 40
-0.6
 41
-30.0
 62
     5
 63
     7
 74
     1
 91
        4
 64
     7
 65
   257
 75
     1
175
     1
 42
1.0
 92
        0
 66
   257
 43
1.0
 76
     1
 77
     6
 78
     2
 67
     7
 79
     5
170
     0
171
     0
290
     0
174
     0
 93
        1
 44
0.0
173
     0
291
     0
 45
0.0
1001
ACAD
1000
AcDbSavedByObjectVersion
1070
     0
1000
AcDbSavedByObjectVersion
1070
     0
1000
AcDbSavedByObjectVersion
1070
     0
1001
ACAD
1000
AcRTDxfName
1000
VISUALSTYLE
  0
VISUALSTYLE
  5
1BD
102
{ACAD_REACTORS
330
17A
102
}
330
17A
100
AcDbVisualStyle
  2
3D Hidden
 70
     6
 71
     1
 72
     2
 73
     2
 90
        0
 40
-0.6
 41
-30.0
 62
     5
 63
     7
 74
     2
 91
        2
 64
     7
 65
   257
 75
     2
175
     1
 42
40.0
 92
        0
 66
   257
 43
1.0
 76
     1
 77
     6
 78
     2
 67
     7
 79
     3
170
     0
171
     0
290
     0
174
     0
 93
        1
 44
0.0
173
     0
291
     0
 45
0.0
1001
ACAD
1000
AcDbSavedByObjectVersion
1070
     0
1000
AcDbSavedByObjectVersion
1070
     0
1001
ACAD
1000
AcRTDxfName
1000
VISUALSTYLE
  0
VISUALSTYLE
  5
189
102
{ACAD_REACTORS
330
17A
102
}
330
17A
100
AcDbVisualStyle
  2
3dWireframe
 70
     5
 71
     0
 72
     2
 73
     0
 90
        0
 40
-0.6
 41
-30.0
 62
     5
 63
     7
 74
     1
 91
        4
 64
     7
 65
   257
 75
     1
175
     1
 42
1.0
 92
        0
 66
   257
 43
1.0
 76
     1
 77
     6
 78
     2
 67
     7
 79
     5
170
     0
171
     0
290
     0
174
     0
 93
        1
 44
0.0
173
     0
291
     0
 45
0.0
1001
ACAD
1000
AcDbSavedByObjectVersion
1070
     0
1000
AcDbSavedByObjectVersion
1070
     0
1000
AcDbSavedByObjectVersion
1070
     0
1001
ACAD
1000
AcRTDxfName
1000
VISUALSTYLE
  0
VISUALSTYLE
  5
1BC
102
{ACAD_REACTORS
330
17A
102
}
330
17A
100
AcDbVisualStyle
  2
Basic
 70
     7
 71
     1
 72
     0
 73
     1
 90
        0
 40
-0.6
 41
-30.0
 62
     5
 63
     7
 74
     0
 91
        4
 64
     7
 65
   257
 75
     1
175
     1
 42
1.0
 92
        8
 66
     7
 43
1.0
 76
     1
 77
     6
 78
     2
 67
     7
 79
     5
170
     0
171
     0
290
     0
174
     0
 93
        1
 44
0.0
173
     0
291
     1
 45
0.0
1001
ACAD
1000
AcDbSavedByObjectVersion
1070
     0
1000
AcDbSavedByObjectVersion
1070
     0
1001
ACAD
1000
AcRTDxfName
1000
VISUALSTYLE
  0
VISUALSTYLE
  5
1C0
102
{ACAD_REACTORS
330
17A
102
}
330
17A
100
AcDbVisualStyle
  2
Brighten
 70
    12
 71
     2
 72
     2
 73
     0
 90
        0
 40
-0.6
 41
-30.0
 62
     5
 63
     7
 74
     1
 91
        4
 64
     7
 65
   257
 75
     1
175
     1
 42
1.0
 92
        8
 66
     7
 43
1.0
 76
     1
 77
     6
 78
     2
 67
     7
 79
     5
170
     0
171
     0
290
     0
174
     0
 93
        1
 44
50.0
173
     0
291
     1
 45
0.0
1001
ACAD
1000
AcDbSavedByObjectVersion
1070
     0
1000
AcDbSavedByObjectVersion
1070
     0
1001
ACAD
1000
AcRTDxfName
1000
VISUALSTYLE
  0
VISUALSTYLE
  5
1C4
102
{ACAD_REACTORS
330
17A
102
}
330
17A
100
AcDbVisualStyle
  2
ColorChange
 70
    16
 71
     2
 72
     2
 73
     3
 90
        0
 40
-0.6
 41
-30.0
 62
     5
 63
     8
 74
     1
 91
        4
 64
     7
 65
   257
 75
     1
175
     1
 42
1.0
 92
        8
 66
     8
 43
1.0
 76
     1
 77
     6
 78
     2
 67
     7
 79
     5
170
     0
171
     0
290
     0
174
     0
 93
        1
 44
0.0
173
     0
291
     1
 45
0.0
1001
ACAD
1000
AcDbSavedByObjectVersion
1070
     0
1000
AcDbSavedByObjectVersion
1070
     0
1001
ACAD
1000
AcRTDxfName
1000
VISUALSTYLE
  0
VISUALSTYLE
  5
1BE
102
{ACAD_REACTORS
330
17A
102
}
330
17A
100
AcDbVisualStyle
  2
Conceptual
 70
     9
 71
     3
 72
     2
 73
     0
 90
        0
 40
-0.6
 41
-30.0
 62
     5
 63
     7
 74
     2
 91
        2
 64
     7
 65
   257
 75
     1
175
     1
 42
40.0
 92
        8
 66
     7
 43
1.0
 76
     1
 77
     6
 78
     2
 67
     7
 79
     3
170
     0
171
     0
290
     0
174
     0
 93
        1
 44
0.0
173
     0
291
     0
 45
0.0
1001
ACAD
1000
AcDbSavedByObjectVersion
1070
     0
1000
AcDbSavedByObjectVersion
1070
     0
1001
ACAD
1000
AcRTDxfName
1000
VISUALSTYLE
  0
VISUALSTYLE
  5
1BF
102
{ACAD_REACTORS
330
17A
102
}
330
17A
100
AcDbVisualStyle
  2
Dim
 70
    11
 71
     2
 72
     2
 73
     0
 90
        0
 40
-0.6
 41
-30.0
 62
     5
 63
     7
 74
     1
 91
        4
 64
     7
 65
   257
 75
     1
175
     1
 42
1.0
 92
        8
 66
     7
 43
1.0
 76
     1
 77
     6
 78
     2
 67
     7
 79
     5
170
     0
171
     0
290
     0
174
     0
 93
        1
 44
-50.0
173
     0
291
     1
 45
0.0
1001
ACAD
1000
AcDbSavedByObjectVersion
1070
     0
1000
AcDbSavedByObjectVersion
1070
     0
1001
ACAD
1000
AcRTDxfName
1000
VISUALSTYLE
  0
VISUALSTYLE
  5
1C3
102
{ACAD_REACTORS
330
17A
102
}
330
17A
100
AcDbVisualStyle
  2
Facepattern
 70
    15
 71
     2
 72
     2
 73
     0
 90
        0
 40
-0.6
 41
-30.0
 62
     5
 63
     7
 74
     1
 91
        4
 64
     7
 65
   257
 75
     1
175
     1
 42
1.0
 92
        8
 66
     7
 43
1.0
 76
     1
 77
     6
 78
     2
 67
     7
 79
     5
170
     0
171
     0
290
     0
174
     0
 93
        1
 44
0.0
173
     0
291
     1
 45
0.0
1001
ACAD
1000
AcDbSavedByObjectVersion
1070
     0
1000
AcDbSavedByObjectVersion
1070
     0
1001
ACAD
1000
AcRTDxfName
1000
VISUALSTYLE
  0
VISUALSTYLE
  5
1B8
102
{ACAD_REACTORS
330
17A
102
}
330
17A
100
AcDbVisualStyle
  2
Flat
 70
     0
 71
     2
 72
     1
 73
     1
 90
        2
 40
-0.6
 41
30.0
 62
     5
 63
     7
 74
     0
 91
        4
 64
     7
 65
   257
 75
     1
175
     1
 42
1.0
 92
        8
 66
     7
 43
1.0
 76
     1
 77
     6
 78
     2
 67
     7
 79
     5
170
     0
171
     0
290
     0
174
     0
 93
       13
 44
0.0
173
     0
291
     1
 45
0.0
1001
ACAD
1000
AcDbSavedByObjectVersion
1070
     0
1000
AcDbSavedByObjectVersion
1070
     0
1001
ACAD
1000
AcRTDxfName
1000
VISUALSTYLE
  0
VISUALSTYLE
  5
1B9
102
{ACAD_REACTORS
330
17A
102
}
330
17A
100
AcDbVisualStyle
  2
FlatWithEdges
 70
     1
 71
     2
 72
     1
 73
     1
 90
        2
 40
-0.6
 41
30.0
 62
     5
 63
     7
 74
     1
 91
        4
 64
     7
 65
   257
 75
     1
175
     1
 42
1.0
 92
        0
 66
   257
 43
1.0
 76
     1
 77
     6
 78
     2
 67
     7
 79
     5
170
     0
171
     0
290
     0
174
     0
 93
       13
 44
0.0
173
     0
291
     1
 45
0.0
1001
ACAD
1000
AcDbSavedByObjectVersion
1070
     0
1000
AcDbSavedByObjectVersion
1070
     0
1001
ACAD
1000
AcRTDxfName
1000
VISUALSTYLE
  0
VISUALSTYLE
  5
1BA
102
{ACAD_REACTORS
330
17A
102
}
330
17A
100
AcDbVisualStyle
  2
Gouraud
 70
     2
 71
     2
 72
     2
 73
     1
 90
        2
 40
-0.6
 41
30.0
 62
     5
 63
     7
 74
     0
 91
        4
 64
     7
 65
   257
 75
     1
175
     1
 42
1.0
 92
        0
 66
     7
 43
1.0
 76
     1
 77
     6
 78
     2
 67
     7
 79
     5
170
     0
171
     0
290
     0
174
     0
 93
       13
 44
0.0
173
     0
291
     1
 45
0.0
1001
ACAD
1000
AcDbSavedByObjectVersion
1070
     0
1000
AcDbSavedByObjectVersion
1070
     0
1001
ACAD
1000
AcRTDxfName
1000
VISUALSTYLE
  0
VISUALSTYLE
  5
1BB
102
{ACAD_REACTORS
330
17A
102
}
330
17A
100
AcDbVisualStyle
  2
GouraudWithEdges
 70
     3
 71
     2
 72
     2
 73
     1
 90
        2
 40
-0.6
 41
30.0
 62
     5
 63
     7
 74
     1
 91
        4
 64
     7
 65
   257
 75
     1
175
     1
 42
1.0
 92
        0
 66
   257
 43
1.0
 76
     1
 77
     6
 78
     2
 67
     7
 79
     5
170
     0
171
     0
290
     0
174
     0
 93
       13
 44
0.0
173
     0
291
     1
 45
0.0
1001
ACAD
1000
AcDbSavedByObjectVersion
1070
     0
1000
AcDbSavedByObjectVersion
1070
     0
1001
ACAD
1000
AcRTDxfName
1000
VISUALSTYLE
  0
VISUALSTYLE
  5
1C2
102
{ACAD_REACTORS
330
17A
102
}
330
17A
100
AcDbVisualStyle
  2
Linepattern
 70
    14
 71
     2
 72
     2
 73
     0
 90
        0
 40
-0.6
 41
-30.0
 62
     5
 63
     7
 74
     1
 91
        4
 64
     7
 65
   257
 75
     7
175
     7
 42
1.0
 92
        8
 66
     7
 43
1.0
 76
     1
 77
     6
 78
     2
 67
     7
 79
     5
170
     0
171
     0
290
     0
174
     0
 93
        1
 44
0.0
173
     0
291
     1
 45
0.0
1001
ACAD
1000
AcDbSavedByObjectVersion
1070
     0
1000
AcDbSavedByObjectVersion
1070
     0
1001
ACAD
1000
AcRTDxfName
1000
VISUALSTYLE
  0
VISUALSTYLE
  5
188
102
{ACAD_REACTORS
330
17A
102
}
330
17A
100
AcDbVisualStyle
  2
Realistic
 70
     8
 71
     2
 72
     2
 73
     0
 90
        0
 40
-0.6
 41
-30.0
 62
     5
 63
     7
 74
     1
 91
        0
 64
     7
 65
   257
 75
     1
175
     1
 42
1.0
 92
        8
 66
     8
 43
1.0
 76
     1
 77
     6
 78
     2
 67
     7
 79
     5
170
     0
171
     0
290
     0
174
     0
 93
       13
 44
0.0
173
     0
291
     0
 45
0.0
1001
ACAD
1000
AcDbSavedByObjectVersion
1070
     0
1000
AcDbSavedByObjectVersion
1070
     0
1000
AcDbSavedByObjectVersion
1070
     0
1001
ACAD
1000
AcRTDxfName
1000
VISUALSTYLE
  0
VISUALSTYLE
  5
1C1
102
{ACAD_REACTORS
330
17A
102
}
330
17A
100
AcDbVisualStyle
  2
Thicken
 70
    13
 71
     2
 72
     2
 73
     0
 90
        0
 40
-0.6
 41
-30.0
 62
     5
 63
     7
 74
     1
 91
        4
 64
     7
 65
   257
 75
     1
175
     1
 42
1.0
 92
       12
 66
     7
 43
1.0
 76
     1
 77
     6
 78
     2
 67
     7
 79
     5
170
     0
171
     0
290
     0
174
     0
 93
        1
 44
0.0
173
     0
291
     1
 45
0.0
1001
ACAD
1000
AcDbSavedByObjectVersion
1070
     0
1000
AcDbSavedByObjectVersion
1070
     0
1001
ACAD
1000
AcRTDxfName
1000
VISUALSTYLE
  0
DICTIONARYVAR
  5
18C
102
{ACAD_REACTORS
330
18B
102
}
330
18B
100
DictionaryVariables
280
     0
  1
STANDARD
  0
DICTIONARYVAR
  5
190
102
{ACAD_REACTORS
330
18B
102
}
330
18B
100
DictionaryVariables
280
     0
  1
2
  0
DICTIONARYVAR
  5
18F
102
{ACAD_REACTORS
330
18B
102
}
330
18B
100
DictionaryVariables
280
     0
  1
1
  0
DICTIONARYVAR
  5
18E
102
{ACAD_REACTORS
330
18B
102
}
330
18B
100
DictionaryVariables
280
     0
  1
0
  0
DICTIONARYVAR
  5
2F9
102
{ACAD_REACTORS
330
18B
102
}
330
18B
100
DictionaryVariables
280
     0
  1

  0
DICTIONARYVAR
  5
18D
102
{ACAD_REACTORS
330
18B
102
}
330
18B
100
DictionaryVariables
280
     0
  1
127
  0
DICTIONARY
  5
50A
330
168
100
AcDbDictionary
280
     1
281
     1
  3
ACAD_XREC_ROUNDTRIP
360
50B
  0
DICTIONARY
  5
50C
330
16C
100
AcDbDictionary
280
     1
281
     1
  3
ACAD_XREC_ROUNDTRIP
360
50D
  0
DICTIONARY
  5
508
330
163
100
AcDbDictionary
280
     1
281
     1
  3
ACAD_XREC_ROUNDTRIP
360
509
  0
DICTIONARY
  5
1B0
330
183
100
AcDbDictionary
280
     1
281
     1
  3
ACAD_XREC_ROUNDTRIP
360
1B1
  0
DICTIONARY
  5
1AE
330
182
100
AcDbDictionary
280
     1
281
     1
  3
ACAD_XREC_ROUNDTRIP
360
1AF
  0
DICTIONARY
  5
193
330
A
100
AcDbDictionary
280
     1
281
     1
  3
ACAD_XREC_ROUNDTRIP
360
194
  0
DICTIONARY
  5
21A
330
187
100
AcDbDictionary
280
     1
281
     1
  3
ACAD_XREC_ROUNDTRIP
360
21B
  0
XRECORD
  5
50B
102
{ACAD_REACTORS
330
50A
102
}
330
50A
100
AcDbXrecord
280
     1
102
SHADEPLOT
 70
     0
102
SHADEPLOTRESLEVEL
 70
     2
102
SHADEPLOTCUSTOMDPI
 70
   300
  0
XRECORD
  5
50D
102
{ACAD_REACTORS
330
50C
102
}
330
50C
100
AcDbXrecord
280
     1
102
SHADEPLOT
 70
     0
102
SHADEPLOTRESLEVEL
 70
     2
102
SHADEPLOTCUSTOMDPI
 70
   300
  0
XRECORD
  5
509
102
{ACAD_REACTORS
330
508
102
}
330
508
100
AcDbXrecord
280
     1
102
SHADEPLOT
 70
     0
102
SHADEPLOTRESLEVEL
 70
     2
102
SHADEPLOTCUSTOMDPI
 70
   300
  0
XRECORD
  5
1B1
102
{ACAD_REACTORS
330
1B0
102
}
330
1B0
100
AcDbXrecord
280
     1
102
MATERIAL
148
0.0
149
0.0
149
0.0
 93
        0
 94
       63
282
     0
 72
     1
 77
     1
171
     1
175
     1
179
     1
273
     0
  0
XRECORD
  5
1AF
102
{ACAD_REACTORS
330
1AE
102
}
330
1AE
100
AcDbXrecord
280
     1
102
MATERIAL
148
0.0
149
0.0
149
0.0
 93
        0
 94
       63
282
     0
 72
     1
 77
     1
171
     1
175
     1
179
     1
273
     0
  0
XRECORD
  5
194
102
{ACAD_REACTORS
330
193
102
}
330
193
100
AcDbXrecord
280
     1
102
MATERIAL
148
0.0
149
0.0
149
0.0
 93
        0
 94
       63
282
     0
 72
     1
 77
     1
171
     1
175
     1
179
     1
273
     0
  0
XRECORD
  5
21B
102
{ACAD_REACTORS
330
21A
102
}
330
21A
100
AcDbXrecord
280
     1
102
ACAD_ROUNDTRIP_PRE2007_TABLESTYLE
 90
        4
 91
        0
  1

 92
        4
 93
        0
  2

 94
        4
 95
        0
  3

  0
ENDSEC
  0
EOF
