  0
SECTION
  2
HEADER
  9
$ACADVER
  1
AC1015
  9
$ACADMAINTVER
 70
    20
  9
$DWGCODEPAGE
  3
ANSI_1252
  9
$INSBASE
 10
0.0
 20
0.0
 30
0.0
  9
$EXTMIN
 10
0.0149999999999999
 20
-0.026210188131048
 30
0.0
  9
$EXTMAX
 10
0.8515178529016747
 20
0.4528755680297306
 30
0.0
  9
$LIMMIN
 10
0.0
 20
0.0
  9
$LIMMAX
 10
1.0
 20
0.5
  9
$ORTHOMODE
 70
     0
  9
$REGENMODE
 70
     1
  9
$FILLMODE
 70
     1
  9
$QTEXTMODE
 70
     0
  9
$MIRRTEXT
 70
     0
  9
$LTSCALE
 40
1.0
  9
$ATTMODE
 70
     1
  9
$TEXTSIZE
 40
0.008
  9
$TRACEWID
 40
1.0
  9
$TEXTSTYLE
  7
style1
  9
$CLAYER
  8
Text
  9
$CELTYPE
  6
ACAD_ISO10W100
  9
$CECOLOR
 62
   256
  9
$CELTSCALE
 40
1.0
  9
$DISPSILH
 70
     0
  9
$DIMSCALE
 40
0.001
  9
$DIMASZ
 40
1.5
  9
$DIMEXO
 40
0.0625
  9
$DIMDLI
 40
0.38
  9
$DIMRND
 40
0.0
  9
$DIMDLE
 40
0.0
  9
$DIMEXE
 40
0.18
  9
$DIMTP
 40
0.0
  9
$DIMTM
 40
0.0
  9
$DIMTXT
 40
3.0
  9
$DIMCEN
 40
0.0
  9
$DIMTSZ
 40
0.0
  9
$DIMTOL
 70
     0
  9
$DIMLIM
 70
     0
  9
$DIMTIH
 70
     1
  9
$DIMTOH
 70
     1
  9
$DIMSE1
 70
     0
  9
$DIMSE2
 70
     0
  9
$DIMTAD
 70
     0
  9
$DIMZIN
 70
     0
  9
$DIMBLK
  1
ArchTick
  9
$DIMASO
 70
     1
  9
$DIMSHO
 70
     1
  9
$DIMPOST
  1

  9
$DIMAPOST
  1

  9
$DIMALT
 70
     0
  9
$DIMALTD
 70
     2
  9
$DIMALTF
 40
25.4
  9
$DIMLFAC
 40
1.0
  9
$DIMTOFL
 70
     0
  9
$DIMTVP
 40
0.0
  9
$DIMTIX
 70
     0
  9
$DIMSOXD
 70
     0
  9
$DIMSAH
 70
     0
  9
$DIMBLK1
  1

  9
$DIMBLK2
  1

  9
$DIMSTYLE
  2
Bovelacci
  9
$DIMCLRD
 70
     5
  9
$DIMCLRE
 70
     5
  9
$DIMCLRT
 70
     4
  9
$DIMTFAC
 40
1.0
  9
$DIMGAP
 40
2.0
  9
$DIMJUST
 70
     0
  9
$DIMSD1
 70
     0
  9
$DIMSD2
 70
     0
  9
$DIMTOLJ
 70
     1
  9
$DIMTZIN
 70
     0
  9
$DIMALTZ
 70
     0
  9
$DIMALTTZ
 70
     0
  9
$DIMUPT
 70
     0
  9
$DIMDEC
 70
     2
  9
$DIMTDEC
 70
     2
  9
$DIMALTU
 70
     2
  9
$DIMALTTD
 70
     2
  9
$DIMTXSTY
  7
ROMANS
  9
$DIMAUNIT
 70
     0
  9
$DIMADEC
 70
     0
  9
$DIMALTRND
 40
0.0
  9
$DIMAZIN
 70
     0
  9
$DIMDSEP
 70
    46
  9
$DIMATFIT
 70
     3
  9
$DIMFRAC
 70
     0
  9
$DIMLDRBLK
  1

  9
$DIMLUNIT
 70
     2
  9
$DIMLWD
 70
    -2
  9
$DIMLWE
 70
    -2
  9
$DIMTMOVE
 70
     2
  9
$LUNITS
 70
     2
  9
$LUPREC
 70
     2
  9
$SKETCHINC
 40
1.0
  9
$FILLETRAD
 40
0.0
  9
$AUNITS
 70
     0
  9
$AUPREC
 70
     0
  9
$MENU
  1
.
  9
$ELEVATION
 40
0.0
  9
$PELEVATION
 40
0.0
  9
$THICKNESS
 40
0.0
  9
$LIMCHECK
 70
     0
  9
$CHAMFERA
 40
0.0
  9
$CHAMFERB
 40
0.0
  9
$CHAMFERC
 40
0.0
  9
$CHAMFERD
 40
0.0
  9
$SKPOLY
 70
     0
  9
$TDCREATE
 40
2454297.625402373
  9
$TDUCREATE
 40
2454297.542069039
  9
$TDUPDATE
 40
2454305.952040290
  9
$TDUUPDATE
 40
2454305.868706956
  9
$TDINDWG
 40
0.1201855556
  9
$TDUSRTIMER
 40
0.1201835532
  9
$USRTIMER
 70
     1
  9
$ANGBASE
 50
0.0
  9
$ANGDIR
 70
     0
  9
$PDMODE
 70
     0
  9
$PDSIZE
 40
0.0
  9
$PLINEWID
 40
0.0
  9
$SPLFRAME
 70
     0
  9
$SPLINETYPE
 70
     6
  9
$SPLINESEGS
 70
     8
  9
$HANDSEED
  5
B2A
  9
$SURFTAB1
 70
     6
  9
$SURFTAB2
 70
     6
  9
$SURFTYPE
 70
     6
  9
$SURFU
 70
     6
  9
$SURFV
 70
     6
  9
$UCSBASE
  2

  9
$UCSNAME
  2

  9
$UCSORG
 10
0.0
 20
0.0
 30
0.0
  9
$UCSXDIR
 10
1.0
 20
0.0
 30
0.0
  9
$UCSYDIR
 10
0.0
 20
1.0
 30
0.0
  9
$UCSORTHOREF
  2

  9
$UCSORTHOVIEW
 70
     0
  9
$UCSORGTOP
 10
0.0
 20
0.0
 30
0.0
  9
$UCSORGBOTTOM
 10
0.0
 20
0.0
 30
0.0
  9
$UCSORGLEFT
 10
0.0
 20
0.0
 30
0.0
  9
$UCSORGRIGHT
 10
0.0
 20
0.0
 30
0.0
  9
$UCSORGFRONT
 10
0.0
 20
0.0
 30
0.0
  9
$UCSORGBACK
 10
0.0
 20
0.0
 30
0.0
  9
$PUCSBASE
  2

  9
$PUCSNAME
  2

  9
$PUCSORG
 10
0.0
 20
0.0
 30
0.0
  9
$PUCSXDIR
 10
1.0
 20
0.0
 30
0.0
  9
$PUCSYDIR
 10
0.0
 20
1.0
 30
0.0
  9
$PUCSORTHOREF
  2

  9
$PUCSORTHOVIEW
 70
     0
  9
$PUCSORGTOP
 10
0.0
 20
0.0
 30
0.0
  9
$PUCSORGBOTTOM
 10
0.0
 20
0.0
 30
0.0
  9
$PUCSORGLEFT
 10
0.0
 20
0.0
 30
0.0
  9
$PUCSORGRIGHT
 10
0.0
 20
0.0
 30
0.0
  9
$PUCSORGFRONT
 10
0.0
 20
0.0
 30
0.0
  9
$PUCSORGBACK
 10
0.0
 20
0.0
 30
0.0
  9
$USERI1
 70
     0
  9
$USERI2
 70
     0
  9
$USERI3
 70
     0
  9
$USERI4
 70
     0
  9
$USERI5
 70
     0
  9
$USERR1
 40
0.0
  9
$USERR2
 40
0.0
  9
$USERR3
 40
0.0
  9
$USERR4
 40
0.0
  9
$USERR5
 40
0.0
  9
$WORLDVIEW
 70
     1
  9
$SHADEDGE
 70
     3
  9
$SHADEDIF
 70
    70
  9
$TILEMODE
 70
     1
  9
$MAXACTVP
 70
    64
  9
$PINSBASE
 10
0.0
 20
0.0
 30
0.0
  9
$PLIMCHECK
 70
     0
  9
$PEXTMIN
 10
1.000000000000000E+20
 20
1.000000000000000E+20
 30
1.000000000000000E+20
  9
$PEXTMAX
 10
-1.000000000000000E+20
 20
-1.000000000000000E+20
 30
-1.000000000000000E+20
  9
$PLIMMIN
 10
0.0
 20
0.0
  9
$PLIMMAX
 10
420.0
 20
297.0
  9
$UNITMODE
 70
     0
  9
$VISRETAIN
 70
     1
  9
$PLINEGEN
 70
     0
  9
$PSLTSCALE
 70
     1
  9
$TREEDEPTH
 70
  3020
  9
$CMLSTYLE
  2
Standard
  9
$CMLJUST
 70
     0
  9
$CMLSCALE
 40
20.0
  9
$PROXYGRAPHICS
 70
     1
  9
$MEASUREMENT
 70
     1
  9
$CELWEIGHT
370
    -1
  9
$ENDCAPS
280
     0
  9
$JOINSTYLE
280
     0
  9
$LWDISPLAY
290
     0
  9
$INSUNITS
 70
     4
  9
$HYPERLINKBASE
  1

  9
$STYLESHEET
  1

  9
$XEDIT
290
     1
  9
$CEPSNTYPE
380
     0
  9
$PSTYLEMODE
290
     1
  9
$FINGERPRINTGUID
  2
{904A8C64-524F-4709-A9C6-320D2C273A6D}
  9
$VERSIONGUID
  2
{0CE9DD6C-BA57-47D0-8D68-2158434A9CC4}
  9
$EXTNAMES
290
     1
  9
$PSVPSCALE
 40
0.0
  9
$OLESTARTUP
290
     0
  0
ENDSEC
  0
SECTION
  2
CLASSES
  0
CLASS
  1
ACDBDICTIONARYWDFLT
  2
AcDbDictionaryWithDefault
  3
ObjectDBX Classes
 90
        0
280
     0
281
     0
  0
CLASS
  1
TABLESTYLE
  2
AcDbTableStyle
  3
ObjectDBX Classes
 90
     2047
280
     0
281
     0
  0
CLASS
  1
SORTENTSTABLE
  2
AcDbSortentsTable
  3
ObjectDBX Classes
 90
        0
280
     0
281
     0
  0
CLASS
  1
DICTIONARYVAR
  2
AcDbDictionaryVar
  3
ObjectDBX Classes
 90
        0
280
     0
281
     0
  0
CLASS
  1
ACDBPLACEHOLDER
  2
AcDbPlaceHolder
  3
ObjectDBX Classes
 90
        0
280
     0
281
     0
  0
CLASS
  1
LAYOUT
  2
AcDbLayout
  3
ObjectDBX Classes
 90
        0
280
     0
281
     0
  0
CLASS
  1
DIMASSOC
  2
AcDbDimAssoc
  3
"AcDbDimAssoc|Product Desc:     AcDim ARX App For Dimension|Company:          Autodesk, Inc.|WEB Address:      www.autodesk.com"
 90
        0
280
     0
281
     0
  0
CLASS
  1
MATERIAL
  2
AcDbMaterial
  3
ObjectDBX Classes
 90
        0
280
     0
281
     0
  0
CLASS
  1
VISUALSTYLE
  2
AcDbVisualStyle
  3
ObjectDBX Classes
 90
     4095
280
     0
281
     0
  0
ENDSEC
  0
SECTION
  2
TABLES
  0
TABLE
  2
VPORT
  5
177
330
0
100
AcDbSymbolTable
 70
    18
  0
VPORT
  5
B1F
330
177
100
AcDbSymbolTableRecord
100
AcDbViewportTableRecord
  2
*Active
 70
     0
 10
0.0
 20
0.0
 11
1.0
 21
1.0
 12
0.2115368247654402
 22
0.1493650277697879
 13
0.0
 23
0.0
 14
10.0
 24
10.0
 15
10.0
 25
10.0
 16
0.0
 26
0.0
 36
1.0
 17
0.0
 27
0.0
 37
0.0
 40
0.2766773375142848
 41
1.546526867627784
 42
50.0
 43
0.0
 44
0.0
 50
0.0
 51
0.0
 71
     0
 72
  1000
 73
     1
 74
     3
 75
     0
 76
     0
 77
     0
 78
     0
281
     0
 65
     1
110
0.0
120
0.0
130
0.0
111
1.0
121
0.0
131
0.0
112
0.0
122
1.0
132
0.0
 79
     0
146
0.0
  0
ENDTAB
  0
TABLE
  2
LTYPE
  5
172
330
0
100
AcDbSymbolTable
 70
     3
  0
LTYPE
  5
173
330
172
100
AcDbSymbolTableRecord
100
AcDbLinetypeTableRecord
  2
ByBlock
 70
     0
  3

 72
    65
 73
     0
 40
0.0
  0
LTYPE
  5
174
330
172
100
AcDbSymbolTableRecord
100
AcDbLinetypeTableRecord
  2
ByLayer
 70
     0
  3

 72
    65
 73
     0
 40
0.0
  0
LTYPE
  5
C
330
172
100
AcDbSymbolTableRecord
100
AcDbLinetypeTableRecord
  2
Continuous
 70
     0
  3
Solid line
 72
    65
 73
     0
 40
0.0
  0
LTYPE
  5
14E
330
172
100
AcDbSymbolTableRecord
100
AcDbLinetypeTableRecord
  2
ACAD_ISO10W100
 70
     0
  3
ISO dash dot __ . __ . __ . __ . __ . __ . __ .
 72
    65
 73
     4
 40
18.0
 49
12.0
 74
     0
 49
-3.0
 74
     0
 49
0.0
 74
     0
 49
-3.0
 74
     0
  0
ENDTAB
  0
TABLE
  2
LAYER
  5
16D
102
{ACAD_XDICTIONARY
360
16E
102
}
330
0
100
AcDbSymbolTable
 70
     7
  0
LAYER
  5
6
330
16D
100
AcDbSymbolTableRecord
100
AcDbLayerTableRecord
  2
0
 70
     0
 62
     7
  6
Continuous
370
    -3
390
7
  0
LAYER
  5
15F
330
16D
100
AcDbSymbolTableRecord
100
AcDbLayerTableRecord
  2
Defpoints
 70
     0
 62
     7
  6
Continuous
290
     0
370
    -3
390
7
  0
LAYER
  5
28
330
16D
100
AcDbSymbolTableRecord
100
AcDbLayerTableRecord
  2
Profilo
 70
     0
 62
     1
  6
Continuous
370
    -3
390
7
1001
AcAecLayerStandard
1000

1000

  0
LAYER
  5
14D
330
16D
100
AcDbSymbolTableRecord
100
AcDbLayerTableRecord
  2
Sezione
 70
     0
 62
     2
  6
Continuous
370
    -3
390
7
1001
AcAecLayerStandard
1000

1000

  0
LAYER
  5
E
330
16D
100
AcDbSymbolTableRecord
100
AcDbLayerTableRecord
  2
Table
 70
     0
 62
     3
  6
Continuous
370
    -3
390
7
1001
AcAecLayerStandard
1000

1000

  0
LAYER
  5
19
330
16D
100
AcDbSymbolTableRecord
100
AcDbLayerTableRecord
  2
Text
 70
     0
 62
     4
  6
Continuous
370
    -3
390
7
1001
AcAecLayerStandard
1000

1000

  0
LAYER
  5
23D
330
16D
100
AcDbSymbolTableRecord
100
AcDbLayerTableRecord
  2
Bovelacci
 70
     0
 62
     9
  6
Continuous
370
    -3
390
7
1001
AcAecLayerStandard
1000

1000

  0
ENDTAB
  0
TABLE
  2
STYLE
  5
170
330
0
100
AcDbSymbolTable
 70
     3
  0
STYLE
  5
1A
330
170
100
AcDbSymbolTableRecord
100
AcDbTextStyleTableRecord
  2
Standard
 70
     0
 40
0.0
 41
1.0
 50
0.0
 71
     0
 42
2.5
  3
txt
  4

  0
STYLE
  5
20
330
170
100
AcDbSymbolTableRecord
100
AcDbTextStyleTableRecord
  2
ROMANS
 70
     0
 40
0.0
 41
1.0
 50
0.0
 71
     0
 42
2.5
  3
romans
  4

  0
STYLE
  5
26
330
170
100
AcDbSymbolTableRecord
100
AcDbTextStyleTableRecord
  2
style1
 70
     0
 40
0.0
 41
1.0
 50
0.0
 71
     0
 42
0.008
  3
TIMES.TTF
  4

1001
ACAD
1000
Times New Roman
1071
       18
  0
ENDTAB
  0
TABLE
  2
VIEW
  5
175
330
0
100
AcDbSymbolTable
 70
     6
  0
ENDTAB
  0
TABLE
  2
UCS
  5
176
330
0
100
AcDbSymbolTable
 70
     0
  0
ENDTAB
  0
TABLE
  2
APPID
  5
17B
330
0
100
AcDbSymbolTable
 70
    10
  0
APPID
  5
1B
330
17B
100
AcDbSymbolTableRecord
100
AcDbRegAppTableRecord
  2
ACAD
 70
     0
  0
APPID
  5
157
330
17B
100
AcDbSymbolTableRecord
100
AcDbRegAppTableRecord
  2
ACAD_DSTYLE_DIMJOGGED_JOGANGLE_SYMBOL
 70
     0
  0
APPID
  5
F
330
17B
100
AcDbSymbolTableRecord
100
AcDbRegAppTableRecord
  2
AcAecLayerStandard
 70
     0
  0
APPID
  5
19C
330
17B
100
AcDbSymbolTableRecord
100
AcDbRegAppTableRecord
  2
ACAD_DSTYLE_DIMFLIPARROW_WHICH_SYMBOL
 70
     0
  0
APPID
  5
1A7
330
17B
100
AcDbSymbolTableRecord
100
AcDbRegAppTableRecord
  2
ACAD_DSTYLE_DIMEXT_LENGTH
 70
     0
  0
APPID
  5
1D2
330
17B
100
AcDbSymbolTableRecord
100
AcDbRegAppTableRecord
  2
ACAD_EXEMPT_FROM_CAD_STANDARDS
 70
     0
  0
APPID
  5
1D3
330
17B
100
AcDbSymbolTableRecord
100
AcDbRegAppTableRecord
  2
ACAD_DSTYLE_DIM_LINETYPE
 70
     0
  0
APPID
  5
1D4
330
17B
100
AcDbSymbolTableRecord
100
AcDbRegAppTableRecord
  2
ACAD_DSTYLE_DIM_EXT1_LINETYPE
 70
     0
  0
APPID
  5
1D5
330
17B
100
AcDbSymbolTableRecord
100
AcDbRegAppTableRecord
  2
ACAD_DSTYLE_DIM_EXT2_LINETYPE
 70
     0
  0
APPID
  5
243
330
17B
100
AcDbSymbolTableRecord
100
AcDbRegAppTableRecord
  2
ACAD_PSEXT
 70
     0
  0
ENDTAB
  0
TABLE
  2
DIMSTYLE
  5
17C
330
0
100
AcDbSymbolTable
 70
     8
100
AcDbDimStyleTable
 71
     2
340
156
340
17D
  0
DIMSTYLE
105
17D
330
17C
100
AcDbSymbolTableRecord
100
AcDbDimStyleTableRecord
  2
ISO-25
 70
     0
 41
2.5
 42
0.625
 43
3.75
 44
1.25
 73
     0
 74
     0
 77
     1
 78
     8
140
2.5
141
2.5
143
0.03937007874016
147
0.625
171
     3
172
     1
271
     2
272
     2
274
     3
278
    44
283
     0
284
     8
340
1A
  0
DIMSTYLE
105
156
102
{ACAD_REACTORS
330
AFE
102
}
330
17C
100
AcDbSymbolTableRecord
100
AcDbDimStyleTableRecord
  2
Bovelacci
 70
     0
 40
0.001
 41
1.5
140
3.0
141
0.0
147
2.0
176
     5
177
     5
178
     4
271
     2
272
     2
279
     2
340
20
342
152
1001
ACAD_DSTYLE_DIMJOGGED_JOGANGLE_SYMBOL
1070
   384
1040
0.7853981633974483
1001
ACAD_DSTYLE_DIMEXT_LENGTH
1070
   378
1040
0.18
  0
DIMSTYLE
105
23E
330
17C
100
AcDbSymbolTableRecord
100
AcDbDimStyleTableRecord
  2
Dim 1-100
 70
     0
 40
0.1
 41
1.5
 42
0.0
 43
5.0
 44
1.25
 45
0.005
 46
1.25
 73
     0
 74
     0
 77
     1
 78
     9
140
2.0
141
2.5
147
1.0
172
     1
174
     1
179
     2
279
     2
289
     2
340
20
342
152
  0
DIMSTYLE
105
23F
330
17C
100
AcDbSymbolTableRecord
100
AcDbDimStyleTableRecord
  2
Standard
 70
     0
 42
0.0
 73
     0
 74
     0
 77
     1
271
     2
272
     2
340
20
  0
DIMSTYLE
105
240
330
17C
100
AcDbSymbolTableRecord
100
AcDbDimStyleTableRecord
  2
Dim 1-50
 70
     0
 40
0.05
 41
1.5
 42
0.0
 43
5.0
 44
1.25
 45
0.005
 46
1.25
 73
     0
 74
     0
 77
     1
 78
     9
140
2.0
141
2.5
147
1.0
172
     1
174
     1
179
     2
279
     2
289
     2
340
20
342
152
  0
DIMSTYLE
105
241
330
17C
100
AcDbSymbolTableRecord
100
AcDbDimStyleTableRecord
  2
Dim 1-200
 70
     0
 40
0.2
 41
1.5
 42
0.0
 43
5.0
 44
1.25
 45
0.005
 46
1.25
 73
     0
 74
     0
 77
     1
 78
     9
140
2.0
141
2.5
147
1.0
172
     1
174
     1
179
     2
271
     2
272
     2
279
     2
289
     2
340
20
342
152
  0
DIMSTYLE
105
242
330
17C
100
AcDbSymbolTableRecord
100
AcDbDimStyleTableRecord
  2
AEC Scale - Italiano
 70
     0
 41
1.0
 42
10.0
 43
10.0
 44
10.0
 73
     0
 74
     0
 75
     1
 76
     1
 77
     1
140
10.0
141
1.0
147
10.0
173
     1
271
     0
272
     0
279
     2
340
1A
343
238
344
232
  0
ENDTAB
  0
TABLE
  2
BLOCK_RECORD
  5
1
330
0
100
AcDbSymbolTable
 70
    24
  0
BLOCK_RECORD
  5
2
102
{ACAD_XDICTIONARY
360
3
102
}
330
1
100
AcDbSymbolTableRecord
100
AcDbBlockTableRecord
  2
*Model_Space
340
163
  0
BLOCK_RECORD
  5
165
330
1
100
AcDbSymbolTableRecord
100
AcDbBlockTableRecord
  2
*Paper_Space
340
168
  0
BLOCK_RECORD
  5
169
330
1
100
AcDbSymbolTableRecord
100
AcDbBlockTableRecord
  2
*Paper_Space0
340
16C
  0
BLOCK_RECORD
  5
152
330
1
100
AcDbSymbolTableRecord
100
AcDbBlockTableRecord
  2
_ArchTick
340
0
310
2800000020000000200000000100080000000000000400000000000000000000000000000000000000000000000080000080000000808000800000008000800080800000C0C0C000C0DCC000F0CAA6000020400000206000002080000020A0000020C0000020E00000400000004020000040400000406000004080000040A0
310
000040C0000040E00000600000006020000060400000606000006080000060A0000060C0000060E00000800000008020000080400000806000008080000080A0000080C0000080E00000A0000000A0200000A0400000A0600000A0800000A0A00000A0C00000A0E00000C0000000C0200000C0400000C0600000C0800000C0
310
A00000C0C00000C0E00000E0000000E0200000E0400000E0600000E0800000E0A00000E0C00000E0E00040000000400020004000400040006000400080004000A0004000C0004000E00040200000402020004020400040206000402080004020A0004020C0004020E000404000004040200040404000404060004040800040
310
40A0004040C0004040E00040600000406020004060400040606000406080004060A0004060C0004060E00040800000408020004080400040806000408080004080A0004080C0004080E00040A0000040A0200040A0400040A0600040A0800040A0A00040A0C00040A0E00040C0000040C0200040C0400040C0600040C08000
310
40C0A00040C0C00040C0E00040E0000040E0200040E0400040E0600040E0800040E0A00040E0C00040E0E00080000000800020008000400080006000800080008000A0008000C0008000E00080200000802020008020400080206000802080008020A0008020C0008020E00080400000804020008040400080406000804080
310
008040A0008040C0008040E00080600000806020008060400080606000806080008060A0008060C0008060E00080800000808020008080400080806000808080008080A0008080C0008080E00080A0000080A0200080A0400080A0600080A0800080A0A00080A0C00080A0E00080C0000080C0200080C0400080C0600080C0
310
800080C0A00080C0C00080C0E00080E0000080E0200080E0400080E0600080E0800080E0A00080E0C00080E0E000C0000000C0002000C0004000C0006000C0008000C000A000C000C000C000E000C0200000C0202000C0204000C0206000C0208000C020A000C020C000C020E000C0400000C0402000C0404000C0406000C0
310
408000C040A000C040C000C040E000C0600000C0602000C0604000C0606000C0608000C060A000C060C000C060E000C0800000C0802000C0804000C0806000C0808000C080A000C080C000C080E000C0A00000C0A02000C0A04000C0A06000C0A08000C0A0A000C0A0C000C0A0E000C0C00000C0C02000C0C04000C0C06000
310
C0C08000C0C0A000F0FBFF00A4A0A000808080000000FF0000FF000000FFFF00FF000000FF00FF00FFFF0000FFFFFF00000000FF000000000000000000000000000000000000000000000000000000000000FF00FF00000000000000000000000000000000000000000000000000000000FF000000FF000000000000000000
310
0000000000000000000000000000000000FF0000000000FF0000000000000000000000000000000000000000000000000000FF0000000000FF0000000000000000000000000000000000000000000000000000FF0000000000FF0000000000000000000000000000000000000000000000000000FF0000000000FF00000000
310
00000000000000000000000000000000000000000000FF0000000000FF0000000000000000000000000000000000000000000000000000FF0000000000FF0000000000000000000000000000000000000000000000000000FF0000000000FF0000000000000000000000000000000000000000000000000000FF0000000000
310
FF0000000000000000000000000000000000000000000000000000FF0000000000FF0000000000000000000000000000000000000000000000000000FF0000000000FF0000000000000000000000000000000000000000000000000000FF0000000000FF0000000000000000000000000000000000000000000000000000FF
310
0000000000FF0000000000000000000000000000000000000000000000000000FF0000000000FF0000000000000000000000000000000000000000000000000000FF0000000000FF0000000000000000000000000000000000000000000000000000FF0000000000FF00000000000000000000000000000000000000000000
310
00000000FF0000000000FF0000000000000000000000000000000000000000000000000000FF0000000000FF0000000000000000000000000000000000000000000000000000FF0000000000FF0000000000000000000000000000000000000000000000000000FF0000000000FF0000000000000000000000000000000000
310
000000000000000000FF0000000000FF0000000000000000000000000000000000000000000000000000FF0000000000FF0000000000000000000000000000000000000000000000000000FF0000000000FF0000000000000000000000000000000000000000000000000000FF0000000000FF000000000000000000000000
310
0000000000000000000000000000FF0000000000FF0000000000000000000000000000000000000000000000000000FF0000000000FF0000000000000000000000000000000000000000000000000000FF0000000000FF0000000000000000000000000000000000000000000000000000FF000000FF000000000000000000
310
00000000000000000000000000000000000000FF00FF000000000000000000000000000000000000000000000000000000000000FF000000
102
{BLKREFS
331
211
331
260
331
261
331
280
331
2D7
331
2D8
331
2F1
331
2F2
331
4FE
331
53F
331
5CC
331
7CE
331
8C4
331
B19
102
}
  0
BLOCK_RECORD
  5
232
330
1
100
AcDbSymbolTableRecord
100
AcDbBlockTableRecord
  2
_Arrivo
340
0
310
2800000020000000200000000100080000000000000400000000000000000000000000000000000000000000000080000080000000808000800000008000800080800000C0C0C000C0DCC000F0CAA6000020400000206000002080000020A0000020C0000020E00000400000004020000040400000406000004080000040A0
310
000040C0000040E00000600000006020000060400000606000006080000060A0000060C0000060E00000800000008020000080400000806000008080000080A0000080C0000080E00000A0000000A0200000A0400000A0600000A0800000A0A00000A0C00000A0E00000C0000000C0200000C0400000C0600000C0800000C0
310
A00000C0C00000C0E00000E0000000E0200000E0400000E0600000E0800000E0A00000E0C00000E0E00040000000400020004000400040006000400080004000A0004000C0004000E00040200000402020004020400040206000402080004020A0004020C0004020E000404000004040200040404000404060004040800040
310
40A0004040C0004040E00040600000406020004060400040606000406080004060A0004060C0004060E00040800000408020004080400040806000408080004080A0004080C0004080E00040A0000040A0200040A0400040A0600040A0800040A0A00040A0C00040A0E00040C0000040C0200040C0400040C0600040C08000
310
40C0A00040C0C00040C0E00040E0000040E0200040E0400040E0600040E0800040E0A00040E0C00040E0E00080000000800020008000400080006000800080008000A0008000C0008000E00080200000802020008020400080206000802080008020A0008020C0008020E00080400000804020008040400080406000804080
310
008040A0008040C0008040E00080600000806020008060400080606000806080008060A0008060C0008060E00080800000808020008080400080806000808080008080A0008080C0008080E00080A0000080A0200080A0400080A0600080A0800080A0A00080A0C00080A0E00080C0000080C0200080C0400080C0600080C0
310
800080C0A00080C0C00080C0E00080E0000080E0200080E0400080E0600080E0800080E0A00080E0C00080E0E000C0000000C0002000C0004000C0006000C0008000C000A000C000C000C000E000C0200000C0202000C0204000C0206000C0208000C020A000C020C000C020E000C0400000C0402000C0404000C0406000C0
310
408000C040A000C040C000C040E000C0600000C0602000C0604000C0606000C0608000C060A000C060C000C060E000C0800000C0802000C0804000C0806000C0808000C080A000C080C000C080E000C0A00000C0A02000C0A04000C0A06000C0A08000C0A0A000C0A0C000C0A0E000C0C00000C0C02000C0C04000C0C06000
310
C0C08000C0C0A000F0FBFF00A4A0A000808080000000FF0000FF000000FFFF00FF000000FF00FF00FFFF0000FFFFFF00000000000000000000000000000000000000000000000000000000000000000000000000000000000000FF0000000000000000000000000000000000000000000000000000000000000000FF000000
310
00000000000000000000000000000000000000000000000000000000FF0000000000000000000000000000000000000000000000000000000000000000FF00000000000000000000000000000000000000000000000000000000000000FF0000000000000000000000000000000000000000000000000000000000000000FF
310
0000000000000000000000000000000000000000000000000000000000000000FF00000000000000000000000000000000000000000000000000000000000000FF0000000000000000000000000000000000000000000000000000000000000000FF0000000000000000000000000000000000000000000000000000000000
310
0000FF0000000000000000000000000000000000000000000000000000000000000000FF00000000000000000000000000000000000000000000000000000000000000FF0000000000000000000000000000000000000000000000000000000000000000FF0000FF0000000000000000000000000000000000000000000000
310
000000000000FFFF000000000000000000000000000000000000000000000000000000000000FFFF00000000000000000000000000000000000000000000000000000000FFFFFFFFFFFF00000000000000000000000000000000000000000000000000000000FFFF0000000000000000000000000000000000000000000000
310
000000000000FF0000FF000000000000000000000000000000000000000000000000000000FF00000000000000000000000000000000000000000000000000000000000000FF000000000000000000000000000000000000000000000000000000000000FF0000000000000000000000000000000000000000000000000000
310
0000000000FF000000000000000000000000000000000000000000000000000000000000FF00000000000000000000000000000000000000000000000000000000000000FF000000000000000000000000000000000000000000000000000000000000FF000000000000000000000000000000000000000000000000000000
310
000000FF00000000000000000000000000000000000000000000000000000000000000FF000000000000000000000000000000000000000000000000000000000000FF00000000000000000000000000000000000000000000000000000000000000FF00000000000000000000000000000000000000000000000000000000
310
0000FF0000000000000000000000000000000000000000000000000000000000000000000000000000000000000000000000000000000000
  0
BLOCK_RECORD
  5
238
330
1
100
AcDbSymbolTableRecord
100
AcDbBlockTableRecord
  2
_Partenza
340
0
310
2800000020000000200000000100080000000000000400000000000000000000000000000000000000000000000080000080000000808000800000008000800080800000C0C0C000C0DCC000F0CAA6000020400000206000002080000020A0000020C0000020E00000400000004020000040400000406000004080000040A0
310
000040C0000040E00000600000006020000060400000606000006080000060A0000060C0000060E00000800000008020000080400000806000008080000080A0000080C0000080E00000A0000000A0200000A0400000A0600000A0800000A0A00000A0C00000A0E00000C0000000C0200000C0400000C0600000C0800000C0
310
A00000C0C00000C0E00000E0000000E0200000E0400000E0600000E0800000E0A00000E0C00000E0E00040000000400020004000400040006000400080004000A0004000C0004000E00040200000402020004020400040206000402080004020A0004020C0004020E000404000004040200040404000404060004040800040
310
40A0004040C0004040E00040600000406020004060400040606000406080004060A0004060C0004060E00040800000408020004080400040806000408080004080A0004080C0004080E00040A0000040A0200040A0400040A0600040A0800040A0A00040A0C00040A0E00040C0000040C0200040C0400040C0600040C08000
310
40C0A00040C0C00040C0E00040E0000040E0200040E0400040E0600040E0800040E0A00040E0C00040E0E00080000000800020008000400080006000800080008000A0008000C0008000E00080200000802020008020400080206000802080008020A0008020C0008020E00080400000804020008040400080406000804080
310
008040A0008040C0008040E00080600000806020008060400080606000806080008060A0008060C0008060E00080800000808020008080400080806000808080008080A0008080C0008080E00080A0000080A0200080A0400080A0600080A0800080A0A00080A0C00080A0E00080C0000080C0200080C0400080C0600080C0
310
800080C0A00080C0C00080C0E00080E0000080E0200080E0400080E0600080E0800080E0A00080E0C00080E0E000C0000000C0002000C0004000C0006000C0008000C000A000C000C000C000E000C0200000C0202000C0204000C0206000C0208000C020A000C020C000C020E000C0400000C0402000C0404000C0406000C0
310
408000C040A000C040C000C040E000C0600000C0602000C0604000C0606000C0608000C060A000C060C000C060E000C0800000C0802000C0804000C0806000C0808000C080A000C080C000C080E000C0A00000C0A02000C0A04000C0A06000C0A08000C0A0A000C0A0C000C0A0E000C0C00000C0C02000C0C04000C0C06000
310
C0C08000C0C0A000F0FBFF00A4A0A000808080000000FF0000FF000000FFFF00FF000000FF00FF00FFFF0000FFFFFF0000000000000000000000000000000000000000000000000000000000000000000000000000000000000000000000000000000000000000000000000000000000000000000000000000000000000000
310
000000000000000000000000000000000000000000000000000000000000000000000000000000000000000000000000000000000000000000000000000000000000000000000000000000000000000000000000000000000000000000000000000000000000000000000000000000000000FFFFFFFFFFFFFFFFFFFFFFFFFF
310
FFFFFFFFFFFFFFFFFFFFFFFFFFFFFFFFFF0000000000000000000000000000000000000000000000000000000000000000000000000000000000000000000000000000000000000000000000000000000000000000000000000000000000000000000000000000000000000000000000000000000000000000000000000000
310
00000000000000000000000000000000000000000000000000000000000000000000000000000000000000000000000000000000000000000000000000000000000000000000000000000000000000000000000000000000000000000000000000000000000000000000000000000000000000000000000000000000000000
310
00000000000000000000000000000000000000000000000000000000000000000000000000000000000000000000000000000000000000000000000000000000000000000000000000000000000000000000000000000000000000000000000000000000000000000000000000000000000000000000000000000000000000
310
00000000000000000000000000000000000000000000000000000000000000000000000000000000000000000000000000000000000000000000000000000000000000000000000000000000000000000000000000000000000000000000000000000000000000000000000000000000000000000000000000000000000000
310
000000000000000000000000000000000000000000000000000000000000000000000000000000000000000000000000000000000000000000000000000000000000000000000000000000000000000000000000000000FFFFFFFFFFFFFFFFFFFFFFFFFFFFFFFFFFFFFFFFFFFFFFFFFFFFFFFFFFFF00000000000000000000
310
00000000000000000000000000000000000000000000000000000000000000000000000000000000000000000000000000000000000000000000000000000000000000000000000000000000000000000000000000000000000000000000000000000000000000000000000000000000000000000000000000000000000000
310
0000000000000000000000000000000000000000000000000000000000000000000000000000000000000000000000000000000000000000
  0
BLOCK_RECORD
  5
266
330
1
100
AcDbSymbolTableRecord
100
AcDbBlockTableRecord
  2
*D6
340
0
  0
BLOCK_RECORD
  5
2C5
330
1
100
AcDbSymbolTableRecord
100
AcDbBlockTableRecord
  2
*D8
340
0
  0
BLOCK_RECORD
  5
2DF
330
1
100
AcDbSymbolTableRecord
100
AcDbBlockTableRecord
  2
*D9
340
0
  0
BLOCK_RECORD
  5
4E4
330
1
100
AcDbSymbolTableRecord
100
AcDbBlockTableRecord
  2
*D11
340
0
  0
BLOCK_RECORD
  5
525
330
1
100
AcDbSymbolTableRecord
100
AcDbBlockTableRecord
  2
*D13
340
0
  0
BLOCK_RECORD
  5
5B2
330
1
100
AcDbSymbolTableRecord
100
AcDbBlockTableRecord
  2
*D17
340
0
  0
BLOCK_RECORD
  5
7B4
330
1
100
AcDbSymbolTableRecord
100
AcDbBlockTableRecord
  2
*D19
340
0
  0
BLOCK_RECORD
  5
8AA
330
1
100
AcDbSymbolTableRecord
100
AcDbBlockTableRecord
  2
*D21
340
0
  0
BLOCK_RECORD
  5
AFF
330
1
100
AcDbSymbolTableRecord
100
AcDbBlockTableRecord
  2
*D23
340
0
  0
ENDTAB
  0
ENDSEC
  0
SECTION
  2
BLOCKS
  0
BLOCK
  5
5
330
2
100
AcDbEntity
  8
0
100
AcDbBlockBegin
  2
*Model_Space
 70
     0
 10
0.0
 20
0.0
 30
0.0
  3
*Model_Space
  1

  0
ENDBLK
  5
162
330
2
100
AcDbEntity
  8
0
100
AcDbBlockEnd
  0
BLOCK
  5
166
330
165
100
AcDbEntity
 67
     1
  8
0
100
AcDbBlockBegin
  2
*Paper_Space
 70
     0
 10
0.0
 20
0.0
 30
0.0
  3
*Paper_Space
  1

  0
ENDBLK
  5
167
330
165
100
AcDbEntity
 67
     1
  8
0
100
AcDbBlockEnd
  0
BLOCK
  5
16A
330
169
100
AcDbEntity
 67
     1
  8
0
100
AcDbBlockBegin
  2
*Paper_Space0
 70
     0
 10
0.0
 20
0.0
 30
0.0
  3
*Paper_Space0
  1

  0
ENDBLK
  5
16B
330
169
100
AcDbEntity
 67
     1
  8
0
100
AcDbBlockEnd
  0
BLOCK
  5
153
330
152
100
AcDbEntity
  8
0
 62
     1
100
AcDbBlockBegin
  2
_ArchTick
 70
     0
 10
0.0
 20
0.0
 30
0.0
  3
_ArchTick
  1

  0
LWPOLYLINE
  5
154
330
152
100
AcDbEntity
  8
0
  6
ByBlock
 62
     0
100
AcDbPolyline
 90
        2
 70
     0
 43
0.15
 10
-0.5
 20
-0.5
 10
0.5
 20
0.5
  0
ENDBLK
  5
155
330
152
100
AcDbEntity
  8
0
 62
     1
100
AcDbBlockEnd
  0
BLOCK
  5
233
330
232
100
AcDbEntity
  8
0
100
AcDbBlockBegin
  2
_Arrivo
 70
     0
 10
0.0
 20
0.0
 30
0.0
  3
_Arrivo
  1

  0
LINE
  5
234
330
232
100
AcDbEntity
  8
0
  6
ByBlock
 62
     0
370
    -2
100
AcDbLine
 10
0.025
 20
-0.0433012701891858
 30
0.0
 11
-0.15
 21
0.2598076211353328
 31
0.0
  0
LINE
  5
235
330
232
100
AcDbEntity
  8
0
  6
ByBlock
 62
     0
370
    -2
100
AcDbLine
 10
0.025
 20
0.0433012701892585
 30
0.0
 11
-0.15
 21
-0.2598076211353328
 31
0.0
  0
LINE
  5
236
330
232
100
AcDbEntity
  8
0
  6
ByBlock
 62
     0
370
    -2
100
AcDbLine
 10
-0.05
 20
0.0
 30
0.0
 11
0.05
 21
0.0
 31
0.0
  0
ENDBLK
  5
237
330
232
100
AcDbEntity
  8
0
100
AcDbBlockEnd
  0
BLOCK
  5
239
330
238
100
AcDbEntity
  8
0
100
AcDbBlockBegin
  2
_Partenza
 70
     0
 10
0.0
 20
0.0
 30
0.0
  3
_Partenza
  1

  0
LINE
  5
23A
330
238
100
AcDbEntity
  8
0
  6
ByBlock
 62
     0
370
    -2
100
AcDbLine
 10
-0.05
 20
0.05
 30
0.0
 11
0.1
 21
0.05
 31
0.0
  0
LINE
  5
23B
330
238
100
AcDbEntity
  8
0
  6
ByBlock
 62
     0
370
    -2
100
AcDbLine
 10
-0.05
 20
-0.05
 30
0.0
 11
0.1
 21
-0.05
 31
0.0
  0
ENDBLK
  5
23C
330
238
100
AcDbEntity
  8
0
100
AcDbBlockEnd
  0
BLOCK
  5
26D
330
266
100
AcDbEntity
  8
0
100
AcDbBlockBegin
  2
*D6
 70
     1
 10
0.0
 20
0.0
 30
0.0
  3
*D6
  1

  0
LINE
  5
27D
330
266
100
AcDbEntity
  8
Text
  6
ACAD_ISO10W100
 62
     5
370
    -2
100
AcDbLine
 10
0.265324276937575
 20
0.1924574125485932
 30
0.0
 11
0.263824276937575
 21
0.1924574125485932
 31
0.0
  0
LINE
  5
27E
330
266
100
AcDbEntity
  8
Text
  6
ACAD_ISO10W100
 62
     5
370
    -2
100
AcDbLine
 10
0.263824276937575
 20
0.1924574125485932
 30
0.0
 11
0.2613215374025681
 21
0.1908032375820575
 31
0.0
  0
MTEXT
  5
27F
330
266
100
AcDbEntity
  8
Text
  6
ACAD_ISO10W100
 62
     4
100
AcDbMText
 10
0.2797528483661464
 20
0.1924574125485932
 30
0.0
 40
0.003
 41
0.0
 71
     5
 72
     1
  1
\A1;d 120 mm
  7
ROMANS
 73
     1
 44
1.0
1001
ACAD
1000
MTEXTBEGIN
1070
    73
1070
     1
1070
    44
1040
1.0
1070
    74
1070
     0
1000
MTEXTEND
  0
INSERT
  5
280
330
266
100
AcDbEntity
  8
Text
  6
ACAD_ISO10W100
 62
     5
370
    -2
100
AcDbBlockReference
  2
_ArchTick
 10
0.2613215374025681
 20
0.1908032375820575
 30
0.0
 41
0.0015
 42
0.0015
 43
0.0015
 50
213.4625388295094
  0
POINT
  5
281
330
266
100
AcDbEntity
  8
Defpoints
  6
ACAD_ISO10W100
 62
     0
100
AcDbPoint
 10
0.2613215374025681
 20
0.1908032375820575
 30
0.0
  0
POINT
  5
282
330
266
100
AcDbEntity
  8
Defpoints
  6
ACAD_ISO10W100
 62
     0
100
AcDbPoint
 10
0.1612119560022933
 20
0.1246362389206268
 30
0.0
  0
ENDBLK
  5
26E
330
266
100
AcDbEntity
  8
0
100
AcDbBlockEnd
  0
BLOCK
  5
2D0
330
2C5
100
AcDbEntity
  8
0
100
AcDbBlockBegin
  2
*D8
 70
     1
 10
0.0
 20
0.0
 30
0.0
  3
*D8
  1

  0
LINE
  5
2D3
330
2C5
100
AcDbEntity
  8
Text
  6
ACAD_ISO10W100
 62
     5
370
    -2
100
AcDbLine
 10
0.1650797227868191
 20
0.124595709950333
 30
0.0
 11
0.1650797227868191
 21
0.1060944378993535
 31
0.0
  0
LINE
  5
2D4
330
2C5
100
AcDbEntity
  8
Text
  6
ACAD_ISO10W100
 62
     5
370
    -2
100
AcDbLine
 10
0.2550797227868189
 20
0.124595709950333
 30
0.0
 11
0.2550797227868189
 21
0.1060944378993535
 31
0.0
  0
LINE
  5
2D5
330
2C5
100
AcDbEntity
  8
Text
  6
ACAD_ISO10W100
 62
     5
370
    -2
100
AcDbLine
 10
0.1650797227868191
 20
0.1062744378993535
 30
0.0
 11
0.1999368656439618
 21
0.1062744378993535
 31
0.0
  0
LINE
  5
2D6
330
2C5
100
AcDbEntity
  8
Text
  6
ACAD_ISO10W100
 62
     5
370
    -2
100
AcDbLine
 10
0.2550797227868189
 20
0.1062744378993535
 30
0.0
 11
0.2202225799296761
 21
0.1062744378993535
 31
0.0
  0
INSERT
  5
2D7
330
2C5
100
AcDbEntity
  8
Text
  6
ACAD_ISO10W100
 62
     5
370
    -2
100
AcDbBlockReference
  2
_ArchTick
 10
0.1650797227868191
 20
0.1062744378993535
 30
0.0
 41
0.0015
 42
0.0015
 43
0.0015
 50
180.0
  0
INSERT
  5
2D8
330
2C5
100
AcDbEntity
  8
Text
  6
ACAD_ISO10W100
 62
     5
370
    -2
100
AcDbBlockReference
  2
_ArchTick
 10
0.2550797227868189
 20
0.1062744378993535
 30
0.0
 41
0.0015
 42
0.0015
 43
0.0015
  0
MTEXT
  5
2D9
330
2C5
100
AcDbEntity
  8
Text
  6
ACAD_ISO10W100
 62
     4
100
AcDbMText
 10
0.210079722786819
 20
0.1062744378993535
 30
0.0
 40
0.003
 41
0.0
 71
     5
 72
     1
  1
\A1;90 mm
  7
ROMANS
 73
     1
 44
1.0
1001
ACAD
1000
MTEXTBEGIN
1070
    73
1070
     1
1070
    44
1040
1.0
1070
    74
1070
     0
1000
MTEXTEND
  0
POINT
  5
2DA
330
2C5
100
AcDbEntity
  8
Defpoints
  6
ACAD_ISO10W100
 62
     0
100
AcDbPoint
 10
0.1650797227868191
 20
0.124658209950333
 30
0.0
  0
POINT
  5
2DB
330
2C5
100
AcDbEntity
  8
Defpoints
  6
ACAD_ISO10W100
 62
     0
100
AcDbPoint
 10
0.2550797227868189
 20
0.124658209950333
 30
0.0
  0
POINT
  5
2DC
330
2C5
100
AcDbEntity
  8
Defpoints
  6
ACAD_ISO10W100
 62
     0
100
AcDbPoint
 10
0.2550797227868189
 20
0.1062744378993535
 30
0.0
  0
ENDBLK
  5
2D1
330
2C5
100
AcDbEntity
  8
0
100
AcDbBlockEnd
  0
BLOCK
  5
2EA
330
2DF
100
AcDbEntity
  8
0
100
AcDbBlockBegin
  2
*D9
 70
     1
 10
0.0
 20
0.0
 30
0.0
  3
*D9
  1

  0
LINE
  5
2ED
330
2DF
100
AcDbEntity
  8
Text
  6
ACAD_ISO10W100
 62
     5
370
    -2
100
AcDbLine
 10
0.2518566651931464
 20
0.1197979324732989
 30
0.0
 11
0.2714595524708644
 21
0.1197979324732989
 31
0.0
  0
LINE
  5
2EE
330
2DF
100
AcDbEntity
  8
Text
  6
ACAD_ISO10W100
 62
     5
370
    -2
100
AcDbLine
 10
0.2518566651931464
 20
0.2098859792004421
 30
0.0
 11
0.2714595524708645
 21
0.2098859792004421
 31
0.0
  0
LINE
  5
2EF
330
2DF
100
AcDbEntity
  8
Text
  6
ACAD_ISO10W100
 62
     5
370
    -2
100
AcDbLine
 10
0.2712795524708644
 20
0.1197979324732989
 30
0.0
 11
0.2712795524708644
 21
0.1613419558368705
 31
0.0
  0
LINE
  5
2F0
330
2DF
100
AcDbEntity
  8
Text
  6
ACAD_ISO10W100
 62
     5
370
    -2
100
AcDbLine
 10
0.2712795524708644
 20
0.2098859792004421
 30
0.0
 11
0.2712795524708644
 21
0.1683419558368705
 31
0.0
  0
INSERT
  5
2F1
330
2DF
100
AcDbEntity
  8
Text
  6
ACAD_ISO10W100
 62
     5
370
    -2
100
AcDbBlockReference
  2
_ArchTick
 10
0.2712795524708644
 20
0.1197979324732989
 30
0.0
 41
0.0015
 42
0.0015
 43
0.0015
 50
270.0
  0
INSERT
  5
2F2
330
2DF
100
AcDbEntity
  8
Text
  6
ACAD_ISO10W100
 62
     5
370
    -2
100
AcDbBlockReference
  2
_ArchTick
 10
0.2712795524708644
 20
0.2098859792004421
 30
0.0
 41
0.0015
 42
0.0015
 43
0.0015
 50
90.0
  0
MTEXT
  5
2F3
330
2DF
100
AcDbEntity
  8
Text
  6
ACAD_ISO10W100
 62
     4
100
AcDbMText
 10
0.2712795524708644
 20
0.1648419558368706
 30
0.0
 40
0.003
 41
0.0
 71
     5
 72
     1
  1
\A1;90 mm
  7
ROMANS
 73
     1
 44
1.0
1001
ACAD
1000
MTEXTBEGIN
1070
    73
1070
     1
1070
    44
1040
1.0
1070
    74
1070
     0
1000
MTEXTEND
  0
POINT
  5
2F4
330
2DF
100
AcDbEntity
  8
Defpoints
  6
ACAD_ISO10W100
 62
     0
100
AcDbPoint
 10
0.2517941651931463
 20
0.1197979324732989
 30
0.0
  0
POINT
  5
2F5
330
2DF
100
AcDbEntity
  8
Defpoints
  6
ACAD_ISO10W100
 62
     0
100
AcDbPoint
 10
0.2517941651931463
 20
0.2098859792004421
 30
0.0
  0
POINT
  5
2F6
330
2DF
100
AcDbEntity
  8
Defpoints
  6
ACAD_ISO10W100
 62
     0
100
AcDbPoint
 10
0.2712795524708644
 20
0.2098859792004421
 30
0.0
  0
ENDBLK
  5
2EB
330
2DF
100
AcDbEntity
  8
0
100
AcDbBlockEnd
  0
BLOCK
  5
4EB
330
4E4
100
AcDbEntity
  8
0
100
AcDbBlockBegin
  2
*D11
 70
     1
 10
0.0
 20
0.0
 30
0.0
  3
*D11
  1

  0
LINE
  5
4FB
330
4E4
100
AcDbEntity
  8
Text
  6
ACAD_ISO10W100
 62
     5
370
    -2
100
AcDbLine
 10
0.2719438839007483
 20
0.1970560400174176
 30
0.0
 11
0.2704438839007483
 21
0.1970560400174176
 31
0.0
  0
LINE
  5
4FC
330
4E4
100
AcDbEntity
  8
Text
  6
ACAD_ISO10W100
 62
     5
370
    -2
100
AcDbLine
 10
0.2704438839007483
 20
0.1970560400174176
 30
0.0
 11
0.2679040154966245
 21
0.1954594597689697
 31
0.0
  0
MTEXT
  5
4FD
330
4E4
100
AcDbEntity
  8
Text
  6
ACAD_ISO10W100
 62
     4
100
AcDbMText
 10
0.2863724553293197
 20
0.1970560400174176
 30
0.0
 40
0.003
 41
0.0
 71
     5
 72
     1
  1
\A1;d 280 mm
  7
ROMANS
 73
     1
 44
1.0
1001
ACAD
1000
MTEXTBEGIN
1070
    73
1070
     1
1070
    44
1040
1.0
1070
    74
1070
     0
1000
MTEXTEND
  0
INSERT
  5
4FE
330
4E4
100
AcDbEntity
  8
Text
  6
ACAD_ISO10W100
 62
     5
370
    -2
100
AcDbBlockReference
  2
_ArchTick
 10
0.2679040154966245
 20
0.1954594597689697
 30
0.0
 41
0.0015
 42
0.0015
 43
0.0015
 50
212.1537752595364
  0
POINT
  5
4FF
330
4E4
100
AcDbEntity
  8
Defpoints
  6
ACAD_ISO10W100
 62
     0
100
AcDbPoint
 10
0.2679040154966245
 20
0.1954594597689697
 30
0.0
  0
POINT
  5
500
330
4E4
100
AcDbEntity
  8
Defpoints
  6
ACAD_ISO10W100
 62
     0
100
AcDbPoint
 10
0.1493768233041824
 20
0.1209523815080696
 30
0.0
  0
ENDBLK
  5
4EC
330
4E4
100
AcDbEntity
  8
0
100
AcDbBlockEnd
  0
BLOCK
  5
52C
330
525
100
AcDbEntity
  8
0
100
AcDbBlockBegin
  2
*D13
 70
     1
 10
0.0
 20
0.0
 30
0.0
  3
*D13
  1

  0
LINE
  5
53C
330
525
100
AcDbEntity
  8
Text
  6
ACAD_ISO10W100
 62
     5
370
    -2
100
AcDbLine
 10
0.2758442994853839
 20
0.2102749962840716
 30
0.0
 11
0.2743442994853838
 21
0.2102749962840716
 31
0.0
  0
LINE
  5
53D
330
525
100
AcDbEntity
  8
Text
  6
ACAD_ISO10W100
 62
     5
370
    -2
100
AcDbLine
 10
0.2743442994853838
 20
0.2102749962840716
 30
0.0
 11
0.2720543541117148
 21
0.2083369172904256
 31
0.0
  0
MTEXT
  5
53E
330
525
100
AcDbEntity
  8
Text
  6
ACAD_ISO10W100
 62
     4
100
AcDbMText
 10
0.2902728709139553
 20
0.2102749962840716
 30
0.0
 40
0.003
 41
0.0
 71
     5
 72
     1
  1
\A1;d 340 mm
  7
ROMANS
 73
     1
 44
1.0
1001
ACAD
1000
MTEXTBEGIN
1070
    73
1070
     1
1070
    44
1040
1.0
1070
    74
1070
     0
1000
MTEXTEND
  0
INSERT
  5
53F
330
525
100
AcDbEntity
  8
Text
  6
ACAD_ISO10W100
 62
     5
370
    -2
100
AcDbBlockReference
  2
_ArchTick
 10
0.2720543541117148
 20
0.2083369172904256
 30
0.0
 41
0.0015
 42
0.0015
 43
0.0015
 50
220.242669939943
  0
POINT
  5
540
330
525
100
AcDbEntity
  8
Defpoints
  6
ACAD_ISO10W100
 62
     0
100
AcDbPoint
 10
0.2720543541117148
 20
0.2083369172904256
 30
0.0
  0
POINT
  5
541
330
525
100
AcDbEntity
  8
Defpoints
  6
ACAD_ISO10W100
 62
     0
100
AcDbPoint
 10
0.1422907829371338
 20
0.0985124409838235
 30
0.0
  0
ENDBLK
  5
52D
330
525
100
AcDbEntity
  8
0
100
AcDbBlockEnd
  0
BLOCK
  5
5B9
330
5B2
100
AcDbEntity
  8
0
100
AcDbBlockBegin
  2
*D17
 70
     1
 10
0.0
 20
0.0
 30
0.0
  3
*D17
  1

  0
LINE
  5
5C9
330
5B2
100
AcDbEntity
  8
Text
  6
ACAD_ISO10W100
 62
     5
370
    -2
100
AcDbLine
 10
0.2339841855771125
 20
0.1851322658533807
 30
0.0
 11
0.2324841855771125
 21
0.1851322658533806
 31
0.0
  0
LINE
  5
5CA
330
5B2
100
AcDbEntity
  8
Text
  6
ACAD_ISO10W100
 62
     5
370
    -2
100
AcDbLine
 10
0.2324841855771125
 20
0.1851322658533806
 30
0.0
 11
0.2304491104323
 21
0.1829280723149256
 31
0.0
  0
MTEXT
  5
5CB
330
5B2
100
AcDbEntity
  8
Text
  6
ACAD_ISO10W100
 62
     4
100
AcDbMText
 10
0.2469841855771125
 20
0.1851322658533807
 30
0.0
 40
0.003
 41
0.0
 71
     5
 72
     1
  1
\A1;d 65 mm
  7
ROMANS
 73
     1
 44
1.0
1001
ACAD
1000
MTEXTBEGIN
1070
    73
1070
     1
1070
    44
1040
1.0
1070
    74
1070
     0
1000
MTEXTEND
  0
INSERT
  5
5CC
330
5B2
100
AcDbEntity
  8
Text
  6
ACAD_ISO10W100
 62
     5
370
    -2
100
AcDbBlockReference
  2
_ArchTick
 10
0.2304491104323
 20
0.1829280723149256
 30
0.0
 41
0.0015
 42
0.0015
 43
0.0015
 50
227.2845060028153
  0
POINT
  5
5CD
330
5B2
100
AcDbEntity
  8
Defpoints
  6
ACAD_ISO10W100
 62
     0
100
AcDbPoint
 10
0.2304491104323
 20
0.1829280723149256
 30
0.0
  0
POINT
  5
5CE
330
5B2
100
AcDbEntity
  8
Defpoints
  6
ACAD_ISO10W100
 62
     0
100
AcDbPoint
 10
0.1863558156280306
 20
0.1351705456484012
 30
0.0
  0
ENDBLK
  5
5BA
330
5B2
100
AcDbEntity
  8
0
100
AcDbBlockEnd
  0
BLOCK
  5
7BB
330
7B4
100
AcDbEntity
  8
0
100
AcDbBlockBegin
  2
*D19
 70
     1
 10
0.0
 20
0.0
 30
0.0
  3
*D19
  1

  0
LINE
  5
7CB
330
7B4
100
AcDbEntity
  8
Text
  6
ACAD_ISO10W100
 62
     5
370
    -2
100
AcDbLine
 10
0.2503141389346617
 20
0.1968373266487671
 30
0.0
 11
0.2488141389346617
 21
0.1968373266487671
 31
0.0
  0
LINE
  5
7CC
330
7B4
100
AcDbEntity
  8
Text
  6
ACAD_ISO10W100
 62
     5
370
    -2
100
AcDbLine
 10
0.2488141389346617
 20
0.1968373266487671
 30
0.0
 11
0.2466074539163463
 21
0.1948049533489173
 31
0.0
  0
MTEXT
  5
7CD
330
7B4
100
AcDbEntity
  8
Text
  6
ACAD_ISO10W100
 62
     4
100
AcDbMText
 10
0.2647427103632332
 20
0.1968373266487671
 30
0.0
 40
0.003
 41
0.0
 71
     5
 72
     1
  1
\A1;d 410 mm
  7
ROMANS
 73
     1
 44
1.0
1001
ACAD
1000
MTEXTBEGIN
1070
    73
1070
     1
1070
    44
1040
1.0
1070
    74
1070
     0
1000
MTEXTEND
  0
INSERT
  5
7CE
330
7B4
100
AcDbEntity
  8
Text
  6
ACAD_ISO10W100
 62
     5
370
    -2
100
AcDbBlockReference
  2
_ArchTick
 10
0.2466074539163463
 20
0.1948049533489173
 30
0.0
 41
0.0015
 42
0.0015
 43
0.0015
 50
222.645301951812
  0
POINT
  5
7CF
330
7B4
100
AcDbEntity
  8
Defpoints
  6
ACAD_ISO10W100
 62
     0
100
AcDbPoint
 10
0.2466074539163463
 20
0.1948049533489173
 30
0.0
  0
POINT
  5
7D0
330
7B4
100
AcDbEntity
  8
Defpoints
  6
ACAD_ISO10W100
 62
     0
100
AcDbPoint
 10
0.1712123824572375
 20
0.125365532270715
 30
0.0
  0
ENDBLK
  5
7BC
330
7B4
100
AcDbEntity
  8
0
100
AcDbBlockEnd
  0
BLOCK
  5
8B1
330
8AA
100
AcDbEntity
  8
0
100
AcDbBlockBegin
  2
*D21
 70
     1
 10
0.0
 20
0.0
 30
0.0
  3
*D21
  1

  0
LINE
  5
8C1
330
8AA
100
AcDbEntity
  8
Text
  6
ACAD_ISO10W100
 62
     5
370
    -2
100
AcDbLine
 10
0.2670886538023653
 20
0.1873887291946126
 30
0.0
 11
0.2655886538023653
 21
0.1873887291946126
 31
0.0
  0
LINE
  5
8C2
330
8AA
100
AcDbEntity
  8
Text
  6
ACAD_ISO10W100
 62
     5
370
    -2
100
AcDbLine
 10
0.2655886538023653
 20
0.1873887291946126
 30
0.0
 11
0.2629287825497108
 21
0.1860012548996068
 31
0.0
  0
MTEXT
  5
8C3
330
8AA
100
AcDbEntity
  8
Text
  6
ACAD_ISO10W100
 62
     4
100
AcDbMText
 10
0.2815172252309368
 20
0.1873887291946126
 30
0.0
 40
0.003
 41
0.0
 71
     5
 72
     1
  1
\A1;d 240 mm
  7
ROMANS
 73
     1
 44
1.0
1001
ACAD
1000
MTEXTBEGIN
1070
    73
1070
     1
1070
    44
1040
1.0
1070
    74
1070
     0
1000
MTEXTEND
  0
INSERT
  5
8C4
330
8AA
100
AcDbEntity
  8
Text
  6
ACAD_ISO10W100
 62
     5
370
    -2
100
AcDbBlockReference
  2
_ArchTick
 10
0.2629287825497108
 20
0.1860012548996068
 30
0.0
 41
0.0015
 42
0.0015
 43
0.0015
 50
207.5479922517093
  0
POINT
  5
8C5
330
8AA
100
AcDbEntity
  8
Defpoints
  6
ACAD_ISO10W100
 62
     0
100
AcDbPoint
 10
0.2629287825497108
 20
0.1860012548996068
 30
0.0
  0
POINT
  5
8C6
330
8AA
100
AcDbEntity
  8
Defpoints
  6
ACAD_ISO10W100
 62
     0
100
AcDbPoint
 10
0.1565339324435281
 20
0.1305022830993751
 30
0.0
  0
ENDBLK
  5
8B2
330
8AA
100
AcDbEntity
  8
0
100
AcDbBlockEnd
  0
BLOCK
  5
B06
330
AFF
100
AcDbEntity
  8
0
100
AcDbBlockBegin
  2
*D23
 70
     1
 10
0.0
 20
0.0
 30
0.0
  3
*D23
  1

  0
LINE
  5
B16
330
AFF
100
AcDbEntity
  8
Text
  6
ACAD_ISO10W100
 62
     5
370
    -2
100
AcDbLine
 10
0.2757534227613952
 20
0.2105884491495304
 30
0.0
 11
0.2742534227613952
 21
0.2105884491495304
 31
0.0
  0
LINE
  5
B17
330
AFF
100
AcDbEntity
  8
Text
  6
ACAD_ISO10W100
 62
     5
370
    -2
100
AcDbLine
 10
0.2742534227613952
 20
0.2105884491495304
 30
0.0
 11
0.2719270795989987
 21
0.2086942138181179
 31
0.0
  0
MTEXT
  5
B18
330
AFF
100
AcDbEntity
  8
Text
  6
ACAD_ISO10W100
 62
     4
100
AcDbMText
 10
0.2901819941899666
 20
0.2105884491495304
 30
0.0
 40
0.003
 41
0.0
 71
     5
 72
     1
  1
\A1;d 330 mm
  7
ROMANS
 73
     1
 44
1.0
1001
ACAD
1000
MTEXTBEGIN
1070
    73
1070
     1
1070
    44
1040
1.0
1070
    74
1070
     0
1000
MTEXTEND
  0
INSERT
  5
B19
330
AFF
100
AcDbEntity
  8
Text
  6
ACAD_ISO10W100
 62
     5
370
    -2
100
AcDbBlockReference
  2
_ArchTick
 10
0.2719270795989987
 20
0.2086942138181179
 30
0.0
 41
0.0015
 42
0.0015
 43
0.0015
 50
219.1543578658701
  0
POINT
  5
B1A
330
AFF
100
AcDbEntity
  8
Defpoints
  6
ACAD_ISO10W100
 62
     0
100
AcDbPoint
 10
0.2719270795989987
 20
0.2086942138181179
 30
0.0
  0
POINT
  5
B1B
330
AFF
100
AcDbEntity
  8
Defpoints
  6
ACAD_ISO10W100
 62
     0
100
AcDbPoint
 10
0.1439782056671902
 20
0.1045112705904369
 30
0.0
  0
ENDBLK
  5
B07
330
AFF
100
AcDbEntity
  8
0
100
AcDbBlockEnd
  0
ENDSEC
  0
SECTION
  2
ENTITIES
  0
LINE
  5
D
330
2
100
AcDbEntity
  8
Table
100
AcDbLine
 10
0.02
 20
0.02
 30
0.0
 11
0.4
 21
0.02
 31
0.0
  0
LINE
  5
10
330
2
100
AcDbEntity
  8
Table
100
AcDbLine
 10
0.4
 20
0.02
 30
0.0
 11
0.4
 21
0.2769999999999999
 31
0.0
  0
LINE
  5
11
330
2
100
AcDbEntity
  8
Table
100
AcDbLine
 10
0.4
 20
0.2769999999999999
 30
0.0
 11
0.02
 21
0.277
 31
0.0
  0
LINE
  5
12
330
2
100
AcDbEntity
  8
Table
100
AcDbLine
 10
0.02
 20
0.277
 30
0.0
 11
0.02
 21
0.02
 31
0.0
  0
LINE
  5
13
330
2
100
AcDbEntity
  8
Table
 62
     2
100
AcDbLine
 10
0.015
 20
0.015
 30
0.0
 11
0.4050000000000001
 21
0.015
 31
0.0
  0
LINE
  5
14
330
2
100
AcDbEntity
  8
Table
 62
     2
100
AcDbLine
 10
0.4050000000000001
 20
0.015
 30
0.0
 11
0.4050000000000001
 21
0.2819999999999998
 31
0.0
  0
LINE
  5
15
330
2
100
AcDbEntity
  8
Table
 62
     2
100
AcDbLine
 10
0.4050000000000001
 20
0.2819999999999998
 30
0.0
 11
0.0149999999999999
 21
0.282
 31
0.0
  0
LINE
  5
16
330
2
100
AcDbEntity
  8
Table
 62
     2
100
AcDbLine
 10
0.0149999999999999
 20
0.282
 30
0.0
 11
0.015
 21
0.015
 31
0.0
  0
LINE
  5
17
330
2
100
AcDbEntity
  8
Table
100
AcDbLine
 10
0.21
 20
0.2769999999999999
 30
0.0
 11
0.21
 21
0.2532994226089223
 31
0.0
  0
MTEXT
  5
18
102
{ACAD_XDICTIONARY
360
B22
102
}
330
2
100
AcDbEntity
  8
Text
100
AcDbMText
 10
0.305
 20
0.0471738284815141
 30
0.0
 40
0.005
 41
0.1900000000000001
 71
     2
 72
     5
  3
{\fTimes New Roman|b0|i0|c238|p18;\H1.6x;\C4;Bovelacci\P\H0.4375x;\T0.95;via del Commercio, 5  47100 Forli - Italy  \fTimes New Roman|b0|i0|c0|p18;\P\fTimes New Roman|b0|i0|c238|p18;tel.+39-0543721386  fax +39-0543721127\fTimes New Roman|b0|i0|c0|p18
  1
; \fTimes New Roman|b0|i0|c238|p18;www.bovelacci.it\fTimes New Roman|b0|i0|c0|p18; \fTimes New Roman|b0|i0|c238|p18;e-mail: bovelacci@bovelacci\fTimes New Roman|b0|i0|c0|p18;.it}
 73
     1
 44
1.0
1001
ACAD
1000
ACAD_MTEXT_DEFINED_HEIGHT_BEGIN
1070
    46
1040
0.0271738284815141
1000
ACAD_MTEXT_DEFINED_HEIGHT_END
1000
MTEXTBEGIN
1070
    73
1070
     1
1070
    44
1040
1.0
1070
    74
1070
     0
1000
MTEXTEND
  0
MTEXT
  5
1C
330
2
100
AcDbEntity
  8
Text
100
AcDbMText
 10
0.0219676065851835
 20
0.0500313976452307
 30
0.0
 40
0.002
 41
0.1863544980601608
 71
     1
 72
     5
  3
{\fArial|b0|i0|c0|p34;\H1.25x;Le caratteristiche tecniche indicate vengono fornite a titolo indicativo e potranno essere modificate senza preavviso. Non devono quindi essere considerate a scopo di specifica.\P\fArial|b0|i1|c0|p34;The given values are
  3
 indicative and can be changed without notice. They cannot be considered like a state.\PThis lealfet and designs embodied within are protected by copyright law and international treaties. Unauthorized repro- duction of the leaflet or any portion of i
  1
t or reproduction of any of the designs embodied therein may result in severe civil penalties and will be prosecuted to the maximum.\PAll right reserved, Bovelacci Forlì Italy.}
 73
     1
 44
1.0
1001
ACAD
1000
MTEXTBEGIN
1070
    73
1070
     1
1070
    44
1040
1.0
1070
    74
1070
     0
1000
MTEXTEND
  0
LINE
  5
1D
330
2
100
AcDbEntity
  8
Table
100
AcDbLine
 10
0.02
 20
0.0528099428524846
 30
0.0
 11
0.4
 21
0.0528099428524846
 31
0.0
  0
MTEXT
  5
1E
330
2
100
AcDbEntity
  8
Text
100
AcDbMText
 10
0.1133313047219695
 20
0.2610796890771976
 30
0.0
 40
0.003
 41
0.1103605678262056
 71
     2
 72
     5
  1
{\fTimes New Roman|b0|i0|c0|p18;Rosoni\fTimes New Roman|b0|i1|c0|p18;   Ceiling centres}
 73
     1
 44
1.0
1001
ACAD
1000
ACAD_MTEXT_DEFINED_HEIGHT_BEGIN
1070
    46
1040
0.0141952763113409
1000
ACAD_MTEXT_DEFINED_HEIGHT_END
1000
MTEXTBEGIN
1070
    73
1070
     1
1070
    44
1040
1.0
1070
    74
1070
     0
1000
MTEXTEND
  0
TEXT
  5
1F
330
2
100
AcDbEntity
  8
Text
100
AcDbText
 10
0.2180556919891047
 20
0.269976982173197
 30
0.0
 40
0.003
  1
Rosone - Ceiling centre : D 330 mm
  7
ROMANS
100
AcDbText
  0
TEXT
  5
21
330
2
100
AcDbEntity
  8
Text
100
AcDbText
 10
0.2184542410678115
 20
0.2576348370183962
 30
0.0
 40
0.003
  1
File : E - C22
  7
ROMANS
100
AcDbText
  0
LINE
  5
22
330
2
100
AcDbEntity
  8
Table
100
AcDbLine
 10
0.4
 20
0.2654452889427402
 30
0.0
 11
0.02
 21
0.2654452889427403
 31
0.0
  0
LINE
  5
23
330
2
100
AcDbEntity
  8
Table
100
AcDbLine
 10
0.4
 20
0.2532994226089223
 30
0.0
 11
0.02
 21
0.2532994226089225
 31
0.0
  0
LINE
  5
24
330
2
100
AcDbEntity
  8
Table
100
AcDbLine
 10
0.21
 20
0.0528099428524846
 30
0.0
 11
0.21
 21
0.02
 31
0.0
  0
TEXT
  5
25
330
2
100
AcDbEntity
  8
Text
100
AcDbText
 10
0.0947789320547719
 20
0.2687784133392506
 30
0.0
 40
0.005
  1
EUROSTYL
  7
style1
 72
     1
 11
0.1140561490699125
 21
0.2687784133392506
 31
0.0
100
AcDbText
  0
TEXT
  5
252
330
2
100
AcDbEntity
  8
Text
  6
ACAD_ISO10W100
100
AcDbText
 10
0.2786637657798531
 20
0.0732139671827777
 30
0.0
 40
0.005
  1
scala 1 : 2
  7
style1
100
AcDbText
  0
CIRCLE
  5
9EC
330
2
100
AcDbEntity
  8
Profilo
  6
Continuous
370
     0
100
AcDbCircle
 10
0.2079526426330944
 20
0.1566027422042775
 30
0.0
 40
0.0763486156499341
  0
CIRCLE
  5
9ED
330
2
100
AcDbEntity
  8
Profilo
  6
Continuous
370
     0
100
AcDbCircle
 10
0.2079526426330944
 20
0.1566027422042775
 30
0.0
 40
0.0238602332750588
  0
CIRCLE
  5
9EE
330
2
100
AcDbEntity
  8
Profilo
  6
Continuous
370
     0
100
AcDbCircle
 10
0.2079526426330944
 20
0.1566027422042775
 30
0.0
 40
0.0070513536774276
  0
CIRCLE
  5
9EF
102
{ACAD_REACTORS
330
B0F
102
}
330
2
100
AcDbEntity
  8
Profilo
  6
Continuous
370
     0
100
AcDbCircle
 10
0.2079526426330944
 20
0.1566027422042775
 30
0.0
 40
0.0825
  0
ARC
  5
9F0
330
2
100
AcDbEntity
  8
Profilo
  6
Continuous
370
     0
100
AcDbCircle
 10
0.2079526426330944
 20
0.1566027422042775
 30
0.0
 40
0.0678073452200905
100
AcDbArc
 50
81.83208803047374
 51
131.7951861975291
  0
ARC
  5
9F1
330
2
100
AcDbEntity
  8
Profilo
  6
Continuous
370
     0
100
AcDbCircle
 10
0.2079526426330944
 20
0.1566027422042775
 30
0.0
 40
0.0645562835032212
100
AcDbArc
 50
78.40309819399076
 51
135.7465864957574
  0
LWPOLYLINE
  5
9F2
330
2
100
AcDbEntity
  8
Profilo
  6
Continuous
370
     0
100
AcDbPolyline
 90
       16
 70
   128
 43
0.0
 10
0.1732165920138109
 20
0.2106624658954125
 10
0.17728148573284
 20
0.2093447568395636
 10
0.1807970647167729
 20
0.2072583830851306
 10
0.1847520946673726
 20
0.204073920616167
 10
0.1871690565022832
 20
0.2019875468617349
 10
0.1882676777583634
 20
0.2011090732916982
 10
0.1914536695440607
 20
0.2023169734760936
 10
0.1935410482877917
 20
0.2028660204317715
 10
0.1968369038419202
 20
0.2038543028732608
 10
0.1998031763048691
 20
0.2044033472305266
 10
0.2004623465942843
 20
0.2046229649734327
 10
0.2007919337925199
 20
0.2083564743980743
 10
0.2017806912801707
 20
0.2126390281799808
 10
0.2032088956274287
 20
0.2167019668173932
 10
0.2043075168835089
 20
0.2194471938005446
 10
0.2051864106027286
 20
0.2209845205992997
  0
LWPOLYLINE
  5
9F3
330
2
100
AcDbEntity
  8
Profilo
  6
Continuous
370
     0
100
AcDbPolyline
 90
       15
 70
   128
 43
0.0
 10
0.1760730048153847
 20
0.2124194104370746
 10
0.1794787241379443
 20
0.2108820836383196
 10
0.1822252690640327
 20
0.2091251390966575
 10
0.1858507159234528
 20
0.2063799121135061
 10
0.1880479502215011
 20
0.204073920616167
 10
0.1884874011881679
 20
0.2038543028732608
 10
0.1912339461142563
 20
0.2048425827163389
 10
0.1943100823456363
 20
0.205611247414922
 10
0.1969467676103514
 20
0.2061602917721887
 10
0.1980453847593737
 20
0.2062701006436414
 10
0.1983749719576093
 20
0.2098938011968294
 10
0.1988144188172201
 20
0.212858648521299
 10
0.1999130400733002
 20
0.2167019668173932
 10
0.2011215209907555
 20
0.2194471938005446
 10
0.2016708316187956
 20
0.2207649028563936
  0
LWPOLYLINE
  5
9F4
330
2
100
AcDbEntity
  8
Profilo
  6
Continuous
370
     0
100
AcDbPolyline
 90
       22
 70
   128
 43
0.0
 10
0.2020302824735052
 20
0.1820261046228659
 10
0.200043835413759
 20
0.1872441931570922
 10
0.1996641947965068
 20
0.1899628091043079
 10
0.198886708170813
 20
0.1911722307597707
 10
0.2003963809549245
 20
0.1923706345316706
 10
0.1995152293521323
 20
0.1937413125535764
 10
0.198680074987053
 20
0.1946857606942304
 10
0.1984037530113327
 20
0.1956476160808677
 10
0.1974419340254721
 20
0.1969664333252656
 10
0.1976726106034623
 20
0.1980263186415931
 10
0.1990727775972041
 20
0.1990403781395717
 10
0.2002076054216713
 20
0.1985164726966917
 10
0.2007777620931646
 20
0.1976295637741158
 10
0.200927422902867
 20
0.1970420797121472
 10
0.2015555971040759
 20
0.1980156507194403
 10
0.2026907684538863
 20
0.199087253842149
 10
0.2039350917044254
 20
0.198747686010416
 10
0.20513307419191
 20
0.197238839494346
 10
0.2050808940206967
 20
0.1957239579839185
 10
0.2043720544860688
 20
0.1946985306057684
 10
0.203524880473529
 20
0.1933562755276807
 10
0.2040490378576547
 20
0.1928955920797048
  0
LWPOLYLINE
  5
9F5
330
2
100
AcDbEntity
  8
Profilo
  6
Continuous
370
     0
100
AcDbPolyline
 90
       13
 70
   128
 43
0.0
 10
0.2048302763904108
 20
0.18245871727416
 10
0.2028664785394754
 20
0.1858681800636472
 10
0.202400333825191
 20
0.1881893434062926
 10
0.2029540284367095
 20
0.1910521650629557
 10
0.2037782062603317
 20
0.192607535099269
 10
0.2049593734427426
 20
0.1932529105264531
 10
0.2067742037996489
 20
0.1936219467795825
 10
0.2081853487399585
 20
0.1921361859148675
 10
0.2096538192994246
 20
0.1893198878136455
 10
0.210039297275181
 20
0.1869468702858703
 10
0.2090191158291472
 20
0.1848097012205367
 10
0.2078722697623303
 20
0.1830469012589488
 10
0.2077109356407321
 20
0.1829431862963102
  0
LWPOLYLINE
  5
9F6
330
2
100
AcDbEntity
  8
Profilo
  6
Continuous
370
     0
100
AcDbPolyline
 90
       11
 70
   129
 43
0.0
 10
0.2052356974681158
 20
0.1922910595464668
 10
0.2050105098634085
 20
0.1899812640487943
 10
0.2043823356621979
 20
0.1890076930415012
 10
0.2038749901283805
 20
0.1873141523252983
 10
0.2046006435629661
 20
0.1861853599459206
 10
0.2055106273080676
 20
0.1849471675709559
 10
0.2065246278702575
 20
0.1851432296512602
 10
0.2073659645242931
 20
0.1861398863099084
 10
0.2078156443683796
 20
0.1875684579179535
 10
0.2071188244812157
 20
0.1888297337585469
 10
0.2060705028034335
 20
0.1897510962126474
  0
LWPOLYLINE
  5
9F7
330
2
100
AcDbEntity
  8
Profilo
  6
Continuous
370
     0
100
AcDbPolyline
 90
        7
 70
   128
 43
0.0
 10
0.2103677994221145
 20
0.1874998964096614
 10
0.210299155785814
 20
0.1897347476641981
 10
0.20961984656905
 20
0.1920328209488375
 10
0.2081856971251779
 20
0.1937316945156548
 10
0.2070162032546627
 20
0.1937775181130771
 10
0.2055820586706685
 20
0.1954763917150921
 10
0.2052422281422932
 20
0.1958276729465562
  0
LWPOLYLINE
  5
9F8
330
2
100
AcDbEntity
  8
Profilo
  6
Continuous
370
     0
100
AcDbPolyline
 90
        5
 70
   128
 43
0.0
 10
0.2105456004635653
 20
0.1838538808282588
 10
0.2119001234646896
 20
0.186889678843475
 10
0.2120216440426419
 20
0.1893607263009395
 10
0.2116708390224642
 20
0.192211830116022
 10
0.2116076809046832
 20
0.193196768968288
  0
LWPOLYLINE
  5
9F9
330
2
100
AcDbEntity
  8
Profilo
  6
Continuous
370
     0
100
AcDbPolyline
 90
       11
 70
   128
 43
0.0
 10
0.2160666600301817
 20
0.1926447927287262
 10
0.2147547313894695
 20
0.2000057331755065
 10
0.2132979355470117
 20
0.2035132281156086
 10
0.2112994702449176
 20
0.2064446112453662
 10
0.2099518283528448
 20
0.2085409396376776
 10
0.2106548305289668
 20
0.2092207685963871
 10
0.2119798246173414
 20
0.2089330637630877
 10
0.2131318078174584
 20
0.2078504427216177
 10
0.2143816234960476
 20
0.2062609669294626
 10
0.2150554451446411
 20
0.2052128016404437
 10
0.215596768268711
 20
0.204193409256653
  0
LWPOLYLINE
  5
9FA
330
2
100
AcDbEntity
  8
Profilo
  6
Continuous
370
     0
100
AcDbPolyline
 90
       10
 70
   128
 43
0.0
 10
0.2098999951617384
 20
0.2086215689137627
 10
0.208748008506856
 20
0.2097041877343079
 10
0.2070485164389457
 20
0.2098650941393409
 10
0.2054815228955573
 20
0.2099972276391457
 10
0.2046978519312526
 20
0.2092655400886553
 10
0.2051238367663282
 20
0.2077162050467014
 10
0.2047088284727097
 20
0.206765721911688
 10
0.2046566483014964
 20
0.2052508404012596
 10
0.2051231399958895
 20
0.2045251878451277
 10
0.2057451298584874
 20
0.2035576496464668
  0
LWPOLYLINE
  5
9FB
330
2
100
AcDbEntity
  8
Profilo
  6
Continuous
370
     0
100
AcDbPolyline
 90
       15
 70
   128
 43
0.0
 10
0.2134671184131904
 20
0.1867575431579431
 10
0.2142401563613796
 20
0.1915845574509895
 10
0.2137451795047842
 20
0.1937732351466938
 10
0.2131231910472988
 20
0.1947407711596276
 10
0.2124030251808819
 20
0.1946196555433847
 10
0.2119996916042717
 20
0.1943603692472524
 10
0.2117693634115008
 20
0.1948959925317121
 10
0.2122190398008219
 20
0.1963245619188342
 10
0.2123000569742239
 20
0.1979719291114023
 10
0.2115802394930282
 20
0.1994463220959468
 10
0.210664416339768
 20
0.200338911644819
 10
0.2093507506328351
 20
0.1997223091228641
 10
0.2086649072871265
 20
0.1984837667864893
 10
0.2089412313124996
 20
0.197521915806504
 10
0.2109915284005877
 20
0.1945099055863885
  0
LWPOLYLINE
  5
9FC
330
2
100
AcDbEntity
  8
Profilo
  6
Continuous
370
     0
100
AcDbPolyline
 90
       10
 70
   128
 43
0.0
 10
0.2112232501342395
 20
0.2003563167050752
 10
0.2100599371475682
 20
0.2023432472875268
 10
0.2091211178053904
 20
0.2034489517946247
 10
0.2077961257666687
 20
0.2037366610345761
 10
0.2061714616736698
 20
0.2036038253910263
 10
0.2053129627344554
 20
0.2031658798891187
 10
0.2043449580048695
 20
0.2025435901132897
 10
0.2044771115989374
 20
0.200919310828199
 10
0.2052027650335231
 20
0.1997905184488213
 10
0.2057499220613317
 20
0.1991167222635463
  0
LWPOLYLINE
  5
9FD
330
2
100
AcDbEntity
  8
Profilo
  6
Continuous
370
     0
100
AcDbPolyline
 90
        4
 70
   128
 43
0.0
 10
0.2084517399744237
 20
0.1984606810999367
 10
0.2069482529340356
 20
0.1992033843482627
 10
0.2056174249419222
 20
0.1991454929830474
 10
0.2041194254697083
 20
0.1986382882357538
  0
LWPOLYLINE
  5
9FE
330
2
100
AcDbEntity
  8
Profilo
  6
Continuous
370
     0
100
AcDbPolyline
 90
        5
 70
   128
 43
0.0
 10
0.2030617888462136
 20
0.1832589641120185
 10
0.2011385013093627
 20
0.1874921116082526
 10
0.2011103610776144
 20
0.1905506431276866
 10
0.2012088854666509
 20
0.1932348055433767
 10
0.2019355826517839
 20
0.1968925411520863
  0
LWPOLYLINE
  5
9FF
330
2
100
AcDbEntity
  8
Profilo
  6
Continuous
370
     0
100
AcDbPolyline
 90
       46
 70
   129
 43
0.0
 10
0.2124613634600938
 20
0.1827959053288181
 10
0.2141724783054681
 20
0.1867562093090247
 10
0.2150634631997996
 20
0.1898731546526728
 10
0.2162885653759763
 20
0.1941404063890517
 10
0.2183798745730301
 20
0.203091022083377
 10
0.2198979700716781
 20
0.2095398143966451
 10
0.2208467782181871
 20
0.2161782803582936
 10
0.2209416594435436
 20
0.2203510278671587
 10
0.2203723720914046
 20
0.2232909200472499
 10
0.2198030888463216
 20
0.223954767422938
 10
0.2187593994744579
 20
0.2235754253229988
 10
0.2180952350040184
 20
0.2226270726715617
 10
0.2175259476518776
 20
0.2228167437215318
 10
0.2176208288772341
 20
0.224239272698687
 10
0.2187593994744579
 20
0.225946306951592
 10
0.2205621345421176
 20
0.2268946596030292
 10
0.2227443945112051
 20
0.2270843280545871
 10
0.2243573671281536
 20
0.2267998227788381
 10
0.2243573671281536
 20
0.225472130625873
 10
0.2240727275591401
 20
0.2246186122002149
 10
0.2251164169310056
 20
0.226041141177371
 10
0.2258754626267998
 20
0.22613597540315
 10
0.2274884352437483
 20
0.225851470127401
 10
0.2288167682916833
 20
0.224713449024406
 10
0.2292911703114098
 20
0.223480591097219
 10
0.2291962890860533
 20
0.2211097094686267
 10
0.2285321246156138
 20
0.2200665225914106
 10
0.2280577225958873
 20
0.2195923462656916
 10
0.2277730789198178
 20
0.2203510278671587
 10
0.2278679601451743
 20
0.2222477331700339
 10
0.2274884352437483
 20
0.222911580545722
 10
0.2268242707733106
 20
0.222911580545722
 10
0.2259703438521563
 20
0.2219632278942849
 10
0.2249266544802926
 20
0.2207303699670987
 10
0.2240727275591401
 20
0.2196871830898827
 10
0.2234085589816428
 20
0.2181698198869468
 10
0.2233136777562863
 20
0.2157989382583545
 10
0.2221751112661221
 20
0.2103933328223032
 10
0.2211314218942566
 20
0.2058412432134982
 10
0.2195184451702521
 20
0.1976854140489137
 10
0.2182849933476736
 20
0.1900037612100491
 10
0.2180003537786619
 20
0.1832704610226207
 10
0.2178105913279471
 20
0.1808995819924397
 10
0.2168617831814399
 20
0.1810892530424088
 10
0.2142051211926259
 20
0.1820376056938459
 10
0.2124972632432649
 20
0.1824169451953738
  0
LWPOLYLINE
  5
A00
330
2
100
AcDbEntity
  8
Profilo
  6
Continuous
370
     0
100
AcDbPolyline
 90
       25
 70
   128
 43
0.0
 10
0.2109021193597287
 20
0.2093168187187433
 10
0.2100643454928286
 20
0.2106775496743718
 10
0.2100643454928286
 20
0.2118812716130196
 10
0.2105879541596409
 20
0.2124569652789846
 10
0.2112686454264971
 20
0.212404628073854
 10
0.2113210062931796
 20
0.2129279871330997
 10
0.2102214280928725
 20
0.2142363808835976
 10
0.2096978194260601
 20
0.2161204683000605
 10
0.2096978194260601
 20
0.2181615621350903
 10
0.2103785106929163
 20
0.2197316341160049
 10
0.2113210062931796
 20
0.2198886431329847
 10
0.2129441972673551
 20
0.219365284073739
 10
0.2142532189343869
 20
0.2185802467840756
 10
0.2147244667345185
 20
0.217481196657276
 10
0.2150386319346063
 20
0.2182138967418087
 10
0.2157193273085185
 20
0.218894262219623
 10
0.2165047403087379
 20
0.2189465994247536
 10
0.217342514175638
 20
0.2178475466995428
 10
0.2178661228424503
 20
0.216539152949045
 10
0.2182326489092206
 20
0.2146550655325829
 10
0.2181802880425381
 20
0.2132419999702359
 10
0.2181802880425381
 20
0.211828937006301
 10
0.2184944532426258
 20
0.2110962343233571
 10
0.219279870349903
 20
0.2110962343233571
 10
0.2200129224834399
 20
0.2110962343233571
  0
LWPOLYLINE
  5
A01
330
2
100
AcDbEntity
  8
Profilo
  6
Continuous
370
     0
100
AcDbPolyline
 90
        5
 70
   128
 43
0.0
 10
0.2162952968420133
 20
0.2025131717358381
 10
0.214672105867836
 20
0.2093691559238739
 10
0.213677249400892
 20
0.211828937006301
 10
0.2116351756003234
 20
0.2143933873021661
 10
0.210849758493048
 20
0.2152830964036777
  0
LWPOLYLINE
  5
A02
330
2
100
AcDbEntity
  8
Profilo
  6
Continuous
370
     0
100
AcDbPolyline
 90
        6
 70
   128
 43
0.0
 10
0.2166618229087818
 20
0.198744996902914
 10
0.217342514175638
 20
0.2032458718203717
 10
0.2175519576423643
 20
0.2082177685919446
 10
0.2168189055088256
 20
0.2122476216552864
 10
0.2155622447084746
 20
0.2150737527799795
 10
0.2143579406677483
 20
0.2172195184268592
  0
LWPOLYLINE
  5
A03
330
2
100
AcDbEntity
  8
Profilo
  6
Continuous
370
     0
100
AcDbPolyline
 90
       16
 70
   128
 43
0.0
 10
0.1437675232853626
 20
0.1535503017864034
 10
0.1469411396620388
 20
0.1564117484828417
 10
0.150505781827134
 20
0.1584131423147225
 10
0.1552411221979537
 20
0.1602460674901888
 10
0.158256455788536
 20
0.161296030961981
 10
0.1595665468447813
 20
0.1618082280938666
 10
0.1601134704927074
 20
0.1651713280087272
 10
0.1606816712530859
 20
0.1672535745059566
 10
0.1614737213297066
 20
0.1706020103637801
 10
0.1624813711999846
 20
0.1734453998498746
 10
0.1626207618002131
 20
0.1741260669373798
 10
0.1595522413923232
 20
0.1762782525361346
 10
0.1563378197679435
 20
0.1792758185295757
 10
0.1535333138675576
 20
0.1825441490948027
 10
0.1517051881890326
 20
0.1848681965032823
 10
0.1508132709870016
 20
0.1863980041907304
  0
LWPOLYLINE
  5
A04
330
2
100
AcDbEntity
  8
Profilo
  6
Continuous
370
     0
100
AcDbPolyline
 90
       15
 70
   128
 43
0.0
 10
0.1436741710800296
 20
0.1569025001070936
 10
0.1467083948029502
 20
0.1590832761592113
 10
0.1496032258721134
 20
0.1605833815670085
 10
0.1537933856083886
 20
0.1623504971557614
 10
0.156889049975018
 20
0.1631003621272681
 10
0.1572989700028313
 20
0.1633711289566659
 10
0.15781636701572
 20
0.1662438465568327
 10
0.1586887519754456
 20
0.1692921910280014
 10
0.1595316082466049
 20
0.1718501496276609
 10
0.1599858195488779
 20
0.1728564844234754
 10
0.1570123964132279
 20
0.1749537655865034
 10
0.1546644867416984
 20
0.1768167613927729
 10
0.1518853860904934
 20
0.1796898544577243
 10
0.1501121902426559
 20
0.1821090431238041
 10
0.1492456760395151
 20
0.1832436146101801
  0
LWPOLYLINE
  5
A05
330
2
100
AcDbEntity
  8
Profilo
  6
Continuous
370
     0
100
AcDbPolyline
 90
       22
 70
   128
 43
0.0
 10
0.1829741848491833
 20
0.1641855090650063
 10
0.1774619640894746
 20
0.1650742397151074
 10
0.1749177533074264
 20
0.1661047692698658
 10
0.173481620117061
 20
0.1660361569286439
 10
0.173198608398661
 20
0.1679427737970358
 10
0.1715709906098852
 20
0.1678650131353855
 10
0.1703354973449813
 20
0.1676139723094736
 10
0.1693643451575277
 20
0.1678555981521943
 10
0.1677413064279993
 20
0.1676820470987947
 10
0.1669387571079572
 20
0.1684117615335574
 10
0.1667606393186287
 20
0.1701313714686656
 10
0.1677817686535783
 20
0.1708522084721368
 10
0.1688349326471177
 20
0.1709025241724986
 10
0.1694185391739524
 20
0.1707383922046674
 10
0.1688894890498536
 20
0.1717691925245641
 10
0.1685290391977188
 20
0.1732880813125023
 10
0.1694452751915763
 20
0.1741959129421224
 10
0.1713509658486463
 20
0.1744789729515372
 10
0.1726368016347934
 20
0.1736763428424787
 10
0.1731704280266944
 20
0.1725497561092104
 10
0.1739092680164078
 20
0.1711449543538807
 10
0.1745703102775189
 20
0.1713685462401266
  0
LWPOLYLINE
  5
A06
330
2
100
AcDbEntity
  8
Profilo
  6
Continuous
370
     0
100
AcDbPolyline
 90
       13
 70
   128
 43
0.0
 10
0.183999528261618
 20
0.1668266812531356
 10
0.1800649479471965
 20
0.1668307138210729
 10
0.1778216891689888
 20
0.1675876023279845
 10
0.1756192601935749
 20
0.1694985267558304
 10
0.1746843591416529
 20
0.1709899707064788
 10
0.174716031217939
 20
0.1723355792061558
 10
0.1753038516262646
 20
0.1740917865253606
 10
0.1772961307492111
 20
0.1745709934597328
 10
0.1804693517292315
 20
0.1744345772183284
 10
0.1827171841797903
 20
0.1735819021740456
 10
0.1840579361595336
 20
0.1716298145926447
 10
0.1850111426746506
 20
0.1697552167837561
 10
0.185020295406249
 20
0.1695636398546365
  0
LWPOLYLINE
  5
A07
330
2
100
AcDbEntity
  8
Profilo
  6
Continuous
370
     0
100
AcDbPolyline
 90
       11
 70
   129
 43
0.0
 10
0.1756871806139491
 20
0.1720939573418118
 10
0.177574928390126
 20
0.1707440414066812
 10
0.1781039785142249
 20
0.1697132410867845
 10
0.1793169550298903
 20
0.1684270966079002
 10
0.1806573446233242
 20
0.1684911347269069
 10
0.1821846425473663
 20
0.1686601075797136
 10
0.1825218480861985
 20
0.1696362888661728
 10
0.1820793864279762
 20
0.170863236111026
 10
0.1810670470463269
 20
0.1719669560835979
 10
0.1796263401836105
 20
0.171994130279748
 10
0.1783042560533752
 20
0.1715469383025012
  0
LWPOLYLINE
  5
A08
330
2
100
AcDbEntity
  8
Profilo
  6
Continuous
370
     0
100
AcDbPolyline
 90
        7
 70
   128
 43
0.0
 10
0.1824025005810968
 20
0.1741429064403834
 10
0.1804327408028379
 20
0.1752008849348078
 10
0.1781028963502007
 20
0.1757616225383844
 10
0.1759145539615834
 20
0.1753690494705764
 10
0.1752901226268642
 20
0.174379149867851
 10
0.1731017826377035
 20
0.1739865810264205
 10
0.172627648903195
 20
0.1738679197715984
  0
LWPOLYLINE
  5
A09
330
2
100
AcDbEntity
  8
Profilo
  6
Continuous
370
     0
100
AcDbPolyline
 90
        5
 70
   128
 43
0.0
 10
0.18564894321791
 20
0.1724738788683981
 10
0.1836971265165368
 20
0.1751648292049892
 10
0.181617896933393
 20
0.1765055928413121
 10
0.1789733660906152
 20
0.1776273386896041
 10
0.1780888049644891
 20
0.1780651115812834
  0
LWPOLYLINE
  5
A0A
330
2
100
AcDbEntity
  8
Profilo
  6
Continuous
370
     0
100
AcDbPolyline
 90
       11
 70
   128
 43
0.0
 10
0.1807963199729845
 20
0.1816507126591289
 10
0.1737655942299718
 20
0.1841950193517098
 10
0.1699996165869693
 20
0.1846871446140645
 10
0.1664617316773271
 20
0.1844221144587483
 10
0.1639724370888733
 20
0.184303186541165
 10
0.1637351890284635
 20
0.1852519187639569
 10
0.1646468457670811
 20
0.1862555448877043
 10
0.1661604146917228
 20
0.1867118810830024
 10
0.1681618489457244
 20
0.1869995153146324
 10
0.1694064975376759
 20
0.1870589793354242
 10
0.1705599788004997
 20
0.18701808272063
  0
LWPOLYLINE
  5
A0B
330
2
100
AcDbEntity
  8
Profilo
  6
Continuous
370
     0
100
AcDbPolyline
 90
       10
 70
   128
 43
0.0
 10
0.1638766934919418
 20
0.1842986123189498
 10
0.1623631247632944
 20
0.1838422720212737
 10
0.1613740296949477
 20
0.1824509219194498
 10
0.1604761019557324
 20
0.181159932453212
 10
0.1607179264799368
 20
0.1801154097146713
 10
0.1622726824027816
 20
0.1797096558824953
 10
0.1628883207967608
 20
0.178875006589934
 10
0.1641741565829098
 20
0.1780723764808747
 10
0.1650358359780371
 20
0.1781135438608072
 10
0.166184743568508
 20
0.1781684337833842
  0
LWPOLYLINE
  5
A0C
330
2
100
AcDbEntity
  8
Profilo
  6
Continuous
370
     0
100
AcDbPolyline
 90
       15
 70
   128
 43
0.0
 10
0.1845950568512049
 20
0.1764558187952274
 10
0.1808012588230921
 20
0.1795387964429724
 10
0.1786583199096179
 20
0.1802044727587275
 10
0.1775094149145961
 20
0.1801495829601509
 10
0.1772542211818497
 20
0.1794653432167749
 10
0.1772771029128486
 20
0.1789864029451648
 10
0.1766980754452629
 20
0.1790547445212475
 10
0.1756857362596063
 20
0.1801584603914414
 10
0.1742995830081822
 20
0.1810523069180347
 10
0.172662812487808
 20
0.1811661231855041
 10
0.1714318956867022
 20
0.1808192918438424
 10
0.1713090562812867
 20
0.1793733227085803
 10
0.1720387437353943
 20
0.1781600937799932
 10
0.1730098931314044
 20
0.1779184719156501
 10
0.1766435190425271
 20
0.178188076169182
  0
LWPOLYLINE
  5
A0D
330
2
100
AcDbEntity
  8
Profilo
  6
Continuous
370
     0
100
AcDbPolyline
 90
       10
 70
   128
 43
0.0
 10
0.1716962393596018
 20
0.1813119586364764
 10
0.1693938505063071
 20
0.1812979653286928
 10
0.1679668726429928
 20
0.1810377761823516
 10
0.1670552131129299
 20
0.1800341540369818
 10
0.1663579201082723
 20
0.178560735838054
 10
0.1663079425687894
 20
0.1775982811966172
 10
0.1663628589583799
 20
0.1764488196218985
 10
0.1678356028791428
 20
0.1757511283490171
 10
0.1691759924725766
 20
0.1758151664680238
 10
0.1700330955999019
 20
0.1759521202613272
  0
LWPOLYLINE
  5
A0E
330
2
100
AcDbEntity
  8
Profilo
  6
Continuous
370
     0
100
AcDbPolyline
 90
        4
 70
   128
 43
0.0
 10
0.1719521528700612
 20
0.1779639426286592
 10
0.1705572094693442
 20
0.1770332362815865
 10
0.1699419308662233
 20
0.1758517597497415
 10
0.169632183326192
 20
0.1743008517783004
  0
LWPOLYLINE
  5
A0F
330
2
100
AcDbEntity
  8
Profilo
  6
Continuous
370
     0
100
AcDbPolyline
 90
        5
 70
   128
 43
0.0
 10
0.1824222503986346
 20
0.1656952495325145
 10
0.1777945933605047
 20
0.1661462074149366
 10
0.1751317572505262
 20
0.1676511030190908
 10
0.1728564666051722
 20
0.1690785088507342
 10
0.1700521232402701
 20
0.1715367148782731
  0
LWPOLYLINE
  5
A10
330
2
100
AcDbEntity
  8
Profilo
  6
Continuous
370
     0
100
AcDbPolyline
 90
       46
 70
   129
 43
0.0
 10
0.1875230583752718
 20
0.1736039905413009
 10
0.1849488919443929
 20
0.1770660114562914
 10
0.1826950305417516
 20
0.1793960996809951
 10
0.1796120332217925
 20
0.1825906951559859
 10
0.1729062272495221
 20
0.1888771298949643
 10
0.1680804570318259
 20
0.1934162353187987
 10
0.1628057809401349
 20
0.1975571602578169
 10
0.1592395162065565
 20
0.1997257035637507
 10
0.1564088512181407
 20
0.2007026323447909
 10
0.1555493009040174
 20
0.2005415422804444
 10
0.1553559761133578
 20
0.1994480097207795
 10
0.1558451913660304
 20
0.1983986500913696
 10
0.1553962877423225
 20
0.1980004683073484
 10
0.154211782123165
 20
0.1987939023474276
 10
0.1533027323936307
 20
0.2006334505350761
 10
0.15338280243957
 20
0.2026688412256825
 10
0.1543096747267687
 20
0.2046535680223526
 10
0.1553625498315516
 20
0.205908190646364
 10
0.1565123649644247
 20
0.205244344569881
 10
0.1571092138191354
 20
0.2045710802593645
 10
0.1563991122732315
 20
0.2061862062576378
 10
0.1566965062724557
 20
0.2068909762257189
 10
0.1577493813772404
 20
0.2081455988497302
 10
0.1593991030864434
 20
0.2087269584624311
 10
0.1607039903805085
 20
0.208521373699527
 10
0.1627097934875565
 20
0.2072537633337296
 10
0.1632811375889003
 20
0.2061569865914303
 10
0.1634545853229832
 20
0.2055090542278814
 10
0.1626552259446936
 20
0.2056418863741122
 10
0.16106007158159
 20
0.206672408577051
 10
0.1602954004392942
 20
0.2066756540588907
 10
0.1599633182040763
 20
0.2061004707551999
 10
0.1603576522313905
 20
0.2048867720227875
 10
0.1609034938296578
 20
0.2033664815494993
 10
0.1613799567056451
 20
0.2021053657041984
 10
0.1623619474974078
 20
0.2007714972422234
 10
0.1643677506044558
 20
0.199503886876426
 10
0.1684798589898304
 20
0.1958150566540202
 10
0.1719002395454248
 20
0.1926351503399224
 10
0.1781569064288786
 20
0.1871603569389299
 10
0.1841926870190993
 20
0.1822513299068
 10
0.189881576248212
 20
0.1786381747153984
 10
0.191839936492292
 20
0.1772883960973055
 10
0.1912012724714018
 20
0.1765615396640956
 10
0.1890516439891052
 20
0.1747349792182339
 10
0.1878691973694431
 20
0.1734456005987961
  0
LWPOLYLINE
  5
A11
330
2
100
AcDbEntity
  8
Profilo
  6
Continuous
370
     0
100
AcDbPolyline
 90
       25
 70
   128
 43
0.0
 10
0.1637756515978475
 20
0.1855141022346473
 10
0.1621783370891081
 20
0.1854689342610984
 10
0.1611358833111454
 20
0.1860707952304232
 10
0.1608991223050293
 20
0.1868121004705067
 10
0.1612847932876638
 20
0.1873754277971744
 10
0.1608577314803967
 20
0.1876824531675072
 10
0.1591748401541584
 20
0.187384387387842
 10
0.1572813682551453
 20
0.187872972688972
 10
0.1555137291425024
 20
0.1888935196064873
 10
0.1544943525546878
 20
0.1902680515261762
 10
0.154829626557492
 20
0.1911627811674496
 10
0.1560944642851862
 20
0.1923068262566558
 10
0.1574288373544701
 20
0.1930479536295783
 10
0.1586162665843749
 20
0.1929065411325692
 10
0.1581388122978589
 20
0.1935449662190973
 10
0.1578899461971699
 20
0.1944746484440522
 10
0.1582373273480742
 20
0.1951810046572695
 10
0.1596080218616565
 20
0.1953570117460263
 10
0.1610029284211447
 20
0.1951562732778788
 10
0.1628178590201377
 20
0.1945316504546181
 10
0.1640154292610014
 20
0.1937797718327352
 10
0.1652391776849158
 20
0.1930732403507673
 10
0.1660307994218102
 20
0.1929789640535557
 10
0.1664235079754488
 20
0.1936591552210242
 10
0.1667900340422173
 20
0.1942939969909658
  0
LWPOLYLINE
  5
A12
330
2
100
AcDbEntity
  8
Profilo
  6
Continuous
370
     0
100
AcDbPolyline
 90
        5
 70
   128
 43
0.0
 10
0.1723643714645662
 20
0.1867829074499707
 10
0.1656153195026957
 20
0.1888051749251586
 10
0.1629876583640937
 20
0.1891734944928793
 10
0.1597457423608479
 20
0.1886872318531165
 10
0.158582523123322
 20
0.1884518952364042
  0
LWPOLYLINE
  5
A13
330
2
100
AcDbEntity
  8
Profilo
  6
Continuous
370
     0
100
AcDbPolyline
 90
        6
 70
   128
 43
0.0
 10
0.1758109696291652
 20
0.1852162409184789
 10
0.1722534432448186
 20
0.1880561743064403
 10
0.1680523760690051
 20
0.1907235060550678
 10
0.1641958948758639
 20
0.1921035908167962
 10
0.1611200631272784
 20
0.1924283562020998
 10
0.1586596235461504
 20
0.19245828113239
  0
LWPOLYLINE
  5
A14
330
2
100
AcDbEntity
  8
Profilo
  6
Continuous
370
     0
100
AcDbPolyline
 90
       16
 70
   128
 43
0.0
 10
0.1785035739046461
 20
0.0994905780952684
 10
0.1776122965622933
 20
0.1036697338475565
 10
0.1776613597434538
 20
0.1077575014338694
 10
0.1784416701636755
 20
0.1127748890782993
 10
0.179040041919349
 20
0.1159112263045245
 10
0.1792515117195124
 20
0.1173018970064467
 10
0.1766124435817411
 20
0.119457096736911
 10
0.1750932655983886
 20
0.1209902962784634
 10
0.1725894601208808
 20
0.1233504496947968
 10
0.1706308375282082
 20
0.1256447948236254
 10
0.1701110578390232
 20
0.1261058441682245
 10
0.1667129502328977
 20
0.1245245203423385
 10
0.1625097711208672
 20
0.1232395325538715
 10
0.1582770608732216
 20
0.1224449244816878
 10
0.1553503139386181
 20
0.1220237449070151
 10
0.1535795030173674
 20
0.1220162257957082
  0
LWPOLYLINE
  5
A15
330
2
100
AcDbEntity
  8
Profilo
  6
Continuous
370
     0
100
AcDbPolyline
 90
       15
 70
   128
 43
0.0
 10
0.1755538088977393
 20
0.1010858318742964
 10
0.1751823132981003
 20
0.1048039347251701
 10
0.1753305994411751
 20
0.1080609846746285
 10
0.1758953123180285
 20
0.1125733272465327
 10
0.1767937423866113
 20
0.1156291837153786
 10
0.1767642114477561
 20
0.1161195682876825
 10
0.1745350635345582
 20
0.1180040060447713
 10
0.172331312262902
 20
0.1202836858173567
 10
0.170537483269348
 20
0.1222926000597505
 10
0.1698930774225986
 20
0.1231891259841115
 10
0.1665900670887113
 20
0.1216627065939515
 10
0.1638027105575746
 20
0.1205608550757522
 10
0.1599249886502858
 20
0.1195906298446094
 10
0.1569433118849948
 20
0.1192645915275369
 10
0.1555274870538121
 20
0.1190814539580649
  0
LWPOLYLINE
  5
A16
330
2
100
AcDbEntity
  8
Profilo
  6
Continuous
370
     0
100
AcDbPolyline
 90
       22
 70
   128
 43
0.0
 10
0.1888965450087725
 20
0.1387621466464179
 10
0.18537077130881
 20
0.1344327887622926
 10
0.1832062011440141
 20
0.1327447023698353
 10
0.1825475545793425
 20
0.1314666683731515
 10
0.1807548700768309
 20
0.1321748814696435
 10
0.1800084038908474
 20
0.1307264427860865
 10
0.1796080649910228
 20
0.1295309538195205
 10
0.1789132347792877
 20
0.1288107242756039
 10
0.1782520150356217
 20
0.1273183559778066
 10
0.1772187891375894
 20
0.1269881850962417
 10
0.1756405043545191
 20
0.1276937355333722
 10
0.1755268058650015
 20
0.1289384779797226
 10
0.1760098131870476
 20
0.129875702602661
 10
0.1764437589041798
 20
0.1302990546967985
 10
0.1752865345788721
 20
0.1303562840094021
 10
0.1737909133769269
 20
0.1308035696746308
 10
0.1734628261202453
 20
0.1320509691359839
 10
0.1741705342898308
 20
0.1338428756614695
 10
0.1755085502471911
 20
0.1345551270628386
 10
0.17675101617372
 20
0.1344539677077194
 10
0.1783370301759715
 20
0.1343914210304775
 10
0.1784739150529586
 20
0.1350756963646992
  0
LWPOLYLINE
  5
A17
330
2
100
AcDbEntity
  8
Profilo
  6
Continuous
370
     0
100
AcDbPolyline
 90
       13
 70
   128
 43
0.0
 10
0.1871218945043016
 20
0.1409707061832539
 10
0.1851511120408138
 20
0.1375652759617032
 10
0.1833739979768922
 20
0.1360010011259693
 10
0.1806178743899598
 20
0.1350491038971521
 10
0.1788587955144156
 20
0.1349851778114881
 10
0.1777093004082908
 20
0.1356854108839801
 10
0.1764822904597101
 20
0.1370725819500555
 10
0.177063424642347
 20
0.1390375497491426
 10
0.1787681750629031
 20
0.1417174316089604
 10
0.1806305295377038
 20
0.1432377740924537
 10
0.1829914629634808
 20
0.1434228555763854
 10
0.1850915155454147
 20
0.1433110577290857
 10
0.1852620023986114
 20
0.1432231957626037
  0
LWPOLYLINE
  5
A18
330
2
100
AcDbEntity
  8
Profilo
  6
Continuous
370
     0
100
AcDbPolyline
 90
       11
 70
   129
 43
0.0
 10
0.1784041257789277
 20
0.1364056399996225
 10
0.1805170611598119
 20
0.1373655195621652
 10
0.1816742854851214
 20
0.1373082902495617
 10
0.183394607534606
 20
0.1377156864868802
 10
0.1840093436934507
 20
0.1389085169852637
 10
0.1846266578723914
 20
0.1403156822130351
 10
0.1839498628490355
 20
0.14109580141919
 10
0.1826660645367775
 20
0.1413260920053959
 10
0.1812040453110417
 20
0.1410012403699218
 10
0.180460158335491
 20
0.1397671387254794
 10
0.1801863958830361
 20
0.1383985842941312
  0
LWPOLYLINE
  5
A19
330
2
100
AcDbEntity
  8
Profilo
  6
Continuous
370
     0
100
AcDbPolyline
 90
        7
 70
   128
 43
0.0
 10
0.1799873437920767
 20
0.1432457522350003
 10
0.1780862276501183
 20
0.1420688794748871
 10
0.1764356924142452
 20
0.1403315437938243
 10
0.1756814994694982
 20
0.1382400971591999
 10
0.1762265620052958
 20
0.1372043739590513
 10
0.1754723666001294
 20
0.1351129315156067
 10
0.1753380633939963
 20
0.1346429890293205
  0
LWPOLYLINE
  5
A1A
330
2
100
AcDbEntity
  8
Profilo
  6
Continuous
370
     0
100
AcDbPolyline
 90
        5
 70
   128
 43
0.0
 10
0.1830559853874392
 20
0.1452227402444159
 10
0.1797496456849417
 20
0.1448778925657925
 10
0.1775488955238438
 20
0.14374760874465
 10
0.1752551697012454
 20
0.1420182507778604
 10
0.1744337666928986
 20
0.1414710848172737
  0
LWPOLYLINE
  5
A1B
330
2
100
AcDbEntity
  8
Profilo
  6
Continuous
370
     0
100
AcDbPolyline
 90
       11
 70
   128
 43
0.0
 10
0.1726823025758954
 20
0.145608662134681
 10
0.1669635054735949
 20
0.1407920283804808
 10
0.1646543236730502
 20
0.1377766587027342
 10
0.1631149040655022
 20
0.1345802454176596
 10
0.161973251369123
 20
0.1323649891077649
 10
0.1610330011325911
 20
0.1326338923718473
 10
0.1606196637828323
 20
0.133925223328895
 10
0.1609812495073588
 20
0.1354641805656631
 10
0.1617328680827712
 20
0.1373412905894472
 10
0.1623036950261292
 20
0.138448919899258
 10
0.1629158531648813
 20
0.1394274156682544
  0
LWPOLYLINE
  5
A1C
330
2
100
AcDbEntity
  8
Profilo
  6
Continuous
370
     0
100
AcDbPolyline
 90
       10
 70
   128
 43
0.0
 10
0.1619293409632978
 20
0.1322797856094655
 10
0.161567758889531
 20
0.1307408264912441
 10
0.1622781558890964
 20
0.1291885699843864
 10
0.1629472216932677
 20
0.1277654470183438
 10
0.1639727171817786
 20
0.1274526118302934
 10
0.1651014882695461
 20
0.1285961930400723
 10
0.1661321349571456
 20
0.1287120268825234
 10
0.1674701509145078
 20
0.1294242782838934
 10
0.167865338615242
 20
0.1301910982199578
 10
0.168392256343115
 20
0.1312135263411957
  0
LWPOLYLINE
  5
A1D
330
2
100
AcDbEntity
  8
Profilo
  6
Continuous
370
     0
100
AcDbPolyline
 90
       15
 70
   128
 43
0.0
 10
0.1790805810711089
 20
0.1463010178415626
 10
0.1745137450948051
 20
0.1445569811962612
 10
0.1728657830379263
 20
0.143033979816312
 10
0.1723388665003935
 20
0.1420115540048008
 10
0.1728038386340622
 20
0.1414484298776685
 10
0.1732300539416713
 20
0.1412287759021899
 10
0.1728813546668548
 20
0.1407614941938128
 10
0.1714193390918788
 20
0.1404366406768855
 10
0.1699521686670526
 20
0.1396831200109098
 10
0.1690352156278743
 20
0.1383225432938348
 10
0.1687201219800287
 20
0.1370831224033017
 10
0.169910948281546
 20
0.1362537557899945
 10
0.1713264790813622
 20
0.1362790691977812
 10
0.1720213044519974
 20
0.1369992983134236
 10
0.1736046332750321
 20
0.1402809127870718
  0
LWPOLYLINE
  5
A1E
330
2
100
AcDbEntity
  8
Profilo
  6
Continuous
370
     0
100
AcDbPolyline
 90
       10
 70
   128
 43
0.0
 10
0.1684256318584567
 20
0.1375583841356786
 10
0.1672865559918315
 20
0.1355574602454434
 10
0.166798397470695
 20
0.1341915665920052
 10
0.1672117299793556
 20
0.1329002352066841
 10
0.1681391010676951
 20
0.131559652651306
 10
0.1689476224674302
 20
0.1310351435117769
 10
0.1699705435866048
 20
0.1305079717128863
 10
0.1713111339133015
 20
0.1314345597250956
 10
0.1719258700721462
 20
0.1326273902234799
 10
0.1722358161716646
 20
0.1334381402020592
  0
LWPOLYLINE
  5
A1F
330
2
100
AcDbEntity
  8
Profilo
  6
Continuous
370
     0
100
AcDbPolyline
 90
        4
 70
   128
 43
0.0
 10
0.1714530555287319
 20
0.1361060037329999
 10
0.171561599168403
 20
0.1344325941376011
 10
0.1722771485573955
 20
0.1333090089709716
 10
0.1734654004895799
 20
0.1322653057468241
  0
LWPOLYLINE
  5
A20
330
2
100
AcDbEntity
  8
Profilo
  6
Continuous
370
     0
100
AcDbPolyline
 90
        5
 70
   128
 43
0.0
 10
0.1873131041855154
 20
0.1390390276247734
 10
0.1846087346842364
 20
0.1352568380109624
 10
0.1819740388060045
 20
0.1337032020956825
 10
0.1796002237716157
 20
0.1324464455116349
 10
0.1760691832215788
 20
0.1312469159304643
  0
LWPOLYLINE
  5
A21
330
2
100
AcDbEntity
  8
Profilo
  6
Continuous
370
     0
100
AcDbPolyline
 90
       46
 70
   129
 43
0.0
 10
0.1830143375482725
 20
0.1474108274167611
 10
0.1787290562720192
 20
0.1469125443515451
 10
0.1755842099750446
 20
0.1461256872326006
 10
0.1712761104789089
 20
0.1450530309712116
 10
0.1624789953095846
 20
0.1423888500158656
 10
0.1561351295932405
 20
0.1404791631264319
 10
0.1499116453550404
 20
0.1379816221038017
 10
0.1462504993961073
 20
0.1359774179008694
 10
0.1439891217598306
 20
0.1340144545018184
 10
0.1436988546907902
 20
0.1331895170617838
 10
0.1445492192719961
 20
0.132475326602059
 10
0.1457025989951064
 20
0.1323743196240863
 10
0.1458229827235393
 20
0.1317864667900949
 10
0.1445435958790253
 20
0.131157371853018
 10
0.1424959755522672
 20
0.1312898857877624
 10
0.1407733105305469
 20
0.1323769238269307
 10
0.1395179228486563
 20
0.1341719821720439
 10
0.1389578253364925
 20
0.1357111100718033
 10
0.1401076404693655
 20
0.1363749561482863
 10
0.1409891288930898
 20
0.136555210263427
 10
0.1392353379753204
 20
0.1367478072845442
 10
0.1387736862787503
 20
0.1373577430268473
 10
0.1382135887665847
 20
0.1388968709266067
 10
0.1385349774278546
 20
0.1406162516423025
 10
0.1393654627021914
 20
0.1416435248065854
 10
0.1414661470345977
 20
0.1427467960693813
 10
0.1427016556063809
 20
0.142693206204298
 10
0.1433495053601885
 20
0.1425194501664681
 10
0.1428347896579702
 20
0.1418936007112319
 10
0.1411447540695101
 20
0.1410274176112955
 10
0.1407596078286404
 20
0.1403668157174462
 10
0.1410916900638601
 20
0.1397916324137562
 10
0.1423399510123269
 20
0.139526286332781
 10
0.1439294819824597
 20
0.1392388537866788
 10
0.1452598717795994
 20
0.1390209248185931
 10
0.1469060311488577
 20
0.139204419559554
 10
0.149006715481264
 20
0.1403076908223499
 10
0.154257390356801
 20
0.1420244660359952
 10
0.1587214602842626
 20
0.1433966493307016
 10
0.1665911038917209
 20
0.1460776850942937
 10
0.1738603363045201
 20
0.1488503109010284
 10
0.1798338651026445
 20
0.151970455897056
 10
0.1819819877974394
 20
0.1529915563091441
 10
0.1822921319230564
 20
0.1520750288259651
 10
0.182799165429572
 20
0.1493001157286664
 10
0.1833245767592708
 20
0.1476313976076996
  0
LWPOLYLINE
  5
A22
330
2
100
AcDbEntity
  8
Profilo
  6
Continuous
370
     0
100
AcDbPolyline
 90
       25
 70
   128
 43
0.0
 10
0.1608261748712132
 20
0.1328000257201815
 10
0.1600666342293739
 20
0.131394126791005
 10
0.1590241804514112
 20
0.130792265821681
 10
0.1582638107784811
 20
0.1309578773957995
 10
0.1579687904942593
 20
0.1315735419275978
 10
0.1574893678203115
 20
0.1313572082386849
 10
0.1569060546943803
 20
0.1297507487085227
 10
0.1555361914621796
 20
0.1283552465931898
 10
0.1537685523495367
 20
0.1273346996756745
 10
0.1520684844948659
 20
0.1271391596144488
 10
0.1514612628974068
 20
0.1278768802387424
 10
0.1511029096509273
 20
0.1295442843871951
 10
0.1511282610531777
 20
0.1310704490497802
 10
0.1518444424829526
 20
0.1320280866795715
 10
0.151052822996347
 20
0.131933811681566
 10
0.1501232615217458
 20
0.1321831284287067
 10
0.1496852296724307
 20
0.1328371474367933
 10
0.1502181503191111
 20
0.1341122072507618
 10
0.1510894482117888
 20
0.1352198625331113
 10
0.1525378527440115
 20
0.1364793271263136
 10
0.1537877838515578
 20
0.1371405140667767
 10
0.1550115322754721
 20
0.1378470455487446
 10
0.1554889888122788
 20
0.1384854719344769
 10
0.1550962802586402
 20
0.1391656631019455
 10
0.1547297541918717
 20
0.1398005048718871
  0
LWPOLYLINE
  5
A23
330
2
100
AcDbEntity
  8
Profilo
  6
Continuous
370
     0
100
AcDbPolyline
 90
        5
 70
   128
 43
0.0
 10
0.1640217172556473
 20
0.14087247791841
 10
0.1588958562679523
 20
0.1360387612055622
 10
0.1572630515962943
 20
0.1339472996908566
 10
0.1560632093936172
 20
0.1308965867552278
 10
0.1556854072633684
 20
0.1297715410370039
  0
LWPOLYLINE
  5
A24
330
2
100
AcDbEntity
  8
Profilo
  6
Continuous
370
     0
100
AcDbPolyline
 90
        6
 70
   128
 43
0.0
 10
0.1671017893534779
 20
0.1430739862198433
 10
0.1628635717022751
 20
0.1414130446903469
 10
0.158453061059737
 20
0.1391084796674015
 10
0.1553296320001327
 20
0.1364587113657873
 10
0.1535104610518965
 20
0.1339573456263977
 10
0.1522543255114948
 20
0.1318415049098091
  0
LWPOLYLINE
  5
A25
330
2
100
AcDbEntity
  8
Profilo
  6
Continuous
370
     0
100
AcDbPolyline
 90
       16
 70
   128
 43
0.0
 10
0.242688693252378
 20
0.1025430185131424
 10
0.2386237995333489
 20
0.1038607275689922
 10
0.2351082205494159
 20
0.1059471013234251
 10
0.2311531905988162
 20
0.1091315637923888
 10
0.2287362287639056
 20
0.1112179375468209
 10
0.2276376075078255
 20
0.1120964111168576
 10
0.2244516157221281
 20
0.1108885109324622
 10
0.2223642369783971
 20
0.1103394639767842
 10
0.2190683814242686
 20
0.1093511815352949
 10
0.216102108961318
 20
0.1088021371780291
 10
0.2154429386719046
 20
0.108582519435123
 10
0.2151133514736689
 20
0.1048490100104815
 10
0.2141245939860181
 20
0.1005664562285741
 10
0.2126963896387601
 20
0.0965035175911626
 10
0.2115977683826782
 20
0.0937582906080112
 10
0.2107188746634603
 20
0.0922209638092561
  0
LWPOLYLINE
  5
A26
330
2
100
AcDbEntity
  8
Profilo
  6
Continuous
370
     0
100
AcDbPolyline
 90
       15
 70
   128
 43
0.0
 10
0.2398322804508024
 20
0.1007860739714812
 10
0.2364265611282446
 20
0.1023234007702362
 10
0.2336800162021544
 20
0.1040803453118983
 10
0.2300545693427343
 20
0.1068255722950497
 10
0.227857335044686
 20
0.1091315637923888
 10
0.2274178840780192
 20
0.1093511815352949
 10
0.2246713391519326
 20
0.1083629016922169
 10
0.2215952029205508
 20
0.1075942369936329
 10
0.2189585176558375
 20
0.1070451926363671
 10
0.2178599005068134
 20
0.1069353837649145
 10
0.2175303133085777
 20
0.1033116832117264
 10
0.2170908664489688
 20
0.1003468358872567
 10
0.2159922451928868
 20
0.0965035175911626
 10
0.2147837642754333
 20
0.0937582906080112
 10
0.2142344536473932
 20
0.0924405815521622
  0
LWPOLYLINE
  5
A27
330
2
100
AcDbEntity
  8
Profilo
  6
Continuous
370
     0
100
AcDbPolyline
 90
       22
 70
   128
 43
0.0
 10
0.2138750027926837
 20
0.1311793797856899
 10
0.2158614498524298
 20
0.1259612912514636
 10
0.2162410904696821
 20
0.1232426753042478
 10
0.2170185770953759
 20
0.1220332536487851
 10
0.2155089043112643
 20
0.1208348498768851
 10
0.2163900559140566
 20
0.1194641718549793
 10
0.2172252102791359
 20
0.1185197237143245
 10
0.2175015322548544
 20
0.1175578683276881
 10
0.2184633512407168
 20
0.1162390510832893
 10
0.2182326746627248
 20
0.1151791657669627
 10
0.2168325076689848
 20
0.114165106268984
 10
0.2156976798445176
 20
0.1146890117118641
 10
0.2151275231730243
 20
0.1155759206344399
 10
0.2149778623633218
 20
0.1161634046964085
 10
0.2143496881621112
 20
0.1151898336891155
 10
0.2132145168123025
 20
0.1141182305664067
 10
0.2119701935617635
 20
0.1144577983981398
 10
0.2107722110742789
 20
0.1159666449142097
 10
0.2108243912454921
 20
0.1174815264246373
 10
0.2115332307801183
 20
0.1185069538027874
 10
0.2123804047926598
 20
0.1198492088808751
 10
0.2118562474085341
 20
0.1203098923288501
  0
LWPOLYLINE
  5
A28
330
2
100
AcDbEntity
  8
Profilo
  6
Continuous
370
     0
100
AcDbPolyline
 90
       13
 70
   128
 43
0.0
 10
0.211075008875778
 20
0.1307467671343958
 10
0.2130388067267117
 20
0.1273373043449086
 10
0.2135049514409979
 20
0.1250161410022622
 10
0.2129512568294793
 20
0.1221533193456001
 10
0.2121270790058571
 20
0.1205979493092868
 10
0.2109459118234462
 20
0.1199525738821027
 10
0.2091310814665399
 20
0.1195835376289733
 10
0.2077199365262303
 20
0.1210692984936883
 10
0.2062514659667642
 20
0.1238855965949103
 10
0.2058659879910079
 20
0.1262586141226855
 10
0.2068861694370416
 20
0.1283957831880182
 10
0.2080330155038585
 20
0.130158583149607
 10
0.2081943496254568
 20
0.1302622981122456
  0
LWPOLYLINE
  5
A29
330
2
100
AcDbEntity
  8
Profilo
  6
Continuous
370
     0
100
AcDbPolyline
 90
       11
 70
   129
 43
0.0
 10
0.2106695877980731
 20
0.1209144248620889
 10
0.2108947754027803
 20
0.1232242203597615
 10
0.211522949603991
 20
0.1241977913670546
 10
0.2120302951378083
 20
0.1258913320832575
 10
0.2113046417032227
 20
0.1270201244626351
 10
0.2103946579581195
 20
0.1282583168375999
 10
0.2093806573959314
 20
0.1280622547572956
 10
0.2085393207418957
 20
0.1270655980986474
 10
0.2080896408978092
 20
0.1256370264906014
 10
0.2087864607849732
 20
0.1243757506500089
 10
0.2098347824627553
 20
0.1234543881959075
  0
LWPOLYLINE
  5
A2A
330
2
100
AcDbEntity
  8
Profilo
  6
Continuous
370
     0
100
AcDbPolyline
 90
        7
 70
   128
 43
0.0
 10
0.2055374858440744
 20
0.1257055879988944
 10
0.2056061294803748
 20
0.1234707367443577
 10
0.2062854386971389
 20
0.1211726634597183
 10
0.207719588141011
 20
0.1194737898929009
 10
0.2088890820115261
 20
0.1194279662954786
 10
0.2103232265955186
 20
0.1177290926934637
 10
0.2106630571238939
 20
0.1173778114619996
  0
LWPOLYLINE
  5
A2B
330
2
100
AcDbEntity
  8
Profilo
  6
Continuous
370
     0
100
AcDbPolyline
 90
        5
 70
   128
 43
0.0
 10
0.2053596848026236
 20
0.1293516035802961
 10
0.2040051618014993
 20
0.1263158055650808
 10
0.2038836412235452
 20
0.1238447581076154
 10
0.2042344462437229
 20
0.1209936542925338
 10
0.2042976043615057
 20
0.1200087154402678
  0
LWPOLYLINE
  5
A2C
330
2
100
AcDbEntity
  8
Profilo
  6
Continuous
370
     0
100
AcDbPolyline
 90
       11
 70
   128
 43
0.0
 10
0.1998386252360072
 20
0.1205606916798296
 10
0.2011505538767193
 20
0.1131997512330484
 10
0.2026073497191771
 20
0.1096922562929472
 10
0.2046058150212713
 20
0.1067608731631897
 10
0.2059534569133441
 20
0.1046645447708782
 10
0.205250454737222
 20
0.1039847158121687
 10
0.2039254606488456
 20
0.1042724206454681
 10
0.2027734774487304
 20
0.1053550416869382
 10
0.2015236617701412
 20
0.1069445174790923
 10
0.2008498401215477
 20
0.107992682768112
 10
0.2003085169974779
 20
0.1090120751519028
  0
LWPOLYLINE
  5
A2D
330
2
100
AcDbEntity
  8
Profilo
  6
Continuous
370
     0
100
AcDbPolyline
 90
       10
 70
   128
 43
0.0
 10
0.2060052901044505
 20
0.1045839154947932
 10
0.2071572767593328
 20
0.1035012966742479
 10
0.2088567688272431
 20
0.1033403902692149
 10
0.2104237623706315
 20
0.1032082567694092
 10
0.2112074333349345
 20
0.1039399443199005
 10
0.2107814484998607
 20
0.1054892793618545
 10
0.2111964567934792
 20
0.1064397624968678
 10
0.2112486369646924
 20
0.1079546440072962
 10
0.2107821452702994
 20
0.1086802965634281
 10
0.2101601554077015
 20
0.109647834762089
  0
LWPOLYLINE
  5
A2E
330
2
100
AcDbEntity
  8
Profilo
  6
Continuous
370
     0
100
AcDbPolyline
 90
       15
 70
   128
 43
0.0
 10
0.2024381668529984
 20
0.1264479412506127
 10
0.2016651289048092
 20
0.1216209269575662
 10
0.2021601057614029
 20
0.1194322492618619
 10
0.20278209421889
 20
0.1184647132489282
 10
0.2035022600853051
 20
0.1185858288651711
 10
0.2039055936619172
 20
0.1188451151613034
 10
0.2041359218546881
 20
0.1183094918768428
 10
0.2036862454653669
 20
0.1168809224897215
 10
0.2036052282919649
 20
0.1152335552971535
 10
0.2043250457731607
 20
0.113759162312609
 10
0.2052408689264209
 20
0.1128665727637367
 10
0.2065545346333537
 20
0.1134831752856917
 10
0.2072403779790624
 20
0.1147217176220665
 10
0.2069640539536892
 20
0.1156835686020518
 10
0.2049137568655994
 20
0.1186955788221673
  0
LWPOLYLINE
  5
A2F
330
2
100
AcDbEntity
  8
Profilo
  6
Continuous
370
     0
100
AcDbPolyline
 90
       10
 70
   128
 43
0.0
 10
0.2046820351319494
 20
0.1128491677034805
 10
0.2058453481186189
 20
0.110862237121029
 10
0.2067841674607984
 20
0.1097565326139311
 10
0.2081091594995201
 20
0.1094688233739797
 10
0.2097338235925172
 20
0.1096016590175294
 10
0.2105923225317334
 20
0.1100396045194371
 10
0.2115603272613193
 20
0.1106618942952661
 10
0.2114281736672514
 20
0.1122861735803568
 10
0.2107025202326658
 20
0.1134149659597336
 10
0.2101553632048572
 20
0.1140887621450095
  0
LWPOLYLINE
  5
A30
330
2
100
AcDbEntity
  8
Profilo
  6
Continuous
370
     0
100
AcDbPolyline
 90
        4
 70
   128
 43
0.0
 10
0.2074535452917652
 20
0.1147448033086191
 10
0.2089570323321532
 20
0.114002100060293
 10
0.2102878603242648
 20
0.1140599914255085
 10
0.2117858597964806
 20
0.114567196172802
  0
LWPOLYLINE
  5
A31
330
2
100
AcDbEntity
  8
Profilo
  6
Continuous
370
     0
100
AcDbPolyline
 90
        5
 70
   128
 43
0.0
 10
0.2128434964199752
 20
0.1299465202965373
 10
0.2147667839568261
 20
0.1257133728003032
 10
0.2147949241885745
 20
0.1226548412808691
 10
0.2146963997995379
 20
0.119970678865179
 10
0.2139697026144049
 20
0.1163129432564695
  0
LWPOLYLINE
  5
A32
330
2
100
AcDbEntity
  8
Profilo
  6
Continuous
370
     0
100
AcDbPolyline
 90
       46
 70
   129
 43
0.0
 10
0.203443921806095
 20
0.1304095790797377
 10
0.2017328069607207
 20
0.1264492750995311
 10
0.2008418220663892
 20
0.123332329755883
 10
0.1996167198902108
 20
0.1190650780195041
 10
0.1975254106931588
 20
0.1101144623251788
 10
0.196007315194509
 20
0.1036656700119107
 10
0.1950585070480018
 20
0.0970272040502622
 10
0.1949636258226453
 20
0.0928544565413971
 10
0.1955329131747843
 20
0.0899145643613059
 10
0.1961021964198655
 20
0.0892507169856178
 10
0.197145885791731
 20
0.089630059085557
 10
0.1978100502621705
 20
0.0905784117369941
 10
0.1983793376143095
 20
0.090388740687024
 10
0.198284456388953
 20
0.0889662117098688
 10
0.197145885791731
 20
0.0872591774569637
 10
0.1953431507240713
 20
0.0863108248055266
 10
0.1931608907549838
 20
0.0861211563539688
 10
0.1915479181380353
 20
0.0864056616297168
 10
0.1915479181380353
 20
0.0877333537826827
 10
0.1918325577070488
 20
0.0885868722083409
 10
0.1907888683351833
 20
0.0871643432311848
 10
0.1900298226393873
 20
0.0870695090054059
 10
0.1884168500224406
 20
0.0873540142811539
 10
0.1870885169745056
 20
0.0884920353841498
 10
0.1866141149547791
 20
0.0897248933113359
 10
0.1867089961801356
 20
0.0920957749399291
 10
0.1873731606505751
 20
0.0931389618171452
 10
0.1878475626702998
 20
0.0936131381428642
 10
0.1881322063463693
 20
0.0928544565413971
 10
0.1880373251210128
 20
0.090957751238522
 10
0.1884168500224406
 20
0.0902939038628338
 10
0.1890810144928783
 20
0.0902939038628338
 10
0.1899349414140308
 20
0.0912422565142709
 10
0.1909786307858963
 20
0.092475114441457
 10
0.1918325577070488
 20
0.0935183013186731
 10
0.1924967262845443
 20
0.0950356645216081
 10
0.1925916075099008
 20
0.0974065461502014
 10
0.193730174000065
 20
0.1028121515862525
 10
0.1947738633719323
 20
0.1073642411950576
 10
0.196386840095935
 20
0.1155200703596412
 10
0.1976202919185153
 20
0.1232017231985067
 10
0.197904931487527
 20
0.1299350233859351
 10
0.19809469393824
 20
0.1323059024161161
 10
0.199043502084749
 20
0.1321162313661469
 10
0.2017001640735629
 20
0.1311678787147099
 10
0.203408022022924
 20
0.130788539213182
  0
LWPOLYLINE
  5
A33
330
2
100
AcDbEntity
  8
Profilo
  6
Continuous
370
     0
100
AcDbPolyline
 90
       25
 70
   128
 43
0.0
 10
0.2050031659064602
 20
0.1038886656898116
 10
0.2058409397733603
 20
0.102527934734184
 10
0.2058409397733603
 20
0.1013242127955362
 10
0.2053173311065479
 20
0.1007485191295711
 10
0.2046366398396899
 20
0.1008008563347009
 10
0.2045842789730092
 20
0.100277497275456
 10
0.2056838571733164
 20
0.0989691035249582
 10
0.2062074658401287
 20
0.0970850161084953
 10
0.2062074658401287
 20
0.0950439222734656
 10
0.2055267745732725
 20
0.0934738502925509
 10
0.2045842789730092
 20
0.0933168412755711
 10
0.2029610879988337
 20
0.0938402003348168
 10
0.201652066331802
 20
0.0946252376244803
 10
0.2011808185316704
 20
0.0957242877512798
 10
0.2008666533315826
 20
0.0949915876667462
 10
0.2001859579576686
 20
0.0943112221889328
 10
0.199400544957451
 20
0.0942588849838022
 10
0.1985627710905491
 20
0.095357937709013
 10
0.1980391624237368
 20
0.0966663314595099
 10
0.1976726363569683
 20
0.0985504188759729
 10
0.1977249972236508
 20
0.099963484438319
 10
0.1977249972236508
 20
0.1013765474022547
 10
0.197410832023563
 20
0.1021092500851987
 10
0.1966254149162858
 20
0.1021092500851987
 10
0.1958923627827489
 20
0.1021092500851987
  0
LWPOLYLINE
  5
A34
330
2
100
AcDbEntity
  8
Profilo
  6
Continuous
370
     0
100
AcDbPolyline
 90
        5
 70
   128
 43
0.0
 10
0.1996099884241755
 20
0.1106923126727168
 10
0.2012331793983528
 20
0.1038363284846819
 10
0.202228035865295
 20
0.1013765474022547
 10
0.2042701096658654
 20
0.0988120971063897
 10
0.2050555267731409
 20
0.097922388004878
  0
LWPOLYLINE
  5
A35
330
2
100
AcDbEntity
  8
Profilo
  6
Continuous
370
     0
100
AcDbPolyline
 90
        6
 70
   128
 43
0.0
 10
0.1992434623574071
 20
0.1144604875056418
 10
0.1985627710905491
 20
0.109959612588184
 10
0.1983533276238245
 20
0.1049877158166112
 10
0.1990863797573632
 20
0.1009578627532694
 10
0.2003430405577125
 20
0.0981317316285763
 10
0.2015473445984388
 20
0.0959859659816966
  0
LWPOLYLINE
  5
A36
330
2
100
AcDbEntity
  8
Profilo
  6
Continuous
370
     0
100
AcDbPolyline
 90
       16
 70
   128
 43
0.0
 10
0.2721377619808263
 20
0.1596551826221523
 10
0.26896414560415
 20
0.1567937359257132
 10
0.2653995034390548
 20
0.1547923420938333
 10
0.2606641630682351
 20
0.152959416918367
 10
0.2576488294776511
 20
0.1519094534465748
 10
0.2563387384214057
 20
0.1513972563146892
 10
0.2557918147734814
 20
0.1480341563998286
 10
0.255223614013103
 20
0.1459519099025992
 10
0.2544315639364822
 20
0.1426034740447756
 10
0.2534239140662042
 20
0.1397600845586821
 10
0.2532845234659757
 20
0.1390794174711759
 10
0.2563530438738657
 20
0.1369272318724212
 10
0.2595674654982454
 20
0.1339296658789801
 10
0.2623719713986312
 20
0.130661335313753
 10
0.2642000970771545
 20
0.1283372879052735
 10
0.2650920142791855
 20
0.1268074802178253
  0
LWPOLYLINE
  5
A37
330
2
100
AcDbEntity
  8
Profilo
  6
Continuous
370
     0
100
AcDbPolyline
 90
       15
 70
   128
 43
0.0
 10
0.2722311141861593
 20
0.1563029843014622
 10
0.2691968904632387
 20
0.1541222082493445
 10
0.2663020593940737
 20
0.1526221028415473
 10
0.2621118996578002
 20
0.1508549872527944
 10
0.2590162352911691
 20
0.1501051222812876
 10
0.2586063152633575
 20
0.1498343554518899
 10
0.2580889182504671
 20
0.1469616378517231
 10
0.2572165332907432
 20
0.1439132933805544
 10
0.2563736770195821
 20
0.1413553347808949
 10
0.2559194657173109
 20
0.1403489999850812
 10
0.2588928888529609
 20
0.1382517188220524
 10
0.2612407985244887
 20
0.1363887230157829
 10
0.2640198991756955
 20
0.1335156299508315
 10
0.265793095023533
 20
0.1310964412847516
 10
0.2666596092266737
 20
0.1299618697983757
  0
LWPOLYLINE
  5
A38
330
2
100
AcDbEntity
  8
Profilo
  6
Continuous
370
     0
100
AcDbPolyline
 90
       22
 70
   128
 43
0.0
 10
0.2329311004170056
 20
0.1490199753435494
 10
0.2384433211767143
 20
0.1481312446934484
 10
0.2409875319587624
 20
0.14710071513869
 10
0.242423665149126
 20
0.1471693274799119
 10
0.2427066768675279
 20
0.14526271061152
 10
0.2443342946563036
 20
0.1453404712731702
 10
0.2455697879212058
 20
0.1455915120990822
 10
0.2465409401086611
 20
0.1453498862563615
 10
0.2481639788381895
 20
0.1455234373097611
 10
0.2489665281582316
 20
0.1447937228749984
 10
0.2491446459475601
 20
0.1430741129398893
 10
0.2481235166126106
 20
0.1423532759364189
 10
0.2470703526190712
 20
0.1423029602360572
 10
0.2464867460922364
 20
0.1424670922038883
 10
0.2470157962163335
 20
0.1414362918839917
 10
0.2473762460684701
 20
0.1399174030960534
 10
0.2464600100746126
 20
0.1390095714664334
 10
0.2445543194175408
 20
0.1387265114570186
 10
0.2432684836313936
 20
0.139529141566077
 10
0.2427348572394945
 20
0.1406557282993454
 10
0.241996017249781
 20
0.1420605300546751
 10
0.24133497498867
 20
0.1418369381684292
  0
LWPOLYLINE
  5
A39
330
2
100
AcDbEntity
  8
Profilo
  6
Continuous
370
     0
100
AcDbPolyline
 90
       13
 70
   128
 43
0.0
 10
0.2319057570045708
 20
0.1463788031554202
 10
0.2358403373189923
 20
0.1463747705874829
 10
0.2380835960972001
 20
0.1456178820805713
 10
0.240286025072614
 20
0.1437069576527254
 10
0.2412209261245359
 20
0.142215513702077
 10
0.2411892540482499
 20
0.1408699052024
 10
0.2406014336399243
 20
0.1391136978831952
 10
0.2386091545169777
 20
0.138634490948823
 10
0.2354359335369573
 20
0.1387709071902274
 10
0.2331881010863985
 20
0.1396235822345102
 10
0.2318473491066553
 20
0.1415756698159111
 10
0.2308941425915383
 20
0.1434502676247997
 10
0.2308849898599399
 20
0.1436418445539193
  0
LWPOLYLINE
  5
A3A
330
2
100
AcDbEntity
  8
Profilo
  6
Continuous
370
     0
100
AcDbPolyline
 90
       11
 70
   129
 43
0.0
 10
0.2402181046522398
 20
0.141111527066744
 10
0.2383303568760611
 20
0.1424614430018746
 10
0.237801306751964
 20
0.1434922433217713
 10
0.2365883302362968
 20
0.1447783878006556
 10
0.2352479406428647
 20
0.1447143496816489
 10
0.2337206427188225
 20
0.1445453768288422
 10
0.2333834371799903
 20
0.143569195542383
 10
0.2338258988382127
 20
0.1423422482975289
 10
0.2348382382198619
 20
0.1412385283249579
 10
0.2362789450825766
 20
0.1412113541288078
 10
0.2376010292128137
 20
0.1416585461060546
  0
LWPOLYLINE
  5
A3B
330
2
100
AcDbEntity
  8
Profilo
  6
Continuous
370
     0
100
AcDbPolyline
 90
        7
 70
   128
 43
0.0
 10
0.2335027846850921
 20
0.1390625779681724
 10
0.2354725444633492
 20
0.1380045994737479
 10
0.2378023889159881
 20
0.1374438618701714
 10
0.2399907313046055
 20
0.1378364349379794
 10
0.2406151626393247
 20
0.1388263345407048
 10
0.2428035026284836
 20
0.1392189033821344
 10
0.243277636362992
 20
0.1393375646369565
  0
LWPOLYLINE
  5
A3C
330
2
100
AcDbEntity
  8
Profilo
  6
Continuous
370
     0
100
AcDbPolyline
 90
        5
 70
   128
 43
0.0
 10
0.2302563420482788
 20
0.1407316055401577
 10
0.2322081587496503
 20
0.1380406552035657
 10
0.2342873883327958
 20
0.1366998915672427
 10
0.2369319191755737
 20
0.1355781457189508
 10
0.2378164803016998
 20
0.1351403728272723
  0
LWPOLYLINE
  5
A3D
330
2
100
AcDbEntity
  8
Profilo
  6
Continuous
370
     0
100
AcDbPolyline
 90
       11
 70
   128
 43
0.0
 10
0.2351089652932043
 20
0.1315547717494269
 10
0.242139691036217
 20
0.1290104650568459
 10
0.2459056686792196
 20
0.1285183397944904
 10
0.2494435535888617
 20
0.1287833699498075
 10
0.2519328481773155
 20
0.1289022978673907
 10
0.2521700962377253
 20
0.1279535656445988
 10
0.2512584394991077
 20
0.1269499395208515
 10
0.249744870574466
 20
0.1264936033255535
 10
0.2477434363204645
 20
0.1262059690939234
 10
0.2464987877285112
 20
0.1261465050731315
 10
0.2453453064656892
 20
0.1261874016879258
  0
LWPOLYLINE
  5
A3E
330
2
100
AcDbEntity
  8
Profilo
  6
Continuous
370
     0
100
AcDbPolyline
 90
       10
 70
   128
 43
0.0
 10
0.2520285917742471
 20
0.1289068720896051
 10
0.2535421605028945
 20
0.1293632123872821
 10
0.2545312555712393
 20
0.1307545624891059
 10
0.2554291833104565
 20
0.1320455519553438
 10
0.2551873587862503
 20
0.1330900746938845
 10
0.2536326028634073
 20
0.1334958285260596
 10
0.253016964469428
 20
0.1343304778186218
 10
0.2517311286832791
 20
0.1351331079276811
 10
0.2508694492881518
 20
0.1350919405477477
 10
0.2497205416976791
 20
0.1350370506251716
  0
LWPOLYLINE
  5
A3F
330
2
100
AcDbEntity
  8
Profilo
  6
Continuous
370
     0
100
AcDbPolyline
 90
       15
 70
   128
 43
0.0
 10
0.2313102284149839
 20
0.1367496656133284
 10
0.2351040264430968
 20
0.1336666879655834
 10
0.237246965356571
 20
0.1330010116498274
 10
0.2383958703515909
 20
0.1330559014484049
 10
0.2386510640843373
 20
0.1337401411917809
 10
0.2386281823533385
 20
0.134219081463391
 10
0.2392072098209259
 20
0.1341507398873083
 10
0.2402195490065826
 20
0.1330470240171144
 10
0.2416057022580067
 20
0.1321531774905211
 10
0.2432424727783808
 20
0.1320393612230517
 10
0.2444733895794866
 20
0.1323861925647134
 10
0.2445962289849022
 20
0.1338321616999755
 10
0.2438665415307946
 20
0.1350453906285626
 10
0.2428953921347845
 20
0.1352870124929057
 10
0.2392617662236618
 20
0.1350174082393738
  0
LWPOLYLINE
  5
A40
330
2
100
AcDbEntity
  8
Profilo
  6
Continuous
370
     0
100
AcDbPolyline
 90
       10
 70
   128
 43
0.0
 10
0.2442090459065871
 20
0.1318935257720794
 10
0.2465114347598818
 20
0.131907519079863
 10
0.247938412623196
 20
0.1321677082262042
 10
0.2488500721532589
 20
0.1331713303715739
 10
0.2495473651579165
 20
0.1346447485705017
 10
0.2495973426973994
 20
0.1356072032119386
 10
0.249542426307809
 20
0.1367566647866573
 10
0.2480696823870443
 20
0.1374543560595387
 10
0.2467292927936122
 20
0.1373903179405319
 10
0.245872189666287
 20
0.1372533641472286
  0
LWPOLYLINE
  5
A41
330
2
100
AcDbEntity
  8
Profilo
  6
Continuous
370
     0
100
AcDbPolyline
 90
        4
 70
   128
 43
0.0
 10
0.2439531323961277
 20
0.1352415417798966
 10
0.2453480757968447
 20
0.1361722481269693
 10
0.2459633543999655
 20
0.1373537246588143
 10
0.2462731019399968
 20
0.1389046326302553
  0
LWPOLYLINE
  5
A42
330
2
100
AcDbEntity
  8
Profilo
  6
Continuous
370
     0
100
AcDbPolyline
 90
        5
 70
   128
 43
0.0
 10
0.2334830348675525
 20
0.1475102348760413
 10
0.2381106919056841
 20
0.1470592769936192
 10
0.2407735280156626
 20
0.1455543813894641
 10
0.2430488186610167
 20
0.1441269755578216
 10
0.2458531620259188
 20
0.1416687695302827
  0
LWPOLYLINE
  5
A43
330
2
100
AcDbEntity
  8
Profilo
  6
Continuous
370
     0
100
AcDbPolyline
 90
       46
 70
   129
 43
0.0
 10
0.228382226890917
 20
0.1396014938672549
 10
0.230956393321796
 20
0.1361394729522644
 10
0.2332102547244372
 20
0.1338093847275607
 10
0.2362932520443963
 20
0.1306147892525699
 10
0.2429990580166668
 20
0.1243283545135906
 10
0.2478248282343629
 20
0.1197892490897571
 10
0.253099504326054
 20
0.1156483241507388
 10
0.2566657690596323
 20
0.1134797808448051
 10
0.2594964340480463
 20
0.1125028520637649
 10
0.2603559843621697
 20
0.1126639421281114
 10
0.2605493091528293
 20
0.1137574746877763
 10
0.2600600939001585
 20
0.1148068343171861
 10
0.2605089975238646
 20
0.1152050161012074
 10
0.2616935031430239
 20
0.1144115820611281
 10
0.2626025528725582
 20
0.1125720338734796
 10
0.2625224828266188
 20
0.1105366431828733
 10
0.2615956105394201
 20
0.1085519163862032
 10
0.2605427354346372
 20
0.1072972937621918
 10
0.2593929203017642
 20
0.1079611398386747
 10
0.2587960714470534
 20
0.1086344041491913
 10
0.2595061729929573
 20
0.107019278150918
 10
0.2592087789937314
 20
0.106314508182836
 10
0.2581559038889485
 20
0.1050598855588256
 10
0.2565061821797436
 20
0.1044785259461246
 10
0.2552012948856803
 20
0.1046841107090288
 10
0.2531954917786323
 20
0.1059517210748253
 10
0.2526241476772868
 20
0.1070484978171255
 10
0.2524506999432057
 20
0.1076964301806743
 10
0.2532500593214952
 20
0.1075635980344427
 10
0.2548452136845989
 20
0.1065330758315048
 10
0.2556098848268928
 20
0.106529830349665
 10
0.2559419670621126
 20
0.107105013653356
 10
0.2555476330347983
 20
0.1083187123857682
 10
0.255001791436531
 20
0.1098390028590565
 10
0.254525328560542
 20
0.1111001187043573
 10
0.253543337768781
 20
0.1124339871663324
 10
0.2515375346617312
 20
0.1137015975321297
 10
0.2474254262763584
 20
0.1173904277545356
 10
0.2440050457207641
 20
0.1205703340686334
 10
0.2377483788373103
 20
0.1260451274696258
 10
0.2317125982470896
 20
0.1309541545017558
 10
0.2260237090179751
 20
0.1345673096931574
 10
0.2240653487738951
 20
0.1359170883112503
 10
0.224704012794787
 20
0.1366439447444594
 10
0.2268536412770836
 20
0.138470505190321
 10
0.2280360878967458
 20
0.1397598838097597
  0
LWPOLYLINE
  5
A44
330
2
100
AcDbEntity
  8
Profilo
  6
Continuous
370
     0
100
AcDbPolyline
 90
       25
 70
   128
 43
0.0
 10
0.2521296336683414
 20
0.1276913821739085
 10
0.2537269481770807
 20
0.1277365501474565
 10
0.2547694019550435
 20
0.1271346891781326
 10
0.2550061629611595
 20
0.1263933839380491
 10
0.2546204919785251
 20
0.1258300566113814
 10
0.2550475537857921
 20
0.1255230312410486
 10
0.2567304451120305
 20
0.1258210970207129
 10
0.2586239170110436
 20
0.1253325117195838
 10
0.2603915561236865
 20
0.1243119648020684
 10
0.2614109327115011
 20
0.1229374328823795
 10
0.2610756587086969
 20
0.1220427032411061
 10
0.2598108209810008
 20
0.1208986581519
 10
0.2584764479117187
 20
0.1201575307789775
 10
0.2572890186818122
 20
0.1202989432759866
 10
0.25776647296833
 20
0.1196605181894585
 10
0.2580153390690172
 20
0.1187308359645035
 10
0.2576679579181147
 20
0.1180244797512872
 10
0.2562972634045324
 20
0.1178484726625295
 10
0.2549023568450424
 20
0.118049211130677
 10
0.2530874262460512
 20
0.1186738339539377
 10
0.2518898560051874
 20
0.1194257125758206
 10
0.2506661075812731
 20
0.1201322440577885
 10
0.2498744858443769
 20
0.1202265203550001
 10
0.2494817772907401
 20
0.1195463291875316
 10
0.2491152512239716
 20
0.11891148741759
  0
LWPOLYLINE
  5
A45
330
2
100
AcDbEntity
  8
Profilo
  6
Continuous
370
     0
100
AcDbPolyline
 90
        5
 70
   128
 43
0.0
 10
0.2435409138016209
 20
0.1264225769585851
 10
0.2502899657634932
 20
0.1244003094833971
 10
0.2529176269020952
 20
0.1240319899156765
 10
0.2561595429053409
 20
0.1245182525554393
 10
0.2573227621428669
 20
0.1247535891721515
  0
LWPOLYLINE
  5
A46
330
2
100
AcDbEntity
  8
Profilo
  6
Continuous
370
     0
100
AcDbPolyline
 90
        6
 70
   128
 43
0.0
 10
0.2400943156370237
 20
0.127989243490076
 10
0.2436518420213685
 20
0.1251493101021154
 10
0.2478529091971819
 20
0.122481978353488
 10
0.2517093903903249
 20
0.1211018935917596
 10
0.2547852221389104
 20
0.1207771282064559
 10
0.2572456617200385
 20
0.1207472032761658
  0
LWPOLYLINE
  5
A47
330
2
100
AcDbEntity
  8
Profilo
  6
Continuous
370
     0
100
AcDbPolyline
 90
       16
 70
   128
 43
0.0
 10
0.2374017113615427
 20
0.2137149063132874
 10
0.2382929887038956
 20
0.2095357505609994
 10
0.2382439255227333
 20
0.2054479829746864
 10
0.2374636151025133
 20
0.2004305953302565
 10
0.2368652433468399
 20
0.1972942581040313
 10
0.2366537735466747
 20
0.1959035874021091
 10
0.2392928416844477
 20
0.1937483876716448
 10
0.2408120196678003
 20
0.1922151881300924
 10
0.243315825145308
 20
0.1898550347137581
 10
0.2452744477379789
 20
0.1875606895849304
 10
0.2457942274271656
 20
0.1870996402403313
 10
0.2491923350332912
 20
0.1886809640662172
 10
0.2533955141453199
 20
0.1899659518546834
 10
0.2576282243929673
 20
0.190760559926868
 10
0.2605549713275708
 20
0.1911817395015407
 10
0.2623257822488214
 20
0.1911892586128476
  0
LWPOLYLINE
  5
A48
330
2
100
AcDbEntity
  8
Profilo
  6
Continuous
370
     0
100
AcDbPolyline
 90
       15
 70
   128
 43
0.0
 10
0.2403514763684496
 20
0.2121196525342594
 10
0.2407229719680886
 20
0.2084015496833857
 10
0.2405746858250137
 20
0.2051444997339264
 10
0.2400099729481604
 20
0.2006321571620222
 10
0.2391115428795776
 20
0.1975763006931772
 10
0.2391410738184327
 20
0.1970859161208733
 10
0.2413702217316307
 20
0.1952014783637845
 10
0.2435739730032851
 20
0.192921798591199
 10
0.245367801996839
 20
0.1909128843488052
 10
0.2460122078435902
 20
0.1900163584244443
 10
0.2493152181774776
 20
0.1915427778146043
 10
0.2521025747086143
 20
0.1926446293328036
 10
0.255980296615903
 20
0.1936148545639464
 10
0.2589619733811941
 20
0.1939408928810189
 10
0.2603777982123749
 20
0.1941240304504909
  0
LWPOLYLINE
  5
A49
330
2
100
AcDbEntity
  8
Profilo
  6
Continuous
370
     0
100
AcDbPolyline
 90
       22
 70
   128
 43
0.0
 10
0.2248635300834274
 20
0.1764885057593672
 10
0.2290197009095416
 20
0.1802168651755651
 10
0.2306025679025176
 20
0.1824595269309958
 10
0.2318477143378321
 20
0.1831784125606046
 10
0.2310547588470322
 20
0.1849352577743901
 10
0.2324659249570744
 20
0.1857499949078937
 10
0.2336409471892762
 20
0.1862069280077309
 10
0.2343271979532919
 20
0.1869353368956194
 10
0.2357863117007608
 20
0.1876670210881745
 10
0.2360667995120491
 20
0.1887148260104365
 10
0.2352867350844652
 20
0.1902576428383908
 10
0.2340379849451737
 20
0.190311811038327
 10
0.2331248778593165
 20
0.1897846284165072
 10
0.2327227165570371
 20
0.1893309741781519
 10
0.2326103281749963
 20
0.1904841490065672
 10
0.232092179090515
 20
0.1919567211685619
 10
0.2308305440485943
 20
0.1922249070838817
 10
0.2290744518297001
 20
0.1914324930708084
 10
0.2284268637909244
 20
0.190062011953485
 10
0.2285872000071554
 20
0.1888257890401425
 10
0.2287253621047527
 20
0.1872445668113065
 10
0.2280483986999724
 20
0.1870751833671326
  0
LWPOLYLINE
  5
A4A
330
2
100
AcDbEntity
  8
Profilo
  6
Continuous
370
     0
100
AcDbPolyline
 90
       13
 70
   128
 43
0.0
 10
0.2225727981199186
 20
0.1781557390100325
 10
0.2258803001577374
 20
0.1802867877617191
 10
0.2273579865701518
 20
0.182136526398517
 10
0.2281772734383325
 20
0.1849349356945837
 10
0.2281571811277474
 20
0.1866950610690563
 10
0.2274028904157181
 20
0.1878098304965907
 10
0.2259587452356926
 20
0.1889692448657815
 10
0.2240237486362031
 20
0.1882950019202183
 10
0.2214282729347219
 20
0.1864643062431636
 10
0.2199985366067882
 20
0.1845315208206437
 10
0.2199263328459176
 20
0.1821644449001111
 10
0.2201382206003157
 20
0.1800721200722965
 10
0.2202341183222214
 20
0.1799060203456259
  0
LWPOLYLINE
  5
A4B
330
2
100
AcDbEntity
  8
Profilo
  6
Continuous
370
     0
100
AcDbPolyline
 90
       11
 70
   129
 43
0.0
 10
0.2267166398484623
 20
0.1870814264647235
 10
0.2258586859512204
 20
0.1849250916557028
 10
0.225971074333263
 20
0.1837719168272884
 10
0.2256462382847055
 20
0.1820341132740401
 10
0.224484102811902
 20
0.1813631540459819
 10
0.2231079998301806
 20
0.1806793913989559
 10
0.2222964718711968
 20
0.181318187024519
 10
0.2220051791085589
 20
0.1825895329204443
 10
0.2222598911507654
 20
0.1840653887999423
 10
0.2234570875015991
 20
0.1848673212152731
 10
0.2248110184182157
 20
0.1852060809899902
  0
LWPOLYLINE
  5
A4C
330
2
100
AcDbEntity
  8
Profilo
  6
Continuous
370
     0
100
AcDbPolyline
 90
        7
 70
   128
 43
0.0
 10
0.2199598738815465
 20
0.1851735930500786
 10
0.221044682047101
 20
0.1871287051498451
 10
0.222701272643349
 20
0.1888602678631116
 10
0.2247543453871974
 20
0.1897134081398869
 10
0.2258148996795986
 20
0.1892183926773793
 10
0.2278679681196274
 20
0.1900715352117638
 10
0.2283309660690187
 20
0.1902281116801556
  0
LWPOLYLINE
  5
A4D
330
2
100
AcDbEntity
  8
Profilo
  6
Continuous
370
     0
100
AcDbPolyline
 90
        5
 70
   128
 43
0.0
 10
0.2181315779017816
 20
0.1820141031164737
 10
0.2183182497992129
 20
0.1853331324553733
 10
0.2193422231744209
 20
0.1875853139122667
 10
0.2209601512421906
 20
0.1899589537109904
 10
0.2214674953753204
 20
0.1908055323671838
  0
LWPOLYLINE
  5
A4E
330
2
100
AcDbEntity
  8
Profilo
  6
Continuous
370
     0
100
AcDbPolyline
 90
        4
 70
   128
 43
0.0
 10
0.2208710545527261
 20
0.2014237329746477
 10
0.2243466560197906
 20
0.2057557614770106
 10
0.227571147291862
 20
0.2078388886831681
 10
0.2322286440923311
 20
0.2103464288956913
  0
LWPOLYLINE
  5
A4F
330
2
100
AcDbEntity
  8
Profilo
  6
Continuous
370
     0
100
AcDbPolyline
 90
       11
 70
   128
 43
0.0
 10
0.2195635570817456
 20
0.1953324198853256
 10
0.2217892874352541
 20
0.1982996881034329
 10
0.2246910244668165
 20
0.2007501364463082
 10
0.2278103329080356
 20
0.2024403392346285
 10
0.2299685841789167
 20
0.2036864061868501
 10
0.2296551172976451
 20
0.2046127527672818
 10
0.2283455325647687
 20
0.2049639951803672
 10
0.2268255840269533
 20
0.204529380344939
 10
0.2249864808455499
 20
0.2036890399303161
 10
0.2239073540849632
 20
0.2030660058046014
 10
0.2229591861210758
 20
0.2024078499955099
  0
LWPOLYLINE
  5
A50
330
2
100
AcDbEntity
  8
Profilo
  6
Continuous
370
     0
100
AcDbPolyline
 90
       15
 70
   128
 43
0.0
 10
0.2183889314673917
 20
0.1905783820393947
 10
0.2183889314673917
 20
0.1905783820393947
 10
0.2198315547514853
 20
0.1922971461897158
 10
0.2208276705495611
 20
0.1928722539138791
 10
0.2214123421867034
 20
0.1924346845543847
 10
0.221652085464703
 20
0.1920194370161163
 10
0.222102194404409
 20
0.192390038313523
 10
0.2223569085001427
 20
0.1938658906362049
 10
0.2230395553634197
 20
0.195367348497617
 10
0.2243548237515562
 20
0.1963481853577913
 10
0.2255777958714735
 20
0.1967220668158859
 10
0.2264630453802003
 20
0.1955721757049748
 10
0.2265053118094209
 20
0.1941570496459941
 10
0.2258190612421669
 20
0.1934286456141278
 10
0.2226167440887274
 20
0.191690517723464
  0
LWPOLYLINE
  5
A51
330
2
100
AcDbEntity
  8
Profilo
  6
Continuous
370
     0
100
AcDbPolyline
 90
       10
 70
   128
 43
0.0
 10
0.2250890221529986
 20
0.1969935413047312
 10
0.2270333081652542
 20
0.1982268061371912
 10
0.2283743500721838
 20
0.1987795907409242
 10
0.2296839350018236
 20
0.198428353183861
 10
0.2310672455882625
 20
0.1975660130278193
 10
0.2316297408564805
 20
0.1967834430536261
 10
0.2322051271879126
 20
0.1957868446936035
 10
0.2313435695866937
 20
0.1944035637141277
 10
0.2301814341138884
 20
0.1937326044860685
 10
0.2293863988685705
 20
0.1933843214530717
  0
LWPOLYLINE
  5
A52
330
2
100
AcDbEntity
  8
Profilo
  6
Continuous
370
     0
100
AcDbPolyline
 90
        4
 70
   128
 43
0.0
 10
0.2266842204938357
 20
0.1940388763208749
 10
0.2283609034006706
 20
0.1940103136596671
 10
0.2295173554149774
 20
0.1933491984704889
 10
0.2306165744861492
 20
0.1922121072217293
  0
LWPOLYLINE
  5
A53
330
2
100
AcDbEntity
  8
Profilo
  6
Continuous
370
     0
100
AcDbPolyline
 90
        5
 70
   128
 43
0.0
 10
0.2245114006736775
 20
0.178056929425256
 10
0.2281602251163695
 20
0.1809387088860554
 10
0.229586359793855
 20
0.183644544581305
 10
0.2307284029560734
 20
0.1860756291838376
 10
0.2317580599865416
 20
0.1896598899139898
  0
LWPOLYLINE
  5
A54
330
2
100
AcDbEntity
  8
Profilo
  6
Continuous
370
     0
100
AcDbPolyline
 90
       22
 70
   128
 43
0.0
 10
0.2270087402574146
 20
0.174443337762137
 10
0.2305345139573789
 20
0.1787726956462631
 10
0.2326990841221748
 20
0.1804607820387205
 10
0.2333577306868464
 20
0.1817388160354043
 10
0.235150415189358
 20
0.1810306029389123
 10
0.2358968813753415
 20
0.1824790416224693
 10
0.2362972202751661
 20
0.1836745305890352
 10
0.2369920504868994
 20
0.1843947601329518
 10
0.2376532702305671
 20
0.1858871284307492
 10
0.2386864961285995
 20
0.1862172993123132
 10
0.240264780911668
 20
0.1855117488751836
 10
0.2403784794011874
 20
0.1842670064288332
 10
0.2398954720791395
 20
0.1833297818058947
 10
0.2394615263620072
 20
0.1829064297117573
 10
0.2406187506873167
 20
0.1828492003991537
 10
0.242114371889262
 20
0.182401914733925
 10
0.2424424591459435
 20
0.1811545152725719
 10
0.2417347509763581
 20
0.1793626087470863
 10
0.2403967350189959
 20
0.1786503573457172
 10
0.2391542690924688
 20
0.1787515167008355
 10
0.2375682550902174
 20
0.1788140633780774
 10
0.2374313702132285
 20
0.1781297880438565
  0
LWPOLYLINE
  5
A55
330
2
100
AcDbEntity
  8
Profilo
  6
Continuous
370
     0
100
AcDbPolyline
 90
       13
 70
   128
 43
0.0
 10
0.2287833907618872
 20
0.1722347782253019
 10
0.2307541732253733
 20
0.1756402084468526
 10
0.2325312872892948
 20
0.1772044832825865
 10
0.2352874108762291
 20
0.1781563805114037
 10
0.2370464897517714
 20
0.1782203065970677
 10
0.2381959848578981
 20
0.1775200735245747
 10
0.2394229948064788
 20
0.1761329024585003
 10
0.2388418606238418
 20
0.1741679346594131
 10
0.2371371102032858
 20
0.1714880527995954
 10
0.2352747557284851
 20
0.1699677103161021
 10
0.2329138223027081
 20
0.1697826288321704
 10
0.2308137697207724
 20
0.1698944266794701
 10
0.2306432828675775
 20
0.1699822886459521
  0
LWPOLYLINE
  5
A56
330
2
100
AcDbEntity
  8
Profilo
  6
Continuous
370
     0
100
AcDbPolyline
 90
       11
 70
   129
 43
0.0
 10
0.2375011594872611
 20
0.1767998444089324
 10
0.2353882241063769
 20
0.1758399648463906
 10
0.2342309997810674
 20
0.1758971941589941
 10
0.2325106777315828
 20
0.1754897979216756
 10
0.2318959415727364
 20
0.1742969674232912
 10
0.2312786273937974
 20
0.1728898021955207
 10
0.2319554224171534
 20
0.1721096829893657
 10
0.2332392207294114
 20
0.1718793924031589
 10
0.2347012399551471
 20
0.1722042440386339
 10
0.2354451269306979
 20
0.1734383456830763
 10
0.235718889383151
 20
0.1748069001144245
  0
LWPOLYLINE
  5
A57
330
2
100
AcDbEntity
  8
Profilo
  6
Continuous
370
     0
100
AcDbPolyline
 90
        7
 70
   128
 43
0.0
 10
0.2359179414741122
 20
0.1699597321735555
 10
0.2378190576160706
 20
0.1711366049336686
 10
0.2394695928519437
 20
0.1728739406147314
 10
0.2402237857966889
 20
0.1749653872493559
 10
0.239678723260893
 20
0.1760011104495045
 10
0.2404329186660594
 20
0.1780925528929491
 10
0.2405672218721926
 20
0.1785624953792352
  0
LWPOLYLINE
  5
A58
330
2
100
AcDbEntity
  8
Profilo
  6
Continuous
370
     0
100
AcDbPolyline
 90
        5
 70
   128
 43
0.0
 10
0.2328492998787479
 20
0.1679827441641399
 10
0.2361556395812454
 20
0.1683275918427633
 10
0.2383563897423451
 20
0.1694578756639057
 10
0.2406501155649434
 20
0.1711872336306954
 10
0.2414715185732885
 20
0.1717343995912821
  0
LWPOLYLINE
  5
A59
330
2
100
AcDbEntity
  8
Profilo
  6
Continuous
370
     0
100
AcDbPolyline
 90
       11
 70
   128
 43
0.0
 10
0.2432229826902916
 20
0.1675968222738748
 10
0.2489417797925921
 20
0.172413456028075
 10
0.2512509615931369
 20
0.1754288257058216
 10
0.2527903812006866
 20
0.1786252389908953
 10
0.2539320338970659
 20
0.1808404953007909
 10
0.2548722841335977
 20
0.1805715920367085
 10
0.2552856214833565
 20
0.1792802610796608
 10
0.25492403575883
 20
0.1777413038428927
 10
0.2541724171834176
 20
0.1758641938191085
 10
0.2536015902400579
 20
0.1747565645092969
 10
0.2529894321013058
 20
0.1737780687403014
  0
LWPOLYLINE
  5
A5A
330
2
100
AcDbEntity
  8
Profilo
  6
Continuous
370
     0
100
AcDbPolyline
 90
       10
 70
   128
 43
0.0
 10
0.253975944302891
 20
0.1809256987990903
 10
0.2543375263766561
 20
0.1824646579173117
 10
0.2536271293770924
 20
0.1840169144241694
 10
0.2529580635729194
 20
0.185440037390212
 10
0.2519325680844102
 20
0.1857528725782624
 10
0.250803796996641
 20
0.1846092913684835
 10
0.2497731503090432
 20
0.1844934575260324
 10
0.2484351343516811
 20
0.1837812061246624
 10
0.2480399466509469
 20
0.1830143861885979
 10
0.2475130289230738
 20
0.1819919580673601
  0
LWPOLYLINE
  5
A5B
330
2
100
AcDbEntity
  8
Profilo
  6
Continuous
370
     0
100
AcDbPolyline
 90
       15
 70
   128
 43
0.0
 10
0.2368247041950799
 20
0.1669044665669932
 10
0.2413915401713838
 20
0.1686485032122946
 10
0.2430395022282625
 20
0.1701715045922438
 10
0.2435664187657953
 20
0.171193930403755
 10
0.2431014466321266
 20
0.1717570545308872
 10
0.2426752313245175
 20
0.171976708506365
 10
0.2430239305993322
 20
0.1724439902147429
 10
0.2444859461743083
 20
0.1727688437316703
 10
0.2459531165991344
 20
0.173522364397646
 10
0.2468700696383146
 20
0.174882941114721
 10
0.2471851632861601
 20
0.1761223620052541
 10
0.2459943369846429
 20
0.1769517286185613
 10
0.2445788061848266
 20
0.1769264152107745
 10
0.2438839808141915
 20
0.1762061860951322
 10
0.2423006519911568
 20
0.172924571621484
  0
LWPOLYLINE
  5
A5C
330
2
100
AcDbEntity
  8
Profilo
  6
Continuous
370
     0
100
AcDbPolyline
 90
       10
 70
   128
 43
0.0
 10
0.2474796534077321
 20
0.1756471002728772
 10
0.2486187292743573
 20
0.1776480241631115
 10
0.2491068877954921
 20
0.1790139178165506
 10
0.2486935552868332
 20
0.1803052492018717
 10
0.2477661841984919
 20
0.1816458317572506
 10
0.2469576627987586
 20
0.1821703408967789
 10
0.2459347416795823
 20
0.1826975126956695
 10
0.2445941513528873
 20
0.1817709246834602
 10
0.2439794151940426
 20
0.1805780941850758
 10
0.2436694690945242
 20
0.1797673442064966
  0
LWPOLYLINE
  5
A5D
330
2
100
AcDbEntity
  8
Profilo
  6
Continuous
370
     0
100
AcDbPolyline
 90
        4
 70
   128
 43
0.0
 10
0.2444522297374552
 20
0.1770994806755559
 10
0.2443436860977859
 20
0.1787728902709546
 10
0.2436281367087933
 20
0.1798964754375842
 10
0.2424398847766089
 20
0.1809401786617317
  0
LWPOLYLINE
  5
A5E
330
2
100
AcDbEntity
  8
Profilo
  6
Continuous
370
     0
100
AcDbPolyline
 90
        5
 70
   128
 43
0.0
 10
0.2285921810806735
 20
0.1741664567837823
 10
0.2312965505819524
 20
0.1779486463975943
 10
0.2339312464601826
 20
0.1795022823128733
 10
0.2363050614945732
 20
0.1807590388969209
 10
0.2398361020446083
 20
0.1819585684780915
  0
LWPOLYLINE
  5
A5F
330
2
100
AcDbEntity
  8
Profilo
  6
Continuous
370
     0
100
AcDbPolyline
 90
       46
 70
   129
 43
0.0
 10
0.2328909477179146
 20
0.1657946569917947
 10
0.2371762289941697
 20
0.1662929400570107
 10
0.2403210752911424
 20
0.1670797971759552
 10
0.24462917478728
 20
0.1681524534373441
 10
0.2534262899566042
 20
0.1708166343926902
 10
0.2597701556729466
 20
0.1727263212821239
 10
0.2659936399111484
 20
0.1752238623047541
 10
0.2696547858700815
 20
0.1772280665076864
 10
0.2719161635063583
 20
0.1791910299067365
 10
0.2722064305753986
 20
0.1800159673467711
 10
0.2713560659941927
 20
0.1807301578064968
 10
0.2702026862710825
 20
0.1808311647844695
 10
0.2700823025426495
 20
0.1814190176184609
 10
0.2713616893871635
 20
0.1820481125555377
 10
0.2734093097139216
 20
0.1819155986207934
 10
0.275131974735642
 20
0.1808285605816251
 10
0.2763873624175326
 20
0.1790335022365119
 10
0.2769474599296964
 20
0.1774943743367525
 10
0.2757976447968233
 20
0.1768305282602695
 10
0.2749161563730991
 20
0.1766502741451279
 10
0.2766699472908667
 20
0.1764576771240116
 10
0.2771315989874385
 20
0.1758477413817085
 10
0.2776916964996023
 20
0.1743086134819491
 10
0.2773703078383343
 20
0.1725892327662532
 10
0.2765398225639957
 20
0.1715619596019704
 10
0.2744391382315912
 20
0.1704586883391745
 10
0.2732036296598079
 20
0.1705122782042578
 10
0.2725557799059985
 20
0.1706860342420877
 10
0.2730704956082186
 20
0.1713118836973239
 10
0.2747605311966788
 20
0.1721780667972603
 10
0.2751456774375467
 20
0.1728386686911096
 10
0.2748135952023287
 20
0.1734138519947996
 10
0.2735653342538602
 20
0.1736791980757748
 10
0.2719758032837274
 20
0.173966630621877
 10
0.2706454134865877
 20
0.1741845595899618
 10
0.2689992541173312
 20
0.1740010648490017
 10
0.2668985697849249
 20
0.1728977935862059
 10
0.2616478949093879
 20
0.1711810183725606
 10
0.2571838249819263
 20
0.1698088350778541
 10
0.2493141813744679
 20
0.1671277993142621
 10
0.2420449489616687
 20
0.1643551735075274
 10
0.2360714201635425
 20
0.1612350285114998
 10
0.2339232974687495
 20
0.1602139280994117
 10
0.2336131533431307
 20
0.1611304555825907
 10
0.2331061198366151
 20
0.1639053686798894
 10
0.232580708506918
 20
0.1655740868008552
  0
LWPOLYLINE
  5
A60
330
2
100
AcDbEntity
  8
Profilo
  6
Continuous
370
     0
100
AcDbPolyline
 90
       25
 70
   128
 43
0.0
 10
0.2550791103949757
 20
0.1804054586883743
 10
0.2558386510368149
 20
0.1818113576175508
 10
0.2568811048147777
 20
0.1824132185868747
 10
0.257641474487706
 20
0.1822476070127563
 10
0.2579364947719296
 20
0.181631942480958
 10
0.2584159174458773
 20
0.1818482761698709
 10
0.2589992305718085
 20
0.1834547357000331
 10
0.2603690938040093
 20
0.184850237815366
 10
0.2621367329166522
 20
0.1858707847328804
 10
0.263836800771323
 20
0.186066324794107
 10
0.2644440223687821
 20
0.1853286041698134
 10
0.2648023756152615
 20
0.1836612000213606
 10
0.2647770242130112
 20
0.1821350353587756
 10
0.2640608427832363
 20
0.1811773977289843
 10
0.2648524622698418
 20
0.1812716727269898
 10
0.265782023744443
 20
0.1810223559798491
 10
0.2662200555937582
 20
0.1803683369717625
 10
0.2656871349470777
 20
0.1790932771577939
 10
0.2648158370544
 20
0.1779856218754445
 10
0.2633674325221773
 20
0.1767261572822422
 10
0.2621175014146311
 20
0.1760649703417791
 10
0.2608937529907167
 20
0.1753584388598112
 10
0.2604162964539101
 20
0.1747200124740788
 10
0.2608090050075469
 20
0.1740398213066103
 10
0.2611755310743171
 20
0.1734049795366687
  0
LWPOLYLINE
  5
A61
330
2
100
AcDbEntity
  8
Profilo
  6
Continuous
370
     0
100
AcDbPolyline
 90
        5
 70
   128
 43
0.0
 10
0.2518835680105398
 20
0.1723330064901458
 10
0.2570094289982348
 20
0.1771667232029936
 10
0.2586422336698946
 20
0.1792581847176992
 10
0.2598420758725699
 20
0.182308897653328
 10
0.2602198780028204
 20
0.1834339433715519
  0
LWPOLYLINE
  5
A62
330
2
100
AcDbEntity
  8
Profilo
  6
Continuous
370
     0
100
AcDbPolyline
 90
        6
 70
   128
 43
0.0
 10
0.248803495912711
 20
0.1701314981887125
 10
0.2530417135639138
 20
0.1717924397182089
 10
0.2574522242064519
 20
0.1740970047411543
 10
0.2605756532660561
 20
0.1767467730427685
 10
0.2623948242142906
 20
0.179248138782158
 10
0.2636509597546941
 20
0.1813639794987467
  0
ARC
  5
A63
330
2
100
AcDbEntity
  8
Profilo
  6
Continuous
370
     0
100
AcDbCircle
 10
0.2079526426330944
 20
0.1566027422042775
 30
0.0
 40
0.0678073452200905
100
AcDbArc
 50
141.8320880304662
 51
191.7951861975185
  0
ARC
  5
A64
330
2
100
AcDbEntity
  8
Profilo
  6
Continuous
370
     0
100
AcDbCircle
 10
0.2079526426330944
 20
0.1566027422042775
 30
0.0
 40
0.0645562835032212
100
AcDbArc
 50
138.4030981939945
 51
195.746586495755
  0
ARC
  5
A65
330
2
100
AcDbEntity
  8
Profilo
  6
Continuous
370
     0
100
AcDbCircle
 10
0.2079526426330944
 20
0.1566027422042775
 30
0.0
 40
0.0678073452200905
100
AcDbArc
 50
201.8320880304623
 51
251.7951861975121
  0
ARC
  5
A66
330
2
100
AcDbEntity
  8
Profilo
  6
Continuous
370
     0
100
AcDbCircle
 10
0.2079526426330944
 20
0.1566027422042775
 30
0.0
 40
0.0645562835032212
100
AcDbArc
 50
198.4030981939953
 51
255.7465864957658
  0
ARC
  5
A67
330
2
100
AcDbEntity
  8
Profilo
  6
Continuous
370
     0
100
AcDbCircle
 10
0.2079526426330944
 20
0.1566027422042775
 30
0.0
 40
0.0678073452200905
100
AcDbArc
 50
261.8320880304738
 51
311.7951861975291
  0
ARC
  5
A68
330
2
100
AcDbEntity
  8
Profilo
  6
Continuous
370
     0
100
AcDbCircle
 10
0.2079526426330944
 20
0.1566027422042775
 30
0.0
 40
0.0645562835032212
100
AcDbArc
 50
258.4030981939907
 51
315.7465864957574
  0
ARC
  5
A69
330
2
100
AcDbEntity
  8
Profilo
  6
Continuous
370
     0
100
AcDbCircle
 10
0.2079526426330944
 20
0.1566027422042775
 30
0.0
 40
0.0678073452200905
100
AcDbArc
 50
321.8320880304498
 51
11.79518619751849
  0
ARC
  5
A6A
330
2
100
AcDbEntity
  8
Profilo
  6
Continuous
370
     0
100
AcDbCircle
 10
0.2079526426330944
 20
0.1566027422042775
 30
0.0
 40
0.0645562835032212
100
AcDbArc
 50
318.4030981939945
 51
15.74658649575497
  0
ARC
  5
A6B
330
2
100
AcDbEntity
  8
Profilo
  6
Continuous
370
     0
100
AcDbCircle
 10
0.2079526426330944
 20
0.1566027422042775
 30
0.0
 40
0.0678073452200905
100
AcDbArc
 50
21.83208803046226
 51
71.79518619751212
  0
ARC
  5
A6C
330
2
100
AcDbEntity
  8
Profilo
  6
Continuous
370
     0
100
AcDbCircle
 10
0.2079526426330944
 20
0.1566027422042775
 30
0.0
 40
0.0645562835032212
100
AcDbArc
 50
18.40309819399529
 51
75.74658649576583
  0
ELLIPSE
  5
A6D
330
2
100
AcDbEntity
  8
Profilo
  6
Continuous
370
     0
100
AcDbEllipse
 10
0.2141364758458768
 20
0.2288290041961879
 30
0.0
 11
-0.0047216203096706
 21
0.0001348380705604
 31
0.0
210
0.0
220
0.0
230
1.0
 40
0.5719086857754161
 41
0.0
 42
6.283185307179585
  0
LWPOLYLINE
  5
A6E
330
2
100
AcDbEntity
  8
Profilo
  6
Continuous
370
     0
100
AcDbPolyline
 90
        5
 70
   128
 43
0.0
 10
0.2014555520244099
 20
0.232334808322022
 10
0.2026696842519713
 20
0.2303122281691751
 10
0.2058939538067066
 20
0.2303798414357181
 10
0.2070373132321159
 20
0.2318491704030241
 10
0.2078866648920337
 20
0.2329266796982012
  0
LWPOLYLINE
  5
A6F
330
2
100
AcDbEntity
  8
Profilo
  6
Continuous
370
     0
100
AcDbPolyline
 90
        5
 70
   128
 43
0.0
 10
0.2015904565179292
 20
0.2243793322772265
 10
0.2028045887454906
 20
0.2274806195929666
 10
0.2058612862772073
 20
0.2275717926568936
 10
0.2069865951881398
 20
0.2255928788098873
 10
0.2075262090551608
 20
0.2247838477881134
  0
ELLIPSE
  5
A70
330
2
100
AcDbEntity
  8
Profilo
  6
Continuous
370
     0
100
AcDbEllipse
 10
0.195232234678715
 20
0.2279684478057899
 30
0.0
 11
-0.0045956336597077
 21
-0.0010918016851644
 31
0.0
210
0.0
220
0.0
230
1.0
 40
0.5719086857754161
 41
0.0
 42
6.283185307179585
  0
LWPOLYLINE
  5
A71
330
2
100
AcDbEntity
  8
Profilo
  6
Continuous
370
     0
100
AcDbPolyline
 90
        5
 70
   128
 43
0.0
 10
0.1820760339821903
 20
0.2280727299583538
 10
0.1837722779211242
 20
0.2264333080967451
 10
0.1868691835538781
 20
0.2273331198644084
 10
0.1875932936313522
 20
0.2290483058559371
 10
0.1881348244084013
 20
0.230308928297791
  0
LWPOLYLINE
  5
A72
330
2
100
AcDbEntity
  8
Profilo
  6
Continuous
370
     0
100
AcDbPolyline
 90
        5
 70
   128
 43
0.0
 10
0.1842653704298134
 20
0.2204232460384543
 10
0.1846354598832964
 20
0.2237331000952366
 10
0.1875644056469903
 20
0.2246122980486719
 10
0.189163551178837
 20
0.2229920654336194
 10
0.189894170785728
 20
0.2223502638212058
  0
ELLIPSE
  5
A73
330
2
100
AcDbEntity
  8
Profilo
  6
Continuous
370
     0
100
AcDbEllipse
 10
0.1771948682921747
 20
0.2222444365160538
 30
0.0
 11
-0.0041564621704795
 21
-0.0022440369603327
 31
0.0
210
0.0
220
0.0
230
1.0
 40
0.5719086857754162
 41
0.0
 42
6.283185307179585
  0
LWPOLYLINE
  5
A74
330
2
100
AcDbEntity
  8
Profilo
  6
Continuous
370
     0
100
AcDbPolyline
 90
        5
 70
   128
 43
0.0
 10
0.1644599640564128
 20
0.2189400900389845
 10
0.1665227234854574
 20
0.2177955503592099
 10
0.1692812161952362
 20
0.2194662399430371
 10
0.1695367300196424
 20
0.221310395867944
 10
0.1697335354862894
 20
0.2226682221203399
  0
LWPOLYLINE
  5
A75
330
2
100
AcDbEntity
  8
Profilo
  6
Continuous
370
     0
100
AcDbPolyline
 90
        5
 70
   128
 43
0.0
 10
0.1685545327972826
 20
0.2121178979317525
 10
0.1680553584920337
 20
0.2154107576453996
 10
0.1706569496742234
 20
0.2170180646007593
 10
0.1726209527016977
 20
0.2158669293928174
 10
0.1734927875296592
 20
0.215436094909021
  0
ELLIPSE
  5
A76
330
2
100
AcDbEntity
  8
Profilo
  6
Continuous
370
     0
100
AcDbEllipse
 10
0.1612535933973427
 20
0.2120470522369992
 30
0.0
 11
-0.0034340346532116
 21
-0.0032433448251008
 31
0.0
210
0.0
220
0.0
230
1.0
 40
0.5719086857754162
 41
0.9251819767258579
 42
6.55766144126155
  0
LWPOLYLINE
  5
A77
330
2
100
AcDbEntity
  8
Profilo
  6
Continuous
370
     0
100
AcDbPolyline
 90
        5
 70
   128
 43
0.0
 10
0.1498078483005849
 20
0.2055592628820179
 10
0.1520965495735216
 20
0.2049876038718134
 10
0.1543286426407779
 20
0.2073153165376111
 10
0.1540981473672418
 20
0.2091627662172262
 10
0.1539368155561704
 20
0.2105252626649769
  0
ELLIPSE
  5
A78
330
2
100
AcDbEntity
  8
Profilo
  6
Continuous
370
     0
100
AcDbEllipse
 10
0.1484947815341013
 20
0.1980712298552682
 30
0.0
 11
-0.0024775833493379
 21
-0.0040216240999191
 31
0.0
210
0.0
220
0.0
230
1.0
 40
0.5719086857754162
 41
0.0
 42
6.283185307179585
  0
LWPOLYLINE
  5
A79
330
2
100
AcDbEntity
  8
Profilo
  6
Continuous
370
     0
100
AcDbPolyline
 90
        5
 70
   128
 43
0.0
 10
0.1391182041897037
 20
0.1888421297453395
 10
0.1414768760970397
 20
0.1888823090215381
 10
0.1430304560679478
 20
0.1917084149978598
 10
0.1423296595684484
 20
0.1934332577895729
 10
0.1418211849759712
 20
0.1947075725513953
  0
LWPOLYLINE
  5
A7A
330
2
100
AcDbEntity
  8
Profilo
  6
Continuous
370
     0
100
AcDbPolyline
 90
        5
 70
   128
 43
0.0
 10
0.146075300790454
 20
0.1849812224414146
 10
0.1439965733043693
 20
0.1875833354519067
 10
0.1454459638807255
 20
0.1902760996980217
 10
0.1477224079996007
 20
0.1902611888784915
 10
0.1486928563504173
 20
0.1903239926846782
  0
ELLIPSE
  5
A7B
330
2
100
AcDbEntity
  8
Profilo
  6
Continuous
370
     0
100
AcDbEllipse
 10
0.1397879246459923
 20
0.181269398570039
 30
0.0
 11
-0.0013522888346069
 21
-0.0045258363383759
 31
0.0
210
0.0
220
0.0
230
1.0
 40
0.5719086857754161
 41
0.0
 42
6.283185307179585
  0
LWPOLYLINE
  5
A7C
330
2
100
AcDbEntity
  8
Profilo
  6
Continuous
370
     0
100
AcDbPolyline
 90
        5
 70
   128
 43
0.0
 10
0.1331195133044489
 20
0.1699279356258442
 10
0.13538741625359
 20
0.1705772150371731
 10
0.1361566092205462
 20
0.1737091198720928
 10
0.1350332696184044
 20
0.1751938105900854
 10
0.1342123039477028
 20
0.1762931012208679
  0
LWPOLYLINE
  5
A7D
330
2
100
AcDbEntity
  8
Profilo
  6
Continuous
370
     0
100
AcDbPolyline
 90
        5
 70
   128
 43
0.0
 10
0.1408388289287346
 20
0.1679992146469673
 10
0.1381574559594836
 20
0.1699746485437478
 10
0.1388605210787017
 20
0.1729507889581323
 10
0.1410632564492986
 20
0.173525573305532
 10
0.1419843827532845
 20
0.1738374076393971
  0
ELLIPSE
  5
A7E
330
2
100
AcDbEntity
  8
Profilo
  6
Continuous
370
     0
100
AcDbEllipse
 10
0.135726380641183
 20
0.1627865754170607
 30
0.0
 11
-0.0001348380705604
 21
-0.0047216203096706
 31
0.0
210
0.0
220
0.0
230
1.0
 40
0.5719086857754161
 41
0.0
 42
6.283185307179585
  0
LWPOLYLINE
  5
A7F
330
2
100
AcDbEntity
  8
Profilo
  6
Continuous
370
     0
100
AcDbPolyline
 90
        5
 70
   128
 43
0.0
 10
0.1322205765153499
 20
0.1501056515955929
 10
0.1342431566681967
 20
0.1513197838231552
 10
0.1341755434016538
 20
0.1545440533778905
 10
0.1327062144343487
 20
0.155687412803299
 10
0.1316287051391716
 20
0.1565367644632167
  0
LWPOLYLINE
  5
A80
330
2
100
AcDbEntity
  8
Profilo
  6
Continuous
370
     0
100
AcDbPolyline
 90
        5
 70
   128
 43
0.0
 10
0.1401760525601454
 20
0.1502405560891122
 10
0.1370747652444053
 20
0.1514546883166736
 10
0.1369835921804783
 20
0.1545113858483913
 10
0.1389625060274846
 20
0.1556366947593237
 10
0.1397715370492585
 20
0.1561763086263439
  0
ELLIPSE
  5
A81
330
2
100
AcDbEntity
  8
Profilo
  6
Continuous
370
     0
100
AcDbEllipse
 10
0.1365869370315829
 20
0.143882334249898
 30
0.0
 11
0.0010918016851643
 21
-0.0045956336597077
 31
0.0
210
0.0
220
0.0
230
1.0
 40
0.5719086857754161
 41
0.9251819767259563
 42
6.557661441261427
  0
LWPOLYLINE
  5
A82
330
2
100
AcDbEntity
  8
Profilo
  6
Continuous
370
     0
100
AcDbPolyline
 90
        5
 70
   128
 43
0.0
 10
0.1364826548790181
 20
0.1307261335533742
 10
0.1381220767406259
 20
0.1324223774923081
 10
0.1372222649729626
 20
0.1355192831250628
 10
0.1355070789814357
 20
0.1362433932025362
 10
0.1342464565395809
 20
0.1367849239795853
  0
ELLIPSE
  5
A83
330
2
100
AcDbEntity
  8
Profilo
  6
Continuous
370
     0
100
AcDbEllipse
 10
0.1423109483213172
 20
0.1258449678633586
 30
0.0
 11
0.0022440369603327
 21
-0.0041564621704795
 31
0.0
210
0.0
220
0.0
230
1.0
 40
0.5719086857754161
 41
0.0
 42
6.283185307179585
  0
LWPOLYLINE
  5
A84
330
2
100
AcDbEntity
  8
Profilo
  6
Continuous
370
     0
100
AcDbPolyline
 90
        5
 70
   128
 43
0.0
 10
0.1456152947983882
 20
0.1131100636275959
 10
0.1467598344781611
 20
0.1151728230566404
 10
0.1450891448943357
 20
0.1179313157664192
 10
0.1432449889694269
 20
0.1181868295908263
 10
0.1418871627170319
 20
0.1183836350574725
  0
LWPOLYLINE
  5
A85
330
2
100
AcDbEntity
  8
Profilo
  6
Continuous
370
     0
100
AcDbPolyline
 90
        5
 70
   128
 43
0.0
 10
0.1524374869056193
 20
0.1172046323684656
 10
0.1491446271919732
 20
0.1167054580632167
 10
0.1475373202366126
 20
0.1193070492454064
 10
0.1486884554445553
 20
0.1212710522728817
 10
0.1491192899283509
 20
0.1221428871008432
  0
ELLIPSE
  5
A86
330
2
100
AcDbEntity
  8
Profilo
  6
Continuous
370
     0
100
AcDbEllipse
 10
0.1525083326003735
 20
0.1099036929685266
 30
0.0
 11
0.0032433448251008
 21
-0.0034340346532116
 31
0.0
210
0.0
220
0.0
230
1.0
 40
0.5719086857754162
 41
0.0
 42
6.283185307179585
  0
LWPOLYLINE
  5
A87
330
2
100
AcDbEntity
  8
Profilo
  6
Continuous
370
     0
100
AcDbPolyline
 90
        5
 70
   128
 43
0.0
 10
0.1589961219553531
 20
0.0984579478717688
 10
0.1595677809655585
 20
0.1007466491447055
 10
0.1572400682997608
 20
0.1029787422119619
 10
0.1553926186201449
 20
0.1027482469384266
 10
0.1540301221723941
 20
0.1025869151273544
  0
LWPOLYLINE
  5
A88
330
2
100
AcDbEntity
  8
Profilo
  6
Continuous
370
     0
100
AcDbPolyline
 90
        5
 70
   128
 43
0.0
 10
0.1645261011320156
 20
0.1041787108127905
 10
0.1614746387092816
 20
0.1028442906527886
 10
0.1592487580648041
 20
0.1049412331137377
 10
0.1598523479035561
 20
0.10713625007619
 10
0.1600428546006509
 20
0.1080898860224687
  0
ELLIPSE
  5
A89
330
2
100
AcDbEntity
  8
Profilo
  6
Continuous
370
     0
100
AcDbEllipse
 10
0.1664841549821028
 20
0.0971448811052844
 30
0.0
 11
0.0040216240999191
 21
-0.0024775833493379
 31
0.0
210
0.0
220
0.0
230
1.0
 40
0.5719086857754162
 41
0.0
 42
6.283185307179585
  0
LWPOLYLINE
  5
A8A
330
2
100
AcDbEntity
  8
Profilo
  6
Continuous
370
     0
100
AcDbPolyline
 90
        5
 70
   128
 43
0.0
 10
0.1757132550920333
 20
0.0877683037608867
 10
0.1756730758158338
 20
0.0901269756682228
 10
0.1728469698395121
 20
0.0916805556391318
 10
0.1711221270477989
 20
0.0909797591396324
 10
0.1698478122859766
 20
0.0904712845471542
  0
LWPOLYLINE
  5
A8B
330
2
100
AcDbEntity
  8
Profilo
  6
Continuous
370
     0
100
AcDbPolyline
 90
        5
 70
   128
 43
0.0
 10
0.1795741623959572
 20
0.0947254003616371
 10
0.1769720493854661
 20
0.0926466728755524
 10
0.1742792851393493
 20
0.0940960634519094
 10
0.1742941959588813
 20
0.0963725075707846
 10
0.1742313921526937
 20
0.0973429559216003
  0
ELLIPSE
  5
A8C
330
2
100
AcDbEntity
  8
Profilo
  6
Continuous
370
     0
100
AcDbEllipse
 10
0.1832859862673328
 20
0.0884380242171771
 30
0.0
 11
0.0045258363383759
 21
-0.0013522888346069
 31
0.0
210
0.0
220
0.0
230
1.0
 40
0.5719086857754162
 41
0.9251819767259515
 42
6.557661441261391
  0
LWPOLYLINE
  5
A8D
330
2
100
AcDbEntity
  8
Profilo
  6
Continuous
370
     0
100
AcDbPolyline
 90
        5
 70
   128
 43
0.0
 10
0.1946274492115276
 20
0.0817696128756338
 10
0.1939781698001988
 20
0.084037515824773
 10
0.1908462649652791
 20
0.0848067087917301
 10
0.1893615742472865
 20
0.0836833691895875
 10
0.1882622836165049
 20
0.0828624035188858
  0
ELLIPSE
  5
A8E
330
2
100
AcDbEntity
  8
Profilo
  6
Continuous
370
     0
100
AcDbEllipse
 10
0.2017688094203121
 20
0.0843764802123679
 30
0.0
 11
0.0047216203096706
 21
-0.0001348380705604
 31
0.0
210
0.0
220
0.0
230
1.0
 40
0.5719086857754161
 41
0.0
 42
6.283185307179585
  0
LWPOLYLINE
  5
A8F
330
2
100
AcDbEntity
  8
Profilo
  6
Continuous
370
     0
100
AcDbPolyline
 90
        5
 70
   128
 43
0.0
 10
0.214449733241779
 20
0.0808706760865338
 10
0.2132356010142176
 20
0.0828932562393798
 10
0.2100113314594822
 20
0.0828256429728378
 10
0.2088679720340729
 20
0.0813563140055318
 10
0.2080186203741552
 20
0.0802788047103546
  0
LWPOLYLINE
  5
A90
330
2
100
AcDbEntity
  8
Profilo
  6
Continuous
370
     0
100
AcDbPolyline
 90
        5
 70
   128
 43
0.0
 10
0.2143148287482597
 20
0.0888261521313294
 10
0.2131006965206983
 20
0.0857248648155884
 10
0.2100439989889815
 20
0.0856336917516622
 10
0.2089186900780491
 20
0.0876126055986685
 10
0.208379076211028
 20
0.0884216366204424
  0
ELLIPSE
  5
A91
330
2
100
AcDbEntity
  8
Profilo
  6
Continuous
370
     0
100
AcDbEllipse
 10
0.2206730505874739
 20
0.0852370366027659
 30
0.0
 11
0.0045956336597077
 21
0.0010918016851644
 31
0.0
210
0.0
220
0.0
230
1.0
 40
0.5719086857754162
 41
0.0
 42
6.283185307179585
  0
LWPOLYLINE
  5
A92
330
2
100
AcDbEntity
  8
Profilo
  6
Continuous
370
     0
100
AcDbPolyline
 90
        5
 70
   128
 43
0.0
 10
0.2338292512839986
 20
0.0851327544502021
 10
0.2321330073450629
 20
0.0867721763118108
 10
0.229036101712309
 20
0.0858723645441475
 10
0.2283119916348366
 20
0.0841571785526187
 10
0.2277704608577875
 20
0.0828965561107648
  0
LWPOLYLINE
  5
A93
330
2
100
AcDbEntity
  8
Profilo
  6
Continuous
370
     0
100
AcDbPolyline
 90
        5
 70
   128
 43
0.0
 10
0.2316399148363755
 20
0.0927822383701016
 10
0.2312698253828924
 20
0.0894723843133191
 10
0.2283408796191968
 20
0.0885931863598839
 10
0.2267417340873519
 20
0.0902134189749355
 10
0.2260111144804591
 20
0.09085522058735
  0
ELLIPSE
  5
A94
330
2
100
AcDbEntity
  8
Profilo
  6
Continuous
370
     0
100
AcDbEllipse
 10
0.2387104169740142
 20
0.090961047892502
 30
0.0
 11
0.0041564621704795
 21
0.0022440369603327
 31
0.0
210
0.0
220
0.0
230
1.0
 40
0.5719086857754162
 41
0.0
 42
6.283185307179585
  0
LWPOLYLINE
  5
A95
330
2
100
AcDbEntity
  8
Profilo
  6
Continuous
370
     0
100
AcDbPolyline
 90
        5
 70
   128
 43
0.0
 10
0.251445321209776
 20
0.0942653943695712
 10
0.2493825617807315
 20
0.0954099340493459
 10
0.2466240690709527
 20
0.0937392444655187
 10
0.2463685552465464
 20
0.0918950885406118
 10
0.2461717497798994
 20
0.0905372622882159
  0
LWPOLYLINE
  5
A96
330
2
100
AcDbEntity
  8
Profilo
  6
Continuous
370
     0
100
AcDbPolyline
 90
        5
 70
   128
 43
0.0
 10
0.2473507524689062
 20
0.1010875864768032
 10
0.2478499267741552
 20
0.0977947267631562
 10
0.2452483355919655
 20
0.0961874198077965
 10
0.2432843325644893
 20
0.0973385550157384
 10
0.2424124977365296
 20
0.0977693894995339
  0
ELLIPSE
  5
A97
330
2
100
AcDbEntity
  8
Profilo
  6
Continuous
370
     0
100
AcDbEllipse
 10
0.2546516918688444
 20
0.1011584321715565
 30
0.0
 11
0.0034340346532116
 21
0.0032433448251008
 31
0.0
210
0.0
220
0.0
230
1.0
 40
0.5719086857754162
 41
0.9251819767258448
 42
6.557661441261571
  0
LWPOLYLINE
  5
A98
330
2
100
AcDbEntity
  8
Profilo
  6
Continuous
370
     0
100
AcDbPolyline
 90
        5
 70
   128
 43
0.0
 10
0.2660974369656039
 20
0.1076462215265379
 10
0.2638087356926673
 20
0.1082178805367424
 10
0.2615766426254091
 20
0.1058901678709447
 10
0.2618071378989453
 20
0.1040427181913297
 10
0.2619684697100166
 20
0.1026802217435789
  0
ELLIPSE
  5
A99
330
2
100
AcDbEntity
  8
Profilo
  6
Continuous
370
     0
100
AcDbEllipse
 10
0.2674105037320875
 20
0.1151342545532867
 30
0.0
 11
0.0024775833493379
 21
0.0040216240999191
 31
0.0
210
0.0
220
0.0
230
1.0
 40
0.5719086857754161
 41
0.0
 42
6.283185307179585
  0
LWPOLYLINE
  5
A9A
330
2
100
AcDbEntity
  8
Profilo
  6
Continuous
370
     0
100
AcDbPolyline
 90
        5
 70
   128
 43
0.0
 10
0.2767870810764852
 20
0.1243633546632163
 10
0.2744284091691491
 20
0.1243231753870177
 10
0.272874829198241
 20
0.121497069410696
 10
0.2735756256977386
 20
0.1197722266189829
 10
0.2740841002902177
 20
0.1184979118571596
  0
LWPOLYLINE
  5
A9B
330
2
100
AcDbEntity
  8
Profilo
  6
Continuous
370
     0
100
AcDbPolyline
 90
        5
 70
   128
 43
0.0
 10
0.2698299844757348
 20
0.1282242619671412
 10
0.2719087119618195
 20
0.1256221489566491
 10
0.2704593213854616
 20
0.1229293847105332
 10
0.2681828772665882
 20
0.1229442955300643
 10
0.2672124289157716
 20
0.1228814917238776
  0
ELLIPSE
  5
A9C
330
2
100
AcDbEntity
  8
Profilo
  6
Continuous
370
     0
100
AcDbEllipse
 10
0.2761173606201948
 20
0.1319360858385167
 30
0.0
 11
0.0013522888346069
 21
0.0045258363383759
 31
0.0
210
0.0
220
0.0
230
1.0
 40
0.5719086857754162
 41
0.0
 42
6.283185307179585
  0
LWPOLYLINE
  5
A9D
330
2
100
AcDbEntity
  8
Profilo
  6
Continuous
370
     0
100
AcDbPolyline
 90
        5
 70
   128
 43
0.0
 10
0.2827857719617382
 20
0.1432775487827107
 10
0.2805178690125989
 20
0.1426282693713827
 10
0.2797486760456427
 20
0.139496364536463
 10
0.2808720156477844
 20
0.1380116738184704
 10
0.2816929813184861
 20
0.1369123831876879
  0
LWPOLYLINE
  5
A9E
330
2
100
AcDbEntity
  8
Profilo
  6
Continuous
370
     0
100
AcDbPolyline
 90
        5
 70
   128
 43
0.0
 10
0.2750664563374543
 20
0.1452062697615885
 10
0.2777478293067053
 20
0.143230835864808
 10
0.2770447641874871
 20
0.1402546954504235
 10
0.2748420288168902
 20
0.1396799111030238
 10
0.2739209025129026
 20
0.1393680767691587
  0
ELLIPSE
  5
A9F
330
2
100
AcDbEntity
  8
Profilo
  6
Continuous
370
     0
100
AcDbEllipse
 10
0.2801789046250041
 20
0.150418908991495
 30
0.0
 11
0.0001348380705604
 21
0.0047216203096706
 31
0.0
210
0.0
220
0.0
230
1.0
 40
0.5719086857754161
 41
0.0
 42
6.283185307179585
  0
LWPOLYLINE
  5
AA0
330
2
100
AcDbEntity
  8
Profilo
  6
Continuous
370
     0
100
AcDbPolyline
 90
        5
 70
   128
 43
0.0
 10
0.2836847087508372
 20
0.163099832812962
 10
0.2816621285979921
 20
0.1618857005854006
 10
0.281729741864535
 20
0.1586614310306652
 10
0.2831990708318402
 20
0.1575180716052568
 10
0.2842765801270173
 20
0.1566687199453391
  0
LWPOLYLINE
  5
AA1
330
2
100
AcDbEntity
  8
Profilo
  6
Continuous
370
     0
100
AcDbPolyline
 90
        5
 70
   128
 43
0.0
 10
0.2757292327060434
 20
0.1629649283194436
 10
0.2788305200217835
 20
0.1617507960918813
 10
0.2789216930857106
 20
0.1586940985601645
 10
0.2769427792387042
 20
0.1575687896492321
 10
0.2761337482169304
 20
0.1570291757822119
  0
ELLIPSE
  5
AA2
330
2
100
AcDbEntity
  8
Profilo
  6
Continuous
370
     0
100
AcDbEllipse
 10
0.279318348234606
 20
0.1693231501586578
 30
0.0
 11
-0.0010918016851643
 21
0.0045956336597077
 31
0.0
210
0.0
220
0.0
230
1.0
 40
0.5719086857754162
 41
0.9251819767259046
 42
6.55766144126138
  0
LWPOLYLINE
  5
AA3
330
2
100
AcDbEntity
  8
Profilo
  6
Continuous
370
     0
100
AcDbPolyline
 90
        5
 70
   128
 43
0.0
 10
0.279422630387169
 20
0.1824793508551816
 10
0.2777832085255611
 20
0.1807831069162477
 10
0.2786830202932244
 20
0.1776862012834929
 10
0.2803982062847532
 20
0.1769620912060196
 10
0.281658828726608
 20
0.1764205604289705
  0
ELLIPSE
  5
AA4
330
2
100
AcDbEntity
  8
Profilo
  6
Continuous
370
     0
100
AcDbEllipse
 10
0.2735943369448699
 20
0.1873605165451972
 30
0.0
 11
-0.0022440369603327
 21
0.0041564621704795
 31
0.0
210
0.0
220
0.0
230
1.0
 40
0.5719086857754162
 41
0.0
 42
6.283185307179585
  0
LWPOLYLINE
  5
AA5
330
2
100
AcDbEntity
  8
Profilo
  6
Continuous
370
     0
100
AcDbPolyline
 90
        5
 70
   128
 43
0.0
 10
0.2702899904678007
 20
0.2000954207809599
 10
0.269145450788026
 20
0.1980326613519154
 10
0.2708161403718532
 20
0.1952741686421366
 10
0.2726602962967601
 20
0.1950186548177295
 10
0.2740181225491569
 20
0.1948218493510824
  0
LWPOLYLINE
  5
AA6
330
2
100
AcDbEntity
  8
Profilo
  6
Continuous
370
     0
100
AcDbPolyline
 90
        5
 70
   128
 43
0.0
 10
0.2634677983605695
 20
0.1960008520400902
 10
0.2667606580742157
 20
0.1965000263453391
 10
0.2683679650295763
 20
0.1938984351631493
 10
0.2672168298216335
 20
0.1919344321356742
 10
0.266785995337838
 20
0.1910625973077126
  0
ELLIPSE
  5
AA7
330
2
100
AcDbEntity
  8
Profilo
  6
Continuous
370
     0
100
AcDbEllipse
 10
0.2633969526658153
 20
0.2033017914400283
 30
0.0
 11
-0.0032433448251008
 21
0.0034340346532116
 31
0.0
210
0.0
220
0.0
230
1.0
 40
0.5719086857754162
 41
0.0
 42
6.283185307179585
  0
LWPOLYLINE
  5
AA8
330
2
100
AcDbEntity
  8
Profilo
  6
Continuous
370
     0
100
AcDbPolyline
 90
        5
 70
   128
 43
0.0
 10
0.256909163310834
 20
0.2147475365367869
 10
0.2563375043006304
 20
0.2124588352638503
 10
0.2586652169664281
 20
0.210226742196593
 10
0.2605126666460422
 20
0.2104572374701292
 10
0.261875163093793
 20
0.2106185692812005
  0
LWPOLYLINE
  5
AA9
330
2
100
AcDbEntity
  8
Profilo
  6
Continuous
370
     0
100
AcDbPolyline
 90
        5
 70
   128
 43
0.0
 10
0.2513791841341733
 20
0.2090267735957644
 10
0.2544306465569073
 20
0.2103611937557671
 10
0.2566565272013848
 20
0.2082642512948172
 10
0.256052937362631
 20
0.2060692343323657
 10
0.2558624306655379
 20
0.2051155983860861
  0
ELLIPSE
  5
AAA
330
2
100
AcDbEntity
  8
Profilo
  6
Continuous
370
     0
100
AcDbEllipse
 10
0.2494211302840843
 20
0.2160606033032715
 30
0.0
 11
-0.0040216240999191
 21
0.0024775833493379
 31
0.0
210
0.0
220
0.0
230
1.0
 40
0.5719086857754162
 41
0.0
 42
6.283185307179585
  0
LWPOLYLINE
  5
AAB
330
2
100
AcDbEntity
  8
Profilo
  6
Continuous
370
     0
100
AcDbPolyline
 90
        5
 70
   128
 43
0.0
 10
0.2401920301741556
 20
0.2254371806476691
 10
0.2402322094503551
 20
0.223078508740333
 10
0.2430583154266768
 20
0.221524928769424
 10
0.2447831582183899
 20
0.2222257252689225
 10
0.2460574729802123
 20
0.2227341998614016
  0
LWPOLYLINE
  5
AAC
330
2
100
AcDbEntity
  8
Profilo
  6
Continuous
370
     0
100
AcDbPolyline
 90
        5
 70
   128
 43
0.0
 10
0.2363311228702298
 20
0.2184800840469178
 10
0.2389332358807228
 20
0.2205588115330034
 10
0.2416260001268378
 20
0.2191094209566455
 10
0.2416110893073076
 20
0.2168329768377712
 10
0.2416738931134952
 20
0.2158625284869555
  0
ELLIPSE
  5
AAD
330
2
100
AcDbEntity
  8
Profilo
  6
Continuous
370
     0
100
AcDbEllipse
 10
0.232619298998856
 20
0.2247674601913787
 30
0.0
 11
-0.0045258363383759
 21
0.0013522888346069
 31
0.0
210
0.0
220
0.0
230
1.0
 40
0.5719086857754162
 41
0.9251819767258682
 42
6.557661441261513
  0
LWPOLYLINE
  5
AAE
330
2
100
AcDbEntity
  8
Profilo
  6
Continuous
370
     0
100
AcDbPolyline
 90
        5
 70
   128
 43
0.0
 10
0.2212778360546612
 20
0.2314358715329221
 10
0.2219271154659901
 20
0.2291679685837828
 10
0.2250590203009097
 20
0.2283987756168266
 10
0.2265437110189024
 20
0.2295221152189683
 10
0.227643001649684
 20
0.23034308088967
  0
LWPOLYLINE
  5
AAF
330
2
100
AcDbEntity
  8
Profilo
  6
Continuous
370
     0
100
AcDbPolyline
 90
       27
 70
   129
 43
0.0
 10
0.2107347280472074
 20
0.1488967815990407
 10
0.2090554141423557
 20
0.1484491792280863
 10
0.2079358715391195
 20
0.1484491792280863
 10
0.2073201251608681
 20
0.1481694264470347
 10
0.2067043746755606
 20
0.1469944741208979
 10
0.2062005825576336
 20
0.1454838174181332
 10
0.2058087405929716
 20
0.1437493595298922
 10
0.2060073866074661
 20
0.1420640272101247
 10
0.2074320794211926
 20
0.1419030036473238
 10
0.2093353018466915
 20
0.1419030036473238
 10
0.2097754181565539
 20
0.1420640272101247
 10
0.2101189816689577
 20
0.1434136603500885
 10
0.2111825450885019
 20
0.1445326636790613
 10
0.2121901334314136
 20
0.1447564648645384
 10
0.2135335845552952
 20
0.1449243144544412
 10
0.214597152081899
 20
0.1445326636790613
 10
0.2156047404248107
 20
0.1442529134964209
 10
0.2167802581046776
 20
0.1442529134964209
 10
0.2176199171106323
 20
0.1450921666427542
 10
0.2185715262698555
 20
0.1461552209745646
 10
0.2182916426725741
 20
0.1469944741208979
 10
0.2168362372883696
 20
0.1481694264470347
 10
0.2156047404248107
 20
0.1491765317816811
 10
0.2142612893009272
 20
0.1497919837425372
 10
0.2134216302949725
 20
0.1497360347453731
 10
0.2126939296563983
 20
0.1494003329671582
 10
0.2119662249107663
 20
0.1491765317816811
  0
LWPOLYLINE
  5
AB0
330
2
100
AcDbEntity
  8
Profilo
  6
Continuous
370
     0
100
AcDbPolyline
 90
       27
 70
   129
 43
0.0
 10
0.2160172429848495
 20
0.1551591185457792
 10
0.2155652210564622
 20
0.1534809888577712
 10
0.215005449754845
 20
0.1525114365227513
 10
0.214939849580889
 20
0.1518383081263716
 10
0.2156495129009053
 20
0.1507175764006336
 10
0.2167058839229328
 20
0.1495259512769
 10
0.2180120475336147
 20
0.1483193772371138
 10
0.2195709111435975
 20
0.1476487435721423
 10
0.2204227080464549
 20
0.1488020519600179
 10
0.2213743192592052
 20
0.150450290929553
 10
0.2214549269181423
 20
0.1509119546159145
 10
0.2204578920893465
 20
0.1518843059154497
 10
0.2200205884893074
 20
0.1533648805197986
 10
0.220330565148743
 20
0.154349378214055
 10
0.2208569287018158
 20
0.1555967658110319
 10
0.2217278919860068
 20
0.1563220169200199
 10
0.2224739569223417
 20
0.1570547389302183
 10
0.2230617157622761
 20
0.1580727671035817
 10
0.2227547307203239
 20
0.1592195597064214
 10
0.222309903242984
 20
0.1605752045786874
 10
0.2214431468994129
 20
0.1607524448465063
 10
0.2196979056446406
 20
0.1600795029740482
 10
0.2182099784087694
 20
0.1595165480728479
 10
0.2170052558139184
 20
0.1586608112512508
 10
0.2166338795638016
 20
0.1579056707229962
 10
0.2165607555125431
 20
0.1571076125945327
 10
0.216390720651749
 20
0.1563655012056223
  0
LWPOLYLINE
  5
AB1
330
2
100
AcDbEntity
  8
Profilo
  6
Continuous
370
     0
100
AcDbPolyline
 90
       27
 70
   129
 43
0.0
 10
0.2132351575707347
 20
0.1628650791510168
 10
0.2144624495472009
 20
0.1616345518339632
 10
0.2150222208488199
 20
0.1606649994989424
 10
0.2155723670531153
 20
0.1602716238836143
 10
0.2168977808584391
 20
0.1603258444840141
 10
0.2184579439983936
 20
0.1606448760630443
 10
0.2201559495737357
 20
0.1611727599115
 10
0.2215161671692258
 20
0.162187458566295
 10
0.2209432712583568
 20
0.1635017905169715
 10
0.2199916600456064
 20
0.1651500294865075
 10
0.2196321513946828
 20
0.1654506696100672
 10
0.2182915530534832
 20
0.1650733877696395
 10
0.2167906860338999
 20
0.1654349590450148
 10
0.2160930743504239
 20
0.1661956555537948
 10
0.2152759867796132
 20
0.1672751935608682
 10
0.2150833825372023
 20
0.168392095445236
 10
0.2148218591306272
 20
0.1694045676380748
 10
0.2142341002906929
 20
0.1704225958114382
 10
0.2130874562427842
 20
0.1707301352679455
 10
0.2116910196062229
 20
0.1710227258084002
 10
0.2111041468599315
 20
0.1703607129298867
 10
0.2108143109893654
 20
0.1685128187312909
 10
0.2105578806170532
 20
0.1669427584954452
 10
0.2106966091460856
 20
0.165471569712992
 10
0.2111648919019218
 20
0.1647723781819006
 10
0.2118194684892392
 20
0.1643100218316519
 10
0.2123771383740753
 20
0.1637917116282197
  0
LWPOLYLINE
  5
AB2
330
2
100
AcDbEntity
  8
Profilo
  6
Continuous
370
     0
100
AcDbPolyline
 90
       27
 70
   129
 43
0.0
 10
0.2051705572189815
 20
0.1643087028095151
 10
0.2068498711238331
 20
0.1647563051804694
 10
0.2079694137270693
 20
0.1647563051804694
 10
0.208585160105319
 20
0.165036057961521
 10
0.2092009105906283
 20
0.1662110102876579
 10
0.2097047027085552
 20
0.1677216669904226
 10
0.2100965446732155
 20
0.1694561248786636
 10
0.2098978986587228
 20
0.1711414571984311
 10
0.2084732058449963
 20
0.1713024807612311
 10
0.2065699834194956
 20
0.1713024807612311
 10
0.206129867109635
 20
0.1711414571984311
 10
0.2057863035972312
 20
0.1697918240584672
 10
0.204722740177687
 20
0.1686728207294936
 10
0.2037151518347753
 20
0.1684490195440173
 10
0.2023717007108918
 20
0.1682811699541146
 10
0.2013081331842899
 20
0.1686728207294936
 10
0.2003005448413782
 20
0.168952570912134
 10
0.1991250271615095
 20
0.168952570912134
 10
0.1982853681555548
 20
0.1681133177658016
 10
0.1973337589963333
 20
0.1670502634339912
 10
0.197613642593613
 20
0.1662110102876579
 10
0.1990690479778192
 20
0.165036057961521
 10
0.2003005448413782
 20
0.1640289526268747
 10
0.2016439959652616
 20
0.1634135006660186
 10
0.2024836549712163
 20
0.1634694496631827
 10
0.2032113556097905
 20
0.1638051514413976
 10
0.2039390603554225
 20
0.1640289526268747
  0
LWPOLYLINE
  5
AB3
330
2
100
AcDbEntity
  8
Profilo
  6
Continuous
370
     0
100
AcDbPolyline
 90
       27
 70
   129
 43
0.0
 10
0.1998880422813394
 20
0.1580463658627766
 10
0.2003400642097266
 20
0.1597244955507846
 10
0.2008998355113438
 20
0.1606940478858045
 10
0.2009654356852981
 20
0.1613671762821841
 10
0.2002557723652818
 20
0.1624879080079222
 10
0.1991994013432561
 20
0.1636795331316558
 10
0.1978932377325742
 20
0.1648861071714411
 10
0.1963343741225896
 20
0.1655567408364135
 10
0.1954825772197339
 20
0.1644034324485379
 10
0.1945309660069836
 20
0.1627551934790019
 10
0.1944503583480466
 20
0.1622935297926413
 10
0.1954473931768423
 20
0.1613211784931052
 10
0.1958846967768797
 20
0.1598406038887572
 10
0.195574720117444
 20
0.1588561061945008
 10
0.195048356564373
 20
0.1576087185975239
 10
0.194177393280182
 20
0.1568834674885359
 10
0.1934313283438471
 20
0.1561507454783375
 10
0.1928435695039128
 20
0.1551327173049732
 10
0.1931505545458649
 20
0.1539859247021335
 10
0.1935953820232048
 20
0.1526302798298684
 10
0.194462138366776
 20
0.1524530395620495
 10
0.1962073796215482
 20
0.1531259814345076
 10
0.1976953068574194
 20
0.1536889363357079
 10
0.1989000294522705
 20
0.1545446731573049
 10
0.1992714057023872
 20
0.1552998136855596
 10
0.1993445297536458
 20
0.156097871814023
 10
0.1995145646144398
 20
0.1568399832029334
  0
LWPOLYLINE
  5
AB4
330
2
100
AcDbEntity
  8
Profilo
  6
Continuous
370
     0
100
AcDbPolyline
 90
       27
 70
   129
 43
0.0
 10
0.2026701276954523
 20
0.150340405257539
 10
0.2014428357189861
 20
0.1515709325745926
 10
0.2008830644173689
 20
0.1525404849096134
 10
0.2003329182130735
 20
0.1529338605249415
 10
0.1990075044077497
 20
0.1528796399245417
 10
0.1974473412677935
 20
0.1525606083455115
 10
0.1957493356924531
 20
0.1520327244970558
 10
0.1943891180969612
 20
0.1510180258422599
 10
0.1949620140078321
 20
0.1497036938915842
 10
0.1959136252205824
 20
0.1480554549220483
 10
0.196273133871506
 20
0.1477548147984886
 10
0.1976137322127056
 20
0.1481320966389154
 10
0.1991145992322871
 20
0.147770525363541
 10
0.1998122109157632
 20
0.1470098288547609
 10
0.2006292984865756
 20
0.1459302908476876
 10
0.2008219027289866
 20
0.1448133889633198
 10
0.2010834261355616
 20
0.143800916770481
 10
0.201671184975496
 20
0.1427828885971167
 10
0.2028178290234046
 20
0.1424753491406102
 10
0.2042142656599659
 20
0.1421827586001556
 10
0.2048011384062556
 20
0.1428447714786691
 10
0.2050909742768234
 20
0.1446926656772649
 10
0.2053474046491339
 20
0.1462627259131105
 10
0.2052086761201033
 20
0.1477339146955638
 10
0.2047403933642653
 20
0.1484331062266552
 10
0.2040858167769497
 20
0.1488954625769038
 10
0.2035281468921135
 20
0.1494137727803361
  0
LWPOLYLINE
  5
AB5
330
2
100
AcDbEntity
  8
Profilo
  6
Continuous
370
     0
100
AcDbPolyline
 90
        4
 70
   128
 43
0.0
 10
0.2021377300458149
 20
0.1532499212302851
 10
0.2038746577429493
 20
0.1576690631129209
 10
0.2057694853444247
 20
0.1609834201745008
 10
0.2069537551622571
 20
0.1631929898166126
  0
LWPOLYLINE
  5
AB6
330
2
100
AcDbEntity
  8
Profilo
  6
Continuous
370
     0
100
AcDbPolyline
 90
        4
 70
   128
 43
0.0
 10
0.2049010235493847
 20
0.1505668690383346
 10
0.2064800472351238
 20
0.1551438384375836
 10
0.2079801209686924
 20
0.1579058017894294
 10
0.2102697065451307
 20
0.1621671187538633
  0
LWPOLYLINE
  5
AB7
330
2
100
AcDbEntity
  8
Profilo
  6
Continuous
370
     0
100
AcDbPolyline
 90
        4
 70
   128
 43
0.0
 10
0.2084538288958257
 20
0.1496988228937862
 10
0.2108223644244327
 20
0.153407746148487
 10
0.2126382420737376
 20
0.1572744969198001
 10
0.2135856579280042
 20
0.1594840665619128
  0
LWPOLYLINE
  5
AB8
330
2
100
AcDbEntity
  8
Profilo
  6
Continuous
370
     0
100
AcDbPolyline
 90
        5
 70
   128
 43
0.0
 10
0.2142962198187033
 20
0.1579058017894294
 10
0.2118487302308698
 20
0.1590105892088966
 10
0.2091643907865248
 20
0.1600364602716459
 10
0.2069537551622571
 20
0.1605099402230742
 10
0.2042694116108561
 20
0.1613779863676216
  0
LWPOLYLINE
  5
AB9
330
2
100
AcDbEntity
  8
Profilo
  6
Continuous
370
     0
100
AcDbPolyline
 90
        5
 70
   128
 43
0.0
 10
0.21382251189157
 20
0.1538023123416079
 10
0.2103486564972994
 20
0.1551438384375836
 10
0.2081380208730317
 20
0.1560118845821318
 10
0.2052957774172914
 20
0.1571166694031878
 10
0.2026903879251169
 20
0.1582214568226549
  0
LWPOLYLINE
  5
ABA
330
2
100
AcDbEntity
  8
Profilo
  6
Continuous
370
     0
100
AcDbPolyline
 90
        4
 70
   128
 43
0.0
 10
0.211296072351566
 20
0.1506457827966412
 10
0.2078222169572954
 20
0.1519083951343093
 10
0.2049010235493847
 20
0.1530920937136719
 10
0.2014271681551158
 20
0.1552227521958892
  0
LWPOLYLINE
  5
ABB
330
2
100
AcDbEntity
  8
Profilo
  6
Continuous
370
     0
100
AcDbPolyline
 90
       19
 70
   128
 43
0.0
 10
0.2211562326241681
 20
0.2040783431125992
 10
0.2234099102033196
 20
0.2092691014893212
 10
0.2245857400195015
 20
0.2112278776469352
 10
0.2253696293016607
 20
0.2118155110139015
 10
0.225565601622201
 20
0.2137742871715153
 10
0.2262515047440918
 20
0.2150474932330106
 10
0.2272313622397335
 20
0.2160268813118171
 10
0.228897122857266
 20
0.2168103907354983
 10
0.2294850398188868
 20
0.2168103907354983
 10
0.23026892499399
 20
0.2153413086172881
 10
0.2303669111542601
 20
0.2141660444817667
 10
0.2303669111542601
 20
0.2134804717872378
 10
0.2292890674983465
 20
0.2126969597651453
 10
0.2278192792013542
 20
0.2119134503414649
 10
0.2264474729575743
 20
0.2106402442799688
 10
0.224977684660582
 20
0.2092691014893212
 10
0.2236058825238598
 20
0.2073103253317083
 10
0.2214501911049767
 20
0.2034907097456328
 10
0.220960260303626
 20
0.2022175062825488
  0
LWPOLYLINE
  5
ABC
330
2
100
AcDbEntity
  8
Profilo
  6
Continuous
370
     0
100
AcDbPolyline
 90
       18
 70
   128
 43
0.0
 10
0.2305628834747986
 20
0.2151454325605733
 10
0.232326630252603
 20
0.2155371872724143
 10
0.2339923908701338
 20
0.2154392479448508
 10
0.2348742663125631
 20
0.2150474932330106
 10
0.2350702386331034
 20
0.2130887170753976
 10
0.2348742663125631
 20
0.2112278776469352
 10
0.2336004503361111
 20
0.2094649801444474
 10
0.2319346856115225
 20
0.2085835287947923
 10
0.2310528142761492
 20
0.2085835287947923
 10
0.2320326717717926
 20
0.2082897134105148
 10
0.2320326717717926
 20
0.2070165099474308
 10
0.2314447589172297
 20
0.205645364558372
 10
0.2312487865966895
 20
0.2044701004228515
 10
0.2336004503361111
 20
0.2049597944622543
 10
0.2356581514876663
 20
0.2043721610952879
 10
0.2371279438917164
 20
0.2031968943613553
 10
0.2360500961287468
 20
0.2011401788761788
 10
0.2317751798479883
 20
0.1970650562870805
  0
LWPOLYLINE
  5
ABD
330
2
100
AcDbEntity
  8
Profilo
  6
Continuous
370
     0
100
AcDbPolyline
 90
       22
 70
   128
 43
0.0
 10
0.1991865099459038
 20
0.1811908821143508
 10
0.1980357413900937
 20
0.1866544113403327
 10
0.1968849728342836
 20
0.1891465452447769
 10
0.1968849728342836
 20
0.1905843165039944
 10
0.1949670225032283
 20
0.1907760195117851
 10
0.1949670225032283
 20
0.1924054937787924
 10
0.1951588179470396
 20
0.1936515594318088
 10
0.1948711227277955
 20
0.1946100744707579
 10
0.1949670225032283
 20
0.196239546139354
 10
0.194199840727983
 20
0.1970063581705141
 10
0.1924736899477968
 20
0.1971022109736142
 10
0.1918024038409301
 20
0.1960478457299763
 10
0.1918024038409301
 20
0.1949934804863384
 10
0.1919941992847414
 20
0.1944183714629681
 10
0.190939326397308
 20
0.1948976276832375
 10
0.1894049669538753
 20
0.1951851834941273
 10
0.1885418936173093
 20
0.1942266684551783
 10
0.188350098173498
 20
0.1923096409756914
 10
0.18921317561712
 20
0.1910635727242637
 10
0.1903639441729301
 20
0.1905843165039944
 10
0.1918024038409301
 20
0.1899133572759361
 10
0.1916106125041748
 20
0.1892423980478779
  0
LWPOLYLINE
  5
ABE
330
2
100
AcDbEntity
  8
Profilo
  6
Continuous
370
     0
100
AcDbPolyline
 90
       13
 70
   128
 43
0.0
 10
0.1965972776150378
 20
0.1800406666660241
 10
0.1964054862782843
 20
0.1839705718296866
 10
0.1955424088346622
 20
0.1861751551200634
 10
0.1935285587281723
 20
0.1882838830089288
 10
0.1919941992847414
 20
0.1891465452447769
 10
0.1906516352851182
 20
0.189050695040088
 10
0.1889254803978759
 20
0.1883797358120298
 10
0.1885418936173093
 20
0.1863668581278532
 10
0.1888295847294974
 20
0.1832037623969386
 10
0.1897885578414962
 20
0.1809991817049731
 10
0.1918024038409301
 20
0.1797531134535446
 10
0.1937203541719836
 20
0.1788904512176965
 10
0.193912149615795
 20
0.1788904512176965
  0
LWPOLYLINE
  5
ABF
330
2
100
AcDbEntity
  8
Profilo
  6
Continuous
370
     0
100
AcDbPolyline
 90
       11
 70
   129
 43
0.0
 10
0.190939326397308
 20
0.1880921825995502
 10
0.192377790172364
 20
0.1862710053247531
 10
0.1934326630597956
 20
0.1857917491044838
 10
0.194775227059417
 20
0.1846415310577449
 10
0.194775227059417
 20
0.1832996126016275
 10
0.1946793313910402
 20
0.1817659911377211
 10
0.1937203541719836
 20
0.1813825851221415
 10
0.1924736899477968
 20
0.1817659911377211
 10
0.1913229172849307
 20
0.1827245061766702
 10
0.1912270216165521
 20
0.1841622748374764
 10
0.1916106125041748
 20
0.1855041932935939
  0
LWPOLYLINE
  5
AC0
330
2
100
AcDbEntity
  8
Profilo
  6
Continuous
370
     0
100
AcDbPolyline
 90
        7
 70
   128
 43
0.0
 10
0.18921317561712
 20
0.1812867349174518
 10
0.1880624029542539
 20
0.1832037623969386
 10
0.1873911209544432
 20
0.1855041932935939
 10
0.1876788161736873
 20
0.1877087765839706
 10
0.1886377892856879
 20
0.1883797358120298
 10
0.1889254803978759
 20
0.1905843165039944
 10
0.1890213801733087
 20
0.1910635727242637
  0
LWPOLYLINE
  5
AC1
330
2
100
AcDbEntity
  8
Profilo
  6
Continuous
370
     0
100
AcDbPolyline
 90
        5
 70
   128
 43
0.0
 10
0.1910352261727408
 20
0.1781236391865372
 10
0.1882541983980652
 20
0.1799448164613344
 10
0.1868157387300653
 20
0.1819576941455101
 10
0.1855690703988224
 20
0.1845456808530561
 10
0.1850895838428213
 20
0.1854083430889041
  0
LWPOLYLINE
  5
AC2
330
2
100
AcDbEntity
  8
Profilo
  6
Continuous
370
     0
100
AcDbPolyline
 90
        4
 70
   128
 43
0.0
 10
0.1755957319629826
 20
0.1902009104884148
 10
0.1735818859635487
 20
0.1953768839035059
 10
0.1733900905197374
 20
0.1992109388624796
 10
0.1735472453949165
 20
0.2044982195159925
  0
LWPOLYLINE
  5
AC3
330
2
100
AcDbEntity
  8
Profilo
  6
Continuous
370
     0
100
AcDbPolyline
 90
       11
 70
   128
 43
0.0
 10
0.1802172151052486
 20
0.1860229279185019
 10
0.1787603506252808
 20
0.1894341010556677
 10
0.1780890686254701
 20
0.1931723032115404
 10
0.1781849642938469
 20
0.1967188049580346
 10
0.1781849642938469
 20
0.1992109388624796
 10
0.1772259911818481
 20
0.1994026418702694
 10
0.1762670139627915
 20
0.1984441294297316
 10
0.1758834271822267
 20
0.1969105079658244
 10
0.1756916317384154
 20
0.1948976276832375
 10
0.1756916317384154
 20
0.1936515594318088
 10
0.1757875274067939
 20
0.1925013439834821
  0
LWPOLYLINE
  5
AC4
330
2
100
AcDbEntity
  8
Profilo
  6
Continuous
370
     0
100
AcDbPolyline
 90
       15
 70
   128
 43
0.0
 10
0.1837470198432016
 20
0.1826286533735692
 10
0.1837470198432016
 20
0.1826286533735692
 10
0.1829798380679564
 20
0.1847373838608459
 10
0.1829798380679564
 20
0.1858875993091735
 10
0.1836511200677671
 20
0.1861751551200634
 10
0.1841306066237665
 20
0.1861751551200634
 10
0.1840347109553897
 20
0.1867502615450216
 10
0.1828839423995796
 20
0.1877087765839706
 10
0.181924965180523
 20
0.189050695040088
 10
0.1817331697367117
 20
0.1906801693070954
 10
0.1820208649559576
 20
0.1919262349601118
 10
0.1834593246239558
 20
0.1921179379679016
 10
0.1847059929552004
 20
0.1914469787398433
 10
0.1849936840673885
 20
0.1904884662993056
 10
0.1848977883990099
 20
0.1868461143481225
  0
LWPOLYLINE
  5
AC5
330
2
100
AcDbEntity
  8
Profilo
  6
Continuous
370
     0
100
AcDbPolyline
 90
       10
 70
   128
 43
0.0
 10
0.1815413742929004
 20
0.1916386817476332
 10
0.1814454786245237
 20
0.1939391152426996
 10
0.181637274068335
 20
0.1953768839035059
 10
0.1825962471803337
 20
0.1963353989424549
 10
0.1840347109553897
 20
0.1971022109736142
 10
0.1849936840673885
 20
0.197198061178303
 10
0.1861444567302546
 20
0.197198061178303
 10
0.1869116343984421
 20
0.1957602899190855
 10
0.1869116343984421
 20
0.1944183714629681
 10
0.1868157387300671
 20
0.19355570922712
  0
LWPOLYLINE
  5
AC6
330
2
100
AcDbEntity
  8
Profilo
  6
Continuous
370
     0
100
AcDbPolyline
 90
        4
 70
   128
 43
0.0
 10
0.1848977883990099
 20
0.1915428315429443
 10
0.1857608658426337
 20
0.1929806002037506
 10
0.1869116343984421
 20
0.1936515594318088
 10
0.1884459938418766
 20
0.1940349654473884
  0
LWPOLYLINE
  5
AC7
330
2
100
AcDbEntity
  8
Profilo
  6
Continuous
370
     0
100
AcDbPolyline
 90
        5
 70
   128
 43
0.0
 10
0.1976521505024711
 20
0.1816701409330314
 10
0.1969808685026604
 20
0.1862710053247531
 10
0.1953506133908509
 20
0.1888589920322982
 10
0.1938162539474182
 20
0.1910635727242637
 10
0.1912270216165521
 20
0.1937474122349098
  0
LWPOLYLINE
  5
AC8
330
2
100
AcDbEntity
  8
Profilo
  6
Continuous
370
     0
100
AcDbPolyline
 90
       19
 70
   128
 43
0.0
 10
0.1734393611820928
 20
0.1917751870118613
 10
0.1700708713525203
 20
0.1963223082357079
 10
0.1689624363477908
 20
0.1983199948058564
 10
0.1688454755649666
 20
0.1992926795214438
 10
0.1672471118124155
 20
0.2004417846082771
 10
0.1664874345798535
 20
0.2016723971671168
 10
0.1661291883712654
 20
0.2030106726898348
 10
0.1662835296150189
 20
0.2048450184130818
 10
0.1665774880958293
 20
0.2053541694371605
 10
0.1682416931179955
 20
0.2052984928533452
 10
0.1693084947956494
 20
0.204795719289597
 10
0.1699022181652521
 20
0.2044529329423325
 10
0.1700418376525978
 20
0.2031277369439581
 10
0.1699854825691145
 20
0.201463108228737
 10
0.170402208240731
 20
0.1996384861418065
 10
0.1708547585811524
 20
0.1976800407431018
 10
0.17186520742561
 20
0.1955126371649273
 10
0.1740952458464027
 20
0.1917359458404175
 10
0.1749529069889442
 20
0.1906750515888097
  0
LWPOLYLINE
  5
AC9
330
2
100
AcDbEntity
  8
Profilo
  6
Continuous
370
     0
100
AcDbPolyline
 90
       18
 70
   128
 43
0.0
 10
0.1685583059995079
 20
0.2054551303370266
 10
0.1691009098559033
 20
0.2071784572083674
 10
0.1700186081103685
 20
0.2085720785559926
 10
0.1707988153640891
 20
0.2091399277361891
 10
0.1725931514371806
 20
0.2083302566654094
 10
0.1741066994943226
 20
0.2072301199431519
 10
0.1749965055275173
 20
0.2052455141965539
 10
0.1749269824262254
 20
0.2033621939535037
 10
0.1744860467585387
 20
0.2025984709742014
 10
0.1752304270931675
 20
0.2033001447653783
 10
0.1763330536363843
 20
0.2026635430338363
 10
0.1772265439483101
 20
0.201468822872044
 10
0.1781463663855569
 20
0.2007114737962569
 10
0.1788981107770629
 20
0.2029929213554573
 10
0.1804358667767461
 20
0.2044811261426171
 10
0.1821885738265778
 20
0.205166370335847
 10
0.1834308178036133
 20
0.2032045690491153
 10
0.1848225193489292
 20
0.1974648216563772
  0
LWPOLYLINE
  5
ACA
330
2
100
AcDbEntity
  8
Profilo
  6
Continuous
370
     0
100
AcDbPolyline
 90
       22
 70
   128
 43
0.0
 10
0.1822756224955691
 20
0.1613051185592619
 10
0.1769686831136448
 20
0.1630402883690451
 10
0.1742350475648586
 20
0.1632897605180594
 10
0.1729899011295459
 20
0.1640086461476681
 10
0.1718649062892905
 20
0.1624435039416725
 10
0.1704537401792483
 20
0.163258241075177
 10
0.1694705133908578
 20
0.1640473736283554
 10
0.1684965674075962
 20
0.1642774797794168
 10
0.1671333534355619
 20
0.1651752672554578
 10
0.1660856838490283
 20
0.1648942743643551
 10
0.165139597496426
 20
0.1634473103395008
 10
0.165717061528849
 20
0.1623387768959276
 10
0.166630168614708
 20
0.1618115942741078
 10
0.1672241253607969
 20
0.1616901394890937
 10
0.1662816408554062
 20
0.1610162208809478
 10
0.1652654304964529
 20
0.1598312045298437
 10
0.1656639922018095
 20
0.1586045035755749
 10
0.1672282889768923
 20
0.1574798901091614
 10
0.1687389544592883
 20
0.1576043029750571
 10
0.1697293867988692
 20
0.1583612696681302
 10
0.17102968436927
 20
0.1592715326689071
 10
0.171514856437295
 20
0.1587699568850227
  0
LWPOLYLINE
  5
ACB
330
2
100
AcDbEntity
  8
Profilo
  6
Continuous
370
     0
100
AcDbPolyline
 90
       13
 70
   128
 43
0.0
 10
0.1819771221282136
 20
0.158487669860269
 10
0.1784778287536413
 20
0.160286526272245
 10
0.1761370648976048
 20
0.1606413709258238
 10
0.1733039279229342
 20
0.1599516895186234
 10
0.1717896607900884
 20
0.1590542263799981
 10
0.1712013875024962
 20
0.1578436067477748
 10
0.170919377795276
 20
0.1560132331505257
 10
0.1724707876142006
 20
0.1546745984119124
 10
0.1753539544278682
 20
0.1533421983580525
 10
0.1777426638678041
 20
0.1530704030886078
 10
0.1798287136281051
 20
0.1541914107577118
 10
0.1815347762047623
 20
0.1554210733496774
 10
0.181630673926668
 20
0.155587173076348
  0
LWPOLYLINE
  5
ACC
330
2
100
AcDbEntity
  8
Profilo
  6
Continuous
370
     0
100
AcDbPolyline
 90
       11
 70
   129
 43
0.0
 10
0.1721753291819383
 20
0.1576134983391042
 10
0.1744717468542363
 20
0.1579486558733278
 10
0.175414231359627
 20
0.1586225744814737
 10
0.1770816314078059
 20
0.1592101599879822
 10
0.1782437668806094
 20
0.158539200759924
 10
0.179523974193954
 20
0.1576893419430436
 10
0.1793765249338812
 20
0.1566671403018999
 10
0.1784211534723323
 20
0.1557792004215543
 10
0.1770156687672597
 20
0.1552618595810062
 10
0.1757225767480475
 20
0.1558976958264808
 10
0.1747522367190535
 20
0.1569008545078811
  0
LWPOLYLINE
  5
ACD
330
2
100
AcDbEntity
  8
Profilo
  6
Continuous
370
     0
100
AcDbPolyline
 90
        7
 70
   128
 43
0.0
 10
0.177205944368668
 20
0.1527158840716507
 10
0.1749703635402473
 20
0.152677799451371
 10
0.1726424909441886
 20
0.1532466676347596
 10
0.1708771134195843
 20
0.1545981106483611
 10
0.170775532239182
 20
0.1557640853389287
 10
0.1690101549113412
 20
0.1571155234965088
 10
0.1686430567373827
 20
0.1574382032483865
  0
LWPOLYLINE
  5
ACE
330
2
100
AcDbEntity
  8
Profilo
  6
Continuous
370
     0
100
AcDbPolyline
 90
        5
 70
   128
 43
0.0
 10
0.1808562909040536
 20
0.152712278274341
 10
0.177888591231945
 20
0.1512144262102395
 10
0.1754261581887389
 20
0.1509751224375217
 10
0.1725615617897263
 20
0.1511894693463431
 10
0.1715747311005953
 20
0.1512055529259979
  0
LWPOLYLINE
  5
ACF
330
2
100
AcDbEntity
  8
Profilo
  6
Continuous
370
     0
100
AcDbPolyline
 90
        4
 70
   128
 43
0.0
 10
0.1626773200433509
 20
0.1453799197180453
 10
0.1571878725768525
 20
0.1462238646307727
 10
0.1537715858609698
 20
0.147974792383589
 10
0.1492712439356798
 20
0.1507545328245787
  0
LWPOLYLINE
  5
AD0
330
2
100
AcDbEntity
  8
Profilo
  6
Continuous
370
     0
100
AcDbPolyline
 90
       11
 70
   128
 43
0.0
 10
0.1686063006565974
 20
0.1472932502374537
 10
0.1649237058231212
 20
0.1477371551565132
 10
0.161350686791748
 20
0.1490249089695097
 10
0.1583272740189057
 20
0.1508812079276844
 10
0.1561690227480246
 20
0.1521272748799069
 10
0.1555235165172974
 20
0.1513926313072651
 10
0.155874124031119
 20
0.1500828764536427
 10
0.1570104857883678
 20
0.1489838698251637
 10
0.1586577935259599
 20
0.1478113299571988
 10
0.1597369202865466
 20
0.1471882958314849
 10
0.1607809839188108
 20
0.1466962361922496
  0
LWPOLYLINE
  5
AD1
330
2
100
AcDbEntity
  8
Profilo
  6
Continuous
370
     0
100
AcDbPolyline
 90
       15
 70
   128
 43
0.0
 10
0.1733107310089044
 20
0.148653013538452
 10
0.1733107310089044
 20
0.148653013538452
 10
0.1711009259495655
 20
0.1490429798754075
 10
0.1701048101514879
 20
0.1496180875995718
 10
0.1701914205141564
 20
0.1503432127699571
 10
0.1704311637921561
 20
0.1507584603082254
 10
0.1698851591840751
 20
0.1509629654357759
 10
0.1684796765325296
 20
0.1504456281520432
 10
0.1668380524501978
 20
0.1502860887467485
 10
0.1653309886182499
 20
0.1509347261535816
 10
0.1643957117175767
 20
0.1518069103485042
 10
0.1649489218768481
 20
0.1531485044672051
 10
0.1661533237788739
 20
0.1538926712981267
 10
0.167127265458316
 20
0.153662562889456
 10
0.1702336869433769
 20
0.151758338828936
  0
LWPOLYLINE
  5
AD2
330
2
100
AcDbEntity
  8
Profilo
  6
Continuous
370
     0
100
AcDbPolyline
 90
       10
 70
   128
 43
0.0
 10
0.1644049947729962
 20
0.1512478826471803
 10
0.1623648130923638
 20
0.1523150513097859
 10
0.1612155666292456
 20
0.1532000353668601
 10
0.1608649548116046
 20
0.1545097879628722
 10
0.1609201080002216
 20
0.1561389401500732
 10
0.1613165858440024
 20
0.1570173603289553
 10
0.1618919721754364
 20
0.1580139586889779
 10
0.1635207074448446
 20
0.1579594684092362
 10
0.1646828429176481
 20
0.157288509181177
 10
0.165381982494591
 20
0.1567741299783267
  0
LWPOLYLINE
  5
AD3
330
2
100
AcDbEntity
  8
Profilo
  6
Continuous
370
     0
100
AcDbPolyline
 90
        4
 70
   128
 43
0.0
 10
0.1661662105382686
 20
0.1541066974263469
 10
0.1653526050750576
 20
0.1555730287483609
 10
0.1653469216165591
 20
0.1569051031655974
 10
0.1657820619888199
 20
0.1584256004299375
  0
LWPOLYLINE
  5
AD4
330
2
100
AcDbEntity
  8
Profilo
  6
Continuous
370
     0
100
AcDbPolyline
 90
        5
 70
   128
 43
0.0
 10
0.1810933924618881
 20
0.1602159537120537
 10
0.1767732860193854
 20
0.1619350386429752
 10
0.1737168962300903
 20
0.1618171896552706
 10
0.1710404936244374
 20
0.1615906857447035
 10
0.1674216042631049
 20
0.1606902645251974
  0
LWPOLYLINE
  5
AD5
330
2
100
AcDbEntity
  8
Profilo
  6
Continuous
370
     0
100
AcDbPolyline
 90
       19
 70
   128
 43
0.0
 10
0.1602357711910192
 20
0.1442995861035405
 10
0.1546136037822952
 20
0.1436559489506641
 10
0.1523293389613838
 20
0.1436948593631988
 10
0.1514284888963986
 20
0.1440799107118198
 10
0.1496341528233089
 20
0.14327023964104
 10
0.1481885724688561
 20
0.1432276461383836
 10
0.1468504687646246
 20
0.1435865335822951
 10
0.1453390493908455
 20
0.1446373698818619
 10
0.1450450909100369
 20
0.1451465209059406
 10
0.1459254107571
 20
0.1465599264403345
 10
0.1468942262744837
 20
0.1472324170121086
 10
0.1474879496440864
 20
0.147575203359373
 10
0.1487054127873457
 20
0.1470335193830911
 10
0.1501188460008547
 20
0.1461524000915503
 10
0.1519073779162512
 20
0.1456009840661152
 10
0.1538297165536631
 20
0.145013681458058
 10
0.1562119675348463
 20
0.1448050540374965
 10
0.1605976973745187
 20
0.1448479782990621
 10
0.1619452893184108
 20
0.1450602875105393
  0
LWPOLYLINE
  5
AD6
330
2
100
AcDbEntity
  8
Profilo
  6
Continuous
370
     0
100
AcDbPolyline
 90
       18
 70
   128
 43
0.0
 10
0.1459480651578038
 20
0.1469124399807308
 10
0.1447269222363965
 20
0.1482440121402306
 10
0.1439788598733291
 20
0.1497355728154192
 10
0.1438771916846204
 20
0.1506951767074569
 10
0.1454755554371698
 20
0.1518442817942902
 10
0.1471850758148521
 20
0.1526049845004942
 10
0.1493486978245007
 20
0.1523832762563838
 10
0.1509449394477973
 20
0.1513814073629897
 10
0.151385875115484
 20
0.1506176843836866
 10
0.1511503979544693
 20
0.151613173559141
 10
0.1522530244976861
 20
0.152249775290683
 10
0.1537344276641748
 20
0.1524262005179495
 10
0.1548502224219619
 20
0.1528441155776838
 10
0.1532503030740462
 20
0.1546358690974805
 10
0.1527303579221724
 20
0.1567117072516075
 10
0.1530132725679576
 20
0.1585722181787692
 10
0.1553333643079608
 20
0.1586671323772148
 10
0.1609999821340353
 20
0.1570025075735741
  0
LWPOLYLINE
  5
AD7
330
2
100
AcDbEntity
  8
Profilo
  6
Continuous
370
     0
100
AcDbPolyline
 90
       22
 70
   128
 43
0.0
 10
0.1910417551827597
 20
0.1367169786491886
 10
0.1868855843566473
 20
0.1329886192329907
 10
0.1853027173636712
 20
0.13074595747756
 10
0.1840575709283567
 20
0.1300270718479512
 10
0.1848505264191567
 20
0.1282702266341657
 10
0.1834393603091145
 20
0.1274554895006621
 10
0.1822643380769127
 20
0.1269985564008249
 10
0.1815780873128952
 20
0.1262701475129364
 10
0.1801189735654281
 20
0.1255384633203812
 10
0.179838485754138
 20
0.1244906583981184
 10
0.1806185501817237
 20
0.1229478415701641
 10
0.1818673003210152
 20
0.1228936733702287
 10
0.1827804074068724
 20
0.1234208559920477
 10
0.1831825687091517
 20
0.1238745102304039
 10
0.1832949570911926
 20
0.1227213354019887
 10
0.183813106175672
 20
0.1212487632399938
 10
0.1850747412175946
 20
0.1209805773246741
 10
0.1868308334364888
 20
0.1217729913377465
 10
0.1874784214752627
 20
0.1231434724550708
 10
0.1873180852590335
 20
0.1243796953684133
 10
0.1871799231614362
 20
0.1259609175972493
 10
0.1878568865662147
 20
0.1261303010414231
  0
LWPOLYLINE
  5
AD8
330
2
100
AcDbEntity
  8
Profilo
  6
Continuous
370
     0
100
AcDbPolyline
 90
       13
 70
   128
 43
0.0
 10
0.1933324871462703
 20
0.1350497453985232
 10
0.1900249851084515
 20
0.1329186966468367
 10
0.188547298696037
 20
0.1310689580100388
 10
0.1877280118278564
 20
0.1282705487139721
 10
0.1877481041384415
 20
0.1265104233394995
 10
0.1885023948504707
 20
0.1253956539119651
 10
0.1899465400304945
 20
0.1242362395427742
 10
0.1918815366299858
 20
0.1249104824883366
 10
0.1944770123314652
 20
0.1267411781653922
 10
0.1959067486594006
 20
0.1286739635879121
 10
0.1959789524202713
 20
0.1310410395084447
 10
0.1957670646658731
 20
0.1331333643362592
 10
0.1956711669439675
 20
0.1332994640629299
  0
LWPOLYLINE
  5
AD9
330
2
100
AcDbEntity
  8
Profilo
  6
Continuous
370
     0
100
AcDbPolyline
 90
       11
 70
   129
 43
0.0
 10
0.1891886454177265
 20
0.1261240579438323
 10
0.1900465993149667
 20
0.128280392752853
 10
0.1899342109329258
 20
0.1294335675812674
 10
0.1902590469814816
 20
0.1311713711345147
 10
0.1914211824542869
 20
0.1318423303625739
 10
0.1927972854360083
 20
0.1325260930095999
 10
0.193608813394992
 20
0.1318872973840368
 10
0.19390010615763
 20
0.1306159514881115
 10
0.1936453941154235
 20
0.1291400956086135
 10
0.1924481977645898
 20
0.1283381631932826
 10
0.1910942668479732
 20
0.1279994034185656
  0
LWPOLYLINE
  5
ADA
330
2
100
AcDbEntity
  8
Profilo
  6
Continuous
370
     0
100
AcDbPolyline
 90
        7
 70
   128
 43
0.0
 10
0.1959454113846424
 20
0.1280318913584763
 10
0.1948606032190878
 20
0.1260767792587098
 10
0.1932040126228398
 20
0.1243452165454433
 10
0.1911509398789915
 20
0.123492076268668
 10
0.1900903855865885
 20
0.1239870917311765
 10
0.1880373171465597
 20
0.1231339491967919
 10
0.1875743191971684
 20
0.1229773727284002
  0
LWPOLYLINE
  5
ADB
330
2
100
AcDbEntity
  8
Profilo
  6
Continuous
370
     0
100
AcDbPolyline
 90
        5
 70
   128
 43
0.0
 10
0.1977737073644073
 20
0.1311913812920812
 10
0.1975870354669742
 20
0.1278723519531825
 10
0.196563062091768
 20
0.1256201704962891
 10
0.1949451340239983
 20
0.1232465306975644
 10
0.1944377898908685
 20
0.1223999520413721
  0
LWPOLYLINE
  5
ADC
330
2
100
AcDbEntity
  8
Profilo
  6
Continuous
370
     0
100
AcDbPolyline
 90
        4
 70
   128
 43
0.0
 10
0.1950342307134627
 20
0.1117817514339081
 10
0.1915586292463982
 20
0.1074497229315443
 10
0.1883341379743269
 20
0.1053665957253868
 10
0.1836766411738577
 20
0.1028590555128645
  0
LWPOLYLINE
  5
ADD
330
2
100
AcDbEntity
  8
Profilo
  6
Continuous
370
     0
100
AcDbPolyline
 90
       11
 70
   128
 43
0.0
 10
0.1963417281844433
 20
0.1178730645232302
 10
0.1941159978309348
 20
0.1149057963051229
 10
0.1912142607993723
 20
0.1124553479622476
 10
0.1880949523581532
 20
0.1107651451739272
 10
0.1859367010872721
 20
0.1095190782217057
 10
0.1862501679685438
 20
0.1085927316412731
 10
0.1875597527014201
 20
0.1082414892281886
 10
0.1890797012392356
 20
0.1086761040636167
 10
0.1909188044206389
 20
0.1095164444782397
 10
0.1919979311812257
 20
0.1101394786039535
 10
0.1929460991451131
 20
0.110797634413045
  0
LWPOLYLINE
  5
ADE
330
2
100
AcDbEntity
  8
Profilo
  6
Continuous
370
     0
100
AcDbPolyline
 90
       15
 70
   128
 43
0.0
 10
0.1975163537987972
 20
0.1226271023691611
 10
0.1975163537987972
 20
0.1226271023691611
 10
0.1960737305147036
 20
0.12090833821884
 10
0.195077614716626
 20
0.1203332304946767
 10
0.1944929430794837
 20
0.1207707998541711
 10
0.194253199801484
 20
0.1211860473924395
 10
0.1938030908617798
 20
0.1208154460950328
 10
0.1935483767660462
 20
0.11933959377235
 10
0.1928657299027692
 20
0.1178381359109388
 10
0.1915504615146326
 20
0.1168572990507636
 10
0.1903274893947153
 20
0.1164834175926698
 10
0.1894422398859867
 20
0.1176333087035809
 10
0.189399973456768
 20
0.1190484347625617
 10
0.190086224024022
 20
0.1197768387944279
 10
0.1932885411774596
 20
0.1215149666850918
  0
LWPOLYLINE
  5
ADF
330
2
100
AcDbEntity
  8
Profilo
  6
Continuous
370
     0
100
AcDbPolyline
 90
       10
 70
   128
 43
0.0
 10
0.1908162631131902
 20
0.1162119431038246
 10
0.1888719771009346
 20
0.1149786782713646
 10
0.1875309351940051
 20
0.1144258936676316
 10
0.1862213502643653
 20
0.1147771312246947
 10
0.1848380396779263
 20
0.1156394713807364
 10
0.1842755444097084
 20
0.1164220413549296
 10
0.1837001580782762
 20
0.1174186397149523
 10
0.1845617156794952
 20
0.1188019206944281
 10
0.1857238511523005
 20
0.1194728799224873
 10
0.1865188863976184
 20
0.1198211629554841
  0
LWPOLYLINE
  5
AE0
330
2
100
AcDbEntity
  8
Profilo
  6
Continuous
370
     0
100
AcDbPolyline
 90
        4
 70
   128
 43
0.0
 10
0.1892210647723531
 20
0.1191666080876809
 10
0.1875443818655183
 20
0.1191951707488887
 10
0.1863879298512114
 20
0.1198562859380669
 10
0.1852887107800396
 20
0.1209933771868265
  0
LWPOLYLINE
  5
AE1
330
2
100
AcDbEntity
  8
Profilo
  6
Continuous
370
     0
100
AcDbPolyline
 90
        5
 70
   128
 43
0.0
 10
0.1913938845925114
 20
0.1351485549832998
 10
0.1877450601498194
 20
0.1322667755225004
 10
0.1863189254723339
 20
0.1295609398272508
 10
0.1851768823101154
 20
0.1271298552247182
 10
0.1841472252796472
 20
0.123545594494566
  0
LWPOLYLINE
  5
AE2
330
2
100
AcDbEntity
  8
Profilo
  6
Continuous
370
     0
100
AcDbPolyline
 90
       19
 70
   128
 43
0.0
 10
0.1947490526420208
 20
0.1091271412959566
 10
0.1924953750628693
 20
0.1039363829192337
 10
0.1913195452466874
 20
0.1019776067616207
 10
0.1905356559645264
 20
0.1013899733946543
 10
0.1903396836439861
 20
0.0994311972370405
 10
0.189653780522097
 20
0.0981579911755443
 10
0.1886739230264536
 20
0.0971786030967387
 10
0.187008162408921
 20
0.0963950936730575
 10
0.1864202454473021
 20
0.0963950936730575
 10
0.1856363602721989
 20
0.0978641757912677
 10
0.1855383741119288
 20
0.0990394399267891
 10
0.1855383741119288
 20
0.099725012621318
 10
0.1866162177678423
 20
0.1005085246434105
 10
0.1880860060648346
 20
0.1012920340670908
 10
0.1894578123086128
 20
0.102565240128587
 10
0.1909276006056069
 20
0.1039363829192337
 10
0.192299402742329
 20
0.1058951590768475
 10
0.1944550941612122
 20
0.109714774662923
 10
0.1949450249625611
 20
0.1109879781260069
  0
LWPOLYLINE
  5
AE3
330
2
100
AcDbEntity
  8
Profilo
  6
Continuous
370
     0
100
AcDbPolyline
 90
       18
 70
   128
 43
0.0
 10
0.1853424017913903
 20
0.0980600518479817
 10
0.1835786550135858
 20
0.0976682971361415
 10
0.1819128943960533
 20
0.0977662364637051
 10
0.1810310189536239
 20
0.0981579911755443
 10
0.1808350466330837
 20
0.1001167673331581
 10
0.1810310189536239
 20
0.1019776067616207
 10
0.1823048349300778
 20
0.1037405042641075
 10
0.1839705996546663
 20
0.1046219556137635
 10
0.1848524709900397
 20
0.1046219556137635
 10
0.1838726134943962
 20
0.104915770998041
 10
0.1838726134943962
 20
0.106188974461125
 10
0.1844605263489592
 20
0.1075601198501838
 10
0.1846564986694994
 20
0.1087353839857043
 10
0.1823048349300778
 20
0.1082456899463015
 10
0.1802471337785208
 20
0.1088333233132678
 10
0.1787773413744724
 20
0.1100085900472005
 10
0.179855189137442
 20
0.1120653055323769
 10
0.1841301054182005
 20
0.1161404281214744
  0
LWPOLYLINE
  5
AE4
330
2
100
AcDbEntity
  8
Profilo
  6
Continuous
370
     0
100
AcDbPolyline
 90
       22
 70
   128
 43
0.0
 10
0.216718775320285
 20
0.1320146022942049
 10
0.2178695438760951
 20
0.1265510730682231
 10
0.2190203124319052
 20
0.1240589391637789
 10
0.2190203124319052
 20
0.1226211679045605
 10
0.2209382627629606
 20
0.1224294648967707
 10
0.2209382627629606
 20
0.1207999906297633
 10
0.2207464673191493
 20
0.1195539249767469
 10
0.2210341625383934
 20
0.118595409937797
 10
0.2209382627629606
 20
0.1169659382692009
 10
0.2217054445382058
 20
0.1161991262380417
 10
0.2234315953183921
 20
0.1161032734349407
 10
0.2241028814252588
 20
0.1171576386785795
 10
0.2241028814252588
 20
0.1182120039222173
 10
0.2239110859814475
 20
0.1187871129455877
 10
0.2249659588688808
 20
0.1183078567253184
 10
0.2265003183123135
 20
0.1180203009144284
 10
0.2273633916488777
 20
0.1189788159533766
 10
0.2275551870926908
 20
0.1208958434328634
 10
0.2266921096490688
 20
0.1221419116842921
 10
0.225541341093257
 20
0.1226211679045605
 10
0.2241028814252588
 20
0.1232921271326196
 10
0.2242946727620141
 20
0.1239630863606779
  0
LWPOLYLINE
  5
AE5
330
2
100
AcDbEntity
  8
Profilo
  6
Continuous
370
     0
100
AcDbPolyline
 90
       13
 70
   128
 43
0.0
 10
0.2193080076511511
 20
0.1331648177425317
 10
0.2194997989879046
 20
0.1292349125788692
 10
0.2203628764315266
 20
0.1270303292884924
 10
0.2223767265380165
 20
0.124921601399627
 10
0.2239110859814475
 20
0.1240589391637789
 10
0.2252536499810689
 20
0.1241547893684677
 10
0.2269798048683129
 20
0.124825748596526
 10
0.2273633916488795
 20
0.1268386262807026
 10
0.2270757005366915
 20
0.1300017220116171
 10
0.2261167274246909
 20
0.1322063027035826
 10
0.2241028814252588
 20
0.1334523709550112
 10
0.2221849310942034
 20
0.1343150331908593
 10
0.2219931356503939
 20
0.1343150331908593
  0
LWPOLYLINE
  5
AE6
330
2
100
AcDbEntity
  8
Profilo
  6
Continuous
370
     0
100
AcDbPolyline
 90
       11
 70
   129
 43
0.0
 10
0.2249659588688808
 20
0.1251133018090055
 10
0.2235274950938249
 20
0.1269344790838026
 10
0.2224726222063915
 20
0.127413735304072
 10
0.2211300582067719
 20
0.1285639533508109
 10
0.2211300582067719
 20
0.1299058718069283
 10
0.2212259538751486
 20
0.1314394932708347
 10
0.2221849310942034
 20
0.1318228992864142
 10
0.2234315953183921
 20
0.1314394932708347
 10
0.2245823679812582
 20
0.1304809782318856
 10
0.2246782636496367
 20
0.1290432095710793
 10
0.2242946727620141
 20
0.1277012911149619
  0
LWPOLYLINE
  5
AE7
330
2
100
AcDbEntity
  8
Profilo
  6
Continuous
370
     0
100
AcDbPolyline
 90
        7
 70
   128
 43
0.0
 10
0.2266921096490688
 20
0.131918749491104
 10
0.2278428823119349
 20
0.1300017220116171
 10
0.2285141643117456
 20
0.1277012911149619
 10
0.2282264690924998
 20
0.1254967078245852
 10
0.227267495980501
 20
0.124825748596526
 10
0.2269798048683129
 20
0.1226211679045605
 10
0.2268839050928801
 20
0.1221419116842921
  0
LWPOLYLINE
  5
AE8
330
2
100
AcDbEntity
  8
Profilo
  6
Continuous
370
     0
100
AcDbPolyline
 90
        5
 70
   128
 43
0.0
 10
0.2248700590934463
 20
0.1350818452220186
 10
0.2276510868681236
 20
0.1332606679472214
 10
0.2290895465361218
 20
0.1312477902630448
 10
0.2303362148673664
 20
0.1286598035554997
 10
0.2308157014233658
 20
0.1277971413196516
  0
LWPOLYLINE
  5
AE9
330
2
100
AcDbEntity
  8
Profilo
  6
Continuous
370
     0
100
AcDbPolyline
 90
        4
 70
   128
 43
0.0
 10
0.2403095533032062
 20
0.123004573920141
 10
0.2423233993026383
 20
0.1178286005050499
 10
0.2425151947464497
 20
0.1139945455460762
 10
0.2423580398712724
 20
0.1087072648925632
  0
LWPOLYLINE
  5
AEA
330
2
100
AcDbEntity
  8
Profilo
  6
Continuous
370
     0
100
AcDbPolyline
 90
       11
 70
   128
 43
0.0
 10
0.2356880701609385
 20
0.1271825564900539
 10
0.237144934640908
 20
0.1237713833528881
 10
0.2378162166407187
 20
0.1200331811970154
 10
0.237720320972342
 20
0.1164866794505203
 10
0.237720320972342
 20
0.1139945455460762
 10
0.238679294084339
 20
0.1138028425382863
 10
0.2396382713033955
 20
0.1147613549788241
 10
0.2400218580839621
 20
0.1162949764427314
 10
0.2402136535277735
 20
0.1183078567253184
 10
0.2402136535277735
 20
0.1195539249767469
 10
0.2401177578593949
 20
0.1207041404250737
  0
LWPOLYLINE
  5
AEB
330
2
100
AcDbEntity
  8
Profilo
  6
Continuous
370
     0
100
AcDbPolyline
 90
       15
 70
   128
 43
0.0
 10
0.2321582654229872
 20
0.1305768310349865
 10
0.2321582654229872
 20
0.1305768310349865
 10
0.2329254471982325
 20
0.1284681005477099
 10
0.2329254471982325
 20
0.1273178850993823
 10
0.2322541651984218
 20
0.1270303292884924
 10
0.2317746786424224
 20
0.1270303292884924
 10
0.2318705743107992
 20
0.1264552228635342
 10
0.2330213428666092
 20
0.1254967078245852
 10
0.2339803200856658
 20
0.1241547893684677
 10
0.2341721155294771
 20
0.1225253151014604
 10
0.2338844203102313
 20
0.121279249448444
 10
0.2324459606422331
 20
0.1210875464406533
 10
0.2311992923109885
 20
0.1217585056687124
 10
0.2309116011988004
 20
0.1227170181092493
 10
0.2310074968671771
 20
0.1263593700604332
  0
LWPOLYLINE
  5
AEC
330
2
100
AcDbEntity
  8
Profilo
  6
Continuous
370
     0
100
AcDbPolyline
 90
       10
 70
   128
 43
0.0
 10
0.2343639109732885
 20
0.1215668026609226
 10
0.2344598066416652
 20
0.1192663691658562
 10
0.2342680111978539
 20
0.1178286005050499
 10
0.2333090380858551
 20
0.1168700854661
 10
0.2318705743107992
 20
0.1161032734349407
 10
0.2309116011988004
 20
0.1160074232302518
 10
0.2297608285359343
 20
0.1160074232302518
 10
0.228993650867745
 20
0.1174451944894702
 10
0.228993650867745
 20
0.1187871129455877
 10
0.2290895465361218
 20
0.1196497751814357
  0
LWPOLYLINE
  5
AED
330
2
100
AcDbEntity
  8
Profilo
  6
Continuous
370
     0
100
AcDbPolyline
 90
        4
 70
   128
 43
0.0
 10
0.2310074968671771
 20
0.1216626528656115
 10
0.2301444194235551
 20
0.1202248842048052
 10
0.228993650867745
 20
0.1195539249767469
 10
0.2274592914243123
 20
0.1191705189611673
  0
LWPOLYLINE
  5
AEE
330
2
100
AcDbEntity
  8
Profilo
  6
Continuous
370
     0
100
AcDbPolyline
 90
        5
 70
   128
 43
0.0
 10
0.2182531347637178
 20
0.1315353434755243
 10
0.2189244167635285
 20
0.1269344790838026
 10
0.2205546718753379
 20
0.1243464923762576
 10
0.2220890313187707
 20
0.1221419116842921
 10
0.2246782636496367
 20
0.119458072173646
  0
LWPOLYLINE
  5
AEF
330
2
100
AcDbEntity
  8
Profilo
  6
Continuous
370
     0
100
AcDbPolyline
 90
       19
 70
   128
 43
0.0
 10
0.2424659240840961
 20
0.1214302973966936
 10
0.2458344139136686
 20
0.1168831761728479
 10
0.246942848918398
 20
0.1148854896026993
 10
0.2470598097012222
 20
0.113912804887112
 10
0.2486581734537716
 20
0.1127636998002787
 10
0.2494178506863354
 20
0.111533087241439
 10
0.2497760968949234
 20
0.1101948117187209
 10
0.2496217556511699
 20
0.1083604659954731
 10
0.2493277971703596
 20
0.1078513149713952
 10
0.2476635921481933
 20
0.1079069915552106
 10
0.2465967904705395
 20
0.1084097651189587
 10
0.2460030671009368
 20
0.1087525514662233
 10
0.245863447613591
 20
0.1100777474645977
 10
0.2459198026970744
 20
0.1117423761798188
 10
0.245503077025456
 20
0.1135669982667492
 10
0.2450505266850365
 20
0.1155254436654539
 10
0.2440400778405771
 20
0.1176928472436284
 10
0.2418100394197862
 20
0.1214695385681383
 10
0.2409523782772447
 20
0.122530432819746
  0
LWPOLYLINE
  5
AF0
330
2
100
AcDbEntity
  8
Profilo
  6
Continuous
370
     0
100
AcDbPolyline
 90
       18
 70
   128
 43
0.0
 10
0.2473469792666809
 20
0.1077503540715291
 10
0.2468043754102855
 20
0.1060270272001884
 10
0.2458866771558186
 20
0.1046334058525633
 10
0.2451064699020997
 20
0.1040655566723658
 10
0.2433121338290083
 20
0.1048752277431463
 10
0.2417985857718663
 20
0.105975364465404
 10
0.2409087797386697
 20
0.1079599702120019
 10
0.2409783028399635
 20
0.1098432904550521
 10
0.2414192385076501
 20
0.1106070134343544
 10
0.2406748581730214
 20
0.1099053396431775
 10
0.2395722316298046
 20
0.1105419413747195
 10
0.2386787413178788
 20
0.1117366615365118
 10
0.2377589188806319
 20
0.1124940106122989
 10
0.2370071744891242
 20
0.1102125630530985
 10
0.2354694184894428
 20
0.1087243582659378
 10
0.2337167114396093
 20
0.1080391140727087
 10
0.2324744674625738
 20
0.1100009153594405
 10
0.2310827659172596
 20
0.1157406627521786
  0
LWPOLYLINE
  5
AF1
330
2
100
AcDbEntity
  8
Profilo
  6
Continuous
370
     0
100
AcDbPolyline
 90
       22
 70
   128
 43
0.0
 10
0.2336296627706198
 20
0.1519003658492938
 10
0.2389366021525423
 20
0.1501651960395106
 10
0.2416702377013284
 20
0.1499157238904964
 10
0.2429153841366429
 20
0.1491968382608876
 10
0.2440403789768983
 20
0.1507619804668824
 10
0.2454515450869406
 20
0.1499472433333787
 10
0.2464347718753292
 20
0.1491581107802004
 10
0.2474087178585926
 20
0.1489280046291389
 10
0.248771931830627
 20
0.148030217153098
 10
0.2498196014171605
 20
0.1483112100442007
 10
0.2507656877697628
 20
0.1497581740690541
 10
0.2501882237373381
 20
0.1508667075126282
 10
0.2492751166514808
 20
0.1513938901344471
 10
0.2486811599053902
 20
0.1515153449194612
 10
0.2496236444107827
 20
0.152189263527608
 10
0.2506398547697359
 20
0.1533742798787121
 10
0.2502412930643794
 20
0.1546009808329809
 10
0.2486769962892965
 20
0.1557255942993953
 10
0.2471663308068988
 20
0.1556011814334987
 10
0.2461758984673197
 20
0.1548442147404256
 10
0.2448756008969171
 20
0.1539339517396487
 10
0.2443904288288921
 20
0.1544355275235331
  0
LWPOLYLINE
  5
AF2
330
2
100
AcDbEntity
  8
Profilo
  6
Continuous
370
     0
100
AcDbPolyline
 90
       13
 70
   128
 43
0.0
 10
0.2339281631379753
 20
0.1547178145482868
 10
0.2374274565125476
 20
0.1529189581363108
 10
0.239768220368584
 20
0.1525641134827311
 10
0.2426013573432546
 20
0.1532537948899324
 10
0.2441156244761005
 20
0.1541512580285577
 10
0.2447038977636926
 20
0.1553618776607809
 10
0.2449859074709129
 20
0.1571922512580292
 10
0.2434344976519882
 20
0.1585308859966434
 10
0.2405513308383189
 20
0.1598632860505033
 10
0.2381626213983847
 20
0.1601350813199479
 10
0.2360765716380819
 20
0.159014073650844
 10
0.2343705090614248
 20
0.1577844110588784
 10
0.2342746113395191
 20
0.1576183113322078
  0
LWPOLYLINE
  5
AF3
330
2
100
AcDbEntity
  8
Profilo
  6
Continuous
370
     0
100
AcDbPolyline
 90
       11
 70
   129
 43
0.0
 10
0.2437299560842487
 20
0.1555919860694516
 10
0.2414335384119526
 20
0.155256828535228
 10
0.2404910539065619
 20
0.154582909927082
 10
0.238823653858383
 20
0.1539953244205736
 10
0.2376615183855795
 20
0.1546662836486318
 10
0.2363813110722348
 20
0.1555161424655122
 10
0.2365287603323076
 20
0.1565383441066559
 10
0.2374841317938565
 20
0.1574262839870015
 10
0.2388896164989291
 20
0.1579436248275505
 10
0.2401827085181414
 20
0.157307788582075
 10
0.2411530485471354
 20
0.1563046299006747
  0
LWPOLYLINE
  5
AF4
330
2
100
AcDbEntity
  8
Profilo
  6
Continuous
370
     0
100
AcDbPolyline
 90
        7
 70
   128
 43
0.0
 10
0.2386993408975209
 20
0.1604896003369051
 10
0.2409349217259415
 20
0.1605276849571848
 10
0.2432627943220003
 20
0.1599588167737961
 10
0.2450281718466045
 20
0.1586073737601947
 10
0.2451297530270069
 20
0.157441399069627
 10
0.2468951303548477
 20
0.1560899609120469
 10
0.2472622285288044
 20
0.1557672811601693
  0
LWPOLYLINE
  5
AF5
330
2
100
AcDbEntity
  8
Profilo
  6
Continuous
370
     0
100
AcDbPolyline
 90
        5
 70
   128
 43
0.0
 10
0.2350489943621352
 20
0.1604932061342148
 10
0.2380166940342439
 20
0.1619910581983163
 10
0.24047912707745
 20
0.1622303619710341
 10
0.2433437234764626
 20
0.1620160150622127
 10
0.2443305541655918
 20
0.1619999314825579
  0
LWPOLYLINE
  5
AF6
330
2
100
AcDbEntity
  8
Profilo
  6
Continuous
370
     0
100
AcDbPolyline
 90
        4
 70
   128
 43
0.0
 10
0.253227965222838
 20
0.1678255646905104
 10
0.2587174126893363
 20
0.1669816197777831
 10
0.2621336994052172
 20
0.1652306920249668
 10
0.266634041330509
 20
0.1624509515839771
  0
LWPOLYLINE
  5
AF7
330
2
100
AcDbEntity
  8
Profilo
  6
Continuous
370
     0
100
AcDbPolyline
 90
       11
 70
   128
 43
0.0
 10
0.2472989846095897
 20
0.1659122341711021
 10
0.2509815794430676
 20
0.1654683292520426
 10
0.2545545984744408
 20
0.1641805754390452
 10
0.2575780112472814
 20
0.1623242764808714
 10
0.2597362625181643
 20
0.1610782095286489
 10
0.2603817687488914
 20
0.1618128531012907
 10
0.2600311612350699
 20
0.163122607954913
 10
0.2588947994778192
 20
0.1642216145833921
 10
0.257247491740229
 20
0.1653941544513561
 10
0.2561683649796422
 20
0.1660171885770709
 10
0.2551243013473763
 20
0.1665092482163061
  0
LWPOLYLINE
  5
AF8
330
2
100
AcDbEntity
  8
Profilo
  6
Continuous
370
     0
100
AcDbPolyline
 90
       15
 70
   128
 43
0.0
 10
0.2425945542572845
 20
0.1645524708701038
 10
0.2425945542572845
 20
0.1645524708701038
 10
0.2448043593166234
 20
0.1641625045331482
 10
0.2458004751147009
 20
0.163587396808984
 10
0.2457138647520307
 20
0.1628622716385987
 10
0.245474121474031
 20
0.1624470241003304
 10
0.2460201260821138
 20
0.1622425189727798
 10
0.2474256087336575
 20
0.1627598562565126
 10
0.2490672328159911
 20
0.1629193956618073
 10
0.2505742966479389
 20
0.1622707582549742
 10
0.2515095735486104
 20
0.1613985740600516
 10
0.250956363389339
 20
0.1600569799413507
 10
0.2497519614873149
 20
0.1593128131104291
 10
0.2487780198078728
 20
0.1595429215190997
 10
0.2456715983228119
 20
0.1614471455796198
  0
LWPOLYLINE
  5
AF9
330
2
100
AcDbEntity
  8
Profilo
  6
Continuous
370
     0
100
AcDbPolyline
 90
       10
 70
   128
 43
0.0
 10
0.2515002904931927
 20
0.1619576017613755
 10
0.253540472173825
 20
0.1608904330987699
 10
0.2546897186369432
 20
0.1600054490416957
 10
0.2550403304545825
 20
0.1586956964456835
 10
0.2549851772659672
 20
0.1570665442584826
 10
0.2545886994221864
 20
0.1561881240796005
 10
0.2540133130907525
 20
0.1551915257195779
 10
0.2523845778213443
 20
0.1552460159993196
 10
0.2512224423485407
 20
0.1559169752273787
 10
0.2505233027715978
 20
0.1564313544302291
  0
LWPOLYLINE
  5
AFA
330
2
100
AcDbEntity
  8
Profilo
  6
Continuous
370
     0
100
AcDbPolyline
 90
        4
 70
   128
 43
0.0
 10
0.2497390747279184
 20
0.159098786982208
 10
0.2505526801911313
 20
0.1576324556601949
 10
0.250558363649628
 20
0.1563003812429584
 10
0.2501232232773671
 20
0.1547798839786183
  0
LWPOLYLINE
  5
AFB
330
2
100
AcDbEntity
  8
Profilo
  6
Continuous
370
     0
100
AcDbPolyline
 90
        5
 70
   128
 43
0.0
 10
0.2348118928043008
 20
0.1529895306965021
 10
0.2391319992468035
 20
0.1512704457655806
 10
0.2421883890360985
 20
0.1513882947532851
 10
0.2448647916417497
 20
0.1516147986638514
 10
0.2484836810030822
 20
0.1525152198833583
  0
LWPOLYLINE
  5
AFC
330
2
100
AcDbEntity
  8
Profilo
  6
Continuous
370
     0
100
AcDbPolyline
 90
       19
 70
   128
 43
0.0
 10
0.2556695140751679
 20
0.1689058983050153
 10
0.2612916814838937
 20
0.1695495354578917
 10
0.2635759463048051
 20
0.169510625045357
 10
0.2644767963697885
 20
0.169125573696736
 10
0.2662711324428799
 20
0.1699352447675157
 10
0.2677167127973328
 20
0.1699778382701722
 10
0.2690548165015643
 20
0.1696189508262597
 10
0.2705662358753416
 20
0.1685681145266939
 10
0.2708601943561519
 20
0.1680589635026152
 10
0.2699798745090889
 20
0.1666455579682213
 10
0.2690110589917052
 20
0.1659730673964472
 10
0.2684173356221025
 20
0.1656302810491827
 10
0.2671998724788431
 20
0.1661719650254647
 10
0.2657864392653342
 20
0.1670530843170054
 10
0.2639979073499377
 20
0.1676045003424406
 10
0.262075568712524
 20
0.1681918029504978
 10
0.2596933177313425
 20
0.1684004303710593
 10
0.2553075878916684
 20
0.1683575061094937
 10
0.2539599959477763
 20
0.1681451968980165
  0
LWPOLYLINE
  5
AFD
330
2
100
AcDbEntity
  8
Profilo
  6
Continuous
370
     0
100
AcDbPolyline
 90
       18
 70
   128
 43
0.0
 10
0.2699572201083851
 20
0.1662930444278249
 10
0.2711783630297924
 20
0.1649614722683243
 10
0.2719264253928597
 20
0.1634699115931366
 10
0.2720280935815684
 20
0.1625103077010989
 10
0.2704297298290172
 20
0.1613612026142656
 10
0.2687202094513368
 20
0.1606004999080608
 10
0.2665565874416882
 20
0.1608222081521719
 10
0.2649603458183916
 20
0.1618240770455661
 10
0.2645194101507049
 20
0.1625878000248683
 10
0.2647548873117196
 20
0.1615923108494148
 10
0.2636522607685028
 20
0.1609557091178727
 10
0.2621708576020141
 20
0.1607792838906063
 10
0.2610550628442252
 20
0.160361368830872
 10
0.2626549821921427
 20
0.1585696153110753
 10
0.2631749273440165
 20
0.1564937771569483
 10
0.2628920126982313
 20
0.1546332662297857
 10
0.260571920958228
 20
0.154538352031341
 10
0.2549053031321535
 20
0.1562029768349817
  0
DIMENSION
  5
AFE
102
{ACAD_XDICTIONARY
360
B08
102
}
102
{ACAD_REACTORS
330
B0F
102
}
330
2
100
AcDbEntity
  8
Text
  6
ACAD_ISO10W100
100
AcDbDimension
  2
*D23
 10
0.1439782056671902
 20
0.1045112705904369
 30
0.0
 11
0.2901819941899666
 21
0.2105884491495304
 31
0.0
 70
    35
  1
d 330 mm
 71
     5
 42
0.165
  3
Bovelacci
100
AcDbDiametricDimension
 15
0.2719270795989987
 25
0.2086942138181179
 35
0.0
 40
0.0
1001
ACAD
1000
DSTYLE
1002
{
1070
   288
1070
     1
1002
}
  0
ENDSEC
  0
SECTION
  2
OBJECTS
  0
DICTIONARY
  5
9
330
0
100
AcDbDictionary
281
     1
  3
ACAD_2007HEADERVARS_RT
350
208
  3
ACAD_COLOR
350
184
  3
ACAD_GROUP
350
17F
  3
ACAD_LAYOUT
350
164
  3
ACAD_MATERIAL
350
B
  3
ACAD_MLINESTYLE
350
180
  3
ACAD_PLOTSETTINGS
350
181
  3
ACAD_PLOTSTYLENAME
350
8
  3
ACAD_TABLESTYLE
350
185
  3
ACAD_VISUALSTYLE
350
17A
  3
ACDBHEADERROUNDTRIPXREC
350
B21
  3
AcDbVariableDictionary
350
18B
  3
DWGPROPS
350
B20
  0
DICTIONARY
  5
16E
330
16D
100
AcDbDictionary
280
     1
281
     1
  3
ACAD_LAYERSTATES
360
16F
  0
DICTIONARY
  5
3
330
2
100
AcDbDictionary
280
     1
281
     1
  3
ACAD_SORTENTS
360
18A
  0
DICTIONARY
  5
B22
330
18
100
AcDbDictionary
280
     1
281
     1
  3
ACAD_MTEXT_RT
360
B23
  0
DICTIONARY
  5
B08
330
AFE
100
AcDbDictionary
280
     1
281
     1
  3
ACAD_DIMASSOC
360
B0F
  0
DICTIONARY
  5
208
102
{ACAD_REACTORS
330
9
102
}
330
9
100
AcDbDictionary
281
     1
  3
DIMFXL
350
209
  0
DICTIONARY
  5
184
102
{ACAD_REACTORS
330
9
102
}
330
9
100
AcDbDictionary
281
     1
  0
DICTIONARY
  5
17F
102
{ACAD_REACTORS
330
9
102
}
330
9
100
AcDbDictionary
281
     1
  0
DICTIONARY
  5
164
102
{ACAD_REACTORS
330
9
102
}
330
9
100
AcDbDictionary
281
     1
  3
Layout1
350
168
  3
Layout2
350
16C
  3
Model
350
163
  0
DICTIONARY
  5
B
102
{ACAD_REACTORS
330
9
102
}
330
9
100
AcDbDictionary
281
     1
  3
ByBlock
350
183
  3
ByLayer
350
182
  3
Global
350
A
  0
DICTIONARY
  5
180
102
{ACAD_REACTORS
330
9
102
}
330
9
100
AcDbDictionary
281
     1
  3
Standard
350
186
  0
DICTIONARY
  5
181
102
{ACAD_REACTORS
330
9
102
}
330
9
100
AcDbDictionary
281
     1
  0
ACDBDICTIONARYWDFLT
  5
8
102
{ACAD_REACTORS
330
9
102
}
330
9
100
AcDbDictionary
281
     1
  3
Normal
350
7
100
AcDbDictionaryWithDefault
340
7
  0
DICTIONARY
  5
185
102
{ACAD_REACTORS
330
9
102
}
330
9
100
AcDbDictionary
281
     1
  3
Standard
350
187
  0
DICTIONARY
  5
17A
102
{ACAD_REACTORS
330
9
102
}
330
9
100
AcDbDictionary
281
     1
  3
2dWireframe
350
179
  3
3D Hidden
350
1BD
  3
3dWireframe
350
189
  3
Basic
350
1BC
  3
Brighten
350
1C0
  3
ColorChange
350
1C4
  3
Conceptual
350
1BE
  3
Dim
350
1BF
  3
Facepattern
350
1C3
  3
Flat
350
1B8
  3
FlatWithEdges
350
1B9
  3
Gouraud
350
1BA
  3
GouraudWithEdges
350
1BB
  3
Linepattern
350
1C2
  3
Realistic
350
188
  3
Thicken
350
1C1
  0
DICTIONARY
  5
B21
102
{ACAD_REACTORS
330
9
102
}
330
9
100
AcDbDictionary
281
     1
  0
DICTIONARY
  5
18B
102
{ACAD_REACTORS
330
9
102
}
330
9
100
AcDbDictionary
281
     1
  3
CTABLESTYLE
350
18C
  3
DIMASSOC
350
190
  3
HIDETEXT
350
18F
  3
INDEXCTL
350
18E
  3
PROJECTNAME
350
2F9
  3
SORTENTS
350
18D
  0
XRECORD
  5
B20
102
{ACAD_REACTORS
330
9
102
}
330
9
100
AcDbXrecord
280
     1
  1
DWGPROPS COOKIE
  2

  3

  4

  6

  7

  8
Mario
  9

300
=
301
=
302
=
303
=
304
=
305
=
306
=
307
=
308
=
309
=
 40
0.1201841087962963
 41
2454297.625402373
 42
2454305.95204029
  1

 90
        0
  0
DICTIONARY
  5
16F
102
{ACAD_REACTORS
330
16E
102
}
330
16E
100
AcDbDictionary
281
     1
  0
SORTENTSTABLE
  5
18A
102
{ACAD_REACTORS
330
3
102
}
330
3
100
AcDbSortentsTable
330
2
331
14
  5
10
331
23
  5
24
331
12
  5
16
331
10
  5
14
331
21
  5
22
331
1F
  5
21
331
1D
  5
1E
331
15
  5
11
331
24
  5
18
331
13
  5
D
331
22
  5
23
331
11
  5
15
331
1E
  5
1F
331
D
  5
13
331
1C
  5
1D
331
18
  5
1C
331
16
  5
12
  0
XRECORD
  5
B23
102
{ACAD_REACTORS
330
B22
102
}
330
B22
100
AcDbXrecord
280
     1
 40
7955300.0
  1
{\fTimes New Roman|b0|i0|c238|p18;\H1.6x;\C4;Bovelacci\P\pt0.09;\H0.4375x;\T0.95;via del Commercio, 5  47100 Forli - Italy  \fTimes New Roman|b0|i0|c0|p18;\P\fTimes New Roman|b0|i0|c238|p18;tel.+39-0543721386  fax +39-0543721127\fTimes New Roman|b0|i
  1
0|c0|p18; \fTimes New Roman|b0|i0|c238|p18;www.bovelacci.it\fTimes New Roman|b0|i0|c0|p18; \fTimes New Roman|b0|i0|c238|p18;e-mail: bovelacci@bovelacci\fTimes New Roman|b0|i0|c0|p18;.it}
  0
DIMASSOC
  5
B0F
102
{ACAD_REACTORS
330
B08
102
}
330
B08
100
AcDbDimAssoc
330
AFE
 90
        2
 70
     0
 71
     0
  1
AcDbOsnapPointRef
 72
     3
331
9EF
 73
     2
 91
        0
 40
0.0
 10
0.0
 20
0.0
 30
0.0
 75
     0
  0
XRECORD
  5
209
102
{ACAD_REACTORS
330
208
102
}
330
208
100
AcDbXrecord
280
     1
 40
0.18
  0
LAYOUT
  5
168
102
{ACAD_XDICTIONARY
360
B26
102
}
102
{ACAD_REACTORS
330
164
102
}
330
164
100
AcDbPlotSettings
  1

  2
C:\Documents and Settings\All Users\Dati applicazioni\Autodesk\ADT 2006\enu\Plotters\Default Windows System Printer.pc3
  4

  6

 40
0.0
 41
0.0
 42
0.0
 43
0.0
 44
0.0
 45
0.0
 46
0.0
 47
0.0
 48
0.0
 49
0.0
140
0.0
141
0.0
142
1.0
143
1.0
 70
   688
 72
     0
 73
     0
 74
     5
  7

 75
    16
147
1.0
148
0.0
149
0.0
100
AcDbLayout
  1
Layout1
 70
     1
 71
     1
 10
0.0
 20
0.0
 11
420.0
 21
297.0
 12
0.0
 22
0.0
 32
0.0
 14
1.000000000000000E+20
 24
1.000000000000000E+20
 34
1.000000000000000E+20
 15
-1.000000000000000E+20
 25
-1.000000000000000E+20
 35
-1.000000000000000E+20
146
0.0
 13
0.0
 23
0.0
 33
0.0
 16
1.0
 26
0.0
 36
0.0
 17
0.0
 27
1.0
 37
0.0
 76
     0
330
165
  0
LAYOUT
  5
16C
102
{ACAD_XDICTIONARY
360
B28
102
}
102
{ACAD_REACTORS
330
164
102
}
330
164
100
AcDbPlotSettings
  1

  2
C:\Documents and Settings\All Users\Dati applicazioni\Autodesk\ADT 2006\enu\Plotters\Default Windows System Printer.pc3
  4

  6

 40
0.0
 41
0.0
 42
0.0
 43
0.0
 44
0.0
 45
0.0
 46
0.0
 47
0.0
 48
0.0
 49
0.0
140
0.0
141
0.0
142
1.0
143
1.0
 70
   688
 72
     0
 73
     0
 74
     5
  7

 75
    16
147
1.0
148
0.0
149
0.0
100
AcDbLayout
  1
Layout2
 70
     1
 71
     2
 10
0.0
 20
0.0
 11
12.0
 21
9.0
 12
0.0
 22
0.0
 32
0.0
 14
0.0
 24
0.0
 34
0.0
 15
0.0
 25
0.0
 35
0.0
146
0.0
 13
0.0
 23
0.0
 33
0.0
 16
1.0
 26
0.0
 36
0.0
 17
0.0
 27
1.0
 37
0.0
 76
     0
330
169
  0
LAYOUT
  5
163
102
{ACAD_XDICTIONARY
360
B24
102
}
102
{ACAD_REACTORS
330
164
102
}
330
164
100
AcDbPlotSettings
  1

  2
C:\Documents and Settings\All Users\Dati applicazioni\Autodesk\ADT 2006\enu\Plotters\Default Windows System Printer.pc3
  4

  6

 40
0.0
 41
0.0
 42
0.0
 43
0.0
 44
0.0
 45
0.0
 46
0.0
 47
0.0
 48
0.0
 49
0.0
140
0.0
141
0.0
142
1.0
143
1.0
 70
  1712
 72
     0
 73
     0
 74
     0
  7

 75
     0
147
1.0
148
0.0
149
0.0
100
AcDbLayout
  1
Model
 70
     1
 71
     0
 10
0.0
 20
0.0
 11
12.0
 21
9.0
 12
0.0
 22
0.0
 32
0.0
 14
0.0
 24
0.0
 34
0.0
 15
0.0
 25
0.0
 35
0.0
146
0.0
 13
0.0
 23
0.0
 33
0.0
 16
1.0
 26
0.0
 36
0.0
 17
0.0
 27
1.0
 37
0.0
 76
     0
330
2
  0
MATERIAL
  5
183
102
{ACAD_XDICTIONARY
360
1B0
102
}
102
{ACAD_REACTORS
330
B
102
}
330
B
100
AcDbMaterial
  1
ByBlock
  0
MATERIAL
  5
182
102
{ACAD_XDICTIONARY
360
1AE
102
}
102
{ACAD_REACTORS
330
B
102
}
330
B
100
AcDbMaterial
  1
ByLayer
  0
MATERIAL
  5
A
102
{ACAD_XDICTIONARY
360
193
102
}
102
{ACAD_REACTORS
330
B
102
}
330
B
100
AcDbMaterial
  1
Global
  0
MLINESTYLE
  5
186
102
{ACAD_REACTORS
330
180
102
}
330
180
100
AcDbMlineStyle
  2
STANDARD
 70
     0
  3

 62
   256
 51
90.0
 52
90.0
 71
     2
 49
0.5
 62
   256
  6
BYLAYER
 49
-0.5
 62
   256
  6
BYLAYER
  0
ACDBPLACEHOLDER
  5
7
102
{ACAD_REACTORS
330
8
102
}
330
8
  0
TABLESTYLE
  5
187
102
{ACAD_XDICTIONARY
360
21A
102
}
102
{ACAD_REACTORS
330
185
102
}
330
185
100
AcDbTableStyle
  3
Standard
 70
     0
 71
     0
 40
1.5
 41
1.5
280
     0
281
     0
  7
Standard
140
4.5
170
     2
 62
     0
 63
     7
283
     0
274
    -2
284
     1
 64
     0
275
    -2
285
     1
 65
     0
276
    -2
286
     1
 66
     0
277
    -2
287
     1
 67
     0
278
    -2
288
     1
 68
     0
279
    -2
289
     1
 69
     0
  7
Standard
140
6.0
170
     5
 62
     0
 63
     7
283
     0
274
    -2
284
     1
 64
     0
275
    -2
285
     1
 65
     0
276
    -2
286
     1
 66
     0
277
    -2
287
     1
 67
     0
278
    -2
288
     1
 68
     0
279
    -2
289
     1
 69
     0
  7
Standard
140
4.5
170
     5
 62
     0
 63
     7
283
     0
274
    -2
284
     1
 64
     0
275
    -2
285
     1
 65
     0
276
    -2
286
     1
 66
     0
277
    -2
287
     1
 67
     0
278
    -2
288
     1
 68
     0
279
    -2
289
     1
 69
     0
  0
VISUALSTYLE
  5
179
102
{ACAD_REACTORS
330
17A
102
}
330
17A
100
AcDbVisualStyle
  2
2dWireframe
 70
     4
 71
     0
 72
     2
 73
     0
 90
        0
 40
-0.6
 41
-30.0
 62
     5
 63
     7
 74
     1
 91
        4
 64
     7
 65
   257
 75
     1
175
     1
 42
1.0
 92
        0
 66
   257
 43
1.0
 76
     1
 77
     6
 78
     2
 67
     7
 79
     5
170
     0
171
     0
290
     0
174
     0
 93
        1
 44
0.0
173
     0
291
     0
 45
0.0
1001
ACAD
1000
AcDbSavedByObjectVersion
1070
     0
1000
AcDbSavedByObjectVersion
1070
     0
1000
AcDbSavedByObjectVersion
1070
     0
1001
ACAD
1000
AcRTDxfName
1000
VISUALSTYLE
  0
VISUALSTYLE
  5
1BD
102
{ACAD_REACTORS
330
17A
102
}
330
17A
100
AcDbVisualStyle
  2
3D Hidden
 70
     6
 71
     1
 72
     2
 73
     2
 90
        0
 40
-0.6
 41
-30.0
 62
     5
 63
     7
 74
     2
 91
        2
 64
     7
 65
   257
 75
     2
175
     1
 42
40.0
 92
        0
 66
   257
 43
1.0
 76
     1
 77
     6
 78
     2
 67
     7
 79
     3
170
     0
171
     0
290
     0
174
     0
 93
        1
 44
0.0
173
     0
291
     0
 45
0.0
1001
ACAD
1000
AcDbSavedByObjectVersion
1070
     0
1000
AcDbSavedByObjectVersion
1070
     0
1001
ACAD
1000
AcRTDxfName
1000
VISUALSTYLE
  0
VISUALSTYLE
  5
189
102
{ACAD_REACTORS
330
17A
102
}
330
17A
100
AcDbVisualStyle
  2
3dWireframe
 70
     5
 71
     0
 72
     2
 73
     0
 90
        0
 40
-0.6
 41
-30.0
 62
     5
 63
     7
 74
     1
 91
        4
 64
     7
 65
   257
 75
     1
175
     1
 42
1.0
 92
        0
 66
   257
 43
1.0
 76
     1
 77
     6
 78
     2
 67
     7
 79
     5
170
     0
171
     0
290
     0
174
     0
 93
        1
 44
0.0
173
     0
291
     0
 45
0.0
1001
ACAD
1000
AcDbSavedByObjectVersion
1070
     0
1000
AcDbSavedByObjectVersion
1070
     0
1000
AcDbSavedByObjectVersion
1070
     0
1001
ACAD
1000
AcRTDxfName
1000
VISUALSTYLE
  0
VISUALSTYLE
  5
1BC
102
{ACAD_REACTORS
330
17A
102
}
330
17A
100
AcDbVisualStyle
  2
Basic
 70
     7
 71
     1
 72
     0
 73
     1
 90
        0
 40
-0.6
 41
-30.0
 62
     5
 63
     7
 74
     0
 91
        4
 64
     7
 65
   257
 75
     1
175
     1
 42
1.0
 92
        8
 66
     7
 43
1.0
 76
     1
 77
     6
 78
     2
 67
     7
 79
     5
170
     0
171
     0
290
     0
174
     0
 93
        1
 44
0.0
173
     0
291
     1
 45
0.0
1001
ACAD
1000
AcDbSavedByObjectVersion
1070
     0
1000
AcDbSavedByObjectVersion
1070
     0
1001
ACAD
1000
AcRTDxfName
1000
VISUALSTYLE
  0
VISUALSTYLE
  5
1C0
102
{ACAD_REACTORS
330
17A
102
}
330
17A
100
AcDbVisualStyle
  2
Brighten
 70
    12
 71
     2
 72
     2
 73
     0
 90
        0
 40
-0.6
 41
-30.0
 62
     5
 63
     7
 74
     1
 91
        4
 64
     7
 65
   257
 75
     1
175
     1
 42
1.0
 92
        8
 66
     7
 43
1.0
 76
     1
 77
     6
 78
     2
 67
     7
 79
     5
170
     0
171
     0
290
     0
174
     0
 93
        1
 44
50.0
173
     0
291
     1
 45
0.0
1001
ACAD
1000
AcDbSavedByObjectVersion
1070
     0
1000
AcDbSavedByObjectVersion
1070
     0
1001
ACAD
1000
AcRTDxfName
1000
VISUALSTYLE
  0
VISUALSTYLE
  5
1C4
102
{ACAD_REACTORS
330
17A
102
}
330
17A
100
AcDbVisualStyle
  2
ColorChange
 70
    16
 71
     2
 72
     2
 73
     3
 90
        0
 40
-0.6
 41
-30.0
 62
     5
 63
     8
 74
     1
 91
        4
 64
     7
 65
   257
 75
     1
175
     1
 42
1.0
 92
        8
 66
     8
 43
1.0
 76
     1
 77
     6
 78
     2
 67
     7
 79
     5
170
     0
171
     0
290
     0
174
     0
 93
        1
 44
0.0
173
     0
291
     1
 45
0.0
1001
ACAD
1000
AcDbSavedByObjectVersion
1070
     0
1000
AcDbSavedByObjectVersion
1070
     0
1001
ACAD
1000
AcRTDxfName
1000
VISUALSTYLE
  0
VISUALSTYLE
  5
1BE
102
{ACAD_REACTORS
330
17A
102
}
330
17A
100
AcDbVisualStyle
  2
Conceptual
 70
     9
 71
     3
 72
     2
 73
     0
 90
        0
 40
-0.6
 41
-30.0
 62
     5
 63
     7
 74
     2
 91
        2
 64
     7
 65
   257
 75
     1
175
     1
 42
40.0
 92
        8
 66
     7
 43
1.0
 76
     1
 77
     6
 78
     2
 67
     7
 79
     3
170
     0
171
     0
290
     0
174
     0
 93
        1
 44
0.0
173
     0
291
     0
 45
0.0
1001
ACAD
1000
AcDbSavedByObjectVersion
1070
     0
1000
AcDbSavedByObjectVersion
1070
     0
1001
ACAD
1000
AcRTDxfName
1000
VISUALSTYLE
  0
VISUALSTYLE
  5
1BF
102
{ACAD_REACTORS
330
17A
102
}
330
17A
100
AcDbVisualStyle
  2
Dim
 70
    11
 71
     2
 72
     2
 73
     0
 90
        0
 40
-0.6
 41
-30.0
 62
     5
 63
     7
 74
     1
 91
        4
 64
     7
 65
   257
 75
     1
175
     1
 42
1.0
 92
        8
 66
     7
 43
1.0
 76
     1
 77
     6
 78
     2
 67
     7
 79
     5
170
     0
171
     0
290
     0
174
     0
 93
        1
 44
-50.0
173
     0
291
     1
 45
0.0
1001
ACAD
1000
AcDbSavedByObjectVersion
1070
     0
1000
AcDbSavedByObjectVersion
1070
     0
1001
ACAD
1000
AcRTDxfName
1000
VISUALSTYLE
  0
VISUALSTYLE
  5
1C3
102
{ACAD_REACTORS
330
17A
102
}
330
17A
100
AcDbVisualStyle
  2
Facepattern
 70
    15
 71
     2
 72
     2
 73
     0
 90
        0
 40
-0.6
 41
-30.0
 62
     5
 63
     7
 74
     1
 91
        4
 64
     7
 65
   257
 75
     1
175
     1
 42
1.0
 92
        8
 66
     7
 43
1.0
 76
     1
 77
     6
 78
     2
 67
     7
 79
     5
170
     0
171
     0
290
     0
174
     0
 93
        1
 44
0.0
173
     0
291
     1
 45
0.0
1001
ACAD
1000
AcDbSavedByObjectVersion
1070
     0
1000
AcDbSavedByObjectVersion
1070
     0
1001
ACAD
1000
AcRTDxfName
1000
VISUALSTYLE
  0
VISUALSTYLE
  5
1B8
102
{ACAD_REACTORS
330
17A
102
}
330
17A
100
AcDbVisualStyle
  2
Flat
 70
     0
 71
     2
 72
     1
 73
     1
 90
        2
 40
-0.6
 41
30.0
 62
     5
 63
     7
 74
     0
 91
        4
 64
     7
 65
   257
 75
     1
175
     1
 42
1.0
 92
        8
 66
     7
 43
1.0
 76
     1
 77
     6
 78
     2
 67
     7
 79
     5
170
     0
171
     0
290
     0
174
     0
 93
       13
 44
0.0
173
     0
291
     1
 45
0.0
1001
ACAD
1000
AcDbSavedByObjectVersion
1070
     0
1000
AcDbSavedByObjectVersion
1070
     0
1001
ACAD
1000
AcRTDxfName
1000
VISUALSTYLE
  0
VISUALSTYLE
  5
1B9
102
{ACAD_REACTORS
330
17A
102
}
330
17A
100
AcDbVisualStyle
  2
FlatWithEdges
 70
     1
 71
     2
 72
     1
 73
     1
 90
        2
 40
-0.6
 41
30.0
 62
     5
 63
     7
 74
     1
 91
        4
 64
     7
 65
   257
 75
     1
175
     1
 42
1.0
 92
        0
 66
   257
 43
1.0
 76
     1
 77
     6
 78
     2
 67
     7
 79
     5
170
     0
171
     0
290
     0
174
     0
 93
       13
 44
0.0
173
     0
291
     1
 45
0.0
1001
ACAD
1000
AcDbSavedByObjectVersion
1070
     0
1000
AcDbSavedByObjectVersion
1070
     0
1001
ACAD
1000
AcRTDxfName
1000
VISUALSTYLE
  0
VISUALSTYLE
  5
1BA
102
{ACAD_REACTORS
330
17A
102
}
330
17A
100
AcDbVisualStyle
  2
Gouraud
 70
     2
 71
     2
 72
     2
 73
     1
 90
        2
 40
-0.6
 41
30.0
 62
     5
 63
     7
 74
     0
 91
        4
 64
     7
 65
   257
 75
     1
175
     1
 42
1.0
 92
        0
 66
     7
 43
1.0
 76
     1
 77
     6
 78
     2
 67
     7
 79
     5
170
     0
171
     0
290
     0
174
     0
 93
       13
 44
0.0
173
     0
291
     1
 45
0.0
1001
ACAD
1000
AcDbSavedByObjectVersion
1070
     0
1000
AcDbSavedByObjectVersion
1070
     0
1001
ACAD
1000
AcRTDxfName
1000
VISUALSTYLE
  0
VISUALSTYLE
  5
1BB
102
{ACAD_REACTORS
330
17A
102
}
330
17A
100
AcDbVisualStyle
  2
GouraudWithEdges
 70
     3
 71
     2
 72
     2
 73
     1
 90
        2
 40
-0.6
 41
30.0
 62
     5
 63
     7
 74
     1
 91
        4
 64
     7
 65
   257
 75
     1
175
     1
 42
1.0
 92
        0
 66
   257
 43
1.0
 76
     1
 77
     6
 78
     2
 67
     7
 79
     5
170
     0
171
     0
290
     0
174
     0
 93
       13
 44
0.0
173
     0
291
     1
 45
0.0
1001
ACAD
1000
AcDbSavedByObjectVersion
1070
     0
1000
AcDbSavedByObjectVersion
1070
     0
1001
ACAD
1000
AcRTDxfName
1000
VISUALSTYLE
  0
VISUALSTYLE
  5
1C2
102
{ACAD_REACTORS
330
17A
102
}
330
17A
100
AcDbVisualStyle
  2
Linepattern
 70
    14
 71
     2
 72
     2
 73
     0
 90
        0
 40
-0.6
 41
-30.0
 62
     5
 63
     7
 74
     1
 91
        4
 64
     7
 65
   257
 75
     7
175
     7
 42
1.0
 92
        8
 66
     7
 43
1.0
 76
     1
 77
     6
 78
     2
 67
     7
 79
     5
170
     0
171
     0
290
     0
174
     0
 93
        1
 44
0.0
173
     0
291
     1
 45
0.0
1001
ACAD
1000
AcDbSavedByObjectVersion
1070
     0
1000
AcDbSavedByObjectVersion
1070
     0
1001
ACAD
1000
AcRTDxfName
1000
VISUALSTYLE
  0
VISUALSTYLE
  5
188
102
{ACAD_REACTORS
330
17A
102
}
330
17A
100
AcDbVisualStyle
  2
Realistic
 70
     8
 71
     2
 72
     2
 73
     0
 90
        0
 40
-0.6
 41
-30.0
 62
     5
 63
     7
 74
     1
 91
        0
 64
     7
 65
   257
 75
     1
175
     1
 42
1.0
 92
        8
 66
     8
 43
1.0
 76
     1
 77
     6
 78
     2
 67
     7
 79
     5
170
     0
171
     0
290
     0
174
     0
 93
       13
 44
0.0
173
     0
291
     0
 45
0.0
1001
ACAD
1000
AcDbSavedByObjectVersion
1070
     0
1000
AcDbSavedByObjectVersion
1070
     0
1000
AcDbSavedByObjectVersion
1070
     0
1001
ACAD
1000
AcRTDxfName
1000
VISUALSTYLE
  0
VISUALSTYLE
  5
1C1
102
{ACAD_REACTORS
330
17A
102
}
330
17A
100
AcDbVisualStyle
  2
Thicken
 70
    13
 71
     2
 72
     2
 73
     0
 90
        0
 40
-0.6
 41
-30.0
 62
     5
 63
     7
 74
     1
 91
        4
 64
     7
 65
   257
 75
     1
175
     1
 42
1.0
 92
       12
 66
     7
 43
1.0
 76
     1
 77
     6
 78
     2
 67
     7
 79
     5
170
     0
171
     0
290
     0
174
     0
 93
        1
 44
0.0
173
     0
291
     1
 45
0.0
1001
ACAD
1000
AcDbSavedByObjectVersion
1070
     0
1000
AcDbSavedByObjectVersion
1070
     0
1001
ACAD
1000
AcRTDxfName
1000
VISUALSTYLE
  0
DICTIONARYVAR
  5
18C
102
{ACAD_REACTORS
330
18B
102
}
330
18B
100
DictionaryVariables
280
     0
  1
STANDARD
  0
DICTIONARYVAR
  5
190
102
{ACAD_REACTORS
330
18B
102
}
330
18B
100
DictionaryVariables
280
     0
  1
2
  0
DICTIONARYVAR
  5
18F
102
{ACAD_REACTORS
330
18B
102
}
330
18B
100
DictionaryVariables
280
     0
  1
1
  0
DICTIONARYVAR
  5
18E
102
{ACAD_REACTORS
330
18B
102
}
330
18B
100
DictionaryVariables
280
     0
  1
0
  0
DICTIONARYVAR
  5
2F9
102
{ACAD_REACTORS
330
18B
102
}
330
18B
100
DictionaryVariables
280
     0
  1

  0
DICTIONARYVAR
  5
18D
102
{ACAD_REACTORS
330
18B
102
}
330
18B
100
DictionaryVariables
280
     0
  1
127
  0
DICTIONARY
  5
B26
330
168
100
AcDbDictionary
280
     1
281
     1
  3
ACAD_XREC_ROUNDTRIP
360
B27
  0
DICTIONARY
  5
B28
330
16C
100
AcDbDictionary
280
     1
281
     1
  3
ACAD_XREC_ROUNDTRIP
360
B29
  0
DICTIONARY
  5
B24
330
163
100
AcDbDictionary
280
     1
281
     1
  3
ACAD_XREC_ROUNDTRIP
360
B25
  0
DICTIONARY
  5
1B0
330
183
100
AcDbDictionary
280
     1
281
     1
  3
ACAD_XREC_ROUNDTRIP
360
1B1
  0
DICTIONARY
  5
1AE
330
182
100
AcDbDictionary
280
     1
281
     1
  3
ACAD_XREC_ROUNDTRIP
360
1AF
  0
DICTIONARY
  5
193
330
A
100
AcDbDictionary
280
     1
281
     1
  3
ACAD_XREC_ROUNDTRIP
360
194
  0
DICTIONARY
  5
21A
330
187
100
AcDbDictionary
280
     1
281
     1
  3
ACAD_XREC_ROUNDTRIP
360
21B
  0
XRECORD
  5
B27
102
{ACAD_REACTORS
330
B26
102
}
330
B26
100
AcDbXrecord
280
     1
102
SHADEPLOT
 70
     0
102
SHADEPLOTRESLEVEL
 70
     2
102
SHADEPLOTCUSTOMDPI
 70
   300
  0
XRECORD
  5
B29
102
{ACAD_REACTORS
330
B28
102
}
330
B28
100
AcDbXrecord
280
     1
102
SHADEPLOT
 70
     0
102
SHADEPLOTRESLEVEL
 70
     2
102
SHADEPLOTCUSTOMDPI
 70
   300
  0
XRECORD
  5
B25
102
{ACAD_REACTORS
330
B24
102
}
330
B24
100
AcDbXrecord
280
     1
102
SHADEPLOT
 70
     0
102
SHADEPLOTRESLEVEL
 70
     2
102
SHADEPLOTCUSTOMDPI
 70
   300
  0
XRECORD
  5
1B1
102
{ACAD_REACTORS
330
1B0
102
}
330
1B0
100
AcDbXrecord
280
     1
102
MATERIAL
148
0.0
149
0.0
149
0.0
 93
        0
 94
       63
282
     0
 72
     1
 77
     1
171
     1
175
     1
179
     1
273
     0
  0
XRECORD
  5
1AF
102
{ACAD_REACTORS
330
1AE
102
}
330
1AE
100
AcDbXrecord
280
     1
102
MATERIAL
148
0.0
149
0.0
149
0.0
 93
        0
 94
       63
282
     0
 72
     1
 77
     1
171
     1
175
     1
179
     1
273
     0
  0
XRECORD
  5
194
102
{ACAD_REACTORS
330
193
102
}
330
193
100
AcDbXrecord
280
     1
102
MATERIAL
148
0.0
149
0.0
149
0.0
 93
        0
 94
       63
282
     0
 72
     1
 77
     1
171
     1
175
     1
179
     1
273
     0
  0
XRECORD
  5
21B
102
{ACAD_REACTORS
330
21A
102
}
330
21A
100
AcDbXrecord
280
     1
102
ACAD_ROUNDTRIP_PRE2007_TABLESTYLE
 90
        4
 91
        0
  1

 92
        4
 93
        0
  2

 94
        4
 95
        0
  3

  0
ENDSEC
  0
EOF
