  0
SECTION
  2
HEADER
  9
$ACADVER
  1
AC1015
  9
$ACADMAINTVER
 70
    20
  9
$DWGCODEPAGE
  3
ANSI_1252
  9
$INSBASE
 10
0.0
 20
0.0
 30
0.0
  9
$EXTMIN
 10
0.0149999999999999
 20
-0.0570783118295158
 30
0.0
  9
$EXTMAX
 10
0.9796401045833988
 20
0.4853039129181613
 30
0.0
  9
$LIMMIN
 10
0.0
 20
0.0
  9
$LIMMAX
 10
1.0
 20
0.5
  9
$ORTHOMODE
 70
     0
  9
$REGENMODE
 70
     1
  9
$FILLMODE
 70
     1
  9
$QTEXTMODE
 70
     0
  9
$MIRRTEXT
 70
     0
  9
$LTSCALE
 40
1.0
  9
$ATTMODE
 70
     1
  9
$TEXTSIZE
 40
0.008
  9
$TRACEWID
 40
1.0
  9
$TEXTSTYLE
  7
style1
  9
$CLAYER
  8
Text
  9
$CELTYPE
  6
ACAD_ISO10W100
  9
$CECOLOR
 62
   256
  9
$CELTSCALE
 40
1.0
  9
$DISPSILH
 70
     0
  9
$DIMSCALE
 40
0.001
  9
$DIMASZ
 40
1.5
  9
$DIMEXO
 40
0.0625
  9
$DIMDLI
 40
0.38
  9
$DIMRND
 40
0.0
  9
$DIMDLE
 40
0.0
  9
$DIMEXE
 40
0.18
  9
$DIMTP
 40
0.0
  9
$DIMTM
 40
0.0
  9
$DIMTXT
 40
3.0
  9
$DIMCEN
 40
0.0
  9
$DIMTSZ
 40
0.0
  9
$DIMTOL
 70
     0
  9
$DIMLIM
 70
     0
  9
$DIMTIH
 70
     1
  9
$DIMTOH
 70
     1
  9
$DIMSE1
 70
     0
  9
$DIMSE2
 70
     0
  9
$DIMTAD
 70
     0
  9
$DIMZIN
 70
     0
  9
$DIMBLK
  1
ArchTick
  9
$DIMASO
 70
     1
  9
$DIMSHO
 70
     1
  9
$DIMPOST
  1

  9
$DIMAPOST
  1

  9
$DIMALT
 70
     0
  9
$DIMALTD
 70
     2
  9
$DIMALTF
 40
25.4
  9
$DIMLFAC
 40
1.0
  9
$DIMTOFL
 70
     0
  9
$DIMTVP
 40
0.0
  9
$DIMTIX
 70
     0
  9
$DIMSOXD
 70
     0
  9
$DIMSAH
 70
     0
  9
$DIMBLK1
  1

  9
$DIMBLK2
  1

  9
$DIMSTYLE
  2
Bovelacci
  9
$DIMCLRD
 70
     5
  9
$DIMCLRE
 70
     5
  9
$DIMCLRT
 70
     4
  9
$DIMTFAC
 40
1.0
  9
$DIMGAP
 40
2.0
  9
$DIMJUST
 70
     0
  9
$DIMSD1
 70
     0
  9
$DIMSD2
 70
     0
  9
$DIMTOLJ
 70
     1
  9
$DIMTZIN
 70
     0
  9
$DIMALTZ
 70
     0
  9
$DIMALTTZ
 70
     0
  9
$DIMUPT
 70
     0
  9
$DIMDEC
 70
     2
  9
$DIMTDEC
 70
     2
  9
$DIMALTU
 70
     2
  9
$DIMALTTD
 70
     2
  9
$DIMTXSTY
  7
ROMANS
  9
$DIMAUNIT
 70
     0
  9
$DIMADEC
 70
     0
  9
$DIMALTRND
 40
0.0
  9
$DIMAZIN
 70
     0
  9
$DIMDSEP
 70
    46
  9
$DIMATFIT
 70
     3
  9
$DIMFRAC
 70
     0
  9
$DIMLDRBLK
  1

  9
$DIMLUNIT
 70
     2
  9
$DIMLWD
 70
    -2
  9
$DIMLWE
 70
    -2
  9
$DIMTMOVE
 70
     2
  9
$LUNITS
 70
     2
  9
$LUPREC
 70
     2
  9
$SKETCHINC
 40
1.0
  9
$FILLETRAD
 40
0.0
  9
$AUNITS
 70
     0
  9
$AUPREC
 70
     0
  9
$MENU
  1
.
  9
$ELEVATION
 40
0.0
  9
$PELEVATION
 40
0.0
  9
$THICKNESS
 40
0.0
  9
$LIMCHECK
 70
     0
  9
$CHAMFERA
 40
0.0
  9
$CHAMFERB
 40
0.0
  9
$CHAMFERC
 40
0.0
  9
$CHAMFERD
 40
0.0
  9
$SKPOLY
 70
     0
  9
$TDCREATE
 40
2454297.625402373
  9
$TDUCREATE
 40
2454297.542069039
  9
$TDUPDATE
 40
2454305.956778785
  9
$TDUUPDATE
 40
2454305.873445451
  9
$TDINDWG
 40
0.1249240509
  9
$TDUSRTIMER
 40
0.1249220486
  9
$USRTIMER
 70
     1
  9
$ANGBASE
 50
0.0
  9
$ANGDIR
 70
     0
  9
$PDMODE
 70
     0
  9
$PDSIZE
 40
0.0
  9
$PLINEWID
 40
0.0
  9
$SPLFRAME
 70
     0
  9
$SPLINETYPE
 70
     6
  9
$SPLINESEGS
 70
     8
  9
$HANDSEED
  5
D7F
  9
$SURFTAB1
 70
     6
  9
$SURFTAB2
 70
     6
  9
$SURFTYPE
 70
     6
  9
$SURFU
 70
     6
  9
$SURFV
 70
     6
  9
$UCSBASE
  2

  9
$UCSNAME
  2

  9
$UCSORG
 10
0.0
 20
0.0
 30
0.0
  9
$UCSXDIR
 10
1.0
 20
0.0
 30
0.0
  9
$UCSYDIR
 10
0.0
 20
1.0
 30
0.0
  9
$UCSORTHOREF
  2

  9
$UCSORTHOVIEW
 70
     0
  9
$UCSORGTOP
 10
0.0
 20
0.0
 30
0.0
  9
$UCSORGBOTTOM
 10
0.0
 20
0.0
 30
0.0
  9
$UCSORGLEFT
 10
0.0
 20
0.0
 30
0.0
  9
$UCSORGRIGHT
 10
0.0
 20
0.0
 30
0.0
  9
$UCSORGFRONT
 10
0.0
 20
0.0
 30
0.0
  9
$UCSORGBACK
 10
0.0
 20
0.0
 30
0.0
  9
$PUCSBASE
  2

  9
$PUCSNAME
  2

  9
$PUCSORG
 10
0.0
 20
0.0
 30
0.0
  9
$PUCSXDIR
 10
1.0
 20
0.0
 30
0.0
  9
$PUCSYDIR
 10
0.0
 20
1.0
 30
0.0
  9
$PUCSORTHOREF
  2

  9
$PUCSORTHOVIEW
 70
     0
  9
$PUCSORGTOP
 10
0.0
 20
0.0
 30
0.0
  9
$PUCSORGBOTTOM
 10
0.0
 20
0.0
 30
0.0
  9
$PUCSORGLEFT
 10
0.0
 20
0.0
 30
0.0
  9
$PUCSORGRIGHT
 10
0.0
 20
0.0
 30
0.0
  9
$PUCSORGFRONT
 10
0.0
 20
0.0
 30
0.0
  9
$PUCSORGBACK
 10
0.0
 20
0.0
 30
0.0
  9
$USERI1
 70
     0
  9
$USERI2
 70
     0
  9
$USERI3
 70
     0
  9
$USERI4
 70
     0
  9
$USERI5
 70
     0
  9
$USERR1
 40
0.0
  9
$USERR2
 40
0.0
  9
$USERR3
 40
0.0
  9
$USERR4
 40
0.0
  9
$USERR5
 40
0.0
  9
$WORLDVIEW
 70
     1
  9
$SHADEDGE
 70
     3
  9
$SHADEDIF
 70
    70
  9
$TILEMODE
 70
     1
  9
$MAXACTVP
 70
    64
  9
$PINSBASE
 10
0.0
 20
0.0
 30
0.0
  9
$PLIMCHECK
 70
     0
  9
$PEXTMIN
 10
1.000000000000000E+20
 20
1.000000000000000E+20
 30
1.000000000000000E+20
  9
$PEXTMAX
 10
-1.000000000000000E+20
 20
-1.000000000000000E+20
 30
-1.000000000000000E+20
  9
$PLIMMIN
 10
0.0
 20
0.0
  9
$PLIMMAX
 10
420.0
 20
297.0
  9
$UNITMODE
 70
     0
  9
$VISRETAIN
 70
     1
  9
$PLINEGEN
 70
     0
  9
$PSLTSCALE
 70
     1
  9
$TREEDEPTH
 70
  3020
  9
$CMLSTYLE
  2
Standard
  9
$CMLJUST
 70
     0
  9
$CMLSCALE
 40
20.0
  9
$PROXYGRAPHICS
 70
     1
  9
$MEASUREMENT
 70
     1
  9
$CELWEIGHT
370
    -1
  9
$ENDCAPS
280
     0
  9
$JOINSTYLE
280
     0
  9
$LWDISPLAY
290
     0
  9
$INSUNITS
 70
     4
  9
$HYPERLINKBASE
  1

  9
$STYLESHEET
  1

  9
$XEDIT
290
     1
  9
$CEPSNTYPE
380
     0
  9
$PSTYLEMODE
290
     1
  9
$FINGERPRINTGUID
  2
{904A8C64-524F-4709-A9C6-320D2C273A6D}
  9
$VERSIONGUID
  2
{BFC74AF6-89AB-4E6C-9E2D-752281186829}
  9
$EXTNAMES
290
     1
  9
$PSVPSCALE
 40
0.0
  9
$OLESTARTUP
290
     0
  0
ENDSEC
  0
SECTION
  2
CLASSES
  0
CLASS
  1
ACDBDICTIONARYWDFLT
  2
AcDbDictionaryWithDefault
  3
ObjectDBX Classes
 90
        0
280
     0
281
     0
  0
CLASS
  1
TABLESTYLE
  2
AcDbTableStyle
  3
ObjectDBX Classes
 90
     2047
280
     0
281
     0
  0
CLASS
  1
SORTENTSTABLE
  2
AcDbSortentsTable
  3
ObjectDBX Classes
 90
        0
280
     0
281
     0
  0
CLASS
  1
DICTIONARYVAR
  2
AcDbDictionaryVar
  3
ObjectDBX Classes
 90
        0
280
     0
281
     0
  0
CLASS
  1
ACDBPLACEHOLDER
  2
AcDbPlaceHolder
  3
ObjectDBX Classes
 90
        0
280
     0
281
     0
  0
CLASS
  1
LAYOUT
  2
AcDbLayout
  3
ObjectDBX Classes
 90
        0
280
     0
281
     0
  0
CLASS
  1
DIMASSOC
  2
AcDbDimAssoc
  3
"AcDbDimAssoc|Product Desc:     AcDim ARX App For Dimension|Company:          Autodesk, Inc.|WEB Address:      www.autodesk.com"
 90
        0
280
     0
281
     0
  0
CLASS
  1
MATERIAL
  2
AcDbMaterial
  3
ObjectDBX Classes
 90
        0
280
     0
281
     0
  0
CLASS
  1
VISUALSTYLE
  2
AcDbVisualStyle
  3
ObjectDBX Classes
 90
     4095
280
     0
281
     0
  0
ENDSEC
  0
SECTION
  2
TABLES
  0
TABLE
  2
VPORT
  5
177
330
0
100
AcDbSymbolTable
 70
    20
  0
VPORT
  5
D74
330
177
100
AcDbSymbolTableRecord
100
AcDbViewportTableRecord
  2
*Active
 70
     0
 10
0.0
 20
0.0
 11
1.0
 21
1.0
 12
0.2108375552140989
 22
0.1474622880925668
 13
0.0
 23
0.0
 14
10.0
 24
10.0
 15
10.0
 25
10.0
 16
0.0
 26
0.0
 36
1.0
 17
0.0
 27
0.0
 37
0.0
 40
0.2775233704249067
 41
1.546526867627784
 42
50.0
 43
0.0
 44
0.0
 50
0.0
 51
0.0
 71
     0
 72
  1000
 73
     1
 74
     3
 75
     0
 76
     0
 77
     0
 78
     0
281
     0
 65
     1
110
0.0
120
0.0
130
0.0
111
1.0
121
0.0
131
0.0
112
0.0
122
1.0
132
0.0
 79
     0
146
0.0
  0
ENDTAB
  0
TABLE
  2
LTYPE
  5
172
330
0
100
AcDbSymbolTable
 70
     3
  0
LTYPE
  5
173
330
172
100
AcDbSymbolTableRecord
100
AcDbLinetypeTableRecord
  2
ByBlock
 70
     0
  3

 72
    65
 73
     0
 40
0.0
  0
LTYPE
  5
174
330
172
100
AcDbSymbolTableRecord
100
AcDbLinetypeTableRecord
  2
ByLayer
 70
     0
  3

 72
    65
 73
     0
 40
0.0
  0
LTYPE
  5
C
330
172
100
AcDbSymbolTableRecord
100
AcDbLinetypeTableRecord
  2
Continuous
 70
     0
  3
Solid line
 72
    65
 73
     0
 40
0.0
  0
LTYPE
  5
14E
330
172
100
AcDbSymbolTableRecord
100
AcDbLinetypeTableRecord
  2
ACAD_ISO10W100
 70
     0
  3
ISO dash dot __ . __ . __ . __ . __ . __ . __ .
 72
    65
 73
     4
 40
18.0
 49
12.0
 74
     0
 49
-3.0
 74
     0
 49
0.0
 74
     0
 49
-3.0
 74
     0
  0
ENDTAB
  0
TABLE
  2
LAYER
  5
16D
102
{ACAD_XDICTIONARY
360
16E
102
}
330
0
100
AcDbSymbolTable
 70
     7
  0
LAYER
  5
6
330
16D
100
AcDbSymbolTableRecord
100
AcDbLayerTableRecord
  2
0
 70
     0
 62
     7
  6
Continuous
370
    -3
390
7
  0
LAYER
  5
15F
330
16D
100
AcDbSymbolTableRecord
100
AcDbLayerTableRecord
  2
Defpoints
 70
     0
 62
     7
  6
Continuous
290
     0
370
    -3
390
7
  0
LAYER
  5
28
330
16D
100
AcDbSymbolTableRecord
100
AcDbLayerTableRecord
  2
Profilo
 70
     0
 62
     1
  6
Continuous
370
    -3
390
7
1001
AcAecLayerStandard
1000

1000

  0
LAYER
  5
14D
330
16D
100
AcDbSymbolTableRecord
100
AcDbLayerTableRecord
  2
Sezione
 70
     0
 62
     2
  6
Continuous
370
    -3
390
7
1001
AcAecLayerStandard
1000

1000

  0
LAYER
  5
E
330
16D
100
AcDbSymbolTableRecord
100
AcDbLayerTableRecord
  2
Table
 70
     0
 62
     3
  6
Continuous
370
    -3
390
7
1001
AcAecLayerStandard
1000

1000

  0
LAYER
  5
19
330
16D
100
AcDbSymbolTableRecord
100
AcDbLayerTableRecord
  2
Text
 70
     0
 62
     4
  6
Continuous
370
    -3
390
7
1001
AcAecLayerStandard
1000

1000

  0
LAYER
  5
23D
330
16D
100
AcDbSymbolTableRecord
100
AcDbLayerTableRecord
  2
Bovelacci
 70
     0
 62
     9
  6
Continuous
370
    -3
390
7
1001
AcAecLayerStandard
1000

1000

  0
ENDTAB
  0
TABLE
  2
STYLE
  5
170
330
0
100
AcDbSymbolTable
 70
     3
  0
STYLE
  5
1A
330
170
100
AcDbSymbolTableRecord
100
AcDbTextStyleTableRecord
  2
Standard
 70
     0
 40
0.0
 41
1.0
 50
0.0
 71
     0
 42
2.5
  3
txt
  4

  0
STYLE
  5
20
330
170
100
AcDbSymbolTableRecord
100
AcDbTextStyleTableRecord
  2
ROMANS
 70
     0
 40
0.0
 41
1.0
 50
0.0
 71
     0
 42
2.5
  3
romans
  4

  0
STYLE
  5
26
330
170
100
AcDbSymbolTableRecord
100
AcDbTextStyleTableRecord
  2
style1
 70
     0
 40
0.0
 41
1.0
 50
0.0
 71
     0
 42
0.008
  3
TIMES.TTF
  4

1001
ACAD
1000
Times New Roman
1071
       18
  0
ENDTAB
  0
TABLE
  2
VIEW
  5
175
330
0
100
AcDbSymbolTable
 70
     7
  0
ENDTAB
  0
TABLE
  2
UCS
  5
176
330
0
100
AcDbSymbolTable
 70
     0
  0
ENDTAB
  0
TABLE
  2
APPID
  5
17B
330
0
100
AcDbSymbolTable
 70
    10
  0
APPID
  5
1B
330
17B
100
AcDbSymbolTableRecord
100
AcDbRegAppTableRecord
  2
ACAD
 70
     0
  0
APPID
  5
157
330
17B
100
AcDbSymbolTableRecord
100
AcDbRegAppTableRecord
  2
ACAD_DSTYLE_DIMJOGGED_JOGANGLE_SYMBOL
 70
     0
  0
APPID
  5
F
330
17B
100
AcDbSymbolTableRecord
100
AcDbRegAppTableRecord
  2
AcAecLayerStandard
 70
     0
  0
APPID
  5
19C
330
17B
100
AcDbSymbolTableRecord
100
AcDbRegAppTableRecord
  2
ACAD_DSTYLE_DIMFLIPARROW_WHICH_SYMBOL
 70
     0
  0
APPID
  5
1A7
330
17B
100
AcDbSymbolTableRecord
100
AcDbRegAppTableRecord
  2
ACAD_DSTYLE_DIMEXT_LENGTH
 70
     0
  0
APPID
  5
1D2
330
17B
100
AcDbSymbolTableRecord
100
AcDbRegAppTableRecord
  2
ACAD_EXEMPT_FROM_CAD_STANDARDS
 70
     0
  0
APPID
  5
1D3
330
17B
100
AcDbSymbolTableRecord
100
AcDbRegAppTableRecord
  2
ACAD_DSTYLE_DIM_LINETYPE
 70
     0
  0
APPID
  5
1D4
330
17B
100
AcDbSymbolTableRecord
100
AcDbRegAppTableRecord
  2
ACAD_DSTYLE_DIM_EXT1_LINETYPE
 70
     0
  0
APPID
  5
1D5
330
17B
100
AcDbSymbolTableRecord
100
AcDbRegAppTableRecord
  2
ACAD_DSTYLE_DIM_EXT2_LINETYPE
 70
     0
  0
APPID
  5
243
330
17B
100
AcDbSymbolTableRecord
100
AcDbRegAppTableRecord
  2
ACAD_PSEXT
 70
     0
  0
ENDTAB
  0
TABLE
  2
DIMSTYLE
  5
17C
330
0
100
AcDbSymbolTable
 70
     8
100
AcDbDimStyleTable
 71
     2
340
156
340
17D
  0
DIMSTYLE
105
17D
330
17C
100
AcDbSymbolTableRecord
100
AcDbDimStyleTableRecord
  2
ISO-25
 70
     0
 41
2.5
 42
0.625
 43
3.75
 44
1.25
 73
     0
 74
     0
 77
     1
 78
     8
140
2.5
141
2.5
143
0.03937007874016
147
0.625
171
     3
172
     1
271
     2
272
     2
274
     3
278
    44
283
     0
284
     8
340
1A
  0
DIMSTYLE
105
156
102
{ACAD_REACTORS
330
D54
102
}
330
17C
100
AcDbSymbolTableRecord
100
AcDbDimStyleTableRecord
  2
Bovelacci
 70
     0
 40
0.001
 41
1.5
140
3.0
141
0.0
147
2.0
176
     5
177
     5
178
     4
271
     2
272
     2
279
     2
340
20
342
152
1001
ACAD_DSTYLE_DIMJOGGED_JOGANGLE_SYMBOL
1070
   384
1040
0.7853981633974483
1001
ACAD_DSTYLE_DIMEXT_LENGTH
1070
   378
1040
0.18
  0
DIMSTYLE
105
23E
330
17C
100
AcDbSymbolTableRecord
100
AcDbDimStyleTableRecord
  2
Dim 1-100
 70
     0
 40
0.1
 41
1.5
 42
0.0
 43
5.0
 44
1.25
 45
0.005
 46
1.25
 73
     0
 74
     0
 77
     1
 78
     9
140
2.0
141
2.5
147
1.0
172
     1
174
     1
179
     2
279
     2
289
     2
340
20
342
152
  0
DIMSTYLE
105
23F
330
17C
100
AcDbSymbolTableRecord
100
AcDbDimStyleTableRecord
  2
Standard
 70
     0
 42
0.0
 73
     0
 74
     0
 77
     1
271
     2
272
     2
340
20
  0
DIMSTYLE
105
240
330
17C
100
AcDbSymbolTableRecord
100
AcDbDimStyleTableRecord
  2
Dim 1-50
 70
     0
 40
0.05
 41
1.5
 42
0.0
 43
5.0
 44
1.25
 45
0.005
 46
1.25
 73
     0
 74
     0
 77
     1
 78
     9
140
2.0
141
2.5
147
1.0
172
     1
174
     1
179
     2
279
     2
289
     2
340
20
342
152
  0
DIMSTYLE
105
241
330
17C
100
AcDbSymbolTableRecord
100
AcDbDimStyleTableRecord
  2
Dim 1-200
 70
     0
 40
0.2
 41
1.5
 42
0.0
 43
5.0
 44
1.25
 45
0.005
 46
1.25
 73
     0
 74
     0
 77
     1
 78
     9
140
2.0
141
2.5
147
1.0
172
     1
174
     1
179
     2
271
     2
272
     2
279
     2
289
     2
340
20
342
152
  0
DIMSTYLE
105
242
330
17C
100
AcDbSymbolTableRecord
100
AcDbDimStyleTableRecord
  2
AEC Scale - Italiano
 70
     0
 41
1.0
 42
10.0
 43
10.0
 44
10.0
 73
     0
 74
     0
 75
     1
 76
     1
 77
     1
140
10.0
141
1.0
147
10.0
173
     1
271
     0
272
     0
279
     2
340
1A
343
238
344
232
  0
ENDTAB
  0
TABLE
  2
BLOCK_RECORD
  5
1
330
0
100
AcDbSymbolTable
 70
    26
  0
BLOCK_RECORD
  5
2
102
{ACAD_XDICTIONARY
360
3
102
}
330
1
100
AcDbSymbolTableRecord
100
AcDbBlockTableRecord
  2
*Model_Space
340
163
  0
BLOCK_RECORD
  5
165
330
1
100
AcDbSymbolTableRecord
100
AcDbBlockTableRecord
  2
*Paper_Space
340
168
  0
BLOCK_RECORD
  5
169
330
1
100
AcDbSymbolTableRecord
100
AcDbBlockTableRecord
  2
*Paper_Space0
340
16C
  0
BLOCK_RECORD
  5
152
330
1
100
AcDbSymbolTableRecord
100
AcDbBlockTableRecord
  2
_ArchTick
340
0
310
2800000020000000200000000100080000000000000400000000000000000000000000000000000000000000000080000080000000808000800000008000800080800000C0C0C000C0DCC000F0CAA6000020400000206000002080000020A0000020C0000020E00000400000004020000040400000406000004080000040A0
310
000040C0000040E00000600000006020000060400000606000006080000060A0000060C0000060E00000800000008020000080400000806000008080000080A0000080C0000080E00000A0000000A0200000A0400000A0600000A0800000A0A00000A0C00000A0E00000C0000000C0200000C0400000C0600000C0800000C0
310
A00000C0C00000C0E00000E0000000E0200000E0400000E0600000E0800000E0A00000E0C00000E0E00040000000400020004000400040006000400080004000A0004000C0004000E00040200000402020004020400040206000402080004020A0004020C0004020E000404000004040200040404000404060004040800040
310
40A0004040C0004040E00040600000406020004060400040606000406080004060A0004060C0004060E00040800000408020004080400040806000408080004080A0004080C0004080E00040A0000040A0200040A0400040A0600040A0800040A0A00040A0C00040A0E00040C0000040C0200040C0400040C0600040C08000
310
40C0A00040C0C00040C0E00040E0000040E0200040E0400040E0600040E0800040E0A00040E0C00040E0E00080000000800020008000400080006000800080008000A0008000C0008000E00080200000802020008020400080206000802080008020A0008020C0008020E00080400000804020008040400080406000804080
310
008040A0008040C0008040E00080600000806020008060400080606000806080008060A0008060C0008060E00080800000808020008080400080806000808080008080A0008080C0008080E00080A0000080A0200080A0400080A0600080A0800080A0A00080A0C00080A0E00080C0000080C0200080C0400080C0600080C0
310
800080C0A00080C0C00080C0E00080E0000080E0200080E0400080E0600080E0800080E0A00080E0C00080E0E000C0000000C0002000C0004000C0006000C0008000C000A000C000C000C000E000C0200000C0202000C0204000C0206000C0208000C020A000C020C000C020E000C0400000C0402000C0404000C0406000C0
310
408000C040A000C040C000C040E000C0600000C0602000C0604000C0606000C0608000C060A000C060C000C060E000C0800000C0802000C0804000C0806000C0808000C080A000C080C000C080E000C0A00000C0A02000C0A04000C0A06000C0A08000C0A0A000C0A0C000C0A0E000C0C00000C0C02000C0C04000C0C06000
310
C0C08000C0C0A000F0FBFF00A4A0A000808080000000FF0000FF000000FFFF00FF000000FF00FF00FFFF0000FFFFFF00000000FF000000000000000000000000000000000000000000000000000000000000FF00FF00000000000000000000000000000000000000000000000000000000FF000000FF000000000000000000
310
0000000000000000000000000000000000FF0000000000FF0000000000000000000000000000000000000000000000000000FF0000000000FF0000000000000000000000000000000000000000000000000000FF0000000000FF0000000000000000000000000000000000000000000000000000FF0000000000FF00000000
310
00000000000000000000000000000000000000000000FF0000000000FF0000000000000000000000000000000000000000000000000000FF0000000000FF0000000000000000000000000000000000000000000000000000FF0000000000FF0000000000000000000000000000000000000000000000000000FF0000000000
310
FF0000000000000000000000000000000000000000000000000000FF0000000000FF0000000000000000000000000000000000000000000000000000FF0000000000FF0000000000000000000000000000000000000000000000000000FF0000000000FF0000000000000000000000000000000000000000000000000000FF
310
0000000000FF0000000000000000000000000000000000000000000000000000FF0000000000FF0000000000000000000000000000000000000000000000000000FF0000000000FF0000000000000000000000000000000000000000000000000000FF0000000000FF00000000000000000000000000000000000000000000
310
00000000FF0000000000FF0000000000000000000000000000000000000000000000000000FF0000000000FF0000000000000000000000000000000000000000000000000000FF0000000000FF0000000000000000000000000000000000000000000000000000FF0000000000FF0000000000000000000000000000000000
310
000000000000000000FF0000000000FF0000000000000000000000000000000000000000000000000000FF0000000000FF0000000000000000000000000000000000000000000000000000FF0000000000FF0000000000000000000000000000000000000000000000000000FF0000000000FF000000000000000000000000
310
0000000000000000000000000000FF0000000000FF0000000000000000000000000000000000000000000000000000FF0000000000FF0000000000000000000000000000000000000000000000000000FF0000000000FF0000000000000000000000000000000000000000000000000000FF000000FF000000000000000000
310
00000000000000000000000000000000000000FF00FF000000000000000000000000000000000000000000000000000000000000FF000000
102
{BLKREFS
331
211
331
260
331
261
331
280
331
2D7
331
2D8
331
2F1
331
2F2
331
4FE
331
53F
331
5CC
331
7CE
331
8C4
331
B19
331
D6F
102
}
  0
BLOCK_RECORD
  5
232
330
1
100
AcDbSymbolTableRecord
100
AcDbBlockTableRecord
  2
_Arrivo
340
0
310
2800000020000000200000000100080000000000000400000000000000000000000000000000000000000000000080000080000000808000800000008000800080800000C0C0C000C0DCC000F0CAA6000020400000206000002080000020A0000020C0000020E00000400000004020000040400000406000004080000040A0
310
000040C0000040E00000600000006020000060400000606000006080000060A0000060C0000060E00000800000008020000080400000806000008080000080A0000080C0000080E00000A0000000A0200000A0400000A0600000A0800000A0A00000A0C00000A0E00000C0000000C0200000C0400000C0600000C0800000C0
310
A00000C0C00000C0E00000E0000000E0200000E0400000E0600000E0800000E0A00000E0C00000E0E00040000000400020004000400040006000400080004000A0004000C0004000E00040200000402020004020400040206000402080004020A0004020C0004020E000404000004040200040404000404060004040800040
310
40A0004040C0004040E00040600000406020004060400040606000406080004060A0004060C0004060E00040800000408020004080400040806000408080004080A0004080C0004080E00040A0000040A0200040A0400040A0600040A0800040A0A00040A0C00040A0E00040C0000040C0200040C0400040C0600040C08000
310
40C0A00040C0C00040C0E00040E0000040E0200040E0400040E0600040E0800040E0A00040E0C00040E0E00080000000800020008000400080006000800080008000A0008000C0008000E00080200000802020008020400080206000802080008020A0008020C0008020E00080400000804020008040400080406000804080
310
008040A0008040C0008040E00080600000806020008060400080606000806080008060A0008060C0008060E00080800000808020008080400080806000808080008080A0008080C0008080E00080A0000080A0200080A0400080A0600080A0800080A0A00080A0C00080A0E00080C0000080C0200080C0400080C0600080C0
310
800080C0A00080C0C00080C0E00080E0000080E0200080E0400080E0600080E0800080E0A00080E0C00080E0E000C0000000C0002000C0004000C0006000C0008000C000A000C000C000C000E000C0200000C0202000C0204000C0206000C0208000C020A000C020C000C020E000C0400000C0402000C0404000C0406000C0
310
408000C040A000C040C000C040E000C0600000C0602000C0604000C0606000C0608000C060A000C060C000C060E000C0800000C0802000C0804000C0806000C0808000C080A000C080C000C080E000C0A00000C0A02000C0A04000C0A06000C0A08000C0A0A000C0A0C000C0A0E000C0C00000C0C02000C0C04000C0C06000
310
C0C08000C0C0A000F0FBFF00A4A0A000808080000000FF0000FF000000FFFF00FF000000FF00FF00FFFF0000FFFFFF00000000000000000000000000000000000000000000000000000000000000000000000000000000000000FF0000000000000000000000000000000000000000000000000000000000000000FF000000
310
00000000000000000000000000000000000000000000000000000000FF0000000000000000000000000000000000000000000000000000000000000000FF00000000000000000000000000000000000000000000000000000000000000FF0000000000000000000000000000000000000000000000000000000000000000FF
310
0000000000000000000000000000000000000000000000000000000000000000FF00000000000000000000000000000000000000000000000000000000000000FF0000000000000000000000000000000000000000000000000000000000000000FF0000000000000000000000000000000000000000000000000000000000
310
0000FF0000000000000000000000000000000000000000000000000000000000000000FF00000000000000000000000000000000000000000000000000000000000000FF0000000000000000000000000000000000000000000000000000000000000000FF0000FF0000000000000000000000000000000000000000000000
310
000000000000FFFF000000000000000000000000000000000000000000000000000000000000FFFF00000000000000000000000000000000000000000000000000000000FFFFFFFFFFFF00000000000000000000000000000000000000000000000000000000FFFF0000000000000000000000000000000000000000000000
310
000000000000FF0000FF000000000000000000000000000000000000000000000000000000FF00000000000000000000000000000000000000000000000000000000000000FF000000000000000000000000000000000000000000000000000000000000FF0000000000000000000000000000000000000000000000000000
310
0000000000FF000000000000000000000000000000000000000000000000000000000000FF00000000000000000000000000000000000000000000000000000000000000FF000000000000000000000000000000000000000000000000000000000000FF000000000000000000000000000000000000000000000000000000
310
000000FF00000000000000000000000000000000000000000000000000000000000000FF000000000000000000000000000000000000000000000000000000000000FF00000000000000000000000000000000000000000000000000000000000000FF00000000000000000000000000000000000000000000000000000000
310
0000FF0000000000000000000000000000000000000000000000000000000000000000000000000000000000000000000000000000000000
  0
BLOCK_RECORD
  5
238
330
1
100
AcDbSymbolTableRecord
100
AcDbBlockTableRecord
  2
_Partenza
340
0
310
2800000020000000200000000100080000000000000400000000000000000000000000000000000000000000000080000080000000808000800000008000800080800000C0C0C000C0DCC000F0CAA6000020400000206000002080000020A0000020C0000020E00000400000004020000040400000406000004080000040A0
310
000040C0000040E00000600000006020000060400000606000006080000060A0000060C0000060E00000800000008020000080400000806000008080000080A0000080C0000080E00000A0000000A0200000A0400000A0600000A0800000A0A00000A0C00000A0E00000C0000000C0200000C0400000C0600000C0800000C0
310
A00000C0C00000C0E00000E0000000E0200000E0400000E0600000E0800000E0A00000E0C00000E0E00040000000400020004000400040006000400080004000A0004000C0004000E00040200000402020004020400040206000402080004020A0004020C0004020E000404000004040200040404000404060004040800040
310
40A0004040C0004040E00040600000406020004060400040606000406080004060A0004060C0004060E00040800000408020004080400040806000408080004080A0004080C0004080E00040A0000040A0200040A0400040A0600040A0800040A0A00040A0C00040A0E00040C0000040C0200040C0400040C0600040C08000
310
40C0A00040C0C00040C0E00040E0000040E0200040E0400040E0600040E0800040E0A00040E0C00040E0E00080000000800020008000400080006000800080008000A0008000C0008000E00080200000802020008020400080206000802080008020A0008020C0008020E00080400000804020008040400080406000804080
310
008040A0008040C0008040E00080600000806020008060400080606000806080008060A0008060C0008060E00080800000808020008080400080806000808080008080A0008080C0008080E00080A0000080A0200080A0400080A0600080A0800080A0A00080A0C00080A0E00080C0000080C0200080C0400080C0600080C0
310
800080C0A00080C0C00080C0E00080E0000080E0200080E0400080E0600080E0800080E0A00080E0C00080E0E000C0000000C0002000C0004000C0006000C0008000C000A000C000C000C000E000C0200000C0202000C0204000C0206000C0208000C020A000C020C000C020E000C0400000C0402000C0404000C0406000C0
310
408000C040A000C040C000C040E000C0600000C0602000C0604000C0606000C0608000C060A000C060C000C060E000C0800000C0802000C0804000C0806000C0808000C080A000C080C000C080E000C0A00000C0A02000C0A04000C0A06000C0A08000C0A0A000C0A0C000C0A0E000C0C00000C0C02000C0C04000C0C06000
310
C0C08000C0C0A000F0FBFF00A4A0A000808080000000FF0000FF000000FFFF00FF000000FF00FF00FFFF0000FFFFFF0000000000000000000000000000000000000000000000000000000000000000000000000000000000000000000000000000000000000000000000000000000000000000000000000000000000000000
310
000000000000000000000000000000000000000000000000000000000000000000000000000000000000000000000000000000000000000000000000000000000000000000000000000000000000000000000000000000000000000000000000000000000000000000000000000000000000FFFFFFFFFFFFFFFFFFFFFFFFFF
310
FFFFFFFFFFFFFFFFFFFFFFFFFFFFFFFFFF0000000000000000000000000000000000000000000000000000000000000000000000000000000000000000000000000000000000000000000000000000000000000000000000000000000000000000000000000000000000000000000000000000000000000000000000000000
310
00000000000000000000000000000000000000000000000000000000000000000000000000000000000000000000000000000000000000000000000000000000000000000000000000000000000000000000000000000000000000000000000000000000000000000000000000000000000000000000000000000000000000
310
00000000000000000000000000000000000000000000000000000000000000000000000000000000000000000000000000000000000000000000000000000000000000000000000000000000000000000000000000000000000000000000000000000000000000000000000000000000000000000000000000000000000000
310
00000000000000000000000000000000000000000000000000000000000000000000000000000000000000000000000000000000000000000000000000000000000000000000000000000000000000000000000000000000000000000000000000000000000000000000000000000000000000000000000000000000000000
310
000000000000000000000000000000000000000000000000000000000000000000000000000000000000000000000000000000000000000000000000000000000000000000000000000000000000000000000000000000FFFFFFFFFFFFFFFFFFFFFFFFFFFFFFFFFFFFFFFFFFFFFFFFFFFFFFFFFFFF00000000000000000000
310
00000000000000000000000000000000000000000000000000000000000000000000000000000000000000000000000000000000000000000000000000000000000000000000000000000000000000000000000000000000000000000000000000000000000000000000000000000000000000000000000000000000000000
310
0000000000000000000000000000000000000000000000000000000000000000000000000000000000000000000000000000000000000000
  0
BLOCK_RECORD
  5
266
330
1
100
AcDbSymbolTableRecord
100
AcDbBlockTableRecord
  2
*D6
340
0
  0
BLOCK_RECORD
  5
2C5
330
1
100
AcDbSymbolTableRecord
100
AcDbBlockTableRecord
  2
*D8
340
0
  0
BLOCK_RECORD
  5
2DF
330
1
100
AcDbSymbolTableRecord
100
AcDbBlockTableRecord
  2
*D9
340
0
  0
BLOCK_RECORD
  5
4E4
330
1
100
AcDbSymbolTableRecord
100
AcDbBlockTableRecord
  2
*D11
340
0
  0
BLOCK_RECORD
  5
525
330
1
100
AcDbSymbolTableRecord
100
AcDbBlockTableRecord
  2
*D13
340
0
  0
BLOCK_RECORD
  5
5B2
330
1
100
AcDbSymbolTableRecord
100
AcDbBlockTableRecord
  2
*D17
340
0
  0
BLOCK_RECORD
  5
7B4
330
1
100
AcDbSymbolTableRecord
100
AcDbBlockTableRecord
  2
*D19
340
0
  0
BLOCK_RECORD
  5
8AA
330
1
100
AcDbSymbolTableRecord
100
AcDbBlockTableRecord
  2
*D21
340
0
  0
BLOCK_RECORD
  5
AFF
330
1
100
AcDbSymbolTableRecord
100
AcDbBlockTableRecord
  2
*D23
340
0
  0
BLOCK_RECORD
  5
D55
330
1
100
AcDbSymbolTableRecord
100
AcDbBlockTableRecord
  2
*D25
340
0
  0
ENDTAB
  0
ENDSEC
  0
SECTION
  2
BLOCKS
  0
BLOCK
  5
5
330
2
100
AcDbEntity
  8
0
100
AcDbBlockBegin
  2
*Model_Space
 70
     0
 10
0.0
 20
0.0
 30
0.0
  3
*Model_Space
  1

  0
ENDBLK
  5
162
330
2
100
AcDbEntity
  8
0
100
AcDbBlockEnd
  0
BLOCK
  5
166
330
165
100
AcDbEntity
 67
     1
  8
0
100
AcDbBlockBegin
  2
*Paper_Space
 70
     0
 10
0.0
 20
0.0
 30
0.0
  3
*Paper_Space
  1

  0
ENDBLK
  5
167
330
165
100
AcDbEntity
 67
     1
  8
0
100
AcDbBlockEnd
  0
BLOCK
  5
16A
330
169
100
AcDbEntity
 67
     1
  8
0
100
AcDbBlockBegin
  2
*Paper_Space0
 70
     0
 10
0.0
 20
0.0
 30
0.0
  3
*Paper_Space0
  1

  0
ENDBLK
  5
16B
330
169
100
AcDbEntity
 67
     1
  8
0
100
AcDbBlockEnd
  0
BLOCK
  5
153
330
152
100
AcDbEntity
  8
0
 62
     1
100
AcDbBlockBegin
  2
_ArchTick
 70
     0
 10
0.0
 20
0.0
 30
0.0
  3
_ArchTick
  1

  0
LWPOLYLINE
  5
154
330
152
100
AcDbEntity
  8
0
  6
ByBlock
 62
     0
100
AcDbPolyline
 90
        2
 70
     0
 43
0.15
 10
-0.5
 20
-0.5
 10
0.5
 20
0.5
  0
ENDBLK
  5
155
330
152
100
AcDbEntity
  8
0
 62
     1
100
AcDbBlockEnd
  0
BLOCK
  5
233
330
232
100
AcDbEntity
  8
0
100
AcDbBlockBegin
  2
_Arrivo
 70
     0
 10
0.0
 20
0.0
 30
0.0
  3
_Arrivo
  1

  0
LINE
  5
234
330
232
100
AcDbEntity
  8
0
  6
ByBlock
 62
     0
370
    -2
100
AcDbLine
 10
0.025
 20
-0.0433012701891858
 30
0.0
 11
-0.15
 21
0.2598076211353328
 31
0.0
  0
LINE
  5
235
330
232
100
AcDbEntity
  8
0
  6
ByBlock
 62
     0
370
    -2
100
AcDbLine
 10
0.025
 20
0.0433012701892585
 30
0.0
 11
-0.15
 21
-0.2598076211353328
 31
0.0
  0
LINE
  5
236
330
232
100
AcDbEntity
  8
0
  6
ByBlock
 62
     0
370
    -2
100
AcDbLine
 10
-0.05
 20
0.0
 30
0.0
 11
0.05
 21
0.0
 31
0.0
  0
ENDBLK
  5
237
330
232
100
AcDbEntity
  8
0
100
AcDbBlockEnd
  0
BLOCK
  5
239
330
238
100
AcDbEntity
  8
0
100
AcDbBlockBegin
  2
_Partenza
 70
     0
 10
0.0
 20
0.0
 30
0.0
  3
_Partenza
  1

  0
LINE
  5
23A
330
238
100
AcDbEntity
  8
0
  6
ByBlock
 62
     0
370
    -2
100
AcDbLine
 10
-0.05
 20
0.05
 30
0.0
 11
0.1
 21
0.05
 31
0.0
  0
LINE
  5
23B
330
238
100
AcDbEntity
  8
0
  6
ByBlock
 62
     0
370
    -2
100
AcDbLine
 10
-0.05
 20
-0.05
 30
0.0
 11
0.1
 21
-0.05
 31
0.0
  0
ENDBLK
  5
23C
330
238
100
AcDbEntity
  8
0
100
AcDbBlockEnd
  0
BLOCK
  5
26D
330
266
100
AcDbEntity
  8
0
100
AcDbBlockBegin
  2
*D6
 70
     1
 10
0.0
 20
0.0
 30
0.0
  3
*D6
  1

  0
LINE
  5
27D
330
266
100
AcDbEntity
  8
Text
  6
ACAD_ISO10W100
 62
     5
370
    -2
100
AcDbLine
 10
0.265324276937575
 20
0.1924574125485932
 30
0.0
 11
0.263824276937575
 21
0.1924574125485932
 31
0.0
  0
LINE
  5
27E
330
266
100
AcDbEntity
  8
Text
  6
ACAD_ISO10W100
 62
     5
370
    -2
100
AcDbLine
 10
0.263824276937575
 20
0.1924574125485932
 30
0.0
 11
0.2613215374025681
 21
0.1908032375820575
 31
0.0
  0
MTEXT
  5
27F
330
266
100
AcDbEntity
  8
Text
  6
ACAD_ISO10W100
 62
     4
100
AcDbMText
 10
0.2797528483661464
 20
0.1924574125485932
 30
0.0
 40
0.003
 41
0.0
 71
     5
 72
     1
  1
\A1;d 120 mm
  7
ROMANS
 73
     1
 44
1.0
1001
ACAD
1000
MTEXTBEGIN
1070
    73
1070
     1
1070
    44
1040
1.0
1070
    74
1070
     0
1000
MTEXTEND
  0
INSERT
  5
280
330
266
100
AcDbEntity
  8
Text
  6
ACAD_ISO10W100
 62
     5
370
    -2
100
AcDbBlockReference
  2
_ArchTick
 10
0.2613215374025681
 20
0.1908032375820575
 30
0.0
 41
0.0015
 42
0.0015
 43
0.0015
 50
213.4625388295094
  0
POINT
  5
281
330
266
100
AcDbEntity
  8
Defpoints
  6
ACAD_ISO10W100
 62
     0
100
AcDbPoint
 10
0.2613215374025681
 20
0.1908032375820575
 30
0.0
  0
POINT
  5
282
330
266
100
AcDbEntity
  8
Defpoints
  6
ACAD_ISO10W100
 62
     0
100
AcDbPoint
 10
0.1612119560022933
 20
0.1246362389206268
 30
0.0
  0
ENDBLK
  5
26E
330
266
100
AcDbEntity
  8
0
100
AcDbBlockEnd
  0
BLOCK
  5
2D0
330
2C5
100
AcDbEntity
  8
0
100
AcDbBlockBegin
  2
*D8
 70
     1
 10
0.0
 20
0.0
 30
0.0
  3
*D8
  1

  0
LINE
  5
2D3
330
2C5
100
AcDbEntity
  8
Text
  6
ACAD_ISO10W100
 62
     5
370
    -2
100
AcDbLine
 10
0.1650797227868191
 20
0.124595709950333
 30
0.0
 11
0.1650797227868191
 21
0.1060944378993535
 31
0.0
  0
LINE
  5
2D4
330
2C5
100
AcDbEntity
  8
Text
  6
ACAD_ISO10W100
 62
     5
370
    -2
100
AcDbLine
 10
0.2550797227868189
 20
0.124595709950333
 30
0.0
 11
0.2550797227868189
 21
0.1060944378993535
 31
0.0
  0
LINE
  5
2D5
330
2C5
100
AcDbEntity
  8
Text
  6
ACAD_ISO10W100
 62
     5
370
    -2
100
AcDbLine
 10
0.1650797227868191
 20
0.1062744378993535
 30
0.0
 11
0.1999368656439618
 21
0.1062744378993535
 31
0.0
  0
LINE
  5
2D6
330
2C5
100
AcDbEntity
  8
Text
  6
ACAD_ISO10W100
 62
     5
370
    -2
100
AcDbLine
 10
0.2550797227868189
 20
0.1062744378993535
 30
0.0
 11
0.2202225799296761
 21
0.1062744378993535
 31
0.0
  0
INSERT
  5
2D7
330
2C5
100
AcDbEntity
  8
Text
  6
ACAD_ISO10W100
 62
     5
370
    -2
100
AcDbBlockReference
  2
_ArchTick
 10
0.1650797227868191
 20
0.1062744378993535
 30
0.0
 41
0.0015
 42
0.0015
 43
0.0015
 50
180.0
  0
INSERT
  5
2D8
330
2C5
100
AcDbEntity
  8
Text
  6
ACAD_ISO10W100
 62
     5
370
    -2
100
AcDbBlockReference
  2
_ArchTick
 10
0.2550797227868189
 20
0.1062744378993535
 30
0.0
 41
0.0015
 42
0.0015
 43
0.0015
  0
MTEXT
  5
2D9
330
2C5
100
AcDbEntity
  8
Text
  6
ACAD_ISO10W100
 62
     4
100
AcDbMText
 10
0.210079722786819
 20
0.1062744378993535
 30
0.0
 40
0.003
 41
0.0
 71
     5
 72
     1
  1
\A1;90 mm
  7
ROMANS
 73
     1
 44
1.0
1001
ACAD
1000
MTEXTBEGIN
1070
    73
1070
     1
1070
    44
1040
1.0
1070
    74
1070
     0
1000
MTEXTEND
  0
POINT
  5
2DA
330
2C5
100
AcDbEntity
  8
Defpoints
  6
ACAD_ISO10W100
 62
     0
100
AcDbPoint
 10
0.1650797227868191
 20
0.124658209950333
 30
0.0
  0
POINT
  5
2DB
330
2C5
100
AcDbEntity
  8
Defpoints
  6
ACAD_ISO10W100
 62
     0
100
AcDbPoint
 10
0.2550797227868189
 20
0.124658209950333
 30
0.0
  0
POINT
  5
2DC
330
2C5
100
AcDbEntity
  8
Defpoints
  6
ACAD_ISO10W100
 62
     0
100
AcDbPoint
 10
0.2550797227868189
 20
0.1062744378993535
 30
0.0
  0
ENDBLK
  5
2D1
330
2C5
100
AcDbEntity
  8
0
100
AcDbBlockEnd
  0
BLOCK
  5
2EA
330
2DF
100
AcDbEntity
  8
0
100
AcDbBlockBegin
  2
*D9
 70
     1
 10
0.0
 20
0.0
 30
0.0
  3
*D9
  1

  0
LINE
  5
2ED
330
2DF
100
AcDbEntity
  8
Text
  6
ACAD_ISO10W100
 62
     5
370
    -2
100
AcDbLine
 10
0.2518566651931464
 20
0.1197979324732989
 30
0.0
 11
0.2714595524708644
 21
0.1197979324732989
 31
0.0
  0
LINE
  5
2EE
330
2DF
100
AcDbEntity
  8
Text
  6
ACAD_ISO10W100
 62
     5
370
    -2
100
AcDbLine
 10
0.2518566651931464
 20
0.2098859792004421
 30
0.0
 11
0.2714595524708645
 21
0.2098859792004421
 31
0.0
  0
LINE
  5
2EF
330
2DF
100
AcDbEntity
  8
Text
  6
ACAD_ISO10W100
 62
     5
370
    -2
100
AcDbLine
 10
0.2712795524708644
 20
0.1197979324732989
 30
0.0
 11
0.2712795524708644
 21
0.1613419558368705
 31
0.0
  0
LINE
  5
2F0
330
2DF
100
AcDbEntity
  8
Text
  6
ACAD_ISO10W100
 62
     5
370
    -2
100
AcDbLine
 10
0.2712795524708644
 20
0.2098859792004421
 30
0.0
 11
0.2712795524708644
 21
0.1683419558368705
 31
0.0
  0
INSERT
  5
2F1
330
2DF
100
AcDbEntity
  8
Text
  6
ACAD_ISO10W100
 62
     5
370
    -2
100
AcDbBlockReference
  2
_ArchTick
 10
0.2712795524708644
 20
0.1197979324732989
 30
0.0
 41
0.0015
 42
0.0015
 43
0.0015
 50
270.0
  0
INSERT
  5
2F2
330
2DF
100
AcDbEntity
  8
Text
  6
ACAD_ISO10W100
 62
     5
370
    -2
100
AcDbBlockReference
  2
_ArchTick
 10
0.2712795524708644
 20
0.2098859792004421
 30
0.0
 41
0.0015
 42
0.0015
 43
0.0015
 50
90.0
  0
MTEXT
  5
2F3
330
2DF
100
AcDbEntity
  8
Text
  6
ACAD_ISO10W100
 62
     4
100
AcDbMText
 10
0.2712795524708644
 20
0.1648419558368706
 30
0.0
 40
0.003
 41
0.0
 71
     5
 72
     1
  1
\A1;90 mm
  7
ROMANS
 73
     1
 44
1.0
1001
ACAD
1000
MTEXTBEGIN
1070
    73
1070
     1
1070
    44
1040
1.0
1070
    74
1070
     0
1000
MTEXTEND
  0
POINT
  5
2F4
330
2DF
100
AcDbEntity
  8
Defpoints
  6
ACAD_ISO10W100
 62
     0
100
AcDbPoint
 10
0.2517941651931463
 20
0.1197979324732989
 30
0.0
  0
POINT
  5
2F5
330
2DF
100
AcDbEntity
  8
Defpoints
  6
ACAD_ISO10W100
 62
     0
100
AcDbPoint
 10
0.2517941651931463
 20
0.2098859792004421
 30
0.0
  0
POINT
  5
2F6
330
2DF
100
AcDbEntity
  8
Defpoints
  6
ACAD_ISO10W100
 62
     0
100
AcDbPoint
 10
0.2712795524708644
 20
0.2098859792004421
 30
0.0
  0
ENDBLK
  5
2EB
330
2DF
100
AcDbEntity
  8
0
100
AcDbBlockEnd
  0
BLOCK
  5
4EB
330
4E4
100
AcDbEntity
  8
0
100
AcDbBlockBegin
  2
*D11
 70
     1
 10
0.0
 20
0.0
 30
0.0
  3
*D11
  1

  0
LINE
  5
4FB
330
4E4
100
AcDbEntity
  8
Text
  6
ACAD_ISO10W100
 62
     5
370
    -2
100
AcDbLine
 10
0.2719438839007483
 20
0.1970560400174176
 30
0.0
 11
0.2704438839007483
 21
0.1970560400174176
 31
0.0
  0
LINE
  5
4FC
330
4E4
100
AcDbEntity
  8
Text
  6
ACAD_ISO10W100
 62
     5
370
    -2
100
AcDbLine
 10
0.2704438839007483
 20
0.1970560400174176
 30
0.0
 11
0.2679040154966245
 21
0.1954594597689697
 31
0.0
  0
MTEXT
  5
4FD
330
4E4
100
AcDbEntity
  8
Text
  6
ACAD_ISO10W100
 62
     4
100
AcDbMText
 10
0.2863724553293197
 20
0.1970560400174176
 30
0.0
 40
0.003
 41
0.0
 71
     5
 72
     1
  1
\A1;d 280 mm
  7
ROMANS
 73
     1
 44
1.0
1001
ACAD
1000
MTEXTBEGIN
1070
    73
1070
     1
1070
    44
1040
1.0
1070
    74
1070
     0
1000
MTEXTEND
  0
INSERT
  5
4FE
330
4E4
100
AcDbEntity
  8
Text
  6
ACAD_ISO10W100
 62
     5
370
    -2
100
AcDbBlockReference
  2
_ArchTick
 10
0.2679040154966245
 20
0.1954594597689697
 30
0.0
 41
0.0015
 42
0.0015
 43
0.0015
 50
212.1537752595364
  0
POINT
  5
4FF
330
4E4
100
AcDbEntity
  8
Defpoints
  6
ACAD_ISO10W100
 62
     0
100
AcDbPoint
 10
0.2679040154966245
 20
0.1954594597689697
 30
0.0
  0
POINT
  5
500
330
4E4
100
AcDbEntity
  8
Defpoints
  6
ACAD_ISO10W100
 62
     0
100
AcDbPoint
 10
0.1493768233041824
 20
0.1209523815080696
 30
0.0
  0
ENDBLK
  5
4EC
330
4E4
100
AcDbEntity
  8
0
100
AcDbBlockEnd
  0
BLOCK
  5
52C
330
525
100
AcDbEntity
  8
0
100
AcDbBlockBegin
  2
*D13
 70
     1
 10
0.0
 20
0.0
 30
0.0
  3
*D13
  1

  0
LINE
  5
53C
330
525
100
AcDbEntity
  8
Text
  6
ACAD_ISO10W100
 62
     5
370
    -2
100
AcDbLine
 10
0.2758442994853839
 20
0.2102749962840716
 30
0.0
 11
0.2743442994853838
 21
0.2102749962840716
 31
0.0
  0
LINE
  5
53D
330
525
100
AcDbEntity
  8
Text
  6
ACAD_ISO10W100
 62
     5
370
    -2
100
AcDbLine
 10
0.2743442994853838
 20
0.2102749962840716
 30
0.0
 11
0.2720543541117148
 21
0.2083369172904256
 31
0.0
  0
MTEXT
  5
53E
330
525
100
AcDbEntity
  8
Text
  6
ACAD_ISO10W100
 62
     4
100
AcDbMText
 10
0.2902728709139553
 20
0.2102749962840716
 30
0.0
 40
0.003
 41
0.0
 71
     5
 72
     1
  1
\A1;d 340 mm
  7
ROMANS
 73
     1
 44
1.0
1001
ACAD
1000
MTEXTBEGIN
1070
    73
1070
     1
1070
    44
1040
1.0
1070
    74
1070
     0
1000
MTEXTEND
  0
INSERT
  5
53F
330
525
100
AcDbEntity
  8
Text
  6
ACAD_ISO10W100
 62
     5
370
    -2
100
AcDbBlockReference
  2
_ArchTick
 10
0.2720543541117148
 20
0.2083369172904256
 30
0.0
 41
0.0015
 42
0.0015
 43
0.0015
 50
220.242669939943
  0
POINT
  5
540
330
525
100
AcDbEntity
  8
Defpoints
  6
ACAD_ISO10W100
 62
     0
100
AcDbPoint
 10
0.2720543541117148
 20
0.2083369172904256
 30
0.0
  0
POINT
  5
541
330
525
100
AcDbEntity
  8
Defpoints
  6
ACAD_ISO10W100
 62
     0
100
AcDbPoint
 10
0.1422907829371338
 20
0.0985124409838235
 30
0.0
  0
ENDBLK
  5
52D
330
525
100
AcDbEntity
  8
0
100
AcDbBlockEnd
  0
BLOCK
  5
5B9
330
5B2
100
AcDbEntity
  8
0
100
AcDbBlockBegin
  2
*D17
 70
     1
 10
0.0
 20
0.0
 30
0.0
  3
*D17
  1

  0
LINE
  5
5C9
330
5B2
100
AcDbEntity
  8
Text
  6
ACAD_ISO10W100
 62
     5
370
    -2
100
AcDbLine
 10
0.2339841855771125
 20
0.1851322658533807
 30
0.0
 11
0.2324841855771125
 21
0.1851322658533806
 31
0.0
  0
LINE
  5
5CA
330
5B2
100
AcDbEntity
  8
Text
  6
ACAD_ISO10W100
 62
     5
370
    -2
100
AcDbLine
 10
0.2324841855771125
 20
0.1851322658533806
 30
0.0
 11
0.2304491104323
 21
0.1829280723149256
 31
0.0
  0
MTEXT
  5
5CB
330
5B2
100
AcDbEntity
  8
Text
  6
ACAD_ISO10W100
 62
     4
100
AcDbMText
 10
0.2469841855771125
 20
0.1851322658533807
 30
0.0
 40
0.003
 41
0.0
 71
     5
 72
     1
  1
\A1;d 65 mm
  7
ROMANS
 73
     1
 44
1.0
1001
ACAD
1000
MTEXTBEGIN
1070
    73
1070
     1
1070
    44
1040
1.0
1070
    74
1070
     0
1000
MTEXTEND
  0
INSERT
  5
5CC
330
5B2
100
AcDbEntity
  8
Text
  6
ACAD_ISO10W100
 62
     5
370
    -2
100
AcDbBlockReference
  2
_ArchTick
 10
0.2304491104323
 20
0.1829280723149256
 30
0.0
 41
0.0015
 42
0.0015
 43
0.0015
 50
227.2845060028153
  0
POINT
  5
5CD
330
5B2
100
AcDbEntity
  8
Defpoints
  6
ACAD_ISO10W100
 62
     0
100
AcDbPoint
 10
0.2304491104323
 20
0.1829280723149256
 30
0.0
  0
POINT
  5
5CE
330
5B2
100
AcDbEntity
  8
Defpoints
  6
ACAD_ISO10W100
 62
     0
100
AcDbPoint
 10
0.1863558156280306
 20
0.1351705456484012
 30
0.0
  0
ENDBLK
  5
5BA
330
5B2
100
AcDbEntity
  8
0
100
AcDbBlockEnd
  0
BLOCK
  5
7BB
330
7B4
100
AcDbEntity
  8
0
100
AcDbBlockBegin
  2
*D19
 70
     1
 10
0.0
 20
0.0
 30
0.0
  3
*D19
  1

  0
LINE
  5
7CB
330
7B4
100
AcDbEntity
  8
Text
  6
ACAD_ISO10W100
 62
     5
370
    -2
100
AcDbLine
 10
0.2503141389346617
 20
0.1968373266487671
 30
0.0
 11
0.2488141389346617
 21
0.1968373266487671
 31
0.0
  0
LINE
  5
7CC
330
7B4
100
AcDbEntity
  8
Text
  6
ACAD_ISO10W100
 62
     5
370
    -2
100
AcDbLine
 10
0.2488141389346617
 20
0.1968373266487671
 30
0.0
 11
0.2466074539163463
 21
0.1948049533489173
 31
0.0
  0
MTEXT
  5
7CD
330
7B4
100
AcDbEntity
  8
Text
  6
ACAD_ISO10W100
 62
     4
100
AcDbMText
 10
0.2647427103632332
 20
0.1968373266487671
 30
0.0
 40
0.003
 41
0.0
 71
     5
 72
     1
  1
\A1;d 410 mm
  7
ROMANS
 73
     1
 44
1.0
1001
ACAD
1000
MTEXTBEGIN
1070
    73
1070
     1
1070
    44
1040
1.0
1070
    74
1070
     0
1000
MTEXTEND
  0
INSERT
  5
7CE
330
7B4
100
AcDbEntity
  8
Text
  6
ACAD_ISO10W100
 62
     5
370
    -2
100
AcDbBlockReference
  2
_ArchTick
 10
0.2466074539163463
 20
0.1948049533489173
 30
0.0
 41
0.0015
 42
0.0015
 43
0.0015
 50
222.645301951812
  0
POINT
  5
7CF
330
7B4
100
AcDbEntity
  8
Defpoints
  6
ACAD_ISO10W100
 62
     0
100
AcDbPoint
 10
0.2466074539163463
 20
0.1948049533489173
 30
0.0
  0
POINT
  5
7D0
330
7B4
100
AcDbEntity
  8
Defpoints
  6
ACAD_ISO10W100
 62
     0
100
AcDbPoint
 10
0.1712123824572375
 20
0.125365532270715
 30
0.0
  0
ENDBLK
  5
7BC
330
7B4
100
AcDbEntity
  8
0
100
AcDbBlockEnd
  0
BLOCK
  5
8B1
330
8AA
100
AcDbEntity
  8
0
100
AcDbBlockBegin
  2
*D21
 70
     1
 10
0.0
 20
0.0
 30
0.0
  3
*D21
  1

  0
LINE
  5
8C1
330
8AA
100
AcDbEntity
  8
Text
  6
ACAD_ISO10W100
 62
     5
370
    -2
100
AcDbLine
 10
0.2670886538023653
 20
0.1873887291946126
 30
0.0
 11
0.2655886538023653
 21
0.1873887291946126
 31
0.0
  0
LINE
  5
8C2
330
8AA
100
AcDbEntity
  8
Text
  6
ACAD_ISO10W100
 62
     5
370
    -2
100
AcDbLine
 10
0.2655886538023653
 20
0.1873887291946126
 30
0.0
 11
0.2629287825497108
 21
0.1860012548996068
 31
0.0
  0
MTEXT
  5
8C3
330
8AA
100
AcDbEntity
  8
Text
  6
ACAD_ISO10W100
 62
     4
100
AcDbMText
 10
0.2815172252309368
 20
0.1873887291946126
 30
0.0
 40
0.003
 41
0.0
 71
     5
 72
     1
  1
\A1;d 240 mm
  7
ROMANS
 73
     1
 44
1.0
1001
ACAD
1000
MTEXTBEGIN
1070
    73
1070
     1
1070
    44
1040
1.0
1070
    74
1070
     0
1000
MTEXTEND
  0
INSERT
  5
8C4
330
8AA
100
AcDbEntity
  8
Text
  6
ACAD_ISO10W100
 62
     5
370
    -2
100
AcDbBlockReference
  2
_ArchTick
 10
0.2629287825497108
 20
0.1860012548996068
 30
0.0
 41
0.0015
 42
0.0015
 43
0.0015
 50
207.5479922517093
  0
POINT
  5
8C5
330
8AA
100
AcDbEntity
  8
Defpoints
  6
ACAD_ISO10W100
 62
     0
100
AcDbPoint
 10
0.2629287825497108
 20
0.1860012548996068
 30
0.0
  0
POINT
  5
8C6
330
8AA
100
AcDbEntity
  8
Defpoints
  6
ACAD_ISO10W100
 62
     0
100
AcDbPoint
 10
0.1565339324435281
 20
0.1305022830993751
 30
0.0
  0
ENDBLK
  5
8B2
330
8AA
100
AcDbEntity
  8
0
100
AcDbBlockEnd
  0
BLOCK
  5
B06
330
AFF
100
AcDbEntity
  8
0
100
AcDbBlockBegin
  2
*D23
 70
     1
 10
0.0
 20
0.0
 30
0.0
  3
*D23
  1

  0
LINE
  5
B16
330
AFF
100
AcDbEntity
  8
Text
  6
ACAD_ISO10W100
 62
     5
370
    -2
100
AcDbLine
 10
0.2757534227613952
 20
0.2105884491495304
 30
0.0
 11
0.2742534227613952
 21
0.2105884491495304
 31
0.0
  0
LINE
  5
B17
330
AFF
100
AcDbEntity
  8
Text
  6
ACAD_ISO10W100
 62
     5
370
    -2
100
AcDbLine
 10
0.2742534227613952
 20
0.2105884491495304
 30
0.0
 11
0.2719270795989987
 21
0.2086942138181179
 31
0.0
  0
MTEXT
  5
B18
330
AFF
100
AcDbEntity
  8
Text
  6
ACAD_ISO10W100
 62
     4
100
AcDbMText
 10
0.2901819941899666
 20
0.2105884491495304
 30
0.0
 40
0.003
 41
0.0
 71
     5
 72
     1
  1
\A1;d 330 mm
  7
ROMANS
 73
     1
 44
1.0
1001
ACAD
1000
MTEXTBEGIN
1070
    73
1070
     1
1070
    44
1040
1.0
1070
    74
1070
     0
1000
MTEXTEND
  0
INSERT
  5
B19
330
AFF
100
AcDbEntity
  8
Text
  6
ACAD_ISO10W100
 62
     5
370
    -2
100
AcDbBlockReference
  2
_ArchTick
 10
0.2719270795989987
 20
0.2086942138181179
 30
0.0
 41
0.0015
 42
0.0015
 43
0.0015
 50
219.1543578658701
  0
POINT
  5
B1A
330
AFF
100
AcDbEntity
  8
Defpoints
  6
ACAD_ISO10W100
 62
     0
100
AcDbPoint
 10
0.2719270795989987
 20
0.2086942138181179
 30
0.0
  0
POINT
  5
B1B
330
AFF
100
AcDbEntity
  8
Defpoints
  6
ACAD_ISO10W100
 62
     0
100
AcDbPoint
 10
0.1439782056671902
 20
0.1045112705904369
 30
0.0
  0
ENDBLK
  5
B07
330
AFF
100
AcDbEntity
  8
0
100
AcDbBlockEnd
  0
BLOCK
  5
D5C
330
D55
100
AcDbEntity
  8
0
100
AcDbBlockBegin
  2
*D25
 70
     1
 10
0.0
 20
0.0
 30
0.0
  3
*D25
  1

  0
LINE
  5
D6C
330
D55
100
AcDbEntity
  8
Text
  6
ACAD_ISO10W100
 62
     5
370
    -2
100
AcDbLine
 10
0.258964487676054
 20
0.1923867850371209
 30
0.0
 11
0.2574644876760541
 21
0.1923867850371209
 31
0.0
  0
LINE
  5
D6D
330
D55
100
AcDbEntity
  8
Text
  6
ACAD_ISO10W100
 62
     5
370
    -2
100
AcDbLine
 10
0.2574644876760541
 20
0.1923867850371209
 30
0.0
 11
0.255040248637639
 21
0.1906195654456088
 31
0.0
  0
MTEXT
  5
D6E
330
D55
100
AcDbEntity
  8
Text
  6
ACAD_ISO10W100
 62
     4
100
AcDbMText
 10
0.2733930591046255
 20
0.1923867850371209
 30
0.0
 40
0.003
 41
0.0
 71
     5
 72
     1
  1
\A1;d 440 mm
  7
ROMANS
 73
     1
 44
1.0
1001
ACAD
1000
MTEXTBEGIN
1070
    73
1070
     1
1070
    44
1040
1.0
1070
    74
1070
     0
1000
MTEXTEND
  0
INSERT
  5
D6F
330
D55
100
AcDbEntity
  8
Text
  6
ACAD_ISO10W100
 62
     5
370
    -2
100
AcDbBlockReference
  2
_ArchTick
 10
0.255040248637639
 20
0.1906195654456088
 30
0.0
 41
0.0015
 42
0.0015
 43
0.0015
 50
216.0912670112517
  0
POINT
  5
D70
330
D55
100
AcDbEntity
  8
Defpoints
  6
ACAD_ISO10W100
 62
     0
100
AcDbPoint
 10
0.255040248637639
 20
0.1906195654456088
 30
0.0
  0
POINT
  5
D71
330
D55
100
AcDbEntity
  8
Defpoints
  6
ACAD_ISO10W100
 62
     0
100
AcDbPoint
 10
0.1661514838957505
 20
0.1258215137568335
 30
0.0
  0
ENDBLK
  5
D5D
330
D55
100
AcDbEntity
  8
0
100
AcDbBlockEnd
  0
ENDSEC
  0
SECTION
  2
ENTITIES
  0
LINE
  5
D
330
2
100
AcDbEntity
  8
Table
100
AcDbLine
 10
0.02
 20
0.02
 30
0.0
 11
0.4
 21
0.02
 31
0.0
  0
LINE
  5
10
330
2
100
AcDbEntity
  8
Table
100
AcDbLine
 10
0.4
 20
0.02
 30
0.0
 11
0.4
 21
0.2769999999999999
 31
0.0
  0
LINE
  5
11
330
2
100
AcDbEntity
  8
Table
100
AcDbLine
 10
0.4
 20
0.2769999999999999
 30
0.0
 11
0.02
 21
0.277
 31
0.0
  0
LINE
  5
12
330
2
100
AcDbEntity
  8
Table
100
AcDbLine
 10
0.02
 20
0.277
 30
0.0
 11
0.02
 21
0.02
 31
0.0
  0
LINE
  5
13
330
2
100
AcDbEntity
  8
Table
 62
     2
100
AcDbLine
 10
0.015
 20
0.015
 30
0.0
 11
0.4050000000000001
 21
0.015
 31
0.0
  0
LINE
  5
14
330
2
100
AcDbEntity
  8
Table
 62
     2
100
AcDbLine
 10
0.4050000000000001
 20
0.015
 30
0.0
 11
0.4050000000000001
 21
0.2819999999999998
 31
0.0
  0
LINE
  5
15
330
2
100
AcDbEntity
  8
Table
 62
     2
100
AcDbLine
 10
0.4050000000000001
 20
0.2819999999999998
 30
0.0
 11
0.0149999999999999
 21
0.282
 31
0.0
  0
LINE
  5
16
330
2
100
AcDbEntity
  8
Table
 62
     2
100
AcDbLine
 10
0.0149999999999999
 20
0.282
 30
0.0
 11
0.015
 21
0.015
 31
0.0
  0
LINE
  5
17
330
2
100
AcDbEntity
  8
Table
100
AcDbLine
 10
0.21
 20
0.2769999999999999
 30
0.0
 11
0.21
 21
0.2532994226089223
 31
0.0
  0
MTEXT
  5
18
102
{ACAD_XDICTIONARY
360
D77
102
}
330
2
100
AcDbEntity
  8
Text
100
AcDbMText
 10
0.305
 20
0.0471738284815141
 30
0.0
 40
0.005
 41
0.1900000000000001
 71
     2
 72
     5
  3
{\fTimes New Roman|b0|i0|c238|p18;\H1.6x;\C4;Bovelacci\P\H0.4375x;\T0.95;via del Commercio, 5  47100 Forli - Italy  \fTimes New Roman|b0|i0|c0|p18;\P\fTimes New Roman|b0|i0|c238|p18;tel.+39-0543721386  fax +39-0543721127\fTimes New Roman|b0|i0|c0|p18
  1
; \fTimes New Roman|b0|i0|c238|p18;www.bovelacci.it\fTimes New Roman|b0|i0|c0|p18; \fTimes New Roman|b0|i0|c238|p18;e-mail: bovelacci@bovelacci\fTimes New Roman|b0|i0|c0|p18;.it}
 73
     1
 44
1.0
1001
ACAD
1000
ACAD_MTEXT_DEFINED_HEIGHT_BEGIN
1070
    46
1040
0.0271738284815141
1000
ACAD_MTEXT_DEFINED_HEIGHT_END
1000
MTEXTBEGIN
1070
    73
1070
     1
1070
    44
1040
1.0
1070
    74
1070
     0
1000
MTEXTEND
  0
MTEXT
  5
1C
330
2
100
AcDbEntity
  8
Text
100
AcDbMText
 10
0.0219676065851835
 20
0.0500313976452307
 30
0.0
 40
0.002
 41
0.1863544980601608
 71
     1
 72
     5
  3
{\fArial|b0|i0|c0|p34;\H1.25x;Le caratteristiche tecniche indicate vengono fornite a titolo indicativo e potranno essere modificate senza preavviso. Non devono quindi essere considerate a scopo di specifica.\P\fArial|b0|i1|c0|p34;The given values are
  3
 indicative and can be changed without notice. They cannot be considered like a state.\PThis lealfet and designs embodied within are protected by copyright law and international treaties. Unauthorized repro- duction of the leaflet or any portion of i
  1
t or reproduction of any of the designs embodied therein may result in severe civil penalties and will be prosecuted to the maximum.\PAll right reserved, Bovelacci Forlì Italy.}
 73
     1
 44
1.0
1001
ACAD
1000
MTEXTBEGIN
1070
    73
1070
     1
1070
    44
1040
1.0
1070
    74
1070
     0
1000
MTEXTEND
  0
LINE
  5
1D
330
2
100
AcDbEntity
  8
Table
100
AcDbLine
 10
0.02
 20
0.0528099428524846
 30
0.0
 11
0.4
 21
0.0528099428524846
 31
0.0
  0
MTEXT
  5
1E
330
2
100
AcDbEntity
  8
Text
100
AcDbMText
 10
0.1133313047219695
 20
0.2610796890771976
 30
0.0
 40
0.003
 41
0.1103605678262056
 71
     2
 72
     5
  1
{\fTimes New Roman|b0|i0|c0|p18;Rosoni\fTimes New Roman|b0|i1|c0|p18;   Ceiling centres}
 73
     1
 44
1.0
1001
ACAD
1000
ACAD_MTEXT_DEFINED_HEIGHT_BEGIN
1070
    46
1040
0.0141952763113409
1000
ACAD_MTEXT_DEFINED_HEIGHT_END
1000
MTEXTBEGIN
1070
    73
1070
     1
1070
    44
1040
1.0
1070
    74
1070
     0
1000
MTEXTEND
  0
TEXT
  5
1F
330
2
100
AcDbEntity
  8
Text
100
AcDbText
 10
0.2180556919891047
 20
0.269976982173197
 30
0.0
 40
0.003
  1
Rosone - Ceiling centre : D 440 mm
  7
ROMANS
100
AcDbText
  0
TEXT
  5
21
330
2
100
AcDbEntity
  8
Text
100
AcDbText
 10
0.2184542410678115
 20
0.2576348370183962
 30
0.0
 40
0.003
  1
File : E - C25
  7
ROMANS
100
AcDbText
  0
LINE
  5
22
330
2
100
AcDbEntity
  8
Table
100
AcDbLine
 10
0.4
 20
0.2654452889427402
 30
0.0
 11
0.02
 21
0.2654452889427403
 31
0.0
  0
LINE
  5
23
330
2
100
AcDbEntity
  8
Table
100
AcDbLine
 10
0.4
 20
0.2532994226089223
 30
0.0
 11
0.02
 21
0.2532994226089225
 31
0.0
  0
LINE
  5
24
330
2
100
AcDbEntity
  8
Table
100
AcDbLine
 10
0.21
 20
0.0528099428524846
 30
0.0
 11
0.21
 21
0.02
 31
0.0
  0
TEXT
  5
25
330
2
100
AcDbEntity
  8
Text
100
AcDbText
 10
0.0947789320547719
 20
0.2687784133392506
 30
0.0
 40
0.005
  1
EUROSTYL
  7
style1
 72
     1
 11
0.1140561490699125
 21
0.2687784133392506
 31
0.0
100
AcDbText
  0
TEXT
  5
252
330
2
100
AcDbEntity
  8
Text
  6
ACAD_ISO10W100
100
AcDbText
 10
0.2786637657798531
 20
0.0732139671827777
 30
0.0
 40
0.005
  1
scala 1 : 4
  7
style1
100
AcDbText
  0
CIRCLE
  5
C42
330
2
100
AcDbEntity
  8
Profilo
  6
Continuous
370
     0
100
AcDbCircle
 10
0.2105958662666947
 20
0.1582205396012211
 30
0.0
 40
0.0508990770999561
  0
CIRCLE
  5
C43
330
2
100
AcDbEntity
  8
Profilo
  6
Continuous
370
     0
100
AcDbCircle
 10
0.2105958662666947
 20
0.1582205396012211
 30
0.0
 40
0.0159068221833725
  0
CIRCLE
  5
C44
330
2
100
AcDbEntity
  8
Profilo
  6
Continuous
370
     0
100
AcDbCircle
 10
0.2105958662666947
 20
0.1582205396012211
 30
0.0
 40
0.0047009024516184
  0
CIRCLE
  5
C45
102
{ACAD_REACTORS
330
D65
102
}
330
2
100
AcDbEntity
  8
Profilo
  6
Continuous
370
     0
100
AcDbCircle
 10
0.2105958662666947
 20
0.1582205396012211
 30
0.0
 40
0.055
  0
ARC
  5
C46
330
2
100
AcDbEntity
  8
Profilo
  6
Continuous
370
     0
100
AcDbCircle
 10
0.2105958662666947
 20
0.1582205396012211
 30
0.0
 40
0.0452048968133937
100
AcDbArc
 50
81.83208803047374
 51
131.7951861975291
  0
ARC
  5
C47
330
2
100
AcDbEntity
  8
Profilo
  6
Continuous
370
     0
100
AcDbCircle
 10
0.2105958662666947
 20
0.1582205396012211
 30
0.0
 40
0.0430375223354808
100
AcDbArc
 50
78.40309819399076
 51
135.7465864957574
  0
LWPOLYLINE
  5
C48
330
2
100
AcDbEntity
  8
Profilo
  6
Continuous
370
     0
100
AcDbPolyline
 90
       16
 70
   128
 43
0.0
 10
0.1874384991871724
 20
0.1942603553953112
 10
0.1901484283331918
 20
0.1933818826914119
 10
0.1924921476558137
 20
0.1919909668551232
 10
0.1951288342895469
 20
0.1898679918758141
 10
0.1967401421794872
 20
0.1884770760395261
 10
0.1974725563502073
 20
0.1878914269928349
 10
0.1995965508740056
 20
0.1886966937824319
 10
0.2009881367031596
 20
0.1890627250862172
 10
0.2031853737392453
 20
0.18972158004721
 10
0.2051628887145445
 20
0.1900876096187205
 10
0.2056023355741546
 20
0.1902340214473246
 10
0.2058220603729783
 20
0.192723027730419
 10
0.2064812320314122
 20
0.1955780635850233
 10
0.2074333682629176
 20
0.1982866893432983
 10
0.2081657824336377
 20
0.2001168406653992
 10
0.2087517115797841
 20
0.2011417251979026
  0
LWPOLYLINE
  5
C49
330
2
100
AcDbEntity
  8
Profilo
  6
Continuous
370
     0
100
AcDbPolyline
 90
       15
 70
   128
 43
0.0
 10
0.1893427743882216
 20
0.1954316517564192
 10
0.1916132539365947
 20
0.1944067672239158
 10
0.1934442838873203
 20
0.1932354708628078
 10
0.195861248460267
 20
0.1914053195407069
 10
0.1973260713256325
 20
0.1898679918758141
 10
0.1976190386367437
 20
0.18972158004721
 10
0.1994500685874693
 20
0.1903804332759287
 10
0.2015008260750559
 20
0.1908928764083175
 10
0.2032586162515326
 20
0.1912589059798286
 10
0.2039910276842143
 20
0.1913321118941304
 10
0.204210752483038
 20
0.1937479122629224
 10
0.2045037170561118
 20
0.1957244771459022
 10
0.2052361312268319
 20
0.1982866893432983
 10
0.2060417851718022
 20
0.2001168406653992
 10
0.2064079922571622
 20
0.2009953133692985
  0
LWPOLYLINE
  5
C4A
330
2
100
AcDbEntity
  8
Profilo
  6
Continuous
370
     0
100
AcDbPolyline
 90
       22
 70
   128
 43
0.0
 10
0.2066476261603019
 20
0.1751694478802801
 10
0.2053233281204712
 20
0.1786481735697643
 10
0.2050702343756363
 20
0.1804605842012414
 10
0.2045519099585071
 20
0.1812668653048833
 10
0.2055583584812481
 20
0.1820658011528166
 10
0.2049709240793867
 20
0.1829795865007538
 10
0.2044141545026671
 20
0.1836092185945231
 10
0.204229939852187
 20
0.184250455518948
 10
0.2035887271949464
 20
0.1851296670152132
 10
0.2037425115802733
 20
0.1858362572260982
 10
0.2046759562427678
 20
0.1865122968914173
 10
0.205432508125746
 20
0.1861630265961639
 10
0.2058126125734081
 20
0.1855717539811134
 10
0.2059123864465431
 20
0.185180097939801
 10
0.2063311692473491
 20
0.1858291452779964
 10
0.2070879501472227
 20
0.1865435473598022
 10
0.2079174989809154
 20
0.1863171688053135
 10
0.2087161539725717
 20
0.1853112711279335
 10
0.2086813671917629
 20
0.1843013501209818
 10
0.208208807502011
 20
0.1836177318688818
 10
0.2076440248269844
 20
0.1827228951501566
 10
0.2079934630830682
 20
0.182415772851506
  0
LWPOLYLINE
  5
C4B
330
2
100
AcDbEntity
  8
Profilo
  6
Continuous
370
     0
100
AcDbPolyline
 90
       13
 70
   128
 43
0.0
 10
0.2085142887715723
 20
0.1754578563144762
 10
0.207205090204282
 20
0.1777308315074676
 10
0.2068943270614257
 20
0.1792782737358979
 10
0.2072634568024381
 20
0.1811868215070066
 10
0.2078129086848529
 20
0.1822237348645488
 10
0.2086003534731269
 20
0.1826539851493382
 10
0.2098102403777311
 20
0.1829000093180912
 10
0.2107510036712707
 20
0.1819095020749479
 10
0.2117299840442481
 20
0.1800319700074665
 10
0.2119869693614191
 20
0.178449958322283
 10
0.2113068483973965
 20
0.177025178945394
 10
0.2105422843528519
 20
0.175849978971002
 10
0.2104347282717864
 20
0.1757808356625763
  0
LWPOLYLINE
  5
C4C
330
2
100
AcDbEntity
  8
Profilo
  6
Continuous
370
     0
100
AcDbPolyline
 90
       11
 70
   129
 43
0.0
 10
0.2087845694900423
 20
0.1820127511626807
 10
0.2086344444202375
 20
0.1804728874975657
 10
0.2082156616194304
 20
0.1798238401593703
 10
0.2078774312635521
 20
0.178694813015235
 10
0.2083612002199425
 20
0.1779422847623166
 10
0.2089678560500101
 20
0.1771168231790068
 10
0.2096438564248034
 20
0.177247531232543
 10
0.2102047475274938
 20
0.1779119690049751
 10
0.2105045340902182
 20
0.1788643500770052
 10
0.2100399874987755
 20
0.1797052006374007
 10
0.2093411063802542
 20
0.1803194422734677
  0
LWPOLYLINE
  5
C4D
330
2
100
AcDbEntity
  8
Profilo
  6
Continuous
370
     0
100
AcDbPolyline
 90
        7
 70
   128
 43
0.0
 10
0.2122059707927081
 20
0.1788186424048105
 10
0.2121602083685078
 20
0.1803085432411682
 10
0.2117073355573318
 20
0.1818405920975945
 10
0.2107512359280836
 20
0.1829731744754727
 10
0.2099715733477403
 20
0.1830037235404209
 10
0.2090154769584107
 20
0.1841363059417642
 10
0.2087889232728273
 20
0.1843704934294069
  0
LWPOLYLINE
  5
C4E
330
2
100
AcDbEntity
  8
Profilo
  6
Continuous
370
     0
100
AcDbPolyline
 90
        5
 70
   128
 43
0.0
 10
0.2123245048203419
 20
0.176387965350542
 10
0.2132275201544248
 20
0.1784118306940195
 10
0.2133085338730597
 20
0.1800591956656625
 10
0.2130746638596079
 20
0.1819599315423842
 10
0.2130325584477539
 20
0.1826165574438948
  0
LWPOLYLINE
  5
C4F
330
2
100
AcDbEntity
  8
Profilo
  6
Continuous
370
     0
100
AcDbPolyline
 90
       11
 70
   128
 43
0.0
 10
0.2160052111980862
 20
0.182248573284187
 10
0.2151305921042781
 20
0.1871558669153738
 10
0.2141593948759729
 20
0.1894941968754419
 10
0.2128270846745768
 20
0.1914484522952803
 10
0.2119286567465282
 20
0.1928460045568212
 10
0.212397324863943
 20
0.1932992238626275
 10
0.2132806542561927
 20
0.1931074206404279
 10
0.2140486430562707
 20
0.1923856732794479
 10
0.2148818535086635
 20
0.1913260227513445
 10
0.2153310679410592
 20
0.1906272458919986
 10
0.2156919500237724
 20
0.1899476509694715
  0
LWPOLYLINE
  5
C50
330
2
100
AcDbEntity
  8
Profilo
  6
Continuous
370
     0
100
AcDbPolyline
 90
       10
 70
   128
 43
0.0
 10
0.2118941012857907
 20
0.1928997574075446
 10
0.2111261101825358
 20
0.1936215032879081
 10
0.2099931154705956
 20
0.1937287742245968
 10
0.2089484531083366
 20
0.1938168632244666
 10
0.2084260057988001
 20
0.1933290715241397
 10
0.2087099956888505
 20
0.1922961814961704
 10
0.2084333234931048
 20
0.1916625260728282
 10
0.208398536712296
 20
0.1906526050658759
 10
0.2087095311752247
 20
0.1901688366951213
 10
0.2091241910836233
 20
0.1895238112293473
  0
LWPOLYLINE
  5
C51
330
2
100
AcDbEntity
  8
Profilo
  6
Continuous
370
     0
100
AcDbPolyline
 90
       15
 70
   128
 43
0.0
 10
0.2142721834534254
 20
0.1783237402369982
 10
0.2147875420855515
 20
0.1815417497656958
 10
0.2144575575144879
 20
0.1830008682294987
 10
0.214042898542831
 20
0.1836458922381212
 10
0.2135627879652198
 20
0.1835651484939593
 10
0.2132938989141462
 20
0.1833922909632044
 10
0.2131403467856323
 20
0.1837493731528443
 10
0.2134401310451797
 20
0.184701752744259
 10
0.2134941424941144
 20
0.1857999975393044
 10
0.2130142641733173
 20
0.1867829261956673
 10
0.2124037154044771
 20
0.1873779858949155
 10
0.2115279382665218
 20
0.1869669175469455
 10
0.2110707093693827
 20
0.186141222656029
 10
0.2112549253862982
 20
0.1854999886693721
 10
0.2126217901116902
 20
0.1834919818559619
  0
LWPOLYLINE
  5
C52
330
2
100
AcDbEntity
  8
Profilo
  6
Continuous
370
     0
100
AcDbPolyline
 90
       10
 70
   128
 43
0.0
 10
0.2127762712674581
 20
0.1873895892684196
 10
0.2120007292763439
 20
0.1887142096567207
 10
0.211374849714892
 20
0.1894513459947859
 10
0.2104915216890776
 20
0.1896431521547535
 10
0.209408412293745
 20
0.1895545950590537
 10
0.2088360796676021
 20
0.1892626313911152
 10
0.2081907431812114
 20
0.1888477715405626
 10
0.2082788455772567
 20
0.1877649186838355
 10
0.2087626145336472
 20
0.187012390430917
 10
0.2091273858855196
 20
0.1865631929740671
  0
LWPOLYLINE
  5
C53
330
2
100
AcDbEntity
  8
Profilo
  6
Continuous
370
     0
100
AcDbPolyline
 90
        4
 70
   128
 43
0.0
 10
0.2109285978275809
 20
0.1861258321983273
 10
0.2099262731339888
 20
0.1866209676972113
 10
0.20903905447258
 20
0.1865823734537344
 10
0.2080403881577706
 20
0.1862442369555386
  0
LWPOLYLINE
  5
C54
330
2
100
AcDbEntity
  8
Profilo
  6
Continuous
370
     0
100
AcDbPolyline
 90
        5
 70
   128
 43
0.0
 10
0.2073352970754408
 20
0.1759913542063818
 10
0.206053105384207
 20
0.1788134525372045
 10
0.206034345229708
 20
0.1808524735501606
 10
0.2061000281557324
 20
0.1826419151606206
 10
0.206584492945821
 20
0.185080405566427
  0
LWPOLYLINE
  5
C55
330
2
100
AcDbEntity
  8
Profilo
  6
Continuous
370
     0
100
AcDbPolyline
 90
       46
 70
   129
 43
0.0
 10
0.2136016801513609
 20
0.1756826483509149
 10
0.2147424233816105
 20
0.1783228510043859
 10
0.2153364133111648
 20
0.180400814566818
 10
0.2161531480952826
 20
0.1832456490577373
 10
0.2175473542266518
 20
0.1892127261872875
 10
0.2185594178924171
 20
0.1935119210627996
 10
0.2191919566567565
 20
0.1979375650372319
 10
0.2192552108069941
 20
0.2007193967098086
 10
0.2188756859055681
 20
0.2026793248298694
 10
0.2184961637421795
 20
0.2031218897469948
 10
0.2178003708276037
 20
0.2028689950137021
 10
0.2173575945139774
 20
0.202236759912744
 10
0.2169780696125501
 20
0.2023632072793906
 10
0.2170413237627878
 20
0.2033115599308275
 10
0.2178003708276037
 20
0.2044495827660975
 10
0.2190021942060435
 20
0.2050818178670556
 10
0.2204570341854351
 20
0.2052082635014275
 10
0.2215323492634008
 20
0.2050185933175949
 10
0.2215323492634008
 20
0.2041334652156182
 10
0.2213425895507251
 20
0.2035644529318461
 10
0.2220383824653021
 20
0.2045128055832835
 10
0.2225444129291649
 20
0.2045760284004694
 10
0.2236197280071306
 20
0.2043863582166368
 10
0.2245052833724206
 20
0.2036276774813068
 10
0.2248215513855716
 20
0.2028057721965155
 10
0.2247582972353339
 20
0.2012251844441206
 10
0.2243155209217076
 20
0.2005297265259766
 10
0.2239992529085566
 20
0.2002136089754972
 10
0.2238094904578436
 20
0.2007193967098086
 10
0.2238727446080813
 20
0.2019838669117254
 10
0.2236197280071306
 20
0.2024264318288508
 10
0.2231769516935055
 20
0.2024264318288508
 10
0.2226076670794026
 20
0.2017941967278927
 10
0.2219118741648268
 20
0.200972291443102
 10
0.2213425895507251
 20
0.200276833524958
 10
0.2208998104990603
 20
0.199265258056334
 10
0.2208365563488226
 20
0.1976846703039391
 10
0.2200775120220465
 20
0.1940809333465717
 10
0.2193817191074695
 20
0.1910462069407016
 10
0.2183064012914665
 20
0.1856089874976453
 10
0.2174841000764141
 20
0.1804878856050689
 10
0.2172943403637397
 20
0.1759990188134499
 10
0.2171678320632631
 20
0.1744184327933293
 10
0.2165352932989251
 20
0.1745448801599754
 10
0.2147641853063824
 20
0.1751771152609335
 10
0.2136256133401417
 20
0.175430008261952
  0
LWPOLYLINE
  5
C56
330
2
100
AcDbEntity
  8
Profilo
  6
Continuous
370
     0
100
AcDbPolyline
 90
       25
 70
   128
 43
0.0
 10
0.2125621840844509
 20
0.1933632572775317
 10
0.2120036681731841
 20
0.1942704112479507
 10
0.2120036681731841
 20
0.1950728925403825
 10
0.2123527406177257
 20
0.1954566883176926
 10
0.2128065347956298
 20
0.1954217968476055
 10
0.2128414420400848
 20
0.1957707028871027
 10
0.2121083899065468
 20
0.1966429653874346
 10
0.2117593174620052
 20
0.1978990236650765
 10
0.2117593174620052
 20
0.1992597528884297
 10
0.2122131116399093
 20
0.2003064675423727
 10
0.2128414420400848
 20
0.2004111402203593
 10
0.2139235693562018
 20
0.2000622341808621
 10
0.2147962504675563
 20
0.1995388759877532
 10
0.2151104156676441
 20
0.1988061759032201
 10
0.2153198591343692
 20
0.199294642626242
 10
0.2157736560503107
 20
0.1997482196114515
 10
0.2162972647171237
 20
0.1997831110815386
 10
0.2168557806283904
 20
0.1990504092647314
 10
0.217204853072932
 20
0.1981781467643995
 10
0.2174492037841121
 20
0.1969220884867581
 10
0.2174142965396571
 20
0.1959800447785267
 10
0.2174142965396571
 20
0.1950380028025702
 10
0.2176237400063823
 20
0.1945495343472742
 10
0.2181473514112338
 20
0.1945495343472742
 10
0.2186360528335918
 20
0.1945495343472742
  0
LWPOLYLINE
  5
C57
330
2
100
AcDbEntity
  8
Profilo
  6
Continuous
370
     0
100
AcDbPolyline
 90
        5
 70
   128
 43
0.0
 10
0.2161576357393073
 20
0.1888274926222616
 10
0.2150755084231891
 20
0.1933981487476187
 10
0.2144122707785598
 20
0.1950380028025702
 10
0.2130508882448474
 20
0.1967476363331469
 10
0.2125272768399971
 20
0.1973407757341547
  0
LWPOLYLINE
  5
C58
330
2
100
AcDbEntity
  8
Profilo
  6
Continuous
370
     0
100
AcDbPolyline
 90
        6
 70
   128
 43
0.0
 10
0.2164019864504862
 20
0.1863153760669788
 10
0.2168557806283904
 20
0.189315959345284
 10
0.216995409606208
 20
0.1926305571929992
 10
0.2165067081838488
 20
0.1953171259018937
 10
0.2156689343169482
 20
0.1972012133183558
 10
0.214866064956464
 20
0.198631723749609
  0
LWPOLYLINE
  5
C59
330
2
100
AcDbEntity
  8
Profilo
  6
Continuous
370
     0
100
AcDbPolyline
 90
       16
 70
   128
 43
0.0
 10
0.1678057867015401
 20
0.1561855793226385
 10
0.1699215309526576
 20
0.1580932104535973
 10
0.1722979590627212
 20
0.1594274730081845
 10
0.1754548526432675
 20
0.160649423125162
 10
0.177465075036989
 20
0.1613493987730235
 10
0.178338469074486
 20
0.1616908635276139
 10
0.17870308483977
 20
0.1639329301375209
 10
0.179081885346689
 20
0.1653210944690072
 10
0.1796099187311029
 20
0.1675533850408896
 10
0.1802816853112882
 20
0.1694489780316192
 10
0.1803746123781071
 20
0.169902756089956
 10
0.1783289321061805
 20
0.1713375464891259
 10
0.176185984356594
 20
0.1733359238180866
 10
0.1743163137563368
 20
0.1755148108615713
 10
0.1730975633039868
 20
0.1770641758005577
 10
0.1725029518359662
 20
0.1780840475921898
  0
LWPOLYLINE
  5
C5A
330
2
100
AcDbEntity
  8
Profilo
  6
Continuous
370
     0
100
AcDbPolyline
 90
       15
 70
   128
 43
0.0
 10
0.1677435518979848
 20
0.1584203782030985
 10
0.1697663677132652
 20
0.1598742289045103
 10
0.1716962550927074
 20
0.1608742991763752
 10
0.1744896949168908
 20
0.1620523762355437
 10
0.1765534711613104
 20
0.1625522862165482
 10
0.1768267511798527
 20
0.1627327974361467
 10
0.1771716825217784
 20
0.1646479425029246
 10
0.1777532724949289
 20
0.1666801721503704
 10
0.1783151766757017
 20
0.1683854778834768
 10
0.1786179842105504
 20
0.1690563677473531
 10
0.176635702120117
 20
0.1704545551893717
 10
0.1750704290057641
 20
0.1716965523935514
 10
0.173217695238294
 20
0.1736119477701857
 10
0.172035564673069
 20
0.1752247402142389
 10
0.1714578885376419
 20
0.1759811212051562
  0
LWPOLYLINE
  5
C5B
330
2
100
AcDbEntity
  8
Profilo
  6
Continuous
370
     0
100
AcDbPolyline
 90
       22
 70
   128
 43
0.0
 10
0.1939435610774206
 20
0.1632757175083737
 10
0.1902687472376148
 20
0.1638682046084411
 10
0.1885726067162494
 20
0.1645552243116133
 10
0.1876151845893391
 20
0.1645094827507987
 10
0.1874265101104058
 20
0.16578056066306
 10
0.1863414315845553
 20
0.1657287202219599
 10
0.1855177694079526
 20
0.1655613596713519
 10
0.184870334616317
 20
0.165722443566499
 10
0.1837883087966313
 20
0.1656067428642326
 10
0.1832532759166032
 20
0.1660932191540744
 10
0.1831345307237175
 20
0.1672396257774799
 10
0.1838152836136839
 20
0.167720183779794
 10
0.1845173929427102
 20
0.1677537275800352
 10
0.1849064639606001
 20
0.1676443062681478
 10
0.1845537638778675
 20
0.1683315064814122
 10
0.1843134639764443
 20
0.1693440990067044
 10
0.1849242879723493
 20
0.1699493200931177
 10
0.186194748410396
 20
0.170138026766061
 10
0.1870519722678274
 20
0.1696029400266886
 10
0.1874077231957614
 20
0.1688518822045097
 10
0.1879002831889036
 20
0.1679153477009566
 10
0.1883409780296443
 20
0.1680644089584539
  0
LWPOLYLINE
  5
C5C
330
2
100
AcDbEntity
  8
Profilo
  6
Continuous
370
     0
100
AcDbPolyline
 90
       13
 70
   128
 43
0.0
 10
0.1946271233523771
 20
0.1650364989671265
 10
0.1920040698094294
 20
0.1650391873457514
 10
0.190508563957291
 20
0.1655437796836925
 10
0.1890402779736817
 20
0.1668177293022564
 10
0.1884170106057337
 20
0.1678120252693553
 10
0.1884381253232578
 20
0.1687090976024733
 10
0.1888300055954748
 20
0.1698799024819432
 10
0.1901581916774392
 20
0.1701993737715246
 10
0.1922736723307861
 20
0.1701084296105884
 10
0.1937722272978253
 20
0.1695399795810666
 10
0.1946660619509875
 20
0.1682385878601326
 10
0.1953015329610654
 20
0.1669888559875402
 10
0.1953076347821311
 20
0.1668611380347938
  0
LWPOLYLINE
  5
C5D
330
2
100
AcDbEntity
  8
Profilo
  6
Continuous
370
     0
100
AcDbPolyline
 90
       11
 70
   129
 43
0.0
 10
0.1890855582539311
 20
0.1685480163595774
 10
0.1903440567713824
 20
0.1676480724028236
 10
0.190696756854115
 20
0.1669608721895591
 10
0.1915054078645586
 20
0.1661034425369696
 10
0.1923990009268479
 20
0.1661461346163074
 10
0.1934171995428759
 20
0.1662587831848452
 10
0.1936420032354308
 20
0.1669095707091514
 10
0.1933470287966159
 20
0.1677275355390535
 10
0.1926721358755163
 20
0.1684633488541014
 10
0.1917116646337054
 20
0.1684814649848682
 10
0.1908302752135486
 20
0.1681833370000369
  0
LWPOLYLINE
  5
C5E
330
2
100
AcDbEntity
  8
Profilo
  6
Continuous
370
     0
100
AcDbPolyline
 90
        7
 70
   128
 43
0.0
 10
0.1935624382320296
 20
0.1699139824252917
 10
0.1922492650465237
 20
0.1706193014215747
 10
0.1906960354114322
 20
0.1709931264906258
 10
0.1892371404856874
 20
0.1707314111120871
 10
0.1888208529292079
 20
0.1700714780436035
 10
0.1873619596031008
 20
0.1698097654826498
 10
0.1870458704467618
 20
0.1697306579794351
  0
LWPOLYLINE
  5
C5F
330
2
100
AcDbEntity
  8
Profilo
  6
Continuous
370
     0
100
AcDbPolyline
 90
        5
 70
   128
 43
0.0
 10
0.1957267333232384
 20
0.1688012973773015
 10
0.1944255221889897
 20
0.1705952642683623
 10
0.1930393691335605
 20
0.1714891066925776
 10
0.1912763485717086
 20
0.1722369372581055
 10
0.1906866411542911
 20
0.1725287858525584
  0
LWPOLYLINE
  5
C60
330
2
100
AcDbEntity
  8
Profilo
  6
Continuous
370
     0
100
AcDbPolyline
 90
       11
 70
   128
 43
0.0
 10
0.1924916511599548
 20
0.1749191865711221
 10
0.187804500664613
 20
0.1766153910328427
 10
0.1852938489026112
 20
0.1769434745410791
 10
0.1829352589628499
 20
0.1767667877708683
 10
0.181275729237214
 20
0.1766875024924795
 10
0.1811175638636074
 20
0.1773199906410074
 10
0.1817253350226858
 20
0.1779890747235057
 10
0.182734380972447
 20
0.1782932988537044
 10
0.1840686704751147
 20
0.1784850550081244
 10
0.1848984362030823
 20
0.1785246976886523
 10
0.1856674237116316
 20
0.1784974332787895
  0
LWPOLYLINE
  5
C61
330
2
100
AcDbEntity
  8
Profilo
  6
Continuous
370
     0
100
AcDbPolyline
 90
       10
 70
   128
 43
0.0
 10
0.1812119001725929
 20
0.1766844530110027
 10
0.1802028543534947
 20
0.1763802261458853
 10
0.1795434576412636
 20
0.175452659411336
 10
0.1789448391484534
 20
0.1745919997671775
 10
0.1791060554979229
 20
0.173895651274817
 10
0.1801425594464862
 20
0.173625148720033
 10
0.1805529850424723
 20
0.1730687158583255
 10
0.181410208899905
 20
0.1725336291189526
 10
0.1819846618299898
 20
0.1725610740389076
 10
0.1827506002236371
 20
0.1725976673206256
  0
LWPOLYLINE
  5
C62
330
2
100
AcDbEntity
  8
Profilo
  6
Continuous
370
     0
100
AcDbPolyline
 90
       15
 70
   128
 43
0.0
 10
0.1950241424121017
 20
0.1714559239951877
 10
0.1924949437266932
 20
0.1735112424270177
 10
0.191066317784377
 20
0.1739550266375211
 10
0.1903003811210292
 20
0.1739184334384701
 10
0.190130251965865
 20
0.1734622736095528
 10
0.1901455064531975
 20
0.173142980095146
 10
0.1897594881414737
 20
0.1731885411458678
 10
0.1890845953510359
 20
0.1739243517259971
 10
0.1881604931834199
 20
0.1745202494103926
 10
0.1870693128365037
 20
0.1745961269220389
 10
0.1862487016357666
 20
0.1743649060275978
 10
0.1861668086988228
 20
0.1734009266040897
 10
0.1866532670015613
 20
0.1725921073183649
 10
0.1873006999322346
 20
0.1724310260754695
 10
0.1897231172063165
 20
0.1726107622444908
  0
LWPOLYLINE
  5
C63
330
2
100
AcDbEntity
  8
Profilo
  6
Continuous
370
     0
100
AcDbPolyline
 90
       10
 70
   128
 43
0.0
 10
0.1864249307510329
 20
0.1746933505560204
 10
0.1848900048488364
 20
0.1746840216841647
 10
0.1839386862732937
 20
0.1745105622532705
 10
0.1833309132532517
 20
0.173841480823024
 10
0.1828660512501467
 20
0.1728592020237389
 10
0.1828327328904914
 20
0.1722175655961143
 10
0.182869343816885
 20
0.1714512578796351
 10
0.1838511730973936
 20
0.1709861303643809
 10
0.1847447661596828
 20
0.1710288224437187
 10
0.1853161682445663
 20
0.1711201249725876
  0
LWPOLYLINE
  5
C64
330
2
100
AcDbEntity
  8
Profilo
  6
Continuous
370
     0
100
AcDbPolyline
 90
        4
 70
   128
 43
0.0
 10
0.1865955397580059
 20
0.1724613398841423
 10
0.1856655774908612
 20
0.1718408689860938
 10
0.1852553917554473
 20
0.1710532179648638
 10
0.1850488933954264
 20
0.1700192793172364
  0
LWPOLYLINE
  5
C65
330
2
100
AcDbEntity
  8
Profilo
  6
Continuous
370
     0
100
AcDbPolyline
 90
        5
 70
   128
 43
0.0
 10
0.1935756047770548
 20
0.1642822111533792
 10
0.1904905000849683
 20
0.1645828497416606
 10
0.1887152760116493
 20
0.1655861134777633
 10
0.1871984155814132
 20
0.1665377173655256
 10
0.1853288533381452
 20
0.1681765213838849
  0
LWPOLYLINE
  5
C66
330
2
100
AcDbEntity
  8
Profilo
  6
Continuous
370
     0
100
AcDbPolyline
 90
       46
 70
   129
 43
0.0
 10
0.1969761434281463
 20
0.1695547051592367
 10
0.1952600324742271
 20
0.1718627191025638
 10
0.1937574582057995
 20
0.1734161112523662
 10
0.1917021266591601
 20
0.1755458415690267
 10
0.1872315893443132
 20
0.179736798061679
 10
0.1840144091991824
 20
0.1827628683442353
 10
0.1804979584713884
 20
0.1855234849702474
 10
0.1781204486490028
 20
0.1869691805075366
 10
0.1762333386567256
 20
0.1876204663615634
 10
0.1756603051139767
 20
0.1875130729853324
 10
0.1755314219202037
 20
0.1867840512788892
 10
0.1758575654219854
 20
0.1860844781926159
 10
0.1755582963395135
 20
0.1858190236699351
 10
0.1747686259267418
 20
0.1863479796966545
 10
0.1741625927737189
 20
0.1875743451550869
 10
0.1742159728043451
 20
0.1889312722821578
 10
0.1748338876624775
 20
0.1902544234799379
 10
0.1755358043989995
 20
0.1910908385626121
 10
0.1763023478209149
 20
0.1906482745116235
 10
0.1767002470573887
 20
0.1901994316379458
 10
0.1762268460267862
 20
0.1912761823034614
 10
0.1764251086929356
 20
0.1917460289488488
 10
0.1771270254294587
 20
0.192582444031523
 10
0.1782268399022607
 20
0.1929700171066569
 10
0.1790967647649708
 20
0.1928329605980541
 10
0.1804339668363362
 20
0.1919878870208559
 10
0.1808148629038986
 20
0.1912567025259897
 10
0.1809304947266206
 20
0.1908247476169571
 10
0.1803975884744275
 20
0.1909133023811109
 10
0.1793341522323584
 20
0.1916003171830702
 10
0.178824371470828
 20
0.19160248083763
 10
0.1786029833140159
 20
0.191219025301836
 10
0.1788658726655588
 20
0.1904098928135612
 10
0.1792297670644036
 20
0.189396365831369
 10
0.1795474089817285
 20
0.1885556219345017
 10
0.1802020695095703
 20
0.1876663762931851
 10
0.1815392715809356
 20
0.1868213027159868
 10
0.1842806771711853
 20
0.1843620825677163
 10
0.186560930874915
 20
0.1822421450249844
 10
0.1907320421305508
 20
0.1785922827576561
 10
0.1947558958573646
 20
0.1753195980695695
 10
0.1985484886767731
 20
0.1729108279419684
 10
0.1998540621728264
 20
0.1720109755299065
 10
0.1994282861588996
 20
0.1715264045744332
 10
0.1979952005040353
 20
0.1703086976105254
 10
0.1972069027575938
 20
0.1694491118642335
  0
LWPOLYLINE
  5
C67
330
2
100
AcDbEntity
  8
Profilo
  6
Continuous
370
     0
100
AcDbPolyline
 90
       25
 70
   128
 43
0.0
 10
0.1811445389098634
 20
0.1774947796214677
 10
0.1800796625707038
 20
0.1774646676391018
 10
0.1793846933853953
 20
0.1778659082853183
 10
0.1792268527146513
 20
0.1783601117787073
 10
0.1794839667030743
 20
0.1787356633298191
 10
0.179199258831563
 20
0.1789403469100409
 10
0.1780773312807373
 20
0.1787416363902642
 10
0.1768150166813953
 20
0.1790673599243508
 10
0.1756365906063
 20
0.1797477245360277
 10
0.1749570062144237
 20
0.1806640791491537
 10
0.1751805222162931
 20
0.1812605655766692
 10
0.1760237473680892
 20
0.1820232623028067
 10
0.1769133294142785
 20
0.1825173472180884
 10
0.1777049489008817
 20
0.1824230722200823
 10
0.1773866460432043
 20
0.1828486889444343
 10
0.1772207353094117
 20
0.1834684770944043
 10
0.1774523227433479
 20
0.1839393812365491
 10
0.1783661190857361
 20
0.1840567192957204
 10
0.1792960567920616
 20
0.1839228936502887
 10
0.1805060105247236
 20
0.1835064784347816
 10
0.1813043906852993
 20
0.1830052260201929
 10
0.182120222967909
 20
0.1825342050322143
 10
0.1826479707925053
 20
0.1824713541674066
 10
0.182909776494931
 20
0.182924814945719
 10
0.1831541272061099
 20
0.1833480427923467
  0
LWPOLYLINE
  5
C68
330
2
100
AcDbEntity
  8
Profilo
  6
Continuous
370
     0
100
AcDbPolyline
 90
        5
 70
   128
 43
0.0
 10
0.1868703521543426
 20
0.1783406497650166
 10
0.1823709841797623
 20
0.1796888280818086
 10
0.1806192100873609
 20
0.179934374460289
 10
0.1784579327518637
 20
0.1796101993671138
 10
0.1776824532601797
 20
0.1794533082893056
  0
LWPOLYLINE
  5
C69
330
2
100
AcDbEntity
  8
Profilo
  6
Continuous
370
     0
100
AcDbPolyline
 90
        6
 70
   128
 43
0.0
 10
0.1891680842640753
 20
0.1772962054106888
 10
0.1867964000078441
 20
0.1791894943359964
 10
0.1839956885573019
 20
0.180967715501748
 10
0.1814247010952077
 20
0.181887772009567
 10
0.1793741465961507
 20
0.182104282266436
 10
0.1777338535420654
 20
0.1821242322199628
  0
LWPOLYLINE
  5
C6A
330
2
100
AcDbEntity
  8
Profilo
  6
Continuous
370
     0
100
AcDbPolyline
 90
       16
 70
   128
 43
0.0
 10
0.1909631537810625
 20
0.1201457635285484
 10
0.1903689688861606
 20
0.1229318673634071
 10
0.1904016776736009
 20
0.1256570457542824
 10
0.1909218846204155
 20
0.129001970850569
 10
0.1913207991241977
 20
0.1310928623347191
 10
0.1914617789909734
 20
0.1320199761360006
 10
0.1897024002324592
 20
0.1334567759563102
 10
0.1886896149102242
 20
0.1344789089840118
 10
0.1870204112585523
 20
0.1360523445949006
 10
0.1857146628634372
 20
0.1375819080141197
 10
0.1853681430706473
 20
0.1378892742438525
 10
0.1831027379998968
 20
0.1368350583599285
 10
0.1803006185918765
 20
0.1359783998342838
 10
0.1774788117601128
 20
0.1354486611194947
 10
0.1755276471370438
 20
0.1351678747363796
 10
0.1743471065228768
 20
0.1351628619955083
  0
LWPOLYLINE
  5
C6B
330
2
100
AcDbEntity
  8
Profilo
  6
Continuous
370
     0
100
AcDbPolyline
 90
       15
 70
   128
 43
0.0
 10
0.188996643776458
 20
0.1212092660479004
 10
0.1887489800433653
 20
0.1236880012818162
 10
0.1888478374720819
 20
0.1258593679147885
 10
0.1892243127233174
 20
0.128867596296058
 10
0.1898232661023726
 20
0.1309048339419552
 10
0.1898035788098025
 20
0.1312317569901578
 10
0.1883174802010039
 20
0.132488048828217
 10
0.1868483126865664
 20
0.134007835343274
 10
0.1856524266908638
 20
0.1353471115048699
 10
0.1852228227930308
 20
0.1359447954544438
 10
0.1830208159037726
 20
0.1349271825276705
 10
0.1811625782163482
 20
0.1341926148488709
 10
0.1785774302781556
 20
0.1335457980281091
 10
0.1765896457679617
 20
0.1333284391500608
 10
0.1756457625471732
 20
0.1332063474370794
  0
LWPOLYLINE
  5
C6C
330
2
100
AcDbEntity
  8
Profilo
  6
Continuous
370
     0
100
AcDbPolyline
 90
       22
 70
   128
 43
0.0
 10
0.1978918011838134
 20
0.1463268092293147
 10
0.1955412853838384
 20
0.1434405706398979
 10
0.1940982386073078
 20
0.142315179711593
 10
0.1936591408975268
 20
0.1414631570471372
 10
0.1924640178958523
 20
0.1419352991114651
 10
0.1919663737718633
 20
0.1409696733224271
 10
0.1916994811719803
 20
0.1401726806780499
 10
0.1912362610308236
 20
0.1396925276487722
 10
0.1907954478683795
 20
0.1386976154502405
 10
0.1901066306030247
 20
0.1384775015291973
 10
0.1890544407476444
 20
0.1389478684872843
 10
0.1889786417546327
 20
0.1397776967848512
 10
0.1893006466359968
 20
0.1404025132001435
 10
0.1895899437807517
 20
0.1406847479295685
 10
0.1888184608972132
 20
0.1407229008046376
 10
0.1878213800959163
 20
0.1410210912481233
 10
0.1876026552581287
 20
0.1418526908890254
 10
0.1880744607045189
 20
0.1430472952393492
 10
0.1889664713427592
 20
0.1435221295069286
 10
0.1897947819604451
 20
0.1434546899368491
 10
0.1908521246286128
 20
0.1434129921520211
 10
0.1909433812132708
 20
0.143869175708169
  0
LWPOLYLINE
  5
C6D
330
2
100
AcDbEntity
  8
Profilo
  6
Continuous
370
     0
100
AcDbPolyline
 90
       13
 70
   128
 43
0.0
 10
0.1967087008474995
 20
0.147799182253872
 10
0.195394845871841
 20
0.1455288954395049
 10
0.1942101031625599
 20
0.1444860455490157
 10
0.1923726874379383
 20
0.1438514473964709
 10
0.1911999681875755
 20
0.1438088300060282
 10
0.1904336381168257
 20
0.1442756520543563
 10
0.1896156314844385
 20
0.1452004327650731
 10
0.1900030542728631
 20
0.146510411297798
 10
0.1911395545532338
 20
0.1482969992043431
 10
0.1923811242031009
 20
0.1493105608600053
 10
0.1939550798202856
 20
0.1494339485159597
 10
0.1953551148749082
 20
0.1493594166177599
 10
0.1954687727770393
 20
0.1493008419734386
  0
LWPOLYLINE
  5
C6E
330
2
100
AcDbEntity
  8
Profilo
  6
Continuous
370
     0
100
AcDbPolyline
 90
       11
 70
   129
 43
0.0
 10
0.1908968550305836
 20
0.1447558047981178
 10
0.1923054786178397
 20
0.1453957245064796
 10
0.1930769615013794
 20
0.1453575716314106
 10
0.1942238428677024
 20
0.1456291691229563
 10
0.1946336669735988
 20
0.1464243894552119
 10
0.1950452097595594
 20
0.1473624996070595
 10
0.194594013077322
 20
0.1478825790778295
 10
0.1937381475358168
 20
0.1480361061353002
 10
0.1927634680519929
 20
0.1478195383783174
 10
0.1922675434016258
 20
0.1469968039486891
 10
0.1920850350999892
 20
0.1460844343277903
  0
LWPOLYLINE
  5
C6F
330
2
100
AcDbEntity
  8
Profilo
  6
Continuous
370
     0
100
AcDbPolyline
 90
        7
 70
   128
 43
0.0
 10
0.1919523337060163
 20
0.149315879621703
 10
0.1906849229447106
 20
0.1485312977816276
 10
0.1895845661207952
 20
0.1473730739942524
 10
0.1890817708242972
 20
0.1459787762378361
 10
0.1894451458481623
 20
0.1452882941044037
 10
0.1889423489113847
 20
0.1438939991421073
 10
0.1888528134406293
 20
0.1435807041512498
  0
LWPOLYLINE
  5
C70
330
2
100
AcDbEntity
  8
Profilo
  6
Continuous
370
     0
100
AcDbPolyline
 90
        5
 70
   128
 43
0.0
 10
0.1939980947695912
 20
0.1506338716279801
 10
0.1917938683012596
 20
0.1504039731755645
 10
0.1903267015271943
 20
0.1496504506281362
 10
0.1887975509787954
 20
0.1484975453169431
 10
0.1882499489732308
 20
0.1481327680098853
  0
LWPOLYLINE
  5
C71
330
2
100
AcDbEntity
  8
Profilo
  6
Continuous
370
     0
100
AcDbPolyline
 90
       11
 70
   128
 43
0.0
 10
0.187082306228562
 20
0.1508911528881568
 10
0.1832697748270284
 20
0.14768006371869
 10
0.1817303202933319
 20
0.1456698172668589
 10
0.1807040405549666
 20
0.1435388750768092
 10
0.1799429387573804
 20
0.1420620375368794
 10
0.1793161052663592
 20
0.142241306379601
 10
0.1790405470331866
 20
0.1431021936842994
 10
0.179281604182871
 20
0.1441281651754782
 10
0.1797826832331459
 20
0.145379571858001
 10
0.1801632345287178
 20
0.1461179913978748
 10
0.1805713399545527
 20
0.1467703219105391
  0
LWPOLYLINE
  5
C72
330
2
100
AcDbEntity
  8
Profilo
  6
Continuous
370
     0
100
AcDbPolyline
 90
       10
 70
   128
 43
0.0
 10
0.1799136651534969
 20
0.1420052352046798
 10
0.1796726104376525
 20
0.1409792624591989
 10
0.1801462084373627
 20
0.1399444247879604
 10
0.1805922523068102
 20
0.138995676143932
 10
0.1812759159658175
 20
0.1387871193518984
 10
0.1820284300243291
 20
0.1395495068250843
 10
0.1827155278160621
 20
0.1396267293867184
 10
0.1836075384543037
 20
0.1401015636542984
 10
0.1838709969214598
 20
0.140612776945008
 10
0.1842222754067084
 20
0.1412943956924999
  0
LWPOLYLINE
  5
C73
330
2
100
AcDbEntity
  8
Profilo
  6
Continuous
370
     0
100
AcDbPolyline
 90
       15
 70
   128
 43
0.0
 10
0.1913478252253711
 20
0.1513527233594112
 10
0.1883032679078351
 20
0.1501900322625436
 10
0.1872046265365827
 20
0.1491746980092441
 10
0.1868533488448941
 20
0.14849308080157
 10
0.1871633302673399
 20
0.1481176647168152
 10
0.187447473805746
 20
0.1479712287331627
 10
0.187215007622535
 20
0.1476597075942447
 10
0.186240330572551
 20
0.1474431385829598
 10
0.1852622169560002
 20
0.1469407914723094
 10
0.1846509149298813
 20
0.1460337403275927
 10
0.1844408524979843
 20
0.145207459733904
 10
0.1852347366989957
 20
0.1446545486583658
 10
0.1861784238988733
 20
0.144671424263557
 10
0.18664164081263
 20
0.1451515770073185
 10
0.1876971933613198
 20
0.1473393199897507
  0
LWPOLYLINE
  5
C74
330
2
100
AcDbEntity
  8
Profilo
  6
Continuous
370
     0
100
AcDbPolyline
 90
       10
 70
   128
 43
0.0
 10
0.1842445257502696
 20
0.1455243008888219
 10
0.1834851418391861
 20
0.1441903516286651
 10
0.1831597028250951
 20
0.1432797558597063
 10
0.1834352578308689
 20
0.1424188682694922
 10
0.1840535052230952
 20
0.1415251465659068
 10
0.1845925194895852
 20
0.1411754738062207
 10
0.1852744669023683
 20
0.1408240259402936
 10
0.1861681937868328
 20
0.1414417512817665
 10
0.1865780178927292
 20
0.1422369716140228
 10
0.1867846486257415
 20
0.1427774715997423
  0
LWPOLYLINE
  5
C75
330
2
100
AcDbEntity
  8
Profilo
  6
Continuous
370
     0
100
AcDbPolyline
 90
        4
 70
   128
 43
0.0
 10
0.1862628081971197
 20
0.1445560472870361
 10
0.1863351706235671
 20
0.1434404408901036
 10
0.1868122035495621
 20
0.1426913841123505
 10
0.1876043715043517
 20
0.1419955819629189
  0
LWPOLYLINE
  5
C76
330
2
100
AcDbEntity
  8
Profilo
  6
Continuous
370
     0
100
AcDbPolyline
 90
        5
 70
   128
 43
0.0
 10
0.1968361739683087
 20
0.1465113965482184
 10
0.1950332609674561
 20
0.1439899368056777
 10
0.1932767970486348
 20
0.1429541795288245
 10
0.1916942536923756
 20
0.1421163418061261
 10
0.1893402266590176
 20
0.141316655418679
  0
LWPOLYLINE
  5
C77
330
2
100
AcDbEntity
  8
Profilo
  6
Continuous
370
     0
100
AcDbPolyline
 90
       46
 70
   129
 43
0.0
 10
0.19397032954348
 20
0.1520925964095435
 10
0.1911134753593112
 20
0.1517604076993995
 10
0.1890169111613282
 20
0.1512358362867699
 10
0.186144844830571
 20
0.1505207321125106
 10
0.1802801013843549
 20
0.1487446114756132
 10
0.1760508575734587
 20
0.1474714868826574
 10
0.1719018680813253
 20
0.1458064595342372
 10
0.1694611041087033
 20
0.1444703233989491
 10
0.1679535190178522
 20
0.1431616811329151
 10
0.167760007638492
 20
0.1426117228395587
 10
0.1683269173592958
 20
0.1421355958664088
 10
0.1690958371747027
 20
0.1420682578810937
 10
0.169176092993658
 20
0.1416763559917661
 10
0.1683231684306486
 20
0.1412569593670482
 10
0.1669580882128099
 20
0.1413453019902111
 10
0.1658096448649964
 20
0.1420699940163233
 10
0.164972719743736
 20
0.1432666995797321
 10
0.1645993214022934
 20
0.1442927848462383
 10
0.1653658648242088
 20
0.144735348897227
 10
0.1659535237733583
 20
0.1448555183073208
 10
0.1647843298281787
 20
0.144983916321399
 10
0.1644765620304653
 20
0.145390540149601
 10
0.1641031636890216
 20
0.1464166254161073
 10
0.1643174227965348
 20
0.1475628792265712
 10
0.1648710796460927
 20
0.1482477280027597
 10
0.1662715358676969
 20
0.148983242177957
 10
0.1670952082488857
 20
0.1489475156012348
 10
0.1675271080847576
 20
0.1488316782426815
 10
0.1671839642832786
 20
0.148414445272524
 10
0.1660572738909718
 20
0.1478369898725665
 10
0.1658005097303921
 20
0.1473965886100003
 10
0.1660218978872052
 20
0.1470131330742069
 10
0.1668540718528497
 20
0.1468362356868902
 10
0.1679137591662716
 20
0.1466446139894887
 10
0.168800685697698
 20
0.1464993280107649
 10
0.1698981252772036
 20
0.1466216578380722
 10
0.1712985814988077
 20
0.1473571720132694
 10
0.1747990314158324
 20
0.1485016888223663
 10
0.1777750780341402
 20
0.1494164776855039
 10
0.183021507105779
 20
0.1512038348612319
 10
0.1878676620476452
 20
0.1530522520657217
 10
0.1918500145797282
 20
0.1551323487297401
 10
0.193282096376258
 20
0.1558130823377989
 10
0.1934888591266694
 20
0.1552020640156795
 10
0.1938268814643464
 20
0.1533521219508137
 10
0.1941771556841456
 20
0.1522396432035026
  0
LWPOLYLINE
  5
C78
330
2
100
AcDbEntity
  8
Profilo
  6
Continuous
370
     0
100
AcDbPolyline
 90
       25
 70
   128
 43
0.0
 10
0.1791782210921072
 20
0.1423520619451572
 10
0.1786718606642144
 20
0.1414147959923728
 10
0.1779768914789059
 20
0.1410135553461569
 10
0.1774699783636191
 20
0.1411239630622358
 10
0.1772732981741379
 20
0.1415344060834347
 10
0.1769536830581728
 20
0.1413901836241594
 10
0.1765648076408853
 20
0.1403192106040513
 10
0.1756515654860848
 20
0.139388875860496
 10
0.1744731394109895
 20
0.1387085112488191
 10
0.1733397608412091
 20
0.138578151208002
 10
0.172934946442903
 20
0.1390699649575311
 10
0.1726960442785833
 20
0.1401815677231662
 10
0.1727129452134168
 20
0.1411990108315563
 10
0.1731903994999335
 20
0.1418374359180838
 10
0.1726626531755298
 20
0.1417745859194135
 10
0.1720429455257957
 20
0.1419407970841739
 10
0.1717509242929189
 20
0.1423768097562317
 10
0.1721062047240391
 20
0.1432268496322107
 10
0.1726870699858243
 20
0.1439652864871104
 10
0.1736526730073061
 20
0.1448049295492452
 10
0.174485960412337
 20
0.1452457208428873
 10
0.1753017926949465
 20
0.1457167418308658
 10
0.1756200970528177
 20
0.1461423594213541
 10
0.1753582913503919
 20
0.1465958201996665
 10
0.1751139406392129
 20
0.1470190480462942
  0
LWPOLYLINE
  5
C79
330
2
100
AcDbEntity
  8
Profilo
  6
Continuous
370
     0
100
AcDbPolyline
 90
        5
 70
   128
 43
0.0
 10
0.18130858268173
 20
0.1477336967439762
 10
0.1778913420232666
 20
0.1445112189354109
 10
0.1768028055754947
 20
0.1431169112589405
 10
0.1760029107737099
 20
0.141083102635188
 10
0.1757510426868774
 20
0.1403330721563721
  0
LWPOLYLINE
  5
C7A
330
2
100
AcDbEntity
  8
Profilo
  6
Continuous
370
     0
100
AcDbPolyline
 90
        6
 70
   128
 43
0.0
 10
0.1833619640802837
 20
0.1492013689449317
 10
0.1805364856461484
 20
0.1480940745919341
 10
0.1775961452177898
 20
0.1465576979099705
 10
0.1755138591780536
 20
0.1447911857088944
 10
0.174301078545896
 20
0.1431236085493013
 10
0.173463654852295
 20
0.1417130480715756
  0
LWPOLYLINE
  5
C7B
330
2
100
AcDbEntity
  8
Profilo
  6
Continuous
370
     0
100
AcDbPolyline
 90
       16
 70
   128
 43
0.0
 10
0.2337532333462171
 20
0.1221807238071311
 10
0.2310433042001977
 20
0.1230591965110309
 10
0.2286995848775757
 20
0.1244501123473196
 10
0.2260628982438426
 20
0.1265730873266287
 10
0.2244515903539022
 20
0.1279640031629168
 10
0.223719176183182
 20
0.1285496522096079
 10
0.2215951816593838
 20
0.1277443854200109
 10
0.2202035958302298
 20
0.1273783541162256
 10
0.2180063587941442
 20
0.1267194991552328
 10
0.2160288438188438
 20
0.1263534695837223
 10
0.2155893969592348
 20
0.1262070577551182
 10
0.215369672160411
 20
0.1237180514720238
 10
0.2147105005019771
 20
0.1208630156174189
 10
0.2137583642704719
 20
0.1181543898591445
 10
0.2130259500997505
 20
0.1163242385370436
 10
0.2124400209536053
 20
0.1152993540045402
  0
LWPOLYLINE
  5
C7C
330
2
100
AcDbEntity
  8
Profilo
  6
Continuous
370
     0
100
AcDbPolyline
 90
       15
 70
   128
 43
0.0
 10
0.2318489581451667
 20
0.1210094274460236
 10
0.2295784785967948
 20
0.122034311978527
 10
0.227747448646068
 20
0.123205608339635
 10
0.2253304840731213
 20
0.1250357596617359
 10
0.2238656612077557
 20
0.1265730873266287
 10
0.2235726938966446
 20
0.1267194991552328
 10
0.2217416639459202
 20
0.1260606459265141
 10
0.2196909064583323
 20
0.1255482027941247
 10
0.2179331162818567
 20
0.1251821732226142
 10
0.217200704849174
 20
0.1251089673083125
 10
0.2169809800503502
 20
0.1226931669395204
 10
0.2166880154772777
 20
0.1207166020565406
 10
0.2159556013065563
 20
0.1181543898591445
 10
0.2151499473615873
 20
0.1163242385370436
 10
0.2147837402762272
 20
0.1154457658331443
  0
LWPOLYLINE
  5
C7D
330
2
100
AcDbEntity
  8
Profilo
  6
Continuous
370
     0
100
AcDbPolyline
 90
       22
 70
   128
 43
0.0
 10
0.2145441063730875
 20
0.1412716313221627
 10
0.2158684044129183
 20
0.1377929056326785
 10
0.2161214981577531
 20
0.1359804950012014
 10
0.2166398225748823
 20
0.1351742138975595
 10
0.2156333740521413
 20
0.1343752780496262
 10
0.2162208084540028
 20
0.133461492701689
 10
0.2167775780307224
 20
0.1328318606079191
 10
0.2169617926812013
 20
0.1321906236834949
 10
0.217603005338443
 20
0.131311412187229
 10
0.2174492209531149
 20
0.1306048219763446
 10
0.2165157762906216
 20
0.1299287823110256
 10
0.2157592244076435
 20
0.1302780526062789
 10
0.2153791199599813
 20
0.1308693252213294
 10
0.2152793460868463
 20
0.1312609812626419
 10
0.2148605632860392
 20
0.1306119339244465
 10
0.2141037823861668
 20
0.1298975318426406
 10
0.2132742335524741
 20
0.1301239103971294
 10
0.2124755785608177
 20
0.1311298080745094
 10
0.2125103653416265
 20
0.132139729081461
 10
0.2129829250313773
 20
0.1328233473335611
 10
0.213547707706405
 20
0.1337181840522862
 10
0.2131982694503212
 20
0.1340253063509362
  0
LWPOLYLINE
  5
C7E
330
2
100
AcDbEntity
  8
Profilo
  6
Continuous
370
     0
100
AcDbPolyline
 90
       13
 70
   128
 43
0.0
 10
0.2126774437618171
 20
0.1409832228879666
 10
0.2139866423291062
 20
0.1387102476949752
 10
0.2142974054719637
 20
0.1371628054665444
 10
0.2139282757309513
 20
0.1352542576954362
 10
0.2133788238485366
 20
0.134217344337894
 10
0.2125913790602626
 20
0.1337870940531046
 10
0.2113814921556584
 20
0.1335410698843517
 10
0.2104407288621186
 20
0.134531577127495
 10
0.2094617484891412
 20
0.1364091091949764
 10
0.2092047631719703
 20
0.1379911208801599
 10
0.2098848841359928
 20
0.1394159002570483
 10
0.2106494481805374
 20
0.1405911002314408
 10
0.2107570042616029
 20
0.1406602435398665
  0
LWPOLYLINE
  5
C7F
330
2
100
AcDbEntity
  8
Profilo
  6
Continuous
370
     0
100
AcDbPolyline
 90
       11
 70
   129
 43
0.0
 10
0.2124071630433471
 20
0.1344283280397621
 10
0.212557288113152
 20
0.1359681917048771
 10
0.2129760709139591
 20
0.1366172390430726
 10
0.2133143012698373
 20
0.1377462661872078
 10
0.2128305323134469
 20
0.1384987944401263
 10
0.2122238764833781
 20
0.139324256023436
 10
0.211547876108586
 20
0.1391935479698998
 10
0.2109869850058956
 20
0.1385291101974678
 10
0.2106871984431713
 20
0.1375767291254371
 10
0.2111517450346139
 20
0.1367358785650421
 10
0.2118506261531353
 20
0.1361216369289745
  0
LWPOLYLINE
  5
C80
330
2
100
AcDbEntity
  8
Profilo
  6
Continuous
370
     0
100
AcDbPolyline
 90
        7
 70
   128
 43
0.0
 10
0.2089857617406814
 20
0.1376224367976324
 10
0.2090315241648817
 20
0.1361325359612746
 10
0.2094843969760577
 20
0.1346004871048483
 10
0.2104404966053057
 20
0.1334679047269701
 10
0.2112201591856492
 20
0.1334373556620219
 10
0.2121762555749775
 20
0.1323047732606786
 10
0.212402809260561
 20
0.1320705857730359
  0
LWPOLYLINE
  5
C81
330
2
100
AcDbEntity
  8
Profilo
  6
Continuous
370
     0
100
AcDbPolyline
 90
        5
 70
   128
 43
0.0
 10
0.2088672277130474
 20
0.1400531138519002
 10
0.2079642123789647
 20
0.1380292485084233
 10
0.2078831986603285
 20
0.1363818835367797
 10
0.2081170686737803
 20
0.1344811476600587
 10
0.2081591740856355
 20
0.133824521758548
  0
LWPOLYLINE
  5
C82
330
2
100
AcDbEntity
  8
Profilo
  6
Continuous
370
     0
100
AcDbPolyline
 90
       11
 70
   128
 43
0.0
 10
0.2051865213353032
 20
0.1341925059182559
 10
0.2060611404291113
 20
0.1292852122870685
 10
0.2070323376574166
 20
0.1269468823270009
 10
0.2083646478588126
 20
0.1249926269071626
 10
0.2092630757868612
 20
0.1235950746456216
 10
0.2087944076694464
 20
0.1231418553398153
 10
0.2079110782771956
 20
0.1233336585620149
 10
0.2071430894771187
 20
0.1240554059229949
 10
0.206309879024726
 20
0.1251150564510977
 10
0.2058606645923302
 20
0.1258138333104442
 10
0.205499782509617
 20
0.1264934282329713
  0
LWPOLYLINE
  5
C83
330
2
100
AcDbEntity
  8
Profilo
  6
Continuous
370
     0
100
AcDbPolyline
 90
       10
 70
   128
 43
0.0
 10
0.2092976312475987
 20
0.1235413217948982
 10
0.2100656223508537
 20
0.1228195759145347
 10
0.2111986170627938
 20
0.1227123049778461
 10
0.2122432794250528
 20
0.1226242159779756
 10
0.2127657267345882
 20
0.1231120076783031
 10
0.2124817368445389
 20
0.1241448977062724
 10
0.2127584090402845
 20
0.1247785531296146
 10
0.2127931958210933
 20
0.1257884741365669
 10
0.2124822013581646
 20
0.1262722425073215
 10
0.2120675414497661
 20
0.1269172679730955
  0
LWPOLYLINE
  5
C84
330
2
100
AcDbEntity
  8
Profilo
  6
Continuous
370
     0
100
AcDbPolyline
 90
       15
 70
   128
 43
0.0
 10
0.206919549079964
 20
0.1381173389654446
 10
0.206404190447838
 20
0.134899329436747
 10
0.2067341750189003
 20
0.1334402109729441
 10
0.2071488339905585
 20
0.1327951869643216
 10
0.2076289445681685
 20
0.1328759307084835
 10
0.2078978336192432
 20
0.1330487882392384
 10
0.2080513857477571
 20
0.132691706049598
 10
0.2077516014882097
 20
0.1317393264581838
 10
0.207697590039275
 20
0.1306410816631385
 10
0.2081774683600722
 20
0.1296581530067755
 10
0.2087880171289123
 20
0.1290630933075273
 10
0.2096637942668675
 20
0.1294741616554973
 10
0.2101210231640067
 20
0.1302998565464138
 10
0.2099368071470913
 20
0.1309410905330707
 10
0.208569942421698
 20
0.132949097346481
  0
LWPOLYLINE
  5
C85
330
2
100
AcDbEntity
  8
Profilo
  6
Continuous
370
     0
100
AcDbPolyline
 90
       10
 70
   128
 43
0.0
 10
0.2084154612659313
 20
0.1290514899340232
 10
0.2091910032570443
 20
0.1277268695457221
 10
0.2098168828184974
 20
0.1269897332076569
 10
0.2107002108443119
 20
0.1267979270476893
 10
0.2117833202396433
 20
0.1268864841433891
 10
0.2123556528657874
 20
0.1271784478113276
 10
0.213000989352178
 20
0.1275933076618803
 10
0.2129128869561327
 20
0.1286761605186073
 10
0.2124291179997423
 20
0.1294286887715252
 10
0.2120643466478699
 20
0.1298778862283758
  0
LWPOLYLINE
  5
C86
330
2
100
AcDbEntity
  8
Profilo
  6
Continuous
370
     0
100
AcDbPolyline
 90
        4
 70
   128
 43
0.0
 10
0.2102631347058086
 20
0.1303152470041156
 10
0.2112654593994006
 20
0.1298201115052315
 10
0.2121526780608083
 20
0.1298587057487084
 10
0.2131513443756188
 20
0.1301968422469042
  0
LWPOLYLINE
  5
C87
330
2
100
AcDbEntity
  8
Profilo
  6
Continuous
370
     0
100
AcDbPolyline
 90
        5
 70
   128
 43
0.0
 10
0.2138564354579486
 20
0.140449724996061
 10
0.2151386271491825
 20
0.1376276266652383
 10
0.2151573873036814
 20
0.1355886056522823
 10
0.215091704377657
 20
0.1337991640418222
 10
0.2146072395875684
 20
0.1313606736360158
  0
LWPOLYLINE
  5
C88
330
2
100
AcDbEntity
  8
Profilo
  6
Continuous
370
     0
100
AcDbPolyline
 90
       46
 70
   129
 43
0.0
 10
0.2075900523820284
 20
0.1407584308515279
 10
0.2064493091517789
 20
0.1381182281980569
 10
0.2058553192222245
 20
0.1360402646356248
 10
0.2050385844381056
 20
0.1331954301447056
 10
0.2036443783067376
 20
0.1272283530151554
 10
0.2026323146409711
 20
0.1229291581396433
 10
0.201999775876633
 20
0.1185035141652109
 10
0.2019365217263953
 20
0.1157216824926342
 10
0.2023160466278213
 20
0.1137617543725734
 10
0.2026955687912087
 20
0.113319189455448
 10
0.2033913617057857
 20
0.1135720841887408
 10
0.2038341380194121
 20
0.1142043192896989
 10
0.2042136629208381
 20
0.1140778719230522
 10
0.2041504087706004
 20
0.1131295192716153
 10
0.2033913617057857
 20
0.1119914964363453
 10
0.202189538327346
 20
0.1113592613353872
 10
0.2007346983479543
 20
0.1112328157010153
 10
0.1996593832699887
 20
0.1114224858848474
 10
0.1996593832699887
 20
0.1123076139868246
 10
0.1998491429826643
 20
0.1128766262705967
 10
0.1991533500680873
 20
0.1119282736191593
 10
0.1986473196042233
 20
0.1118650508019734
 10
0.1975720045262588
 20
0.1120547209858054
 10
0.1966864491609688
 20
0.112813401721136
 10
0.1963701811478178
 20
0.1136353070059267
 10
0.1964334352980555
 20
0.1152158947583222
 10
0.1968762116116818
 20
0.1159113526764663
 10
0.1971924796248316
 20
0.1162274702269456
 10
0.1973822420755447
 20
0.1157216824926342
 10
0.197318987925307
 20
0.1144572122907175
 10
0.1975720045262588
 20
0.114014647373592
 10
0.198014780839884
 20
0.114014647373592
 10
0.1985840654539856
 20
0.1146468824745501
 10
0.1992798583685626
 20
0.1154687877593408
 10
0.1998491429826643
 20
0.1161642456774849
 10
0.200291922034328
 20
0.1171758211461082
 10
0.2003551761845657
 20
0.1187564088985037
 10
0.2011142205113417
 20
0.1223601458558712
 10
0.20181001342592
 20
0.1253948722617413
 10
0.2028853312419217
 20
0.130832091704797
 10
0.2037076324569753
 20
0.1359531935973739
 10
0.2038973921696497
 20
0.1404420603889928
 10
0.2040239004701251
 20
0.1420226464091136
 10
0.2046564392344644
 20
0.1418961990424675
 10
0.206427547227007
 20
0.1412639639415094
 10
0.2075661191932477
 20
0.1410110709404908
  0
LWPOLYLINE
  5
C89
330
2
100
AcDbEntity
  8
Profilo
  6
Continuous
370
     0
100
AcDbPolyline
 90
       25
 70
   128
 43
0.0
 10
0.2086295484489385
 20
0.1230778219249106
 10
0.2091880643602053
 20
0.1221706679544922
 10
0.2091880643602053
 20
0.1213681866620603
 10
0.2088389919156637
 20
0.1209843908847502
 10
0.2083851977377584
 20
0.1210192823548367
 10
0.2083502904933046
 20
0.1206703763153402
 10
0.2090833426268427
 20
0.1197981138150083
 10
0.2094324150713842
 20
0.1185420555373663
 10
0.2094324150713842
 20
0.1171813263140132
 10
0.2089786208934801
 20
0.1161346116600701
 10
0.2083502904933046
 20
0.1160299389820836
 10
0.2072681631771875
 20
0.1163788450215807
 10
0.2063954820658331
 20
0.1169022032146896
 10
0.2060813168657454
 20
0.1176349032992227
 10
0.2058718733990201
 20
0.1171464365762003
 10
0.2054180764830775
 20
0.1166928595909913
 10
0.2048944678162657
 20
0.1166579681209042
 10
0.2043359519049979
 20
0.1173906699377115
 10
0.2039868794604562
 20
0.1182629324380428
 10
0.2037425287492773
 20
0.1195189907156847
 10
0.2037774359937323
 20
0.1204610344239155
 10
0.2037774359937323
 20
0.1214030763998726
 10
0.2035679925270071
 20
0.1218915448551686
 10
0.2030443811221556
 20
0.1218915448551686
 10
0.2025556796997977
 20
0.1218915448551686
  0
LWPOLYLINE
  5
C8A
330
2
100
AcDbEntity
  8
Profilo
  6
Continuous
370
     0
100
AcDbPolyline
 90
        5
 70
   128
 43
0.0
 10
0.2050340967940821
 20
0.1276135865801807
 10
0.2061162241102004
 20
0.1230429304548241
 10
0.2067794617548284
 20
0.1214030763998726
 10
0.208140844288542
 20
0.1196934428692959
 10
0.2086644556933923
 20
0.1191003034682882
  0
LWPOLYLINE
  5
C8B
330
2
100
AcDbEntity
  8
Profilo
  6
Continuous
370
     0
100
AcDbPolyline
 90
        6
 70
   128
 43
0.0
 10
0.2047897460829031
 20
0.130125703135464
 10
0.2043359519049979
 20
0.1271251198571588
 10
0.2041963229271815
 20
0.1238105220094436
 10
0.2046850243495406
 20
0.1211239533005491
 10
0.20552279821644
 20
0.119239865884087
 10
0.2063256675769243
 20
0.1178093554528339
  0
LWPOLYLINE
  5
C8C
330
2
100
AcDbEntity
  8
Profilo
  6
Continuous
370
     0
100
AcDbPolyline
 90
       16
 70
   128
 43
0.0
 10
0.2533859458318493
 20
0.1602554998798044
 10
0.2512702015807318
 20
0.1583478687488449
 10
0.2488937734706683
 20
0.1570136061942583
 10
0.2457368798901218
 20
0.1557916560772808
 10
0.2437266574963992
 20
0.1550916804294193
 10
0.2428532634589022
 20
0.1547502156748289
 10
0.2424886476936194
 20
0.1525081490649219
 10
0.2421098471867005
 20
0.1511199847334356
 10
0.2415818138022866
 20
0.1488876941615532
 10
0.2409100472221013
 20
0.1469921011708242
 10
0.2408171201552822
 20
0.1465383231124868
 10
0.2428628004272089
 20
0.145103532713317
 10
0.2450057481767953
 20
0.1431051553843562
 10
0.2468754187770525
 20
0.1409262683408715
 10
0.2480941692294014
 20
0.1393769034018851
 10
0.2486887806974221
 20
0.138357031610253
  0
LWPOLYLINE
  5
C8D
330
2
100
AcDbEntity
  8
Profilo
  6
Continuous
370
     0
100
AcDbPolyline
 90
       15
 70
   128
 43
0.0
 10
0.2534481806354046
 20
0.1580207009993443
 10
0.2514253648201242
 20
0.1565668502979325
 10
0.2494954774406809
 20
0.1555667800260676
 10
0.2467020376164986
 20
0.1543887029668991
 10
0.2446382613720779
 20
0.1538887929858946
 10
0.2443649813535368
 20
0.153708281766296
 10
0.2440200500116099
 20
0.1517931366995182
 10
0.2434384600384606
 20
0.1497609070520725
 10
0.2428765558576865
 20
0.148055601318966
 10
0.242573748322839
 20
0.1473847114550904
 10
0.2445560304132723
 20
0.1459865240130711
 10
0.2461213035276242
 20
0.1447445268088914
 10
0.2479740372950954
 20
0.1428291314322571
 10
0.2491561678603205
 20
0.141216338988204
 10
0.2497338439957476
 20
0.1404599579972866
  0
LWPOLYLINE
  5
C8E
330
2
100
AcDbEntity
  8
Profilo
  6
Continuous
370
     0
100
AcDbPolyline
 90
       22
 70
   128
 43
0.0
 10
0.2272481714559689
 20
0.1531653616940691
 10
0.2309229852957746
 20
0.1525728745940017
 10
0.23261912581714
 20
0.1518858548908295
 10
0.2335765479440491
 20
0.1519315964516441
 10
0.2337652224229837
 20
0.1506605185393828
 10
0.2348503009488342
 20
0.150712358980483
 10
0.2356739631254356
 20
0.150879719531091
 10
0.2363213979170725
 20
0.1507186356359438
 10
0.2374034237367582
 20
0.1508343363382102
 10
0.2379384566167861
 20
0.1503478600483684
 10
0.2380572018096718
 20
0.1492014534249624
 10
0.2373764489197054
 20
0.1487208954226488
 10
0.2366743395906792
 20
0.1486873516224076
 10
0.2362852685727894
 20
0.1487967729342951
 10
0.2366379686555208
 20
0.1481095727210306
 10
0.2368782685569451
 20
0.1470969801957384
 10
0.2362674445610402
 20
0.1464917591093251
 10
0.2349969841229923
 20
0.1463030524363819
 10
0.2341397602655608
 20
0.1468381391757542
 10
0.2337840093376281
 20
0.1475891969979331
 10
0.2332914493444858
 20
0.1485257315014862
 10
0.232850754503745
 20
0.1483766702439889
  0
LWPOLYLINE
  5
C8F
330
2
100
AcDbEntity
  8
Profilo
  6
Continuous
370
     0
100
AcDbPolyline
 90
       13
 70
   128
 43
0.0
 10
0.2265646091810123
 20
0.1514045802353163
 10
0.22918766272396
 20
0.1514018918566914
 10
0.2306831685760985
 20
0.1508972995187503
 10
0.2321514545597077
 20
0.1496233499001864
 10
0.2327747219276557
 20
0.1486290539330875
 10
0.2327536072101317
 20
0.1477319815999695
 10
0.2323617269379146
 20
0.1465611767204996
 10
0.2310335408559503
 20
0.1462417054309182
 10
0.2289180602026033
 20
0.1463326495918544
 10
0.2274195052355641
 20
0.1469010996213762
 10
0.2265256705824019
 20
0.1482024913423102
 10
0.2258901995723239
 20
0.1494522232149026
 10
0.2258840977512584
 20
0.149579941167649
  0
LWPOLYLINE
  5
C90
330
2
100
AcDbEntity
  8
Profilo
  6
Continuous
370
     0
100
AcDbPolyline
 90
       11
 70
   129
 43
0.0
 10
0.2321061742794583
 20
0.1478930628428654
 10
0.2308476757620058
 20
0.1487930067996192
 10
0.2304949756792745
 20
0.1494802070128837
 10
0.2296863246688297
 20
0.1503376366654732
 10
0.2287927316065415
 20
0.1502949445861355
 10
0.2277745329905134
 20
0.1501822960175976
 10
0.2275497292979587
 20
0.1495315084932915
 10
0.2278447037367735
 20
0.1487135436633887
 10
0.228519596657873
 20
0.1479777303483414
 10
0.2294800678996829
 20
0.1479596142175746
 10
0.2303614573198409
 20
0.1482577422024059
  0
LWPOLYLINE
  5
C91
330
2
100
AcDbEntity
  8
Profilo
  6
Continuous
370
     0
100
AcDbPolyline
 90
        7
 70
   128
 43
0.0
 10
0.2276292943013598
 20
0.1465270967771511
 10
0.2289424674868645
 20
0.1458217777808681
 10
0.2304956971219572
 20
0.1454479527118171
 10
0.2319545920477021
 20
0.1457096680903558
 10
0.2323708796041815
 20
0.1463696011588393
 10
0.2338297729302875
 20
0.1466313137197924
 10
0.2341458620866264
 20
0.1467104212230072
  0
LWPOLYLINE
  5
C92
330
2
100
AcDbEntity
  8
Profilo
  6
Continuous
370
     0
100
AcDbPolyline
 90
        5
 70
   128
 43
0.0
 10
0.2254649992101509
 20
0.1476397818251412
 10
0.2267662103443986
 20
0.14584581493408
 10
0.228152363399829
 20
0.1449519725098647
 10
0.2299153839616808
 20
0.1442041419443367
 10
0.2305050913790982
 20
0.1439122933498844
  0
LWPOLYLINE
  5
C93
330
2
100
AcDbEntity
  8
Profilo
  6
Continuous
370
     0
100
AcDbPolyline
 90
       11
 70
   128
 43
0.0
 10
0.2287000813734346
 20
0.1415218926313207
 10
0.2333872318687764
 20
0.1398256881696001
 10
0.2358978836307781
 20
0.1394976046613631
 10
0.2382564735705396
 20
0.1396742914315745
 10
0.2399160032961754
 20
0.1397535767099634
 10
0.240074168669782
 20
0.1391210885614354
 10
0.2394663975107036
 20
0.1384520044789371
 10
0.2384573515609425
 20
0.1381477803487384
 10
0.2371230620582747
 20
0.1379560241943184
 10
0.2362932963303059
 20
0.1379163815137905
 10
0.2355243088217579
 20
0.1379436459236534
  0
LWPOLYLINE
  5
C94
330
2
100
AcDbEntity
  8
Profilo
  6
Continuous
370
     0
100
AcDbPolyline
 90
       10
 70
   128
 43
0.0
 10
0.2399798323607964
 20
0.1397566261914396
 10
0.2409888781798948
 20
0.1400608530565575
 10
0.2416482748921247
 20
0.1409884197911068
 10
0.2422468933849361
 20
0.1418490794352653
 10
0.2420856770354653
 20
0.1425454279276258
 10
0.2410491730869033
 20
0.1428159304824093
 10
0.2406387474909171
 20
0.1433723633441173
 10
0.2397815236334845
 20
0.1439074500834903
 10
0.2392070707033996
 20
0.1438800051635346
 10
0.2384411323097511
 20
0.1438434118818173
  0
LWPOLYLINE
  5
C95
330
2
100
AcDbEntity
  8
Profilo
  6
Continuous
370
     0
100
AcDbPolyline
 90
       15
 70
   128
 43
0.0
 10
0.2261675901212877
 20
0.1449851552072551
 10
0.2286967888066963
 20
0.1429298367754251
 10
0.2301254147490124
 20
0.1424860525649211
 10
0.230891351412359
 20
0.1425226457639728
 10
0.2310614805675233
 20
0.14297880559289
 10
0.2310462260801907
 20
0.1432980991072968
 10
0.2314322443919157
 20
0.143252538056575
 10
0.2321071371823535
 20
0.1425167274764457
 10
0.2330312393499696
 20
0.1419208297920502
 10
0.2341224196968856
 20
0.1418449522804039
 10
0.2349430308976228
 20
0.142076173174845
 10
0.2350249238345665
 20
0.1430401525983532
 10
0.2345384655318281
 20
0.1438489718840779
 10
0.2338910326011547
 20
0.1440100531269733
 10
0.2314686153270729
 20
0.143830316957952
  0
LWPOLYLINE
  5
C96
330
2
100
AcDbEntity
  8
Profilo
  6
Continuous
370
     0
100
AcDbPolyline
 90
       10
 70
   128
 43
0.0
 10
0.2347668017823565
 20
0.1417477286464224
 10
0.2363017276845529
 20
0.1417570575182782
 10
0.2372530462600958
 20
0.1419305169491723
 10
0.2378608192801377
 20
0.1425995983794188
 10
0.2383256812832428
 20
0.143581877178704
 10
0.2383589996428981
 20
0.1442235136063285
 10
0.2383223887165045
 20
0.1449898213228077
 10
0.2373405594359946
 20
0.1454549488380619
 10
0.2364469663737065
 20
0.1454122567587242
 10
0.2358755642888231
 20
0.1453209542298552
  0
LWPOLYLINE
  5
C97
330
2
100
AcDbEntity
  8
Profilo
  6
Continuous
370
     0
100
AcDbPolyline
 90
        4
 70
   128
 43
0.0
 10
0.2345961927753835
 20
0.1439797393183006
 10
0.2355261550425283
 20
0.1446002102163491
 10
0.2359363407779421
 20
0.145387861237579
 10
0.236142839137963
 20
0.1464217998852064
  0
LWPOLYLINE
  5
C98
330
2
100
AcDbEntity
  8
Profilo
  6
Continuous
370
     0
100
AcDbPolyline
 90
        5
 70
   128
 43
0.0
 10
0.2276161277563334
 20
0.1521588680490637
 10
0.2307012324484212
 20
0.1518582294607822
 10
0.2324764565217402
 20
0.1508549657246789
 10
0.2339933169519762
 20
0.1499033618369172
 10
0.2358628791952443
 20
0.148264557818558
  0
LWPOLYLINE
  5
C99
330
2
100
AcDbEntity
  8
Profilo
  6
Continuous
370
     0
100
AcDbPolyline
 90
       46
 70
   129
 43
0.0
 10
0.2242155891052431
 20
0.1468863740432061
 10
0.2259317000591624
 20
0.1445783600998791
 10
0.2274342743275899
 20
0.1430249679500766
 10
0.2294896058742293
 20
0.1408952376334161
 10
0.2339601431890763
 20
0.1367042811407632
 10
0.237177323334207
 20
0.1336782108582076
 10
0.2406937740620011
 20
0.1309175942321954
 10
0.2430712838843867
 20
0.1294718986949062
 10
0.2449583938766626
 20
0.1288206128408794
 10
0.2455314274194116
 20
0.1289280062171104
 10
0.2456603106131846
 20
0.1296570279235536
 10
0.2453341671114041
 20
0.1303566010098269
 10
0.2456334361938748
 20
0.1306220555325078
 10
0.2464231066066477
 20
0.1300930995057883
 10
0.2470291397596705
 20
0.1288667340473559
 10
0.2469757597290443
 20
0.127509806920285
 10
0.2463578448709118
 20
0.1261866557225049
 10
0.24565592813439
 20
0.1253502406398307
 10
0.2448893847124745
 20
0.1257928046908193
 10
0.2444914854760007
 20
0.126241647564497
 10
0.2449648865066033
 20
0.1251648968989815
 10
0.2447666238404527
 20
0.1246950502535935
 10
0.2440647071039308
 20
0.1238586351709199
 10
0.2429648926311275
 20
0.1234710620957859
 10
0.2420949677684186
 20
0.1236081186043887
 10
0.2407577656970533
 20
0.1244531921815863
 10
0.2403768696294897
 20
0.1251843766764531
 10
0.2402612378067689
 20
0.1256163315854857
 10
0.2407941440589619
 20
0.1255277768213312
 10
0.241857580301031
 20
0.1248407620193727
 10
0.2423673610625603
 20
0.1248385983648129
 10
0.2425887492193735
 20
0.1252220539006068
 10
0.2423258598678306
 20
0.1260311863888816
 10
0.2419619654689857
 20
0.1270447133710738
 10
0.2416443235516597
 20
0.1278854572679411
 10
0.2409896630238191
 20
0.1287747029092578
 10
0.2396524609524526
 20
0.129619776486456
 10
0.236911055362204
 20
0.1320789966347265
 10
0.2346308016584745
 20
0.1341989341774584
 10
0.2304596904028386
 20
0.1378487964447868
 10
0.2264358366760248
 20
0.1411214811328733
 10
0.2226432438566151
 20
0.1435302512604744
 10
0.2213376703605618
 20
0.1444301036725364
 10
0.2217634463744897
 20
0.144914674628009
 10
0.2231965320293542
 20
0.1461323815919168
 10
0.2239848297757956
 20
0.1469919673382093
  0
LWPOLYLINE
  5
C9A
330
2
100
AcDbEntity
  8
Profilo
  6
Continuous
370
     0
100
AcDbPolyline
 90
       25
 70
   128
 43
0.0
 10
0.240047193623526
 20
0.1389462995809751
 10
0.2411120699626856
 20
0.1389764115633405
 10
0.2418070391479941
 20
0.1385751709171245
 10
0.2419648798187381
 20
0.1380809674237355
 10
0.2417077658303151
 20
0.1377054158726238
 10
0.2419924737018265
 20
0.1375007322924019
 10
0.243114401252652
 20
0.1376994428121781
 10
0.2443767158519941
 20
0.137373719278092
 10
0.2455551419270894
 20
0.1366933546664151
 10
0.2462347263189658
 20
0.1357770000532892
 10
0.2460112103170964
 20
0.1351805136257736
 10
0.245167985165299
 20
0.1344178168996361
 10
0.244278403119111
 20
0.1339237319843544
 10
0.2434867836325065
 20
0.1340180069823606
 10
0.2438050864901851
 20
0.1335923902580085
 10
0.2439709972239765
 20
0.1329726021080385
 10
0.2437394097900416
 20
0.1325016979658943
 10
0.2428256134476534
 20
0.1323843599067225
 10
0.2418956757413266
 20
0.1325181855521541
 10
0.2406857220086659
 20
0.1329346007676613
 10
0.23988734184809
 20
0.1334358531822499
 10
0.2390715095654805
 20
0.1339068741702285
 10
0.238543761740883
 20
0.1339697250350362
 10
0.2382819560384584
 20
0.1335162642567238
 10
0.2380376053272795
 20
0.1330930364100962
  0
LWPOLYLINE
  5
C9B
330
2
100
AcDbEntity
  8
Profilo
  6
Continuous
370
     0
100
AcDbPolyline
 90
        5
 70
   128
 43
0.0
 10
0.2343213803790457
 20
0.1381004294374262
 10
0.2388207483536272
 20
0.1367522511206342
 10
0.2405725224460285
 20
0.1365067047421538
 10
0.2427337997815258
 20
0.136830879835329
 10
0.2435092792732096
 20
0.1369877709131372
  0
LWPOLYLINE
  5
C9C
330
2
100
AcDbEntity
  8
Profilo
  6
Continuous
370
     0
100
AcDbPolyline
 90
        6
 70
   128
 43
0.0
 10
0.2320236482693142
 20
0.1391448737917535
 10
0.2343953325255441
 20
0.1372515848664464
 10
0.2371960439760864
 20
0.1354733637006948
 10
0.2397670314381817
 20
0.1345533071928758
 10
0.2418175859372387
 20
0.1343367969360068
 10
0.2434578789913241
 20
0.13431684698248
  0
LWPOLYLINE
  5
C9D
330
2
100
AcDbEntity
  8
Profilo
  6
Continuous
370
     0
100
AcDbPolyline
 90
       16
 70
   128
 43
0.0
 10
0.2302285787523269
 20
0.1962953156738944
 10
0.2308227636472289
 20
0.1935092118390357
 10
0.2307900548597873
 20
0.1907840334481604
 10
0.230269847912974
 20
0.1874391083518738
 10
0.2298709334091917
 20
0.1853482168677236
 10
0.2297299535424149
 20
0.1844211030664422
 10
0.2314893323009302
 20
0.1829843032461327
 10
0.2325021176231653
 20
0.1819621702184311
 10
0.2341713212748371
 20
0.1803887346075416
 10
0.2354770696699511
 20
0.1788591711883231
 10
0.2358235894627422
 20
0.1785518049585903
 10
0.2380889945334925
 20
0.1796060208425143
 10
0.2408911139415117
 20
0.1804626793681584
 10
0.2437129207732767
 20
0.1809924180829482
 10
0.2456640853963456
 20
0.1812732044660632
 10
0.2468446260105127
 20
0.1812782172069345
  0
LWPOLYLINE
  5
C9E
330
2
100
AcDbEntity
  8
Profilo
  6
Continuous
370
     0
100
AcDbPolyline
 90
       15
 70
   128
 43
0.0
 10
0.2321950887569315
 20
0.1952318131545424
 10
0.2324427524900241
 20
0.1927530779206266
 10
0.2323438950613076
 20
0.1905817112876538
 10
0.2319674198100721
 20
0.1875734829063842
 10
0.2313684664310168
 20
0.1855362452604876
 10
0.2313881537235869
 20
0.185209322212285
 10
0.2328742523323855
 20
0.1839530303742258
 10
0.2343434198468218
 20
0.1824332438591688
 10
0.2355393058425244
 20
0.1810939676975729
 10
0.2359689097403586
 20
0.180496283747999
 10
0.2381709166296169
 20
0.1815138966747724
 10
0.2400291543170413
 20
0.1822484643535719
 10
0.2426143022552338
 20
0.1828952811743338
 10
0.2446020867654278
 20
0.1831126400523821
 10
0.245545969986215
 20
0.1832347317653634
  0
LWPOLYLINE
  5
C9F
330
2
100
AcDbEntity
  8
Profilo
  6
Continuous
370
     0
100
AcDbPolyline
 90
       22
 70
   128
 43
0.0
 10
0.2218697912335834
 20
0.1714777153046143
 10
0.2246405717843261
 20
0.1739632882487462
 10
0.2256958164463102
 20
0.1754583960857
 10
0.2265259140698532
 20
0.1759376531721059
 10
0.2259972770759866
 20
0.1771088833146295
 10
0.2269380544826813
 20
0.177652041403632
 10
0.2277214026374825
 20
0.1779566634701901
 10
0.2281789031468264
 20
0.1784422693954491
 10
0.229151645645139
 20
0.1789300588571525
 10
0.2293386375193311
 20
0.1796285954719938
 10
0.2288185945676085
 20
0.1806571400239634
 10
0.2279860944747476
 20
0.1806932521572542
 10
0.2273773564175094
 20
0.1803417970760409
 10
0.2271092488826565
 20
0.1800393609171374
 10
0.2270343232946292
 20
0.1808081441360809
 10
0.2266888905716418
 20
0.1817898589107441
 10
0.2258478005436946
 20
0.1819686495209573
 10
0.2246770723977651
 20
0.1814403735122418
 10
0.2242453470385813
 20
0.1805267194340261
 10
0.2243522378494021
 20
0.1797025708251312
 10
0.2244443459144669
 20
0.1786484226725738
 10
0.2239930369779467
 20
0.1785355003764579
  0
LWPOLYLINE
  5
CA0
330
2
100
AcDbEntity
  8
Profilo
  6
Continuous
370
     0
100
AcDbPolyline
 90
       13
 70
   128
 43
0.0
 10
0.2203426365912442
 20
0.1725892041383912
 10
0.22254763794979
 20
0.1740099033061822
 10
0.2235327622247329
 20
0.1752430623973808
 10
0.2240789534701868
 20
0.1771086685947586
 10
0.2240655585964633
 20
0.1782820855110737
 10
0.2235626981217772
 20
0.1790252651294299
 10
0.2225999346684269
 20
0.1797982080422238
 10
0.2213099369354339
 20
0.1793487127451817
 10
0.2195796198011131
 20
0.1781282489604786
 10
0.2186264622491572
 20
0.1768397253454653
 10
0.2185783264085768
 20
0.1752616747317769
 10
0.2187195849115089
 20
0.1738667915132338
 10
0.2187835167261127
 20
0.1737560583621201
  0
LWPOLYLINE
  5
CA1
330
2
100
AcDbEntity
  8
Profilo
  6
Continuous
370
     0
100
AcDbPolyline
 90
       11
 70
   129
 43
0.0
 10
0.2231051977436067
 20
0.1785396624415185
 10
0.2225332284787786
 20
0.1771021059021713
 10
0.2226081540668071
 20
0.1763333226832284
 10
0.2223915967011021
 20
0.1751747869810629
 10
0.2216168397192331
 20
0.1747274808290241
 10
0.2206994377314189
 20
0.1742716390643401
 10
0.2201584190920963
 20
0.1746975028147155
 10
0.2199642239170043
 20
0.1755450667453323
 10
0.220134031945142
 20
0.1765289706649977
 10
0.2209321628456978
 20
0.1770635922752182
 10
0.2218347834567755
 20
0.1772894321250296
  0
LWPOLYLINE
  5
CA2
330
2
100
AcDbEntity
  8
Profilo
  6
Continuous
370
     0
100
AcDbPolyline
 90
        7
 70
   128
 43
0.0
 10
0.218600687098996
 20
0.1772677734984219
 10
0.2193238925426991
 20
0.1785711815649329
 10
0.2204282862735312
 20
0.1797255567071106
 10
0.2217970014360967
 20
0.1802943168916275
 10
0.2225040376310308
 20
0.179964306583289
 10
0.2238727499243833
 20
0.1805330682728787
 10
0.2241814152239776
 20
0.1806374525851399
  0
LWPOLYLINE
  5
CA3
330
2
100
AcDbEntity
  8
Profilo
  6
Continuous
370
     0
100
AcDbPolyline
 90
        5
 70
   128
 43
0.0
 10
0.2173818231124862
 20
0.1751614468760186
 10
0.217506271044107
 20
0.1773741331019517
 10
0.2181889199609124
 20
0.1788755874065473
 10
0.2192675386727588
 20
0.1804580139390298
 10
0.2196057680948453
 20
0.1810223997098253
  0
LWPOLYLINE
  5
CA4
330
2
100
AcDbEntity
  8
Profilo
  6
Continuous
370
     0
100
AcDbPolyline
 90
        4
 70
   128
 43
0.0
 10
0.2192081408797826
 20
0.1881012001148013
 10
0.2215252085244922
 20
0.1909892191163766
 10
0.2236748693725397
 20
0.1923779705871482
 10
0.2267798672395191
 20
0.1940496640621637
  0
LWPOLYLINE
  5
CA5
330
2
100
AcDbEntity
  8
Profilo
  6
Continuous
370
     0
100
AcDbPolyline
 90
       11
 70
   128
 43
0.0
 10
0.2183364758991289
 20
0.1840403247219199
 10
0.2198202961348011
 20
0.1860185035339914
 10
0.2217547874891761
 20
0.1876521357625749
 10
0.2238343264499889
 20
0.1887789376214552
 10
0.2252731606305762
 20
0.1896096489229362
 10
0.2250641827097285
 20
0.1902272133098907
 10
0.2241911262211442
 20
0.1904613749186143
 10
0.2231778271959339
 20
0.1901716316949955
 10
0.2219517584083317
 20
0.1896114047519136
 10
0.2212323405679406
 20
0.1891960486681037
 10
0.2206002285920157
 20
0.1887572781287094
  0
LWPOLYLINE
  5
CA6
330
2
100
AcDbEntity
  8
Profilo
  6
Continuous
370
     0
100
AcDbPolyline
 90
       15
 70
   128
 43
0.0
 10
0.2175533921562263
 20
0.1808709661579659
 10
0.2175533921562263
 20
0.1808709661579659
 10
0.2185151410122886
 20
0.1820168089248467
 10
0.2191792182110058
 20
0.1824002140742889
 10
0.219568999302434
 20
0.1821085011679593
 10
0.2197288281544338
 20
0.1818316694757804
 10
0.2200289007809044
 20
0.1820787370073848
 10
0.2201987101780602
 20
0.1830626385558394
 10
0.2206538080869116
 20
0.1840636104634475
 10
0.2215306536790026
 20
0.1847175017035636
 10
0.2223459684256142
 20
0.1849667560089601
 10
0.2229361347647654
 20
0.1842001619350194
 10
0.2229643123842457
 20
0.1832567445623655
 10
0.2225068120060763
 20
0.1827711418744547
 10
0.2203719339037834
 20
0.1816123899473454
  0
LWPOLYLINE
  5
CA7
330
2
100
AcDbEntity
  8
Profilo
  6
Continuous
370
     0
100
AcDbPolyline
 90
       10
 70
   128
 43
0.0
 10
0.2220201192799642
 20
0.1851477390015236
 10
0.2233163099548012
 20
0.1859699155564969
 10
0.2242103378927542
 20
0.1863384386256523
 10
0.2250833945125141
 20
0.1861042802542769
 10
0.2260056015701402
 20
0.1855293868169157
 10
0.2263805984156187
 20
0.1850076735007869
 10
0.2267641893032402
 20
0.1843432745941051
 10
0.2261898175690942
 20
0.1834210872744546
 10
0.225415060587224
 20
0.1829737811224152
 10
0.2248850370903455
 20
0.1827415924337506
  0
LWPOLYLINE
  5
CA8
330
2
100
AcDbEntity
  8
Profilo
  6
Continuous
370
     0
100
AcDbPolyline
 90
        4
 70
   128
 43
0.0
 10
0.2230835848405222
 20
0.1831779623456194
 10
0.2242013734450788
 20
0.1831589205714809
 10
0.2249723414546167
 20
0.1827181771120287
 10
0.2257051541687312
 20
0.1819601162795223
  0
LWPOLYLINE
  5
CA9
330
2
100
AcDbEntity
  8
Profilo
  6
Continuous
370
     0
100
AcDbPolyline
 90
        5
 70
   128
 43
0.0
 10
0.2216350382937501
 20
0.1725233310818735
 10
0.2240675879222114
 20
0.1744445173890731
 10
0.2250183443738685
 20
0.1762484078525728
 10
0.225779706482014
 20
0.1778691309209279
 10
0.2264661445023262
 20
0.1802586380743627
  0
LWPOLYLINE
  5
CAA
330
2
100
AcDbEntity
  8
Profilo
  6
Continuous
370
     0
100
AcDbPolyline
 90
       22
 70
   128
 43
0.0
 10
0.2232999313495748
 20
0.1701142699731275
 10
0.2256504471495511
 20
0.1730005085625449
 10
0.2270934939260816
 20
0.1741258994908498
 10
0.2275325916358627
 20
0.1749779221553056
 10
0.228727714637537
 20
0.1745057800909777
 10
0.229225358761526
 20
0.1754714058800156
 10
0.2294922513614091
 20
0.1762683985243929
 10
0.2299554715025647
 20
0.1767485515536707
 10
0.2303962846650098
 20
0.1777434637522023
 10
0.2310851019303648
 20
0.1779635776732449
 10
0.2321372917857438
 20
0.1774932107151585
 10
0.2322130907787567
 20
0.1766633824175916
 10
0.2318910858973915
 20
0.1760385660022993
 10
0.2316017887526366
 20
0.1757563312728743
 10
0.2323732716361762
 20
0.1757181783978053
 10
0.2333703524374731
 20
0.1754199879543195
 10
0.2335890772752608
 20
0.1745883883134174
 10
0.2331172718288705
 20
0.1733937839630937
 10
0.232225261190629
 20
0.1729189496955143
 10
0.2313969505729443
 20
0.1729863892655932
 10
0.2303396079047767
 20
0.1730280870504211
 10
0.2302483513201174
 20
0.1725719034942738
  0
LWPOLYLINE
  5
CAB
330
2
100
AcDbEntity
  8
Profilo
  6
Continuous
370
     0
100
AcDbPolyline
 90
       13
 70
   128
 43
0.0
 10
0.2244830316858899
 20
0.1686418969485708
 10
0.2257968866615473
 20
0.1709121837629379
 10
0.2269816293708283
 20
0.1719550336534271
 10
0.2288190450954511
 20
0.1725896318059719
 10
0.2299917643458127
 20
0.1726322491964146
 10
0.2307580944165638
 20
0.172165427148086
 10
0.231576101048951
 20
0.1712406464373697
 10
0.2311886782605264
 20
0.1699306679046449
 10
0.2300521779801556
 20
0.1681440799980997
 10
0.2288106083302885
 20
0.1671305183424375
 10
0.2272366527131038
 20
0.1670071306864831
 10
0.2258366176584801
 20
0.1670816625846829
 10
0.2257229597563501
 20
0.1671402372290042
  0
LWPOLYLINE
  5
CAC
330
2
100
AcDbEntity
  8
Profilo
  6
Continuous
370
     0
100
AcDbPolyline
 90
       11
 70
   129
 43
0.0
 10
0.2302948775028058
 20
0.1716852744043244
 10
0.2288862539155497
 20
0.1710453546959632
 10
0.22811477103201
 20
0.1710835075710322
 10
0.226967889665687
 20
0.1708119100794865
 10
0.2265580655597894
 20
0.1700166897472303
 10
0.22614652277383
 20
0.1690785795953833
 10
0.2265977194560673
 20
0.1685585001246133
 10
0.2274535849975727
 20
0.1684049730671421
 10
0.2284282644813965
 20
0.1686215408241254
 10
0.2289241891317637
 20
0.1694442752537537
 10
0.2291066974333991
 20
0.1703566448746525
  0
LWPOLYLINE
  5
CAD
330
2
100
AcDbEntity
  8
Profilo
  6
Continuous
370
     0
100
AcDbPolyline
 90
        7
 70
   128
 43
0.0
 10
0.2292393988273732
 20
0.1671251995807398
 10
0.2305068095886789
 20
0.1679097814208152
 10
0.2316071664125943
 20
0.1690680052081904
 10
0.232109961709091
 20
0.1704623029646068
 10
0.2317465866852271
 20
0.1711527850980391
 10
0.2322493836220048
 20
0.1725470800603356
 10
0.2323389190927601
 20
0.172860375051193
  0
LWPOLYLINE
  5
CAE
330
2
100
AcDbEntity
  8
Profilo
  6
Continuous
370
     0
100
AcDbPolyline
 90
        5
 70
   128
 43
0.0
 10
0.2271936377637971
 20
0.1658072075744627
 10
0.2293978642321287
 20
0.1660371060268784
 10
0.2308650310061951
 20
0.1667906285743066
 10
0.232394181554594
 20
0.1679435338854997
 10
0.2329417835601575
 20
0.1683083111925575
  0
LWPOLYLINE
  5
CAF
330
2
100
AcDbEntity
  8
Profilo
  6
Continuous
370
     0
100
AcDbPolyline
 90
       11
 70
   128
 43
0.0
 10
0.2341094263048262
 20
0.165549926314286
 10
0.2379219577063598
 20
0.1687610154837528
 10
0.2394614122400563
 20
0.1707712619355839
 10
0.2404876919784229
 20
0.172902204125633
 10
0.241248793776009
 20
0.1743790416655634
 10
0.2418756272670302
 20
0.1741997728228418
 10
0.2421511855002028
 20
0.1733388855181434
 10
0.2419101283505185
 20
0.1723129140269647
 10
0.2414090493002435
 20
0.1710615073444418
 10
0.2410284980046704
 20
0.1703230878045674
 10
0.2406203925788356
 20
0.1696707572919037
  0
LWPOLYLINE
  5
CB0
330
2
100
AcDbEntity
  8
Profilo
  6
Continuous
370
     0
100
AcDbPolyline
 90
       10
 70
   128
 43
0.0
 10
0.2412780673798924
 20
0.174435843997763
 10
0.2415191220957358
 20
0.1754618167432439
 10
0.2410455240960267
 20
0.1764966544144824
 10
0.2405994802265781
 20
0.1774454030585108
 10
0.2399158165675719
 20
0.1776539598505444
 10
0.2391633025090591
 20
0.1768915723773585
 10
0.2384762047173272
 20
0.1768143498157244
 10
0.2375841940790858
 20
0.1763395155481444
 10
0.2373207356119297
 20
0.1758283022574348
 10
0.2369694571266809
 20
0.1751466835099429
  0
LWPOLYLINE
  5
CB1
330
2
100
AcDbEntity
  8
Profilo
  6
Continuous
370
     0
100
AcDbPolyline
 90
       15
 70
   128
 43
0.0
 10
0.2298439073080184
 20
0.1650883558430316
 10
0.2328884646255542
 20
0.1662510469398992
 10
0.2339871059968068
 20
0.1672663811931987
 10
0.2343383836884953
 20
0.1679479984008728
 10
0.2340284022660495
 20
0.1683234144856276
 10
0.2337442587276435
 20
0.1684698504692794
 10
0.2339767249108533
 20
0.1687813716081981
 10
0.2349514019608373
 20
0.168997940619483
 10
0.235929515577388
 20
0.1695002877301335
 10
0.2365408176035082
 20
0.1704073388748501
 10
0.2367508800354052
 20
0.1712336194685389
 10
0.2359569958343937
 20
0.171786530544077
 10
0.2350133086345162
 20
0.1717696549388858
 10
0.2345500917207595
 20
0.1712895021951243
 10
0.2334945391720696
 20
0.1691017592126921
  0
LWPOLYLINE
  5
CB2
330
2
100
AcDbEntity
  8
Profilo
  6
Continuous
370
     0
100
AcDbPolyline
 90
       10
 70
   128
 43
0.0
 10
0.2369472067831198
 20
0.1709167783136209
 10
0.2377065906942033
 20
0.1722507275737771
 10
0.2380320297082932
 20
0.1731613233427365
 10
0.2377564747025206
 20
0.1740222109329506
 10
0.2371382273102931
 20
0.1749159326365366
 10
0.2365992130438042
 20
0.1752656053962221
 10
0.23591726563102
 20
0.1756170532621492
 10
0.2350235387465567
 20
0.1749993279206763
 10
0.2346137146406602
 20
0.1742041075884201
 10
0.234407083907648
 20
0.1736636076027005
  0
LWPOLYLINE
  5
CB3
330
2
100
AcDbEntity
  8
Profilo
  6
Continuous
370
     0
100
AcDbPolyline
 90
        4
 70
   128
 43
0.0
 10
0.2349289243362685
 20
0.1718850319154067
 10
0.2348565619098224
 20
0.1730006383123392
 10
0.2343795289838273
 20
0.1737496950900923
 10
0.2335873610290378
 20
0.1744454972395239
  0
LWPOLYLINE
  5
CB4
330
2
100
AcDbEntity
  8
Profilo
  6
Continuous
370
     0
100
AcDbPolyline
 90
        5
 70
   128
 43
0.0
 10
0.2243555585650807
 20
0.1699296826542244
 10
0.2261584715659334
 20
0.1724511423967657
 10
0.2279149354847535
 20
0.1734868996736183
 10
0.2294974788410139
 20
0.1743247373963167
 10
0.2318515058743706
 20
0.1751244237837638
  0
LWPOLYLINE
  5
CB5
330
2
100
AcDbEntity
  8
Profilo
  6
Continuous
370
     0
100
AcDbPolyline
 90
       46
 70
   129
 43
0.0
 10
0.2272214029899082
 20
0.1643484827928993
 10
0.2300782571740783
 20
0.1646806715030433
 10
0.23217482137206
 20
0.165205242915673
 10
0.2350468877028184
 20
0.1659203470899322
 10
0.2409116311490345
 20
0.1676964677268296
 10
0.2451408749599295
 20
0.1689695923197854
 10
0.249289864452064
 20
0.1706346196682056
 10
0.2517306284246861
 20
0.1719707558034937
 10
0.2532382135155373
 20
0.1732793980695272
 10
0.2534317248948975
 20
0.1738293563628836
 10
0.2528648151740935
 20
0.174305483336034
 10
0.2520958953586867
 20
0.1743728213213491
 10
0.2520156395397315
 20
0.1747647232106767
 10
0.2528685641027408
 20
0.1751841198353946
 10
0.2542336443205795
 20
0.1750957772122317
 10
0.2553820876683931
 20
0.1743710851861195
 10
0.2562190127896535
 20
0.1731743796227107
 10
0.256592411131096
 20
0.1721482943562045
 10
0.2558258677091807
 20
0.1717057303052158
 10
0.2552382087600311
 20
0.1715855608951214
 10
0.2564074027052095
 20
0.1714571628810439
 10
0.2567151705029241
 20
0.1710505390528418
 10
0.2570885688443667
 20
0.1700244537863355
 10
0.2568743097368547
 20
0.1688781999758716
 10
0.2563206528872955
 20
0.1681933511996831
 10
0.2549201966656925
 20
0.1674578370244858
 10
0.2540965242845037
 20
0.167493563601208
 10
0.2536646244486308
 20
0.1676094009597613
 10
0.2540077682501108
 20
0.1680266339299188
 10
0.2551344586424176
 20
0.1686040893298763
 10
0.2553912228029962
 20
0.1690444905924425
 10
0.2551698346461842
 20
0.1694279461282359
 10
0.2543376606805385
 20
0.1696048435155527
 10
0.2532779733671167
 20
0.1697964652129541
 10
0.2523910468356902
 20
0.1699417511916773
 10
0.2512936072561859
 20
0.1698194213643706
 10
0.2498931510345816
 20
0.1690839071891734
 10
0.2463927011175571
 20
0.1679393903800765
 10
0.2434166544992493
 20
0.1670246015169389
 10
0.2381702254276103
 20
0.1652372443412109
 10
0.2333240704857442
 20
0.1633888271367211
 10
0.2293417179536601
 20
0.1613087304727027
 10
0.2279096361571314
 20
0.1606279968646439
 10
0.2277028734067189
 20
0.1612390151867633
 10
0.2273648510690418
 20
0.1630889572516291
 10
0.2270145768492437
 20
0.1642014359989396
  0
LWPOLYLINE
  5
CB6
330
2
100
AcDbEntity
  8
Profilo
  6
Continuous
370
     0
100
AcDbPolyline
 90
       25
 70
   128
 43
0.0
 10
0.2420135114412822
 20
0.1740890172572857
 10
0.242519871869175
 20
0.17502628321007
 10
0.2432148410544835
 20
0.175427523856286
 10
0.2437217541697692
 20
0.175317116140207
 10
0.2439184343592515
 20
0.1749066731190081
 10
0.2442380494752166
 20
0.1750508955782834
 10
0.2446269248925041
 20
0.1761218685983915
 10
0.2455401670473046
 20
0.1770522033419468
 10
0.2467185931223998
 20
0.1777325679536231
 10
0.2478519716921804
 20
0.1778629279944408
 10
0.2482567860904865
 20
0.1773711142449117
 10
0.2484956882548062
 20
0.1762595114792766
 10
0.2484787873199725
 20
0.1752420683708865
 10
0.2480013330334559
 20
0.174603643284359
 10
0.2485290793578596
 20
0.1746664932830293
 10
0.2491487870075938
 20
0.1745002821182689
 10
0.2494408082404705
 20
0.1740642694462112
 10
0.2490855278093502
 20
0.1732142295702321
 10
0.2485046625475651
 20
0.1724757927153325
 10
0.2475390595260833
 20
0.1716361496531976
 10
0.2467057721210525
 20
0.1711953583595555
 10
0.2458899398384429
 20
0.170724337371577
 10
0.2455716354805718
 20
0.1702987197810887
 10
0.2458334411829963
 20
0.1698452590027763
 10
0.2460777918941766
 20
0.1694220311561486
  0
LWPOLYLINE
  5
CB7
330
2
100
AcDbEntity
  8
Profilo
  6
Continuous
370
     0
100
AcDbPolyline
 90
        5
 70
   128
 43
0.0
 10
0.2398831498516583
 20
0.1687073824584667
 10
0.2433003905101216
 20
0.1719298602670319
 10
0.2443889269578948
 20
0.1733241679435023
 10
0.2451888217596783
 20
0.1753579765672548
 10
0.245440689846512
 20
0.1761080070460707
  0
LWPOLYLINE
  5
CB8
330
2
100
AcDbEntity
  8
Profilo
  6
Continuous
370
     0
100
AcDbPolyline
 90
        6
 70
   128
 43
0.0
 10
0.2378297684531057
 20
0.1672397102575111
 10
0.2406552468872409
 20
0.1683470046105087
 10
0.2435955873155997
 20
0.1698833812924723
 10
0.2456778733553358
 20
0.1716498934935485
 10
0.2468906539874922
 20
0.1733174706531415
 10
0.2477280776810945
 20
0.1747280311308673
  0
ARC
  5
CB9
330
2
100
AcDbEntity
  8
Profilo
  6
Continuous
370
     0
100
AcDbCircle
 10
0.2105958662666947
 20
0.1582205396012211
 30
0.0
 40
0.0452048968133937
100
AcDbArc
 50
141.8320880304662
 51
191.7951861975185
  0
ARC
  5
CBA
330
2
100
AcDbEntity
  8
Profilo
  6
Continuous
370
     0
100
AcDbCircle
 10
0.2105958662666947
 20
0.1582205396012211
 30
0.0
 40
0.0430375223354808
100
AcDbArc
 50
138.4030981939945
 51
195.746586495755
  0
ARC
  5
CBB
330
2
100
AcDbEntity
  8
Profilo
  6
Continuous
370
     0
100
AcDbCircle
 10
0.2105958662666947
 20
0.1582205396012211
 30
0.0
 40
0.0452048968133937
100
AcDbArc
 50
201.8320880304623
 51
251.7951861975121
  0
ARC
  5
CBC
330
2
100
AcDbEntity
  8
Profilo
  6
Continuous
370
     0
100
AcDbCircle
 10
0.2105958662666947
 20
0.1582205396012211
 30
0.0
 40
0.0430375223354808
100
AcDbArc
 50
198.4030981939953
 51
255.7465864957658
  0
ARC
  5
CBD
330
2
100
AcDbEntity
  8
Profilo
  6
Continuous
370
     0
100
AcDbCircle
 10
0.2105958662666947
 20
0.1582205396012211
 30
0.0
 40
0.0452048968133937
100
AcDbArc
 50
261.8320880304738
 51
311.7951861975291
  0
ARC
  5
CBE
330
2
100
AcDbEntity
  8
Profilo
  6
Continuous
370
     0
100
AcDbCircle
 10
0.2105958662666947
 20
0.1582205396012211
 30
0.0
 40
0.0430375223354808
100
AcDbArc
 50
258.4030981939907
 51
315.7465864957574
  0
ARC
  5
CBF
330
2
100
AcDbEntity
  8
Profilo
  6
Continuous
370
     0
100
AcDbCircle
 10
0.2105958662666947
 20
0.1582205396012211
 30
0.0
 40
0.0452048968133937
100
AcDbArc
 50
321.8320880304498
 51
11.79518619751849
  0
ARC
  5
CC0
330
2
100
AcDbEntity
  8
Profilo
  6
Continuous
370
     0
100
AcDbCircle
 10
0.2105958662666947
 20
0.1582205396012211
 30
0.0
 40
0.0430375223354808
100
AcDbArc
 50
318.4030981939945
 51
15.74658649575497
  0
ARC
  5
CC1
330
2
100
AcDbEntity
  8
Profilo
  6
Continuous
370
     0
100
AcDbCircle
 10
0.2105958662666947
 20
0.1582205396012211
 30
0.0
 40
0.0452048968133937
100
AcDbArc
 50
21.83208803046227
 51
71.79518619751212
  0
ARC
  5
CC2
330
2
100
AcDbEntity
  8
Profilo
  6
Continuous
370
     0
100
AcDbCircle
 10
0.2105958662666947
 20
0.1582205396012211
 30
0.0
 40
0.0430375223354808
100
AcDbArc
 50
18.40309819399529
 51
75.74658649576583
  0
ELLIPSE
  5
CC3
330
2
100
AcDbEntity
  8
Profilo
  6
Continuous
370
     0
100
AcDbEllipse
 10
0.2147184217418829
 20
0.2063713809291614
 30
0.0
 11
-0.0031477468731137
 21
0.0000898920470403
 31
0.0
210
0.0
220
0.0
230
1.0
 40
0.5719086857754161
 41
0.0
 42
6.283185307179585
  0
LWPOLYLINE
  5
CC4
330
2
100
AcDbEntity
  8
Profilo
  6
Continuous
370
     0
100
AcDbPolyline
 90
        5
 70
   128
 43
0.0
 10
0.2062644725275717
 20
0.2087085836797175
 10
0.2070738940126127
 20
0.2073601969111529
 10
0.2092234070491028
 20
0.2074052724221815
 10
0.2099856466660424
 20
0.2083848250670522
 10
0.2105518811059875
 20
0.2091031645971703
  0
LWPOLYLINE
  5
CC5
330
2
100
AcDbEntity
  8
Profilo
  6
Continuous
370
     0
100
AcDbPolyline
 90
        5
 70
   128
 43
0.0
 10
0.2063544088565845
 20
0.2034049329831871
 10
0.2071638303416254
 20
0.2054724578603472
 10
0.2092016286961034
 20
0.2055332399029652
 10
0.2099518346367249
 20
0.204213964004961
 10
0.210311577214739
 20
0.2036746099904451
  0
ELLIPSE
  5
CC6
330
2
100
AcDbEntity
  8
Profilo
  6
Continuous
370
     0
100
AcDbEllipse
 10
0.2021155942971085
 20
0.2057976766688961
 30
0.0
 11
-0.0030637557731385
 21
-0.0007278677901096
 31
0.0
210
0.0
220
0.0
230
1.0
 40
0.5719086857754162
 41
0.0
 42
6.283185307179585
  0
LWPOLYLINE
  5
CC7
330
2
100
AcDbEntity
  8
Profilo
  6
Continuous
370
     0
100
AcDbPolyline
 90
        5
 70
   128
 43
0.0
 10
0.1933447938327586
 20
0.2058671981039386
 10
0.1944756231253812
 20
0.2047742501961995
 10
0.1965402268805505
 20
0.205374124707975
 10
0.1970229669321999
 20
0.2065175820356609
 10
0.1973839874502327
 20
0.2073579969968968
  0
LWPOLYLINE
  5
CC8
330
2
100
AcDbEntity
  8
Profilo
  6
Continuous
370
     0
100
AcDbPolyline
 90
        5
 70
   128
 43
0.0
 10
0.1948043514645074
 20
0.200767542157339
 10
0.1950510777668294
 20
0.2029741115285272
 10
0.1970037082759586
 20
0.2035602434974841
 10
0.1980698052971898
 20
0.2024800884207824
 10
0.1985568850351171
 20
0.2020522206791733
  0
ELLIPSE
  5
CC9
330
2
100
AcDbEntity
  8
Profilo
  6
Continuous
370
     0
100
AcDbEllipse
 10
0.1900906833727482
 20
0.2019816691424054
 30
0.0
 11
-0.0027709747803196
 21
-0.0014960246402218
 31
0.0
210
0.0
220
0.0
230
1.0
 40
0.5719086857754162
 41
0.0
 42
6.283185307179585
  0
LWPOLYLINE
  5
CCA
330
2
100
AcDbEntity
  8
Profilo
  6
Continuous
370
     0
100
AcDbPolyline
 90
        5
 70
   128
 43
0.0
 10
0.1816007472155736
 20
0.1997787714910259
 10
0.18297592016827
 20
0.1990157450378427
 10
0.1848149153081226
 20
0.2001295380937275
 10
0.1849852578577267
 20
0.2013589753769988
 10
0.1851164615021581
 20
0.2022641928785961
  0
LWPOLYLINE
  5
CCB
330
2
100
AcDbEntity
  8
Profilo
  6
Continuous
370
     0
100
AcDbPolyline
 90
        5
 70
   128
 43
0.0
 10
0.1843304597094868
 20
0.1952306434195379
 10
0.1839976768393209
 20
0.1974258832286359
 10
0.1857320709607807
 20
0.1984974211988757
 10
0.1870414063124303
 20
0.1977299977269144
 10
0.1876226295310712
 20
0.1974427747377168
  0
ELLIPSE
  5
CCC
330
2
100
AcDbEntity
  8
Profilo
  6
Continuous
370
     0
100
AcDbEllipse
 10
0.1794631667761936
 20
0.195183412956369
 30
0.0
 11
-0.0022893564354744
 21
-0.0021622298834005
 31
0.0
210
0.0
220
0.0
230
1.0
 40
0.5719086857754162
 41
0.9251819767258579
 42
6.55766144126155
  0
LWPOLYLINE
  5
CCD
330
2
100
AcDbEntity
  8
Profilo
  6
Continuous
370
     0
100
AcDbPolyline
 90
        5
 70
   128
 43
0.0
 10
0.1718326700450218
 20
0.1908582200530481
 10
0.1733584708936462
 20
0.1904771140462451
 10
0.1748465329384837
 20
0.1920289224901102
 10
0.1746928694227929
 20
0.1932605556098536
 10
0.1745853148820787
 20
0.1941688865750207
  0
ELLIPSE
  5
CCE
330
2
100
AcDbEntity
  8
Profilo
  6
Continuous
370
     0
100
AcDbEllipse
 10
0.1709572922006993
 20
0.185866198035215
 30
0.0
 11
-0.0016517222328919
 21
-0.0026810827332794
 31
0.0
210
0.0
220
0.0
230
1.0
 40
0.5719086857754162
 41
0.0
 42
6.283185307179585
  0
LWPOLYLINE
  5
CCF
330
2
100
AcDbEntity
  8
Profilo
  6
Continuous
370
     0
100
AcDbPolyline
 90
        5
 70
   128
 43
0.0
 10
0.1647062406377675
 20
0.1797134646285958
 10
0.1662786885759916
 20
0.1797402508127282
 10
0.167314408556597
 20
0.1816243214636093
 10
0.1668472108902641
 20
0.1827742166580848
 10
0.1665082278286125
 20
0.183623759832633
  0
LWPOLYLINE
  5
CD0
330
2
100
AcDbEntity
  8
Profilo
  6
Continuous
370
     0
100
AcDbPolyline
 90
        5
 70
   128
 43
0.0
 10
0.1693443050382678
 20
0.1771395264259792
 10
0.1679584867142113
 20
0.178874268432974
 10
0.1689247470984487
 20
0.1806694445970506
 10
0.1704423765110322
 20
0.1806595040506971
 10
0.1710893420782433
 20
0.1807013732548216
  0
ELLIPSE
  5
CD1
330
2
100
AcDbEntity
  8
Profilo
  6
Continuous
370
     0
100
AcDbEllipse
 10
0.16515272094196
 20
0.1746649771783955
 30
0.0
 11
-0.0009015258897379
 21
-0.0030172242255839
 31
0.0
210
0.0
220
0.0
230
1.0
 40
0.5719086857754161
 41
0.0
 42
6.283185307179585
  0
LWPOLYLINE
  5
CD2
330
2
100
AcDbEntity
  8
Profilo
  6
Continuous
370
     0
100
AcDbPolyline
 90
        5
 70
   128
 43
0.0
 10
0.160707113380931
 20
0.1671040018822656
 10
0.1622190486803584
 20
0.1675368548231516
 10
0.1627318439916625
 20
0.1696247913797647
 10
0.1619829509235681
 20
0.1706145851917597
 10
0.1614356404764337
 20
0.1713474456122814
  0
LWPOLYLINE
  5
CD3
330
2
100
AcDbEntity
  8
Profilo
  6
Continuous
370
     0
100
AcDbPolyline
 90
        5
 70
   128
 43
0.0
 10
0.1658533237971215
 20
0.1658181878963477
 10
0.1640657418176208
 20
0.1671351438275347
 10
0.1645344518970996
 20
0.1691192374371243
 10
0.1660029421441642
 20
0.1695024270020575
 10
0.1666170263468214
 20
0.1697103165579675
  0
ELLIPSE
  5
CD4
330
2
100
AcDbEntity
  8
Profilo
  6
Continuous
370
     0
100
AcDbEllipse
 10
0.1624450249387538
 20
0.16234309507641
 30
0.0
 11
-0.0000898920470403
 21
-0.0031477468731137
 31
0.0
210
0.0
220
0.0
230
1.0
 40
0.5719086857754161
 41
0.0
 42
6.283185307179585
  0
LWPOLYLINE
  5
CD5
330
2
100
AcDbEntity
  8
Profilo
  6
Continuous
370
     0
100
AcDbPolyline
 90
        5
 70
   128
 43
0.0
 10
0.1601078221881984
 20
0.1538891458620981
 10
0.1614562089567629
 20
0.1546985673471396
 10
0.1614111334457343
 20
0.1568480803836298
 10
0.1604315808008643
 20
0.1576103200005688
 10
0.1597132412707462
 20
0.1581765544405139
  0
LWPOLYLINE
  5
CD6
330
2
100
AcDbEntity
  8
Profilo
  6
Continuous
370
     0
100
AcDbPolyline
 90
        5
 70
   128
 43
0.0
 10
0.1654114728847287
 20
0.1539790821911109
 10
0.1633439480075687
 20
0.1547885036761519
 10
0.1632831659649506
 20
0.1568263020306303
 10
0.1646024418629548
 20
0.1575765079712519
 10
0.1651417958774708
 20
0.1579362505492654
  0
ELLIPSE
  5
CD7
330
2
100
AcDbEntity
  8
Profilo
  6
Continuous
370
     0
100
AcDbEllipse
 10
0.1630187291990204
 20
0.1497402676316348
 30
0.0
 11
0.0007278677901096
 21
-0.0030637557731385
 31
0.0
210
0.0
220
0.0
230
1.0
 40
0.5719086857754161
 41
0.9251819767259563
 42
6.557661441261427
  0
LWPOLYLINE
  5
CD8
330
2
100
AcDbEntity
  8
Profilo
  6
Continuous
370
     0
100
AcDbPolyline
 90
        5
 70
   128
 43
0.0
 10
0.1629492077639771
 20
0.1409694671672856
 10
0.1640421556717158
 20
0.1421002964599082
 10
0.1634422811599402
 20
0.144164900215078
 10
0.1622988238322556
 20
0.1446476402667269
 10
0.161458408871019
 20
0.1450086607847596
  0
ELLIPSE
  5
CD9
330
2
100
AcDbEntity
  8
Profilo
  6
Continuous
370
     0
100
AcDbEllipse
 10
0.1668347367255099
 20
0.1377153567072752
 30
0.0
 11
0.0014960246402218
 21
-0.0027709747803196
 31
0.0
210
0.0
220
0.0
230
1.0
 40
0.5719086857754161
 41
0.0
 42
6.283185307179585
  0
LWPOLYLINE
  5
CDA
330
2
100
AcDbEntity
  8
Profilo
  6
Continuous
370
     0
100
AcDbPolyline
 90
        5
 70
   128
 43
0.0
 10
0.1690376343768906
 20
0.1292254205501
 10
0.1698006608300725
 20
0.1306005935027964
 10
0.1686868677741888
 20
0.1324395886426489
 10
0.1674574304909164
 20
0.1326099311922537
 10
0.1665522129893198
 20
0.1327411348366845
  0
LWPOLYLINE
  5
CDB
330
2
100
AcDbEntity
  8
Profilo
  6
Continuous
370
     0
100
AcDbPolyline
 90
        5
 70
   128
 43
0.0
 10
0.173585762448378
 20
0.1319551330440132
 10
0.1713905226392806
 20
0.1316223501738473
 10
0.1703189846690402
 20
0.1333567442953071
 10
0.1710864081410019
 20
0.1346660796469572
 10
0.171373631130199
 20
0.1352473028655982
  0
ELLIPSE
  5
CDC
330
2
100
AcDbEntity
  8
Profilo
  6
Continuous
370
     0
100
AcDbEllipse
 10
0.1736329929115474
 20
0.1270878401107205
 30
0.0
 11
0.0021622298834005
 21
-0.0022893564354744
 31
0.0
210
0.0
220
0.0
230
1.0
 40
0.5719086857754162
 41
0.0
 42
6.283185307179585
  0
LWPOLYLINE
  5
CDD
330
2
100
AcDbEntity
  8
Profilo
  6
Continuous
370
     0
100
AcDbPolyline
 90
        5
 70
   128
 43
0.0
 10
0.1779581858148671
 20
0.1194573433795487
 10
0.1783392918216707
 20
0.1209831442281732
 10
0.1767874833778056
 20
0.1224712062730107
 10
0.1755558502580616
 20
0.1223175427573206
 10
0.1746475192928945
 20
0.1222099882166057
  0
LWPOLYLINE
  5
CDE
330
2
100
AcDbEntity
  8
Profilo
  6
Continuous
370
     0
100
AcDbPolyline
 90
        5
 70
   128
 43
0.0
 10
0.1816448385993088
 20
0.1232711853402298
 10
0.1796105303174862
 20
0.1223815719002286
 10
0.1781266098878345
 20
0.1237795335408613
 10
0.1785290031136691
 20
0.1252428781824962
 10
0.1786560075783991
 20
0.1258786354800153
  0
ELLIPSE
  5
CDF
330
2
100
AcDbEntity
  8
Profilo
  6
Continuous
370
     0
100
AcDbEllipse
 10
0.1829502078327003
 20
0.1185819655352257
 30
0.0
 11
0.0026810827332794
 21
-0.0016517222328919
 31
0.0
210
0.0
220
0.0
230
1.0
 40
0.5719086857754162
 41
0.0
 42
6.283185307179585
  0
LWPOLYLINE
  5
CE0
330
2
100
AcDbEntity
  8
Profilo
  6
Continuous
370
     0
100
AcDbPolyline
 90
        5
 70
   128
 43
0.0
 10
0.1891029412393206
 20
0.1123309139722939
 10
0.1890761550551876
 20
0.113903361910518
 10
0.1871920844043065
 20
0.114939081891124
 10
0.1860421892098311
 20
0.1144718842247911
 10
0.1851926460352828
 20
0.1141329011631389
  0
LWPOLYLINE
  5
CE1
330
2
100
AcDbEntity
  8
Profilo
  6
Continuous
370
     0
100
AcDbPolyline
 90
        5
 70
   128
 43
0.0
 10
0.1916768794419366
 20
0.1169689783727942
 10
0.1899421374349425
 20
0.1155831600487377
 10
0.1881469612708646
 20
0.1165494204329758
 10
0.1881569018172193
 20
0.1180670498455592
 10
0.1881150326130942
 20
0.1187140154127697
  0
ELLIPSE
  5
CE2
330
2
100
AcDbEntity
  8
Profilo
  6
Continuous
370
     0
100
AcDbEllipse
 10
0.1941514286895203
 20
0.1127773942764876
 30
0.0
 11
0.0030172242255839
 21
-0.0009015258897379
 31
0.0
210
0.0
220
0.0
230
1.0
 40
0.5719086857754165
 41
0.9251819767259515
 42
6.557661441261391
  0
LWPOLYLINE
  5
CE3
330
2
100
AcDbEntity
  8
Profilo
  6
Continuous
370
     0
100
AcDbPolyline
 90
        5
 70
   128
 43
0.0
 10
0.2017124039856502
 20
0.1083317867154586
 10
0.2012795510447642
 20
0.1098437220148848
 10
0.1991916144881511
 20
0.1103565173261895
 10
0.1982018206761561
 20
0.1096076242580945
 10
0.197468960255635
 20
0.10906031381096
  0
ELLIPSE
  5
CE4
330
2
100
AcDbEntity
  8
Profilo
  6
Continuous
370
     0
100
AcDbEllipse
 10
0.2064733107915064
 20
0.1100696982732814
 30
0.0
 11
0.0031477468731137
 21
-0.0000898920470403
 31
0.0
210
0.0
220
0.0
230
1.0
 40
0.5719086857754161
 41
0.0
 42
6.283185307179585
  0
LWPOLYLINE
  5
CE5
330
2
100
AcDbEntity
  8
Profilo
  6
Continuous
370
     0
100
AcDbPolyline
 90
        5
 70
   128
 43
0.0
 10
0.2149272600058177
 20
0.1077324955227254
 10
0.2141178385207768
 20
0.1090808822912893
 10
0.2119683254842866
 20
0.1090358067802613
 10
0.211206085867347
 20
0.1080562541353906
 10
0.2106398514274019
 20
0.1073379146052725
  0
LWPOLYLINE
  5
CE6
330
2
100
AcDbEntity
  8
Profilo
  6
Continuous
370
     0
100
AcDbPolyline
 90
        5
 70
   128
 43
0.0
 10
0.2148373236768049
 20
0.1130361462192557
 10
0.2140279021917639
 20
0.110968621342095
 10
0.2119901038372861
 20
0.1109078392994776
 10
0.2112398978966645
 20
0.1122271151974818
 10
0.2108801553186504
 20
0.1127664692119977
  0
ELLIPSE
  5
CE7
330
2
100
AcDbEntity
  8
Profilo
  6
Continuous
370
     0
100
AcDbEllipse
 10
0.219076138236281
 20
0.1106434025335467
 30
0.0
 11
0.0030637557731385
 21
0.0007278677901096
 31
0.0
210
0.0
220
0.0
230
1.0
 40
0.5719086857754162
 41
0.0
 42
6.283185307179585
  0
LWPOLYLINE
  5
CE8
330
2
100
AcDbEntity
  8
Profilo
  6
Continuous
370
     0
100
AcDbPolyline
 90
        5
 70
   128
 43
0.0
 10
0.2278469387006308
 20
0.1105738810985042
 10
0.226716109408007
 20
0.1116668290062433
 10
0.2246515056528378
 20
0.1110669544944678
 10
0.2241687656011895
 20
0.1099234971667819
 10
0.2238077450831568
 20
0.109083082205546
  0
LWPOLYLINE
  5
CE9
330
2
100
AcDbEntity
  8
Profilo
  6
Continuous
370
     0
100
AcDbPolyline
 90
        5
 70
   128
 43
0.0
 10
0.2263873810688821
 20
0.1156735370451038
 10
0.2261406547665601
 20
0.1134669676739155
 10
0.2241880242574297
 20
0.1128808357049587
 10
0.2231219272361997
 20
0.1139609907816598
 10
0.2226348474982711
 20
0.1143888585232695
  0
ELLIPSE
  5
CEA
330
2
100
AcDbEntity
  8
Profilo
  6
Continuous
370
     0
100
AcDbEllipse
 10
0.2311010491606412
 20
0.1144594100600375
 30
0.0
 11
0.0027709747803196
 21
0.0014960246402218
 31
0.0
210
0.0
220
0.0
230
1.0
 40
0.5719086857754162
 41
0.0
 42
6.283185307179585
  0
LWPOLYLINE
  5
CEB
330
2
100
AcDbEntity
  8
Profilo
  6
Continuous
370
     0
100
AcDbPolyline
 90
        5
 70
   128
 43
0.0
 10
0.2395909853178157
 20
0.116662307711417
 10
0.2382158123651195
 20
0.1174253341646001
 10
0.2363768172252669
 20
0.1163115411087153
 10
0.2362064746756627
 20
0.115082103825444
 10
0.2360752710312314
 20
0.1141768863238467
  0
LWPOLYLINE
  5
CEC
330
2
100
AcDbEntity
  8
Profilo
  6
Continuous
370
     0
100
AcDbPolyline
 90
        5
 70
   128
 43
0.0
 10
0.2368612728239026
 20
0.121210435782905
 10
0.2371940556940686
 20
0.119015195973807
 10
0.2354596615726088
 20
0.1179436580035671
 10
0.234150326220958
 20
0.1187110814755284
 10
0.2335691030023181
 20
0.1189983044647254
  0
ELLIPSE
  5
CED
330
2
100
AcDbEntity
  8
Profilo
  6
Continuous
370
     0
100
AcDbEllipse
 10
0.2417285657571947
 20
0.1212576662460739
 30
0.0
 11
0.0022893564354744
 21
0.0021622298834006
 31
0.0
210
0.0
220
0.0
230
1.0
 40
0.5719086857754162
 41
0.9251819767258448
 42
6.557661441261571
  0
LWPOLYLINE
  5
CEE
330
2
100
AcDbEntity
  8
Profilo
  6
Continuous
370
     0
100
AcDbPolyline
 90
        5
 70
   128
 43
0.0
 10
0.2493590624883677
 20
0.1255828591493947
 10
0.2478332616397433
 20
0.1259639651561977
 10
0.2463451995949045
 20
0.1244121567123326
 10
0.2464988631105953
 20
0.1231805235925893
 10
0.2466064176513095
 20
0.1222721926274221
  0
ELLIPSE
  5
CEF
330
2
100
AcDbEntity
  8
Profilo
  6
Continuous
370
     0
100
AcDbEllipse
 10
0.2502344403326902
 20
0.1305748811672273
 30
0.0
 11
0.0016517222328919
 21
0.0026810827332794
 31
0.0
210
0.0
220
0.0
230
1.0
 40
0.5719086857754161
 41
0.0
 42
6.283185307179585
  0
LWPOLYLINE
  5
CF0
330
2
100
AcDbEntity
  8
Profilo
  6
Continuous
370
     0
100
AcDbPolyline
 90
        5
 70
   128
 43
0.0
 10
0.2564854918956219
 20
0.136727614573847
 10
0.2549130439573979
 20
0.1367008283897146
 10
0.2538773239767924
 20
0.1348167577388335
 10
0.2543445216431241
 20
0.133666862544358
 10
0.2546835047047768
 20
0.1328173193698092
  0
LWPOLYLINE
  5
CF1
330
2
100
AcDbEntity
  8
Profilo
  6
Continuous
370
     0
100
AcDbPolyline
 90
        5
 70
   128
 43
0.0
 10
0.2518474274951217
 20
0.1393015527764636
 10
0.2532332458191782
 20
0.1375668107694689
 10
0.2522669854349395
 20
0.1357716346053917
 10
0.2507493560223573
 20
0.1357815751517457
 10
0.2501023904551461
 20
0.1357397059476212
  0
ELLIPSE
  5
CF2
330
2
100
AcDbEntity
  8
Profilo
  6
Continuous
370
     0
100
AcDbEllipse
 10
0.2560390115914283
 20
0.1417761020240473
 30
0.0
 11
0.0009015258897379
 21
0.0030172242255839
 31
0.0
210
0.0
220
0.0
230
1.0
 40
0.5719086857754165
 41
0.0
 42
6.283185307179585
  0
LWPOLYLINE
  5
CF3
330
2
100
AcDbEntity
  8
Profilo
  6
Continuous
370
     0
100
AcDbPolyline
 90
        5
 70
   128
 43
0.0
 10
0.2604846191524572
 20
0.1493370773201766
 10
0.2589726838530311
 20
0.1489042243792913
 10
0.2584598885417269
 20
0.1468162878226782
 10
0.2592087816098214
 20
0.1458264940106831
 10
0.2597560920569558
 20
0.1450936335901614
  0
LWPOLYLINE
  5
CF4
330
2
100
AcDbEntity
  8
Profilo
  6
Continuous
370
     0
100
AcDbPolyline
 90
        5
 70
   128
 43
0.0
 10
0.255338408736268
 20
0.1506228913060952
 10
0.2571259907157686
 20
0.1493059353749081
 10
0.2566572806362899
 20
0.1473218417653185
 10
0.2551887903892252
 20
0.1469386522003853
 10
0.2545747061865669
 20
0.1467307626444753
  0
ELLIPSE
  5
CF5
330
2
100
AcDbEntity
  8
Profilo
  6
Continuous
370
     0
100
AcDbEllipse
 10
0.2587467075946344
 20
0.1540979841260329
 30
0.0
 11
0.0000898920470403
 21
0.0031477468731137
 31
0.0
210
0.0
220
0.0
230
1.0
 40
0.5719086857754161
 41
0.0
 42
6.283185307179585
  0
LWPOLYLINE
  5
CF6
330
2
100
AcDbEntity
  8
Profilo
  6
Continuous
370
     0
100
AcDbPolyline
 90
        5
 70
   128
 43
0.0
 10
0.2610839103451898
 20
0.1625519333403441
 10
0.2597355235766265
 20
0.1617425118553032
 10
0.2597805990876552
 20
0.159592998818813
 10
0.2607601517325252
 20
0.158830759201874
 10
0.2614784912626433
 20
0.1582645247619289
  0
LWPOLYLINE
  5
CF7
330
2
100
AcDbEntity
  8
Profilo
  6
Continuous
370
     0
100
AcDbPolyline
 90
        5
 70
   128
 43
0.0
 10
0.2557802596486607
 20
0.1624619970113319
 10
0.2578477845258208
 20
0.1616525755262903
 10
0.2579085665684389
 20
0.1596147771718125
 10
0.2565892906704346
 20
0.1588645712311909
 10
0.2560499366559187
 20
0.1585048286531774
  0
ELLIPSE
  5
CF8
330
2
100
AcDbEntity
  8
Profilo
  6
Continuous
370
     0
100
AcDbEllipse
 10
0.2581730033343691
 20
0.166700811570808
 30
0.0
 11
-0.0007278677901096
 21
0.0030637557731385
 31
0.0
210
0.0
220
0.0
230
1.0
 40
0.5719086857754165
 41
0.9251819767259046
 42
6.55766144126138
  0
LWPOLYLINE
  5
CF9
330
2
100
AcDbEntity
  8
Profilo
  6
Continuous
370
     0
100
AcDbPolyline
 90
        5
 70
   128
 43
0.0
 10
0.2582425247694111
 20
0.1754716120351572
 10
0.2571495768616725
 20
0.1743407827425346
 10
0.257749451373448
 20
0.1722761789873648
 10
0.2588929087011339
 20
0.1717934389357159
 10
0.2597333236623704
 20
0.1714324184176832
  0
ELLIPSE
  5
CFA
330
2
100
AcDbEntity
  8
Profilo
  6
Continuous
370
     0
100
AcDbEllipse
 10
0.2543569958078784
 20
0.1787257224951676
 30
0.0
 11
-0.0014960246402218
 21
0.0027709747803196
 31
0.0
210
0.0
220
0.0
230
1.0
 40
0.5719086857754162
 41
0.0
 42
6.283185307179585
  0
LWPOLYLINE
  5
CFB
330
2
100
AcDbEntity
  8
Profilo
  6
Continuous
370
     0
100
AcDbPolyline
 90
        5
 70
   128
 43
0.0
 10
0.2521540981564989
 20
0.1872156586523428
 10
0.2513910717033157
 20
0.1858404856996464
 10
0.2525048647592005
 20
0.1840014905597939
 10
0.2537343020424718
 20
0.1838311480101891
 10
0.2546395195440697
 20
0.1836999443657578
  0
LWPOLYLINE
  5
CFC
330
2
100
AcDbEntity
  8
Profilo
  6
Continuous
370
     0
100
AcDbPolyline
 90
        5
 70
   128
 43
0.0
 10
0.2476059700850115
 20
0.1844859461584296
 10
0.2498012098941089
 20
0.1848187290285956
 10
0.2508727478643493
 20
0.1830843349071357
 10
0.2501053243923874
 20
0.1817749995554856
 10
0.2498181014031904
 20
0.1811937763368446
  0
ELLIPSE
  5
CFD
330
2
100
AcDbEntity
  8
Profilo
  6
Continuous
370
     0
100
AcDbEllipse
 10
0.2475587396218419
 20
0.1893532390917217
 30
0.0
 11
-0.0021622298834005
 21
0.0022893564354744
 31
0.0
210
0.0
220
0.0
230
1.0
 40
0.5719086857754165
 41
0.0
 42
6.283185307179585
  0
LWPOLYLINE
  5
CFE
330
2
100
AcDbEntity
  8
Profilo
  6
Continuous
370
     0
100
AcDbPolyline
 90
        5
 70
   128
 43
0.0
 10
0.2432335467185211
 20
0.1969837358228941
 10
0.2428524407117187
 20
0.1954579349742697
 10
0.2444042491555838
 20
0.1939698729294315
 10
0.2456358822753266
 20
0.1941235364451223
 10
0.2465442132404938
 20
0.1942310909858365
  0
LWPOLYLINE
  5
CFF
330
2
100
AcDbEntity
  8
Profilo
  6
Continuous
370
     0
100
AcDbPolyline
 90
        5
 70
   128
 43
0.0
 10
0.2395468939340806
 20
0.1931698938622124
 10
0.2415812022159033
 20
0.1940595073022143
 10
0.2430651226455549
 20
0.1926615456615809
 10
0.2426627294197191
 20
0.1911982010199466
 10
0.2425357249549904
 20
0.1905624437224269
  0
ELLIPSE
  5
D00
330
2
100
AcDbEntity
  8
Profilo
  6
Continuous
370
     0
100
AcDbEllipse
 10
0.2382415247006879
 20
0.1978591136672171
 30
0.0
 11
-0.0026810827332794
 21
0.0016517222328919
 31
0.0
210
0.0
220
0.0
230
1.0
 40
0.5719086857754162
 41
0.0
 42
6.283185307179585
  0
LWPOLYLINE
  5
D01
330
2
100
AcDbEntity
  8
Profilo
  6
Continuous
370
     0
100
AcDbPolyline
 90
        5
 70
   128
 43
0.0
 10
0.2320887912940688
 20
0.2041101652301489
 10
0.2321155774782018
 20
0.2025377172919248
 10
0.2339996481290829
 20
0.2015019973113188
 10
0.2351495433235584
 20
0.2019691949776512
 10
0.2359990864981066
 20
0.2023081780393038
  0
LWPOLYLINE
  5
D02
330
2
100
AcDbEntity
  8
Profilo
  6
Continuous
370
     0
100
AcDbPolyline
 90
        5
 70
   128
 43
0.0
 10
0.2295148530914517
 20
0.199472100829648
 10
0.231249595098447
 20
0.2008579191537051
 10
0.2330447712625236
 20
0.1998916587694665
 10
0.2330348307161701
 20
0.1983740293568836
 10
0.2330766999202952
 20
0.1977270637896731
  0
ELLIPSE
  5
D03
330
2
100
AcDbEntity
  8
Profilo
  6
Continuous
370
     0
100
AcDbEllipse
 10
0.2270403038438691
 20
0.2036636849259553
 30
0.0
 11
-0.0030172242255839
 21
0.0009015258897379
 31
0.0
210
0.0
220
0.0
230
1.0
 40
0.5719086857754162
 41
0.9251819767258682
 42
6.557661441261513
  0
LWPOLYLINE
  5
D04
330
2
100
AcDbEntity
  8
Profilo
  6
Continuous
370
     0
100
AcDbPolyline
 90
        5
 70
   128
 43
0.0
 10
0.2194793285477392
 20
0.2081092924869842
 10
0.2199121814886251
 20
0.206597357187558
 10
0.2220001180452382
 20
0.2060845618762539
 10
0.2229899118572334
 20
0.2068334549443484
 10
0.2237227722777544
 20
0.2073807653914828
  0
LWPOLYLINE
  5
D05
330
2
100
AcDbEntity
  8
Profilo
  6
Continuous
370
     0
100
AcDbPolyline
 90
       27
 70
   129
 43
0.0
 10
0.2124505898761033
 20
0.1530832325310633
 10
0.2113310472728689
 20
0.1527848309504271
 10
0.2105846855373781
 20
0.1527848309504271
 10
0.2101741879518771
 20
0.1525983290963926
 10
0.2097636876283389
 20
0.1518150275456347
 10
0.2094278262163876
 20
0.1508079230771249
 10
0.2091665982399462
 20
0.1496516178182976
 10
0.2092990289162758
 20
0.1485280629384526
 10
0.2102488241254268
 20
0.1484207138965854
 10
0.2115176390757594
 20
0.1484207138965854
 10
0.211811049949001
 20
0.1485280629384526
 10
0.2120400922906036
 20
0.1494278183650952
 10
0.2127491345702996
 20
0.1501738205844104
 10
0.2134208601322408
 20
0.1503230213747285
 10
0.2143164942148286
 20
0.1504349211013303
 10
0.2150255392325644
 20
0.1501738205844104
 10
0.2156972647945055
 20
0.1499873204626501
 10
0.2164809432477501
 20
0.1499873204626501
 10
0.2170407159183867
 20
0.1505468225602056
 10
0.2176751220245354
 20
0.1512555254480792
 10
0.2174885329596812
 20
0.1518150275456347
 10
0.2165182627035449
 20
0.1525983290963926
 10
0.2156972647945055
 20
0.1532697326528235
 10
0.2148016307119166
 20
0.1536800339600609
 10
0.2142418580412801
 20
0.1536427346286182
 10
0.2137567242822307
 20
0.1534189334431416
 10
0.2132715877851426
 20
0.1532697326528235
  0
LWPOLYLINE
  5
D06
330
2
100
AcDbEntity
  8
Profilo
  6
Continuous
370
     0
100
AcDbPolyline
 90
       27
 70
   129
 43
0.0
 10
0.215972266501198
 20
0.1572581238288889
 10
0.2156709185489399
 20
0.1561393707035503
 10
0.2152977376811951
 20
0.1554930024802037
 10
0.2152540042318911
 20
0.1550442502159506
 10
0.2157271131119019
 20
0.1542970957321252
 10
0.2164313604599203
 20
0.1535026789829695
 10
0.2173021362003749
 20
0.1526982962897787
 10
0.2183413786070301
 20
0.1522512071797977
 10
0.218909243208935
 20
0.1530200794383814
 10
0.219543650684102
 20
0.1541189054180715
 10
0.2195973891233933
 20
0.1544266812089792
 10
0.2189326992375294
 20
0.1550749154086693
 10
0.2186411635041701
 20
0.1560619651449019
 10
0.2188478146104604
 20
0.1567182969410728
 10
0.2191987236458424
 20
0.1575498886723908
 10
0.219779365835303
 20
0.1580333894117161
 10
0.2202767424595262
 20
0.1585218707518484
 10
0.2206685816861491
 20
0.1592005562007573
 10
0.2204639249915143
 20
0.1599650846026504
 10
0.2201673733399545
 20
0.1608688478508278
 10
0.2195895357775737
 20
0.1609870080293737
 10
0.2184260416077255
 20
0.1605383801144017
 10
0.2174340901171448
 20
0.1601630768469348
 10
0.2166309417205774
 20
0.1595925856325367
 10
0.2163833575538328
 20
0.1590891586137002
 10
0.2163346081863271
 20
0.1585571198613913
 10
0.2162212516124644
 20
0.1580623789354511
  0
LWPOLYLINE
  5
D07
330
2
100
AcDbEntity
  8
Profilo
  6
Continuous
370
     0
100
AcDbPolyline
 90
       27
 70
   129
 43
0.0
 10
0.2141175428917883
 20
0.1623954308990474
 10
0.2149357375427657
 20
0.1615750793543449
 10
0.2153089184105117
 20
0.1609287111309977
 10
0.2156756825467086
 20
0.160666460720779
 10
0.2165592917502579
 20
0.1607026077877122
 10
0.2175994005102275
 20
0.1609152955070657
 10
0.2187314042271222
 20
0.1612672180727028
 10
0.219638215957449
 20
0.1619436838425662
 10
0.2192562853502029
 20
0.1628199051430172
 10
0.218621877875036
 20
0.1639187311227078
 10
0.218382205441087
 20
0.1641191578717477
 10
0.2174884732136206
 20
0.1638676366447958
 10
0.2164878952005651
 20
0.1641086841617127
 10
0.2160228207449144
 20
0.164615815167566
 10
0.2154780956977072
 20
0.1653355071722816
 10
0.2153496928694333
 20
0.1660801084285268
 10
0.2151753439317166
 20
0.1667550898904194
 10
0.2147835047050937
 20
0.1674337753393283
 10
0.2140190753398212
 20
0.1676388016436665
 10
0.2130881175821138
 20
0.1678338620039696
 10
0.2126968690845861
 20
0.1673925200849606
 10
0.2125036451708754
 20
0.1661605906192301
 10
0.2123326915893338
 20
0.165113883795333
 10
0.2124251772753555
 20
0.1641330912736975
 10
0.2127373657792463
 20
0.1636669635863032
 10
0.2131737501707912
 20
0.1633587260194708
 10
0.2135455300940153
 20
0.1630131858838493
  0
LWPOLYLINE
  5
D08
330
2
100
AcDbEntity
  8
Profilo
  6
Continuous
370
     0
100
AcDbPolyline
 90
       27
 70
   129
 43
0.0
 10
0.208741142657286
 20
0.1633578466713796
 10
0.2098606852605205
 20
0.1636562482520158
 10
0.2106070469960113
 20
0.1636562482520158
 10
0.2110175445815111
 20
0.1638427501060502
 10
0.2114280449050506
 20
0.1646260516568081
 10
0.2117639063170019
 20
0.1656331561253179
 10
0.212025134293442
 20
0.1667894613841452
 10
0.2118927036171136
 20
0.1679130162639902
 10
0.2109429084079626
 20
0.1680203653058569
 10
0.2096740934576289
 20
0.1680203653058569
 10
0.2093806825843885
 20
0.1679130162639902
 10
0.2091516402427858
 20
0.1670132608373477
 10
0.2084425979630897
 20
0.1662672586180319
 10
0.2077708724011487
 20
0.1661180578277144
 10
0.2068752383185597
 20
0.1660061581011126
 10
0.206166193300825
 20
0.1662672586180319
 10
0.2054944677388839
 20
0.1664537587397921
 10
0.2047107892856381
 20
0.1664537587397921
 10
0.2041510166150016
 20
0.1658942566422372
 10
0.2035166105088539
 20
0.1651855537543636
 10
0.2037031995737071
 20
0.1646260516568081
 10
0.2046734698298446
 20
0.1638427501060502
 10
0.2054944677388839
 20
0.1631713465496193
 10
0.2063901018214729
 20
0.1627610452423819
 10
0.2069498744921093
 20
0.1627983445738246
 10
0.2074350082511588
 20
0.1630221457593012
 10
0.2079201447482468
 20
0.1631713465496193
  0
LWPOLYLINE
  5
D09
330
2
100
AcDbEntity
  8
Profilo
  6
Continuous
370
     0
100
AcDbPolyline
 90
       27
 70
   129
 43
0.0
 10
0.2052194660321913
 20
0.1591829553735539
 10
0.2055208139844495
 20
0.1603017084988925
 10
0.2058939948521943
 20
0.1609480767222391
 10
0.2059377283014971
 20
0.1613968289864923
 10
0.2054646194214863
 20
0.1621439834703176
 10
0.2047603720734692
 20
0.1629384002194733
 10
0.2038895963330145
 20
0.1637427829126635
 10
0.2028503539263582
 20
0.1641898720226452
 10
0.2022824893244544
 20
0.1634209997640614
 10
0.2016480818492875
 20
0.1623221737843707
 10
0.2015943434099961
 20
0.1620143979934637
 10
0.20225903329586
 20
0.1613661637937729
 10
0.2025505690292182
 20
0.1603791140575409
 10
0.2023439179229278
 20
0.15972278226137
 10
0.2019930088875471
 20
0.158891190530052
 10
0.2014123666980865
 20
0.1584076897907268
 10
0.2009149900738631
 20
0.1579192084505945
 10
0.2005231508472403
 20
0.1572405230016849
 10
0.200727807541875
 20
0.1564759945997918
 10
0.2010243591934349
 20
0.1555722313516151
 10
0.2016021967558157
 20
0.1554540711730692
 10
0.2027656909256639
 20
0.1559026990880412
 10
0.2037576424162447
 20
0.156278002355508
 10
0.2045607908128121
 20
0.1568484935699061
 10
0.2048083749795566
 20
0.1573519205887426
 10
0.2048571243470623
 20
0.1578839593410515
 10
0.204970480920925
 20
0.1583787002669918
  0
LWPOLYLINE
  5
D0A
330
2
100
AcDbEntity
  8
Profilo
  6
Continuous
370
     0
100
AcDbPolyline
 90
       27
 70
   129
 43
0.0
 10
0.2070741896416
 20
0.1540456483033954
 10
0.2062559949906225
 20
0.1548659998480979
 10
0.2058828141228777
 20
0.1555123680714451
 10
0.2055160499866808
 20
0.1557746184816638
 10
0.2046324407831316
 20
0.1557384714147306
 10
0.2035923320231607
 20
0.1555257836953771
 10
0.2024603283062671
 20
0.15517386112974
 10
0.2015535165759392
 20
0.1544973953598761
 10
0.2019354471831865
 20
0.1536211740594257
 10
0.2025698546583534
 20
0.152522348079735
 10
0.2028095270923025
 20
0.1523219213306952
 10
0.2037032593197688
 20
0.1525734425576464
 10
0.2047038373328232
 20
0.1523323950407302
 10
0.2051689117884738
 20
0.1518252640348768
 10
0.2057136368356822
 20
0.1511055720301612
 10
0.2058420396639562
 20
0.150360970773916
 10
0.2060163886016728
 20
0.1496859893120235
 10
0.2064082278282957
 20
0.1490073038631139
 10
0.2071726571935681
 20
0.1488022775587763
 10
0.2081036149512757
 20
0.1486072171984732
 10
0.2084948634488022
 20
0.1490485591174822
 10
0.2086880873625141
 20
0.1502804885832127
 10
0.2088590409440544
 20
0.1513271954071099
 10
0.208766555258034
 20
0.1523079879287453
 10
0.2084543667541419
 20
0.1527741156161396
 10
0.2080179823625983
 20
0.153082353182972
 10
0.2076462024393741
 20
0.1534278933185936
  0
LWPOLYLINE
  5
D0B
330
2
100
AcDbEntity
  8
Profilo
  6
Continuous
370
     0
100
AcDbPolyline
 90
        4
 70
   128
 43
0.0
 10
0.2067192578751751
 20
0.1559853256185595
 10
0.2078772096732646
 20
0.1589314202069834
 10
0.2091404280742482
 20
0.16114099158137
 10
0.2099299412861365
 20
0.1626140380094446
  0
LWPOLYLINE
  5
D0C
330
2
100
AcDbEntity
  8
Profilo
  6
Continuous
370
     0
100
AcDbPolyline
 90
        4
 70
   128
 43
0.0
 10
0.2085614535442215
 20
0.1541966241572592
 10
0.209614136001381
 20
0.1572479370900919
 10
0.2106141851570934
 20
0.1590892459913224
 10
0.2121405755413855
 20
0.1619301239676117
  0
LWPOLYLINE
  5
D0D
330
2
100
AcDbEntity
  8
Profilo
  6
Continuous
370
     0
100
AcDbPolyline
 90
        4
 70
   128
 43
0.0
 10
0.2109299904418489
 20
0.1536179267275603
 10
0.2125090141275869
 20
0.1560905422306942
 10
0.2137195992271235
 20
0.1586683760782362
 10
0.2143512097966346
 20
0.1601414225063113
  0
LWPOLYLINE
  5
D0E
330
2
100
AcDbEntity
  8
Profilo
  6
Continuous
370
     0
100
AcDbPolyline
 90
        5
 70
   128
 43
0.0
 10
0.2148249177237673
 20
0.1590892459913224
 10
0.2131932579985449
 20
0.1598257709376339
 10
0.2114036983689816
 20
0.1605096849794668
 10
0.2099299412861365
 20
0.160825338280419
 10
0.2081403789185359
 20
0.1614040357101172
  0
LWPOLYLINE
  5
D0F
330
2
100
AcDbEntity
  8
Profilo
  6
Continuous
370
     0
100
AcDbPolyline
 90
        5
 70
   128
 43
0.0
 10
0.2145091124390117
 20
0.1563535863594414
 10
0.2121932088428313
 20
0.1572479370900919
 10
0.2107194517599862
 20
0.1578266345197907
 10
0.2088246227894928
 20
0.158563157733828
 10
0.2070876964613764
 20
0.1592996826801394
  0
LWPOLYLINE
  5
D10
330
2
100
AcDbEntity
  8
Profilo
  6
Continuous
370
     0
100
AcDbPolyline
 90
        4
 70
   128
 43
0.0
 10
0.2128248194123424
 20
0.1542492333294636
 10
0.210508915816162
 20
0.1550909748879091
 10
0.2085614535442215
 20
0.1558801072741507
 10
0.2062455499480423
 20
0.1573005462622957
  0
LWPOLYLINE
  5
D11
330
2
100
AcDbEntity
  8
Profilo
  6
Continuous
370
     0
100
AcDbPolyline
 90
       19
 70
   128
 43
0.0
 10
0.2193982595940771
 20
0.1898709402067689
 10
0.2209007113135115
 20
0.1933314457912503
 10
0.2216845978576327
 20
0.1946372965629929
 10
0.2222071907124056
 20
0.1950290521409704
 10
0.222337838926099
 20
0.196334902912713
 10
0.2227951076740263
 20
0.1971837069537099
 10
0.2234483460044541
 20
0.1978366323395809
 10
0.2245588530828091
 20
0.1983589719553684
 10
0.2249507977238896
 20
0.1983589719553684
 10
0.2254733878406251
 20
0.1973795838765616
 10
0.2255387119474719
 20
0.1965960744528807
 10
0.2255387119474719
 20
0.1961390259898614
 10
0.2248201495101961
 20
0.1956166846417997
 10
0.2238402906455346
 20
0.1950943450260128
 10
0.2229257531496813
 20
0.1942455409850153
 10
0.2219458942850197
 20
0.1933314457912503
 10
0.221031359527205
 20
0.1920255950195084
 10
0.2195942319146162
 20
0.1894791846287914
 10
0.2192676113803824
 20
0.1886303823200687
  0
LWPOLYLINE
  5
D12
330
2
100
AcDbEntity
  8
Profilo
  6
Continuous
370
     0
100
AcDbPolyline
 90
       18
 70
   128
 43
0.0
 10
0.2256693601611641
 20
0.1972489998387516
 10
0.2268451913463672
 20
0.1975101696466457
 10
0.2279556984247209
 20
0.1974448767616033
 10
0.2285436153863405
 20
0.1971837069537099
 10
0.2286742636000341
 20
0.1958778561819679
 10
0.2285436153863405
 20
0.1946372965629929
 10
0.2276944047353725
 20
0.1934620315613344
 10
0.2265838949189801
 20
0.192874397328231
 10
0.2259959806953979
 20
0.192874397328231
 10
0.2266492190258269
 20
0.1926785204053793
 10
0.2266492190258269
 20
0.1918297180966566
 10
0.2262572771227849
 20
0.1909156211706174
 10
0.2261266289090914
 20
0.1901321117469371
 10
0.2276944047353725
 20
0.1904585744398723
 10
0.229066205503076
 20
0.1900668188618948
 10
0.230046067105776
 20
0.1892833077059397
 10
0.229327501930463
 20
0.1879121640491553
 10
0.2264775577432907
 20
0.1851954156564232
  0
LWPOLYLINE
  5
D13
330
2
100
AcDbEntity
  8
Profilo
  6
Continuous
370
     0
100
AcDbPolyline
 90
       22
 70
   128
 43
0.0
 10
0.2047517778085677
 20
0.1746126328746034
 10
0.2039845987713609
 20
0.1782549856919246
 10
0.2032174197341542
 20
0.1799164082948874
 10
0.2032174197341542
 20
0.1808749224676991
 10
0.2019387861801173
 20
0.1810027244728929
 10
0.2019387861801173
 20
0.1820890406508978
 10
0.2020666498093249
 20
0.1829197510862421
 10
0.2018748529964954
 20
0.1835587611122081
 10
0.2019387861801173
 20
0.1846450755579388
 10
0.2014273316632871
 20
0.1851562835787122
 10
0.2002765644764963
 20
0.1852201854474456
 10
0.1998290404052518
 20
0.1845172752850204
 10
0.1998290404052518
 20
0.1838143651225951
 10
0.1999569040344593
 20
0.1834309591070149
 10
0.1992536554428371
 20
0.1837504632538611
 10
0.1982307491472153
 20
0.1839421671277877
 10
0.197655366922838
 20
0.1833031571018217
 10
0.1975275032936304
 20
0.1820251387821638
 10
0.1981028882560451
 20
0.1811944266145453
 10
0.1988700672932518
 20
0.1808749224676991
 10
0.1998290404052518
 20
0.1804276163156603
 10
0.1997011795140816
 20
0.1799803101636214
  0
LWPOLYLINE
  5
D14
330
2
100
AcDbEntity
  8
Profilo
  6
Continuous
370
     0
100
AcDbPolyline
 90
       13
 70
   128
 43
0.0
 10
0.2030256229213236
 20
0.1738458225757189
 10
0.2028977620301546
 20
0.1764657593514939
 10
0.2023223770677399
 20
0.1779354815450784
 10
0.2009798103300799
 20
0.1793413001376553
 10
0.1999569040344593
 20
0.1799164082948874
 10
0.1990618613680439
 20
0.1798525081584282
 10
0.1979110914432157
 20
0.1794052020063893
 10
0.197655366922838
 20
0.1780632835502716
 10
0.19784716099763
 20
0.1759545530629953
 10
0.1984864764056292
 20
0.1744848326016849
 10
0.1998290404052518
 20
0.1736541204340659
 10
0.2011076739592875
 20
0.1730790122768338
 10
0.2012355375884951
 20
0.1730790122768338
  0
LWPOLYLINE
  5
D15
330
2
100
AcDbEntity
  8
Profilo
  6
Continuous
370
     0
100
AcDbPolyline
 90
       11
 70
   129
 43
0.0
 10
0.1992536554428371
 20
0.1792134998647363
 10
0.2002126312928745
 20
0.1779993816815382
 10
0.2009158798844954
 20
0.177679877534692
 10
0.2018109225509097
 20
0.1769130655035327
 10
0.2018109225509097
 20
0.1760184531994545
 10
0.2017469921053252
 20
0.1749960388901836
 10
0.2011076739592875
 20
0.1747404348797972
 10
0.2002765644764963
 20
0.1749960388901836
 10
0.1995093827012522
 20
0.1756350489161496
 10
0.1994454522556666
 20
0.1765935613566871
 10
0.1997011795140816
 20
0.1774881736607654
  0
LWPOLYLINE
  5
D16
330
2
100
AcDbEntity
  8
Profilo
  6
Continuous
370
     0
100
AcDbPolyline
 90
        7
 70
   128
 43
0.0
 10
0.1981028882560451
 20
0.1746765347433373
 10
0.197335706480801
 20
0.1759545530629953
 10
0.1968881851475939
 20
0.1774881736607654
 10
0.1970799819604233
 20
0.1789578958543499
 10
0.1977192973684236
 20
0.1794052020063893
 10
0.1979110914432157
 20
0.1808749224676991
 10
0.1979750246268376
 20
0.1811944266145453
  0
LWPOLYLINE
  5
D17
330
2
100
AcDbEntity
  8
Profilo
  6
Continuous
370
     0
100
AcDbPolyline
 90
        5
 70
   128
 43
0.0
 10
0.199317588626459
 20
0.172567804256061
 10
0.1974635701100086
 20
0.1737819224392591
 10
0.1965045969980086
 20
0.1751238408953762
 10
0.1956734847771801
 20
0.1768491653670735
 10
0.1953538270731793
 20
0.1774242735243056
  0
LWPOLYLINE
  5
D18
330
2
100
AcDbEntity
  8
Profilo
  6
Continuous
370
     0
100
AcDbPolyline
 90
        4
 70
   128
 43
0.0
 10
0.1890245924866202
 20
0.1806193184573127
 10
0.1876820284869975
 20
0.1840699674007067
 10
0.1875541648577901
 20
0.1866260040400225
 10
0.1876589347745761
 20
0.1901508578090312
  0
LWPOLYLINE
  5
D19
330
2
100
AcDbEntity
  8
Profilo
  6
Continuous
370
     0
100
AcDbPolyline
 90
       11
 70
   128
 43
0.0
 10
0.1921055812481308
 20
0.1778339967440374
 10
0.1911343382614856
 20
0.1801081121688146
 10
0.1906868169282785
 20
0.1826002469393964
 10
0.190750747373863
 20
0.1849645814370592
 10
0.190750747373863
 20
0.1866260040400225
 10
0.1901114319658639
 20
0.1867538060452157
 10
0.1894721138198261
 20
0.1861147977515239
 10
0.1892163892994496
 20
0.1850923834422524
 10
0.189088525670242
 20
0.1837504632538611
 10
0.189088525670242
 20
0.1829197510862421
 10
0.1891524561158277
 20
0.1821529407873576
  0
LWPOLYLINE
  5
D1A
330
2
100
AcDbEntity
  8
Profilo
  6
Continuous
370
     0
100
AcDbPolyline
 90
       15
 70
   128
 43
0.0
 10
0.1944587844067662
 20
0.1755711470474156
 10
0.1944587844067662
 20
0.1755711470474156
 10
0.193947329889936
 20
0.1769769673722667
 10
0.193947329889936
 20
0.1777437776711518
 10
0.1943948512231431
 20
0.1779354815450784
 10
0.1947145089271427
 20
0.1779354815450784
 10
0.1946505784815582
 20
0.1783188858283839
 10
0.1938833994443515
 20
0.1789578958543499
 10
0.1932440812983138
 20
0.1798525081584282
 10
0.1931162176691062
 20
0.1809388243364331
 10
0.1933080144819368
 20
0.1817695347717774
 10
0.1942669875939356
 20
0.1818973367769705
 10
0.1950980998147653
 20
0.1814500306249317
 10
0.1952898938895574
 20
0.1808110223312399
 10
0.1952259634439717
 20
0.1783827876971178
  0
LWPOLYLINE
  5
D1B
330
2
100
AcDbEntity
  8
Profilo
  6
Continuous
370
     0
100
AcDbPolyline
 90
       10
 70
   128
 43
0.0
 10
0.1929883540398987
 20
0.1815778326301249
 10
0.1929244235943142
 20
0.1831114549601693
 10
0.1930522872235217
 20
0.1840699674007067
 10
0.193691602631521
 20
0.1847089774266728
 10
0.1946505784815582
 20
0.1852201854474456
 10
0.1952898938895574
 20
0.1852840855839048
 10
0.1960570756648015
 20
0.1852840855839048
 10
0.1965685274435931
 20
0.1843255714110932
 10
0.1965685274435931
 20
0.1834309591070149
 10
0.1965045969980098
 20
0.1828558509497828
  0
LWPOLYLINE
  5
D1C
330
2
100
AcDbEntity
  8
Profilo
  6
Continuous
370
     0
100
AcDbPolyline
 90
        4
 70
   128
 43
0.0
 10
0.1952259634439717
 20
0.1815139324936657
 10
0.1958013484063876
 20
0.1824724449342032
 10
0.1965685274435931
 20
0.1829197510862421
 10
0.1975914337392162
 20
0.1831753550966285
  0
LWPOLYLINE
  5
D1D
330
2
100
AcDbEntity
  8
Profilo
  6
Continuous
370
     0
100
AcDbPolyline
 90
        5
 70
   128
 43
0.0
 10
0.2037288715129458
 20
0.1749321387537237
 10
0.2032813501797387
 20
0.1779993816815382
 10
0.2021945134385323
 20
0.179724706153235
 10
0.2011716071429106
 20
0.1811944266145453
 10
0.1994454522556666
 20
0.182983652954976
  0
LWPOLYLINE
  5
D1E
330
2
100
AcDbEntity
  8
Profilo
  6
Continuous
370
     0
100
AcDbPolyline
 90
       19
 70
   128
 43
0.0
 10
0.187587011966027
 20
0.1816688361396104
 10
0.1853413520796453
 20
0.1847002502888414
 10
0.1846023954098257
 20
0.1860320413356071
 10
0.1845244215546096
 20
0.1866804978126653
 10
0.1834588457195754
 20
0.1874465678705542
 10
0.1829523942312008
 20
0.188266976243114
 10
0.1827135634254754
 20
0.189159159924926
 10
0.1828164575879777
 20
0.1903820570737574
 10
0.183012429908518
 20
0.1907214910898098
 10
0.1841218999232954
 20
0.1906843733672663
 10
0.1848331010417313
 20
0.1903491909914341
 10
0.1852289166214664
 20
0.1901206667599245
 10
0.185321996279697
 20
0.1892372027610082
 10
0.1852844262240414
 20
0.1881274502841941
 10
0.1855622433384525
 20
0.1869110355595738
 10
0.1858639435654
 20
0.1856054052937707
 10
0.1865375761283717
 20
0.1841604695749877
 10
0.1880242684089002
 20
0.1816426753586478
 10
0.1885960425039279
 20
0.1809354125242427
  0
LWPOLYLINE
  5
D1F
330
2
100
AcDbEntity
  8
Profilo
  6
Continuous
370
     0
100
AcDbPolyline
 90
       18
 70
   128
 43
0.0
 10
0.184332975177637
 20
0.1907887983563872
 10
0.1846947110819006
 20
0.1919376829372811
 10
0.1853065099182107
 20
0.1928667638356978
 10
0.1858266480873578
 20
0.1932453299558289
 10
0.1870228721360855
 20
0.1927055492419758
 10
0.1880319041741801
 20
0.1919721247604707
 10
0.1886251081963099
 20
0.1906490542627387
 10
0.1885787594621153
 20
0.1893935074340386
 10
0.1882848023503243
 20
0.1888843587811705
 10
0.1887810559067434
 20
0.1893521413086217
 10
0.189516140268888
 20
0.1889277401542604
 10
0.1901118004768385
 20
0.1881312600463988
 10
0.1907250154350031
 20
0.1876263606625408
 10
0.1912261783626736
 20
0.1891473257020077
 10
0.1922513490291291
 20
0.1901394622267809
 10
0.1934198203956836
 20
0.1905962916889342
 10
0.1942479830470406
 20
0.1892884241644463
 10
0.1951757840772512
 20
0.1854619259026209
  0
LWPOLYLINE
  5
D20
330
2
100
AcDbEntity
  8
Profilo
  6
Continuous
370
     0
100
AcDbPolyline
 90
       22
 70
   128
 43
0.0
 10
0.1934778528416778
 20
0.1613554571712108
 10
0.1899398932537283
 20
0.1625122370443996
 10
0.1881174695545375
 20
0.1626785518104091
 10
0.1872873719309957
 20
0.1631578088968149
 10
0.1865373753708255
 20
0.1621143807594845
 10
0.1855965979641306
 20
0.1626575388484875
 10
0.184941113438537
 20
0.1631836272172731
 10
0.1842918161163626
 20
0.1633370313179807
 10
0.1833830068016731
 20
0.163935556302008
 10
0.1826845604106506
 20
0.1637482277079395
 10
0.1820538361755825
 20
0.1627835850247034
 10
0.1824388121971978
 20
0.1620445627289879
 10
0.1830475502544371
 20
0.1616931076477747
 10
0.1834435214184964
 20
0.1616121377910986
 10
0.1828151984149026
 20
0.1611628587190013
 10
0.1821377248422671
 20
0.1603728478182653
 10
0.1824034326458381
 20
0.1595550471820861
 10
0.18344629716256
 20
0.1588053048711437
 10
0.1844534074841573
 20
0.1588882467817409
 10
0.1851136957105446
 20
0.1593928912437896
 10
0.1859805607574785
 20
0.1599997332443075
 10
0.1863040088028285
 20
0.1596653493883846
  0
LWPOLYLINE
  5
D21
330
2
100
AcDbEntity
  8
Profilo
  6
Continuous
370
     0
100
AcDbPolyline
 90
       13
 70
   128
 43
0.0
 10
0.1932788525967741
 20
0.1594771580385488
 10
0.1909459903470593
 20
0.1606763956465328
 10
0.1893854811097017
 20
0.1609129587489187
 10
0.1874967231265879
 20
0.1604531711441184
 10
0.1864872117046907
 20
0.1598548623850349
 10
0.1860950295129626
 20
0.1590477826302194
 10
0.1859070230414824
 20
0.1578275335653866
 10
0.1869412962540988
 20
0.1569351104063111
 10
0.1888634074632105
 20
0.1560468437037378
 10
0.1904558804231679
 20
0.1558656468574413
 10
0.1918465802633685
 20
0.1566129853035107
 10
0.1929839553144733
 20
0.1574327603648211
 10
0.1930478871290771
 20
0.1575434935159348
  0
LWPOLYLINE
  5
D22
330
2
100
AcDbEntity
  8
Profilo
  6
Continuous
370
     0
100
AcDbPolyline
 90
       11
 70
   129
 43
0.0
 10
0.186744323965924
 20
0.1588943770244389
 10
0.1882752690807893
 20
0.159117815380588
 10
0.1889035920843831
 20
0.1595670944526853
 10
0.1900151921165023
 20
0.159958818123691
 10
0.1907899490983713
 20
0.1595115119716521
 10
0.1916434206406011
 20
0.1589449394270652
 10
0.1915451211338859
 20
0.1582634716663028
 10
0.1909082068261867
 20
0.1576715117460723
 10
0.1899712170228049
 20
0.1573266178523736
 10
0.1891091556766634
 20
0.15775050868269
 10
0.1884622623240008
 20
0.1584192811369569
  0
LWPOLYLINE
  5
D23
330
2
100
AcDbEntity
  8
Profilo
  6
Continuous
370
     0
100
AcDbPolyline
 90
        7
 70
   128
 43
0.0
 10
0.1900980674237438
 20
0.1556293008461366
 10
0.1886076802047967
 20
0.1556039110992835
 10
0.1870557651407575
 20
0.1559831565548759
 10
0.1858788467910213
 20
0.1568841185639436
 10
0.1858111260040864
 20
0.157661435024322
 10
0.1846342077855259
 20
0.1585623937960421
 10
0.1843894756695535
 20
0.1587775136306271
  0
LWPOLYLINE
  5
D24
330
2
100
AcDbEntity
  8
Profilo
  6
Continuous
370
     0
100
AcDbPolyline
 90
        5
 70
   128
 43
0.0
 10
0.1925316317806676
 20
0.1556268969812635
 10
0.1905531653325951
 20
0.1546283289385291
 10
0.188911543303791
 20
0.1544687930900506
 10
0.1870018123711159
 20
0.1546116910292649
 10
0.1863439252450286
 20
0.1546224134157014
  0
LWPOLYLINE
  5
D25
330
2
100
AcDbEntity
  8
Profilo
  6
Continuous
370
     0
100
AcDbPolyline
 90
        4
 70
   128
 43
0.0
 10
0.1804123178735324
 20
0.1507386579437331
 10
0.1767526862292001
 20
0.1513012878855513
 10
0.174475161751945
 20
0.1524685730540955
 10
0.1714749338017516
 20
0.1543217333480886
  0
LWPOLYLINE
  5
D26
330
2
100
AcDbEntity
  8
Profilo
  6
Continuous
370
     0
100
AcDbPolyline
 90
       11
 70
   128
 43
0.0
 10
0.1843649716156967
 20
0.1520142116233386
 10
0.1819099083933793
 20
0.1523101482360449
 10
0.1795278957057971
 20
0.1531686507780426
 10
0.1775122871905689
 20
0.1544061834168257
 10
0.1760734530099814
 20
0.1552368947183074
 10
0.1756431155228301
 20
0.1547471323365462
 10
0.1758768538653778
 20
0.1538739624341313
 10
0.1766344283702104
 20
0.1531412913484786
 10
0.177732633528605
 20
0.1523595981031687
 10
0.1784520513689962
 20
0.1519442420193594
 10
0.1791480937905057
 20
0.1516162022598692
  0
LWPOLYLINE
  5
D27
330
2
100
AcDbEntity
  8
Profilo
  6
Continuous
370
     0
100
AcDbPolyline
 90
       15
 70
   128
 43
0.0
 10
0.1875012585172346
 20
0.1529207204906708
 10
0.1875012585172346
 20
0.1529207204906708
 10
0.1860280551443421
 20
0.1531806980486412
 10
0.1853639779456237
 20
0.153564103198084
 10
0.1854217181874027
 20
0.1540475199783409
 10
0.1855815470394024
 20
0.1543243516705198
 10
0.1852175439673485
 20
0.1544606884222201
 10
0.1842805555329848
 20
0.1541157968997316
 10
0.1831861394780969
 20
0.1540094372962018
 10
0.1821814302567983
 20
0.1544418622340905
 10
0.1815579123230162
 20
0.1550233183640389
 10
0.1819267190958638
 20
0.1559177144431729
 10
0.1827296536972144
 20
0.1564138256637873
 10
0.1833789481501757
 20
0.1562604200580069
 10
0.1854498958068831
 20
0.1549909373509935
  0
LWPOLYLINE
  5
D28
330
2
100
AcDbEntity
  8
Profilo
  6
Continuous
370
     0
100
AcDbPolyline
 90
       10
 70
   128
 43
0.0
 10
0.1815641010266292
 20
0.154650633229823
 10
0.1802039799062076
 20
0.1553620790048934
 10
0.1794378155974622
 20
0.1559520683762762
 10
0.1792040743857015
 20
0.1568252367736176
 10
0.1792408431781128
 20
0.1579113382317516
 10
0.1795051617406334
 20
0.1584969516843396
 10
0.179888752628256
 20
0.1591613505910214
 10
0.1809745761411948
 20
0.1591250237378603
 10
0.1817493331230638
 20
0.1586777175858208
 10
0.1822154261743591
 20
0.1583347981172539
  0
LWPOLYLINE
  5
D29
330
2
100
AcDbEntity
  8
Profilo
  6
Continuous
370
     0
100
AcDbPolyline
 90
        4
 70
   128
 43
0.0
 10
0.1827382448701442
 20
0.1565565097492675
 10
0.1821958412280035
 20
0.1575340639639434
 10
0.1821920522556711
 20
0.1584221135754344
 10
0.1824821458371784
 20
0.1594357784183278
  0
LWPOLYLINE
  5
D2A
330
2
100
AcDbEntity
  8
Profilo
  6
Continuous
370
     0
100
AcDbPolyline
 90
        5
 70
   128
 43
0.0
 10
0.1926896994858904
 20
0.160629347273072
 10
0.189809628524222
 20
0.1617754038936863
 10
0.1877720353313587
 20
0.1616968379018832
 10
0.18598776692759
 20
0.1615458352948385
 10
0.1835751740200351
 20
0.1609455544818345
  0
LWPOLYLINE
  5
D2B
330
2
100
AcDbEntity
  8
Profilo
  6
Continuous
370
     0
100
AcDbPolyline
 90
       19
 70
   128
 43
0.0
 10
0.1787846186386446
 20
0.1500184355340631
 10
0.1750365070328286
 20
0.1495893440988122
 10
0.1735136638188877
 20
0.1496152843738353
 10
0.1729130971088975
 20
0.149871985272916
 10
0.171716873060171
 20
0.1493322045590629
 10
0.1707531528238692
 20
0.1493038088906252
 10
0.1698610836877148
 20
0.1495430671865663
 10
0.1688534707718621
 20
0.1502436247196107
 10
0.1686574984513231
 20
0.1505830587356632
 10
0.1692443783493651
 20
0.1515253290919258
 10
0.1698902553609543
 20
0.1519736561397752
 10
0.1702860709406894
 20
0.1522021803712848
 10
0.1710977130361956
 20
0.1518410577204302
 10
0.1720400018452015
 20
0.151253644859403
 10
0.1732323564554659
 20
0.1508860341757796
 10
0.1745139155470738
 20
0.1504944991037415
 10
0.1761020828678627
 20
0.1503554141567005
 10
0.1790259027609775
 20
0.1503840303310775
 10
0.179924297390239
 20
0.1505255698053957
  0
LWPOLYLINE
  5
D2C
330
2
100
AcDbEntity
  8
Profilo
  6
Continuous
370
     0
100
AcDbPolyline
 90
       18
 70
   128
 43
0.0
 10
0.1692594812831676
 20
0.1517603381188567
 10
0.1684453860022295
 20
0.1526480528918565
 10
0.1679466777601846
 20
0.1536424266753156
 10
0.167878898967712
 20
0.1542821626033407
 10
0.168944474802745
 20
0.1550482326612296
 10
0.1700841550545331
 20
0.1555553677986989
 10
0.1715265697276322
 20
0.1554075623026254
 10
0.17259073080983
 20
0.1547396497070293
 10
0.172884687921621
 20
0.1542305010541605
 10
0.1727277031476113
 20
0.1548941605044635
 10
0.1734627875097559
 20
0.1553185616588248
 10
0.1744503896207483
 20
0.1554361784770025
 10
0.1751942527926064
 20
0.1557147885168253
 10
0.1741276398939959
 20
0.1569092908633565
 10
0.1737810097927467
 20
0.1582931829661078
 10
0.1739696195566035
 20
0.1595335235842156
 10
0.1755163473832724
 20
0.1595967997165127
 10
0.1792940926006553
 20
0.1584870498474189
  0
LWPOLYLINE
  5
D2D
330
2
100
AcDbEntity
  8
Profilo
  6
Continuous
370
     0
100
AcDbPolyline
 90
       22
 70
   128
 43
0.0
 10
0.1993219412998048
 20
0.1449633638978285
 10
0.1965511607490633
 20
0.1424777909536966
 10
0.1954959160870793
 20
0.1409826831167428
 10
0.1946658184635363
 20
0.140503426030337
 10
0.1951944554574029
 20
0.1393321958878133
 10
0.194253678050708
 20
0.1387890377988108
 10
0.1934703298959068
 20
0.1384844157322527
 10
0.1930128293865618
 20
0.1379988098069937
 10
0.1920400868882505
 20
0.1375110203452903
 10
0.1918530950140571
 20
0.1368124837304484
 10
0.1923731379657809
 20
0.1357839391784789
 10
0.1932056380586419
 20
0.1357478270451887
 10
0.19381437611588
 20
0.1360992821264013
 10
0.1940824836507329
 20
0.1364017182853054
 10
0.1941574092387601
 20
0.1356329350663619
 10
0.1945028419617465
 20
0.1346512202916987
 10
0.1953439319896948
 20
0.1344724296814855
 10
0.1965146601356242
 20
0.1350007056902005
 10
0.1969463854948069
 20
0.1359143597684167
 10
0.1968394946839874
 20
0.1367385083773116
 10
0.1967473866189225
 20
0.137792656529869
 10
0.1971986955554416
 20
0.1379055788259849
  0
LWPOLYLINE
  5
D2E
330
2
100
AcDbEntity
  8
Profilo
  6
Continuous
370
     0
100
AcDbPolyline
 90
       13
 70
   128
 43
0.0
 10
0.2008490959421453
 20
0.1438518750640517
 10
0.1986440945835994
 20
0.1424311758962606
 10
0.1976589703086564
 20
0.141198016805062
 10
0.1971127790632027
 20
0.1393324106076842
 10
0.1971261739369261
 20
0.1381589936913692
 10
0.1976290344116123
 20
0.1374158140730129
 10
0.1985917978649614
 20
0.136642871160219
 10
0.1998817955979556
 20
0.1370923664572606
 10
0.2016121127322752
 20
0.1383128302419643
 10
0.2025652702842322
 20
0.1396013538569776
 10
0.2026134061248126
 20
0.1411794044706659
 10
0.2024721476218805
 20
0.142574287689209
 10
0.2024082158072767
 20
0.1426850208403227
  0
LWPOLYLINE
  5
D2F
330
2
100
AcDbEntity
  8
Profilo
  6
Continuous
370
     0
100
AcDbPolyline
 90
       11
 70
   129
 43
0.0
 10
0.1980865347897828
 20
0.1379014167609243
 10
0.1986585040546096
 20
0.1393389733002715
 10
0.1985835784665824
 20
0.1401077565192144
 10
0.1988001358322862
 20
0.1412662922213793
 10
0.1995748928141563
 20
0.1417135983734188
 10
0.2004922948019706
 20
0.1421694401381027
 10
0.2010333134412932
 20
0.1417435763877273
 10
0.201227508616385
 20
0.1408960124571105
 10
0.2010577005882475
 20
0.1399121085374451
 10
0.2002595696876916
 20
0.1393774869272246
 10
0.1993569490766138
 20
0.1391516470774132
  0
LWPOLYLINE
  5
D30
330
2
100
AcDbEntity
  8
Profilo
  6
Continuous
370
     0
100
AcDbPolyline
 90
        7
 70
   128
 43
0.0
 10
0.2025910454343933
 20
0.1391733057040204
 10
0.2018678399906904
 20
0.1378698976375094
 10
0.2007634462598583
 20
0.1367155224953316
 10
0.1993947310972928
 20
0.1361467623108148
 10
0.1986876949023575
 20
0.1364767726191538
 10
0.1973189826090049
 20
0.1359080109295641
 10
0.1970103173094106
 20
0.135803626617303
  0
LWPOLYLINE
  5
D31
330
2
100
AcDbEntity
  8
Profilo
  6
Continuous
370
     0
100
AcDbPolyline
 90
        5
 70
   128
 43
0.0
 10
0.2038099094209032
 20
0.1412796323264236
 10
0.2036854614892812
 20
0.1390669461004912
 10
0.2030028125724771
 20
0.1375654917958955
 10
0.2019241938606306
 20
0.1359830652634125
 10
0.201585964438544
 20
0.1354186794926175
  0
LWPOLYLINE
  5
D32
330
2
100
AcDbEntity
  8
Profilo
  6
Continuous
370
     0
100
AcDbPolyline
 90
        4
 70
   128
 43
0.0
 10
0.2019835916536069
 20
0.1283398790876415
 10
0.1996665240088973
 20
0.1254518600860657
 10
0.1975168631608497
 20
0.124063108615294
 10
0.1944118652938702
 20
0.1223914151402792
  0
LWPOLYLINE
  5
D33
330
2
100
AcDbEntity
  8
Profilo
  6
Continuous
370
     0
100
AcDbPolyline
 90
       11
 70
   128
 43
0.0
 10
0.2028552566342606
 20
0.1324007544805229
 10
0.2013714363985883
 20
0.1304225756684514
 10
0.1994369450442133
 20
0.1287889434398679
 10
0.1973574060834006
 20
0.1276621415809876
 10
0.1959185719028131
 20
0.1268314302795066
 10
0.196127549823661
 20
0.1262138658925515
 10
0.1970006063122451
 20
0.1259797042838286
 10
0.1980139053374554
 20
0.1262694475074473
 10
0.1992399741250577
 20
0.1268296744505293
 10
0.1999593919654489
 20
0.1272450305343385
 10
0.2005915039413738
 20
0.1276838010737328
  0
LWPOLYLINE
  5
D34
330
2
100
AcDbEntity
  8
Profilo
  6
Continuous
370
     0
100
AcDbPolyline
 90
       15
 70
   128
 43
0.0
 10
0.2036383403771632
 20
0.1355701130444769
 10
0.2036383403771632
 20
0.1355701130444769
 10
0.2026765915211008
 20
0.1344242702775962
 10
0.2020125143223824
 20
0.1340408651281539
 10
0.2016227332309542
 20
0.1343325780344835
 10
0.2014629043789544
 20
0.1346094097266625
 10
0.2011628317524849
 20
0.134362342195058
 10
0.2009930223553292
 20
0.1333784406466028
 10
0.2005379244464779
 20
0.1323774687389954
 10
0.1996610788543869
 20
0.1317235774988786
 10
0.1988457641077753
 20
0.1314743231934827
 10
0.1982555977686229
 20
0.1322409172674235
 10
0.1982274201491437
 20
0.1331843346400773
 10
0.1986849205273131
 20
0.1336699373279881
 10
0.2008197986296048
 20
0.1348286892550974
  0
LWPOLYLINE
  5
D35
330
2
100
AcDbEntity
  8
Profilo
  6
Continuous
370
     0
100
AcDbPolyline
 90
       10
 70
   128
 43
0.0
 10
0.1991716132534252
 20
0.1312933402009192
 10
0.1978754225785881
 20
0.1304711636459459
 10
0.1969813946406351
 20
0.1301026405767906
 10
0.1961083380208752
 20
0.130336798948166
 10
0.1951861309632493
 20
0.1309116923855271
 10
0.1948111341177707
 20
0.131433405701656
 10
0.1944275432301492
 20
0.1320978046083377
 10
0.1950019149642952
 20
0.1330199919279882
 10
0.1957766719461654
 20
0.1334672980800277
 10
0.196306695443044
 20
0.1336994867686922
  0
LWPOLYLINE
  5
D36
330
2
100
AcDbEntity
  8
Profilo
  6
Continuous
370
     0
100
AcDbPolyline
 90
        4
 70
   128
 43
0.0
 10
0.1981081476928672
 20
0.1332631168568235
 10
0.1969903590883106
 20
0.1332821586309619
 10
0.1962193910787727
 20
0.1337229020904141
 10
0.1954865783646582
 20
0.1344809629229205
  0
LWPOLYLINE
  5
D37
330
2
100
AcDbEntity
  8
Profilo
  6
Continuous
370
     0
100
AcDbPolyline
 90
        5
 70
   128
 43
0.0
 10
0.1995566942396394
 20
0.1439177481205693
 10
0.197124144611178
 20
0.1419965618133697
 10
0.196173388159521
 20
0.14019267134987
 10
0.1954120260513754
 20
0.1385719482815149
 10
0.1947255880310632
 20
0.1361824411280801
  0
LWPOLYLINE
  5
D38
330
2
100
AcDbEntity
  8
Profilo
  6
Continuous
370
     0
100
AcDbPolyline
 90
       19
 70
   128
 43
0.0
 10
0.2017934729393123
 20
0.1265701389956739
 10
0.2002910212198779
 20
0.1231096334111919
 10
0.1995071346757566
 20
0.1218037826394499
 10
0.1989845418209827
 20
0.1214120270614724
 10
0.1988538936072892
 20
0.1201061762897298
 10
0.1983966248593631
 20
0.1192573722487324
 10
0.1977433865289342
 20
0.118604446862862
 10
0.1966328794505792
 20
0.1180821072470745
 10
0.1962409348094998
 20
0.1180821072470745
 10
0.1957183446927644
 20
0.1190614953258813
 10
0.1956530205859176
 20
0.1198450047495622
 10
0.1956530205859176
 20
0.1203020532125815
 10
0.1963715830231933
 20
0.1208243945606431
 10
0.1973514418878548
 20
0.12134673417643
 10
0.1982659793837069
 20
0.1221955382174275
 10
0.1992458382483697
 20
0.1231096334111919
 10
0.2001603730061845
 20
0.1244154841829345
 10
0.2015975006187732
 20
0.1269618945736515
 10
0.2019241211530058
 20
0.1278106968823741
  0
LWPOLYLINE
  5
D39
330
2
100
AcDbEntity
  8
Profilo
  6
Continuous
370
     0
100
AcDbPolyline
 90
       18
 70
   128
 43
0.0
 10
0.1955223723722252
 20
0.1191920793636906
 10
0.1943465411870223
 20
0.1189309095557972
 10
0.1932360341086673
 20
0.1189962024408395
 10
0.1926481171470478
 20
0.1192573722487324
 10
0.1925174689333542
 20
0.1205632230204749
 10
0.1926481171470478
 20
0.1218037826394499
 10
0.193497327798017
 20
0.1229790476411078
 10
0.1946078376144093
 20
0.1235666818742118
 10
0.1951957518379915
 20
0.1235666818742118
 10
0.1945425135075626
 20
0.1237625587970635
 10
0.1945425135075626
 20
0.1246113611057862
 10
0.1949344554106045
 20
0.1255254580318254
 10
0.1950651036242981
 20
0.1263089674555057
 10
0.193497327798017
 20
0.1259825047625705
 10
0.1921255270303123
 20
0.126374260340548
 10
0.1911456654276133
 20
0.1271577714965031
 10
0.1918642306029265
 20
0.1285289151532875
 10
0.1947141747900988
 20
0.1312456635460191
  0
LWPOLYLINE
  5
D3A
330
2
100
AcDbEntity
  8
Profilo
  6
Continuous
370
     0
100
AcDbPolyline
 90
       22
 70
   128
 43
0.0
 10
0.2164399547248218
 20
0.1418284463278395
 10
0.2172071337620285
 20
0.1381860935105182
 10
0.2179743127992353
 20
0.1365246709075554
 10
0.2179743127992353
 20
0.1355661567347432
 10
0.2192529463532722
 20
0.1354383547295499
 10
0.2192529463532722
 20
0.1343520385515451
 10
0.2191250827240646
 20
0.1335213281162008
 10
0.219316879536894
 20
0.1328823180902341
 10
0.2192529463532722
 20
0.1317960036445034
 10
0.2197644008701023
 20
0.1312847956237306
 10
0.2209151680568931
 20
0.1312208937549966
 10
0.2213626921281376
 20
0.1319238039174225
 10
0.2213626921281376
 20
0.1326267140798477
 10
0.2212348284989301
 20
0.1330101200954279
 10
0.2219380770905523
 20
0.1326906159485817
 10
0.2229609833861741
 20
0.1324989120746551
 10
0.2235363656105502
 20
0.1331379221006206
 10
0.223664229239759
 20
0.1344159404202785
 10
0.2230888442773443
 20
0.1352466525878975
 10
0.2223216652401364
 20
0.1355661567347432
 10
0.2213626921281376
 20
0.1360134628867826
 10
0.2214905530193079
 20
0.1364607690388214
  0
LWPOLYLINE
  5
D3B
330
2
100
AcDbEntity
  8
Profilo
  6
Continuous
370
     0
100
AcDbPolyline
 90
       13
 70
   128
 43
0.0
 10
0.2181661096120658
 20
0.1425952566267239
 10
0.2182939705032348
 20
0.1399753198509489
 10
0.2188693554656496
 20
0.1385055976573644
 10
0.2202119222033094
 20
0.1370997790647875
 10
0.2212348284989301
 20
0.1365246709075554
 10
0.2221298711653443
 20
0.1365885710440146
 10
0.2232806410901738
 20
0.1370358771960535
 10
0.2235363656105514
 20
0.1383777956521712
 10
0.2233445715357594
 20
0.1404865261394476
 10
0.222705256127759
 20
0.1419562466007579
 10
0.2213626921281376
 20
0.142786958768377
 10
0.2200840585741007
 20
0.143362066925609
 10
0.2199561949448944
 20
0.143362066925609
  0
LWPOLYLINE
  5
D3C
330
2
100
AcDbEntity
  8
Profilo
  6
Continuous
370
     0
100
AcDbPolyline
 90
       11
 70
   129
 43
0.0
 10
0.2219380770905523
 20
0.1372275793377065
 10
0.220979101240515
 20
0.1384416975209046
 10
0.2202758526488928
 20
0.1387612016677508
 10
0.2193808099824797
 20
0.1395280136989101
 10
0.2193808099824797
 20
0.1404226260029884
 10
0.2194447404280642
 20
0.1414450403122593
 10
0.2200840585741007
 20
0.1417006443226457
 10
0.2209151680568931
 20
0.1414450403122593
 10
0.2216823498321372
 20
0.1408060302862932
 10
0.2217462802777229
 20
0.1398475178457557
 10
0.2214905530193079
 20
0.1389529055416774
  0
LWPOLYLINE
  5
D3D
330
2
100
AcDbEntity
  8
Profilo
  6
Continuous
370
     0
100
AcDbPolyline
 90
        7
 70
   128
 43
0.0
 10
0.2230888442773443
 20
0.1417645444591055
 10
0.2238560260525884
 20
0.1404865261394476
 10
0.2243035473857955
 20
0.1389529055416774
 10
0.2241117505729649
 20
0.1374831833480929
 10
0.2234724351649657
 20
0.1370358771960535
 10
0.2232806410901738
 20
0.1355661567347432
 10
0.2232167079065519
 20
0.1352466525878975
  0
LWPOLYLINE
  5
D3E
330
2
100
AcDbEntity
  8
Profilo
  6
Continuous
370
     0
100
AcDbPolyline
 90
        5
 70
   128
 43
0.0
 10
0.2218741439069292
 20
0.1438732749463818
 10
0.2237281624233809
 20
0.1426591567631838
 10
0.2246871355353797
 20
0.141317238307066
 10
0.2255182477562094
 20
0.1395919138353693
 10
0.225837905460209
 20
0.1390168056781372
  0
LWPOLYLINE
  5
D3F
330
2
100
AcDbEntity
  8
Profilo
  6
Continuous
370
     0
100
AcDbPolyline
 90
        4
 70
   128
 43
0.0
 10
0.2321671400467693
 20
0.1358217607451302
 10
0.2335097040463907
 20
0.1323711118017361
 10
0.2336375676755982
 20
0.1298150751624203
 10
0.2335327977588133
 20
0.1262902213934117
  0
LWPOLYLINE
  5
D40
330
2
100
AcDbEntity
  8
Profilo
  6
Continuous
370
     0
100
AcDbPolyline
 90
       11
 70
   128
 43
0.0
 10
0.2290861512852574
 20
0.1386070824584054
 10
0.2300573942719037
 20
0.1363329670336282
 10
0.2305049156051109
 20
0.1338408322630464
 10
0.2304409851595264
 20
0.1314764977653831
 10
0.2304409851595264
 20
0.1298150751624203
 10
0.2310803005675244
 20
0.1296872731572271
 10
0.2317196187135622
 20
0.130326281450919
 10
0.2319753432339398
 20
0.1313486957601904
 10
0.2321032068631474
 20
0.1326906159485817
 10
0.2321032068631474
 20
0.1335213281162008
 10
0.2320392764175617
 20
0.1342881384150853
  0
LWPOLYLINE
  5
D41
330
2
100
AcDbEntity
  8
Profilo
  6
Continuous
370
     0
100
AcDbPolyline
 90
       15
 70
   128
 43
0.0
 10
0.2267329481266232
 20
0.1408699321550272
 10
0.2267329481266232
 20
0.1408699321550272
 10
0.2272444026434535
 20
0.1394641118301761
 10
0.2272444026434535
 20
0.138697301531291
 10
0.2267968813102463
 20
0.1385055976573644
 10
0.2264772236062467
 20
0.1385055976573644
 10
0.2265411540518312
 20
0.1381221933740589
 10
0.227308333089038
 20
0.1374831833480929
 10
0.2279476512350756
 20
0.1365885710440146
 10
0.2280755148642832
 20
0.1355022548660098
 10
0.2278837180514526
 20
0.1346715444306655
 10
0.2269247449394538
 20
0.1345437424254717
 10
0.226093632718624
 20
0.1349910485775111
 10
0.2259018386438321
 20
0.1356300568712024
 10
0.2259657690894166
 20
0.138058291505325
  0
LWPOLYLINE
  5
D42
330
2
100
AcDbEntity
  8
Profilo
  6
Continuous
370
     0
100
AcDbPolyline
 90
       10
 70
   128
 43
0.0
 10
0.2282033784934907
 20
0.1348632465723179
 10
0.2282673089390752
 20
0.1333296242422736
 10
0.2281394453098677
 20
0.1323711118017361
 10
0.2275001299018685
 20
0.1317321017757695
 10
0.2265411540518312
 20
0.1312208937549966
 10
0.2259018386438321
 20
0.1311569936185374
 10
0.2251346568685879
 20
0.1311569936185374
 10
0.2246232050897952
 20
0.1321155077913497
 10
0.2246232050897952
 20
0.1330101200954279
 10
0.2246871355353797
 20
0.13358522825266
  0
LWPOLYLINE
  5
D43
330
2
100
AcDbEntity
  8
Profilo
  6
Continuous
370
     0
100
AcDbPolyline
 90
        4
 70
   128
 43
0.0
 10
0.2259657690894166
 20
0.1349271467087771
 10
0.2253903841270018
 20
0.1339686342682396
 10
0.2246232050897952
 20
0.1335213281162008
 10
0.2236002987941733
 20
0.1332657241058144
  0
LWPOLYLINE
  5
D44
330
2
100
AcDbEntity
  8
Profilo
  6
Continuous
370
     0
100
AcDbPolyline
 90
        5
 70
   128
 43
0.0
 10
0.2174628610204436
 20
0.1415089404487191
 10
0.2179103823536508
 20
0.1384416975209046
 10
0.218997219094857
 20
0.1367163730492078
 10
0.2200201253904789
 20
0.1352466525878975
 10
0.2217462802777229
 20
0.1334574262474668
  0
LWPOLYLINE
  5
D45
330
2
100
AcDbEntity
  8
Profilo
  6
Continuous
370
     0
100
AcDbPolyline
 90
       19
 70
   128
 43
0.0
 10
0.2336047205673625
 20
0.1347722430628319
 10
0.2358503804537442
 20
0.1317408289136014
 10
0.2365893371235638
 20
0.1304090378668357
 10
0.2366673109787799
 20
0.1297605813897775
 10
0.2377328868138129
 20
0.1289945113318887
 10
0.2382393383021887
 20
0.1281741029593288
 10
0.2384781691079141
 20
0.1272819192775168
 10
0.2383752749454118
 20
0.1260590221286848
 10
0.2381793026248715
 20
0.125719588112633
 10
0.237069832610094
 20
0.1257567058351765
 10
0.2363586314916581
 20
0.1260918882110087
 10
0.2359628159119229
 20
0.1263204124425183
 10
0.2358697362536924
 20
0.1272038764414346
 10
0.235907306309348
 20
0.1283136289182487
 10
0.2356294891949358
 20
0.129530043642869
 10
0.2353277889679894
 20
0.1308356739086721
 10
0.2346541564050165
 20
0.1322806096274551
 10
0.2331674641244892
 20
0.134798403843795
 10
0.2325956900294615
 20
0.1355056666782002
  0
LWPOLYLINE
  5
D46
330
2
100
AcDbEntity
  8
Profilo
  6
Continuous
370
     0
100
AcDbPolyline
 90
       18
 70
   128
 43
0.0
 10
0.2368587573557523
 20
0.1256522808460556
 10
0.2364970214514888
 20
0.1245033962651617
 10
0.2358852226151775
 20
0.123574315366745
 10
0.2353650844460315
 20
0.1231957492466133
 10
0.234168860397304
 20
0.123735529960467
 10
0.2331598283592093
 20
0.1244689544419721
 10
0.2325666243370783
 20
0.1257920249397041
 10
0.232612973071274
 20
0.1270475717684042
 10
0.2329069301830652
 20
0.1275567204212724
 10
0.232410676626646
 20
0.1270889378938211
 10
0.2316755922645015
 20
0.1275133390481824
 10
0.2310799320565509
 20
0.128309819156044
 10
0.2304667170983864
 20
0.128814718539902
 10
0.2299655541707146
 20
0.1272937535004352
 10
0.2289403835042603
 20
0.1263016169756613
 10
0.2277719121377046
 20
0.1258447875135087
 10
0.2269437494863476
 20
0.1271526550379965
 10
0.2260159484561381
 20
0.1309791532998219
  0
LWPOLYLINE
  5
D47
330
2
100
AcDbEntity
  8
Profilo
  6
Continuous
370
     0
100
AcDbPolyline
 90
       22
 70
   128
 43
0.0
 10
0.2277138796917116
 20
0.155085622031232
 10
0.2312518392796599
 20
0.1539288421580433
 10
0.2330742629788507
 20
0.1537625273920338
 10
0.2339043606023937
 20
0.1532832703056279
 10
0.234654357162564
 20
0.1543266984429578
 10
0.2355951345692588
 20
0.1537835403539553
 10
0.2362506190948512
 20
0.1532574519851698
 10
0.2368999164170269
 20
0.1531040478844621
 10
0.2378087257317164
 20
0.1525055229004348
 10
0.2385071721227387
 20
0.1526928514945033
 10
0.239137896357807
 20
0.1536574941777389
 10
0.2387529203361904
 20
0.1543965164734549
 10
0.2381441822789523
 20
0.1547479715546676
 10
0.2377482111148919
 20
0.1548289414113436
 10
0.2383765341184869
 20
0.1552782204834415
 10
0.2390540076911224
 20
0.1560682313841775
 10
0.2387882998875513
 20
0.1568860320203567
 10
0.2377454353708295
 20
0.1576357743312997
 10
0.236738325049231
 20
0.157552832420702
 10
0.2360780368228449
 20
0.1570481879586532
 10
0.2352111717759098
 20
0.1564413459581353
 10
0.2348877237305598
 20
0.1567757298140582
  0
LWPOLYLINE
  5
D48
330
2
100
AcDbEntity
  8
Profilo
  6
Continuous
370
     0
100
AcDbPolyline
 90
       13
 70
   128
 43
0.0
 10
0.2279128799366152
 20
0.156963921163894
 10
0.2302457421863302
 20
0.15576468355591
 10
0.2318062514236878
 20
0.1555281204535235
 10
0.2336950094068015
 20
0.1559879080583244
 10
0.2347045208286987
 20
0.156586216817408
 10
0.2350967030204268
 20
0.1573932965722235
 10
0.235284709491907
 20
0.1586135456370556
 10
0.2342504362792905
 20
0.1595059687961317
 10
0.2323283250701777
 20
0.160394235498705
 10
0.2307358521102216
 20
0.1605754323450015
 10
0.2293451522700197
 20
0.1598280938989322
 10
0.2282077772189149
 20
0.1590083188376217
 10
0.2281438454043112
 20
0.158897585686508
  0
LWPOLYLINE
  5
D49
330
2
100
AcDbEntity
  8
Profilo
  6
Continuous
370
     0
100
AcDbPolyline
 90
       11
 70
   129
 43
0.0
 10
0.2344474085674642
 20
0.1575467021780039
 10
0.2329164634526002
 20
0.1573232638218548
 10
0.2322881404490063
 20
0.1568739847497576
 10
0.2311765404168871
 20
0.1564822610787519
 10
0.230401783435018
 20
0.1569295672307907
 10
0.2295483118927883
 20
0.1574961397753776
 10
0.2296466113995035
 20
0.1581776075361401
 10
0.2302835257072028
 20
0.1587695674563705
 10
0.2312205155105845
 20
0.1591144613500698
 10
0.2320825768567261
 20
0.1586905705197528
 10
0.2327294702093887
 20
0.1580217980654859
  0
LWPOLYLINE
  5
D4A
330
2
100
AcDbEntity
  8
Profilo
  6
Continuous
370
     0
100
AcDbPolyline
 90
        7
 70
   128
 43
0.0
 10
0.2310936651096457
 20
0.1608117783563062
 10
0.2325840523285928
 20
0.1608371681031593
 10
0.234135967392632
 20
0.1604579226475669
 10
0.2353128857423681
 20
0.1595569606384993
 10
0.235380606529303
 20
0.1587796441781208
 10
0.2365575247478635
 20
0.1578786854064007
 10
0.2368022568638347
 20
0.1576635655718157
  0
LWPOLYLINE
  5
D4B
330
2
100
AcDbEntity
  8
Profilo
  6
Continuous
370
     0
100
AcDbPolyline
 90
        5
 70
   128
 43
0.0
 10
0.2286601007527219
 20
0.1608141822211793
 10
0.2306385672007943
 20
0.1618127502639137
 10
0.2322801892295985
 20
0.1619722861123922
 10
0.2341899201622735
 20
0.161829388173178
 10
0.2348478072883596
 20
0.1618186657867414
  0
LWPOLYLINE
  5
D4C
330
2
100
AcDbEntity
  8
Profilo
  6
Continuous
370
     0
100
AcDbPolyline
 90
        4
 70
   128
 43
0.0
 10
0.2407794146598571
 20
0.1657024212587097
 10
0.2444390463041893
 20
0.1651397913168915
 10
0.2467165707814432
 20
0.1639725061483474
 10
0.2497167987316378
 20
0.1621193458543542
  0
LWPOLYLINE
  5
D4D
330
2
100
AcDbEntity
  8
Profilo
  6
Continuous
370
     0
100
AcDbPolyline
 90
       11
 70
   128
 43
0.0
 10
0.2368267609176915
 20
0.1644268675791042
 10
0.2392818241400102
 20
0.1641309309663979
 10
0.2416638368275923
 20
0.1632724284243996
 10
0.2436794453428194
 20
0.1620348957856171
 10
0.2451182795234079
 20
0.1612041844841354
 10
0.2455486170105594
 20
0.1616939468658966
 10
0.2453148786680117
 20
0.1625671167683115
 10
0.2445573041631779
 20
0.1632997878539642
 10
0.2434590990047845
 20
0.1640814810992736
 10
0.2427396811643932
 20
0.1644968371830834
 10
0.2420436387428826
 20
0.1648248769425736
  0
LWPOLYLINE
  5
D4E
330
2
100
AcDbEntity
  8
Profilo
  6
Continuous
370
     0
100
AcDbPolyline
 90
       15
 70
   128
 43
0.0
 10
0.2336904740161547
 20
0.163520358711772
 10
0.2336904740161547
 20
0.163520358711772
 10
0.2351636773890473
 20
0.1632603811538016
 10
0.2358277545877657
 20
0.1628769760043588
 10
0.2357700143459855
 20
0.162393559224102
 10
0.2356101854939858
 20
0.1621167275319231
 10
0.2359741885660409
 20
0.1619803907802227
 10
0.2369111770004034
 20
0.1623252823027112
 10
0.2380055930552924
 20
0.162431641906241
 10
0.239010302276591
 20
0.1619992169683523
 10
0.239633820210372
 20
0.1614177608384039
 10
0.2392650134375245
 20
0.1605233647592699
 10
0.2384620788361751
 20
0.1600272535386555
 10
0.2378127843832136
 20
0.1601806591444359
 10
0.2357418367265064
 20
0.1614501418514493
  0
LWPOLYLINE
  5
D4F
330
2
100
AcDbEntity
  8
Profilo
  6
Continuous
370
     0
100
AcDbPolyline
 90
       10
 70
   128
 43
0.0
 10
0.2396276315067602
 20
0.1617904459726198
 10
0.2409877526271817
 20
0.1610790001975494
 10
0.2417539169359273
 20
0.1604890108261666
 10
0.2419876581476867
 20
0.1596158424288252
 10
0.2419508893552766
 20
0.1585297409706912
 10
0.241686570792756
 20
0.1579441275181032
 10
0.2413029799051334
 20
0.1572797286114214
 10
0.2402171563921946
 20
0.1573160554645825
 10
0.2394423994103256
 20
0.157763361616622
 10
0.2389763063590303
 20
0.1581062810851889
  0
LWPOLYLINE
  5
D50
330
2
100
AcDbEntity
  8
Profilo
  6
Continuous
370
     0
100
AcDbPolyline
 90
        4
 70
   128
 43
0.0
 10
0.238453487663244
 20
0.1598845694531748
 10
0.238995891305386
 20
0.1589070152384994
 10
0.2389996802777171
 20
0.1580189656270084
 10
0.2387095866962099
 20
0.157005300784115
  0
LWPOLYLINE
  5
D51
330
2
100
AcDbEntity
  8
Profilo
  6
Continuous
370
     0
100
AcDbPolyline
 90
        5
 70
   128
 43
0.0
 10
0.2285020330474989
 20
0.1558117319293709
 10
0.2313821040091675
 20
0.1546656753087566
 10
0.2334196972020308
 20
0.1547442413005596
 10
0.2352039656057983
 20
0.1548952439076037
 10
0.2376165585133532
 20
0.1554955247206084
  0
LWPOLYLINE
  5
D52
330
2
100
AcDbEntity
  8
Profilo
  6
Continuous
370
     0
100
AcDbPolyline
 90
       19
 70
   128
 43
0.0
 10
0.2424071138947437
 20
0.1664226436683797
 10
0.2461552255005609
 20
0.1668517351036306
 10
0.2476780687145018
 20
0.1668257948286075
 10
0.2482786354244908
 20
0.1665690939295268
 10
0.2494748594732183
 20
0.16710887464338
 10
0.2504385797095203
 20
0.1671372703118176
 10
0.2513306488456746
 20
0.166898012015876
 10
0.2523382617615262
 20
0.1661974544828321
 10
0.2525342340820664
 20
0.1658580204667796
 10
0.2519473541840243
 20
0.164915750110517
 10
0.2513014771724352
 20
0.1644674230626676
 10
0.2509056615927001
 20
0.164238898831158
 10
0.2500940194971939
 20
0.1646000214820126
 10
0.2491517306881879
 20
0.1651874343430398
 10
0.2479593760779235
 20
0.1655550450266632
 10
0.2466778169863144
 20
0.1659465800987014
 10
0.2450896496655268
 20
0.1660856650457423
 10
0.2421658297724107
 20
0.1660570488713653
 10
0.2412674351431493
 20
0.1659155093970472
  0
LWPOLYLINE
  5
D53
330
2
100
AcDbEntity
  8
Profilo
  6
Continuous
370
     0
100
AcDbPolyline
 90
       18
 70
   128
 43
0.0
 10
0.2519322512502218
 20
0.1646807410835861
 10
0.25274634653116
 20
0.1637930263105857
 10
0.2532450547732049
 20
0.1627986525271272
 10
0.2533128335656773
 20
0.1621589165991021
 10
0.2522472577306432
 20
0.1613928465412132
 10
0.2511075774788563
 20
0.1608857114037433
 10
0.2496651628057572
 20
0.1610335168998174
 10
0.2486010017235595
 20
0.1617014294954135
 10
0.2483070446117683
 20
0.1622105781482817
 10
0.2484640293857781
 20
0.1615469186979793
 10
0.2477289450236336
 20
0.161122517543618
 10
0.2467413429126411
 20
0.1610049007254404
 10
0.2459974797407819
 20
0.1607262906856175
 10
0.2470640926393935
 20
0.1595317883390864
 10
0.2474107227406428
 20
0.158147896236335
 10
0.247222112976786
 20
0.1569075556182266
 10
0.2456753851501171
 20
0.1568442794859301
 10
0.2418976399327342
 20
0.1579540293550239
  0
DIMENSION
  5
D54
102
{ACAD_XDICTIONARY
360
D5E
102
}
102
{ACAD_REACTORS
330
D65
102
}
330
2
100
AcDbEntity
  8
Text
  6
ACAD_ISO10W100
100
AcDbDimension
  2
*D25
 10
0.1661514838957505
 20
0.1258215137568335
 30
0.0
 11
0.2733930591046255
 21
0.1923867850371209
 31
0.0
 70
    35
  1
d 440 mm
 71
     5
 42
0.11
  3
Bovelacci
100
AcDbDiametricDimension
 15
0.255040248637639
 25
0.1906195654456088
 35
0.0
 40
0.0
1001
ACAD
1000
DSTYLE
1002
{
1070
   288
1070
     1
1002
}
  0
ENDSEC
  0
SECTION
  2
OBJECTS
  0
DICTIONARY
  5
9
330
0
100
AcDbDictionary
281
     1
  3
ACAD_2007HEADERVARS_RT
350
208
  3
ACAD_COLOR
350
184
  3
ACAD_GROUP
350
17F
  3
ACAD_LAYOUT
350
164
  3
ACAD_MATERIAL
350
B
  3
ACAD_MLINESTYLE
350
180
  3
ACAD_PLOTSETTINGS
350
181
  3
ACAD_PLOTSTYLENAME
350
8
  3
ACAD_TABLESTYLE
350
185
  3
ACAD_VISUALSTYLE
350
17A
  3
ACDBHEADERROUNDTRIPXREC
350
D76
  3
AcDbVariableDictionary
350
18B
  3
DWGPROPS
350
D75
  0
DICTIONARY
  5
16E
330
16D
100
AcDbDictionary
280
     1
281
     1
  3
ACAD_LAYERSTATES
360
16F
  0
DICTIONARY
  5
3
330
2
100
AcDbDictionary
280
     1
281
     1
  3
ACAD_SORTENTS
360
18A
  0
DICTIONARY
  5
D77
330
18
100
AcDbDictionary
280
     1
281
     1
  3
ACAD_MTEXT_RT
360
D78
  0
DICTIONARY
  5
D5E
330
D54
100
AcDbDictionary
280
     1
281
     1
  3
ACAD_DIMASSOC
360
D65
  0
DICTIONARY
  5
208
102
{ACAD_REACTORS
330
9
102
}
330
9
100
AcDbDictionary
281
     1
  3
DIMFXL
350
209
  0
DICTIONARY
  5
184
102
{ACAD_REACTORS
330
9
102
}
330
9
100
AcDbDictionary
281
     1
  0
DICTIONARY
  5
17F
102
{ACAD_REACTORS
330
9
102
}
330
9
100
AcDbDictionary
281
     1
  0
DICTIONARY
  5
164
102
{ACAD_REACTORS
330
9
102
}
330
9
100
AcDbDictionary
281
     1
  3
Layout1
350
168
  3
Layout2
350
16C
  3
Model
350
163
  0
DICTIONARY
  5
B
102
{ACAD_REACTORS
330
9
102
}
330
9
100
AcDbDictionary
281
     1
  3
ByBlock
350
183
  3
ByLayer
350
182
  3
Global
350
A
  0
DICTIONARY
  5
180
102
{ACAD_REACTORS
330
9
102
}
330
9
100
AcDbDictionary
281
     1
  3
Standard
350
186
  0
DICTIONARY
  5
181
102
{ACAD_REACTORS
330
9
102
}
330
9
100
AcDbDictionary
281
     1
  0
ACDBDICTIONARYWDFLT
  5
8
102
{ACAD_REACTORS
330
9
102
}
330
9
100
AcDbDictionary
281
     1
  3
Normal
350
7
100
AcDbDictionaryWithDefault
340
7
  0
DICTIONARY
  5
185
102
{ACAD_REACTORS
330
9
102
}
330
9
100
AcDbDictionary
281
     1
  3
Standard
350
187
  0
DICTIONARY
  5
17A
102
{ACAD_REACTORS
330
9
102
}
330
9
100
AcDbDictionary
281
     1
  3
2dWireframe
350
179
  3
3D Hidden
350
1BD
  3
3dWireframe
350
189
  3
Basic
350
1BC
  3
Brighten
350
1C0
  3
ColorChange
350
1C4
  3
Conceptual
350
1BE
  3
Dim
350
1BF
  3
Facepattern
350
1C3
  3
Flat
350
1B8
  3
FlatWithEdges
350
1B9
  3
Gouraud
350
1BA
  3
GouraudWithEdges
350
1BB
  3
Linepattern
350
1C2
  3
Realistic
350
188
  3
Thicken
350
1C1
  0
DICTIONARY
  5
D76
102
{ACAD_REACTORS
330
9
102
}
330
9
100
AcDbDictionary
281
     1
  0
DICTIONARY
  5
18B
102
{ACAD_REACTORS
330
9
102
}
330
9
100
AcDbDictionary
281
     1
  3
CTABLESTYLE
350
18C
  3
DIMASSOC
350
190
  3
HIDETEXT
350
18F
  3
INDEXCTL
350
18E
  3
PROJECTNAME
350
2F9
  3
SORTENTS
350
18D
  0
XRECORD
  5
D75
102
{ACAD_REACTORS
330
9
102
}
330
9
100
AcDbXrecord
280
     1
  1
DWGPROPS COOKIE
  2

  3

  4

  6

  7

  8
Mario
  9

300
=
301
=
302
=
303
=
304
=
305
=
306
=
307
=
308
=
309
=
 40
0.1249226041666667
 41
2454297.625402373
 42
2454305.956778785
  1

 90
        0
  0
DICTIONARY
  5
16F
102
{ACAD_REACTORS
330
16E
102
}
330
16E
100
AcDbDictionary
281
     1
  0
SORTENTSTABLE
  5
18A
102
{ACAD_REACTORS
330
3
102
}
330
3
100
AcDbSortentsTable
330
2
331
14
  5
10
331
23
  5
24
331
12
  5
16
331
10
  5
14
331
21
  5
22
331
1F
  5
21
331
1D
  5
1E
331
15
  5
11
331
24
  5
18
331
13
  5
D
331
22
  5
23
331
11
  5
15
331
1E
  5
1F
331
D
  5
13
331
1C
  5
1D
331
18
  5
1C
331
16
  5
12
  0
XRECORD
  5
D78
102
{ACAD_REACTORS
330
D77
102
}
330
D77
100
AcDbXrecord
280
     1
 40
7955300.0
  1
{\fTimes New Roman|b0|i0|c238|p18;\H1.6x;\C4;Bovelacci\P\pt0.09;\H0.4375x;\T0.95;via del Commercio, 5  47100 Forli - Italy  \fTimes New Roman|b0|i0|c0|p18;\P\fTimes New Roman|b0|i0|c238|p18;tel.+39-0543721386  fax +39-0543721127\fTimes New Roman|b0|i
  1
0|c0|p18; \fTimes New Roman|b0|i0|c238|p18;www.bovelacci.it\fTimes New Roman|b0|i0|c0|p18; \fTimes New Roman|b0|i0|c238|p18;e-mail: bovelacci@bovelacci\fTimes New Roman|b0|i0|c0|p18;.it}
  0
DIMASSOC
  5
D65
102
{ACAD_REACTORS
330
D5E
102
}
330
D5E
100
AcDbDimAssoc
330
D54
 90
        2
 70
     0
 71
     0
  1
AcDbOsnapPointRef
 72
     3
331
C45
 73
     2
 91
        0
 40
0.0
 10
0.0
 20
0.0
 30
0.0
 75
     0
  0
XRECORD
  5
209
102
{ACAD_REACTORS
330
208
102
}
330
208
100
AcDbXrecord
280
     1
 40
0.18
  0
LAYOUT
  5
168
102
{ACAD_XDICTIONARY
360
D7B
102
}
102
{ACAD_REACTORS
330
164
102
}
330
164
100
AcDbPlotSettings
  1

  2
C:\Documents and Settings\All Users\Dati applicazioni\Autodesk\ADT 2006\enu\Plotters\Default Windows System Printer.pc3
  4

  6

 40
0.0
 41
0.0
 42
0.0
 43
0.0
 44
0.0
 45
0.0
 46
0.0
 47
0.0
 48
0.0
 49
0.0
140
0.0
141
0.0
142
1.0
143
1.0
 70
   688
 72
     0
 73
     0
 74
     5
  7

 75
    16
147
1.0
148
0.0
149
0.0
100
AcDbLayout
  1
Layout1
 70
     1
 71
     1
 10
0.0
 20
0.0
 11
420.0
 21
297.0
 12
0.0
 22
0.0
 32
0.0
 14
1.000000000000000E+20
 24
1.000000000000000E+20
 34
1.000000000000000E+20
 15
-1.000000000000000E+20
 25
-1.000000000000000E+20
 35
-1.000000000000000E+20
146
0.0
 13
0.0
 23
0.0
 33
0.0
 16
1.0
 26
0.0
 36
0.0
 17
0.0
 27
1.0
 37
0.0
 76
     0
330
165
  0
LAYOUT
  5
16C
102
{ACAD_XDICTIONARY
360
D7D
102
}
102
{ACAD_REACTORS
330
164
102
}
330
164
100
AcDbPlotSettings
  1

  2
C:\Documents and Settings\All Users\Dati applicazioni\Autodesk\ADT 2006\enu\Plotters\Default Windows System Printer.pc3
  4

  6

 40
0.0
 41
0.0
 42
0.0
 43
0.0
 44
0.0
 45
0.0
 46
0.0
 47
0.0
 48
0.0
 49
0.0
140
0.0
141
0.0
142
1.0
143
1.0
 70
   688
 72
     0
 73
     0
 74
     5
  7

 75
    16
147
1.0
148
0.0
149
0.0
100
AcDbLayout
  1
Layout2
 70
     1
 71
     2
 10
0.0
 20
0.0
 11
12.0
 21
9.0
 12
0.0
 22
0.0
 32
0.0
 14
0.0
 24
0.0
 34
0.0
 15
0.0
 25
0.0
 35
0.0
146
0.0
 13
0.0
 23
0.0
 33
0.0
 16
1.0
 26
0.0
 36
0.0
 17
0.0
 27
1.0
 37
0.0
 76
     0
330
169
  0
LAYOUT
  5
163
102
{ACAD_XDICTIONARY
360
D79
102
}
102
{ACAD_REACTORS
330
164
102
}
330
164
100
AcDbPlotSettings
  1

  2
C:\Documents and Settings\All Users\Dati applicazioni\Autodesk\ADT 2006\enu\Plotters\Default Windows System Printer.pc3
  4

  6

 40
0.0
 41
0.0
 42
0.0
 43
0.0
 44
0.0
 45
0.0
 46
0.0
 47
0.0
 48
0.0
 49
0.0
140
0.0
141
0.0
142
1.0
143
1.0
 70
  1712
 72
     0
 73
     0
 74
     0
  7

 75
     0
147
1.0
148
0.0
149
0.0
100
AcDbLayout
  1
Model
 70
     1
 71
     0
 10
0.0
 20
0.0
 11
12.0
 21
9.0
 12
0.0
 22
0.0
 32
0.0
 14
0.0
 24
0.0
 34
0.0
 15
0.0
 25
0.0
 35
0.0
146
0.0
 13
0.0
 23
0.0
 33
0.0
 16
1.0
 26
0.0
 36
0.0
 17
0.0
 27
1.0
 37
0.0
 76
     0
330
2
  0
MATERIAL
  5
183
102
{ACAD_XDICTIONARY
360
1B0
102
}
102
{ACAD_REACTORS
330
B
102
}
330
B
100
AcDbMaterial
  1
ByBlock
  0
MATERIAL
  5
182
102
{ACAD_XDICTIONARY
360
1AE
102
}
102
{ACAD_REACTORS
330
B
102
}
330
B
100
AcDbMaterial
  1
ByLayer
  0
MATERIAL
  5
A
102
{ACAD_XDICTIONARY
360
193
102
}
102
{ACAD_REACTORS
330
B
102
}
330
B
100
AcDbMaterial
  1
Global
  0
MLINESTYLE
  5
186
102
{ACAD_REACTORS
330
180
102
}
330
180
100
AcDbMlineStyle
  2
STANDARD
 70
     0
  3

 62
   256
 51
90.0
 52
90.0
 71
     2
 49
0.5
 62
   256
  6
BYLAYER
 49
-0.5
 62
   256
  6
BYLAYER
  0
ACDBPLACEHOLDER
  5
7
102
{ACAD_REACTORS
330
8
102
}
330
8
  0
TABLESTYLE
  5
187
102
{ACAD_XDICTIONARY
360
21A
102
}
102
{ACAD_REACTORS
330
185
102
}
330
185
100
AcDbTableStyle
  3
Standard
 70
     0
 71
     0
 40
1.5
 41
1.5
280
     0
281
     0
  7
Standard
140
4.5
170
     2
 62
     0
 63
     7
283
     0
274
    -2
284
     1
 64
     0
275
    -2
285
     1
 65
     0
276
    -2
286
     1
 66
     0
277
    -2
287
     1
 67
     0
278
    -2
288
     1
 68
     0
279
    -2
289
     1
 69
     0
  7
Standard
140
6.0
170
     5
 62
     0
 63
     7
283
     0
274
    -2
284
     1
 64
     0
275
    -2
285
     1
 65
     0
276
    -2
286
     1
 66
     0
277
    -2
287
     1
 67
     0
278
    -2
288
     1
 68
     0
279
    -2
289
     1
 69
     0
  7
Standard
140
4.5
170
     5
 62
     0
 63
     7
283
     0
274
    -2
284
     1
 64
     0
275
    -2
285
     1
 65
     0
276
    -2
286
     1
 66
     0
277
    -2
287
     1
 67
     0
278
    -2
288
     1
 68
     0
279
    -2
289
     1
 69
     0
  0
VISUALSTYLE
  5
179
102
{ACAD_REACTORS
330
17A
102
}
330
17A
100
AcDbVisualStyle
  2
2dWireframe
 70
     4
 71
     0
 72
     2
 73
     0
 90
        0
 40
-0.6
 41
-30.0
 62
     5
 63
     7
 74
     1
 91
        4
 64
     7
 65
   257
 75
     1
175
     1
 42
1.0
 92
        0
 66
   257
 43
1.0
 76
     1
 77
     6
 78
     2
 67
     7
 79
     5
170
     0
171
     0
290
     0
174
     0
 93
        1
 44
0.0
173
     0
291
     0
 45
0.0
1001
ACAD
1000
AcDbSavedByObjectVersion
1070
     0
1000
AcDbSavedByObjectVersion
1070
     0
1000
AcDbSavedByObjectVersion
1070
     0
1001
ACAD
1000
AcRTDxfName
1000
VISUALSTYLE
  0
VISUALSTYLE
  5
1BD
102
{ACAD_REACTORS
330
17A
102
}
330
17A
100
AcDbVisualStyle
  2
3D Hidden
 70
     6
 71
     1
 72
     2
 73
     2
 90
        0
 40
-0.6
 41
-30.0
 62
     5
 63
     7
 74
     2
 91
        2
 64
     7
 65
   257
 75
     2
175
     1
 42
40.0
 92
        0
 66
   257
 43
1.0
 76
     1
 77
     6
 78
     2
 67
     7
 79
     3
170
     0
171
     0
290
     0
174
     0
 93
        1
 44
0.0
173
     0
291
     0
 45
0.0
1001
ACAD
1000
AcDbSavedByObjectVersion
1070
     0
1000
AcDbSavedByObjectVersion
1070
     0
1001
ACAD
1000
AcRTDxfName
1000
VISUALSTYLE
  0
VISUALSTYLE
  5
189
102
{ACAD_REACTORS
330
17A
102
}
330
17A
100
AcDbVisualStyle
  2
3dWireframe
 70
     5
 71
     0
 72
     2
 73
     0
 90
        0
 40
-0.6
 41
-30.0
 62
     5
 63
     7
 74
     1
 91
        4
 64
     7
 65
   257
 75
     1
175
     1
 42
1.0
 92
        0
 66
   257
 43
1.0
 76
     1
 77
     6
 78
     2
 67
     7
 79
     5
170
     0
171
     0
290
     0
174
     0
 93
        1
 44
0.0
173
     0
291
     0
 45
0.0
1001
ACAD
1000
AcDbSavedByObjectVersion
1070
     0
1000
AcDbSavedByObjectVersion
1070
     0
1000
AcDbSavedByObjectVersion
1070
     0
1001
ACAD
1000
AcRTDxfName
1000
VISUALSTYLE
  0
VISUALSTYLE
  5
1BC
102
{ACAD_REACTORS
330
17A
102
}
330
17A
100
AcDbVisualStyle
  2
Basic
 70
     7
 71
     1
 72
     0
 73
     1
 90
        0
 40
-0.6
 41
-30.0
 62
     5
 63
     7
 74
     0
 91
        4
 64
     7
 65
   257
 75
     1
175
     1
 42
1.0
 92
        8
 66
     7
 43
1.0
 76
     1
 77
     6
 78
     2
 67
     7
 79
     5
170
     0
171
     0
290
     0
174
     0
 93
        1
 44
0.0
173
     0
291
     1
 45
0.0
1001
ACAD
1000
AcDbSavedByObjectVersion
1070
     0
1000
AcDbSavedByObjectVersion
1070
     0
1001
ACAD
1000
AcRTDxfName
1000
VISUALSTYLE
  0
VISUALSTYLE
  5
1C0
102
{ACAD_REACTORS
330
17A
102
}
330
17A
100
AcDbVisualStyle
  2
Brighten
 70
    12
 71
     2
 72
     2
 73
     0
 90
        0
 40
-0.6
 41
-30.0
 62
     5
 63
     7
 74
     1
 91
        4
 64
     7
 65
   257
 75
     1
175
     1
 42
1.0
 92
        8
 66
     7
 43
1.0
 76
     1
 77
     6
 78
     2
 67
     7
 79
     5
170
     0
171
     0
290
     0
174
     0
 93
        1
 44
50.0
173
     0
291
     1
 45
0.0
1001
ACAD
1000
AcDbSavedByObjectVersion
1070
     0
1000
AcDbSavedByObjectVersion
1070
     0
1001
ACAD
1000
AcRTDxfName
1000
VISUALSTYLE
  0
VISUALSTYLE
  5
1C4
102
{ACAD_REACTORS
330
17A
102
}
330
17A
100
AcDbVisualStyle
  2
ColorChange
 70
    16
 71
     2
 72
     2
 73
     3
 90
        0
 40
-0.6
 41
-30.0
 62
     5
 63
     8
 74
     1
 91
        4
 64
     7
 65
   257
 75
     1
175
     1
 42
1.0
 92
        8
 66
     8
 43
1.0
 76
     1
 77
     6
 78
     2
 67
     7
 79
     5
170
     0
171
     0
290
     0
174
     0
 93
        1
 44
0.0
173
     0
291
     1
 45
0.0
1001
ACAD
1000
AcDbSavedByObjectVersion
1070
     0
1000
AcDbSavedByObjectVersion
1070
     0
1001
ACAD
1000
AcRTDxfName
1000
VISUALSTYLE
  0
VISUALSTYLE
  5
1BE
102
{ACAD_REACTORS
330
17A
102
}
330
17A
100
AcDbVisualStyle
  2
Conceptual
 70
     9
 71
     3
 72
     2
 73
     0
 90
        0
 40
-0.6
 41
-30.0
 62
     5
 63
     7
 74
     2
 91
        2
 64
     7
 65
   257
 75
     1
175
     1
 42
40.0
 92
        8
 66
     7
 43
1.0
 76
     1
 77
     6
 78
     2
 67
     7
 79
     3
170
     0
171
     0
290
     0
174
     0
 93
        1
 44
0.0
173
     0
291
     0
 45
0.0
1001
ACAD
1000
AcDbSavedByObjectVersion
1070
     0
1000
AcDbSavedByObjectVersion
1070
     0
1001
ACAD
1000
AcRTDxfName
1000
VISUALSTYLE
  0
VISUALSTYLE
  5
1BF
102
{ACAD_REACTORS
330
17A
102
}
330
17A
100
AcDbVisualStyle
  2
Dim
 70
    11
 71
     2
 72
     2
 73
     0
 90
        0
 40
-0.6
 41
-30.0
 62
     5
 63
     7
 74
     1
 91
        4
 64
     7
 65
   257
 75
     1
175
     1
 42
1.0
 92
        8
 66
     7
 43
1.0
 76
     1
 77
     6
 78
     2
 67
     7
 79
     5
170
     0
171
     0
290
     0
174
     0
 93
        1
 44
-50.0
173
     0
291
     1
 45
0.0
1001
ACAD
1000
AcDbSavedByObjectVersion
1070
     0
1000
AcDbSavedByObjectVersion
1070
     0
1001
ACAD
1000
AcRTDxfName
1000
VISUALSTYLE
  0
VISUALSTYLE
  5
1C3
102
{ACAD_REACTORS
330
17A
102
}
330
17A
100
AcDbVisualStyle
  2
Facepattern
 70
    15
 71
     2
 72
     2
 73
     0
 90
        0
 40
-0.6
 41
-30.0
 62
     5
 63
     7
 74
     1
 91
        4
 64
     7
 65
   257
 75
     1
175
     1
 42
1.0
 92
        8
 66
     7
 43
1.0
 76
     1
 77
     6
 78
     2
 67
     7
 79
     5
170
     0
171
     0
290
     0
174
     0
 93
        1
 44
0.0
173
     0
291
     1
 45
0.0
1001
ACAD
1000
AcDbSavedByObjectVersion
1070
     0
1000
AcDbSavedByObjectVersion
1070
     0
1001
ACAD
1000
AcRTDxfName
1000
VISUALSTYLE
  0
VISUALSTYLE
  5
1B8
102
{ACAD_REACTORS
330
17A
102
}
330
17A
100
AcDbVisualStyle
  2
Flat
 70
     0
 71
     2
 72
     1
 73
     1
 90
        2
 40
-0.6
 41
30.0
 62
     5
 63
     7
 74
     0
 91
        4
 64
     7
 65
   257
 75
     1
175
     1
 42
1.0
 92
        8
 66
     7
 43
1.0
 76
     1
 77
     6
 78
     2
 67
     7
 79
     5
170
     0
171
     0
290
     0
174
     0
 93
       13
 44
0.0
173
     0
291
     1
 45
0.0
1001
ACAD
1000
AcDbSavedByObjectVersion
1070
     0
1000
AcDbSavedByObjectVersion
1070
     0
1001
ACAD
1000
AcRTDxfName
1000
VISUALSTYLE
  0
VISUALSTYLE
  5
1B9
102
{ACAD_REACTORS
330
17A
102
}
330
17A
100
AcDbVisualStyle
  2
FlatWithEdges
 70
     1
 71
     2
 72
     1
 73
     1
 90
        2
 40
-0.6
 41
30.0
 62
     5
 63
     7
 74
     1
 91
        4
 64
     7
 65
   257
 75
     1
175
     1
 42
1.0
 92
        0
 66
   257
 43
1.0
 76
     1
 77
     6
 78
     2
 67
     7
 79
     5
170
     0
171
     0
290
     0
174
     0
 93
       13
 44
0.0
173
     0
291
     1
 45
0.0
1001
ACAD
1000
AcDbSavedByObjectVersion
1070
     0
1000
AcDbSavedByObjectVersion
1070
     0
1001
ACAD
1000
AcRTDxfName
1000
VISUALSTYLE
  0
VISUALSTYLE
  5
1BA
102
{ACAD_REACTORS
330
17A
102
}
330
17A
100
AcDbVisualStyle
  2
Gouraud
 70
     2
 71
     2
 72
     2
 73
     1
 90
        2
 40
-0.6
 41
30.0
 62
     5
 63
     7
 74
     0
 91
        4
 64
     7
 65
   257
 75
     1
175
     1
 42
1.0
 92
        0
 66
     7
 43
1.0
 76
     1
 77
     6
 78
     2
 67
     7
 79
     5
170
     0
171
     0
290
     0
174
     0
 93
       13
 44
0.0
173
     0
291
     1
 45
0.0
1001
ACAD
1000
AcDbSavedByObjectVersion
1070
     0
1000
AcDbSavedByObjectVersion
1070
     0
1001
ACAD
1000
AcRTDxfName
1000
VISUALSTYLE
  0
VISUALSTYLE
  5
1BB
102
{ACAD_REACTORS
330
17A
102
}
330
17A
100
AcDbVisualStyle
  2
GouraudWithEdges
 70
     3
 71
     2
 72
     2
 73
     1
 90
        2
 40
-0.6
 41
30.0
 62
     5
 63
     7
 74
     1
 91
        4
 64
     7
 65
   257
 75
     1
175
     1
 42
1.0
 92
        0
 66
   257
 43
1.0
 76
     1
 77
     6
 78
     2
 67
     7
 79
     5
170
     0
171
     0
290
     0
174
     0
 93
       13
 44
0.0
173
     0
291
     1
 45
0.0
1001
ACAD
1000
AcDbSavedByObjectVersion
1070
     0
1000
AcDbSavedByObjectVersion
1070
     0
1001
ACAD
1000
AcRTDxfName
1000
VISUALSTYLE
  0
VISUALSTYLE
  5
1C2
102
{ACAD_REACTORS
330
17A
102
}
330
17A
100
AcDbVisualStyle
  2
Linepattern
 70
    14
 71
     2
 72
     2
 73
     0
 90
        0
 40
-0.6
 41
-30.0
 62
     5
 63
     7
 74
     1
 91
        4
 64
     7
 65
   257
 75
     7
175
     7
 42
1.0
 92
        8
 66
     7
 43
1.0
 76
     1
 77
     6
 78
     2
 67
     7
 79
     5
170
     0
171
     0
290
     0
174
     0
 93
        1
 44
0.0
173
     0
291
     1
 45
0.0
1001
ACAD
1000
AcDbSavedByObjectVersion
1070
     0
1000
AcDbSavedByObjectVersion
1070
     0
1001
ACAD
1000
AcRTDxfName
1000
VISUALSTYLE
  0
VISUALSTYLE
  5
188
102
{ACAD_REACTORS
330
17A
102
}
330
17A
100
AcDbVisualStyle
  2
Realistic
 70
     8
 71
     2
 72
     2
 73
     0
 90
        0
 40
-0.6
 41
-30.0
 62
     5
 63
     7
 74
     1
 91
        0
 64
     7
 65
   257
 75
     1
175
     1
 42
1.0
 92
        8
 66
     8
 43
1.0
 76
     1
 77
     6
 78
     2
 67
     7
 79
     5
170
     0
171
     0
290
     0
174
     0
 93
       13
 44
0.0
173
     0
291
     0
 45
0.0
1001
ACAD
1000
AcDbSavedByObjectVersion
1070
     0
1000
AcDbSavedByObjectVersion
1070
     0
1000
AcDbSavedByObjectVersion
1070
     0
1001
ACAD
1000
AcRTDxfName
1000
VISUALSTYLE
  0
VISUALSTYLE
  5
1C1
102
{ACAD_REACTORS
330
17A
102
}
330
17A
100
AcDbVisualStyle
  2
Thicken
 70
    13
 71
     2
 72
     2
 73
     0
 90
        0
 40
-0.6
 41
-30.0
 62
     5
 63
     7
 74
     1
 91
        4
 64
     7
 65
   257
 75
     1
175
     1
 42
1.0
 92
       12
 66
     7
 43
1.0
 76
     1
 77
     6
 78
     2
 67
     7
 79
     5
170
     0
171
     0
290
     0
174
     0
 93
        1
 44
0.0
173
     0
291
     1
 45
0.0
1001
ACAD
1000
AcDbSavedByObjectVersion
1070
     0
1000
AcDbSavedByObjectVersion
1070
     0
1001
ACAD
1000
AcRTDxfName
1000
VISUALSTYLE
  0
DICTIONARYVAR
  5
18C
102
{ACAD_REACTORS
330
18B
102
}
330
18B
100
DictionaryVariables
280
     0
  1
STANDARD
  0
DICTIONARYVAR
  5
190
102
{ACAD_REACTORS
330
18B
102
}
330
18B
100
DictionaryVariables
280
     0
  1
2
  0
DICTIONARYVAR
  5
18F
102
{ACAD_REACTORS
330
18B
102
}
330
18B
100
DictionaryVariables
280
     0
  1
1
  0
DICTIONARYVAR
  5
18E
102
{ACAD_REACTORS
330
18B
102
}
330
18B
100
DictionaryVariables
280
     0
  1
0
  0
DICTIONARYVAR
  5
2F9
102
{ACAD_REACTORS
330
18B
102
}
330
18B
100
DictionaryVariables
280
     0
  1

  0
DICTIONARYVAR
  5
18D
102
{ACAD_REACTORS
330
18B
102
}
330
18B
100
DictionaryVariables
280
     0
  1
127
  0
DICTIONARY
  5
D7B
330
168
100
AcDbDictionary
280
     1
281
     1
  3
ACAD_XREC_ROUNDTRIP
360
D7C
  0
DICTIONARY
  5
D7D
330
16C
100
AcDbDictionary
280
     1
281
     1
  3
ACAD_XREC_ROUNDTRIP
360
D7E
  0
DICTIONARY
  5
D79
330
163
100
AcDbDictionary
280
     1
281
     1
  3
ACAD_XREC_ROUNDTRIP
360
D7A
  0
DICTIONARY
  5
1B0
330
183
100
AcDbDictionary
280
     1
281
     1
  3
ACAD_XREC_ROUNDTRIP
360
1B1
  0
DICTIONARY
  5
1AE
330
182
100
AcDbDictionary
280
     1
281
     1
  3
ACAD_XREC_ROUNDTRIP
360
1AF
  0
DICTIONARY
  5
193
330
A
100
AcDbDictionary
280
     1
281
     1
  3
ACAD_XREC_ROUNDTRIP
360
194
  0
DICTIONARY
  5
21A
330
187
100
AcDbDictionary
280
     1
281
     1
  3
ACAD_XREC_ROUNDTRIP
360
21B
  0
XRECORD
  5
D7C
102
{ACAD_REACTORS
330
D7B
102
}
330
D7B
100
AcDbXrecord
280
     1
102
SHADEPLOT
 70
     0
102
SHADEPLOTRESLEVEL
 70
     2
102
SHADEPLOTCUSTOMDPI
 70
   300
  0
XRECORD
  5
D7E
102
{ACAD_REACTORS
330
D7D
102
}
330
D7D
100
AcDbXrecord
280
     1
102
SHADEPLOT
 70
     0
102
SHADEPLOTRESLEVEL
 70
     2
102
SHADEPLOTCUSTOMDPI
 70
   300
  0
XRECORD
  5
D7A
102
{ACAD_REACTORS
330
D79
102
}
330
D79
100
AcDbXrecord
280
     1
102
SHADEPLOT
 70
     0
102
SHADEPLOTRESLEVEL
 70
     2
102
SHADEPLOTCUSTOMDPI
 70
   300
  0
XRECORD
  5
1B1
102
{ACAD_REACTORS
330
1B0
102
}
330
1B0
100
AcDbXrecord
280
     1
102
MATERIAL
148
0.0
149
0.0
149
0.0
 93
        0
 94
       63
282
     0
 72
     1
 77
     1
171
     1
175
     1
179
     1
273
     0
  0
XRECORD
  5
1AF
102
{ACAD_REACTORS
330
1AE
102
}
330
1AE
100
AcDbXrecord
280
     1
102
MATERIAL
148
0.0
149
0.0
149
0.0
 93
        0
 94
       63
282
     0
 72
     1
 77
     1
171
     1
175
     1
179
     1
273
     0
  0
XRECORD
  5
194
102
{ACAD_REACTORS
330
193
102
}
330
193
100
AcDbXrecord
280
     1
102
MATERIAL
148
0.0
149
0.0
149
0.0
 93
        0
 94
       63
282
     0
 72
     1
 77
     1
171
     1
175
     1
179
     1
273
     0
  0
XRECORD
  5
21B
102
{ACAD_REACTORS
330
21A
102
}
330
21A
100
AcDbXrecord
280
     1
102
ACAD_ROUNDTRIP_PRE2007_TABLESTYLE
 90
        4
 91
        0
  1

 92
        4
 93
        0
  2

 94
        4
 95
        0
  3

  0
ENDSEC
  0
EOF
