  0
SECTION
  2
HEADER
  9
$ACADVER
  1
AC1015
  9
$ACADMAINTVER
 70
    20
  9
$DWGCODEPAGE
  3
ANSI_1252
  9
$INSBASE
 10
0.0
 20
0.0
 30
0.0
  9
$EXTMIN
 10
0.003220229487616
 20
0.015
 30
0.0
  9
$EXTMAX
 10
0.4477103572626504
 20
0.282
 30
0.0
  9
$LIMMIN
 10
0.0
 20
0.0
  9
$LIMMAX
 10
1.0
 20
0.5
  9
$ORTHOMODE
 70
     0
  9
$REGENMODE
 70
     1
  9
$FILLMODE
 70
     1
  9
$QTEXTMODE
 70
     0
  9
$MIRRTEXT
 70
     0
  9
$LTSCALE
 40
1.0
  9
$ATTMODE
 70
     1
  9
$TEXTSIZE
 40
0.005
  9
$TRACEWID
 40
1.0
  9
$TEXTSTYLE
  7
style1
  9
$CLAYER
  8
Dimensione
  9
$CELTYPE
  6
ByLayer
  9
$CECOLOR
 62
   256
  9
$CELTSCALE
 40
1.0
  9
$DISPSILH
 70
     0
  9
$DIMSCALE
 40
0.001
  9
$DIMASZ
 40
1.5
  9
$DIMEXO
 40
0.0625
  9
$DIMDLI
 40
0.38
  9
$DIMRND
 40
0.0
  9
$DIMDLE
 40
0.0
  9
$DIMEXE
 40
0.18
  9
$DIMTP
 40
0.0
  9
$DIMTM
 40
0.0
  9
$DIMTXT
 40
3.0
  9
$DIMCEN
 40
0.0
  9
$DIMTSZ
 40
0.0
  9
$DIMTOL
 70
     0
  9
$DIMLIM
 70
     0
  9
$DIMTIH
 70
     1
  9
$DIMTOH
 70
     1
  9
$DIMSE1
 70
     0
  9
$DIMSE2
 70
     0
  9
$DIMTAD
 70
     0
  9
$DIMZIN
 70
     0
  9
$DIMBLK
  1
ArchTick
  9
$DIMASO
 70
     1
  9
$DIMSHO
 70
     1
  9
$DIMPOST
  1

  9
$DIMAPOST
  1

  9
$DIMALT
 70
     0
  9
$DIMALTD
 70
     2
  9
$DIMALTF
 40
25.4
  9
$DIMLFAC
 40
1.0
  9
$DIMTOFL
 70
     0
  9
$DIMTVP
 40
0.0
  9
$DIMTIX
 70
     0
  9
$DIMSOXD
 70
     0
  9
$DIMSAH
 70
     0
  9
$DIMBLK1
  1

  9
$DIMBLK2
  1

  9
$DIMSTYLE
  2
Bovelacci
  9
$DIMCLRD
 70
     5
  9
$DIMCLRE
 70
     5
  9
$DIMCLRT
 70
     4
  9
$DIMTFAC
 40
1.0
  9
$DIMGAP
 40
2.0
  9
$DIMJUST
 70
     0
  9
$DIMSD1
 70
     0
  9
$DIMSD2
 70
     0
  9
$DIMTOLJ
 70
     1
  9
$DIMTZIN
 70
     0
  9
$DIMALTZ
 70
     0
  9
$DIMALTTZ
 70
     0
  9
$DIMUPT
 70
     0
  9
$DIMDEC
 70
     2
  9
$DIMTDEC
 70
     2
  9
$DIMALTU
 70
     2
  9
$DIMALTTD
 70
     2
  9
$DIMTXSTY
  7
ROMANS
  9
$DIMAUNIT
 70
     0
  9
$DIMADEC
 70
     0
  9
$DIMALTRND
 40
0.0
  9
$DIMAZIN
 70
     0
  9
$DIMDSEP
 70
    46
  9
$DIMATFIT
 70
     3
  9
$DIMFRAC
 70
     0
  9
$DIMLDRBLK
  1

  9
$DIMLUNIT
 70
     2
  9
$DIMLWD
 70
    -2
  9
$DIMLWE
 70
    -2
  9
$DIMTMOVE
 70
     2
  9
$LUNITS
 70
     2
  9
$LUPREC
 70
     2
  9
$SKETCHINC
 40
1.0
  9
$FILLETRAD
 40
0.0
  9
$AUNITS
 70
     0
  9
$AUPREC
 70
     0
  9
$MENU
  1
.
  9
$ELEVATION
 40
0.0
  9
$PELEVATION
 40
0.0
  9
$THICKNESS
 40
0.0
  9
$LIMCHECK
 70
     0
  9
$CHAMFERA
 40
0.0
  9
$CHAMFERB
 40
0.0
  9
$CHAMFERC
 40
0.0
  9
$CHAMFERD
 40
0.0
  9
$SKPOLY
 70
     0
  9
$TDCREATE
 40
2454297.583735706
  9
$TDUCREATE
 40
2454297.542069039
  9
$TDUPDATE
 40
2454434.364692199
  9
$TDUUPDATE
 40
2454434.323025533
  9
$TDINDWG
 40
0.8663400810
  9
$TDUSRTIMER
 40
0.8663395255
  9
$USRTIMER
 70
     1
  9
$ANGBASE
 50
0.0
  9
$ANGDIR
 70
     0
  9
$PDMODE
 70
     0
  9
$PDSIZE
 40
0.0
  9
$PLINEWID
 40
0.0
  9
$SPLFRAME
 70
     0
  9
$SPLINETYPE
 70
     6
  9
$SPLINESEGS
 70
     8
  9
$HANDSEED
  5
1B46
  9
$SURFTAB1
 70
     6
  9
$SURFTAB2
 70
     6
  9
$SURFTYPE
 70
     6
  9
$SURFU
 70
     6
  9
$SURFV
 70
     6
  9
$UCSBASE
  2

  9
$UCSNAME
  2

  9
$UCSORG
 10
0.0
 20
0.0
 30
0.0
  9
$UCSXDIR
 10
1.0
 20
0.0
 30
0.0
  9
$UCSYDIR
 10
0.0
 20
1.0
 30
0.0
  9
$UCSORTHOREF
  2

  9
$UCSORTHOVIEW
 70
     0
  9
$UCSORGTOP
 10
0.0
 20
0.0
 30
0.0
  9
$UCSORGBOTTOM
 10
0.0
 20
0.0
 30
0.0
  9
$UCSORGLEFT
 10
0.0
 20
0.0
 30
0.0
  9
$UCSORGRIGHT
 10
0.0
 20
0.0
 30
0.0
  9
$UCSORGFRONT
 10
0.0
 20
0.0
 30
0.0
  9
$UCSORGBACK
 10
0.0
 20
0.0
 30
0.0
  9
$PUCSBASE
  2

  9
$PUCSNAME
  2

  9
$PUCSORG
 10
0.0
 20
0.0
 30
0.0
  9
$PUCSXDIR
 10
1.0
 20
0.0
 30
0.0
  9
$PUCSYDIR
 10
0.0
 20
1.0
 30
0.0
  9
$PUCSORTHOREF
  2

  9
$PUCSORTHOVIEW
 70
     0
  9
$PUCSORGTOP
 10
0.0
 20
0.0
 30
0.0
  9
$PUCSORGBOTTOM
 10
0.0
 20
0.0
 30
0.0
  9
$PUCSORGLEFT
 10
0.0
 20
0.0
 30
0.0
  9
$PUCSORGRIGHT
 10
0.0
 20
0.0
 30
0.0
  9
$PUCSORGFRONT
 10
0.0
 20
0.0
 30
0.0
  9
$PUCSORGBACK
 10
0.0
 20
0.0
 30
0.0
  9
$USERI1
 70
     0
  9
$USERI2
 70
     0
  9
$USERI3
 70
     0
  9
$USERI4
 70
     0
  9
$USERI5
 70
     0
  9
$USERR1
 40
0.0
  9
$USERR2
 40
0.0
  9
$USERR3
 40
0.0
  9
$USERR4
 40
0.0
  9
$USERR5
 40
0.0
  9
$WORLDVIEW
 70
     1
  9
$SHADEDGE
 70
     3
  9
$SHADEDIF
 70
    70
  9
$TILEMODE
 70
     1
  9
$MAXACTVP
 70
    64
  9
$PINSBASE
 10
0.0
 20
0.0
 30
0.0
  9
$PLIMCHECK
 70
     0
  9
$PEXTMIN
 10
29.06606628894805
 20
20.36233246326446
 30
0.0
  9
$PEXTMAX
 10
261.5945966005325
 20
183.2609921693802
 30
0.0
  9
$PLIMMIN
 10
-3.17498779296875
 20
-3.174999952316281
  9
$PLIMMAX
 10
293.8356628417969
 20
206.7983276844024
  9
$UNITMODE
 70
     0
  9
$VISRETAIN
 70
     1
  9
$PLINEGEN
 70
     0
  9
$PSLTSCALE
 70
     1
  9
$TREEDEPTH
 70
  3020
  9
$CMLSTYLE
  2
Standard
  9
$CMLJUST
 70
     0
  9
$CMLSCALE
 40
20.0
  9
$PROXYGRAPHICS
 70
     1
  9
$MEASUREMENT
 70
     1
  9
$CELWEIGHT
370
    -1
  9
$ENDCAPS
280
     0
  9
$JOINSTYLE
280
     0
  9
$LWDISPLAY
290
     0
  9
$INSUNITS
 70
     4
  9
$HYPERLINKBASE
  1

  9
$STYLESHEET
  1

  9
$XEDIT
290
     1
  9
$CEPSNTYPE
380
     0
  9
$PSTYLEMODE
290
     1
  9
$FINGERPRINTGUID
  2
{4F38C4E7-9F37-4C76-96D9-79C94F9B03D9}
  9
$VERSIONGUID
  2
{36B69196-9657-405A-AD1A-7E8F37A48A68}
  9
$EXTNAMES
290
     1
  9
$PSVPSCALE
 40
0.0
  9
$OLESTARTUP
290
     0
  0
ENDSEC
  0
SECTION
  2
CLASSES
  0
CLASS
  1
ACDBDICTIONARYWDFLT
  2
AcDbDictionaryWithDefault
  3
ObjectDBX Classes
 90
        0
280
     0
281
     0
  0
CLASS
  1
TABLESTYLE
  2
AcDbTableStyle
  3
ObjectDBX Classes
 90
     4095
280
     0
281
     0
  0
CLASS
  1
SORTENTSTABLE
  2
AcDbSortentsTable
  3
ObjectDBX Classes
 90
        0
280
     0
281
     0
  0
CLASS
  1
DICTIONARYVAR
  2
AcDbDictionaryVar
  3
ObjectDBX Classes
 90
        0
280
     0
281
     0
  0
CLASS
  1
DIMASSOC
  2
AcDbDimAssoc
  3
"AcDbDimAssoc|Product Desc:     AcDim ARX App For Dimension|Company:          Autodesk, Inc.|WEB Address:      www.autodesk.com"
 90
        0
280
     0
281
     0
  0
CLASS
  1
ACDBPLACEHOLDER
  2
AcDbPlaceHolder
  3
ObjectDBX Classes
 90
        0
280
     0
281
     0
  0
CLASS
  1
LAYOUT
  2
AcDbLayout
  3
ObjectDBX Classes
 90
        0
280
     0
281
     0
  0
CLASS
  1
MATERIAL
  2
AcDbMaterial
  3
ObjectDBX Classes
 90
     1024
280
     0
281
     0
  0
CLASS
  1
VISUALSTYLE
  2
AcDbVisualStyle
  3
ObjectDBX Classes
 90
     4095
280
     0
281
     0
  0
CLASS
  1
ACAD_EVALUATION_GRAPH
  2
AcDbEvalGraph
  3
ObjectDBX Classes
 90
    33921
280
     0
281
     0
  0
CLASS
  1
ACAECUSTOBJ
  2
AcAeEditorObj
  3
AcAeEditorObj
 90
    33792
280
     0
281
     0
  0
CLASS
  1
ACDB_DYNAMICBLOCKPURGEPREVENTER_VERSION
  2
AcDbDynamicBlockPurgePreventer
  3
ObjectDBX Classes
 90
    33921
280
     0
281
     0
  0
ENDSEC
  0
SECTION
  2
TABLES
  0
TABLE
  2
VPORT
  5
96
102
{ACAD_XDICTIONARY
360
1A40
102
}
330
0
100
AcDbSymbolTable
 70
     1
  0
VPORT
  5
19D6
330
96
100
AcDbSymbolTableRecord
100
AcDbViewportTableRecord
  2
*Active
 70
     0
 10
0.0
 20
0.0
 11
1.0
 21
1.0
 12
0.198131302228783
 22
0.1473205066591528
 13
0.0
 23
0.0
 14
10.0
 24
10.0
 15
10.0
 25
10.0
 16
0.0
 26
0.0
 36
1.0
 17
0.0
 27
0.0
 37
0.0
 40
0.2973291387433226
 41
1.656498673740053
 42
50.0
 43
0.0
 44
0.0
 50
0.0
 51
0.0
 71
     0
 72
  1000
 73
     1
 74
     3
 75
     0
 76
     0
 77
     0
 78
     0
281
     0
 65
     1
110
0.0
120
0.0
130
0.0
111
1.0
121
0.0
131
0.0
112
0.0
122
1.0
132
0.0
 79
     0
146
0.0
  0
ENDTAB
  0
TABLE
  2
LTYPE
  5
91
330
0
100
AcDbSymbolTable
 70
     5
  0
LTYPE
  5
92
330
91
100
AcDbSymbolTableRecord
100
AcDbLinetypeTableRecord
  2
ByBlock
 70
     0
  3

 72
    65
 73
     0
 40
0.0
  0
LTYPE
  5
93
330
91
100
AcDbSymbolTableRecord
100
AcDbLinetypeTableRecord
  2
ByLayer
 70
     0
  3

 72
    65
 73
     0
 40
0.0
  0
LTYPE
  5
C
330
91
100
AcDbSymbolTableRecord
100
AcDbLinetypeTableRecord
  2
Continuous
 70
     0
  3
Solid line
 72
    65
 73
     0
 40
0.0
  0
LTYPE
  5
105
330
91
100
AcDbSymbolTableRecord
100
AcDbLinetypeTableRecord
  2
ACAD_ISO10W100
 70
     0
  3
ISO dash dot __ . __ . __ . __ . __ . __ . __ .
 72
    65
 73
     4
 40
18.0
 49
12.0
 74
     0
 49
-3.0
 74
     0
 49
0.0
 74
     0
 49
-3.0
 74
     0
  0
LTYPE
  5
190
330
91
100
AcDbSymbolTableRecord
100
AcDbLinetypeTableRecord
  2
RAYITAX4
 70
     0
  3
RAYITAX4
 72
    65
 73
     2
 40
18.0
 49
12.0
 74
     0
 49
-6.0
 74
     0
  0
LTYPE
  5
73C
330
91
100
AcDbSymbolTableRecord
100
AcDbLinetypeTableRecord
  2
RAYITA
 70
     0
  3
rayita
 72
    65
 73
     2
 40
1.5
 49
1.0
 74
     0
 49
-0.5
 74
     0
  0
ENDTAB
  0
TABLE
  2
LAYER
  5
8A
102
{ACAD_XDICTIONARY
360
8B
102
}
330
0
100
AcDbSymbolTable
 70
    12
  0
LAYER
  5
6
330
8A
100
AcDbSymbolTableRecord
100
AcDbLayerTableRecord
  2
0
 70
     0
 62
     7
  6
Continuous
370
    -3
390
7
  0
LAYER
  5
3F
330
8A
100
AcDbSymbolTableRecord
100
AcDbLayerTableRecord
  2
Defpoints
 70
     0
 62
     7
  6
Continuous
290
     0
370
    -3
390
7
  0
LAYER
  5
2E
330
8A
100
AcDbSymbolTableRecord
100
AcDbLayerTableRecord
  2
Dimensione
 70
     0
 62
   150
  6
Continuous
370
    -3
390
7
1001
AcAecLayerStandard
1000

1000

  0
LAYER
  5
2A
330
8A
100
AcDbSymbolTableRecord
100
AcDbLayerTableRecord
  2
Profilo
 70
     0
 62
     1
  6
Continuous
370
    -3
390
7
1001
AcAecLayerStandard
1000

1000

  0
LAYER
  5
54
330
8A
100
AcDbSymbolTableRecord
100
AcDbLayerTableRecord
  2
Sezione
 70
     0
 62
     2
  6
Continuous
370
    -3
390
7
1001
AcAecLayerStandard
1000

1000

  0
LAYER
  5
E
330
8A
100
AcDbSymbolTableRecord
100
AcDbLayerTableRecord
  2
Table
 70
     0
 62
     3
  6
Continuous
370
    -3
390
7
1001
AcAecLayerStandard
1000

1000

  0
LAYER
  5
19
330
8A
100
AcDbSymbolTableRecord
100
AcDbLayerTableRecord
  2
Text
 70
     0
 62
     4
  6
Continuous
370
    -3
390
7
1001
AcAecLayerStandard
1000

1000

  0
LAYER
  5
5C
330
8A
100
AcDbSymbolTableRecord
100
AcDbLayerTableRecord
  2
Vista
 70
     0
 62
     2
  6
Continuous
370
    -3
390
7
1001
AcAecLayerStandard
1000

1000

  0
LAYER
  5
256
330
8A
100
AcDbSymbolTableRecord
100
AcDbLayerTableRecord
  2
CORTE
 70
     0
 62
     1
  6
Continuous
370
    -3
390
7
  0
LAYER
  5
40E
330
8A
100
AcDbSymbolTableRecord
100
AcDbLayerTableRecord
  2
COTAS
 70
     0
 62
     4
  6
Continuous
370
    -3
390
7
  0
LAYER
  5
594
330
8A
100
AcDbSymbolTableRecord
100
AcDbLayerTableRecord
  2
MARCO
 70
     0
 62
     4
  6
Continuous
370
    -3
390
7
  0
LAYER
  5
B5A
330
8A
100
AcDbSymbolTableRecord
100
AcDbLayerTableRecord
  2
TRAMA
 70
     0
 62
     4
  6
Continuous
370
    -3
390
7
  0
ENDTAB
  0
TABLE
  2
STYLE
  5
8F
330
0
100
AcDbSymbolTable
 70
     5
  0
STYLE
  5
1A
330
8F
100
AcDbSymbolTableRecord
100
AcDbTextStyleTableRecord
  2
Standard
 70
     0
 40
0.0
 41
1.0
 50
0.0
 71
     0
 42
2.5
  3
txt
  4

  0
STYLE
  5
20
330
8F
100
AcDbSymbolTableRecord
100
AcDbTextStyleTableRecord
  2
ROMANS
 70
     0
 40
0.0
 41
1.0
 50
0.0
 71
     0
 42
2.5
  3
romans
  4

  0
STYLE
  5
28
330
8F
100
AcDbSymbolTableRecord
100
AcDbTextStyleTableRecord
  2
Arial
 70
     0
 40
0.0
 41
1.0
 50
0.0
 71
     0
 42
0.25
  3
ARIAL.TTF
  4

1001
ACAD
1000
Arial
1071
       34
  0
STYLE
  5
26
330
8F
100
AcDbSymbolTableRecord
100
AcDbTextStyleTableRecord
  2
style1
 70
     0
 40
0.0
 41
1.0
 50
0.0
 71
     0
 42
0.005
  3
TIMES.TTF
  4

1001
ACAD
1000
Times New Roman
1071
       18
  0
STYLE
  5
595
330
8F
100
AcDbSymbolTableRecord
100
AcDbTextStyleTableRecord
  2
EUROROMANOBLIQUE
 70
     0
 40
0.0
 41
1.0
 50
0.0
 71
     0
 42
2.5
  3
euro____.pfb
  4

  0
ENDTAB
  0
TABLE
  2
VIEW
  5
94
330
0
100
AcDbSymbolTable
 70
     0
  0
ENDTAB
  0
TABLE
  2
UCS
  5
95
330
0
100
AcDbSymbolTable
 70
     0
  0
ENDTAB
  0
TABLE
  2
APPID
  5
98
330
0
100
AcDbSymbolTable
 70
    13
  0
APPID
  5
1B
330
98
100
AcDbSymbolTableRecord
100
AcDbRegAppTableRecord
  2
ACAD
 70
     0
  0
APPID
  5
34
330
98
100
AcDbSymbolTableRecord
100
AcDbRegAppTableRecord
  2
ACAD_DSTYLE_DIMJOGGED_JOGANGLE_SYMBOL
 70
     0
  0
APPID
  5
F
330
98
100
AcDbSymbolTableRecord
100
AcDbRegAppTableRecord
  2
AcAecLayerStandard
 70
     0
  0
APPID
  5
85
330
98
100
AcDbSymbolTableRecord
100
AcDbRegAppTableRecord
  2
ACAD_PSEXT
 70
     0
  0
APPID
  5
BA
330
98
100
AcDbSymbolTableRecord
100
AcDbRegAppTableRecord
  2
ACAD_DSTYLE_DIMEXT_LENGTH
 70
     0
  0
APPID
  5
101
330
98
100
AcDbSymbolTableRecord
100
AcDbRegAppTableRecord
  2
ACAD_EXEMPT_FROM_CAD_STANDARDS
 70
     0
  0
APPID
  5
102
330
98
100
AcDbSymbolTableRecord
100
AcDbRegAppTableRecord
  2
ACAD_DSTYLE_DIM_LINETYPE
 70
     0
  0
APPID
  5
103
330
98
100
AcDbSymbolTableRecord
100
AcDbRegAppTableRecord
  2
ACAD_DSTYLE_DIM_EXT1_LINETYPE
 70
     0
  0
APPID
  5
104
330
98
100
AcDbSymbolTableRecord
100
AcDbRegAppTableRecord
  2
ACAD_DSTYLE_DIM_EXT2_LINETYPE
 70
     0
  0
APPID
  5
10D5
330
98
100
AcDbSymbolTableRecord
100
AcDbRegAppTableRecord
  2
ACAUTHENVIRON
 70
     0
  0
APPID
  5
10D9
330
98
100
AcDbSymbolTableRecord
100
AcDbRegAppTableRecord
  2
AcDbDynamicBlockTrueName
 70
     0
  0
APPID
  5
10DA
330
98
100
AcDbSymbolTableRecord
100
AcDbRegAppTableRecord
  2
AcDbDynamicBlockGUID
 70
     0
  0
APPID
  5
10DC
330
98
100
AcDbSymbolTableRecord
100
AcDbRegAppTableRecord
  2
AcDbBlockRepETag
 70
     0
  0
ENDTAB
  0
TABLE
  2
DIMSTYLE
  5
99
330
0
100
AcDbSymbolTable
 70
     8
100
AcDbDimStyleTable
 71
     2
340
2F
340
9A
  0
DIMSTYLE
105
9A
330
99
100
AcDbSymbolTableRecord
100
AcDbDimStyleTableRecord
  2
ISO-25
 70
     0
 41
2.5
 42
0.625
 43
3.75
 44
1.25
 73
     0
 74
     0
 77
     1
 78
     8
140
2.5
141
2.5
143
0.03937007874016
147
0.625
171
     3
172
     1
271
     2
272
     2
274
     3
278
    44
283
     0
284
     8
340
1A
  0
DIMSTYLE
105
2F
102
{ACAD_REACTORS
330
19A1
330
19BB
102
}
330
99
100
AcDbSymbolTableRecord
100
AcDbDimStyleTableRecord
  2
Bovelacci
 70
     0
 40
0.001
 41
1.5
140
3.0
141
0.0
147
2.0
176
     5
177
     5
178
     4
271
     2
272
     2
279
     2
340
20
342
30
1001
ACAD_DSTYLE_DIMJOGGED_JOGANGLE_SYMBOL
1070
   384
1040
0.7853981633974483
1001
ACAD_DSTYLE_DIMEXT_LENGTH
1070
   378
1040
0.18
  0
DIMSTYLE
105
194
330
99
100
AcDbSymbolTableRecord
100
AcDbDimStyleTableRecord
  2
STANDARD
 70
     0
340
1A
  0
DIMSTYLE
105
4EB
330
99
100
AcDbSymbolTableRecord
100
AcDbDimStyleTableRecord
  2
Dim 1-100
 70
     0
 40
0.1
 41
1.5
 42
0.0
 43
5.0
 44
1.25
 45
0.005
 46
1.25
 73
     0
 74
     0
 77
     1
 78
     9
140
2.0
141
2.5
147
1.0
172
     1
174
     1
179
     2
279
     2
289
     2
340
20
342
30
  0
DIMSTYLE
105
4EC
330
99
100
AcDbSymbolTableRecord
100
AcDbDimStyleTableRecord
  2
Dim 1-50
 70
     0
 40
0.05
 41
1.5
 42
0.0
 43
5.0
 44
1.25
 45
0.005
 46
1.25
 73
     0
 74
     0
 77
     1
 78
     9
140
2.0
141
2.5
147
1.0
172
     1
174
     1
179
     2
279
     2
289
     2
340
20
342
30
  0
DIMSTYLE
105
4ED
330
99
100
AcDbSymbolTableRecord
100
AcDbDimStyleTableRecord
  2
Dim 1-200
 70
     0
 40
0.2
 41
1.5
 42
0.0
 43
5.0
 44
1.25
 45
0.005
 46
1.25
 73
     0
 74
     0
 77
     1
 78
     9
140
2.0
141
2.5
147
1.0
172
     1
174
     1
179
     2
271
     2
272
     2
279
     2
289
     2
340
20
342
30
  0
DIMSTYLE
105
4EE
330
99
100
AcDbSymbolTableRecord
100
AcDbDimStyleTableRecord
  2
AEC Scale - Italiano
 70
     0
 41
1.0
 42
10.0
 43
10.0
 44
10.0
 73
     0
 74
     0
 75
     1
 76
     1
 77
     1
140
10.0
141
1.0
147
10.0
173
     1
271
     0
272
     0
279
     2
340
1A
343
4E6
344
4E0
  0
ENDTAB
  0
TABLE
  2
BLOCK_RECORD
  5
1
330
0
100
AcDbSymbolTable
 70
    17
  0
BLOCK_RECORD
  5
2
102
{ACAD_XDICTIONARY
360
3
102
}
330
1
100
AcDbSymbolTableRecord
100
AcDbBlockTableRecord
  2
*Model_Space
340
77
  0
BLOCK_RECORD
  5
79
330
1
100
AcDbSymbolTableRecord
100
AcDbBlockTableRecord
  2
*Paper_Space
340
82
  0
BLOCK_RECORD
  5
86
330
1
100
AcDbSymbolTableRecord
100
AcDbBlockTableRecord
  2
*Paper_Space0
340
89
  0
BLOCK_RECORD
  5
30
330
1
100
AcDbSymbolTableRecord
100
AcDbBlockTableRecord
  2
_ArchTick
340
0
310
2800000020000000200000000100080000000000000400000000000000000000000000000000000000000000000080000080000000808000800000008000800080800000C0C0C000C0DCC000F0CAA6000020400000206000002080000020A0000020C0000020E00000400000004020000040400000406000004080000040A0
310
000040C0000040E00000600000006020000060400000606000006080000060A0000060C0000060E00000800000008020000080400000806000008080000080A0000080C0000080E00000A0000000A0200000A0400000A0600000A0800000A0A00000A0C00000A0E00000C0000000C0200000C0400000C0600000C0800000C0
310
A00000C0C00000C0E00000E0000000E0200000E0400000E0600000E0800000E0A00000E0C00000E0E00040000000400020004000400040006000400080004000A0004000C0004000E00040200000402020004020400040206000402080004020A0004020C0004020E000404000004040200040404000404060004040800040
310
40A0004040C0004040E00040600000406020004060400040606000406080004060A0004060C0004060E00040800000408020004080400040806000408080004080A0004080C0004080E00040A0000040A0200040A0400040A0600040A0800040A0A00040A0C00040A0E00040C0000040C0200040C0400040C0600040C08000
310
40C0A00040C0C00040C0E00040E0000040E0200040E0400040E0600040E0800040E0A00040E0C00040E0E00080000000800020008000400080006000800080008000A0008000C0008000E00080200000802020008020400080206000802080008020A0008020C0008020E00080400000804020008040400080406000804080
310
008040A0008040C0008040E00080600000806020008060400080606000806080008060A0008060C0008060E00080800000808020008080400080806000808080008080A0008080C0008080E00080A0000080A0200080A0400080A0600080A0800080A0A00080A0C00080A0E00080C0000080C0200080C0400080C0600080C0
310
800080C0A00080C0C00080C0E00080E0000080E0200080E0400080E0600080E0800080E0A00080E0C00080E0E000C0000000C0002000C0004000C0006000C0008000C000A000C000C000C000E000C0200000C0202000C0204000C0206000C0208000C020A000C020C000C020E000C0400000C0402000C0404000C0406000C0
310
408000C040A000C040C000C040E000C0600000C0602000C0604000C0606000C0608000C060A000C060C000C060E000C0800000C0802000C0804000C0806000C0808000C080A000C080C000C080E000C0A00000C0A02000C0A04000C0A06000C0A08000C0A0A000C0A0C000C0A0E000C0C00000C0C02000C0C04000C0C06000
310
C0C08000C0C0A000F0FBFF00A4A0A000808080000000FF0000FF000000FFFF00FF000000FF00FF00FFFF0000FFFFFF00000000FF000000000000000000000000000000000000000000000000000000000000FF00FF00000000000000000000000000000000000000000000000000000000FF000000FF000000000000000000
310
0000000000000000000000000000000000FF0000000000FF0000000000000000000000000000000000000000000000000000FF0000000000FF0000000000000000000000000000000000000000000000000000FF0000000000FF0000000000000000000000000000000000000000000000000000FF0000000000FF00000000
310
00000000000000000000000000000000000000000000FF0000000000FF0000000000000000000000000000000000000000000000000000FF0000000000FF0000000000000000000000000000000000000000000000000000FF0000000000FF0000000000000000000000000000000000000000000000000000FF0000000000
310
FF0000000000000000000000000000000000000000000000000000FF0000000000FF0000000000000000000000000000000000000000000000000000FF0000000000FF0000000000000000000000000000000000000000000000000000FF0000000000FF0000000000000000000000000000000000000000000000000000FF
310
0000000000FF0000000000000000000000000000000000000000000000000000FF0000000000FF0000000000000000000000000000000000000000000000000000FF0000000000FF0000000000000000000000000000000000000000000000000000FF0000000000FF00000000000000000000000000000000000000000000
310
00000000FF0000000000FF0000000000000000000000000000000000000000000000000000FF0000000000FF0000000000000000000000000000000000000000000000000000FF0000000000FF0000000000000000000000000000000000000000000000000000FF0000000000FF0000000000000000000000000000000000
310
000000000000000000FF0000000000FF0000000000000000000000000000000000000000000000000000FF0000000000FF0000000000000000000000000000000000000000000000000000FF0000000000FF0000000000000000000000000000000000000000000000000000FF0000000000FF000000000000000000000000
310
0000000000000000000000000000FF0000000000FF0000000000000000000000000000000000000000000000000000FF0000000000FF0000000000000000000000000000000000000000000000000000FF0000000000FF0000000000000000000000000000000000000000000000000000FF000000FF000000000000000000
310
00000000000000000000000000000000000000FF00FF000000000000000000000000000000000000000000000000000000000000FF000000
102
{BLKREFS
331
1AB3
331
1AB4
331
1AC7
331
1AC8
102
}
  0
BLOCK_RECORD
  5
179
330
1
100
AcDbSymbolTableRecord
100
AcDbBlockTableRecord
  2
DOT
340
0
  0
BLOCK_RECORD
  5
213
330
1
100
AcDbSymbolTableRecord
100
AcDbBlockTableRecord
  2
ELEMENT
340
0
102
{BLKREFS
331
244
102
}
  0
BLOCK_RECORD
  5
235
330
1
100
AcDbSymbolTableRecord
100
AcDbBlockTableRecord
  2
NOM-J
340
0
  0
BLOCK_RECORD
  5
3FB
330
1
100
AcDbSymbolTableRecord
100
AcDbBlockTableRecord
  2
NOM-QR
340
0
  0
BLOCK_RECORD
  5
4E0
330
1
100
AcDbSymbolTableRecord
100
AcDbBlockTableRecord
  2
_Arrivo
340
0
310
2800000020000000200000000100080000000000000400000000000000000000000000000000000000000000000080000080000000808000800000008000800080800000C0C0C000C0DCC000F0CAA6000020400000206000002080000020A0000020C0000020E00000400000004020000040400000406000004080000040A0
310
000040C0000040E00000600000006020000060400000606000006080000060A0000060C0000060E00000800000008020000080400000806000008080000080A0000080C0000080E00000A0000000A0200000A0400000A0600000A0800000A0A00000A0C00000A0E00000C0000000C0200000C0400000C0600000C0800000C0
310
A00000C0C00000C0E00000E0000000E0200000E0400000E0600000E0800000E0A00000E0C00000E0E00040000000400020004000400040006000400080004000A0004000C0004000E00040200000402020004020400040206000402080004020A0004020C0004020E000404000004040200040404000404060004040800040
310
40A0004040C0004040E00040600000406020004060400040606000406080004060A0004060C0004060E00040800000408020004080400040806000408080004080A0004080C0004080E00040A0000040A0200040A0400040A0600040A0800040A0A00040A0C00040A0E00040C0000040C0200040C0400040C0600040C08000
310
40C0A00040C0C00040C0E00040E0000040E0200040E0400040E0600040E0800040E0A00040E0C00040E0E00080000000800020008000400080006000800080008000A0008000C0008000E00080200000802020008020400080206000802080008020A0008020C0008020E00080400000804020008040400080406000804080
310
008040A0008040C0008040E00080600000806020008060400080606000806080008060A0008060C0008060E00080800000808020008080400080806000808080008080A0008080C0008080E00080A0000080A0200080A0400080A0600080A0800080A0A00080A0C00080A0E00080C0000080C0200080C0400080C0600080C0
310
800080C0A00080C0C00080C0E00080E0000080E0200080E0400080E0600080E0800080E0A00080E0C00080E0E000C0000000C0002000C0004000C0006000C0008000C000A000C000C000C000E000C0200000C0202000C0204000C0206000C0208000C020A000C020C000C020E000C0400000C0402000C0404000C0406000C0
310
408000C040A000C040C000C040E000C0600000C0602000C0604000C0606000C0608000C060A000C060C000C060E000C0800000C0802000C0804000C0806000C0808000C080A000C080C000C080E000C0A00000C0A02000C0A04000C0A06000C0A08000C0A0A000C0A0C000C0A0E000C0C00000C0C02000C0C04000C0C06000
310
C0C08000C0C0A000F0FBFF00A4A0A000808080000000FF0000FF000000FFFF00FF000000FF00FF00FFFF0000FFFFFF00000000000000000000000000000000000000000000000000000000000000000000000000000000000000FF0000000000000000000000000000000000000000000000000000000000000000FF000000
310
00000000000000000000000000000000000000000000000000000000FF0000000000000000000000000000000000000000000000000000000000000000FF00000000000000000000000000000000000000000000000000000000000000FF0000000000000000000000000000000000000000000000000000000000000000FF
310
0000000000000000000000000000000000000000000000000000000000000000FF00000000000000000000000000000000000000000000000000000000000000FF0000000000000000000000000000000000000000000000000000000000000000FF0000000000000000000000000000000000000000000000000000000000
310
0000FF0000000000000000000000000000000000000000000000000000000000000000FF00000000000000000000000000000000000000000000000000000000000000FF0000000000000000000000000000000000000000000000000000000000000000FF0000FF0000000000000000000000000000000000000000000000
310
000000000000FFFF000000000000000000000000000000000000000000000000000000000000FFFF00000000000000000000000000000000000000000000000000000000FFFFFFFFFFFF00000000000000000000000000000000000000000000000000000000FFFF0000000000000000000000000000000000000000000000
310
000000000000FF0000FF000000000000000000000000000000000000000000000000000000FF00000000000000000000000000000000000000000000000000000000000000FF000000000000000000000000000000000000000000000000000000000000FF0000000000000000000000000000000000000000000000000000
310
0000000000FF000000000000000000000000000000000000000000000000000000000000FF00000000000000000000000000000000000000000000000000000000000000FF000000000000000000000000000000000000000000000000000000000000FF000000000000000000000000000000000000000000000000000000
310
000000FF00000000000000000000000000000000000000000000000000000000000000FF000000000000000000000000000000000000000000000000000000000000FF00000000000000000000000000000000000000000000000000000000000000FF00000000000000000000000000000000000000000000000000000000
310
0000FF0000000000000000000000000000000000000000000000000000000000000000000000000000000000000000000000000000000000
  0
BLOCK_RECORD
  5
4E6
330
1
100
AcDbSymbolTableRecord
100
AcDbBlockTableRecord
  2
_Partenza
340
0
310
2800000020000000200000000100080000000000000400000000000000000000000000000000000000000000000080000080000000808000800000008000800080800000C0C0C000C0DCC000F0CAA6000020400000206000002080000020A0000020C0000020E00000400000004020000040400000406000004080000040A0
310
000040C0000040E00000600000006020000060400000606000006080000060A0000060C0000060E00000800000008020000080400000806000008080000080A0000080C0000080E00000A0000000A0200000A0400000A0600000A0800000A0A00000A0C00000A0E00000C0000000C0200000C0400000C0600000C0800000C0
310
A00000C0C00000C0E00000E0000000E0200000E0400000E0600000E0800000E0A00000E0C00000E0E00040000000400020004000400040006000400080004000A0004000C0004000E00040200000402020004020400040206000402080004020A0004020C0004020E000404000004040200040404000404060004040800040
310
40A0004040C0004040E00040600000406020004060400040606000406080004060A0004060C0004060E00040800000408020004080400040806000408080004080A0004080C0004080E00040A0000040A0200040A0400040A0600040A0800040A0A00040A0C00040A0E00040C0000040C0200040C0400040C0600040C08000
310
40C0A00040C0C00040C0E00040E0000040E0200040E0400040E0600040E0800040E0A00040E0C00040E0E00080000000800020008000400080006000800080008000A0008000C0008000E00080200000802020008020400080206000802080008020A0008020C0008020E00080400000804020008040400080406000804080
310
008040A0008040C0008040E00080600000806020008060400080606000806080008060A0008060C0008060E00080800000808020008080400080806000808080008080A0008080C0008080E00080A0000080A0200080A0400080A0600080A0800080A0A00080A0C00080A0E00080C0000080C0200080C0400080C0600080C0
310
800080C0A00080C0C00080C0E00080E0000080E0200080E0400080E0600080E0800080E0A00080E0C00080E0E000C0000000C0002000C0004000C0006000C0008000C000A000C000C000C000E000C0200000C0202000C0204000C0206000C0208000C020A000C020C000C020E000C0400000C0402000C0404000C0406000C0
310
408000C040A000C040C000C040E000C0600000C0602000C0604000C0606000C0608000C060A000C060C000C060E000C0800000C0802000C0804000C0806000C0808000C080A000C080C000C080E000C0A00000C0A02000C0A04000C0A06000C0A08000C0A0A000C0A0C000C0A0E000C0C00000C0C02000C0C04000C0C06000
310
C0C08000C0C0A000F0FBFF00A4A0A000808080000000FF0000FF000000FFFF00FF000000FF00FF00FFFF0000FFFFFF0000000000000000000000000000000000000000000000000000000000000000000000000000000000000000000000000000000000000000000000000000000000000000000000000000000000000000
310
000000000000000000000000000000000000000000000000000000000000000000000000000000000000000000000000000000000000000000000000000000000000000000000000000000000000000000000000000000000000000000000000000000000000000000000000000000000000FFFFFFFFFFFFFFFFFFFFFFFFFF
310
FFFFFFFFFFFFFFFFFFFFFFFFFFFFFFFFFF0000000000000000000000000000000000000000000000000000000000000000000000000000000000000000000000000000000000000000000000000000000000000000000000000000000000000000000000000000000000000000000000000000000000000000000000000000
310
00000000000000000000000000000000000000000000000000000000000000000000000000000000000000000000000000000000000000000000000000000000000000000000000000000000000000000000000000000000000000000000000000000000000000000000000000000000000000000000000000000000000000
310
00000000000000000000000000000000000000000000000000000000000000000000000000000000000000000000000000000000000000000000000000000000000000000000000000000000000000000000000000000000000000000000000000000000000000000000000000000000000000000000000000000000000000
310
00000000000000000000000000000000000000000000000000000000000000000000000000000000000000000000000000000000000000000000000000000000000000000000000000000000000000000000000000000000000000000000000000000000000000000000000000000000000000000000000000000000000000
310
000000000000000000000000000000000000000000000000000000000000000000000000000000000000000000000000000000000000000000000000000000000000000000000000000000000000000000000000000000FFFFFFFFFFFFFFFFFFFFFFFFFFFFFFFFFFFFFFFFFFFFFFFFFFFFFFFFFFFF00000000000000000000
310
00000000000000000000000000000000000000000000000000000000000000000000000000000000000000000000000000000000000000000000000000000000000000000000000000000000000000000000000000000000000000000000000000000000000000000000000000000000000000000000000000000000000000
310
0000000000000000000000000000000000000000000000000000000000000000000000000000000000000000000000000000000000000000
  0
BLOCK_RECORD
  5
73D
330
1
100
AcDbSymbolTableRecord
100
AcDbBlockTableRecord
  2
A$C6CE44357
340
0
  0
BLOCK_RECORD
  5
B69
102
{ACAD_XDICTIONARY
360
B6D
102
}
330
1
100
AcDbSymbolTableRecord
100
AcDbBlockTableRecord
  2
A$C263D6B6A
340
0
1001
ACAD
1000
DesignCenter Data
1002
{
1070
     1
1070
     4
1002
}
  0
BLOCK_RECORD
  5
BFB
330
1
100
AcDbSymbolTableRecord
100
AcDbBlockTableRecord
  2
*X10
340
0
102
{BLKREFS
331
C22
102
}
  0
BLOCK_RECORD
  5
C1F
330
1
100
AcDbSymbolTableRecord
100
AcDbBlockTableRecord
  2
A$C6C65579B
340
0
  0
BLOCK_RECORD
  5
FEB
102
{ACAD_XDICTIONARY
360
10D6
102
}
330
1
100
AcDbSymbolTableRecord
100
AcDbBlockTableRecord
  2
Z4
340
0
1001
AcDbDynamicBlockGUID
1000
{4CAFDB11-9655-4F72-B423-0BC31DC420EB}
1001
AcDbBlockRepETag
1070
     1
1071
       20
  0
BLOCK_RECORD
  5
14D6
330
1
100
AcDbSymbolTableRecord
100
AcDbBlockTableRecord
  2
A$C135D5332
340
0
  0
BLOCK_RECORD
  5
19A2
330
1
100
AcDbSymbolTableRecord
100
AcDbBlockTableRecord
  2
*D14
340
0
  0
BLOCK_RECORD
  5
19BC
330
1
100
AcDbSymbolTableRecord
100
AcDbBlockTableRecord
  2
*D15
340
0
  0
ENDTAB
  0
ENDSEC
  0
SECTION
  2
BLOCKS
  0
BLOCK
  5
5
330
2
100
AcDbEntity
  8
0
100
AcDbBlockBegin
  2
*Model_Space
 70
     0
 10
0.0
 20
0.0
 30
0.0
  3
*Model_Space
  1

  0
ENDBLK
  5
76
330
2
100
AcDbEntity
  8
0
100
AcDbBlockEnd
  0
BLOCK
  5
7A
330
79
100
AcDbEntity
 67
     1
  8
0
100
AcDbBlockBegin
  2
*Paper_Space
 70
     0
 10
0.0
 20
0.0
 30
0.0
  3
*Paper_Space
  1

  0
ENDBLK
  5
81
330
79
100
AcDbEntity
 67
     1
  8
0
100
AcDbBlockEnd
  0
BLOCK
  5
87
330
86
100
AcDbEntity
 67
     1
  8
0
100
AcDbBlockBegin
  2
*Paper_Space0
 70
     0
 10
0.0
 20
0.0
 30
0.0
  3
*Paper_Space0
  1

  0
ENDBLK
  5
88
330
86
100
AcDbEntity
 67
     1
  8
0
100
AcDbBlockEnd
  0
BLOCK
  5
31
330
30
100
AcDbEntity
  8
0
 62
     1
100
AcDbBlockBegin
  2
_ArchTick
 70
     0
 10
0.0
 20
0.0
 30
0.0
  3
_ArchTick
  1

  0
LWPOLYLINE
  5
32
330
30
100
AcDbEntity
  8
0
  6
ByBlock
 62
     0
100
AcDbPolyline
 90
        2
 70
     0
 43
0.15
 10
-0.5
 20
-0.5
 10
0.5
 20
0.5
  0
ENDBLK
  5
33
330
30
100
AcDbEntity
  8
0
 62
     1
100
AcDbBlockEnd
  0
BLOCK
  5
17A
330
179
100
AcDbEntity
  8
0
100
AcDbBlockBegin
  2
DOT
 70
     0
 10
0.0
 20
0.0
 30
0.0
  3
DOT
  1

  0
LWPOLYLINE
  5
17B
330
179
100
AcDbEntity
  8
0
  6
ByBlock
 62
     0
100
AcDbPolyline
 90
        2
 70
     1
 43
0.5
 10
-0.25
 20
0.0
 42
1.0
 10
0.25
 20
0.0
 42
1.0
  0
LINE
  5
17C
330
179
100
AcDbEntity
  8
0
  6
ByBlock
 62
     0
100
AcDbLine
 10
-0.5
 20
0.0
 30
0.0
 11
-1.0
 21
0.0
 31
0.0
  0
ENDBLK
  5
17D
330
179
100
AcDbEntity
  8
0
100
AcDbBlockEnd
  0
BLOCK
  5
214
330
213
100
AcDbEntity
  8
0
100
AcDbBlockBegin
  2
ELEMENT
 70
     0
 10
0.0
 20
0.0
 30
0.0
  3
ELEMENT
  1

  0
LINE
  5
215
330
213
100
AcDbEntity
  8
CORTE
 62
     1
100
AcDbLine
 10
0.0287752548522349
 20
0.037775254852221
 30
0.0
 11
0.0062928932188697
 21
0.015292893218799
 31
0.0
  0
ARC
  5
216
330
213
100
AcDbEntity
  8
CORTE
 62
     1
100
AcDbCircle
 10
0.0148333333333994
 20
0.0291666666666402
 30
0.0
 40
0.0191847740553366
100
AcDbArc
 50
270.4730994291238
 51
359.5269005707907
  0
LINE
  5
217
330
213
100
AcDbEntity
  8
CORTE
100
AcDbLine
 10
0.0130000000000337
 20
-0.0000000000000568
 30
0.0
 11
0.0099999999999909
 21
0.0000000000000284
 31
0.0
  0
LINE
  5
218
330
213
100
AcDbEntity
  8
CORTE
100
AcDbLine
 10
-0.0009999999999764
 20
0.0010000000000048
 30
0.0
 11
-0.0009999999999764
 21
0.0140000000000384
 31
0.0
  0
ARC
  5
219
330
213
100
AcDbEntity
  8
CORTE
100
AcDbCircle
 10
0.0
 20
0.0010000000000048
 30
0.0
 40
0.001
100
AcDbArc
 50
180.0
 51
269.9999999991858
  0
LINE
  5
21A
330
213
100
AcDbEntity
  8
CORTE
100
AcDbLine
 10
0.0040000000000191
 20
-0.0039999999999623
 30
0.0
 11
0.0040000000000191
 21
-0.0010000000000332
 31
0.0
  0
LINE
  5
21B
330
213
100
AcDbEntity
  8
CORTE
100
AcDbLine
 10
0.0090000000000146
 20
-0.0039999999999907
 30
0.0
 11
0.0090000000000146
 21
-0.0009999999999764
 31
0.0
  0
ARC
  5
21C
330
213
100
AcDbEntity
  8
CORTE
100
AcDbCircle
 10
0.0049999999999955
 20
-0.0039999999999623
 30
0.0
 40
0.001
100
AcDbArc
 50
180.0
 51
269.9999999996743
  0
LINE
  5
21D
330
213
100
AcDbEntity
  8
CORTE
100
AcDbLine
 10
0.0080000000000382
 20
-0.0049999999999955
 30
0.0
 11
0.0049999999999955
 21
-0.004999999999967
 31
0.0
  0
ARC
  5
21E
330
213
100
AcDbEntity
  8
CORTE
100
AcDbCircle
 10
0.0080000000000382
 20
-0.0039999999999907
 30
0.0
 40
0.001
100
AcDbArc
 50
269.9999999995929
 51
0.000000000000007
  0
LINE
  5
21F
330
213
100
AcDbEntity
  8
CORTE
100
AcDbLine
 10
0.0030000000000427
 20
-0.0000000000000284
 30
0.0
 11
0.0
 21
0.0
 31
0.0
  0
ARC
  5
220
330
213
100
AcDbEntity
  8
CORTE
100
AcDbCircle
 10
0.0030000000000427
 20
-0.0010000000000332
 30
0.0
 40
0.001
100
AcDbArc
 50
0.000000000000007
 51
89.99999999967434
  0
ARC
  5
221
330
213
100
AcDbEntity
  8
CORTE
100
AcDbCircle
 10
0.0099999999999909
 20
-0.0009999999999764
 30
0.0
 40
0.001
100
AcDbArc
 50
89.99999999967434
 51
180.0
  0
ARC
  5
222
330
213
100
AcDbEntity
  8
CORTE
100
AcDbCircle
 10
0.0
 20
0.0140000000000384
 30
0.0
 40
0.001
100
AcDbArc
 50
89.99999999975274
 51
180.0
  0
LINE
  5
223
330
213
100
AcDbEntity
  8
CORTE
100
AcDbLine
 10
0.0055857864376776
 20
0.0149999999999864
 30
0.0
 11
0.0
 21
0.0150000000000432
 31
0.0
  0
ARC
  5
224
330
213
100
AcDbEntity
  8
CORTE
 62
     1
100
AcDbCircle
 10
0.0055857864376776
 20
0.0159999999999911
 30
0.0
 40
0.001
100
AcDbArc
 50
269.9999999997674
 51
315.0000000000357
  0
LINE
  5
225
330
213
100
AcDbEntity
  8
CORTE
100
AcDbLine
 10
0.01400000000001
 20
0.0009999999999479
 30
0.0
 11
0.01400000000001
 21
0.0089825806863075
 31
0.0
  0
ARC
  5
226
330
213
100
AcDbEntity
  8
CORTE
100
AcDbCircle
 10
0.0130000000000337
 20
0.0009999999999479
 30
0.0
 40
0.001
100
AcDbArc
 50
269.9999999991858
 51
0.000000000000007
  0
ARC
  5
227
330
213
100
AcDbEntity
  8
CORTE
 62
     1
100
AcDbCircle
 10
0.0149999999999864
 20
0.0089825806862791
 30
0.0
 40
0.001
100
AcDbArc
 50
90.47309942941524
 51
179.9999999983715
  0
LINE
  5
228
330
213
100
AcDbEntity
  8
CORTE
100
AcDbLine
 10
0.0440000000000964
 20
0.0339999999999918
 30
0.0
 11
0.0440000000000396
 21
0.0310000000000059
 31
0.0
  0
ARC
  5
229
330
213
100
AcDbEntity
  8
CORTE
100
AcDbCircle
 10
0.0430000000000632
 20
0.0310000000000059
 30
0.0
 40
0.001
100
AcDbArc
 50
270.0
 51
0.000000000000007
  0
ARC
  5
22A
330
213
100
AcDbEntity
  8
CORTE
 62
     1
100
AcDbCircle
 10
0.0350174193137605
 20
0.0290000000000248
 30
0.0
 40
0.001
100
AcDbArc
 50
90.00000000325689
 51
179.5269005705982
  0
LINE
  5
22B
330
213
100
AcDbEntity
  8
CORTE
100
AcDbLine
 10
0.0430000000000632
 20
0.0300000000000011
 30
0.0
 11
0.0350174193137036
 21
0.0300000000000296
 31
0.0
  0
LINE
  5
22C
330
213
100
AcDbEntity
  8
CORTE
100
AcDbLine
 10
0.047999999999945
 20
0.0400000000000205
 30
0.0
 11
0.0300000000000296
 21
0.0400000000000205
 31
0.0
  0
ARC
  5
22D
330
213
100
AcDbEntity
  8
CORTE
 62
     1
100
AcDbCircle
 10
0.0300000000000296
 20
0.0390000000000157
 30
0.0
 40
0.001
100
AcDbArc
 50
90.0
 51
195.0000055997392
  0
ARC
  5
22E
330
213
100
AcDbEntity
  8
CORTE
 62
     1
100
AcDbCircle
 10
0.0280681480710428
 20
0.0384823616334131
 30
0.0
 40
0.001
100
AcDbArc
 50
315.0
 51
15.00000559812761
  0
LINE
  5
22F
330
213
100
AcDbEntity
  8
CORTE
100
AcDbLine
 10
0.0489999999998645
 20
0.0360000000000582
 30
0.0
 11
0.0489999999999213
 21
0.0389999999999873
 31
0.0
  0
LINE
  5
230
330
213
100
AcDbEntity
  8
CORTE
100
AcDbLine
 10
0.0480000000000018
 20
0.0350000000000534
 30
0.0
 11
0.0450000000000728
 21
0.0349999999999966
 31
0.0
  0
ARC
  5
231
330
213
100
AcDbEntity
  8
CORTE
100
AcDbCircle
 10
0.0480000000000018
 20
0.0360000000000582
 30
0.0
 40
0.001
100
AcDbArc
 50
270.0000000004071
 51
0.000000000000007
  0
ARC
  5
232
330
213
100
AcDbEntity
  8
CORTE
100
AcDbCircle
 10
0.0450000000000728
 20
0.0339999999999918
 30
0.0
 40
0.001
100
AcDbArc
 50
90.0
 51
180.0
  0
ARC
  5
233
330
213
100
AcDbEntity
  8
CORTE
100
AcDbCircle
 10
0.047999999999945
 20
0.0390000000000157
 30
0.0
 40
0.001
100
AcDbArc
 50
359.9999999991858
 51
90.0
  0
ENDBLK
  5
234
330
213
100
AcDbEntity
  8
0
100
AcDbBlockEnd
  0
BLOCK
  5
236
330
235
100
AcDbEntity
  8
0
 62
     4
100
AcDbBlockBegin
  2
NOM-J
 70
     0
 10
0.0
 20
0.0
 30
0.0
  3
NOM-J
  1

  0
LINE
  5
237
330
235
100
AcDbEntity
  8
Vista
 62
     4
100
AcDbLine
 10
0.0211489998446837
 20
0.0224999999999795
 30
0.0
 11
0.093805067538824
 21
0.0379594292031982
 31
0.0
  0
LINE
  5
238
330
235
100
AcDbEntity
  8
Vista
 62
     4
100
AcDbLine
 10
0.0197074998707194
 20
0.0224999999999795
 30
0.0
 11
0.0923635675646324
 21
0.0379594292032266
 31
0.0
  0
LINE
  5
239
330
235
100
AcDbEntity
  8
Vista
 62
     4
100
AcDbLine
 10
0.0182659998964141
 20
0.0224999999999795
 30
0.0
 11
0.0909220675904408
 21
0.0379594292031982
 31
0.0
  0
LINE
  5
23A
330
235
100
AcDbEntity
  8
Vista
 62
     4
100
AcDbLine
 10
0.0168244999223362
 20
0.0224999999999795
 30
0.0
 11
0.0894805676163628
 21
0.0379594292032266
 31
0.0
  0
LINE
  5
23B
330
235
100
AcDbEntity
  8
Vista
 62
     4
100
AcDbLine
 10
0.0153829999481445
 20
0.0224999999999795
 30
0.0
 11
0.0880390676422849
 21
0.0379594292032266
 31
0.0
  0
LINE
  5
23C
330
235
100
AcDbEntity
  8
Vista
 62
     4
100
AcDbLine
 10
0.0139414999740666
 20
0.0224999999999795
 30
0.0
 11
0.0865975676682069
 21
0.0379594292032266
 31
0.0
  0
LINE
  5
23D
330
235
100
AcDbEntity
  8
Vista
 62
     2
100
AcDbLine
 10
0.0125000000000455
 20
0.022500000000008
 30
0.0
 11
0.0851560676940153
 21
0.0379594292032266
 31
0.0
  0
LINE
  5
23E
330
235
100
AcDbEntity
  8
Vista
 62
     2
100
AcDbLine
 10
0.0218535533905424
 20
0.0223535533905874
 30
0.0
 11
0.0945096210847396
 21
0.0378129825938061
 31
0.0
  0
LINE
  5
23F
330
235
100
AcDbEntity
  8
Vista
 62
     2
100
AcDbLine
 10
0.02150000000006
 20
0.0200000000000387
 30
0.0
 11
0.094359627334427
 21
0.0355027417029987
 31
0.0
  0
LINE
  5
240
330
235
100
AcDbEntity
  8
Vista
 62
     2
100
AcDbLine
 10
0.0190000000000055
 20
0.0175000000000125
 30
0.0
 11
0.0918596273343724
 21
0.0330027417029726
 31
0.0
  0
LINE
  5
241
330
235
100
AcDbEntity
  8
Vista
 62
     2
100
AcDbLine
 10
0.0075428343679391
 20
0.0078574386832884
 30
0.0
 11
0.0801989020703786
 21
0.0233168678888376
 31
0.0
  0
LINE
  5
242
330
235
100
AcDbEntity
  8
Vista
 62
     2
100
AcDbLine
 10
0.0040000000000191
 20
0.0024999999999693
 30
0.0
 11
0.0746560676942068
 21
0.0175338782567849
 31
0.0
  0
LINE
  5
243
330
235
100
AcDbEntity
  8
Vista
 62
     3
100
AcDbLine
 10
0.0018535533906174
 20
0.0001464466094205
 30
0.0
 11
0.074509621085781
 21
0.0156058758136055
 31
0.0
  0
INSERT
  5
244
330
235
100
AcDbEntity
  8
CORTE
 62
     4
100
AcDbBlockReference
  2
ELEMENT
 10
-0.0024999999999977
 20
0.0024999999999977
 30
0.0
 41
0.5
 42
0.5
 43
0.5
  0
LINE
  5
245
330
235
100
AcDbEntity
  8
Vista
 62
     2
100
AcDbLine
 10
-0.0024999999999977
 20
0.0100000000000193
 30
0.0
 11
0.0013108568762163
 21
0.0108108568761622
 31
0.0
  0
ARC
  5
246
330
235
100
AcDbEntity
  8
CORTE
 62
     3
100
AcDbCircle
 10
0.0775727343608992
 20
0.0325427625365364
 30
0.0
 40
0.0095923870276683
100
AcDbArc
 50
278.1349003175446
 51
356.7599311023579
  0
LINE
  5
247
330
235
100
AcDbEntity
  8
CORTE
 62
     3
100
AcDbLine
 10
0.0771560676942045
 20
0.0184594292032045
 30
0.0
 11
0.0771560676942045
 21
0.0224507195463559
 31
0.0
  0
ARC
  5
248
330
235
100
AcDbEntity
  8
CORTE
 62
     3
100
AcDbCircle
 10
0.0751560676941949
 20
0.0174594292032282
 30
0.0
 40
0.0005
100
AcDbArc
 50
89.99999999967434
 51
180.0
  0
LINE
  5
249
330
235
100
AcDbEntity
  8
Vista
 62
     3
100
AcDbLine
 10
0.074509621085781
 20
0.0156058758135771
 30
0.0
 11
0.0746560676941499
 21
0.0156370360599851
 31
0.0
  0
ARC
  5
24A
330
235
100
AcDbEntity
  8
CORTE
100
AcDbCircle
 10
0.0741560676942186
 20
0.0159594292032068
 30
0.0
 40
0.0005
100
AcDbArc
 50
315.0000001496929
 51
0.000000000000007
  0
LINE
  5
24B
330
235
100
AcDbEntity
  8
CORTE
 62
     3
100
AcDbLine
 10
0.0746560676942068
 20
0.0159594292032068
 30
0.0
 11
0.0746560676942068
 21
0.0174594292032282
 31
0.0
  0
ARC
  5
24C
330
235
100
AcDbEntity
  8
CORTE
 62
     3
100
AcDbCircle
 10
0.0766560676942163
 20
0.0184594292032045
 30
0.0
 40
0.0005
100
AcDbArc
 50
269.9999999991858
 51
0.000000000000007
  0
LINE
  5
24D
330
235
100
AcDbEntity
  8
CORTE
 62
     3
100
AcDbLine
 10
0.0766560676942163
 20
0.017959429203188
 30
0.0
 11
0.0751560676941949
 21
0.0179594292032164
 31
0.0
  0
ARC
  5
24E
330
235
100
AcDbEntity
  8
CORTE
 62
     3
100
AcDbCircle
 10
0.0776560676941927
 20
0.0224507195463559
 30
0.0
 40
0.0005
100
AcDbArc
 50
152.521182623883
 51
179.9999999983715
  0
LINE
  5
24F
330
235
100
AcDbEntity
  8
CORTE
 62
     3
100
AcDbLine
 10
0.0946560676941317
 20
0.0359594292032455
 30
0.0
 11
0.0946560676941317
 21
0.03745942920321
 31
0.0
  0
ARC
  5
250
330
235
100
AcDbEntity
  8
CORTE
 62
     3
100
AcDbCircle
 10
0.0916560676942027
 20
0.0334594292032193
 30
0.0
 40
0.0005
100
AcDbArc
 50
270.0
 51
0.000000000000007
  0
ARC
  5
251
330
235
100
AcDbEntity
  8
CORTE
 62
     3
100
AcDbCircle
 10
0.0941560676942004
 20
0.0359594292032455
 30
0.0
 40
0.0005
100
AcDbArc
 50
294.0240004981589
 51
0.000000000000007
  0
LINE
  5
252
330
235
100
AcDbEntity
  8
CORTE
 62
     3
100
AcDbLine
 10
0.0921560676942477
 20
0.0349594292032123
 30
0.0
 11
0.0921560676941908
 21
0.0334594292032193
 31
0.0
  0
LINE
  5
253
330
235
100
AcDbEntity
  8
CORTE
 62
     3
100
AcDbLine
 10
0.0941560676941436
 20
0.0379594292032266
 30
0.0
 11
0.0851560676942427
 21
0.0379594292032266
 31
0.0
  0
ARC
  5
254
330
235
100
AcDbEntity
  8
CORTE
 62
     3
100
AcDbCircle
 10
0.0941560676941436
 20
0.03745942920321
 30
0.0
 40
0.0005
100
AcDbArc
 50
359.9999999991858
 51
90.0
  0
ENDBLK
  5
255
330
235
100
AcDbEntity
  8
0
 62
     4
100
AcDbBlockEnd
  0
BLOCK
  5
3FC
330
3FB
100
AcDbEntity
  8
0
 62
     1
100
AcDbBlockBegin
  2
NOM-QR
 70
     0
 10
0.0
 20
0.0
 30
0.0
  3
NOM-QR
  1

  0
LINE
  5
3FD
330
3FB
100
AcDbEntity
  8
CORTE
 62
     4
100
AcDbLine
 10
0.0184292030348843
 20
0.0200000000000102
 30
0.0
 11
0.0860297709413658
 21
0.0343689442811126
 31
0.0
  0
LINE
  5
3FE
330
3FB
100
AcDbEntity
  8
CORTE
 62
     4
100
AcDbLine
 10
0.0155433624279908
 20
0.0200000000000102
 30
0.0
 11
0.0831439303344155
 21
0.0343689442811126
 31
0.0
  0
LINE
  5
3FF
330
3FB
100
AcDbEntity
  8
CORTE
 62
     4
100
AcDbLine
 10
0.0126575218209837
 20
0.0200000000000102
 30
0.0
 11
0.0802580897274084
 21
0.034368944281141
 31
0.0
  0
LINE
  5
400
330
3FB
100
AcDbEntity
  8
CORTE
 62
     4
100
AcDbLine
 10
0.0097716812139765
 20
0.0200000000000102
 30
0.0
 11
0.077372249120458
 21
0.0343689442811126
 31
0.0
  0
LINE
  5
401
330
3FB
100
AcDbEntity
  8
CORTE
 62
     4
100
AcDbLine
 10
0.0068858406069694
 20
0.0200000000000102
 30
0.0
 11
0.0744864085134509
 21
0.0343689442811126
 31
0.0
  0
LINE
  5
402
330
3FB
100
AcDbEntity
  8
CORTE
 62
     3
100
AcDbLine
 10
0.0081347328614925
 20
0.0017290908471352
 30
0.0
 11
0.0757353007679171
 21
0.0160980351282376
 31
0.0
  0
LINE
  5
403
330
3FB
100
AcDbEntity
  8
CORTE
 62
     3
100
AcDbLine
 10
0.0040000000000191
 20
0.0200000000000102
 30
0.0
 11
0.0716005679065006
 21
0.034368944281141
 31
0.0
  0
LINE
  5
404
330
3FB
100
AcDbEntity
  8
CORTE
 62
     3
100
AcDbLine
 10
0.0200000000000387
 20
0.0200000000000102
 30
0.0
 11
0.0876005679064633
 21
0.0343689442811126
 31
0.0
  0
ARC
  5
405
330
3FB
100
AcDbEntity
  8
CORTE
 62
     1
100
AcDbCircle
 10
0.0
 20
0.0200000000000102
 30
0.0
 40
0.0200000000000102
100
AcDbArc
 50
270.0
 51
0.0
  0
LINE
  5
406
330
3FB
100
AcDbEntity
  8
CORTE
 62
     1
100
AcDbLine
 10
0.0
 20
0.0160000000000196
 30
0.0
 11
0.0
 21
0.0
 31
0.0
  0
LINE
  5
407
330
3FB
100
AcDbEntity
  8
COTAS
 62
     1
100
AcDbLine
 10
0.0200000000000387
 20
0.0200000000000102
 30
0.0
 11
0.0040000000000191
 21
0.0200000000000102
 31
0.0
  0
ARC
  5
408
330
3FB
100
AcDbEntity
  8
CORTE
 62
     1
100
AcDbCircle
 10
0.0
 20
0.0200000000000102
 30
0.0
 40
0.004
100
AcDbArc
 50
270.0
 51
0.0
  0
ARC
  5
409
330
3FB
100
AcDbEntity
  8
CORTE
 62
     1
100
AcDbCircle
 10
0.0676005679064247
 20
0.0343689442811126
 30
0.0
 40
0.0200000000000102
100
AcDbArc
 50
270.0
 51
0.0
  0
LINE
  5
40A
330
3FB
100
AcDbEntity
  8
COTAS
 62
     1
100
AcDbLine
 10
0.0876005679064633
 20
0.0343689442811126
 30
0.0
 11
0.0716005679064438
 21
0.0343689442811126
 31
0.0
  0
ENDBLK
  5
40B
330
3FB
100
AcDbEntity
  8
0
 62
     1
100
AcDbBlockEnd
  0
BLOCK
  5
4E1
330
4E0
100
AcDbEntity
  8
0
100
AcDbBlockBegin
  2
_Arrivo
 70
     0
 10
0.0
 20
0.0
 30
0.0
  3
_Arrivo
  1

  0
LINE
  5
4E2
330
4E0
100
AcDbEntity
  8
0
  6
ByBlock
 62
     0
370
    -2
100
AcDbLine
 10
0.025
 20
-0.0433012701891858
 30
0.0
 11
-0.15
 21
0.2598076211353328
 31
0.0
  0
LINE
  5
4E3
330
4E0
100
AcDbEntity
  8
0
  6
ByBlock
 62
     0
370
    -2
100
AcDbLine
 10
0.025
 20
0.0433012701892585
 30
0.0
 11
-0.15
 21
-0.2598076211353328
 31
0.0
  0
LINE
  5
4E4
330
4E0
100
AcDbEntity
  8
0
  6
ByBlock
 62
     0
370
    -2
100
AcDbLine
 10
-0.05
 20
0.0
 30
0.0
 11
0.05
 21
0.0
 31
0.0
  0
ENDBLK
  5
4E5
330
4E0
100
AcDbEntity
  8
0
100
AcDbBlockEnd
  0
BLOCK
  5
4E7
330
4E6
100
AcDbEntity
  8
0
100
AcDbBlockBegin
  2
_Partenza
 70
     0
 10
0.0
 20
0.0
 30
0.0
  3
_Partenza
  1

  0
LINE
  5
4E8
330
4E6
100
AcDbEntity
  8
0
  6
ByBlock
 62
     0
370
    -2
100
AcDbLine
 10
-0.05
 20
0.05
 30
0.0
 11
0.1
 21
0.05
 31
0.0
  0
LINE
  5
4E9
330
4E6
100
AcDbEntity
  8
0
  6
ByBlock
 62
     0
370
    -2
100
AcDbLine
 10
-0.05
 20
-0.05
 30
0.0
 11
0.1
 21
-0.05
 31
0.0
  0
ENDBLK
  5
4EA
330
4E6
100
AcDbEntity
  8
0
100
AcDbBlockEnd
  0
BLOCK
  5
807
330
73D
100
AcDbEntity
  8
0
 62
     3
100
AcDbBlockBegin
  2
A$C6CE44357
 70
     0
 10
0.0
 20
0.0
 30
0.0
  3
A$C6CE44357
  1

  0
LINE
  5
73E
330
73D
100
AcDbEntity
  8
Vista
 62
     3
100
AcDbLine
 10
-265.2371225605411
 20
-42.42864078547465
 30
0.0
 11
-265.1113419531143
 21
-42.4023863117474
 31
0.0
  0
LINE
  5
73F
330
73D
100
AcDbEntity
  8
Vista
 62
     4
100
AcDbLine
 10
-265.2590480951634
 20
-42.54823976658282
 30
0.0
 11
-265.2510480951634
 21
-42.54823976658282
 31
0.0
  0
LINE
  5
740
330
73D
100
AcDbEntity
  8
Vista
 62
     3
100
AcDbLine
 10
-265.2678775571128
 20
-42.55723976658283
 30
0.0
 11
-265.2164242716711
 21
-42.55723976658283
 31
0.0
  0
LINE
  5
741
330
73D
100
AcDbEntity
  8
Vista
 62
     2
100
AcDbLine
 10
-265.240902830533
 20
-42.52873976658283
 30
0.0
 11
-265.2164242716711
 21
-42.52873976658283
 31
0.0
  0
LINE
  5
742
330
73D
100
AcDbEntity
  8
Vista
 62
     2
100
AcDbLine
 10
-265.245902830533
 20
-42.53973976658282
 30
0.0
 11
-265.2164242716711
 21
-42.53973976658282
 31
0.0
  0
LINE
  5
743
330
73D
100
AcDbEntity
  8
Vista
 62
     2
100
AcDbLine
 10
-265.2411287103258
 20
-42.53147306509318
 30
0.0
 11
-265.2164242716712
 21
-42.53147306509318
 31
0.0
  0
LINE
  5
744
330
73D
100
AcDbEntity
  8
Vista
 62
     2
100
AcDbLine
 10
-265.2649809809004
 20
-42.55319036467706
 30
0.0
 11
-265.2164242716712
 21
-42.55319036467706
 31
0.0
  0
LWPOLYLINE
  5
745
330
73D
100
AcDbEntity
  8
CORTE
  6
Continuous
 62
     1
100
AcDbPolyline
 90
       30
 70
     1
 43
0.0
 10
-265.2651647001392
 20
-42.55337345319399
 42
0.2685636005234304
 10
-265.2649137067366
 20
-42.55293986846818
 10
-265.2649137067366
 20
-42.54823976658282
 10
-265.2624028305331
 20
-42.54823976658282
 42
0.4142135623730693
 10
-265.261402830533
 20
-42.54723976658282
 10
-265.261402830533
 20
-42.53973976658282
 10
-265.258902830533
 20
-42.53973976658282
 42
-0.2526773759784102
 10
-265.2565834054943
 20
-42.53823976658283
 10
-265.2512222555718
 20
-42.53823976658283
 42
-0.2526773759784102
 10
-265.2489028305331
 20
-42.53973976658282
 10
-265.245902830533
 20
-42.53973976658282
 42
0.414213562373069
 10
-265.244902830533
 20
-42.53873976658282
 10
-265.244902830533
 20
-42.53523036708408
 42
-0.3189892314182299
 10
-265.2417043063426
 20
-42.53182012245305
 42
0.356818340496206
 10
-265.240902830533
 20
-42.53084002646501
 10
-265.240902830533
 20
-42.52873976658283
 42
0.364269306410865
 10
-265.234652830533
 20
-42.52348976658284
 42
-0.3260576707120786
 10
-265.2292666879074
 20
-42.51829884552306
 42
0.3747567555282292
 10
-265.228402830533
 20
-42.51730815627538
 10
-265.228402830533
 20
-42.51473976658282
 10
-265.240902830533
 20
-42.51473976658282
 10
-265.240902830533
 20
-42.52073976658282
 10
-265.254402830533
 20
-42.53323976658283
 10
-265.264402830533
 20
-42.53323976658283
 42
0.4142135623730704
 10
-265.269402830533
 20
-42.53823976658283
 10
-265.269402830533
 20
-42.54351258119139
 10
-265.270902830533
 20
-42.54473976658282
 10
-265.270902830533
 20
-42.55723976658283
 10
-265.2678775571128
 20
-42.55723976658283
 42
0.3849291685644514
 10
-265.2673801055846
 20
-42.55679018460604
 42
-0.2416670294637286
  0
LINE
  5
746
330
73D
100
AcDbEntity
  8
CORTE
  6
RAYITA
 62
     4
100
AcDbLine
 10
-265.2649137067366
 20
-42.54823976658282
 30
0.0
 11
-265.2649137067366
 21
-42.53973976658282
 31
0.0
  0
LINE
  5
747
330
73D
100
AcDbEntity
  8
CORTE
  6
RAYITA
 62
     4
100
AcDbLine
 10
-265.2631769303866
 20
-42.5441333561959
 30
0.0
 11
-265.2631769303866
 21
-42.53973976658282
 31
0.0
  0
LINE
  5
748
330
73D
100
AcDbEntity
  8
CORTE
  6
RAYITA
 62
     4
100
AcDbLine
 10
-265.2631769303866
 20
-42.5441333561959
 30
0.0
 11
-265.2649137067366
 21
-42.5441333561959
 31
0.0
  0
LINE
  5
749
330
73D
100
AcDbEntity
  8
CORTE
  6
RAYITA
 62
     4
100
AcDbLine
 10
-265.261402830533
 20
-42.53973976658282
 30
0.0
 11
-265.2649137067366
 21
-42.53973976658282
 31
0.0
  0
LINE
  5
74A
330
73D
100
AcDbEntity
  8
Vista
 62
     3
100
AcDbLine
 10
-265.228402830533
 20
-42.51473976658282
 30
0.0
 11
-265.2164242716711
 21
-42.51473976658279
 31
0.0
  0
LINE
  5
74B
330
73D
100
AcDbEntity
  8
Vista
 62
     2
100
AcDbLine
 10
-265.2286491254761
 20
-42.51796536909266
 30
0.0
 11
-265.2164242716712
 21
-42.51796536909266
 31
0.0
  0
LINE
  5
74C
330
73D
100
AcDbEntity
  8
Vista
 62
     4
100
AcDbLine
 10
-265.2590480951634
 20
-42.53973976658282
 30
0.0
 11
-265.2590480951634
 21
-42.54823976658282
 31
0.0
  0
LINE
  5
74D
330
73D
100
AcDbEntity
  8
Vista
 62
     4
100
AcDbLine
 10
-265.2510480951634
 20
-42.53973976658282
 30
0.0
 11
-265.2510480951634
 21
-42.54823976658282
 31
0.0
  0
LINE
  5
74E
330
73D
100
AcDbEntity
  8
Vista
 62
     4
100
AcDbLine
 10
-265.2470480951634
 20
-42.53973976658282
 30
0.0
 11
-265.2470480951635
 21
-42.54823976658282
 31
0.0
  0
LINE
  5
74F
330
73D
100
AcDbEntity
  8
Vista
 62
     4
100
AcDbLine
 10
-265.2390480951634
 20
-42.53973976658282
 30
0.0
 11
-265.2390480951634
 21
-42.54823976658282
 31
0.0
  0
LINE
  5
750
330
73D
100
AcDbEntity
  8
Vista
 62
     4
100
AcDbLine
 10
-265.2350480951635
 20
-42.53973976658282
 30
0.0
 11
-265.2350480951635
 21
-42.54823976658282
 31
0.0
  0
LINE
  5
751
330
73D
100
AcDbEntity
  8
Vista
 62
     4
100
AcDbLine
 10
-265.2510480951634
 20
-42.5441333561959
 30
0.0
 11
-265.2470480951635
 21
-42.5441333561959
 31
0.0
  0
LINE
  5
752
330
73D
100
AcDbEntity
  8
Vista
 62
     4
100
AcDbLine
 10
-265.2390480951634
 20
-42.5441333561959
 30
0.0
 11
-265.2350480951635
 21
-42.5441333561959
 31
0.0
  0
LINE
  5
753
330
73D
100
AcDbEntity
  8
Vista
 62
     4
100
AcDbLine
 10
-265.2470480951635
 20
-42.54823976658282
 30
0.0
 11
-265.2390480951634
 21
-42.54823976658282
 31
0.0
  0
LINE
  5
754
330
73D
100
AcDbEntity
  8
Vista
 62
     4
100
AcDbLine
 10
-265.2350480951635
 20
-42.54823976658282
 30
0.0
 11
-265.2270480951634
 21
-42.54823976658282
 31
0.0
  0
LINE
  5
755
330
73D
100
AcDbEntity
  8
Vista
 62
     4
100
AcDbLine
 10
-265.2230480951634
 20
-42.53973976658282
 30
0.0
 11
-265.2230480951634
 21
-42.54823976658282
 31
0.0
  0
LINE
  5
756
330
73D
100
AcDbEntity
  8
Vista
 62
     4
100
AcDbLine
 10
-265.2270480951634
 20
-42.53973976658282
 30
0.0
 11
-265.2270480951634
 21
-42.54823976658282
 31
0.0
  0
LINE
  5
757
330
73D
100
AcDbEntity
  8
Vista
 62
     4
100
AcDbLine
 10
-265.2230480951634
 20
-42.54823976658282
 30
0.0
 11
-265.2164242716711
 21
-42.54823976658282
 31
0.0
  0
LINE
  5
758
330
73D
100
AcDbEntity
  8
Vista
 62
     4
100
AcDbLine
 10
-265.2270480951634
 20
-42.5441333561959
 30
0.0
 11
-265.2230480951634
 21
-42.5441333561959
 31
0.0
  0
LINE
  5
759
330
73D
100
AcDbEntity
  8
Vista
 62
     4
100
AcDbLine
 10
-265.2079942150913
 20
-42.54823976658282
 30
0.0
 11
-265.2030480951634
 21
-42.54823976658282
 31
0.0
  0
LINE
  5
75A
330
73D
100
AcDbEntity
  8
Vista
 62
     4
100
AcDbLine
 10
-265.1870480951635
 20
-42.53973976658282
 30
0.0
 11
-265.1870480951635
 21
-42.54823976658282
 31
0.0
  0
LINE
  5
75B
330
73D
100
AcDbEntity
  8
Vista
 62
     4
100
AcDbLine
 10
-265.1910480951634
 20
-42.53973976658282
 30
0.0
 11
-265.1910480951634
 21
-42.54823976658282
 31
0.0
  0
LINE
  5
75C
330
73D
100
AcDbEntity
  8
Vista
 62
     4
100
AcDbLine
 10
-265.1990480951635
 20
-42.53973976658282
 30
0.0
 11
-265.1990480951635
 21
-42.54823976658282
 31
0.0
  0
LINE
  5
75D
330
73D
100
AcDbEntity
  8
Vista
 62
     4
100
AcDbLine
 10
-265.2030480951634
 20
-42.53973976658282
 30
0.0
 11
-265.2030480951634
 21
-42.54823976658282
 31
0.0
  0
LINE
  5
75E
330
73D
100
AcDbEntity
  8
Vista
 62
     4
100
AcDbLine
 10
-265.1990480951635
 20
-42.54823976658282
 30
0.0
 11
-265.1910480951634
 21
-42.54823976658282
 31
0.0
  0
LINE
  5
75F
330
73D
100
AcDbEntity
  8
Vista
 62
     4
100
AcDbLine
 10
-265.2030480951634
 20
-42.5441333561959
 30
0.0
 11
-265.1990480951635
 21
-42.5441333561959
 31
0.0
  0
LINE
  5
760
330
73D
100
AcDbEntity
  8
Vista
 62
     4
100
AcDbLine
 10
-265.1910480951634
 20
-42.5441333561959
 30
0.0
 11
-265.1870480951635
 21
-42.5441333561959
 31
0.0
  0
LINE
  5
761
330
73D
100
AcDbEntity
  8
Vista
 62
     4
100
AcDbLine
 10
-265.1870480951635
 20
-42.54823976658282
 30
0.0
 11
-265.1790480951634
 21
-42.54823976658282
 31
0.0
  0
LINE
  5
762
330
73D
100
AcDbEntity
  8
Vista
 62
     4
100
AcDbLine
 10
-265.1630480951634
 20
-42.53973976658282
 30
0.0
 11
-265.1630480951634
 21
-42.54823976658282
 31
0.0
  0
LINE
  5
763
330
73D
100
AcDbEntity
  8
Vista
 62
     4
100
AcDbLine
 10
-265.1670480951634
 20
-42.53973976658282
 30
0.0
 11
-265.1670480951634
 21
-42.54823976658282
 31
0.0
  0
LINE
  5
764
330
73D
100
AcDbEntity
  8
Vista
 62
     4
100
AcDbLine
 10
-265.1750480951634
 20
-42.53973976658282
 30
0.0
 11
-265.1750480951634
 21
-42.54823976658282
 31
0.0
  0
LINE
  5
765
330
73D
100
AcDbEntity
  8
Vista
 62
     4
100
AcDbLine
 10
-265.1790480951634
 20
-42.53973976658282
 30
0.0
 11
-265.1790480951634
 21
-42.54823976658282
 31
0.0
  0
LINE
  5
766
330
73D
100
AcDbEntity
  8
Vista
 62
     4
100
AcDbLine
 10
-265.1750480951634
 20
-42.54823976658282
 30
0.0
 11
-265.1670480951634
 21
-42.54823976658282
 31
0.0
  0
LINE
  5
767
330
73D
100
AcDbEntity
  8
Vista
 62
     4
100
AcDbLine
 10
-265.1790480951634
 20
-42.5441333561959
 30
0.0
 11
-265.1750480951634
 21
-42.5441333561959
 31
0.0
  0
LINE
  5
768
330
73D
100
AcDbEntity
  8
Vista
 62
     4
100
AcDbLine
 10
-265.1670480951634
 20
-42.5441333561959
 30
0.0
 11
-265.1630480951634
 21
-42.5441333561959
 31
0.0
  0
LINE
  5
769
330
73D
100
AcDbEntity
  8
Vista
 62
     4
100
AcDbLine
 10
-265.1630480951634
 20
-42.54823976658282
 30
0.0
 11
-265.1550480951634
 21
-42.54823976658282
 31
0.0
  0
LINE
  5
76A
330
73D
100
AcDbEntity
  8
Vista
 62
     4
100
AcDbLine
 10
-265.1390480951635
 20
-42.53973976658282
 30
0.0
 11
-265.1390480951635
 21
-42.54823976658282
 31
0.0
  0
LINE
  5
76B
330
73D
100
AcDbEntity
  8
Vista
 62
     4
100
AcDbLine
 10
-265.1430480951634
 20
-42.53973976658282
 30
0.0
 11
-265.1430480951634
 21
-42.54823976658282
 31
0.0
  0
LINE
  5
76C
330
73D
100
AcDbEntity
  8
Vista
 62
     4
100
AcDbLine
 10
-265.1510480951634
 20
-42.53973976658282
 30
0.0
 11
-265.1510480951634
 21
-42.54823976658282
 31
0.0
  0
LINE
  5
76D
330
73D
100
AcDbEntity
  8
Vista
 62
     4
100
AcDbLine
 10
-265.1550480951634
 20
-42.53973976658282
 30
0.0
 11
-265.1550480951634
 21
-42.54823976658282
 31
0.0
  0
LINE
  5
76E
330
73D
100
AcDbEntity
  8
Vista
 62
     4
100
AcDbLine
 10
-265.1510480951634
 20
-42.54823976658282
 30
0.0
 11
-265.1430480951634
 21
-42.54823976658282
 31
0.0
  0
LINE
  5
76F
330
73D
100
AcDbEntity
  8
Vista
 62
     4
100
AcDbLine
 10
-265.1550480951634
 20
-42.5441333561959
 30
0.0
 11
-265.1510480951634
 21
-42.5441333561959
 31
0.0
  0
LINE
  5
770
330
73D
100
AcDbEntity
  8
Vista
 62
     4
100
AcDbLine
 10
-265.1430480951634
 20
-42.5441333561959
 30
0.0
 11
-265.1390480951635
 21
-42.5441333561959
 31
0.0
  0
LINE
  5
771
330
73D
100
AcDbEntity
  8
Vista
 62
     4
100
AcDbLine
 10
-265.1390480951635
 20
-42.54823976658282
 30
0.0
 11
-265.1310480951634
 21
-42.54823976658282
 31
0.0
  0
LINE
  5
772
330
73D
100
AcDbEntity
  8
Vista
 62
     4
100
AcDbLine
 10
-265.1150480951634
 20
-42.53973976658282
 30
0.0
 11
-265.1150480951634
 21
-42.54823976658282
 31
0.0
  0
LINE
  5
773
330
73D
100
AcDbEntity
  8
Vista
 62
     4
100
AcDbLine
 10
-265.1190480951634
 20
-42.53973976658282
 30
0.0
 11
-265.1190480951634
 21
-42.54823976658282
 31
0.0
  0
LINE
  5
774
330
73D
100
AcDbEntity
  8
Vista
 62
     4
100
AcDbLine
 10
-265.1270480951634
 20
-42.53973976658282
 30
0.0
 11
-265.1270480951634
 21
-42.54823976658282
 31
0.0
  0
LINE
  5
775
330
73D
100
AcDbEntity
  8
Vista
 62
     4
100
AcDbLine
 10
-265.1310480951634
 20
-42.53973976658282
 30
0.0
 11
-265.1310480951634
 21
-42.54823976658282
 31
0.0
  0
LINE
  5
776
330
73D
100
AcDbEntity
  8
Vista
 62
     4
100
AcDbLine
 10
-265.1270480951634
 20
-42.54823976658282
 30
0.0
 11
-265.1190480951634
 21
-42.54823976658282
 31
0.0
  0
LINE
  5
777
330
73D
100
AcDbEntity
  8
Vista
 62
     4
100
AcDbLine
 10
-265.1310480951634
 20
-42.5441333561959
 30
0.0
 11
-265.1270480951634
 21
-42.5441333561959
 31
0.0
  0
LINE
  5
778
330
73D
100
AcDbEntity
  8
Vista
 62
     4
100
AcDbLine
 10
-265.1190480951634
 20
-42.5441333561959
 30
0.0
 11
-265.1150480951634
 21
-42.5441333561959
 31
0.0
  0
LINE
  5
779
330
73D
100
AcDbEntity
  8
Vista
 62
     4
100
AcDbLine
 10
-265.1150480951634
 20
-42.54823976658282
 30
0.0
 11
-265.1070480951634
 21
-42.54823976658282
 31
0.0
  0
LINE
  5
77A
330
73D
100
AcDbEntity
  8
Vista
 62
     4
100
AcDbLine
 10
-265.1030480951634
 20
-42.53973976658282
 30
0.0
 11
-265.1030480951634
 21
-42.54823976658282
 31
0.0
  0
LINE
  5
77B
330
73D
100
AcDbEntity
  8
Vista
 62
     4
100
AcDbLine
 10
-265.1070480951634
 20
-42.53973976658282
 30
0.0
 11
-265.1070480951634
 21
-42.54823976658282
 31
0.0
  0
LINE
  5
77C
330
73D
100
AcDbEntity
  8
Vista
 62
     4
100
AcDbLine
 10
-265.1030480951634
 20
-42.54823976658282
 30
0.0
 11
-265.0999942150913
 21
-42.54823976658285
 31
0.0
  0
LINE
  5
77D
330
73D
100
AcDbEntity
  8
Vista
 62
     4
100
AcDbLine
 10
-265.1070480951634
 20
-42.5441333561959
 30
0.0
 11
-265.1030480951634
 21
-42.5441333561959
 31
0.0
  0
LINE
  5
77E
330
73D
100
AcDbEntity
  8
CORTE
  6
RAYITA
 62
     4
100
AcDbLine
 10
-265.2611334367446
 20
-42.46214078547466
 30
0.0
 11
-265.2611334367446
 21
-42.45803437508773
 31
0.0
  0
LINE
  5
77F
330
73D
100
AcDbEntity
  8
CORTE
  6
RAYITA
 62
     4
100
AcDbLine
 10
-265.2576225605411
 20
-42.45364078547466
 30
0.0
 11
-265.2593966603947
 21
-42.45364078547466
 31
0.0
  0
LINE
  5
780
330
73D
100
AcDbEntity
  8
CORTE
  6
RAYITA
 62
     4
100
AcDbLine
 10
-265.2593966603947
 20
-42.45803437508773
 30
0.0
 11
-265.2611334367446
 21
-42.45803437508773
 31
0.0
  0
LINE
  5
781
330
73D
100
AcDbEntity
  8
CORTE
  6
RAYITA
 62
     4
100
AcDbLine
 10
-265.2593966603947
 20
-42.45803437508773
 30
0.0
 11
-265.2593966603947
 21
-42.45364078547466
 31
0.0
  0
LINE
  5
782
330
73D
100
AcDbEntity
  8
Vista
 62
     2
100
AcDbLine
 10
-265.2246225605411
 20
-42.42864078547465
 30
0.0
 11
-265.0988419531143
 21
-42.4023863117474
 31
0.0
  0
LINE
  5
783
330
73D
100
AcDbEntity
  8
Vista
 62
     2
100
AcDbLine
 10
-265.2253196169622
 20
-42.43216218366036
 30
0.0
 11
-265.1005238724924
 21
-42.40611328262953
 31
0.0
  0
LINE
  5
784
330
73D
100
AcDbEntity
  8
Vista
 62
     2
100
AcDbLine
 10
-265.2357843481861
 20
-42.4424980657533
 30
0.0
 11
-265.1113419531143
 21
-42.41652292015008
 31
0.0
  0
LINE
  5
785
330
73D
100
AcDbEntity
  8
Vista
 62
     2
100
AcDbLine
 10
-265.2377407371607
 20
-42.44566528066572
 30
0.0
 11
-265.1119601297339
 21
-42.41941080693844
 31
0.0
  0
LINE
  5
786
330
73D
100
AcDbEntity
  8
Vista
 62
     2
100
AcDbLine
 10
-265.2616957494533
 20
-42.44725731687553
 30
0.0
 11
-265.2475622982738
 21
-42.44430720930124
 31
0.0
  0
LINE
  5
787
330
73D
100
AcDbEntity
  8
Vista
 62
     2
100
AcDbLine
 10
-265.2419054000998
 20
-42.45361692139899
 30
0.0
 11
-265.1318419531143
 21
-42.43064312650061
 31
0.0
  0
LINE
  5
788
330
73D
100
AcDbEntity
  8
Vista
 62
     4
100
AcDbLine
 10
-265.2551225605411
 20
-42.45364078547466
 30
0.0
 11
-265.2479363219937
 21
-42.45214078547464
 31
0.0
  0
LINE
  5
789
330
73D
100
AcDbEntity
  8
Vista
 62
     4
100
AcDbLine
 10
-265.2543974497464
 20
-42.4613609643679
 30
0.0
 11
-265.2463974497463
 21
-42.4596911060796
 31
0.0
  0
LINE
  5
78A
330
73D
100
AcDbEntity
  8
Vista
 62
     4
100
AcDbLine
 10
-265.2593966603947
 20
-42.45803437508773
 30
0.0
 11
-265.2558974497463
 21
-42.45730397684979
 31
0.0
  0
LINE
  5
78B
330
73D
100
AcDbEntity
  8
Vista
 62
     2
100
AcDbLine
 10
-265.2611968867646
 20
-42.46708465797961
 30
0.0
 11
-265.1354162793379
 21
-42.44083018425236
 31
0.0
  0
LINE
  5
78C
330
73D
100
AcDbEntity
  8
Vista
 62
     3
100
AcDbLine
 10
-265.264002248065
 20
-42.47113166995989
 30
0.0
 11
-265.1382216406382
 21
-42.44487719623264
 31
0.0
  0
ARC
  5
78D
330
73D
100
AcDbEntity
  8
CORTE
  6
Continuous
 62
     1
100
AcDbCircle
 10
-265.2616334367446
 20
-42.46684088735999
 30
0.0
 40
0.0004999999999999
100
AcDbArc
 50
299.8686408419573
 51
359.9999999999935
  0
LINE
  5
78E
330
73D
100
AcDbEntity
  8
CORTE
  6
Continuous
 62
     1
100
AcDbLine
 10
-265.2611334367446
 20
-42.46684088735999
 30
0.0
 11
-265.2611334367446
 21
-42.46214078547466
 31
0.0
  0
LINE
  5
78F
330
73D
100
AcDbEntity
  8
CORTE
  6
Continuous
 62
     1
100
AcDbLine
 10
-265.2576225605411
 20
-42.45364078547466
 30
0.0
 11
-265.2551225605411
 21
-42.45364078547466
 31
0.0
  0
ARC
  5
790
330
73D
100
AcDbEntity
  8
CORTE
  6
Continuous
 62
     1
100
AcDbCircle
 10
-265.2525734960763
 20
-42.45503911726784
 30
0.0
 40
0.0029074149083751
100
AcDbArc
 50
94.53017172282182
 51
151.2522954919238
  0
LINE
  5
791
330
73D
100
AcDbEntity
  8
CORTE
  6
Continuous
 62
     1
100
AcDbLine
 10
-265.2528031355024
 20
-42.45214078547464
 30
0.0
 11
-265.2474419855798
 21
-42.45214078547464
 31
0.0
  0
ARC
  5
792
330
73D
100
AcDbEntity
  8
CORTE
  6
Continuous
 62
     1
100
AcDbCircle
 10
-265.2476716250059
 20
-42.45503911726784
 30
0.0
 40
0.0029074149083745
100
AcDbArc
 50
28.74770450807759
 51
85.46982827718144
  0
LINE
  5
793
330
73D
100
AcDbEntity
  8
CORTE
  6
Continuous
 62
     1
100
AcDbLine
 10
-265.245122560541
 20
-42.45364078547466
 30
0.0
 11
-265.2421225605411
 21
-42.45364078547466
 31
0.0
  0
ARC
  5
794
330
73D
100
AcDbEntity
  8
CORTE
  6
Continuous
 62
     1
100
AcDbCircle
 10
-265.2421225605411
 20
-42.45264078547466
 30
0.0
 40
0.001
100
AcDbArc
 50
270.0
 51
359.9999999999951
  0
LINE
  5
795
330
73D
100
AcDbEntity
  8
CORTE
  6
Continuous
 62
     1
100
AcDbLine
 10
-265.2411225605411
 20
-42.45264078547466
 30
0.0
 11
-265.2411225605411
 21
-42.44913138597588
 31
0.0
  0
ARC
  5
796
330
73D
100
AcDbEntity
  8
CORTE
  6
Continuous
 62
     1
100
AcDbCircle
 10
-265.2371225605411
 20
-42.44967795498879
 30
0.0
 40
0.0040371695141331
100
AcDbArc
 50
101.4506709648844
 51
172.21916242068
  0
ARC
  5
797
330
73D
100
AcDbEntity
  8
CORTE
  6
Continuous
 62
     1
100
AcDbCircle
 10
-265.238122560541
 20
-42.44474104535682
 30
0.0
 40
0.0010000000000001
100
AcDbArc
 50
281.4506709648813
 51
359.9999999999935
  0
LINE
  5
798
330
73D
100
AcDbEntity
  8
CORTE
  6
Continuous
 62
     1
100
AcDbLine
 10
-265.2371225605411
 20
-42.44474104535682
 30
0.0
 11
-265.2371225605411
 21
-42.44264078547463
 31
0.0
  0
ARC
  5
799
330
73D
100
AcDbEntity
  8
CORTE
  6
Continuous
 62
     1
100
AcDbCircle
 10
-265.2371225605411
 20
-42.4362955473794
 30
0.0
 40
0.0063452380952395
100
AcDbArc
 50
270.0
 51
350.0605185437708
  0
ARC
  5
79A
330
73D
100
AcDbEntity
  8
CORTE
  6
Continuous
 62
     1
100
AcDbCircle
 10
-265.224622560541
 20
-42.43848602356989
 30
0.0
 40
0.0063452380952396
100
AcDbArc
 50
97.82469757354439
 51
170.060518543773
  0
ARC
  5
79B
330
73D
100
AcDbEntity
  8
CORTE
  6
Continuous
 62
     1
100
AcDbCircle
 10
-265.2256225605411
 20
-42.43120917516718
 30
0.0
 40
0.001
100
AcDbArc
 50
277.8246975735409
 51
359.9999999999984
  0
LINE
  5
79C
330
73D
100
AcDbEntity
  8
CORTE
  6
Continuous
 62
     1
100
AcDbLine
 10
-265.2246225605411
 20
-42.43120917516718
 30
0.0
 11
-265.2246225605411
 21
-42.42864078547465
 31
0.0
  0
LINE
  5
79D
330
73D
100
AcDbEntity
  8
CORTE
  6
Continuous
 62
     1
100
AcDbLine
 10
-265.2246225605411
 20
-42.42864078547465
 30
0.0
 11
-265.2371225605411
 21
-42.42864078547465
 31
0.0
  0
LINE
  5
79E
330
73D
100
AcDbEntity
  8
CORTE
  6
Continuous
 62
     1
100
AcDbLine
 10
-265.2371225605411
 20
-42.42864078547465
 30
0.0
 11
-265.2371225605411
 21
-42.43464078547465
 31
0.0
  0
LINE
  5
79F
330
73D
100
AcDbEntity
  8
CORTE
  6
Continuous
 62
     1
100
AcDbLine
 10
-265.2371225605411
 20
-42.43464078547465
 30
0.0
 11
-265.2506225605411
 21
-42.44714078547464
 31
0.0
  0
LINE
  5
7A0
330
73D
100
AcDbEntity
  8
CORTE
  6
Continuous
 62
     1
100
AcDbLine
 10
-265.2506225605411
 20
-42.44714078547464
 30
0.0
 11
-265.2606225605411
 21
-42.44714078547464
 31
0.0
  0
ARC
  5
7A1
330
73D
100
AcDbEntity
  8
CORTE
  6
Continuous
 62
     1
100
AcDbCircle
 10
-265.2606225605411
 20
-42.45214078547464
 30
0.0
 40
0.005
100
AcDbArc
 50
90.00000000000325
 51
179.9999999999967
  0
LINE
  5
7A2
330
73D
100
AcDbEntity
  8
CORTE
  6
Continuous
 62
     1
100
AcDbLine
 10
-265.2656225605411
 20
-42.45214078547464
 30
0.0
 11
-265.2656225605411
 21
-42.45741360008323
 31
0.0
  0
LINE
  5
7A3
330
73D
100
AcDbEntity
  8
CORTE
  6
Continuous
 62
     1
100
AcDbLine
 10
-265.2656225605411
 20
-42.45741360008323
 30
0.0
 11
-265.2671225605411
 21
-42.45864078547465
 31
0.0
  0
LINE
  5
7A4
330
73D
100
AcDbEntity
  8
CORTE
  6
Continuous
 62
     1
100
AcDbLine
 10
-265.2671225605411
 20
-42.45864078547465
 30
0.0
 11
-265.2671225605411
 21
-42.47114078547464
 31
0.0
  0
LINE
  5
7A5
330
73D
100
AcDbEntity
  8
CORTE
  6
Continuous
 62
     1
100
AcDbLine
 10
-265.2671225605411
 20
-42.47114078547464
 30
0.0
 11
-265.2640972871209
 21
-42.47114078547464
 31
0.0
  0
ARC
  5
7A6
330
73D
100
AcDbEntity
  8
CORTE
  6
Continuous
 62
     1
100
AcDbCircle
 10
-265.2640972871209
 20
-42.47064078547466
 30
0.0
 40
0.0005
100
AcDbArc
 50
270.0
 51
354.2126842324164
  0
ARC
  5
7A7
330
73D
100
AcDbEntity
  8
CORTE
  6
Continuous
 62
     1
100
AcDbCircle
 10
-265.2591640162722
 20
-42.47114078547464
 30
0.0
 40
0.004458544268822
100
AcDbArc
 50
119.8686408419609
 51
174.2126842324128
  0
LINE
  5
7A8
330
73D
100
AcDbEntity
  8
CORTE
  6
Continuous
 62
     4
100
AcDbLine
 10
-265.2573974497463
 20
-42.4613609643679
 30
0.0
 11
-265.2573974497463
 21
-42.45761707527883
 31
0.0
  0
LINE
  5
7A9
330
73D
100
AcDbEntity
  8
Vista
 62
     4
100
AcDbLine
 10
-265.2611334367446
 20
-42.46214078547466
 30
0.0
 11
-265.2573974497463
 21
-42.4613609643679
 31
0.0
  0
LINE
  5
7AA
330
73D
100
AcDbEntity
  8
CORTE
  6
Continuous
 62
     1
100
AcDbLine
 10
-265.2593974497464
 20
-42.45803437508773
 30
0.0
 11
-265.2593974497464
 21
-42.45359456852866
 31
0.0
  0
LINE
  5
7AB
330
73D
100
AcDbEntity
  8
Vista
 62
     4
100
AcDbLine
 10
-265.2573974497463
 20
-42.4613609643679
 30
0.0
 11
-265.2543974497464
 21
-42.4613609643679
 31
0.0
  0
LINE
  5
7AC
330
73D
100
AcDbEntity
  8
Vista
 62
     4
100
AcDbLine
 10
-265.2463974497463
 20
-42.45532102013244
 30
0.0
 11
-265.2438974497463
 21
-42.45479918941735
 31
0.0
  0
LINE
  5
7AD
330
73D
100
AcDbEntity
  8
CORTE
  6
Continuous
 62
     4
100
AcDbLine
 10
-265.2543974497464
 20
-42.4613609643679
 30
0.0
 11
-265.2543974497464
 21
-42.45348943144084
 31
0.0
  0
LINE
  5
7AE
330
73D
100
AcDbEntity
  8
CORTE
  6
Continuous
 62
     4
100
AcDbLine
 10
-265.2558974497463
 20
-42.45730397684979
 30
0.0
 11
-265.2558974497463
 21
-42.45364078547466
 31
0.0
  0
LINE
  5
7AF
330
73D
100
AcDbEntity
  8
CORTE
  6
Continuous
 62
     4
100
AcDbLine
 10
-265.2463974497463
 20
-42.4596911060796
 30
0.0
 11
-265.2463974497463
 21
-42.45242577862588
 31
0.0
  0
LINE
  5
7B0
330
73D
100
AcDbEntity
  8
Vista
 62
     4
100
AcDbLine
 10
-265.2463974497463
 20
-42.45906490922148
 30
0.0
 11
-265.2453974497464
 21
-42.45885617693547
 31
0.0
  0
LINE
  5
7B1
330
73D
100
AcDbEntity
  8
CORTE
  6
Continuous
 62
     4
100
AcDbLine
 10
-265.2423974497464
 20
-42.45885617693547
 30
0.0
 11
-265.2423974497464
 21
-42.45364078547466
 31
0.0
  0
LINE
  5
7B2
330
73D
100
AcDbEntity
  8
CORTE
  6
Continuous
 62
     4
100
AcDbLine
 10
-265.2453974497464
 20
-42.45885617693547
 30
0.0
 11
-265.2453974497464
 21
-42.4551122878464
 31
0.0
  0
LINE
  5
7B3
330
73D
100
AcDbEntity
  8
CORTE
  6
Continuous
 62
     4
100
AcDbLine
 10
-265.2343974497463
 20
-42.45718631864717
 30
0.0
 11
-265.2343974497463
 21
-42.45204976975823
 31
0.0
  0
LINE
  5
7B4
330
73D
100
AcDbEntity
  8
Vista
 62
     4
100
AcDbLine
 10
-265.2423974497464
 20
-42.45885617693547
 30
0.0
 11
-265.2453974497464
 21
-42.45885617693547
 31
0.0
  0
LINE
  5
7B5
330
73D
100
AcDbEntity
  8
CORTE
  6
Continuous
 62
     4
100
AcDbLine
 10
-265.2438974497463
 20
-42.45479918941735
 30
0.0
 11
-265.2438974497463
 21
-42.45364078547466
 31
0.0
  0
LINE
  5
7B6
330
73D
100
AcDbEntity
  8
Vista
 62
     4
100
AcDbLine
 10
-265.2423974497464
 20
-42.45885617693547
 30
0.0
 11
-265.2343974497463
 21
-42.45718631864717
 31
0.0
  0
LINE
  5
7B7
330
73D
100
AcDbEntity
  8
CORTE
  6
Continuous
 62
     4
100
AcDbLine
 10
-265.2333974497464
 20
-42.45635698981327
 30
0.0
 11
-265.2333974497464
 21
-42.45261310072421
 31
0.0
  0
LINE
  5
7B8
330
73D
100
AcDbEntity
  8
CORTE
  6
Continuous
 62
     4
100
AcDbLine
 10
-265.2303974497463
 20
-42.45635698981327
 30
0.0
 11
-265.2303974497463
 21
-42.45121484061409
 31
0.0
  0
LINE
  5
7B9
330
73D
100
AcDbEntity
  8
Vista
 62
     4
100
AcDbLine
 10
-265.2303974497463
 20
-42.45635698981327
 30
0.0
 11
-265.2223974497463
 21
-42.45468713152497
 31
0.0
  0
LINE
  5
7BA
330
73D
100
AcDbEntity
  8
Vista
 62
     4
100
AcDbLine
 10
-265.2303974497463
 20
-42.45635698981327
 30
0.0
 11
-265.2333974497464
 21
-42.45635698981327
 31
0.0
  0
LINE
  5
7BB
330
73D
100
AcDbEntity
  8
Vista
 62
     4
100
AcDbLine
 10
-265.2343974497463
 20
-42.45656572209931
 30
0.0
 11
-265.2333974497464
 21
-42.45635698981327
 31
0.0
  0
LINE
  5
7BC
330
73D
100
AcDbEntity
  8
Vista
 62
     4
100
AcDbLine
 10
-265.2343974497463
 20
-42.45282183301024
 30
0.0
 11
-265.2318974497463
 21
-42.45230000229516
 31
0.0
  0
LINE
  5
7BD
330
73D
100
AcDbEntity
  8
CORTE
  6
Continuous
 62
     4
100
AcDbLine
 10
-265.2318974497463
 20
-42.45230000229516
 30
0.0
 11
-265.2318974497463
 21
-42.45152793904314
 31
0.0
  0
LINE
  5
7BE
330
73D
100
AcDbEntity
  8
CORTE
  6
Continuous
 62
     4
100
AcDbLine
 10
-265.2223974497463
 20
-42.45468713152497
 30
0.0
 11
-265.2223974497463
 21
-42.44955058263606
 31
0.0
  0
LINE
  5
7BF
330
73D
100
AcDbEntity
  8
Vista
 62
     4
100
AcDbLine
 10
-265.2183974497464
 20
-42.45381967473214
 30
0.0
 11
-265.2103974497463
 21
-42.45214981644385
 31
0.0
  0
LINE
  5
7C0
330
73D
100
AcDbEntity
  8
Vista
 62
     4
100
AcDbLine
 10
-265.2183974497464
 20
-42.45381967473214
 30
0.0
 11
-265.2213974497463
 21
-42.45381967473214
 31
0.0
  0
LINE
  5
7C1
330
73D
100
AcDbEntity
  8
CORTE
  6
Continuous
 62
     4
100
AcDbLine
 10
-265.2198974497463
 20
-42.44976268721403
 30
0.0
 11
-265.2198974497463
 21
-42.44902315161072
 31
0.0
  0
LINE
  5
7C2
330
73D
100
AcDbEntity
  8
Vista
 62
     4
100
AcDbLine
 10
-265.2223974497463
 20
-42.45028451792911
 30
0.0
 11
-265.2198974497463
 21
-42.44976268721403
 31
0.0
  0
LINE
  5
7C3
330
73D
100
AcDbEntity
  8
Vista
 62
     4
100
AcDbLine
 10
-265.2223974497463
 20
-42.45402840701818
 30
0.0
 11
-265.2213974497463
 21
-42.45381967473214
 31
0.0
  0
LINE
  5
7C4
330
73D
100
AcDbEntity
  8
CORTE
  6
Continuous
 62
     4
100
AcDbLine
 10
-265.2213974497463
 20
-42.45381967473214
 30
0.0
 11
-265.2213974497463
 21
-42.45007578564307
 31
0.0
  0
LINE
  5
7C5
330
73D
100
AcDbEntity
  8
CORTE
  6
Continuous
 62
     4
100
AcDbLine
 10
-265.2183974497464
 20
-42.45381967473214
 30
0.0
 11
-265.2183974497464
 21
-42.44867752553297
 31
0.0
  0
LINE
  5
7C6
330
73D
100
AcDbEntity
  8
CORTE
  6
Continuous
 62
     4
100
AcDbLine
 10
-265.2103974497463
 20
-42.45214981644385
 30
0.0
 11
-265.2103974497463
 21
-42.44704019489337
 31
0.0
  0
LINE
  5
7C7
330
73D
100
AcDbEntity
  8
Vista
 62
     4
100
AcDbLine
 10
-265.2063974497464
 20
-42.45136478851414
 30
0.0
 11
-265.1983974497463
 21
-42.44969493022584
 31
0.0
  0
LINE
  5
7C8
330
73D
100
AcDbEntity
  8
Vista
 62
     4
100
AcDbLine
 10
-265.2063974497464
 20
-42.45136478851414
 30
0.0
 11
-265.2093974497463
 21
-42.45136478851414
 31
0.0
  0
LINE
  5
7C9
330
73D
100
AcDbEntity
  8
CORTE
  6
Continuous
 62
     4
100
AcDbLine
 10
-265.2078974497463
 20
-42.44730780099603
 30
0.0
 11
-265.2078974497463
 21
-42.44653573774401
 31
0.0
  0
LINE
  5
7CA
330
73D
100
AcDbEntity
  8
Vista
 62
     4
100
AcDbLine
 10
-265.2103974497463
 20
-42.44782963171111
 30
0.0
 11
-265.2078974497463
 21
-42.44730780099603
 31
0.0
  0
LINE
  5
7CB
330
73D
100
AcDbEntity
  8
Vista
 62
     4
100
AcDbLine
 10
-265.2103974497463
 20
-42.45157352080018
 30
0.0
 11
-265.2093974497463
 21
-42.45136478851414
 31
0.0
  0
LINE
  5
7CC
330
73D
100
AcDbEntity
  8
CORTE
  6
Continuous
 62
     4
100
AcDbLine
 10
-265.2093974497463
 20
-42.45136478851414
 30
0.0
 11
-265.2093974497463
 21
-42.44762089942507
 31
0.0
  0
LINE
  5
7CD
330
73D
100
AcDbEntity
  8
CORTE
  6
Continuous
 62
     4
100
AcDbLine
 10
-265.2063974497464
 20
-42.45136478851414
 30
0.0
 11
-265.2063974497464
 21
-42.44622263931496
 31
0.0
  0
LINE
  5
7CE
330
73D
100
AcDbEntity
  8
CORTE
  6
Continuous
 62
     4
100
AcDbLine
 10
-265.1983974497463
 20
-42.44969493022584
 30
0.0
 11
-265.1983974497463
 21
-42.44455838133693
 31
0.0
  0
LINE
  5
7CF
330
73D
100
AcDbEntity
  8
Vista
 62
     4
100
AcDbLine
 10
-265.1943974497464
 20
-42.44883783223379
 30
0.0
 11
-265.1863974497463
 21
-42.44716797394549
 31
0.0
  0
LINE
  5
7D0
330
73D
100
AcDbEntity
  8
Vista
 62
     4
100
AcDbLine
 10
-265.1943974497464
 20
-42.44883783223379
 30
0.0
 11
-265.1973974497463
 21
-42.44883783223379
 31
0.0
  0
LINE
  5
7D1
330
73D
100
AcDbEntity
  8
CORTE
  6
Continuous
 62
     4
100
AcDbLine
 10
-265.1958974497463
 20
-42.44478084471568
 30
0.0
 11
-265.1958974497463
 21
-42.44400878146369
 31
0.0
  0
LINE
  5
7D2
330
73D
100
AcDbEntity
  8
Vista
 62
     4
100
AcDbLine
 10
-265.1983974497463
 20
-42.44530267543076
 30
0.0
 11
-265.1958974497463
 21
-42.44478084471568
 31
0.0
  0
LINE
  5
7D3
330
73D
100
AcDbEntity
  8
Vista
 62
     4
100
AcDbLine
 10
-265.1983974497463
 20
-42.44904656451983
 30
0.0
 11
-265.1973974497463
 21
-42.44883783223379
 31
0.0
  0
LINE
  5
7D4
330
73D
100
AcDbEntity
  8
CORTE
  6
Continuous
 62
     4
100
AcDbLine
 10
-265.1973974497463
 20
-42.44883783223379
 30
0.0
 11
-265.1973974497463
 21
-42.44509394314476
 31
0.0
  0
LINE
  5
7D5
330
73D
100
AcDbEntity
  8
CORTE
  6
Continuous
 62
     4
100
AcDbLine
 10
-265.1943974497464
 20
-42.44883783223379
 30
0.0
 11
-265.1943974497464
 21
-42.44369568303464
 31
0.0
  0
LINE
  5
7D6
330
73D
100
AcDbEntity
  8
CORTE
  6
Continuous
 62
     4
100
AcDbLine
 10
-265.1838974497463
 20
-42.44224352963455
 30
0.0
 11
-265.1838974497463
 21
-42.44150399403126
 31
0.0
  0
LINE
  5
7D7
330
73D
100
AcDbEntity
  8
CORTE
  6
Continuous
 62
     4
100
AcDbLine
 10
-265.1823974497464
 20
-42.44630051715266
 30
0.0
 11
-265.1823974497464
 21
-42.44115836795351
 31
0.0
  0
LINE
  5
7D8
330
73D
100
AcDbEntity
  8
Vista
 62
     4
100
AcDbLine
 10
-265.1823974497464
 20
-42.44630051715266
 30
0.0
 11
-265.1853974497464
 21
-42.44630051715266
 31
0.0
  0
LINE
  5
7D9
330
73D
100
AcDbEntity
  8
CORTE
  6
Continuous
 62
     4
100
AcDbLine
 10
-265.1853974497464
 20
-42.44630051715266
 30
0.0
 11
-265.1853974497464
 21
-42.44255662806362
 31
0.0
  0
LINE
  5
7DA
330
73D
100
AcDbEntity
  8
Vista
 62
     4
100
AcDbLine
 10
-265.1863974497463
 20
-42.4465092494387
 30
0.0
 11
-265.1853974497464
 21
-42.44630051715266
 31
0.0
  0
LINE
  5
7DB
330
73D
100
AcDbEntity
  8
Vista
 62
     4
100
AcDbLine
 10
-265.1863974497463
 20
-42.44276536034966
 30
0.0
 11
-265.1838974497463
 21
-42.44224352963455
 31
0.0
  0
LINE
  5
7DC
330
73D
100
AcDbEntity
  8
CORTE
  6
Continuous
 62
     4
100
AcDbLine
 10
-265.1863974497463
 20
-42.44716797394549
 30
0.0
 11
-265.1863974497463
 21
-42.44203142505658
 31
0.0
  0
LINE
  5
7DD
330
73D
100
AcDbEntity
  8
Vista
 62
     4
100
AcDbLine
 10
-265.1703974497463
 20
-42.44384563093466
 30
0.0
 11
-265.1623974497463
 21
-42.44217577264636
 31
0.0
  0
LINE
  5
7DE
330
73D
100
AcDbEntity
  8
Vista
 62
     4
100
AcDbLine
 10
-265.1823974497464
 20
-42.44630051715266
 30
0.0
 11
-265.1743974497463
 21
-42.44463065886439
 31
0.0
  0
LINE
  5
7DF
330
73D
100
AcDbEntity
  8
CORTE
  6
Continuous
 62
     4
100
AcDbLine
 10
-265.1743974497463
 20
-42.44463065886439
 30
0.0
 11
-265.1743974497463
 21
-42.43952103731389
 31
0.0
  0
LINE
  5
7E0
330
73D
100
AcDbEntity
  8
CORTE
  6
Continuous
 62
     4
100
AcDbLine
 10
-265.1733974497464
 20
-42.44384563093466
 30
0.0
 11
-265.1733974497464
 21
-42.44010174184562
 31
0.0
  0
LINE
  5
7E1
330
73D
100
AcDbEntity
  8
CORTE
  6
Continuous
 62
     4
100
AcDbLine
 10
-265.1703974497463
 20
-42.44384563093466
 30
0.0
 11
-265.1703974497463
 21
-42.43870348173551
 31
0.0
  0
LINE
  5
7E2
330
73D
100
AcDbEntity
  8
Vista
 62
     4
100
AcDbLine
 10
-265.1703974497463
 20
-42.44384563093466
 30
0.0
 11
-265.1733974497464
 21
-42.44384563093466
 31
0.0
  0
LINE
  5
7E3
330
73D
100
AcDbEntity
  8
Vista
 62
     4
100
AcDbLine
 10
-265.1743974497463
 20
-42.4440543632207
 30
0.0
 11
-265.1733974497464
 21
-42.44384563093466
 31
0.0
  0
LINE
  5
7E4
330
73D
100
AcDbEntity
  8
CORTE
  6
Continuous
 62
     4
100
AcDbLine
 10
-265.1718974497463
 20
-42.43978864341655
 30
0.0
 11
-265.1718974497463
 21
-42.43901658016456
 31
0.0
  0
LINE
  5
7E5
330
73D
100
AcDbEntity
  8
Vista
 62
     4
100
AcDbLine
 10
-265.1743974497463
 20
-42.44031047413163
 30
0.0
 11
-265.1718974497463
 21
-42.43978864341655
 31
0.0
  0
LINE
  5
7E6
330
73D
100
AcDbEntity
  8
CORTE
  6
Continuous
 62
     4
100
AcDbLine
 10
-265.1623974497463
 20
-42.44217577264636
 30
0.0
 11
-265.1623974497463
 21
-42.43703922375745
 31
0.0
  0
LINE
  5
7E7
330
73D
100
AcDbEntity
  8
Vista
 62
     4
100
AcDbLine
 10
-265.1583974497464
 20
-42.44133239831891
 30
0.0
 11
-265.1503974497463
 21
-42.43966254003062
 31
0.0
  0
LINE
  5
7E8
330
73D
100
AcDbEntity
  8
Vista
 62
     4
100
AcDbLine
 10
-265.1583974497464
 20
-42.44133239831891
 30
0.0
 11
-265.1613974497463
 21
-42.44133239831891
 31
0.0
  0
LINE
  5
7E9
330
73D
100
AcDbEntity
  8
CORTE
  6
Continuous
 62
     4
100
AcDbLine
 10
-265.1598974497463
 20
-42.4372754108008
 30
0.0
 11
-265.1598974497463
 21
-42.43650334754879
 31
0.0
  0
LINE
  5
7EA
330
73D
100
AcDbEntity
  8
Vista
 62
     4
100
AcDbLine
 10
-265.1623974497463
 20
-42.43779724151589
 30
0.0
 11
-265.1598974497463
 21
-42.4372754108008
 31
0.0
  0
LINE
  5
7EB
330
73D
100
AcDbEntity
  8
Vista
 62
     4
100
AcDbLine
 10
-265.1623974497463
 20
-42.44154113060496
 30
0.0
 11
-265.1613974497463
 21
-42.44133239831891
 31
0.0
  0
LINE
  5
7EC
330
73D
100
AcDbEntity
  8
CORTE
  6
Continuous
 62
     4
100
AcDbLine
 10
-265.1613974497463
 20
-42.44133239831891
 30
0.0
 11
-265.1613974497463
 21
-42.43758850922985
 31
0.0
  0
LINE
  5
7ED
330
73D
100
AcDbEntity
  8
CORTE
  6
Continuous
 62
     4
100
AcDbLine
 10
-265.1583974497464
 20
-42.44133239831891
 30
0.0
 11
-265.1583974497464
 21
-42.43619024911974
 31
0.0
  0
LINE
  5
7EE
330
73D
100
AcDbEntity
  8
CORTE
  6
Continuous
 62
     4
100
AcDbLine
 10
-265.1478974497463
 20
-42.43473809571968
 30
0.0
 11
-265.1478974497463
 21
-42.43399856011636
 31
0.0
  0
LINE
  5
7EF
330
73D
100
AcDbEntity
  8
CORTE
  6
Continuous
 62
     4
100
AcDbLine
 10
-265.1463974497464
 20
-42.43879508323779
 30
0.0
 11
-265.1463974497464
 21
-42.43365293403861
 31
0.0
  0
LINE
  5
7F0
330
73D
100
AcDbEntity
  8
Vista
 62
     4
100
AcDbLine
 10
-265.1463974497464
 20
-42.43879508323779
 30
0.0
 11
-265.1493974497463
 21
-42.43879508323779
 31
0.0
  0
LINE
  5
7F1
330
73D
100
AcDbEntity
  8
CORTE
  6
Continuous
 62
     4
100
AcDbLine
 10
-265.1493974497463
 20
-42.43879508323779
 30
0.0
 11
-265.1493974497463
 21
-42.43505119414872
 31
0.0
  0
LINE
  5
7F2
330
73D
100
AcDbEntity
  8
Vista
 62
     4
100
AcDbLine
 10
-265.1503974497463
 20
-42.43900381552383
 30
0.0
 11
-265.1493974497463
 21
-42.43879508323779
 31
0.0
  0
LINE
  5
7F3
330
73D
100
AcDbEntity
  8
Vista
 62
     4
100
AcDbLine
 10
-265.1503974497463
 20
-42.43525992643476
 30
0.0
 11
-265.1478974497463
 21
-42.43473809571968
 31
0.0
  0
LINE
  5
7F4
330
73D
100
AcDbEntity
  8
CORTE
  6
Continuous
 62
     4
100
AcDbLine
 10
-265.1503974497463
 20
-42.43966254003062
 30
0.0
 11
-265.1503974497463
 21
-42.43452599114171
 31
0.0
  0
LINE
  5
7F5
330
73D
100
AcDbEntity
  8
Vista
 62
     4
100
AcDbLine
 10
-265.1463974497464
 20
-42.43879508323779
 30
0.0
 11
-265.1383974497463
 21
-42.43712522494949
 31
0.0
  0
LINE
  5
7F6
330
73D
100
AcDbEntity
  8
CORTE
  6
Continuous
 62
     4
100
AcDbLine
 10
-265.1383974497463
 20
-42.43712522494949
 30
0.0
 11
-265.1383974497463
 21
-42.43201560339902
 31
0.0
  0
LINE
  5
7F7
330
73D
100
AcDbEntity
  8
CORTE
  6
Continuous
 62
     4
100
AcDbLine
 10
-265.1373974497464
 20
-42.43634019701978
 30
0.0
 11
-265.1373974497464
 21
-42.43259630793072
 31
0.0
  0
LINE
  5
7F8
330
73D
100
AcDbEntity
  8
CORTE
  6
Continuous
 62
     4
100
AcDbLine
 10
-265.1343974497464
 20
-42.43634019701978
 30
0.0
 11
-265.1343974497464
 21
-42.43119804782061
 31
0.0
  0
LINE
  5
7F9
330
73D
100
AcDbEntity
  8
Vista
 62
     4
100
AcDbLine
 10
-265.1383974497463
 20
-42.43654892930583
 30
0.0
 11
-265.1373974497464
 21
-42.43634019701978
 31
0.0
  0
LINE
  5
7FA
330
73D
100
AcDbEntity
  8
CORTE
  6
Continuous
 62
     4
100
AcDbLine
 10
-265.1358974497463
 20
-42.43228320950167
 30
0.0
 11
-265.1358974497463
 21
-42.43151114624966
 31
0.0
  0
LINE
  5
7FB
330
73D
100
AcDbEntity
  8
Vista
 62
     4
100
AcDbLine
 10
-265.1383974497463
 20
-42.43280504021676
 30
0.0
 11
-265.1358974497463
 21
-42.43228320950167
 31
0.0
  0
LINE
  5
7FC
330
73D
100
AcDbEntity
  8
Vista
 62
     4
100
AcDbLine
 10
-265.1353528293179
 20
-42.43634019701978
 30
0.0
 11
-265.1373974497464
 21
-42.43634019701978
 31
0.0
  0
LWPOLYLINE
  5
7FD
330
73D
100
AcDbEntity
  8
Vista
  6
Continuous
 62
     3
100
AcDbPolyline
 90
       21
 70
     0
 43
0.0
 10
-265.1383166796941
 20
-42.44488631174739
 42
0.384929168564455
 10
-265.1378192281659
 20
-42.4444367297706
 42
-0.2416670294637282
 10
-265.1356038227205
 20
-42.44101999835858
 42
0.2685636005234456
 10
-265.1353528293179
 20
-42.44058641363274
 10
-265.1353528293179
 20
-42.43634019701978
 10
-265.1343974497464
 20
-42.43634019701978
 10
-265.1318419531143
 20
-42.43580678236582
 10
-265.1318419531143
 20
-42.43064312650061
 10
-265.1161247926731
 20
-42.42736244767171
 42
0.3514578094911731
 10
-265.1153419531143
 20
-42.42638631174741
 10
-265.1153419531143
 20
-42.42287691224864
 42
-0.3189892314182308
 10
-265.1121434289239
 20
-42.41946666761764
 42
0.3568183404962087
 10
-265.1113419531143
 20
-42.41848657162957
 10
-265.1113419531143
 20
-42.41652292015008
 10
-265.1100037407593
 20
-42.41624359202602
 42
0.3051840064494136
 10
-265.1050919531143
 20
-42.4111363117474
 42
-0.2900042141350497
 10
-265.1005238724924
 20
-42.40611328262953
 10
-265.0995390095354
 20
-42.40590770993311
 42
0.3266838343405565
 10
-265.0988419531143
 20
-42.40495470143993
 10
-265.0988419531143
 20
-42.4023863117474
 10
-265.1113419531143
 20
-42.4023863117474
  0
LINE
  5
7FE
330
73D
100
AcDbEntity
  8
Vista
 62
     6
100
AcDbLine
 10
-265.0999942150913
 20
-42.55723976658283
 30
0.0
 11
-265.0999942150913
 21
-42.51473976658282
 31
0.0
  0
LINE
  5
7FF
330
73D
100
AcDbEntity
  8
Vista
 62
     6
100
AcDbLine
 10
-265.2079942150913
 20
-42.55723976658283
 30
0.0
 11
-265.2079942150913
 21
-42.51473976658282
 31
0.0
  0
LINE
  5
800
330
73D
100
AcDbEntity
  8
Vista
 62
     2
100
AcDbLine
 10
-265.2079942150914
 20
-42.51796536909266
 30
0.0
 11
-265.0999942150913
 21
-42.51796536909266
 31
0.0
  0
LINE
  5
801
330
73D
100
AcDbEntity
  8
Vista
 62
     3
100
AcDbLine
 10
-265.2079942150913
 20
-42.51473976658279
 30
0.0
 11
-265.0999942150913
 21
-42.51473976658284
 31
0.0
  0
LINE
  5
802
330
73D
100
AcDbEntity
  8
Vista
 62
     2
100
AcDbLine
 10
-265.2079942150913
 20
-42.52873976658283
 30
0.0
 11
-265.0999942150913
 21
-42.52873976658283
 31
0.0
  0
LINE
  5
803
330
73D
100
AcDbEntity
  8
Vista
 62
     2
100
AcDbLine
 10
-265.2079942150914
 20
-42.53147306509318
 30
0.0
 11
-265.0999942150913
 21
-42.53147306509318
 31
0.0
  0
LINE
  5
804
330
73D
100
AcDbEntity
  8
Vista
 62
     2
100
AcDbLine
 10
-265.2079942150913
 20
-42.53973976658282
 30
0.0
 11
-265.0999942150913
 21
-42.53973976658282
 31
0.0
  0
LINE
  5
805
330
73D
100
AcDbEntity
  8
Vista
 62
     2
100
AcDbLine
 10
-265.2079942150913
 20
-42.55319036467706
 30
0.0
 11
-265.0999942150913
 21
-42.55319036467709
 31
0.0
  0
LINE
  5
806
330
73D
100
AcDbEntity
  8
Vista
 62
     3
100
AcDbLine
 10
-265.2079942150913
 20
-42.55723976658283
 30
0.0
 11
-265.0999942150913
 21
-42.55723976658283
 31
0.0
  0
ENDBLK
  5
808
330
73D
100
AcDbEntity
  8
0
 62
     3
100
AcDbBlockEnd
  0
BLOCK
  5
B6F
330
B69
100
AcDbEntity
  8
0
 62
     3
100
AcDbBlockBegin
  2
A$C263D6B6A
 70
     0
 10
0.0
 20
0.0
 30
0.0
  3
A$C263D6B6A
  1

  0
HATCH
  5
B6A
330
B69
100
AcDbEntity
  8
Sezione
100
AcDbHatch
 10
0.0
 20
0.0
 30
0.0
210
0.0
220
0.0
230
1.0
  2
ANSI31
 70
     0
 71
     0
 91
        1
 92
        7
 72
     0
 73
     1
 93
        6
 10
0.0922667539244952
 20
0.0862807646728965
 10
-0.0000000665657739
 20
0.0862807646728965
 10
-0.0000000665657739
 20
0.0003091066906239
 10
0.0191316019951639
 20
0.0003091066906239
 10
0.0191316019951639
 20
0.0668219886661159
 10
0.0922667539244952
 20
0.0668219886661158
 97
        0
 75
     0
 76
     1
 52
0.0
 41
0.002
 77
     0
 78
     1
 53
45.0
 43
-0.0858288002254417
 44
-0.1359207187670848
 45
-0.0044901280605346
 46
0.0044901280605346
 79
     0
 47
0.0003507291251325
 98
        1
 10
0.0287510465309501
 20
0.0740124973428604
1001
ACAD
1010
0.0
1020
0.0
1030
0.0
  0
LINE
  5
B6B
330
B69
100
AcDbEntity
  8
Sezione
100
AcDbLine
 10
0.0191316019951639
 20
0.0000000122728271
 30
0.0
 11
0.0191316019951639
 21
0.0668219886661159
 31
0.0
  0
LINE
  5
B6C
330
B69
100
AcDbEntity
  8
Sezione
100
AcDbLine
 10
0.0191316019951639
 20
0.0668219886661159
 30
0.0
 11
0.0923266054750259
 21
0.0668219886661159
 31
0.0
  0
ENDBLK
  5
B70
330
B69
100
AcDbEntity
  8
0
 62
     3
100
AcDbBlockEnd
  0
BLOCK
  5
BFC
330
BFB
100
AcDbEntity
  8
0
100
AcDbBlockBegin
  2
*X10
 70
     1
 10
0.0
 20
0.0
 30
0.0
  3
*X10
  1

  0
LINE
  5
BFD
330
BFB
100
AcDbEntity
  8
0
 62
     0
100
AcDbLine
 10
486.460053877036
 20
124.0678285189305
 30
0.0
 11
503.5693156116774
 21
141.1770902535719
 31
0.0
  0
LINE
  5
BFE
330
BFB
100
AcDbEntity
  8
0
 62
     0
100
AcDbLine
 10
615.6341149734076
 20
253.2418896153022
 30
0.0
 11
629.3545087289434
 21
266.9622833708378
 31
0.0
  0
LINE
  5
BFF
330
BFB
100
AcDbEntity
  8
0
 62
     0
100
AcDbLine
 10
486.460053877036
 20
132.9066632837623
 30
0.0
 11
503.5693156116774
 21
150.0159250184037
 31
0.0
  0
LINE
  5
C00
330
BFB
100
AcDbEntity
  8
0
 62
     0
100
AcDbLine
 10
606.7952802085758
 20
253.2418896153022
 30
0.0
 11
620.5156739641116
 21
266.9622833708378
 31
0.0
  0
LINE
  5
C01
330
BFB
100
AcDbEntity
  8
0
 62
     0
100
AcDbLine
 10
486.460053877036
 20
141.7454980485942
 30
0.0
 11
503.5693156116774
 21
158.8547597832356
 31
0.0
  0
LINE
  5
C02
330
BFB
100
AcDbEntity
  8
0
 62
     0
100
AcDbLine
 10
597.9564454437441
 20
253.2418896153022
 30
0.0
 11
611.6768391992796
 21
266.9622833708378
 31
0.0
  0
LINE
  5
C03
330
BFB
100
AcDbEntity
  8
0
 62
     0
100
AcDbLine
 10
486.460053877036
 20
150.584332813426
 30
0.0
 11
503.5693156116774
 21
167.6935945480674
 31
0.0
  0
LINE
  5
C04
330
BFB
100
AcDbEntity
  8
0
 62
     0
100
AcDbLine
 10
589.1176106789122
 20
253.2418896153022
 30
0.0
 11
602.8380044344478
 21
266.9622833708378
 31
0.0
  0
LINE
  5
C05
330
BFB
100
AcDbEntity
  8
0
 62
     0
100
AcDbLine
 10
486.460053877036
 20
159.4231675782578
 30
0.0
 11
503.5693156116774
 21
176.5324293128992
 31
0.0
  0
LINE
  5
C06
330
BFB
100
AcDbEntity
  8
0
 62
     0
100
AcDbLine
 10
580.2787759140803
 20
253.2418896153022
 30
0.0
 11
593.999169669616
 21
266.9622833708378
 31
0.0
  0
LINE
  5
C07
330
BFB
100
AcDbEntity
  8
0
 62
     0
100
AcDbLine
 10
486.460053877036
 20
168.2620023430897
 30
0.0
 11
503.5693156116774
 21
185.3712640777311
 31
0.0
  0
LINE
  5
C08
330
BFB
100
AcDbEntity
  8
0
 62
     0
100
AcDbLine
 10
571.4399411492485
 20
253.2418896153022
 30
0.0
 11
585.1603349047841
 21
266.9622833708378
 31
0.0
  0
LINE
  5
C09
330
BFB
100
AcDbEntity
  8
0
 62
     0
100
AcDbLine
 10
486.460053877036
 20
177.1008371079215
 30
0.0
 11
503.5693156116773
 21
194.2100988425629
 31
0.0
  0
LINE
  5
C0A
330
BFB
100
AcDbEntity
  8
0
 62
     0
100
AcDbLine
 10
562.6011063844166
 20
253.2418896153022
 30
0.0
 11
576.3215001399522
 21
266.9622833708378
 31
0.0
  0
LINE
  5
C0B
330
BFB
100
AcDbEntity
  8
0
 62
     0
100
AcDbLine
 10
486.460053877036
 20
185.9396718727533
 30
0.0
 11
503.5693156116773
 21
203.0489336073947
 31
0.0
  0
LINE
  5
C0C
330
BFB
100
AcDbEntity
  8
0
 62
     0
100
AcDbLine
 10
553.7622716195848
 20
253.2418896153022
 30
0.0
 11
567.4826653751203
 21
266.9622833708378
 31
0.0
  0
LINE
  5
C0D
330
BFB
100
AcDbEntity
  8
0
 62
     0
100
AcDbLine
 10
486.4600538770359
 20
194.7785066375852
 30
0.0
 11
503.5693156116773
 21
211.8877683722266
 31
0.0
  0
LINE
  5
C0E
330
BFB
100
AcDbEntity
  8
0
 62
     0
100
AcDbLine
 10
544.9234368547529
 20
253.2418896153022
 30
0.0
 11
558.6438306102885
 21
266.9622833708378
 31
0.0
  0
LINE
  5
C0F
330
BFB
100
AcDbEntity
  8
0
 62
     0
100
AcDbLine
 10
486.4600538770359
 20
203.617341402417
 30
0.0
 11
503.5693156116773
 21
220.7266031370584
 31
0.0
  0
LINE
  5
C10
330
BFB
100
AcDbEntity
  8
0
 62
     0
100
AcDbLine
 10
536.084602089921
 20
253.2418896153022
 30
0.0
 11
549.8049958454567
 21
266.9622833708378
 31
0.0
  0
LINE
  5
C11
330
BFB
100
AcDbEntity
  8
0
 62
     0
100
AcDbLine
 10
486.4600538770359
 20
212.4561761672488
 30
0.0
 11
503.5693156116773
 21
229.5654379018902
 31
0.0
  0
LINE
  5
C12
330
BFB
100
AcDbEntity
  8
0
 62
     0
100
AcDbLine
 10
527.2457673250892
 20
253.2418896153022
 30
0.0
 11
540.9661610806248
 21
266.9622833708378
 31
0.0
  0
LINE
  5
C13
330
BFB
100
AcDbEntity
  8
0
 62
     0
100
AcDbLine
 10
486.4600538770359
 20
221.2950109320807
 30
0.0
 11
503.5693156116773
 21
238.4042726667221
 31
0.0
  0
LINE
  5
C14
330
BFB
100
AcDbEntity
  8
0
 62
     0
100
AcDbLine
 10
518.4069325602573
 20
253.2418896153022
 30
0.0
 11
532.1273263157929
 21
266.9622833708378
 31
0.0
  0
LINE
  5
C15
330
BFB
100
AcDbEntity
  8
0
 62
     0
100
AcDbLine
 10
486.4600538770359
 20
230.1338456969125
 30
0.0
 11
503.5693156116773
 21
247.2431074315539
 31
0.0
  0
LINE
  5
C16
330
BFB
100
AcDbEntity
  8
0
 62
     0
100
AcDbLine
 10
509.5680977954256
 20
253.2418896153021
 30
0.0
 11
523.2884915509611
 21
266.9622833708377
 31
0.0
  0
LINE
  5
C17
330
BFB
100
AcDbEntity
  8
0
 62
     0
100
AcDbLine
 10
486.4600538770359
 20
238.9726804617443
 30
0.0
 11
514.4496567861292
 21
266.9622833708377
 31
0.0
  0
LINE
  5
C18
330
BFB
100
AcDbEntity
  8
0
 62
     0
100
AcDbLine
 10
486.4600538770359
 20
247.8115152265762
 30
0.0
 11
505.6108220212975
 21
266.9622833708377
 31
0.0
  0
LINE
  5
C19
330
BFB
100
AcDbEntity
  8
0
 62
     0
100
AcDbLine
 10
486.4600538770359
 20
256.6503499914079
 30
0.0
 11
496.7719872564656
 21
266.9622833708377
 31
0.0
  0
LINE
  5
C1A
330
BFB
100
AcDbEntity
  8
0
 62
     0
100
AcDbLine
 10
486.4600538770358
 20
265.4891847562398
 30
0.0
 11
487.9331524916337
 21
266.9622833708377
 31
0.0
  0
LINE
  5
C1B
330
BFB
100
AcDbEntity
  8
0
 62
     0
100
AcDbLine
 10
494.0552738068973
 20
122.8242136839599
 30
0.0
 11
503.5693156116774
 21
132.3382554887401
 31
0.0
  0
LINE
  5
C1C
330
BFB
100
AcDbEntity
  8
0
 62
     0
100
AcDbLine
 10
624.4729497382395
 20
253.2418896153022
 30
0.0
 11
629.496054025455
 21
258.2649939025177
 31
0.0
  0
LINE
  5
C1D
330
BFB
100
AcDbEntity
  8
0
 62
     0
100
AcDbLine
 10
502.8941085717291
 20
122.8242136839599
 30
0.0
 11
503.5693156116775
 21
123.4994207239083
 31
0.0
  0
ENDBLK
  5
C1E
330
BFB
100
AcDbEntity
  8
0
100
AcDbBlockEnd
  0
BLOCK
  5
C24
330
C1F
100
AcDbEntity
  8
0
100
AcDbBlockBegin
  2
A$C6C65579B
 70
     0
 10
0.0
 20
0.0
 30
0.0
  3
A$C6C65579B
  1

  0
LINE
  5
C20
330
C1F
100
AcDbEntity
  8
CORTE
  6
RAYITAX4
 62
     4
100
AcDbLine
 10
-265.2537935691752
 20
-42.42682209115611
 30
0.0
 11
-265.2537935691752
 21
-42.55723976708748
 31
0.0
  0
LINE
  5
C21
330
C1F
100
AcDbEntity
  8
CORTE
  6
RAYITAX4
 62
     4
100
AcDbLine
 10
-265.2537935691752
 20
-42.42682209115611
 30
0.0
 11
-265.1278668307615
 21
-42.42682209115611
 31
0.0
  0
INSERT
  5
C22
330
C1F
100
AcDbEntity
  8
TRAMA
100
AcDbBlockReference
  2
*X10
 10
-265.7573628847869
 20
-42.68006398077142
 30
0.0
 41
0.0009999999999764
 42
0.0010000000000048
 43
0.001
1001
ACAD
1000
HATCH
1002
{
1070
    16
1000
ANSI31
1040
50.0
1040
0.0
1002
}
  0
LWPOLYLINE
  5
C23
330
C1F
100
AcDbEntity
  8
CORTE
  6
Continuous
 62
     1
100
AcDbPolyline
 90
       27
 70
     0
 43
0.0
 10
-265.2434935691752
 20
-42.52048009449487
 42
-0.1309515943895288
 10
-265.2396188804983
 20
-42.50227169263183
 42
-0.0391865213385924
 10
-265.2318861974755
 20
-42.48961463308666
 42
0.148047983309989
 10
-265.2273603786659
 20
-42.46536751056521
 42
-0.477131438324366
 10
-265.226266012113
 20
-42.46426334617865
 42
0.3174254686240992
 10
-265.2222487718652
 20
-42.46199398787246
 10
-265.2204935691752
 20
-42.45828353660647
 42
0.3390955557305459
 10
-265.2133594019252
 20
-42.45748275993213
 42
0.1067380655143518
 10
-265.2064935691752
 20
-42.44728353660645
 10
-265.2014935691752
 20
-42.44428353660646
 42
0.6316956553984646
 10
-265.1944935691752
 20
-42.44228353660645
 42
-0.4142135623730849
 10
-265.1884935691752
 20
-42.43628353660648
 10
-265.1804935691752
 20
-42.43628353660648
 42
0.4142135623730847
 10
-265.1784935691752
 20
-42.43428353660647
 10
-265.1784935691752
 20
-42.42728353660647
 10
-265.1984935691753
 20
-42.42728353660647
 10
-265.2184935691752
 20
-42.43928353660646
 10
-265.2222940706685
 20
-42.43961583728498
 42
0.2192482621402799
 10
-265.2266538493824
 20
-42.4421056036295
 10
-265.2379730166141
 20
-42.45795243775387
 42
0.1840335527349514
 10
-265.239055826335
 20
-42.46208505147598
 10
-265.2384935691752
 20
-42.46728353660649
 10
-265.2534935691752
 20
-42.5122835366065
 10
-265.2534935691752
 20
-42.53228353660648
 10
-265.2454935691752
 20
-42.53228353660648
 42
0.4142135623730847
 10
-265.2434935691752
 20
-42.53028353660647
 10
-265.2434935691752
 20
-42.51681234902133
  0
ENDBLK
  5
C25
330
C1F
100
AcDbEntity
  8
0
100
AcDbBlockEnd
  0
BLOCK
  5
FEC
330
FEB
100
AcDbEntity
  8
0
100
AcDbBlockBegin
  2
Z4
 70
     0
 10
0.0
 20
0.0
 30
0.0
  3
Z4
  1

  0
LINE
  5
10C1
330
FEB
100
AcDbEntity
  8
Vista
100
AcDbLine
 10
-0.0000013798916711
 20
0.0115999999867427
 30
0.0
 11
0.0210150918188106
 21
0.011600211399184
 31
0.0
1001
AcDbBlockRepETag
1070
     1
1071
        0
1005
10C1
  0
LINE
  5
10C2
330
FEB
100
AcDbEntity
  8
Vista
100
AcDbLine
 10
-0.0000012632029893
 20
-0.0000000000126761
 30
0.0
 11
0.0210152085074924
 21
0.0000002113997652
 31
0.0
1001
AcDbBlockRepETag
1070
     1
1071
        1
1005
10C2
  0
ARC
  5
10C3
330
FEB
100
AcDbEntity
  8
Vista
100
AcDbCircle
 10
0.0128448849221172
 20
0.0132154841897716
 30
0.0
 40
0.0140847949245492
100
AcDbArc
 50
210.8168847834205
 51
229.3422399532511
1001
AcDbBlockRepETag
1070
     1
1071
        2
1005
10C3
  0
ARC
  5
10C4
330
FEB
100
AcDbEntity
  8
Vista
100
AcDbCircle
 10
0.0104987367970466
 20
0.0104837643425242
 30
0.0
 40
0.0094838638854241
100
AcDbArc
 50
173.2406441673128
 51
270.0000000001934
1001
AcDbBlockRepETag
1070
     1
1071
        3
1005
10C4
  0
ARC
  5
10C5
330
FEB
100
AcDbEntity
  8
Vista
100
AcDbCircle
 10
0.0110245753859886
 20
0.0096688012202151
 30
0.0
 40
0.008684834291003
100
AcDbArc
 50
167.1518779515916
 51
266.5288030567311
1001
AcDbBlockRepETag
1070
     1
1071
        4
1005
10C5
  0
LINE
  5
10C6
330
FEB
100
AcDbEntity
  8
Vista
100
AcDbLine
 10
0.0021417852681793
 20
0.0059999004570841
 30
0.0
 11
0.0035422438405703
 21
0.0052595993301168
 31
0.0
1001
AcDbBlockRepETag
1070
     1
1071
        5
1005
10C6
  0
LWPOLYLINE
  5
10C7
330
FEB
100
AcDbEntity
  8
Vista
100
AcDbPolyline
 90
        6
 70
     0
 43
0.0
 10
-0.0000012632029893
 20
-0.0000000000126477
 42
0.1674163687838473
 10
0.0003641139388151
 20
0.0001254370196193
 42
-0.1204418495943024
 10
0.0035585668839531
 20
0.002205555161737
 42
1.087992653208241
 10
0.0035360325489933
 20
0.00256297800928
 42
0.0381093343277957
 10
0.000498736796942
 20
0.0022098778801194
 10
0.0011181350445213
 20
0.0116000112483619
1001
AcDbBlockRepETag
1070
     1
1071
        6
1005
10C7
  0
LINE
  5
10C8
330
FEB
100
AcDbEntity
  8
Vista
100
AcDbLine
 10
0.0007487367969929
 20
0.0022568144178194
 30
0.0
 11
0.0007487367969929
 21
0.0059999004570841
 31
0.0
1001
AcDbBlockRepETag
1070
     1
1071
        7
1005
10C8
  0
ARC
  5
10C9
330
FEB
100
AcDbEntity
  8
Vista
100
AcDbCircle
 10
0.0099728982081047
 20
0.0096688012202151
 30
0.0
 40
0.008684834291003
100
AcDbArc
 50
273.4711969436545
 51
12.84920570272593
1001
AcDbBlockRepETag
1070
     1
1071
        8
1005
10C9
  0
ARC
  5
10CA
330
FEB
100
AcDbEntity
  8
Vista
100
AcDbCircle
 10
0.0104987367970466
 20
0.0104837643425242
 30
0.0
 40
0.0094838638854241
100
AcDbArc
 50
270.0000000001923
 51
6.760508551422351
1001
AcDbBlockRepETag
1070
     1
1071
        9
1005
10CA
  0
ARC
  5
10CB
330
FEB
100
AcDbEntity
  8
Vista
100
AcDbCircle
 10
0.0104987367970466
 20
0.0104837643425242
 30
0.0
 40
0.0104838638854241
100
AcDbArc
 50
270.0000000001923
 51
310.6577600471345
1001
AcDbBlockRepETag
1070
     1
1071
       10
1005
10CB
  0
ARC
  5
10CC
330
FEB
100
AcDbEntity
  8
Vista
100
AcDbCircle
 10
0.0104987367970466
 20
0.0104837643425242
 30
0.0
 40
0.0104838638854241
100
AcDbArc
 50
229.3422399532511
 51
270.0000000001934
1001
AcDbBlockRepETag
1070
     1
1071
       11
1005
10CC
  0
LINE
  5
10CD
330
FEB
100
AcDbEntity
  8
Vista
100
AcDbLine
 10
0.0202487367969866
 20
0.0059999004571409
 30
0.0
 11
0.0204987367969807
 21
0.0022098778801762
 31
0.0
1001
AcDbBlockRepETag
1070
     1
1071
       12
1005
10CD
  0
LINE
  5
10CE
330
FEB
100
AcDbEntity
  8
Vista
100
AcDbLine
 10
0.0202487367969866
 20
0.0022568144178763
 30
0.0
 11
0.0202487367969866
 21
0.0116002036901364
 31
0.0
1001
AcDbBlockRepETag
1070
     1
1071
       13
1005
10CE
  0
ARC
  5
10CF
330
FEB
100
AcDbEntity
  8
Vista
100
AcDbCircle
 10
0.008152588671976
 20
0.0132154841897716
 30
0.0
 40
0.0140847949245492
100
AcDbArc
 50
310.6577600471345
 51
329.1831152169651
1001
AcDbBlockRepETag
1070
     1
1071
       14
1005
10CF
  0
ARC
  5
10D0
330
FEB
100
AcDbEntity
  8
Vista
100
AcDbCircle
 10
0.017435084485669
 20
0.0023852179221251
 30
0.0
 40
0.0001797034135256
100
AcDbArc
 50
81.56617699754743
 51
271.2187516830706
1001
AcDbBlockRepETag
1070
     1
1071
       15
1005
10D0
  0
ARC
  5
10D1
330
FEB
100
AcDbEntity
  8
Vista
100
AcDbCircle
 10
0.0147810850871792
 20
-0.0053690130053781
 30
0.0
 40
0.0080273344703467
100
AcDbArc
 50
43.23100722392323
 51
70.66466339396645
1001
AcDbBlockRepETag
1070
     1
1071
       16
1005
10D1
  0
ARC
  5
10D2
330
FEB
100
AcDbEntity
  8
Vista
100
AcDbCircle
 10
0.0166670905408637
 20
-0.0175095153721543
 30
0.0
 40
0.0200882050784421
100
AcDbArc
 50
79.00396312718872
 51
87.73375467656311
1001
AcDbBlockRepETag
1070
     1
1071
       17
1005
10D2
  0
ARC
  5
10D3
330
FEB
100
AcDbEntity
  8
Vista
100
AcDbCircle
 10
0.0209993624462754
 20
0.0005930374113916
 30
0.0
 40
0.0005930377539629
100
AcDbArc
 50
231.4503103357746
 51
271.531134397806
1001
AcDbBlockRepETag
1070
     1
1071
       18
1005
10D3
  0
LINE
  5
10D4
330
FEB
100
AcDbEntity
  8
Vista
100
AcDbLine
 10
0.0188556883257434
 20
0.0059999004571409
 30
0.0
 11
0.0174552297534092
 21
0.0052595993301736
 31
0.0
1001
AcDbBlockRepETag
1070
     1
1071
       19
1005
10D4
  0
ENDBLK
  5
1001
330
FEB
100
AcDbEntity
  8
0
100
AcDbBlockEnd
  0
BLOCK
  5
1516
330
14D6
100
AcDbEntity
  8
0
100
AcDbBlockBegin
  2
A$C135D5332
 70
     0
 10
0.0
 20
0.0
 30
0.0
  3
A$C135D5332
  1

  0
LWPOLYLINE
  5
14D7
330
14D6
100
AcDbEntity
  8
0
  6
Continuous
 62
     4
370
     0
100
AcDbPolyline
 90
        4
 70
     1
 43
0.0
 10
1.459560681558286
 20
6.847688894247426
 10
6.152185490139913
 20
6.847688894247426
 10
6.152185490139913
 20
8.834617410295322
 10
1.459560681558286
 20
8.834617410295322
  0
LINE
  5
14D8
330
14D6
100
AcDbEntity
  8
0
  6
Continuous
 62
     4
370
     0
100
AcDbLine
 10
2.274252337528196
 20
6.847688894247426
 30
0.0
 11
2.274252337528196
 21
8.085447461204751
 31
0.0
  0
LINE
  5
14D9
330
14D6
100
AcDbEntity
  8
0
  6
Continuous
 62
     4
370
     0
100
AcDbLine
 10
2.274252337528196
 20
8.085447461204751
 30
0.0
 11
5.370081453371199
 21
8.085447461204751
 31
0.0
  0
LINE
  5
14DA
330
14D6
100
AcDbEntity
  8
0
  6
Continuous
 62
     4
370
     0
100
AcDbLine
 10
5.370081453371199
 20
8.085447461204751
 30
0.0
 11
5.370081453371199
 21
6.847688894247426
 31
0.0
  0
LINE
  5
14DB
330
14D6
100
AcDbEntity
  8
0
  6
Continuous
 62
     4
370
     0
100
AcDbLine
 10
7.428929416310211
 20
0.0
 30
0.0
 11
0.0
 21
0.0
 31
0.0
  0
LINE
  5
14DC
330
14D6
100
AcDbEntity
  8
0
  6
Continuous
 62
     4
370
     0
100
AcDbLine
 10
0.0
 20
0.0
 30
0.0
 11
0.0
 21
14.7340498962148
 31
0.0
  0
LINE
  5
14DD
330
14D6
100
AcDbEntity
  8
0
  6
Continuous
 62
     4
370
     0
100
AcDbLine
 10
0.0
 20
14.7340498962148
 30
0.0
 11
8.891317055019044
 21
14.7340498962148
 31
0.0
  0
LWPOLYLINE
  5
14DE
330
14D6
100
AcDbEntity
  8
0
  6
Continuous
 62
     4
370
     0
100
AcDbPolyline
 90
        4
 70
     1
 43
0.0
 10
6.48058583503257
 20
6.847688894247426
 10
11.17321064361419
 20
6.847688894247426
 10
11.17321064361419
 20
8.834617410295322
 10
6.48058583503257
 20
8.834617410295322
  0
LINE
  5
14DF
330
14D6
100
AcDbEntity
  8
0
  6
Continuous
 62
     4
370
     0
100
AcDbLine
 10
7.29527749100248
 20
6.847688894247426
 30
0.0
 11
7.29527749100248
 21
8.085447461204751
 31
0.0
  0
LINE
  5
14E0
330
14D6
100
AcDbEntity
  8
0
  6
Continuous
 62
     4
370
     0
100
AcDbLine
 10
7.29527749100248
 20
8.085447461204751
 30
0.0
 11
10.39110660684548
 21
8.085447461204751
 31
0.0
  0
LINE
  5
14E1
330
14D6
100
AcDbEntity
  8
0
  6
Continuous
 62
     4
370
     0
100
AcDbLine
 10
10.39110660684548
 20
8.085447461204751
 30
0.0
 11
10.39110660684548
 21
6.847688894247426
 31
0.0
  0
LWPOLYLINE
  5
14E2
330
14D6
100
AcDbEntity
  8
0
  6
Continuous
 62
     4
370
     0
100
AcDbPolyline
 90
        4
 70
     1
 43
0.0
 10
11.50161098850685
 20
6.847688894247426
 10
16.19423579708848
 20
6.847688894247426
 10
16.19423579708848
 20
8.834617410295322
 10
11.50161098850685
 20
8.834617410295322
  0
LINE
  5
14E3
330
14D6
100
AcDbEntity
  8
0
  6
Continuous
 62
     4
370
     0
100
AcDbLine
 10
12.31630264447676
 20
6.847688894247426
 30
0.0
 11
12.31630264447676
 21
8.085447461204751
 31
0.0
  0
LINE
  5
14E4
330
14D6
100
AcDbEntity
  8
0
  6
Continuous
 62
     4
370
     0
100
AcDbLine
 10
12.31630264447676
 20
8.085447461204751
 30
0.0
 11
15.41213176031976
 21
8.085447461204751
 31
0.0
  0
LINE
  5
14E5
330
14D6
100
AcDbEntity
  8
0
  6
Continuous
 62
     4
370
     0
100
AcDbLine
 10
15.41213176031976
 20
8.085447461204751
 30
0.0
 11
15.41213176031976
 21
6.847688894247426
 31
0.0
  0
LWPOLYLINE
  5
14E6
330
14D6
100
AcDbEntity
  8
0
  6
Continuous
 62
     4
370
     0
100
AcDbPolyline
 90
        4
 70
     1
 43
0.0
 10
16.52263614198114
 20
6.847688894247426
 10
21.21526095056276
 20
6.847688894247426
 10
21.21526095056276
 20
8.834617410295322
 10
16.52263614198114
 20
8.834617410295322
  0
LINE
  5
14E7
330
14D6
100
AcDbEntity
  8
0
  6
Continuous
 62
     4
370
     0
100
AcDbLine
 10
17.33732779795104
 20
6.847688894247426
 30
0.0
 11
17.33732779795104
 21
8.085447461204751
 31
0.0
  0
LINE
  5
14E8
330
14D6
100
AcDbEntity
  8
0
  6
Continuous
 62
     4
370
     0
100
AcDbLine
 10
17.33732779795104
 20
8.085447461204751
 30
0.0
 11
20.43315691379405
 21
8.085447461204751
 31
0.0
  0
LINE
  5
14E9
330
14D6
100
AcDbEntity
  8
0
  6
Continuous
 62
     4
370
     0
100
AcDbLine
 10
20.43315691379405
 20
8.085447461204751
 30
0.0
 11
20.43315691379405
 21
6.847688894247426
 31
0.0
  0
LWPOLYLINE
  5
14EA
330
14D6
100
AcDbEntity
  8
0
  6
Continuous
 62
     4
370
     0
100
AcDbPolyline
 90
        4
 70
     1
 43
0.0
 10
21.54366129545542
 20
6.847688894247426
 10
26.23628610403705
 20
6.847688894247426
 10
26.23628610403705
 20
8.834617410295322
 10
21.54366129545542
 20
8.834617410295322
  0
LINE
  5
14EB
330
14D6
100
AcDbEntity
  8
0
  6
Continuous
 62
     4
370
     0
100
AcDbLine
 10
22.35835295142533
 20
6.847688894247426
 30
0.0
 11
22.35835295142533
 21
8.085447461204751
 31
0.0
  0
LINE
  5
14EC
330
14D6
100
AcDbEntity
  8
0
  6
Continuous
 62
     4
370
     0
100
AcDbLine
 10
22.35835295142533
 20
8.085447461204751
 30
0.0
 11
25.45418206726834
 21
8.085447461204751
 31
0.0
  0
LINE
  5
14ED
330
14D6
100
AcDbEntity
  8
0
  6
Continuous
 62
     4
370
     0
100
AcDbLine
 10
25.45418206726834
 20
8.085447461204751
 30
0.0
 11
25.45418206726834
 21
6.847688894247426
 31
0.0
  0
LWPOLYLINE
  5
14EE
330
14D6
100
AcDbEntity
  8
0
  6
Continuous
 62
     4
370
     0
100
AcDbPolyline
 90
        4
 70
     1
 43
0.0
 10
26.56468644892971
 20
6.847688894247426
 10
31.25731125751133
 20
6.847688894247426
 10
31.25731125751133
 20
8.834617410295322
 10
26.56468644892971
 20
8.834617410295322
  0
LINE
  5
14EF
330
14D6
100
AcDbEntity
  8
0
  6
Continuous
 62
     4
370
     0
100
AcDbLine
 10
27.37937810489962
 20
6.847688894247426
 30
0.0
 11
27.37937810489962
 21
8.085447461204751
 31
0.0
  0
LINE
  5
14F0
330
14D6
100
AcDbEntity
  8
0
  6
Continuous
 62
     4
370
     0
100
AcDbLine
 10
27.37937810489962
 20
8.085447461204751
 30
0.0
 11
30.47520722074262
 21
8.085447461204751
 31
0.0
  0
LINE
  5
14F1
330
14D6
100
AcDbEntity
  8
0
  6
Continuous
 62
     4
370
     0
100
AcDbLine
 10
30.47520722074262
 20
8.085447461204751
 30
0.0
 11
30.47520722074262
 21
6.847688894247426
 31
0.0
  0
LWPOLYLINE
  5
14F2
330
14D6
100
AcDbEntity
  8
0
  6
Continuous
 62
     4
370
     0
100
AcDbPolyline
 90
        4
 70
     1
 43
0.0
 10
31.58571160240399
 20
6.847688894247426
 10
36.27833641098562
 20
6.847688894247426
 10
36.27833641098562
 20
8.834617410295322
 10
31.58571160240399
 20
8.834617410295322
  0
LINE
  5
14F3
330
14D6
100
AcDbEntity
  8
0
  6
Continuous
 62
     4
370
     0
100
AcDbLine
 10
32.4004032583739
 20
6.847688894247426
 30
0.0
 11
32.4004032583739
 21
8.085447461204751
 31
0.0
  0
LINE
  5
14F4
330
14D6
100
AcDbEntity
  8
0
  6
Continuous
 62
     4
370
     0
100
AcDbLine
 10
32.4004032583739
 20
8.085447461204751
 30
0.0
 11
35.4962323742169
 21
8.085447461204751
 31
0.0
  0
LINE
  5
14F5
330
14D6
100
AcDbEntity
  8
0
  6
Continuous
 62
     4
370
     0
100
AcDbLine
 10
35.4962323742169
 20
8.085447461204751
 30
0.0
 11
35.4962323742169
 21
6.847688894247426
 31
0.0
  0
LWPOLYLINE
  5
14F6
330
14D6
100
AcDbEntity
  8
0
  6
Continuous
 62
     4
370
     0
100
AcDbPolyline
 90
        4
 70
     1
 43
0.0
 10
36.60673675587827
 20
6.847688894247426
 10
41.2993615644599
 20
6.847688894247426
 10
41.2993615644599
 20
8.834617410295322
 10
36.60673675587827
 20
8.834617410295322
  0
LINE
  5
14F7
330
14D6
100
AcDbEntity
  8
0
  6
Continuous
 62
     4
370
     0
100
AcDbLine
 10
37.42142841184818
 20
6.847688894247426
 30
0.0
 11
37.42142841184818
 21
8.085447461204751
 31
0.0
  0
LINE
  5
14F8
330
14D6
100
AcDbEntity
  8
0
  6
Continuous
 62
     4
370
     0
100
AcDbLine
 10
37.42142841184818
 20
8.085447461204751
 30
0.0
 11
40.51725752769118
 21
8.085447461204751
 31
0.0
  0
LINE
  5
14F9
330
14D6
100
AcDbEntity
  8
0
  6
Continuous
 62
     4
370
     0
100
AcDbLine
 10
40.51725752769118
 20
8.085447461204751
 30
0.0
 11
40.51725752769118
 21
6.847688894247426
 31
0.0
  0
LWPOLYLINE
  5
14FA
330
14D6
100
AcDbEntity
  8
0
  6
Continuous
 62
     4
370
     0
100
AcDbPolyline
 90
        4
 70
     1
 43
0.0
 10
41.62776190935256
 20
6.847688894247426
 10
46.32038671793418
 20
6.847688894247426
 10
46.32038671793418
 20
8.834617410295322
 10
41.62776190935256
 20
8.834617410295322
  0
LINE
  5
14FB
330
14D6
100
AcDbEntity
  8
0
  6
Continuous
 62
     4
370
     0
100
AcDbLine
 10
42.44245356532246
 20
6.847688894247426
 30
0.0
 11
42.44245356532246
 21
8.085447461204751
 31
0.0
  0
LINE
  5
14FC
330
14D6
100
AcDbEntity
  8
0
  6
Continuous
 62
     4
370
     0
100
AcDbLine
 10
42.44245356532246
 20
8.085447461204751
 30
0.0
 11
45.53828268116546
 21
8.085447461204751
 31
0.0
  0
LINE
  5
14FD
330
14D6
100
AcDbEntity
  8
0
  6
Continuous
 62
     4
370
     0
100
AcDbLine
 10
45.53828268116546
 20
8.085447461204751
 30
0.0
 11
45.53828268116546
 21
6.847688894247426
 31
0.0
  0
LWPOLYLINE
  5
14FE
330
14D6
100
AcDbEntity
  8
0
  6
Continuous
 62
     4
370
     0
100
AcDbPolyline
 90
        4
 70
     1
 43
0.0
 10
46.64878706282684
 20
6.847688894247426
 10
51.34141187140847
 20
6.847688894247426
 10
51.34141187140847
 20
8.834617410295322
 10
46.64878706282684
 20
8.834617410295322
  0
LINE
  5
14FF
330
14D6
100
AcDbEntity
  8
0
  6
Continuous
 62
     4
370
     0
100
AcDbLine
 10
47.46347871879675
 20
6.847688894247426
 30
0.0
 11
47.46347871879675
 21
8.085447461204751
 31
0.0
  0
LINE
  5
1500
330
14D6
100
AcDbEntity
  8
0
  6
Continuous
 62
     4
370
     0
100
AcDbLine
 10
47.46347871879675
 20
8.085447461204751
 30
0.0
 11
50.55930783463975
 21
8.085447461204751
 31
0.0
  0
LINE
  5
1501
330
14D6
100
AcDbEntity
  8
0
  6
Continuous
 62
     4
370
     0
100
AcDbLine
 10
50.55930783463975
 20
8.085447461204751
 30
0.0
 11
50.55930783463975
 21
6.847688894247426
 31
0.0
  0
LWPOLYLINE
  5
1502
330
14D6
100
AcDbEntity
  8
0
  6
Continuous
 62
     4
370
     0
100
AcDbPolyline
 90
        4
 70
     1
 43
0.0
 10
51.66981221630113
 20
6.847688894247426
 10
56.36243702488275
 20
6.847688894247426
 10
56.36243702488275
 20
8.834617410295322
 10
51.66981221630113
 20
8.834617410295322
  0
LINE
  5
1503
330
14D6
100
AcDbEntity
  8
0
  6
Continuous
 62
     4
370
     0
100
AcDbLine
 10
52.48450387227103
 20
6.847688894247426
 30
0.0
 11
52.48450387227103
 21
8.085447461204751
 31
0.0
  0
LINE
  5
1504
330
14D6
100
AcDbEntity
  8
0
  6
Continuous
 62
     4
370
     0
100
AcDbLine
 10
52.48450387227103
 20
8.085447461204751
 30
0.0
 11
55.58033298811404
 21
8.085447461204751
 31
0.0
  0
LINE
  5
1505
330
14D6
100
AcDbEntity
  8
0
  6
Continuous
 62
     4
370
     0
100
AcDbLine
 10
55.58033298811404
 20
8.085447461204751
 30
0.0
 11
55.58033298811404
 21
6.847688894247426
 31
0.0
  0
LWPOLYLINE
  5
1506
330
14D6
100
AcDbEntity
  8
0
  6
Continuous
 62
     4
370
     0
100
AcDbPolyline
 90
        4
 70
     1
 43
0.0
 10
56.6908373697754
 20
6.847688894247426
 10
61.38346217835703
 20
6.847688894247426
 10
61.38346217835703
 20
8.834617410295322
 10
56.6908373697754
 20
8.834617410295322
  0
LINE
  5
1507
330
14D6
100
AcDbEntity
  8
0
  6
Continuous
 62
     4
370
     0
100
AcDbLine
 10
57.50552902574532
 20
6.847688894247426
 30
0.0
 11
57.50552902574532
 21
8.085447461204751
 31
0.0
  0
LINE
  5
1508
330
14D6
100
AcDbEntity
  8
0
  6
Continuous
 62
     4
370
     0
100
AcDbLine
 10
57.50552902574532
 20
8.085447461204751
 30
0.0
 11
60.60135814158832
 21
8.085447461204751
 31
0.0
  0
LINE
  5
1509
330
14D6
100
AcDbEntity
  8
0
  6
Continuous
 62
     4
370
     0
100
AcDbLine
 10
60.60135814158832
 20
8.085447461204751
 30
0.0
 11
60.60135814158832
 21
6.847688894247426
 31
0.0
  0
LWPOLYLINE
  5
150A
330
14D6
100
AcDbEntity
  8
0
  6
Continuous
 62
     4
370
     0
100
AcDbPolyline
 90
        4
 70
     1
 43
0.0
 10
61.71186252324969
 20
6.847688894247426
 10
66.40448733183132
 20
6.847688894247426
 10
66.40448733183132
 20
8.834617410295322
 10
61.71186252324969
 20
8.834617410295322
  0
LINE
  5
150B
330
14D6
100
AcDbEntity
  8
0
  6
Continuous
 62
     4
370
     0
100
AcDbLine
 10
62.5265541792196
 20
6.847688894247426
 30
0.0
 11
62.5265541792196
 21
8.085447461204751
 31
0.0
  0
LINE
  5
150C
330
14D6
100
AcDbEntity
  8
0
  6
Continuous
 62
     4
370
     0
100
AcDbLine
 10
62.5265541792196
 20
8.085447461204751
 30
0.0
 11
65.62238329506261
 21
8.085447461204751
 31
0.0
  0
LINE
  5
150D
330
14D6
100
AcDbEntity
  8
0
  6
Continuous
 62
     4
370
     0
100
AcDbLine
 10
65.62238329506261
 20
8.085447461204751
 30
0.0
 11
65.62238329506261
 21
6.847688894247426
 31
0.0
  0
LWPOLYLINE
  5
150E
330
14D6
100
AcDbEntity
  8
0
  6
Continuous
 62
     4
370
     0
100
AcDbPolyline
 90
        4
 70
     1
 43
0.0
 10
66.73288767672397
 20
6.847688894247426
 10
71.4255124853056
 20
6.847688894247426
 10
71.4255124853056
 20
8.834617410295322
 10
66.73288767672397
 20
8.834617410295322
  0
LINE
  5
150F
330
14D6
100
AcDbEntity
  8
0
  6
Continuous
 62
     4
370
     0
100
AcDbLine
 10
67.54757933269388
 20
6.847688894247426
 30
0.0
 11
67.54757933269388
 21
8.085447461204751
 31
0.0
  0
LINE
  5
1510
330
14D6
100
AcDbEntity
  8
0
  6
Continuous
 62
     4
370
     0
100
AcDbLine
 10
67.54757933269388
 20
8.085447461204751
 30
0.0
 11
70.64340844853688
 21
8.085447461204751
 31
0.0
  0
LINE
  5
1511
330
14D6
100
AcDbEntity
  8
0
  6
Continuous
 62
     4
370
     0
100
AcDbLine
 10
70.64340844853688
 20
8.085447461204751
 30
0.0
 11
70.64340844853688
 21
6.847688894247426
 31
0.0
  0
LWPOLYLINE
  5
1512
330
14D6
100
AcDbEntity
  8
0
  6
Continuous
 62
     4
370
     0
100
AcDbPolyline
 90
        4
 70
     1
 43
0.0
 10
71.75391283019826
 20
6.847688894247426
 10
76.44653763877989
 20
6.847688894247426
 10
76.44653763877989
 20
8.834617410295322
 10
71.75391283019826
 20
8.834617410295322
  0
LINE
  5
1513
330
14D6
100
AcDbEntity
  8
0
  6
Continuous
 62
     4
370
     0
100
AcDbLine
 10
72.56860448616817
 20
6.847688894247426
 30
0.0
 11
72.56860448616817
 21
8.085447461204751
 31
0.0
  0
LINE
  5
1514
330
14D6
100
AcDbEntity
  8
0
  6
Continuous
 62
     4
370
     0
100
AcDbLine
 10
72.56860448616817
 20
8.085447461204751
 30
0.0
 11
75.66443360201117
 21
8.085447461204751
 31
0.0
  0
LINE
  5
1515
330
14D6
100
AcDbEntity
  8
0
  6
Continuous
 62
     4
370
     0
100
AcDbLine
 10
75.66443360201117
 20
8.085447461204751
 30
0.0
 11
75.66443360201117
 21
6.847688894247426
 31
0.0
  0
ENDBLK
  5
1517
330
14D6
100
AcDbEntity
  8
0
100
AcDbBlockEnd
  0
BLOCK
  5
19AD
330
19A2
100
AcDbEntity
  8
0
100
AcDbBlockBegin
  2
*D14
 70
     1
 10
0.0
 20
0.0
 30
0.0
  3
*D14
  1

  0
LINE
  5
1AAF
330
19A2
100
AcDbEntity
  8
Dimensione
 62
     5
370
    -2
100
AcDbLine
 10
0.1110096905701788
 20
0.2043389225251373
 30
0.0
 11
0.1399897344458529
 21
0.2043389225251373
 31
0.0
  0
LINE
  5
1AB0
330
19A2
100
AcDbEntity
  8
Dimensione
 62
     5
370
    -2
100
AcDbLine
 10
0.0579179802559019
 20
0.1295313465930532
 30
0.0
 11
0.1399897344458528
 21
0.1295313465930532
 31
0.0
  0
LINE
  5
1AB1
330
19A2
100
AcDbEntity
  8
Dimensione
 62
     5
370
    -2
100
AcDbLine
 10
0.1398097344458529
 20
0.2043389225251373
 30
0.0
 11
0.1398097344458529
 21
0.1704351345590953
 31
0.0
  0
LINE
  5
1AB2
330
19A2
100
AcDbEntity
  8
Dimensione
 62
     5
370
    -2
100
AcDbLine
 10
0.1398097344458529
 20
0.1295313465930532
 30
0.0
 11
0.1398097344458529
 21
0.1634351345590953
 31
0.0
  0
INSERT
  5
1AB3
330
19A2
100
AcDbEntity
  8
Dimensione
 62
     5
370
    -2
100
AcDbBlockReference
  2
_ArchTick
 10
0.1398097344458529
 20
0.2043389225251373
 30
0.0
 41
0.0015
 42
0.0015
 43
0.0015
 50
90.0
  0
INSERT
  5
1AB4
330
19A2
100
AcDbEntity
  8
Dimensione
 62
     5
370
    -2
100
AcDbBlockReference
  2
_ArchTick
 10
0.1398097344458529
 20
0.1295313465930532
 30
0.0
 41
0.0015
 42
0.0015
 43
0.0015
 50
270.0
  0
MTEXT
  5
1AB5
330
19A2
100
AcDbEntity
  8
Dimensione
 62
     4
100
AcDbMText
 10
0.1398097344458528
 20
0.1669351345590953
 30
0.0
 40
0.003
 41
0.0
 71
     5
 72
     1
  1
\A1;78 mm
  7
ROMANS
 73
     1
 44
1.0
1001
ACAD
1000
MTEXTBEGIN
1070
    73
1070
     1
1070
    44
1040
1.0
1070
    74
1070
     0
1000
MTEXTEND
  0
POINT
  5
1AB6
330
19A2
100
AcDbEntity
  8
Defpoints
 62
     0
100
AcDbPoint
 10
0.1109471905701788
 20
0.2043389225251373
 30
0.0
  0
POINT
  5
1AB7
330
19A2
100
AcDbEntity
  8
Defpoints
 62
     0
100
AcDbPoint
 10
0.0578554802559019
 20
0.1295313465930532
 30
0.0
  0
POINT
  5
1AB8
330
19A2
100
AcDbEntity
  8
Defpoints
 62
     0
100
AcDbPoint
 10
0.1398097344458529
 20
0.1295313465930532
 30
0.0
  0
ENDBLK
  5
19AE
330
19A2
100
AcDbEntity
  8
0
100
AcDbBlockEnd
  0
BLOCK
  5
19C7
330
19BC
100
AcDbEntity
  8
0
100
AcDbBlockBegin
  2
*D15
 70
     1
 10
0.0
 20
0.0
 30
0.0
  3
*D15
  1

  0
LINE
  5
1AC3
330
19BC
100
AcDbEntity
  8
Dimensione
 62
     5
370
    -2
100
AcDbLine
 10
0.1109471905701788
 20
0.2042764225251373
 30
0.0
 11
0.1109471905701788
 21
0.1098624500256955
 31
0.0
  0
LINE
  5
1AC4
330
19BC
100
AcDbEntity
  8
Dimensione
 62
     5
370
    -2
100
AcDbLine
 10
0.0578554802559019
 20
0.1294688465930533
 30
0.0
 11
0.0578554802559019
 21
0.1098624500256955
 31
0.0
  0
LINE
  5
1AC5
330
19BC
100
AcDbEntity
  8
Dimensione
 62
     5
370
    -2
100
AcDbLine
 10
0.1109471905701788
 20
0.1100424500256955
 30
0.0
 11
0.0945441925558975
 21
0.1100424500256955
 31
0.0
  0
LINE
  5
1AC6
330
19BC
100
AcDbEntity
  8
Dimensione
 62
     5
370
    -2
100
AcDbLine
 10
0.0578554802559019
 20
0.1100424500256955
 30
0.0
 11
0.0742584782701832
 21
0.1100424500256955
 31
0.0
  0
INSERT
  5
1AC7
330
19BC
100
AcDbEntity
  8
Dimensione
 62
     5
370
    -2
100
AcDbBlockReference
  2
_ArchTick
 10
0.1109471905701788
 20
0.1100424500256955
 30
0.0
 41
0.0015
 42
0.0015
 43
0.0015
  0
INSERT
  5
1AC8
330
19BC
100
AcDbEntity
  8
Dimensione
 62
     5
370
    -2
100
AcDbBlockReference
  2
_ArchTick
 10
0.0578554802559019
 20
0.1100424500256955
 30
0.0
 41
0.0015
 42
0.0015
 43
0.0015
 50
180.0
  0
MTEXT
  5
1AC9
330
19BC
100
AcDbEntity
  8
Dimensione
 62
     4
100
AcDbMText
 10
0.0844013354130404
 20
0.1100424500256955
 30
0.0
 40
0.003
 41
0.0
 71
     5
 72
     1
  1
\A1;53 mm
  7
ROMANS
 73
     1
 44
1.0
1001
ACAD
1000
MTEXTBEGIN
1070
    73
1070
     1
1070
    44
1040
1.0
1070
    74
1070
     0
1000
MTEXTEND
  0
POINT
  5
1ACA
330
19BC
100
AcDbEntity
  8
Defpoints
 62
     0
100
AcDbPoint
 10
0.1109471905701788
 20
0.2043389225251373
 30
0.0
  0
POINT
  5
1ACB
330
19BC
100
AcDbEntity
  8
Defpoints
 62
     0
100
AcDbPoint
 10
0.0578554802559019
 20
0.1295313465930532
 30
0.0
  0
POINT
  5
1ACC
330
19BC
100
AcDbEntity
  8
Defpoints
 62
     0
100
AcDbPoint
 10
0.0578554802559019
 20
0.1100424500256955
 30
0.0
  0
ENDBLK
  5
19C8
330
19BC
100
AcDbEntity
  8
0
100
AcDbBlockEnd
  0
ENDSEC
  0
SECTION
  2
ENTITIES
  0
LINE
  5
D
330
2
100
AcDbEntity
  8
Table
100
AcDbLine
 10
0.02
 20
0.02
 30
0.0
 11
0.4
 21
0.02
 31
0.0
  0
LINE
  5
10
330
2
100
AcDbEntity
  8
Table
100
AcDbLine
 10
0.4
 20
0.02
 30
0.0
 11
0.4
 21
0.2769999999999999
 31
0.0
  0
LINE
  5
11
330
2
100
AcDbEntity
  8
Table
100
AcDbLine
 10
0.4
 20
0.2769999999999999
 30
0.0
 11
0.02
 21
0.277
 31
0.0
  0
LINE
  5
12
330
2
100
AcDbEntity
  8
Table
100
AcDbLine
 10
0.02
 20
0.277
 30
0.0
 11
0.02
 21
0.02
 31
0.0
  0
LINE
  5
13
330
2
100
AcDbEntity
  8
Table
 62
     2
100
AcDbLine
 10
0.015
 20
0.015
 30
0.0
 11
0.4050000000000001
 21
0.015
 31
0.0
  0
LINE
  5
14
330
2
100
AcDbEntity
  8
Table
 62
     2
100
AcDbLine
 10
0.4050000000000001
 20
0.015
 30
0.0
 11
0.4050000000000001
 21
0.2819999999999998
 31
0.0
  0
LINE
  5
15
330
2
100
AcDbEntity
  8
Table
 62
     2
100
AcDbLine
 10
0.4050000000000001
 20
0.2819999999999998
 30
0.0
 11
0.0149999999999999
 21
0.282
 31
0.0
  0
LINE
  5
16
330
2
100
AcDbEntity
  8
Table
 62
     2
100
AcDbLine
 10
0.0149999999999999
 20
0.282
 30
0.0
 11
0.015
 21
0.015
 31
0.0
  0
LINE
  5
17
330
2
100
AcDbEntity
  8
Table
100
AcDbLine
 10
0.21
 20
0.2769999999999999
 30
0.0
 11
0.21
 21
0.2532994226089223
 31
0.0
  0
LINE
  5
1D
330
2
100
AcDbEntity
  8
Table
100
AcDbLine
 10
0.02
 20
0.0528099428524846
 30
0.0
 11
0.4
 21
0.0528099428524846
 31
0.0
  0
MTEXT
  5
1E
330
2
100
AcDbEntity
  8
Text
100
AcDbMText
 10
0.1133313047219695
 20
0.2610796890771976
 30
0.0
 40
0.003
 41
0.1103605678262056
 71
     2
 72
     5
  1
{\fTimes New Roman|b0|i0|c0|p18;Le cornici estruse per soffitti \fTimes New Roman|b0|i1|c0|p18;      Extruded ceilings moulding}
 73
     1
 44
1.0
1001
ACAD
1000
MTEXTBEGIN
1070
    73
1070
     1
1070
    44
1040
1.0
1070
    74
1070
     0
1000
MTEXTEND
1000
ACAD_MTEXT_DEFINED_HEIGHT_BEGIN
1070
    46
1040
0.0141952763113409
1000
ACAD_MTEXT_DEFINED_HEIGHT_END
  0
TEXT
  5
1F
330
2
100
AcDbEntity
  8
Text
100
AcDbText
 10
0.2180556919891047
 20
0.269976982173197
 30
0.0
 40
0.003
  1
Cornice - Moulding : H 78 x 53 mm
  7
ROMANS
100
AcDbText
  0
TEXT
  5
21
330
2
100
AcDbEntity
  8
Text
100
AcDbText
 10
0.2184542410678115
 20
0.2576348370183962
 30
0.0
 40
0.003
  1
File : E - F5L
  7
ROMANS
100
AcDbText
  0
LINE
  5
22
330
2
100
AcDbEntity
  8
Table
100
AcDbLine
 10
0.4
 20
0.2654452889427402
 30
0.0
 11
0.02
 21
0.2654452889427403
 31
0.0
  0
LINE
  5
23
330
2
100
AcDbEntity
  8
Table
100
AcDbLine
 10
0.4
 20
0.2532994226089223
 30
0.0
 11
0.02
 21
0.2532994226089225
 31
0.0
  0
LINE
  5
24
330
2
100
AcDbEntity
  8
Table
100
AcDbLine
 10
0.21
 20
0.0528099428524846
 30
0.0
 11
0.21
 21
0.02
 31
0.0
  0
TEXT
  5
25
330
2
100
AcDbEntity
  8
Text
100
AcDbText
 10
0.0947789320547719
 20
0.2687784133392506
 30
0.0
 40
0.005
  1
EUROSTYL
  7
style1
 72
     1
 11
0.1140561490699125
 21
0.2687784133392506
 31
0.0
100
AcDbText
  0
TEXT
  5
27
330
2
100
AcDbEntity
  8
Text
100
AcDbText
 10
0.3373426737836191
 20
0.1650125502524047
 30
0.0
 40
0.005
  1
scala 1:2
  7
Arial
100
AcDbText
  0
MTEXT
  5
10F
102
{ACAD_XDICTIONARY
360
1B42
102
}
330
2
100
AcDbEntity
  8
Text
100
AcDbMText
 10
0.305
 20
0.0471738284815141
 30
0.0
 40
0.005
 41
0.1900000000000001
 71
     2
 72
     5
  3
{\fTimes New Roman|b0|i0|c238|p18;\H1.6x;\C4;Bovelacci\P\H0.4375x;\T0.95;via del Commercio, 5  47100 Forli - Italy  \fTimes New Roman|b0|i0|c0|p18;\P\fTimes New Roman|b0|i0|c238|p18;tel.+39-0543721386  fax +39-0543721127\fTimes New Roman|b0|i0|c0|p18
  1
; \fTimes New Roman|b0|i0|c238|p18;www.bovelacci.it\fTimes New Roman|b0|i0|c0|p18; \fTimes New Roman|b0|i0|c238|p18;e-mail: bovelacci@bovelacci\fTimes New Roman|b0|i0|c0|p18;.it}
 73
     1
 44
1.0
1001
ACAD
1000
MTEXTBEGIN
1070
    73
1070
     1
1070
    44
1040
1.0
1070
    74
1070
     0
1000
MTEXTEND
1000
ACAD_MTEXT_DEFINED_HEIGHT_BEGIN
1070
    46
1040
0.0271738284815141
1000
ACAD_MTEXT_DEFINED_HEIGHT_END
  0
MTEXT
  5
110
102
{ACAD_XDICTIONARY
360
1B44
102
}
330
2
100
AcDbEntity
  8
Text
100
AcDbMText
 10
0.0219676065851835
 20
0.0500313976452307
 30
0.0
 40
0.002
 41
0.1863544980601608
 71
     1
 72
     5
  3
{\fArial|b0|i0|c0|p34;\H1.25x;Le caratteristiche tecniche indicate vengono fornite a titolo indicativo e potranno essere modificate senza preavviso. Non devono quindi essere considerate a scopo di specifica.\P\fArial|b0|i1|c0|p34;The given values are
  3
 indicative and can be changed without notice. They cannot be considered like a state.\PThis lealfet and designs embodied within are protected by copyright law and international treaties. Unauthorized repro- duction of the leaflet or any portion of i
  1
t or reproduction of any of the designs embodied therein may result in severe civil penalties and will be prosecuted to the maximum.\PAll right reserved, Bovelacci Forl\U+00EC Italy.}
 73
     1
 44
1.0
1001
ACAD
1000
MTEXTBEGIN
1070
    73
1070
     1
1070
    44
1040
1.0
1070
    74
1070
     0
1000
MTEXTEND
  0
TEXT
  5
1CA
330
2
100
AcDbEntity
  8
Text
100
AcDbText
 10
0.0879440355147445
 20
0.0732117799103868
 30
0.0
 40
0.005
  1
scala 1:1
  7
Arial
100
AcDbText
  0
HATCH
  5
182A
330
2
100
AcDbEntity
  8
Sezione
100
AcDbHatch
 10
0.0
 20
0.0
 30
0.0
210
0.0
220
0.0
230
1.0
  2
ANSI31
 70
     0
 71
     0
 91
        1
 92
        7
 72
     0
 73
     1
 93
        6
 10
0.1306336367146704
 20
0.2241288655120318
 10
0.0383668162244014
 20
0.2241288655120318
 10
0.0383668162244014
 20
0.1381572075297593
 10
0.0574984847853392
 20
0.1381572075297592
 10
0.0574984847853392
 20
0.2046700895052512
 10
0.1306336367146704
 20
0.2046700895052512
 97
        0
 75
     0
 76
     1
 52
0.0
 41
0.002
 77
     0
 78
     1
 53
45.0
 43
-0.0474619174352664
 44
0.0019273820720506
 45
-0.0044901280605346
 46
0.0044901280605346
 79
     0
 47
0.0003507291251325
 98
        1
 10
0.0671179293211254
 20
0.2118605981819957
1001
ACAD
1010
0.0
1020
0.0
1030
0.0
  0
LINE
  5
182B
330
2
100
AcDbEntity
  8
Sezione
100
AcDbLine
 10
0.0574984847853391
 20
0.1180540025163451
 30
0.0
 11
0.0574984847853392
 21
0.2046700895052512
 31
0.0
  0
LINE
  5
182C
330
2
100
AcDbEntity
  8
Sezione
100
AcDbLine
 10
0.0574984847853392
 20
0.2046700895052512
 30
0.0
 11
0.1306934882652012
 21
0.2046700895052512
 31
0.0
  0
LWPOLYLINE
  5
1945
330
2
100
AcDbEntity
  8
Vista
370
     0
100
AcDbPolyline
 90
       26
 70
   129
 43
0.0
 10
0.2086546658078028
 20
0.0825847043415125
 10
0.2077421124927987
 20
0.0841143547095898
 10
0.2078557616574166
 20
0.0855142621263299
 10
0.2092059270254047
 20
0.0867029847950663
 10
0.2099941345666352
 20
0.0874908276960854
 10
0.2099941345666352
 20
0.0889539651944121
 10
0.2099941345666352
 20
0.0910923972900251
 10
0.2106697452503212
 20
0.0933433800768585
 10
0.2115705533413852
 20
0.0925555371758394
 10
0.2121335597829272
 20
0.0910923972900251
 10
0.2121335597829272
 20
0.0888414168906794
 10
0.2123587608826156
 20
0.0887288685869679
 10
0.2140477802072205
 20
0.089404160796788
 10
0.2153989941899823
 20
0.089404160796788
 10
0.2159619969392033
 20
0.0890665134981449
 10
0.2166376039305895
 20
0.088166122293393
 10
0.2168628087225883
 20
0.0871531803974422
 10
0.2179888179133513
 20
0.0886163178957689
 10
0.2194526361382572
 20
0.0888414168906794
 10
0.2211416517705622
 20
0.0882786705971045
 10
0.2202408436794876
 20
0.0869280814025105
 10
0.2181014221554953
 20
0.0851272966055406
 10
0.2150611888481393
 20
0.0845645503119657
 10
0.2128091667743028
 20
0.0833265118085708
 10
0.2104445404583224
 20
0.0824261182163527
 10
0.2092059270254047
 20
0.0824261182163527
  0
CIRCLE
  5
1946
330
2
100
AcDbEntity
  8
Vista
370
     0
100
AcDbCircle
 10
0.2140477802072205
 20
0.0912049479812454
 30
0.0
 40
0.001238609740609
  0
CIRCLE
  5
1947
330
2
100
AcDbEntity
  8
Vista
370
     0
100
AcDbCircle
 10
0.2170880098222767
 20
0.0898543587866302
 30
0.0
 40
0.0005630064415347
  0
LWPOLYLINE
  5
1949
330
2
100
AcDbEntity
  8
Vista
370
     0
100
AcDbPolyline
 90
       32
 70
   128
 43
0.0
 10
0.2071853829706889
 20
0.0929633072175081
 10
0.208423741634526
 20
0.0901164040703636
 10
0.2076807279131394
 20
0.0882597259249694
 10
0.2064423692493129
 20
0.0868981638616605
 10
0.204708669335325
 20
0.0865268291875681
 10
0.20260346071451
 20
0.0865268291875681
 10
0.2006220883292968
 20
0.0875170565767847
 10
0.1983930471651689
 20
0.089497511355218
 10
0.1983930471651689
 20
0.0918493031952311
 10
0.2000029108435335
 20
0.093705978953159
 10
0.2017366107575107
 20
0.0951913200369946
 10
0.2035941469071112
 20
0.0960577707931721
 10
0.2069377104994636
 20
0.0968004401413355
 10
0.2090429191202787
 20
0.0974193328564811
 10
0.2126341551838564
 20
0.0977906675305734
 10
0.2157300499972941
 20
0.0974193328564811
 10
0.2189497773540232
 20
0.0961815474262112
 10
0.2225410134176009
 20
0.0939535369942123
 10
0.22526539952419
 20
0.0922206378693234
 10
0.227618280616241
 20
0.0911066314595802
 10
0.2313511904435046
 20
0.0889980190180625
 10
0.230484340486516
 20
0.0911022528170223
 10
0.230484340486516
 20
0.0940729349846722
 10
0.2322180404005039
 20
0.0961771687836533
 10
0.2344470815646318
 20
0.0971673961728699
 10
0.2372953039068335
 20
0.0971673961728699
 10
0.2400196900134226
 20
0.0971673961728699
 10
0.2382859900994347
 20
0.0954344970479811
 10
0.2366761264210702
 20
0.0949393833533835
 10
0.2348185902714697
 20
0.0920924802062389
 10
0.2351900989783182
 20
0.0901120230403182
 10
0.2360569489353068
 20
0.0885029053234435
  0
LWPOLYLINE
  5
194A
330
2
100
AcDbEntity
  8
Vista
370
     0
100
AcDbPolyline
 90
       12
 70
   128
 43
0.0
 10
0.2338279040788684
 20
0.0824377595801083
 10
0.231227354207892
 20
0.0824377595801083
 10
0.2287506405725388
 20
0.0824377595801083
 10
0.2261500870092625
 20
0.0818188668649841
 10
0.2247878958021232
 20
0.0811999741498385
 10
0.2234257009026734
 20
0.0810761975167994
 10
0.2215681647530729
 20
0.0809524184962728
 10
0.2189676148821071
 20
0.0826853176211616
 10
0.220082137310321
 20
0.0847895514201214
 10
0.2230541958881353
 20
0.0866462271780494
 10
0.2255309095234992
 20
0.0867700061985547
 10
0.2271407732018638
 20
0.0867700061985547
  0
LWPOLYLINE
  5
194B
330
2
100
AcDbEntity
  8
Vista
370
     0
100
AcDbPolyline
 90
        2
 70
   128
 43
0.0
 10
0.2013681408181398
 20
0.0860266850677208
 10
0.198481996010365
 20
0.0845345428070623
  0
LWPOLYLINE
  5
1953
330
2
100
AcDbEntity
  8
Vista
370
     0
100
AcDbPolyline
 90
       33
 70
   129
 43
0.0
 10
0.2562896585976766
 20
0.097421398028685
 10
0.2525591819997537
 20
0.0990425940185761
 10
0.2493152885032366
 20
0.0990425940185761
 10
0.2468823656116186
 20
0.0983941156226239
 10
0.2457470038109157
 20
0.0977456372266504
 10
0.2434762765171996
 20
0.0977456372266504
 10
0.2412055492234941
 20
0.097421398028685
 10
0.2395836043213855
 20
0.0961244412367593
 10
0.2387726300241759
 20
0.0945032428593807
 10
0.2395836043213855
 20
0.0902881308981721
 10
0.2405567705241864
 20
0.0888290545072637
 10
0.241367744821396
 20
0.0883426933228281
 10
0.2425031066220988
 20
0.088180573723824
 10
0.2425031066220988
 20
0.0860730189369635
 10
0.2446116383179024
 20
0.0847760597575716
 10
0.2459091957165178
 20
0.0838033421636327
 10
0.2475311443109263
 20
0.083479102965646
 10
0.2493152885032366
 20
0.0838033421636327
 10
0.2504506503039394
 20
0.0849381793565543
 10
0.2527213775976556
 20
0.0849381793565543
 10
0.2551542967969631
 20
0.0849381793565543
 10
0.2580738027899869
 20
0.0849381793565543
 10
0.2598579432899974
 20
0.0863972581349502
 10
0.2601823344858012
 20
0.0875320953278719
 10
0.2618042793878992
 20
0.088180573723824
 10
0.2626152536851087
 20
0.088666934908281
 10
0.2627774492830106
 20
0.0909366092941456
 10
0.2631018404788143
 20
0.0935305252654418
 10
0.2631018404788143
 20
0.0953138408543369
 10
0.2627774492830106
 20
0.096286560835742
 10
0.2606689175871963
 20
0.0975835176276677
 10
0.2588847770871858
 20
0.0975835176276677
 10
0.2577494115941832
 20
0.0975835176276677
  0
ELLIPSE
  5
1954
330
2
100
AcDbEntity
  8
Vista
370
     0
100
AcDbEllipse
 10
0.2510183312042962
 20
0.0911797886926196
 30
0.0
 11
-0.0046225486940736
 21
0.0010537773934315
 31
0.0
210
0.0
220
0.0
230
1.0
 40
0.6349616486883987
 41
0.0
 42
6.283185307179586
  0
LWPOLYLINE
  5
1955
330
2
100
AcDbEntity
  8
Vista
370
     0
100
AcDbPolyline
 90
        2
 70
   128
 43
0.0
 10
0.2472067568074223
 20
0.0945032428593807
 10
0.2460713913144197
 20
0.096286560835742
  0
LWPOLYLINE
  5
1956
330
2
100
AcDbEntity
  8
Vista
370
     0
100
AcDbPolyline
 90
        2
 70
   128
 43
0.0
 10
0.2545055180976661
 20
0.0941790036614153
 10
0.2561274666920745
 20
0.0959623216377766
  0
LWPOLYLINE
  5
1957
330
2
100
AcDbEntity
  8
Vista
370
     0
100
AcDbPolyline
 90
        2
 70
   128
 43
0.0
 10
0.2567762453913822
 20
0.088180573723824
 10
0.2585603858913821
 20
0.0875320953278719
  0
LWPOLYLINE
  5
1958
330
2
100
AcDbEntity
  8
Vista
370
     0
100
AcDbPolyline
 90
        2
 70
   128
 43
0.0
 10
0.2506128459018413
 20
0.0852624209420286
 10
0.2504506503039394
 20
0.0870457365309024
  0
LWPOLYLINE
  5
1959
330
2
100
AcDbEntity
  8
Vista
370
     0
100
AcDbPolyline
 90
        2
 70
   128
 43
0.0
 10
0.2433140809192977
 20
0.0885048129218108
 10
0.2459091957165178
 20
0.0896396525022199
  0
LWPOLYLINE
  5
195D
330
2
100
AcDbEntity
  8
Vista
370
     0
100
AcDbPolyline
 90
       15
 70
   128
 43
0.0
 10
0.2408060602252391
 20
0.0879124713974791
 10
0.2401868827394757
 20
0.087603025039917
 10
0.2379423597382022
 20
0.0881445561656507
 10
0.2374779747777325
 20
0.0882219177550413
 10
0.236626602965579
 20
0.0869067707353809
 10
0.2360848235886124
 20
0.0855916237157205
 10
0.2353882479940523
 20
0.0844312022623287
 10
0.2363944123314887
 20
0.0833481400108612
 10
0.2368587972919691
 20
0.0828839704744967
 10
0.2380971522634958
 20
0.0814141026635428
 10
0.2395677015614126
 20
0.0812593794847617
 10
0.2409608564428325
 20
0.0815688258423238
 10
0.2431279813353093
 20
0.0814141026635428
 10
0.2449081193761131
 20
0.0815688258423238
 10
0.2461464780399396
 20
0.0822650777593724
  0
LWPOLYLINE
  5
1960
330
2
100
AcDbEntity
  8
Vista
370
     0
100
AcDbPolyline
 90
        7
 70
   128
 43
0.0
 10
0.295259816838282
 20
0.0860266850677208
 10
0.2916685807747044
 20
0.0841700093097929
 10
0.2924115944960803
 20
0.0818182174697798
 10
0.2956313255451199
 20
0.0810755481216164
 10
0.2976126979303331
 20
0.0813231037751821
 10
0.3002132478012989
 20
0.0810755481216164
 10
0.3018231114796741
 20
0.0818182174697798
  0
LWPOLYLINE
  5
1961
330
2
100
AcDbEntity
  8
Vista
370
     0
100
AcDbPolyline
 90
       10
 70
   129
 43
0.0
 10
0.2880773447111267
 20
0.0872644704979907
 10
0.2856006310757628
 20
0.0861504640882474
 10
0.2836192586905604
 20
0.0851602366990308
 10
0.2842384361763237
 20
0.082065775510833
 10
0.2878296722399014
 20
0.0811993247546555
 10
0.2900587170963291
 20
0.0813231037751821
 10
0.2904302258031777
 20
0.0833035585536154
 10
0.2912970757601663
 20
0.0857791294141551
 10
0.2914209083034791
 20
0.0865217987623398
 10
0.2898110446251039
 20
0.0870169124569374
  0
LWPOLYLINE
  5
1962
330
2
100
AcDbEntity
  8
Vista
370
     0
100
AcDbPolyline
 90
       57
 70
   129
 43
0.0
 10
0.2831239174404096
 20
0.097166746777687
 10
0.2812663812908091
 20
0.0979094185133379
 10
0.2789135001987582
 20
0.0979094185133379
 10
0.2766844590346302
 20
0.0974143048187189
 10
0.2751984278995678
 20
0.096671633083068
 10
0.2734647279855906
 20
0.0953100710197591
 10
0.2727217142642146
 20
0.0934533928743649
 10
0.2708641781146142
 20
0.0932058372207992
 10
0.2677682833011872
 20
0.092958279179746
 10
0.2666537608729627
 20
0.0917204937494761
 10
0.2667775971085859
 20
0.0904827107066938
 10
0.2693781469795518
 20
0.0901113760326014
 10
0.2670252695798112
 20
0.0889973696228582
 10
0.2649200609589855
 20
0.0878833632131149
 10
0.2628148560304702
 20
0.0866455777828451
 10
0.2617003336022456
 20
0.0850364576785042
 10
0.2593474525101946
 20
0.0849126786579776
 10
0.2579852613030553
 20
0.0842937883303195
 10
0.2541463527682524
 20
0.0840462302892663
 10
0.2522888166186625
 20
0.0837986746357219
 10
0.2521649803830499
 20
0.0821895545313597
 10
0.2536510115181016
 20
0.0819419964903064
 10
0.2556323802110043
 20
0.0818182174697798
 10
0.2589759474956672
 20
0.0816944408367407
 10
0.261576497366633
 20
0.0816944408367407
 10
0.2631863610450082
 20
0.082065775510833
 10
0.2657869109159741
 20
0.0833035585536154
 10
0.2673967782866491
 20
0.0837986746357219
 10
0.2692543144362496
 20
0.0849126786579776
 10
0.2704926694077763
 20
0.0861504640882474
 10
0.2718548643072154
 20
0.0873882495185173
 10
0.2727217142642146
 20
0.0889973696228582
 10
0.2725978780285914
 20
0.0875120261515564
 10
0.2717310280716028
 20
0.0855315713731018
 10
0.2702450006288508
 20
0.0845413439838852
 10
0.2702450006288508
 20
0.0830560029000497
 10
0.2712356831291522
 20
0.082065775510833
 10
0.2730932192787421
 20
0.082065775510833
 10
0.2739600692357413
 20
0.082065775510833
 10
0.2751984278995678
 20
0.0821895545313597
 10
0.275693772842029
 20
0.082932223879523
 10
0.275693772842029
 20
0.0844175649633586
 10
0.2758176053853312
 20
0.0860266850677208
 10
0.2758176053853312
 20
0.0868931358238983
 10
0.2758176053853312
 20
0.0880071422336416
 10
0.276436786563405
 20
0.083922451268761
 10
0.2775513089916188
 20
0.0816944408367407
 10
0.2786658277275329
 20
0.0816944408367407
 10
0.2812663812908091
 20
0.0819419964903064
 10
0.281390213834122
 20
0.0826846682259786
 10
0.2807710363483586
 20
0.0840462302892663
 10
0.2816378863053472
 20
0.0867693568033717
 10
0.2811425450551965
 20
0.0883784769077339
 10
0.2803995276415101
 20
0.0906064897272204
 10
0.2820093950121851
 20
0.092091830811056
 10
0.2836192586905604
 20
0.092958279179746
 10
0.2839907673973982
 20
0.0946911783046348
  0
LWPOLYLINE
  5
1963
330
2
100
AcDbEntity
  8
Vista
370
     0
100
AcDbPolyline
 90
        5
 70
   128
 43
0.0
 10
0.2704926694077763
 20
0.0908540453807861
 10
0.2732170555143547
 20
0.0922156098315826
 10
0.2739600692357413
 20
0.0924631654851483
 10
0.2761891140921691
 20
0.0940722855894892
 10
0.2775513089916188
 20
0.0950625129787058
  0
LWPOLYLINE
  5
1964
330
2
100
AcDbEntity
  8
Vista
370
     0
100
AcDbPolyline
 90
        4
 70
   128
 43
0.0
 10
0.2760652778565564
 20
0.0887498115818262
 10
0.2760652778565564
 20
0.0901113760326014
 10
0.2770559640491683
 20
0.0912253800548784
 10
0.2780466502417695
 20
0.092091830811056
  0
LWPOLYLINE
  5
197C
102
{ACAD_REACTORS
330
19BA
330
19D4
102
}
330
2
100
AcDbEntity
  8
Profilo
370
     0
100
AcDbPolyline
 90
       18
 70
   129
 43
0.0
 10
0.1109471905701788
 20
0.2043389225251373
 10
0.1109471905701788
 20
0.1961188071958715
 10
0.1022753150523308
 20
0.1961188071958715
 42
-0.4495448483240822
 10
0.0935735655184182
 20
0.1911216097118269
 42
0.6513968294927254
 10
0.091721853984658
 20
0.18909260681623
 42
-0.2733989357811652
 10
0.0910164397080486
 20
0.183182023025479
 42
-0.0750441343824566
 10
0.077966266795378
 20
0.1705669006617383
 42
-0.656688497329778
 10
0.0759382010642391
 20
0.1679203717662701
 10
0.0731165414448107
 20
0.1644798842022068
 10
0.0731951391568011
 20
0.159547048615748
 42
-0.6211863941965138
 10
0.0705022358429723
 20
0.157536093945039
 42
0.7431378362479992
 10
0.0681643050968923
 20
0.1534820755523596
 42
-0.6190486903984653
 10
0.0678194622531045
 20
0.1451458670762078
 42
0.1972698114094226
 10
0.0658795711076927
 20
0.142322905511959
 10
0.0658795711076927
 20
0.1295313465930532
 10
0.0578554802559019
 20
0.1295313465930532
 10
0.0578554802559019
 20
0.1546733710998025
 10
0.09217094427813
 20
0.2043389225251373
  0
LINE
  5
1980
330
2
100
AcDbEntity
  8
Vista
 62
     3
100
AcDbLine
 10
0.1780565651266954
 20
0.1051472783213114
 30
0.0
 11
0.1917287005252178
 21
0.1051472783213114
 31
0.0
  0
LINE
  5
1981
330
2
100
AcDbEntity
  8
Vista
100
AcDbLine
 10
0.1780565651266954
 20
0.1010372206566785
 30
0.0
 11
0.1917287005252177
 21
0.1010372206566785
 31
0.0
  0
LINE
  5
1983
330
2
100
AcDbEntity
  8
Vista
100
AcDbLine
 10
0.1560259836943702
 20
0.0751439557818123
 30
0.0
 11
0.1917287005252177
 21
0.0751439557818123
 31
0.0
  0
LINE
  5
1984
330
2
100
AcDbEntity
  8
Vista
 62
     3
100
AcDbLine
 10
0.1555227553954523
 20
0.0677434903552694
 30
0.0
 11
0.1917287005252177
 21
0.0677434903552694
 31
0.0
  0
LINE
  5
1988
330
2
100
AcDbEntity
  8
Vista
 62
     3
100
AcDbLine
 10
0.1984946368322227
 20
0.0677434903552694
 30
0.0
 11
0.3853591914840664
 21
0.0677434903552694
 31
0.0
  0
LINE
  5
1989
330
2
100
AcDbEntity
  8
Vista
100
AcDbLine
 10
0.1984946368322227
 20
0.0751439557818123
 30
0.0
 11
0.3853660655945504
 21
0.0751439557818123
 31
0.0
  0
LINE
  5
198B
330
2
100
AcDbEntity
  8
Vista
100
AcDbLine
 10
0.1984946368322227
 20
0.1010372206566785
 30
0.0
 11
0.3854119747095741
 21
0.1010372206566785
 31
0.0
  0
LINE
  5
198C
330
2
100
AcDbEntity
  8
Vista
 62
     3
100
AcDbLine
 10
0.1984946368322227
 20
0.1051472783213114
 30
0.0
 11
0.3854184907141971
 21
0.1051472783213114
 31
0.0
  0
LWPOLYLINE
  5
198D
330
2
100
AcDbEntity
  8
Vista
370
     0
100
AcDbPolyline
 90
        6
 70
   128
 43
0.0
 10
0.198481996010365
 20
0.0819382499032628
 10
0.1985199184759381
 20
0.0818182174697798
 10
0.2017396495249777
 20
0.0810755481216164
 10
0.2037210219101908
 20
0.0813231037751821
 10
0.2063215717811566
 20
0.0810755481216164
 10
0.2079314354595318
 20
0.0818182174697798
  0
LINE
  5
198E
330
2
100
AcDbEntity
  8
Vista
 62
     6
100
AcDbLine
 10
0.198435337602092
 20
0.0677434903552694
 30
0.0
 11
0.1984946368322227
 21
0.1051472783213114
 31
0.0
  0
DIMENSION
  5
19A1
102
{ACAD_XDICTIONARY
360
19AF
102
}
102
{ACAD_REACTORS
330
19BA
102
}
330
2
100
AcDbEntity
  8
Dimensione
100
AcDbDimension
  2
*D14
 10
0.1398097344458529
 20
0.1295313465930532
 30
0.0
 11
0.1398097344458528
 21
0.1669351345590953
 31
0.0
 70
    32
  1
78 mm
 71
     5
 42
0.0748075759320841
  3
Bovelacci
100
AcDbAlignedDimension
 13
0.1109471905701788
 23
0.2043389225251373
 33
0.0
 14
0.0578554802559019
 24
0.1295313465930532
 34
0.0
 50
90.0
100
AcDbRotatedDimension
  0
DIMENSION
  5
19BB
102
{ACAD_XDICTIONARY
360
19C9
102
}
102
{ACAD_REACTORS
330
19D4
102
}
330
2
100
AcDbEntity
  8
Dimensione
100
AcDbDimension
  2
*D15
 10
0.0578554802559019
 20
0.1100424500256955
 30
0.0
 11
0.0844013354130404
 21
0.1100424500256955
 31
0.0
 70
    32
  1
53 mm
 71
     5
 42
0.053091710314277
  3
Bovelacci
100
AcDbAlignedDimension
 13
0.1109471905701788
 23
0.2043389225251373
 33
0.0
 14
0.0578554802559019
 24
0.1295313465930532
 34
0.0
100
AcDbRotatedDimension
  0
LWPOLYLINE
  5
19E6
330
2
100
AcDbEntity
  8
Dimensione
 62
     2
100
AcDbPolyline
 90
        8
 70
     0
 43
0.0
 10
0.2069203161479578
 20
0.0932011752190705
 10
0.2050357339900017
 20
0.0931259064787101
 10
0.2036786942832407
 20
0.0925232471227121
 10
0.2031511518320457
 20
0.0913931971510978
 10
0.2035280682636369
 20
0.0900372136001183
 10
0.2042819011268193
 20
0.089811280020753
 10
0.2052617901469205
 20
0.0901126096987413
 10
0.2060910531474178
 20
0.0907152690547393
  0
LWPOLYLINE
  5
19E7
330
2
100
AcDbEntity
  8
Dimensione
 62
     2
100
AcDbPolyline
 90
       16
 70
     0
 43
0.0
 10
0.207070942167519
 20
0.0933518400580754
 10
0.2083525517369651
 20
0.0938792306737129
 10
0.2107649106011422
 20
0.0938792306737129
 10
0.2122725763275071
 20
0.0936531697360637
 10
0.2144586447796968
 20
0.0933518400580754
 10
0.2161923666629804
 20
0.092447851024089
 10
0.2177000323893452
 20
0.0915438619901027
 10
0.2188307816841188
 20
0.0903385432781066
 10
0.220640167959786
 20
0.0895852190831251
 10
0.2225999459999883
 20
0.0886812300491174
 10
0.2246353884325742
 20
0.0880033019527803
 10
0.2266708308652028
 20
0.087777241015131
 10
0.2288568993173925
 20
0.0874006425967822
 10
0.2304399951810723
 20
0.0870993129187726
 10
0.2322491472016708
 20
0.086345988723791
 10
0.2336813827907207
 20
0.0852159387521555
  0
LWPOLYLINE
  5
19E8
330
2
100
AcDbEntity
  8
Dimensione
 62
     2
100
AcDbPolyline
 90
       11
 70
     0
 43
0.0
 10
0.2213185706856109
 20
0.0831066310061944
 10
0.223730695294762
 20
0.084538010655797
 10
0.2251631651388379
 20
0.085065273913172
 10
0.2265954007278452
 20
0.0852913348507999
 10
0.2280276363168951
 20
0.0853666035911603
 10
0.2293846760236562
 20
0.0853666035911603
 10
0.2303645650437573
 20
0.0852159387521555
 10
0.2324000074763433
 20
0.0847639442351623
 10
0.2332290362217719
 20
0.0846132793961788
 10
0.2340582992223119
 20
0.0846132793961788
 10
0.2348121320854517
 20
0.0844626145571739
  0
LWPOLYLINE
  5
19E9
330
2
100
AcDbEntity
  8
Dimensione
 62
     2
100
AcDbPolyline
 90
       10
 70
     0
 43
0.0
 10
0.234510645791218
 20
0.0869486480797891
 10
0.2328521197901807
 20
0.0898865487611134
 10
0.2323245773390283
 20
0.0910918674731095
 10
0.2321737170643559
 20
0.092447851024089
 10
0.2325506334959471
 20
0.0935779009957033
 10
0.2328521197901807
 20
0.0941051642530569
 10
0.234510645791218
 20
0.0956118126430413
 10
0.2360937416548978
 20
0.0964405329366885
 10
0.2375259772439051
 20
0.096515801677049
 10
0.2388830169507088
 20
0.096515801677049
  0
LWPOLYLINE
  5
19EA
330
2
100
AcDbEntity
  8
Dimensione
 62
     2
100
AcDbPolyline
 90
        6
 70
     0
 43
0.0
 10
0.2163432269376528
 20
0.0865719223031563
 10
0.215664824211828
 20
0.085743329367793
 10
0.2143832146423819
 20
0.0853666035911603
 10
0.2131770352102933
 20
0.0852913348507999
 10
0.2120462859155197
 20
0.085065273913172
 10
0.2113678831896522
 20
0.0847639442351623
  0
LWPOLYLINE
  5
19EB
330
2
100
AcDbEntity
  8
Dimensione
 62
     2
100
AcDbPolyline
 90
        6
 70
     0
 43
0.0
 10
0.2122725763275071
 20
0.0880033019527803
 10
0.2118956598959158
 20
0.0870993129187726
 10
0.2111418270327334
 20
0.086345988723791
 10
0.2108401064834311
 20
0.086345988723791
 10
0.2100862736202487
 20
0.0855926645287882
 10
0.2097847873259724
 20
0.0847639442351623
  0
LWPOLYLINE
  5
19EC
330
2
100
AcDbEntity
  8
Dimensione
 62
     2
100
AcDbPolyline
 90
        6
 70
     0
 43
0.0
 10
0.2456801624938691
 20
0.0908948442221048
 10
0.2456801624938691
 20
0.0912960227874807
 10
0.2456133997946495
 20
0.0919645263715113
 10
0.2460146787550883
 20
0.0929003549741752
 10
0.2460816757093767
 20
0.0936357216524458
 10
0.2462821980620191
 20
0.0939030466710792
  0
LWPOLYLINE
  5
19ED
330
2
100
AcDbEntity
  8
Dimensione
 62
     2
100
AcDbPolyline
 90
        6
 70
     0
 43
0.0
 10
0.2480215420673346
 20
0.0949057383679831
 10
0.2495601294648964
 20
0.0951731907449004
 10
0.2510317199081697
 20
0.095306916933359
 10
0.2523695506979777
 20
0.0949057383679831
 10
0.2533730994816352
 20
0.0946384133493284
 10
0.2536406187886087
 20
0.0946384133493284
  0
LWPOLYLINE
  5
19EE
330
2
100
AcDbEntity
  8
Dimensione
 62
     2
100
AcDbPolyline
 90
        6
 70
     0
 43
0.0
 10
0.255112209231882
 20
0.0936357216524458
 10
0.255714244800032
 20
0.0929003549741752
 10
0.2560487610612512
 20
0.0922318513901447
 10
0.2561825207147166
 20
0.0909617073163235
 10
0.2562495176690049
 20
0.0898252894309609
 10
0.2561157580155395
 20
0.0890231870167556
  0
LWPOLYLINE
  5
19EF
330
2
100
AcDbEntity
  8
Dimensione
 62
     2
100
AcDbPolyline
 90
        7
 70
     0
 43
0.0
 10
0.2555137224473896
 20
0.0882209572442664
 10
0.254911686879197
 20
0.0876193167544757
 10
0.2541758916575816
 20
0.087418854830061
 10
0.2533061025273895
 20
0.0870845393589038
 10
0.2527710639134852
 20
0.0870845393589038
 10
0.2517675151298278
 20
0.0871514024531438
 10
0.2513662361693889
 20
0.0871514024531438
  0
LWPOLYLINE
  5
19F0
330
2
100
AcDbEntity
  8
Dimensione
 62
     2
100
AcDbPolyline
 90
        5
 70
     0
 43
0.0
 10
0.2493593728571426
 20
0.0874855905660171
 10
0.2484898179820192
 20
0.0877530429429344
 10
0.2474195064991846
 20
0.0882878203385063
 10
0.2468842336302117
 20
0.0888225977340783
 10
0.2466167143232383
 20
0.0890900501109956
  0
LWPOLYLINE
  5
19F1
330
2
100
AcDbEntity
  8
Dimensione
 62
     2
100
AcDbPolyline
 90
       14
 70
     0
 43
0.0
 10
0.2411927720876861
 20
0.0876070903600935
 10
0.2405239738203591
 20
0.0862700831920536
 10
0.239654184690167
 20
0.0849999391182324
 10
0.2399887009513861
 20
0.0838635212328699
 10
0.2415940510481249
 20
0.0837967854969138
 10
0.2427983564395362
 20
0.0841978367040271
 10
0.2440024275758787
 20
0.0840641105155685
 10
0.2447382227975368
 20
0.0837299224026738
 10
0.2455410149734405
 20
0.082860829535966
 10
0.246477332547741
 20
0.0827271033475073
 10
0.247347121677933
 20
0.0827271033475073
 10
0.2484174331608102
 20
0.0827939664417473
 10
0.2495545073428644
 20
0.0830614188186646
 10
0.2504240622179878
 20
0.0832620081013419
  0
LWPOLYLINE
  5
19F2
330
2
100
AcDbEntity
  8
Dimensione
 62
     2
100
AcDbPolyline
 90
       22
 70
     0
 43
0.0
 10
0.2871348793363495
 20
0.0878801465011195
 10
0.2862791455112585
 20
0.0876663119578526
 10
0.284888607327332
 20
0.0882008346368567
 10
0.2838187643546348
 20
0.089376733587399
 10
0.2844606232872309
 20
0.0906596134886955
 10
0.286065270618721
 20
0.0923700351182207
 10
0.2859582160449605
 20
0.0934390804762716
 10
0.2854234116861249
 20
0.0953633366490637
 10
0.2854234116861249
 20
0.0964323820070932
 10
0.285744341152423
 20
0.0970737582786102
 10
0.2862791455112585
 20
0.0970737582786102
 10
0.2862791455112585
 20
0.0965392355995848
 10
0.2867071295513597
 20
0.0954701902415552
 10
0.2877767382689455
 20
0.0950426485133052
 10
0.2891675107079408
 20
0.0946149794267926
 10
0.2898093696405368
 20
0.0940804567477672
 10
0.290237353680638
 20
0.0927977042047546
 10
0.2898093696405368
 20
0.0917286588467251
 10
0.2889536358154458
 20
0.0903389253529371
 10
0.2882047223090467
 20
0.0888422109083736
 10
0.2880976677352436
 20
0.0884146691801236
 10
0.2875628633764506
 20
0.0878801465011195
  0
LWPOLYLINE
  5
19F3
330
2
100
AcDbEntity
  8
Dimensione
 62
     2
100
AcDbPolyline
 90
        9
 70
     0
 43
0.0
 10
0.2887395266678396
 20
0.0880939810443651
 10
0.2891675107079408
 20
0.0888422109083736
 10
0.2901302991068348
 20
0.0896974217231575
 10
0.2915210715458301
 20
0.0909803016244327
 10
0.2914140169720269
 20
0.0901250908096701
 10
0.291200142079532
 20
0.0886285037233906
 10
0.2906651034656278
 20
0.0883078155876321
 10
0.2899164242143399
 20
0.087987000093611
 10
0.2891675107079408
 20
0.087987000093611
  0
LWPOLYLINE
  5
19F4
330
2
100
AcDbEntity
  8
Dimensione
 62
     2
100
AcDbPolyline
 90
       11
 70
     0
 43
0.0
 10
0.287240294124544
 20
0.0821435477327329
 10
0.285626510844736
 20
0.082712711862469
 10
0.2852467833521501
 20
0.0833767579068821
 10
0.2849621634240122
 20
0.0841356858659511
 10
0.2850570367333915
 20
0.0849894957396971
 10
0.2858164917186059
 20
0.0856535417841103
 10
0.2865759467038202
 20
0.0861278239991906
 10
0.2871454208151647
 20
0.0863175878285235
 10
0.2878100024909997
 20
0.0863175878285235
 10
0.2882846032930075
 20
0.0863175878285235
 10
0.288854077404352
 20
0.0862227059138464
  0
LWPOLYLINE
  5
19F5
330
2
100
AcDbEntity
  8
Dimensione
 62
     2
100
AcDbPolyline
 90
       18
 70
     0
 43
0.0
 10
0.2654023323458432
 20
0.0900219306071351
 10
0.2641682765586211
 20
0.0921089506550517
 10
0.2641682765586211
 20
0.093057515085191
 10
0.2641682765586211
 20
0.0941010887882699
 10
0.265117478162594
 20
0.0951445351330863
 10
0.2661617873310575
 20
0.0958085811774994
 10
0.2672058622444098
 20
0.0963777453072355
 10
0.2675855897369956
 20
0.0969469094369716
 10
0.267395843118237
 20
0.097516073566729
 10
0.2684399180315893
 20
0.0969469094369716
 10
0.2685350255960799
 20
0.0959034630921765
 10
0.2676806973014862
 20
0.0947651348326831
 10
0.266731261442402
 20
0.0941010887882699
 10
0.2658769331478084
 20
0.093342160829201
 10
0.2654023323458432
 20
0.0924883509554549
 10
0.2654023323458432
 20
0.0915397865252944
 10
0.2654023323458432
 20
0.0909704950372957
 10
0.2654023323458432
 20
0.0904013309075383
  0
LWPOLYLINE
  5
1ADA
330
2
100
AcDbEntity
  8
Profilo
370
     0
100
AcDbPolyline
 90
       18
 70
   129
 43
0.0
 10
0.2292973810658798
 20
0.2123169778590225
 10
0.2292973810658798
 20
0.2082069201943896
 10
0.2249614433069558
 20
0.2082069201943896
 42
-0.4495448483240822
 10
0.2206105685399995
 20
0.2057083214523673
 42
0.6513968294927254
 10
0.2196847127731194
 20
0.2046938200045688
 42
-0.2733989357811652
 10
0.2193320056348147
 20
0.2017385281091934
 42
-0.0750441343824566
 10
0.2128069191784794
 20
0.195430966927323
 42
-0.656688497329778
 10
0.2117928863129099
 20
0.1941077024795889
 10
0.2103820565031957
 20
0.1923874586975573
 10
0.2104213553591909
 20
0.1899210409043278
 42
-0.6211863941965138
 10
0.2090749037022765
 20
0.1889155635689733
 42
0.7431378362479992
 10
0.2079059383292365
 20
0.1868885543726337
 42
-0.6190486903984653
 10
0.2077335169073426
 20
0.1827204501345578
 42
0.1972698114094226
 10
0.2067635713346367
 20
0.1813089693524334
 10
0.2067635713346367
 20
0.1749131898929805
 10
0.2027515259087413
 20
0.1749131898929805
 10
0.2027515259087413
 20
0.1874842021463551
 10
0.2199092579198554
 20
0.2123169778590225
  0
LWPOLYLINE
  5
1ADB
330
2
100
AcDbEntity
  8
Profilo
370
     0
100
AcDbPolyline
 90
        3
 70
   128
 43
0.0
 10
0.3495512034485459
 20
0.2347681758220041
 10
0.3495512034485459
 20
0.2306581181573712
 10
0.3495233926653662
 20
0.2306581181573712
  0
LINE
  5
1ADD
330
2
100
AcDbEntity
  8
Dimensione
 62
     3
100
AcDbLine
 10
0.2067635713346367
 20
0.1749131898929805
 30
0.0
 11
0.3270173937173028
 21
0.1973643878559621
 31
0.0
  0
LINE
  5
1ADE
330
2
100
AcDbEntity
  8
Dimensione
 62
     2
100
AcDbLine
 10
0.2292973810658798
 20
0.2123169778590225
 30
0.0
 11
0.3495512034485459
 21
0.2347681758220041
 31
0.0
  0
LINE
  5
1ADF
330
2
100
AcDbEntity
  8
Dimensione
 62
     3
100
AcDbLine
 10
0.2199092579198554
 20
0.2123169778590225
 30
0.0
 11
0.3401630803025214
 21
0.2347681758220041
 31
0.0
  0
LINE
  5
1AE0
330
2
100
AcDbEntity
  8
Dimensione
 62
     2
100
AcDbLine
 10
0.2292973810658798
 20
0.2082069201943896
 30
0.0
 11
0.3495512034485459
 21
0.2306581181573712
 31
0.0
  0
LINE
  5
1AE1
330
2
100
AcDbEntity
  8
Dimensione
 62
     2
100
AcDbLine
 10
0.2096637244492445
 20
0.1888272107792764
 30
0.0
 11
0.3300690304738781
 21
0.2112917204535052
 31
0.0
  0
LWPOLYLINE
  5
1AE2
330
2
100
AcDbEntity
  8
Profilo
370
     0
100
AcDbPolyline
 90
        3
 70
   128
 43
0.0
 10
0.3400754355828586
 20
0.2346413256261637
 10
0.3401630803025214
 20
0.2347681758220041
 10
0.3495512034485459
 20
0.2347681758220041
  0
LWPOLYLINE
  5
1AE5
330
2
100
AcDbEntity
  8
Profilo
370
     0
100
AcDbPolyline
 90
        8
 70
   128
 43
0.0
 10
0.3449006635455995
 20
0.2297800739540404
 42
-0.3681244110859399
 10
0.3408643909226655
 20
0.2281595194153489
 42
0.6513968294927254
 10
0.3399385351557854
 20
0.2271450179675504
 42
-0.2733989357811652
 10
0.3395858280174807
 20
0.2241897260721749
 42
-0.0750441343824566
 10
0.3330607415611454
 20
0.2178821648903046
 42
-0.656688497329778
 10
0.332046708695576
 20
0.2165589004425704
 10
0.3306358788858618
 20
0.2148386566605388
 10
0.330049523621354
 20
0.2112627303123602
  0
LWPOLYLINE
  5
1AE7
330
2
100
AcDbEntity
  8
Profilo
370
     0
100
AcDbPolyline
 90
        5
 70
   128
 43
0.0
 10
0.3281088375749308
 20
0.2109569661384826
 42
0.3784621051796975
 10
0.3281597607119026
 20
0.2093397523356152
 42
-0.6190486903984653
 10
0.3279873392900087
 20
0.2051716480975393
 42
0.1972698114094226
 10
0.3270173937173028
 20
0.2037601673154149
 10
0.3270173937173028
 20
0.1974033702022189
  0
LWPOLYLINE
  5
1AE8
330
2
100
AcDbEntity
  8
Profilo
370
     0
100
AcDbPolyline
 90
       18
 70
   129
 43
0.0
 10
0.1780565651266954
 20
0.1051472783213114
 10
0.1780565651266954
 20
0.1010372206566785
 10
0.1737206273677714
 20
0.1010372206566785
 42
-0.4495448483240822
 10
0.1693697526008151
 20
0.0985386219146562
 42
0.6513968294927254
 10
0.168443896833935
 20
0.0975241204668578
 42
-0.2733989357811652
 10
0.1680911896956303
 20
0.0945688285714823
 42
-0.0750441343824566
 10
0.161566103239295
 20
0.0882612673896119
 42
-0.656688497329778
 10
0.1605520703737255
 20
0.0869380029418778
 10
0.1591412405640113
 20
0.0852177591598462
 10
0.1591805394200065
 20
0.0827513413666168
 42
-0.6211863941965138
 10
0.1578340877630922
 20
0.0817458640312623
 42
0.7431378362479992
 10
0.1566651223900521
 20
0.0797188548349226
 42
-0.6190486903984653
 10
0.1564927009681583
 20
0.0755507505968467
 42
0.1972698114094226
 10
0.1555227553954523
 20
0.0741392698147223
 10
0.1555227553954523
 20
0.0677434903552694
 10
0.151510709969557
 20
0.0677434903552694
 10
0.151510709969557
 20
0.080314502608644
 10
0.168668441980671
 20
0.1051472783213114
  0
LWPOLYLINE
  5
1AE9
330
2
100
AcDbEntity
  8
Vista
370
     0
100
AcDbPolyline
 90
       26
 70
   129
 43
0.0
 10
0.302546341827945
 20
0.0825847043415125
 10
0.301633788512941
 20
0.0841143547095898
 10
0.3017474376775588
 20
0.0855142621263299
 10
0.303097603045547
 20
0.0867029847950663
 10
0.3038858105867774
 20
0.0874908276960854
 10
0.3038858105867774
 20
0.0889539651944121
 10
0.3038858105867774
 20
0.0910923972900251
 10
0.3045614212704635
 20
0.0933433800768585
 10
0.3054622293615274
 20
0.0925555371758394
 10
0.3060252358030695
 20
0.0910923972900251
 10
0.3060252358030695
 20
0.0888414168906794
 10
0.3062504369027579
 20
0.0887288685869679
 10
0.3079394562273627
 20
0.089404160796788
 10
0.3092906702101246
 20
0.089404160796788
 10
0.3098536729593455
 20
0.0890665134981449
 10
0.3105292799507318
 20
0.088166122293393
 10
0.3107544847427306
 20
0.0871531803974422
 10
0.3118804939334936
 20
0.0886163178957689
 10
0.3133443121583994
 20
0.0888414168906794
 10
0.3150333277907045
 20
0.0882786705971045
 10
0.3141325196996298
 20
0.0869280814025105
 10
0.3119930981756376
 20
0.0851272966055406
 10
0.3089528648682815
 20
0.0845645503119657
 10
0.3067008427944451
 20
0.0833265118085708
 10
0.3043362164784646
 20
0.0824261182163527
 10
0.303097603045547
 20
0.0824261182163527
  0
CIRCLE
  5
1AEA
330
2
100
AcDbEntity
  8
Vista
370
     0
100
AcDbCircle
 10
0.3079394562273627
 20
0.0912049479812454
 30
0.0
 40
0.001238609740609
  0
CIRCLE
  5
1AEB
330
2
100
AcDbEntity
  8
Vista
370
     0
100
AcDbCircle
 10
0.310979685842419
 20
0.0898543587866302
 30
0.0
 40
0.0005630064415347
  0
LWPOLYLINE
  5
1AEC
330
2
100
AcDbEntity
  8
Vista
370
     0
100
AcDbPolyline
 90
       32
 70
   128
 43
0.0
 10
0.3010770589908311
 20
0.0929633072175081
 10
0.3023154176546683
 20
0.0901164040703636
 10
0.3015724039332817
 20
0.0882597259249694
 10
0.3003340452694552
 20
0.0868981638616605
 10
0.2986003453554673
 20
0.0865268291875681
 10
0.2964951367346522
 20
0.0865268291875681
 10
0.2945137643494391
 20
0.0875170565767847
 10
0.2922847231853112
 20
0.089497511355218
 10
0.2922847231853112
 20
0.0918493031952311
 10
0.2938945868636757
 20
0.093705978953159
 10
0.2956282867776529
 20
0.0951913200369946
 10
0.2974858229272534
 20
0.0960577707931721
 10
0.3008293865196059
 20
0.0968004401413355
 10
0.302934595140421
 20
0.0974193328564811
 10
0.3065258312039987
 20
0.0977906675305734
 10
0.3096217260174363
 20
0.0974193328564811
 10
0.3128414533741655
 20
0.0961815474262112
 10
0.3164326894377432
 20
0.0939535369942123
 10
0.3191570755443323
 20
0.0922206378693234
 10
0.3215099566363833
 20
0.0911066314595802
 10
0.3252428664636469
 20
0.0889980190180625
 10
0.3243760165066583
 20
0.0911022528170223
 10
0.3243760165066583
 20
0.0940729349846722
 10
0.3261097164206461
 20
0.0961771687836533
 10
0.328338757584774
 20
0.0971673961728699
 10
0.3311869799269758
 20
0.0971673961728699
 10
0.3339113660335649
 20
0.0971673961728699
 10
0.332177666119577
 20
0.0954344970479811
 10
0.3305678024412124
 20
0.0949393833533835
 10
0.3287102662916119
 20
0.0920924802062389
 10
0.3290817749984605
 20
0.0901120230403182
 10
0.3299486249554491
 20
0.0885029053234435
  0
LWPOLYLINE
  5
1AED
330
2
100
AcDbEntity
  8
Vista
370
     0
100
AcDbPolyline
 90
       12
 70
   128
 43
0.0
 10
0.3277195800990107
 20
0.0824377595801083
 10
0.3251190302280342
 20
0.0824377595801083
 10
0.322642316592681
 20
0.0824377595801083
 10
0.3200417630294048
 20
0.0818188668649841
 10
0.3186795718222655
 20
0.0811999741498385
 10
0.3173173769228157
 20
0.0810761975167994
 10
0.3154598407732152
 20
0.0809524184962728
 10
0.3128592909022494
 20
0.0826853176211616
 10
0.3139738133304633
 20
0.0847895514201214
 10
0.3169458719082776
 20
0.0866462271780494
 10
0.3194225855436414
 20
0.0867700061985547
 10
0.321032449222006
 20
0.0867700061985547
  0
LWPOLYLINE
  5
1AEE
330
2
100
AcDbEntity
  8
Vista
370
     0
100
AcDbPolyline
 90
       33
 70
   129
 43
0.0
 10
0.3501813346178189
 20
0.097421398028685
 10
0.3464508580198959
 20
0.0990425940185761
 10
0.3432069645233788
 20
0.0990425940185761
 10
0.3407740416317608
 20
0.0983941156226239
 10
0.339638679831058
 20
0.0977456372266504
 10
0.3373679525373419
 20
0.0977456372266504
 10
0.3350972252436364
 20
0.097421398028685
 10
0.3334752803415277
 20
0.0961244412367593
 10
0.3326643060443182
 20
0.0945032428593807
 10
0.3334752803415277
 20
0.0902881308981721
 10
0.3344484465443287
 20
0.0888290545072637
 10
0.3352594208415383
 20
0.0883426933228281
 10
0.3363947826422411
 20
0.088180573723824
 10
0.3363947826422411
 20
0.0860730189369635
 10
0.3385033143380447
 20
0.0847760597575716
 10
0.3398008717366601
 20
0.0838033421636327
 10
0.3414228203310685
 20
0.083479102965646
 10
0.3432069645233788
 20
0.0838033421636327
 10
0.3443423263240817
 20
0.0849381793565543
 10
0.3466130536177978
 20
0.0849381793565543
 10
0.3490459728171054
 20
0.0849381793565543
 10
0.3519654788101292
 20
0.0849381793565543
 10
0.3537496193101397
 20
0.0863972581349502
 10
0.3540740105059434
 20
0.0875320953278719
 10
0.3556959554080414
 20
0.088180573723824
 10
0.356506929705251
 20
0.088666934908281
 10
0.3566691253031529
 20
0.0909366092941456
 10
0.3569935164989566
 20
0.0935305252654418
 10
0.3569935164989566
 20
0.0953138408543369
 10
0.3566691253031529
 20
0.096286560835742
 10
0.3545605936073386
 20
0.0975835176276677
 10
0.3527764531073281
 20
0.0975835176276677
 10
0.3516410876143254
 20
0.0975835176276677
  0
ELLIPSE
  5
1AEF
330
2
100
AcDbEntity
  8
Vista
370
     0
100
AcDbEllipse
 10
0.3449100072244384
 20
0.0911797886926196
 30
0.0
 11
-0.0046225486940736
 21
0.0010537773934315
 31
0.0
210
0.0
220
0.0
230
1.0
 40
0.6349616486883987
 41
0.0
 42
6.283185307179586
  0
LWPOLYLINE
  5
1AF0
330
2
100
AcDbEntity
  8
Vista
370
     0
100
AcDbPolyline
 90
        2
 70
   128
 43
0.0
 10
0.3410984328275646
 20
0.0945032428593807
 10
0.3399630673345619
 20
0.096286560835742
  0
LWPOLYLINE
  5
1AF1
330
2
100
AcDbEntity
  8
Vista
370
     0
100
AcDbPolyline
 90
        2
 70
   128
 43
0.0
 10
0.3483971941178083
 20
0.0941790036614153
 10
0.3500191427122168
 20
0.0959623216377766
  0
LWPOLYLINE
  5
1AF2
330
2
100
AcDbEntity
  8
Vista
370
     0
100
AcDbPolyline
 90
        2
 70
   128
 43
0.0
 10
0.3506679214115245
 20
0.088180573723824
 10
0.3524520619115243
 20
0.0875320953278719
  0
LWPOLYLINE
  5
1AF3
330
2
100
AcDbEntity
  8
Vista
370
     0
100
AcDbPolyline
 90
        2
 70
   128
 43
0.0
 10
0.3445045219219835
 20
0.0852624209420286
 10
0.3443423263240817
 20
0.0870457365309024
  0
LWPOLYLINE
  5
1AF4
330
2
100
AcDbEntity
  8
Vista
370
     0
100
AcDbPolyline
 90
        2
 70
   128
 43
0.0
 10
0.33720575693944
 20
0.0885048129218108
 10
0.3398008717366601
 20
0.0896396525022199
  0
LWPOLYLINE
  5
1AF5
330
2
100
AcDbEntity
  8
Vista
370
     0
100
AcDbPolyline
 90
       15
 70
   128
 43
0.0
 10
0.3346977362453813
 20
0.0879124713974791
 10
0.334078558759618
 20
0.087603025039917
 10
0.3318340357583445
 20
0.0881445561656507
 10
0.3313696507978747
 20
0.0882219177550413
 10
0.3305182789857213
 20
0.0869067707353809
 10
0.3299764996087546
 20
0.0855916237157205
 10
0.3292799240141946
 20
0.0844312022623287
 10
0.330286088351631
 20
0.0833481400108612
 10
0.3307504733121114
 20
0.0828839704744967
 10
0.3319888282836381
 20
0.0814141026635428
 10
0.3334593775815549
 20
0.0812593794847617
 10
0.3348525324629747
 20
0.0815688258423238
 10
0.3370196573554516
 20
0.0814141026635428
 10
0.3387997953962554
 20
0.0815688258423238
 10
0.3400381540600819
 20
0.0822650777593724
  0
LWPOLYLINE
  5
1AF6
330
2
100
AcDbEntity
  8
Vista
370
     0
100
AcDbPolyline
 90
       10
 70
   129
 43
0.0
 10
0.3819690207312689
 20
0.0872644704979907
 10
0.3794923070959051
 20
0.0861504640882474
 10
0.3775109347107026
 20
0.0851602366990308
 10
0.378130112196466
 20
0.082065775510833
 10
0.3817213482600437
 20
0.0811993247546555
 10
0.3839503931164714
 20
0.0813231037751821
 10
0.3843219018233199
 20
0.0833035585536154
 10
0.3851887517803085
 20
0.0857791294141551
 10
0.3853125843236214
 20
0.0865217987623398
 10
0.3837027206452461
 20
0.0870169124569374
  0
LWPOLYLINE
  5
1AF7
330
2
100
AcDbEntity
  8
Vista
370
     0
100
AcDbPolyline
 90
       57
 70
   129
 43
0.0
 10
0.3770155934605519
 20
0.097166746777687
 10
0.3751580573109514
 20
0.0979094185133379
 10
0.3728051762189004
 20
0.0979094185133379
 10
0.3705761350547725
 20
0.0974143048187189
 10
0.3690901039197101
 20
0.096671633083068
 10
0.3673564040057329
 20
0.0953100710197591
 10
0.3666133902843569
 20
0.0934533928743649
 10
0.3647558541347564
 20
0.0932058372207992
 10
0.3616599593213294
 20
0.092958279179746
 10
0.3605454368931049
 20
0.0917204937494761
 10
0.3606692731287282
 20
0.0904827107066938
 10
0.363269822999694
 20
0.0901113760326014
 10
0.3609169455999535
 20
0.0889973696228582
 10
0.3588117369791277
 20
0.0878833632131149
 10
0.3567065320506124
 20
0.0866455777828451
 10
0.3555920096223879
 20
0.0850364576785042
 10
0.3532391285303369
 20
0.0849126786579776
 10
0.3518769373231976
 20
0.0842937883303195
 10
0.3480380287883946
 20
0.0840462302892663
 10
0.3461804926388048
 20
0.0837986746357219
 10
0.3460566564031922
 20
0.0821895545313597
 10
0.3475426875382439
 20
0.0819419964903064
 10
0.3495240562311466
 20
0.0818182174697798
 10
0.3528676235158095
 20
0.0816944408367407
 10
0.3554681733867753
 20
0.0816944408367407
 10
0.3570780370651505
 20
0.082065775510833
 10
0.3596785869361163
 20
0.0833035585536154
 10
0.3612884543067913
 20
0.0837986746357219
 10
0.3631459904563918
 20
0.0849126786579776
 10
0.3643843454279185
 20
0.0861504640882474
 10
0.3657465403273576
 20
0.0873882495185173
 10
0.3666133902843569
 20
0.0889973696228582
 10
0.3664895540487336
 20
0.0875120261515564
 10
0.365622704091745
 20
0.0855315713731018
 10
0.3641366766489931
 20
0.0845413439838852
 10
0.3641366766489931
 20
0.0830560029000497
 10
0.3651273591492945
 20
0.082065775510833
 10
0.3669848952988843
 20
0.082065775510833
 10
0.3678517452558836
 20
0.082065775510833
 10
0.3690901039197101
 20
0.0821895545313597
 10
0.3695854488621713
 20
0.082932223879523
 10
0.3695854488621713
 20
0.0844175649633586
 10
0.3697092814054734
 20
0.0860266850677208
 10
0.3697092814054734
 20
0.0868931358238983
 10
0.3697092814054734
 20
0.0880071422336416
 10
0.3703284625835472
 20
0.083922451268761
 10
0.3714429850117611
 20
0.0816944408367407
 10
0.3725575037476752
 20
0.0816944408367407
 10
0.3751580573109514
 20
0.0819419964903064
 10
0.3752818898542642
 20
0.0826846682259786
 10
0.3746627123685009
 20
0.0840462302892663
 10
0.3755295623254895
 20
0.0867693568033717
 10
0.3750342210753388
 20
0.0883784769077339
 10
0.3742912036616524
 20
0.0906064897272204
 10
0.3759010710323274
 20
0.092091830811056
 10
0.3775109347107026
 20
0.092958279179746
 10
0.3778824434175405
 20
0.0946911783046348
  0
LWPOLYLINE
  5
1AF8
330
2
100
AcDbEntity
  8
Vista
370
     0
100
AcDbPolyline
 90
        5
 70
   128
 43
0.0
 10
0.3643843454279185
 20
0.0908540453807861
 10
0.367108731534497
 20
0.0922156098315826
 10
0.3678517452558836
 20
0.0924631654851483
 10
0.3700807901123113
 20
0.0940722855894892
 10
0.3714429850117611
 20
0.0950625129787058
  0
LWPOLYLINE
  5
1AF9
330
2
100
AcDbEntity
  8
Vista
370
     0
100
AcDbPolyline
 90
        4
 70
   128
 43
0.0
 10
0.3699569538766987
 20
0.0887498115818262
 10
0.3699569538766987
 20
0.0901113760326014
 10
0.3709476400693106
 20
0.0912253800548784
 10
0.3719383262619118
 20
0.092091830811056
  0
LWPOLYLINE
  5
1AFA
330
2
100
AcDbEntity
  8
Dimensione
 62
     2
100
AcDbPolyline
 90
        8
 70
     0
 43
0.0
 10
0.3008119921681001
 20
0.0932011752190705
 10
0.298927410010144
 20
0.0931259064787101
 10
0.2975703703033829
 20
0.0925232471227121
 10
0.2970428278521879
 20
0.0913931971510978
 10
0.2974197442837791
 20
0.0900372136001183
 10
0.2981735771469616
 20
0.089811280020753
 10
0.2991534661670627
 20
0.0901126096987413
 10
0.2999827291675601
 20
0.0907152690547393
  0
LWPOLYLINE
  5
1AFB
330
2
100
AcDbEntity
  8
Dimensione
 62
     2
100
AcDbPolyline
 90
       16
 70
     0
 43
0.0
 10
0.3009626181876612
 20
0.0933518400580754
 10
0.3022442277571073
 20
0.0938792306737129
 10
0.3046565866212845
 20
0.0938792306737129
 10
0.3061642523476493
 20
0.0936531697360637
 10
0.308350320799839
 20
0.0933518400580754
 10
0.3100840426831226
 20
0.092447851024089
 10
0.3115917084094875
 20
0.0915438619901027
 10
0.3127224577042611
 20
0.0903385432781066
 10
0.3145318439799283
 20
0.0895852190831251
 10
0.3164916220201306
 20
0.0886812300491174
 10
0.3185270644527165
 20
0.0880033019527803
 10
0.320562506885345
 20
0.087777241015131
 10
0.3227485753375348
 20
0.0874006425967822
 10
0.3243316712012145
 20
0.0870993129187726
 10
0.326140823221813
 20
0.086345988723791
 10
0.327573058810863
 20
0.0852159387521555
  0
LWPOLYLINE
  5
1AFC
330
2
100
AcDbEntity
  8
Dimensione
 62
     2
100
AcDbPolyline
 90
       11
 70
     0
 43
0.0
 10
0.3152102467057531
 20
0.0831066310061944
 10
0.3176223713149042
 20
0.084538010655797
 10
0.3190548411589802
 20
0.085065273913172
 10
0.3204870767479875
 20
0.0852913348507999
 10
0.3219193123370374
 20
0.0853666035911603
 10
0.3232763520437984
 20
0.0853666035911603
 10
0.3242562410638996
 20
0.0852159387521555
 10
0.3262916834964855
 20
0.0847639442351623
 10
0.3271207122419142
 20
0.0846132793961788
 10
0.3279499752424542
 20
0.0846132793961788
 10
0.328703808105594
 20
0.0844626145571739
  0
LWPOLYLINE
  5
1AFD
330
2
100
AcDbEntity
  8
Dimensione
 62
     2
100
AcDbPolyline
 90
       10
 70
     0
 43
0.0
 10
0.3284023218113603
 20
0.0869486480797891
 10
0.326743795810323
 20
0.0898865487611134
 10
0.3262162533591706
 20
0.0910918674731095
 10
0.3260653930844981
 20
0.092447851024089
 10
0.3264423095160893
 20
0.0935779009957033
 10
0.326743795810323
 20
0.0941051642530569
 10
0.3284023218113603
 20
0.0956118126430413
 10
0.3299854176750401
 20
0.0964405329366885
 10
0.3314176532640474
 20
0.096515801677049
 10
0.332774692970851
 20
0.096515801677049
  0
LWPOLYLINE
  5
1AFE
330
2
100
AcDbEntity
  8
Dimensione
 62
     2
100
AcDbPolyline
 90
        6
 70
     0
 43
0.0
 10
0.3102349029577951
 20
0.0865719223031563
 10
0.3095565002319702
 20
0.085743329367793
 10
0.3082748906625241
 20
0.0853666035911603
 10
0.3070687112304355
 20
0.0852913348507999
 10
0.3059379619356619
 20
0.085065273913172
 10
0.3052595592097944
 20
0.0847639442351623
  0
LWPOLYLINE
  5
1AFF
330
2
100
AcDbEntity
  8
Dimensione
 62
     2
100
AcDbPolyline
 90
        6
 70
     0
 43
0.0
 10
0.3061642523476493
 20
0.0880033019527803
 10
0.3057873359160581
 20
0.0870993129187726
 10
0.3050335030528757
 20
0.086345988723791
 10
0.3047317825035734
 20
0.086345988723791
 10
0.3039779496403909
 20
0.0855926645287882
 10
0.3036764633461146
 20
0.0847639442351623
  0
LWPOLYLINE
  5
1B00
330
2
100
AcDbEntity
  8
Dimensione
 62
     2
100
AcDbPolyline
 90
        6
 70
     0
 43
0.0
 10
0.3395718385140114
 20
0.0908948442221048
 10
0.3395718385140114
 20
0.0912960227874807
 10
0.3395050758147917
 20
0.0919645263715113
 10
0.3399063547752306
 20
0.0929003549741752
 10
0.3399733517295189
 20
0.0936357216524458
 10
0.3401738740821614
 20
0.0939030466710792
  0
LWPOLYLINE
  5
1B01
330
2
100
AcDbEntity
  8
Dimensione
 62
     2
100
AcDbPolyline
 90
        6
 70
     0
 43
0.0
 10
0.3419132180874769
 20
0.0949057383679831
 10
0.3434518054850386
 20
0.0951731907449004
 10
0.344923395928312
 20
0.095306916933359
 10
0.34626122671812
 20
0.0949057383679831
 10
0.3472647755017775
 20
0.0946384133493284
 10
0.3475322948087509
 20
0.0946384133493284
  0
LWPOLYLINE
  5
1B02
330
2
100
AcDbEntity
  8
Dimensione
 62
     2
100
AcDbPolyline
 90
        6
 70
     0
 43
0.0
 10
0.3490038852520243
 20
0.0936357216524458
 10
0.3496059208201743
 20
0.0929003549741752
 10
0.3499404370813934
 20
0.0922318513901447
 10
0.3500741967348588
 20
0.0909617073163235
 10
0.3501411936891472
 20
0.0898252894309609
 10
0.3500074340356818
 20
0.0890231870167556
  0
LWPOLYLINE
  5
1B03
330
2
100
AcDbEntity
  8
Dimensione
 62
     2
100
AcDbPolyline
 90
        7
 70
     0
 43
0.0
 10
0.3494053984675318
 20
0.0882209572442664
 10
0.3488033628993392
 20
0.0876193167544757
 10
0.3480675676777238
 20
0.087418854830061
 10
0.3471977785475317
 20
0.0870845393589038
 10
0.3466627399336275
 20
0.0870845393589038
 10
0.34565919114997
 20
0.0871514024531438
 10
0.3452579121895312
 20
0.0871514024531438
  0
LWPOLYLINE
  5
1B04
330
2
100
AcDbEntity
  8
Dimensione
 62
     2
100
AcDbPolyline
 90
        5
 70
     0
 43
0.0
 10
0.3432510488772849
 20
0.0874855905660171
 10
0.3423814940021614
 20
0.0877530429429344
 10
0.3413111825193269
 20
0.0882878203385063
 10
0.340775909650354
 20
0.0888225977340783
 10
0.3405083903433805
 20
0.0890900501109956
  0
LWPOLYLINE
  5
1B05
330
2
100
AcDbEntity
  8
Dimensione
 62
     2
100
AcDbPolyline
 90
       14
 70
     0
 43
0.0
 10
0.3350844481078283
 20
0.0876070903600935
 10
0.3344156498405013
 20
0.0862700831920536
 10
0.3335458607103092
 20
0.0849999391182324
 10
0.3338803769715284
 20
0.0838635212328699
 10
0.3354857270682672
 20
0.0837967854969138
 10
0.3366900324596784
 20
0.0841978367040271
 10
0.337894103596021
 20
0.0840641105155685
 10
0.338629898817679
 20
0.0837299224026738
 10
0.3394326909935827
 20
0.082860829535966
 10
0.3403690085678832
 20
0.0827271033475073
 10
0.3412387976980753
 20
0.0827271033475073
 10
0.3423091091809525
 20
0.0827939664417473
 10
0.3434461833630067
 20
0.0830614188186646
 10
0.3443157382381301
 20
0.0832620081013419
  0
LWPOLYLINE
  5
1B06
330
2
100
AcDbEntity
  8
Dimensione
 62
     2
100
AcDbPolyline
 90
       22
 70
     0
 43
0.0
 10
0.3810265553564918
 20
0.0878801465011195
 10
0.3801708215314008
 20
0.0876663119578526
 10
0.3787802833474743
 20
0.0882008346368567
 10
0.3777104403747771
 20
0.089376733587399
 10
0.3783522993073731
 20
0.0906596134886955
 10
0.3799569466388633
 20
0.0923700351182207
 10
0.3798498920651028
 20
0.0934390804762716
 10
0.3793150877062672
 20
0.0953633366490637
 10
0.3793150877062672
 20
0.0964323820070932
 10
0.3796360171725652
 20
0.0970737582786102
 10
0.3801708215314008
 20
0.0970737582786102
 10
0.3801708215314008
 20
0.0965392355995848
 10
0.3805988055715019
 20
0.0954701902415552
 10
0.3816684142890878
 20
0.0950426485133052
 10
0.383059186728083
 20
0.0946149794267926
 10
0.3837010456606791
 20
0.0940804567477672
 10
0.3841290297007802
 20
0.0927977042047546
 10
0.3837010456606791
 20
0.0917286588467251
 10
0.3828453118355881
 20
0.0903389253529371
 10
0.3820963983291889
 20
0.0888422109083736
 10
0.3819893437553858
 20
0.0884146691801236
 10
0.3814545393965929
 20
0.0878801465011195
  0
LWPOLYLINE
  5
1B07
330
2
100
AcDbEntity
  8
Dimensione
 62
     2
100
AcDbPolyline
 90
        9
 70
     0
 43
0.0
 10
0.3826312026879819
 20
0.0880939810443651
 10
0.383059186728083
 20
0.0888422109083736
 10
0.3840219751269771
 20
0.0896974217231575
 10
0.3854127475659723
 20
0.0909803016244327
 10
0.3853056929921692
 20
0.0901250908096701
 10
0.3850918180996743
 20
0.0886285037233906
 10
0.38455677948577
 20
0.0883078155876321
 10
0.3838081002344822
 20
0.087987000093611
 10
0.383059186728083
 20
0.087987000093611
  0
LWPOLYLINE
  5
1B08
330
2
100
AcDbEntity
  8
Dimensione
 62
     2
100
AcDbPolyline
 90
       11
 70
     0
 43
0.0
 10
0.3811319701446862
 20
0.0821435477327329
 10
0.3795181868648783
 20
0.082712711862469
 10
0.3791384593722924
 20
0.0833767579068821
 10
0.3788538394441545
 20
0.0841356858659511
 10
0.3789487127535338
 20
0.0849894957396971
 10
0.3797081677387482
 20
0.0856535417841103
 10
0.3804676227239625
 20
0.0861278239991906
 10
0.3810370968353069
 20
0.0863175878285235
 10
0.381701678511142
 20
0.0863175878285235
 10
0.3821762793131498
 20
0.0863175878285235
 10
0.3827457534244942
 20
0.0862227059138464
  0
LWPOLYLINE
  5
1B09
330
2
100
AcDbEntity
  8
Dimensione
 62
     2
100
AcDbPolyline
 90
       18
 70
     0
 43
0.0
 10
0.3592940083659855
 20
0.0900219306071351
 10
0.3580599525787633
 20
0.0921089506550517
 10
0.3580599525787633
 20
0.093057515085191
 10
0.3580599525787633
 20
0.0941010887882699
 10
0.3590091541827363
 20
0.0951445351330863
 10
0.3600534633511998
 20
0.0958085811774994
 10
0.361097538264552
 20
0.0963777453072355
 10
0.3614772657571379
 20
0.0969469094369716
 10
0.3612875191383793
 20
0.097516073566729
 10
0.3623315940517315
 20
0.0969469094369716
 10
0.3624267016162221
 20
0.0959034630921765
 10
0.3615723733216285
 20
0.0947651348326831
 10
0.3606229374625443
 20
0.0941010887882699
 10
0.3597686091679506
 20
0.093342160829201
 10
0.3592940083659855
 20
0.0924883509554549
 10
0.3592940083659855
 20
0.0915397865252944
 10
0.3592940083659855
 20
0.0909704950372957
 10
0.3592940083659855
 20
0.0904013309075383
  0
LWPOLYLINE
  5
1B0B
330
2
100
AcDbEntity
  8
Vista
370
     0
100
AcDbPolyline
 90
        4
 70
   128
 43
0.0
 10
0.1661207615159064
 20
0.0824377595801084
 10
0.1635202116449299
 20
0.0824377595801084
 10
0.1610434980095767
 20
0.0824377595801084
 10
0.1589394488235886
 20
0.0819370274545102
  0
LWPOLYLINE
  5
1B0C
330
2
100
AcDbEntity
  8
Vista
370
     0
100
AcDbPolyline
 90
       23
 70
   128
 43
0.0
 10
0.1885825160347145
 20
0.097421398028685
 10
0.1848520394367916
 20
0.0990425940185761
 10
0.1816081459402745
 20
0.0990425940185761
 10
0.1791752230486565
 20
0.0983941156226239
 10
0.1780398612479537
 20
0.0977456372266504
 10
0.1757691339542375
 20
0.0977456372266504
 10
0.1734984066605321
 20
0.097421398028685
 10
0.1718764617584234
 20
0.0961244412367593
 10
0.1710654874612139
 20
0.0945032428593807
 10
0.1718764617584234
 20
0.0902881308981721
 10
0.1728496279612244
 20
0.0888290545072637
 10
0.1736606022584339
 20
0.0883426933228281
 10
0.1747959640591368
 20
0.088180573723824
 10
0.1747959640591368
 20
0.0860730189369635
 10
0.1769044957549404
 20
0.0847760597575716
 10
0.1782020531535557
 20
0.0838033421636327
 10
0.1798240017479642
 20
0.083479102965646
 10
0.1816081459402745
 20
0.0838033421636327
 10
0.1827435077409774
 20
0.0849381793565543
 10
0.1850142350346935
 20
0.0849381793565543
 10
0.187447154234001
 20
0.0849381793565543
 10
0.1903666602270249
 20
0.0849381793565543
 10
0.1917287005252177
 20
0.0860520625369437
  0
ELLIPSE
  5
1B0D
330
2
100
AcDbEntity
  8
Vista
370
     0
100
AcDbEllipse
 10
0.1833111886413341
 20
0.0911797886926197
 30
0.0
 11
-0.0046225486940736
 21
0.0010537773934315
 31
0.0
210
0.0
220
0.0
230
1.0
 40
0.6349616486883987
 41
0.0
 42
6.283185307179586
  0
LWPOLYLINE
  5
1B0E
330
2
100
AcDbEntity
  8
Vista
370
     0
100
AcDbPolyline
 90
        2
 70
   128
 43
0.0
 10
0.1794996142444603
 20
0.0945032428593807
 10
0.1783642487514576
 20
0.0962865608357421
  0
LWPOLYLINE
  5
1B0F
330
2
100
AcDbEntity
  8
Vista
370
     0
100
AcDbPolyline
 90
        2
 70
   128
 43
0.0
 10
0.1829057033388792
 20
0.0852624209420286
 10
0.1827435077409774
 20
0.0870457365309024
  0
LWPOLYLINE
  5
1B10
330
2
100
AcDbEntity
  8
Vista
370
     0
100
AcDbPolyline
 90
        2
 70
   128
 43
0.0
 10
0.1756069383563357
 20
0.0885048129218108
 10
0.1782020531535557
 20
0.0896396525022199
  0
LWPOLYLINE
  5
1B11
330
2
100
AcDbEntity
  8
Vista
370
     0
100
AcDbPolyline
 90
       15
 70
   128
 43
0.0
 10
0.173098917662277
 20
0.0879124713974792
 10
0.1724797401765137
 20
0.087603025039917
 10
0.1702352171752401
 20
0.0881445561656508
 10
0.1697708322147704
 20
0.0882219177550413
 10
0.168919460402617
 20
0.0869067707353809
 10
0.1683776810256503
 20
0.0855916237157205
 10
0.1676811054310903
 20
0.0844312022623287
 10
0.1686872697685267
 20
0.0833481400108612
 10
0.1691516547290071
 20
0.0828839704744967
 10
0.1703900097005337
 20
0.0814141026635428
 10
0.1718605589984505
 20
0.0812593794847617
 10
0.1732537138798704
 20
0.0815688258423238
 10
0.1754208387723473
 20
0.0814141026635428
 10
0.1772009768131511
 20
0.0815688258423238
 10
0.1784393354769775
 20
0.0822650777593724
  0
LWPOLYLINE
  5
1B14
330
2
100
AcDbEntity
  8
Dimensione
 62
     2
100
AcDbPolyline
 90
        3
 70
     0
 43
0.0
 10
0.166803503228256
 20
0.0869486480797891
 10
0.1646378454434045
 20
0.0907649267768127
 10
0.1651365537302425
 20
0.089905794602853
  0
LWPOLYLINE
  5
1B15
330
2
100
AcDbEntity
  8
Dimensione
 62
     2
100
AcDbPolyline
 90
        6
 70
     0
 43
0.0
 10
0.1779730199309071
 20
0.0908948442221048
 10
0.1779730199309071
 20
0.0912960227874807
 10
0.1779062572316874
 20
0.0919645263715113
 10
0.1783075361921262
 20
0.0929003549741753
 10
0.1783745331464146
 20
0.0936357216524458
 10
0.1785750554990571
 20
0.0939030466710792
  0
LWPOLYLINE
  5
1B16
330
2
100
AcDbEntity
  8
Dimensione
 62
     2
100
AcDbPolyline
 90
        6
 70
     0
 43
0.0
 10
0.1803143995043726
 20
0.0949057383679831
 10
0.1818529869019343
 20
0.0951731907449004
 10
0.1833245773452077
 20
0.095306916933359
 10
0.1846624081350157
 20
0.0949057383679831
 10
0.1856659569186732
 20
0.0946384133493284
 10
0.1859334762256466
 20
0.0946384133493284
  0
LWPOLYLINE
  5
1B17
330
2
100
AcDbEntity
  8
Dimensione
 62
     2
100
AcDbPolyline
 90
        5
 70
     0
 43
0.0
 10
0.1816522302941805
 20
0.0874855905660171
 10
0.1807826754190571
 20
0.0877530429429344
 10
0.1797123639362226
 20
0.0882878203385063
 10
0.1791770910672497
 20
0.0888225977340783
 10
0.1789095717602762
 20
0.0890900501109956
  0
LWPOLYLINE
  5
1B18
330
2
100
AcDbEntity
  8
Dimensione
 62
     2
100
AcDbPolyline
 90
       14
 70
     0
 43
0.0
 10
0.173485629524724
 20
0.0876070903600935
 10
0.172816831257397
 20
0.0862700831920536
 10
0.1719470421272049
 20
0.0849999391182324
 10
0.1722815583884241
 20
0.0838635212328699
 10
0.1738869084851629
 20
0.0837967854969138
 10
0.1750912138765741
 20
0.0841978367040271
 10
0.1762952850129167
 20
0.0840641105155685
 10
0.1770310802345747
 20
0.0837299224026739
 10
0.1778338724104784
 20
0.082860829535966
 10
0.1787701899847789
 20
0.0827271033475073
 10
0.179639979114971
 20
0.0827271033475073
 10
0.1807102905978481
 20
0.0827939664417473
 10
0.1818473647799024
 20
0.0830614188186646
 10
0.1827169196550258
 20
0.0832620081013419
  0
LWPOLYLINE
  5
1B19
330
2
100
AcDbEntity
  8
Vista
370
     0
100
AcDbPolyline
 90
        2
 70
   128
 43
0.0
 10
0.186798375534704
 20
0.0941790036614153
 10
0.1884203241291125
 20
0.0959623216377766
  0
LWPOLYLINE
  5
1B1A
330
2
100
AcDbEntity
  8
Vista
370
     0
100
AcDbPolyline
 90
        2
 70
   128
 43
0.0
 10
0.1890691028284201
 20
0.088180573723824
 10
0.19085324332842
 20
0.0875320953278719
  0
LWPOLYLINE
  5
1B1C
330
2
100
AcDbEntity
  8
Dimensione
 62
     2
100
AcDbPolyline
 90
        6
 70
     0
 43
0.0
 10
0.18740506666892
 20
0.0936357216524458
 10
0.18800710223707
 20
0.0929003549741753
 10
0.1883416184982891
 20
0.0922318513901447
 10
0.1884753781517545
 20
0.0909617073163235
 10
0.1885423751060429
 20
0.0898252894309609
 10
0.1884086154525775
 20
0.0890231870167556
  0
LWPOLYLINE
  5
1B1D
330
2
100
AcDbEntity
  8
Dimensione
 62
     2
100
AcDbPolyline
 90
        7
 70
     0
 43
0.0
 10
0.1878065798844275
 20
0.0882209572442664
 10
0.1872045443162349
 20
0.0876193167544758
 10
0.1864687490946195
 20
0.0874188548300611
 10
0.1855989599644274
 20
0.0870845393589038
 10
0.1850639213505232
 20
0.0870845393589038
 10
0.1840603725668657
 20
0.0871514024531438
 10
0.1836590936064268
 20
0.0871514024531438
  0
LWPOLYLINE
  5
1B1F
330
2
100
AcDbEntity
  8
Vista
370
     0
100
AcDbPolyline
 90
        8
 70
   128
 43
0.0
 10
0.1911134493986717
 20
0.0846733077856507
 10
0.1902781187400933
 20
0.0842937883303195
 10
0.1864392102052903
 20
0.0840462302892663
 10
0.1845816740557005
 20
0.0837986746357219
 10
0.1844578378200878
 20
0.0821895545313597
 10
0.1859438689551396
 20
0.0819419964903064
 10
0.1879252376480422
 20
0.0818182174697798
 10
0.1912688049327051
 20
0.0816944408367407
  0
LWPOLYLINE
  5
1B21
330
2
100
AcDbEntity
  8
Vista
370
     0
100
AcDbPolyline
 90
        4
 70
   128
 43
0.0
 10
0.1917287005252177
 20
0.0975835176276677
 10
0.1911776345242238
 20
0.0975835176276677
 10
0.1900422690312211
 20
0.0975835176276677
 10
0.1885825160347145
 20
0.097421398028685
  0
LWPOLYLINE
  5
1B23
330
2
100
AcDbEntity
  8
Vista
370
     0
100
AcDbPolyline
 90
        7
 70
   128
 43
0.0
 10
0.1685741145029692
 20
0.09716739617287
 10
0.1723125474504605
 20
0.09716739617287
 10
0.1705788475364727
 20
0.0954344970479811
 10
0.1689689838581081
 20
0.0949393833533835
 10
0.1671114477085076
 20
0.0920924802062389
 10
0.1674829564153561
 20
0.0901120230403182
 10
0.1683498063723448
 20
0.0885029053234435
  0
LWPOLYLINE
  5
1B24
330
2
100
AcDbEntity
  8
Dimensione
 62
     2
100
AcDbPolyline
 90
        3
 70
     0
 43
0.0
 10
0.1691892710249638
 20
0.0964827160145183
 10
0.169818834680943
 20
0.096515801677049
 10
0.1711758743877467
 20
0.096515801677049
  0
LWPOLYLINE
  5
1B26
330
2
100
AcDbEntity
  8
Dimensione
 62
     2
100
AcDbPolyline
 90
        4
 70
     0
 43
0.0
 10
0.161536090904212
 20
0.0873271069710323
 10
0.1627328526181102
 20
0.0870993129187726
 10
0.1645420046387087
 20
0.0863459887237911
 10
0.1659742402277586
 20
0.0852159387521555
  0
LWPOLYLINE
  5
1B28
330
2
100
AcDbEntity
  8
Vista
370
     0
100
AcDbPolyline
 90
        3
 70
   128
 43
0.0
 10
0.163010586667704
 20
0.0893558428757015
 10
0.1636440478805425
 20
0.0889980190180625
 10
0.1633740647871588
 20
0.0896533891264251
  0
LWPOLYLINE
  5
1B29
330
2
100
AcDbEntity
  8
Dimensione
 62
     2
100
AcDbPolyline
 90
        8
 70
     0
 43
0.0
 10
0.1591366877911015
 20
0.0853043906533345
 10
0.1603204937539331
 20
0.0853666035911603
 10
0.1616775334606941
 20
0.0853666035911603
 10
0.1626574224807953
 20
0.0852159387521555
 10
0.1646928649133812
 20
0.0847639442351623
 10
0.1655218936588099
 20
0.0846132793961788
 10
0.1663511566593498
 20
0.0846132793961788
 10
0.1671049895224896
 20
0.084462614557174
  0
LINE
  5
1B2B
330
2
100
AcDbEntity
  8
Vista
 62
     6
100
AcDbLine
 10
0.3853591914840664
 20
0.0677434903552694
 30
0.0
 11
0.3854184907141971
 21
0.1051472783213114
 31
0.0
  0
LINE
  5
1B2C
330
2
100
AcDbEntity
  8
Vista
100
AcDbLine
 10
0.1571191324336509
 20
0.0793920987662516
 30
0.0
 11
0.1917287005252177
 21
0.0793920987662516
 31
0.0
  0
LINE
  5
1B2D
330
2
100
AcDbEntity
  8
Vista
100
AcDbLine
 10
0.1984946368322227
 20
0.0793920987662516
 30
0.0
 11
0.3853660655945504
 21
0.0793920987662516
 31
0.0
  0
VIEWPORT
  5
7B
102
{ACAD_XDICTIONARY
360
1B35
102
}
330
79
100
AcDbEntity
 67
     1
  8
0
100
AcDbViewport
 10
145.330337524414
 20
101.8116638660431
 30
0.0
 40
351.1337450215151
 41
222.1517806396485
 68
     1
 69
     1
 12
145.330337524414
 22
101.8116638660431
 13
0.0
 23
0.0
 14
10.0
 24
10.0
 15
10.0
 25
10.0
 16
0.0
 26
0.0
 36
1.0
 17
0.0
 27
0.0
 37
0.0
 42
50.0
 43
0.0
 44
0.0
 45
222.1517806396485
 50
0.0
 51
0.0
 72
  1000
 90
    32800
  1

281
     0
 71
     1
 74
     0
110
0.0
120
0.0
130
0.0
111
1.0
121
0.0
131
0.0
112
0.0
122
1.0
132
0.0
 79
     0
146
0.0
  0
VIEWPORT
  5
80
102
{ACAD_XDICTIONARY
360
1B37
102
}
330
79
100
AcDbEntity
 67
     1
  8
Sezione
100
AcDbViewport
 10
145.3303314447403
 20
101.8116623163223
 30
0.0
 40
232.5285303115845
 41
162.8986597061157
 68
     2
 69
     2
 12
0.2100067158578973
 22
0.1484909068076998
 13
0.0
 23
0.0
 14
10.0
 24
10.0
 15
10.0
 25
10.0
 16
0.0
 26
0.0
 36
1.0
 17
0.0
 27
0.0
 37
0.0
 42
50.0
 43
0.0
 44
0.0
 45
0.2752830087467564
 50
0.0
 51
0.0
 72
  1000
 90
    32864
  1

281
     0
 71
     1
 74
     0
110
0.0
120
0.0
130
0.0
111
1.0
121
0.0
131
0.0
112
0.0
122
1.0
132
0.0
 79
     0
146
0.0
  0
ENDSEC
  0
SECTION
  2
OBJECTS
  0
DICTIONARY
  5
9
330
0
100
AcDbDictionary
281
     1
  3
ACAD_2007HEADERVARS_RT
350
1B2F
  3
ACAD_COLOR
350
A1
  3
ACAD_GROUP
350
9C
  3
ACAD_LAYOUT
350
78
  3
ACAD_MATERIAL
350
B
  3
ACAD_MLINESTYLE
350
9D
  3
ACAD_PLOTSETTINGS
350
9E
  3
ACAD_PLOTSTYLENAME
350
8
  3
ACAD_TABLESTYLE
350
A2
  3
ACAD_VISUALSTYLE
350
7F
  3
AcDbVariableDictionary
350
A9
  3
AEC_CLASSIFICATION_SYSTEM_DEFS
350
1217
  3
AEC_PROPERTY_SET_DEFS
350
10D
  3
DWGPROPS
350
1B2E
  0
DICTIONARY
  5
1A40
330
96
100
AcDbDictionary
280
     1
281
     1
  0
DICTIONARY
  5
8B
330
8A
100
AcDbDictionary
280
     1
281
     1
  3
ACAD_LAYERFILTERS
360
48D
  3
ACAD_LAYERSTATES
360
8D
  3
ACLYDICTIONARY
360
48C
  0
DICTIONARY
  5
3
330
2
100
AcDbDictionary
280
     1
281
     1
  3
ACAD_SORTENTS
360
A8
  0
DICTIONARY
  5
B6D
330
B69
100
AcDbDictionary
280
     1
281
     1
  3
ACAD_SORTENTS
360
B6E
  0
DICTIONARY
  5
10D6
330
FEB
100
AcDbDictionary
280
     1
281
     1
  0
DICTIONARY
  5
1B42
330
10F
100
AcDbDictionary
280
     1
281
     1
  3
ACAD_MTEXT_RT
360
1B43
  0
DICTIONARY
  5
1B44
330
110
100
AcDbDictionary
280
     1
281
     1
  3
ACAD_MTEXT_RT
360
1B45
  0
DICTIONARY
  5
19AF
330
19A1
100
AcDbDictionary
280
     1
281
     1
  3
ACAD_DIMASSOC
360
19BA
  0
DICTIONARY
  5
19C9
330
19BB
100
AcDbDictionary
280
     1
281
     1
  3
ACAD_DIMASSOC
360
19D4
  0
DICTIONARY
  5
1B35
330
7B
100
AcDbDictionary
280
     1
281
     1
  3
ACAD_XREC_ROUNDTRIP
360
1B36
  0
DICTIONARY
  5
1B37
330
80
100
AcDbDictionary
280
     1
281
     1
  3
ACAD_XREC_ROUNDTRIP
360
1B38
  0
DICTIONARY
  5
1B2F
102
{ACAD_REACTORS
330
9
102
}
330
9
100
AcDbDictionary
281
     1
  3
DIMFXL
350
1B30
  0
DICTIONARY
  5
A1
102
{ACAD_REACTORS
330
9
102
}
330
9
100
AcDbDictionary
281
     1
  0
DICTIONARY
  5
9C
102
{ACAD_REACTORS
330
9
102
}
330
9
100
AcDbDictionary
281
     1
  0
DICTIONARY
  5
78
102
{ACAD_REACTORS
330
9
102
}
330
9
100
AcDbDictionary
281
     1
  3
Layout1
350
82
  3
Layout2
350
89
  3
Model
350
77
  0
DICTIONARY
  5
B
102
{ACAD_REACTORS
330
9
102
}
330
9
100
AcDbDictionary
281
     1
  3
ByBlock
350
A0
  3
ByLayer
350
9F
  3
Global
350
A
  0
DICTIONARY
  5
9D
102
{ACAD_REACTORS
330
9
102
}
330
9
100
AcDbDictionary
281
     1
  3
Standard
350
A3
  0
DICTIONARY
  5
9E
102
{ACAD_REACTORS
330
9
102
}
330
9
100
AcDbDictionary
281
     1
  0
ACDBDICTIONARYWDFLT
  5
8
102
{ACAD_REACTORS
330
9
102
}
330
9
100
AcDbDictionary
281
     1
  3
Normal
350
7
100
AcDbDictionaryWithDefault
340
7
  0
DICTIONARY
  5
A2
102
{ACAD_REACTORS
330
9
102
}
330
9
100
AcDbDictionary
281
     1
  3
Standard
350
A4
  0
DICTIONARY
  5
7F
102
{ACAD_REACTORS
330
9
102
}
330
9
100
AcDbDictionary
281
     1
  3
2dWireframe
350
7E
  3
3D Hidden
350
D8
  3
3dWireframe
350
A6
  3
Basic
350
D7
  3
Brighten
350
DB
  3
ColorChange
350
DF
  3
Conceptual
350
D9
  3
Dim
350
DA
  3
Facepattern
350
DE
  3
Flat
350
D3
  3
FlatWithEdges
350
D4
  3
Gouraud
350
D5
  3
GouraudWithEdges
350
D6
  3
Linepattern
350
DD
  3
Realistic
350
A5
  3
Thicken
350
DC
  0
DICTIONARY
  5
A9
102
{ACAD_REACTORS
330
9
102
}
330
9
100
AcDbDictionary
281
     1
  3
CTABLESTYLE
350
AA
  3
DIMASSOC
350
AE
  3
HIDETEXT
350
AD
  3
INDEXCTL
350
AC
  3
PROJECTNAME
350
16A
  3
SORTENTS
350
AB
  0
DICTIONARY
  5
1217
102
{ACAD_REACTORS
330
9
102
}
330
9
100
AcDbDictionary
281
     1
  0
DICTIONARY
  5
10D
102
{ACAD_REACTORS
330
9
102
}
330
9
100
AcDbDictionary
281
     1
  0
XRECORD
  5
1B2E
102
{ACAD_REACTORS
330
9
102
}
330
9
100
AcDbXrecord
280
     1
  1
DWGPROPS COOKIE
  2

  3

  4

  6

  7

  8
Simone
  9

300
=
301
=
302
=
303
=
304
=
305
=
306
=
307
=
308
=
309
=
 40
0.8663353819444445
 41
2454297.583735706
 42
2454434.364692199
  1

 90
        0
  0
DICTIONARY
  5
48D
102
{ACAD_REACTORS
330
8B
102
}
330
8B
100
AcDbDictionary
281
     1
  0
DICTIONARY
  5
8D
102
{ACAD_REACTORS
330
8B
102
}
330
8B
100
AcDbDictionary
281
     1
  0
DICTIONARY
  5
48C
102
{ACAD_REACTORS
330
8B
102
}
330
8B
100
AcDbDictionary
281
     1
1001
ACAD
1000
<All
  0
SORTENTSTABLE
  5
A8
102
{ACAD_REACTORS
330
3
102
}
330
3
100
AcDbSortentsTable
330
2
331
1AF6
  5
1AF6
331
1ADE
  5
1AE4
331
19E9
  5
19E9
331
1AFA
  5
1AFA
331
1AE2
  5
1AE2
331
19ED
  5
19ED
331
1B0E
  5
1B14
331
1AFE
  5
1AFE
331
198E
  5
198E
331
1956
  5
1958
331
22
  5
23
331
1B02
  5
1B02
331
1AEA
  5
1AEA
331
1CA
  5
1CA
331
1B16
  5
1B22
331
1B06
  5
1B06
331
1AEE
  5
1AEE
331
12
  5
16
331
1B1A
  5
1B26
331
16
  5
12
331
19F2
  5
19F2
331
1E
  5
1F
331
1B26
  5
1B19
331
1947
  5
1947
331
1AF3
  5
1AF3
331
1ADB
  5
1ADB
331
1963
  5
1965
331
19E6
  5
19E6
331
182B
  5
182B
331
194B
  5
194C
331
1AF7
  5
1AF7
331
1ADF
  5
1AE5
331
19EA
  5
19EA
331
1B0B
  5
1B0F
331
1AFB
  5
1AFB
331
198B
  5
1984
331
19EE
  5
19EE
331
1953
  5
1955
331
1B0F
  5
1B15
331
1AFF
  5
1AFF
331
1AE7
  5
1AE1
331
1957
  5
1959
331
23
  5
24
331
1B03
  5
1B03
331
1AEB
  5
1AEB
331
1983
  5
1987
331
27
  5
27
331
1B17
  5
1B23
331
1B07
  5
1B07
331
1AEF
  5
1AEF
331
13
  5
D
331
19BB
  5
19BB
331
17
  5
17
331
1B1F
  5
1B27
331
10F
  5
10F
331
1B23
  5
1B0E
331
19F3
  5
19F3
331
1F
  5
21
331
1AF0
  5
1AF0
331
1960
  5
1962
331
1AF4
  5
1AF4
331
1964
  5
1966
331
19E7
  5
19E7
331
182C
  5
182C
331
1B08
  5
1B08
331
1AF8
  5
1AF8
331
1AE0
  5
1AE6
331
19EB
  5
19EB
331
1988
  5
198A
331
110
  5
110
331
1B0C
  5
1B11
331
1AFC
  5
1AFC
331
198C
  5
1982
331
19EF
  5
19EF
331
1954
  5
1956
331
197C
  5
197E
331
1B28
  5
1B0B
331
1B10
  5
1B16
331
1B00
  5
1B00
331
1AE8
  5
1AE8
331
1958
  5
195A
331
1980
  5
1981
331
24
  5
18
331
1B14
  5
1B1E
331
1B04
  5
1B04
331
1AEC
  5
1AEC
331
1984
  5
1989
331
10
  5
14
331
1B18
  5
1B24
331
14
  5
10
331
1B1C
  5
1B28
331
19F0
  5
19F0
331
1B24
  5
1B20
331
19F4
  5
19F4
331
1945
  5
1945
331
1AF1
  5
1AF1
331
1949
  5
194A
331
1961
  5
1963
331
1AF5
  5
1AF5
331
1ADD
  5
1AE3
331
19E8
  5
19E8
331
1B09
  5
1B09
331
1AF9
  5
1AF9
331
1AE1
  5
1AE7
331
19EC
  5
19EC
331
1989
  5
1988
331
1B0D
  5
1B13
331
21
  5
22
331
1AFD
  5
1AFD
331
1AE5
  5
1ADF
331
198D
  5
194D
331
1955
  5
1957
331
1B29
  5
1B1C
331
1B11
  5
1B17
331
25
  5
25
331
1B01
  5
1B01
331
1AE9
  5
1AE9
331
1959
  5
195B
331
1981
  5
1983
331
D
  5
13
331
1B15
  5
1B21
331
1B05
  5
1B05
331
1AED
  5
1AED
331
11
  5
15
331
195D
  5
195F
331
1B19
  5
1B25
331
15
  5
11
331
1B1D
  5
1B29
331
1B21
  5
1B12
331
19F1
  5
19F1
331
19A1
  5
19A1
331
1D
  5
1E
331
19F5
  5
19F5
331
1946
  5
1946
331
1AF2
  5
1AF2
331
1ADA
  5
1ADA
331
1962
  5
1964
331
182A
  5
182A
331
194A
  5
194B
  0
SORTENTSTABLE
  5
B6E
102
{ACAD_REACTORS
330
B6D
102
}
330
B6D
100
AcDbSortentsTable
330
B69
  0
XRECORD
  5
1B43
102
{ACAD_REACTORS
330
1B42
102
}
330
1B42
100
AcDbXrecord
280
     1
 40
7955300.0
  1
\pt0.09;{\fTimes New Roman|b0|i0|c238|p18;\H1.6x;\C4;Bovelacci\P\H0.4375x;\T0.95;via del Commercio, 5  47100 Forli - Italy  \fTimes New Roman|b0|i0|c0|p18;\P\fTimes New Roman|b0|i0|c238|p18;tel.+39-0543721386  fax +39-0543721127\fTimes New Roman|b0|i
  1
0|c0|p18; \fTimes New Roman|b0|i0|c238|p18;www.bovelacci.it\fTimes New Roman|b0|i0|c0|p18; \fTimes New Roman|b0|i0|c238|p18;e-mail: bovelacci@bovelacci\fTimes New Roman|b0|i0|c0|p18;.it}
  0
XRECORD
  5
1B45
102
{ACAD_REACTORS
330
1B44
102
}
330
1B44
100
AcDbXrecord
280
     1
 40
21861278.0
  1
{\fArial|b0|i0|c0|p34;\H1.25x;Le caratteristiche tecniche indicate vengono fornite a titolo indicativo e potranno essere modificate senza preavviso. Non devono quindi essere considerate a scopo di specifica.\P\fArial|b0|i1|c0|p34;The given values are
  1
 indicative and can be changed without notice. They cannot be considered like a state.\PThis lealfet and designs embodied within are protected by copyright law and international treaties. Unauthorized repro- duction of the leaflet or any portion of i
  1
t or reproduction of any of the designs embodied therein may result in severe civil penalties and will be prosecuted to the maximum.\PAll right reserved, Bovelacci Forlì Italy.}
  0
DIMASSOC
  5
19BA
102
{ACAD_REACTORS
330
19AF
102
}
330
19AF
100
AcDbDimAssoc
330
19A1
 90
        2
 70
     0
 71
     0
  1
AcDbOsnapPointRef
 72
     1
331
197C
 73
     2
 91
       15
 40
1.0
 10
0.0
 20
0.0
 30
2.000000000000000E+50
 75
     0
  0
DIMASSOC
  5
19D4
102
{ACAD_REACTORS
330
19C9
102
}
330
19C9
100
AcDbDimAssoc
330
19BB
 90
        1
 70
     0
 71
     0
  1
AcDbOsnapPointRef
 72
     1
331
197C
 73
     2
 91
       18
 40
1.0
 10
0.0
 20
0.0
 30
2.000000000000000E+50
 75
     0
  0
XRECORD
  5
1B36
102
{ACAD_REACTORS
330
1B35
102
}
330
1B35
100
AcDbXrecord
280
     1
102
SHADEPLOT
 70
     0
  0
XRECORD
  5
1B38
102
{ACAD_REACTORS
330
1B37
102
}
330
1B37
100
AcDbXrecord
280
     1
102
SHADEPLOT
 70
     0
  0
XRECORD
  5
1B30
102
{ACAD_REACTORS
330
1B2F
102
}
330
1B2F
100
AcDbXrecord
280
     1
 40
0.18
  0
LAYOUT
  5
82
102
{ACAD_XDICTIONARY
360
83
102
}
102
{ACAD_REACTORS
330
78
102
}
330
78
100
AcDbPlotSettings
  1

  2
C:\Documents and Settings\All Users\Dati applicazioni\Autodesk\ADT 2006\enu\Plotters\Default Windows System Printer.pc3
  4
A4
  6

 40
3.174999952316281
 41
3.174999952316281
 42
3.175003051757812
 43
3.17498779296875
 44
209.9733276367186
 45
297.0106506347656
 46
0.0
 47
0.0
 48
0.0
 49
0.0
140
0.0
141
0.0
142
1.0
143
1.0
 70
   688
 72
     1
 73
     1
 74
     5
  7

 75
    16
147
1.0
148
0.0
149
0.0
100
AcDbLayout
  1
Layout1
 70
     1
 71
     1
 10
-3.17498779296875
 20
-3.174999952316281
 11
293.8356628417969
 21
206.7983276844024
 12
0.0
 22
0.0
 32
0.0
 14
29.06606628894805
 24
20.36233246326446
 34
0.0
 15
261.5945966005325
 25
183.2609921693802
 35
0.0
146
0.0
 13
0.0
 23
0.0
 33
0.0
 16
1.0
 26
0.0
 36
0.0
 17
0.0
 27
1.0
 37
0.0
 76
     0
330
79
331
7B
1001
ACAD_PSEXT
1000
C:\Documents and Settings\All Users\Dati applicazioni\Autodesk\ADT 2006\enu\Plotters\Default Windows System Printer.pc3
1000
Microsoft Office Document Image Writer Driver
1000
Microsoft Document Imaging Writer Port:
1000

1070
     0
  0
LAYOUT
  5
89
102
{ACAD_XDICTIONARY
360
1B3A
102
}
102
{ACAD_REACTORS
330
78
102
}
330
78
100
AcDbPlotSettings
  1

  2
C:\Documents and Settings\All Users\Dati applicazioni\Autodesk\ADT 2006\enu\Plotters\Default Windows System Printer.pc3
  4

  6

 40
0.0
 41
0.0
 42
0.0
 43
0.0
 44
0.0
 45
0.0
 46
0.0
 47
0.0
 48
0.0
 49
0.0
140
0.0
141
0.0
142
1.0
143
1.0
 70
   688
 72
     0
 73
     0
 74
     5
  7

 75
    16
147
1.0
148
0.0
149
0.0
100
AcDbLayout
  1
Layout2
 70
     1
 71
     2
 10
0.0
 20
0.0
 11
12.0
 21
9.0
 12
0.0
 22
0.0
 32
0.0
 14
0.0
 24
0.0
 34
0.0
 15
0.0
 25
0.0
 35
0.0
146
0.0
 13
0.0
 23
0.0
 33
0.0
 16
1.0
 26
0.0
 36
0.0
 17
0.0
 27
1.0
 37
0.0
 76
     0
330
86
  0
LAYOUT
  5
77
102
{ACAD_XDICTIONARY
360
1B33
102
}
102
{ACAD_REACTORS
330
78
102
}
330
78
100
AcDbPlotSettings
  1

  2
C:\Documents and Settings\All Users\Dati applicazioni\Autodesk\ADT 2006\enu\Plotters\Default Windows System Printer.pc3
  4

  6

 40
0.0
 41
0.0
 42
0.0
 43
0.0
 44
0.0
 45
0.0
 46
0.0
 47
0.0
 48
0.0
 49
0.0
140
0.0
141
0.0
142
1.0
143
1.0
 70
  1712
 72
     0
 73
     0
 74
     0
  7

 75
     0
147
1.0
148
0.0
149
0.0
100
AcDbLayout
  1
Model
 70
     1
 71
     0
 10
0.0
 20
0.0
 11
12.0
 21
9.0
 12
0.0
 22
0.0
 32
0.0
 14
0.0
 24
0.0
 34
0.0
 15
0.0
 25
0.0
 35
0.0
146
0.0
 13
0.0
 23
0.0
 33
0.0
 16
1.0
 26
0.0
 36
0.0
 17
0.0
 27
1.0
 37
0.0
 76
     0
330
2
331
19D6
  0
MATERIAL
  5
A0
102
{ACAD_XDICTIONARY
360
1B3E
102
}
102
{ACAD_REACTORS
330
B
102
}
330
B
100
AcDbMaterial
  1
ByBlock
  0
MATERIAL
  5
9F
102
{ACAD_XDICTIONARY
360
1B3C
102
}
102
{ACAD_REACTORS
330
B
102
}
330
B
100
AcDbMaterial
  1
ByLayer
  0
MATERIAL
  5
A
102
{ACAD_XDICTIONARY
360
1B31
102
}
102
{ACAD_REACTORS
330
B
102
}
330
B
100
AcDbMaterial
  1
Global
  0
MLINESTYLE
  5
A3
102
{ACAD_REACTORS
330
9D
102
}
330
9D
100
AcDbMlineStyle
  2
STANDARD
 70
     0
  3

 62
   256
 51
90.0
 52
90.0
 71
     2
 49
0.5
 62
   256
  6
BYLAYER
 49
-0.5
 62
   256
  6
BYLAYER
  0
ACDBPLACEHOLDER
  5
7
102
{ACAD_REACTORS
330
8
102
}
330
8
  0
TABLESTYLE
  5
A4
102
{ACAD_XDICTIONARY
360
1B40
102
}
102
{ACAD_REACTORS
330
A2
102
}
330
A2
100
AcDbTableStyle
  3
Standard
 70
     0
 71
     0
 40
1.5
 41
1.5
280
     0
281
     0
  7
Standard
140
4.5
170
     2
 62
     0
 63
     7
283
     0
274
    -2
284
     1
 64
     0
275
    -2
285
     1
 65
     0
276
    -2
286
     1
 66
     0
277
    -2
287
     1
 67
     0
278
    -2
288
     1
 68
     0
279
    -2
289
     1
 69
     0
  7
Standard
140
6.0
170
     5
 62
     0
 63
     7
283
     0
274
    -2
284
     1
 64
     0
275
    -2
285
     1
 65
     0
276
    -2
286
     1
 66
     0
277
    -2
287
     1
 67
     0
278
    -2
288
     1
 68
     0
279
    -2
289
     1
 69
     0
  7
Standard
140
4.5
170
     5
 62
     0
 63
     7
283
     0
274
    -2
284
     1
 64
     0
275
    -2
285
     1
 65
     0
276
    -2
286
     1
 66
     0
277
    -2
287
     1
 67
     0
278
    -2
288
     1
 68
     0
279
    -2
289
     1
 69
     0
  0
VISUALSTYLE
  5
7E
102
{ACAD_REACTORS
330
7F
102
}
330
7F
100
AcDbVisualStyle
  2
2dWireframe
 70
     4
 71
     0
 72
     2
 73
     0
 90
        0
 40
-0.6
 41
-30.0
 62
     5
 63
     7
 74
     1
 91
        4
 64
     7
 65
   257
 75
     1
175
     1
 42
1.0
 92
        0
 66
   257
 43
1.0
 76
     1
 77
     6
 78
     2
 67
     7
 79
     5
170
     0
171
     0
290
     0
174
     0
 93
        1
 44
0.0
173
     0
291
     0
 45
0.0
1001
ACAD
1000
AcDbSavedByObjectVersion
1070
     0
1000
AcDbSavedByObjectVersion
1070
     0
1000
AcDbSavedByObjectVersion
1070
     0
1000
AcDbSavedByObjectVersion
1070
     0
  0
VISUALSTYLE
  5
D8
102
{ACAD_REACTORS
330
7F
102
}
330
7F
100
AcDbVisualStyle
  2
3D Hidden
 70
     6
 71
     1
 72
     2
 73
     2
 90
        0
 40
-0.6
 41
-30.0
 62
     5
 63
     7
 74
     2
 91
        2
 64
     7
 65
   257
 75
     2
175
     1
 42
40.0
 92
        0
 66
   257
 43
1.0
 76
     1
 77
     6
 78
     2
 67
     7
 79
     3
170
     0
171
     0
290
     0
174
     0
 93
        1
 44
0.0
173
     0
291
     0
 45
0.0
1001
ACAD
1000
AcDbSavedByObjectVersion
1070
     0
1000
AcDbSavedByObjectVersion
1070
     0
1000
AcDbSavedByObjectVersion
1070
     0
  0
VISUALSTYLE
  5
A6
102
{ACAD_REACTORS
330
7F
102
}
330
7F
100
AcDbVisualStyle
  2
3dWireframe
 70
     5
 71
     0
 72
     2
 73
     0
 90
        0
 40
-0.6
 41
-30.0
 62
     5
 63
     7
 74
     1
 91
        4
 64
     7
 65
   257
 75
     1
175
     1
 42
1.0
 92
        0
 66
   257
 43
1.0
 76
     1
 77
     6
 78
     2
 67
     7
 79
     5
170
     0
171
     0
290
     0
174
     0
 93
        1
 44
0.0
173
     0
291
     0
 45
0.0
1001
ACAD
1000
AcDbSavedByObjectVersion
1070
     0
1000
AcDbSavedByObjectVersion
1070
     0
1000
AcDbSavedByObjectVersion
1070
     0
1000
AcDbSavedByObjectVersion
1070
     0
  0
VISUALSTYLE
  5
D7
102
{ACAD_REACTORS
330
7F
102
}
330
7F
100
AcDbVisualStyle
  2
Basic
 70
     7
 71
     1
 72
     0
 73
     1
 90
        0
 40
-0.6
 41
-30.0
 62
     5
 63
     7
 74
     0
 91
        4
 64
     7
 65
   257
 75
     1
175
     1
 42
1.0
 92
        8
 66
     7
 43
1.0
 76
     1
 77
     6
 78
     2
 67
     7
 79
     5
170
     0
171
     0
290
     0
174
     0
 93
        1
 44
0.0
173
     0
291
     1
 45
0.0
1001
ACAD
1000
AcDbSavedByObjectVersion
1070
     0
1000
AcDbSavedByObjectVersion
1070
     0
1000
AcDbSavedByObjectVersion
1070
     0
  0
VISUALSTYLE
  5
DB
102
{ACAD_REACTORS
330
7F
102
}
330
7F
100
AcDbVisualStyle
  2
Brighten
 70
    12
 71
     2
 72
     2
 73
     0
 90
        0
 40
-0.6
 41
-30.0
 62
     5
 63
     7
 74
     1
 91
        4
 64
     7
 65
   257
 75
     1
175
     1
 42
1.0
 92
        8
 66
     7
 43
1.0
 76
     1
 77
     6
 78
     2
 67
     7
 79
     5
170
     0
171
     0
290
     0
174
     0
 93
        1
 44
50.0
173
     0
291
     1
 45
0.0
1001
ACAD
1000
AcDbSavedByObjectVersion
1070
     0
1000
AcDbSavedByObjectVersion
1070
     0
1000
AcDbSavedByObjectVersion
1070
     0
  0
VISUALSTYLE
  5
DF
102
{ACAD_REACTORS
330
7F
102
}
330
7F
100
AcDbVisualStyle
  2
ColorChange
 70
    16
 71
     2
 72
     2
 73
     3
 90
        0
 40
-0.6
 41
-30.0
 62
     5
 63
     8
 74
     1
 91
        4
 64
     7
 65
   257
 75
     1
175
     1
 42
1.0
 92
        8
 66
     8
 43
1.0
 76
     1
 77
     6
 78
     2
 67
     7
 79
     5
170
     0
171
     0
290
     0
174
     0
 93
        1
 44
0.0
173
     0
291
     1
 45
0.0
1001
ACAD
1000
AcDbSavedByObjectVersion
1070
     0
1000
AcDbSavedByObjectVersion
1070
     0
1000
AcDbSavedByObjectVersion
1070
     0
  0
VISUALSTYLE
  5
D9
102
{ACAD_REACTORS
330
7F
102
}
330
7F
100
AcDbVisualStyle
  2
Conceptual
 70
     9
 71
     3
 72
     2
 73
     0
 90
        0
 40
-0.6
 41
-30.0
 62
     5
 63
     7
 74
     2
 91
        2
 64
     7
 65
   257
 75
     1
175
     1
 42
40.0
 92
        8
 66
     7
 43
1.0
 76
     1
 77
     6
 78
     2
 67
     7
 79
     3
170
     0
171
     0
290
     0
174
     0
 93
        1
 44
0.0
173
     0
291
     0
 45
0.0
1001
ACAD
1000
AcDbSavedByObjectVersion
1070
     0
1000
AcDbSavedByObjectVersion
1070
     0
1000
AcDbSavedByObjectVersion
1070
     0
  0
VISUALSTYLE
  5
DA
102
{ACAD_REACTORS
330
7F
102
}
330
7F
100
AcDbVisualStyle
  2
Dim
 70
    11
 71
     2
 72
     2
 73
     0
 90
        0
 40
-0.6
 41
-30.0
 62
     5
 63
     7
 74
     1
 91
        4
 64
     7
 65
   257
 75
     1
175
     1
 42
1.0
 92
        8
 66
     7
 43
1.0
 76
     1
 77
     6
 78
     2
 67
     7
 79
     5
170
     0
171
     0
290
     0
174
     0
 93
        1
 44
-50.0
173
     0
291
     1
 45
0.0
1001
ACAD
1000
AcDbSavedByObjectVersion
1070
     0
1000
AcDbSavedByObjectVersion
1070
     0
1000
AcDbSavedByObjectVersion
1070
     0
  0
VISUALSTYLE
  5
DE
102
{ACAD_REACTORS
330
7F
102
}
330
7F
100
AcDbVisualStyle
  2
Facepattern
 70
    15
 71
     2
 72
     2
 73
     0
 90
        0
 40
-0.6
 41
-30.0
 62
     5
 63
     7
 74
     1
 91
        4
 64
     7
 65
   257
 75
     1
175
     1
 42
1.0
 92
        8
 66
     7
 43
1.0
 76
     1
 77
     6
 78
     2
 67
     7
 79
     5
170
     0
171
     0
290
     0
174
     0
 93
        1
 44
0.0
173
     0
291
     1
 45
0.0
1001
ACAD
1000
AcDbSavedByObjectVersion
1070
     0
1000
AcDbSavedByObjectVersion
1070
     0
1000
AcDbSavedByObjectVersion
1070
     0
  0
VISUALSTYLE
  5
D3
102
{ACAD_REACTORS
330
7F
102
}
330
7F
100
AcDbVisualStyle
  2
Flat
 70
     0
 71
     2
 72
     1
 73
     1
 90
        2
 40
-0.6
 41
30.0
 62
     5
 63
     7
 74
     0
 91
        4
 64
     7
 65
   257
 75
     1
175
     1
 42
1.0
 92
        8
 66
     7
 43
1.0
 76
     1
 77
     6
 78
     2
 67
     7
 79
     5
170
     0
171
     0
290
     0
174
     0
 93
       13
 44
0.0
173
     0
291
     1
 45
0.0
1001
ACAD
1000
AcDbSavedByObjectVersion
1070
     0
1000
AcDbSavedByObjectVersion
1070
     0
1000
AcDbSavedByObjectVersion
1070
     0
  0
VISUALSTYLE
  5
D4
102
{ACAD_REACTORS
330
7F
102
}
330
7F
100
AcDbVisualStyle
  2
FlatWithEdges
 70
     1
 71
     2
 72
     1
 73
     1
 90
        2
 40
-0.6
 41
30.0
 62
     5
 63
     7
 74
     1
 91
        4
 64
     7
 65
   257
 75
     1
175
     1
 42
1.0
 92
        0
 66
   257
 43
1.0
 76
     1
 77
     6
 78
     2
 67
     7
 79
     5
170
     0
171
     0
290
     0
174
     0
 93
       13
 44
0.0
173
     0
291
     1
 45
0.0
1001
ACAD
1000
AcDbSavedByObjectVersion
1070
     0
1000
AcDbSavedByObjectVersion
1070
     0
1000
AcDbSavedByObjectVersion
1070
     0
  0
VISUALSTYLE
  5
D5
102
{ACAD_REACTORS
330
7F
102
}
330
7F
100
AcDbVisualStyle
  2
Gouraud
 70
     2
 71
     2
 72
     2
 73
     1
 90
        2
 40
-0.6
 41
30.0
 62
     5
 63
     7
 74
     0
 91
        4
 64
     7
 65
   257
 75
     1
175
     1
 42
1.0
 92
        0
 66
     7
 43
1.0
 76
     1
 77
     6
 78
     2
 67
     7
 79
     5
170
     0
171
     0
290
     0
174
     0
 93
       13
 44
0.0
173
     0
291
     1
 45
0.0
1001
ACAD
1000
AcDbSavedByObjectVersion
1070
     0
1000
AcDbSavedByObjectVersion
1070
     0
1000
AcDbSavedByObjectVersion
1070
     0
  0
VISUALSTYLE
  5
D6
102
{ACAD_REACTORS
330
7F
102
}
330
7F
100
AcDbVisualStyle
  2
GouraudWithEdges
 70
     3
 71
     2
 72
     2
 73
     1
 90
        2
 40
-0.6
 41
30.0
 62
     5
 63
     7
 74
     1
 91
        4
 64
     7
 65
   257
 75
     1
175
     1
 42
1.0
 92
        0
 66
   257
 43
1.0
 76
     1
 77
     6
 78
     2
 67
     7
 79
     5
170
     0
171
     0
290
     0
174
     0
 93
       13
 44
0.0
173
     0
291
     1
 45
0.0
1001
ACAD
1000
AcDbSavedByObjectVersion
1070
     0
1000
AcDbSavedByObjectVersion
1070
     0
1000
AcDbSavedByObjectVersion
1070
     0
  0
VISUALSTYLE
  5
DD
102
{ACAD_REACTORS
330
7F
102
}
330
7F
100
AcDbVisualStyle
  2
Linepattern
 70
    14
 71
     2
 72
     2
 73
     0
 90
        0
 40
-0.6
 41
-30.0
 62
     5
 63
     7
 74
     1
 91
        4
 64
     7
 65
   257
 75
     7
175
     7
 42
1.0
 92
        8
 66
     7
 43
1.0
 76
     1
 77
     6
 78
     2
 67
     7
 79
     5
170
     0
171
     0
290
     0
174
     0
 93
        1
 44
0.0
173
     0
291
     1
 45
0.0
1001
ACAD
1000
AcDbSavedByObjectVersion
1070
     0
1000
AcDbSavedByObjectVersion
1070
     0
1000
AcDbSavedByObjectVersion
1070
     0
  0
VISUALSTYLE
  5
A5
102
{ACAD_REACTORS
330
7F
102
}
330
7F
100
AcDbVisualStyle
  2
Realistic
 70
     8
 71
     2
 72
     2
 73
     0
 90
        0
 40
-0.6
 41
-30.0
 62
     5
 63
     7
 74
     1
 91
        0
 64
     7
 65
   257
 75
     1
175
     1
 42
1.0
 92
        8
 66
     8
 43
1.0
 76
     1
 77
     6
 78
     2
 67
     7
 79
     5
170
     0
171
     0
290
     0
174
     0
 93
       13
 44
0.0
173
     0
291
     0
 45
0.0
1001
ACAD
1000
AcDbSavedByObjectVersion
1070
     0
1000
AcDbSavedByObjectVersion
1070
     0
1000
AcDbSavedByObjectVersion
1070
     0
1000
AcDbSavedByObjectVersion
1070
     0
  0
VISUALSTYLE
  5
DC
102
{ACAD_REACTORS
330
7F
102
}
330
7F
100
AcDbVisualStyle
  2
Thicken
 70
    13
 71
     2
 72
     2
 73
     0
 90
        0
 40
-0.6
 41
-30.0
 62
     5
 63
     7
 74
     1
 91
        4
 64
     7
 65
   257
 75
     1
175
     1
 42
1.0
 92
       12
 66
     7
 43
1.0
 76
     1
 77
     6
 78
     2
 67
     7
 79
     5
170
     0
171
     0
290
     0
174
     0
 93
        1
 44
0.0
173
     0
291
     1
 45
0.0
1001
ACAD
1000
AcDbSavedByObjectVersion
1070
     0
1000
AcDbSavedByObjectVersion
1070
     0
1000
AcDbSavedByObjectVersion
1070
     0
  0
DICTIONARYVAR
  5
AA
102
{ACAD_REACTORS
330
A9
102
}
330
A9
100
DictionaryVariables
280
     0
  1
STANDARD
  0
DICTIONARYVAR
  5
AE
102
{ACAD_REACTORS
330
A9
102
}
330
A9
100
DictionaryVariables
280
     0
  1
2
  0
DICTIONARYVAR
  5
AD
102
{ACAD_REACTORS
330
A9
102
}
330
A9
100
DictionaryVariables
280
     0
  1
1
  0
DICTIONARYVAR
  5
AC
102
{ACAD_REACTORS
330
A9
102
}
330
A9
100
DictionaryVariables
280
     0
  1
0
  0
DICTIONARYVAR
  5
16A
102
{ACAD_REACTORS
330
A9
102
}
330
A9
100
DictionaryVariables
280
     0
  1

  0
DICTIONARYVAR
  5
AB
102
{ACAD_REACTORS
330
A9
102
}
330
A9
100
DictionaryVariables
280
     0
  1
127
  0
DICTIONARY
  5
83
330
82
100
AcDbDictionary
280
     1
281
     1
  3
ACAD_XREC_ROUNDTRIP
360
1B39
  3
ADSK_XREC_LAYOUTTHUMBNAIL
360
84
  0
DICTIONARY
  5
1B3A
330
89
100
AcDbDictionary
280
     1
281
     1
  3
ACAD_XREC_ROUNDTRIP
360
1B3B
  0
DICTIONARY
  5
1B33
330
77
100
AcDbDictionary
280
     1
281
     1
  3
ACAD_XREC_ROUNDTRIP
360
1B34
  0
DICTIONARY
  5
1B3E
330
A0
100
AcDbDictionary
280
     1
281
     1
  3
ACAD_XREC_ROUNDTRIP
360
1B3F
  0
DICTIONARY
  5
1B3C
330
9F
100
AcDbDictionary
280
     1
281
     1
  3
ACAD_XREC_ROUNDTRIP
360
1B3D
  0
DICTIONARY
  5
1B31
330
A
100
AcDbDictionary
280
     1
281
     1
  3
ACAD_XREC_ROUNDTRIP
360
1B32
  0
DICTIONARY
  5
1B40
330
A4
100
AcDbDictionary
280
     1
281
     1
  3
ACAD_XREC_ROUNDTRIP
360
1B41
  0
XRECORD
  5
1B39
102
{ACAD_REACTORS
330
83
102
}
330
83
100
AcDbXrecord
280
     1
102
SHADEPLOT
 70
     0
102
SHADEPLOTRESLEVEL
 70
     2
102
SHADEPLOTCUSTOMDPI
 70
   300
  0
XRECORD
  5
84
102
{ACAD_REACTORS
330
83
102
}
330
83
100
AcDbXrecord
280
     1
310
28000000B40000007F00000001000800000000004C59000000000000000000000001000000000000FFFFFF0000000000FFFFFF000000000000000000000000000000000000000000000000000000000000000000330000006600000099000000CC000000FF00000000330000333300006633000099330000CC330000FF3300
310
0000660000336600006666000099660000CC660000FF66000000990000339900006699000099990000CC990000FF99000000CC000033CC000066CC000099CC0000CCCC0000FFCC000000FF000033FF000066FF000099FF0000CCFF0000FFFF000000003300330033006600330099003300CC003300FF003300003333003333
310
33006633330099333300CC333300FF33330000663300336633006666330099663300CC663300FF66330000993300339933006699330099993300CC993300FF99330000CC330033CC330066CC330099CC3300CCCC3300FFCC330000FF330033FF330066FF330099FF3300CCFF3300FFFF330000006600330066006600660099
310
006600CC006600FF00660000336600333366006633660099336600CC336600FF33660000666600336666006666660099666600CC666600FF66660000996600339966006699660099996600CC996600FF99660000CC660033CC660066CC660099CC6600CCCC6600FFCC660000FF660033FF660066FF660099FF6600CCFF6600
310
FFFF660000009900330099006600990099009900CC009900FF00990000339900333399006633990099339900CC339900FF33990000669900336699006666990099669900CC669900FF66990000999900339999006699990099999900CC999900FF99990000CC990033CC990066CC990099CC9900CCCC9900FFCC990000FF99
310
0033FF990066FF990099FF9900CCFF9900FFFF99000000CC003300CC006600CC009900CC00CC00CC00FF00CC000033CC003333CC006633CC009933CC00CC33CC00FF33CC000066CC003366CC006666CC009966CC00CC66CC00FF66CC000099CC003399CC006699CC009999CC00CC99CC00FF99CC0000CCCC0033CCCC0066CC
310
CC0099CCCC00CCCCCC00FFCCCC0000FFCC0033FFCC0066FFCC0099FFCC00CCFFCC00FFFFCC000000FF003300FF006600FF009900FF00CC00FF00FF00FF000033FF003333FF006633FF009933FF00CC33FF00FF33FF000066FF003366FF006666FF009966FF00CC66FF00FF66FF000099FF003399FF006699FF009999FF00CC
310
99FF00FF99FF0000CCFF0033CCFF0066CCFF0099CCFF00CCCCFF00FFCCFF0000FFFF0033FFFF0066FFFF0099FFFF00CCFFFF00FFFFFF00000000000D0D0D001A1A1A00282828003535350043434300505050005D5D5D006B6B6B00787878008686860093939300A1A1A100AEAEAE00BBBBBB00C9C9C900D6D6D600E4E4E400
310
F1F1F100FFFFFF0000000000000000000000000000000000000000000000000000000000000000000000000000000000E2E2E2E2E2E2E2E2E2E2E2E2E2E2E2E2E2E2E2E2E2E2E2E2E2E2E2E2E2E2E2E2E2E2E2E2E2E2E2E2E2E2E2E2E2E2E2E2E2E2E2E2E2E2E2E2E2E2E2E2E2E2E2E2E2E2E2E2E2E2E2E2E2E2E2E2E2E2E2
310
E2E2E2E2E2E2E2E2E2E2E2E2E2E2E2E2E2E2E2E2E2E2E2E2E2E2E2E2E2E2E2E2E2E2E2E2E2E2E2E2E2E2E2E2E2E2E2E2E2E2E2E2E2E2E2E2E2E2E2E2E2E2E2E2E2E2E2E2E2E2E2E2E2E2E2E2E2E2E2E2E2E2E2E2E2E2E2E2E2E2E2E2E2E2E2E2E2E2E2E2E2E2F5F5F5F5F5F5F5F5F5F5F5F5F5F5F5F5F5F5F5F5F5F5F5F5F5
310
F5F5F5F5F5F5F5F5F5F5F5F5F5F5F5F5F5F5F5F5F5F5F5F5F5F5F5F5F5F5F5F5F5F5F5F5F5F5F5F5F5F5F5F5F5F5F5F5F5F5F5F5F5F5F5F5F5F5F5F5F5F5F5F5F5F5F5F5F5F5F5F5F5F5F5F5F5F5F5F5F5F5F5F5F5F5F5F5F5F5F5F5F5F5F5F5F5F5F5F5F5F5F5F5F5F5F5F5F5F5F5F5F5F5F5F5F5F5F5F5F5F5F5F5F5F5F5
310
F5F5F5F5F5F5F5F5F5F5F5F5F5F5F5F5F5F5F5F5F5F5F5F5F5F5E2E2F5E2E2E2E2E2E2E2E2E2F5F5F5F5F5F5F5F5F5E2E2E2E2E2E2E2E2E2E2E2E2E2E2E2E2F5F5F5F5F5F5F5F5F5E2E2E2E2E2E2E2E2E2E2E2E2E2E2E2E2F5F5F5F5F5F5F5F5F5E2E2E2E2E2E2E2E2E2E2E2E2E2E2E2E2F5F5F5F5F5F5F5F5F5E2E2E2E2E2
310
E2E2E2E2E2E2E2E2E2E2E2F5F5F5F5F5F5F5F5F5E2E2E2E2E2E2E2E2E2E2E2E2E2E2E2E2F5F5F5F5F5F5F5F5F5E2E2E2E2E2E2E2E2E2E2E2E2E2E2E2E2F5F5F5F5F5F5F5F5F5E2E2E2E2E2E2E2E2F5E2E2F5E2F5F5F5F5F5F5F5F5F5F5F5F5F5F5F5F5F5F5F5F5F5F5F5F5F5F5F5F5F5F5F5F5F5F5F5F5F5F5F5F5F5F5F5F5
310
F5F5F5F5F5F5F5F5F5F5F5F5F5F5F5F5F5F5F5F5F5F5F5F5F5F5F5F5F5F5F5F5F5F5F5F5F5F5F5F5F5F5F5F5F5F5F5F5F5F5F5F5F5F5F5F5F5F5F5F5F5F5F5F5F5F5F5F5F5F5F5F5F5F5F5F5F5F5F5F5F5F5F5F5F5F5F5F5F5F5F5F5F5F5F5F5F5F5F5F5F5F5F5F5F5F5F5F5F5F5F5F5F5F5F5F5F5F5F5F5F5F5F5F5F5F5F5
310
F5F5F5E2F5E2E2F5E2F5F5F5F5F5F5F5F5F5F5F5F5F5F5F5F5F5F5F5F5F5F5F5F5F5F5F5F5F5F5F5F5F5F5F5F5F5F5F5F5F5F5F5F5F5F5F5F5F5F5F5F5F5F5F5F5F5F5F5F5F5F5F5F5F5F5F5F5F5F5F5F5F5F5F5F5F5F5F5F5F5F5F5F5F5F5F5F5F5F5F5F5F5F5F5F5F5F5F5F5F5F5F5F5F5F5F5F5F5F5F5F5F5F5F5F5F5F5
310
F5F5F5F5F5F5F5F5F5F5F5F5F5F5F5F5F5F5F5F5F5F5F5F5F5F5F5F5F5F5F5F5F5F5F5F5F5F5F5F5F5F5F5F5F5F5F5F5F5F5F5F5F5F5F5F5E2F5E2E2F5E2F5F5F5F5F5F5F5F5F5F5F5F5F5F5F5F5F5F5F5F5F5F5F5F5F5F5F5F5F5F5F5F5F5F5F5F5F5F5F5F5F5F5F5F5F5F5F5F5F5F5F5F5F5F5F5F5F5F5F5F5F5F5F5F5F5
310
F5F5F5F5F5F5F5F5F5F5F5F5F5F5F5F5F5F5F5F5F5F5F5F5F5F5F5F5F5F5F5F5F5F5F5F5F5F5F5F5F5F5F5F5F5F5F5F5F5F5F5F5F5F5F5F5F5F5F5F5F5F5F5F5F5F5F5F5F5F5F5F5F5F5F5F5F5F5F5F5F5F5F5F5F5F5F5F5F5F5F5F5F5F5F5F5F5F5F5F5F5F5F5F5F5F5F5F5F5E2F5E2E2F5E2F5F5F5F5F5F5F5F5F5F5F5F5
310
F5F5F5F5F5F5F5F5F5F5F5F5F5F5F5F5F5F5F5F5F5F5F5F5F5F5F5F5F5F5F5F5F5F5F5F5F5F5F5F5F5F5F5F5F5F5F5F5F5F5F5F5F5F5F5F5F5F5F5F5F5F5F5F5F5F5F5F5F5F5F5F5F5F5F5F5F5F5F5F5F5F5F5F5F5F5F5F5F5F5F5F5F5F5F5F5F5F5F5F5F5F5F5F5F5F5F5F5F5F5F5F5F5F5F5F5F5F5F5F5F5F5F5F5F5F5F5
310
F5F5F5F5F5F5F5F5F5F5F5F5F5F5F5F5F5F5F5F5F5F5F5F5F5F5F5F5F5F5F5F5F5F5F5E2F5E2E2F5E2F5F5F5F5F5F5F5F5F5F5F5F5F5F5F5F5F5F5F5F5F5F5F5F5F5F5F5F5F5F5F5F5F5F5F5F5F5F5F5F5F5F5F5F5F5F5F5F5F5F5F5F5F5F5F5F5F5F5F5F5F5F5F5F5F5F5F5F5F5F5F5F5F5F5F5F5F5F5F5F5F5F5F5F5F5F5
310
F5F5F5F5F5F5F5F5F5F5F5F5F5F5F5F5F5F5F5F5F5F5F5F5F5F5F5F5F5F5F5F5F5F5F5F5F5F5F5F5F5F5F5F5F5F5F5F5F5F5F5F5F5F5F5F5F5F5F5F5F5F5F5F5F5F5F5F5F5F5F5F5F5F5F5F5F5F5F5F5F5F5F5F5F5F5F5F5E2F5E2E2F5E2F5F5F5F5F5F5F5F5F5F5F5F5F5F5F5F5F5F5F5F5F5F5F5F5F5F5F5F5F5F5F5F5F5
310
F5F5F5F5F5F5F5F5F5F5F5F5F5F5F5F5F5F5F5F5F5F5F5F5F5F5F5F5F5F5F5F5F5F5F5F5F5F5F5F5F5F5F5F5F5F5F5F5F5F5F5F5F5F5F5F5F5F5F5F5F5F5F5F5F5F5F5F5F5F5F5F5F5F5F5F5F5F5F5F5F5F5F5F5F5F5F5F5F5F5F5F5F5F5F5F5F5F5F5F5F5F5F5F5F5F5F5F5F5F5F5F5F5F5F5F5F5F5F5F5F5F5F5F5F5F5F5
310
F5F5F5F5F5F5F5F5F5F5F5F5F5F5E2F5E2E2F5E2F5F5F5F5F5F5F5F5F5F5F5F5F5F5F5F5F5F5F5F5F5F5F5F5F5F5F5F5F5F5F5F5F5F5F5F5F5F5F5F5F5F5F5F5F5F5F5F5F5F5F5F5F5F5F5F5F5F5F5F5F5F5F5F5F5F5F5F5F5F5F5F5F5F5F5F5F5F5F5F5F5F5F5F5F5F5F5F5F5F5F5F5F5F5F5F5F5F5F5F5F5F5F5F5F5F5F5
310
F5F5F5F5F5F5F5F5F5F5F5F5F5F5F5F5F5F5F5F5F5F5F5F5F5F5F5F5F5F5F5F5F5F5F5F5F5F5F5F5F5F5F5F5F5F5F5F5F5F5F5F5F5F5F5F5F5F5F5F5F5F5F5F5F5F5F5E2F5E2E2F5F5F5F5F5F5F5F5F5F5F5F5F5F5F5F5F5F5F5F5F5F5F5F5F5F5F5F5F5F5F5F5F5F5F5F5F5F5F5F5F5F5F5F5F5F5F5F5F5F5F5F5F5F5F5F5
310
F5F5F5F5F5F5F5F5F5F5F5F5F5F5F5F5F5F5F5F5F5F5F5F5F5F5F5F5F5F5F5F5F5F5F5F5F5F5F5F5F5F5F5F5F5F5F5F5F5F5F5F5F5F5F5F5F5F5F5F5F5F5F5F5F5F5F5F5F5F5F5F5F5F5F5F5F5F5F5F5F5F5F5F5F5F5F5F5F5F5F5F5F5F5F5F5F5F5F5F5F5F5F5F5F5F5F5F5F5F5F5F5F5F5F5F5F5F5F5F5F5F5E2E2F5F5F5
310
F5F5F5F5F5F5F5F5F5F5F5F5F5F5F5F5F5F5F5F5F5F5F5F5F5F5F5F5F5F5F5F5F5F5F5F5F5F5F5F5F5F5F5F5F5F5F5F5F5F5F5F5F5F5F5F5F5F5F5F5F5F5F5F5F5F5F5F5F5F5F5F5F5F5F5F5F5F5F5F5F5F5F5F5F5F5F5F5F5F5F5F5F5F5F5F5F5F5F5F5F5F5F5F5F5F5F5F5F5F5F5F5F5F5F5F5F5F5F5F5F5F5F5F5F5F5F5
310
F5F5F5F5F5F5F5F5F5F5F5F5F5F5F5F5F5F5F5F5F5F5F5F5F5F5F5F5F5F5F5F5F5F5F5F5F5F5F5F5F5F5F5F5F5F5F5F5E2E2F5F5F5F5F5F5F5F5F5F5F5F5F5F5F5F5F5F5F5F5F5F5F5F5F5F5F5F5F5F5F5F5F5F5F5F5F5F5F5F5F5F5F5F5F5F5F5F5F5F5F5F5F5F5F5F5F5F5F5F5F5F5F5F5F5F5F5F5F5F5F5F5F5F5F5F5F5
310
F5F5F5F5F5F5F5F5F5F5F5F5F5F5F5F5F5F5F5F5F5F5F5F5F5F5F5F5F5F5F5F5F5F5F5F5F5F5F5F5F5F5F5F5F5F5F5F5F5F5F5F5F5F5F5F5F5F5F5F5F5F5F5F5F5F5F5F5F5F5F5F5F5F5F5F5F5F5F5F5F5F5F5F5F5F5F5F5F5F5F5F5F5F5F5F5F5F5F5F5F5E2E2F5F5F5F5F5F5F5F5F5F5F5F5F5F5F5F5F5F5F5F5F5F5F5F5
310
F5F5F5F5F5F5F5F5F5F5F5F5F5F5F5F5F5F5F5F5F5F5F5F5F5F5F5F5F5F5F5F5F5F5F5F5F5F5F5F5F5F5F5F5F5F5F5F5F5F5F5F5F5F5F5F5F5F5F5F5F5F5F5F5F5F5F5F5F5F5F5F5F5F5F5F5F5F5F5F5F5F5F5F5F5F5F5F5F5F5F5F5F5F5F5F5F5F5F5F5F5F5F5F5F5F5F5F5F5F5F5F5F5F5F5F5F5F5F5F5F5F5F5F5F5F5F5
310
F5F5F5F5F5F5F5F5F5F5F5F5F5F5F5F5F5F5F5F5F5F5F5F5F5F5F5E2E2F5F5F5F5F5F5F5F5F5F5F5F5F5F5F5F5F5F5F5DCDCDCDCDCDCDCDCDCDCDCDCDCDCDCDCDCDCDCDCDCDCDCDCDCDCDCDCDCDCDCDCDCDCDCDCDCDCDCDCDCDCDCDCDCDCDCDCDCDCDCDCDCDCDCDCDCDCDCDCDCDCDCDCDCDCDCDCDCDCDCDCDCDCDCDCDCDCDC
310
DCDCDCDCDCDCDCDCDCDCDCDCDCDCDCDCDCDCDCDCDCDCDCDCDCDCDCDCDCDCDCDCDCDCDCDCDCDCDCDCDCDCDCDCDCDCDCDCDCDCDCDCDCDCDCDCDCDCDCDCDCF5F5F5F5F5F5F5F5F5F5F5F5F5F5F5F5F5F5F5E2E2F5F5F5F5F5F5F5F5F5F5F5F5F5F5F5F5F5F5F5DCDCDCDCDCDCDCDCDCDCDCDCDCDCDCDCDCDCDCDCDCDCDCDCDCDC
310
DCDCDCDCDCDCDCDCDCDCDCDCDCDCDCDCDCDCDCDCDCDCDCDCDCDCDCDCDCDCDCDCDCDCDCDCDCDCDCDCDCDCDCDCDCDCDCDCDCDCDCDCDCDCDCDCDCDCDCDCDCDCDCDCDCDCDCDCDCDCDCDCDCDCDCDCDCDCDCDCDCDCDCDCDCDCDCDCDCDCDCDCDCDCDCDCDCDCDCDCDCDCDCDCDCDCDCDCDCDCDCDCDCDCF5F5F5F5F5F5F5F5F5F5F5F5F5
310
F5F5F5F5F5F5E2E2F5F5F5F5F5F5F5F5F5F5F5F5F5F5F5F5F5F5F5DCF5F5F5F5F5F5F5F5F5F5F5F5F5F5F5F5F5F5F5F5F5F5F5F5F5F5F5F5F5F5F5F5F5F5F5F5F5F5F5F5F5F5F5F5F5F5F5F5F5F5F5F5F5F5F5F5F5F5F5F5F5F5F5F5F5F5F5F5F5F5F5F5F5F5F5F5F5F5F5F5F5F5F5F5F5F5F5F5F5F5F5F5F5F5F5F5F5F5F5
310
F5F5F5F5F5F5F5F5F5F5F5F5F5F5F5F5F5F5F5F5F5F5F5F5F5F5F5F5F5F5F5F5F5F5F5F5F5F5F5DCF5F5F5F5F5F5F5F5F5F5F5F5F5F5F5F5F5F5F5E2E2F5F5F5F5F5F5F5F5F5F5F5F5F5F5F5F5F5F5F5DCF5282828282828282828282828282828282828282828282828282828282828282828282828282828282828282828
310
28282828282828282828282828282828282828282828282828282828282828282828282828282828282828282828282828282828282828282828282828282828282828282828282828282828282828282828282828282828282828F5DCF5F5F5F5F5F5F5F5F5F5F5F5F5F5F5F5F5F5F5E2E2F5F5F5F5F5F5F5F5F5F5F5F5F5
310
F5F5F5F5F5F5DCF5282D2D2D2D2D2D2D2D2D2D2D2D2D2D2D2D2D2D2D2D2DF5F5F5F5F5F5F5F5F5F5F5F5F5F5F5F5F5F5F5F5F5F5F5F5F5F5F5F5F5F5F5F5F5F5F5F5F5F5F5F5F5F5F5F5F528F5F5F5F5F5F5F5F5F5F5F5F5F5F5F5F5F5F5F5F5F5F5F5F5F5F5F5F5F5F5F5F5F5F5F5F5F5F5F5F5F5F5F5F5F5F5F5F5F5F5F5
310
F5F5F5F5F5F5F5F5F5F5F5F5F5F5F5F528F5DCF5F5F5F5F5F5F5F5F5F5F5F5F5F5F5F5F5F5F5E2E2F5E2F5F5F5F5F5F5F5F5F5F5F5F5F5F5F5F5F5DCF5282D2D2D2D2D2D2D2D2D2D2D2D2D2D2D2D2D2D2D2D2D2D2D2D2D2D2D2D2DF5F5F5F5F5F5F5F5F5F5F5F5F5F5F5F5F5F5F5F5F5F5F5F5F5F5F5F5F5F5F5F5F5F5F5F5
310
F528F5F5F5F5F5F5F5F5F5F5F5F5F5F5F5F5F5F5F5F5F5F5F5F5F5F5F5F5F5F5F5F5F5F5F5F5F5F5F5F5F5F5F5F5F5F5F5F5F5F5F5F5F5F5F5F5F5F5F5F5F5F5F5F5F5F5F528F5DCF5F5F5F5F5F5F5F5F5F5F5F5F5F5F5F5F5E2F5E2E2F5E2F5F5F5F5F5F5F5F5F5F5F5F5F5F5F5F5F5DCF5282D2D2D2D2D2D2D2D2D2D2D2D
310
2D2D2D2D2D2D2D2D2D2D2D2D2D2D2D2D2DF5F5F5F5F5F5F5F5F5F5F5F5F5F5F5F5F5F5F5F5F5F5F5F5F5F5F5F5F5F5F5F5F5F5F5F5F528F5F5F5F5F5F5F5F52D2D2D2D2D2D2D2D2D2D2D2D2D2D2D2D2D2D2D2D2D2D2D2D2D2D2D2D2D2D2D2D2D2D2D2D2D2D2D2D2D2D2D2D2D2D2D2D2D2D2DF5F5F5F5F5F5F5F528F5DCF5F5
310
F5F5F5F5F5F5F5F5F5F5F5F5F5F5F5E2F5E2E2F5E2F5F5F5F5F5F5F5F5F5F5F5F5F5F5F5F5F5DCF5282D2D2D2D2D2D2D2D2D2D2D2D2D2D2D2D2D2D2D2D2D2D2D2D2D2D2D2D2D2D2D2D2D2D2D2D2D2D2D2D2D2D2D2D2D2D2D2D2D2D2D2D2D2D2D2D2D2D2D2D2D2D2D2D2D2D28F5F5F5F5F5F5F5F52D2D2D2D2D2D2D2D2D2D2D
310
2D2D2D2D2D2D2D2D2D2D2D2D2D2D2D2D2D2D2D2D2D2D2D2D2D2D2D2D2D2D2D2D2D2D2D2D2D2D2D2DF5F5F5F5F5F5F5F528F5DCF5F5F5F5F5F5F5F5F5F5F5F5F5F5F5F5F5E2F5E2E2F5E2F5F5F5F5F5F5F5F5F5F5F5F5F5F5F5F5F5DCF5282D2D2D2D2D2D2D2D2D2D2D2D2D2D2D2D2D2D2D2D2D2D2D2D2D2D2D2D2D2D2D2D2D
310
2D2D2D2D2D2D2D2D2D2D2D2D2D2D2D2D2D2D2D2D2D2D2D2D2D2D2D2D2DF5F5F5F528F5F5F5F5F5F5F5F5F5F5F5F52D2D2D2D2D2D2D2D2D2D2D2D2D2D2D2D2D2D2D2D2D2D2D2D2D2D2D2D2D2D2D2D2D2D2D2D2D2D2D2D2D2DF5F5F5F5F5F5F5F5F5F5F5F5F528F5DCF5F5F5F5F5F5F5F5F5F5F5F5F5F5F5F5F5E2F5E2E2F5E2
310
F5F5F5F5F5F5F5F5F5F5F5F5F5F5F5F5F5DCF5282D2D2D2D2D2D2D2D2D2D2D2D2D2D2D2D2D2D2D2D2D2D2D2D2D2D2D2D2D2D2D2D2D2D2D2D2D2D2D2D2D2D2D2D2D2D2D2D2D2D2D2D2D2D2D2D2D2D2D2D2D2DF5F5F5F528F5F5F5F5F5F5F5F5F5F5F5F52D2D2D2D2D2D2D2D2D2D2D2D2D2D2D2D2D2D2D2D2D2D2D2D2D2D2D2D
310
2D2D2D2D2D2D2D2D2D2D2D2D2D2DF5F5F5F5F5F5F5F5F5F5F5F5F528F5DCF5F5F5F5F5F5F5F5F5F5F5F5F5F5F5F5F5E2F5E2E2F5E2F5F5F5F5F5F5F5F5F5F5F5F5F5F5F5F5F5DCF5282D2D2D2D2D2D2D2D2D2D2D2D2D2D2D2D2D2D2D2D2D2D2D2D2D2D2D2D2D2D2D2D2D2D2D2D2D2D2D2D2D2D2D2D2D2D2D2D2D2D2D2D2D2D
310
2D2D2D2D2DF5F5F5F5F5F5F528F5F5F5F5F5F5F5F5F5F5F5F5F5F5F5F5F5F5F5F5F5F5F5F5F5F5F5F52D2D2D2D2D2D2D2D2D2DF5F5F5F5F5F5F5F5F5F5F5F5F5F5F5F5F5F5F5F5F5F5F5F5F5F5F5F5F528F5DCF5F5F5F5F5F5F5F5F5F5F5F5F5F5F5F5F5E2F5E2E2F5E2F5F5F5F5F5F5F5F5F5F5F5F5F5F5F5F5F5DCF5282D
310
2D2D2D2D2D2D2D2D2D2D2D2D2D2D2D2D2D2D2D2D2D2D2D2D2D2D2D2D2D2D2DF5F5F5F5F5F5F5F5F5F5F5F5F5F5F5F5F5F5F5F5F5F5F5F5F5F5F5F5F5F5F5F5F5F528F5F5F5F5F5F5F5F5F5F5F5F5F5F5F5F5F5F5F5F5F5F5F5F5F5F5F5F52D2D2D2D2D2D2D2D2D2DF5F5F5F5F5F5F5F5F5F5F5F5F5F5F5F5F5F5F5F5F5F5F5
310
F5F5F5F5F5F528F5DCF5F5F5F5F5F5F5F5F5F5F5F5F5F5F5F5F5E2F5E2E2F5E2F5F5F5F5F5F5F5F5F5F5F5F5F5F5F5F5F5DCF5282D2D2D2D2D2D2D2D2D2D2D2D2D2D2D2D2D2D2D2D2D2D2D2D2D2D2D2D2D2D2D2DF5F5F5F5F5F5F5F5F5F5F5F5F5F5F5F5F5F5F5F5F5F5F5F5F5F5F5F5F5F5F5F5F5F528F5F5F5F5F5F5F5F5
310
F5F5F5F5F5F5F5F5F5F5F5F5F5F5F5F5F5F5F5F52D2D2D2D2D2D2D2D2D2DF5F5F5F5F5F5F5F5F5F5F5F5F5F5F5F5F5F5F5F5F5F5F5F5F5F5F5F5F528F5DCF5F5F5F5F5F5F5F5F5F5F5F5F5F5F5F5F5E2F5E2E2F5E2F5F5F5F5F5F5F5F5F5F5F5F5F5F5F5F5F5DCF5282D2D2D2D2D2D2D2D2D2D2D2D2D2D2D2D2D2D2D2D2D2D
310
2D2D2D2D2D2D2D2D2D2D2D2D2D2D2D2D2D2D2D2D2D2D2D2D2D2D2D2D2D2D2D2D2D2D2D2D2D2D2D2D2D2DF5F528F5F5F5F5F5F5F5F5F5F5F5F5F5F5F5F5F5F5F5F5F5F5F5F5F5F5F5F5F5F5F5F5F5F5F5F5F5F5F5F5F5F5F5F5F5F5F5F5F5F5F5F5F5F5F5F5F5F5F5F5F5F5F5F5F5F5F528F5DCF5F5F5F5F5F5F5F5F5F5F5F5
310
F5F5F5F5F5E2F5E2E2F5E2F5F5F5F5F5F5F5F5F5F5F5F5F5F5F5F5F5DCF528F5F5F5F5F5F5F5F5F5F5F5F5F5F5F5F5F5F5F5F5F5F5F5F5F5F5F5F5F5F5F5F5F5F5F5F5F5F5F5F5F5F5F5F5F5F5F5F5F5F5F5F5F5F5F5F5F5F5F5F5F5F5F5F5F5F528F5F5F5F5F5F5F5F5F5F5F5F5F5F5F5F5F5F5F5F5F5F5F5F5F5F5F5F5F5
310
F5F5F5F5F5F5F5F5F5F5F5F5F5F5F5F5F5F5F5F5F5F5F5F5F5F5F5F5F5F5F5F5F5F5F5F5F5F528F5DCF5F5F5F5F5F5F5F5F5F5F5F5F5F5F5F5F5E2F5E2E2F5E2F5F5F5F5F5F5F5F5F5F5F5F5F5F5F5F5F5DCF52828282828282828282828282828282828282828282828282828282828282828282828282828282828282828
310
2828282828282828282828282828282828282828282828282828282828282828282828282828282828282828282828282828282828282828282828282828282828282828282828282828282828282828282828282828282828282828F5DCF5F5F5F5F5F5F5F5F5F5F5F5F5F5F5F5F5E2F5E2E2F5E2F5F5F5F5F5F5F5F5F5F5
310
F5F5F5F5F5F5F5DCF528F5F5F5F5F5F5F5F5F5F5F5F5F5F5F5F5F5F5F5F5F5F5F5F5F5F5F5F5F5F5F5F5F5F5F5F5F5F5F5F5F5F5F5F5F5F5F5F5F5F5F5F5F5F5F5F5F5F5F5F5F5F5F5F5F5F5F5F5F5F5F5F5F5F5F5F5F5F5F5F5F5F5F5F5F5F5F5F5F5F5F5F5F5F5F5F5F5F5F5F5F5F5F5F5F5F5F5F5F5F5F5F5F5F5F5F5F5
310
F5F5F5F5F5F5F5F5F5F5F5F5F5F5F5F5F528F5DCF5F5F5F5F5F5F5F5F5F5F5F5F5F5F5F5F5E2F5E2E2F5E2F5F5F5F5F5F5F5F5F5F5F5F5F5F5F5F5F5DCF528F5F5F5F5F5F5F5F5F5F5F5F5F5F5F5F5F5F5F5F5F5F5F5F5F5F5F5F5F5F5F5F5F5F5F5F5F5F5F5F5F5F5F5F5F5F5F5F5F5F5F5F5F5F5F5F5F5F5F5F5F5F5F5F5
310
F5F5F5F5F5F5F5F5F5F5F5F5F5F5F5F5F5F5F5F5F5F5F5F5F5F5F5F5F5F5F5F5F5F5F5F5F5F5F5F5F5F5F5F5F5F5F5F5F5F5F5F5F5F5F5F5F5F5F5F5F5F5F5F5F5F5F5F5F5F528F5DCF5F5F5F5F5F5F5F5F5F5F5F5F5F5F5F5F5E2F5E2E2F5E2F5F5F5F5F5F5F5F5F5F5F5F5F5F5F5F5F5DCF528F5F5F5F5F5F5F5F5F5F5F5
310
F5F5F5F5F5F5F5F5F5F5F5F5F5F5F5F5F5F5F5F5F5F5F5F5F5F5F5F5F5F5F5F5F5F5F5F5F5F5F5F5F5F5F5F5F5F5F5F5F5F5F5F5F5F5F5F5F5F5F5F5F5F5F5F5F5F5F5F5F5F5F5F5F5F5F5F5F5F5F5F5F5F5F5F5F5F5F5F5F5F5F5F5F5F5F5F5F5F5F5F5F5F5F5F5F5F5F5F5F5F5F5F5F5F5F5F5F5F5F5F5F5F5F528F5DCF5
310
F5F5F5F5F5F5F5F5F5F5F5F5F5F5F5F5E2F5E2E2F5E2F5F5F5F5F5F5F5F5F5F5F5F5F5F5F5F5F5DCF528F5F5F5F5F5F5F5F5F5F5F5F5F5F5F5F5F5F5F5F5F5F5F5F5F5F5F5F5F5F5F5F5F5F5F5F5F5F5F5F5F5F5F5F5F5F5F5F5F5F5F5F5F5F5F5F5F5F5F5F5F5F5F5F5F5F5F5F5F5F5F5F5F5F5F5F5F5F5F5F5F5F5F5F5F5
310
F5F5F5F5F5F5F5F5F5F5F5F5F5F5F5F5F5F5F5F5F5F5F5F5F5F5F5F5F5F5F5F5F5F5F5F5F5F5F5F5F5F5F5F5F5F5F5F5F528F5DCF5F5F5F5F5F5F5F5F5F5F5F5F5F5F5F5F5E2F5E2E2F5E2F5F5F5F5F5F5F5F5F5F5F5F5F5F5F5F5F5DCF528F5F5F5F5F5F5F5F5F5F5F5F5F5F5F5F5F5F5F5F5F5F5F5F5F5F5F5F5F5F5F5F5
310
F5F5F5F5F5F5F5F5F5F5F5F5F5F5F5F5F5F5F5F5F5F5F5F5F5F5F5F5F5F5F5F5F5F5F5F5F5F5F5F5F5F5F5F5F5F5F5F5F5F5F5F5F5F5F5F5F5F5F5F5F5F5F5F5F5F5F5F5F5F5F5F5F5F5F5F5F5F5F5F5F5F5F5F5F5F5F5F5F5F5F5F5F5F5F5F5F5F5F5F5F5F528F5DCF5F5F5F5F5F5F5F5F5F5F5F5F5F5F5F5F5E2F5E2E2F5
310
F5F5F5F5F5F5F5F5F5F5F5F5F5F5F5F5F5F5DCF528F5F5F5F5F5F5F5F5F5F5F5F5F5F5F5F5F5F5F5F5F5F5F5F5F5F5F5F5F5F5F5F5F5F5F5F5F5F5F5F5F5F5F5F5F5F5F5F5F5F5F5F5F5F5F5F5F5F5F5F5F5F5F5F5F5F5F5F5F5F5F5F5F5F5F5F5F5F5F5F5F5F5F5F5F5F5F5F5F5F5F5F5F5F5F5F5F5F5F5F5F5F5F5F5F5F5
310
F5F5F5F5F5F5F5F5F5F5F5F5F5F5F5F5F5F5F5F5F5F5F5F5F5F5F5F528F5DCF5F5F5F5F5F5F5F5F5F5F5F5F5F5F5F5F5F5F5E2E2F5F5F5F5F5F5F5F5F5F5F5F5F5F5F5F5F5F5F5DCF528F5F5F5F5F5F5F5F5F5F5F5F5F5F5F5F5F5F5F5F5F5F5F5F5F5F5F5F5F5F5F5F5F5F5F5F5F5F5F5F5F5F5F5F5F5F5F5F5F5F5F5F5F5
310
F5F5F5F5F5F5F5F5F5F5F5F5F5F5F5F5F5F5F5F5F5F5F5F5F5F5F5F5F5F5F5F5F5F5F5F5F5F5F5F5F5F5F5F5F5F5F5F5F5F5F5F5F5F5F5F5F5F5F5F5F5F5F5F5F5F5F5F5F5F5F5F5F5F5F5F5F5F5F5F5F528F5DCF5F5F5F5F5F5F5F5F5F5F5F5F5F5F5F5F5F5F5E2E2F5F5F5F5F5F5F5F5F5F5F5F5F5F5F5F5F5F5F5DCF528
310
F5F5F5F5F5F5F5F5F5F5F5F5F5F5F5F5F5F5F5F5F5F5F5F5F5F5F5F5F5F5F5F5F5F5F5F5F5F5F5F5F5F5F5F5F5F5F5F5F5F5F5F5F5F5F5F5F5F5F5F5F5F5F5F5F5F5F5F5F5F5F5F5F5F5F5F5F5F5F5F5F5F5F5F5F5F5F5F5F5F5F5F5F5F5F5F5F5F5F5F5F5F5F5F5F5F5F5F5F5F5F5F5F5F5F5F5F5F5F5F5F5F5F5F5F5F5F5
310
F5F5F5F5F5F5F528F5DCF5F5F5F5F5F5F5F5F5F5F5F5F5F5F5F5F5F5F5E2E2F5F5F5F5F5F5F5F5F5F5F5F5F5F5F5F5F5F5F5DCF528F5F5F5F5F5F5F5F5F5F5F5F5F5F5F5F5F5F5F5F5F5F5F5F5F5F5F5F5F5F5F5F5F5F5F5F5F5F5F5F5F5F5F5F5F5F5F5F5F5F5F5F5F5F5F5F5F5F5F5F5F5F5F5F5F5F5F5F5F5F5F5F5F5F5
310
F5F5F5F5F5F5F5F5F5F5F5F5F5F5F5F5F5F5F5F5F5F5F5F5F5F5F5F5F5F5F5F5F5F5F5F5F5F5F5F5F5F5F5F5F5F5F5F5F5F5F5F5F5F5F5F5F5F5F5F528F5DCF5F5F5F5F5F5F5F5F5F5F5F5F5F5F5F5F5F5F5E2E2F5F5F5F5F5F5F5F5F5F5F5F5F5F5F5F5F5F5F5DCF528F5F5F5F5F5F5F5F5F5F5F5F5F5F5F5F5F5F5F5F5F5
310
F5F5F5F5F5F5F5F5F5F5F5F5F5F5F5F5F5F5F5F5F5F5F5F5F5F5F5F5F5F5F5F5F5F5F5F5F5F5F5F5F5F5F5F5F5F5F5F5F5F5F5F5F5F5F5F5F5F5F5F5F5F5F5F5F5F5F5F5F5F5F5F5F5F5F5F5F5F5F5F5F5F5F5F5F5F5F5F5F5F5F5F5F5F5F5F5F5F5F5F5F5F5F5F5F5F5F5F5F5F5F5F5F528F5DCF5F5F5F5F5F5F5F5F5F5F5
310
F5F5F5F5F5F5F5F5E2E2F5F5F5F5F5F5F5F5F5F5F5F5F5F5F5F5F5F5F5DCF528F5F5F5F5F5F5F5F5F5F5F5F5F5F5F5F5F5F5F5F5F5F5F5F5F5F5F5F5F5F5F5F5F5F5F5F5F5F5F5F5F5F5F5F5F5F5F5F5F5F5F5F5F5F5F5F5F5F5F5F5F5F5F5F5F5F5F5F5F5F5F5F5F5F5F5F5F5F5F5F5F5F5F5F5F5F5F5F5F5F5F5F5F5F5F5
310
F5F5F5F5F5F5F5F5F5F5F5F5F5F5F5F5F5F5F5F5F5F5F5F5F5F5F5F5F5F5F5F5F5F5F5F5F5F5F528F5DCF5F5F5F5F5F5F5F5F5F5F5F5F5F5F5F5F5F5F5E2E2F5F5F5F5F5F5F5F5F5F5F5F5F5F5F5F5F5F5F5DCF528F5F5F5F5F5F5F5F5F5F5F5F5F5F5F5F5F5F5F5F5F5F5F5F5F5F5F5F5F5F5F5F5F5F5F5F5F5F5F5F5F5F5
310
F5F5F5F5F5F5F5F5F5F5F5F5F5F5F5F5F5F5F5F5F5F5F5F5F5F5F5F5F5F5F5F5F5F5F5F5F5F5F5F5F5F5F5F5F5F5F5F5F5F5F5F5F5F5F5F5F5F5F5F5F5F5F5F5F5F5F5F5F5F5F5F5F5F5F5F5F5F5F5F5F5F5F5F5F5F5F5F5F5F5F5F528F5DCF5F5F5F5F5F5F5F5F5F5F5F5F5F5F5F5F5F5F5E2E2F5F5F5F5F5F5F5F5F5F5F5
310
F5F5F5F5F5F5F5F5DCF528F5F5F5F5F5F5F5F5F5F5F5F5F5F5F52D2D2D2D2D2D2D2D2D2DF5F5F5F5F5F5F5F5F5F5F5F5F5F5F5F5F5F5F5F5F5F5F5F5F5F5F5F5F5F5F5F5F5F5F5F5F5F5F5F5F5F5F5F5F5F5F5F5F5F5F5F5F5F5F5F5F5F5F5F5F5F5F5F5F5F5F5F5F5F5F5F5F5F5F5F5F5F5F5F5F5F5F5F5F5F5F5F5F5F5F5
310
F5F5F5F5F5F5F5F5F5F5F5F5F5F5F5F5F5F528F5DCF5F5F5F5F5F5F5F5F5F5F5F5F5F5F5F5F5F5F5E2E2F5E2F5F5F5F5F5F5F5F5F5F5F5F5F5F5F5F5F5DCF528F5F5F5F5F5F5F5F5F5F5F5F5F5F5F52D2D2D2D2D2D2D2D2D2DF5F5F5F5F5F5F5F5F5F5F5F5F5F5F5F5F5F5F5F5F5F5F5F5F5F5F5F5F5F5F5F5F5F5F5F5F5F5
310
F5F5F5F5F5F5F5F5F5F5F5F5F5F5F5F5F5F5F5F5F5F5F5F5F5F5F5F5F5F5F5F5F5F5F5F5F5F5F5F5F5F5F5F5F5F5F5F5F5F5F5F5F5F5F5F5F5F5F5F5F5F5F5F5F5F5F5F5F5F5F528F5DCF5F5F5F5F5F5F5F5F5F5F5F5F5F5F5F5F5E2F5E2E2F5E2F5F5F5F5F5F5F5F5F5F5F5F5F5F5F5F5F5DCF528F5F5F5F5F5F5F5F5F5F5
310
F5F5F5F5F5F5F5F5F5F5F5F5F5F5F5F5F5F5F5F5F5F5F5F5F5F5F5F5F5F5F5F5F5F5F5F5F5F5F5F5F5F5F5F5F5F5F5F5F5F5F5F5F5F5F5F5F5F5F5F5F5F5F5F5F5F5F5F5F5F5F5F5F5F5F5F5F5F5F5F5F5F5F5F5F5F5F5F5F5F5F5F5F5F5F5F5F5F5F5F5F5F5F5F5F5F5F5F5F5F5F5F5F5F5F5F5F5F5F5F5F5F5F5F528F5DC
310
F5F5F5F5F5F5F5F5F5F5F5F5F5F5F5F5F5E2F5E2E2F5E2F5F5F5F5F5F5F5F5F5F5F5F5F5F5F5F5F5DCF528F5F5F5F5F5F5F5F5F5F5F5F5F5F5F5F5F5F5F5F5F5F5F5F5F5F5F5F5F5F5F5F5F5F5F5F5F5F5F5F5F5F5F5F5F5F5F5F5F5F5F5F5F5F5F5F5F5F5F5F5F5F5F5F5F5F5F5F5F5F5F5F5F5F5F5F5F5F5F5F5F5F5F5F5
310
F5F5F5F5F5F5F5F5F5F5F5F5F5F5F5F5F5F5F5F5F5F5F5F5F5F5F5F5F5F5F5F5F5F5F5F5F5F5F5F5F5F5F5F5F5F5F5F5F5F528F5DCF5F5F5F5F5F5F5F5F5F5F5F5F5F5F5F5F5E2F5E2E2F5E2F5F5F5F5F5F5F5F5F5F5F5F5F5F5F5F5F5DCF528F5F5F5F5F5F5F5F5F5F5F5F5F5F5F5F5F5F5F5F5F5F5F5F5F5F5F5F5F5F5F5
310
F5F5F5F5F5F5F5F5F5F5F5F5F5F5F5F5F5F5F5F5F5F5F5F5F5F5F5F5F5F5F5F5F5F5F5F5F5F5F5F5F5F5F5F5F5F5F5F5F5F5F5F5F5F5F5F5F5F5F5F5F5F5F5F5F5F5F5F5F5F5F5F5F5F5F5F5F5F5F5F5F5F5F5F5F5F5F5F5F5F5F5F5F5F5F5F5F5F5F5F5F5F5F528F5DCF5F5F5F5F5F5F5F5F5F5F5F5F5F5F5F5F5E2F5E2E2
310
F5E2F5F5F5F5F5F5F5F5F5F5F5F5F5F5F5F5F5DCF528F5F5F5F5F5F5F5F5F5F5F5F5F5F5F5F5F5F5F5F5F5F5F5F5F5F5F5F5F5F5F5F5F5F5F5F5F5F5F5F5F5F5F5F5F5F5F5F5F5F5F5F5F5F5F5F5F5F5F5F5F5F5F5F5F5F5F5F5F5F5F5F5F5F5F5F5F5F5F5F5F5F5F5F5F5F5F5F5F5F5F5F5F5F5F5F5F5F5F5F5F5F5F5F5F5
310
F5F5F5F5F5F5F5F5F5F5F5F5F5F5F5F5F5F5F5F5F5F5F5F5F5F5F5F5F528F5DCF5F5F5F5F5F5F5F5F5F5F5F5F5F5F5F5F5E2F5E2E2F5E2F5F5F5F5F5F5F5F5F5F5F5F5F5F5F5F5F5DCF528F5F5F5F5F5F5F5F5F5F5F5F5F5F5F5F5F5F5F5F5F5F5F5F5F5F5F5F5F5F5F5F5F5F5F5F5F5F5F5F5F5F5F5F5F5F5F5F5F5F5F5F5
310
F5F5F5F5F5F5F5F5F5F5F5F5F5F5F5F5F5F5F5F5F5F5F5F5F5F5F5F5F5F5F5F5F5F5F5F5F5F5F5F5F5F5F5F5F5F5F5F5F5F5F5F5F5F5F5F5F5F5F5F5F5F5F5F5F5F5F5F5F5F5F5F5F5F5F5F5F5F5F5F5F5F528F5DCF5F5F5F5F5F5F5F5F5F5F5F5F5F5F5F5F5E2F5E2E2F5E2F5F5F5F5F5F5F5F5F5F5F5F5F5F5F5F5F5DCF5
310
28F5F5F5F5F5F5F5F5F5F5F5F5F5F5F5F5F5F5F5F5F5F5F5F5F5F5F5F5F5F5F5F5F5F5F5F5F5F5F5F5F5F5F5F5F5F5F5F5F5F5F5F5F5F5F5F5F5F5F5F5F5F5F5F5F5F5F5F5F5F5F5F5F5F5F5F5F5F5F5F5F5F5F5F5F5F5F5F5F5F5F5F5F5F5F5F5F5F5F5F5F5F5F5F5F5F5F5F5F5F5F5F5F5F5F5F5F5F5F5F5F5F5F5F5F5F5
310
F5F5F5F5F5F5F5F528F5DCF5F5F5F5F5F5F5F5F5F5F5F5F5F5F5F5F5E2F5E2E2F5E2F5F5F5F5F5F5F5F5F5F5F5F5F5F5F5F5F5DCF528F5F5F5F5F5F5F5F5F5F5F5F5F5F5F5F5F5F5F5F5F5F5F5F5F5F5F5F5F5F5F5F5F5F5F5F5F5F5F5F5F5F5F5F5F5F5F5F5F5F5F5F5F5F5F5F5F5F5F5F5F5F5F5F5F5F5F5F5F5F5F5F5F5
310
F5F5F5F5F5F5F5F5F5F5F5F5F5F5F5F5F5F5F5F5F5F5F5F5F5F5F5F5F5F5F5F5F5F5F5F5F5F5F5F5F5F5F5F5F5F5F5F5F5F5F5F5F5F5F5F5F5F5F5F5F528F5DCF5F5F5F5F5F5F5F5F5F5F5F5F5F5F5F5F5E2F5E2E2F5E2F5F5F5F5F5F5F5F5F5F5F5F5F5F5F5F5F5DCF528F5F5F5F5F5F5F5F5F5F5F5F5F5F5F5F5F5F5F5F5
310
F5F5F5F5F5F5F5F5F5F5F5F5F5F5F5F5F5F5F5F5F5F5F5F5F5F5F5F5F5F5F5F5F5F5F5F5F5F5F5F5F5F5F5F5F5F5F5F5F5F5F5F5F5F5F5F5F5F5F5F5F5F5F5F5F5F5F5F5F5F5F5F5F5F5F5F5F5F5F5F5F5F5F5F5F5F5F5F5F5F5F5F5F5F5F5F5F5F5F5F5F5F5F5F5F5F5F5F5F5F5F5F5F5F528F5DCF5F5F5F5F5F5F5F5F5F5
310
F5F5F5F5F5F5F5E2F5E2E2F5E2F5F5F5F5F5F5F5F5F5F5F5F5F5F5F5F5F5DCF528F5F5F5F5F5F5F5F5F5DCF5F5F5F5F5F5F5F5F5F5F5F5F5F5F5F5F5F5F5F5F5F5F5F5F5F5F5F5F5F5F5F5F5F5F5F5F5F5F5F5F5F5F5F5F5F5F5F5F5F5F5F5F5F5F5F5F5F5F5F5F5F5F5F5F5F5F5F5F5F5F5F5F5F5F5F5F5F5F5F5F5F5F5F5
310
F5F5F5F5F5F5F5F5F5F5F5F5F5F5F5F5F5F5F5F5F5F5F5F5F5F5F5F5F5F5F5F5F5F5F5F5F5F5F5F528F5DCF5F5F5F5F5F5F5F5F5F5F5F5F5F5F5F5F5E2F5E2E2F5E2F5F5F5F5F5F5F5F5F5F5F5F5F5F5F5F5F5DCF528F5F5F5F5F5F5F5F50FDCF5F5F5F5F52D2D2D2D2D2D2D2DF5F5F5F5F50FF5F5F5F5F5F5F5F5F5F5F5F5
310
F5F5F5F5F5F5F5F5F5F5F5F5F5F5F5F5F5F5F5F5F5F5F5F5F5F5F5F5F5F5F5F5F5F5F5F5F5F5F5F5F5F5F5F5F5F5F5F5F5F5F5F5F5F5F5F5F5F5F5F5F5F5F5F5F5F5F5F5F5F5F5F5F5F5F5F5F5F5F5F5F5F5F5F5F5F5F5F5F5F5F5F5F528F5DCF5F5F5F5F5F5F5F5F5F5F5F5F5F5F5F5F5E2F5E2E2F5E2F5F5F5F5F5F5F5F5
310
F5F5F5F5F5F5F5F5F5DCF528F5F5F5F5DCF5F5DC0FDC0F0F0F0F0F2D2D2D2D2D2D2D2D0F0F0F0F0F0F0FF5F5F5F5F5F5F5F5F5F5F5F5F5F5F5F5F5F5F5F5F5F5F5F5F5F5F5F5F5F5F5F5F5F5F5F5F5F5F5F5F5F5F5F5F5F5F5F5F5F5F5F5F5F5F5F5F5F5F5F5F5F5F5F5F5F5F5F5F5F5F5F5F5F5F5F5F5F5F5F5F5F5F5F5F5
310
F5F5F5F5F5F5F5F5F5F5F5F5F5F5F5F5F5F5F528F5DCF5F5F5F5F5F5F5F5F5F5F5F5F5F5F5F5F5E2F5E2E2F5E2F5F5F5F5F5F5F5F5F5F5F5F5F5F5F5F5F5DCF528F5F5F5DCF5F5DCF5F5DCF5F5F5F5F5F5F5F5F5F5F5F5F5F5F5F5F5F50FF5F5F5F5F5F5F5F5F5F5F5F5F5F5F5F5F5F5F5F5F5F5F5F5F5F5F5F5F5F5F5F5F5
310
F5F5F5F5F5F5F5F5F5F5F5F5F5F5F5F5F5F5F5F5F5F5F5F5F5F5F5F5F5F5F5F5F5F5F5F5F5F5F5F5F5F5F5F5F5F5F5F5F5F5F5F5F5F5F5F5F5F5F5F5F5F5F5F5F5F5F5F5F5F5F5F528F5DCF5F5F5F5F5F5F5F5F5F5F5F5F5F5F5F5F5E2F5E2E2F5E2F5F5F5F5F5F5F5F5F5F5F5F5F5F5F5F5F5DCF528F5F5F5F5F5DCF5F5DC
310
DCF5F5F5F5F5F5F5F5F5F5F5F5F5F5F5F5F5F50FF5F5F5F5F5F5F5F5F5F5F5F5F5F5F5F5F5F5F5F5F5F5F5F5F5F5F5F5F5F5F5F5F5F5F5F5F5F5F5F5F5F5F5F5F5F5F5F5F5F5F5F5F5F5F5F5F5F5F5F5F5F5F5F5F5F5F5F5F5F5F5F5F5F5F5F5F5F5F5F5F5F5F5F5F5F5F5F5F5F5F5F5F5F5F5F5F5F5F5F5F5F5F5F5F528F5
310
DCF5F5F5F5F5F5F5F5F5F5F5F5F5F5F5F5F5E2F5E2E2F5E2F5F5F5F5F5F5F5F5F5F5F5F5F5F5F5F5F5DCF528F5F5F5F5DCF5F5DCF5DCF5F5F5F5F5F5F5F5F5F5F5F5F5F5F5F5F5F50FF5F5F5F5F5F5F5F5F5F5F5F5F5F5F5F5F5F5F5F5F5F5F5F5F5F5F5F5F5F5F5F5F5F5F5F5F5F5F5F5F5F5F5F5F5F5F5F5F5F5F5F5F5F5
310
F5F5F5F5F5F5F5F5F5F5F5F5F5F5F5F5F5F5F5F5F5F5F5F5F5F5F5F5F5F5F5F5F5F5F5F5F5F5F5F5F5F5F5F5F5F5F5F5F5F5F528F5DCF5F5F5F5F5F5F5F5F5F5F5F5F5F5F5F5F5E2F5E2E2F5E2F5F5F5F5F5F5F5F5F5F5F5F5F5F5F5F5F5DCF528F5F5F5DCF5F5DCF5F5DCF5F5F5F5F5F5F5F5F5F5F5F5F5F5F5F5F5F50FF5
310
F5F5F5F5F5F5F5F5F5F5F5F5F5F5F5F5F5F5F5F5F5F5F5F5F5F5F5F5F5F5F5F5F5F5F5F5F5F5F5F5F5F5F5F5F5F5F5F5F5F5F5F5F5F5F5F5F5F5F5F5F5F5F5F5F5F5F5F5F5F5F5F5F5F5F5F5F5F5F5F5F5F5F5F5F5F5F5F5F5F5F5F5F5F5F5F5F5F5F5F5F5F5F5F528F5DCF5F5F5F5F5F5F5F5F5F5F5F5F5F5F5F5F5E2F5E2
310
E2F5F5F5F5F5F5F5F5F5F5F5F5F5F5F5F5F5F5F5DCF528F5F5F5F5F5DCF5F5F5DC1B0F0F0F0F0F0F0F0F0F0F0F0F0F0F0F0F0F0F0F0F0F0F0F0F0FF5F5F5F5F5F5F5F5F5F5F5F5F5F5F5F5F5F5F5F5F5F5F5F5F5F5F5F5F5F5F5F5F5F5F5F5F5F5F5F5F5F5F5F5F5F5F5F5F5F5F5F5F5F5F5F5F5F5F5F5F5F5F5F5F5F5F5F5
310
F5F5F5F5F5F5F5F5F5F5F5F5F5F5F5F5F5F5F5F5F5F5F5F5F5F5F5F5F5F528F5DCF5F5F5F5F5F5F5F5F5F5F5F5F5F5F5F5F5F5F5E2E2F5F5F5F5F5F5F5F5F5F5F5F5F5F5F5F5F5F5F5DCF528F5F5F5F5DCF5F5F5DCDCBEF5F5F5F5F5F5F5F5F5F5F5F5F5F5F5F5F50FF5F5F5F5F50FF5F5F5F5F5F5F5F5F5F5F5F5F5F5F5F5
310
F5F5F5F5F5F5F5F5F5F5F5F5F5F5F5F5F5F5F5F5F5F5F5F5F5F5F5F5F5F5F5F5F5F5F5F5F5F5F5F5F5F5F5F5F5F5F5F5F5F5F5F5F5F5F5F5F5F5F5F5F5F5F5F5F5F5F5F5F5F5F5F5F5F5F5F5F5F5F5F5F5F5F528F5DCF5F5F5F5F5F5F5F5F5F5F5F5F5F5F5F5F5F5F5E2E2F5F5F5F5F5F5F5F5F5F5F5F5F5F5F5F5F5F5F5DC
310
F528F5F5F5DCF5F5F5DCF5DCF5BEBEF5F5F5F5F5F5F5F5F5F5F5F5F5F5F50FF5F5F5F5F50FF5F5F5F5F5F5F5F5F5F5F5F5F5F5F5F5F5F5F5F5F5F5F5F5F5F5F5F5F5F5F5F5F5F5F5F5F5F5F5F5F5F5F5F5F5F5F5F5F5F5F5F5F5F5F5F5F5F5F5F5F5F5F5F5F5F5F5F5F5F5F5F5F5F5F5F5F5F5F5F5F5F5F5F5F5F5F5F5F5F5
310
F5F5F5F5F5F5F5F5F528F5DCF5F5F5F5F5F5F5F5F5F5F5F5F5F5F5F5F5F5F5E2E2F5F5F5F5F5F5F5F5F5F5F5F5F5F5F5F5F5F5F5DCF528F5F5F5F5F5DCDCF5F5DCF5F5BEBEF5F5F5F5F5F5F5F5F5F5F5F5F5F50FF5F5F5F5F50FF5F5F5F5F5F5F5F5F5F5F5F5F5F5F5F5F5F5F5F5F5F5F5F5F5F5F5F5F5F5F5F5F5F5F5F5F5
310
F5F5F5F5F5F5F5F5F5F5F5F5F5F5F5F5F5F5F5F5F5F5F5F5F5F5F5F5F5F5F5F5F5F5F5F5F5F5F5F5F5F5F5F5F5F5F5F5F5F5F5F5F5F5F5F5F5F5F5F5F5F528F5DCF5F5F5F5F5F5F5F5F5F5F5F5F5F5F5F5F5F5F5E2E2F5F5F5F5F5F5F5F5F5F5F5F5F5F5F5F5F5F5F5DCF528F5F5F5F5DCF5F5F5DCDCF5F5F5BEF5F5F5F5F5
310
F5F5F5F5F5F5F5F5F50FF5F5F5F5F50FF5F5F5F5F5F5F5F5F5F5F5F5F5F5F5F5F5F5F5F5F5F5F5F5F5F5F5F5F5F5F5F5F5F5F5F5F5F5F5F5F5F5F5F5F5F5F5F5F5F5F5F5F5F5F5F5F5F5F5F5F5F5F5F5F5F5F5F5F5F5F5F5F5F5F5F5F5F5F5F5F5F5F5F5F5F5F5F5F5F5F5F5F5F5F5F5F5F5F528F5DCF5F5F5F5F5F5F5F5F5
310
F5F5F5F5F5F5F5F5F5F5E2E2F5F5F5F5F5F5F5F5F5F5F5F5F5F5F5F5F5F5F5DCF528F5F5F5DCF5F5F5DCF5DCF5F5F5BEBEBEF5F5F5F5F5F5F5F5F5F5F5F50FF5F5F5F5F50FF5F5F5F5F5F5F5F5F5F5F5F5F5F5F5F5F5F5F5F5F5F5F5F5F5F5F5F5F5F5F5F5F5F5F5F5F5F5F5F5F5F5F5F5F5F5F5F5F5F5F5F5F5F5F5F5F5F5
310
F5F5F5F5F5F5F5F5F5F5F5F5F5F5F5F5F5F5F5F5F5F5F5F5F5F5F5F5F5F5F5F5F5F5F5F5F5F5F5F5F528F5DCF5F5F5F5F5F5F5F5F5F5F5F5F5F5F5F5F5F5F5E2E2F5F5F5F5F5F5F5F5F5F5F5F5F5F5F5F5F5F5F5DCF528F5F5F5F5F5DCDCF5F5DCF5F5F5F5BEBEF5F5F5F5F5F5F5F5F5F5F5F50FF5F5F5F5F50FF5F5F5F5F5
310
F5F5F5F5F5F5F5F5F5F5F5F5F5F5F5F5F5F5F5F5F5F5F5F5F5F5F5F5F5F5F5F5F5F5F5F5F5F5F5F5F5F5F5F5F5F5F5F5F5F5F5F5F5F5F5F5F5F5F5F5F5F5F5F5F5F5F5F5F5F5F5F5F5F5F5F5F5F5F5F5F5F5F5F5F5F5F5F5F5F5F5F5F5F528F5DCF5F5F5F5F5F5F5F5F5F5F5F5F5F5F5F5F5F5F5E2E2F5F5F5F5F5F5F5F5F5
310
F5F5F5F5F5F5F5F5F5F5DCF528F5F5F5F5DCF5F5F5DCDCF5F5F5F5BEF5F5F5F5F5F5F5F5F5F5F5F5F50FF5F5F5F5F50FF5F5F5F5F5F5F5F5F5F5F5F5F5F5F5F5F5F5F5F5F5F5F5F5F5F5F5F5F5F5F5F5F5F5F5F5F5F5F5F5F5F5F5F5F5F5F5F5F5F5F5F5F5F5F5F5F5F5F5F5F5F5F5F5F5F5F5F5F5F5F5F5F5F5F5F5F5F5F5
310
F5F5F5F5F5F5F5F5F5F5F5F5F5F5F5F5F5F5F5F528F5DCF5F5F5F5F5F5F5F5F5F5F5F5F5F5F5F5F5F5F5E2E2F5F5F5F5F5F5F5F5F5F5F5F5F5F5F5F5F5F5F5DCF528F5F5F5DCF5F5F5DCF5DCF5F5F5F5BEF5F5F5F5F5F5F5F5F5F5F5F5F50FF5F5F5F5F50FF5F5F5F5F5F5F5F5F5F5F5F5F5F5F5F5F5F5F5F5F5F5F5F5F5F5
310
F5F5F5F5F5F5F5F5F5F5F5F5F5F5F5F5F5F5F5F5F5F5F5F5F5F5F5F5F5F5F5F5F5F5F5F5F5F5F5F5F5F5F5F5F5F5F5F5F5F5F5F5F5F5F5F5F5F5F5F5F5F5F5F5F5F5F5F5F5F5F5F5F528F5DCF5F5F5F5F5F5F5F5F5F5F5F5F5F5F5F5F5F5F5E2E2F5E2F5F5F5F5F5F5F5F5F5F5F5F5F5F5F5F5F5DCF528F5F5F5F5F5F5DCF5
310
F5DCBEBEF5F5BEF5F5F5F5F5F5F5F5F5F5F5F5F50FF5F52D2D2D2D2D2D2D2DF5F5F5F5F5F5F5F5F5F5F5F5F5F5F5F5F5F5F5F5F5F5F5F5F5F5F5F5F5F5F5F5F5F5F5F5F5F5F5F5F5F5F5F5F5F5F5F5F5F5F5F5F5F5F5F5F5F5F5F5F5F5F5F5F5F5F5F5F5F5F5F5F5F5F5F5F5F5F5F5F5F5F5F5F5F5F5F5F5F5F5F5F5F5F528
310
F5DCF5F5F5F5F5F5F5F5F5F5F5F5F5F5F5F5F5E2F5E2E2F5E2F5F5F5F5F5F5F5F5F5F5F5F5F5F5F5F5F5DCF528F5F5F5F5F5DCF5F5DCDCF5BEF5F5BEF5F5F5F5F5F5F5F5F5F5F5F5F50FF5F52D2D2D2D2D2D2D2DF5F5F5F5F5F5F5F5F5F5F5F5F5F5F5F5F5F5F5F5F5F5F5F5F5F5F5F5F5F5F5F5F5F5F5F5F5F5F5F5F5F5F5
310
F5F5F5F5F5F5F5F5F5F5F5F5F5F5F5F5F5F5F5F5F5F5F5F5F5F5F5F5F5F5F5F5F5F5F5F5F5F5F5F5F5F5F5F5F5F5F5F5F5F5F5F528F5DCF5F5F5F5F5F5F5F5F5F5F5F5F5F5F5F5F5E2F5E2E2F5E2F5F5F5F5F5F5F5F5F5F5F5F5F5F5F5F5F5DCF528F5F5F5F5DCF5F5DCF5DCF5BEF5F5BEBEF5F5F5F5F5F5F5F5F5F5F5F50F
310
F5F5F5F5F50FF5F5F5F5F5F5F5F5F5F5F5F5F5F5F5F5F5F5F5F5F5F5F5F5F5F5F5F5F5F5F5F5F5F5F5F5F5F5F5F5F5F5F5F5F5F5F5F5F5F5F5F5F5F5F5F5F5F5F5F5F5F5F5F5F5F5F5F5F5F5F5F5F5F5F5F5F5F5F5F5F5F5F5F5F5F5F5F5F5F5F5F5F5F5F5F5F5F5F528F5DCF5F5F5F5F5F5F5F5F5F5F5F5F5F5F5F5F5E2F5
310
E2E2F5E2F5F5F5F5F5F5F5F5F5F5F5F5F5F5F5F5F5DCF528F5F5F5DCF5F5DCF5F5DCF5F5BEF5F5BEF5F5F5F5F5F5F5F5F5F5F5F50FF5F5F5F5F50FF5F5F5F5F5F5F5F5F5F5F5F5F5F5F5F5F5F5F5F5F5F5F5F5F5F5F5F5F5F5F5F5F5F5F5F5F5F5F5F5F5F5F5F5F5F5F5F5F5F5F5F5F5F5F5F5F5F5F5F5F5F5F5F5F5F5F5F5
310
F5F5F5F5F5F5F5F5F5F5F5F5F5F5F5F5F5F5F5F5F5F5F5F5F5F5F5F5F5F5F528F5DCF5F5F5F5F5F5F5F5F5F5F5F5F5F5F5F5F5E2F5E2E2F5E2F5F5F5F5F5F5F5F5F5F5F5F5F5F5F5F5F5DCF528F5F5F5F5F5DCF5F5DCDCF5F5BEF5F5F5BEBEF5F5F5F5BEBEF5F5F5F50FF5F5F5F5F50FF5F5F5F5F5F5F5F5F5F5F5F5F5F5F5
310
F5F5F5F5F5F5F5F5F5F5F5F5F5F5F5F5F5F5F5F5F5F5F5F5F5F5F5F5F5F5F5F5F5F5F5F5F5F5F5F5F5F5F5F5F5F5F5F5F5F5F5F5F5F5F5F5F5F5F5F5F5F5F5F5F5F5F5F5F5F5F5F5F5F5F5F5F5F5F5F5F5F5F5F528F5DCF5F5F5F5F5F5F5F5F5F5F5F5F5F5F5F5F5E2F5E2E2F5E2F5F5F5F5F5F5F5F5F5F5F5F5F5F5F5F5F5
310
DCF528F5F5F5F5DCF5F5DCF5DCF5F5F5BEF5F5F5BEBEBEBEBEF5BEF5F5F5F50FF5F5F5F5F50FF5F5F5F5F5F5F5F5F5F5F5F5F5F5F5F5F5F5F5F5F5F5F5F5F5F5F5F5F5F5F5F5F5F5F5F5F5F5F5F5F5F5F5F5F5F5F5F5F5F5F5F5F5F5F5F5F5F5F5F5F5F5F5F5F5F5F5F5F5F5F5F5F5F5F5F5F5F5F5F5F5F5F5F5F5F5F5F5F5
310
F5F5F5F5F5F5F5F5F5F528F5DCF5F5F5F5F5F5F5F5F5F5F5F5F5F5F5F5F5E2F5E2E2F5E2F5F5F5F5F5F5F5F5F5F5F5F5F5F5F5F5F5DCF528F5F5F5DCF5F5DCF5F5DCF5F5F5F5BEF5F5F5F5F5F5F5F5BEBEF5F5F50FF5F5F5F5F50FF5F5F5F5F5F5F5F5F5F5F5F5F5F5F5F5F5F5F5F5F5F5F5F5F5F5F5F5F5F5F5F5F5F5F5F5
310
F5F5F5F5F5F5F5F5F5F5F5F5F5F5F5F5F5F5F5F5F5F5F5F5F5F5F5F5F5F5F5F5F5F5F5F5F5F5F5F5F5F5F5F5F5F5F5F5F5F5F5F5F5F5F5F5F5F5F5F5F5F5F528F5DCF5F5F5F5F5F5F5F5F5F5F5F5F5F5F5F5F5E2F5E2E2F5E2F5F5F5F5F5F5F5F5F5F5F5F5F5F5F5F5F5DCF528F5F5F5F5F5DCF5F5F5DCF5F5F5F5F5BEBEBE
310
F5F5F5F5F5F5F5BEBEF50FF5F5F5F5F50FF5F5F5F5F5F5F5F5F5F5F5F5F5F5F5F5F5F5F5F5F5F5F5F5F5F5F5F5F5F5F5F5F5F5F5F5F5F5F5F5F5F5F5F5F5F5F5F5F5F5F5F5F5F5F5F5F5F5F5F5F5F5F5F5F5F5F5F5F5F5F5F5F5F5F5F5F5F5F5F5F5F5F5F5F5F5F5F5F5F5F5F5F5F5F5F5F5F5F528F5DCF5F5F5F5F5F5F5F5
310
F5F5F5F5F5F5F5F5F5E2F5E2E2F5E2F5F5F5F5F5F5F5F5F5F5F5F5F5F5F5F5F5DCF528F5F5F5F5DCF5F5F5DCDCF5F5F5F5F5F5F5F5BEBEF5F5F5F5F5F5BEF50FF5F5F5F5F50FF5F5F5F5F5F5F5F5F5F5F5F5F5F5F5F5F5F5F5F5F5F5F5F5F5F5F5F5F5F5F5F5F5F5F5F5F5F5F5F5F5F5F5F5F5F5F5F5F5F5F5F5F5F5F5F5F5
310
F5F5F5F5F5F5F5F5F5F5F5F5F5F5F5F5F5F5F5F5F5F5F5F5F5F5F5F5F5F5F5F5F5F5F5F5F5F5F5F5F5F528F5DCF5F5F5F5F5F5F5F5F5F5F5F5F5F5F5F5F5E2F5E2E2F5E2F5F5F5F5F5F5F5F5F5F5F5F5F5F5F5F5F5DCF528F5F5F5DCF5F5F5DCF5DCF5F5F5F5F5F5F5F5F5BEBEF5F5F5F5F5F5BE1BF5F5F5F5F50FF5F5F5F5
310
F5F5F5F5F5F5F5F5F5F5F5F5F5F5F5F5F5F5F5F5F5F5F5F5F5F5F5F5F5F5F5F5F5F5F5F5F5F5F5F5F5F5F5F5F5F5F5F5F5F5F5F5F5F5F5F5F5F5F5F5F5F5F5F5F5F5F5F5F5F5F5F5F5F5F5F5F5F5F5F5F5F5F5F5F5F5F5F5F5F5F5F5F5F5F528F5DCF5F5F5F5F5F5F5F5F5F5F5F5F5F5F5F5F5E2F5E2E2F5E2F5F5F5F5F5F5
310
F5F5F5F5F5F5F5F5F5F5F5DCF528F5F5F5F5F5DCDCF5F5DCF5F5F5F5F5F5F5F5F5F5BEF5F5F5F5F5F5F5BEF5F5F5F5F50F0FF5F5F5F5F5F5F5F5F5F5F5F5F5F5F5F5F5F5F5F5F5F5F5F5F5F5F5F5F5F5F5F5F5F5F5F5F5F5F5F5F5F5F5F5F5F5F5F5F5F5F5F5F5F5F5F5F5F5F5F5F5F5F5F5F5F5F5F5F5F5F5F5F5F5F5F5F5
310
F5F5F5F5F5F5F5F5F5F5F5F5F5F5F5F5F5F5F5F5F528F5DCF5F5F5F5F5F5F5F5F5F5F5F5F5F5F5F5F5E2F5E2E2F5E2F5F5F5F5F5F5F5F5F5F5F5F5F5F5F5F5F5DCF528F5F5F5F5DCF5F5F5DCDCDCDCDCDCDCDCDCDCDCDCDCDCDCDCDCDCDCDCDCDCDCDCDCDCDCDCDCF5F5F5F5F5F5F5F5F5F5F5F5F5F5F5F5F5F5F5F5F5F5F5
310
F5F5F5F5F5F5F5F5F5F5F5F5F5F5F5F5F5F5F5F5F5F5F5F5F5F5F5F5F5F5F5F5F5F5F5F5F5F5F5F5F5F5F5F5F5F5F5F5F5F5F5F5F5F5F5F5F5F5F5F5F5F5F5F5F5F5F5F5F5F5F5F5F5F528F5DCF5F5F5F5F5F5F5F5F5F5F5F5F5F5F5F5F5E2F5E2E2F5E2F5F5F5F5F5F5F5F5F5F5F5F5F5F5F5F5F5DCF528F5F5F5DCF5F5F5
310
DCF5F5DCF5F5DCF5F5F5DCF5F5DCF5F5DCF5F5DCF5F5DCF5F5DCF5F5F5F5F5F5F5F5F5F5F5F5F5F5F5F5F5F5F5F5F5F5F5F5F5F5F5F5F5F5F5F5F5F5F5F5F5F5F5F5F5F5F5F5F5F5F5F5F5F5F5F5F5F5F5F5F5F5F5F5F5F5F5F5F5F5F5F5F5F5F5F5F5F5F5F5F5F5F5F5F5F5F5F5F5F5F5F5F5F5F5F5F5F5F5F5F5F5F5F5F5
310
28F5DCF5F5F5F5F5F5F5F5F5F5F5F5F5F5F5F5F5E2F5E2E2F5E2F5F5F5F5F5F5F5F5F5F5F5F5F5F5F5F5F5DCF528F5F5F5F5F5DCDCF5F5DCF5F5DCF5F5F5DCF5F5DCF5F5DCF5F5DCF5F5DCF5F5DCF5F5F5F5F5F5F5F5F5F5F5F5F5F5F5F5F5F5F5F5F5F5F5F5F5F5F5F5F5F5F5F5F5F5F5F5F5F5F5F5F5F5F5F5F5F5F5F5F5
310
F5F5F5F5F5F5F5F5F5F5F5F5F5F5F5F5F5F5F5F5F5F5F5F5F5F5F5F5F5F5F5F5F5F5F5F5F5F5F5F5F5F5F5F5F5F5F5F5F5F5F5F5F528F5DCF5F5F5F5F5F5F5F5F5F5F5F5F5F5F5F5F5E2F5E2E2F5E2F5F5F5F5F5F5F5F5F5F5F5F5F5F5F5F5F5DCF528F5F5F5F5DCF5F5F5DCF5F5DCF5F5DCDCF5DCDCF5DCDCF5F5DCF5F5DC
310
F5F5DCF5F5F5F5F5F5F5F5F5F5F5F5F5F5F5F5F5F5F5F5F5F5F5F5F5F5F5F5F5F5F5F5F5F5F5F5F5F5F5F5F5F5F5F5F5F5F5F5F5F5F5F5F5F5F5F5F5F5F5F5F5F5F5F5F5F5F5F5F5F5F5F5F5F5F5F5F5F5F5F5F5F5F5F5F5F5F5F5F5F5F5F5F5F5F5F5F5F5F5F5F5F5F528F5DCF5F5F5F5F5F5F5F5F5F5F5F5F5F5F5F5F5E2
310
F5E2E2F5E2F5F5F5F5F5F5F5F5F5F5F5F5F5F5F5F5F5DCF528F5F5F5DCF5F5F5DCF5F5DCF5F5DCF5F5DCF5F5DCF5F5F5DCF5F5DCF5F5DCF5F5F5DCF5F5F5F5F5F5F5F5F5F5F5F5F5F5F5F5F5F5F5F5F5F5F5F5F5F5F5F5F5F5F5F5F5F5F5F5F5F5F5F5F5F5F5F5F5F5F5F5F5F5F5F5F5F5F5F5F5F5F5F5F5F5F5F5F5F5F5F5
310
F5F5F5F5F5F5F5F5F5F5F5F5F5F5F5F5F5F5F5F5F5F5F5F5F5F5F5F5F5F5F5F528F5DCF5F5F5F5F5F5F5F5F5F5F5F5F5F5F5F5F5E2F5E2E2F5F5F5F5F5F5F5F5F5F5F5F5F5F5F5F5F5F5F5DCF528F5F5F5F5F5F5DCF5F5DCF5F5DCF5F5DCF5F5DCF5F5F5DCF5F5DCF5F5DCF5F5DCDCF5F5F5F5F5F5F5F5F5F5F5F5F5F5F5F5
310
F5F5F5F5F5F5F5F5F5F5F5F5F5F5F5F5F5F5F5F5F5F5F5F5F5F5F5F5F5F5F5F5F5F5F5F5F5F5F5F5F5F5F5F5F5F5F5F5F5F5F5F5F5F5F5F5F5F5F5F5F5F5F5F5F5F5F5F5F5F5F5F5F5F5F5F5F5F5F5F5F5F5F5F5F528F5DCF5F5F5F5F5F5F5F5F5F5F5F5F5F5F5F5F5F5F5E2E2F5F5F5F5F5F5F5F5F5F5F5F5F5F5F5F5F5F5
310
F5DCF528F5F5F5F5F5F5F5F5F5F5F5F5F5F5F5F5F5F5F5F5F5F5F5F5F5F5F5F5F5F5F5F5F5F5F5F5F5F5F5F5F5F5F5F5F5F5F5F5F5F5F5F5F5F5F5F5F5F5F5F5F5F5F5F5F5F5F5F5F5F5F5F5F5F5F5F5F5F5F5F5F5F5F5F5F5F5F5F5F5F5F5F5F5F5F5F5F5F5F5F5F5F5F5F5F5F5F5F5F5F5F5F5F5F5F5F5F5F5F5F5F5F5F5
310
F5F5F5F5F5F5F5F5F5F5F528F5DCF5F5F5F5F5F5F5F5F5F5F5F5F5F5F5F5F5F5F5E2E2F5F5F5F5F5F5F5F5F5F5F5F5F5F5F5F5F5F5F5DCF528F5F5F5F5F5F5F5F5F5F5F5F5F5F5F5F5F5F5F5F5F5F5F5F5F5F5F5F5F5F5F5F5F5F5F5F5F5F5F5F5F5F5F5F5F5F5F5F5F5F5F5F5F5F5F5F5F5F5F5F5F5F5F5F5F5F5F5F5F5F5
310
F5F5F5F5F5F5F5F5F5F5F5F5F5F5F5F5F5F5F5F5F5F5F5F5F5F5F5F5F5F5F5F5F5F5F5F5F5F5F5F5F5F5F5F5F5F5F5F5F5F5F5F5F5F5F5F5F5F5F5F5F5F5F5F528F5DCF5F5F5F5F5F5F5F5F5F5F5F5F5F5F5F5F5F5F5E2E2F5F5F5F5F5F5F5F5F5F5F5F5F5F5F5F5F5F5F5DCF528F5F5F5F5F5F5F5F5F5F5F5F5F5F5F5F5F5
310
F5F5F5F5F5F5F5F5F5F5F5F5F5F5F5F5F5F5F5F5F5F5F5F5F5F5F5F5F5F5F5F5F5F5F5F5F5F5F5F5F5F5F5F5F5F5F5F5F5F5F5F5F5F5F5F5F5F5F5F5F5F5F5F5F5F5F5F5F5F5F5F5F5F5F5F5F5F5F5F5F5F5F5F5F5F5F5F5F5F5F5F5F5F5F5F5F5F5F5F5F5F5F5F5F5F5F5F5F5F5F5F5F5F5F5F5F528F5DCF5F5F5F5F5F5F5
310
F5F5F5F5F5F5F5F5F5F5F5F5E2E2F5F5F5F5F5F5F5F5F5F5F5F5F5F5F5F5F5F5F5DCF528F5F5F5F5F5F5F5F5F5F5F5F5F5F5F5F5F5F5F5F5F5F5F5F5F5F5F5F5F5F5F5F5F5F5F5F5F5F5F5F5F5F5F5F5F5F5F5F5F5F5F5F5F5F5F5F5F5F5F5F5F5F5F5F5F5F5F5F5F5F5F5F5F5F5F5F5F5F5F5F5F5F5F5F5F5F5F5F5F5F5F5
310
F5F5F5F5F5F5F5F5F5F5F5F5F5F5F5F5F5F5F5F5F5F5F5F5F5F5F5F5F5F5F5F5F5F5F5F5F5F5F5F5F5F5F528F5DCF5F5F5F5F5F5F5F5F5F5F5F5F5F5F5F5F5F5F5E2E2F5F5F5F5F5F5F5F5F5F5F5F5F5F5F5F5F5F5F5DCF528F5F5F5F5F5F5F5F5F5F5F5F5F5F5F5F5F5F5F5F5F5F5F5F5F5F5F5F5F5F5F5F5F5F5F5F5F5F5
310
F5F5F5F5F5F5F5F5F5F5F5F5F5F5F5F5F5F5F5F5F5F5F5F5F5F5F5F5F5F5F5F5F5F5F5F5F5F5F5F5F5F5F5F5F5F5F5F5F5F5F5F5F5F5F5F5F5F5F5F5F5F5F5F5F5F5F5F5F5F5F5F5F5F5F5F5F5F5F5F5F5F5F5F5F5F5F5F5F5F5F5F5F5F5F5F528F5DCF5F5F5F5F5F5F5F5F5F5F5F5F5F5F5F5F5F5F5E2E2F5F5F5F5F5F5F5
310
F5F5F5F5F5F5F5F5F5F5F5F5DCF528F5F5F5F5F5F5F5F5F5F5F5F5F5F5F5F5F5F5F5F5F5F5F5F5F5F5F5F5F5F5F5F5F5F5F5F5F5F5F5F5F5F5F5F5F5F5F5F5F5F5F5F5F5F5F5F5F5F5F5F5F5F5F5F5F5F5F5F5F5F5F5F5F5F5F5F5F5F5F5F5F5F5F5F5F5F5F5F5F5F5F5F5F5F5F5F5F5F5F5F5F5F5F5F5F5F5F5F5F5F5F5F5
310
F5F5F5F5F5F5F5F5F5F5F5F5F5F5F5F5F5F5F5F5F5F528F5DCF5F5F5F5F5F5F5F5F5F5F5F5F5F5F5F5F5F5F5E2E2F5F5F5F5F5F5F5F5F5F5F5F5F5F5F5F5F5F5F5DCF528F5F5F5F5F5F5F5F5F5F5F5F5F5F5F5F5F5F5F5F5F5F5F5F5F5F5F5F5F5F5F5F5F5F5F5F5F5F5F5F5F5F5F5F5F5F5F5F5F5F5F5F5F5F5F5F5F5F5F5
310
F5F5F5F5F5F5F5F5F5F5F5F5F5F5F5F5F5F5F5F5F5F5F5F5F5F5F5F5F5F5F5F5F5F5F5F5F5F5F5F5F5F5F5F5F5F5F5F5F5F5F5F5F5F5F5F5F5F5F5F5F5F5F5F5F5F5F5F5F5F5F5F5F5F5F528F5DCF5F5F5F5F5F5F5F5F5F5F5F5F5F5F5F5F5F5F5E2E2F5E2F5F5F5F5F5F5F5F5F5F5F5F5F5F5F5F5F5DCF528F5F5F5F5F5F5
310
F5F5F5F5F5F5F5F5F5F5F5F5F5F5F5F5F5F5F5F5F5F5F5F5F5F5F5F5F5F5F5F5F5F5F5F5F5F5F5F5F5F5F5F5F5F5F5F5F5F5F5F5F5F5F5F5F5F5F5F5F5F5F5F5F5F5F5F5F5F5F5F5F5F5F5F5F5F5F5F5F5F5F5F5F5F5F5F5F5F5F5F5F5F5F5F5F5F5F5F5F5F5F5F5F5F5F5F5F5F5F5F5F5F5F5F5F5F5F5F5F5F5F5F5F5F5F5
310
F528F5DCF5F5F5F5F5F5F5F5F5F5F5F5F5F5F5F5F5E2F5E2E2F5E2F5F5F5F5F5F5F5F5F5F5F5F5F5F5F5F5F5DCF528F5F5F5F5F5F5F5F5F5F5F5F5F5F5F5F5F5F5F5F5F5F5F5F5F5F5F5F5F5F5F5F5F5F5F5F5F5F5F5F5F5F5F5F5F5F5F5F5F5F5F5F5F5F5F5F5F5F5F5F5F5F5F5F5F5F5F5F5F5F5F5F5F5F5F5F5F5F5F5F5
310
F5F5F5F5F5F5F5F5F5F5F5F5F5F5F5F5F5F5F5F5F5F5F5F5F5F5F5F5F5F5F5F5F5F5F5F5F5F5F5F5F5F5F5F5F5F5F5F5F5F5F5F5F5F528F5DCF5F5F5F5F5F5F5F5F5F5F5F5F5F5F5F5F5E2F5E2E2F5E2F5F5F5F5F5F5F5F5F5F5F5F5F5F5F5F5F5DCF528F5F5F5F5F5F5F5F5F5F5F5F5F5F5F5F5F5F5F5F5F5F5F5F5F5F5F5
310
F5F5F5F5F5F5F5F5F5F5F5F5F5F5F5F5F5F5F5F5F5F5F5F5F5F5F5F5F5F5F5F5F5F5F5F5F5F5F5F5F5F5F5F5F5F5F5F5F5F5F5F5F5F5F5F5F5F5F5F5F5F5F5F5F5F5F5F5F5F5F5F5F5F5F5F5F5F5F5F5F5F5F5F5F5F5F5F5F5F5F5F5F5F5F5F5F5F5F5F5F5F5F5F5F5F5F528F5DCF5F5F5F5F5F5F5F5F5F5F5F5F5F5F5F5F5
310
E2F5E2E2F5E2F5F5F5F5F5F5F5F5F5F5F5F5F5F5F5F5F5DCF528F5F5F5F5F5F5F5F5F5F5F5F5F5F5F5F5F5F5F5F5F5F5F5F5F5F5F5F5F5F5F5F5F5F5F5F5F5F5F5F5F5F5F5F5F5F5F5F5F5F5F5F5F5F5F5F5F5F5F5F5F5F5F5F5F5F5F5F5F5F5F5F5F5F5F5F5F5F5F5F5F5F5F5F5F5F5F5F5F5F5F5F5F5F5F5F5F5F5F5F5F5
310
F5F5F5F5F5F5F5F5F5F5F5F5F5F5F5F5F5F5F5F5F5F5F5F5F5F5F5F5F5F5F5F5F528F5DCF5F5F5F5F5F5F5F5F5F5F5F5F5F5F5F5F5E2F5E2E2F5E2F5F5F5F5F5F5F5F5F5F5F5F5F5F5F5F5F5DCF528F5F5F5F5F5F5F5F5F5F5F5F5F5F5F5F5F5F5F5F5F5F5F5F5F5F5F5F5F5F5F5F5F5F5F5F5F5F5F5F5F5F5F5F5F5F5F5F5
310
F5F5F5F5F5F5F5F5F5F5F5F5F5F5F5F5F5F5F5F5F5F5F5F5F5F5F5F5F5F5F5F5F5F5F5F5F5F5F5F5F5F5F5F5F5F5F5F5F5F5F5F5F5F5F5F5F5F5F5F5F5F5F5F5F5F5F5F5F5F5F5F5F5F5F5F5F5F5F5F5F5F5F5F5F5F528F5DCF5F5F5F5F5F5F5F5F5F5F5F5F5F5F5F5F5E2F5E2E2F5E2F5F5F5F5F5F5F5F5F5F5F5F5F5F5F5
310
F5F5DCF528F5F5F5F5F5F5F5F5F5F5F5F5F5F5F5F5F5F5F5F5F5F5F5F5F5F5F5F5F5F5F5F5F5F5F5F5F5F5F5F5F5F5F5F5F5F5F5F5F5F5F5F5F5F5F5F5F5F5F5F5F5F5F5F5F5F5F5F5F5F5F5F5F5F5F5F5F5F5F5F5F5F5F5F5F5F5F5F5F5F5F5F5F5F5F5F5F5F5F5F5F5F5F5F5F5F5F5F5F5F5F5F5F5F5F5F5F5F5F5F5F5F5
310
F5F5F5F5F5F5F5F5F5F5F5F528F5DCF5F5F5F5F5F5F5F5F5F5F5F5F5F5F5F5F5E2F5E2E2F5E2F5F5F5F5F5F5F5F5F5F5F5F5F5F5F5F5F5DCF528F5F5F5F5F5F5F5F5F5F5F5F5F5F5F5F5F5F5F5F5F5F5F5F5F5F5F5F5F5F5F5F5F5F5F5F5F5F5F5F5F5F5F5F5F5F5F5F5F5F5F5F5F5F5F5F5F5F5F5F5F5F5F5F5F5F5F5F5F5
310
F5F5F5F5F5F5F5F5F5F5F5F5F5F5F5F5F5F5F5F5F5F5F5F5F5F5F5F5F5F5F5F5F5F5F5F5F5F5F5F5F5F5F5F5F5F5F5F5F5F5F5F5F5F5F5F5F5F5F5F5F5F5F5F5F528F5DCF5F5F5F5F5F5F5F5F5F5F5F5F5F5F5F5F5E2F5E2E2F5E2F5F5F5F5F5F5F5F5F5F5F5F5F5F5F5F5F5DCF528F5F5F5F5F5F5F5F5F5F5F5F5F5F5F5F5
310
F5F5F5F5F5F5F5F5F5F5F5F5F5F5F5F5F5F5F5F5F5F5F5F5F5F5F5F5F5F5F5F5F5F5F5F5F5F5F5F5F5F5F5F5F5F5F5F5F5F5F5F5F5F5F5F5F5F5F5F5F5F5F5F5F5F5F5F5F5F5F5F5F5F5F5F5F5F5F5F5F5F5F5F5F5F5F5F5F5F5F5F5F5F5F5F5F5F5F5F5F5F5F5F5F5F5F5F5F5F5F5F5F5F5F5F5F5F528F5DCF5F5F5F5F5F5
310
F5F5F5F5F5F5F5F5F5F5F5E2F5E2E2F5E2F5F5F5F5F5F5F5F5F5F5F5F5F5F5F5F5F5DCF528282828282828282828282828282828282828282828282828282828282828282828282828282828282828282828282828282828282828282828282828282828282828282828282828282828282828282828282828282828282828
310
282828282828282828282828282828282828282828282828282828282828282828282828282828282828282828F5DCF5F5F5F5F5F5F5F5F5F5F5F5F5F5F5F5F5E2F5E2E2F5E2F5F5F5F5F5F5F5F5F5F5F5F5F5F5F5F5F5DCF528F5F5F5F5F5F5F5F5F5F5F5F5F5F5F5F5F5F5F5F5F5F5F5F5F5F5F5F5F5F5F5F5F5F5F5F5F5
310
F5F5F5F5F5F5F5F5F5F5F5F5F5F5F5F5F5F5F5F5F5F5F5F5F5F5F5F5F528F5F5F5F5F5F5F5F5F5F5F5F5F5F5F5F5F5F5F5F5F5F5F5F5F5F5F5F5F5F5F5F5F5F5F5F5F5F5F5F5F5F5F5F5F5F5F5F5F5F5F5F5F5F5F5F5F5F5F5F5F5F5F5F5F5F5F528F5DCF5F5F5F5F5F5F5F5F5F5F5F5F5F5F5F5F5E2F5E2E2F5E2F5F5F5F5
310
F5F5F5F5F5F5F5F5F5F5F5F5F5DCF528F5F5F5F5F5F5F5F5F5F5F5F5F52D2D2D2D2D2D2D2D2D2D2D2D2D2D2D2D2D2D2D2D2D2D2D2D2D2D2D2D2D2D2D2D2D2D2D2D2D2DF5F5F5F5F5F5F5F5F5F5F5F5F5F5F528F5F5F52D2D2D2DF52D2D2D2D2D2DF5F5F5F5F5F5F5F5F5F5F5F5F5F5F5F5F5F5F5F5F5F5F5F5F5F5F5F5F5F5
310
F5F5F5F5F5F5F5F5F5F5F5F5F5F5F5F5F5F5F5F5F5F5F528F5DCF5F5F5F5F5F5F5F5F5F5F5F5F5F5F5F5F5E2F5E2E2F5E2F5F5F5F5F5F5F5F5F5F5F5F5F5F5F5F5F5DCF528F5F5F5F5F5F5F5F5F5F5F5F5F52D2D2D2D2D2D2D2D2D2D2D2D2D2D2D2D2D2D2D2D2D2D2D2D2D2D2D2D2D2D2D2D2D2D2D2D2D2DF5F5F5F5F5F5F5
310
F5F5F5F5F5F5F5F528F5F5F52D2D2D2DF52D2D2D2DF52DF5F5F5F5F5F5F5F5F5F5F5F5F5F5F5F5F5F5F5F5F5F5F5F5F5F5F5F5F5F5F5F5F5F5F5F5F5F5F5F5F5F5F5F5F5F5F5F5F5F5F5F5F528F5DCF5F5F5F5F5F5F5F5F5F5F5F5F5F5F5F5F5E2F5E2E2F5E2F5F5F5F5F5F5F5F5F5F5F5F5F5F5F5F5F5DCF528F5F5F5F5F5
310
F5F5F5F5F5F5F5F5F5F5F5F5F5F5F5F5F5F5F5F5F5F5F5F5F5F5F5F5F5F5F5F5F5F5F5F5F5F5F5F5F5F5F5F5F5F5F5F5F5F5F5F5F5F5F5F5F5F5F5F5F528F5F5F5F5F5F5F5F5F5F5F5F5F5F5F5F5F5F5F5F5F5F5F5F5F5F5F5F5F5F5F5F5F5F5F5F5F5F5F5F5F5F5F5F5F5F5F5F5F5F5F5F5F5F5F5F5F5F5F5F5F5F5F5F5F5
310
F5F528F5DCF5F5F5F5F5F5F5F5F5F5F5F5F5F5F5F5F5E2F5E2E2F5E2F5F5F5F5F5F5F5F5F5F5F5F5F5F5F5F5F5DCF52828282828282828282828282828282828282828282828282828282D2D2D2D2D2D2D2D2D2D2D2D2D28282828282828282828282828282828282828282828282828282828282828282828282828282828
310
2828282828282828282828282828282828282828282828282828282828282828282828282828282828282828282828282828282828282828F5DCF5F5F5F5F5F5F5F5F5F5F5F5F5F5F5F5F5E2F5E2E2F5E2F5F5F5F5F5F5F5F5F5F5F5F5F5F5F5F5F5DCF528F5F5F5F5F5F5F5F5F5F5F5F5F5F5F5F5F5F5F5F5F5F5F5F5F5F5
310
2D2D2D2D2D2D2D2D2D2D2D2D2DF5F5F5F5F5F5F5F5F5F5F5F5F5F5F5F5F5F5F5F5F5F5F5F5F5F5F528F5F5F52D2D2D2D2D2D2D2D2D2D2DF5F52D2D2D2D2D2D2D2D2D2DF5F5F5F5F5F5F5F5F5F5F5F5F5F5F5F5F5F5F5F5F5F5F5F5F5F5F5F5F5F5F5F5F5F5F5F5F5F5F5F5F528F5DCF5F5F5F5F5F5F5F5F5F5F5F5F5F5F5F5
310
F5E2F5E2E2F5E2F5F5F5F5F5F5F5F5F5F5F5F5F5F5F5F5F5DCF528F5F5F5F5F5F5F5F5F5F5F5F5F5F5F5F5F5F5F5F5F5F5F5F5F5F52D2D2D2D2D2D2D2D2D2D2D2D2DF5F5F5F5F5F5F5F5F5F5F5F5F5F5F5F5F5F5F5F5F5F5F5F5F5F5F528F5F5F52D2D2D2D2D2D2D2D2D2D2DF52D2D2D2D2D2D2D2D2D2D2DF5F5F5F5F5F5F5
310
F5F5F5F5F5F5F5F5F5F5F5F5F5F5F5F5F5F5F5F5F5F5F5F5F5F5F5F5F5F5F5F5F5F528F5DCF5F5F5F5F5F5F5F5F5F5F5F5F5F5F5F5F5E2F5E2E2F5F5F5F5F5F5F5F5F5F5F5F5F5F5F5F5F5F5F5DCF528F5F5F5F5F5F5F5F5F5F5F5F5F5F5F5F5F5F5F5F5F5F5F5F5F5F5F5F5F5F5F5F5F5F5F5F5F5F5F5F5F5F5F5F5F5F5F5
310
F5F5F5F5F5F5F5F5F5F5F5F5F5F5F5F5F5F5F528F5F5F5F5F5F5F5F5F5F5F5F5F5F5F5F5F5F5F5F5F5F5F5F5F5F5F5F5F5F5F5F5F5F5F5F5F5F5F5F5F5F5F5F5F5F5F5F5F5F5F5F5F5F5F5F5F5F5F5F5F5F5F5F5F5F5F528F5DCF5F5F5F5F5F5F5F5F5F5F5F5F5F5F5F5F5F5F5E2E2F5F5F5F5F5F5F5F5F5F5F5F5F5F5F5F5
310
F5F5F5DCF52828282828282828282828282828282828282828282828282828282828282828282828282828282828282828282828282828282828282828282828282828282828282828282828282828282828282828282828282828282828282828282828282828282828282828282828282828282828282828282828282828
310
2828282828282828282828282828F5DCF5F5F5F5F5F5F5F5F5F5F5F5F5F5F5F5F5F5F5E2E2F5F5F5F5F5F5F5F5F5F5F5F5F5F5F5F5F5F5F5DCF5F5F5F5F5F5F5F5F5F5F5F5F5F5F5F5F5F5F5F5F5F5F5F5F5F5F5F5F5F5F5F5F5F5F5F5F5F5F5F5F5F5F5F5F5F5F5F5F5F5F5F5F5F5F5F5F5F5F5F5F5F5F5F5F5F5F5F5F5F5
310
F5F5F5F5F5F5F5F5F5F5F5F5F5F5F5F5F5F5F5F5F5F5F5F5F5F5F5F5F5F5F5F5F5F5F5F5F5F5F5F5F5F5F5F5F5F5F5F5F5F5F5F5F5F5F5F5F5F5F5F5F5F5F5F5F5F5F5F5DCF5F5F5F5F5F5F5F5F5F5F5F5F5F5F5F5F5F5F5E2E2F5F5F5F5F5F5F5F5F5F5F5F5F5F5F5F5F5F5F5DCDCDCDCDCDCDCDCDCDCDCDCDCDCDCDCDCDC
310
DCDCDCDCDCDCDCDCDCDCDCDCDCDCDCDCDCDCDCDCDCDCDCDCDCDCDCDCDCDCDCDCDCDCDCDCDCDCDCDCDCDCDCDCDCDCDCDCDCDCDCDCDCDCDCDCDCDCDCDCDCDCDCDCDCDCDCDCDCDCDCDCDCDCDCDCDCDCDCDCDCDCDCDCDCDCDCDCDCDCDCDCDCDCDCDCDCDCDCDCDCDCDCDCDCDCDCDCDCDCDCDCDCDCDCDCDCDCDCDCDCDCF5F5F5F5F5
310
F5F5F5F5F5F5F5F5F5F5F5F5F5F5E2E2F5F5F5F5F5F5F5F5F5F5F5F5F5F5F5F5F5F5F5DCDCDCDCDCDCDCDCDCDCDCDCDCDCDCDCDCDCDCDCDCDCDCDCDCDCDCDCDCDCDCDCDCDCDCDCDCDCDCDCDCDCDCDCDCDCDCDCDCDCDCDCDCDCDCDCDCDCDCDCDCDCDCDCDCDCDCDCDCDCDCDCDCDCDCDCDCDCDCDCDCDCDCDCDCDCDCDCDCDCDCDC
310
DCDCDCDCDCDCDCDCDCDCDCDCDCDCDCDCDCDCDCDCDCDCDCDCDCDCDCDCDCDCDCDCDCDCDCDCDCDCDCDCDCDCDCDCDCDCDCDCF5F5F5F5F5F5F5F5F5F5F5F5F5F5F5F5F5F5F5E2E2F5F5F5F5F5F5F5F5F5F5F5F5F5F5F5F5F5F5F5F5F5F5F5F5F5F5F5F5F5F5F5F5F5F5F5F5F5F5F5F5F5F5F5F5F5F5F5F5F5F5F5F5F5F5F5F5F5F5
310
F5F5F5F5F5F5F5F5F5F5F5F5F5F5F5F5F5F5F5F5F5F5F5F5F5F5F5F5F5F5F5F5F5F5F5F5F5F5F5F5F5F5F5F5F5F5F5F5F5F5F5F5F5F5F5F5F5F5F5F5F5F5F5F5F5F5F5F5F5F5F5F5F5F5F5F5F5F5F5F5F5F5F5F5F5F5F5F5F5F5F5F5F5F5F5F5F5F5F5F5F5F5F5F5F5F5F5F5F5F5F5F5F5F5F5F5F5F5F5F5E2E2F5F5F5F5F5
310
F5F5F5F5F5F5F5F5F5F5F5F5F5F5F5F5F5F5F5F5F5F5F5F5F5F5F5F5F5F5F5F5F5F5F5F5F5F5F5F5F5F5F5F5F5F5F5F5F5F5F5F5F5F5F5F5F5F5F5F5F5F5F5F5F5F5F5F5F5F5F5F5F5F5F5F5F5F5F5F5F5F5F5F5F5F5F5F5F5F5F5F5F5F5F5F5F5F5F5F5F5F5F5F5F5F5F5F5F5F5F5F5F5F5F5F5F5F5F5F5F5F5F5F5F5F5F5
310
F5F5F5F5F5F5F5F5F5F5F5F5F5F5F5F5F5F5F5F5F5F5F5F5F5F5F5F5F5F5F5F5F5F5F5F5F5F5F5F5F5F5F5F5F5F5E2E2F5F5F5F5F5F5F5F5F5F5F5F5F5F5F5F5F5F5F5F5F5F5F5F5F5F5F5F5F5F5F5F5F5F5F5F5F5F5F5F5F5F5F5F5F5F5F5F5F5F5F5F5F5F5F5F5F5F5F5F5F5F5F5F5F5F5F5F5F5F5F5F5F5F5F5F5F5F5F5
310
F5F5F5F5F5F5F5F5F5F5F5F5F5F5F5F5F5F5F5F5F5F5F5F5F5F5F5F5F5F5F5F5F5F5F5F5F5F5F5F5F5F5F5F5F5F5F5F5F5F5F5F5F5F5F5F5F5F5F5F5F5F5F5F5F5F5F5F5F5F5F5F5F5F5F5F5F5F5F5F5F5F5F5F5F5F5F5F5F5F5F5F5F5F5F5F5F5F5F5E2E2F5F5F5F5F5F5F5F5F5F5F5F5F5F5F5F5F5F5F5F5F5F5F5F5F5F5
310
F5F5F5F5F5F5F5F5F5F5F5F5F5F5F5F5F5F5F5F5F5F5F5F5F5F5F5F5F5F5F5F5F5F5F5F5F5F5F5F5F5F5F5F5F5F5F5F5F5F5F5F5F5F5F5F5F5F5F5F5F5F5F5F5F5F5F5F5F5F5F5F5F5F5F5F5F5F5F5F5F5F5F5F5F5F5F5F5F5F5F5F5F5F5F5F5F5F5F5F5F5F5F5F5F5F5F5F5F5F5F5F5F5F5F5F5F5F5F5F5F5F5F5F5F5F5F5
310
F5F5F5F5F5F5F5F5F5F5F5F5F5F5F5F5F5F5F5F5F5F5F5F5F5E2E2F5E2F5F5F5F5F5F5F5F5F5F5F5F5F5F5F5F5F5F5F5F5F5F5F5F5F5F5F5F5F5F5F5F5F5F5F5F5F5F5F5F5F5F5F5F5F5F5F5F5F5F5F5F5F5F5F5F5F5F5F5F5F5F5F5F5F5F5F5F5F5F5F5F5F5F5F5F5F5F5F5F5F5F5F5F5F5F5F5F5F5F5F5F5F5F5F5F5F5F5
310
F5F5F5F5F5F5F5F5F5F5F5F5F5F5F5F5F5F5F5F5F5F5F5F5F5F5F5F5F5F5F5F5F5F5F5F5F5F5F5F5F5F5F5F5F5F5F5F5F5F5F5F5F5F5F5F5F5F5F5F5F5F5F5F5F5F5F5F5F5F5F5F5F5F5F5F5E2F5E2E2F5E2F5F5F5F5F5F5F5F5F5F5F5F5F5F5F5F5F5F5F5F5F5F5F5F5F5F5F5F5F5F5F5F5F5F5F5F5F5F5F5F5F5F5F5F5F5
310
F5F5F5F5F5F5F5F5F5F5F5F5F5F5F5F5F5F5F5F5F5F5F5F5F5F5F5F5F5F5F5F5F5F5F5F5F5F5F5F5F5F5F5F5F5F5F5F5F5F5F5F5F5F5F5F5F5F5F5F5F5F5F5F5F5F5F5F5F5F5F5F5F5F5F5F5F5F5F5F5F5F5F5F5F5F5F5F5F5F5F5F5F5F5F5F5F5F5F5F5F5F5F5F5F5F5F5F5F5F5F5F5F5F5F5F5F5F5F5F5F5F5F5F5F5F5F5
310
F5F5E2F5E2E2F5E2F5F5F5F5F5F5F5F5F5F5F5F5F5F5F5F5F5F5F5F5F5F5F5F5F5F5F5F5F5F5F5F5F5F5F5F5F5F5F5F5F5F5F5F5F5F5F5F5F5F5F5F5F5F5F5F5F5F5F5F5F5F5F5F5F5F5F5F5F5F5F5F5F5F5F5F5F5F5F5F5F5F5F5F5F5F5F5F5F5F5F5F5F5F5F5F5F5F5F5F5F5F5F5F5F5F5F5F5F5F5F5F5F5F5F5F5F5F5F5
310
F5F5F5F5F5F5F5F5F5F5F5F5F5F5F5F5F5F5F5F5F5F5F5F5F5F5F5F5F5F5F5F5F5F5F5F5F5F5F5F5F5F5F5F5F5F5F5F5F5F5F5F5F5F5F5E2F5E2E2F5E2F5F5F5F5F5F5F5F5F5F5F5F5F5F5F5F5F5F5F5F5F5F5F5F5F5F5F5F5F5F5F5F5F5F5F5F5F5F5F5F5F5F5F5F5F5F5F5F5F5F5F5F5F5F5F5F5F5F5F5F5F5F5F5F5F5F5
310
F5F5F5F5F5F5F5F5F5F5F5F5F5F5F5F5F5F5F5F5F5F5F5F5F5F5F5F5F5F5F5F5F5F5F5F5F5F5F5F5F5F5F5F5F5F5F5F5F5F5F5F5F5F5F5F5F5F5F5F5F5F5F5F5F5F5F5F5F5F5F5F5F5F5F5F5F5F5F5F5F5F5F5F5F5F5F5F5F5F5F5F5F5F5F5F5F5F5F5F5F5F5F5F5F5F5F5F5E2F5E2E2F5E2F5F5F5F5F5F5F5F5F5F5F5F5F5
310
F5F5F5F5F5F5F5F5F5F5F5F5F5F5F5F5F5F5F5F5F5F5F5F5F5F5F5F5F5F5F5F5F5F5F5F5F5F5F5F5F5F5F5F5F5F5F5F5F5F5F5F5F5F5F5F5F5F5F5F5F5F5F5F5F5F5F5F5F5F5F5F5F5F5F5F5F5F5F5F5F5F5F5F5F5F5F5F5F5F5F5F5F5F5F5F5F5F5F5F5F5F5F5F5F5F5F5F5F5F5F5F5F5F5F5F5F5F5F5F5F5F5F5F5F5F5F5
310
F5F5F5F5F5F5F5F5F5F5F5F5F5F5F5F5F5F5F5F5F5F5F5F5F5F5F5F5F5F5F5F5F5F5E2F5E2E2F5E2F5F5F5F5F5F5F5F5F5F5F5F5F5F5F5F5F5F5F5F5F5F5F5F5F5F5F5F5F5F5F5F5F5F5F5F5F5F5F5F5F5F5F5F5F5F5F5F5F5F5F5F5F5F5F5F5F5F5F5F5F5F5F5F5F5F5F5F5F5F5F5F5F5F5F5F5F5F5F5F5F5F5F5F5F5F5F5
310
F5F5F5F5F5F5F5F5F5F5F5F5F5F5F5F5F5F5F5F5F5F5F5F5F5F5F5F5F5F5F5F5F5F5F5F5F5F5F5F5F5F5F5F5F5F5F5F5F5F5F5F5F5F5F5F5F5F5F5F5F5F5F5F5F5F5F5F5F5F5F5F5F5F5F5F5F5F5F5F5F5F5F5F5F5F5F5E2F5E2E2F5E2F5F5F5F5F5F5F5F5F5F5F5F5F5F5F5F5F5F5F5F5F5F5F5F5F5F5F5F5F5F5F5F5F5F5
310
F5F5F5F5F5F5F5F5F5F5F5F5F5F5F5F5F5F5F5F5F5F5F5F5F5F5F5F5F5F5F5F5F5F5F5F5F5F5F5F5F5F5F5F5F5F5F5F5F5F5F5F5F5F5F5F5F5F5F5F5F5F5F5F5F5F5F5F5F5F5F5F5F5F5F5F5F5F5F5F5F5F5F5F5F5F5F5F5F5F5F5F5F5F5F5F5F5F5F5F5F5F5F5F5F5F5F5F5F5F5F5F5F5F5F5F5F5F5F5F5F5F5F5F5F5F5F5
310
F5F5F5F5F5F5F5F5F5F5F5F5F5E2F5E2E2F5E2E2E2E2E2E2E2E2E2F5F5F5F5F5F5F5F5F5E2E2E2E2E2E2E2E2E2E2E2E2E2E2E2E2F5F5F5F5F5F5F5F5F5E2E2E2E2E2E2E2E2E2E2E2E2E2E2E2E2F5F5F5F5F5F5F5F5F5E2E2E2E2E2E2E2E2E2E2E2E2E2E2E2E2F5F5F5F5F5F5F5F5F5E2E2E2E2E2E2E2E2E2E2E2E2E2E2E2E2
310
F5F5F5F5F5F5F5F5F5E2E2E2E2E2E2E2E2E2E2E2E2E2E2E2E2F5F5F5F5F5F5F5F5F5E2E2E2E2E2E2E2E2E2E2E2E2E2E2E2E2F5F5F5F5F5F5F5F5F5E2E2E2E2E2E2E2E2F5E2E2F5F5F5F5F5F5F5F5F5F5F5F5F5F5F5F5F5F5F5F5F5F5F5F5F5F5F5F5F5F5F5F5F5F5F5F5F5F5F5F5F5F5F5F5F5F5F5F5F5F5F5F5F5F5F5F5F5
310
F5F5F5F5F5F5F5F5F5F5F5F5F5F5F5F5F5F5F5F5F5F5F5F5F5F5F5F5F5F5F5F5F5F5F5F5F5F5F5F5F5F5F5F5F5F5F5F5F5F5F5F5F5F5F5F5F5F5F5F5F5F5F5F5F5F5F5F5F5F5F5F5F5F5F5F5F5F5F5F5F5F5F5F5F5F5F5F5F5F5F5F5F5F5F5F5F5F5F5F5F5F5F5F5F5F5F5F5F5F5F5F5F5F5F5F5F5F5F5F5F5E2E2E2E2E2E2
310
E2E2E2E2E2E2E2E2E2E2E2E2E2E2E2E2E2E2E2E2E2E2E2E2E2E2E2E2E2E2E2E2E2E2E2E2E2E2E2E2E2E2E2E2E2E2E2E2E2E2E2E2E2E2E2E2E2E2E2E2E2E2E2E2E2E2E2E2E2E2E2E2E2E2E2E2E2E2E2E2E2E2E2E2E2E2E2E2E2E2E2E2E2E2E2E2E2E2E2E2E2E2E2E2E2E2E2E2E2E2E2E2E2E2E2E2E2E2E2E2E2E2E2E2E2E2E2
310
E2E2E2E2E2E2E2E2E2E2E2E2E2E2E2E2E2E2E2E2E2E2E2E2E2E2E2E2E2E2E2E2E2E2E2E2E2E2E2E2E2E2E2E2E2E2E2E2
  0
XRECORD
  5
1B3B
102
{ACAD_REACTORS
330
1B3A
102
}
330
1B3A
100
AcDbXrecord
280
     1
102
SHADEPLOT
 70
     0
102
SHADEPLOTRESLEVEL
 70
     2
102
SHADEPLOTCUSTOMDPI
 70
   300
  0
XRECORD
  5
1B34
102
{ACAD_REACTORS
330
1B33
102
}
330
1B33
100
AcDbXrecord
280
     1
102
SHADEPLOT
 70
     0
102
SHADEPLOTRESLEVEL
 70
     2
102
SHADEPLOTCUSTOMDPI
 70
   300
  0
XRECORD
  5
1B3F
102
{ACAD_REACTORS
330
1B3E
102
}
330
1B3E
100
AcDbXrecord
280
     1
102
MATERIAL
148
0.0
149
0.0
149
0.0
 93
        0
 94
       63
282
     0
 72
     1
 77
     1
171
     1
175
     1
179
     1
273
     0
  0
XRECORD
  5
1B3D
102
{ACAD_REACTORS
330
1B3C
102
}
330
1B3C
100
AcDbXrecord
280
     1
102
MATERIAL
148
0.0
149
0.0
149
0.0
 93
        0
 94
       63
282
     0
 72
     1
 77
     1
171
     1
175
     1
179
     1
273
     0
  0
XRECORD
  5
1B32
102
{ACAD_REACTORS
330
1B31
102
}
330
1B31
100
AcDbXrecord
280
     1
102
MATERIAL
148
0.0
149
0.0
149
0.0
 93
        0
 94
       63
282
     0
 72
     1
 77
     1
171
     1
175
     1
179
     1
273
     0
  0
XRECORD
  5
1B41
102
{ACAD_REACTORS
330
1B40
102
}
330
1B40
100
AcDbXrecord
280
     1
102
ACAD_ROUNDTRIP_PRE2007_TABLESTYLE
 90
        4
 91
        0
  1

 92
        4
 93
        0
  2

 94
        4
 95
        0
  3

  0
ENDSEC
  0
EOF
