  0
SECTION
  2
HEADER
  9
$ACADVER
  1
AC1015
  9
$ACADMAINTVER
 70
    20
  9
$DWGCODEPAGE
  3
ANSI_1252
  9
$INSBASE
 10
0.0
 20
0.0
 30
0.0
  9
$EXTMIN
 10
-0.1460998315225765
 20
-106.6460278343535
 30
0.0
  9
$EXTMAX
 10
85.82449338491848
 20
0.4097563302797483
 30
0.0
  9
$LIMMIN
 10
0.0
 20
0.0
  9
$LIMMAX
 10
1.0
 20
0.5
  9
$ORTHOMODE
 70
     0
  9
$REGENMODE
 70
     1
  9
$FILLMODE
 70
     1
  9
$QTEXTMODE
 70
     0
  9
$MIRRTEXT
 70
     0
  9
$LTSCALE
 40
1.0
  9
$ATTMODE
 70
     1
  9
$TEXTSIZE
 40
0.005
  9
$TRACEWID
 40
1.0
  9
$TEXTSTYLE
  7
style1
  9
$CLAYER
  8
Dimensione
  9
$CELTYPE
  6
ByLayer
  9
$CECOLOR
 62
   256
  9
$CELTSCALE
 40
1.0
  9
$DISPSILH
 70
     0
  9
$DIMSCALE
 40
0.001
  9
$DIMASZ
 40
1.5
  9
$DIMEXO
 40
0.0625
  9
$DIMDLI
 40
0.38
  9
$DIMRND
 40
0.0
  9
$DIMDLE
 40
0.0
  9
$DIMEXE
 40
0.18
  9
$DIMTP
 40
0.0
  9
$DIMTM
 40
0.0
  9
$DIMTXT
 40
3.0
  9
$DIMCEN
 40
0.0
  9
$DIMTSZ
 40
0.0
  9
$DIMTOL
 70
     0
  9
$DIMLIM
 70
     0
  9
$DIMTIH
 70
     1
  9
$DIMTOH
 70
     1
  9
$DIMSE1
 70
     0
  9
$DIMSE2
 70
     0
  9
$DIMTAD
 70
     0
  9
$DIMZIN
 70
     0
  9
$DIMBLK
  1
ArchTick
  9
$DIMASO
 70
     1
  9
$DIMSHO
 70
     1
  9
$DIMPOST
  1

  9
$DIMAPOST
  1

  9
$DIMALT
 70
     0
  9
$DIMALTD
 70
     2
  9
$DIMALTF
 40
25.4
  9
$DIMLFAC
 40
1.0
  9
$DIMTOFL
 70
     0
  9
$DIMTVP
 40
0.0
  9
$DIMTIX
 70
     0
  9
$DIMSOXD
 70
     0
  9
$DIMSAH
 70
     0
  9
$DIMBLK1
  1

  9
$DIMBLK2
  1

  9
$DIMSTYLE
  2
Bovelacci
  9
$DIMCLRD
 70
     5
  9
$DIMCLRE
 70
     5
  9
$DIMCLRT
 70
     4
  9
$DIMTFAC
 40
1.0
  9
$DIMGAP
 40
2.0
  9
$DIMJUST
 70
     0
  9
$DIMSD1
 70
     0
  9
$DIMSD2
 70
     0
  9
$DIMTOLJ
 70
     1
  9
$DIMTZIN
 70
     0
  9
$DIMALTZ
 70
     0
  9
$DIMALTTZ
 70
     0
  9
$DIMUPT
 70
     0
  9
$DIMDEC
 70
     2
  9
$DIMTDEC
 70
     2
  9
$DIMALTU
 70
     2
  9
$DIMALTTD
 70
     2
  9
$DIMTXSTY
  7
ROMANS
  9
$DIMAUNIT
 70
     0
  9
$DIMADEC
 70
     0
  9
$DIMALTRND
 40
0.0
  9
$DIMAZIN
 70
     0
  9
$DIMDSEP
 70
    46
  9
$DIMATFIT
 70
     3
  9
$DIMFRAC
 70
     0
  9
$DIMLDRBLK
  1

  9
$DIMLUNIT
 70
     2
  9
$DIMLWD
 70
    -2
  9
$DIMLWE
 70
    -2
  9
$DIMTMOVE
 70
     2
  9
$LUNITS
 70
     2
  9
$LUPREC
 70
     2
  9
$SKETCHINC
 40
1.0
  9
$FILLETRAD
 40
0.0
  9
$AUNITS
 70
     0
  9
$AUPREC
 70
     0
  9
$MENU
  1
.
  9
$ELEVATION
 40
0.0
  9
$PELEVATION
 40
0.0
  9
$THICKNESS
 40
0.0
  9
$LIMCHECK
 70
     0
  9
$CHAMFERA
 40
0.0
  9
$CHAMFERB
 40
0.0
  9
$CHAMFERC
 40
0.0
  9
$CHAMFERD
 40
0.0
  9
$SKPOLY
 70
     0
  9
$TDCREATE
 40
2454297.625402373
  9
$TDUCREATE
 40
2454297.542069039
  9
$TDUPDATE
 40
2454331.595826817
  9
$TDUUPDATE
 40
2454331.512493484
  9
$TDINDWG
 40
0.2613243403
  9
$TDUSRTIMER
 40
0.2613237847
  9
$USRTIMER
 70
     1
  9
$ANGBASE
 50
0.0
  9
$ANGDIR
 70
     0
  9
$PDMODE
 70
     0
  9
$PDSIZE
 40
0.0
  9
$PLINEWID
 40
0.0
  9
$SPLFRAME
 70
     0
  9
$SPLINETYPE
 70
     6
  9
$SPLINESEGS
 70
     8
  9
$HANDSEED
  5
181A
  9
$SURFTAB1
 70
     6
  9
$SURFTAB2
 70
     6
  9
$SURFTYPE
 70
     6
  9
$SURFU
 70
     6
  9
$SURFV
 70
     6
  9
$UCSBASE
  2

  9
$UCSNAME
  2

  9
$UCSORG
 10
0.0
 20
0.0
 30
0.0
  9
$UCSXDIR
 10
1.0
 20
0.0
 30
0.0
  9
$UCSYDIR
 10
0.0
 20
1.0
 30
0.0
  9
$UCSORTHOREF
  2

  9
$UCSORTHOVIEW
 70
     0
  9
$UCSORGTOP
 10
0.0
 20
0.0
 30
0.0
  9
$UCSORGBOTTOM
 10
0.0
 20
0.0
 30
0.0
  9
$UCSORGLEFT
 10
0.0
 20
0.0
 30
0.0
  9
$UCSORGRIGHT
 10
0.0
 20
0.0
 30
0.0
  9
$UCSORGFRONT
 10
0.0
 20
0.0
 30
0.0
  9
$UCSORGBACK
 10
0.0
 20
0.0
 30
0.0
  9
$PUCSBASE
  2

  9
$PUCSNAME
  2

  9
$PUCSORG
 10
0.0
 20
0.0
 30
0.0
  9
$PUCSXDIR
 10
1.0
 20
0.0
 30
0.0
  9
$PUCSYDIR
 10
0.0
 20
1.0
 30
0.0
  9
$PUCSORTHOREF
  2

  9
$PUCSORTHOVIEW
 70
     0
  9
$PUCSORGTOP
 10
0.0
 20
0.0
 30
0.0
  9
$PUCSORGBOTTOM
 10
0.0
 20
0.0
 30
0.0
  9
$PUCSORGLEFT
 10
0.0
 20
0.0
 30
0.0
  9
$PUCSORGRIGHT
 10
0.0
 20
0.0
 30
0.0
  9
$PUCSORGFRONT
 10
0.0
 20
0.0
 30
0.0
  9
$PUCSORGBACK
 10
0.0
 20
0.0
 30
0.0
  9
$USERI1
 70
     0
  9
$USERI2
 70
     0
  9
$USERI3
 70
     0
  9
$USERI4
 70
     0
  9
$USERI5
 70
     0
  9
$USERR1
 40
0.0
  9
$USERR2
 40
0.0
  9
$USERR3
 40
0.0
  9
$USERR4
 40
0.0
  9
$USERR5
 40
0.0
  9
$WORLDVIEW
 70
     1
  9
$SHADEDGE
 70
     3
  9
$SHADEDIF
 70
    70
  9
$TILEMODE
 70
     1
  9
$MAXACTVP
 70
    64
  9
$PINSBASE
 10
0.0
 20
0.0
 30
0.0
  9
$PLIMCHECK
 70
     0
  9
$PEXTMIN
 10
29.06606628894805
 20
20.36233246326446
 30
0.0
  9
$PEXTMAX
 10
261.5945966005325
 20
183.2609921693802
 30
0.0
  9
$PLIMMIN
 10
-3.17498779296875
 20
-3.174999952316281
  9
$PLIMMAX
 10
293.8356628417969
 20
206.7983276844024
  9
$UNITMODE
 70
     0
  9
$VISRETAIN
 70
     1
  9
$PLINEGEN
 70
     0
  9
$PSLTSCALE
 70
     1
  9
$TREEDEPTH
 70
  3020
  9
$CMLSTYLE
  2
Standard
  9
$CMLJUST
 70
     0
  9
$CMLSCALE
 40
20.0
  9
$PROXYGRAPHICS
 70
     1
  9
$MEASUREMENT
 70
     1
  9
$CELWEIGHT
370
    -1
  9
$ENDCAPS
280
     0
  9
$JOINSTYLE
280
     0
  9
$LWDISPLAY
290
     0
  9
$INSUNITS
 70
     4
  9
$HYPERLINKBASE
  1

  9
$STYLESHEET
  1

  9
$XEDIT
290
     1
  9
$CEPSNTYPE
380
     0
  9
$PSTYLEMODE
290
     1
  9
$FINGERPRINTGUID
  2
{4F38C4E7-9F37-4C76-96D9-79C94F9B03D9}
  9
$VERSIONGUID
  2
{CF2C2997-4881-43DE-A2DE-B13576A061FD}
  9
$EXTNAMES
290
     1
  9
$PSVPSCALE
 40
0.0
  9
$OLESTARTUP
290
     0
  0
ENDSEC
  0
SECTION
  2
CLASSES
  0
CLASS
  1
ACDBDICTIONARYWDFLT
  2
AcDbDictionaryWithDefault
  3
ObjectDBX Classes
 90
        0
280
     0
281
     0
  0
CLASS
  1
TABLESTYLE
  2
AcDbTableStyle
  3
ObjectDBX Classes
 90
     2047
280
     0
281
     0
  0
CLASS
  1
SORTENTSTABLE
  2
AcDbSortentsTable
  3
ObjectDBX Classes
 90
        0
280
     0
281
     0
  0
CLASS
  1
DICTIONARYVAR
  2
AcDbDictionaryVar
  3
ObjectDBX Classes
 90
        0
280
     0
281
     0
  0
CLASS
  1
DIMASSOC
  2
AcDbDimAssoc
  3
"AcDbDimAssoc|Product Desc:     AcDim ARX App For Dimension|Company:          Autodesk, Inc.|WEB Address:      www.autodesk.com"
 90
        0
280
     0
281
     0
  0
CLASS
  1
ACDBPLACEHOLDER
  2
AcDbPlaceHolder
  3
ObjectDBX Classes
 90
        0
280
     0
281
     0
  0
CLASS
  1
LAYOUT
  2
AcDbLayout
  3
ObjectDBX Classes
 90
        0
280
     0
281
     0
  0
CLASS
  1
MATERIAL
  2
AcDbMaterial
  3
ObjectDBX Classes
 90
        0
280
     0
281
     0
  0
CLASS
  1
VISUALSTYLE
  2
AcDbVisualStyle
  3
ObjectDBX Classes
 90
     4095
280
     0
281
     0
  0
CLASS
  1
ACAD_EVALUATION_GRAPH
  2
AcDbEvalGraph
  3
ObjectDBX Classes
 90
    33921
280
     0
281
     0
  0
CLASS
  1
ACAECUSTOBJ
  2
AcAeEditorObj
  3
AcAeEditorObj
 90
    33792
280
     0
281
     0
  0
CLASS
  1
ACDB_DYNAMICBLOCKPURGEPREVENTER_VERSION
  2
AcDbDynamicBlockPurgePreventer
  3
ObjectDBX Classes
 90
    33921
280
     0
281
     0
  0
ENDSEC
  0
SECTION
  2
TABLES
  0
TABLE
  2
VPORT
  5
96
330
0
100
AcDbSymbolTable
 70
    11
  0
VPORT
  5
180C
330
96
100
AcDbSymbolTableRecord
100
AcDbViewportTableRecord
  2
*Active
 70
     0
 10
0.0
 20
0.0
 11
1.0
 21
1.0
 12
0.2154519513940559
 22
0.1448533106764955
 13
0.0
 23
0.0
 14
10.0
 24
10.0
 15
10.0
 25
10.0
 16
0.0
 26
0.0
 36
1.0
 17
0.0
 27
0.0
 37
0.0
 40
0.2894248016334018
 41
1.546526867627784
 42
50.0
 43
0.0
 44
0.0
 50
0.0
 51
0.0
 71
     0
 72
  1000
 73
     1
 74
     3
 75
     0
 76
     0
 77
     0
 78
     0
281
     0
 65
     1
110
0.0
120
0.0
130
0.0
111
1.0
121
0.0
131
0.0
112
0.0
122
1.0
132
0.0
 79
     0
146
0.0
  0
ENDTAB
  0
TABLE
  2
LTYPE
  5
91
330
0
100
AcDbSymbolTable
 70
     5
  0
LTYPE
  5
92
330
91
100
AcDbSymbolTableRecord
100
AcDbLinetypeTableRecord
  2
ByBlock
 70
     0
  3

 72
    65
 73
     0
 40
0.0
  0
LTYPE
  5
93
330
91
100
AcDbSymbolTableRecord
100
AcDbLinetypeTableRecord
  2
ByLayer
 70
     0
  3

 72
    65
 73
     0
 40
0.0
  0
LTYPE
  5
C
330
91
100
AcDbSymbolTableRecord
100
AcDbLinetypeTableRecord
  2
Continuous
 70
     0
  3
Solid line
 72
    65
 73
     0
 40
0.0
  0
LTYPE
  5
105
330
91
100
AcDbSymbolTableRecord
100
AcDbLinetypeTableRecord
  2
ACAD_ISO10W100
 70
     0
  3
ISO dash dot __ . __ . __ . __ . __ . __ . __ .
 72
    65
 73
     4
 40
18.0
 49
12.0
 74
     0
 49
-3.0
 74
     0
 49
0.0
 74
     0
 49
-3.0
 74
     0
  0
LTYPE
  5
190
330
91
100
AcDbSymbolTableRecord
100
AcDbLinetypeTableRecord
  2
RAYITAX4
 70
     0
  3
RAYITAX4
 72
    65
 73
     2
 40
18.0
 49
12.0
 74
     0
 49
-6.0
 74
     0
  0
LTYPE
  5
73C
330
91
100
AcDbSymbolTableRecord
100
AcDbLinetypeTableRecord
  2
RAYITA
 70
     0
  3
rayita
 72
    65
 73
     2
 40
1.5
 49
1.0
 74
     0
 49
-0.5
 74
     0
  0
ENDTAB
  0
TABLE
  2
LAYER
  5
8A
102
{ACAD_XDICTIONARY
360
8B
102
}
330
0
100
AcDbSymbolTable
 70
    12
  0
LAYER
  5
6
330
8A
100
AcDbSymbolTableRecord
100
AcDbLayerTableRecord
  2
0
 70
     0
 62
     7
  6
Continuous
370
    -3
390
7
  0
LAYER
  5
3F
330
8A
100
AcDbSymbolTableRecord
100
AcDbLayerTableRecord
  2
Defpoints
 70
     0
 62
     7
  6
Continuous
290
     0
370
    -3
390
7
  0
LAYER
  5
2E
330
8A
100
AcDbSymbolTableRecord
100
AcDbLayerTableRecord
  2
Dimensione
 70
     0
 62
   150
  6
Continuous
370
    -3
390
7
1001
AcAecLayerStandard
1000

1000

  0
LAYER
  5
2A
330
8A
100
AcDbSymbolTableRecord
100
AcDbLayerTableRecord
  2
Profilo
 70
     0
 62
     1
  6
Continuous
370
    -3
390
7
1001
AcAecLayerStandard
1000

1000

  0
LAYER
  5
54
330
8A
100
AcDbSymbolTableRecord
100
AcDbLayerTableRecord
  2
Sezione
 70
     0
 62
     2
  6
Continuous
370
    -3
390
7
1001
AcAecLayerStandard
1000

1000

  0
LAYER
  5
E
330
8A
100
AcDbSymbolTableRecord
100
AcDbLayerTableRecord
  2
Table
 70
     0
 62
     3
  6
Continuous
370
    -3
390
7
1001
AcAecLayerStandard
1000

1000

  0
LAYER
  5
19
330
8A
100
AcDbSymbolTableRecord
100
AcDbLayerTableRecord
  2
Text
 70
     0
 62
     4
  6
Continuous
370
    -3
390
7
1001
AcAecLayerStandard
1000

1000

  0
LAYER
  5
5C
330
8A
100
AcDbSymbolTableRecord
100
AcDbLayerTableRecord
  2
Vista
 70
     0
 62
     2
  6
Continuous
370
    -3
390
7
1001
AcAecLayerStandard
1000

1000

  0
LAYER
  5
256
330
8A
100
AcDbSymbolTableRecord
100
AcDbLayerTableRecord
  2
CORTE
 70
     0
 62
     1
  6
Continuous
370
    -3
390
7
  0
LAYER
  5
40E
330
8A
100
AcDbSymbolTableRecord
100
AcDbLayerTableRecord
  2
COTAS
 70
     0
 62
     4
  6
Continuous
370
    -3
390
7
  0
LAYER
  5
594
330
8A
100
AcDbSymbolTableRecord
100
AcDbLayerTableRecord
  2
MARCO
 70
     0
 62
     4
  6
Continuous
370
    -3
390
7
  0
LAYER
  5
B5A
330
8A
100
AcDbSymbolTableRecord
100
AcDbLayerTableRecord
  2
TRAMA
 70
     0
 62
     4
  6
Continuous
370
    -3
390
7
  0
ENDTAB
  0
TABLE
  2
STYLE
  5
8F
330
0
100
AcDbSymbolTable
 70
     5
  0
STYLE
  5
1A
330
8F
100
AcDbSymbolTableRecord
100
AcDbTextStyleTableRecord
  2
Standard
 70
     0
 40
0.0
 41
1.0
 50
0.0
 71
     0
 42
2.5
  3
txt
  4

  0
STYLE
  5
20
330
8F
100
AcDbSymbolTableRecord
100
AcDbTextStyleTableRecord
  2
ROMANS
 70
     0
 40
0.0
 41
1.0
 50
0.0
 71
     0
 42
2.5
  3
romans
  4

  0
STYLE
  5
28
330
8F
100
AcDbSymbolTableRecord
100
AcDbTextStyleTableRecord
  2
Arial
 70
     0
 40
0.0
 41
1.0
 50
0.0
 71
     0
 42
0.25
  3
ARIAL.TTF
  4

1001
ACAD
1000
Arial
1071
       34
  0
STYLE
  5
26
330
8F
100
AcDbSymbolTableRecord
100
AcDbTextStyleTableRecord
  2
style1
 70
     0
 40
0.0
 41
1.0
 50
0.0
 71
     0
 42
0.005
  3
TIMES.TTF
  4

1001
ACAD
1000
Times New Roman
1071
       18
  0
STYLE
  5
595
330
8F
100
AcDbSymbolTableRecord
100
AcDbTextStyleTableRecord
  2
EUROROMANOBLIQUE
 70
     0
 40
0.0
 41
1.0
 50
0.0
 71
     0
 42
2.5
  3
euro____.pfb
  4

  0
ENDTAB
  0
TABLE
  2
VIEW
  5
94
330
0
100
AcDbSymbolTable
 70
     4
  0
ENDTAB
  0
TABLE
  2
UCS
  5
95
330
0
100
AcDbSymbolTable
 70
     0
  0
ENDTAB
  0
TABLE
  2
APPID
  5
98
330
0
100
AcDbSymbolTable
 70
    13
  0
APPID
  5
1B
330
98
100
AcDbSymbolTableRecord
100
AcDbRegAppTableRecord
  2
ACAD
 70
     0
  0
APPID
  5
34
330
98
100
AcDbSymbolTableRecord
100
AcDbRegAppTableRecord
  2
ACAD_DSTYLE_DIMJOGGED_JOGANGLE_SYMBOL
 70
     0
  0
APPID
  5
F
330
98
100
AcDbSymbolTableRecord
100
AcDbRegAppTableRecord
  2
AcAecLayerStandard
 70
     0
  0
APPID
  5
85
330
98
100
AcDbSymbolTableRecord
100
AcDbRegAppTableRecord
  2
ACAD_PSEXT
 70
     0
  0
APPID
  5
BA
330
98
100
AcDbSymbolTableRecord
100
AcDbRegAppTableRecord
  2
ACAD_DSTYLE_DIMEXT_LENGTH
 70
     0
  0
APPID
  5
101
330
98
100
AcDbSymbolTableRecord
100
AcDbRegAppTableRecord
  2
ACAD_EXEMPT_FROM_CAD_STANDARDS
 70
     0
  0
APPID
  5
102
330
98
100
AcDbSymbolTableRecord
100
AcDbRegAppTableRecord
  2
ACAD_DSTYLE_DIM_LINETYPE
 70
     0
  0
APPID
  5
103
330
98
100
AcDbSymbolTableRecord
100
AcDbRegAppTableRecord
  2
ACAD_DSTYLE_DIM_EXT1_LINETYPE
 70
     0
  0
APPID
  5
104
330
98
100
AcDbSymbolTableRecord
100
AcDbRegAppTableRecord
  2
ACAD_DSTYLE_DIM_EXT2_LINETYPE
 70
     0
  0
APPID
  5
10D5
330
98
100
AcDbSymbolTableRecord
100
AcDbRegAppTableRecord
  2
ACAUTHENVIRON
 70
     0
  0
APPID
  5
10D9
330
98
100
AcDbSymbolTableRecord
100
AcDbRegAppTableRecord
  2
AcDbDynamicBlockTrueName
 70
     0
  0
APPID
  5
10DA
330
98
100
AcDbSymbolTableRecord
100
AcDbRegAppTableRecord
  2
AcDbDynamicBlockGUID
 70
     0
  0
APPID
  5
10DC
330
98
100
AcDbSymbolTableRecord
100
AcDbRegAppTableRecord
  2
AcDbBlockRepETag
 70
     0
  0
ENDTAB
  0
TABLE
  2
DIMSTYLE
  5
99
330
0
100
AcDbSymbolTable
 70
     8
100
AcDbDimStyleTable
 71
     2
340
2F
340
9A
  0
DIMSTYLE
105
9A
330
99
100
AcDbSymbolTableRecord
100
AcDbDimStyleTableRecord
  2
ISO-25
 70
     0
 41
2.5
 42
0.625
 43
3.75
 44
1.25
 73
     0
 74
     0
 77
     1
 78
     8
140
2.5
141
2.5
143
0.03937007874016
147
0.625
171
     3
172
     1
271
     2
272
     2
274
     3
278
    44
283
     0
284
     8
340
1A
  0
DIMSTYLE
105
2F
102
{ACAD_REACTORS
330
17BC
330
17F0
102
}
330
99
100
AcDbSymbolTableRecord
100
AcDbDimStyleTableRecord
  2
Bovelacci
 70
     0
 40
0.001
 41
1.5
140
3.0
141
0.0
147
2.0
176
     5
177
     5
178
     4
271
     2
272
     2
279
     2
340
20
342
30
1001
ACAD_DSTYLE_DIMJOGGED_JOGANGLE_SYMBOL
1070
   384
1040
0.7853981633974483
1001
ACAD_DSTYLE_DIMEXT_LENGTH
1070
   378
1040
0.18
  0
DIMSTYLE
105
194
330
99
100
AcDbSymbolTableRecord
100
AcDbDimStyleTableRecord
  2
STANDARD
 70
     0
340
1A
  0
DIMSTYLE
105
4EB
330
99
100
AcDbSymbolTableRecord
100
AcDbDimStyleTableRecord
  2
Dim 1-100
 70
     0
 40
0.1
 41
1.5
 42
0.0
 43
5.0
 44
1.25
 45
0.005
 46
1.25
 73
     0
 74
     0
 77
     1
 78
     9
140
2.0
141
2.5
147
1.0
172
     1
174
     1
179
     2
279
     2
289
     2
340
20
342
30
  0
DIMSTYLE
105
4EC
330
99
100
AcDbSymbolTableRecord
100
AcDbDimStyleTableRecord
  2
Dim 1-50
 70
     0
 40
0.05
 41
1.5
 42
0.0
 43
5.0
 44
1.25
 45
0.005
 46
1.25
 73
     0
 74
     0
 77
     1
 78
     9
140
2.0
141
2.5
147
1.0
172
     1
174
     1
179
     2
279
     2
289
     2
340
20
342
30
  0
DIMSTYLE
105
4ED
330
99
100
AcDbSymbolTableRecord
100
AcDbDimStyleTableRecord
  2
Dim 1-200
 70
     0
 40
0.2
 41
1.5
 42
0.0
 43
5.0
 44
1.25
 45
0.005
 46
1.25
 73
     0
 74
     0
 77
     1
 78
     9
140
2.0
141
2.5
147
1.0
172
     1
174
     1
179
     2
271
     2
272
     2
279
     2
289
     2
340
20
342
30
  0
DIMSTYLE
105
4EE
330
99
100
AcDbSymbolTableRecord
100
AcDbDimStyleTableRecord
  2
AEC Scale - Italiano
 70
     0
 41
1.0
 42
10.0
 43
10.0
 44
10.0
 73
     0
 74
     0
 75
     1
 76
     1
 77
     1
140
10.0
141
1.0
147
10.0
173
     1
271
     0
272
     0
279
     2
340
1A
343
4E6
344
4E0
  0
ENDTAB
  0
TABLE
  2
BLOCK_RECORD
  5
1
330
0
100
AcDbSymbolTable
 70
    45
  0
BLOCK_RECORD
  5
2
102
{ACAD_XDICTIONARY
360
3
102
}
330
1
100
AcDbSymbolTableRecord
100
AcDbBlockTableRecord
  2
*Model_Space
340
77
  0
BLOCK_RECORD
  5
79
330
1
100
AcDbSymbolTableRecord
100
AcDbBlockTableRecord
  2
*Paper_Space
340
82
  0
BLOCK_RECORD
  5
86
330
1
100
AcDbSymbolTableRecord
100
AcDbBlockTableRecord
  2
*Paper_Space0
340
89
  0
BLOCK_RECORD
  5
30
330
1
100
AcDbSymbolTableRecord
100
AcDbBlockTableRecord
  2
_ArchTick
340
0
310
2800000020000000200000000100080000000000000400000000000000000000000000000000000000000000000080000080000000808000800000008000800080800000C0C0C000C0DCC000F0CAA6000020400000206000002080000020A0000020C0000020E00000400000004020000040400000406000004080000040A0
310
000040C0000040E00000600000006020000060400000606000006080000060A0000060C0000060E00000800000008020000080400000806000008080000080A0000080C0000080E00000A0000000A0200000A0400000A0600000A0800000A0A00000A0C00000A0E00000C0000000C0200000C0400000C0600000C0800000C0
310
A00000C0C00000C0E00000E0000000E0200000E0400000E0600000E0800000E0A00000E0C00000E0E00040000000400020004000400040006000400080004000A0004000C0004000E00040200000402020004020400040206000402080004020A0004020C0004020E000404000004040200040404000404060004040800040
310
40A0004040C0004040E00040600000406020004060400040606000406080004060A0004060C0004060E00040800000408020004080400040806000408080004080A0004080C0004080E00040A0000040A0200040A0400040A0600040A0800040A0A00040A0C00040A0E00040C0000040C0200040C0400040C0600040C08000
310
40C0A00040C0C00040C0E00040E0000040E0200040E0400040E0600040E0800040E0A00040E0C00040E0E00080000000800020008000400080006000800080008000A0008000C0008000E00080200000802020008020400080206000802080008020A0008020C0008020E00080400000804020008040400080406000804080
310
008040A0008040C0008040E00080600000806020008060400080606000806080008060A0008060C0008060E00080800000808020008080400080806000808080008080A0008080C0008080E00080A0000080A0200080A0400080A0600080A0800080A0A00080A0C00080A0E00080C0000080C0200080C0400080C0600080C0
310
800080C0A00080C0C00080C0E00080E0000080E0200080E0400080E0600080E0800080E0A00080E0C00080E0E000C0000000C0002000C0004000C0006000C0008000C000A000C000C000C000E000C0200000C0202000C0204000C0206000C0208000C020A000C020C000C020E000C0400000C0402000C0404000C0406000C0
310
408000C040A000C040C000C040E000C0600000C0602000C0604000C0606000C0608000C060A000C060C000C060E000C0800000C0802000C0804000C0806000C0808000C080A000C080C000C080E000C0A00000C0A02000C0A04000C0A06000C0A08000C0A0A000C0A0C000C0A0E000C0C00000C0C02000C0C04000C0C06000
310
C0C08000C0C0A000F0FBFF00A4A0A000808080000000FF0000FF000000FFFF00FF000000FF00FF00FFFF0000FFFFFF00000000FF000000000000000000000000000000000000000000000000000000000000FF00FF00000000000000000000000000000000000000000000000000000000FF000000FF000000000000000000
310
0000000000000000000000000000000000FF0000000000FF0000000000000000000000000000000000000000000000000000FF0000000000FF0000000000000000000000000000000000000000000000000000FF0000000000FF0000000000000000000000000000000000000000000000000000FF0000000000FF00000000
310
00000000000000000000000000000000000000000000FF0000000000FF0000000000000000000000000000000000000000000000000000FF0000000000FF0000000000000000000000000000000000000000000000000000FF0000000000FF0000000000000000000000000000000000000000000000000000FF0000000000
310
FF0000000000000000000000000000000000000000000000000000FF0000000000FF0000000000000000000000000000000000000000000000000000FF0000000000FF0000000000000000000000000000000000000000000000000000FF0000000000FF0000000000000000000000000000000000000000000000000000FF
310
0000000000FF0000000000000000000000000000000000000000000000000000FF0000000000FF0000000000000000000000000000000000000000000000000000FF0000000000FF0000000000000000000000000000000000000000000000000000FF0000000000FF00000000000000000000000000000000000000000000
310
00000000FF0000000000FF0000000000000000000000000000000000000000000000000000FF0000000000FF0000000000000000000000000000000000000000000000000000FF0000000000FF0000000000000000000000000000000000000000000000000000FF0000000000FF0000000000000000000000000000000000
310
000000000000000000FF0000000000FF0000000000000000000000000000000000000000000000000000FF0000000000FF0000000000000000000000000000000000000000000000000000FF0000000000FF0000000000000000000000000000000000000000000000000000FF0000000000FF000000000000000000000000
310
0000000000000000000000000000FF0000000000FF0000000000000000000000000000000000000000000000000000FF0000000000FF0000000000000000000000000000000000000000000000000000FF0000000000FF0000000000000000000000000000000000000000000000000000FF000000FF000000000000000000
310
00000000000000000000000000000000000000FF00FF000000000000000000000000000000000000000000000000000000000000FF000000
102
{BLKREFS
331
545
331
546
331
55F
331
560
331
71A
331
71B
331
724
331
725
331
B90
331
B91
331
BAA
331
BAB
331
BC4
331
BC5
331
BDE
331
BDF
331
F9F
331
FA0
331
FB9
331
FBA
331
FD4
331
FD5
331
11BA
331
11BB
331
11D4
331
11D5
331
11EE
331
11EF
331
14A4
331
14A5
331
14B9
331
14BA
331
15E4
331
15E5
331
15FE
331
15FF
331
1618
331
1619
331
17CF
331
17D0
331
17E9
331
17EA
331
1803
331
1804
102
}
  0
BLOCK_RECORD
  5
179
330
1
100
AcDbSymbolTableRecord
100
AcDbBlockTableRecord
  2
DOT
340
0
  0
BLOCK_RECORD
  5
213
330
1
100
AcDbSymbolTableRecord
100
AcDbBlockTableRecord
  2
ELEMENT
340
0
102
{BLKREFS
331
244
102
}
  0
BLOCK_RECORD
  5
235
330
1
100
AcDbSymbolTableRecord
100
AcDbBlockTableRecord
  2
NOM-J
340
0
  0
BLOCK_RECORD
  5
3FB
330
1
100
AcDbSymbolTableRecord
100
AcDbBlockTableRecord
  2
NOM-QR
340
0
  0
BLOCK_RECORD
  5
4E0
330
1
100
AcDbSymbolTableRecord
100
AcDbBlockTableRecord
  2
_Arrivo
340
0
310
2800000020000000200000000100080000000000000400000000000000000000000000000000000000000000000080000080000000808000800000008000800080800000C0C0C000C0DCC000F0CAA6000020400000206000002080000020A0000020C0000020E00000400000004020000040400000406000004080000040A0
310
000040C0000040E00000600000006020000060400000606000006080000060A0000060C0000060E00000800000008020000080400000806000008080000080A0000080C0000080E00000A0000000A0200000A0400000A0600000A0800000A0A00000A0C00000A0E00000C0000000C0200000C0400000C0600000C0800000C0
310
A00000C0C00000C0E00000E0000000E0200000E0400000E0600000E0800000E0A00000E0C00000E0E00040000000400020004000400040006000400080004000A0004000C0004000E00040200000402020004020400040206000402080004020A0004020C0004020E000404000004040200040404000404060004040800040
310
40A0004040C0004040E00040600000406020004060400040606000406080004060A0004060C0004060E00040800000408020004080400040806000408080004080A0004080C0004080E00040A0000040A0200040A0400040A0600040A0800040A0A00040A0C00040A0E00040C0000040C0200040C0400040C0600040C08000
310
40C0A00040C0C00040C0E00040E0000040E0200040E0400040E0600040E0800040E0A00040E0C00040E0E00080000000800020008000400080006000800080008000A0008000C0008000E00080200000802020008020400080206000802080008020A0008020C0008020E00080400000804020008040400080406000804080
310
008040A0008040C0008040E00080600000806020008060400080606000806080008060A0008060C0008060E00080800000808020008080400080806000808080008080A0008080C0008080E00080A0000080A0200080A0400080A0600080A0800080A0A00080A0C00080A0E00080C0000080C0200080C0400080C0600080C0
310
800080C0A00080C0C00080C0E00080E0000080E0200080E0400080E0600080E0800080E0A00080E0C00080E0E000C0000000C0002000C0004000C0006000C0008000C000A000C000C000C000E000C0200000C0202000C0204000C0206000C0208000C020A000C020C000C020E000C0400000C0402000C0404000C0406000C0
310
408000C040A000C040C000C040E000C0600000C0602000C0604000C0606000C0608000C060A000C060C000C060E000C0800000C0802000C0804000C0806000C0808000C080A000C080C000C080E000C0A00000C0A02000C0A04000C0A06000C0A08000C0A0A000C0A0C000C0A0E000C0C00000C0C02000C0C04000C0C06000
310
C0C08000C0C0A000F0FBFF00A4A0A000808080000000FF0000FF000000FFFF00FF000000FF00FF00FFFF0000FFFFFF00000000000000000000000000000000000000000000000000000000000000000000000000000000000000FF0000000000000000000000000000000000000000000000000000000000000000FF000000
310
00000000000000000000000000000000000000000000000000000000FF0000000000000000000000000000000000000000000000000000000000000000FF00000000000000000000000000000000000000000000000000000000000000FF0000000000000000000000000000000000000000000000000000000000000000FF
310
0000000000000000000000000000000000000000000000000000000000000000FF00000000000000000000000000000000000000000000000000000000000000FF0000000000000000000000000000000000000000000000000000000000000000FF0000000000000000000000000000000000000000000000000000000000
310
0000FF0000000000000000000000000000000000000000000000000000000000000000FF00000000000000000000000000000000000000000000000000000000000000FF0000000000000000000000000000000000000000000000000000000000000000FF0000FF0000000000000000000000000000000000000000000000
310
000000000000FFFF000000000000000000000000000000000000000000000000000000000000FFFF00000000000000000000000000000000000000000000000000000000FFFFFFFFFFFF00000000000000000000000000000000000000000000000000000000FFFF0000000000000000000000000000000000000000000000
310
000000000000FF0000FF000000000000000000000000000000000000000000000000000000FF00000000000000000000000000000000000000000000000000000000000000FF000000000000000000000000000000000000000000000000000000000000FF0000000000000000000000000000000000000000000000000000
310
0000000000FF000000000000000000000000000000000000000000000000000000000000FF00000000000000000000000000000000000000000000000000000000000000FF000000000000000000000000000000000000000000000000000000000000FF000000000000000000000000000000000000000000000000000000
310
000000FF00000000000000000000000000000000000000000000000000000000000000FF000000000000000000000000000000000000000000000000000000000000FF00000000000000000000000000000000000000000000000000000000000000FF00000000000000000000000000000000000000000000000000000000
310
0000FF0000000000000000000000000000000000000000000000000000000000000000000000000000000000000000000000000000000000
  0
BLOCK_RECORD
  5
4E6
330
1
100
AcDbSymbolTableRecord
100
AcDbBlockTableRecord
  2
_Partenza
340
0
310
2800000020000000200000000100080000000000000400000000000000000000000000000000000000000000000080000080000000808000800000008000800080800000C0C0C000C0DCC000F0CAA6000020400000206000002080000020A0000020C0000020E00000400000004020000040400000406000004080000040A0
310
000040C0000040E00000600000006020000060400000606000006080000060A0000060C0000060E00000800000008020000080400000806000008080000080A0000080C0000080E00000A0000000A0200000A0400000A0600000A0800000A0A00000A0C00000A0E00000C0000000C0200000C0400000C0600000C0800000C0
310
A00000C0C00000C0E00000E0000000E0200000E0400000E0600000E0800000E0A00000E0C00000E0E00040000000400020004000400040006000400080004000A0004000C0004000E00040200000402020004020400040206000402080004020A0004020C0004020E000404000004040200040404000404060004040800040
310
40A0004040C0004040E00040600000406020004060400040606000406080004060A0004060C0004060E00040800000408020004080400040806000408080004080A0004080C0004080E00040A0000040A0200040A0400040A0600040A0800040A0A00040A0C00040A0E00040C0000040C0200040C0400040C0600040C08000
310
40C0A00040C0C00040C0E00040E0000040E0200040E0400040E0600040E0800040E0A00040E0C00040E0E00080000000800020008000400080006000800080008000A0008000C0008000E00080200000802020008020400080206000802080008020A0008020C0008020E00080400000804020008040400080406000804080
310
008040A0008040C0008040E00080600000806020008060400080606000806080008060A0008060C0008060E00080800000808020008080400080806000808080008080A0008080C0008080E00080A0000080A0200080A0400080A0600080A0800080A0A00080A0C00080A0E00080C0000080C0200080C0400080C0600080C0
310
800080C0A00080C0C00080C0E00080E0000080E0200080E0400080E0600080E0800080E0A00080E0C00080E0E000C0000000C0002000C0004000C0006000C0008000C000A000C000C000C000E000C0200000C0202000C0204000C0206000C0208000C020A000C020C000C020E000C0400000C0402000C0404000C0406000C0
310
408000C040A000C040C000C040E000C0600000C0602000C0604000C0606000C0608000C060A000C060C000C060E000C0800000C0802000C0804000C0806000C0808000C080A000C080C000C080E000C0A00000C0A02000C0A04000C0A06000C0A08000C0A0A000C0A0C000C0A0E000C0C00000C0C02000C0C04000C0C06000
310
C0C08000C0C0A000F0FBFF00A4A0A000808080000000FF0000FF000000FFFF00FF000000FF00FF00FFFF0000FFFFFF0000000000000000000000000000000000000000000000000000000000000000000000000000000000000000000000000000000000000000000000000000000000000000000000000000000000000000
310
000000000000000000000000000000000000000000000000000000000000000000000000000000000000000000000000000000000000000000000000000000000000000000000000000000000000000000000000000000000000000000000000000000000000000000000000000000000000FFFFFFFFFFFFFFFFFFFFFFFFFF
310
FFFFFFFFFFFFFFFFFFFFFFFFFFFFFFFFFF0000000000000000000000000000000000000000000000000000000000000000000000000000000000000000000000000000000000000000000000000000000000000000000000000000000000000000000000000000000000000000000000000000000000000000000000000000
310
00000000000000000000000000000000000000000000000000000000000000000000000000000000000000000000000000000000000000000000000000000000000000000000000000000000000000000000000000000000000000000000000000000000000000000000000000000000000000000000000000000000000000
310
00000000000000000000000000000000000000000000000000000000000000000000000000000000000000000000000000000000000000000000000000000000000000000000000000000000000000000000000000000000000000000000000000000000000000000000000000000000000000000000000000000000000000
310
00000000000000000000000000000000000000000000000000000000000000000000000000000000000000000000000000000000000000000000000000000000000000000000000000000000000000000000000000000000000000000000000000000000000000000000000000000000000000000000000000000000000000
310
000000000000000000000000000000000000000000000000000000000000000000000000000000000000000000000000000000000000000000000000000000000000000000000000000000000000000000000000000000FFFFFFFFFFFFFFFFFFFFFFFFFFFFFFFFFFFFFFFFFFFFFFFFFFFFFFFFFFFF00000000000000000000
310
00000000000000000000000000000000000000000000000000000000000000000000000000000000000000000000000000000000000000000000000000000000000000000000000000000000000000000000000000000000000000000000000000000000000000000000000000000000000000000000000000000000000000
310
0000000000000000000000000000000000000000000000000000000000000000000000000000000000000000000000000000000000000000
  0
BLOCK_RECORD
  5
73D
330
1
100
AcDbSymbolTableRecord
100
AcDbBlockTableRecord
  2
A$C6CE44357
340
0
1001
ACAD
1000
DesignCenter Data
1002
{
1070
     1
1070
     0
1002
}
  0
BLOCK_RECORD
  5
B69
102
{ACAD_XDICTIONARY
360
B6D
102
}
330
1
100
AcDbSymbolTableRecord
100
AcDbBlockTableRecord
  2
A$C263D6B6A
340
0
1001
ACAD
1000
DesignCenter Data
1002
{
1070
     1
1070
     4
1002
}
  0
BLOCK_RECORD
  5
BFB
330
1
100
AcDbSymbolTableRecord
100
AcDbBlockTableRecord
  2
*X19
340
0
102
{BLKREFS
331
C22
102
}
  0
BLOCK_RECORD
  5
C1F
330
1
100
AcDbSymbolTableRecord
100
AcDbBlockTableRecord
  2
A$C6C65579B
340
0
1001
ACAD
1000
DesignCenter Data
1002
{
1070
     1
1070
     0
1002
}
  0
BLOCK_RECORD
  5
FEB
102
{ACAD_XDICTIONARY
360
10D6
102
}
330
1
100
AcDbSymbolTableRecord
100
AcDbBlockTableRecord
  2
Z4
340
0
1001
AcDbDynamicBlockGUID
1000
{4CAFDB11-9655-4F72-B423-0BC31DC420EB}
1001
AcDbBlockRepETag
1070
     1
1071
       20
  0
BLOCK_RECORD
  5
11A8
330
1
100
AcDbSymbolTableRecord
100
AcDbBlockTableRecord
  2
*D26
340
0
  0
BLOCK_RECORD
  5
11DC
330
1
100
AcDbSymbolTableRecord
100
AcDbBlockTableRecord
  2
*D28
340
0
  0
BLOCK_RECORD
  5
1478
330
1
100
AcDbSymbolTableRecord
100
AcDbBlockTableRecord
  2
*D32
340
0
  0
BLOCK_RECORD
  5
1492
330
1
100
AcDbSymbolTableRecord
100
AcDbBlockTableRecord
  2
*D33
340
0
  0
BLOCK_RECORD
  5
14D6
330
1
100
AcDbSymbolTableRecord
100
AcDbBlockTableRecord
  2
A$C135D5332
340
0
1001
ACAD
1000
DesignCenter Data
1002
{
1070
     1
1070
     0
1002
}
  0
BLOCK_RECORD
  5
15D2
330
1
100
AcDbSymbolTableRecord
100
AcDbBlockTableRecord
  2
*D37
340
0
  0
BLOCK_RECORD
  5
15EC
330
1
100
AcDbSymbolTableRecord
100
AcDbBlockTableRecord
  2
*D38
340
0
  0
BLOCK_RECORD
  5
1606
330
1
100
AcDbSymbolTableRecord
100
AcDbBlockTableRecord
  2
*D39
340
0
  0
BLOCK_RECORD
  5
17BD
330
1
100
AcDbSymbolTableRecord
100
AcDbBlockTableRecord
  2
*D42
340
0
  0
BLOCK_RECORD
  5
17D7
330
1
100
AcDbSymbolTableRecord
100
AcDbBlockTableRecord
  2
*D43
340
0
  0
BLOCK_RECORD
  5
17F1
330
1
100
AcDbSymbolTableRecord
100
AcDbBlockTableRecord
  2
*D44
340
0
  0
ENDTAB
  0
ENDSEC
  0
SECTION
  2
BLOCKS
  0
BLOCK
  5
5
330
2
100
AcDbEntity
  8
0
100
AcDbBlockBegin
  2
*Model_Space
 70
     0
 10
0.0
 20
0.0
 30
0.0
  3
*Model_Space
  1

  0
ENDBLK
  5
76
330
2
100
AcDbEntity
  8
0
100
AcDbBlockEnd
  0
BLOCK
  5
7A
330
79
100
AcDbEntity
 67
     1
  8
0
100
AcDbBlockBegin
  2
*Paper_Space
 70
     0
 10
0.0
 20
0.0
 30
0.0
  3
*Paper_Space
  1

  0
ENDBLK
  5
81
330
79
100
AcDbEntity
 67
     1
  8
0
100
AcDbBlockEnd
  0
BLOCK
  5
87
330
86
100
AcDbEntity
 67
     1
  8
0
100
AcDbBlockBegin
  2
*Paper_Space0
 70
     0
 10
0.0
 20
0.0
 30
0.0
  3
*Paper_Space0
  1

  0
ENDBLK
  5
88
330
86
100
AcDbEntity
 67
     1
  8
0
100
AcDbBlockEnd
  0
BLOCK
  5
31
330
30
100
AcDbEntity
  8
0
 62
     1
100
AcDbBlockBegin
  2
_ArchTick
 70
     0
 10
0.0
 20
0.0
 30
0.0
  3
_ArchTick
  1

  0
LWPOLYLINE
  5
32
330
30
100
AcDbEntity
  8
0
  6
ByBlock
 62
     0
100
AcDbPolyline
 90
        2
 70
     0
 43
0.15
 10
-0.5
 20
-0.5
 10
0.5
 20
0.5
  0
ENDBLK
  5
33
330
30
100
AcDbEntity
  8
0
 62
     1
100
AcDbBlockEnd
  0
BLOCK
  5
17A
330
179
100
AcDbEntity
  8
0
100
AcDbBlockBegin
  2
DOT
 70
     0
 10
0.0
 20
0.0
 30
0.0
  3
DOT
  1

  0
LWPOLYLINE
  5
17B
330
179
100
AcDbEntity
  8
0
  6
ByBlock
 62
     0
100
AcDbPolyline
 90
        2
 70
     1
 43
0.5
 10
-0.25
 20
0.0
 42
1.0
 10
0.25
 20
0.0
 42
1.0
  0
LINE
  5
17C
330
179
100
AcDbEntity
  8
0
  6
ByBlock
 62
     0
100
AcDbLine
 10
-0.5
 20
0.0
 30
0.0
 11
-1.0
 21
0.0
 31
0.0
  0
ENDBLK
  5
17D
330
179
100
AcDbEntity
  8
0
100
AcDbBlockEnd
  0
BLOCK
  5
214
330
213
100
AcDbEntity
  8
0
100
AcDbBlockBegin
  2
ELEMENT
 70
     0
 10
0.0
 20
0.0
 30
0.0
  3
ELEMENT
  1

  0
LINE
  5
215
330
213
100
AcDbEntity
  8
CORTE
 62
     1
100
AcDbLine
 10
0.0287752548522349
 20
0.037775254852221
 30
0.0
 11
0.0062928932188697
 21
0.015292893218799
 31
0.0
  0
ARC
  5
216
330
213
100
AcDbEntity
  8
CORTE
 62
     1
100
AcDbCircle
 10
0.0148333333333994
 20
0.0291666666666402
 30
0.0
 40
0.0191847740553366
100
AcDbArc
 50
270.4730994291238
 51
359.5269005707907
  0
LINE
  5
217
330
213
100
AcDbEntity
  8
CORTE
100
AcDbLine
 10
0.0130000000000337
 20
-0.0000000000000568
 30
0.0
 11
0.0099999999999909
 21
0.0000000000000284
 31
0.0
  0
LINE
  5
218
330
213
100
AcDbEntity
  8
CORTE
100
AcDbLine
 10
-0.0009999999999764
 20
0.0010000000000048
 30
0.0
 11
-0.0009999999999764
 21
0.0140000000000384
 31
0.0
  0
ARC
  5
219
330
213
100
AcDbEntity
  8
CORTE
100
AcDbCircle
 10
0.0
 20
0.0010000000000048
 30
0.0
 40
0.001
100
AcDbArc
 50
180.0
 51
269.9999999991858
  0
LINE
  5
21A
330
213
100
AcDbEntity
  8
CORTE
100
AcDbLine
 10
0.0040000000000191
 20
-0.0039999999999623
 30
0.0
 11
0.0040000000000191
 21
-0.0010000000000332
 31
0.0
  0
LINE
  5
21B
330
213
100
AcDbEntity
  8
CORTE
100
AcDbLine
 10
0.0090000000000146
 20
-0.0039999999999907
 30
0.0
 11
0.0090000000000146
 21
-0.0009999999999764
 31
0.0
  0
ARC
  5
21C
330
213
100
AcDbEntity
  8
CORTE
100
AcDbCircle
 10
0.0049999999999955
 20
-0.0039999999999623
 30
0.0
 40
0.001
100
AcDbArc
 50
180.0
 51
269.9999999996743
  0
LINE
  5
21D
330
213
100
AcDbEntity
  8
CORTE
100
AcDbLine
 10
0.0080000000000382
 20
-0.0049999999999955
 30
0.0
 11
0.0049999999999955
 21
-0.004999999999967
 31
0.0
  0
ARC
  5
21E
330
213
100
AcDbEntity
  8
CORTE
100
AcDbCircle
 10
0.0080000000000382
 20
-0.0039999999999907
 30
0.0
 40
0.001
100
AcDbArc
 50
269.9999999995929
 51
0.000000000000007
  0
LINE
  5
21F
330
213
100
AcDbEntity
  8
CORTE
100
AcDbLine
 10
0.0030000000000427
 20
-0.0000000000000284
 30
0.0
 11
0.0
 21
0.0
 31
0.0
  0
ARC
  5
220
330
213
100
AcDbEntity
  8
CORTE
100
AcDbCircle
 10
0.0030000000000427
 20
-0.0010000000000332
 30
0.0
 40
0.001
100
AcDbArc
 50
0.000000000000007
 51
89.99999999967434
  0
ARC
  5
221
330
213
100
AcDbEntity
  8
CORTE
100
AcDbCircle
 10
0.0099999999999909
 20
-0.0009999999999764
 30
0.0
 40
0.001
100
AcDbArc
 50
89.99999999967434
 51
180.0
  0
ARC
  5
222
330
213
100
AcDbEntity
  8
CORTE
100
AcDbCircle
 10
0.0
 20
0.0140000000000384
 30
0.0
 40
0.001
100
AcDbArc
 50
89.99999999975274
 51
180.0
  0
LINE
  5
223
330
213
100
AcDbEntity
  8
CORTE
100
AcDbLine
 10
0.0055857864376776
 20
0.0149999999999864
 30
0.0
 11
0.0
 21
0.0150000000000432
 31
0.0
  0
ARC
  5
224
330
213
100
AcDbEntity
  8
CORTE
 62
     1
100
AcDbCircle
 10
0.0055857864376776
 20
0.0159999999999911
 30
0.0
 40
0.001
100
AcDbArc
 50
269.9999999997674
 51
315.0000000000357
  0
LINE
  5
225
330
213
100
AcDbEntity
  8
CORTE
100
AcDbLine
 10
0.01400000000001
 20
0.0009999999999479
 30
0.0
 11
0.01400000000001
 21
0.0089825806863075
 31
0.0
  0
ARC
  5
226
330
213
100
AcDbEntity
  8
CORTE
100
AcDbCircle
 10
0.0130000000000337
 20
0.0009999999999479
 30
0.0
 40
0.001
100
AcDbArc
 50
269.9999999991858
 51
0.000000000000007
  0
ARC
  5
227
330
213
100
AcDbEntity
  8
CORTE
 62
     1
100
AcDbCircle
 10
0.0149999999999864
 20
0.0089825806862791
 30
0.0
 40
0.001
100
AcDbArc
 50
90.47309942941524
 51
179.9999999983715
  0
LINE
  5
228
330
213
100
AcDbEntity
  8
CORTE
100
AcDbLine
 10
0.0440000000000964
 20
0.0339999999999918
 30
0.0
 11
0.0440000000000396
 21
0.0310000000000059
 31
0.0
  0
ARC
  5
229
330
213
100
AcDbEntity
  8
CORTE
100
AcDbCircle
 10
0.0430000000000632
 20
0.0310000000000059
 30
0.0
 40
0.001
100
AcDbArc
 50
270.0
 51
0.000000000000007
  0
ARC
  5
22A
330
213
100
AcDbEntity
  8
CORTE
 62
     1
100
AcDbCircle
 10
0.0350174193137605
 20
0.0290000000000248
 30
0.0
 40
0.001
100
AcDbArc
 50
90.00000000325689
 51
179.5269005705982
  0
LINE
  5
22B
330
213
100
AcDbEntity
  8
CORTE
100
AcDbLine
 10
0.0430000000000632
 20
0.0300000000000011
 30
0.0
 11
0.0350174193137036
 21
0.0300000000000296
 31
0.0
  0
LINE
  5
22C
330
213
100
AcDbEntity
  8
CORTE
100
AcDbLine
 10
0.047999999999945
 20
0.0400000000000205
 30
0.0
 11
0.0300000000000296
 21
0.0400000000000205
 31
0.0
  0
ARC
  5
22D
330
213
100
AcDbEntity
  8
CORTE
 62
     1
100
AcDbCircle
 10
0.0300000000000296
 20
0.0390000000000157
 30
0.0
 40
0.001
100
AcDbArc
 50
90.0
 51
195.0000055997392
  0
ARC
  5
22E
330
213
100
AcDbEntity
  8
CORTE
 62
     1
100
AcDbCircle
 10
0.0280681480710428
 20
0.0384823616334131
 30
0.0
 40
0.001
100
AcDbArc
 50
315.0
 51
15.00000559812761
  0
LINE
  5
22F
330
213
100
AcDbEntity
  8
CORTE
100
AcDbLine
 10
0.0489999999998645
 20
0.0360000000000582
 30
0.0
 11
0.0489999999999213
 21
0.0389999999999873
 31
0.0
  0
LINE
  5
230
330
213
100
AcDbEntity
  8
CORTE
100
AcDbLine
 10
0.0480000000000018
 20
0.0350000000000534
 30
0.0
 11
0.0450000000000728
 21
0.0349999999999966
 31
0.0
  0
ARC
  5
231
330
213
100
AcDbEntity
  8
CORTE
100
AcDbCircle
 10
0.0480000000000018
 20
0.0360000000000582
 30
0.0
 40
0.001
100
AcDbArc
 50
270.0000000004071
 51
0.000000000000007
  0
ARC
  5
232
330
213
100
AcDbEntity
  8
CORTE
100
AcDbCircle
 10
0.0450000000000728
 20
0.0339999999999918
 30
0.0
 40
0.001
100
AcDbArc
 50
90.0
 51
180.0
  0
ARC
  5
233
330
213
100
AcDbEntity
  8
CORTE
100
AcDbCircle
 10
0.047999999999945
 20
0.0390000000000157
 30
0.0
 40
0.001
100
AcDbArc
 50
359.9999999991858
 51
90.0
  0
ENDBLK
  5
234
330
213
100
AcDbEntity
  8
0
100
AcDbBlockEnd
  0
BLOCK
  5
236
330
235
100
AcDbEntity
  8
0
 62
     4
100
AcDbBlockBegin
  2
NOM-J
 70
     0
 10
0.0
 20
0.0
 30
0.0
  3
NOM-J
  1

  0
LINE
  5
237
330
235
100
AcDbEntity
  8
Vista
 62
     4
100
AcDbLine
 10
0.0211489998446837
 20
0.0224999999999795
 30
0.0
 11
0.093805067538824
 21
0.0379594292031982
 31
0.0
  0
LINE
  5
238
330
235
100
AcDbEntity
  8
Vista
 62
     4
100
AcDbLine
 10
0.0197074998707194
 20
0.0224999999999795
 30
0.0
 11
0.0923635675646324
 21
0.0379594292032266
 31
0.0
  0
LINE
  5
239
330
235
100
AcDbEntity
  8
Vista
 62
     4
100
AcDbLine
 10
0.0182659998964141
 20
0.0224999999999795
 30
0.0
 11
0.0909220675904408
 21
0.0379594292031982
 31
0.0
  0
LINE
  5
23A
330
235
100
AcDbEntity
  8
Vista
 62
     4
100
AcDbLine
 10
0.0168244999223362
 20
0.0224999999999795
 30
0.0
 11
0.0894805676163628
 21
0.0379594292032266
 31
0.0
  0
LINE
  5
23B
330
235
100
AcDbEntity
  8
Vista
 62
     4
100
AcDbLine
 10
0.0153829999481445
 20
0.0224999999999795
 30
0.0
 11
0.0880390676422849
 21
0.0379594292032266
 31
0.0
  0
LINE
  5
23C
330
235
100
AcDbEntity
  8
Vista
 62
     4
100
AcDbLine
 10
0.0139414999740666
 20
0.0224999999999795
 30
0.0
 11
0.0865975676682069
 21
0.0379594292032266
 31
0.0
  0
LINE
  5
23D
330
235
100
AcDbEntity
  8
Vista
 62
     2
100
AcDbLine
 10
0.0125000000000455
 20
0.022500000000008
 30
0.0
 11
0.0851560676940153
 21
0.0379594292032266
 31
0.0
  0
LINE
  5
23E
330
235
100
AcDbEntity
  8
Vista
 62
     2
100
AcDbLine
 10
0.0218535533905424
 20
0.0223535533905874
 30
0.0
 11
0.0945096210847396
 21
0.0378129825938061
 31
0.0
  0
LINE
  5
23F
330
235
100
AcDbEntity
  8
Vista
 62
     2
100
AcDbLine
 10
0.02150000000006
 20
0.0200000000000387
 30
0.0
 11
0.094359627334427
 21
0.0355027417029987
 31
0.0
  0
LINE
  5
240
330
235
100
AcDbEntity
  8
Vista
 62
     2
100
AcDbLine
 10
0.0190000000000055
 20
0.0175000000000125
 30
0.0
 11
0.0918596273343724
 21
0.0330027417029726
 31
0.0
  0
LINE
  5
241
330
235
100
AcDbEntity
  8
Vista
 62
     2
100
AcDbLine
 10
0.0075428343679391
 20
0.0078574386832884
 30
0.0
 11
0.0801989020703786
 21
0.0233168678888376
 31
0.0
  0
LINE
  5
242
330
235
100
AcDbEntity
  8
Vista
 62
     2
100
AcDbLine
 10
0.0040000000000191
 20
0.0024999999999693
 30
0.0
 11
0.0746560676942068
 21
0.0175338782567849
 31
0.0
  0
LINE
  5
243
330
235
100
AcDbEntity
  8
Vista
 62
     3
100
AcDbLine
 10
0.0018535533906174
 20
0.0001464466094205
 30
0.0
 11
0.074509621085781
 21
0.0156058758136055
 31
0.0
  0
INSERT
  5
244
330
235
100
AcDbEntity
  8
CORTE
 62
     4
100
AcDbBlockReference
  2
ELEMENT
 10
-0.0024999999999977
 20
0.0024999999999977
 30
0.0
 41
0.5
 42
0.5
 43
0.5
  0
LINE
  5
245
330
235
100
AcDbEntity
  8
Vista
 62
     2
100
AcDbLine
 10
-0.0024999999999977
 20
0.0100000000000193
 30
0.0
 11
0.0013108568762163
 21
0.0108108568761622
 31
0.0
  0
ARC
  5
246
330
235
100
AcDbEntity
  8
CORTE
 62
     3
100
AcDbCircle
 10
0.0775727343608992
 20
0.0325427625365364
 30
0.0
 40
0.0095923870276683
100
AcDbArc
 50
278.1349003175446
 51
356.7599311023579
  0
LINE
  5
247
330
235
100
AcDbEntity
  8
CORTE
 62
     3
100
AcDbLine
 10
0.0771560676942045
 20
0.0184594292032045
 30
0.0
 11
0.0771560676942045
 21
0.0224507195463559
 31
0.0
  0
ARC
  5
248
330
235
100
AcDbEntity
  8
CORTE
 62
     3
100
AcDbCircle
 10
0.0751560676941949
 20
0.0174594292032282
 30
0.0
 40
0.0005
100
AcDbArc
 50
89.99999999967434
 51
180.0
  0
LINE
  5
249
330
235
100
AcDbEntity
  8
Vista
 62
     3
100
AcDbLine
 10
0.074509621085781
 20
0.0156058758135771
 30
0.0
 11
0.0746560676941499
 21
0.0156370360599851
 31
0.0
  0
ARC
  5
24A
330
235
100
AcDbEntity
  8
CORTE
100
AcDbCircle
 10
0.0741560676942186
 20
0.0159594292032068
 30
0.0
 40
0.0005
100
AcDbArc
 50
315.0000001496929
 51
0.000000000000007
  0
LINE
  5
24B
330
235
100
AcDbEntity
  8
CORTE
 62
     3
100
AcDbLine
 10
0.0746560676942068
 20
0.0159594292032068
 30
0.0
 11
0.0746560676942068
 21
0.0174594292032282
 31
0.0
  0
ARC
  5
24C
330
235
100
AcDbEntity
  8
CORTE
 62
     3
100
AcDbCircle
 10
0.0766560676942163
 20
0.0184594292032045
 30
0.0
 40
0.0005
100
AcDbArc
 50
269.9999999991858
 51
0.000000000000007
  0
LINE
  5
24D
330
235
100
AcDbEntity
  8
CORTE
 62
     3
100
AcDbLine
 10
0.0766560676942163
 20
0.017959429203188
 30
0.0
 11
0.0751560676941949
 21
0.0179594292032164
 31
0.0
  0
ARC
  5
24E
330
235
100
AcDbEntity
  8
CORTE
 62
     3
100
AcDbCircle
 10
0.0776560676941927
 20
0.0224507195463559
 30
0.0
 40
0.0005
100
AcDbArc
 50
152.521182623883
 51
179.9999999983715
  0
LINE
  5
24F
330
235
100
AcDbEntity
  8
CORTE
 62
     3
100
AcDbLine
 10
0.0946560676941317
 20
0.0359594292032455
 30
0.0
 11
0.0946560676941317
 21
0.03745942920321
 31
0.0
  0
ARC
  5
250
330
235
100
AcDbEntity
  8
CORTE
 62
     3
100
AcDbCircle
 10
0.0916560676942027
 20
0.0334594292032193
 30
0.0
 40
0.0005
100
AcDbArc
 50
270.0
 51
0.000000000000007
  0
ARC
  5
251
330
235
100
AcDbEntity
  8
CORTE
 62
     3
100
AcDbCircle
 10
0.0941560676942004
 20
0.0359594292032455
 30
0.0
 40
0.0005
100
AcDbArc
 50
294.0240004981589
 51
0.000000000000007
  0
LINE
  5
252
330
235
100
AcDbEntity
  8
CORTE
 62
     3
100
AcDbLine
 10
0.0921560676942477
 20
0.0349594292032123
 30
0.0
 11
0.0921560676941908
 21
0.0334594292032193
 31
0.0
  0
LINE
  5
253
330
235
100
AcDbEntity
  8
CORTE
 62
     3
100
AcDbLine
 10
0.0941560676941436
 20
0.0379594292032266
 30
0.0
 11
0.0851560676942427
 21
0.0379594292032266
 31
0.0
  0
ARC
  5
254
330
235
100
AcDbEntity
  8
CORTE
 62
     3
100
AcDbCircle
 10
0.0941560676941436
 20
0.03745942920321
 30
0.0
 40
0.0005
100
AcDbArc
 50
359.9999999991858
 51
90.0
  0
ENDBLK
  5
255
330
235
100
AcDbEntity
  8
0
 62
     4
100
AcDbBlockEnd
  0
BLOCK
  5
3FC
330
3FB
100
AcDbEntity
  8
0
 62
     1
100
AcDbBlockBegin
  2
NOM-QR
 70
     0
 10
0.0
 20
0.0
 30
0.0
  3
NOM-QR
  1

  0
LINE
  5
3FD
330
3FB
100
AcDbEntity
  8
CORTE
 62
     4
100
AcDbLine
 10
0.0184292030348843
 20
0.0200000000000102
 30
0.0
 11
0.0860297709413658
 21
0.0343689442811126
 31
0.0
  0
LINE
  5
3FE
330
3FB
100
AcDbEntity
  8
CORTE
 62
     4
100
AcDbLine
 10
0.0155433624279908
 20
0.0200000000000102
 30
0.0
 11
0.0831439303344155
 21
0.0343689442811126
 31
0.0
  0
LINE
  5
3FF
330
3FB
100
AcDbEntity
  8
CORTE
 62
     4
100
AcDbLine
 10
0.0126575218209837
 20
0.0200000000000102
 30
0.0
 11
0.0802580897274084
 21
0.034368944281141
 31
0.0
  0
LINE
  5
400
330
3FB
100
AcDbEntity
  8
CORTE
 62
     4
100
AcDbLine
 10
0.0097716812139765
 20
0.0200000000000102
 30
0.0
 11
0.077372249120458
 21
0.0343689442811126
 31
0.0
  0
LINE
  5
401
330
3FB
100
AcDbEntity
  8
CORTE
 62
     4
100
AcDbLine
 10
0.0068858406069694
 20
0.0200000000000102
 30
0.0
 11
0.0744864085134509
 21
0.0343689442811126
 31
0.0
  0
LINE
  5
402
330
3FB
100
AcDbEntity
  8
CORTE
 62
     3
100
AcDbLine
 10
0.0081347328614925
 20
0.0017290908471352
 30
0.0
 11
0.0757353007679171
 21
0.0160980351282376
 31
0.0
  0
LINE
  5
403
330
3FB
100
AcDbEntity
  8
CORTE
 62
     3
100
AcDbLine
 10
0.0040000000000191
 20
0.0200000000000102
 30
0.0
 11
0.0716005679065006
 21
0.034368944281141
 31
0.0
  0
LINE
  5
404
330
3FB
100
AcDbEntity
  8
CORTE
 62
     3
100
AcDbLine
 10
0.0200000000000387
 20
0.0200000000000102
 30
0.0
 11
0.0876005679064633
 21
0.0343689442811126
 31
0.0
  0
ARC
  5
405
330
3FB
100
AcDbEntity
  8
CORTE
 62
     1
100
AcDbCircle
 10
0.0
 20
0.0200000000000102
 30
0.0
 40
0.0200000000000102
100
AcDbArc
 50
270.0
 51
0.0
  0
LINE
  5
406
330
3FB
100
AcDbEntity
  8
CORTE
 62
     1
100
AcDbLine
 10
0.0
 20
0.0160000000000196
 30
0.0
 11
0.0
 21
0.0
 31
0.0
  0
LINE
  5
407
330
3FB
100
AcDbEntity
  8
COTAS
 62
     1
100
AcDbLine
 10
0.0200000000000387
 20
0.0200000000000102
 30
0.0
 11
0.0040000000000191
 21
0.0200000000000102
 31
0.0
  0
ARC
  5
408
330
3FB
100
AcDbEntity
  8
CORTE
 62
     1
100
AcDbCircle
 10
0.0
 20
0.0200000000000102
 30
0.0
 40
0.004
100
AcDbArc
 50
270.0
 51
0.0
  0
ARC
  5
409
330
3FB
100
AcDbEntity
  8
CORTE
 62
     1
100
AcDbCircle
 10
0.0676005679064247
 20
0.0343689442811126
 30
0.0
 40
0.0200000000000102
100
AcDbArc
 50
270.0
 51
0.0
  0
LINE
  5
40A
330
3FB
100
AcDbEntity
  8
COTAS
 62
     1
100
AcDbLine
 10
0.0876005679064633
 20
0.0343689442811126
 30
0.0
 11
0.0716005679064438
 21
0.0343689442811126
 31
0.0
  0
ENDBLK
  5
40B
330
3FB
100
AcDbEntity
  8
0
 62
     1
100
AcDbBlockEnd
  0
BLOCK
  5
4E1
330
4E0
100
AcDbEntity
  8
0
100
AcDbBlockBegin
  2
_Arrivo
 70
     0
 10
0.0
 20
0.0
 30
0.0
  3
_Arrivo
  1

  0
LINE
  5
4E2
330
4E0
100
AcDbEntity
  8
0
  6
ByBlock
 62
     0
370
    -2
100
AcDbLine
 10
0.025
 20
-0.0433012701891858
 30
0.0
 11
-0.15
 21
0.2598076211353328
 31
0.0
  0
LINE
  5
4E3
330
4E0
100
AcDbEntity
  8
0
  6
ByBlock
 62
     0
370
    -2
100
AcDbLine
 10
0.025
 20
0.0433012701892585
 30
0.0
 11
-0.15
 21
-0.2598076211353328
 31
0.0
  0
LINE
  5
4E4
330
4E0
100
AcDbEntity
  8
0
  6
ByBlock
 62
     0
370
    -2
100
AcDbLine
 10
-0.05
 20
0.0
 30
0.0
 11
0.05
 21
0.0
 31
0.0
  0
ENDBLK
  5
4E5
330
4E0
100
AcDbEntity
  8
0
100
AcDbBlockEnd
  0
BLOCK
  5
4E7
330
4E6
100
AcDbEntity
  8
0
100
AcDbBlockBegin
  2
_Partenza
 70
     0
 10
0.0
 20
0.0
 30
0.0
  3
_Partenza
  1

  0
LINE
  5
4E8
330
4E6
100
AcDbEntity
  8
0
  6
ByBlock
 62
     0
370
    -2
100
AcDbLine
 10
-0.05
 20
0.05
 30
0.0
 11
0.1
 21
0.05
 31
0.0
  0
LINE
  5
4E9
330
4E6
100
AcDbEntity
  8
0
  6
ByBlock
 62
     0
370
    -2
100
AcDbLine
 10
-0.05
 20
-0.05
 30
0.0
 11
0.1
 21
-0.05
 31
0.0
  0
ENDBLK
  5
4EA
330
4E6
100
AcDbEntity
  8
0
100
AcDbBlockEnd
  0
BLOCK
  5
807
330
73D
100
AcDbEntity
  8
0
 62
     3
100
AcDbBlockBegin
  2
A$C6CE44357
 70
     0
 10
0.0
 20
0.0
 30
0.0
  3
A$C6CE44357
  1

  0
LINE
  5
73E
330
73D
100
AcDbEntity
  8
Vista
 62
     3
100
AcDbLine
 10
-265.2371225605411
 20
-42.42864078547465
 30
0.0
 11
-265.1113419531143
 21
-42.4023863117474
 31
0.0
  0
LINE
  5
73F
330
73D
100
AcDbEntity
  8
Vista
 62
     4
100
AcDbLine
 10
-265.2590480951634
 20
-42.54823976658282
 30
0.0
 11
-265.2510480951634
 21
-42.54823976658282
 31
0.0
  0
LINE
  5
740
330
73D
100
AcDbEntity
  8
Vista
 62
     3
100
AcDbLine
 10
-265.2678775571128
 20
-42.55723976658283
 30
0.0
 11
-265.2164242716711
 21
-42.55723976658283
 31
0.0
  0
LINE
  5
741
330
73D
100
AcDbEntity
  8
Vista
 62
     2
100
AcDbLine
 10
-265.240902830533
 20
-42.52873976658283
 30
0.0
 11
-265.2164242716711
 21
-42.52873976658283
 31
0.0
  0
LINE
  5
742
330
73D
100
AcDbEntity
  8
Vista
 62
     2
100
AcDbLine
 10
-265.245902830533
 20
-42.53973976658282
 30
0.0
 11
-265.2164242716711
 21
-42.53973976658282
 31
0.0
  0
LINE
  5
743
330
73D
100
AcDbEntity
  8
Vista
 62
     2
100
AcDbLine
 10
-265.2411287103258
 20
-42.53147306509318
 30
0.0
 11
-265.2164242716712
 21
-42.53147306509318
 31
0.0
  0
LINE
  5
744
330
73D
100
AcDbEntity
  8
Vista
 62
     2
100
AcDbLine
 10
-265.2649809809004
 20
-42.55319036467706
 30
0.0
 11
-265.2164242716712
 21
-42.55319036467706
 31
0.0
  0
LWPOLYLINE
  5
745
330
73D
100
AcDbEntity
  8
CORTE
  6
Continuous
 62
     1
100
AcDbPolyline
 90
       30
 70
     1
 43
0.0
 10
-265.2651647001392
 20
-42.55337345319399
 42
0.2685636005234304
 10
-265.2649137067366
 20
-42.55293986846818
 10
-265.2649137067366
 20
-42.54823976658282
 10
-265.2624028305331
 20
-42.54823976658282
 42
0.4142135623730693
 10
-265.261402830533
 20
-42.54723976658282
 10
-265.261402830533
 20
-42.53973976658282
 10
-265.258902830533
 20
-42.53973976658282
 42
-0.2526773759784102
 10
-265.2565834054943
 20
-42.53823976658283
 10
-265.2512222555718
 20
-42.53823976658283
 42
-0.2526773759784102
 10
-265.2489028305331
 20
-42.53973976658282
 10
-265.245902830533
 20
-42.53973976658282
 42
0.414213562373069
 10
-265.244902830533
 20
-42.53873976658282
 10
-265.244902830533
 20
-42.53523036708408
 42
-0.3189892314182299
 10
-265.2417043063426
 20
-42.53182012245305
 42
0.356818340496206
 10
-265.240902830533
 20
-42.53084002646501
 10
-265.240902830533
 20
-42.52873976658283
 42
0.364269306410865
 10
-265.234652830533
 20
-42.52348976658284
 42
-0.3260576707120786
 10
-265.2292666879074
 20
-42.51829884552306
 42
0.3747567555282292
 10
-265.228402830533
 20
-42.51730815627538
 10
-265.228402830533
 20
-42.51473976658282
 10
-265.240902830533
 20
-42.51473976658282
 10
-265.240902830533
 20
-42.52073976658282
 10
-265.254402830533
 20
-42.53323976658283
 10
-265.264402830533
 20
-42.53323976658283
 42
0.4142135623730704
 10
-265.269402830533
 20
-42.53823976658283
 10
-265.269402830533
 20
-42.54351258119139
 10
-265.270902830533
 20
-42.54473976658282
 10
-265.270902830533
 20
-42.55723976658283
 10
-265.2678775571128
 20
-42.55723976658283
 42
0.3849291685644514
 10
-265.2673801055846
 20
-42.55679018460604
 42
-0.2416670294637286
  0
LINE
  5
746
330
73D
100
AcDbEntity
  8
CORTE
  6
RAYITA
 62
     4
100
AcDbLine
 10
-265.2649137067366
 20
-42.54823976658282
 30
0.0
 11
-265.2649137067366
 21
-42.53973976658282
 31
0.0
  0
LINE
  5
747
330
73D
100
AcDbEntity
  8
CORTE
  6
RAYITA
 62
     4
100
AcDbLine
 10
-265.2631769303866
 20
-42.5441333561959
 30
0.0
 11
-265.2631769303866
 21
-42.53973976658282
 31
0.0
  0
LINE
  5
748
330
73D
100
AcDbEntity
  8
CORTE
  6
RAYITA
 62
     4
100
AcDbLine
 10
-265.2631769303866
 20
-42.5441333561959
 30
0.0
 11
-265.2649137067366
 21
-42.5441333561959
 31
0.0
  0
LINE
  5
749
330
73D
100
AcDbEntity
  8
CORTE
  6
RAYITA
 62
     4
100
AcDbLine
 10
-265.261402830533
 20
-42.53973976658282
 30
0.0
 11
-265.2649137067366
 21
-42.53973976658282
 31
0.0
  0
LINE
  5
74A
330
73D
100
AcDbEntity
  8
Vista
 62
     3
100
AcDbLine
 10
-265.228402830533
 20
-42.51473976658282
 30
0.0
 11
-265.2164242716711
 21
-42.51473976658279
 31
0.0
  0
LINE
  5
74B
330
73D
100
AcDbEntity
  8
Vista
 62
     2
100
AcDbLine
 10
-265.2286491254761
 20
-42.51796536909266
 30
0.0
 11
-265.2164242716712
 21
-42.51796536909266
 31
0.0
  0
LINE
  5
74C
330
73D
100
AcDbEntity
  8
Vista
 62
     4
100
AcDbLine
 10
-265.2590480951634
 20
-42.53973976658282
 30
0.0
 11
-265.2590480951634
 21
-42.54823976658282
 31
0.0
  0
LINE
  5
74D
330
73D
100
AcDbEntity
  8
Vista
 62
     4
100
AcDbLine
 10
-265.2510480951634
 20
-42.53973976658282
 30
0.0
 11
-265.2510480951634
 21
-42.54823976658282
 31
0.0
  0
LINE
  5
74E
330
73D
100
AcDbEntity
  8
Vista
 62
     4
100
AcDbLine
 10
-265.2470480951634
 20
-42.53973976658282
 30
0.0
 11
-265.2470480951635
 21
-42.54823976658282
 31
0.0
  0
LINE
  5
74F
330
73D
100
AcDbEntity
  8
Vista
 62
     4
100
AcDbLine
 10
-265.2390480951634
 20
-42.53973976658282
 30
0.0
 11
-265.2390480951634
 21
-42.54823976658282
 31
0.0
  0
LINE
  5
750
330
73D
100
AcDbEntity
  8
Vista
 62
     4
100
AcDbLine
 10
-265.2350480951635
 20
-42.53973976658282
 30
0.0
 11
-265.2350480951635
 21
-42.54823976658282
 31
0.0
  0
LINE
  5
751
330
73D
100
AcDbEntity
  8
Vista
 62
     4
100
AcDbLine
 10
-265.2510480951634
 20
-42.5441333561959
 30
0.0
 11
-265.2470480951635
 21
-42.5441333561959
 31
0.0
  0
LINE
  5
752
330
73D
100
AcDbEntity
  8
Vista
 62
     4
100
AcDbLine
 10
-265.2390480951634
 20
-42.5441333561959
 30
0.0
 11
-265.2350480951635
 21
-42.5441333561959
 31
0.0
  0
LINE
  5
753
330
73D
100
AcDbEntity
  8
Vista
 62
     4
100
AcDbLine
 10
-265.2470480951635
 20
-42.54823976658282
 30
0.0
 11
-265.2390480951634
 21
-42.54823976658282
 31
0.0
  0
LINE
  5
754
330
73D
100
AcDbEntity
  8
Vista
 62
     4
100
AcDbLine
 10
-265.2350480951635
 20
-42.54823976658282
 30
0.0
 11
-265.2270480951634
 21
-42.54823976658282
 31
0.0
  0
LINE
  5
755
330
73D
100
AcDbEntity
  8
Vista
 62
     4
100
AcDbLine
 10
-265.2230480951634
 20
-42.53973976658282
 30
0.0
 11
-265.2230480951634
 21
-42.54823976658282
 31
0.0
  0
LINE
  5
756
330
73D
100
AcDbEntity
  8
Vista
 62
     4
100
AcDbLine
 10
-265.2270480951634
 20
-42.53973976658282
 30
0.0
 11
-265.2270480951634
 21
-42.54823976658282
 31
0.0
  0
LINE
  5
757
330
73D
100
AcDbEntity
  8
Vista
 62
     4
100
AcDbLine
 10
-265.2230480951634
 20
-42.54823976658282
 30
0.0
 11
-265.2164242716711
 21
-42.54823976658282
 31
0.0
  0
LINE
  5
758
330
73D
100
AcDbEntity
  8
Vista
 62
     4
100
AcDbLine
 10
-265.2270480951634
 20
-42.5441333561959
 30
0.0
 11
-265.2230480951634
 21
-42.5441333561959
 31
0.0
  0
LINE
  5
759
330
73D
100
AcDbEntity
  8
Vista
 62
     4
100
AcDbLine
 10
-265.2079942150913
 20
-42.54823976658282
 30
0.0
 11
-265.2030480951634
 21
-42.54823976658282
 31
0.0
  0
LINE
  5
75A
330
73D
100
AcDbEntity
  8
Vista
 62
     4
100
AcDbLine
 10
-265.1870480951635
 20
-42.53973976658282
 30
0.0
 11
-265.1870480951635
 21
-42.54823976658282
 31
0.0
  0
LINE
  5
75B
330
73D
100
AcDbEntity
  8
Vista
 62
     4
100
AcDbLine
 10
-265.1910480951634
 20
-42.53973976658282
 30
0.0
 11
-265.1910480951634
 21
-42.54823976658282
 31
0.0
  0
LINE
  5
75C
330
73D
100
AcDbEntity
  8
Vista
 62
     4
100
AcDbLine
 10
-265.1990480951635
 20
-42.53973976658282
 30
0.0
 11
-265.1990480951635
 21
-42.54823976658282
 31
0.0
  0
LINE
  5
75D
330
73D
100
AcDbEntity
  8
Vista
 62
     4
100
AcDbLine
 10
-265.2030480951634
 20
-42.53973976658282
 30
0.0
 11
-265.2030480951634
 21
-42.54823976658282
 31
0.0
  0
LINE
  5
75E
330
73D
100
AcDbEntity
  8
Vista
 62
     4
100
AcDbLine
 10
-265.1990480951635
 20
-42.54823976658282
 30
0.0
 11
-265.1910480951634
 21
-42.54823976658282
 31
0.0
  0
LINE
  5
75F
330
73D
100
AcDbEntity
  8
Vista
 62
     4
100
AcDbLine
 10
-265.2030480951634
 20
-42.5441333561959
 30
0.0
 11
-265.1990480951635
 21
-42.5441333561959
 31
0.0
  0
LINE
  5
760
330
73D
100
AcDbEntity
  8
Vista
 62
     4
100
AcDbLine
 10
-265.1910480951634
 20
-42.5441333561959
 30
0.0
 11
-265.1870480951635
 21
-42.5441333561959
 31
0.0
  0
LINE
  5
761
330
73D
100
AcDbEntity
  8
Vista
 62
     4
100
AcDbLine
 10
-265.1870480951635
 20
-42.54823976658282
 30
0.0
 11
-265.1790480951634
 21
-42.54823976658282
 31
0.0
  0
LINE
  5
762
330
73D
100
AcDbEntity
  8
Vista
 62
     4
100
AcDbLine
 10
-265.1630480951634
 20
-42.53973976658282
 30
0.0
 11
-265.1630480951634
 21
-42.54823976658282
 31
0.0
  0
LINE
  5
763
330
73D
100
AcDbEntity
  8
Vista
 62
     4
100
AcDbLine
 10
-265.1670480951634
 20
-42.53973976658282
 30
0.0
 11
-265.1670480951634
 21
-42.54823976658282
 31
0.0
  0
LINE
  5
764
330
73D
100
AcDbEntity
  8
Vista
 62
     4
100
AcDbLine
 10
-265.1750480951634
 20
-42.53973976658282
 30
0.0
 11
-265.1750480951634
 21
-42.54823976658282
 31
0.0
  0
LINE
  5
765
330
73D
100
AcDbEntity
  8
Vista
 62
     4
100
AcDbLine
 10
-265.1790480951634
 20
-42.53973976658282
 30
0.0
 11
-265.1790480951634
 21
-42.54823976658282
 31
0.0
  0
LINE
  5
766
330
73D
100
AcDbEntity
  8
Vista
 62
     4
100
AcDbLine
 10
-265.1750480951634
 20
-42.54823976658282
 30
0.0
 11
-265.1670480951634
 21
-42.54823976658282
 31
0.0
  0
LINE
  5
767
330
73D
100
AcDbEntity
  8
Vista
 62
     4
100
AcDbLine
 10
-265.1790480951634
 20
-42.5441333561959
 30
0.0
 11
-265.1750480951634
 21
-42.5441333561959
 31
0.0
  0
LINE
  5
768
330
73D
100
AcDbEntity
  8
Vista
 62
     4
100
AcDbLine
 10
-265.1670480951634
 20
-42.5441333561959
 30
0.0
 11
-265.1630480951634
 21
-42.5441333561959
 31
0.0
  0
LINE
  5
769
330
73D
100
AcDbEntity
  8
Vista
 62
     4
100
AcDbLine
 10
-265.1630480951634
 20
-42.54823976658282
 30
0.0
 11
-265.1550480951634
 21
-42.54823976658282
 31
0.0
  0
LINE
  5
76A
330
73D
100
AcDbEntity
  8
Vista
 62
     4
100
AcDbLine
 10
-265.1390480951635
 20
-42.53973976658282
 30
0.0
 11
-265.1390480951635
 21
-42.54823976658282
 31
0.0
  0
LINE
  5
76B
330
73D
100
AcDbEntity
  8
Vista
 62
     4
100
AcDbLine
 10
-265.1430480951634
 20
-42.53973976658282
 30
0.0
 11
-265.1430480951634
 21
-42.54823976658282
 31
0.0
  0
LINE
  5
76C
330
73D
100
AcDbEntity
  8
Vista
 62
     4
100
AcDbLine
 10
-265.1510480951634
 20
-42.53973976658282
 30
0.0
 11
-265.1510480951634
 21
-42.54823976658282
 31
0.0
  0
LINE
  5
76D
330
73D
100
AcDbEntity
  8
Vista
 62
     4
100
AcDbLine
 10
-265.1550480951634
 20
-42.53973976658282
 30
0.0
 11
-265.1550480951634
 21
-42.54823976658282
 31
0.0
  0
LINE
  5
76E
330
73D
100
AcDbEntity
  8
Vista
 62
     4
100
AcDbLine
 10
-265.1510480951634
 20
-42.54823976658282
 30
0.0
 11
-265.1430480951634
 21
-42.54823976658282
 31
0.0
  0
LINE
  5
76F
330
73D
100
AcDbEntity
  8
Vista
 62
     4
100
AcDbLine
 10
-265.1550480951634
 20
-42.5441333561959
 30
0.0
 11
-265.1510480951634
 21
-42.5441333561959
 31
0.0
  0
LINE
  5
770
330
73D
100
AcDbEntity
  8
Vista
 62
     4
100
AcDbLine
 10
-265.1430480951634
 20
-42.5441333561959
 30
0.0
 11
-265.1390480951635
 21
-42.5441333561959
 31
0.0
  0
LINE
  5
771
330
73D
100
AcDbEntity
  8
Vista
 62
     4
100
AcDbLine
 10
-265.1390480951635
 20
-42.54823976658282
 30
0.0
 11
-265.1310480951634
 21
-42.54823976658282
 31
0.0
  0
LINE
  5
772
330
73D
100
AcDbEntity
  8
Vista
 62
     4
100
AcDbLine
 10
-265.1150480951634
 20
-42.53973976658282
 30
0.0
 11
-265.1150480951634
 21
-42.54823976658282
 31
0.0
  0
LINE
  5
773
330
73D
100
AcDbEntity
  8
Vista
 62
     4
100
AcDbLine
 10
-265.1190480951634
 20
-42.53973976658282
 30
0.0
 11
-265.1190480951634
 21
-42.54823976658282
 31
0.0
  0
LINE
  5
774
330
73D
100
AcDbEntity
  8
Vista
 62
     4
100
AcDbLine
 10
-265.1270480951634
 20
-42.53973976658282
 30
0.0
 11
-265.1270480951634
 21
-42.54823976658282
 31
0.0
  0
LINE
  5
775
330
73D
100
AcDbEntity
  8
Vista
 62
     4
100
AcDbLine
 10
-265.1310480951634
 20
-42.53973976658282
 30
0.0
 11
-265.1310480951634
 21
-42.54823976658282
 31
0.0
  0
LINE
  5
776
330
73D
100
AcDbEntity
  8
Vista
 62
     4
100
AcDbLine
 10
-265.1270480951634
 20
-42.54823976658282
 30
0.0
 11
-265.1190480951634
 21
-42.54823976658282
 31
0.0
  0
LINE
  5
777
330
73D
100
AcDbEntity
  8
Vista
 62
     4
100
AcDbLine
 10
-265.1310480951634
 20
-42.5441333561959
 30
0.0
 11
-265.1270480951634
 21
-42.5441333561959
 31
0.0
  0
LINE
  5
778
330
73D
100
AcDbEntity
  8
Vista
 62
     4
100
AcDbLine
 10
-265.1190480951634
 20
-42.5441333561959
 30
0.0
 11
-265.1150480951634
 21
-42.5441333561959
 31
0.0
  0
LINE
  5
779
330
73D
100
AcDbEntity
  8
Vista
 62
     4
100
AcDbLine
 10
-265.1150480951634
 20
-42.54823976658282
 30
0.0
 11
-265.1070480951634
 21
-42.54823976658282
 31
0.0
  0
LINE
  5
77A
330
73D
100
AcDbEntity
  8
Vista
 62
     4
100
AcDbLine
 10
-265.1030480951634
 20
-42.53973976658282
 30
0.0
 11
-265.1030480951634
 21
-42.54823976658282
 31
0.0
  0
LINE
  5
77B
330
73D
100
AcDbEntity
  8
Vista
 62
     4
100
AcDbLine
 10
-265.1070480951634
 20
-42.53973976658282
 30
0.0
 11
-265.1070480951634
 21
-42.54823976658282
 31
0.0
  0
LINE
  5
77C
330
73D
100
AcDbEntity
  8
Vista
 62
     4
100
AcDbLine
 10
-265.1030480951634
 20
-42.54823976658282
 30
0.0
 11
-265.0999942150913
 21
-42.54823976658285
 31
0.0
  0
LINE
  5
77D
330
73D
100
AcDbEntity
  8
Vista
 62
     4
100
AcDbLine
 10
-265.1070480951634
 20
-42.5441333561959
 30
0.0
 11
-265.1030480951634
 21
-42.5441333561959
 31
0.0
  0
LINE
  5
77E
330
73D
100
AcDbEntity
  8
CORTE
  6
RAYITA
 62
     4
100
AcDbLine
 10
-265.2611334367446
 20
-42.46214078547466
 30
0.0
 11
-265.2611334367446
 21
-42.45803437508773
 31
0.0
  0
LINE
  5
77F
330
73D
100
AcDbEntity
  8
CORTE
  6
RAYITA
 62
     4
100
AcDbLine
 10
-265.2576225605411
 20
-42.45364078547466
 30
0.0
 11
-265.2593966603947
 21
-42.45364078547466
 31
0.0
  0
LINE
  5
780
330
73D
100
AcDbEntity
  8
CORTE
  6
RAYITA
 62
     4
100
AcDbLine
 10
-265.2593966603947
 20
-42.45803437508773
 30
0.0
 11
-265.2611334367446
 21
-42.45803437508773
 31
0.0
  0
LINE
  5
781
330
73D
100
AcDbEntity
  8
CORTE
  6
RAYITA
 62
     4
100
AcDbLine
 10
-265.2593966603947
 20
-42.45803437508773
 30
0.0
 11
-265.2593966603947
 21
-42.45364078547466
 31
0.0
  0
LINE
  5
782
330
73D
100
AcDbEntity
  8
Vista
 62
     2
100
AcDbLine
 10
-265.2246225605411
 20
-42.42864078547465
 30
0.0
 11
-265.0988419531143
 21
-42.4023863117474
 31
0.0
  0
LINE
  5
783
330
73D
100
AcDbEntity
  8
Vista
 62
     2
100
AcDbLine
 10
-265.2253196169622
 20
-42.43216218366036
 30
0.0
 11
-265.1005238724924
 21
-42.40611328262953
 31
0.0
  0
LINE
  5
784
330
73D
100
AcDbEntity
  8
Vista
 62
     2
100
AcDbLine
 10
-265.2357843481861
 20
-42.4424980657533
 30
0.0
 11
-265.1113419531143
 21
-42.41652292015008
 31
0.0
  0
LINE
  5
785
330
73D
100
AcDbEntity
  8
Vista
 62
     2
100
AcDbLine
 10
-265.2377407371607
 20
-42.44566528066572
 30
0.0
 11
-265.1119601297339
 21
-42.41941080693844
 31
0.0
  0
LINE
  5
786
330
73D
100
AcDbEntity
  8
Vista
 62
     2
100
AcDbLine
 10
-265.2616957494533
 20
-42.44725731687553
 30
0.0
 11
-265.2475622982738
 21
-42.44430720930124
 31
0.0
  0
LINE
  5
787
330
73D
100
AcDbEntity
  8
Vista
 62
     2
100
AcDbLine
 10
-265.2419054000998
 20
-42.45361692139899
 30
0.0
 11
-265.1318419531143
 21
-42.43064312650061
 31
0.0
  0
LINE
  5
788
330
73D
100
AcDbEntity
  8
Vista
 62
     4
100
AcDbLine
 10
-265.2551225605411
 20
-42.45364078547466
 30
0.0
 11
-265.2479363219937
 21
-42.45214078547464
 31
0.0
  0
LINE
  5
789
330
73D
100
AcDbEntity
  8
Vista
 62
     4
100
AcDbLine
 10
-265.2543974497464
 20
-42.4613609643679
 30
0.0
 11
-265.2463974497463
 21
-42.4596911060796
 31
0.0
  0
LINE
  5
78A
330
73D
100
AcDbEntity
  8
Vista
 62
     4
100
AcDbLine
 10
-265.2593966603947
 20
-42.45803437508773
 30
0.0
 11
-265.2558974497463
 21
-42.45730397684979
 31
0.0
  0
LINE
  5
78B
330
73D
100
AcDbEntity
  8
Vista
 62
     2
100
AcDbLine
 10
-265.2611968867646
 20
-42.46708465797961
 30
0.0
 11
-265.1354162793379
 21
-42.44083018425236
 31
0.0
  0
LINE
  5
78C
330
73D
100
AcDbEntity
  8
Vista
 62
     3
100
AcDbLine
 10
-265.264002248065
 20
-42.47113166995989
 30
0.0
 11
-265.1382216406382
 21
-42.44487719623264
 31
0.0
  0
ARC
  5
78D
330
73D
100
AcDbEntity
  8
CORTE
  6
Continuous
 62
     1
100
AcDbCircle
 10
-265.2616334367446
 20
-42.46684088735999
 30
0.0
 40
0.0004999999999999
100
AcDbArc
 50
299.8686408419573
 51
359.9999999999935
  0
LINE
  5
78E
330
73D
100
AcDbEntity
  8
CORTE
  6
Continuous
 62
     1
100
AcDbLine
 10
-265.2611334367446
 20
-42.46684088735999
 30
0.0
 11
-265.2611334367446
 21
-42.46214078547466
 31
0.0
  0
LINE
  5
78F
330
73D
100
AcDbEntity
  8
CORTE
  6
Continuous
 62
     1
100
AcDbLine
 10
-265.2576225605411
 20
-42.45364078547466
 30
0.0
 11
-265.2551225605411
 21
-42.45364078547466
 31
0.0
  0
ARC
  5
790
330
73D
100
AcDbEntity
  8
CORTE
  6
Continuous
 62
     1
100
AcDbCircle
 10
-265.2525734960763
 20
-42.45503911726784
 30
0.0
 40
0.0029074149083751
100
AcDbArc
 50
94.53017172282182
 51
151.2522954919238
  0
LINE
  5
791
330
73D
100
AcDbEntity
  8
CORTE
  6
Continuous
 62
     1
100
AcDbLine
 10
-265.2528031355024
 20
-42.45214078547464
 30
0.0
 11
-265.2474419855798
 21
-42.45214078547464
 31
0.0
  0
ARC
  5
792
330
73D
100
AcDbEntity
  8
CORTE
  6
Continuous
 62
     1
100
AcDbCircle
 10
-265.2476716250059
 20
-42.45503911726784
 30
0.0
 40
0.0029074149083745
100
AcDbArc
 50
28.74770450807759
 51
85.46982827718144
  0
LINE
  5
793
330
73D
100
AcDbEntity
  8
CORTE
  6
Continuous
 62
     1
100
AcDbLine
 10
-265.245122560541
 20
-42.45364078547466
 30
0.0
 11
-265.2421225605411
 21
-42.45364078547466
 31
0.0
  0
ARC
  5
794
330
73D
100
AcDbEntity
  8
CORTE
  6
Continuous
 62
     1
100
AcDbCircle
 10
-265.2421225605411
 20
-42.45264078547466
 30
0.0
 40
0.001
100
AcDbArc
 50
270.0
 51
359.9999999999951
  0
LINE
  5
795
330
73D
100
AcDbEntity
  8
CORTE
  6
Continuous
 62
     1
100
AcDbLine
 10
-265.2411225605411
 20
-42.45264078547466
 30
0.0
 11
-265.2411225605411
 21
-42.44913138597588
 31
0.0
  0
ARC
  5
796
330
73D
100
AcDbEntity
  8
CORTE
  6
Continuous
 62
     1
100
AcDbCircle
 10
-265.2371225605411
 20
-42.44967795498879
 30
0.0
 40
0.0040371695141331
100
AcDbArc
 50
101.4506709648844
 51
172.21916242068
  0
ARC
  5
797
330
73D
100
AcDbEntity
  8
CORTE
  6
Continuous
 62
     1
100
AcDbCircle
 10
-265.238122560541
 20
-42.44474104535682
 30
0.0
 40
0.0010000000000001
100
AcDbArc
 50
281.4506709648813
 51
359.9999999999935
  0
LINE
  5
798
330
73D
100
AcDbEntity
  8
CORTE
  6
Continuous
 62
     1
100
AcDbLine
 10
-265.2371225605411
 20
-42.44474104535682
 30
0.0
 11
-265.2371225605411
 21
-42.44264078547463
 31
0.0
  0
ARC
  5
799
330
73D
100
AcDbEntity
  8
CORTE
  6
Continuous
 62
     1
100
AcDbCircle
 10
-265.2371225605411
 20
-42.4362955473794
 30
0.0
 40
0.0063452380952395
100
AcDbArc
 50
270.0
 51
350.0605185437708
  0
ARC
  5
79A
330
73D
100
AcDbEntity
  8
CORTE
  6
Continuous
 62
     1
100
AcDbCircle
 10
-265.224622560541
 20
-42.43848602356989
 30
0.0
 40
0.0063452380952396
100
AcDbArc
 50
97.82469757354439
 51
170.060518543773
  0
ARC
  5
79B
330
73D
100
AcDbEntity
  8
CORTE
  6
Continuous
 62
     1
100
AcDbCircle
 10
-265.2256225605411
 20
-42.43120917516718
 30
0.0
 40
0.001
100
AcDbArc
 50
277.8246975735409
 51
359.9999999999984
  0
LINE
  5
79C
330
73D
100
AcDbEntity
  8
CORTE
  6
Continuous
 62
     1
100
AcDbLine
 10
-265.2246225605411
 20
-42.43120917516718
 30
0.0
 11
-265.2246225605411
 21
-42.42864078547465
 31
0.0
  0
LINE
  5
79D
330
73D
100
AcDbEntity
  8
CORTE
  6
Continuous
 62
     1
100
AcDbLine
 10
-265.2246225605411
 20
-42.42864078547465
 30
0.0
 11
-265.2371225605411
 21
-42.42864078547465
 31
0.0
  0
LINE
  5
79E
330
73D
100
AcDbEntity
  8
CORTE
  6
Continuous
 62
     1
100
AcDbLine
 10
-265.2371225605411
 20
-42.42864078547465
 30
0.0
 11
-265.2371225605411
 21
-42.43464078547465
 31
0.0
  0
LINE
  5
79F
330
73D
100
AcDbEntity
  8
CORTE
  6
Continuous
 62
     1
100
AcDbLine
 10
-265.2371225605411
 20
-42.43464078547465
 30
0.0
 11
-265.2506225605411
 21
-42.44714078547464
 31
0.0
  0
LINE
  5
7A0
330
73D
100
AcDbEntity
  8
CORTE
  6
Continuous
 62
     1
100
AcDbLine
 10
-265.2506225605411
 20
-42.44714078547464
 30
0.0
 11
-265.2606225605411
 21
-42.44714078547464
 31
0.0
  0
ARC
  5
7A1
330
73D
100
AcDbEntity
  8
CORTE
  6
Continuous
 62
     1
100
AcDbCircle
 10
-265.2606225605411
 20
-42.45214078547464
 30
0.0
 40
0.005
100
AcDbArc
 50
90.00000000000325
 51
179.9999999999967
  0
LINE
  5
7A2
330
73D
100
AcDbEntity
  8
CORTE
  6
Continuous
 62
     1
100
AcDbLine
 10
-265.2656225605411
 20
-42.45214078547464
 30
0.0
 11
-265.2656225605411
 21
-42.45741360008323
 31
0.0
  0
LINE
  5
7A3
330
73D
100
AcDbEntity
  8
CORTE
  6
Continuous
 62
     1
100
AcDbLine
 10
-265.2656225605411
 20
-42.45741360008323
 30
0.0
 11
-265.2671225605411
 21
-42.45864078547465
 31
0.0
  0
LINE
  5
7A4
330
73D
100
AcDbEntity
  8
CORTE
  6
Continuous
 62
     1
100
AcDbLine
 10
-265.2671225605411
 20
-42.45864078547465
 30
0.0
 11
-265.2671225605411
 21
-42.47114078547464
 31
0.0
  0
LINE
  5
7A5
330
73D
100
AcDbEntity
  8
CORTE
  6
Continuous
 62
     1
100
AcDbLine
 10
-265.2671225605411
 20
-42.47114078547464
 30
0.0
 11
-265.2640972871209
 21
-42.47114078547464
 31
0.0
  0
ARC
  5
7A6
330
73D
100
AcDbEntity
  8
CORTE
  6
Continuous
 62
     1
100
AcDbCircle
 10
-265.2640972871209
 20
-42.47064078547466
 30
0.0
 40
0.0005
100
AcDbArc
 50
270.0
 51
354.2126842324164
  0
ARC
  5
7A7
330
73D
100
AcDbEntity
  8
CORTE
  6
Continuous
 62
     1
100
AcDbCircle
 10
-265.2591640162722
 20
-42.47114078547464
 30
0.0
 40
0.004458544268822
100
AcDbArc
 50
119.8686408419609
 51
174.2126842324128
  0
LINE
  5
7A8
330
73D
100
AcDbEntity
  8
CORTE
  6
Continuous
 62
     4
100
AcDbLine
 10
-265.2573974497463
 20
-42.4613609643679
 30
0.0
 11
-265.2573974497463
 21
-42.45761707527883
 31
0.0
  0
LINE
  5
7A9
330
73D
100
AcDbEntity
  8
Vista
 62
     4
100
AcDbLine
 10
-265.2611334367446
 20
-42.46214078547466
 30
0.0
 11
-265.2573974497463
 21
-42.4613609643679
 31
0.0
  0
LINE
  5
7AA
330
73D
100
AcDbEntity
  8
CORTE
  6
Continuous
 62
     1
100
AcDbLine
 10
-265.2593974497464
 20
-42.45803437508773
 30
0.0
 11
-265.2593974497464
 21
-42.45359456852866
 31
0.0
  0
LINE
  5
7AB
330
73D
100
AcDbEntity
  8
Vista
 62
     4
100
AcDbLine
 10
-265.2573974497463
 20
-42.4613609643679
 30
0.0
 11
-265.2543974497464
 21
-42.4613609643679
 31
0.0
  0
LINE
  5
7AC
330
73D
100
AcDbEntity
  8
Vista
 62
     4
100
AcDbLine
 10
-265.2463974497463
 20
-42.45532102013244
 30
0.0
 11
-265.2438974497463
 21
-42.45479918941735
 31
0.0
  0
LINE
  5
7AD
330
73D
100
AcDbEntity
  8
CORTE
  6
Continuous
 62
     4
100
AcDbLine
 10
-265.2543974497464
 20
-42.4613609643679
 30
0.0
 11
-265.2543974497464
 21
-42.45348943144084
 31
0.0
  0
LINE
  5
7AE
330
73D
100
AcDbEntity
  8
CORTE
  6
Continuous
 62
     4
100
AcDbLine
 10
-265.2558974497463
 20
-42.45730397684979
 30
0.0
 11
-265.2558974497463
 21
-42.45364078547466
 31
0.0
  0
LINE
  5
7AF
330
73D
100
AcDbEntity
  8
CORTE
  6
Continuous
 62
     4
100
AcDbLine
 10
-265.2463974497463
 20
-42.4596911060796
 30
0.0
 11
-265.2463974497463
 21
-42.45242577862588
 31
0.0
  0
LINE
  5
7B0
330
73D
100
AcDbEntity
  8
Vista
 62
     4
100
AcDbLine
 10
-265.2463974497463
 20
-42.45906490922148
 30
0.0
 11
-265.2453974497464
 21
-42.45885617693547
 31
0.0
  0
LINE
  5
7B1
330
73D
100
AcDbEntity
  8
CORTE
  6
Continuous
 62
     4
100
AcDbLine
 10
-265.2423974497464
 20
-42.45885617693547
 30
0.0
 11
-265.2423974497464
 21
-42.45364078547466
 31
0.0
  0
LINE
  5
7B2
330
73D
100
AcDbEntity
  8
CORTE
  6
Continuous
 62
     4
100
AcDbLine
 10
-265.2453974497464
 20
-42.45885617693547
 30
0.0
 11
-265.2453974497464
 21
-42.4551122878464
 31
0.0
  0
LINE
  5
7B3
330
73D
100
AcDbEntity
  8
CORTE
  6
Continuous
 62
     4
100
AcDbLine
 10
-265.2343974497463
 20
-42.45718631864717
 30
0.0
 11
-265.2343974497463
 21
-42.45204976975823
 31
0.0
  0
LINE
  5
7B4
330
73D
100
AcDbEntity
  8
Vista
 62
     4
100
AcDbLine
 10
-265.2423974497464
 20
-42.45885617693547
 30
0.0
 11
-265.2453974497464
 21
-42.45885617693547
 31
0.0
  0
LINE
  5
7B5
330
73D
100
AcDbEntity
  8
CORTE
  6
Continuous
 62
     4
100
AcDbLine
 10
-265.2438974497463
 20
-42.45479918941735
 30
0.0
 11
-265.2438974497463
 21
-42.45364078547466
 31
0.0
  0
LINE
  5
7B6
330
73D
100
AcDbEntity
  8
Vista
 62
     4
100
AcDbLine
 10
-265.2423974497464
 20
-42.45885617693547
 30
0.0
 11
-265.2343974497463
 21
-42.45718631864717
 31
0.0
  0
LINE
  5
7B7
330
73D
100
AcDbEntity
  8
CORTE
  6
Continuous
 62
     4
100
AcDbLine
 10
-265.2333974497464
 20
-42.45635698981327
 30
0.0
 11
-265.2333974497464
 21
-42.45261310072421
 31
0.0
  0
LINE
  5
7B8
330
73D
100
AcDbEntity
  8
CORTE
  6
Continuous
 62
     4
100
AcDbLine
 10
-265.2303974497463
 20
-42.45635698981327
 30
0.0
 11
-265.2303974497463
 21
-42.45121484061409
 31
0.0
  0
LINE
  5
7B9
330
73D
100
AcDbEntity
  8
Vista
 62
     4
100
AcDbLine
 10
-265.2303974497463
 20
-42.45635698981327
 30
0.0
 11
-265.2223974497463
 21
-42.45468713152497
 31
0.0
  0
LINE
  5
7BA
330
73D
100
AcDbEntity
  8
Vista
 62
     4
100
AcDbLine
 10
-265.2303974497463
 20
-42.45635698981327
 30
0.0
 11
-265.2333974497464
 21
-42.45635698981327
 31
0.0
  0
LINE
  5
7BB
330
73D
100
AcDbEntity
  8
Vista
 62
     4
100
AcDbLine
 10
-265.2343974497463
 20
-42.45656572209931
 30
0.0
 11
-265.2333974497464
 21
-42.45635698981327
 31
0.0
  0
LINE
  5
7BC
330
73D
100
AcDbEntity
  8
Vista
 62
     4
100
AcDbLine
 10
-265.2343974497463
 20
-42.45282183301024
 30
0.0
 11
-265.2318974497463
 21
-42.45230000229516
 31
0.0
  0
LINE
  5
7BD
330
73D
100
AcDbEntity
  8
CORTE
  6
Continuous
 62
     4
100
AcDbLine
 10
-265.2318974497463
 20
-42.45230000229516
 30
0.0
 11
-265.2318974497463
 21
-42.45152793904314
 31
0.0
  0
LINE
  5
7BE
330
73D
100
AcDbEntity
  8
CORTE
  6
Continuous
 62
     4
100
AcDbLine
 10
-265.2223974497463
 20
-42.45468713152497
 30
0.0
 11
-265.2223974497463
 21
-42.44955058263606
 31
0.0
  0
LINE
  5
7BF
330
73D
100
AcDbEntity
  8
Vista
 62
     4
100
AcDbLine
 10
-265.2183974497464
 20
-42.45381967473214
 30
0.0
 11
-265.2103974497463
 21
-42.45214981644385
 31
0.0
  0
LINE
  5
7C0
330
73D
100
AcDbEntity
  8
Vista
 62
     4
100
AcDbLine
 10
-265.2183974497464
 20
-42.45381967473214
 30
0.0
 11
-265.2213974497463
 21
-42.45381967473214
 31
0.0
  0
LINE
  5
7C1
330
73D
100
AcDbEntity
  8
CORTE
  6
Continuous
 62
     4
100
AcDbLine
 10
-265.2198974497463
 20
-42.44976268721403
 30
0.0
 11
-265.2198974497463
 21
-42.44902315161072
 31
0.0
  0
LINE
  5
7C2
330
73D
100
AcDbEntity
  8
Vista
 62
     4
100
AcDbLine
 10
-265.2223974497463
 20
-42.45028451792911
 30
0.0
 11
-265.2198974497463
 21
-42.44976268721403
 31
0.0
  0
LINE
  5
7C3
330
73D
100
AcDbEntity
  8
Vista
 62
     4
100
AcDbLine
 10
-265.2223974497463
 20
-42.45402840701818
 30
0.0
 11
-265.2213974497463
 21
-42.45381967473214
 31
0.0
  0
LINE
  5
7C4
330
73D
100
AcDbEntity
  8
CORTE
  6
Continuous
 62
     4
100
AcDbLine
 10
-265.2213974497463
 20
-42.45381967473214
 30
0.0
 11
-265.2213974497463
 21
-42.45007578564307
 31
0.0
  0
LINE
  5
7C5
330
73D
100
AcDbEntity
  8
CORTE
  6
Continuous
 62
     4
100
AcDbLine
 10
-265.2183974497464
 20
-42.45381967473214
 30
0.0
 11
-265.2183974497464
 21
-42.44867752553297
 31
0.0
  0
LINE
  5
7C6
330
73D
100
AcDbEntity
  8
CORTE
  6
Continuous
 62
     4
100
AcDbLine
 10
-265.2103974497463
 20
-42.45214981644385
 30
0.0
 11
-265.2103974497463
 21
-42.44704019489337
 31
0.0
  0
LINE
  5
7C7
330
73D
100
AcDbEntity
  8
Vista
 62
     4
100
AcDbLine
 10
-265.2063974497464
 20
-42.45136478851414
 30
0.0
 11
-265.1983974497463
 21
-42.44969493022584
 31
0.0
  0
LINE
  5
7C8
330
73D
100
AcDbEntity
  8
Vista
 62
     4
100
AcDbLine
 10
-265.2063974497464
 20
-42.45136478851414
 30
0.0
 11
-265.2093974497463
 21
-42.45136478851414
 31
0.0
  0
LINE
  5
7C9
330
73D
100
AcDbEntity
  8
CORTE
  6
Continuous
 62
     4
100
AcDbLine
 10
-265.2078974497463
 20
-42.44730780099603
 30
0.0
 11
-265.2078974497463
 21
-42.44653573774401
 31
0.0
  0
LINE
  5
7CA
330
73D
100
AcDbEntity
  8
Vista
 62
     4
100
AcDbLine
 10
-265.2103974497463
 20
-42.44782963171111
 30
0.0
 11
-265.2078974497463
 21
-42.44730780099603
 31
0.0
  0
LINE
  5
7CB
330
73D
100
AcDbEntity
  8
Vista
 62
     4
100
AcDbLine
 10
-265.2103974497463
 20
-42.45157352080018
 30
0.0
 11
-265.2093974497463
 21
-42.45136478851414
 31
0.0
  0
LINE
  5
7CC
330
73D
100
AcDbEntity
  8
CORTE
  6
Continuous
 62
     4
100
AcDbLine
 10
-265.2093974497463
 20
-42.45136478851414
 30
0.0
 11
-265.2093974497463
 21
-42.44762089942507
 31
0.0
  0
LINE
  5
7CD
330
73D
100
AcDbEntity
  8
CORTE
  6
Continuous
 62
     4
100
AcDbLine
 10
-265.2063974497464
 20
-42.45136478851414
 30
0.0
 11
-265.2063974497464
 21
-42.44622263931496
 31
0.0
  0
LINE
  5
7CE
330
73D
100
AcDbEntity
  8
CORTE
  6
Continuous
 62
     4
100
AcDbLine
 10
-265.1983974497463
 20
-42.44969493022584
 30
0.0
 11
-265.1983974497463
 21
-42.44455838133693
 31
0.0
  0
LINE
  5
7CF
330
73D
100
AcDbEntity
  8
Vista
 62
     4
100
AcDbLine
 10
-265.1943974497464
 20
-42.44883783223379
 30
0.0
 11
-265.1863974497463
 21
-42.44716797394549
 31
0.0
  0
LINE
  5
7D0
330
73D
100
AcDbEntity
  8
Vista
 62
     4
100
AcDbLine
 10
-265.1943974497464
 20
-42.44883783223379
 30
0.0
 11
-265.1973974497463
 21
-42.44883783223379
 31
0.0
  0
LINE
  5
7D1
330
73D
100
AcDbEntity
  8
CORTE
  6
Continuous
 62
     4
100
AcDbLine
 10
-265.1958974497463
 20
-42.44478084471568
 30
0.0
 11
-265.1958974497463
 21
-42.44400878146369
 31
0.0
  0
LINE
  5
7D2
330
73D
100
AcDbEntity
  8
Vista
 62
     4
100
AcDbLine
 10
-265.1983974497463
 20
-42.44530267543076
 30
0.0
 11
-265.1958974497463
 21
-42.44478084471568
 31
0.0
  0
LINE
  5
7D3
330
73D
100
AcDbEntity
  8
Vista
 62
     4
100
AcDbLine
 10
-265.1983974497463
 20
-42.44904656451983
 30
0.0
 11
-265.1973974497463
 21
-42.44883783223379
 31
0.0
  0
LINE
  5
7D4
330
73D
100
AcDbEntity
  8
CORTE
  6
Continuous
 62
     4
100
AcDbLine
 10
-265.1973974497463
 20
-42.44883783223379
 30
0.0
 11
-265.1973974497463
 21
-42.44509394314476
 31
0.0
  0
LINE
  5
7D5
330
73D
100
AcDbEntity
  8
CORTE
  6
Continuous
 62
     4
100
AcDbLine
 10
-265.1943974497464
 20
-42.44883783223379
 30
0.0
 11
-265.1943974497464
 21
-42.44369568303464
 31
0.0
  0
LINE
  5
7D6
330
73D
100
AcDbEntity
  8
CORTE
  6
Continuous
 62
     4
100
AcDbLine
 10
-265.1838974497463
 20
-42.44224352963455
 30
0.0
 11
-265.1838974497463
 21
-42.44150399403126
 31
0.0
  0
LINE
  5
7D7
330
73D
100
AcDbEntity
  8
CORTE
  6
Continuous
 62
     4
100
AcDbLine
 10
-265.1823974497464
 20
-42.44630051715266
 30
0.0
 11
-265.1823974497464
 21
-42.44115836795351
 31
0.0
  0
LINE
  5
7D8
330
73D
100
AcDbEntity
  8
Vista
 62
     4
100
AcDbLine
 10
-265.1823974497464
 20
-42.44630051715266
 30
0.0
 11
-265.1853974497464
 21
-42.44630051715266
 31
0.0
  0
LINE
  5
7D9
330
73D
100
AcDbEntity
  8
CORTE
  6
Continuous
 62
     4
100
AcDbLine
 10
-265.1853974497464
 20
-42.44630051715266
 30
0.0
 11
-265.1853974497464
 21
-42.44255662806362
 31
0.0
  0
LINE
  5
7DA
330
73D
100
AcDbEntity
  8
Vista
 62
     4
100
AcDbLine
 10
-265.1863974497463
 20
-42.4465092494387
 30
0.0
 11
-265.1853974497464
 21
-42.44630051715266
 31
0.0
  0
LINE
  5
7DB
330
73D
100
AcDbEntity
  8
Vista
 62
     4
100
AcDbLine
 10
-265.1863974497463
 20
-42.44276536034966
 30
0.0
 11
-265.1838974497463
 21
-42.44224352963455
 31
0.0
  0
LINE
  5
7DC
330
73D
100
AcDbEntity
  8
CORTE
  6
Continuous
 62
     4
100
AcDbLine
 10
-265.1863974497463
 20
-42.44716797394549
 30
0.0
 11
-265.1863974497463
 21
-42.44203142505658
 31
0.0
  0
LINE
  5
7DD
330
73D
100
AcDbEntity
  8
Vista
 62
     4
100
AcDbLine
 10
-265.1703974497463
 20
-42.44384563093466
 30
0.0
 11
-265.1623974497463
 21
-42.44217577264636
 31
0.0
  0
LINE
  5
7DE
330
73D
100
AcDbEntity
  8
Vista
 62
     4
100
AcDbLine
 10
-265.1823974497464
 20
-42.44630051715266
 30
0.0
 11
-265.1743974497463
 21
-42.44463065886439
 31
0.0
  0
LINE
  5
7DF
330
73D
100
AcDbEntity
  8
CORTE
  6
Continuous
 62
     4
100
AcDbLine
 10
-265.1743974497463
 20
-42.44463065886439
 30
0.0
 11
-265.1743974497463
 21
-42.43952103731389
 31
0.0
  0
LINE
  5
7E0
330
73D
100
AcDbEntity
  8
CORTE
  6
Continuous
 62
     4
100
AcDbLine
 10
-265.1733974497464
 20
-42.44384563093466
 30
0.0
 11
-265.1733974497464
 21
-42.44010174184562
 31
0.0
  0
LINE
  5
7E1
330
73D
100
AcDbEntity
  8
CORTE
  6
Continuous
 62
     4
100
AcDbLine
 10
-265.1703974497463
 20
-42.44384563093466
 30
0.0
 11
-265.1703974497463
 21
-42.43870348173551
 31
0.0
  0
LINE
  5
7E2
330
73D
100
AcDbEntity
  8
Vista
 62
     4
100
AcDbLine
 10
-265.1703974497463
 20
-42.44384563093466
 30
0.0
 11
-265.1733974497464
 21
-42.44384563093466
 31
0.0
  0
LINE
  5
7E3
330
73D
100
AcDbEntity
  8
Vista
 62
     4
100
AcDbLine
 10
-265.1743974497463
 20
-42.4440543632207
 30
0.0
 11
-265.1733974497464
 21
-42.44384563093466
 31
0.0
  0
LINE
  5
7E4
330
73D
100
AcDbEntity
  8
CORTE
  6
Continuous
 62
     4
100
AcDbLine
 10
-265.1718974497463
 20
-42.43978864341655
 30
0.0
 11
-265.1718974497463
 21
-42.43901658016456
 31
0.0
  0
LINE
  5
7E5
330
73D
100
AcDbEntity
  8
Vista
 62
     4
100
AcDbLine
 10
-265.1743974497463
 20
-42.44031047413163
 30
0.0
 11
-265.1718974497463
 21
-42.43978864341655
 31
0.0
  0
LINE
  5
7E6
330
73D
100
AcDbEntity
  8
CORTE
  6
Continuous
 62
     4
100
AcDbLine
 10
-265.1623974497463
 20
-42.44217577264636
 30
0.0
 11
-265.1623974497463
 21
-42.43703922375745
 31
0.0
  0
LINE
  5
7E7
330
73D
100
AcDbEntity
  8
Vista
 62
     4
100
AcDbLine
 10
-265.1583974497464
 20
-42.44133239831891
 30
0.0
 11
-265.1503974497463
 21
-42.43966254003062
 31
0.0
  0
LINE
  5
7E8
330
73D
100
AcDbEntity
  8
Vista
 62
     4
100
AcDbLine
 10
-265.1583974497464
 20
-42.44133239831891
 30
0.0
 11
-265.1613974497463
 21
-42.44133239831891
 31
0.0
  0
LINE
  5
7E9
330
73D
100
AcDbEntity
  8
CORTE
  6
Continuous
 62
     4
100
AcDbLine
 10
-265.1598974497463
 20
-42.4372754108008
 30
0.0
 11
-265.1598974497463
 21
-42.43650334754879
 31
0.0
  0
LINE
  5
7EA
330
73D
100
AcDbEntity
  8
Vista
 62
     4
100
AcDbLine
 10
-265.1623974497463
 20
-42.43779724151589
 30
0.0
 11
-265.1598974497463
 21
-42.4372754108008
 31
0.0
  0
LINE
  5
7EB
330
73D
100
AcDbEntity
  8
Vista
 62
     4
100
AcDbLine
 10
-265.1623974497463
 20
-42.44154113060496
 30
0.0
 11
-265.1613974497463
 21
-42.44133239831891
 31
0.0
  0
LINE
  5
7EC
330
73D
100
AcDbEntity
  8
CORTE
  6
Continuous
 62
     4
100
AcDbLine
 10
-265.1613974497463
 20
-42.44133239831891
 30
0.0
 11
-265.1613974497463
 21
-42.43758850922985
 31
0.0
  0
LINE
  5
7ED
330
73D
100
AcDbEntity
  8
CORTE
  6
Continuous
 62
     4
100
AcDbLine
 10
-265.1583974497464
 20
-42.44133239831891
 30
0.0
 11
-265.1583974497464
 21
-42.43619024911974
 31
0.0
  0
LINE
  5
7EE
330
73D
100
AcDbEntity
  8
CORTE
  6
Continuous
 62
     4
100
AcDbLine
 10
-265.1478974497463
 20
-42.43473809571968
 30
0.0
 11
-265.1478974497463
 21
-42.43399856011636
 31
0.0
  0
LINE
  5
7EF
330
73D
100
AcDbEntity
  8
CORTE
  6
Continuous
 62
     4
100
AcDbLine
 10
-265.1463974497464
 20
-42.43879508323779
 30
0.0
 11
-265.1463974497464
 21
-42.43365293403861
 31
0.0
  0
LINE
  5
7F0
330
73D
100
AcDbEntity
  8
Vista
 62
     4
100
AcDbLine
 10
-265.1463974497464
 20
-42.43879508323779
 30
0.0
 11
-265.1493974497463
 21
-42.43879508323779
 31
0.0
  0
LINE
  5
7F1
330
73D
100
AcDbEntity
  8
CORTE
  6
Continuous
 62
     4
100
AcDbLine
 10
-265.1493974497463
 20
-42.43879508323779
 30
0.0
 11
-265.1493974497463
 21
-42.43505119414872
 31
0.0
  0
LINE
  5
7F2
330
73D
100
AcDbEntity
  8
Vista
 62
     4
100
AcDbLine
 10
-265.1503974497463
 20
-42.43900381552383
 30
0.0
 11
-265.1493974497463
 21
-42.43879508323779
 31
0.0
  0
LINE
  5
7F3
330
73D
100
AcDbEntity
  8
Vista
 62
     4
100
AcDbLine
 10
-265.1503974497463
 20
-42.43525992643476
 30
0.0
 11
-265.1478974497463
 21
-42.43473809571968
 31
0.0
  0
LINE
  5
7F4
330
73D
100
AcDbEntity
  8
CORTE
  6
Continuous
 62
     4
100
AcDbLine
 10
-265.1503974497463
 20
-42.43966254003062
 30
0.0
 11
-265.1503974497463
 21
-42.43452599114171
 31
0.0
  0
LINE
  5
7F5
330
73D
100
AcDbEntity
  8
Vista
 62
     4
100
AcDbLine
 10
-265.1463974497464
 20
-42.43879508323779
 30
0.0
 11
-265.1383974497463
 21
-42.43712522494949
 31
0.0
  0
LINE
  5
7F6
330
73D
100
AcDbEntity
  8
CORTE
  6
Continuous
 62
     4
100
AcDbLine
 10
-265.1383974497463
 20
-42.43712522494949
 30
0.0
 11
-265.1383974497463
 21
-42.43201560339902
 31
0.0
  0
LINE
  5
7F7
330
73D
100
AcDbEntity
  8
CORTE
  6
Continuous
 62
     4
100
AcDbLine
 10
-265.1373974497464
 20
-42.43634019701978
 30
0.0
 11
-265.1373974497464
 21
-42.43259630793072
 31
0.0
  0
LINE
  5
7F8
330
73D
100
AcDbEntity
  8
CORTE
  6
Continuous
 62
     4
100
AcDbLine
 10
-265.1343974497464
 20
-42.43634019701978
 30
0.0
 11
-265.1343974497464
 21
-42.43119804782061
 31
0.0
  0
LINE
  5
7F9
330
73D
100
AcDbEntity
  8
Vista
 62
     4
100
AcDbLine
 10
-265.1383974497463
 20
-42.43654892930583
 30
0.0
 11
-265.1373974497464
 21
-42.43634019701978
 31
0.0
  0
LINE
  5
7FA
330
73D
100
AcDbEntity
  8
CORTE
  6
Continuous
 62
     4
100
AcDbLine
 10
-265.1358974497463
 20
-42.43228320950167
 30
0.0
 11
-265.1358974497463
 21
-42.43151114624966
 31
0.0
  0
LINE
  5
7FB
330
73D
100
AcDbEntity
  8
Vista
 62
     4
100
AcDbLine
 10
-265.1383974497463
 20
-42.43280504021676
 30
0.0
 11
-265.1358974497463
 21
-42.43228320950167
 31
0.0
  0
LINE
  5
7FC
330
73D
100
AcDbEntity
  8
Vista
 62
     4
100
AcDbLine
 10
-265.1353528293179
 20
-42.43634019701978
 30
0.0
 11
-265.1373974497464
 21
-42.43634019701978
 31
0.0
  0
LWPOLYLINE
  5
7FD
330
73D
100
AcDbEntity
  8
Vista
  6
Continuous
 62
     3
100
AcDbPolyline
 90
       21
 70
     0
 43
0.0
 10
-265.1383166796941
 20
-42.44488631174739
 42
0.384929168564455
 10
-265.1378192281659
 20
-42.4444367297706
 42
-0.2416670294637282
 10
-265.1356038227205
 20
-42.44101999835858
 42
0.2685636005234456
 10
-265.1353528293179
 20
-42.44058641363274
 10
-265.1353528293179
 20
-42.43634019701978
 10
-265.1343974497464
 20
-42.43634019701978
 10
-265.1318419531143
 20
-42.43580678236582
 10
-265.1318419531143
 20
-42.43064312650061
 10
-265.1161247926731
 20
-42.42736244767171
 42
0.3514578094911731
 10
-265.1153419531143
 20
-42.42638631174741
 10
-265.1153419531143
 20
-42.42287691224864
 42
-0.3189892314182308
 10
-265.1121434289239
 20
-42.41946666761764
 42
0.3568183404962087
 10
-265.1113419531143
 20
-42.41848657162957
 10
-265.1113419531143
 20
-42.41652292015008
 10
-265.1100037407593
 20
-42.41624359202602
 42
0.3051840064494136
 10
-265.1050919531143
 20
-42.4111363117474
 42
-0.2900042141350497
 10
-265.1005238724924
 20
-42.40611328262953
 10
-265.0995390095354
 20
-42.40590770993311
 42
0.3266838343405565
 10
-265.0988419531143
 20
-42.40495470143993
 10
-265.0988419531143
 20
-42.4023863117474
 10
-265.1113419531143
 20
-42.4023863117474
  0
LINE
  5
7FE
330
73D
100
AcDbEntity
  8
Vista
 62
     6
100
AcDbLine
 10
-265.0999942150913
 20
-42.55723976658283
 30
0.0
 11
-265.0999942150913
 21
-42.51473976658282
 31
0.0
  0
LINE
  5
7FF
330
73D
100
AcDbEntity
  8
Vista
 62
     6
100
AcDbLine
 10
-265.2079942150913
 20
-42.55723976658283
 30
0.0
 11
-265.2079942150913
 21
-42.51473976658282
 31
0.0
  0
LINE
  5
800
330
73D
100
AcDbEntity
  8
Vista
 62
     2
100
AcDbLine
 10
-265.2079942150914
 20
-42.51796536909266
 30
0.0
 11
-265.0999942150913
 21
-42.51796536909266
 31
0.0
  0
LINE
  5
801
330
73D
100
AcDbEntity
  8
Vista
 62
     3
100
AcDbLine
 10
-265.2079942150913
 20
-42.51473976658279
 30
0.0
 11
-265.0999942150913
 21
-42.51473976658284
 31
0.0
  0
LINE
  5
802
330
73D
100
AcDbEntity
  8
Vista
 62
     2
100
AcDbLine
 10
-265.2079942150913
 20
-42.52873976658283
 30
0.0
 11
-265.0999942150913
 21
-42.52873976658283
 31
0.0
  0
LINE
  5
803
330
73D
100
AcDbEntity
  8
Vista
 62
     2
100
AcDbLine
 10
-265.2079942150914
 20
-42.53147306509318
 30
0.0
 11
-265.0999942150913
 21
-42.53147306509318
 31
0.0
  0
LINE
  5
804
330
73D
100
AcDbEntity
  8
Vista
 62
     2
100
AcDbLine
 10
-265.2079942150913
 20
-42.53973976658282
 30
0.0
 11
-265.0999942150913
 21
-42.53973976658282
 31
0.0
  0
LINE
  5
805
330
73D
100
AcDbEntity
  8
Vista
 62
     2
100
AcDbLine
 10
-265.2079942150913
 20
-42.55319036467706
 30
0.0
 11
-265.0999942150913
 21
-42.55319036467709
 31
0.0
  0
LINE
  5
806
330
73D
100
AcDbEntity
  8
Vista
 62
     3
100
AcDbLine
 10
-265.2079942150913
 20
-42.55723976658283
 30
0.0
 11
-265.0999942150913
 21
-42.55723976658283
 31
0.0
  0
ENDBLK
  5
808
330
73D
100
AcDbEntity
  8
0
 62
     3
100
AcDbBlockEnd
  0
BLOCK
  5
B6F
330
B69
100
AcDbEntity
  8
0
 62
     3
100
AcDbBlockBegin
  2
A$C263D6B6A
 70
     0
 10
0.0
 20
0.0
 30
0.0
  3
A$C263D6B6A
  1

  0
HATCH
  5
B6A
330
B69
100
AcDbEntity
  8
Sezione
100
AcDbHatch
 10
0.0
 20
0.0
 30
0.0
210
0.0
220
0.0
230
1.0
  2
ANSI31
 70
     0
 71
     0
 91
        1
 92
        7
 72
     0
 73
     1
 93
        6
 10
0.0922667539244952
 20
0.0862807646728965
 10
-0.0000000665657739
 20
0.0862807646728965
 10
-0.0000000665657739
 20
0.0003091066906239
 10
0.0191316019951639
 20
0.0003091066906239
 10
0.0191316019951639
 20
0.0668219886661159
 10
0.0922667539244952
 20
0.0668219886661158
 97
        0
 75
     0
 76
     1
 52
0.0
 41
0.002
 77
     0
 78
     1
 53
45.0
 43
-0.0858288002254417
 44
-0.1359207187670848
 45
-0.0044901280605346
 46
0.0044901280605346
 79
     0
 47
0.0003507291251325
 98
        1
 10
0.0287510465309501
 20
0.0740124973428604
1001
ACAD
1010
0.0
1020
0.0
1030
0.0
  0
LINE
  5
B6B
330
B69
100
AcDbEntity
  8
Sezione
100
AcDbLine
 10
0.0191316019951639
 20
0.0000000122728271
 30
0.0
 11
0.0191316019951639
 21
0.0668219886661159
 31
0.0
  0
LINE
  5
B6C
330
B69
100
AcDbEntity
  8
Sezione
100
AcDbLine
 10
0.0191316019951639
 20
0.0668219886661159
 30
0.0
 11
0.0923266054750259
 21
0.0668219886661159
 31
0.0
  0
ENDBLK
  5
B70
330
B69
100
AcDbEntity
  8
0
 62
     3
100
AcDbBlockEnd
  0
BLOCK
  5
BFC
330
BFB
100
AcDbEntity
  8
0
100
AcDbBlockBegin
  2
*X19
 70
     1
 10
0.0
 20
0.0
 30
0.0
  3
*X19
  1

  0
LINE
  5
BFD
330
BFB
100
AcDbEntity
  8
0
 62
     0
100
AcDbLine
 10
486.460053877036
 20
124.0678285189305
 30
0.0
 11
503.5693156116774
 21
141.1770902535719
 31
0.0
  0
LINE
  5
BFE
330
BFB
100
AcDbEntity
  8
0
 62
     0
100
AcDbLine
 10
615.6341149734076
 20
253.2418896153022
 30
0.0
 11
629.3545087289434
 21
266.9622833708378
 31
0.0
  0
LINE
  5
BFF
330
BFB
100
AcDbEntity
  8
0
 62
     0
100
AcDbLine
 10
486.460053877036
 20
132.9066632837623
 30
0.0
 11
503.5693156116774
 21
150.0159250184037
 31
0.0
  0
LINE
  5
C00
330
BFB
100
AcDbEntity
  8
0
 62
     0
100
AcDbLine
 10
606.7952802085758
 20
253.2418896153022
 30
0.0
 11
620.5156739641116
 21
266.9622833708378
 31
0.0
  0
LINE
  5
C01
330
BFB
100
AcDbEntity
  8
0
 62
     0
100
AcDbLine
 10
486.460053877036
 20
141.7454980485942
 30
0.0
 11
503.5693156116774
 21
158.8547597832356
 31
0.0
  0
LINE
  5
C02
330
BFB
100
AcDbEntity
  8
0
 62
     0
100
AcDbLine
 10
597.9564454437441
 20
253.2418896153022
 30
0.0
 11
611.6768391992796
 21
266.9622833708378
 31
0.0
  0
LINE
  5
C03
330
BFB
100
AcDbEntity
  8
0
 62
     0
100
AcDbLine
 10
486.460053877036
 20
150.584332813426
 30
0.0
 11
503.5693156116774
 21
167.6935945480674
 31
0.0
  0
LINE
  5
C04
330
BFB
100
AcDbEntity
  8
0
 62
     0
100
AcDbLine
 10
589.1176106789122
 20
253.2418896153022
 30
0.0
 11
602.8380044344478
 21
266.9622833708378
 31
0.0
  0
LINE
  5
C05
330
BFB
100
AcDbEntity
  8
0
 62
     0
100
AcDbLine
 10
486.460053877036
 20
159.4231675782578
 30
0.0
 11
503.5693156116774
 21
176.5324293128992
 31
0.0
  0
LINE
  5
C06
330
BFB
100
AcDbEntity
  8
0
 62
     0
100
AcDbLine
 10
580.2787759140803
 20
253.2418896153022
 30
0.0
 11
593.999169669616
 21
266.9622833708378
 31
0.0
  0
LINE
  5
C07
330
BFB
100
AcDbEntity
  8
0
 62
     0
100
AcDbLine
 10
486.460053877036
 20
168.2620023430897
 30
0.0
 11
503.5693156116774
 21
185.3712640777311
 31
0.0
  0
LINE
  5
C08
330
BFB
100
AcDbEntity
  8
0
 62
     0
100
AcDbLine
 10
571.4399411492485
 20
253.2418896153022
 30
0.0
 11
585.1603349047841
 21
266.9622833708378
 31
0.0
  0
LINE
  5
C09
330
BFB
100
AcDbEntity
  8
0
 62
     0
100
AcDbLine
 10
486.460053877036
 20
177.1008371079215
 30
0.0
 11
503.5693156116773
 21
194.2100988425629
 31
0.0
  0
LINE
  5
C0A
330
BFB
100
AcDbEntity
  8
0
 62
     0
100
AcDbLine
 10
562.6011063844166
 20
253.2418896153022
 30
0.0
 11
576.3215001399522
 21
266.9622833708378
 31
0.0
  0
LINE
  5
C0B
330
BFB
100
AcDbEntity
  8
0
 62
     0
100
AcDbLine
 10
486.460053877036
 20
185.9396718727533
 30
0.0
 11
503.5693156116773
 21
203.0489336073947
 31
0.0
  0
LINE
  5
C0C
330
BFB
100
AcDbEntity
  8
0
 62
     0
100
AcDbLine
 10
553.7622716195848
 20
253.2418896153022
 30
0.0
 11
567.4826653751203
 21
266.9622833708378
 31
0.0
  0
LINE
  5
C0D
330
BFB
100
AcDbEntity
  8
0
 62
     0
100
AcDbLine
 10
486.4600538770359
 20
194.7785066375852
 30
0.0
 11
503.5693156116773
 21
211.8877683722266
 31
0.0
  0
LINE
  5
C0E
330
BFB
100
AcDbEntity
  8
0
 62
     0
100
AcDbLine
 10
544.9234368547529
 20
253.2418896153022
 30
0.0
 11
558.6438306102885
 21
266.9622833708378
 31
0.0
  0
LINE
  5
C0F
330
BFB
100
AcDbEntity
  8
0
 62
     0
100
AcDbLine
 10
486.4600538770359
 20
203.617341402417
 30
0.0
 11
503.5693156116773
 21
220.7266031370584
 31
0.0
  0
LINE
  5
C10
330
BFB
100
AcDbEntity
  8
0
 62
     0
100
AcDbLine
 10
536.084602089921
 20
253.2418896153022
 30
0.0
 11
549.8049958454567
 21
266.9622833708378
 31
0.0
  0
LINE
  5
C11
330
BFB
100
AcDbEntity
  8
0
 62
     0
100
AcDbLine
 10
486.4600538770359
 20
212.4561761672488
 30
0.0
 11
503.5693156116773
 21
229.5654379018902
 31
0.0
  0
LINE
  5
C12
330
BFB
100
AcDbEntity
  8
0
 62
     0
100
AcDbLine
 10
527.2457673250892
 20
253.2418896153022
 30
0.0
 11
540.9661610806248
 21
266.9622833708378
 31
0.0
  0
LINE
  5
C13
330
BFB
100
AcDbEntity
  8
0
 62
     0
100
AcDbLine
 10
486.4600538770359
 20
221.2950109320807
 30
0.0
 11
503.5693156116773
 21
238.4042726667221
 31
0.0
  0
LINE
  5
C14
330
BFB
100
AcDbEntity
  8
0
 62
     0
100
AcDbLine
 10
518.4069325602573
 20
253.2418896153022
 30
0.0
 11
532.1273263157929
 21
266.9622833708378
 31
0.0
  0
LINE
  5
C15
330
BFB
100
AcDbEntity
  8
0
 62
     0
100
AcDbLine
 10
486.4600538770359
 20
230.1338456969125
 30
0.0
 11
503.5693156116773
 21
247.2431074315539
 31
0.0
  0
LINE
  5
C16
330
BFB
100
AcDbEntity
  8
0
 62
     0
100
AcDbLine
 10
509.5680977954256
 20
253.2418896153021
 30
0.0
 11
523.2884915509611
 21
266.9622833708377
 31
0.0
  0
LINE
  5
C17
330
BFB
100
AcDbEntity
  8
0
 62
     0
100
AcDbLine
 10
486.4600538770359
 20
238.9726804617443
 30
0.0
 11
514.4496567861292
 21
266.9622833708377
 31
0.0
  0
LINE
  5
C18
330
BFB
100
AcDbEntity
  8
0
 62
     0
100
AcDbLine
 10
486.4600538770359
 20
247.8115152265762
 30
0.0
 11
505.6108220212975
 21
266.9622833708377
 31
0.0
  0
LINE
  5
C19
330
BFB
100
AcDbEntity
  8
0
 62
     0
100
AcDbLine
 10
486.4600538770359
 20
256.6503499914079
 30
0.0
 11
496.7719872564656
 21
266.9622833708377
 31
0.0
  0
LINE
  5
C1A
330
BFB
100
AcDbEntity
  8
0
 62
     0
100
AcDbLine
 10
486.4600538770358
 20
265.4891847562398
 30
0.0
 11
487.9331524916337
 21
266.9622833708377
 31
0.0
  0
LINE
  5
C1B
330
BFB
100
AcDbEntity
  8
0
 62
     0
100
AcDbLine
 10
494.0552738068973
 20
122.8242136839599
 30
0.0
 11
503.5693156116774
 21
132.3382554887401
 31
0.0
  0
LINE
  5
C1C
330
BFB
100
AcDbEntity
  8
0
 62
     0
100
AcDbLine
 10
624.4729497382395
 20
253.2418896153022
 30
0.0
 11
629.496054025455
 21
258.2649939025177
 31
0.0
  0
LINE
  5
C1D
330
BFB
100
AcDbEntity
  8
0
 62
     0
100
AcDbLine
 10
502.8941085717291
 20
122.8242136839599
 30
0.0
 11
503.5693156116775
 21
123.4994207239083
 31
0.0
  0
ENDBLK
  5
C1E
330
BFB
100
AcDbEntity
  8
0
100
AcDbBlockEnd
  0
BLOCK
  5
C24
330
C1F
100
AcDbEntity
  8
0
100
AcDbBlockBegin
  2
A$C6C65579B
 70
     0
 10
0.0
 20
0.0
 30
0.0
  3
A$C6C65579B
  1

  0
LINE
  5
C20
330
C1F
100
AcDbEntity
  8
CORTE
  6
RAYITAX4
 62
     4
100
AcDbLine
 10
-265.2537935691752
 20
-42.42682209115611
 30
0.0
 11
-265.2537935691752
 21
-42.55723976708748
 31
0.0
  0
LINE
  5
C21
330
C1F
100
AcDbEntity
  8
CORTE
  6
RAYITAX4
 62
     4
100
AcDbLine
 10
-265.2537935691752
 20
-42.42682209115611
 30
0.0
 11
-265.1278668307615
 21
-42.42682209115611
 31
0.0
  0
INSERT
  5
C22
330
C1F
100
AcDbEntity
  8
TRAMA
100
AcDbBlockReference
  2
*X19
 10
-265.7573628847869
 20
-42.68006398077142
 30
0.0
 41
0.0009999999999764
 42
0.0010000000000048
 43
0.001
1001
ACAD
1000
HATCH
1002
{
1070
    16
1000
ANSI31
1040
50.0
1040
0.0
1002
}
  0
LWPOLYLINE
  5
C23
330
C1F
100
AcDbEntity
  8
CORTE
  6
Continuous
 62
     1
100
AcDbPolyline
 90
       27
 70
     0
 43
0.0
 10
-265.2434935691752
 20
-42.52048009449487
 42
-0.1309515943895288
 10
-265.2396188804983
 20
-42.50227169263183
 42
-0.0391865213385924
 10
-265.2318861974755
 20
-42.48961463308666
 42
0.148047983309989
 10
-265.2273603786659
 20
-42.46536751056521
 42
-0.477131438324366
 10
-265.226266012113
 20
-42.46426334617865
 42
0.3174254686240992
 10
-265.2222487718652
 20
-42.46199398787246
 10
-265.2204935691752
 20
-42.45828353660647
 42
0.3390955557305459
 10
-265.2133594019252
 20
-42.45748275993213
 42
0.1067380655143518
 10
-265.2064935691752
 20
-42.44728353660645
 10
-265.2014935691752
 20
-42.44428353660646
 42
0.6316956553984646
 10
-265.1944935691752
 20
-42.44228353660645
 42
-0.4142135623730849
 10
-265.1884935691752
 20
-42.43628353660648
 10
-265.1804935691752
 20
-42.43628353660648
 42
0.4142135623730847
 10
-265.1784935691752
 20
-42.43428353660647
 10
-265.1784935691752
 20
-42.42728353660647
 10
-265.1984935691753
 20
-42.42728353660647
 10
-265.2184935691752
 20
-42.43928353660646
 10
-265.2222940706685
 20
-42.43961583728498
 42
0.2192482621402799
 10
-265.2266538493824
 20
-42.4421056036295
 10
-265.2379730166141
 20
-42.45795243775387
 42
0.1840335527349514
 10
-265.239055826335
 20
-42.46208505147598
 10
-265.2384935691752
 20
-42.46728353660649
 10
-265.2534935691752
 20
-42.5122835366065
 10
-265.2534935691752
 20
-42.53228353660648
 10
-265.2454935691752
 20
-42.53228353660648
 42
0.4142135623730847
 10
-265.2434935691752
 20
-42.53028353660647
 10
-265.2434935691752
 20
-42.51681234902133
  0
ENDBLK
  5
C25
330
C1F
100
AcDbEntity
  8
0
100
AcDbBlockEnd
  0
BLOCK
  5
FEC
330
FEB
100
AcDbEntity
  8
0
100
AcDbBlockBegin
  2
Z4
 70
     0
 10
0.0
 20
0.0
 30
0.0
  3
Z4
  1

  0
LINE
  5
10C1
330
FEB
100
AcDbEntity
  8
Vista
100
AcDbLine
 10
-0.0000013798916711
 20
0.0115999999867427
 30
0.0
 11
0.0210150918188106
 21
0.011600211399184
 31
0.0
1001
AcDbBlockRepETag
1070
     1
1071
        0
1005
10C1
  0
LINE
  5
10C2
330
FEB
100
AcDbEntity
  8
Vista
100
AcDbLine
 10
-0.0000012632029893
 20
-0.0000000000126761
 30
0.0
 11
0.0210152085074924
 21
0.0000002113997652
 31
0.0
1001
AcDbBlockRepETag
1070
     1
1071
        1
1005
10C2
  0
ARC
  5
10C3
330
FEB
100
AcDbEntity
  8
Vista
100
AcDbCircle
 10
0.0128448849221172
 20
0.0132154841897716
 30
0.0
 40
0.0140847949245492
100
AcDbArc
 50
210.8168847834205
 51
229.3422399532511
1001
AcDbBlockRepETag
1070
     1
1071
        2
1005
10C3
  0
ARC
  5
10C4
330
FEB
100
AcDbEntity
  8
Vista
100
AcDbCircle
 10
0.0104987367970466
 20
0.0104837643425242
 30
0.0
 40
0.0094838638854241
100
AcDbArc
 50
173.2406441673128
 51
270.0000000001934
1001
AcDbBlockRepETag
1070
     1
1071
        3
1005
10C4
  0
ARC
  5
10C5
330
FEB
100
AcDbEntity
  8
Vista
100
AcDbCircle
 10
0.0110245753859886
 20
0.0096688012202151
 30
0.0
 40
0.008684834291003
100
AcDbArc
 50
167.1518779515916
 51
266.5288030567311
1001
AcDbBlockRepETag
1070
     1
1071
        4
1005
10C5
  0
LINE
  5
10C6
330
FEB
100
AcDbEntity
  8
Vista
100
AcDbLine
 10
0.0021417852681793
 20
0.0059999004570841
 30
0.0
 11
0.0035422438405703
 21
0.0052595993301168
 31
0.0
1001
AcDbBlockRepETag
1070
     1
1071
        5
1005
10C6
  0
LWPOLYLINE
  5
10C7
330
FEB
100
AcDbEntity
  8
Vista
100
AcDbPolyline
 90
        6
 70
     0
 43
0.0
 10
-0.0000012632029893
 20
-0.0000000000126477
 42
0.1674163687838473
 10
0.0003641139388151
 20
0.0001254370196193
 42
-0.1204418495943024
 10
0.0035585668839531
 20
0.002205555161737
 42
1.087992653208241
 10
0.0035360325489933
 20
0.00256297800928
 42
0.0381093343277957
 10
0.000498736796942
 20
0.0022098778801194
 10
0.0011181350445213
 20
0.0116000112483619
1001
AcDbBlockRepETag
1070
     1
1071
        6
1005
10C7
  0
LINE
  5
10C8
330
FEB
100
AcDbEntity
  8
Vista
100
AcDbLine
 10
0.0007487367969929
 20
0.0022568144178194
 30
0.0
 11
0.0007487367969929
 21
0.0059999004570841
 31
0.0
1001
AcDbBlockRepETag
1070
     1
1071
        7
1005
10C8
  0
ARC
  5
10C9
330
FEB
100
AcDbEntity
  8
Vista
100
AcDbCircle
 10
0.0099728982081047
 20
0.0096688012202151
 30
0.0
 40
0.008684834291003
100
AcDbArc
 50
273.4711969436545
 51
12.84920570272593
1001
AcDbBlockRepETag
1070
     1
1071
        8
1005
10C9
  0
ARC
  5
10CA
330
FEB
100
AcDbEntity
  8
Vista
100
AcDbCircle
 10
0.0104987367970466
 20
0.0104837643425242
 30
0.0
 40
0.0094838638854241
100
AcDbArc
 50
270.0000000001923
 51
6.760508551422351
1001
AcDbBlockRepETag
1070
     1
1071
        9
1005
10CA
  0
ARC
  5
10CB
330
FEB
100
AcDbEntity
  8
Vista
100
AcDbCircle
 10
0.0104987367970466
 20
0.0104837643425242
 30
0.0
 40
0.0104838638854241
100
AcDbArc
 50
270.0000000001923
 51
310.6577600471345
1001
AcDbBlockRepETag
1070
     1
1071
       10
1005
10CB
  0
ARC
  5
10CC
330
FEB
100
AcDbEntity
  8
Vista
100
AcDbCircle
 10
0.0104987367970466
 20
0.0104837643425242
 30
0.0
 40
0.0104838638854241
100
AcDbArc
 50
229.3422399532511
 51
270.0000000001934
1001
AcDbBlockRepETag
1070
     1
1071
       11
1005
10CC
  0
LINE
  5
10CD
330
FEB
100
AcDbEntity
  8
Vista
100
AcDbLine
 10
0.0202487367969866
 20
0.0059999004571409
 30
0.0
 11
0.0204987367969807
 21
0.0022098778801762
 31
0.0
1001
AcDbBlockRepETag
1070
     1
1071
       12
1005
10CD
  0
LINE
  5
10CE
330
FEB
100
AcDbEntity
  8
Vista
100
AcDbLine
 10
0.0202487367969866
 20
0.0022568144178763
 30
0.0
 11
0.0202487367969866
 21
0.0116002036901364
 31
0.0
1001
AcDbBlockRepETag
1070
     1
1071
       13
1005
10CE
  0
ARC
  5
10CF
330
FEB
100
AcDbEntity
  8
Vista
100
AcDbCircle
 10
0.008152588671976
 20
0.0132154841897716
 30
0.0
 40
0.0140847949245492
100
AcDbArc
 50
310.6577600471345
 51
329.1831152169651
1001
AcDbBlockRepETag
1070
     1
1071
       14
1005
10CF
  0
ARC
  5
10D0
330
FEB
100
AcDbEntity
  8
Vista
100
AcDbCircle
 10
0.017435084485669
 20
0.0023852179221251
 30
0.0
 40
0.0001797034135256
100
AcDbArc
 50
81.56617699754743
 51
271.2187516830706
1001
AcDbBlockRepETag
1070
     1
1071
       15
1005
10D0
  0
ARC
  5
10D1
330
FEB
100
AcDbEntity
  8
Vista
100
AcDbCircle
 10
0.0147810850871792
 20
-0.0053690130053781
 30
0.0
 40
0.0080273344703467
100
AcDbArc
 50
43.23100722392323
 51
70.66466339396645
1001
AcDbBlockRepETag
1070
     1
1071
       16
1005
10D1
  0
ARC
  5
10D2
330
FEB
100
AcDbEntity
  8
Vista
100
AcDbCircle
 10
0.0166670905408637
 20
-0.0175095153721543
 30
0.0
 40
0.0200882050784421
100
AcDbArc
 50
79.00396312718872
 51
87.73375467656311
1001
AcDbBlockRepETag
1070
     1
1071
       17
1005
10D2
  0
ARC
  5
10D3
330
FEB
100
AcDbEntity
  8
Vista
100
AcDbCircle
 10
0.0209993624462754
 20
0.0005930374113916
 30
0.0
 40
0.0005930377539629
100
AcDbArc
 50
231.4503103357746
 51
271.531134397806
1001
AcDbBlockRepETag
1070
     1
1071
       18
1005
10D3
  0
LINE
  5
10D4
330
FEB
100
AcDbEntity
  8
Vista
100
AcDbLine
 10
0.0188556883257434
 20
0.0059999004571409
 30
0.0
 11
0.0174552297534092
 21
0.0052595993301736
 31
0.0
1001
AcDbBlockRepETag
1070
     1
1071
       19
1005
10D4
  0
ENDBLK
  5
1001
330
FEB
100
AcDbEntity
  8
0
100
AcDbBlockEnd
  0
BLOCK
  5
11B3
330
11A8
100
AcDbEntity
  8
0
100
AcDbBlockBegin
  2
*D26
 70
     1
 10
0.0
 20
0.0
 30
0.0
  3
*D26
  1

  0
LINE
  5
11B6
330
11A8
100
AcDbEntity
  8
Dimensione
 62
     5
370
    -2
100
AcDbLine
 10
0.071573763029993
 20
0.134530734588391
 30
0.0
 11
0.071573763029993
 21
0.1152849900088985
 31
0.0
  0
LINE
  5
11B7
330
11A8
100
AcDbEntity
  8
Dimensione
 62
     5
370
    -2
100
AcDbLine
 10
0.1315737630299952
 20
0.195098136068647
 30
0.0
 11
0.1315737630299952
 21
0.1152849900088985
 31
0.0
  0
LINE
  5
11B8
330
11A8
100
AcDbEntity
  8
Dimensione
 62
     5
370
    -2
100
AcDbLine
 10
0.071573763029993
 20
0.1154649900088985
 30
0.0
 11
0.0910737630299941
 21
0.1154649900088985
 31
0.0
  0
LINE
  5
11B9
330
11A8
100
AcDbEntity
  8
Dimensione
 62
     5
370
    -2
100
AcDbLine
 10
0.1315737630299952
 20
0.1154649900088985
 30
0.0
 11
0.1120737630299941
 21
0.1154649900088985
 31
0.0
  0
INSERT
  5
11BA
330
11A8
100
AcDbEntity
  8
Dimensione
 62
     5
370
    -2
100
AcDbBlockReference
  2
_ArchTick
 10
0.071573763029993
 20
0.1154649900088985
 30
0.0
 41
0.0015
 42
0.0015
 43
0.0015
 50
180.0
  0
INSERT
  5
11BB
330
11A8
100
AcDbEntity
  8
Dimensione
 62
     5
370
    -2
100
AcDbBlockReference
  2
_ArchTick
 10
0.1315737630299952
 20
0.1154649900088985
 30
0.0
 41
0.0015
 42
0.0015
 43
0.0015
  0
MTEXT
  5
11BC
330
11A8
100
AcDbEntity
  8
Dimensione
 62
     4
100
AcDbMText
 10
0.1015737630299941
 20
0.1154649900088985
 30
0.0
 40
0.003
 41
0.0
 71
     5
 72
     1
  1
\A1;127 MM
  7
ROMANS
 73
     1
 44
1.0
1001
ACAD
1000
MTEXTBEGIN
1070
    73
1070
     1
1070
    44
1040
1.0
1070
    74
1070
     0
1000
MTEXTEND
  0
POINT
  5
11BD
330
11A8
100
AcDbEntity
  8
Defpoints
 62
     0
100
AcDbPoint
 10
0.071573763029993
 20
0.134593234588391
 30
0.0
  0
POINT
  5
11BE
330
11A8
100
AcDbEntity
  8
Defpoints
 62
     0
100
AcDbPoint
 10
0.1315737630299952
 20
0.195160636068647
 30
0.0
  0
POINT
  5
11BF
330
11A8
100
AcDbEntity
  8
Defpoints
 62
     0
100
AcDbPoint
 10
0.1315737630299952
 20
0.1154649900088985
 30
0.0
  0
ENDBLK
  5
11B4
330
11A8
100
AcDbEntity
  8
0
100
AcDbBlockEnd
  0
BLOCK
  5
11E7
330
11DC
100
AcDbEntity
  8
0
100
AcDbBlockBegin
  2
*D28
 70
     1
 10
0.0
 20
0.0
 30
0.0
  3
*D28
  1

  0
LINE
  5
11EA
330
11DC
100
AcDbEntity
  8
Dimensione
 62
     5
370
    -2
100
AcDbLine
 10
0.0746362630300215
 20
0.134593234588391
 30
0.0
 11
0.1549635286661264
 21
0.134593234588391
 31
0.0
  0
LINE
  5
11EB
330
11DC
100
AcDbEntity
  8
Dimensione
 62
     5
370
    -2
100
AcDbLine
 10
0.1316362630299952
 20
0.197093234588391
 30
0.0
 11
0.1549635286661264
 21
0.197093234588391
 31
0.0
  0
LINE
  5
11EC
330
11DC
100
AcDbEntity
  8
Dimensione
 62
     5
370
    -2
100
AcDbLine
 10
0.1547835286661264
 20
0.134593234588391
 30
0.0
 11
0.1547835286661264
 21
0.162343234588391
 31
0.0
  0
LINE
  5
11ED
330
11DC
100
AcDbEntity
  8
Dimensione
 62
     5
370
    -2
100
AcDbLine
 10
0.1547835286661265
 20
0.197093234588391
 30
0.0
 11
0.1547835286661264
 21
0.169343234588391
 31
0.0
  0
INSERT
  5
11EE
330
11DC
100
AcDbEntity
  8
Dimensione
 62
     5
370
    -2
100
AcDbBlockReference
  2
_ArchTick
 10
0.1547835286661264
 20
0.134593234588391
 30
0.0
 41
0.0015
 42
0.0015
 43
0.0015
 50
270.0
  0
INSERT
  5
11EF
330
11DC
100
AcDbEntity
  8
Dimensione
 62
     5
370
    -2
100
AcDbBlockReference
  2
_ArchTick
 10
0.1547835286661265
 20
0.197093234588391
 30
0.0
 41
0.0015
 42
0.0015
 43
0.0015
 50
90.0
  0
MTEXT
  5
11F0
330
11DC
100
AcDbEntity
  8
Dimensione
 62
     4
100
AcDbMText
 10
0.1547835286661264
 20
0.165843234588391
 30
0.0
 40
0.003
 41
0.0
 71
     5
 72
     1
  1
\A1;127 MM
  7
ROMANS
 73
     1
 44
1.0
1001
ACAD
1000
MTEXTBEGIN
1070
    73
1070
     1
1070
    44
1040
1.0
1070
    74
1070
     0
1000
MTEXTEND
  0
POINT
  5
11F1
330
11DC
100
AcDbEntity
  8
Defpoints
 62
     0
100
AcDbPoint
 10
0.0745737630300215
 20
0.134593234588391
 30
0.0
  0
POINT
  5
11F2
330
11DC
100
AcDbEntity
  8
Defpoints
 62
     0
100
AcDbPoint
 10
0.1315737630299952
 20
0.197093234588391
 30
0.0
  0
POINT
  5
11F3
330
11DC
100
AcDbEntity
  8
Defpoints
 62
     0
100
AcDbPoint
 10
0.1547835286661265
 20
0.197093234588391
 30
0.0
  0
ENDBLK
  5
11E8
330
11DC
100
AcDbEntity
  8
0
100
AcDbBlockEnd
  0
BLOCK
  5
1483
330
1478
100
AcDbEntity
  8
0
100
AcDbBlockBegin
  2
*D32
 70
     1
 10
0.0
 20
0.0
 30
0.0
  3
*D32
  1

  0
LINE
  5
14B5
330
1478
100
AcDbEntity
  8
Dimensione
 62
     5
370
    -2
100
AcDbLine
 10
0.0761467449146901
 20
0.1343004085644424
 30
0.0
 11
0.1526453596421785
 21
0.1343004085644424
 31
0.0
  0
LINE
  5
14B6
330
1478
100
AcDbEntity
  8
Dimensione
 62
     5
370
    -2
100
AcDbLine
 10
0.1412311979533976
 20
0.1973004085644447
 30
0.0
 11
0.1526453596421786
 21
0.1973004085644447
 31
0.0
  0
LINE
  5
14B7
330
1478
100
AcDbEntity
  8
Dimensione
 62
     5
370
    -2
100
AcDbLine
 10
0.1524653596421785
 20
0.1343004085644424
 30
0.0
 11
0.1524653596421785
 21
0.1623004085644435
 31
0.0
  0
LINE
  5
14B8
330
1478
100
AcDbEntity
  8
Dimensione
 62
     5
370
    -2
100
AcDbLine
 10
0.1524653596421786
 20
0.1973004085644447
 30
0.0
 11
0.1524653596421785
 21
0.1693004085644436
 31
0.0
  0
INSERT
  5
14B9
330
1478
100
AcDbEntity
  8
Dimensione
 62
     5
370
    -2
100
AcDbBlockReference
  2
_ArchTick
 10
0.1524653596421785
 20
0.1343004085644424
 30
0.0
 41
0.0015
 42
0.0015
 43
0.0015
 50
270.0
  0
INSERT
  5
14BA
330
1478
100
AcDbEntity
  8
Dimensione
 62
     5
370
    -2
100
AcDbBlockReference
  2
_ArchTick
 10
0.1524653596421786
 20
0.1973004085644447
 30
0.0
 41
0.0015
 42
0.0015
 43
0.0015
 50
90.0
  0
MTEXT
  5
14BB
330
1478
100
AcDbEntity
  8
Dimensione
 62
     4
100
AcDbMText
 10
0.1524653596421785
 20
0.1658004085644436
 30
0.0
 40
0.003
 41
0.0
 71
     5
 72
     1
  1
\A1;126 mm
  7
ROMANS
 73
     1
 44
1.0
1001
ACAD
1000
MTEXTBEGIN
1070
    73
1070
     1
1070
    44
1040
1.0
1070
    74
1070
     0
1000
MTEXTEND
  0
POINT
  5
14BC
330
1478
100
AcDbEntity
  8
Defpoints
 62
     0
100
AcDbPoint
 10
0.0760842449146901
 20
0.1343004085644424
 30
0.0
  0
POINT
  5
14BD
330
1478
100
AcDbEntity
  8
Defpoints
 62
     0
100
AcDbPoint
 10
0.1411686979533977
 20
0.1973004085644447
 30
0.0
  0
POINT
  5
14BE
330
1478
100
AcDbEntity
  8
Defpoints
 62
     0
100
AcDbPoint
 10
0.1524653596421786
 20
0.1973004085644447
 30
0.0
  0
ENDBLK
  5
1484
330
1478
100
AcDbEntity
  8
0
100
AcDbBlockEnd
  0
BLOCK
  5
149D
330
1492
100
AcDbEntity
  8
0
100
AcDbBlockBegin
  2
*D33
 70
     1
 10
0.0
 20
0.0
 30
0.0
  3
*D33
  1

  0
LINE
  5
14A0
330
1492
100
AcDbEntity
  8
Dimensione
 62
     5
370
    -2
100
AcDbLine
 10
0.0713510489610721
 20
0.1342379085644424
 30
0.0
 11
0.0713510489610721
 21
0.1187775717664297
 31
0.0
  0
LINE
  5
14A1
330
1492
100
AcDbEntity
  8
Dimensione
 62
     5
370
    -2
100
AcDbLine
 10
0.1411686979533977
 20
0.1912854293998393
 30
0.0
 11
0.1411686979533977
 21
0.1187775717664297
 31
0.0
  0
LINE
  5
14A2
330
1492
100
AcDbEntity
  8
Dimensione
 62
     5
370
    -2
100
AcDbLine
 10
0.0713510489610721
 20
0.1189575717664297
 30
0.0
 11
0.094902730600092
 21
0.1189575717664297
 31
0.0
  0
LINE
  5
14A3
330
1492
100
AcDbEntity
  8
Dimensione
 62
     5
370
    -2
100
AcDbLine
 10
0.1411686979533977
 20
0.1189575717664297
 30
0.0
 11
0.1176170163143777
 21
0.1189575717664297
 31
0.0
  0
INSERT
  5
14A4
330
1492
100
AcDbEntity
  8
Dimensione
 62
     5
370
    -2
100
AcDbBlockReference
  2
_ArchTick
 10
0.0713510489610721
 20
0.1189575717664297
 30
0.0
 41
0.0015
 42
0.0015
 43
0.0015
 50
180.0
  0
INSERT
  5
14A5
330
1492
100
AcDbEntity
  8
Dimensione
 62
     5
370
    -2
100
AcDbBlockReference
  2
_ArchTick
 10
0.1411686979533977
 20
0.1189575717664297
 30
0.0
 41
0.0015
 42
0.0015
 43
0.0015
  0
MTEXT
  5
14A6
330
1492
100
AcDbEntity
  8
Dimensione
 62
     4
100
AcDbMText
 10
0.1062598734572349
 20
0.1189575717664297
 30
0.0
 40
0.003
 41
0.0
 71
     5
 72
     1
  1
\A1;126 mm
  7
ROMANS
 73
     1
 44
1.0
1001
ACAD
1000
MTEXTBEGIN
1070
    73
1070
     1
1070
    44
1040
1.0
1070
    74
1070
     0
1000
MTEXTEND
  0
POINT
  5
14A7
330
1492
100
AcDbEntity
  8
Defpoints
 62
     0
100
AcDbPoint
 10
0.0713510489610721
 20
0.1343004085644424
 30
0.0
  0
POINT
  5
14A8
330
1492
100
AcDbEntity
  8
Defpoints
 62
     0
100
AcDbPoint
 10
0.1411686979533977
 20
0.1913479293998392
 30
0.0
  0
POINT
  5
14A9
330
1492
100
AcDbEntity
  8
Defpoints
 62
     0
100
AcDbPoint
 10
0.1411686979533977
 20
0.1189575717664297
 30
0.0
  0
ENDBLK
  5
149E
330
1492
100
AcDbEntity
  8
0
100
AcDbBlockEnd
  0
BLOCK
  5
1516
330
14D6
100
AcDbEntity
  8
0
100
AcDbBlockBegin
  2
A$C135D5332
 70
     0
 10
0.0
 20
0.0
 30
0.0
  3
A$C135D5332
  1

  0
LWPOLYLINE
  5
14D7
330
14D6
100
AcDbEntity
  8
0
  6
Continuous
 62
     4
370
     0
100
AcDbPolyline
 90
        4
 70
     1
 43
0.0
 10
1.459560681558286
 20
6.847688894247426
 10
6.152185490139913
 20
6.847688894247426
 10
6.152185490139913
 20
8.834617410295322
 10
1.459560681558286
 20
8.834617410295322
  0
LINE
  5
14D8
330
14D6
100
AcDbEntity
  8
0
  6
Continuous
 62
     4
370
     0
100
AcDbLine
 10
2.274252337528196
 20
6.847688894247426
 30
0.0
 11
2.274252337528196
 21
8.085447461204751
 31
0.0
  0
LINE
  5
14D9
330
14D6
100
AcDbEntity
  8
0
  6
Continuous
 62
     4
370
     0
100
AcDbLine
 10
2.274252337528196
 20
8.085447461204751
 30
0.0
 11
5.370081453371199
 21
8.085447461204751
 31
0.0
  0
LINE
  5
14DA
330
14D6
100
AcDbEntity
  8
0
  6
Continuous
 62
     4
370
     0
100
AcDbLine
 10
5.370081453371199
 20
8.085447461204751
 30
0.0
 11
5.370081453371199
 21
6.847688894247426
 31
0.0
  0
LINE
  5
14DB
330
14D6
100
AcDbEntity
  8
0
  6
Continuous
 62
     4
370
     0
100
AcDbLine
 10
7.428929416310211
 20
0.0
 30
0.0
 11
0.0
 21
0.0
 31
0.0
  0
LINE
  5
14DC
330
14D6
100
AcDbEntity
  8
0
  6
Continuous
 62
     4
370
     0
100
AcDbLine
 10
0.0
 20
0.0
 30
0.0
 11
0.0
 21
14.7340498962148
 31
0.0
  0
LINE
  5
14DD
330
14D6
100
AcDbEntity
  8
0
  6
Continuous
 62
     4
370
     0
100
AcDbLine
 10
0.0
 20
14.7340498962148
 30
0.0
 11
8.891317055019044
 21
14.7340498962148
 31
0.0
  0
LWPOLYLINE
  5
14DE
330
14D6
100
AcDbEntity
  8
0
  6
Continuous
 62
     4
370
     0
100
AcDbPolyline
 90
        4
 70
     1
 43
0.0
 10
6.48058583503257
 20
6.847688894247426
 10
11.17321064361419
 20
6.847688894247426
 10
11.17321064361419
 20
8.834617410295322
 10
6.48058583503257
 20
8.834617410295322
  0
LINE
  5
14DF
330
14D6
100
AcDbEntity
  8
0
  6
Continuous
 62
     4
370
     0
100
AcDbLine
 10
7.29527749100248
 20
6.847688894247426
 30
0.0
 11
7.29527749100248
 21
8.085447461204751
 31
0.0
  0
LINE
  5
14E0
330
14D6
100
AcDbEntity
  8
0
  6
Continuous
 62
     4
370
     0
100
AcDbLine
 10
7.29527749100248
 20
8.085447461204751
 30
0.0
 11
10.39110660684548
 21
8.085447461204751
 31
0.0
  0
LINE
  5
14E1
330
14D6
100
AcDbEntity
  8
0
  6
Continuous
 62
     4
370
     0
100
AcDbLine
 10
10.39110660684548
 20
8.085447461204751
 30
0.0
 11
10.39110660684548
 21
6.847688894247426
 31
0.0
  0
LWPOLYLINE
  5
14E2
330
14D6
100
AcDbEntity
  8
0
  6
Continuous
 62
     4
370
     0
100
AcDbPolyline
 90
        4
 70
     1
 43
0.0
 10
11.50161098850685
 20
6.847688894247426
 10
16.19423579708848
 20
6.847688894247426
 10
16.19423579708848
 20
8.834617410295322
 10
11.50161098850685
 20
8.834617410295322
  0
LINE
  5
14E3
330
14D6
100
AcDbEntity
  8
0
  6
Continuous
 62
     4
370
     0
100
AcDbLine
 10
12.31630264447676
 20
6.847688894247426
 30
0.0
 11
12.31630264447676
 21
8.085447461204751
 31
0.0
  0
LINE
  5
14E4
330
14D6
100
AcDbEntity
  8
0
  6
Continuous
 62
     4
370
     0
100
AcDbLine
 10
12.31630264447676
 20
8.085447461204751
 30
0.0
 11
15.41213176031976
 21
8.085447461204751
 31
0.0
  0
LINE
  5
14E5
330
14D6
100
AcDbEntity
  8
0
  6
Continuous
 62
     4
370
     0
100
AcDbLine
 10
15.41213176031976
 20
8.085447461204751
 30
0.0
 11
15.41213176031976
 21
6.847688894247426
 31
0.0
  0
LWPOLYLINE
  5
14E6
330
14D6
100
AcDbEntity
  8
0
  6
Continuous
 62
     4
370
     0
100
AcDbPolyline
 90
        4
 70
     1
 43
0.0
 10
16.52263614198114
 20
6.847688894247426
 10
21.21526095056276
 20
6.847688894247426
 10
21.21526095056276
 20
8.834617410295322
 10
16.52263614198114
 20
8.834617410295322
  0
LINE
  5
14E7
330
14D6
100
AcDbEntity
  8
0
  6
Continuous
 62
     4
370
     0
100
AcDbLine
 10
17.33732779795104
 20
6.847688894247426
 30
0.0
 11
17.33732779795104
 21
8.085447461204751
 31
0.0
  0
LINE
  5
14E8
330
14D6
100
AcDbEntity
  8
0
  6
Continuous
 62
     4
370
     0
100
AcDbLine
 10
17.33732779795104
 20
8.085447461204751
 30
0.0
 11
20.43315691379405
 21
8.085447461204751
 31
0.0
  0
LINE
  5
14E9
330
14D6
100
AcDbEntity
  8
0
  6
Continuous
 62
     4
370
     0
100
AcDbLine
 10
20.43315691379405
 20
8.085447461204751
 30
0.0
 11
20.43315691379405
 21
6.847688894247426
 31
0.0
  0
LWPOLYLINE
  5
14EA
330
14D6
100
AcDbEntity
  8
0
  6
Continuous
 62
     4
370
     0
100
AcDbPolyline
 90
        4
 70
     1
 43
0.0
 10
21.54366129545542
 20
6.847688894247426
 10
26.23628610403705
 20
6.847688894247426
 10
26.23628610403705
 20
8.834617410295322
 10
21.54366129545542
 20
8.834617410295322
  0
LINE
  5
14EB
330
14D6
100
AcDbEntity
  8
0
  6
Continuous
 62
     4
370
     0
100
AcDbLine
 10
22.35835295142533
 20
6.847688894247426
 30
0.0
 11
22.35835295142533
 21
8.085447461204751
 31
0.0
  0
LINE
  5
14EC
330
14D6
100
AcDbEntity
  8
0
  6
Continuous
 62
     4
370
     0
100
AcDbLine
 10
22.35835295142533
 20
8.085447461204751
 30
0.0
 11
25.45418206726834
 21
8.085447461204751
 31
0.0
  0
LINE
  5
14ED
330
14D6
100
AcDbEntity
  8
0
  6
Continuous
 62
     4
370
     0
100
AcDbLine
 10
25.45418206726834
 20
8.085447461204751
 30
0.0
 11
25.45418206726834
 21
6.847688894247426
 31
0.0
  0
LWPOLYLINE
  5
14EE
330
14D6
100
AcDbEntity
  8
0
  6
Continuous
 62
     4
370
     0
100
AcDbPolyline
 90
        4
 70
     1
 43
0.0
 10
26.56468644892971
 20
6.847688894247426
 10
31.25731125751133
 20
6.847688894247426
 10
31.25731125751133
 20
8.834617410295322
 10
26.56468644892971
 20
8.834617410295322
  0
LINE
  5
14EF
330
14D6
100
AcDbEntity
  8
0
  6
Continuous
 62
     4
370
     0
100
AcDbLine
 10
27.37937810489962
 20
6.847688894247426
 30
0.0
 11
27.37937810489962
 21
8.085447461204751
 31
0.0
  0
LINE
  5
14F0
330
14D6
100
AcDbEntity
  8
0
  6
Continuous
 62
     4
370
     0
100
AcDbLine
 10
27.37937810489962
 20
8.085447461204751
 30
0.0
 11
30.47520722074262
 21
8.085447461204751
 31
0.0
  0
LINE
  5
14F1
330
14D6
100
AcDbEntity
  8
0
  6
Continuous
 62
     4
370
     0
100
AcDbLine
 10
30.47520722074262
 20
8.085447461204751
 30
0.0
 11
30.47520722074262
 21
6.847688894247426
 31
0.0
  0
LWPOLYLINE
  5
14F2
330
14D6
100
AcDbEntity
  8
0
  6
Continuous
 62
     4
370
     0
100
AcDbPolyline
 90
        4
 70
     1
 43
0.0
 10
31.58571160240399
 20
6.847688894247426
 10
36.27833641098562
 20
6.847688894247426
 10
36.27833641098562
 20
8.834617410295322
 10
31.58571160240399
 20
8.834617410295322
  0
LINE
  5
14F3
330
14D6
100
AcDbEntity
  8
0
  6
Continuous
 62
     4
370
     0
100
AcDbLine
 10
32.4004032583739
 20
6.847688894247426
 30
0.0
 11
32.4004032583739
 21
8.085447461204751
 31
0.0
  0
LINE
  5
14F4
330
14D6
100
AcDbEntity
  8
0
  6
Continuous
 62
     4
370
     0
100
AcDbLine
 10
32.4004032583739
 20
8.085447461204751
 30
0.0
 11
35.4962323742169
 21
8.085447461204751
 31
0.0
  0
LINE
  5
14F5
330
14D6
100
AcDbEntity
  8
0
  6
Continuous
 62
     4
370
     0
100
AcDbLine
 10
35.4962323742169
 20
8.085447461204751
 30
0.0
 11
35.4962323742169
 21
6.847688894247426
 31
0.0
  0
LWPOLYLINE
  5
14F6
330
14D6
100
AcDbEntity
  8
0
  6
Continuous
 62
     4
370
     0
100
AcDbPolyline
 90
        4
 70
     1
 43
0.0
 10
36.60673675587827
 20
6.847688894247426
 10
41.2993615644599
 20
6.847688894247426
 10
41.2993615644599
 20
8.834617410295322
 10
36.60673675587827
 20
8.834617410295322
  0
LINE
  5
14F7
330
14D6
100
AcDbEntity
  8
0
  6
Continuous
 62
     4
370
     0
100
AcDbLine
 10
37.42142841184818
 20
6.847688894247426
 30
0.0
 11
37.42142841184818
 21
8.085447461204751
 31
0.0
  0
LINE
  5
14F8
330
14D6
100
AcDbEntity
  8
0
  6
Continuous
 62
     4
370
     0
100
AcDbLine
 10
37.42142841184818
 20
8.085447461204751
 30
0.0
 11
40.51725752769118
 21
8.085447461204751
 31
0.0
  0
LINE
  5
14F9
330
14D6
100
AcDbEntity
  8
0
  6
Continuous
 62
     4
370
     0
100
AcDbLine
 10
40.51725752769118
 20
8.085447461204751
 30
0.0
 11
40.51725752769118
 21
6.847688894247426
 31
0.0
  0
LWPOLYLINE
  5
14FA
330
14D6
100
AcDbEntity
  8
0
  6
Continuous
 62
     4
370
     0
100
AcDbPolyline
 90
        4
 70
     1
 43
0.0
 10
41.62776190935256
 20
6.847688894247426
 10
46.32038671793418
 20
6.847688894247426
 10
46.32038671793418
 20
8.834617410295322
 10
41.62776190935256
 20
8.834617410295322
  0
LINE
  5
14FB
330
14D6
100
AcDbEntity
  8
0
  6
Continuous
 62
     4
370
     0
100
AcDbLine
 10
42.44245356532246
 20
6.847688894247426
 30
0.0
 11
42.44245356532246
 21
8.085447461204751
 31
0.0
  0
LINE
  5
14FC
330
14D6
100
AcDbEntity
  8
0
  6
Continuous
 62
     4
370
     0
100
AcDbLine
 10
42.44245356532246
 20
8.085447461204751
 30
0.0
 11
45.53828268116546
 21
8.085447461204751
 31
0.0
  0
LINE
  5
14FD
330
14D6
100
AcDbEntity
  8
0
  6
Continuous
 62
     4
370
     0
100
AcDbLine
 10
45.53828268116546
 20
8.085447461204751
 30
0.0
 11
45.53828268116546
 21
6.847688894247426
 31
0.0
  0
LWPOLYLINE
  5
14FE
330
14D6
100
AcDbEntity
  8
0
  6
Continuous
 62
     4
370
     0
100
AcDbPolyline
 90
        4
 70
     1
 43
0.0
 10
46.64878706282684
 20
6.847688894247426
 10
51.34141187140847
 20
6.847688894247426
 10
51.34141187140847
 20
8.834617410295322
 10
46.64878706282684
 20
8.834617410295322
  0
LINE
  5
14FF
330
14D6
100
AcDbEntity
  8
0
  6
Continuous
 62
     4
370
     0
100
AcDbLine
 10
47.46347871879675
 20
6.847688894247426
 30
0.0
 11
47.46347871879675
 21
8.085447461204751
 31
0.0
  0
LINE
  5
1500
330
14D6
100
AcDbEntity
  8
0
  6
Continuous
 62
     4
370
     0
100
AcDbLine
 10
47.46347871879675
 20
8.085447461204751
 30
0.0
 11
50.55930783463975
 21
8.085447461204751
 31
0.0
  0
LINE
  5
1501
330
14D6
100
AcDbEntity
  8
0
  6
Continuous
 62
     4
370
     0
100
AcDbLine
 10
50.55930783463975
 20
8.085447461204751
 30
0.0
 11
50.55930783463975
 21
6.847688894247426
 31
0.0
  0
LWPOLYLINE
  5
1502
330
14D6
100
AcDbEntity
  8
0
  6
Continuous
 62
     4
370
     0
100
AcDbPolyline
 90
        4
 70
     1
 43
0.0
 10
51.66981221630113
 20
6.847688894247426
 10
56.36243702488275
 20
6.847688894247426
 10
56.36243702488275
 20
8.834617410295322
 10
51.66981221630113
 20
8.834617410295322
  0
LINE
  5
1503
330
14D6
100
AcDbEntity
  8
0
  6
Continuous
 62
     4
370
     0
100
AcDbLine
 10
52.48450387227103
 20
6.847688894247426
 30
0.0
 11
52.48450387227103
 21
8.085447461204751
 31
0.0
  0
LINE
  5
1504
330
14D6
100
AcDbEntity
  8
0
  6
Continuous
 62
     4
370
     0
100
AcDbLine
 10
52.48450387227103
 20
8.085447461204751
 30
0.0
 11
55.58033298811404
 21
8.085447461204751
 31
0.0
  0
LINE
  5
1505
330
14D6
100
AcDbEntity
  8
0
  6
Continuous
 62
     4
370
     0
100
AcDbLine
 10
55.58033298811404
 20
8.085447461204751
 30
0.0
 11
55.58033298811404
 21
6.847688894247426
 31
0.0
  0
LWPOLYLINE
  5
1506
330
14D6
100
AcDbEntity
  8
0
  6
Continuous
 62
     4
370
     0
100
AcDbPolyline
 90
        4
 70
     1
 43
0.0
 10
56.6908373697754
 20
6.847688894247426
 10
61.38346217835703
 20
6.847688894247426
 10
61.38346217835703
 20
8.834617410295322
 10
56.6908373697754
 20
8.834617410295322
  0
LINE
  5
1507
330
14D6
100
AcDbEntity
  8
0
  6
Continuous
 62
     4
370
     0
100
AcDbLine
 10
57.50552902574532
 20
6.847688894247426
 30
0.0
 11
57.50552902574532
 21
8.085447461204751
 31
0.0
  0
LINE
  5
1508
330
14D6
100
AcDbEntity
  8
0
  6
Continuous
 62
     4
370
     0
100
AcDbLine
 10
57.50552902574532
 20
8.085447461204751
 30
0.0
 11
60.60135814158832
 21
8.085447461204751
 31
0.0
  0
LINE
  5
1509
330
14D6
100
AcDbEntity
  8
0
  6
Continuous
 62
     4
370
     0
100
AcDbLine
 10
60.60135814158832
 20
8.085447461204751
 30
0.0
 11
60.60135814158832
 21
6.847688894247426
 31
0.0
  0
LWPOLYLINE
  5
150A
330
14D6
100
AcDbEntity
  8
0
  6
Continuous
 62
     4
370
     0
100
AcDbPolyline
 90
        4
 70
     1
 43
0.0
 10
61.71186252324969
 20
6.847688894247426
 10
66.40448733183132
 20
6.847688894247426
 10
66.40448733183132
 20
8.834617410295322
 10
61.71186252324969
 20
8.834617410295322
  0
LINE
  5
150B
330
14D6
100
AcDbEntity
  8
0
  6
Continuous
 62
     4
370
     0
100
AcDbLine
 10
62.5265541792196
 20
6.847688894247426
 30
0.0
 11
62.5265541792196
 21
8.085447461204751
 31
0.0
  0
LINE
  5
150C
330
14D6
100
AcDbEntity
  8
0
  6
Continuous
 62
     4
370
     0
100
AcDbLine
 10
62.5265541792196
 20
8.085447461204751
 30
0.0
 11
65.62238329506261
 21
8.085447461204751
 31
0.0
  0
LINE
  5
150D
330
14D6
100
AcDbEntity
  8
0
  6
Continuous
 62
     4
370
     0
100
AcDbLine
 10
65.62238329506261
 20
8.085447461204751
 30
0.0
 11
65.62238329506261
 21
6.847688894247426
 31
0.0
  0
LWPOLYLINE
  5
150E
330
14D6
100
AcDbEntity
  8
0
  6
Continuous
 62
     4
370
     0
100
AcDbPolyline
 90
        4
 70
     1
 43
0.0
 10
66.73288767672397
 20
6.847688894247426
 10
71.4255124853056
 20
6.847688894247426
 10
71.4255124853056
 20
8.834617410295322
 10
66.73288767672397
 20
8.834617410295322
  0
LINE
  5
150F
330
14D6
100
AcDbEntity
  8
0
  6
Continuous
 62
     4
370
     0
100
AcDbLine
 10
67.54757933269388
 20
6.847688894247426
 30
0.0
 11
67.54757933269388
 21
8.085447461204751
 31
0.0
  0
LINE
  5
1510
330
14D6
100
AcDbEntity
  8
0
  6
Continuous
 62
     4
370
     0
100
AcDbLine
 10
67.54757933269388
 20
8.085447461204751
 30
0.0
 11
70.64340844853688
 21
8.085447461204751
 31
0.0
  0
LINE
  5
1511
330
14D6
100
AcDbEntity
  8
0
  6
Continuous
 62
     4
370
     0
100
AcDbLine
 10
70.64340844853688
 20
8.085447461204751
 30
0.0
 11
70.64340844853688
 21
6.847688894247426
 31
0.0
  0
LWPOLYLINE
  5
1512
330
14D6
100
AcDbEntity
  8
0
  6
Continuous
 62
     4
370
     0
100
AcDbPolyline
 90
        4
 70
     1
 43
0.0
 10
71.75391283019826
 20
6.847688894247426
 10
76.44653763877989
 20
6.847688894247426
 10
76.44653763877989
 20
8.834617410295322
 10
71.75391283019826
 20
8.834617410295322
  0
LINE
  5
1513
330
14D6
100
AcDbEntity
  8
0
  6
Continuous
 62
     4
370
     0
100
AcDbLine
 10
72.56860448616817
 20
6.847688894247426
 30
0.0
 11
72.56860448616817
 21
8.085447461204751
 31
0.0
  0
LINE
  5
1514
330
14D6
100
AcDbEntity
  8
0
  6
Continuous
 62
     4
370
     0
100
AcDbLine
 10
72.56860448616817
 20
8.085447461204751
 30
0.0
 11
75.66443360201117
 21
8.085447461204751
 31
0.0
  0
LINE
  5
1515
330
14D6
100
AcDbEntity
  8
0
  6
Continuous
 62
     4
370
     0
100
AcDbLine
 10
75.66443360201117
 20
8.085447461204751
 30
0.0
 11
75.66443360201117
 21
6.847688894247426
 31
0.0
  0
ENDBLK
  5
1517
330
14D6
100
AcDbEntity
  8
0
100
AcDbBlockEnd
  0
BLOCK
  5
15DD
330
15D2
100
AcDbEntity
  8
0
100
AcDbBlockBegin
  2
*D37
 70
     1
 10
0.0
 20
0.0
 30
0.0
  3
*D37
  1

  0
LINE
  5
15E0
330
15D2
100
AcDbEntity
  8
Dimensione
 62
     5
370
    -2
100
AcDbLine
 10
0.071060265858116
 20
0.132368538777824
 30
0.0
 11
0.0710602658581095
 21
-106.6447078343535
 31
0.0
  0
LINE
  5
15E1
330
15D2
100
AcDbEntity
  8
Dimensione
 62
     5
370
    -2
100
AcDbLine
 10
0.1293419410987803
 20
0.1924465694585521
 30
0.0
 11
0.1293419410987738
 21
-106.6447078343535
 31
0.0
  0
LINE
  5
15E2
330
15D2
100
AcDbEntity
  8
Dimensione
 62
     5
370
    -2
100
AcDbLine
 10
0.0710602658581095
 20
-106.6445278343535
 30
0.0
 11
0.0936296749070131
 21
-106.6445278343535
 31
0.0
  0
LINE
  5
15E3
330
15D2
100
AcDbEntity
  8
Dimensione
 62
     5
370
    -2
100
AcDbLine
 10
0.1293419410987738
 20
-106.6445278343535
 30
0.0
 11
0.1067725320498702
 21
-106.6445278343535
 31
0.0
  0
INSERT
  5
15E4
330
15D2
100
AcDbEntity
  8
Dimensione
 62
     5
370
    -2
100
AcDbBlockReference
  2
_ArchTick
 10
0.0710602658581095
 20
-106.6445278343535
 30
0.0
 41
0.0015
 42
0.0015
 43
0.0015
 50
180.0
  0
INSERT
  5
15E5
330
15D2
100
AcDbEntity
  8
Dimensione
 62
     5
370
    -2
100
AcDbBlockReference
  2
_ArchTick
 10
0.1293419410987738
 20
-106.6445278343535
 30
0.0
 41
0.0015
 42
0.0015
 43
0.0015
  0
MTEXT
  5
15E6
330
15D2
100
AcDbEntity
  8
Dimensione
 62
     4
100
AcDbMText
 10
0.1002011034784416
 20
-106.6445278343535
 30
0.0
 40
0.003
 41
0.0
 71
     5
 72
     1
  1
\A1;0.06
  7
ROMANS
 73
     1
 44
1.0
1001
ACAD
1000
MTEXTBEGIN
1070
    73
1070
     1
1070
    44
1040
1.0
1070
    74
1070
     0
1000
MTEXTEND
  0
POINT
  5
15E7
330
15D2
100
AcDbEntity
  8
Defpoints
 62
     0
100
AcDbPoint
 10
0.071060265858116
 20
0.132431038777824
 30
0.0
  0
POINT
  5
15E8
330
15D2
100
AcDbEntity
  8
Defpoints
 62
     0
100
AcDbPoint
 10
0.1293419410987803
 20
0.192509069458552
 30
0.0
  0
POINT
  5
15E9
330
15D2
100
AcDbEntity
  8
Defpoints
 62
     0
100
AcDbPoint
 10
0.1293419410987738
 20
-106.6445278343535
 30
0.0
  0
ENDBLK
  5
15DE
330
15D2
100
AcDbEntity
  8
0
100
AcDbBlockEnd
  0
BLOCK
  5
15F7
330
15EC
100
AcDbEntity
  8
0
100
AcDbBlockBegin
  2
*D38
 70
     1
 10
0.0
 20
0.0
 30
0.0
  3
*D38
  1

  0
LINE
  5
15FA
330
15EC
100
AcDbEntity
  8
Dimensione
 62
     5
370
    -2
100
AcDbLine
 10
0.071060265858116
 20
0.132368538777824
 30
0.0
 11
0.071060265858116
 21
0.1164534941502214
 31
0.0
  0
LINE
  5
15FB
330
15EC
100
AcDbEntity
  8
Dimensione
 62
     5
370
    -2
100
AcDbLine
 10
0.1293419410987803
 20
0.1924465694585521
 30
0.0
 11
0.1293419410987803
 21
0.1164534941502214
 31
0.0
  0
LINE
  5
15FC
330
15EC
100
AcDbEntity
  8
Dimensione
 62
     5
370
    -2
100
AcDbLine
 10
0.071060265858116
 20
0.1166334941502214
 30
0.0
 11
0.0888439606213053
 21
0.1166334941502214
 31
0.0
  0
LINE
  5
15FD
330
15EC
100
AcDbEntity
  8
Dimensione
 62
     5
370
    -2
100
AcDbLine
 10
0.1293419410987803
 20
0.1166334941502214
 30
0.0
 11
0.111558246335591
 21
0.1166334941502214
 31
0.0
  0
INSERT
  5
15FE
330
15EC
100
AcDbEntity
  8
Dimensione
 62
     5
370
    -2
100
AcDbBlockReference
  2
_ArchTick
 10
0.071060265858116
 20
0.1166334941502214
 30
0.0
 41
0.0015
 42
0.0015
 43
0.0015
 50
180.0
  0
INSERT
  5
15FF
330
15EC
100
AcDbEntity
  8
Dimensione
 62
     5
370
    -2
100
AcDbBlockReference
  2
_ArchTick
 10
0.1293419410987803
 20
0.1166334941502214
 30
0.0
 41
0.0015
 42
0.0015
 43
0.0015
  0
MTEXT
  5
1600
330
15EC
100
AcDbEntity
  8
Dimensione
 62
     4
100
AcDbMText
 10
0.1002011034784482
 20
0.1166334941502214
 30
0.0
 40
0.003
 41
0.0
 71
     5
 72
     1
  1
\A1;110 mm
  7
ROMANS
 73
     1
 44
1.0
1001
ACAD
1000
MTEXTBEGIN
1070
    73
1070
     1
1070
    44
1040
1.0
1070
    74
1070
     0
1000
MTEXTEND
  0
POINT
  5
1601
330
15EC
100
AcDbEntity
  8
Defpoints
 62
     0
100
AcDbPoint
 10
0.071060265858116
 20
0.132431038777824
 30
0.0
  0
POINT
  5
1602
330
15EC
100
AcDbEntity
  8
Defpoints
 62
     0
100
AcDbPoint
 10
0.1293419410987803
 20
0.192509069458552
 30
0.0
  0
POINT
  5
1603
330
15EC
100
AcDbEntity
  8
Defpoints
 62
     0
100
AcDbPoint
 10
0.1293419410987803
 20
0.1166334941502214
 30
0.0
  0
ENDBLK
  5
15F8
330
15EC
100
AcDbEntity
  8
0
100
AcDbBlockEnd
  0
BLOCK
  5
1611
330
1606
100
AcDbEntity
  8
0
100
AcDbBlockBegin
  2
*D39
 70
     1
 10
0.0
 20
0.0
 30
0.0
  3
*D39
  1

  0
LINE
  5
1614
330
1606
100
AcDbEntity
  8
Dimensione
 62
     5
370
    -2
100
AcDbLine
 10
0.0785045189218844
 20
0.132431038777824
 30
0.0
 11
0.1473066941454985
 21
0.132431038777824
 31
0.0
  0
LINE
  5
1615
330
1606
100
AcDbEntity
  8
Dimensione
 62
     5
370
    -2
100
AcDbLine
 10
0.1294044410987803
 20
0.1974310387778217
 30
0.0
 11
0.1473066941454985
 21
0.1974310387778217
 31
0.0
  0
LINE
  5
1616
330
1606
100
AcDbEntity
  8
Dimensione
 62
     5
370
    -2
100
AcDbLine
 10
0.1471266941454985
 20
0.132431038777824
 30
0.0
 11
0.1471266941454985
 21
0.1614310387778229
 31
0.0
  0
LINE
  5
1617
330
1606
100
AcDbEntity
  8
Dimensione
 62
     5
370
    -2
100
AcDbLine
 10
0.1471266941454985
 20
0.1974310387778217
 30
0.0
 11
0.1471266941454985
 21
0.1684310387778229
 31
0.0
  0
INSERT
  5
1618
330
1606
100
AcDbEntity
  8
Dimensione
 62
     5
370
    -2
100
AcDbBlockReference
  2
_ArchTick
 10
0.1471266941454985
 20
0.132431038777824
 30
0.0
 41
0.0015
 42
0.0015
 43
0.0015
 50
270.0
  0
INSERT
  5
1619
330
1606
100
AcDbEntity
  8
Dimensione
 62
     5
370
    -2
100
AcDbBlockReference
  2
_ArchTick
 10
0.1471266941454985
 20
0.1974310387778217
 30
0.0
 41
0.0015
 42
0.0015
 43
0.0015
 50
90.0
  0
MTEXT
  5
161A
330
1606
100
AcDbEntity
  8
Dimensione
 62
     4
100
AcDbMText
 10
0.1471266941454985
 20
0.1649310387778229
 30
0.0
 40
0.003
 41
0.0
 71
     5
 72
     1
  1
\A1;130 mm
  7
ROMANS
 73
     1
 44
1.0
1001
ACAD
1000
MTEXTBEGIN
1070
    73
1070
     1
1070
    44
1040
1.0
1070
    74
1070
     0
1000
MTEXTEND
  0
POINT
  5
161B
330
1606
100
AcDbEntity
  8
Defpoints
 62
     0
100
AcDbPoint
 10
0.0784420189218844
 20
0.132431038777824
 30
0.0
  0
POINT
  5
161C
330
1606
100
AcDbEntity
  8
Defpoints
 62
     0
100
AcDbPoint
 10
0.1293419410987803
 20
0.1974310387778217
 30
0.0
  0
POINT
  5
161D
330
1606
100
AcDbEntity
  8
Defpoints
 62
     0
100
AcDbPoint
 10
0.1471266941454985
 20
0.1974310387778217
 30
0.0
  0
ENDBLK
  5
1612
330
1606
100
AcDbEntity
  8
0
100
AcDbBlockEnd
  0
BLOCK
  5
17C8
330
17BD
100
AcDbEntity
  8
0
100
AcDbBlockBegin
  2
*D42
 70
     1
 10
0.0
 20
0.0
 30
0.0
  3
*D42
  1

  0
LINE
  5
17CB
330
17BD
100
AcDbEntity
  8
Dimensione
 62
     5
370
    -2
100
AcDbLine
 10
0.0713366526586395
 20
0.1275901842697515
 30
0.0
 11
0.0713366526586395
 21
0.1045502408792916
 31
0.0
  0
LINE
  5
17CC
330
17BD
100
AcDbEntity
  8
Dimensione
 62
     5
370
    -2
100
AcDbLine
 10
0.1025128243567604
 20
0.1923451668968021
 30
0.0
 11
0.1025128243567604
 21
0.1045502408792916
 31
0.0
  0
LINE
  5
17CD
330
17BD
100
AcDbEntity
  8
Dimensione
 62
     5
370
    -2
100
AcDbLine
 10
0.0713366526586395
 20
0.1047302408792916
 30
0.0
 11
0.0767818813648428
 21
0.1047302408792916
 31
0.0
  0
LINE
  5
17CE
330
17BD
100
AcDbEntity
  8
Dimensione
 62
     5
370
    -2
100
AcDbLine
 10
0.1025128243567604
 20
0.1047302408792916
 30
0.0
 11
0.0970675956505571
 21
0.1047302408792916
 31
0.0
  0
INSERT
  5
17CF
330
17BD
100
AcDbEntity
  8
Dimensione
 62
     5
370
    -2
100
AcDbBlockReference
  2
_ArchTick
 10
0.0713366526586395
 20
0.1047302408792916
 30
0.0
 41
0.0015
 42
0.0015
 43
0.0015
 50
180.0
  0
INSERT
  5
17D0
330
17BD
100
AcDbEntity
  8
Dimensione
 62
     5
370
    -2
100
AcDbBlockReference
  2
_ArchTick
 10
0.1025128243567604
 20
0.1047302408792916
 30
0.0
 41
0.0015
 42
0.0015
 43
0.0015
  0
MTEXT
  5
17D1
330
17BD
100
AcDbEntity
  8
Dimensione
 62
     4
100
AcDbMText
 10
0.0869247385076999
 20
0.1047302408792916
 30
0.0
 40
0.003
 41
0.0
 71
     5
 72
     1
  1
\A1;70 mm
  7
ROMANS
 73
     1
 44
1.0
1001
ACAD
1000
MTEXTBEGIN
1070
    73
1070
     1
1070
    44
1040
1.0
1070
    74
1070
     0
1000
MTEXTEND
  0
POINT
  5
17D2
330
17BD
100
AcDbEntity
  8
Defpoints
 62
     0
100
AcDbPoint
 10
0.0713366526586395
 20
0.1276526842697515
 30
0.0
  0
POINT
  5
17D3
330
17BD
100
AcDbEntity
  8
Defpoints
 62
     0
100
AcDbPoint
 10
0.1025128243567604
 20
0.1924076668968021
 30
0.0
  0
POINT
  5
17D4
330
17BD
100
AcDbEntity
  8
Defpoints
 62
     0
100
AcDbPoint
 10
0.1025128243567604
 20
0.1047302408792916
 30
0.0
  0
ENDBLK
  5
17C9
330
17BD
100
AcDbEntity
  8
0
100
AcDbBlockEnd
  0
BLOCK
  5
17E2
330
17D7
100
AcDbEntity
  8
0
100
AcDbBlockBegin
  2
*D43
 70
     1
 10
0.0
 20
0.0
 30
0.0
  3
*D43
  1

  0
LINE
  5
17E5
330
17D7
100
AcDbEntity
  8
Dimensione
 62
     5
370
    -2
100
AcDbLine
 10
0.0748353205044876
 20
0.1276526842697515
 30
0.0
 11
85.82010195634707
 21
0.1276526842697272
 31
0.0
  0
LINE
  5
17E6
330
17D7
100
AcDbEntity
  8
Dimensione
 62
     5
370
    -2
100
AcDbLine
 10
0.1025753243567604
 20
0.1976960885707976
 30
0.0
 11
85.82010195634707
 21
0.1976960885707733
 31
0.0
  0
LINE
  5
17E7
330
17D7
100
AcDbEntity
  8
Dimensione
 62
     5
370
    -2
100
AcDbLine
 10
85.81992195634708
 20
0.1276526842697272
 30
0.0
 11
85.81992195634708
 21
0.1591743864202503
 31
0.0
  0
LINE
  5
17E8
330
17D7
100
AcDbEntity
  8
Dimensione
 62
     5
370
    -2
100
AcDbLine
 10
85.81992195634708
 20
0.1976960885707733
 30
0.0
 11
85.81992195634708
 21
0.1661743864202503
 31
0.0
  0
INSERT
  5
17E9
330
17D7
100
AcDbEntity
  8
Dimensione
 62
     5
370
    -2
100
AcDbBlockReference
  2
_ArchTick
 10
85.81992195634708
 20
0.1276526842697272
 30
0.0
 41
0.0015
 42
0.0015
 43
0.0015
 50
270.0
  0
INSERT
  5
17EA
330
17D7
100
AcDbEntity
  8
Dimensione
 62
     5
370
    -2
100
AcDbBlockReference
  2
_ArchTick
 10
85.81992195634708
 20
0.1976960885707733
 30
0.0
 41
0.0015
 42
0.0015
 43
0.0015
 50
90.0
  0
MTEXT
  5
17EB
330
17D7
100
AcDbEntity
  8
Dimensione
 62
     4
100
AcDbMText
 10
85.81992195634708
 20
0.1626743864202641
 30
0.0
 40
0.003
 41
0.0
 71
     5
 72
     1
  1
\A1;0.07
  7
ROMANS
 73
     1
 44
1.0
1001
ACAD
1000
MTEXTBEGIN
1070
    73
1070
     1
1070
    44
1040
1.0
1070
    74
1070
     0
1000
MTEXTEND
  0
POINT
  5
17EC
330
17D7
100
AcDbEntity
  8
Defpoints
 62
     0
100
AcDbPoint
 10
0.0747728205044876
 20
0.1276526842697515
 30
0.0
  0
POINT
  5
17ED
330
17D7
100
AcDbEntity
  8
Defpoints
 62
     0
100
AcDbPoint
 10
0.1025128243567604
 20
0.1976960885707976
 30
0.0
  0
POINT
  5
17EE
330
17D7
100
AcDbEntity
  8
Defpoints
 62
     0
100
AcDbPoint
 10
85.81992195634708
 20
0.1976960885707733
 30
0.0
  0
ENDBLK
  5
17E3
330
17D7
100
AcDbEntity
  8
0
100
AcDbBlockEnd
  0
BLOCK
  5
17FC
330
17F1
100
AcDbEntity
  8
0
100
AcDbBlockBegin
  2
*D44
 70
     1
 10
0.0
 20
0.0
 30
0.0
  3
*D44
  1

  0
LINE
  5
17FF
330
17F1
100
AcDbEntity
  8
Dimensione
 62
     5
370
    -2
100
AcDbLine
 10
0.0748353205044876
 20
0.1276526842697515
 30
0.0
 11
0.1304582170689909
 21
0.1276526842697515
 31
0.0
  0
LINE
  5
1800
330
17F1
100
AcDbEntity
  8
Dimensione
 62
     5
370
    -2
100
AcDbLine
 10
0.1025753243567604
 20
0.1976960885707976
 30
0.0
 11
0.1304582170689909
 21
0.1976960885707976
 31
0.0
  0
LINE
  5
1801
330
17F1
100
AcDbEntity
  8
Dimensione
 62
     5
370
    -2
100
AcDbLine
 10
0.1302782170689909
 20
0.1276526842697515
 30
0.0
 11
0.1302782170689909
 21
0.1591743864202746
 31
0.0
  0
LINE
  5
1802
330
17F1
100
AcDbEntity
  8
Dimensione
 62
     5
370
    -2
100
AcDbLine
 10
0.1302782170689909
 20
0.1976960885707976
 30
0.0
 11
0.1302782170689909
 21
0.1661743864202746
 31
0.0
  0
INSERT
  5
1803
330
17F1
100
AcDbEntity
  8
Dimensione
 62
     5
370
    -2
100
AcDbBlockReference
  2
_ArchTick
 10
0.1302782170689909
 20
0.1276526842697515
 30
0.0
 41
0.0015
 42
0.0015
 43
0.0015
 50
270.0
  0
INSERT
  5
1804
330
17F1
100
AcDbEntity
  8
Dimensione
 62
     5
370
    -2
100
AcDbBlockReference
  2
_ArchTick
 10
0.1302782170689909
 20
0.1976960885707976
 30
0.0
 41
0.0015
 42
0.0015
 43
0.0015
 50
90.0
  0
MTEXT
  5
1805
330
17F1
100
AcDbEntity
  8
Dimensione
 62
     4
100
AcDbMText
 10
0.1302782170689909
 20
0.1626743864202746
 30
0.0
 40
0.003
 41
0.0
 71
     5
 72
     1
  1
\A1;140 mm
  7
ROMANS
 73
     1
 44
1.0
1001
ACAD
1000
MTEXTBEGIN
1070
    73
1070
     1
1070
    44
1040
1.0
1070
    74
1070
     0
1000
MTEXTEND
  0
POINT
  5
1806
330
17F1
100
AcDbEntity
  8
Defpoints
 62
     0
100
AcDbPoint
 10
0.0747728205044876
 20
0.1276526842697515
 30
0.0
  0
POINT
  5
1807
330
17F1
100
AcDbEntity
  8
Defpoints
 62
     0
100
AcDbPoint
 10
0.1025128243567604
 20
0.1976960885707976
 30
0.0
  0
POINT
  5
1808
330
17F1
100
AcDbEntity
  8
Defpoints
 62
     0
100
AcDbPoint
 10
0.1302782170689909
 20
0.1976960885707976
 30
0.0
  0
ENDBLK
  5
17FD
330
17F1
100
AcDbEntity
  8
0
100
AcDbBlockEnd
  0
ENDSEC
  0
SECTION
  2
ENTITIES
  0
LINE
  5
D
330
2
100
AcDbEntity
  8
Table
100
AcDbLine
 10
0.02
 20
0.02
 30
0.0
 11
0.4
 21
0.02
 31
0.0
  0
LINE
  5
10
330
2
100
AcDbEntity
  8
Table
100
AcDbLine
 10
0.4
 20
0.02
 30
0.0
 11
0.4
 21
0.2769999999999999
 31
0.0
  0
LINE
  5
11
330
2
100
AcDbEntity
  8
Table
100
AcDbLine
 10
0.4
 20
0.2769999999999999
 30
0.0
 11
0.02
 21
0.277
 31
0.0
  0
LINE
  5
12
330
2
100
AcDbEntity
  8
Table
100
AcDbLine
 10
0.02
 20
0.277
 30
0.0
 11
0.02
 21
0.02
 31
0.0
  0
LINE
  5
13
330
2
100
AcDbEntity
  8
Table
 62
     2
100
AcDbLine
 10
0.015
 20
0.015
 30
0.0
 11
0.4050000000000001
 21
0.015
 31
0.0
  0
LINE
  5
14
330
2
100
AcDbEntity
  8
Table
 62
     2
100
AcDbLine
 10
0.4050000000000001
 20
0.015
 30
0.0
 11
0.4050000000000001
 21
0.2819999999999998
 31
0.0
  0
LINE
  5
15
330
2
100
AcDbEntity
  8
Table
 62
     2
100
AcDbLine
 10
0.4050000000000001
 20
0.2819999999999998
 30
0.0
 11
0.0149999999999999
 21
0.282
 31
0.0
  0
LINE
  5
16
330
2
100
AcDbEntity
  8
Table
 62
     2
100
AcDbLine
 10
0.0149999999999999
 20
0.282
 30
0.0
 11
0.015
 21
0.015
 31
0.0
  0
LINE
  5
17
330
2
100
AcDbEntity
  8
Table
100
AcDbLine
 10
0.21
 20
0.2769999999999999
 30
0.0
 11
0.21
 21
0.2532994226089223
 31
0.0
  0
LINE
  5
1D
330
2
100
AcDbEntity
  8
Table
100
AcDbLine
 10
0.02
 20
0.0528099428524846
 30
0.0
 11
0.4
 21
0.0528099428524846
 31
0.0
  0
MTEXT
  5
1E
330
2
100
AcDbEntity
  8
Text
100
AcDbMText
 10
0.1133313047219695
 20
0.2610796890771976
 30
0.0
 40
0.003
 41
0.1103605678262056
 71
     2
 72
     5
  1
{\fTimes New Roman|b0|i0|c0|p18;Le cornici estruse per soffitti \fTimes New Roman|b0|i1|c0|p18;      Extruded ceilings moulding}
 73
     1
 44
1.0
1001
ACAD
1000
ACAD_MTEXT_DEFINED_HEIGHT_BEGIN
1070
    46
1040
0.0141952763113409
1000
ACAD_MTEXT_DEFINED_HEIGHT_END
1000
MTEXTBEGIN
1070
    73
1070
     1
1070
    44
1040
1.0
1070
    74
1070
     0
1000
MTEXTEND
  0
TEXT
  5
1F
330
2
100
AcDbEntity
  8
Text
100
AcDbText
 10
0.2180556919891047
 20
0.269976982173197
 30
0.0
 40
0.003
  1
Cornice - Moulding : H 140 x 70 mm
  7
ROMANS
100
AcDbText
  0
TEXT
  5
21
330
2
100
AcDbEntity
  8
Text
100
AcDbText
 10
0.2184542410678115
 20
0.2576348370183962
 30
0.0
 40
0.003
  1
File : E - F6L
  7
ROMANS
100
AcDbText
  0
LINE
  5
22
330
2
100
AcDbEntity
  8
Table
100
AcDbLine
 10
0.4
 20
0.2654452889427402
 30
0.0
 11
0.02
 21
0.2654452889427403
 31
0.0
  0
LINE
  5
23
330
2
100
AcDbEntity
  8
Table
100
AcDbLine
 10
0.4
 20
0.2532994226089223
 30
0.0
 11
0.02
 21
0.2532994226089225
 31
0.0
  0
LINE
  5
24
330
2
100
AcDbEntity
  8
Table
100
AcDbLine
 10
0.21
 20
0.0528099428524846
 30
0.0
 11
0.21
 21
0.02
 31
0.0
  0
TEXT
  5
25
330
2
100
AcDbEntity
  8
Text
100
AcDbText
 10
0.0947789320547719
 20
0.2687784133392506
 30
0.0
 40
0.005
  1
EUROSTYL
  7
style1
 72
     1
 11
0.1140561490699125
 21
0.2687784133392506
 31
0.0
100
AcDbText
  0
TEXT
  5
27
330
2
100
AcDbEntity
  8
Text
100
AcDbText
 10
0.3373426737836191
 20
0.0660244754408466
 30
0.0
 40
0.005
  1
scala 1:2
  7
Arial
100
AcDbText
  0
MTEXT
  5
10F
102
{ACAD_XDICTIONARY
360
1818
102
}
330
2
100
AcDbEntity
  8
Text
100
AcDbMText
 10
0.305
 20
0.0471738284815141
 30
0.0
 40
0.005
 41
0.1900000000000001
 71
     2
 72
     5
  3
{\fTimes New Roman|b0|i0|c238|p18;\H1.6x;\C4;Bovelacci\P\H0.4375x;\T0.95;via del Commercio, 5  47100 Forli - Italy  \fTimes New Roman|b0|i0|c0|p18;\P\fTimes New Roman|b0|i0|c238|p18;tel.+39-0543721386  fax +39-0543721127\fTimes New Roman|b0|i0|c0|p18
  1
; \fTimes New Roman|b0|i0|c238|p18;www.bovelacci.it\fTimes New Roman|b0|i0|c0|p18; \fTimes New Roman|b0|i0|c238|p18;e-mail: bovelacci@bovelacci\fTimes New Roman|b0|i0|c0|p18;.it}
 73
     1
 44
1.0
1001
ACAD
1000
ACAD_MTEXT_DEFINED_HEIGHT_BEGIN
1070
    46
1040
0.0271738284815141
1000
ACAD_MTEXT_DEFINED_HEIGHT_END
1000
MTEXTBEGIN
1070
    73
1070
     1
1070
    44
1040
1.0
1070
    74
1070
     0
1000
MTEXTEND
  0
MTEXT
  5
110
330
2
100
AcDbEntity
  8
Text
100
AcDbMText
 10
0.0219676065851835
 20
0.0500313976452307
 30
0.0
 40
0.002
 41
0.1863544980601608
 71
     1
 72
     5
  3
{\fArial|b0|i0|c0|p34;\H1.25x;Le caratteristiche tecniche indicate vengono fornite a titolo indicativo e potranno essere modificate senza preavviso. Non devono quindi essere considerate a scopo di specifica.\P\fArial|b0|i1|c0|p34;The given values are
  3
 indicative and can be changed without notice. They cannot be considered like a state.\PThis lealfet and designs embodied within are protected by copyright law and international treaties. Unauthorized repro- duction of the leaflet or any portion of i
  1
t or reproduction of any of the designs embodied therein may result in severe civil penalties and will be prosecuted to the maximum.\PAll right reserved, Bovelacci Forlì Italy.}
 73
     1
 44
1.0
1001
ACAD
1000
MTEXTBEGIN
1070
    73
1070
     1
1070
    44
1040
1.0
1070
    74
1070
     0
1000
MTEXTEND
  0
TEXT
  5
1CA
330
2
100
AcDbEntity
  8
Text
100
AcDbText
 10
0.0879440355147445
 20
0.0732117799103868
 30
0.0
 40
0.005
  1
scala 1:2
  7
Arial
100
AcDbText
  0
HATCH
  5
11A4
330
2
100
AcDbEntity
  8
Sezione
100
AcDbHatch
 10
0.0
 20
0.0
 30
0.0
210
0.0
220
0.0
230
1.0
  2
ANSI31
 70
     0
 71
     0
 91
        1
 92
        1
 93
        6
 72
     1
 10
0.1165395786694034
 20
0.1977338613253694
 11
0.1165395786694034
 21
0.2171926373321501
 72
     1
 10
0.1165395786694034
 20
0.2171926373321501
 11
0.0514052499658299
 21
0.2171926373321501
 72
     1
 10
0.0514052499658299
 20
0.2171926373321501
 11
0.0514052499658299
 21
0.1312209793498775
 72
     1
 10
0.0514052499658299
 20
0.1312209793498775
 11
0.0705369185267676
 21
0.1312209793498775
 72
     1
 10
0.0705369185267676
 20
0.1312209793498775
 11
0.0705369185267676
 21
0.1977338613253695
 72
     1
 10
0.0705369185267676
 20
0.1977338613253695
 11
0.1165395786694034
 21
0.1977338613253694
 97
        0
 75
     0
 76
     1
 52
0.0
 41
0.002
 77
     0
 78
     1
 53
45.0
 43
-0.034423483693838
 44
-0.0050088461078311
 45
-0.0044901280605346
 46
0.0044901280605346
 79
     0
 98
        1
 10
0.0801563630625538
 20
0.204924370002114
1001
ACAD
1010
0.0
1020
0.0
1030
0.0
  0
LINE
  5
11A5
330
2
100
AcDbEntity
  8
Sezione
100
AcDbLine
 10
0.0705369185267676
 20
0.1309118849320807
 30
0.0
 11
0.0705369185267676
 21
0.1977338613253695
 31
0.0
  0
LINE
  5
11A6
330
2
100
AcDbEntity
  8
Sezione
100
AcDbLine
 10
0.0705369185267676
 20
0.1977338613253695
 30
0.0
 11
0.1165395786694034
 21
0.1977338613253694
 31
0.0
  0
LWPOLYLINE
  5
16D2
330
2
100
AcDbEntity
  8
Vista
370
     0
100
AcDbPolyline
 90
        2
 70
   128
 43
0.0
 10
0.2456802065528851
 20
0.0998194210887604
 10
0.2418696664055346
 20
0.1039909393440558
  0
LWPOLYLINE
  5
16D3
330
2
100
AcDbEntity
  8
Vista
370
     0
100
AcDbPolyline
 90
        2
 70
   128
 43
0.0
 10
0.2419796403773393
 20
0.0976337350572152
 10
0.2418696664055346
 20
0.0977603131971418
  0
LWPOLYLINE
  5
16D4
330
2
100
AcDbEntity
  8
Vista
370
     0
100
AcDbPolyline
 90
        6
 70
   128
 43
0.0
 10
0.1976966301739633
 20
0.1011033288770946
 10
0.1994531223084754
 20
0.1026639328853065
 10
0.1999085092462964
 20
0.103964435969047
 10
0.1999085092462964
 20
0.1056550904395053
 10
0.1999735636732742
 20
0.1066304677523036
 10
0.1999735636732742
 20
0.1072807192941738
  0
LWPOLYLINE
  5
16D5
330
2
100
AcDbEntity
  8
Vista
370
     0
100
AcDbPolyline
 90
        8
 70
   128
 43
0.0
 10
0.2083656918349908
 20
0.105004838897635
 10
0.2061538127626576
 20
0.1043545873557647
 10
0.2047876531389887
 20
0.1043545873557647
 10
0.2034214923255249
 20
0.1044196122022214
 10
0.2025757740666556
 20
0.1048747884353958
 10
0.2016650001910136
 20
0.105525039977266
 10
0.2010144475926685
 20
0.1061752915191292
 10
0.2003638949943225
 20
0.1066304677523036
  0
LWPOLYLINE
  5
16D6
330
2
100
AcDbEntity
  8
Vista
370
     0
100
AcDbPolyline
 90
       12
 70
   128
 43
0.0
 10
0.2027709397271797
 20
0.1079959964518267
 10
0.2035516035590712
 20
0.1072156944477243
 10
0.2045924874784646
 20
0.1071506688319346
 10
0.2055683157810852
 20
0.1071506688319346
 10
0.2071296422550732
 20
0.1072156944477243
 10
0.2079753605139425
 20
0.1076058450651089
 10
0.2090813000501086
 20
0.1079959964518267
 10
0.2100571283527293
 20
0.1083211222227618
 10
0.2107076809510744
 20
0.1088413233023928
 10
0.2114232891661931
 20
0.1094915748442631
 10
0.2118786761040141
 20
0.1100768015396767
 10
0.2119437305309919
 20
0.1102718768483655
  0
LWPOLYLINE
  5
16D7
330
2
100
AcDbEntity
  8
Vista
370
     0
100
AcDbPolyline
 90
       50
 70
   128
 43
0.0
 10
0.2131147256839316
 20
0.1089713737646321
 10
0.2099920727359565
 20
0.1065004172900643
 10
0.2082355817912393
 20
0.1046146875109173
 10
0.2064140340399545
 20
0.1027289577317632
 10
0.2043322662011677
 20
0.1029890586562416
 10
0.203616657986049
 20
0.1020787061898929
 10
0.203616657986049
 20
0.101038304030638
 10
0.2026408296834292
 20
0.1009732784148554
 10
0.2019252214683105
 20
0.1017535804189578
 10
0.2010144475926685
 20
0.1030540835026983
 10
0.2006241162716202
 20
0.1033141844271768
 10
0.2009493931656898
 20
0.1016235299567185
 10
0.200689171888393
 20
0.1002580020265285
 10
0.1999085092462964
 20
0.1005831277974636
 10
0.1990627909874272
 20
0.1007782031061595
 10
0.198867625326903
 20
0.0998028257933541
 10
0.198867625326903
 20
0.098957498173462
 10
0.1978917958344874
 20
0.0992826247137302
 10
0.1965256350210236
 20
0.0997378001775715
 10
0.1952245310141283
 20
0.0990225237892446
 10
0.1955498067184038
 20
0.0970067435478583
 10
0.1953546410578797
 20
0.0959013157728137
 10
0.1928073420882024
 20
0.095180158598339
 10
0.1916363469352635
 20
0.095180158598339
 10
0.1907906286763934
 20
0.0951151337518894
 10
0.1898798548007514
 20
0.0953752339070349
 10
0.1894244690527253
 20
0.0961555359111444
 10
0.1889690821149044
 20
0.0969358379152539
 10
0.1889690821149044
 20
0.0978461903816026
 10
0.1890991921586549
 20
0.0987565428479513
 10
0.189294357819179
 20
0.0997969450072063
 10
0.189294357819179
 20
0.1005772470113158
 10
0.1885787507938561
 20
0.1008373479357942
 10
0.1871475343636186
 20
0.1003821717026199
 10
0.1866270929988198
 20
0.0993417687740319
 10
0.1859114847837011
 20
0.0970658883774931
 10
0.1855862090794265
 20
0.0971959388397323
 10
0.1850657665248319
 20
0.0990816686188865
 10
0.1846754352037836
 20
0.0999269954694455
 10
0.1837646613281416
 20
0.100707297473555
 10
0.1825936673649968
 20
0.1008373479357942
 10
0.1818130035331054
 20
0.0999920203159022
 10
0.1819431147666517
 20
0.0993417687740319
 10
0.1813576165952844
 20
0.0983663914612265
 10
0.1810973965077824
 20
0.097260963686189
 10
0.181227506551533
 20
0.0958954349866588
 10
0.1809672852742361
 20
0.0958304101402092
 10
0.1799264013548427
 20
0.0974560389948778
 10
0.1799264013548427
 20
0.0989516181566401
 10
0.1796661800775459
 20
0.0994718192362712
  0
LWPOLYLINE
  5
16D8
330
2
100
AcDbEntity
  8
Vista
370
     0
100
AcDbPolyline
 90
        5
 70
   128
 43
0.0
 10
0.1776494678555318
 20
0.0988865925408575
 10
0.1776494678555318
 20
0.0975210646106675
 10
0.1776494678555318
 20
0.0966757369907683
 10
0.1768688040236404
 20
0.0968057874530075
 10
0.176330509440766
 20
0.0968057874530075
  0
LWPOLYLINE
  5
16D9
330
2
100
AcDbEntity
  8
Vista
370
     0
100
AcDbPolyline
 90
       11
 70
   128
 43
0.0
 10
0.2169428414641619
 20
0.1059093105778359
 10
0.2161621776322704
 20
0.1045437818783128
 10
0.2159019575447685
 20
0.1027230777149484
 10
0.2162272332490431
 20
0.1011624737067294
 10
0.2163573432927945
 20
0.0999920203159022
 10
0.2173982284019829
 20
0.0982363409989873
 10
0.2186342779819004
 20
0.097260963686189
 10
0.2206509902039144
 20
0.0964156368356228
 10
0.222732759232497
 20
0.0964156368356228
 10
0.2244892501772133
 20
0.0968057874530075
 10
0.2249866531224711
 20
0.0974784331588556
  0
LWPOLYLINE
  5
16DA
330
2
100
AcDbEntity
  8
Vista
370
     0
100
AcDbPolyline
 90
        3
 70
   128
 43
0.0
 10
0.2191547193467
 20
0.1002521212403806
 10
0.2203257144996398
 20
0.1004471965490765
 10
0.221171432758509
 20
0.1007723223200045
  0
LWPOLYLINE
  5
16DB
330
2
100
AcDbEntity
  8
Vista
370
     0
100
AcDbPolyline
 90
        7
 70
   128
 43
0.0
 10
0.2219520954006056
 20
0.1034383541032682
 10
0.22162681969633
 20
0.104153631260921
 10
0.2210413215249627
 20
0.1045437818783128
 10
0.2213665984190332
 20
0.1051290085737264
 10
0.222537592382178
 20
0.10571423526914
 10
0.2239688088124145
 20
0.1061043858865247
 10
0.2249866531224711
 20
0.1058500425660608
  0
LWPOLYLINE
  5
16DC
330
2
100
AcDbEntity
  8
Vista
370
     0
100
AcDbPolyline
 90
        9
 70
   128
 43
0.0
 10
0.2163573432927945
 20
0.0992117183117927
 10
0.215576680650698
 20
0.099666894544967
 10
0.2147309623918288
 20
0.1005122221648591
 10
0.2139502997497331
 20
0.1018127252485996
 10
0.2136250228556626
 20
0.1029831778700938
 10
0.2136900784724354
 20
0.1044137314160665
 10
0.2140153541767109
 20
0.1058442849620462
 10
0.2142755754540078
 20
0.106754637428395
 10
0.2145357967313046
 20
0.107274838508026
  0
LWPOLYLINE
  5
16DF
330
2
100
AcDbEntity
  8
Vista
370
     0
100
AcDbPolyline
 90
        3
 70
   128
 43
0.0
 10
0.2197402175180674
 20
0.1090305185942668
 10
0.220065493222342
 20
0.1104610721402466
 10
0.2209112114812122
 20
0.1119566505326759
  0
LWPOLYLINE
  5
16E0
330
2
100
AcDbEntity
  8
Vista
370
     0
100
AcDbPolyline
 90
        6
 70
   128
 43
0.0
 10
0.217138007124686
 20
0.1083802662830635
 10
0.217138007124686
 20
0.1107861979111817
 10
0.2179186697667825
 20
0.1124118267658503
 10
0.2196751619012947
 20
0.1136473050031341
 10
0.2219520954006056
 20
0.1144276070072436
 10
0.2237085875351168
 20
0.1144926318536932
  0
LWPOLYLINE
  5
16E3
330
2
100
AcDbEntity
  8
Vista
370
     0
100
AcDbPolyline
 90
        3
 70
   128
 43
0.0
 10
0.1780122470913241
 20
0.1033291441193143
 10
0.1782578886193997
 20
0.1062754810664472
 10
0.1786672923559873
 20
0.1076668070607454
  0
LWPOLYLINE
  5
16E4
330
2
100
AcDbEntity
  8
Vista
370
     0
100
AcDbPolyline
 90
        3
 70
   128
 43
0.0
 10
0.1779303665819656
 20
0.1079123352678906
 10
0.1794860974495727
 20
0.1087307615992827
 10
0.1801411415244409
 20
0.1092218180135802
  0
CIRCLE
  5
16E5
330
2
100
AcDbEntity
  8
Vista
370
     0
100
AcDbCircle
 10
0.1791020077936469
 20
0.1143211504682995
 30
0.0
 40
0.0008856501621969
  0
CIRCLE
  5
16E6
330
2
100
AcDbEntity
  8
Vista
370
     0
100
AcDbCircle
 10
0.1804707397543339
 20
0.1123494792003754
 30
0.0
 40
0.0011674471839353
  0
CIRCLE
  5
16E7
330
2
100
AcDbEntity
  8
Vista
370
     0
100
AcDbCircle
 10
0.1822017821715409
 20
0.1104985225312802
 30
0.0
 40
0.0010466770317616
  0
CIRCLE
  5
16E8
330
2
100
AcDbEntity
  8
Vista
370
     0
100
AcDbCircle
 10
0.1844561631046293
 20
0.1102973317896811
 30
0.0
 40
0.0008061404141235
  0
CIRCLE
  5
16E9
330
2
100
AcDbEntity
  8
Vista
370
     0
100
AcDbCircle
 10
0.1865897738855437
 20
0.1105789994433834
 30
0.0
 40
0.0012223260843998
  0
CIRCLE
  5
16EA
330
2
100
AcDbEntity
  8
Vista
370
     0
100
AcDbCircle
 10
0.191863414571948
 20
0.1043018426124718
 30
0.0
 40
0.0026102510327381
  0
LWPOLYLINE
  5
16EB
330
2
100
AcDbEntity
  8
Vista
370
     0
100
AcDbPolyline
 90
       31
 70
   128
 43
0.0
 10
0.1862704923690099
 20
0.0997557533468054
 10
0.185307791075787
 20
0.1012751041479305
 10
0.1847504386974332
 20
0.1020854247803555
 10
0.1851557864225066
 20
0.1030983255708833
 10
0.1847504386974332
 20
0.1039086462033012
 10
0.1848011073117917
 20
0.1048202565301111
 10
0.185307791075787
 20
0.1060357367094156
 10
0.185915813258295
 20
0.1069473478055585
 10
0.186878514551517
 20
0.1073018628899121
 10
0.1873345297011539
 20
0.1079602478267532
 10
0.1876892100016647
 20
0.1088212136910371
 10
0.1882465623800185
 20
0.1095808890915961
 10
0.1889052531768849
 20
0.1098341144815649
 10
0.190222632391027
 20
0.1103912097240212
 10
0.1914893441806056
 20
0.1109989501983364
 10
0.1929587304276188
 20
0.1111002398927212
 10
0.1943774468704777
 20
0.1108470145027596
 10
0.1950868050919077
 20
0.1103912097240212
 10
0.1952894795493423
 20
0.1094795993972113
 10
0.1953908167780591
 20
0.1086186335329273
 10
0.1961508436138475
 20
0.1078589581323683
 10
0.1968602018352774
 20
0.1077070232061175
 10
0.197873570553063
 20
0.1069979922680844
 10
0.1983802555068541
 20
0.1066941224155897
 10
0.1986842660032097
 20
0.1058331573206388
 10
0.1986842660032097
 20
0.104921546224503
 10
0.1985322613499294
 20
0.1037060660451985
 10
0.1980255763961391
 20
0.1023892954021761
 10
0.1974682228279896
 20
0.1009712342954359
 10
0.1970628751029162
 20
0.1002622041267358
 10
0.1966575273778428
 20
0.0998063985786644
  0
LWPOLYLINE
  5
16EC
330
2
100
AcDbEntity
  8
Vista
370
     0
100
AcDbPolyline
 90
        8
 70
   128
 43
0.0
 10
0.1949854690529857
 20
0.0984389827037831
 10
0.1945801213279123
 20
0.0979325326931857
 10
0.1937694258777656
 20
0.0978312422294678
 10
0.1927053873558257
 20
0.097679307303217
 10
0.191540012794964
 20
0.0975273723769732
 10
0.1907293173448172
 20
0.0978818874613268
 10
0.1900199591233873
 20
0.0980844676194295
 10
0.1890572578301652
 20
0.0980844676194295
  0
LWPOLYLINE
  5
16ED
330
2
100
AcDbEntity
  8
Vista
370
     0
100
AcDbPolyline
 90
        2
 70
   128
 43
0.0
 10
0.1887532473338087
 20
0.1028451001809145
 10
0.1869291819760805
 20
0.1026931652546708
  0
LWPOLYLINE
  5
16EE
330
2
100
AcDbEntity
  8
Vista
370
     0
100
AcDbPolyline
 90
        2
 70
   128
 43
0.0
 10
0.1883478996087353
 20
0.1053267065407084
 10
0.1871825250478736
 20
0.1058331573206388
  0
LWPOLYLINE
  5
16EF
330
2
100
AcDbEntity
  8
Vista
370
     0
100
AcDbPolyline
 90
        2
 70
   128
 43
0.0
 10
0.1924013768594692
 20
0.1075044430480148
 10
0.1924520454738285
 20
0.1093783089334934
  0
LWPOLYLINE
  5
16F0
330
2
100
AcDbEntity
  8
Vista
370
     0
100
AcDbPolyline
 90
        2
 70
   128
 43
0.0
 10
0.1938707619166875
 20
0.1071499279636612
 10
0.1952388109349838
 20
0.1083654081429657
  0
LWPOLYLINE
  5
16F1
330
2
100
AcDbEntity
  8
Vista
370
     0
100
AcDbPolyline
 90
       39
 70
   128
 43
0.0
 10
0.3171726393300123
 20
0.0998194210887604
 10
0.306575565032043
 20
0.1114203719191664
 10
0.3025385842904456
 20
0.1142785770847254
 10
0.297155944094845
 20
0.1161280043185968
 10
0.2931189633532467
 20
0.1162961337174337
 10
0.2894183971777009
 20
0.1152873557857461
 10
0.2847085861142045
 20
0.1137741881188816
 10
0.2816808514503526
 20
0.1129335395860309
 10
0.2801669835235287
 20
0.1127654094178609
 10
0.2788213228797307
 20
0.1136060579507117
 10
0.2769710403868553
 20
0.1149510962187392
 10
0.2761300027819313
 20
0.1146148366517323
 10
0.2761300027819313
 20
0.1132697991530378
 10
0.2757935882158788
 20
0.1132697991530378
 10
0.2749525494211591
 20
0.1146148366517323
 10
0.2742797202890559
 20
0.115455485184583
 10
0.2731022669282836
 20
0.1159598741504269
 10
0.272765852362232
 20
0.1144467072528954
 10
0.2719248147573072
 20
0.1157917447515899
 10
0.2710837771523824
 20
0.1162961337174337
 10
0.2700745322644318
 20
0.1161280043185968
 10
0.2700745322644318
 20
0.1146148366517323
 10
0.2700745322644318
 20
0.1129335395860309
 10
0.2685606643376079
 20
0.1146148366517323
 10
0.267046796410785
 20
0.1162961337174337
 10
0.2651965139179095
 20
0.1169686528514475
 10
0.2635144387080599
 20
0.1169686528514475
 10
0.2608231174204647
 20
0.1169686528514475
 10
0.2591410422106151
 20
0.1169686528514475
 10
0.2566179293958406
 20
0.1161280043185968
 10
0.2545994396199394
 20
0.1149510962187392
 10
0.2542630238640928
 20
0.1134379285518747
 10
0.2544312311471186
 20
0.1120928910531802
 10
0.2554404772248642
 20
0.1120928910531802
 10
0.2594774579664616
 20
0.1127654094178609
 10
0.2620005707812361
 20
0.1132697991530378
 10
0.2643554763129847
 20
0.1132697991530378
 10
0.2668785891277583
 20
0.1120928910531802
 10
0.2685606643376079
 20
0.1094028152864581
  0
LWPOLYLINE
  5
16F2
330
2
100
AcDbEntity
  8
Vista
370
     0
100
AcDbPolyline
 90
       44
 70
   128
 43
0.0
 10
0.3134720731544665
 20
0.0976337350572152
 10
0.3079212256758401
 20
0.104022664522347
 10
0.3052299043882449
 20
0.1051995718528715
 10
0.3022021697243931
 20
0.1046951828870277
 10
0.3006883017975692
 20
0.1048633130551977
 10
0.3006883017975692
 20
0.1065446101208991
 10
0.3020339612515723
 20
0.1082259071866005
 10
0.3016975466855207
 20
0.1090665557194512
 10
0.3000154714756711
 20
0.109570944685295
 10
0.2979969816997698
 20
0.109570944685295
 10
0.2961466980170986
 20
0.109739074853465
 10
0.2961466980170986
 20
0.1115885013180033
 10
0.2959784907340728
 20
0.1117566314861733
 10
0.2948010385630963
 20
0.1112522425203295
 10
0.2939600009581715
 20
0.109739074853465
 10
0.2937917924853508
 20
0.1087302961524443
 10
0.2926584353107753
 20
0.1082709947524236
 10
0.2917639259342239
 20
0.1083522763874924
 10
0.2911133733358779
 20
0.1087180429759584
 10
0.2906661174578078
 20
0.1078645873464268
 10
0.2904628207375328
 20
0.1070111324862211
 10
0.2896089702291187
 20
0.1065640842626863
 10
0.2883485239005647
 20
0.1062795993092891
 10
0.2874540145240125
 20
0.1063202401268199
 10
0.2867628030575311
 20
0.1069298508511594
 10
0.2864781862213927
 20
0.1075801023930225
 10
0.2864375261634606
 20
0.1080271506165573
 10
0.2859902714751845
 20
0.1096934202887638
 10
0.2859902714751845
 20
0.1103030310130961
 10
0.2859902714751845
 20
0.11148161241357
 10
0.2866408240735296
 20
0.1126195529965059
 10
0.2849737831146326
 20
0.1111564866426349
 10
0.2839166346961477
 20
0.1107500792366309
 10
0.282737508483458
 20
0.1102217501473675
 10
0.2810291197650576
 20
0.1097516757687416
 10
0.2792726276305455
 20
0.1096866501529519
 10
0.2784269093716762
 20
0.1096866501529519
 10
0.2768655828976883
 20
0.1096866501529519
 10
0.2762800859161167
 20
0.1096216253065023
 10
0.2762150302993431
 20
0.1091664490733279
 10
0.2759548090220463
 20
0.1087762984559362
 10
0.2752392019967225
 20
0.1087762984559362
 10
0.2745886493983773
 20
0.1087762984559362
 10
0.2728321572638661
 20
0.1087762984559362
  0
LWPOLYLINE
  5
16F3
330
2
100
AcDbEntity
  8
Vista
370
     0
100
AcDbPolyline
 90
        6
 70
   128
 43
0.0
 10
0.2691890629510913
 20
0.1011033288770946
 10
0.2709455550856026
 20
0.1026639328853065
 10
0.2714009420234245
 20
0.103964435969047
 10
0.2714009420234245
 20
0.1056550904395053
 10
0.2714659964504023
 20
0.1066304677523036
 10
0.2714659964504023
 20
0.1072807192941738
  0
LWPOLYLINE
  5
16F4
330
2
100
AcDbEntity
  8
Vista
370
     0
100
AcDbPolyline
 90
        8
 70
   128
 43
0.0
 10
0.2798581246121179
 20
0.105004838897635
 10
0.2776462455397848
 20
0.1043545873557647
 10
0.2762800859161167
 20
0.1043545873557647
 10
0.2749139251026529
 20
0.1044196122022214
 10
0.2740682068437836
 20
0.1048747884353958
 10
0.2731574329681408
 20
0.105525039977266
 10
0.2725068803697956
 20
0.1061752915191292
 10
0.2718563277714505
 20
0.1066304677523036
  0
LWPOLYLINE
  5
16F5
330
2
100
AcDbEntity
  8
Vista
370
     0
100
AcDbPolyline
 90
       12
 70
   128
 43
0.0
 10
0.2742633725043078
 20
0.1079959964518267
 10
0.2750440363361992
 20
0.1072156944477243
 10
0.2760849202555926
 20
0.1071506688319346
 10
0.2770607485582124
 20
0.1071506688319346
 10
0.2786220750322004
 20
0.1072156944477243
 10
0.2794677932910696
 20
0.1076058450651089
 10
0.2805737328272366
 20
0.1079959964518267
 10
0.2815495611298564
 20
0.1083211222227618
 10
0.2822001137282024
 20
0.1088413233023928
 10
0.2829157219433202
 20
0.1094915748442631
 10
0.2833711088811412
 20
0.1100768015396767
 10
0.2834361633081199
 20
0.1102718768483655
  0
LWPOLYLINE
  5
16F6
330
2
100
AcDbEntity
  8
Vista
370
     0
100
AcDbPolyline
 90
       50
 70
   128
 43
0.0
 10
0.2846071584610588
 20
0.1089713737646321
 10
0.2814845055130837
 20
0.1065004172900643
 10
0.2797280145683665
 20
0.1046146875109173
 10
0.2779064668170816
 20
0.1027289577317632
 10
0.2758246989782949
 20
0.1029890586562416
 10
0.275109090763177
 20
0.1020787061898929
 10
0.275109090763177
 20
0.101038304030638
 10
0.2741332624605564
 20
0.1009732784148554
 10
0.2734176542454376
 20
0.1017535804189578
 10
0.2725068803697956
 20
0.1030540835026983
 10
0.2721165490487474
 20
0.1033141844271768
 10
0.2724418259428178
 20
0.1016235299567185
 10
0.2721816046655201
 20
0.1002580020265285
 10
0.2714009420234245
 20
0.1005831277974636
 10
0.2705552237645543
 20
0.1007782031061595
 10
0.2703600581040302
 20
0.0998028257933541
 10
0.2703600581040302
 20
0.098957498173462
 10
0.2693842286116155
 20
0.0992826247137302
 10
0.2680180677981516
 20
0.0997378001775715
 10
0.2667169637912563
 20
0.0990225237892446
 10
0.267042239495531
 20
0.0970067435478583
 10
0.2668470738350068
 20
0.0959013157728137
 10
0.2642997748653304
 20
0.095180158598339
 10
0.2631287797123907
 20
0.095180158598339
 10
0.2622830614535214
 20
0.0951151337518894
 10
0.2613722875778786
 20
0.0953752339070349
 10
0.2609169018298525
 20
0.0961555359111444
 10
0.2604615148920315
 20
0.0969358379152539
 10
0.2604615148920315
 20
0.0978461903816026
 10
0.260591624935782
 20
0.0987565428479513
 10
0.2607867905963062
 20
0.0997969450072063
 10
0.2607867905963062
 20
0.1005772470113158
 10
0.2600711835709832
 20
0.1008373479357942
 10
0.2586399671407467
 20
0.1003821717026199
 10
0.258119525775947
 20
0.0993417687740319
 10
0.2574039175608291
 20
0.0970658883774931
 10
0.2570786418565536
 20
0.0971959388397323
 10
0.256558199301959
 20
0.0990816686188865
 10
0.2561678679809116
 20
0.0999269954694455
 10
0.2552570941052688
 20
0.100707297473555
 10
0.254086100142124
 20
0.1008373479357942
 10
0.2533054363102325
 20
0.0999920203159022
 10
0.2534355475437788
 20
0.0993417687740319
 10
0.2528500493724115
 20
0.0983663914612265
 10
0.2525898292849096
 20
0.097260963686189
 10
0.252719939328661
 20
0.0958954349866588
 10
0.2524597180513632
 20
0.0958304101402092
 10
0.2514188341319699
 20
0.0974560389948778
 10
0.2514188341319699
 20
0.0989516181566401
 10
0.251158612854673
 20
0.0994718192362712
  0
LWPOLYLINE
  5
16F7
330
2
100
AcDbEntity
  8
Vista
370
     0
100
AcDbPolyline
 90
        8
 70
   128
 43
0.0
 10
0.2491419006326589
 20
0.0988865925408575
 10
0.2491419006326589
 20
0.0975210646106675
 10
0.2491419006326589
 20
0.0966757369907683
 10
0.2483612368007675
 20
0.0968057874530075
 10
0.2465396902392776
 20
0.0968057874530075
 10
0.2453686950863378
 20
0.0968057874530075
 10
0.2428965959265028
 20
0.0964806616820795
 10
0.2418696664055346
 20
0.0962437877690347
  0
LWPOLYLINE
  5
16F8
330
2
100
AcDbEntity
  8
Vista
370
     0
100
AcDbPolyline
 90
       25
 70
   128
 43
0.0
 10
0.288435274241289
 20
0.1059093105778359
 10
0.2876546104093984
 20
0.1045437818783128
 10
0.2873943903218956
 20
0.1027230777149484
 10
0.2877196660261711
 20
0.1011624737067294
 10
0.2878497760699217
 20
0.0999920203159022
 10
0.2888906611791109
 20
0.0982363409989873
 10
0.2901267107590284
 20
0.097260963686189
 10
0.2921434229810416
 20
0.0964156368356228
 10
0.2942251920096241
 20
0.0964156368356228
 10
0.2959816829543404
 20
0.0968057874530075
 10
0.2970876224905074
 20
0.098301366614777
 10
0.2976731194720798
 20
0.0999920203159022
 10
0.2970225668737338
 20
0.1020728261730781
 10
0.2957214628668385
 20
0.1029831778700938
 10
0.2945504677138988
 20
0.103113228332333
 10
0.2935095837945054
 20
0.1029831778700938
 10
0.2929891412399117
 20
0.1018777500950492
 10
0.2930541968566844
 20
0.1005772470113158
 10
0.2936396938382568
 20
0.0994718192362712
 10
0.2942251920096241
 20
0.0985614667699224
 10
0.2944203576701483
 20
0.0977811647658129
 10
0.2951359646954712
 20
0.0982363409989873
 10
0.2953311303559953
 20
0.0992767439275753
 10
0.2954612415895417
 20
0.1003821717026199
 10
0.2954612415895417
 20
0.1018127252485996
  0
LWPOLYLINE
  5
16F9
330
2
100
AcDbEntity
  8
Vista
370
     0
100
AcDbPolyline
 90
        3
 70
   128
 43
0.0
 10
0.2906471521238272
 20
0.1002521212403806
 10
0.2918181472767669
 20
0.1004471965490765
 10
0.2926638655356362
 20
0.1007723223200045
  0
LWPOLYLINE
  5
16FA
330
2
100
AcDbEntity
  8
Vista
370
     0
100
AcDbPolyline
 90
       30
 70
   128
 43
0.0
 10
0.2934445281777327
 20
0.1034383541032682
 10
0.2931192524734571
 20
0.104153631260921
 10
0.2925337543020898
 20
0.1045437818783128
 10
0.2928590311961603
 20
0.1051290085737264
 10
0.2940300251593051
 20
0.10571423526914
 10
0.2954612415895417
 20
0.1061043858865247
 10
0.2967623467862319
 20
0.1057792601155896
 10
0.298063451982923
 20
0.1045437818783128
 10
0.2986489489644954
 20
0.102593027252702
 10
0.2992344459460669
 20
0.1011624737067294
 10
0.2991043359023164
 20
0.100707297473555
 10
0.2984537833039713
 20
0.1003171460868302
 10
0.2979333407493767
 20
0.0992117183117927
 10
0.2979333407493767
 20
0.0983663914612265
 10
0.2974779538115557
 20
0.098106290536748
 10
0.2968274012132106
 20
0.0970658883774931
 10
0.2967623467862319
 20
0.0960905110646877
 10
0.2962419042316382
 20
0.0950501081360997
 10
0.2949407990349471
 20
0.0947900079809543
 10
0.2933794737507549
 20
0.0940097059768448
 10
0.2923385886415657
 20
0.0938146298988159
 10
0.2914928703826964
 20
0.0929693030482568
 10
0.2925337543020898
 20
0.0943998565942295
 10
0.2923385886415657
 20
0.0951151337518894
 10
0.2916229816162428
 20
0.0957653852937526
 10
0.2907122077406008
 20
0.0958304101402092
 10
0.2903218764195525
 20
0.095180158598339
 10
0.2894111025439097
 20
0.0949850832896502
 10
0.2879148316866953
 20
0.0958954349866588
 10
0.2887605499455645
 20
0.0969358379152539
  0
LWPOLYLINE
  5
16FB
330
2
100
AcDbEntity
  8
Vista
370
     0
100
AcDbPolyline
 90
        9
 70
   128
 43
0.0
 10
0.2878497760699217
 20
0.0992117183117927
 10
0.287069113427826
 20
0.099666894544967
 10
0.2862233951689568
 20
0.1005122221648591
 10
0.2854427325268602
 20
0.1018127252485996
 10
0.2851174556327898
 20
0.1029831778700938
 10
0.2851825112495625
 20
0.1044137314160665
 10
0.285507786953838
 20
0.1058442849620462
 10
0.2857680082311349
 20
0.106754637428395
 10
0.2860282295084326
 20
0.107274838508026
  0
LWPOLYLINE
  5
16FC
330
2
100
AcDbEntity
  8
Vista
370
     0
100
AcDbPolyline
 90
        4
 70
   128
 43
0.0
 10
0.3015113794453788
 20
0.0998619706229889
 10
0.3016414906789242
 20
0.0983663914612265
 10
0.3017716007226756
 20
0.0977811647658129
 10
0.3035280928571877
 20
0.0997969450072063
  0
LWPOLYLINE
  5
16FD
330
2
100
AcDbEntity
  8
Vista
370
     0
100
AcDbPolyline
 90
        4
 70
   128
 43
0.0
 10
0.2981285064099008
 20
0.0934244792814312
 10
0.2998199429276393
 20
0.0952451834447956
 10
0.2998199429276393
 20
0.096740762606558
 10
0.2998199429276393
 20
0.0984314170770162
  0
LWPOLYLINE
  5
16FE
330
2
100
AcDbEntity
  8
Vista
370
     0
100
AcDbPolyline
 90
        3
 70
   128
 43
0.0
 10
0.2912326502951945
 20
0.1090305185942668
 10
0.29155792599947
 20
0.1104610721402466
 10
0.2924036442583393
 20
0.1119566505326759
  0
LWPOLYLINE
  5
16FF
330
2
100
AcDbEntity
  8
Vista
370
     0
100
AcDbPolyline
 90
        6
 70
   128
 43
0.0
 10
0.2886304399018131
 20
0.1083802662830635
 10
0.2886304399018131
 20
0.1107861979111817
 10
0.2894111025439097
 20
0.1124118267658503
 10
0.2911675946784218
 20
0.1136473050031341
 10
0.2934445281777327
 20
0.1144276070072436
 10
0.2952010203122448
 20
0.1144926318536932
  0
LWPOLYLINE
  5
1700
330
2
100
AcDbEntity
  8
Vista
370
     0
100
AcDbPolyline
 90
        2
 70
   128
 43
0.0
 10
0.2418696664055346
 20
0.094001714377273
 10
0.2432817575878179
 20
0.0947356614850748
  0
LWPOLYLINE
  5
1701
330
2
100
AcDbEntity
  8
Vista
370
     0
100
AcDbPolyline
 90
       43
 70
   128
 43
0.0
 10
0.2418696664055346
 20
0.1146868681598572
 10
0.2420535487576449
 20
0.1147871212214184
 10
0.243445518606535
 20
0.1150326494285707
 10
0.244673726246913
 20
0.1150326494285707
 10
0.2459019350770859
 20
0.1141323798485772
 10
0.2458200545677274
 20
0.1135594809550042
 10
0.2470482633979003
 20
0.1141323798485772
 10
0.2481945905289198
 20
0.1134776377064028
 10
0.2486039942655074
 20
0.1127410538542861
 10
0.2487677552842245
 20
0.1120044692328364
 10
0.2487677552842245
 20
0.1110223571735673
 10
0.2483583527374318
 20
0.1105313007592699
 10
0.2497503213965269
 20
0.1111041996528428
 10
0.2511422912454169
 20
0.1111860429014442
 10
0.2519610975287971
 20
0.1110223571735673
 10
0.2522067390568727
 20
0.1102857733214506
 10
0.2522067390568727
 20
0.1095491887000008
 10
0.2522067390568727
 20
0.1090581322857034
 10
0.2535987089057627
 20
0.1090581322857034
 10
0.2544993945087066
 20
0.1093036604928557
 10
0.2558094838482381
 20
0.1093036604928557
 10
0.2576108562439208
 20
0.1093036604928557
 10
0.2581840198094305
 20
0.1088944473271596
 10
0.2581840198094305
 20
0.1083215484335867
 10
0.258102139300072
 20
0.1076668070607454
 10
0.2577746172626378
 20
0.1074212788535931
 10
0.255645722829521
 20
0.1072575931257162
 10
0.2541718724712725
 20
0.1066028517528679
 10
0.2538443504338383
 20
0.1045567843857356
 10
0.2535987089057627
 20
0.1024288745393207
 10
0.2531074246598166
 20
0.1003828071721884
 10
0.2521248585475142
 20
0.0995643808407962
 10
0.2505691276799071
 20
0.0995643808407962
 10
0.2483583527374318
 20
0.0995643808407962
 10
0.2469663828885418
 20
0.1001372797343691
 10
0.2459019350770859
 20
0.101692290687204
 10
0.2458200545677274
 20
0.104065728740764
 10
0.2459019350770859
 20
0.1066028517528679
 10
0.2459019350770859
 20
0.1089762898064279
 10
0.2450831299835006
 20
0.10995840263503
 10
0.2436911601346106
 20
0.110940514694299
 10
0.242217309776362
 20
0.1124136831678584
 10
0.2418696664055346
 20
0.1130284596662588
  0
LWPOLYLINE
  5
1702
330
2
100
AcDbEntity
  8
Vista
370
     0
100
AcDbPolyline
 90
        3
 70
   128
 43
0.0
 10
0.2495046798684513
 20
0.1033291441193143
 10
0.2497503213965269
 20
0.1062754810664472
 10
0.2501597251331145
 20
0.1076668070607454
  0
LWPOLYLINE
  5
1703
330
2
100
AcDbEntity
  8
Vista
370
     0
100
AcDbPolyline
 90
        3
 70
   128
 43
0.0
 10
0.2494227993590927
 20
0.1079123352678906
 10
0.2509785302266998
 20
0.1087307615992827
 10
0.2516335743015681
 20
0.1092218180135802
  0
CIRCLE
  5
1704
330
2
100
AcDbEntity
  8
Vista
370
     0
100
AcDbCircle
 10
0.250594440570775
 20
0.1143211504682995
 30
0.0
 40
0.0008856501621969
  0
CIRCLE
  5
1705
330
2
100
AcDbEntity
  8
Vista
370
     0
100
AcDbCircle
 10
0.251963172531461
 20
0.1123494792003754
 30
0.0
 40
0.0011674471839353
  0
CIRCLE
  5
1706
330
2
100
AcDbEntity
  8
Vista
370
     0
100
AcDbCircle
 10
0.2536942149486681
 20
0.1104985225312802
 30
0.0
 40
0.0010466770317616
  0
CIRCLE
  5
1707
330
2
100
AcDbEntity
  8
Vista
370
     0
100
AcDbCircle
 10
0.2559485958817564
 20
0.1102973317896811
 30
0.0
 40
0.0008061404141235
  0
CIRCLE
  5
1708
330
2
100
AcDbEntity
  8
Vista
370
     0
100
AcDbCircle
 10
0.2580822066626709
 20
0.1105789994433834
 30
0.0
 40
0.0012223260843998
  0
CIRCLE
  5
1709
330
2
100
AcDbEntity
  8
Vista
370
     0
100
AcDbCircle
 10
0.263355847349076
 20
0.1043018426124718
 30
0.0
 40
0.0026102510327381
  0
LWPOLYLINE
  5
170A
330
2
100
AcDbEntity
  8
Vista
370
     0
100
AcDbPolyline
 90
       31
 70
   128
 43
0.0
 10
0.2577629251461371
 20
0.0997557533468054
 10
0.2568002238529141
 20
0.1012751041479305
 10
0.2562428714745604
 20
0.1020854247803555
 10
0.2566482191996338
 20
0.1030983255708833
 10
0.2562428714745604
 20
0.1039086462033012
 10
0.2562935400889188
 20
0.1048202565301111
 10
0.2568002238529141
 20
0.1060357367094156
 10
0.2574082460354221
 20
0.1069473478055585
 10
0.2583709473286451
 20
0.1073018628899121
 10
0.258826962478282
 20
0.1079602478267532
 10
0.2591816427787918
 20
0.1088212136910371
 10
0.2597389951571456
 20
0.1095808890915961
 10
0.260397685954012
 20
0.1098341144815649
 10
0.2617150651681541
 20
0.1103912097240212
 10
0.2629817769577327
 20
0.1109989501983364
 10
0.2644511632047459
 20
0.1111002398927212
 10
0.2658698796476058
 20
0.1108470145027596
 10
0.2665792378690348
 20
0.1103912097240212
 10
0.2667819123264694
 20
0.1094795993972113
 10
0.2668832495551863
 20
0.1086186335329273
 10
0.2676432763909746
 20
0.1078589581323683
 10
0.2683526346124045
 20
0.1077070232061175
 10
0.269366003330191
 20
0.1069979922680844
 10
0.2698726882839812
 20
0.1066941224155897
 10
0.2701766987803378
 20
0.1058331573206388
 10
0.2701766987803378
 20
0.104921546224503
 10
0.2700246941270565
 20
0.1037060660451985
 10
0.2695180091732663
 20
0.1023892954021761
 10
0.2689606556051176
 20
0.1009712342954359
 10
0.2685553078800433
 20
0.1002622041267358
 10
0.2681499601549699
 20
0.0998063985786644
  0
LWPOLYLINE
  5
170B
330
2
100
AcDbEntity
  8
Vista
370
     0
100
AcDbPolyline
 90
        8
 70
   128
 43
0.0
 10
0.2664779018301129
 20
0.0984389827037831
 10
0.2660725541050395
 20
0.0979325326931857
 10
0.2652618586548927
 20
0.0978312422294678
 10
0.2641978201329529
 20
0.097679307303217
 10
0.2630324455720912
 20
0.0975273723769732
 10
0.2622217501219444
 20
0.0978818874613268
 10
0.2615123919005153
 20
0.0980844676194295
 10
0.2605496906072924
 20
0.0980844676194295
  0
LWPOLYLINE
  5
170C
330
2
100
AcDbEntity
  8
Vista
370
     0
100
AcDbPolyline
 90
        2
 70
   128
 43
0.0
 10
0.2602456801109358
 20
0.1028451001809145
 10
0.2584216147532086
 20
0.1026931652546708
  0
LWPOLYLINE
  5
170D
330
2
100
AcDbEntity
  8
Vista
370
     0
100
AcDbPolyline
 90
        2
 70
   128
 43
0.0
 10
0.2598403323858625
 20
0.1053267065407084
 10
0.2586749578250007
 20
0.1058331573206388
  0
LWPOLYLINE
  5
170E
330
2
100
AcDbEntity
  8
Vista
370
     0
100
AcDbPolyline
 90
        2
 70
   128
 43
0.0
 10
0.2638938096365972
 20
0.1075044430480148
 10
0.2639444782509557
 20
0.1093783089334934
  0
LWPOLYLINE
  5
170F
330
2
100
AcDbEntity
  8
Vista
370
     0
100
AcDbPolyline
 90
        2
 70
   128
 43
0.0
 10
0.2653631946938146
 20
0.1071499279636612
 10
0.266731243712111
 20
0.1083654081429657
  0
LWPOLYLINE
  5
1710
330
2
100
AcDbEntity
  8
Vista
370
     0
100
AcDbPolyline
 90
       38
 70
   128
 43
0.0
 10
0.3774967354093235
 20
0.111824828924697
 10
0.3740310170675727
 20
0.1142785770847254
 10
0.3686483768719722
 20
0.1161280043185968
 10
0.3646113961303747
 20
0.1162961337174337
 10
0.360910829954828
 20
0.1152873557857461
 10
0.3562010188913316
 20
0.1137741881188816
 10
0.3531732842274797
 20
0.1129335395860309
 10
0.3516594163006559
 20
0.1127654094178609
 10
0.3503137556568587
 20
0.1136060579507117
 10
0.3484634731639833
 20
0.1149510962187392
 10
0.3476224355590585
 20
0.1146148366517323
 10
0.3476224355590585
 20
0.1132697991530378
 10
0.347286020993006
 20
0.1132697991530378
 10
0.3464449821982862
 20
0.1146148366517323
 10
0.345772153066183
 20
0.115455485184583
 10
0.3445946997054108
 20
0.1159598741504269
 10
0.3442582851393592
 20
0.1144467072528954
 10
0.3434172475344344
 20
0.1157917447515899
 10
0.3425762099295095
 20
0.1162961337174337
 10
0.3415669650415589
 20
0.1161280043185968
 10
0.3415669650415589
 20
0.1146148366517323
 10
0.3415669650415589
 20
0.1129335395860309
 10
0.3400530971147351
 20
0.1146148366517323
 10
0.3385392291879121
 20
0.1162961337174337
 10
0.3366889466950367
 20
0.1169686528514475
 10
0.335006871485187
 20
0.1169686528514475
 10
0.3323155501975918
 20
0.1169686528514475
 10
0.3306334749877422
 20
0.1169686528514475
 10
0.3281103621729677
 20
0.1161280043185968
 10
0.3260918723970665
 20
0.1149510962187392
 10
0.32575545664122
 20
0.1134379285518747
 10
0.3259236639242458
 20
0.1120928910531802
 10
0.3269329100019913
 20
0.1120928910531802
 10
0.3309698907435896
 20
0.1127654094178609
 10
0.3334930035583632
 20
0.1132697991530378
 10
0.3358479090901119
 20
0.1132697991530378
 10
0.3383710219048863
 20
0.1120928910531802
 10
0.3400530971147351
 20
0.1094028152864581
  0
LWPOLYLINE
  5
1711
330
2
100
AcDbEntity
  8
Vista
370
     0
100
AcDbPolyline
 90
       43
 70
   128
 43
0.0
 10
0.3774967354093235
 20
0.1048609296497829
 10
0.376722337165373
 20
0.1051995718528715
 10
0.3736946025015211
 20
0.1046951828870277
 10
0.3721807345746972
 20
0.1048633130551977
 10
0.3721807345746972
 20
0.1065446101208991
 10
0.3735263940286995
 20
0.1082259071866005
 10
0.3731899794626479
 20
0.1090665557194512
 10
0.3715079042527982
 20
0.109570944685295
 10
0.369489414476897
 20
0.109570944685295
 10
0.3676391307942266
 20
0.109739074853465
 10
0.3676391307942266
 20
0.1115885013180033
 10
0.3674709235112008
 20
0.1117566314861733
 10
0.3662934713402235
 20
0.1112522425203295
 10
0.3654524337352987
 20
0.109739074853465
 10
0.3652842252624779
 20
0.1087302961524443
 10
0.3641508680879024
 20
0.1082709947524236
 10
0.3632563587113511
 20
0.1083522763874924
 10
0.362605806113006
 20
0.1087180429759584
 10
0.3621585502349349
 20
0.1078645873464268
 10
0.36195525351466
 20
0.1070111324862211
 10
0.3611014030062458
 20
0.1065640842626863
 10
0.3598409566776919
 20
0.1062795993092891
 10
0.3589464473011406
 20
0.1063202401268199
 10
0.3582552358346582
 20
0.1069298508511594
 10
0.3579706189985199
 20
0.1075801023930225
 10
0.3579299589405878
 20
0.1080271506165573
 10
0.3574827042523117
 20
0.1096934202887638
 10
0.3574827042523117
 20
0.1103030310130961
 10
0.3574827042523117
 20
0.11148161241357
 10
0.3581332568506577
 20
0.1126195529965059
 10
0.3564662158917597
 20
0.1111564866426349
 10
0.3554090674732757
 20
0.1107500792366309
 10
0.3542299412605852
 20
0.1102217501473675
 10
0.3525215525421848
 20
0.1097516757687416
 10
0.3507650604076735
 20
0.1096866501529519
 10
0.3499193421488034
 20
0.1096866501529519
 10
0.3483580156748163
 20
0.1096866501529519
 10
0.3477725186932439
 20
0.1096216253065023
 10
0.3477074630764703
 20
0.1091664490733279
 10
0.3474472417991734
 20
0.1087762984559362
 10
0.3467316347738505
 20
0.1087762984559362
 10
0.3460810821755045
 20
0.1087762984559362
 10
0.3443245900409932
 20
0.1087762984559362
  0
LWPOLYLINE
  5
1712
330
2
100
AcDbEntity
  8
Vista
370
     0
100
AcDbPolyline
 90
        6
 70
   128
 43
0.0
 10
0.3406814957282185
 20
0.1011033288770946
 10
0.3424379878627306
 20
0.1026639328853065
 10
0.3428933748005516
 20
0.103964435969047
 10
0.3428933748005516
 20
0.1056550904395053
 10
0.3429584292275294
 20
0.1066304677523036
 10
0.3429584292275294
 20
0.1072807192941738
  0
LWPOLYLINE
  5
1713
330
2
100
AcDbEntity
  8
Vista
370
     0
100
AcDbPolyline
 90
        8
 70
   128
 43
0.0
 10
0.351350557389245
 20
0.105004838897635
 10
0.3491386783169119
 20
0.1043545873557647
 10
0.3477725186932439
 20
0.1043545873557647
 10
0.34640635787978
 20
0.1044196122022214
 10
0.3455606396209108
 20
0.1048747884353958
 10
0.3446498657452679
 20
0.105525039977266
 10
0.3439993131469228
 20
0.1061752915191292
 10
0.3433487605485777
 20
0.1066304677523036
  0
LWPOLYLINE
  5
1714
330
2
100
AcDbEntity
  8
Vista
370
     0
100
AcDbPolyline
 90
       12
 70
   128
 43
0.0
 10
0.3457558052814349
 20
0.1079959964518267
 10
0.3465364691133264
 20
0.1072156944477243
 10
0.3475773530327197
 20
0.1071506688319346
 10
0.3485531813353404
 20
0.1071506688319346
 10
0.3501145078093275
 20
0.1072156944477243
 10
0.3509602260681977
 20
0.1076058450651089
 10
0.3520661656043638
 20
0.1079959964518267
 10
0.3530419939069844
 20
0.1083211222227618
 10
0.3536925465053295
 20
0.1088413233023928
 10
0.3544081547204474
 20
0.1094915748442631
 10
0.3548635416582693
 20
0.1100768015396767
 10
0.3549285960852471
 20
0.1102718768483655
  0
LWPOLYLINE
  5
1715
330
2
100
AcDbEntity
  8
Vista
370
     0
100
AcDbPolyline
 90
       50
 70
   128
 43
0.0
 10
0.3560995912381868
 20
0.1089713737646321
 10
0.3529769382902108
 20
0.1065004172900643
 10
0.3512204473454945
 20
0.1046146875109173
 10
0.3493988995942097
 20
0.1027289577317632
 10
0.3473171317554229
 20
0.1029890586562416
 10
0.3466015235403042
 20
0.1020787061898929
 10
0.3466015235403042
 20
0.101038304030638
 10
0.3456256952376835
 20
0.1009732784148554
 10
0.3449100870225656
 20
0.1017535804189578
 10
0.3439993131469228
 20
0.1030540835026983
 10
0.3436089818258745
 20
0.1033141844271768
 10
0.343934258719945
 20
0.1016235299567185
 10
0.3436740374426481
 20
0.1002580020265285
 10
0.3428933748005516
 20
0.1005831277974636
 10
0.3420476565416823
 20
0.1007782031061595
 10
0.3418524908811582
 20
0.0998028257933541
 10
0.3418524908811582
 20
0.098957498173462
 10
0.3408766613887426
 20
0.0992826247137302
 10
0.3395105005752788
 20
0.0997378001775715
 10
0.3382093965683834
 20
0.0990225237892446
 10
0.3385346722726581
 20
0.0970067435478583
 10
0.338339506612134
 20
0.0959013157728137
 10
0.3357922076424575
 20
0.095180158598339
 10
0.3346212124895178
 20
0.095180158598339
 10
0.3337754942306486
 20
0.0951151337518894
 10
0.3328647203550057
 20
0.0953752339070349
 10
0.3324093346069796
 20
0.0961555359111444
 10
0.3319539476691586
 20
0.0969358379152539
 10
0.3319539476691586
 20
0.0978461903816026
 10
0.33208405771291
 20
0.0987565428479513
 10
0.3322792233734333
 20
0.0997969450072063
 10
0.3322792233734333
 20
0.1005772470113158
 10
0.3315636163481104
 20
0.1008373479357942
 10
0.3301323999178738
 20
0.1003821717026199
 10
0.3296119585530741
 20
0.0993417687740319
 10
0.3288963503379563
 20
0.0970658883774931
 10
0.3285710746336807
 20
0.0971959388397323
 10
0.328050632079087
 20
0.0990816686188865
 10
0.3276603007580388
 20
0.0999269954694455
 10
0.3267495268823959
 20
0.100707297473555
 10
0.325578532919252
 20
0.1008373479357942
 10
0.3247978690873605
 20
0.0999920203159022
 10
0.324927980320906
 20
0.0993417687740319
 10
0.3243424821495386
 20
0.0983663914612265
 10
0.3240822620620367
 20
0.097260963686189
 10
0.3242123721057881
 20
0.0958954349866588
 10
0.3239521508284913
 20
0.0958304101402092
 10
0.322911266909097
 20
0.0974560389948778
 10
0.322911266909097
 20
0.0989516181566401
 10
0.3226510456318001
 20
0.0994718192362712
  0
LWPOLYLINE
  5
1716
330
2
100
AcDbEntity
  8
Vista
370
     0
100
AcDbPolyline
 90
       53
 70
   128
 43
0.0
 10
0.3206343334097861
 20
0.0988865925408575
 10
0.3206343334097861
 20
0.0975210646106675
 10
0.3206343334097861
 20
0.0966757369907683
 10
0.3198536695778946
 20
0.0968057874530075
 10
0.3180321230164047
 20
0.0968057874530075
 10
0.3168611278634659
 20
0.0968057874530075
 10
0.3143890287036308
 20
0.0964806616820795
 10
0.3126975921858914
 20
0.0960905110646877
 10
0.3112013213286771
 20
0.0945949319029254
 10
0.3108109900076288
 20
0.0929042782018002
 10
0.3111362657119034
 20
0.0922540258905969
 10
0.3125024265253673
 20
0.0919289001196688
 10
0.3143239730868572
 20
0.0916687999645163
 10
0.3159503551776179
 20
0.0917988504267626
 10
0.3177719017391078
 20
0.0918638752732122
 10
0.3206343334097861
 20
0.0918638752732122
 10
0.3234967638906694
 20
0.0919939257354514
 10
0.326489305605099
 20
0.0917988504267626
 10
0.3284409634001353
 20
0.091538749502277
 10
0.3305877868556948
 20
0.0912786485777986
 10
0.3329297759717793
 20
0.0909535228068634
 10
0.3354669307483871
 20
0.0914086990400378
 10
0.337483644160196
 20
0.0921890010441473
 10
0.340866517195674
 20
0.0936845802059097
 10
0.3432735619285312
 20
0.0948550328274038
 10
0.3468516006245323
 20
0.096740762606558
 10
0.3495839210616651
 20
0.0990166430030968
 10
0.3507549162146049
 20
0.1009023727822509
 10
0.3520560214112951
 20
0.1025280016369194
 10
0.3521210758382729
 20
0.100187096393924
 10
0.3521210758382729
 20
0.097260963686189
 10
0.35140546881295
 20
0.0947900079809543
 10
0.3504296393205344
 20
0.0938146298988159
 10
0.3489333684633191
 20
0.0932944288191919
 10
0.3471118219018301
 20
0.0923840763528432
 10
0.3470467662850565
 20
0.0912786485777986
 10
0.3496489766784379
 20
0.0912786485777986
 10
0.3511452475356522
 20
0.0912786485777986
 10
0.352771628436618
 20
0.0916687999645163
 10
0.3541377892500819
 20
0.0925141268150824
 10
0.3552437287862489
 20
0.0948550328274038
 10
0.3553087832132267
 20
0.0960254854489051
 10
0.3566749440266905
 20
0.0948550328274038
 10
0.3586916562487037
 20
0.0930343278947064
 10
0.3607734252772863
 20
0.0923840763528432
 10
0.3629202487328458
 20
0.0920589505819081
 10
0.3671488400271929
 20
0.0916687999645163
 10
0.370076326124849
 20
0.0919939257354514
 10
0.3720930395366579
 20
0.0932944288191919
 10
0.3737844760543973
 20
0.095180158598339
 10
0.3752807469116117
 20
0.0980412656902914
 10
0.3768420721958048
 20
0.0993417687740319
 10
0.3774967354093235
 20
0.099793051509133
  0
LWPOLYLINE
  5
1717
330
2
100
AcDbEntity
  8
Vista
370
     0
100
AcDbPolyline
 90
       25
 70
   128
 43
0.0
 10
0.359927707018417
 20
0.1059093105778359
 10
0.3591470431865256
 20
0.1045437818783128
 10
0.3588868230990236
 20
0.1027230777149484
 10
0.3592120988032983
 20
0.1011624737067294
 10
0.3593422088470497
 20
0.0999920203159022
 10
0.360383093956238
 20
0.0982363409989873
 10
0.3616191435361555
 20
0.097260963686189
 10
0.3636358557581696
 20
0.0964156368356228
 10
0.3657176247867513
 20
0.0964156368356228
 10
0.3674741157314685
 20
0.0968057874530075
 10
0.3685800552676346
 20
0.098301366614777
 10
0.369165552249207
 20
0.0999920203159022
 10
0.3685149996508619
 20
0.1020728261730781
 10
0.3672138956439666
 20
0.1029831778700938
 10
0.3660429004910268
 20
0.103113228332333
 10
0.3650020165716334
 20
0.1029831778700938
 10
0.3644815740170388
 20
0.1018777500950492
 10
0.3645466296338116
 20
0.1005772470113158
 10
0.365132126615384
 20
0.0994718192362712
 10
0.3657176247867513
 20
0.0985614667699224
 10
0.3659127904472754
 20
0.0977811647658129
 10
0.3666283974725992
 20
0.0982363409989873
 10
0.3668235631331225
 20
0.0992767439275753
 10
0.3669536743666688
 20
0.1003821717026199
 10
0.3669536743666688
 20
0.1018127252485996
  0
LWPOLYLINE
  5
1718
330
2
100
AcDbEntity
  8
Vista
370
     0
100
AcDbPolyline
 90
        3
 70
   128
 43
0.0
 10
0.3621395849009543
 20
0.1002521212403806
 10
0.363310580053894
 20
0.1004471965490765
 10
0.3641562983127633
 20
0.1007723223200045
  0
LWPOLYLINE
  5
1719
330
2
100
AcDbEntity
  8
Vista
370
     0
100
AcDbPolyline
 90
       30
 70
   128
 43
0.0
 10
0.3649369609548598
 20
0.1034383541032682
 10
0.3646116852505852
 20
0.104153631260921
 10
0.3640261870792178
 20
0.1045437818783128
 10
0.3643514639732874
 20
0.1051290085737264
 10
0.3655224579364322
 20
0.10571423526914
 10
0.3669536743666688
 20
0.1061043858865247
 10
0.3682547795633599
 20
0.1057792601155896
 10
0.3695558847600502
 20
0.1045437818783128
 10
0.3701413817416226
 20
0.102593027252702
 10
0.370726878723195
 20
0.1011624737067294
 10
0.3705967686794436
 20
0.100707297473555
 10
0.3699462160810985
 20
0.1003171460868302
 10
0.3694257735265038
 20
0.0992117183117927
 10
0.3694257735265038
 20
0.0983663914612265
 10
0.3689703865886829
 20
0.098106290536748
 10
0.3683198339903377
 20
0.0970658883774931
 10
0.3682547795633599
 20
0.0960905110646877
 10
0.3677343370087653
 20
0.0950501081360997
 10
0.3664332318120751
 20
0.0947900079809543
 10
0.364871906527882
 20
0.0940097059768448
 10
0.3638310214186937
 20
0.0938146298988159
 10
0.3629853031598245
 20
0.0929693030482568
 10
0.3640261870792178
 20
0.0943998565942295
 10
0.3638310214186937
 20
0.0951151337518894
 10
0.3631154143933699
 20
0.0957653852937526
 10
0.3622046405177279
 20
0.0958304101402092
 10
0.3618143091966797
 20
0.095180158598339
 10
0.3609035353210368
 20
0.0949850832896502
 10
0.3594072644638224
 20
0.0958954349866588
 10
0.3602529827226917
 20
0.0969358379152539
  0
LWPOLYLINE
  5
171A
330
2
100
AcDbEntity
  8
Vista
370
     0
100
AcDbPolyline
 90
        9
 70
   128
 43
0.0
 10
0.3593422088470497
 20
0.0992117183117927
 10
0.3585615462049532
 20
0.099666894544967
 10
0.3577158279460839
 20
0.1005122221648591
 10
0.3569351653039874
 20
0.1018127252485996
 10
0.3566098884099169
 20
0.1029831778700938
 10
0.3566749440266905
 20
0.1044137314160665
 10
0.3570002197309652
 20
0.1058442849620462
 10
0.357260441008262
 20
0.106754637428395
 10
0.3575206622855598
 20
0.107274838508026
  0
LWPOLYLINE
  5
171B
330
2
100
AcDbEntity
  8
Vista
370
     0
100
AcDbPolyline
 90
        4
 70
   128
 43
0.0
 10
0.3730038122225059
 20
0.0998619706229889
 10
0.3731339234560522
 20
0.0983663914612265
 10
0.3732640334998027
 20
0.0977811647658129
 10
0.3750205256343149
 20
0.0997969450072063
  0
LWPOLYLINE
  5
171C
330
2
100
AcDbEntity
  8
Vista
370
     0
100
AcDbPolyline
 90
        4
 70
   128
 43
0.0
 10
0.369620939187028
 20
0.0934244792814312
 10
0.3713123757047665
 20
0.0952451834447956
 10
0.3713123757047665
 20
0.096740762606558
 10
0.3713123757047665
 20
0.0984314170770162
  0
LWPOLYLINE
  5
171D
330
2
100
AcDbEntity
  8
Vista
370
     0
100
AcDbPolyline
 90
        3
 70
   128
 43
0.0
 10
0.3627250830723216
 20
0.1090305185942668
 10
0.3630503587765972
 20
0.1104610721402466
 10
0.3638960770354664
 20
0.1119566505326759
  0
LWPOLYLINE
  5
171E
330
2
100
AcDbEntity
  8
Vista
370
     0
100
AcDbPolyline
 90
        6
 70
   128
 43
0.0
 10
0.3601228726789412
 20
0.1083802662830635
 10
0.3601228726789412
 20
0.1107861979111817
 10
0.3609035353210368
 20
0.1124118267658503
 10
0.3626600274555489
 20
0.1136473050031341
 10
0.3649369609548598
 20
0.1144276070072436
 10
0.366693453089372
 20
0.1144926318536932
  0
LWPOLYLINE
  5
171F
330
2
100
AcDbEntity
  8
Vista
370
     0
100
AcDbPolyline
 90
        3
 70
   128
 43
0.0
 10
0.3119083701578074
 20
0.0922803809522392
 10
0.3127271752513927
 20
0.0936717069465374
 10
0.3147741903649459
 20
0.0947356614850748
  0
LWPOLYLINE
  5
1720
330
2
100
AcDbEntity
  8
Vista
370
     0
100
AcDbPolyline
 90
       42
 70
   129
 43
0.0
 10
0.329267050039765
 20
0.1074212788535931
 10
0.3271381556066482
 20
0.1072575931257162
 10
0.3256643052483996
 20
0.1066028517528679
 10
0.3253367832109664
 20
0.1045567843857356
 10
0.3250911416828899
 20
0.1024288745393207
 10
0.3245998574369437
 20
0.1003828071721884
 10
0.3236172913246413
 20
0.0995643808407962
 10
0.3220615604570352
 20
0.0995643808407962
 10
0.3198507855145598
 20
0.0995643808407962
 10
0.3184588156656698
 20
0.1001372797343691
 10
0.3173943678542139
 20
0.101692290687204
 10
0.3173124873448554
 20
0.104065728740764
 10
0.3173943678542139
 20
0.1066028517528679
 10
0.3173943678542139
 20
0.1089762898064279
 10
0.3165755627606286
 20
0.10995840263503
 10
0.3151835929117386
 20
0.110940514694299
 10
0.31370974255349
 20
0.1124136831678584
 10
0.3126452947420333
 20
0.114296064807121
 10
0.313545981534773
 20
0.1147871212214184
 10
0.314937951383663
 20
0.1150326494285707
 10
0.3161661590240401
 20
0.1150326494285707
 10
0.3173943678542139
 20
0.1141323798485772
 10
0.3173124873448554
 20
0.1135594809550042
 10
0.3185406961750283
 20
0.1141323798485772
 10
0.3196870233060469
 20
0.1134776377064028
 10
0.3200964270426354
 20
0.1127410538542861
 10
0.3202601880613516
 20
0.1120044692328364
 10
0.3202601880613516
 20
0.1110223571735673
 10
0.3198507855145598
 20
0.1105313007592699
 10
0.321242754173654
 20
0.1111041996528428
 10
0.322634724022544
 20
0.1111860429014442
 10
0.3234535303059243
 20
0.1110223571735673
 10
0.3236991718340008
 20
0.1102857733214506
 10
0.3236991718340008
 20
0.1095491887000008
 10
0.3236991718340008
 20
0.1090581322857034
 10
0.3250911416828899
 20
0.1090581322857034
 10
0.3259918272858338
 20
0.1093036604928557
 10
0.3273019166253652
 20
0.1093036604928557
 10
0.3291032890210479
 20
0.1093036604928557
 10
0.3296764525865576
 20
0.1088944473271596
 10
0.3296764525865576
 20
0.1083215484335867
 10
0.3295945720771991
 20
0.1076668070607454
  0
LWPOLYLINE
  5
1721
330
2
100
AcDbEntity
  8
Vista
370
     0
100
AcDbPolyline
 90
        3
 70
   128
 43
0.0
 10
0.3209971126455784
 20
0.1033291441193143
 10
0.321242754173654
 20
0.1062754810664472
 10
0.3216521579102416
 20
0.1076668070607454
  0
LWPOLYLINE
  5
1722
330
2
100
AcDbEntity
  8
Vista
370
     0
100
AcDbPolyline
 90
        3
 70
   128
 43
0.0
 10
0.3209152321362207
 20
0.1079123352678906
 10
0.3224709630038269
 20
0.1087307615992827
 10
0.3231260070786952
 20
0.1092218180135802
  0
CIRCLE
  5
1723
330
2
100
AcDbEntity
  8
Vista
370
     0
100
AcDbCircle
 10
0.3220868733479021
 20
0.1143211504682995
 30
0.0
 40
0.0008856501621969
  0
CIRCLE
  5
1724
330
2
100
AcDbEntity
  8
Vista
370
     0
100
AcDbCircle
 10
0.3234556053085882
 20
0.1123494792003754
 30
0.0
 40
0.0011674471839353
  0
CIRCLE
  5
1725
330
2
100
AcDbEntity
  8
Vista
370
     0
100
AcDbCircle
 10
0.3251866477257961
 20
0.1104985225312802
 30
0.0
 40
0.0010466770317616
  0
CIRCLE
  5
1726
330
2
100
AcDbEntity
  8
Vista
370
     0
100
AcDbCircle
 10
0.3274410286588836
 20
0.1102973317896811
 30
0.0
 40
0.0008061404141235
  0
CIRCLE
  5
1727
330
2
100
AcDbEntity
  8
Vista
370
     0
100
AcDbCircle
 10
0.3295746394397989
 20
0.1105789994433834
 30
0.0
 40
0.0012223260843998
  0
CIRCLE
  5
1728
330
2
100
AcDbEntity
  8
Vista
370
     0
100
AcDbCircle
 10
0.3348482801262032
 20
0.1043018426124718
 30
0.0
 40
0.0026102510327381
  0
LWPOLYLINE
  5
1729
330
2
100
AcDbEntity
  8
Vista
370
     0
100
AcDbPolyline
 90
       31
 70
   128
 43
0.0
 10
0.3292553579232642
 20
0.0997557533468054
 10
0.3282926566300421
 20
0.1012751041479305
 10
0.3277353042516875
 20
0.1020854247803555
 10
0.3281406519767609
 20
0.1030983255708833
 10
0.3277353042516875
 20
0.1039086462033012
 10
0.3277859728660468
 20
0.1048202565301111
 10
0.3282926566300421
 20
0.1060357367094156
 10
0.3289006788125492
 20
0.1069473478055585
 10
0.3298633801057722
 20
0.1073018628899121
 10
0.3303193952554091
 20
0.1079602478267532
 10
0.330674075555919
 20
0.1088212136910371
 10
0.3312314279342727
 20
0.1095808890915961
 10
0.3318901187311392
 20
0.1098341144815649
 10
0.3332074979452813
 20
0.1103912097240212
 10
0.3344742097348607
 20
0.1109989501983364
 10
0.3359435959818731
 20
0.1111002398927212
 10
0.3373623124247329
 20
0.1108470145027596
 10
0.3380716706461628
 20
0.1103912097240212
 10
0.3382743451035965
 20
0.1094795993972113
 10
0.3383756823323143
 20
0.1086186335329273
 10
0.3391357091681026
 20
0.1078589581323683
 10
0.3398450673895317
 20
0.1077070232061175
 10
0.3408584361073181
 20
0.1069979922680844
 10
0.3413651210611084
 20
0.1066941224155897
 10
0.3416691315574649
 20
0.1058331573206388
 10
0.3416691315574649
 20
0.104921546224503
 10
0.3415171269041837
 20
0.1037060660451985
 10
0.3410104419503934
 20
0.1023892954021761
 10
0.3404530883822447
 20
0.1009712342954359
 10
0.3400477406571714
 20
0.1002622041267358
 10
0.339642392932098
 20
0.0998063985786644
  0
LWPOLYLINE
  5
172A
330
2
100
AcDbEntity
  8
Vista
370
     0
100
AcDbPolyline
 90
        8
 70
   128
 43
0.0
 10
0.33797033460724
 20
0.0984389827037831
 10
0.3375649868821675
 20
0.0979325326931857
 10
0.3367542914320207
 20
0.0978312422294678
 10
0.3356902529100809
 20
0.097679307303217
 10
0.3345248783492192
 20
0.0975273723769732
 10
0.3337141828990724
 20
0.0978818874613268
 10
0.3330048246776425
 20
0.0980844676194295
 10
0.3320421233844195
 20
0.0980844676194295
  0
LWPOLYLINE
  5
172B
330
2
100
AcDbEntity
  8
Vista
370
     0
100
AcDbPolyline
 90
        2
 70
   128
 43
0.0
 10
0.3317381128880639
 20
0.1028451001809145
 10
0.3299140475303357
 20
0.1026931652546708
  0
LWPOLYLINE
  5
172C
330
2
100
AcDbEntity
  8
Vista
370
     0
100
AcDbPolyline
 90
        2
 70
   128
 43
0.0
 10
0.3313327651629905
 20
0.1053267065407084
 10
0.3301673906021287
 20
0.1058331573206388
  0
LWPOLYLINE
  5
172D
330
2
100
AcDbEntity
  8
Vista
370
     0
100
AcDbPolyline
 90
        2
 70
   128
 43
0.0
 10
0.3353862424137244
 20
0.1075044430480148
 10
0.3354369110280828
 20
0.1093783089334934
  0
LWPOLYLINE
  5
172E
330
2
100
AcDbEntity
  8
Vista
370
     0
100
AcDbPolyline
 90
        2
 70
   128
 43
0.0
 10
0.3368556274709427
 20
0.1071499279636612
 10
0.3382236764892381
 20
0.1083654081429657
  0
LWPOLYLINE
  5
1775
102
{ACAD_REACTORS
330
17D5
330
1809
102
}
330
2
100
AcDbEntity
  8
Profilo
370
     0
100
AcDbPolyline
 90
       52
 70
   129
 43
0.0
 10
0.0713366526586395
 20
0.1276526842697515
 10
0.0713366526586395
 20
0.1276526842697515
 10
0.0747728205044876
 20
0.1276526842697515
 10
0.0747728205044876
 20
0.131183101297598
 10
0.0763483548533184
 20
0.1317852329048784
 10
0.0766727298225572
 20
0.1331284494402391
 10
0.0777385323200786
 20
0.1338232165947099
 42
0.7138628020630565
 10
0.0789433529047681
 20
0.1386865866760766
 10
0.0789433529047681
 20
0.1397982143434185
 10
0.0768580867046279
 20
0.1412340664259838
 10
0.076626390176396
 20
0.1491080950941531
 10
0.0776912120127332
 20
0.1501006793624847
 10
0.0777838904537685
 20
0.1510733537090126
 10
0.0772278198075565
 20
0.1519070741843117
 10
0.0778302300999013
 20
0.1526018413387825
 10
0.0778302300999013
 20
0.15348188013812
 10
0.0762083561049377
 20
0.1539913761981816
 10
0.0762083561049377
 20
0.1544545539342189
 10
0.0767644267511212
 20
0.1549177322206853
 10
0.0761620164587765
 20
0.1566314914952934
 10
0.0773204982485918
 20
0.1581599791250633
 10
0.0763937129870083
 20
0.1591326534716055
 10
0.076301034545973
 20
0.1609390482934324
 10
0.0770424629255143
 20
0.1616801332215127
 10
0.0768107663972824
 20
0.1622359470551836
 10
0.077644872366572
 20
0.1640886596506058
 10
0.0776912120127332
 20
0.1656171472803757
 10
0.0757894571447747
 20
0.1671594145950374
 10
0.07588213558581
 20
0.1706332503674341
 42
0.826291144803039
 10
0.0776430276679701
 20
0.172300691868447
 42
-0.6395648562933837
 10
0.0783844551962243
 20
0.1734586373093984
 42
0.0265699120672554
 10
0.0800202338091179
 20
0.1733215532787434
 42
0.4612808041513145
 10
0.0818892906068907
 20
0.1753813552616955
 42
-0.3469312477728582
 10
0.0822844247073629
 20
0.1760399822559614
 42
0.1759727949809664
 10
0.0856071925370071
 20
0.1789013502813256
 42
-0.2533174427135376
 10
0.0860928283852143
 20
0.179207925977341
 42
0.3508177978536253
 10
0.0873196959699765
 20
0.1803320348444438
 42
-0.3441378588023027
 10
0.0951702224676392
 20
0.1876990796552215
 42
0.292859065021645
 10
0.0960937958935897
 20
0.1884166646996769
 42
-0.3548504207539757
 10
0.0983941733598879
 20
0.1898218011963914
 42
0.4623904203513551
 10
0.0991609661323974
 20
0.190511595136318
 42
-0.4461969260896078
 10
0.1011581575509506
 20
0.1924076668968021
 10
0.1025128243567604
 20
0.1924076668968021
 10
0.1025128243567604
 20
0.1976960885707976
 10
0.0896818278504366
 20
0.1976960885707976
 10
0.0896818278504366
 20
0.1945025967830142
 10
0.0792136144449199
 20
0.1813986553329593
 10
0.0766780877058107
 20
0.1822570657405757
 10
0.0714734293561417
 20
0.1715246584801557
 10
0.072532243791424
 20
0.1708834022335034
 10
0.072532243791424
 20
0.1412690594717426
 10
0.0713366526586395
 20
0.1391761733647919
  0
LWPOLYLINE
  5
177D
330
2
100
AcDbEntity
  8
Profilo
370
     0
100
AcDbPolyline
 90
       52
 70
   129
 43
0.0
 10
0.1710007842260097
 20
0.0767093278177029
 10
0.1710007842260097
 20
0.0767093278177029
 10
0.1744369520718578
 20
0.0767093278177029
 10
0.1744369520718578
 20
0.0802397448455494
 10
0.1760124864206887
 20
0.0808418764528298
 10
0.1763368613899274
 20
0.0821850929881905
 10
0.1774026638874488
 20
0.0828798601426613
 42
0.7138628020630565
 10
0.1786074844721384
 20
0.087743230224028
 10
0.1786074844721384
 20
0.08885485789137
 10
0.1765222182719981
 20
0.0902907099739352
 10
0.1762905217437662
 20
0.0981647386421045
 10
0.1773553435801034
 20
0.0991573229104361
 10
0.1774480220211387
 20
0.100129997256964
 10
0.1768919513749267
 20
0.1009637177322631
 10
0.1774943616672715
 20
0.1016584848867339
 10
0.1774943616672715
 20
0.1025385236860714
 10
0.1758724876723079
 20
0.103048019746133
 10
0.1758724876723079
 20
0.1035111974821703
 10
0.1764285583184915
 20
0.1039743757686367
 10
0.1758261480261467
 20
0.1056881350432448
 10
0.1769846298159621
 20
0.1072166226730147
 10
0.1760578445543786
 20
0.1081892970195568
 10
0.1759651661133432
 20
0.1099956918413838
 10
0.1767065944928845
 20
0.110736776769464
 10
0.1764748979646526
 20
0.111292590603135
 10
0.1773090039339422
 20
0.1131453031985572
 10
0.1773553435801034
 20
0.1146737908283271
 10
0.1754535887121449
 20
0.1162160581429888
 10
0.1755462671531802
 20
0.1196898939153854
 42
0.826291144803039
 10
0.1773071592353403
 20
0.1213573354163984
 42
-0.6395648562933837
 10
0.1780485867635946
 20
0.1225152808573497
 42
0.0265699120672554
 10
0.1796843653764881
 20
0.1223781968266948
 42
0.4612808041513145
 10
0.1815534221742609
 20
0.1244379988096469
 42
-0.3469312477728582
 10
0.1819485562747331
 20
0.1250966258039128
 42
0.1759727949809664
 10
0.1852713241043773
 20
0.127957993829277
 42
-0.2533174427135376
 10
0.1857569599525846
 20
0.1282645695252924
 42
0.3508177978536253
 10
0.1869838275373468
 20
0.1293886783923952
 42
-0.3441378588023027
 10
0.1948343540350095
 20
0.1367557232031729
 42
0.292859065021645
 10
0.19575792746096
 20
0.1374733082476283
 42
-0.3548504207539757
 10
0.1980583049272582
 20
0.1388784447443427
 42
0.4623904203513551
 10
0.1988250976997676
 20
0.1395682386842694
 42
-0.4461969260896078
 10
0.2008222891183209
 20
0.1414643104447535
 10
0.2021769559241306
 20
0.1414643104447535
 10
0.2021769559241306
 20
0.1467527321187489
 10
0.1893459594178068
 20
0.1467527321187489
 10
0.1893459594178068
 20
0.1435592403309656
 10
0.1788777460122901
 20
0.1304552988809107
 10
0.1763422192731809
 20
0.1313137092885271
 10
0.1711375609235119
 20
0.120581302028107
 10
0.1721963753587943
 20
0.1199400457814548
 10
0.1721963753587943
 20
0.090325703019694
 10
0.1710007842260097
 20
0.0882328169127434
  0
LWPOLYLINE
  5
177E
330
2
100
AcDbEntity
  8
Profilo
370
     0
100
AcDbPolyline
 90
       52
 70
   129
 43
0.0
 10
0.2170029659282022
 20
0.1687293809475037
 10
0.2170029659282022
 20
0.1687293809475037
 10
0.2187210498511263
 20
0.1687293809475037
 10
0.2187210498511263
 20
0.1704945894614269
 10
0.2195088170255417
 20
0.1707956552650671
 10
0.2196710045101611
 20
0.1714672635327474
 10
0.2202039057589218
 20
0.1718146471099828
 42
0.7138628020630565
 10
0.2208063160512665
 20
0.1742463321506662
 10
0.2208063160512665
 20
0.1748021459843372
 10
0.2197636829511964
 20
0.1755200720256198
 10
0.2196478346870805
 20
0.1794570863597045
 10
0.2201802456052491
 20
0.1799533784938703
 10
0.2202265848257667
 20
0.1804397156671342
 10
0.2199485495026607
 20
0.1808565759047838
 10
0.2202497546488331
 20
0.1812039594820192
 10
0.2202497546488331
 20
0.1816439788816879
 10
0.2194388176513513
 20
0.1818987269117187
 10
0.2194388176513513
 20
0.1821303157797374
 10
0.2197168529744431
 20
0.1823619049229705
 10
0.2194156478282707
 20
0.1832187845602746
 10
0.2199948887231784
 20
0.1839830283751595
 10
0.2195314960923866
 20
0.1844693655484306
 10
0.219485156871869
 20
0.1853725629593441
 10
0.2198558710616396
 20
0.1857431054233842
 10
0.2197400227975237
 20
0.1860210123402197
 10
0.2201570757821685
 20
0.1869473686379308
 10
0.2201802456052491
 20
0.1877116124528157
 10
0.2192293681712698
 20
0.1884827461101466
 10
0.2192757073917875
 20
0.1902196639963449
 42
0.826291144803039
 10
0.2201561534328675
 20
0.1910533847468514
 42
-0.6395648562933837
 10
0.2205268671969947
 20
0.1916323574673271
 42
0.0265699120672554
 10
0.2213447565034414
 20
0.1915638154519996
 42
0.4612808041513145
 10
0.2222792849023278
 20
0.1925937164434757
 42
-0.3469312477728582
 10
0.2224768519525639
 20
0.1929230299406086
 42
0.1759727949809664
 10
0.224138235867386
 20
0.1943537139532907
 42
-0.2533174427135376
 10
0.2243810537914896
 20
0.1945070018012984
 42
0.3508177978536253
 10
0.2249944875838707
 20
0.1950690562348498
 42
-0.3441378588023027
 10
0.2289197508327021
 20
0.1987525786402386
 42
0.292859065021645
 10
0.2293815375456774
 20
0.1991113711624663
 42
-0.3548504207539757
 10
0.2305317262788264
 20
0.1998139394108236
 42
0.4623904203513551
 10
0.2309151226650812
 20
0.2001588363807869
 42
-0.4461969260896078
 10
0.2319137183743578
 20
0.201106872261029
 10
0.2325910517772627
 20
0.201106872261029
 10
0.2325910517772627
 20
0.2037510830980267
 10
0.2261755535241008
 20
0.2037510830980267
 10
0.2261755535241008
 20
0.202154337204135
 10
0.2209414468213424
 20
0.1956023664791075
 10
0.2196736834517878
 20
0.1960315716829157
 10
0.2170713542769533
 20
0.1906653680527057
 10
0.2176007614945945
 20
0.1903447399293796
 10
0.2176007614945945
 20
0.1755375685484992
 10
0.2170029659282022
 20
0.1744911254950239
  0
LWPOLYLINE
  5
1780
330
2
100
AcDbEntity
  8
Vista
370
     0
100
AcDbPolyline
 90
       26
 70
   128
 43
0.0
 10
0.177116667658369
 20
0.1127180866895869
 10
0.1772753225070973
 20
0.1120044692328364
 10
0.1772753225070973
 20
0.1110223571735673
 10
0.1768659199603046
 20
0.1105313007592699
 10
0.1782578886193997
 20
0.1111041996528428
 10
0.1796498584682897
 20
0.1111860429014442
 10
0.18046866475167
 20
0.1110223571735673
 10
0.1807143062797456
 20
0.1102857733214506
 10
0.1807143062797456
 20
0.1095491887000008
 10
0.1807143062797456
 20
0.1090581322857034
 10
0.1821062761286356
 20
0.1090581322857034
 10
0.1830069617315795
 20
0.1093036604928557
 10
0.1843170510711109
 20
0.1093036604928557
 10
0.1861184234667936
 20
0.1093036604928557
 10
0.1866915870323034
 20
0.1088944473271596
 10
0.1866915870323034
 20
0.1083215484335867
 10
0.1866097065229448
 20
0.1076668070607454
 10
0.1862821844855107
 20
0.1074212788535931
 10
0.1841532900523939
 20
0.1072575931257162
 10
0.1826794396941453
 20
0.1066028517528679
 10
0.1823519176567112
 20
0.1045567843857356
 10
0.1821062761286356
 20
0.1024288745393207
 10
0.1816149918826895
 20
0.1003828071721884
 10
0.1806324257703871
 20
0.0995643808407962
 10
0.17907669490278
 20
0.0995643808407962
 10
0.1773941289089563
 20
0.0995643808407962
  0
LWPOLYLINE
  5
1782
330
2
100
AcDbEntity
  8
Vista
370
     0
100
AcDbPolyline
 90
       34
 70
   128
 43
0.0
 10
0.1764759272368066
 20
0.0918638752732122
 10
0.1776494678555318
 20
0.0918638752732122
 10
0.1805118983364151
 20
0.0919939257354514
 10
0.1835044400508447
 20
0.0917988504267626
 10
0.1854560978458801
 20
0.091538749502277
 10
0.1876029213014405
 20
0.0912786485777986
 10
0.1899449104175241
 20
0.0909535228068634
 10
0.1924820651941328
 20
0.0914086990400378
 10
0.1944987786059418
 20
0.0921890010441473
 10
0.1978816516414188
 20
0.0936845802059097
 10
0.200288696374276
 20
0.0948550328274038
 10
0.2038667350702781
 20
0.096740762606558
 10
0.20659905550741
 20
0.0990166430030968
 10
0.2077700506603497
 20
0.1009023727822509
 10
0.2090711558570399
 20
0.1025280016369194
 10
0.2091362102840186
 20
0.100187096393924
 10
0.2091362102840186
 20
0.097260963686189
 10
0.2084206032586948
 20
0.0947900079809543
 10
0.2074447737662792
 20
0.0938146298988159
 10
0.2059485029090649
 20
0.0932944288191919
 10
0.2041269563475749
 20
0.0923840763528432
 10
0.2040619007308022
 20
0.0912786485777986
 10
0.2066641111241836
 20
0.0912786485777986
 10
0.208160381981398
 20
0.0912786485777986
 10
0.2097867628823637
 20
0.0916687999645163
 10
0.2111529236958276
 20
0.0925141268150824
 10
0.2122588632319937
 20
0.0948550328274038
 10
0.2123239176589715
 20
0.0960254854489051
 10
0.2136900784724354
 20
0.0948550328274038
 10
0.2157067906944494
 20
0.0930343278947064
 10
0.2177885597230311
 20
0.0923840763528432
 10
0.2199353831785915
 20
0.0920589505819081
 10
0.2241639744729387
 20
0.0916687999645163
 10
0.2249866531224711
 20
0.0917601664206628
  0
LINE
  5
1783
330
2
100
AcDbEntity
  8
Vista
 62
     3
100
AcDbLine
 10
0.2021769559241306
 20
0.1467527321187489
 30
0.0
 11
0.2249866531224711
 21
0.1467527321187489
 31
0.0
  0
LINE
  5
1784
330
2
100
AcDbEntity
  8
Vista
100
AcDbLine
 10
0.2021769559241306
 20
0.1414643104447535
 30
0.0
 11
0.2249866531224711
 21
0.1414643104447535
 31
0.0
  0
LINE
  5
1785
330
2
100
AcDbEntity
  8
Vista
100
AcDbLine
 10
0.1980583049272582
 20
0.1388784447443427
 30
0.0
 11
0.2249866531224712
 21
0.1388784447443427
 31
0.0
  0
LINE
  5
1786
330
2
100
AcDbEntity
  8
Vista
100
AcDbLine
 10
0.1948343540350004
 20
0.136755723203172
 30
0.0
 11
0.2249866531224711
 21
0.136755723203172
 31
0.0
  0
LINE
  5
1787
330
2
100
AcDbEntity
  8
Vista
100
AcDbLine
 10
0.1857972875693985
 20
0.1276627607191111
 30
0.0
 11
0.2249866531224712
 21
0.1276627607191111
 31
0.0
  0
LINE
  5
1788
330
2
100
AcDbEntity
  8
Vista
100
AcDbLine
 10
0.1815534221742609
 20
0.1244379988096469
 30
0.0
 11
0.2249866531224712
 21
0.1244379988096469
 31
0.0
  0
LINE
  5
178A
330
2
100
AcDbEntity
  8
Vista
100
AcDbLine
 10
0.1796843653764881
 20
0.1223781968266948
 30
0.0
 11
0.2249866531224711
 21
0.1223781968266948
 31
0.0
  0
LINE
  5
178B
330
2
100
AcDbEntity
  8
Vista
100
AcDbLine
 10
0.1767142191204261
 20
0.1195419134848737
 30
0.0
 11
0.2249866531224712
 21
0.1195419134848737
 31
0.0
  0
LINE
  5
178C
330
2
100
AcDbEntity
  8
Vista
100
AcDbLine
 10
0.1786074844721384
 20
0.08885485789137
 30
0.0
 11
0.2249866531224711
 21
0.08885485789137
 31
0.0
  0
LINE
  5
178D
330
2
100
AcDbEntity
  8
Vista
100
AcDbLine
 10
0.1786074844721384
 20
0.087743230224028
 30
0.0
 11
0.2249866531224711
 21
0.087743230224028
 31
0.0
  0
LINE
  5
178E
330
2
100
AcDbEntity
  8
Vista
100
AcDbLine
 10
0.1760124864206887
 20
0.0808418764528298
 30
0.0
 11
0.2249866531224711
 21
0.0808418764528298
 31
0.0
  0
LINE
  5
178F
330
2
100
AcDbEntity
  8
Vista
 62
     3
100
AcDbLine
 10
0.1744369520718578
 20
0.0767093278177029
 30
0.0
 11
0.2249866531224712
 21
0.0767093278177029
 31
0.0
  0
LINE
  5
1790
330
2
100
AcDbEntity
  8
Vista
100
AcDbLine
 10
0.1763368613899274
 20
0.0821850929881905
 30
0.0
 11
0.2249866531224711
 21
0.0821850929881905
 31
0.0
  0
LWPOLYLINE
  5
1794
330
2
100
AcDbEntity
  8
Vista
370
     0
100
AcDbPolyline
 90
       16
 70
   128
 43
0.0
 10
0.3774967354093235
 20
0.1008661575985376
 10
0.3765818521083029
 20
0.1010324232444901
 10
0.3754759125721359
 20
0.1009023727822509
 10
0.3749554700175413
 20
0.101552624324114
 10
0.3743049174191961
 20
0.1021378510195277
 10
0.3737844760543973
 20
0.1020728261730781
 10
0.3733290891165755
 20
0.1011624737067294
 10
0.3730038122225059
 20
0.1010324232444901
 10
0.3728737021787545
 20
0.1018777500950492
 10
0.3717677626425884
 20
0.1043487065696169
 10
0.3712473212777887
 20
0.1052590590359657
 10
0.3704016030189194
 20
0.1062994611952206
 10
0.3690354422054565
 20
0.1073398641238086
 10
0.3676042269650139
 20
0.1081851909743747
 10
0.3665633430456205
 20
0.1087053920539986
 10
0.3654574035094544
 20
0.1087053920539986
  0
LINE
  5
1795
330
2
100
AcDbEntity
  8
Vista
100
AcDbLine
 10
0.2418696664055347
 20
0.0821850929881905
 30
0.0
 11
0.3774967354093235
 21
0.0821850929881905
 31
0.0
  0
LINE
  5
1796
330
2
100
AcDbEntity
  8
Vista
 62
     3
100
AcDbLine
 10
0.2418696664055346
 20
0.0767093278177029
 30
0.0
 11
0.3774967354093234
 21
0.0767093278177029
 31
0.0
  0
LINE
  5
1797
330
2
100
AcDbEntity
  8
Vista
100
AcDbLine
 10
0.2418696664055346
 20
0.0808418764528298
 30
0.0
 11
0.3774967354093235
 21
0.0808418764528298
 31
0.0
  0
LINE
  5
1798
330
2
100
AcDbEntity
  8
Vista
100
AcDbLine
 10
0.2418696664055347
 20
0.087743230224028
 30
0.0
 11
0.3774967354093235
 21
0.087743230224028
 31
0.0
  0
LINE
  5
1799
330
2
100
AcDbEntity
  8
Vista
100
AcDbLine
 10
0.2418696664055347
 20
0.08885485789137
 30
0.0
 11
0.3774967354093234
 21
0.0888548578913699
 31
0.0
  0
LINE
  5
179A
330
2
100
AcDbEntity
  8
Vista
100
AcDbLine
 10
0.2418696664055346
 20
0.1195419134848738
 30
0.0
 11
0.3774967354093235
 21
0.1195419134848737
 31
0.0
  0
LINE
  5
179B
330
2
100
AcDbEntity
  8
Vista
100
AcDbLine
 10
0.2418696664055346
 20
0.1223781968266948
 30
0.0
 11
0.3774967354093235
 21
0.1223781968266948
 31
0.0
  0
LINE
  5
179C
330
2
100
AcDbEntity
  8
Vista
100
AcDbLine
 10
0.2418696664055347
 20
0.1244379988096469
 30
0.0
 11
0.3774967354093235
 21
0.1244379988096469
 31
0.0
  0
LINE
  5
179D
330
2
100
AcDbEntity
  8
Vista
100
AcDbLine
 10
0.2418696664055346
 20
0.1276627607191111
 30
0.0
 11
0.3774967354093235
 21
0.1276627607191111
 31
0.0
  0
LINE
  5
179E
330
2
100
AcDbEntity
  8
Vista
100
AcDbLine
 10
0.2418696664055347
 20
0.136755723203172
 30
0.0
 11
0.3774967354093234
 21
0.136755723203172
 31
0.0
  0
LINE
  5
179F
330
2
100
AcDbEntity
  8
Vista
100
AcDbLine
 10
0.2418696664055346
 20
0.1388784447443427
 30
0.0
 11
0.3774967354093234
 21
0.1388784447443427
 31
0.0
  0
LINE
  5
17A0
330
2
100
AcDbEntity
  8
Vista
100
AcDbLine
 10
0.2418696664055346
 20
0.1414643104447535
 30
0.0
 11
0.3774967354093234
 21
0.1414643104447535
 31
0.0
  0
LINE
  5
17A1
330
2
100
AcDbEntity
  8
Vista
 62
     3
100
AcDbLine
 10
0.2418696664055346
 20
0.1467527321187489
 30
0.0
 11
0.3774967354093234
 21
0.1467527321187489
 31
0.0
  0
LWPOLYLINE
  5
17A2
330
2
100
AcDbEntity
  8
Vista
370
     0
100
AcDbPolyline
 90
       14
 70
   128
 43
0.0
 10
0.2249866531224711
 20
0.0955242517275018
 10
0.2247494714545102
 20
0.0950501081360997
 10
0.2234483662578199
 20
0.0947900079809543
 10
0.2218870409736269
 20
0.0940097059768448
 10
0.2208461558644386
 20
0.0938146298988159
 10
0.2200004376055693
 20
0.0929693030482568
 10
0.2210413215249627
 20
0.0943998565942295
 10
0.2208461558644386
 20
0.0951151337518894
 10
0.2201305488391156
 20
0.0957653852937526
 10
0.2192197749634728
 20
0.0958304101402092
 10
0.2188294436424245
 20
0.095180158598339
 10
0.2179186697667825
 20
0.0949850832896502
 10
0.2164223989095673
 20
0.0958954349866588
 10
0.2172681171684374
 20
0.0969358379152539
  0
LWPOLYLINE
  5
17A3
330
2
100
AcDbEntity
  8
Vista
370
     0
100
AcDbPolyline
 90
        4
 70
   128
 43
0.0
 10
0.2249866531224711
 20
0.1079682553680963
 10
0.2246193614107597
 20
0.1081851909743747
 10
0.2235784774913663
 20
0.1087053920539986
 10
0.2224725379551993
 20
0.1087053920539986
  0
LWPOLYLINE
  5
17A4
330
2
100
AcDbEntity
  8
Vista
370
     0
100
AcDbPolyline
 90
       35
 70
   128
 43
0.0
 10
0.2249866531224711
 20
0.1097088716845641
 10
0.2246542652399714
 20
0.109739074853465
 10
0.2246542652399714
 20
0.1115885013180033
 10
0.2244860579569456
 20
0.1117566314861733
 10
0.2233086057859692
 20
0.1112522425203295
 10
0.2224675681810444
 20
0.109739074853465
 10
0.2222993597082237
 20
0.1087302961524443
 10
0.2211660025336481
 20
0.1082709947524236
 10
0.2202714931570959
 20
0.1083522763874924
 10
0.2196209405587508
 20
0.1087180429759584
 10
0.2191736846806798
 20
0.1078645873464268
 10
0.2189703879604057
 20
0.1070111324862211
 10
0.2181165374519907
 20
0.1065640842626863
 10
0.2168560911234367
 20
0.1062795993092891
 10
0.2159615817468854
 20
0.1063202401268199
 10
0.2152703702804031
 20
0.1069298508511594
 10
0.2149857534442647
 20
0.1075801023930225
 10
0.2149450933863335
 20
0.1080271506165573
 10
0.2144978386980574
 20
0.1096934202887638
 10
0.2144978386980574
 20
0.1103030310130961
 10
0.2144978386980574
 20
0.11148161241357
 10
0.2151483912964025
 20
0.1126195529965059
 10
0.2134813503375046
 20
0.1111564866426349
 10
0.2124242019190206
 20
0.1107500792366309
 10
0.2112450757063309
 20
0.1102217501473675
 10
0.2095366869879305
 20
0.1097516757687416
 10
0.2077801948534184
 20
0.1096866501529519
 10
0.2069344765945491
 20
0.1096866501529519
 10
0.2053731501205611
 20
0.1096866501529519
 10
0.2047876531389887
 20
0.1096216253065023
 10
0.204722597522216
 20
0.1091664490733279
 10
0.2044623762449191
 20
0.1087762984559362
 10
0.2037467692195953
 20
0.1087762984559362
 10
0.2030962166212502
 20
0.1087762984559362
 10
0.2013397244867381
 20
0.1087762984559362
  0
LWPOLYLINE
  5
17A5
330
2
100
AcDbEntity
  8
Vista
370
     0
100
AcDbPolyline
 90
       36
 70
   128
 43
0.0
 10
0.2249866531224711
 20
0.1161561936434286
 10
0.2216265305761196
 20
0.1162961337174337
 10
0.2179259644005738
 20
0.1152873557857461
 10
0.2132161533370773
 20
0.1137741881188816
 10
0.2101884186732246
 20
0.1129335395860309
 10
0.2086745507464016
 20
0.1127654094178609
 10
0.2073288901026036
 20
0.1136060579507117
 10
0.2054786076097281
 20
0.1149510962187392
 10
0.2046375700048033
 20
0.1146148366517323
 10
0.2046375700048033
 20
0.1132697991530378
 10
0.2043011554387517
 20
0.1132697991530378
 10
0.203460116644032
 20
0.1146148366517323
 10
0.2027872875119279
 20
0.115455485184583
 10
0.2016098341511565
 20
0.1159598741504269
 10
0.2012734195851049
 20
0.1144467072528954
 10
0.2004323819801801
 20
0.1157917447515899
 10
0.1995913443752553
 20
0.1162961337174337
 10
0.1985820994873046
 20
0.1161280043185968
 10
0.1985820994873046
 20
0.1146148366517323
 10
0.1985820994873046
 20
0.1129335395860309
 10
0.1970682315604808
 20
0.1146148366517323
 10
0.195554363633657
 20
0.1162961337174337
 10
0.1937040811407815
 20
0.1169686528514475
 10
0.1920220059309328
 20
0.1169686528514475
 10
0.1893306846433367
 20
0.1169686528514475
 10
0.1876486094334879
 20
0.1169686528514475
 10
0.1851254966187135
 20
0.1161280043185968
 10
0.1831070068428122
 20
0.1149510962187392
 10
0.1827705910869648
 20
0.1134379285518747
 10
0.1829387983699906
 20
0.1120928910531802
 10
0.183948044447737
 20
0.1120928910531802
 10
0.1879850251893345
 20
0.1127654094178609
 10
0.1905081380041089
 20
0.1132697991530378
 10
0.1928630435358576
 20
0.1132697991530378
 10
0.1953861563506312
 20
0.1120928910531802
 10
0.1970682315604808
 20
0.1094028152864581
  0
LWPOLYLINE
  5
17A6
330
2
100
AcDbEntity
  8
Vista
370
     0
100
AcDbPolyline
 90
       13
 70
   128
 43
0.0
 10
0.2249866531224711
 20
0.1024530869550587
 10
0.2242290300897114
 20
0.1029831778700938
 10
0.2230580349367717
 20
0.103113228332333
 10
0.2220171510173783
 20
0.1029831778700938
 10
0.2214967084627837
 20
0.1018777500950492
 10
0.2215617640795573
 20
0.1005772470113158
 10
0.2221472610611297
 20
0.0994718192362712
 10
0.222732759232497
 20
0.0985614667699224
 10
0.2229279248930212
 20
0.0977811647658129
 10
0.2236435319183441
 20
0.0982363409989873
 10
0.2238386975788682
 20
0.0992767439275753
 10
0.2239688088124145
 20
0.1003821717026199
 10
0.2239688088124145
 20
0.1018127252485996
  0
LWPOLYLINE
  5
17A7
330
2
100
AcDbEntity
  8
Vista
370
     0
100
AcDbPolyline
 90
       57
 70
   128
 43
0.0
 10
0.2418696664055346
 20
0.0918061467428022
 10
0.2428315403097301
 20
0.0916687999645163
 10
0.2444579224004908
 20
0.0917988504267626
 10
0.2462794689619807
 20
0.0918638752732122
 10
0.2491419006326589
 20
0.0918638752732122
 10
0.2520043311135423
 20
0.0919939257354514
 10
0.2549968728279719
 20
0.0917988504267626
 10
0.2569485306230073
 20
0.091538749502277
 10
0.2590953540785676
 20
0.0912786485777986
 10
0.2614373431946522
 20
0.0909535228068634
 10
0.2639744979712599
 20
0.0914086990400378
 10
0.2659912113830689
 20
0.0921890010441473
 10
0.2693740844185468
 20
0.0936845802059097
 10
0.2717811291514032
 20
0.0948550328274038
 10
0.2753591678474052
 20
0.096740762606558
 10
0.2780914882845371
 20
0.0990166430030968
 10
0.2792624834374768
 20
0.1009023727822509
 10
0.280563588634168
 20
0.1025280016369194
 10
0.2806286430611458
 20
0.100187096393924
 10
0.2806286430611458
 20
0.097260963686189
 10
0.279913036035822
 20
0.0947900079809543
 10
0.2789372065434073
 20
0.0938146298988159
 10
0.277440935686192
 20
0.0932944288191919
 10
0.2756193891247021
 20
0.0923840763528432
 10
0.2755543335079293
 20
0.0912786485777986
 10
0.2781565439013107
 20
0.0912786485777986
 10
0.2796528147585251
 20
0.0912786485777986
 10
0.2812791956594909
 20
0.0916687999645163
 10
0.2826453564729547
 20
0.0925141268150824
 10
0.2837512960091208
 20
0.0948550328274038
 10
0.2838163504360995
 20
0.0960254854489051
 10
0.2851825112495625
 20
0.0948550328274038
 10
0.2871992234715765
 20
0.0930343278947064
 10
0.2892809925001591
 20
0.0923840763528432
 10
0.2914278159557186
 20
0.0920589505819081
 10
0.2956564072500658
 20
0.0916687999645163
 10
0.2985838933477218
 20
0.0919939257354514
 10
0.3006006067595308
 20
0.0932944288191919
 10
0.3022920432772702
 20
0.095180158598339
 10
0.3037883141344846
 20
0.0980412656902914
 10
0.3053496394186776
 20
0.0993417687740319
 10
0.3072362427867352
 20
0.1006422718577653
 10
0.3050894193311748
 20
0.1010324232444901
 10
0.3039834797950087
 20
0.1009023727822509
 10
0.3034630372404141
 20
0.101552624324114
 10
0.302812484642069
 20
0.1021378510195277
 10
0.3022920432772702
 20
0.1020728261730781
 10
0.3018366563394483
 20
0.1011624737067294
 10
0.3015113794453788
 20
0.1010324232444901
 10
0.3013812694016273
 20
0.1018777500950492
 10
0.3002753298654612
 20
0.1043487065696169
 10
0.2997548885006616
 20
0.1052590590359657
 10
0.2989091702417923
 20
0.1062994611952206
 10
0.2975430094283284
 20
0.1073398641238086
 10
0.2961117941878868
 20
0.1081851909743747
 10
0.2950709102684934
 20
0.1087053920539986
 10
0.2939649707323273
 20
0.1087053920539986
  0
LINE
  5
17A9
330
2
100
AcDbEntity
  8
Vista
 62
     6
100
AcDbLine
 10
0.2418696664055346
 20
0.0767093278177029
 30
0.0
 11
0.2418696664055346
 21
0.1467527321187489
 31
0.0
  0
LINE
  5
17AA
330
2
100
AcDbEntity
  8
Vista
 62
     6
100
AcDbLine
 10
0.3774967354093234
 20
0.0767093278177029
 30
0.0
 11
0.3774967354093234
 21
0.1467527321187489
 31
0.0
  0
LINE
  5
17AB
330
2
100
AcDbEntity
  8
Vista
 62
     3
100
AcDbLine
 10
0.2325910517772627
 20
0.2037510830980267
 30
0.0
 11
0.3314196338977879
 21
0.2247577467082889
 31
0.0
  0
LWPOLYLINE
  5
17AC
330
2
100
AcDbEntity
  8
Profilo
370
     0
100
AcDbPolyline
 90
       29
 70
   128
 43
0.0
 10
0.3175496319716515
 20
0.1897360445577659
 10
0.3175496319716515
 20
0.1915012530716892
 10
0.318337399146067
 20
0.1918023188753294
 10
0.3184995866306863
 20
0.1924739271430097
 10
0.319032487879447
 20
0.1928213107202451
 42
0.7138628020630565
 10
0.3196348981717918
 20
0.1952529957609285
 10
0.3196348981717918
 20
0.1958088095945995
 10
0.3185922650717217
 20
0.1965267356358821
 10
0.3184764168076057
 20
0.2004637499699667
 10
0.3190088277257743
 20
0.2009600421041325
 10
0.319055166946292
 20
0.2014463792773965
 10
0.318777131623186
 20
0.201863239515046
 10
0.3190783367693584
 20
0.2022106230922814
 10
0.3190783367693584
 20
0.2026506424919502
 10
0.3182673997718766
 20
0.2029053905219809
 10
0.3182673997718766
 20
0.2031369793899996
 10
0.3185454350949683
 20
0.2033685685332328
 10
0.318244229948796
 20
0.2042254481705369
 10
0.3188234708437037
 20
0.2049896919854218
 10
0.3183600782129119
 20
0.2054760291586929
 10
0.3183137389923942
 20
0.2063792265696064
 10
0.3186844531821649
 20
0.2067497690336465
 10
0.3185686049180489
 20
0.207027675950482
 10
0.3189856579026937
 20
0.2079540322481931
 10
0.3190088277257743
 20
0.208718276063078
 10
0.3180579502917951
 20
0.2094894097204088
 10
0.3181042895123127
 20
0.2112263276066072
 42
0.826291144803039
 10
0.3189847355533928
 20
0.2120600483571136
 42
-0.1714022880391009
 10
0.3189274899643735
 20
0.2123056657548176
 42
-0.1714022880391009
  0
LINE
  5
17AD
330
2
100
AcDbEntity
  8
Vista
 62
     3
100
AcDbLine
 10
0.2261755535241008
 20
0.2037510830980267
 30
0.0
 11
0.3250041356446261
 21
0.2247577467082889
 31
0.0
  0
LINE
  5
17AE
330
2
100
AcDbEntity
  8
Vista
100
AcDbLine
 10
0.2325910517772627
 20
0.201106872261029
 30
0.0
 11
0.3314196338977879
 21
0.2221135358712912
 31
0.0
  0
LINE
  5
17AF
330
2
100
AcDbEntity
  8
Vista
100
AcDbLine
 10
0.2305317262788257
 20
0.1998139394108237
 30
0.0
 11
0.329360308399351
 21
0.220820603021086
 31
0.0
  0
LINE
  5
17B0
330
2
100
AcDbEntity
  8
Vista
100
AcDbLine
 10
0.2244012175998966
 20
0.1942060973982077
 30
0.0
 11
0.3232096359120149
 21
0.2155136654115607
 31
0.0
  0
LINE
  5
17B1
330
2
100
AcDbEntity
  8
Vista
100
AcDbLine
 10
0.2213447565034414
 20
0.1915638154519996
 30
0.0
 11
0.3201733386239667
 21
0.2125704790622619
 31
0.0
  0
LINE
  5
17B2
330
2
100
AcDbEntity
  8
Vista
100
AcDbLine
 10
0.2196627054311366
 20
0.1901042703974314
 30
0.0
 11
0.3181042895123127
 21
0.2112263276066072
 31
0.0
  0
LINE
  5
17B3
330
2
100
AcDbEntity
  8
Vista
100
AcDbLine
 10
0.2197636829511964
 20
0.1755200720256198
 30
0.0
 11
0.3185922650717217
 21
0.1965267356358821
 31
0.0
  0
LINE
  5
17B4
330
2
100
AcDbEntity
  8
Vista
100
AcDbLine
 10
0.2208063160512665
 20
0.1742463321506662
 30
0.0
 11
0.3196348981717918
 21
0.1952529957609285
 31
0.0
  0
LINE
  5
17B5
330
2
100
AcDbEntity
  8
Vista
100
AcDbLine
 10
0.2196710045101611
 20
0.1714672635327474
 30
0.0
 11
0.3184995866306863
 21
0.1924739271430097
 31
0.0
  0
LINE
  5
17B6
330
2
100
AcDbEntity
  8
Vista
100
AcDbLine
 10
0.2195088170255417
 20
0.1707956552650671
 30
0.0
 11
0.318337399146067
 21
0.1918023188753294
 31
0.0
  0
LINE
  5
17B7
330
2
100
AcDbEntity
  8
Vista
 62
     3
100
AcDbLine
 10
0.2187210498511263
 20
0.1687293809475037
 30
0.0
 11
0.3175496319716515
 21
0.1897360445577659
 31
0.0
  0
LINE
  5
17B8
330
2
100
AcDbEntity
  8
Vista
100
AcDbLine
 10
0.2208063160512665
 20
0.1748021459843372
 30
0.0
 11
0.3196348981717918
 21
0.1958088095945995
 31
0.0
  0
LWPOLYLINE
  5
17B9
330
2
100
AcDbEntity
  8
Profilo
370
     0
100
AcDbPolyline
 90
        9
 70
   128
 43
0.0
 10
0.3201733386239667
 20
0.2125704790622619
 42
0.4612808041513015
 10
0.3211078670228531
 20
0.2136003800537379
 42
-0.3469312477728582
 10
0.3213054340730892
 20
0.2139296935508709
 42
0.1759727949809664
 10
0.3229668179879113
 20
0.2153603775635529
 42
-0.2533174427135376
 10
0.3232096359120149
 20
0.2155136654115607
 42
0.3508177978536253
 10
0.323823069704396
 20
0.2160757198451121
 42
-0.3441378588023027
 10
0.3277483329532274
 20
0.2197592422505009
 42
0.292859065021645
 10
0.3282101196662026
 20
0.2201180347727286
 42
-0.171092841098108
 10
0.3286567607430166
 20
0.2206710593502845
 42
-0.171092841098108
  0
LWPOLYLINE
  5
17BA
330
2
100
AcDbEntity
  8
Profilo
370
     0
100
AcDbPolyline
 90
        3
 70
   128
 43
0.0
 10
0.3314196338977879
 20
0.2221135358712912
 10
0.3314196338977879
 20
0.2247577467082889
 10
0.325004135644626
 20
0.2247577467082889
  0
LWPOLYLINE
  5
17BB
330
2
100
AcDbEntity
  8
Profilo
370
     0
100
AcDbPolyline
 90
        3
 70
   128
 43
0.0
 10
0.3293603083993517
 20
0.2208206030210858
 42
0.4623904203513735
 10
0.3297437047856064
 20
0.2211654999910491
 42
-0.1913487113439481
 10
0.3299779954202197
 20
0.2218071061533281
  0
DIMENSION
  5
17BC
102
{ACAD_XDICTIONARY
360
17CA
102
}
102
{ACAD_REACTORS
330
17D5
102
}
330
2
100
AcDbEntity
  8
Dimensione
100
AcDbDimension
  2
*D42
 10
0.1025128243567604
 20
0.1047302408792916
 30
0.0
 11
0.0869247385076999
 21
0.1047302408792916
 31
0.0
 70
    32
  1
70 mm
 71
     5
 42
0.0311761716981209
  3
Bovelacci
100
AcDbAlignedDimension
 13
0.0713366526586395
 23
0.1276526842697515
 33
0.0
 14
0.1025128243567604
 24
0.1924076668968021
 34
0.0
100
AcDbRotatedDimension
  0
DIMENSION
  5
17F0
102
{ACAD_XDICTIONARY
360
17FE
102
}
102
{ACAD_REACTORS
330
1809
102
}
330
2
100
AcDbEntity
  8
Dimensione
100
AcDbDimension
  2
*D44
 10
0.1302782170689909
 20
0.1976960885707976
 30
0.0
 11
0.1302782170689909
 21
0.1626743864202746
 31
0.0
 70
    32
  1
140 mm
 71
     5
 42
0.070043404301046
  3
Bovelacci
100
AcDbAlignedDimension
 13
0.0747728205044876
 23
0.1276526842697515
 33
0.0
 14
0.1025128243567604
 24
0.1976960885707976
 34
0.0
 50
90.0
100
AcDbRotatedDimension
  0
VIEWPORT
  5
7B
102
{ACAD_XDICTIONARY
360
1811
102
}
330
79
100
AcDbEntity
 67
     1
  8
0
100
AcDbViewport
 10
145.330337524414
 20
101.8116638660431
 30
0.0
 40
351.1337450215151
 41
222.1517806396485
 68
     1
 69
     1
 12
145.330337524414
 22
101.8116638660431
 13
0.0
 23
0.0
 14
10.0
 24
10.0
 15
10.0
 25
10.0
 16
0.0
 26
0.0
 36
1.0
 17
0.0
 27
0.0
 37
0.0
 42
50.0
 43
0.0
 44
0.0
 45
222.1517806396485
 50
0.0
 51
0.0
 72
  1000
 90
    32800
  1

281
     0
 71
     1
 74
     0
110
0.0
120
0.0
130
0.0
111
1.0
121
0.0
131
0.0
112
0.0
122
1.0
132
0.0
 79
     0
146
0.0
  0
VIEWPORT
  5
80
102
{ACAD_XDICTIONARY
360
1813
102
}
330
79
100
AcDbEntity
 67
     1
  8
Sezione
100
AcDbViewport
 10
145.3303314447403
 20
101.8116623163223
 30
0.0
 40
232.5285303115845
 41
162.8986597061157
 68
     2
 69
     2
 12
0.2100067158578973
 22
0.1484909068076998
 13
0.0
 23
0.0
 14
10.0
 24
10.0
 15
10.0
 25
10.0
 16
0.0
 26
0.0
 36
1.0
 17
0.0
 27
0.0
 37
0.0
 42
50.0
 43
0.0
 44
0.0
 45
0.2752830087467564
 50
0.0
 51
0.0
 72
  1000
 90
    32864
  1

281
     0
 71
     1
 74
     0
110
0.0
120
0.0
130
0.0
111
1.0
121
0.0
131
0.0
112
0.0
122
1.0
132
0.0
 79
     0
146
0.0
  0
ENDSEC
  0
SECTION
  2
OBJECTS
  0
DICTIONARY
  5
9
330
0
100
AcDbDictionary
281
     1
  3
ACAD_2007HEADERVARS_RT
350
14A
  3
ACAD_COLOR
350
A1
  3
ACAD_GROUP
350
9C
  3
ACAD_LAYOUT
350
78
  3
ACAD_MATERIAL
350
B
  3
ACAD_MLINESTYLE
350
9D
  3
ACAD_PLOTSETTINGS
350
9E
  3
ACAD_PLOTSTYLENAME
350
8
  3
ACAD_TABLESTYLE
350
A2
  3
ACAD_VISUALSTYLE
350
7F
  3
ACDBHEADERROUNDTRIPXREC
350
180E
  3
AcDbVariableDictionary
350
A9
  3
AEC_CLASSIFICATION_SYSTEM_DEFS
350
1217
  3
AEC_PROPERTY_SET_DEFS
350
10D
  3
DWGPROPS
350
180D
  0
DICTIONARY
  5
8B
330
8A
100
AcDbDictionary
280
     1
281
     1
  3
ACAD_LAYERFILTERS
360
48D
  3
ACAD_LAYERSTATES
360
8D
  3
ACLYDICTIONARY
360
48C
  0
DICTIONARY
  5
3
330
2
100
AcDbDictionary
280
     1
281
     1
  3
ACAD_SORTENTS
360
A8
  0
DICTIONARY
  5
B6D
330
B69
100
AcDbDictionary
280
     1
281
     1
  3
ACAD_SORTENTS
360
B6E
  0
DICTIONARY
  5
10D6
330
FEB
100
AcDbDictionary
280
     1
281
     1
  0
DICTIONARY
  5
1818
330
10F
100
AcDbDictionary
280
     1
281
     1
  3
ACAD_MTEXT_RT
360
1819
  0
DICTIONARY
  5
17CA
330
17BC
100
AcDbDictionary
280
     1
281
     1
  3
ACAD_DIMASSOC
360
17D5
  0
DICTIONARY
  5
17FE
330
17F0
100
AcDbDictionary
280
     1
281
     1
  3
ACAD_DIMASSOC
360
1809
  0
DICTIONARY
  5
1811
330
7B
100
AcDbDictionary
280
     1
281
     1
  3
ACAD_XREC_ROUNDTRIP
360
1812
  0
DICTIONARY
  5
1813
330
80
100
AcDbDictionary
280
     1
281
     1
  3
ACAD_XREC_ROUNDTRIP
360
1814
  0
DICTIONARY
  5
14A
102
{ACAD_REACTORS
330
9
102
}
330
9
100
AcDbDictionary
281
     1
  3
DIMFXL
350
14B
  0
DICTIONARY
  5
A1
102
{ACAD_REACTORS
330
9
102
}
330
9
100
AcDbDictionary
281
     1
  0
DICTIONARY
  5
9C
102
{ACAD_REACTORS
330
9
102
}
330
9
100
AcDbDictionary
281
     1
  0
DICTIONARY
  5
78
102
{ACAD_REACTORS
330
9
102
}
330
9
100
AcDbDictionary
281
     1
  3
Layout1
350
82
  3
Layout2
350
89
  3
Model
350
77
  0
DICTIONARY
  5
B
102
{ACAD_REACTORS
330
9
102
}
330
9
100
AcDbDictionary
281
     1
  3
ByBlock
350
A0
  3
ByLayer
350
9F
  3
Global
350
A
  0
DICTIONARY
  5
9D
102
{ACAD_REACTORS
330
9
102
}
330
9
100
AcDbDictionary
281
     1
  3
Standard
350
A3
  0
DICTIONARY
  5
9E
102
{ACAD_REACTORS
330
9
102
}
330
9
100
AcDbDictionary
281
     1
  0
ACDBDICTIONARYWDFLT
  5
8
102
{ACAD_REACTORS
330
9
102
}
330
9
100
AcDbDictionary
281
     1
  3
Normal
350
7
100
AcDbDictionaryWithDefault
340
7
  0
DICTIONARY
  5
A2
102
{ACAD_REACTORS
330
9
102
}
330
9
100
AcDbDictionary
281
     1
  3
Standard
350
A4
  0
DICTIONARY
  5
7F
102
{ACAD_REACTORS
330
9
102
}
330
9
100
AcDbDictionary
281
     1
  3
2dWireframe
350
7E
  3
3D Hidden
350
D8
  3
3dWireframe
350
A6
  3
Basic
350
D7
  3
Brighten
350
DB
  3
ColorChange
350
DF
  3
Conceptual
350
D9
  3
Dim
350
DA
  3
Facepattern
350
DE
  3
Flat
350
D3
  3
FlatWithEdges
350
D4
  3
Gouraud
350
D5
  3
GouraudWithEdges
350
D6
  3
Linepattern
350
DD
  3
Realistic
350
A5
  3
Thicken
350
DC
  0
DICTIONARY
  5
180E
102
{ACAD_REACTORS
330
9
102
}
330
9
100
AcDbDictionary
281
     1
  0
DICTIONARY
  5
A9
102
{ACAD_REACTORS
330
9
102
}
330
9
100
AcDbDictionary
281
     1
  3
CTABLESTYLE
350
AA
  3
DIMASSOC
350
AE
  3
HIDETEXT
350
AD
  3
INDEXCTL
350
AC
  3
PROJECTNAME
350
16A
  3
SORTENTS
350
AB
  0
DICTIONARY
  5
1217
102
{ACAD_REACTORS
330
9
102
}
330
9
100
AcDbDictionary
281
     1
  0
DICTIONARY
  5
10D
102
{ACAD_REACTORS
330
9
102
}
330
9
100
AcDbDictionary
281
     1
  0
XRECORD
  5
180D
102
{ACAD_REACTORS
330
9
102
}
330
9
100
AcDbXrecord
280
     1
  1
DWGPROPS COOKIE
  2

  3

  4

  6

  7

  8
Mario
  9

300
=
301
=
302
=
303
=
304
=
305
=
306
=
307
=
308
=
309
=
 40
0.2613228935185185
 41
2454297.625402373
 42
2454331.595826817
  1

 90
        0
  0
DICTIONARY
  5
48D
102
{ACAD_REACTORS
330
8B
102
}
330
8B
100
AcDbDictionary
281
     1
  0
DICTIONARY
  5
8D
102
{ACAD_REACTORS
330
8B
102
}
330
8B
100
AcDbDictionary
281
     1
  0
DICTIONARY
  5
48C
102
{ACAD_REACTORS
330
8B
102
}
330
8B
100
AcDbDictionary
281
     1
1001
ACAD
1000
<All
  0
SORTENTSTABLE
  5
A8
102
{ACAD_REACTORS
330
3
102
}
330
3
100
AcDbSortentsTable
330
2
331
22
  5
23
331
1720
  5
172A
331
179E
  5
1792
331
1728
  5
1732
331
16E9
  5
16F1
331
17A6
  5
16DF
331
16F1
  5
16F9
331
17AE
  5
17B1
331
16F9
  5
1702
331
17B6
  5
17B9
331
13
  5
D
331
110
  5
110
331
1701
  5
170A
331
1709
  5
1712
331
1787
  5
1793
331
1711
  5
171A
331
178F
  5
17A1
331
1719
  5
1723
331
1797
  5
17A0
331
16D8
  5
16DB
331
23
  5
24
331
1721
  5
172B
331
179F
  5
1790
331
1729
  5
1733
331
16EA
  5
16F2
331
17A7
  5
1700
331
16F2
  5
16FA
331
17AF
  5
17B2
331
16FA
  5
1703
331
17B7
  5
17BA
331
14
  5
10
331
1702
  5
170B
331
170A
  5
1713
331
1780
  5
16EA
331
1788
  5
1795
331
1712
  5
171B
331
1790
  5
17A3
331
171A
  5
1724
331
16D9
  5
16DE
331
24
  5
18
331
1798
  5
179E
331
1722
  5
172C
331
16E3
  5
16EB
331
17A0
  5
178E
331
172A
  5
1734
331
16EB
  5
16F3
331
16F3
  5
16FB
331
17B0
  5
17B3
331
16FB
  5
1704
331
D
  5
13
331
15
  5
11
331
1D
  5
1E
331
17B8
  5
17BB
331
1703
  5
170C
331
170B
  5
1714
331
1713
  5
171C
331
171B
  5
1725
331
16D2
  5
16D2
331
16DA
  5
16E0
331
25
  5
25
331
1799
  5
179C
331
1723
  5
172D
331
16E4
  5
16EC
331
17A1
  5
178C
331
172B
  5
1735
331
16EC
  5
16F4
331
17A9
  5
17A9
331
16F4
  5
16FC
331
17B1
  5
17B4
331
16FC
  5
1705
331
16
  5
12
331
1E
  5
1F
331
1CA
  5
1CA
331
17B9
  5
17AD
331
1704
  5
170D
331
170C
  5
1715
331
1782
  5
16DC
331
178A
  5
1797
331
1714
  5
171D
331
171C
  5
1726
331
16D3
  5
16D4
331
16DB
  5
16E1
331
179A
  5
179A
331
1724
  5
172E
331
16E5
  5
16ED
331
172C
  5
1736
331
17A2
  5
16E2
331
16ED
  5
16F5
331
17AA
  5
17AA
331
16F5
  5
16FD
331
17B2
  5
17B5
331
16FD
  5
1706
331
17
  5
17
331
1F
  5
21
331
17BA
  5
17AF
331
1705
  5
170E
331
1783
  5
178B
331
170D
  5
1716
331
178B
  5
1799
331
1715
  5
171E
331
171D
  5
1727
331
16D4
  5
16D6
331
16DC
  5
16E5
331
11A4
  5
11A4
331
27
  5
27
331
179B
  5
1798
331
1725
  5
172F
331
16E6
  5
16EE
331
172D
  5
1737
331
17A3
  5
16DD
331
16EE
  5
16F6
331
17AB
  5
17AB
331
16F6
  5
16FE
331
17B3
  5
17B6
331
16FE
  5
1707
331
10
  5
14
331
17BB
  5
17AE
331
1706
  5
170F
331
1784
  5
178D
331
170E
  5
1717
331
178C
  5
179B
331
1716
  5
171F
331
171E
  5
1728
331
1794
  5
1720
331
16D5
  5
16D7
331
11A5
  5
11A5
331
179C
  5
1796
331
1726
  5
1730
331
16E7
  5
16EF
331
172E
  5
1738
331
17A4
  5
16D5
331
16EF
  5
16F7
331
17AC
  5
17AC
331
16F7
  5
16FF
331
17B4
  5
17B7
331
1775
  5
1787
331
16FF
  5
1708
331
11
  5
15
331
177D
  5
1788
331
1707
  5
1710
331
1785
  5
178F
331
170F
  5
1718
331
178D
  5
179D
331
1717
  5
1721
331
1795
  5
17A4
331
171F
  5
1729
331
16D6
  5
16D8
331
11A6
  5
11A6
331
21
  5
22
331
16E0
  5
16E9
331
179D
  5
1794
331
1727
  5
1731
331
16E8
  5
16F0
331
17A5
  5
16D3
331
16F0
  5
16F8
331
17AD
  5
17B0
331
16F8
  5
1701
331
17B5
  5
17B8
331
12
  5
16
331
10F
  5
10F
331
1700
  5
1709
331
177E
  5
178A
331
1708
  5
1711
331
1786
  5
1791
331
1710
  5
1719
331
178E
  5
179F
331
1718
  5
1722
331
1796
  5
17A2
331
16D7
  5
16DA
331
16DF
  5
16E8
  0
SORTENTSTABLE
  5
B6E
102
{ACAD_REACTORS
330
B6D
102
}
330
B6D
100
AcDbSortentsTable
330
B69
  0
XRECORD
  5
1819
102
{ACAD_REACTORS
330
1818
102
}
330
1818
100
AcDbXrecord
280
     1
 40
7955300.0
  1
\pt0.09;{\fTimes New Roman|b0|i0|c238|p18;\H1.6x;\C4;Bovelacci\P\H0.4375x;\T0.95;via del Commercio, 5  47100 Forli - Italy  \fTimes New Roman|b0|i0|c0|p18;\P\fTimes New Roman|b0|i0|c238|p18;tel.+39-0543721386  fax +39-0543721127\fTimes New Roman|b0|i
  1
0|c0|p18; \fTimes New Roman|b0|i0|c238|p18;www.bovelacci.it\fTimes New Roman|b0|i0|c0|p18; \fTimes New Roman|b0|i0|c238|p18;e-mail: bovelacci@bovelacci\fTimes New Roman|b0|i0|c0|p18;.it}
  0
DIMASSOC
  5
17D5
102
{ACAD_REACTORS
330
17CA
102
}
330
17CA
100
AcDbDimAssoc
330
17BC
 90
        3
 70
     0
 71
     0
  1
AcDbOsnapPointRef
 72
    13
331
1775
 73
     2
 91
        2
 40
0.0
 10
0.0
 20
0.0
 30
2.000000000000000E+50
 75
     0
  1
AcDbOsnapPointRef
 72
     1
331
1775
 73
     2
 91
       42
 40
1.0
 10
0.0
 20
0.0
 30
2.000000000000000E+50
 75
     0
  0
DIMASSOC
  5
1809
102
{ACAD_REACTORS
330
17FE
102
}
330
17FE
100
AcDbDimAssoc
330
17F0
 90
        3
 70
     0
 71
     0
  1
AcDbOsnapPointRef
 72
     1
331
1775
 73
     2
 91
        2
 40
0.9999999999999998
 10
0.0
 20
0.0
 30
2.000000000000000E+50
 75
     0
  1
AcDbOsnapPointRef
 72
     1
331
1775
 73
     2
 91
       43
 40
1.0
 10
0.0
 20
0.0
 30
2.000000000000000E+50
 75
     0
  0
XRECORD
  5
1812
102
{ACAD_REACTORS
330
1811
102
}
330
1811
100
AcDbXrecord
280
     1
102
SHADEPLOT
 70
     0
  0
XRECORD
  5
1814
102
{ACAD_REACTORS
330
1813
102
}
330
1813
100
AcDbXrecord
280
     1
102
SHADEPLOT
 70
     0
  0
XRECORD
  5
14B
102
{ACAD_REACTORS
330
14A
102
}
330
14A
100
AcDbXrecord
280
     1
 40
0.18
  0
LAYOUT
  5
82
102
{ACAD_XDICTIONARY
360
83
102
}
102
{ACAD_REACTORS
330
78
102
}
330
78
100
AcDbPlotSettings
  1

  2
C:\Documents and Settings\All Users\Dati applicazioni\Autodesk\ADT 2006\enu\Plotters\Default Windows System Printer.pc3
  4
A4
  6

 40
3.174999952316281
 41
3.174999952316281
 42
3.175003051757812
 43
3.17498779296875
 44
209.9733276367186
 45
297.0106506347656
 46
0.0
 47
0.0
 48
0.0
 49
0.0
140
0.0
141
0.0
142
1.0
143
1.0
 70
   688
 72
     1
 73
     1
 74
     5
  7

 75
    16
147
1.0
148
0.0
149
0.0
100
AcDbLayout
  1
Layout1
 70
     1
 71
     1
 10
-3.17498779296875
 20
-3.174999952316281
 11
293.8356628417969
 21
206.7983276844024
 12
0.0
 22
0.0
 32
0.0
 14
29.06606628894805
 24
20.36233246326446
 34
0.0
 15
261.5945966005325
 25
183.2609921693802
 35
0.0
146
0.0
 13
0.0
 23
0.0
 33
0.0
 16
1.0
 26
0.0
 36
0.0
 17
0.0
 27
1.0
 37
0.0
 76
     0
330
79
331
7B
1001
ACAD_PSEXT
1000
C:\Documents and Settings\All Users\Dati applicazioni\Autodesk\ADT 2006\enu\Plotters\Default Windows System Printer.pc3
1000
Microsoft Office Document Image Writer Driver
1000
Microsoft Document Imaging Writer Port:
1000

1070
     0
  0
LAYOUT
  5
89
102
{ACAD_XDICTIONARY
360
1816
102
}
102
{ACAD_REACTORS
330
78
102
}
330
78
100
AcDbPlotSettings
  1

  2
C:\Documents and Settings\All Users\Dati applicazioni\Autodesk\ADT 2006\enu\Plotters\Default Windows System Printer.pc3
  4

  6

 40
0.0
 41
0.0
 42
0.0
 43
0.0
 44
0.0
 45
0.0
 46
0.0
 47
0.0
 48
0.0
 49
0.0
140
0.0
141
0.0
142
1.0
143
1.0
 70
   688
 72
     0
 73
     0
 74
     5
  7

 75
    16
147
1.0
148
0.0
149
0.0
100
AcDbLayout
  1
Layout2
 70
     1
 71
     2
 10
0.0
 20
0.0
 11
12.0
 21
9.0
 12
0.0
 22
0.0
 32
0.0
 14
0.0
 24
0.0
 34
0.0
 15
0.0
 25
0.0
 35
0.0
146
0.0
 13
0.0
 23
0.0
 33
0.0
 16
1.0
 26
0.0
 36
0.0
 17
0.0
 27
1.0
 37
0.0
 76
     0
330
86
  0
LAYOUT
  5
77
102
{ACAD_XDICTIONARY
360
180F
102
}
102
{ACAD_REACTORS
330
78
102
}
330
78
100
AcDbPlotSettings
  1

  2
C:\Documents and Settings\All Users\Dati applicazioni\Autodesk\ADT 2006\enu\Plotters\Default Windows System Printer.pc3
  4

  6

 40
0.0
 41
0.0
 42
0.0
 43
0.0
 44
0.0
 45
0.0
 46
0.0
 47
0.0
 48
0.0
 49
0.0
140
0.0
141
0.0
142
1.0
143
1.0
 70
  1712
 72
     0
 73
     0
 74
     0
  7

 75
     0
147
1.0
148
0.0
149
0.0
100
AcDbLayout
  1
Model
 70
     1
 71
     0
 10
0.0
 20
0.0
 11
12.0
 21
9.0
 12
0.0
 22
0.0
 32
0.0
 14
0.0
 24
0.0
 34
0.0
 15
0.0
 25
0.0
 35
0.0
146
0.0
 13
0.0
 23
0.0
 33
0.0
 16
1.0
 26
0.0
 36
0.0
 17
0.0
 27
1.0
 37
0.0
 76
     0
330
2
  0
MATERIAL
  5
A0
102
{ACAD_XDICTIONARY
360
C7
102
}
102
{ACAD_REACTORS
330
B
102
}
330
B
100
AcDbMaterial
  1
ByBlock
  0
MATERIAL
  5
9F
102
{ACAD_XDICTIONARY
360
C5
102
}
102
{ACAD_REACTORS
330
B
102
}
330
B
100
AcDbMaterial
  1
ByLayer
  0
MATERIAL
  5
A
102
{ACAD_XDICTIONARY
360
B1
102
}
102
{ACAD_REACTORS
330
B
102
}
330
B
100
AcDbMaterial
  1
Global
  0
MLINESTYLE
  5
A3
102
{ACAD_REACTORS
330
9D
102
}
330
9D
100
AcDbMlineStyle
  2
STANDARD
 70
     0
  3

 62
   256
 51
90.0
 52
90.0
 71
     2
 49
0.5
 62
   256
  6
BYLAYER
 49
-0.5
 62
   256
  6
BYLAYER
  0
ACDBPLACEHOLDER
  5
7
102
{ACAD_REACTORS
330
8
102
}
330
8
  0
TABLESTYLE
  5
A4
102
{ACAD_XDICTIONARY
360
155
102
}
102
{ACAD_REACTORS
330
A2
102
}
330
A2
100
AcDbTableStyle
  3
Standard
 70
     0
 71
     0
 40
1.5
 41
1.5
280
     0
281
     0
  7
Standard
140
4.5
170
     2
 62
     0
 63
     7
283
     0
274
    -2
284
     1
 64
     0
275
    -2
285
     1
 65
     0
276
    -2
286
     1
 66
     0
277
    -2
287
     1
 67
     0
278
    -2
288
     1
 68
     0
279
    -2
289
     1
 69
     0
  7
Standard
140
6.0
170
     5
 62
     0
 63
     7
283
     0
274
    -2
284
     1
 64
     0
275
    -2
285
     1
 65
     0
276
    -2
286
     1
 66
     0
277
    -2
287
     1
 67
     0
278
    -2
288
     1
 68
     0
279
    -2
289
     1
 69
     0
  7
Standard
140
4.5
170
     5
 62
     0
 63
     7
283
     0
274
    -2
284
     1
 64
     0
275
    -2
285
     1
 65
     0
276
    -2
286
     1
 66
     0
277
    -2
287
     1
 67
     0
278
    -2
288
     1
 68
     0
279
    -2
289
     1
 69
     0
  0
VISUALSTYLE
  5
7E
102
{ACAD_REACTORS
330
7F
102
}
330
7F
100
AcDbVisualStyle
  2
2dWireframe
 70
     4
 71
     0
 72
     2
 73
     0
 90
        0
 40
-0.6
 41
-30.0
 62
     5
 63
     7
 74
     1
 91
        4
 64
     7
 65
   257
 75
     1
175
     1
 42
1.0
 92
        0
 66
   257
 43
1.0
 76
     1
 77
     6
 78
     2
 67
     7
 79
     5
170
     0
171
     0
290
     0
174
     0
 93
        1
 44
0.0
173
     0
291
     0
 45
0.0
1001
ACAD
1000
AcDbSavedByObjectVersion
1070
     0
1000
AcDbSavedByObjectVersion
1070
     0
1000
AcDbSavedByObjectVersion
1070
     0
1001
ACAD
1000
AcRTDxfName
1000
VISUALSTYLE
  0
VISUALSTYLE
  5
D8
102
{ACAD_REACTORS
330
7F
102
}
330
7F
100
AcDbVisualStyle
  2
3D Hidden
 70
     6
 71
     1
 72
     2
 73
     2
 90
        0
 40
-0.6
 41
-30.0
 62
     5
 63
     7
 74
     2
 91
        2
 64
     7
 65
   257
 75
     2
175
     1
 42
40.0
 92
        0
 66
   257
 43
1.0
 76
     1
 77
     6
 78
     2
 67
     7
 79
     3
170
     0
171
     0
290
     0
174
     0
 93
        1
 44
0.0
173
     0
291
     0
 45
0.0
1001
ACAD
1000
AcDbSavedByObjectVersion
1070
     0
1000
AcDbSavedByObjectVersion
1070
     0
1001
ACAD
1000
AcRTDxfName
1000
VISUALSTYLE
  0
VISUALSTYLE
  5
A6
102
{ACAD_REACTORS
330
7F
102
}
330
7F
100
AcDbVisualStyle
  2
3dWireframe
 70
     5
 71
     0
 72
     2
 73
     0
 90
        0
 40
-0.6
 41
-30.0
 62
     5
 63
     7
 74
     1
 91
        4
 64
     7
 65
   257
 75
     1
175
     1
 42
1.0
 92
        0
 66
   257
 43
1.0
 76
     1
 77
     6
 78
     2
 67
     7
 79
     5
170
     0
171
     0
290
     0
174
     0
 93
        1
 44
0.0
173
     0
291
     0
 45
0.0
1001
ACAD
1000
AcDbSavedByObjectVersion
1070
     0
1000
AcDbSavedByObjectVersion
1070
     0
1000
AcDbSavedByObjectVersion
1070
     0
1001
ACAD
1000
AcRTDxfName
1000
VISUALSTYLE
  0
VISUALSTYLE
  5
D7
102
{ACAD_REACTORS
330
7F
102
}
330
7F
100
AcDbVisualStyle
  2
Basic
 70
     7
 71
     1
 72
     0
 73
     1
 90
        0
 40
-0.6
 41
-30.0
 62
     5
 63
     7
 74
     0
 91
        4
 64
     7
 65
   257
 75
     1
175
     1
 42
1.0
 92
        8
 66
     7
 43
1.0
 76
     1
 77
     6
 78
     2
 67
     7
 79
     5
170
     0
171
     0
290
     0
174
     0
 93
        1
 44
0.0
173
     0
291
     1
 45
0.0
1001
ACAD
1000
AcDbSavedByObjectVersion
1070
     0
1000
AcDbSavedByObjectVersion
1070
     0
1001
ACAD
1000
AcRTDxfName
1000
VISUALSTYLE
  0
VISUALSTYLE
  5
DB
102
{ACAD_REACTORS
330
7F
102
}
330
7F
100
AcDbVisualStyle
  2
Brighten
 70
    12
 71
     2
 72
     2
 73
     0
 90
        0
 40
-0.6
 41
-30.0
 62
     5
 63
     7
 74
     1
 91
        4
 64
     7
 65
   257
 75
     1
175
     1
 42
1.0
 92
        8
 66
     7
 43
1.0
 76
     1
 77
     6
 78
     2
 67
     7
 79
     5
170
     0
171
     0
290
     0
174
     0
 93
        1
 44
50.0
173
     0
291
     1
 45
0.0
1001
ACAD
1000
AcDbSavedByObjectVersion
1070
     0
1000
AcDbSavedByObjectVersion
1070
     0
1001
ACAD
1000
AcRTDxfName
1000
VISUALSTYLE
  0
VISUALSTYLE
  5
DF
102
{ACAD_REACTORS
330
7F
102
}
330
7F
100
AcDbVisualStyle
  2
ColorChange
 70
    16
 71
     2
 72
     2
 73
     3
 90
        0
 40
-0.6
 41
-30.0
 62
     5
 63
     8
 74
     1
 91
        4
 64
     7
 65
   257
 75
     1
175
     1
 42
1.0
 92
        8
 66
     8
 43
1.0
 76
     1
 77
     6
 78
     2
 67
     7
 79
     5
170
     0
171
     0
290
     0
174
     0
 93
        1
 44
0.0
173
     0
291
     1
 45
0.0
1001
ACAD
1000
AcDbSavedByObjectVersion
1070
     0
1000
AcDbSavedByObjectVersion
1070
     0
1001
ACAD
1000
AcRTDxfName
1000
VISUALSTYLE
  0
VISUALSTYLE
  5
D9
102
{ACAD_REACTORS
330
7F
102
}
330
7F
100
AcDbVisualStyle
  2
Conceptual
 70
     9
 71
     3
 72
     2
 73
     0
 90
        0
 40
-0.6
 41
-30.0
 62
     5
 63
     7
 74
     2
 91
        2
 64
     7
 65
   257
 75
     1
175
     1
 42
40.0
 92
        8
 66
     7
 43
1.0
 76
     1
 77
     6
 78
     2
 67
     7
 79
     3
170
     0
171
     0
290
     0
174
     0
 93
        1
 44
0.0
173
     0
291
     0
 45
0.0
1001
ACAD
1000
AcDbSavedByObjectVersion
1070
     0
1000
AcDbSavedByObjectVersion
1070
     0
1001
ACAD
1000
AcRTDxfName
1000
VISUALSTYLE
  0
VISUALSTYLE
  5
DA
102
{ACAD_REACTORS
330
7F
102
}
330
7F
100
AcDbVisualStyle
  2
Dim
 70
    11
 71
     2
 72
     2
 73
     0
 90
        0
 40
-0.6
 41
-30.0
 62
     5
 63
     7
 74
     1
 91
        4
 64
     7
 65
   257
 75
     1
175
     1
 42
1.0
 92
        8
 66
     7
 43
1.0
 76
     1
 77
     6
 78
     2
 67
     7
 79
     5
170
     0
171
     0
290
     0
174
     0
 93
        1
 44
-50.0
173
     0
291
     1
 45
0.0
1001
ACAD
1000
AcDbSavedByObjectVersion
1070
     0
1000
AcDbSavedByObjectVersion
1070
     0
1001
ACAD
1000
AcRTDxfName
1000
VISUALSTYLE
  0
VISUALSTYLE
  5
DE
102
{ACAD_REACTORS
330
7F
102
}
330
7F
100
AcDbVisualStyle
  2
Facepattern
 70
    15
 71
     2
 72
     2
 73
     0
 90
        0
 40
-0.6
 41
-30.0
 62
     5
 63
     7
 74
     1
 91
        4
 64
     7
 65
   257
 75
     1
175
     1
 42
1.0
 92
        8
 66
     7
 43
1.0
 76
     1
 77
     6
 78
     2
 67
     7
 79
     5
170
     0
171
     0
290
     0
174
     0
 93
        1
 44
0.0
173
     0
291
     1
 45
0.0
1001
ACAD
1000
AcDbSavedByObjectVersion
1070
     0
1000
AcDbSavedByObjectVersion
1070
     0
1001
ACAD
1000
AcRTDxfName
1000
VISUALSTYLE
  0
VISUALSTYLE
  5
D3
102
{ACAD_REACTORS
330
7F
102
}
330
7F
100
AcDbVisualStyle
  2
Flat
 70
     0
 71
     2
 72
     1
 73
     1
 90
        2
 40
-0.6
 41
30.0
 62
     5
 63
     7
 74
     0
 91
        4
 64
     7
 65
   257
 75
     1
175
     1
 42
1.0
 92
        8
 66
     7
 43
1.0
 76
     1
 77
     6
 78
     2
 67
     7
 79
     5
170
     0
171
     0
290
     0
174
     0
 93
       13
 44
0.0
173
     0
291
     1
 45
0.0
1001
ACAD
1000
AcDbSavedByObjectVersion
1070
     0
1000
AcDbSavedByObjectVersion
1070
     0
1001
ACAD
1000
AcRTDxfName
1000
VISUALSTYLE
  0
VISUALSTYLE
  5
D4
102
{ACAD_REACTORS
330
7F
102
}
330
7F
100
AcDbVisualStyle
  2
FlatWithEdges
 70
     1
 71
     2
 72
     1
 73
     1
 90
        2
 40
-0.6
 41
30.0
 62
     5
 63
     7
 74
     1
 91
        4
 64
     7
 65
   257
 75
     1
175
     1
 42
1.0
 92
        0
 66
   257
 43
1.0
 76
     1
 77
     6
 78
     2
 67
     7
 79
     5
170
     0
171
     0
290
     0
174
     0
 93
       13
 44
0.0
173
     0
291
     1
 45
0.0
1001
ACAD
1000
AcDbSavedByObjectVersion
1070
     0
1000
AcDbSavedByObjectVersion
1070
     0
1001
ACAD
1000
AcRTDxfName
1000
VISUALSTYLE
  0
VISUALSTYLE
  5
D5
102
{ACAD_REACTORS
330
7F
102
}
330
7F
100
AcDbVisualStyle
  2
Gouraud
 70
     2
 71
     2
 72
     2
 73
     1
 90
        2
 40
-0.6
 41
30.0
 62
     5
 63
     7
 74
     0
 91
        4
 64
     7
 65
   257
 75
     1
175
     1
 42
1.0
 92
        0
 66
     7
 43
1.0
 76
     1
 77
     6
 78
     2
 67
     7
 79
     5
170
     0
171
     0
290
     0
174
     0
 93
       13
 44
0.0
173
     0
291
     1
 45
0.0
1001
ACAD
1000
AcDbSavedByObjectVersion
1070
     0
1000
AcDbSavedByObjectVersion
1070
     0
1001
ACAD
1000
AcRTDxfName
1000
VISUALSTYLE
  0
VISUALSTYLE
  5
D6
102
{ACAD_REACTORS
330
7F
102
}
330
7F
100
AcDbVisualStyle
  2
GouraudWithEdges
 70
     3
 71
     2
 72
     2
 73
     1
 90
        2
 40
-0.6
 41
30.0
 62
     5
 63
     7
 74
     1
 91
        4
 64
     7
 65
   257
 75
     1
175
     1
 42
1.0
 92
        0
 66
   257
 43
1.0
 76
     1
 77
     6
 78
     2
 67
     7
 79
     5
170
     0
171
     0
290
     0
174
     0
 93
       13
 44
0.0
173
     0
291
     1
 45
0.0
1001
ACAD
1000
AcDbSavedByObjectVersion
1070
     0
1000
AcDbSavedByObjectVersion
1070
     0
1001
ACAD
1000
AcRTDxfName
1000
VISUALSTYLE
  0
VISUALSTYLE
  5
DD
102
{ACAD_REACTORS
330
7F
102
}
330
7F
100
AcDbVisualStyle
  2
Linepattern
 70
    14
 71
     2
 72
     2
 73
     0
 90
        0
 40
-0.6
 41
-30.0
 62
     5
 63
     7
 74
     1
 91
        4
 64
     7
 65
   257
 75
     7
175
     7
 42
1.0
 92
        8
 66
     7
 43
1.0
 76
     1
 77
     6
 78
     2
 67
     7
 79
     5
170
     0
171
     0
290
     0
174
     0
 93
        1
 44
0.0
173
     0
291
     1
 45
0.0
1001
ACAD
1000
AcDbSavedByObjectVersion
1070
     0
1000
AcDbSavedByObjectVersion
1070
     0
1001
ACAD
1000
AcRTDxfName
1000
VISUALSTYLE
  0
VISUALSTYLE
  5
A5
102
{ACAD_REACTORS
330
7F
102
}
330
7F
100
AcDbVisualStyle
  2
Realistic
 70
     8
 71
     2
 72
     2
 73
     0
 90
        0
 40
-0.6
 41
-30.0
 62
     5
 63
     7
 74
     1
 91
        0
 64
     7
 65
   257
 75
     1
175
     1
 42
1.0
 92
        8
 66
     8
 43
1.0
 76
     1
 77
     6
 78
     2
 67
     7
 79
     5
170
     0
171
     0
290
     0
174
     0
 93
       13
 44
0.0
173
     0
291
     0
 45
0.0
1001
ACAD
1000
AcDbSavedByObjectVersion
1070
     0
1000
AcDbSavedByObjectVersion
1070
     0
1000
AcDbSavedByObjectVersion
1070
     0
1001
ACAD
1000
AcRTDxfName
1000
VISUALSTYLE
  0
VISUALSTYLE
  5
DC
102
{ACAD_REACTORS
330
7F
102
}
330
7F
100
AcDbVisualStyle
  2
Thicken
 70
    13
 71
     2
 72
     2
 73
     0
 90
        0
 40
-0.6
 41
-30.0
 62
     5
 63
     7
 74
     1
 91
        4
 64
     7
 65
   257
 75
     1
175
     1
 42
1.0
 92
       12
 66
     7
 43
1.0
 76
     1
 77
     6
 78
     2
 67
     7
 79
     5
170
     0
171
     0
290
     0
174
     0
 93
        1
 44
0.0
173
     0
291
     1
 45
0.0
1001
ACAD
1000
AcDbSavedByObjectVersion
1070
     0
1000
AcDbSavedByObjectVersion
1070
     0
1001
ACAD
1000
AcRTDxfName
1000
VISUALSTYLE
  0
DICTIONARYVAR
  5
AA
102
{ACAD_REACTORS
330
A9
102
}
330
A9
100
DictionaryVariables
280
     0
  1
STANDARD
  0
DICTIONARYVAR
  5
AE
102
{ACAD_REACTORS
330
A9
102
}
330
A9
100
DictionaryVariables
280
     0
  1
2
  0
DICTIONARYVAR
  5
AD
102
{ACAD_REACTORS
330
A9
102
}
330
A9
100
DictionaryVariables
280
     0
  1
1
  0
DICTIONARYVAR
  5
AC
102
{ACAD_REACTORS
330
A9
102
}
330
A9
100
DictionaryVariables
280
     0
  1
0
  0
DICTIONARYVAR
  5
16A
102
{ACAD_REACTORS
330
A9
102
}
330
A9
100
DictionaryVariables
280
     0
  1

  0
DICTIONARYVAR
  5
AB
102
{ACAD_REACTORS
330
A9
102
}
330
A9
100
DictionaryVariables
280
     0
  1
127
  0
DICTIONARY
  5
83
330
82
100
AcDbDictionary
280
     1
281
     1
  3
ACAD_XREC_ROUNDTRIP
360
1815
  3
ADSK_XREC_LAYOUTTHUMBNAIL
360
84
  0
DICTIONARY
  5
1816
330
89
100
AcDbDictionary
280
     1
281
     1
  3
ACAD_XREC_ROUNDTRIP
360
1817
  0
DICTIONARY
  5
180F
330
77
100
AcDbDictionary
280
     1
281
     1
  3
ACAD_XREC_ROUNDTRIP
360
1810
  0
DICTIONARY
  5
C7
330
A0
100
AcDbDictionary
280
     1
281
     1
  3
ACAD_XREC_ROUNDTRIP
360
C8
  0
DICTIONARY
  5
C5
330
9F
100
AcDbDictionary
280
     1
281
     1
  3
ACAD_XREC_ROUNDTRIP
360
C6
  0
DICTIONARY
  5
B1
330
A
100
AcDbDictionary
280
     1
281
     1
  3
ACAD_XREC_ROUNDTRIP
360
B2
  0
DICTIONARY
  5
155
330
A4
100
AcDbDictionary
280
     1
281
     1
  3
ACAD_XREC_ROUNDTRIP
360
156
  0
XRECORD
  5
1815
102
{ACAD_REACTORS
330
83
102
}
330
83
100
AcDbXrecord
280
     1
102
SHADEPLOT
 70
     0
102
SHADEPLOTRESLEVEL
 70
     2
102
SHADEPLOTCUSTOMDPI
 70
   300
  0
XRECORD
  5
84
102
{ACAD_REACTORS
330
83
102
}
330
83
100
AcDbXrecord
280
     1
310
28000000B40000007F00000001000800000000004C59000000000000000000000001000000000000FFFFFF0000000000FFFFFF000000000000000000000000000000000000000000000000000000000000000000330000006600000099000000CC000000FF00000000330000333300006633000099330000CC330000FF3300
310
0000660000336600006666000099660000CC660000FF66000000990000339900006699000099990000CC990000FF99000000CC000033CC000066CC000099CC0000CCCC0000FFCC000000FF000033FF000066FF000099FF0000CCFF0000FFFF000000003300330033006600330099003300CC003300FF003300003333003333
310
33006633330099333300CC333300FF33330000663300336633006666330099663300CC663300FF66330000993300339933006699330099993300CC993300FF99330000CC330033CC330066CC330099CC3300CCCC3300FFCC330000FF330033FF330066FF330099FF3300CCFF3300FFFF330000006600330066006600660099
310
006600CC006600FF00660000336600333366006633660099336600CC336600FF33660000666600336666006666660099666600CC666600FF66660000996600339966006699660099996600CC996600FF99660000CC660033CC660066CC660099CC6600CCCC6600FFCC660000FF660033FF660066FF660099FF6600CCFF6600
310
FFFF660000009900330099006600990099009900CC009900FF00990000339900333399006633990099339900CC339900FF33990000669900336699006666990099669900CC669900FF66990000999900339999006699990099999900CC999900FF99990000CC990033CC990066CC990099CC9900CCCC9900FFCC990000FF99
310
0033FF990066FF990099FF9900CCFF9900FFFF99000000CC003300CC006600CC009900CC00CC00CC00FF00CC000033CC003333CC006633CC009933CC00CC33CC00FF33CC000066CC003366CC006666CC009966CC00CC66CC00FF66CC000099CC003399CC006699CC009999CC00CC99CC00FF99CC0000CCCC0033CCCC0066CC
310
CC0099CCCC00CCCCCC00FFCCCC0000FFCC0033FFCC0066FFCC0099FFCC00CCFFCC00FFFFCC000000FF003300FF006600FF009900FF00CC00FF00FF00FF000033FF003333FF006633FF009933FF00CC33FF00FF33FF000066FF003366FF006666FF009966FF00CC66FF00FF66FF000099FF003399FF006699FF009999FF00CC
310
99FF00FF99FF0000CCFF0033CCFF0066CCFF0099CCFF00CCCCFF00FFCCFF0000FFFF0033FFFF0066FFFF0099FFFF00CCFFFF00FFFFFF00000000000D0D0D001A1A1A00282828003535350043434300505050005D5D5D006B6B6B00787878008686860093939300A1A1A100AEAEAE00BBBBBB00C9C9C900D6D6D600E4E4E400
310
F1F1F100FFFFFF0000000000000000000000000000000000000000000000000000000000000000000000000000000000E2E2E2E2E2E2E2E2E2E2E2E2E2E2E2E2E2E2E2E2E2E2E2E2E2E2E2E2E2E2E2E2E2E2E2E2E2E2E2E2E2E2E2E2E2E2E2E2E2E2E2E2E2E2E2E2E2E2E2E2E2E2E2E2E2E2E2E2E2E2E2E2E2E2E2E2E2E2E2
310
E2E2E2E2E2E2E2E2E2E2E2E2E2E2E2E2E2E2E2E2E2E2E2E2E2E2E2E2E2E2E2E2E2E2E2E2E2E2E2E2E2E2E2E2E2E2E2E2E2E2E2E2E2E2E2E2E2E2E2E2E2E2E2E2E2E2E2E2E2E2E2E2E2E2E2E2E2E2E2E2E2E2E2E2E2E2E2E2E2E2E2E2E2E2E2E2E2E2E2E2E2E2F5F5F5F5F5F5F5F5F5F5F5F5F5F5F5F5F5F5F5F5F5F5F5F5F5
310
F5F5F5F5F5F5F5F5F5F5F5F5F5F5F5F5F5F5F5F5F5F5F5F5F5F5F5F5F5F5F5F5F5F5F5F5F5F5F5F5F5F5F5F5F5F5F5F5F5F5F5F5F5F5F5F5F5F5F5F5F5F5F5F5F5F5F5F5F5F5F5F5F5F5F5F5F5F5F5F5F5F5F5F5F5F5F5F5F5F5F5F5F5F5F5F5F5F5F5F5F5F5F5F5F5F5F5F5F5F5F5F5F5F5F5F5F5F5F5F5F5F5F5F5F5F5F5
310
F5F5F5F5F5F5F5F5F5F5F5F5F5F5F5F5F5F5F5F5F5F5F5F5F5F5E2E2F5E2E2E2E2E2E2E2E2E2F5F5F5F5F5F5F5F5F5E2E2E2E2E2E2E2E2E2E2E2E2E2E2E2E2F5F5F5F5F5F5F5F5F5E2E2E2E2E2E2E2E2E2E2E2E2E2E2E2E2F5F5F5F5F5F5F5F5F5E2E2E2E2E2E2E2E2E2E2E2E2E2E2E2E2F5F5F5F5F5F5F5F5F5E2E2E2E2E2
310
E2E2E2E2E2E2E2E2E2E2E2F5F5F5F5F5F5F5F5F5E2E2E2E2E2E2E2E2E2E2E2E2E2E2E2E2F5F5F5F5F5F5F5F5F5E2E2E2E2E2E2E2E2E2E2E2E2E2E2E2E2F5F5F5F5F5F5F5F5F5E2E2E2E2E2E2E2E2F5E2E2F5E2F5F5F5F5F5F5F5F5F5F5F5F5F5F5F5F5F5F5F5F5F5F5F5F5F5F5F5F5F5F5F5F5F5F5F5F5F5F5F5F5F5F5F5F5
310
F5F5F5F5F5F5F5F5F5F5F5F5F5F5F5F5F5F5F5F5F5F5F5F5F5F5F5F5F5F5F5F5F5F5F5F5F5F5F5F5F5F5F5F5F5F5F5F5F5F5F5F5F5F5F5F5F5F5F5F5F5F5F5F5F5F5F5F5F5F5F5F5F5F5F5F5F5F5F5F5F5F5F5F5F5F5F5F5F5F5F5F5F5F5F5F5F5F5F5F5F5F5F5F5F5F5F5F5F5F5F5F5F5F5F5F5F5F5F5F5F5F5F5F5F5F5F5
310
F5F5F5E2F5E2E2F5E2F5F5F5F5F5F5F5F5F5F5F5F5F5F5F5F5F5F5F5F5F5F5F5F5F5F5F5F5F5F5F5F5F5F5F5F5F5F5F5F5F5F5F5F5F5F5F5F5F5F5F5F5F5F5F5F5F5F5F5F5F5F5F5F5F5F5F5F5F5F5F5F5F5F5F5F5F5F5F5F5F5F5F5F5F5F5F5F5F5F5F5F5F5F5F5F5F5F5F5F5F5F5F5F5F5F5F5F5F5F5F5F5F5F5F5F5F5F5
310
F5F5F5F5F5F5F5F5F5F5F5F5F5F5F5F5F5F5F5F5F5F5F5F5F5F5F5F5F5F5F5F5F5F5F5F5F5F5F5F5F5F5F5F5F5F5F5F5F5F5F5F5F5F5F5F5E2F5E2E2F5E2F5F5F5F5F5F5F5F5F5F5F5F5F5F5F5F5F5F5F5F5F5F5F5F5F5F5F5F5F5F5F5F5F5F5F5F5F5F5F5F5F5F5F5F5F5F5F5F5F5F5F5F5F5F5F5F5F5F5F5F5F5F5F5F5F5
310
F5F5F5F5F5F5F5F5F5F5F5F5F5F5F5F5F5F5F5F5F5F5F5F5F5F5F5F5F5F5F5F5F5F5F5F5F5F5F5F5F5F5F5F5F5F5F5F5F5F5F5F5F5F5F5F5F5F5F5F5F5F5F5F5F5F5F5F5F5F5F5F5F5F5F5F5F5F5F5F5F5F5F5F5F5F5F5F5F5F5F5F5F5F5F5F5F5F5F5F5F5F5F5F5F5F5F5F5F5E2F5E2E2F5E2F5F5F5F5F5F5F5F5F5F5F5F5
310
F5F5F5F5F5F5F5F5F5F5F5F5F5F5F5F5F5F5F5F5F5F5F5F5F5F5F5F5F5F5F5F5F5F5F5F5F5F5F5F5F5F5F5F5F5F5F5F5F5F5F5F5F5F5F5F5F5F5F5F5F5F5F5F5F5F5F5F5F5F5F5F5F5F5F5F5F5F5F5F5F5F5F5F5F5F5F5F5F5F5F5F5F5F5F5F5F5F5F5F5F5F5F5F5F5F5F5F5F5F5F5F5F5F5F5F5F5F5F5F5F5F5F5F5F5F5F5
310
F5F5F5F5F5F5F5F5F5F5F5F5F5F5F5F5F5F5F5F5F5F5F5F5F5F5F5F5F5F5F5F5F5F5F5E2F5E2E2F5E2F5F5F5F5F5F5F5F5F5F5F5F5F5F5F5F5F5F5F5F5F5F5F5F5F5F5F5F5F5F5F5F5F5F5F5F5F5F5F5F5F5F5F5F5F5F5F5F5F5F5F5F5F5F5F5F5F5F5F5F5F5F5F5F5F5F5F5F5F5F5F5F5F5F5F5F5F5F5F5F5F5F5F5F5F5F5
310
F5F5F5F5F5F5F5F5F5F5F5F5F5F5F5F5F5F5F5F5F5F5F5F5F5F5F5F5F5F5F5F5F5F5F5F5F5F5F5F5F5F5F5F5F5F5F5F5F5F5F5F5F5F5F5F5F5F5F5F5F5F5F5F5F5F5F5F5F5F5F5F5F5F5F5F5F5F5F5F5F5F5F5F5F5F5F5F5E2F5E2E2F5E2F5F5F5F5F5F5F5F5F5F5F5F5F5F5F5F5F5F5F5F5F5F5F5F5F5F5F5F5F5F5F5F5F5
310
F5F5F5F5F5F5F5F5F5F5F5F5F5F5F5F5F5F5F5F5F5F5F5F5F5F5F5F5F5F5F5F5F5F5F5F5F5F5F5F5F5F5F5F5F5F5F5F5F5F5F5F5F5F5F5F5F5F5F5F5F5F5F5F5F5F5F5F5F5F5F5F5F5F5F5F5F5F5F5F5F5F5F5F5F5F5F5F5F5F5F5F5F5F5F5F5F5F5F5F5F5F5F5F5F5F5F5F5F5F5F5F5F5F5F5F5F5F5F5F5F5F5F5F5F5F5F5
310
F5F5F5F5F5F5F5F5F5F5F5F5F5F5E2F5E2E2F5E2F5F5F5F5F5F5F5F5F5F5F5F5F5F5F5F5F5F5F5F5F5F5F5F5F5F5F5F5F5F5F5F5F5F5F5F5F5F5F5F5F5F5F5F5F5F5F5F5F5F5F5F5F5F5F5F5F5F5F5F5F5F5F5F5F5F5F5F5F5F5F5F5F5F5F5F5F5F5F5F5F5F5F5F5F5F5F5F5F5F5F5F5F5F5F5F5F5F5F5F5F5F5F5F5F5F5F5
310
F5F5F5F5F5F5F5F5F5F5F5F5F5F5F5F5F5F5F5F5F5F5F5F5F5F5F5F5F5F5F5F5F5F5F5F5F5F5F5F5F5F5F5F5F5F5F5F5F5F5F5F5F5F5F5F5F5F5F5F5F5F5F5F5F5F5F5E2F5E2E2F5F5F5F5F5F5F5F5F5F5F5F5F5F5F5F5F5F5F5F5F5F5F5F5F5F5F5F5F5F5F5F5F5F5F5F5F5F5F5F5F5F5F5F5F5F5F5F5F5F5F5F5F5F5F5F5
310
F5F5F5F5F5F5F5F5F5F5F5F5F5F5F5F5F5F5F5F5F5F5F5F5F5F5F5F5F5F5F5F5F5F5F5F5F5F5F5F5F5F5F5F5F5F5F5F5F5F5F5F5F5F5F5F5F5F5F5F5F5F5F5F5F5F5F5F5F5F5F5F5F5F5F5F5F5F5F5F5F5F5F5F5F5F5F5F5F5F5F5F5F5F5F5F5F5F5F5F5F5F5F5F5F5F5F5F5F5F5F5F5F5F5F5F5F5F5F5F5F5F5E2E2F5F5F5
310
F5F5F5F5F5F5F5F5F5F5F5F5F5F5F5F5F5F5F5F5F5F5F5F5F5F5F5F5F5F5F5F5F5F5F5F5F5F5F5F5F5F5F5F5F5F5F5F5F5F5F5F5F5F5F5F5F5F5F5F5F5F5F5F5F5F5F5F5F5F5F5F5F5F5F5F5F5F5F5F5F5F5F5F5F5F5F5F5F5F5F5F5F5F5F5F5F5F5F5F5F5F5F5F5F5F5F5F5F5F5F5F5F5F5F5F5F5F5F5F5F5F5F5F5F5F5F5
310
F5F5F5F5F5F5F5F5F5F5F5F5F5F5F5F5F5F5F5F5F5F5F5F5F5F5F5F5F5F5F5F5F5F5F5F5F5F5F5F5F5F5F5F5F5F5F5F5E2E2F5F5F5F5F5F5F5F5F5F5F5F5F5F5F5F5F5F5F5F5F5F5F5F5F5F5F5F5F5F5F5F5F5F5F5F5F5F5F5F5F5F5F5F5F5F5F5F5F5F5F5F5F5F5F5F5F5F5F5F5F5F5F5F5F5F5F5F5F5F5F5F5F5F5F5F5F5
310
F5F5F5F5F5F5F5F5F5F5F5F5F5F5F5F5F5F5F5F5F5F5F5F5F5F5F5F5F5F5F5F5F5F5F5F5F5F5F5F5F5F5F5F5F5F5F5F5F5F5F5F5F5F5F5F5F5F5F5F5F5F5F5F5F5F5F5F5F5F5F5F5F5F5F5F5F5F5F5F5F5F5F5F5F5F5F5F5F5F5F5F5F5F5F5F5F5F5F5F5F5E2E2F5F5F5F5F5F5F5F5F5F5F5F5F5F5F5F5F5F5F5F5F5F5F5F5
310
F5F5F5F5F5F5F5F5F5F5F5F5F5F5F5F5F5F5F5F5F5F5F5F5F5F5F5F5F5F5F5F5F5F5F5F5F5F5F5F5F5F5F5F5F5F5F5F5F5F5F5F5F5F5F5F5F5F5F5F5F5F5F5F5F5F5F5F5F5F5F5F5F5F5F5F5F5F5F5F5F5F5F5F5F5F5F5F5F5F5F5F5F5F5F5F5F5F5F5F5F5F5F5F5F5F5F5F5F5F5F5F5F5F5F5F5F5F5F5F5F5F5F5F5F5F5F5
310
F5F5F5F5F5F5F5F5F5F5F5F5F5F5F5F5F5F5F5F5F5F5F5F5F5F5F5E2E2F5F5F5F5F5F5F5F5F5F5F5F5F5F5F5F5F5F5F5DCDCDCDCDCDCDCDCDCDCDCDCDCDCDCDCDCDCDCDCDCDCDCDCDCDCDCDCDCDCDCDCDCDCDCDCDCDCDCDCDCDCDCDCDCDCDCDCDCDCDCDCDCDCDCDCDCDCDCDCDCDCDCDCDCDCDCDCDCDCDCDCDCDCDCDCDCDCDC
310
DCDCDCDCDCDCDCDCDCDCDCDCDCDCDCDCDCDCDCDCDCDCDCDCDCDCDCDCDCDCDCDCDCDCDCDCDCDCDCDCDCDCDCDCDCDCDCDCDCDCDCDCDCDCDCDCDCDCDCDCDCF5F5F5F5F5F5F5F5F5F5F5F5F5F5F5F5F5F5F5E2E2F5F5F5F5F5F5F5F5F5F5F5F5F5F5F5F5F5F5F5DCDCDCDCDCDCDCDCDCDCDCDCDCDCDCDCDCDCDCDCDCDCDCDCDCDC
310
DCDCDCDCDCDCDCDCDCDCDCDCDCDCDCDCDCDCDCDCDCDCDCDCDCDCDCDCDCDCDCDCDCDCDCDCDCDCDCDCDCDCDCDCDCDCDCDCDCDCDCDCDCDCDCDCDCDCDCDCDCDCDCDCDCDCDCDCDCDCDCDCDCDCDCDCDCDCDCDCDCDCDCDCDCDCDCDCDCDCDCDCDCDCDCDCDCDCDCDCDCDCDCDCDCDCDCDCDCDCDCDCDCDCF5F5F5F5F5F5F5F5F5F5F5F5F5
310
F5F5F5F5F5F5E2E2F5F5F5F5F5F5F5F5F5F5F5F5F5F5F5F5F5F5F5DCF5F5F5F5F5F5F5F5F5F5F5F5F5F5F5F5F5F5F5F5F5F5F5F5F5F5F5F5F5F5F5F5F5F5F5F5F5F5F5F5F5F5F5F5F5F5F5F5F5F5F5F5F5F5F5F5F5F5F5F5F5F5F5F5F5F5F5F5F5F5F5F5F5F5F5F5F5F5F5F5F5F5F5F5F5F5F5F5F5F5F5F5F5F5F5F5F5F5F5
310
F5F5F5F5F5F5F5F5F5F5F5F5F5F5F5F5F5F5F5F5F5F5F5F5F5F5F5F5F5F5F5F5F5F5F5F5F5F5F5DCF5F5F5F5F5F5F5F5F5F5F5F5F5F5F5F5F5F5F5E2E2F5F5F5F5F5F5F5F5F5F5F5F5F5F5F5F5F5F5F5DCF5282828282828282828282828282828282828282828282828282828282828282828282828282828282828282828
310
28282828282828282828282828282828282828282828282828282828282828282828282828282828282828282828282828282828282828282828282828282828282828282828282828282828282828282828282828282828282828F5DCF5F5F5F5F5F5F5F5F5F5F5F5F5F5F5F5F5F5F5E2E2F5F5F5F5F5F5F5F5F5F5F5F5F5
310
F5F5F5F5F5F5DCF5282D2D2D2D2D2D2D2D2D2D2D2D2D2D2D2D2D2D2D2D2DF5F5F5F5F5F5F5F5F5F5F5F5F5F5F5F5F5F5F5F5F5F5F5F5F5F5F5F5F5F5F5F5F5F5F5F5F5F5F5F5F5F5F5F5F528F5F5F5F5F5F5F5F5F5F5F5F5F5F5F5F5F5F5F5F5F5F5F5F5F5F5F5F5F5F5F5F5F5F5F5F5F5F5F5F5F5F5F5F5F5F5F5F5F5F5F5
310
F5F5F5F5F5F5F5F5F5F5F5F5F5F5F5F528F5DCF5F5F5F5F5F5F5F5F5F5F5F5F5F5F5F5F5F5F5E2E2F5E2F5F5F5F5F5F5F5F5F5F5F5F5F5F5F5F5F5DCF5282D2D2D2D2D2D2D2D2D2D2D2D2D2D2D2D2D2D2D2D2D2D2D2D2D2D2D2D2DF5F5F5F5F5F5F5F5F5F5F5F5F5F5F5F5F5F5F5F5F5F5F5F5F5F5F5F5F5F5F5F5F5F5F5F5
310
F528F5F5F5F5F5F5F5F5F5F5F5F5F5F5F5F5F5F5F5F5F5F5F5F5F5F5F5F5F5F5F5F5F5F5F5F5F5F5F5F5F5F5F5F5F5F5F5F5F5F5F5F5F5F5F5F5F5F5F5F5F5F5F5F5F5F5F528F5DCF5F5F5F5F5F5F5F5F5F5F5F5F5F5F5F5F5E2F5E2E2F5E2F5F5F5F5F5F5F5F5F5F5F5F5F5F5F5F5F5DCF5282D2D2D2D2D2D2D2D2D2D2D2D
310
2D2D2D2D2D2D2D2D2D2D2D2D2D2D2D2D2DF5F5F5F5F5F5F5F5F5F5F5F5F5F5F5F5F5F5F5F5F5F5F5F5F5F5F5F5F5F5F5F5F5F5F5F5F528F5F5F5F5F5F5F5F52D2D2D2D2D2D2D2D2D2D2D2D2D2D2D2D2D2D2D2D2D2D2D2D2D2D2D2D2D2D2D2D2D2D2D2D2D2D2D2D2D2D2D2D2D2D2D2D2D2D2DF5F5F5F5F5F5F5F528F5DCF5F5
310
F5F5F5F5F5F5F5F5F5F5F5F5F5F5F5E2F5E2E2F5E2F5F5F5F5F5F5F5F5F5F5F5F5F5F5F5F5F5DCF5282D2D2D2D2D2D2D2D2D2D2D2D2D2D2D2D2D2D2D2D2D2D2D2D2D2D2D2D2D2D2D2D2D2D2D2D2D2D2D2D2D2D2D2D2D2D2D2D2D2D2D2D2D2D2D2D2D2D2D2D2D2D2D2D2D2D28F5F5F5F5F5F5F5F52D2D2D2D2D2D2D2D2D2D2D
310
2D2D2D2D2D2D2D2D2D2D2D2D2D2D2D2D2D2D2D2D2D2D2D2D2D2D2D2D2D2D2D2D2D2D2D2D2D2D2D2DF5F5F5F5F5F5F5F528F5DCF5F5F5F5F5F5F5F5F5F5F5F5F5F5F5F5F5E2F5E2E2F5E2F5F5F5F5F5F5F5F5F5F5F5F5F5F5F5F5F5DCF5282D2D2D2D2D2D2D2D2D2D2D2D2D2D2D2D2D2D2D2D2D2D2D2D2D2D2D2D2D2D2D2D2D
310
2D2D2D2D2D2D2D2D2D2D2D2D2D2D2D2D2D2D2D2D2D2D2D2D2D2D2D2D2DF5F5F5F528F5F5F5F5F5F5F5F5F5F5F5F52D2D2D2D2D2D2D2D2D2D2D2D2D2D2D2D2D2D2D2D2D2D2D2D2D2D2D2D2D2D2D2D2D2D2D2D2D2D2D2D2D2DF5F5F5F5F5F5F5F5F5F5F5F5F528F5DCF5F5F5F5F5F5F5F5F5F5F5F5F5F5F5F5F5E2F5E2E2F5E2
310
F5F5F5F5F5F5F5F5F5F5F5F5F5F5F5F5F5DCF5282D2D2D2D2D2D2D2D2D2D2D2D2D2D2D2D2D2D2D2D2D2D2D2D2D2D2D2D2D2D2D2D2D2D2D2D2D2D2D2D2D2D2D2D2D2D2D2D2D2D2D2D2D2D2D2D2D2D2D2D2D2DF5F5F5F528F5F5F5F5F5F5F5F5F5F5F5F52D2D2D2D2D2D2D2D2D2D2D2D2D2D2D2D2D2D2D2D2D2D2D2D2D2D2D2D
310
2D2D2D2D2D2D2D2D2D2D2D2D2D2DF5F5F5F5F5F5F5F5F5F5F5F5F528F5DCF5F5F5F5F5F5F5F5F5F5F5F5F5F5F5F5F5E2F5E2E2F5E2F5F5F5F5F5F5F5F5F5F5F5F5F5F5F5F5F5DCF5282D2D2D2D2D2D2D2D2D2D2D2D2D2D2D2D2D2D2D2D2D2D2D2D2D2D2D2D2D2D2D2D2D2D2D2D2D2D2D2D2D2D2D2D2D2D2D2D2D2D2D2D2D2D
310
2D2D2D2D2DF5F5F5F5F5F5F528F5F5F5F5F5F5F5F5F5F5F5F5F5F5F5F5F5F5F5F5F5F5F5F5F5F5F5F52D2D2D2D2D2D2D2D2D2DF5F5F5F5F5F5F5F5F5F5F5F5F5F5F5F5F5F5F5F5F5F5F5F5F5F5F5F5F528F5DCF5F5F5F5F5F5F5F5F5F5F5F5F5F5F5F5F5E2F5E2E2F5E2F5F5F5F5F5F5F5F5F5F5F5F5F5F5F5F5F5DCF5282D
310
2D2D2D2D2D2D2D2D2D2D2D2D2D2D2D2D2D2D2D2D2D2D2D2D2D2D2D2D2D2D2DF5F5F5F5F5F5F5F5F5F5F5F5F5F5F5F5F5F5F5F5F5F5F5F5F5F5F5F5F5F5F5F5F5F528F5F5F5F5F5F5F5F5F5F5F5F5F5F5F5F5F5F5F5F5F5F5F5F5F5F5F5F52D2D2D2D2D2D2D2D2D2DF5F5F5F5F5F5F5F5F5F5F5F5F5F5F5F5F5F5F5F5F5F5F5
310
F5F5F5F5F5F528F5DCF5F5F5F5F5F5F5F5F5F5F5F5F5F5F5F5F5E2F5E2E2F5E2F5F5F5F5F5F5F5F5F5F5F5F5F5F5F5F5F5DCF5282D2D2D2D2D2D2D2D2D2D2D2D2D2D2D2D2D2D2D2D2D2D2D2D2D2D2D2D2D2D2D2DF5F5F5F5F5F5F5F5F5F5F5F5F5F5F5F5F5F5F5F5F5F5F5F5F5F5F5F5F5F5F5F5F5F528F5F5F5F5F5F5F5F5
310
F5F5F5F5F5F5F5F5F5F5F5F5F5F5F5F5F5F5F5F52D2D2D2D2D2D2D2D2D2DF5F5F5F5F5F5F5F5F5F5F5F5F5F5F5F5F5F5F5F5F5F5F5F5F5F5F5F5F528F5DCF5F5F5F5F5F5F5F5F5F5F5F5F5F5F5F5F5E2F5E2E2F5E2F5F5F5F5F5F5F5F5F5F5F5F5F5F5F5F5F5DCF5282D2D2D2D2D2D2D2D2D2D2D2D2D2D2D2D2D2D2D2D2D2D
310
2D2D2D2D2D2D2D2D2D2D2D2D2D2D2D2D2D2D2D2D2D2D2D2D2D2D2D2D2D2D2D2D2D2D2D2D2D2D2D2D2D2DF5F528F5F5F5F5F5F5F5F5F5F5F5F5F5F5F5F5F5F5F5F5F5F5F5F5F5F5F5F5F5F5F5F5F5F5F5F5F5F5F5F5F5F5F5F5F5F5F5F5F5F5F5F5F5F5F5F5F5F5F5F5F5F5F5F5F5F5F528F5DCF5F5F5F5F5F5F5F5F5F5F5F5
310
F5F5F5F5F5E2F5E2E2F5E2F5F5F5F5F5F5F5F5F5F5F5F5F5F5F5F5F5DCF528F5F5F5F5F5F5F5F5F5F5F5F5F5F5F5F5F5F5F5F5F5F5F5F5F5F5F5F5F5F5F5F5F5F5F5F5F5F5F5F5F5F5F5F5F5F5F5F5F5F5F5F5F5F5F5F5F5F5F5F5F5F5F5F5F5F528F5F5F5F5F5F5F5F5F5F5F5F5F5F5F5F5F5F5F5F5F5F5F5F5F5F5F5F5F5
310
F5F5F5F5F5F5F5F5F5F5F5F5F5F5F5F5F5F5F5F5F5F5F5F5F5F5F5F5F5F5F5F5F5F5F5F5F5F528F5DCF5F5F5F5F5F5F5F5F5F5F5F5F5F5F5F5F5E2F5E2E2F5E2F5F5F5F5F5F5F5F5F5F5F5F5F5F5F5F5F5DCF52828282828282828282828282828282828282828282828282828282828282828282828282828282828282828
310
2828282828282828282828282828282828282828282828282828282828282828282828282828282828282828282828282828282828282828282828282828282828282828282828282828282828282828282828282828282828282828F5DCF5F5F5F5F5F5F5F5F5F5F5F5F5F5F5F5F5E2F5E2E2F5E2F5F5F5F5F5F5F5F5F5F5
310
F5F5F5F5F5F5F5DCF528F5F5F5F5F5F5F5F5F5F5F5F5F5F5F5F5F5F5F5F5F5F5F5F5F5F5F5F5F5F5F5F5F5F5F5F5F5F5F5F5F5F5F5F5F5F5F5F5F5F5F5F5F5F5F5F5F5F5F5F5F5F5F5F5F5F5F5F5F5F5F5F5F5F5F5F5F5F5F5F5F5F5F5F5F5F5F5F5F5F5F5F5F5F5F5F5F5F5F5F5F5F5F5F5F5F5F5F5F5F5F5F5F5F5F5F5F5
310
F5F5F5F5F5F5F5F5F5F5F5F5F5F5F5F5F528F5DCF5F5F5F5F5F5F5F5F5F5F5F5F5F5F5F5F5E2F5E2E2F5E2F5F5F5F5F5F5F5F5F5F5F5F5F5F5F5F5F5DCF528F5F5F5F5F5F5F5F5F5F5F5F5F5F5F5F5F5F5F5F5F5F5F5F5F5F5F5F5F5F5F5F5F5F5F5F5F5F5F5F5F5F5F5F5F5F5F5F5F5F5F5F5F5F5F5F5F5F5F5F5F5F5F5F5
310
F5F5F5F5F5F5F5F5F5F5F5F5F5F5F5F5F5F5F5F5F5F5F5F5F5F5F5F5F5F5F5F5F5F5F5F5F5F5F5F5F5F5F5F5F5F5F5F5F5F5F5F5F5F5F5F5F5F5F5F5F5F5F5F5F5F5F5F5F5F528F5DCF5F5F5F5F5F5F5F5F5F5F5F5F5F5F5F5F5E2F5E2E2F5E2F5F5F5F5F5F5F5F5F5F5F5F5F5F5F5F5F5DCF528F5F5F5F5F5F5F5F5F5F5F5
310
F5F5F5F5F5F5F5F5F5F5F5F5F5F5F5F5F5F5F5F5F5F5F5F5F5F5F5F5F5F5F5F5F5F5F5F5F5F5F5F5F5F5F5F5F5F5F5F5F5F5F5F5F5F5F5F5F5F5F5F5F5F5F5F5F5F5F5F5F5F5F5F5F5F5F5F5F5F5F5F5F5F5F5F5F5F5F5F5F5F5F5F5F5F5F5F5F5F5F5F5F5F5F5F5F5F5F5F5F5F5F5F5F5F5F5F5F5F5F5F5F5F5F528F5DCF5
310
F5F5F5F5F5F5F5F5F5F5F5F5F5F5F5F5E2F5E2E2F5E2F5F5F5F5F5F5F5F5F5F5F5F5F5F5F5F5F5DCF528F5F5F5F5F5F5F5F5F5F5F5F5F5F5F5F5F5F5F5F5F5F5F5F5F5F5F5F5F5F5F5F5F5F5F5F5F5F5F5F5F5F5F5F5F5F5F5F5F5F5F5F5F5F5F5F5F5F5F5F5F5F5F5F5F5F5F5F5F5F5F5F5F5F5F5F5F5F5F5F5F5F5F5F5F5
310
F5F5F5F5F5F5F5F5F5F5F5F5F5F5F5F5F5F5F5F5F5F5F5F5F5F5F5F5F5F5F5F5F5F5F5F5F5F5F5F5F5F5F5F5F5F5F5F5F528F5DCF5F5F5F5F5F5F5F5F5F5F5F5F5F5F5F5F5E2F5E2E2F5E2F5F5F5F5F5F5F5F5F5F5F5F5F5F5F5F5F5DCF528F5F5F5F5F5F5F5F5F5F5F5F5F5F5F5F5F5F5F5F5F5F5F5F5F5F5F5F5F5F5F5F5
310
F5F5F5F5F5F5F5F5F5F5F5F5F5F5F5F5F5F5F5F5F5F5F5F5F5F5F5F5F5F5F5F5F5F5F5F5F5F5F5F5F5F5F5F5F5F5F5F5F5F5F5F5F5F5F5F5F5F5F5F5F5F5F5F5F5F5F5F5F5F5F5F5F5F5F5F5F5F5F5F5F5F5F5F5F5F5F5F5F5F5F5F5F5F5F5F5F5F5F5F5F5F528F5DCF5F5F5F5F5F5F5F5F5F5F5F5F5F5F5F5F5E2F5E2E2F5
310
F5F5F5F5F5F5F5F5F5F5F5F5F5F5F5F5F5F5DCF528F5F5F5F5F5F5F5F5F5F5F5F5F5F5F5F5F5F5F5F5F5F5F5F5F5F5F5F5F5F5F5F5F5F5F5F5F5F5F5F5F5F5F5F5F5F5F5F5F5F5F5F5F5F5F5F5F5F5F5F5F5F5F5F5F5F5F5F5F5F5F5F5F5F5F5F5F5F5F5F5F5F5F5F5F5F5F5F5F5F5F5F5F5F5F5F5F5F5F5F5F5F5F5F5F5F5
310
F5F5F5F5F5F5F5F5F5F5F5F5F5F5F5F5F5F5F5F5F5F5F5F5F5F5F5F528F5DCF5F5F5F5F5F5F5F5F5F5F5F5F5F5F5F5F5F5F5E2E2F5F5F5F5F5F5F5F5F5F5F5F5F5F5F5F5F5F5F5DCF528F5F5F5F5F5F5F5F5F5F5F5F5F5F5F5F5F5F5F5F5F5F5F5F5F5F5F5F5F5F5F5F5F5F5F5F5F5F5F5F5F5F5F5F5F5F5F5F5F5F5F5F5F5
310
F5F5F5F5F5F5F5F5F5F5F5F5F5F5F5F5F5F5F5F5F5F5F5F5F5F5F5F5F5F5F5F5F5F5F5F5F5F5F5F5F5F5F5F5F5F5F5F5F5F5F5F5F5F5F5F5F5F5F5F5F5F5F5F5F5F5F5F5F5F5F5F5F5F5F5F5F5F5F5F5F528F5DCF5F5F5F5F5F5F5F5F5F5F5F5F5F5F5F5F5F5F5E2E2F5F5F5F5F5F5F5F5F5F5F5F5F5F5F5F5F5F5F5DCF528
310
F5F5F5F5F5F5F5F5F5F5F5F5F5F5F5F5F5F5F5F5F5F5F5F5F5F5F5F5F5F5F5F5F5F5F5F5F5F5F5F5F5F5F5F5F5F5F5F5F5F5F5F5F5F5F5F5F5F5F5F5F5F5F5F5F5F5F5F5F5F5F5F5F5F5F5F5F5F5F5F5F5F5F5F5F5F5F5F5F5F5F5F5F5F5F5F5F5F5F5F5F5F5F5F5F5F5F5F5F5F5F5F5F5F5F5F5F5F5F5F5F5F5F5F5F5F5F5
310
F5F5F5F5F5F5F528F5DCF5F5F5F5F5F5F5F5F5F5F5F5F5F5F5F5F5F5F5E2E2F5F5F5F5F5F5F5F5F5F5F5F5F5F5F5F5F5F5F5DCF528F5F5F5F5F5F5F5F5F5F5F5F5F5F5F5F5F5F5F5F5F5F5F5F5F5F5F5F5F5F5F5F5F5F5F5F5F5F5F5F5F5F5F5F5F5F5F5F5F5F5F5F5F5F5F5F5F5F5F5F5F5F5F5F5F5F5F5F5F5F5F5F5F5F5
310
F5F5F5F5F5F5F5F5F5F5F5F5F5F5F5F5F5F5F5F5F5F5F5F5F5F5F5F5F5F5F5F5F5F5F5F5F5F5F5F5F5F5F5F5F5F5F5F5F5F5F5F5F5F5F5F5F5F5F5F528F5DCF5F5F5F5F5F5F5F5F5F5F5F5F5F5F5F5F5F5F5E2E2F5F5F5F5F5F5F5F5F5F5F5F5F5F5F5F5F5F5F5DCF528F5F5F5F5F5F5F5F5F5F5F5F5F5F5F5F5F5F5F5F5F5
310
F5F5F5F5F5F5F5F5F5F5F5F5F5F5F5F5F5F5F5F5F5F5F5F5F5F5F5F5F5F5F5F5F5F5F5F5F5F5F5F5F5F5F5F5F5F5F5F5F5F5F5F5F5F5F5F5F5F5F5F5F5F5F5F5F5F5F5F5F5F5F5F5F5F5F5F5F5F5F5F5F5F5F5F5F5F5F5F5F5F5F5F5F5F5F5F5F5F5F5F5F5F5F5F5F5F5F5F5F5F5F5F5F528F5DCF5F5F5F5F5F5F5F5F5F5F5
310
F5F5F5F5F5F5F5F5E2E2F5F5F5F5F5F5F5F5F5F5F5F5F5F5F5F5F5F5F5DCF528F5F5F5F5F5F5F5F5F5F5F5F5F5F5F5F5F5F5F5F5F5F5F5F5F5F5F5F5F5F5F5F5F5F5F5F5F5F5F5F5F5F5F5F5F5F5F5F5F5F5F5F5F5F5F5F5F5F5F5F5F5F5F5F5F5F5F5F5F5F5F5F5F5F5F5F5F5F5F5F5F5F5F5F5F5F5F5F5F5F5F5F5F5F5F5
310
F5F5F5F5F5F5F5F5F5F5F5F5F5F5F5F5F5F5F5F5F5F5F5F5F5F5F5F5F5F5F5F5F5F5F5F5F5F5F528F5DCF5F5F5F5F5F5F5F5F5F5F5F5F5F5F5F5F5F5F5E2E2F5F5F5F5F5F5F5F5F5F5F5F5F5F5F5F5F5F5F5DCF528F5F5F5F5F5F5F5F5F5F5F5F5F5F5F5F5F5F5F5F5F5F5F5F5F5F5F5F5F5F5F5F5F5F5F5F5F5F5F5F5F5F5
310
F5F5F5F5F5F5F5F5F5F5F5F5F5F5F5F5F5F5F5F5F5F5F5F5F5F5F5F5F5F5F5F5F5F5F5F5F5F5F5F5F5F5F5F5F5F5F5F5F5F5F5F5F5F5F5F5F5F5F5F5F5F5F5F5F5F5F5F5F5F5F5F5F5F5F5F5F5F5F5F5F5F5F5F5F5F5F5F5F5F5F5F528F5DCF5F5F5F5F5F5F5F5F5F5F5F5F5F5F5F5F5F5F5E2E2F5F5F5F5F5F5F5F5F5F5F5
310
F5F5F5F5F5F5F5F5DCF528F5F5F5F5F5F5F5F5F5F5F5F5F5F5F52D2D2D2D2D2D2D2D2D2DF5F5F5F5F5F5F5F5F5F5F5F5F5F5F5F5F5F5F5F5F5F5F5F5F5F5F5F5F5F5F5F5F5F5F5F5F5F5F5F5F5F5F5F5F5F5F5F5F5F5F5F5F5F5F5F5F5F5F5F5F5F5F5F5F5F5F5F5F5F5F5F5F5F5F5F5F5F5F5F5F5F5F5F5F5F5F5F5F5F5F5
310
F5F5F5F5F5F5F5F5F5F5F5F5F5F5F5F5F5F528F5DCF5F5F5F5F5F5F5F5F5F5F5F5F5F5F5F5F5F5F5E2E2F5E2F5F5F5F5F5F5F5F5F5F5F5F5F5F5F5F5F5DCF528F5F5F5F5F5F5F5F5F5F5F5F5F5F5F52D2D2D2D2D2D2D2D2D2DF5F5F5F5F5F5F5F5F5F5F5F5F5F5F5F5F5F5F5F5F5F5F5F5F5F5F5F5F5F5F5F5F5F5F5F5F5F5
310
F5F5F5F5F5F5F5F5F5F5F5F5F5F5F5F5F5F5F5F5F5F5F5F5F5F5F5F5F5F5F5F5F5F5F5F5F5F5F5F5F5F5F5F5F5F5F5F5F5F5F5F5F5F5F5F5F5F5F5F5F5F5F5F5F5F5F5F5F5F5F528F5DCF5F5F5F5F5F5F5F5F5F5F5F5F5F5F5F5F5E2F5E2E2F5E2F5F5F5F5F5F5F5F5F5F5F5F5F5F5F5F5F5DCF528F5F5F5F5F5F5F5F5F5F5
310
F5F5F5F5F5F5F5F5F5F5F5F5F5F5F5F5F5F5F5F5F5F5F5F5F5F5F5F5F5F5F5F5F5F5F5F5F5F5F5F5F5F5F5F5F5F5F5F5F5F5F5F5F5F5F5F5F5F5F5F5F5F5F5F5F5F5F5F5F5F5F5F5F5F5F5F5F5F5F5F5F5F5F5F5F5F5F5F5F5F5F5F5F5F5F5F5F5F5F5F5F5F5F5F5F5F5F5F5F5F5F5F5F5F5F5F5F5F5F5F5F5F5F5F528F5DC
310
F5F5F5F5F5F5F5F5F5F5F5F5F5F5F5F5F5E2F5E2E2F5E2F5F5F5F5F5F5F5F5F5F5F5F5F5F5F5F5F5DCF528F5F5F5F5F5F5F5F5F5F5F5F5F5F5F5F5F5F5F5F5F5F5F5F5F5F5F5F5F5F5F5F5F5F5F5F5F5F5F5F5F5F5F5F5F5F5F5F5F5F5F5F5F5F5F5F5F5F5F5F5F5F5F5F5F5F5F5F5F5F5F5F5F5F5F5F5F5F5F5F5F5F5F5F5
310
F5F5F5F5F5F5F5F5F5F5F5F5F5F5F5F5F5F5F5F5F5F5F5F5F5F5F5F5F5F5F5F5F5F5F5F5F5F5F5F5F5F5F5F5F5F5F5F5F5F528F5DCF5F5F5F5F5F5F5F5F5F5F5F5F5F5F5F5F5E2F5E2E2F5E2F5F5F5F5F5F5F5F5F5F5F5F5F5F5F5F5F5DCF528F5F5F5F5F5F5F5F5F5F5F5F5F5F5F5F5F5F5F5F5F5F5F5F5F5F5F5F5F5F5F5
310
F5F5F5F5F5F5F5F5F5F5F5F5F5F5F5F5F5F5F5F5F5F5F5F5F5F5F5F5F5F5F5F5F5F5F5F5F5F5F5F5F5F5F5F5F5F5F5F5F5F5F5F5F5F5F5F5F5F5F5F5F5F5F5F5F5F5F5F5F5F5F5F5F5F5F5F5F5F5F5F5F5F5F5F5F5F5F5F5F5F5F5F5F5F5F5F5F5F5F5F5F5F5F528F5DCF5F5F5F5F5F5F5F5F5F5F5F5F5F5F5F5F5E2F5E2E2
310
F5E2F5F5F5F5F5F5F5F5F5F5F5F5F5F5F5F5F5DCF528F5F5F5F5F5F5F5F5F5F5F5F5F5F5F5F5F5F5F5F5F5F5F5F5F5F5F5F5F5F5F5F5F5F5F5F5F5F5F5F5F5F5F5F5F5F5F5F5F5F5F5F5F5F5F5F5F5F5F5F5F5F5F5F5F5F5F5F5F5F5F5F5F5F5F5F5F5F5F5F5F5F5F5F5F5F5F5F5F5F5F5F5F5F5F5F5F5F5F5F5F5F5F5F5F5
310
F5F5F5F5F5F5F5F5F5F5F5F5F5F5F5F5F5F5F5F5F5F5F5F5F5F5F5F5F528F5DCF5F5F5F5F5F5F5F5F5F5F5F5F5F5F5F5F5E2F5E2E2F5E2F5F5F5F5F5F5F5F5F5F5F5F5F5F5F5F5F5DCF528F5F5F5F5F5F5F5F5F5F5F5F5F5F5F5F5F5F5F5F5F5F5F5F5F5F5F5F5F5F5F5F5F5F5F5F5F5F5F5F5F5F5F5F5F5F5F5F5F5F5F5F5
310
F5F5F5F5F5F5F5F5F5F5F5F5F5F5F5F5F5F5F5F5F5F5F5F5F5F5F5F5F5F5F5F5F5F5F5F5F5F5F5F5F5F5F5F5F5F5F5F5F5F5F5F5F5F5F5F5F5F5F5F5F5F5F5F5F5F5F5F5F5F5F5F5F5F5F5F5F5F5F5F5F5F528F5DCF5F5F5F5F5F5F5F5F5F5F5F5F5F5F5F5F5E2F5E2E2F5E2F5F5F5F5F5F5F5F5F5F5F5F5F5F5F5F5F5DCF5
310
28F5F5F5F5F5F5F5F5F5F5F5F5F5F5F5F5F5F5F5F5F5F5F5F5F5F5F5F5F5F5F5F5F5F5F5F5F5F5F5F5F5F5F5F5F5F5F5F5F5F5F5F5F5F5F5F5F5F5F5F5F5F5F5F5F5F5F5F5F5F5F5F5F5F5F5F5F5F5F5F5F5F5F5F5F5F5F5F5F5F5F5F5F5F5F5F5F5F5F5F5F5F5F5F5F5F5F5F5F5F5F5F5F5F5F5F5F5F5F5F5F5F5F5F5F5F5
310
F5F5F5F5F5F5F5F528F5DCF5F5F5F5F5F5F5F5F5F5F5F5F5F5F5F5F5E2F5E2E2F5E2F5F5F5F5F5F5F5F5F5F5F5F5F5F5F5F5F5DCF528F5F5F5F5F5F5F5F5F5F5F5F5F5F5F5F5F5F5F5F5F5F5F5F5F5F5F5F5F5F5F5F5F5F5F5F5F5F5F5F5F5F5F5F5F5F5F5F5F5F5F5F5F5F5F5F5F5F5F5F5F5F5F5F5F5F5F5F5F5F5F5F5F5
310
F5F5F5F5F5F5F5F5F5F5F5F5F5F5F5F5F5F5F5F5F5F5F5F5F5F5F5F5F5F5F5F5F5F5F5F5F5F5F5F5F5F5F5F5F5F5F5F5F5F5F5F5F5F5F5F5F5F5F5F5F528F5DCF5F5F5F5F5F5F5F5F5F5F5F5F5F5F5F5F5E2F5E2E2F5E2F5F5F5F5F5F5F5F5F5F5F5F5F5F5F5F5F5DCF528F5F5F5F5F5F5F5F5F5F5F5F5F5F5F5F5F5F5F5F5
310
F5F5F5F5F5F5F5F5F5F5F5F5F5F5F5F5F5F5F5F5F5F5F5F5F5F5F5F5F5F5F5F5F5F5F5F5F5F5F5F5F5F5F5F5F5F5F5F5F5F5F5F5F5F5F5F5F5F5F5F5F5F5F5F5F5F5F5F5F5F5F5F5F5F5F5F5F5F5F5F5F5F5F5F5F5F5F5F5F5F5F5F5F5F5F5F5F5F5F5F5F5F5F5F5F5F5F5F5F5F5F5F5F5F528F5DCF5F5F5F5F5F5F5F5F5F5
310
F5F5F5F5F5F5F5E2F5E2E2F5E2F5F5F5F5F5F5F5F5F5F5F5F5F5F5F5F5F5DCF528F5F5F5F5F5F5F5F5F5DCF5F5F5F5F5F5F5F5F5F5F5F5F5F5F5F5F5F5F5F5F5F5F5F5F5F5F5F5F5F5F5F5F5F5F5F5F5F5F5F5F5F5F5F5F5F5F5F5F5F5F5F5F5F5F5F5F5F5F5F5F5F5F5F5F5F5F5F5F5F5F5F5F5F5F5F5F5F5F5F5F5F5F5F5
310
F5F5F5F5F5F5F5F5F5F5F5F5F5F5F5F5F5F5F5F5F5F5F5F5F5F5F5F5F5F5F5F5F5F5F5F5F5F5F5F528F5DCF5F5F5F5F5F5F5F5F5F5F5F5F5F5F5F5F5E2F5E2E2F5E2F5F5F5F5F5F5F5F5F5F5F5F5F5F5F5F5F5DCF528F5F5F5F5F5F5F5F50FDCF5F5F5F5F52D2D2D2D2D2D2D2DF5F5F5F5F50FF5F5F5F5F5F5F5F5F5F5F5F5
310
F5F5F5F5F5F5F5F5F5F5F5F5F5F5F5F5F5F5F5F5F5F5F5F5F5F5F5F5F5F5F5F5F5F5F5F5F5F5F5F5F5F5F5F5F5F5F5F5F5F5F5F5F5F5F5F5F5F5F5F5F5F5F5F5F5F5F5F5F5F5F5F5F5F5F5F5F5F5F5F5F5F5F5F5F5F5F5F5F5F5F5F5F528F5DCF5F5F5F5F5F5F5F5F5F5F5F5F5F5F5F5F5E2F5E2E2F5E2F5F5F5F5F5F5F5F5
310
F5F5F5F5F5F5F5F5F5DCF528F5F5F5F5DCF5F5DC0FDC0F0F0F0F0F2D2D2D2D2D2D2D2D0F0F0F0F0F0F0FF5F5F5F5F5F5F5F5F5F5F5F5F5F5F5F5F5F5F5F5F5F5F5F5F5F5F5F5F5F5F5F5F5F5F5F5F5F5F5F5F5F5F5F5F5F5F5F5F5F5F5F5F5F5F5F5F5F5F5F5F5F5F5F5F5F5F5F5F5F5F5F5F5F5F5F5F5F5F5F5F5F5F5F5F5
310
F5F5F5F5F5F5F5F5F5F5F5F5F5F5F5F5F5F5F528F5DCF5F5F5F5F5F5F5F5F5F5F5F5F5F5F5F5F5E2F5E2E2F5E2F5F5F5F5F5F5F5F5F5F5F5F5F5F5F5F5F5DCF528F5F5F5DCF5F5DCF5F5DCF5F5F5F5F5F5F5F5F5F5F5F5F5F5F5F5F5F50FF5F5F5F5F5F5F5F5F5F5F5F5F5F5F5F5F5F5F5F5F5F5F5F5F5F5F5F5F5F5F5F5F5
310
F5F5F5F5F5F5F5F5F5F5F5F5F5F5F5F5F5F5F5F5F5F5F5F5F5F5F5F5F5F5F5F5F5F5F5F5F5F5F5F5F5F5F5F5F5F5F5F5F5F5F5F5F5F5F5F5F5F5F5F5F5F5F5F5F5F5F5F5F5F5F5F528F5DCF5F5F5F5F5F5F5F5F5F5F5F5F5F5F5F5F5E2F5E2E2F5E2F5F5F5F5F5F5F5F5F5F5F5F5F5F5F5F5F5DCF528F5F5F5F5F5DCF5F5DC
310
DCF5F5F5F5F5F5F5F5F5F5F5F5F5F5F5F5F5F50FF5F5F5F5F5F5F5F5F5F5F5F5F5F5F5F5F5F5F5F5F5F5F5F5F5F5F5F5F5F5F5F5F5F5F5F5F5F5F5F5F5F5F5F5F5F5F5F5F5F5F5F5F5F5F5F5F5F5F5F5F5F5F5F5F5F5F5F5F5F5F5F5F5F5F5F5F5F5F5F5F5F5F5F5F5F5F5F5F5F5F5F5F5F5F5F5F5F5F5F5F5F5F5F5F528F5
310
DCF5F5F5F5F5F5F5F5F5F5F5F5F5F5F5F5F5E2F5E2E2F5E2F5F5F5F5F5F5F5F5F5F5F5F5F5F5F5F5F5DCF528F5F5F5F5DCF5F5DCF5DCF5F5F5F5F5F5F5F5F5F5F5F5F5F5F5F5F5F50FF5F5F5F5F5F5F5F5F5F5F5F5F5F5F5F5F5F5F5F5F5F5F5F5F5F5F5F5F5F5F5F5F5F5F5F5F5F5F5F5F5F5F5F5F5F5F5F5F5F5F5F5F5F5
310
F5F5F5F5F5F5F5F5F5F5F5F5F5F5F5F5F5F5F5F5F5F5F5F5F5F5F5F5F5F5F5F5F5F5F5F5F5F5F5F5F5F5F5F5F5F5F5F5F5F5F528F5DCF5F5F5F5F5F5F5F5F5F5F5F5F5F5F5F5F5E2F5E2E2F5E2F5F5F5F5F5F5F5F5F5F5F5F5F5F5F5F5F5DCF528F5F5F5DCF5F5DCF5F5DCF5F5F5F5F5F5F5F5F5F5F5F5F5F5F5F5F5F50FF5
310
F5F5F5F5F5F5F5F5F5F5F5F5F5F5F5F5F5F5F5F5F5F5F5F5F5F5F5F5F5F5F5F5F5F5F5F5F5F5F5F5F5F5F5F5F5F5F5F5F5F5F5F5F5F5F5F5F5F5F5F5F5F5F5F5F5F5F5F5F5F5F5F5F5F5F5F5F5F5F5F5F5F5F5F5F5F5F5F5F5F5F5F5F5F5F5F5F5F5F5F5F5F5F5F528F5DCF5F5F5F5F5F5F5F5F5F5F5F5F5F5F5F5F5E2F5E2
310
E2F5F5F5F5F5F5F5F5F5F5F5F5F5F5F5F5F5F5F5DCF528F5F5F5F5F5DCF5F5F5DC1B0F0F0F0F0F0F0F0F0F0F0F0F0F0F0F0F0F0F0F0F0F0F0F0F0FF5F5F5F5F5F5F5F5F5F5F5F5F5F5F5F5F5F5F5F5F5F5F5F5F5F5F5F5F5F5F5F5F5F5F5F5F5F5F5F5F5F5F5F5F5F5F5F5F5F5F5F5F5F5F5F5F5F5F5F5F5F5F5F5F5F5F5F5
310
F5F5F5F5F5F5F5F5F5F5F5F5F5F5F5F5F5F5F5F5F5F5F5F5F5F5F5F5F5F528F5DCF5F5F5F5F5F5F5F5F5F5F5F5F5F5F5F5F5F5F5E2E2F5F5F5F5F5F5F5F5F5F5F5F5F5F5F5F5F5F5F5DCF528F5F5F5F5DCF5F5F5DCDCBEF5F5F5F5F5F5F5F5F5F5F5F5F5F5F5F5F50FF5F5F5F5F50FF5F5F5F5F5F5F5F5F5F5F5F5F5F5F5F5
310
F5F5F5F5F5F5F5F5F5F5F5F5F5F5F5F5F5F5F5F5F5F5F5F5F5F5F5F5F5F5F5F5F5F5F5F5F5F5F5F5F5F5F5F5F5F5F5F5F5F5F5F5F5F5F5F5F5F5F5F5F5F5F5F5F5F5F5F5F5F5F5F5F5F5F5F5F5F5F5F5F5F5F528F5DCF5F5F5F5F5F5F5F5F5F5F5F5F5F5F5F5F5F5F5E2E2F5F5F5F5F5F5F5F5F5F5F5F5F5F5F5F5F5F5F5DC
310
F528F5F5F5DCF5F5F5DCF5DCF5BEBEF5F5F5F5F5F5F5F5F5F5F5F5F5F5F50FF5F5F5F5F50FF5F5F5F5F5F5F5F5F5F5F5F5F5F5F5F5F5F5F5F5F5F5F5F5F5F5F5F5F5F5F5F5F5F5F5F5F5F5F5F5F5F5F5F5F5F5F5F5F5F5F5F5F5F5F5F5F5F5F5F5F5F5F5F5F5F5F5F5F5F5F5F5F5F5F5F5F5F5F5F5F5F5F5F5F5F5F5F5F5F5
310
F5F5F5F5F5F5F5F5F528F5DCF5F5F5F5F5F5F5F5F5F5F5F5F5F5F5F5F5F5F5E2E2F5F5F5F5F5F5F5F5F5F5F5F5F5F5F5F5F5F5F5DCF528F5F5F5F5F5DCDCF5F5DCF5F5BEBEF5F5F5F5F5F5F5F5F5F5F5F5F5F50FF5F5F5F5F50FF5F5F5F5F5F5F5F5F5F5F5F5F5F5F5F5F5F5F5F5F5F5F5F5F5F5F5F5F5F5F5F5F5F5F5F5F5
310
F5F5F5F5F5F5F5F5F5F5F5F5F5F5F5F5F5F5F5F5F5F5F5F5F5F5F5F5F5F5F5F5F5F5F5F5F5F5F5F5F5F5F5F5F5F5F5F5F5F5F5F5F5F5F5F5F5F5F5F5F5F528F5DCF5F5F5F5F5F5F5F5F5F5F5F5F5F5F5F5F5F5F5E2E2F5F5F5F5F5F5F5F5F5F5F5F5F5F5F5F5F5F5F5DCF528F5F5F5F5DCF5F5F5DCDCF5F5F5BEF5F5F5F5F5
310
F5F5F5F5F5F5F5F5F50FF5F5F5F5F50FF5F5F5F5F5F5F5F5F5F5F5F5F5F5F5F5F5F5F5F5F5F5F5F5F5F5F5F5F5F5F5F5F5F5F5F5F5F5F5F5F5F5F5F5F5F5F5F5F5F5F5F5F5F5F5F5F5F5F5F5F5F5F5F5F5F5F5F5F5F5F5F5F5F5F5F5F5F5F5F5F5F5F5F5F5F5F5F5F5F5F5F5F5F5F5F5F5F5F528F5DCF5F5F5F5F5F5F5F5F5
310
F5F5F5F5F5F5F5F5F5F5E2E2F5F5F5F5F5F5F5F5F5F5F5F5F5F5F5F5F5F5F5DCF528F5F5F5DCF5F5F5DCF5DCF5F5F5BEBEBEF5F5F5F5F5F5F5F5F5F5F5F50FF5F5F5F5F50FF5F5F5F5F5F5F5F5F5F5F5F5F5F5F5F5F5F5F5F5F5F5F5F5F5F5F5F5F5F5F5F5F5F5F5F5F5F5F5F5F5F5F5F5F5F5F5F5F5F5F5F5F5F5F5F5F5F5
310
F5F5F5F5F5F5F5F5F5F5F5F5F5F5F5F5F5F5F5F5F5F5F5F5F5F5F5F5F5F5F5F5F5F5F5F5F5F5F5F5F528F5DCF5F5F5F5F5F5F5F5F5F5F5F5F5F5F5F5F5F5F5E2E2F5F5F5F5F5F5F5F5F5F5F5F5F5F5F5F5F5F5F5DCF528F5F5F5F5F5DCDCF5F5DCF5F5F5F5BEBEF5F5F5F5F5F5F5F5F5F5F5F50FF5F5F5F5F50FF5F5F5F5F5
310
F5F5F5F5F5F5F5F5F5F5F5F5F5F5F5F5F5F5F5F5F5F5F5F5F5F5F5F5F5F5F5F5F5F5F5F5F5F5F5F5F5F5F5F5F5F5F5F5F5F5F5F5F5F5F5F5F5F5F5F5F5F5F5F5F5F5F5F5F5F5F5F5F5F5F5F5F5F5F5F5F5F5F5F5F5F5F5F5F5F5F5F5F5F528F5DCF5F5F5F5F5F5F5F5F5F5F5F5F5F5F5F5F5F5F5E2E2F5F5F5F5F5F5F5F5F5
310
F5F5F5F5F5F5F5F5F5F5DCF528F5F5F5F5DCF5F5F5DCDCF5F5F5F5BEF5F5F5F5F5F5F5F5F5F5F5F5F50FF5F5F5F5F50FF5F5F5F5F5F5F5F5F5F5F5F5F5F5F5F5F5F5F5F5F5F5F5F5F5F5F5F5F5F5F5F5F5F5F5F5F5F5F5F5F5F5F5F5F5F5F5F5F5F5F5F5F5F5F5F5F5F5F5F5F5F5F5F5F5F5F5F5F5F5F5F5F5F5F5F5F5F5F5
310
F5F5F5F5F5F5F5F5F5F5F5F5F5F5F5F5F5F5F5F528F5DCF5F5F5F5F5F5F5F5F5F5F5F5F5F5F5F5F5F5F5E2E2F5F5F5F5F5F5F5F5F5F5F5F5F5F5F5F5F5F5F5DCF528F5F5F5DCF5F5F5DCF5DCF5F5F5F5BEF5F5F5F5F5F5F5F5F5F5F5F5F50FF5F5F5F5F50FF5F5F5F5F5F5F5F5F5F5F5F5F5F5F5F5F5F5F5F5F5F5F5F5F5F5
310
F5F5F5F5F5F5F5F5F5F5F5F5F5F5F5F5F5F5F5F5F5F5F5F5F5F5F5F5F5F5F5F5F5F5F5F5F5F5F5F5F5F5F5F5F5F5F5F5F5F5F5F5F5F5F5F5F5F5F5F5F5F5F5F5F5F5F5F5F5F5F5F5F528F5DCF5F5F5F5F5F5F5F5F5F5F5F5F5F5F5F5F5F5F5E2E2F5E2F5F5F5F5F5F5F5F5F5F5F5F5F5F5F5F5F5DCF528F5F5F5F5F5F5DCF5
310
F5DCBEBEF5F5BEF5F5F5F5F5F5F5F5F5F5F5F5F50FF5F52D2D2D2D2D2D2D2DF5F5F5F5F5F5F5F5F5F5F5F5F5F5F5F5F5F5F5F5F5F5F5F5F5F5F5F5F5F5F5F5F5F5F5F5F5F5F5F5F5F5F5F5F5F5F5F5F5F5F5F5F5F5F5F5F5F5F5F5F5F5F5F5F5F5F5F5F5F5F5F5F5F5F5F5F5F5F5F5F5F5F5F5F5F5F5F5F5F5F5F5F5F5F528
310
F5DCF5F5F5F5F5F5F5F5F5F5F5F5F5F5F5F5F5E2F5E2E2F5E2F5F5F5F5F5F5F5F5F5F5F5F5F5F5F5F5F5DCF528F5F5F5F5F5DCF5F5DCDCF5BEF5F5BEF5F5F5F5F5F5F5F5F5F5F5F5F50FF5F52D2D2D2D2D2D2D2DF5F5F5F5F5F5F5F5F5F5F5F5F5F5F5F5F5F5F5F5F5F5F5F5F5F5F5F5F5F5F5F5F5F5F5F5F5F5F5F5F5F5F5
310
F5F5F5F5F5F5F5F5F5F5F5F5F5F5F5F5F5F5F5F5F5F5F5F5F5F5F5F5F5F5F5F5F5F5F5F5F5F5F5F5F5F5F5F5F5F5F5F5F5F5F5F528F5DCF5F5F5F5F5F5F5F5F5F5F5F5F5F5F5F5F5E2F5E2E2F5E2F5F5F5F5F5F5F5F5F5F5F5F5F5F5F5F5F5DCF528F5F5F5F5DCF5F5DCF5DCF5BEF5F5BEBEF5F5F5F5F5F5F5F5F5F5F5F50F
310
F5F5F5F5F50FF5F5F5F5F5F5F5F5F5F5F5F5F5F5F5F5F5F5F5F5F5F5F5F5F5F5F5F5F5F5F5F5F5F5F5F5F5F5F5F5F5F5F5F5F5F5F5F5F5F5F5F5F5F5F5F5F5F5F5F5F5F5F5F5F5F5F5F5F5F5F5F5F5F5F5F5F5F5F5F5F5F5F5F5F5F5F5F5F5F5F5F5F5F5F5F5F5F5F528F5DCF5F5F5F5F5F5F5F5F5F5F5F5F5F5F5F5F5E2F5
310
E2E2F5E2F5F5F5F5F5F5F5F5F5F5F5F5F5F5F5F5F5DCF528F5F5F5DCF5F5DCF5F5DCF5F5BEF5F5BEF5F5F5F5F5F5F5F5F5F5F5F50FF5F5F5F5F50FF5F5F5F5F5F5F5F5F5F5F5F5F5F5F5F5F5F5F5F5F5F5F5F5F5F5F5F5F5F5F5F5F5F5F5F5F5F5F5F5F5F5F5F5F5F5F5F5F5F5F5F5F5F5F5F5F5F5F5F5F5F5F5F5F5F5F5F5
310
F5F5F5F5F5F5F5F5F5F5F5F5F5F5F5F5F5F5F5F5F5F5F5F5F5F5F5F5F5F5F528F5DCF5F5F5F5F5F5F5F5F5F5F5F5F5F5F5F5F5E2F5E2E2F5E2F5F5F5F5F5F5F5F5F5F5F5F5F5F5F5F5F5DCF528F5F5F5F5F5DCF5F5DCDCF5F5BEF5F5F5BEBEF5F5F5F5BEBEF5F5F5F50FF5F5F5F5F50FF5F5F5F5F5F5F5F5F5F5F5F5F5F5F5
310
F5F5F5F5F5F5F5F5F5F5F5F5F5F5F5F5F5F5F5F5F5F5F5F5F5F5F5F5F5F5F5F5F5F5F5F5F5F5F5F5F5F5F5F5F5F5F5F5F5F5F5F5F5F5F5F5F5F5F5F5F5F5F5F5F5F5F5F5F5F5F5F5F5F5F5F5F5F5F5F5F5F5F5F528F5DCF5F5F5F5F5F5F5F5F5F5F5F5F5F5F5F5F5E2F5E2E2F5E2F5F5F5F5F5F5F5F5F5F5F5F5F5F5F5F5F5
310
DCF528F5F5F5F5DCF5F5DCF5DCF5F5F5BEF5F5F5BEBEBEBEBEF5BEF5F5F5F50FF5F5F5F5F50FF5F5F5F5F5F5F5F5F5F5F5F5F5F5F5F5F5F5F5F5F5F5F5F5F5F5F5F5F5F5F5F5F5F5F5F5F5F5F5F5F5F5F5F5F5F5F5F5F5F5F5F5F5F5F5F5F5F5F5F5F5F5F5F5F5F5F5F5F5F5F5F5F5F5F5F5F5F5F5F5F5F5F5F5F5F5F5F5F5
310
F5F5F5F5F5F5F5F5F5F528F5DCF5F5F5F5F5F5F5F5F5F5F5F5F5F5F5F5F5E2F5E2E2F5E2F5F5F5F5F5F5F5F5F5F5F5F5F5F5F5F5F5DCF528F5F5F5DCF5F5DCF5F5DCF5F5F5F5BEF5F5F5F5F5F5F5F5BEBEF5F5F50FF5F5F5F5F50FF5F5F5F5F5F5F5F5F5F5F5F5F5F5F5F5F5F5F5F5F5F5F5F5F5F5F5F5F5F5F5F5F5F5F5F5
310
F5F5F5F5F5F5F5F5F5F5F5F5F5F5F5F5F5F5F5F5F5F5F5F5F5F5F5F5F5F5F5F5F5F5F5F5F5F5F5F5F5F5F5F5F5F5F5F5F5F5F5F5F5F5F5F5F5F5F5F5F5F5F528F5DCF5F5F5F5F5F5F5F5F5F5F5F5F5F5F5F5F5E2F5E2E2F5E2F5F5F5F5F5F5F5F5F5F5F5F5F5F5F5F5F5DCF528F5F5F5F5F5DCF5F5F5DCF5F5F5F5F5BEBEBE
310
F5F5F5F5F5F5F5BEBEF50FF5F5F5F5F50FF5F5F5F5F5F5F5F5F5F5F5F5F5F5F5F5F5F5F5F5F5F5F5F5F5F5F5F5F5F5F5F5F5F5F5F5F5F5F5F5F5F5F5F5F5F5F5F5F5F5F5F5F5F5F5F5F5F5F5F5F5F5F5F5F5F5F5F5F5F5F5F5F5F5F5F5F5F5F5F5F5F5F5F5F5F5F5F5F5F5F5F5F5F5F5F5F5F5F528F5DCF5F5F5F5F5F5F5F5
310
F5F5F5F5F5F5F5F5F5E2F5E2E2F5E2F5F5F5F5F5F5F5F5F5F5F5F5F5F5F5F5F5DCF528F5F5F5F5DCF5F5F5DCDCF5F5F5F5F5F5F5F5BEBEF5F5F5F5F5F5BEF50FF5F5F5F5F50FF5F5F5F5F5F5F5F5F5F5F5F5F5F5F5F5F5F5F5F5F5F5F5F5F5F5F5F5F5F5F5F5F5F5F5F5F5F5F5F5F5F5F5F5F5F5F5F5F5F5F5F5F5F5F5F5F5
310
F5F5F5F5F5F5F5F5F5F5F5F5F5F5F5F5F5F5F5F5F5F5F5F5F5F5F5F5F5F5F5F5F5F5F5F5F5F5F5F5F5F528F5DCF5F5F5F5F5F5F5F5F5F5F5F5F5F5F5F5F5E2F5E2E2F5E2F5F5F5F5F5F5F5F5F5F5F5F5F5F5F5F5F5DCF528F5F5F5DCF5F5F5DCF5DCF5F5F5F5F5F5F5F5F5BEBEF5F5F5F5F5F5BE1BF5F5F5F5F50FF5F5F5F5
310
F5F5F5F5F5F5F5F5F5F5F5F5F5F5F5F5F5F5F5F5F5F5F5F5F5F5F5F5F5F5F5F5F5F5F5F5F5F5F5F5F5F5F5F5F5F5F5F5F5F5F5F5F5F5F5F5F5F5F5F5F5F5F5F5F5F5F5F5F5F5F5F5F5F5F5F5F5F5F5F5F5F5F5F5F5F5F5F5F5F5F5F5F5F5F528F5DCF5F5F5F5F5F5F5F5F5F5F5F5F5F5F5F5F5E2F5E2E2F5E2F5F5F5F5F5F5
310
F5F5F5F5F5F5F5F5F5F5F5DCF528F5F5F5F5F5DCDCF5F5DCF5F5F5F5F5F5F5F5F5F5BEF5F5F5F5F5F5F5BEF5F5F5F5F50F0FF5F5F5F5F5F5F5F5F5F5F5F5F5F5F5F5F5F5F5F5F5F5F5F5F5F5F5F5F5F5F5F5F5F5F5F5F5F5F5F5F5F5F5F5F5F5F5F5F5F5F5F5F5F5F5F5F5F5F5F5F5F5F5F5F5F5F5F5F5F5F5F5F5F5F5F5F5
310
F5F5F5F5F5F5F5F5F5F5F5F5F5F5F5F5F5F5F5F5F528F5DCF5F5F5F5F5F5F5F5F5F5F5F5F5F5F5F5F5E2F5E2E2F5E2F5F5F5F5F5F5F5F5F5F5F5F5F5F5F5F5F5DCF528F5F5F5F5DCF5F5F5DCDCDCDCDCDCDCDCDCDCDCDCDCDCDCDCDCDCDCDCDCDCDCDCDCDCDCDCDCF5F5F5F5F5F5F5F5F5F5F5F5F5F5F5F5F5F5F5F5F5F5F5
310
F5F5F5F5F5F5F5F5F5F5F5F5F5F5F5F5F5F5F5F5F5F5F5F5F5F5F5F5F5F5F5F5F5F5F5F5F5F5F5F5F5F5F5F5F5F5F5F5F5F5F5F5F5F5F5F5F5F5F5F5F5F5F5F5F5F5F5F5F5F5F5F5F5F528F5DCF5F5F5F5F5F5F5F5F5F5F5F5F5F5F5F5F5E2F5E2E2F5E2F5F5F5F5F5F5F5F5F5F5F5F5F5F5F5F5F5DCF528F5F5F5DCF5F5F5
310
DCF5F5DCF5F5DCF5F5F5DCF5F5DCF5F5DCF5F5DCF5F5DCF5F5DCF5F5F5F5F5F5F5F5F5F5F5F5F5F5F5F5F5F5F5F5F5F5F5F5F5F5F5F5F5F5F5F5F5F5F5F5F5F5F5F5F5F5F5F5F5F5F5F5F5F5F5F5F5F5F5F5F5F5F5F5F5F5F5F5F5F5F5F5F5F5F5F5F5F5F5F5F5F5F5F5F5F5F5F5F5F5F5F5F5F5F5F5F5F5F5F5F5F5F5F5F5
310
28F5DCF5F5F5F5F5F5F5F5F5F5F5F5F5F5F5F5F5E2F5E2E2F5E2F5F5F5F5F5F5F5F5F5F5F5F5F5F5F5F5F5DCF528F5F5F5F5F5DCDCF5F5DCF5F5DCF5F5F5DCF5F5DCF5F5DCF5F5DCF5F5DCF5F5DCF5F5F5F5F5F5F5F5F5F5F5F5F5F5F5F5F5F5F5F5F5F5F5F5F5F5F5F5F5F5F5F5F5F5F5F5F5F5F5F5F5F5F5F5F5F5F5F5F5
310
F5F5F5F5F5F5F5F5F5F5F5F5F5F5F5F5F5F5F5F5F5F5F5F5F5F5F5F5F5F5F5F5F5F5F5F5F5F5F5F5F5F5F5F5F5F5F5F5F5F5F5F5F528F5DCF5F5F5F5F5F5F5F5F5F5F5F5F5F5F5F5F5E2F5E2E2F5E2F5F5F5F5F5F5F5F5F5F5F5F5F5F5F5F5F5DCF528F5F5F5F5DCF5F5F5DCF5F5DCF5F5DCDCF5DCDCF5DCDCF5F5DCF5F5DC
310
F5F5DCF5F5F5F5F5F5F5F5F5F5F5F5F5F5F5F5F5F5F5F5F5F5F5F5F5F5F5F5F5F5F5F5F5F5F5F5F5F5F5F5F5F5F5F5F5F5F5F5F5F5F5F5F5F5F5F5F5F5F5F5F5F5F5F5F5F5F5F5F5F5F5F5F5F5F5F5F5F5F5F5F5F5F5F5F5F5F5F5F5F5F5F5F5F5F5F5F5F5F5F5F5F5F528F5DCF5F5F5F5F5F5F5F5F5F5F5F5F5F5F5F5F5E2
310
F5E2E2F5E2F5F5F5F5F5F5F5F5F5F5F5F5F5F5F5F5F5DCF528F5F5F5DCF5F5F5DCF5F5DCF5F5DCF5F5DCF5F5DCF5F5F5DCF5F5DCF5F5DCF5F5F5DCF5F5F5F5F5F5F5F5F5F5F5F5F5F5F5F5F5F5F5F5F5F5F5F5F5F5F5F5F5F5F5F5F5F5F5F5F5F5F5F5F5F5F5F5F5F5F5F5F5F5F5F5F5F5F5F5F5F5F5F5F5F5F5F5F5F5F5F5
310
F5F5F5F5F5F5F5F5F5F5F5F5F5F5F5F5F5F5F5F5F5F5F5F5F5F5F5F5F5F5F5F528F5DCF5F5F5F5F5F5F5F5F5F5F5F5F5F5F5F5F5E2F5E2E2F5F5F5F5F5F5F5F5F5F5F5F5F5F5F5F5F5F5F5DCF528F5F5F5F5F5F5DCF5F5DCF5F5DCF5F5DCF5F5DCF5F5F5DCF5F5DCF5F5DCF5F5DCDCF5F5F5F5F5F5F5F5F5F5F5F5F5F5F5F5
310
F5F5F5F5F5F5F5F5F5F5F5F5F5F5F5F5F5F5F5F5F5F5F5F5F5F5F5F5F5F5F5F5F5F5F5F5F5F5F5F5F5F5F5F5F5F5F5F5F5F5F5F5F5F5F5F5F5F5F5F5F5F5F5F5F5F5F5F5F5F5F5F5F5F5F5F5F5F5F5F5F5F5F5F5F528F5DCF5F5F5F5F5F5F5F5F5F5F5F5F5F5F5F5F5F5F5E2E2F5F5F5F5F5F5F5F5F5F5F5F5F5F5F5F5F5F5
310
F5DCF528F5F5F5F5F5F5F5F5F5F5F5F5F5F5F5F5F5F5F5F5F5F5F5F5F5F5F5F5F5F5F5F5F5F5F5F5F5F5F5F5F5F5F5F5F5F5F5F5F5F5F5F5F5F5F5F5F5F5F5F5F5F5F5F5F5F5F5F5F5F5F5F5F5F5F5F5F5F5F5F5F5F5F5F5F5F5F5F5F5F5F5F5F5F5F5F5F5F5F5F5F5F5F5F5F5F5F5F5F5F5F5F5F5F5F5F5F5F5F5F5F5F5F5
310
F5F5F5F5F5F5F5F5F5F5F528F5DCF5F5F5F5F5F5F5F5F5F5F5F5F5F5F5F5F5F5F5E2E2F5F5F5F5F5F5F5F5F5F5F5F5F5F5F5F5F5F5F5DCF528F5F5F5F5F5F5F5F5F5F5F5F5F5F5F5F5F5F5F5F5F5F5F5F5F5F5F5F5F5F5F5F5F5F5F5F5F5F5F5F5F5F5F5F5F5F5F5F5F5F5F5F5F5F5F5F5F5F5F5F5F5F5F5F5F5F5F5F5F5F5
310
F5F5F5F5F5F5F5F5F5F5F5F5F5F5F5F5F5F5F5F5F5F5F5F5F5F5F5F5F5F5F5F5F5F5F5F5F5F5F5F5F5F5F5F5F5F5F5F5F5F5F5F5F5F5F5F5F5F5F5F5F5F5F5F528F5DCF5F5F5F5F5F5F5F5F5F5F5F5F5F5F5F5F5F5F5E2E2F5F5F5F5F5F5F5F5F5F5F5F5F5F5F5F5F5F5F5DCF528F5F5F5F5F5F5F5F5F5F5F5F5F5F5F5F5F5
310
F5F5F5F5F5F5F5F5F5F5F5F5F5F5F5F5F5F5F5F5F5F5F5F5F5F5F5F5F5F5F5F5F5F5F5F5F5F5F5F5F5F5F5F5F5F5F5F5F5F5F5F5F5F5F5F5F5F5F5F5F5F5F5F5F5F5F5F5F5F5F5F5F5F5F5F5F5F5F5F5F5F5F5F5F5F5F5F5F5F5F5F5F5F5F5F5F5F5F5F5F5F5F5F5F5F5F5F5F5F5F5F5F5F5F5F5F528F5DCF5F5F5F5F5F5F5
310
F5F5F5F5F5F5F5F5F5F5F5F5E2E2F5F5F5F5F5F5F5F5F5F5F5F5F5F5F5F5F5F5F5DCF528F5F5F5F5F5F5F5F5F5F5F5F5F5F5F5F5F5F5F5F5F5F5F5F5F5F5F5F5F5F5F5F5F5F5F5F5F5F5F5F5F5F5F5F5F5F5F5F5F5F5F5F5F5F5F5F5F5F5F5F5F5F5F5F5F5F5F5F5F5F5F5F5F5F5F5F5F5F5F5F5F5F5F5F5F5F5F5F5F5F5F5
310
F5F5F5F5F5F5F5F5F5F5F5F5F5F5F5F5F5F5F5F5F5F5F5F5F5F5F5F5F5F5F5F5F5F5F5F5F5F5F5F5F5F5F528F5DCF5F5F5F5F5F5F5F5F5F5F5F5F5F5F5F5F5F5F5E2E2F5F5F5F5F5F5F5F5F5F5F5F5F5F5F5F5F5F5F5DCF528F5F5F5F5F5F5F5F5F5F5F5F5F5F5F5F5F5F5F5F5F5F5F5F5F5F5F5F5F5F5F5F5F5F5F5F5F5F5
310
F5F5F5F5F5F5F5F5F5F5F5F5F5F5F5F5F5F5F5F5F5F5F5F5F5F5F5F5F5F5F5F5F5F5F5F5F5F5F5F5F5F5F5F5F5F5F5F5F5F5F5F5F5F5F5F5F5F5F5F5F5F5F5F5F5F5F5F5F5F5F5F5F5F5F5F5F5F5F5F5F5F5F5F5F5F5F5F5F5F5F5F5F5F5F5F528F5DCF5F5F5F5F5F5F5F5F5F5F5F5F5F5F5F5F5F5F5E2E2F5F5F5F5F5F5F5
310
F5F5F5F5F5F5F5F5F5F5F5F5DCF528F5F5F5F5F5F5F5F5F5F5F5F5F5F5F5F5F5F5F5F5F5F5F5F5F5F5F5F5F5F5F5F5F5F5F5F5F5F5F5F5F5F5F5F5F5F5F5F5F5F5F5F5F5F5F5F5F5F5F5F5F5F5F5F5F5F5F5F5F5F5F5F5F5F5F5F5F5F5F5F5F5F5F5F5F5F5F5F5F5F5F5F5F5F5F5F5F5F5F5F5F5F5F5F5F5F5F5F5F5F5F5F5
310
F5F5F5F5F5F5F5F5F5F5F5F5F5F5F5F5F5F5F5F5F5F528F5DCF5F5F5F5F5F5F5F5F5F5F5F5F5F5F5F5F5F5F5E2E2F5F5F5F5F5F5F5F5F5F5F5F5F5F5F5F5F5F5F5DCF528F5F5F5F5F5F5F5F5F5F5F5F5F5F5F5F5F5F5F5F5F5F5F5F5F5F5F5F5F5F5F5F5F5F5F5F5F5F5F5F5F5F5F5F5F5F5F5F5F5F5F5F5F5F5F5F5F5F5F5
310
F5F5F5F5F5F5F5F5F5F5F5F5F5F5F5F5F5F5F5F5F5F5F5F5F5F5F5F5F5F5F5F5F5F5F5F5F5F5F5F5F5F5F5F5F5F5F5F5F5F5F5F5F5F5F5F5F5F5F5F5F5F5F5F5F5F5F5F5F5F5F5F5F5F5F528F5DCF5F5F5F5F5F5F5F5F5F5F5F5F5F5F5F5F5F5F5E2E2F5E2F5F5F5F5F5F5F5F5F5F5F5F5F5F5F5F5F5DCF528F5F5F5F5F5F5
310
F5F5F5F5F5F5F5F5F5F5F5F5F5F5F5F5F5F5F5F5F5F5F5F5F5F5F5F5F5F5F5F5F5F5F5F5F5F5F5F5F5F5F5F5F5F5F5F5F5F5F5F5F5F5F5F5F5F5F5F5F5F5F5F5F5F5F5F5F5F5F5F5F5F5F5F5F5F5F5F5F5F5F5F5F5F5F5F5F5F5F5F5F5F5F5F5F5F5F5F5F5F5F5F5F5F5F5F5F5F5F5F5F5F5F5F5F5F5F5F5F5F5F5F5F5F5F5
310
F528F5DCF5F5F5F5F5F5F5F5F5F5F5F5F5F5F5F5F5E2F5E2E2F5E2F5F5F5F5F5F5F5F5F5F5F5F5F5F5F5F5F5DCF528F5F5F5F5F5F5F5F5F5F5F5F5F5F5F5F5F5F5F5F5F5F5F5F5F5F5F5F5F5F5F5F5F5F5F5F5F5F5F5F5F5F5F5F5F5F5F5F5F5F5F5F5F5F5F5F5F5F5F5F5F5F5F5F5F5F5F5F5F5F5F5F5F5F5F5F5F5F5F5F5
310
F5F5F5F5F5F5F5F5F5F5F5F5F5F5F5F5F5F5F5F5F5F5F5F5F5F5F5F5F5F5F5F5F5F5F5F5F5F5F5F5F5F5F5F5F5F5F5F5F5F5F5F5F5F528F5DCF5F5F5F5F5F5F5F5F5F5F5F5F5F5F5F5F5E2F5E2E2F5E2F5F5F5F5F5F5F5F5F5F5F5F5F5F5F5F5F5DCF528F5F5F5F5F5F5F5F5F5F5F5F5F5F5F5F5F5F5F5F5F5F5F5F5F5F5F5
310
F5F5F5F5F5F5F5F5F5F5F5F5F5F5F5F5F5F5F5F5F5F5F5F5F5F5F5F5F5F5F5F5F5F5F5F5F5F5F5F5F5F5F5F5F5F5F5F5F5F5F5F5F5F5F5F5F5F5F5F5F5F5F5F5F5F5F5F5F5F5F5F5F5F5F5F5F5F5F5F5F5F5F5F5F5F5F5F5F5F5F5F5F5F5F5F5F5F5F5F5F5F5F5F5F5F5F528F5DCF5F5F5F5F5F5F5F5F5F5F5F5F5F5F5F5F5
310
E2F5E2E2F5E2F5F5F5F5F5F5F5F5F5F5F5F5F5F5F5F5F5DCF528F5F5F5F5F5F5F5F5F5F5F5F5F5F5F5F5F5F5F5F5F5F5F5F5F5F5F5F5F5F5F5F5F5F5F5F5F5F5F5F5F5F5F5F5F5F5F5F5F5F5F5F5F5F5F5F5F5F5F5F5F5F5F5F5F5F5F5F5F5F5F5F5F5F5F5F5F5F5F5F5F5F5F5F5F5F5F5F5F5F5F5F5F5F5F5F5F5F5F5F5F5
310
F5F5F5F5F5F5F5F5F5F5F5F5F5F5F5F5F5F5F5F5F5F5F5F5F5F5F5F5F5F5F5F5F528F5DCF5F5F5F5F5F5F5F5F5F5F5F5F5F5F5F5F5E2F5E2E2F5E2F5F5F5F5F5F5F5F5F5F5F5F5F5F5F5F5F5DCF528F5F5F5F5F5F5F5F5F5F5F5F5F5F5F5F5F5F5F5F5F5F5F5F5F5F5F5F5F5F5F5F5F5F5F5F5F5F5F5F5F5F5F5F5F5F5F5F5
310
F5F5F5F5F5F5F5F5F5F5F5F5F5F5F5F5F5F5F5F5F5F5F5F5F5F5F5F5F5F5F5F5F5F5F5F5F5F5F5F5F5F5F5F5F5F5F5F5F5F5F5F5F5F5F5F5F5F5F5F5F5F5F5F5F5F5F5F5F5F5F5F5F5F5F5F5F5F5F5F5F5F5F5F5F5F528F5DCF5F5F5F5F5F5F5F5F5F5F5F5F5F5F5F5F5E2F5E2E2F5E2F5F5F5F5F5F5F5F5F5F5F5F5F5F5F5
310
F5F5DCF528F5F5F5F5F5F5F5F5F5F5F5F5F5F5F5F5F5F5F5F5F5F5F5F5F5F5F5F5F5F5F5F5F5F5F5F5F5F5F5F5F5F5F5F5F5F5F5F5F5F5F5F5F5F5F5F5F5F5F5F5F5F5F5F5F5F5F5F5F5F5F5F5F5F5F5F5F5F5F5F5F5F5F5F5F5F5F5F5F5F5F5F5F5F5F5F5F5F5F5F5F5F5F5F5F5F5F5F5F5F5F5F5F5F5F5F5F5F5F5F5F5F5
310
F5F5F5F5F5F5F5F5F5F5F5F528F5DCF5F5F5F5F5F5F5F5F5F5F5F5F5F5F5F5F5E2F5E2E2F5E2F5F5F5F5F5F5F5F5F5F5F5F5F5F5F5F5F5DCF528F5F5F5F5F5F5F5F5F5F5F5F5F5F5F5F5F5F5F5F5F5F5F5F5F5F5F5F5F5F5F5F5F5F5F5F5F5F5F5F5F5F5F5F5F5F5F5F5F5F5F5F5F5F5F5F5F5F5F5F5F5F5F5F5F5F5F5F5F5
310
F5F5F5F5F5F5F5F5F5F5F5F5F5F5F5F5F5F5F5F5F5F5F5F5F5F5F5F5F5F5F5F5F5F5F5F5F5F5F5F5F5F5F5F5F5F5F5F5F5F5F5F5F5F5F5F5F5F5F5F5F5F5F5F5F528F5DCF5F5F5F5F5F5F5F5F5F5F5F5F5F5F5F5F5E2F5E2E2F5E2F5F5F5F5F5F5F5F5F5F5F5F5F5F5F5F5F5DCF528F5F5F5F5F5F5F5F5F5F5F5F5F5F5F5F5
310
F5F5F5F5F5F5F5F5F5F5F5F5F5F5F5F5F5F5F5F5F5F5F5F5F5F5F5F5F5F5F5F5F5F5F5F5F5F5F5F5F5F5F5F5F5F5F5F5F5F5F5F5F5F5F5F5F5F5F5F5F5F5F5F5F5F5F5F5F5F5F5F5F5F5F5F5F5F5F5F5F5F5F5F5F5F5F5F5F5F5F5F5F5F5F5F5F5F5F5F5F5F5F5F5F5F5F5F5F5F5F5F5F5F5F5F5F5F528F5DCF5F5F5F5F5F5
310
F5F5F5F5F5F5F5F5F5F5F5E2F5E2E2F5E2F5F5F5F5F5F5F5F5F5F5F5F5F5F5F5F5F5DCF528282828282828282828282828282828282828282828282828282828282828282828282828282828282828282828282828282828282828282828282828282828282828282828282828282828282828282828282828282828282828
310
282828282828282828282828282828282828282828282828282828282828282828282828282828282828282828F5DCF5F5F5F5F5F5F5F5F5F5F5F5F5F5F5F5F5E2F5E2E2F5E2F5F5F5F5F5F5F5F5F5F5F5F5F5F5F5F5F5DCF528F5F5F5F5F5F5F5F5F5F5F5F5F5F5F5F5F5F5F5F5F5F5F5F5F5F5F5F5F5F5F5F5F5F5F5F5F5
310
F5F5F5F5F5F5F5F5F5F5F5F5F5F5F5F5F5F5F5F5F5F5F5F5F5F5F5F5F528F5F5F5F5F5F5F5F5F5F5F5F5F5F5F5F5F5F5F5F5F5F5F5F5F5F5F5F5F5F5F5F5F5F5F5F5F5F5F5F5F5F5F5F5F5F5F5F5F5F5F5F5F5F5F5F5F5F5F5F5F5F5F5F5F5F5F528F5DCF5F5F5F5F5F5F5F5F5F5F5F5F5F5F5F5F5E2F5E2E2F5E2F5F5F5F5
310
F5F5F5F5F5F5F5F5F5F5F5F5F5DCF528F5F5F5F5F5F5F5F5F5F5F5F5F52D2D2D2D2D2D2D2D2D2D2D2D2D2D2D2D2D2D2D2D2D2D2D2D2D2D2D2D2D2D2D2D2D2D2D2D2D2DF5F5F5F5F5F5F5F5F5F5F5F5F5F5F528F5F5F52D2D2D2DF52D2D2D2D2D2DF5F5F5F5F5F5F5F5F5F5F5F5F5F5F5F5F5F5F5F5F5F5F5F5F5F5F5F5F5F5
310
F5F5F5F5F5F5F5F5F5F5F5F5F5F5F5F5F5F5F5F5F5F5F528F5DCF5F5F5F5F5F5F5F5F5F5F5F5F5F5F5F5F5E2F5E2E2F5E2F5F5F5F5F5F5F5F5F5F5F5F5F5F5F5F5F5DCF528F5F5F5F5F5F5F5F5F5F5F5F5F52D2D2D2D2D2D2D2D2D2D2D2D2D2D2D2D2D2D2D2D2D2D2D2D2D2D2D2D2D2D2D2D2D2D2D2D2D2DF5F5F5F5F5F5F5
310
F5F5F5F5F5F5F5F528F5F5F52D2D2D2DF52D2D2D2DF52DF5F5F5F5F5F5F5F5F5F5F5F5F5F5F5F5F5F5F5F5F5F5F5F5F5F5F5F5F5F5F5F5F5F5F5F5F5F5F5F5F5F5F5F5F5F5F5F5F5F5F5F5F528F5DCF5F5F5F5F5F5F5F5F5F5F5F5F5F5F5F5F5E2F5E2E2F5E2F5F5F5F5F5F5F5F5F5F5F5F5F5F5F5F5F5DCF528F5F5F5F5F5
310
F5F5F5F5F5F5F5F5F5F5F5F5F5F5F5F5F5F5F5F5F5F5F5F5F5F5F5F5F5F5F5F5F5F5F5F5F5F5F5F5F5F5F5F5F5F5F5F5F5F5F5F5F5F5F5F5F5F5F5F5F528F5F5F5F5F5F5F5F5F5F5F5F5F5F5F5F5F5F5F5F5F5F5F5F5F5F5F5F5F5F5F5F5F5F5F5F5F5F5F5F5F5F5F5F5F5F5F5F5F5F5F5F5F5F5F5F5F5F5F5F5F5F5F5F5F5
310
F5F528F5DCF5F5F5F5F5F5F5F5F5F5F5F5F5F5F5F5F5E2F5E2E2F5E2F5F5F5F5F5F5F5F5F5F5F5F5F5F5F5F5F5DCF52828282828282828282828282828282828282828282828282828282D2D2D2D2D2D2D2D2D2D2D2D2D28282828282828282828282828282828282828282828282828282828282828282828282828282828
310
2828282828282828282828282828282828282828282828282828282828282828282828282828282828282828282828282828282828282828F5DCF5F5F5F5F5F5F5F5F5F5F5F5F5F5F5F5F5E2F5E2E2F5E2F5F5F5F5F5F5F5F5F5F5F5F5F5F5F5F5F5DCF528F5F5F5F5F5F5F5F5F5F5F5F5F5F5F5F5F5F5F5F5F5F5F5F5F5F5
310
2D2D2D2D2D2D2D2D2D2D2D2D2DF5F5F5F5F5F5F5F5F5F5F5F5F5F5F5F5F5F5F5F5F5F5F5F5F5F5F528F5F5F52D2D2D2D2D2D2D2D2D2D2DF5F52D2D2D2D2D2D2D2D2D2DF5F5F5F5F5F5F5F5F5F5F5F5F5F5F5F5F5F5F5F5F5F5F5F5F5F5F5F5F5F5F5F5F5F5F5F5F5F5F5F5F528F5DCF5F5F5F5F5F5F5F5F5F5F5F5F5F5F5F5
310
F5E2F5E2E2F5E2F5F5F5F5F5F5F5F5F5F5F5F5F5F5F5F5F5DCF528F5F5F5F5F5F5F5F5F5F5F5F5F5F5F5F5F5F5F5F5F5F5F5F5F5F52D2D2D2D2D2D2D2D2D2D2D2D2DF5F5F5F5F5F5F5F5F5F5F5F5F5F5F5F5F5F5F5F5F5F5F5F5F5F5F528F5F5F52D2D2D2D2D2D2D2D2D2D2DF52D2D2D2D2D2D2D2D2D2D2DF5F5F5F5F5F5F5
310
F5F5F5F5F5F5F5F5F5F5F5F5F5F5F5F5F5F5F5F5F5F5F5F5F5F5F5F5F5F5F5F5F5F528F5DCF5F5F5F5F5F5F5F5F5F5F5F5F5F5F5F5F5E2F5E2E2F5F5F5F5F5F5F5F5F5F5F5F5F5F5F5F5F5F5F5DCF528F5F5F5F5F5F5F5F5F5F5F5F5F5F5F5F5F5F5F5F5F5F5F5F5F5F5F5F5F5F5F5F5F5F5F5F5F5F5F5F5F5F5F5F5F5F5F5
310
F5F5F5F5F5F5F5F5F5F5F5F5F5F5F5F5F5F5F528F5F5F5F5F5F5F5F5F5F5F5F5F5F5F5F5F5F5F5F5F5F5F5F5F5F5F5F5F5F5F5F5F5F5F5F5F5F5F5F5F5F5F5F5F5F5F5F5F5F5F5F5F5F5F5F5F5F5F5F5F5F5F5F5F5F5F528F5DCF5F5F5F5F5F5F5F5F5F5F5F5F5F5F5F5F5F5F5E2E2F5F5F5F5F5F5F5F5F5F5F5F5F5F5F5F5
310
F5F5F5DCF52828282828282828282828282828282828282828282828282828282828282828282828282828282828282828282828282828282828282828282828282828282828282828282828282828282828282828282828282828282828282828282828282828282828282828282828282828282828282828282828282828
310
2828282828282828282828282828F5DCF5F5F5F5F5F5F5F5F5F5F5F5F5F5F5F5F5F5F5E2E2F5F5F5F5F5F5F5F5F5F5F5F5F5F5F5F5F5F5F5DCF5F5F5F5F5F5F5F5F5F5F5F5F5F5F5F5F5F5F5F5F5F5F5F5F5F5F5F5F5F5F5F5F5F5F5F5F5F5F5F5F5F5F5F5F5F5F5F5F5F5F5F5F5F5F5F5F5F5F5F5F5F5F5F5F5F5F5F5F5F5
310
F5F5F5F5F5F5F5F5F5F5F5F5F5F5F5F5F5F5F5F5F5F5F5F5F5F5F5F5F5F5F5F5F5F5F5F5F5F5F5F5F5F5F5F5F5F5F5F5F5F5F5F5F5F5F5F5F5F5F5F5F5F5F5F5F5F5F5F5DCF5F5F5F5F5F5F5F5F5F5F5F5F5F5F5F5F5F5F5E2E2F5F5F5F5F5F5F5F5F5F5F5F5F5F5F5F5F5F5F5DCDCDCDCDCDCDCDCDCDCDCDCDCDCDCDCDCDC
310
DCDCDCDCDCDCDCDCDCDCDCDCDCDCDCDCDCDCDCDCDCDCDCDCDCDCDCDCDCDCDCDCDCDCDCDCDCDCDCDCDCDCDCDCDCDCDCDCDCDCDCDCDCDCDCDCDCDCDCDCDCDCDCDCDCDCDCDCDCDCDCDCDCDCDCDCDCDCDCDCDCDCDCDCDCDCDCDCDCDCDCDCDCDCDCDCDCDCDCDCDCDCDCDCDCDCDCDCDCDCDCDCDCDCDCDCDCDCDCDCDCDCF5F5F5F5F5
310
F5F5F5F5F5F5F5F5F5F5F5F5F5F5E2E2F5F5F5F5F5F5F5F5F5F5F5F5F5F5F5F5F5F5F5DCDCDCDCDCDCDCDCDCDCDCDCDCDCDCDCDCDCDCDCDCDCDCDCDCDCDCDCDCDCDCDCDCDCDCDCDCDCDCDCDCDCDCDCDCDCDCDCDCDCDCDCDCDCDCDCDCDCDCDCDCDCDCDCDCDCDCDCDCDCDCDCDCDCDCDCDCDCDCDCDCDCDCDCDCDCDCDCDCDCDCDC
310
DCDCDCDCDCDCDCDCDCDCDCDCDCDCDCDCDCDCDCDCDCDCDCDCDCDCDCDCDCDCDCDCDCDCDCDCDCDCDCDCDCDCDCDCDCDCDCDCF5F5F5F5F5F5F5F5F5F5F5F5F5F5F5F5F5F5F5E2E2F5F5F5F5F5F5F5F5F5F5F5F5F5F5F5F5F5F5F5F5F5F5F5F5F5F5F5F5F5F5F5F5F5F5F5F5F5F5F5F5F5F5F5F5F5F5F5F5F5F5F5F5F5F5F5F5F5F5
310
F5F5F5F5F5F5F5F5F5F5F5F5F5F5F5F5F5F5F5F5F5F5F5F5F5F5F5F5F5F5F5F5F5F5F5F5F5F5F5F5F5F5F5F5F5F5F5F5F5F5F5F5F5F5F5F5F5F5F5F5F5F5F5F5F5F5F5F5F5F5F5F5F5F5F5F5F5F5F5F5F5F5F5F5F5F5F5F5F5F5F5F5F5F5F5F5F5F5F5F5F5F5F5F5F5F5F5F5F5F5F5F5F5F5F5F5F5F5F5F5E2E2F5F5F5F5F5
310
F5F5F5F5F5F5F5F5F5F5F5F5F5F5F5F5F5F5F5F5F5F5F5F5F5F5F5F5F5F5F5F5F5F5F5F5F5F5F5F5F5F5F5F5F5F5F5F5F5F5F5F5F5F5F5F5F5F5F5F5F5F5F5F5F5F5F5F5F5F5F5F5F5F5F5F5F5F5F5F5F5F5F5F5F5F5F5F5F5F5F5F5F5F5F5F5F5F5F5F5F5F5F5F5F5F5F5F5F5F5F5F5F5F5F5F5F5F5F5F5F5F5F5F5F5F5F5
310
F5F5F5F5F5F5F5F5F5F5F5F5F5F5F5F5F5F5F5F5F5F5F5F5F5F5F5F5F5F5F5F5F5F5F5F5F5F5F5F5F5F5F5F5F5F5E2E2F5F5F5F5F5F5F5F5F5F5F5F5F5F5F5F5F5F5F5F5F5F5F5F5F5F5F5F5F5F5F5F5F5F5F5F5F5F5F5F5F5F5F5F5F5F5F5F5F5F5F5F5F5F5F5F5F5F5F5F5F5F5F5F5F5F5F5F5F5F5F5F5F5F5F5F5F5F5F5
310
F5F5F5F5F5F5F5F5F5F5F5F5F5F5F5F5F5F5F5F5F5F5F5F5F5F5F5F5F5F5F5F5F5F5F5F5F5F5F5F5F5F5F5F5F5F5F5F5F5F5F5F5F5F5F5F5F5F5F5F5F5F5F5F5F5F5F5F5F5F5F5F5F5F5F5F5F5F5F5F5F5F5F5F5F5F5F5F5F5F5F5F5F5F5F5F5F5F5F5E2E2F5F5F5F5F5F5F5F5F5F5F5F5F5F5F5F5F5F5F5F5F5F5F5F5F5F5
310
F5F5F5F5F5F5F5F5F5F5F5F5F5F5F5F5F5F5F5F5F5F5F5F5F5F5F5F5F5F5F5F5F5F5F5F5F5F5F5F5F5F5F5F5F5F5F5F5F5F5F5F5F5F5F5F5F5F5F5F5F5F5F5F5F5F5F5F5F5F5F5F5F5F5F5F5F5F5F5F5F5F5F5F5F5F5F5F5F5F5F5F5F5F5F5F5F5F5F5F5F5F5F5F5F5F5F5F5F5F5F5F5F5F5F5F5F5F5F5F5F5F5F5F5F5F5F5
310
F5F5F5F5F5F5F5F5F5F5F5F5F5F5F5F5F5F5F5F5F5F5F5F5F5E2E2F5E2F5F5F5F5F5F5F5F5F5F5F5F5F5F5F5F5F5F5F5F5F5F5F5F5F5F5F5F5F5F5F5F5F5F5F5F5F5F5F5F5F5F5F5F5F5F5F5F5F5F5F5F5F5F5F5F5F5F5F5F5F5F5F5F5F5F5F5F5F5F5F5F5F5F5F5F5F5F5F5F5F5F5F5F5F5F5F5F5F5F5F5F5F5F5F5F5F5F5
310
F5F5F5F5F5F5F5F5F5F5F5F5F5F5F5F5F5F5F5F5F5F5F5F5F5F5F5F5F5F5F5F5F5F5F5F5F5F5F5F5F5F5F5F5F5F5F5F5F5F5F5F5F5F5F5F5F5F5F5F5F5F5F5F5F5F5F5F5F5F5F5F5F5F5F5F5E2F5E2E2F5E2F5F5F5F5F5F5F5F5F5F5F5F5F5F5F5F5F5F5F5F5F5F5F5F5F5F5F5F5F5F5F5F5F5F5F5F5F5F5F5F5F5F5F5F5F5
310
F5F5F5F5F5F5F5F5F5F5F5F5F5F5F5F5F5F5F5F5F5F5F5F5F5F5F5F5F5F5F5F5F5F5F5F5F5F5F5F5F5F5F5F5F5F5F5F5F5F5F5F5F5F5F5F5F5F5F5F5F5F5F5F5F5F5F5F5F5F5F5F5F5F5F5F5F5F5F5F5F5F5F5F5F5F5F5F5F5F5F5F5F5F5F5F5F5F5F5F5F5F5F5F5F5F5F5F5F5F5F5F5F5F5F5F5F5F5F5F5F5F5F5F5F5F5F5
310
F5F5E2F5E2E2F5E2F5F5F5F5F5F5F5F5F5F5F5F5F5F5F5F5F5F5F5F5F5F5F5F5F5F5F5F5F5F5F5F5F5F5F5F5F5F5F5F5F5F5F5F5F5F5F5F5F5F5F5F5F5F5F5F5F5F5F5F5F5F5F5F5F5F5F5F5F5F5F5F5F5F5F5F5F5F5F5F5F5F5F5F5F5F5F5F5F5F5F5F5F5F5F5F5F5F5F5F5F5F5F5F5F5F5F5F5F5F5F5F5F5F5F5F5F5F5F5
310
F5F5F5F5F5F5F5F5F5F5F5F5F5F5F5F5F5F5F5F5F5F5F5F5F5F5F5F5F5F5F5F5F5F5F5F5F5F5F5F5F5F5F5F5F5F5F5F5F5F5F5F5F5F5F5E2F5E2E2F5E2F5F5F5F5F5F5F5F5F5F5F5F5F5F5F5F5F5F5F5F5F5F5F5F5F5F5F5F5F5F5F5F5F5F5F5F5F5F5F5F5F5F5F5F5F5F5F5F5F5F5F5F5F5F5F5F5F5F5F5F5F5F5F5F5F5F5
310
F5F5F5F5F5F5F5F5F5F5F5F5F5F5F5F5F5F5F5F5F5F5F5F5F5F5F5F5F5F5F5F5F5F5F5F5F5F5F5F5F5F5F5F5F5F5F5F5F5F5F5F5F5F5F5F5F5F5F5F5F5F5F5F5F5F5F5F5F5F5F5F5F5F5F5F5F5F5F5F5F5F5F5F5F5F5F5F5F5F5F5F5F5F5F5F5F5F5F5F5F5F5F5F5F5F5F5F5E2F5E2E2F5E2F5F5F5F5F5F5F5F5F5F5F5F5F5
310
F5F5F5F5F5F5F5F5F5F5F5F5F5F5F5F5F5F5F5F5F5F5F5F5F5F5F5F5F5F5F5F5F5F5F5F5F5F5F5F5F5F5F5F5F5F5F5F5F5F5F5F5F5F5F5F5F5F5F5F5F5F5F5F5F5F5F5F5F5F5F5F5F5F5F5F5F5F5F5F5F5F5F5F5F5F5F5F5F5F5F5F5F5F5F5F5F5F5F5F5F5F5F5F5F5F5F5F5F5F5F5F5F5F5F5F5F5F5F5F5F5F5F5F5F5F5F5
310
F5F5F5F5F5F5F5F5F5F5F5F5F5F5F5F5F5F5F5F5F5F5F5F5F5F5F5F5F5F5F5F5F5F5E2F5E2E2F5E2F5F5F5F5F5F5F5F5F5F5F5F5F5F5F5F5F5F5F5F5F5F5F5F5F5F5F5F5F5F5F5F5F5F5F5F5F5F5F5F5F5F5F5F5F5F5F5F5F5F5F5F5F5F5F5F5F5F5F5F5F5F5F5F5F5F5F5F5F5F5F5F5F5F5F5F5F5F5F5F5F5F5F5F5F5F5F5
310
F5F5F5F5F5F5F5F5F5F5F5F5F5F5F5F5F5F5F5F5F5F5F5F5F5F5F5F5F5F5F5F5F5F5F5F5F5F5F5F5F5F5F5F5F5F5F5F5F5F5F5F5F5F5F5F5F5F5F5F5F5F5F5F5F5F5F5F5F5F5F5F5F5F5F5F5F5F5F5F5F5F5F5F5F5F5F5E2F5E2E2F5E2F5F5F5F5F5F5F5F5F5F5F5F5F5F5F5F5F5F5F5F5F5F5F5F5F5F5F5F5F5F5F5F5F5F5
310
F5F5F5F5F5F5F5F5F5F5F5F5F5F5F5F5F5F5F5F5F5F5F5F5F5F5F5F5F5F5F5F5F5F5F5F5F5F5F5F5F5F5F5F5F5F5F5F5F5F5F5F5F5F5F5F5F5F5F5F5F5F5F5F5F5F5F5F5F5F5F5F5F5F5F5F5F5F5F5F5F5F5F5F5F5F5F5F5F5F5F5F5F5F5F5F5F5F5F5F5F5F5F5F5F5F5F5F5F5F5F5F5F5F5F5F5F5F5F5F5F5F5F5F5F5F5F5
310
F5F5F5F5F5F5F5F5F5F5F5F5F5E2F5E2E2F5E2E2E2E2E2E2E2E2E2F5F5F5F5F5F5F5F5F5E2E2E2E2E2E2E2E2E2E2E2E2E2E2E2E2F5F5F5F5F5F5F5F5F5E2E2E2E2E2E2E2E2E2E2E2E2E2E2E2E2F5F5F5F5F5F5F5F5F5E2E2E2E2E2E2E2E2E2E2E2E2E2E2E2E2F5F5F5F5F5F5F5F5F5E2E2E2E2E2E2E2E2E2E2E2E2E2E2E2E2
310
F5F5F5F5F5F5F5F5F5E2E2E2E2E2E2E2E2E2E2E2E2E2E2E2E2F5F5F5F5F5F5F5F5F5E2E2E2E2E2E2E2E2E2E2E2E2E2E2E2E2F5F5F5F5F5F5F5F5F5E2E2E2E2E2E2E2E2F5E2E2F5F5F5F5F5F5F5F5F5F5F5F5F5F5F5F5F5F5F5F5F5F5F5F5F5F5F5F5F5F5F5F5F5F5F5F5F5F5F5F5F5F5F5F5F5F5F5F5F5F5F5F5F5F5F5F5F5
310
F5F5F5F5F5F5F5F5F5F5F5F5F5F5F5F5F5F5F5F5F5F5F5F5F5F5F5F5F5F5F5F5F5F5F5F5F5F5F5F5F5F5F5F5F5F5F5F5F5F5F5F5F5F5F5F5F5F5F5F5F5F5F5F5F5F5F5F5F5F5F5F5F5F5F5F5F5F5F5F5F5F5F5F5F5F5F5F5F5F5F5F5F5F5F5F5F5F5F5F5F5F5F5F5F5F5F5F5F5F5F5F5F5F5F5F5F5F5F5F5F5E2E2E2E2E2E2
310
E2E2E2E2E2E2E2E2E2E2E2E2E2E2E2E2E2E2E2E2E2E2E2E2E2E2E2E2E2E2E2E2E2E2E2E2E2E2E2E2E2E2E2E2E2E2E2E2E2E2E2E2E2E2E2E2E2E2E2E2E2E2E2E2E2E2E2E2E2E2E2E2E2E2E2E2E2E2E2E2E2E2E2E2E2E2E2E2E2E2E2E2E2E2E2E2E2E2E2E2E2E2E2E2E2E2E2E2E2E2E2E2E2E2E2E2E2E2E2E2E2E2E2E2E2E2E2
310
E2E2E2E2E2E2E2E2E2E2E2E2E2E2E2E2E2E2E2E2E2E2E2E2E2E2E2E2E2E2E2E2E2E2E2E2E2E2E2E2E2E2E2E2E2E2E2E2
  0
XRECORD
  5
1817
102
{ACAD_REACTORS
330
1816
102
}
330
1816
100
AcDbXrecord
280
     1
102
SHADEPLOT
 70
     0
102
SHADEPLOTRESLEVEL
 70
     2
102
SHADEPLOTCUSTOMDPI
 70
   300
  0
XRECORD
  5
1810
102
{ACAD_REACTORS
330
180F
102
}
330
180F
100
AcDbXrecord
280
     1
102
SHADEPLOT
 70
     0
102
SHADEPLOTRESLEVEL
 70
     2
102
SHADEPLOTCUSTOMDPI
 70
   300
  0
XRECORD
  5
C8
102
{ACAD_REACTORS
330
C7
102
}
330
C7
100
AcDbXrecord
280
     1
102
MATERIAL
148
0.0
149
0.0
149
0.0
 93
        0
 94
       63
282
     0
 72
     1
 77
     1
171
     1
175
     1
179
     1
273
     0
  0
XRECORD
  5
C6
102
{ACAD_REACTORS
330
C5
102
}
330
C5
100
AcDbXrecord
280
     1
102
MATERIAL
148
0.0
149
0.0
149
0.0
 93
        0
 94
       63
282
     0
 72
     1
 77
     1
171
     1
175
     1
179
     1
273
     0
  0
XRECORD
  5
B2
102
{ACAD_REACTORS
330
B1
102
}
330
B1
100
AcDbXrecord
280
     1
102
MATERIAL
148
0.0
149
0.0
149
0.0
 93
        0
 94
       63
282
     0
 72
     1
 77
     1
171
     1
175
     1
179
     1
273
     0
  0
XRECORD
  5
156
102
{ACAD_REACTORS
330
155
102
}
330
155
100
AcDbXrecord
280
     1
102
ACAD_ROUNDTRIP_PRE2007_TABLESTYLE
 90
        4
 91
        0
  1

 92
        4
 93
        0
  2

 94
        4
 95
        0
  3

  0
ENDSEC
  0
EOF
