  0
SECTION
  2
HEADER
  9
$ACADVER
  1
AC1015
  9
$ACADMAINTVER
 70
    20
  9
$DWGCODEPAGE
  3
ANSI_1252
  9
$INSBASE
 10
0.0
 20
0.0
 30
0.0
  9
$EXTMIN
 10
0.0149999999999999
 20
-0.0242961045910714
 30
0.0
  9
$EXTMAX
 10
1.156121793940489
 20
0.6357038954089287
 30
0.0
  9
$LIMMIN
 10
0.0
 20
0.0
  9
$LIMMAX
 10
1.0
 20
0.5
  9
$ORTHOMODE
 70
     0
  9
$REGENMODE
 70
     1
  9
$FILLMODE
 70
     1
  9
$QTEXTMODE
 70
     0
  9
$MIRRTEXT
 70
     0
  9
$LTSCALE
 40
1.0
  9
$ATTMODE
 70
     1
  9
$TEXTSIZE
 40
0.008
  9
$TRACEWID
 40
1.0
  9
$TEXTSTYLE
  7
style1
  9
$CLAYER
  8
Text
  9
$CELTYPE
  6
ACAD_ISO10W100
  9
$CECOLOR
 62
   256
  9
$CELTSCALE
 40
1.0
  9
$DISPSILH
 70
     0
  9
$DIMSCALE
 40
0.001
  9
$DIMASZ
 40
1.5
  9
$DIMEXO
 40
0.0625
  9
$DIMDLI
 40
0.38
  9
$DIMRND
 40
0.0
  9
$DIMDLE
 40
0.0
  9
$DIMEXE
 40
0.18
  9
$DIMTP
 40
0.0
  9
$DIMTM
 40
0.0
  9
$DIMTXT
 40
3.0
  9
$DIMCEN
 40
0.0
  9
$DIMTSZ
 40
0.0
  9
$DIMTOL
 70
     0
  9
$DIMLIM
 70
     0
  9
$DIMTIH
 70
     1
  9
$DIMTOH
 70
     1
  9
$DIMSE1
 70
     0
  9
$DIMSE2
 70
     0
  9
$DIMTAD
 70
     0
  9
$DIMZIN
 70
     0
  9
$DIMBLK
  1
ArchTick
  9
$DIMASO
 70
     1
  9
$DIMSHO
 70
     1
  9
$DIMPOST
  1

  9
$DIMAPOST
  1

  9
$DIMALT
 70
     0
  9
$DIMALTD
 70
     2
  9
$DIMALTF
 40
25.4
  9
$DIMLFAC
 40
1.0
  9
$DIMTOFL
 70
     0
  9
$DIMTVP
 40
0.0
  9
$DIMTIX
 70
     0
  9
$DIMSOXD
 70
     0
  9
$DIMSAH
 70
     0
  9
$DIMBLK1
  1

  9
$DIMBLK2
  1

  9
$DIMSTYLE
  2
Bovelacci
  9
$DIMCLRD
 70
     5
  9
$DIMCLRE
 70
     5
  9
$DIMCLRT
 70
     4
  9
$DIMTFAC
 40
1.0
  9
$DIMGAP
 40
2.0
  9
$DIMJUST
 70
     0
  9
$DIMSD1
 70
     0
  9
$DIMSD2
 70
     0
  9
$DIMTOLJ
 70
     1
  9
$DIMTZIN
 70
     0
  9
$DIMALTZ
 70
     0
  9
$DIMALTTZ
 70
     0
  9
$DIMUPT
 70
     0
  9
$DIMDEC
 70
     2
  9
$DIMTDEC
 70
     2
  9
$DIMALTU
 70
     2
  9
$DIMALTTD
 70
     2
  9
$DIMTXSTY
  7
ROMANS
  9
$DIMAUNIT
 70
     0
  9
$DIMADEC
 70
     0
  9
$DIMALTRND
 40
0.0
  9
$DIMAZIN
 70
     0
  9
$DIMDSEP
 70
    46
  9
$DIMATFIT
 70
     3
  9
$DIMFRAC
 70
     0
  9
$DIMLDRBLK
  1

  9
$DIMLUNIT
 70
     2
  9
$DIMLWD
 70
    -2
  9
$DIMLWE
 70
    -2
  9
$DIMTMOVE
 70
     2
  9
$LUNITS
 70
     2
  9
$LUPREC
 70
     2
  9
$SKETCHINC
 40
1.0
  9
$FILLETRAD
 40
0.0
  9
$AUNITS
 70
     0
  9
$AUPREC
 70
     0
  9
$MENU
  1
.
  9
$ELEVATION
 40
0.0
  9
$PELEVATION
 40
0.0
  9
$THICKNESS
 40
0.0
  9
$LIMCHECK
 70
     0
  9
$CHAMFERA
 40
0.0
  9
$CHAMFERB
 40
0.0
  9
$CHAMFERC
 40
0.0
  9
$CHAMFERD
 40
0.0
  9
$SKPOLY
 70
     0
  9
$TDCREATE
 40
2454297.625402373
  9
$TDUCREATE
 40
2454297.542069039
  9
$TDUPDATE
 40
2454305.994079317
  9
$TDUUPDATE
 40
2454305.910745984
  9
$TDINDWG
 40
0.1384919444
  9
$TDUSRTIMER
 40
0.1384899421
  9
$USRTIMER
 70
     1
  9
$ANGBASE
 50
0.0
  9
$ANGDIR
 70
     0
  9
$PDMODE
 70
     0
  9
$PDSIZE
 40
0.0
  9
$PLINEWID
 40
0.0
  9
$SPLFRAME
 70
     0
  9
$SPLINETYPE
 70
     6
  9
$SPLINESEGS
 70
     8
  9
$HANDSEED
  5
16FA
  9
$SURFTAB1
 70
     6
  9
$SURFTAB2
 70
     6
  9
$SURFTYPE
 70
     6
  9
$SURFU
 70
     6
  9
$SURFV
 70
     6
  9
$UCSBASE
  2

  9
$UCSNAME
  2

  9
$UCSORG
 10
0.0
 20
0.0
 30
0.0
  9
$UCSXDIR
 10
1.0
 20
0.0
 30
0.0
  9
$UCSYDIR
 10
0.0
 20
1.0
 30
0.0
  9
$UCSORTHOREF
  2

  9
$UCSORTHOVIEW
 70
     0
  9
$UCSORGTOP
 10
0.0
 20
0.0
 30
0.0
  9
$UCSORGBOTTOM
 10
0.0
 20
0.0
 30
0.0
  9
$UCSORGLEFT
 10
0.0
 20
0.0
 30
0.0
  9
$UCSORGRIGHT
 10
0.0
 20
0.0
 30
0.0
  9
$UCSORGFRONT
 10
0.0
 20
0.0
 30
0.0
  9
$UCSORGBACK
 10
0.0
 20
0.0
 30
0.0
  9
$PUCSBASE
  2

  9
$PUCSNAME
  2

  9
$PUCSORG
 10
0.0
 20
0.0
 30
0.0
  9
$PUCSXDIR
 10
1.0
 20
0.0
 30
0.0
  9
$PUCSYDIR
 10
0.0
 20
1.0
 30
0.0
  9
$PUCSORTHOREF
  2

  9
$PUCSORTHOVIEW
 70
     0
  9
$PUCSORGTOP
 10
0.0
 20
0.0
 30
0.0
  9
$PUCSORGBOTTOM
 10
0.0
 20
0.0
 30
0.0
  9
$PUCSORGLEFT
 10
0.0
 20
0.0
 30
0.0
  9
$PUCSORGRIGHT
 10
0.0
 20
0.0
 30
0.0
  9
$PUCSORGFRONT
 10
0.0
 20
0.0
 30
0.0
  9
$PUCSORGBACK
 10
0.0
 20
0.0
 30
0.0
  9
$USERI1
 70
     0
  9
$USERI2
 70
     0
  9
$USERI3
 70
     0
  9
$USERI4
 70
     0
  9
$USERI5
 70
     0
  9
$USERR1
 40
0.0
  9
$USERR2
 40
0.0
  9
$USERR3
 40
0.0
  9
$USERR4
 40
0.0
  9
$USERR5
 40
0.0
  9
$WORLDVIEW
 70
     1
  9
$SHADEDGE
 70
     3
  9
$SHADEDIF
 70
    70
  9
$TILEMODE
 70
     1
  9
$MAXACTVP
 70
    64
  9
$PINSBASE
 10
0.0
 20
0.0
 30
0.0
  9
$PLIMCHECK
 70
     0
  9
$PEXTMIN
 10
1.000000000000000E+20
 20
1.000000000000000E+20
 30
1.000000000000000E+20
  9
$PEXTMAX
 10
-1.000000000000000E+20
 20
-1.000000000000000E+20
 30
-1.000000000000000E+20
  9
$PLIMMIN
 10
0.0
 20
0.0
  9
$PLIMMAX
 10
420.0
 20
297.0
  9
$UNITMODE
 70
     0
  9
$VISRETAIN
 70
     1
  9
$PLINEGEN
 70
     0
  9
$PSLTSCALE
 70
     1
  9
$TREEDEPTH
 70
  3020
  9
$CMLSTYLE
  2
Standard
  9
$CMLJUST
 70
     0
  9
$CMLSCALE
 40
20.0
  9
$PROXYGRAPHICS
 70
     1
  9
$MEASUREMENT
 70
     1
  9
$CELWEIGHT
370
    -1
  9
$ENDCAPS
280
     0
  9
$JOINSTYLE
280
     0
  9
$LWDISPLAY
290
     0
  9
$INSUNITS
 70
     4
  9
$HYPERLINKBASE
  1

  9
$STYLESHEET
  1

  9
$XEDIT
290
     1
  9
$CEPSNTYPE
380
     0
  9
$PSTYLEMODE
290
     1
  9
$FINGERPRINTGUID
  2
{904A8C64-524F-4709-A9C6-320D2C273A6D}
  9
$VERSIONGUID
  2
{4612E598-04C7-4C2E-A9DC-7FC339281714}
  9
$EXTNAMES
290
     1
  9
$PSVPSCALE
 40
0.0
  9
$OLESTARTUP
290
     0
  0
ENDSEC
  0
SECTION
  2
CLASSES
  0
CLASS
  1
ACDBDICTIONARYWDFLT
  2
AcDbDictionaryWithDefault
  3
ObjectDBX Classes
 90
        0
280
     0
281
     0
  0
CLASS
  1
TABLESTYLE
  2
AcDbTableStyle
  3
ObjectDBX Classes
 90
     2047
280
     0
281
     0
  0
CLASS
  1
SORTENTSTABLE
  2
AcDbSortentsTable
  3
ObjectDBX Classes
 90
        0
280
     0
281
     0
  0
CLASS
  1
DICTIONARYVAR
  2
AcDbDictionaryVar
  3
ObjectDBX Classes
 90
        0
280
     0
281
     0
  0
CLASS
  1
ACDBPLACEHOLDER
  2
AcDbPlaceHolder
  3
ObjectDBX Classes
 90
        0
280
     0
281
     0
  0
CLASS
  1
LAYOUT
  2
AcDbLayout
  3
ObjectDBX Classes
 90
        0
280
     0
281
     0
  0
CLASS
  1
DIMASSOC
  2
AcDbDimAssoc
  3
"AcDbDimAssoc|Product Desc:     AcDim ARX App For Dimension|Company:          Autodesk, Inc.|WEB Address:      www.autodesk.com"
 90
        0
280
     0
281
     0
  0
CLASS
  1
MATERIAL
  2
AcDbMaterial
  3
ObjectDBX Classes
 90
        0
280
     0
281
     0
  0
CLASS
  1
VISUALSTYLE
  2
AcDbVisualStyle
  3
ObjectDBX Classes
 90
     4095
280
     0
281
     0
  0
ENDSEC
  0
SECTION
  2
TABLES
  0
TABLE
  2
VPORT
  5
177
330
0
100
AcDbSymbolTable
 70
     9
  0
VPORT
  5
16EF
330
177
100
AcDbSymbolTableRecord
100
AcDbViewportTableRecord
  2
*Active
 70
     0
 10
0.0
 20
0.0
 11
1.0
 21
1.0
 12
0.208830297924833
 22
0.1482230168214131
 13
0.0
 23
0.0
 14
10.0
 24
10.0
 15
10.0
 25
10.0
 16
0.0
 26
0.0
 36
1.0
 17
0.0
 27
0.0
 37
0.0
 40
0.2781501205041672
 41
1.546526867627784
 42
50.0
 43
0.0
 44
0.0
 50
0.0
 51
0.0
 71
     0
 72
  1000
 73
     1
 74
     3
 75
     0
 76
     0
 77
     0
 78
     0
281
     0
 65
     1
110
0.0
120
0.0
130
0.0
111
1.0
121
0.0
131
0.0
112
0.0
122
1.0
132
0.0
 79
     0
146
0.0
  0
ENDTAB
  0
TABLE
  2
LTYPE
  5
172
330
0
100
AcDbSymbolTable
 70
     3
  0
LTYPE
  5
173
330
172
100
AcDbSymbolTableRecord
100
AcDbLinetypeTableRecord
  2
ByBlock
 70
     0
  3

 72
    65
 73
     0
 40
0.0
  0
LTYPE
  5
174
330
172
100
AcDbSymbolTableRecord
100
AcDbLinetypeTableRecord
  2
ByLayer
 70
     0
  3

 72
    65
 73
     0
 40
0.0
  0
LTYPE
  5
C
330
172
100
AcDbSymbolTableRecord
100
AcDbLinetypeTableRecord
  2
Continuous
 70
     0
  3
Solid line
 72
    65
 73
     0
 40
0.0
  0
LTYPE
  5
14E
330
172
100
AcDbSymbolTableRecord
100
AcDbLinetypeTableRecord
  2
ACAD_ISO10W100
 70
     0
  3
ISO dash dot __ . __ . __ . __ . __ . __ . __ .
 72
    65
 73
     4
 40
18.0
 49
12.0
 74
     0
 49
-3.0
 74
     0
 49
0.0
 74
     0
 49
-3.0
 74
     0
  0
ENDTAB
  0
TABLE
  2
LAYER
  5
16D
102
{ACAD_XDICTIONARY
360
16E
102
}
330
0
100
AcDbSymbolTable
 70
     7
  0
LAYER
  5
6
330
16D
100
AcDbSymbolTableRecord
100
AcDbLayerTableRecord
  2
0
 70
     0
 62
     7
  6
Continuous
370
    -3
390
7
  0
LAYER
  5
15F
330
16D
100
AcDbSymbolTableRecord
100
AcDbLayerTableRecord
  2
Defpoints
 70
     0
 62
     7
  6
Continuous
290
     0
370
    -3
390
7
  0
LAYER
  5
28
330
16D
100
AcDbSymbolTableRecord
100
AcDbLayerTableRecord
  2
Profilo
 70
     0
 62
     1
  6
Continuous
370
    -3
390
7
1001
AcAecLayerStandard
1000

1000

  0
LAYER
  5
14D
330
16D
100
AcDbSymbolTableRecord
100
AcDbLayerTableRecord
  2
Sezione
 70
     0
 62
     2
  6
Continuous
370
    -3
390
7
1001
AcAecLayerStandard
1000

1000

  0
LAYER
  5
E
330
16D
100
AcDbSymbolTableRecord
100
AcDbLayerTableRecord
  2
Table
 70
     0
 62
     3
  6
Continuous
370
    -3
390
7
1001
AcAecLayerStandard
1000

1000

  0
LAYER
  5
19
330
16D
100
AcDbSymbolTableRecord
100
AcDbLayerTableRecord
  2
Text
 70
     0
 62
     4
  6
Continuous
370
    -3
390
7
1001
AcAecLayerStandard
1000

1000

  0
LAYER
  5
23D
330
16D
100
AcDbSymbolTableRecord
100
AcDbLayerTableRecord
  2
Bovelacci
 70
     0
 62
     9
  6
Continuous
370
    -3
390
7
1001
AcAecLayerStandard
1000

1000

  0
ENDTAB
  0
TABLE
  2
STYLE
  5
170
330
0
100
AcDbSymbolTable
 70
     3
  0
STYLE
  5
1A
330
170
100
AcDbSymbolTableRecord
100
AcDbTextStyleTableRecord
  2
Standard
 70
     0
 40
0.0
 41
1.0
 50
0.0
 71
     0
 42
2.5
  3
txt
  4

  0
STYLE
  5
20
330
170
100
AcDbSymbolTableRecord
100
AcDbTextStyleTableRecord
  2
ROMANS
 70
     0
 40
0.0
 41
1.0
 50
0.0
 71
     0
 42
2.5
  3
romans
  4

  0
STYLE
  5
26
330
170
100
AcDbSymbolTableRecord
100
AcDbTextStyleTableRecord
  2
style1
 70
     0
 40
0.0
 41
1.0
 50
0.0
 71
     0
 42
0.008
  3
TIMES.TTF
  4

1001
ACAD
1000
Times New Roman
1071
       18
  0
ENDTAB
  0
TABLE
  2
VIEW
  5
175
330
0
100
AcDbSymbolTable
 70
     4
  0
ENDTAB
  0
TABLE
  2
UCS
  5
176
330
0
100
AcDbSymbolTable
 70
     0
  0
ENDTAB
  0
TABLE
  2
APPID
  5
17B
330
0
100
AcDbSymbolTable
 70
    10
  0
APPID
  5
1B
330
17B
100
AcDbSymbolTableRecord
100
AcDbRegAppTableRecord
  2
ACAD
 70
     0
  0
APPID
  5
157
330
17B
100
AcDbSymbolTableRecord
100
AcDbRegAppTableRecord
  2
ACAD_DSTYLE_DIMJOGGED_JOGANGLE_SYMBOL
 70
     0
  0
APPID
  5
F
330
17B
100
AcDbSymbolTableRecord
100
AcDbRegAppTableRecord
  2
AcAecLayerStandard
 70
     0
  0
APPID
  5
19C
330
17B
100
AcDbSymbolTableRecord
100
AcDbRegAppTableRecord
  2
ACAD_DSTYLE_DIMFLIPARROW_WHICH_SYMBOL
 70
     0
  0
APPID
  5
1A7
330
17B
100
AcDbSymbolTableRecord
100
AcDbRegAppTableRecord
  2
ACAD_DSTYLE_DIMEXT_LENGTH
 70
     0
  0
APPID
  5
1D2
330
17B
100
AcDbSymbolTableRecord
100
AcDbRegAppTableRecord
  2
ACAD_EXEMPT_FROM_CAD_STANDARDS
 70
     0
  0
APPID
  5
1D3
330
17B
100
AcDbSymbolTableRecord
100
AcDbRegAppTableRecord
  2
ACAD_DSTYLE_DIM_LINETYPE
 70
     0
  0
APPID
  5
1D4
330
17B
100
AcDbSymbolTableRecord
100
AcDbRegAppTableRecord
  2
ACAD_DSTYLE_DIM_EXT1_LINETYPE
 70
     0
  0
APPID
  5
1D5
330
17B
100
AcDbSymbolTableRecord
100
AcDbRegAppTableRecord
  2
ACAD_DSTYLE_DIM_EXT2_LINETYPE
 70
     0
  0
APPID
  5
243
330
17B
100
AcDbSymbolTableRecord
100
AcDbRegAppTableRecord
  2
ACAD_PSEXT
 70
     0
  0
ENDTAB
  0
TABLE
  2
DIMSTYLE
  5
17C
330
0
100
AcDbSymbolTable
 70
     8
100
AcDbDimStyleTable
 71
     2
340
156
340
17D
  0
DIMSTYLE
105
17D
330
17C
100
AcDbSymbolTableRecord
100
AcDbDimStyleTableRecord
  2
ISO-25
 70
     0
 41
2.5
 42
0.625
 43
3.75
 44
1.25
 73
     0
 74
     0
 77
     1
 78
     8
140
2.5
141
2.5
143
0.03937007874016
147
0.625
171
     3
172
     1
271
     2
272
     2
274
     3
278
    44
283
     0
284
     8
340
1A
  0
DIMSTYLE
105
156
102
{ACAD_REACTORS
330
16CF
102
}
330
17C
100
AcDbSymbolTableRecord
100
AcDbDimStyleTableRecord
  2
Bovelacci
 70
     0
 40
0.001
 41
1.5
140
3.0
141
0.0
147
2.0
176
     5
177
     5
178
     4
271
     2
272
     2
279
     2
340
20
342
152
1001
ACAD_DSTYLE_DIMJOGGED_JOGANGLE_SYMBOL
1070
   384
1040
0.7853981633974483
1001
ACAD_DSTYLE_DIMEXT_LENGTH
1070
   378
1040
0.18
  0
DIMSTYLE
105
23E
330
17C
100
AcDbSymbolTableRecord
100
AcDbDimStyleTableRecord
  2
Dim 1-100
 70
     0
 40
0.1
 41
1.5
 42
0.0
 43
5.0
 44
1.25
 45
0.005
 46
1.25
 73
     0
 74
     0
 77
     1
 78
     9
140
2.0
141
2.5
147
1.0
172
     1
174
     1
179
     2
279
     2
289
     2
340
20
342
152
  0
DIMSTYLE
105
23F
330
17C
100
AcDbSymbolTableRecord
100
AcDbDimStyleTableRecord
  2
Standard
 70
     0
 42
0.0
 73
     0
 74
     0
 77
     1
271
     2
272
     2
340
20
  0
DIMSTYLE
105
240
330
17C
100
AcDbSymbolTableRecord
100
AcDbDimStyleTableRecord
  2
Dim 1-50
 70
     0
 40
0.05
 41
1.5
 42
0.0
 43
5.0
 44
1.25
 45
0.005
 46
1.25
 73
     0
 74
     0
 77
     1
 78
     9
140
2.0
141
2.5
147
1.0
172
     1
174
     1
179
     2
279
     2
289
     2
340
20
342
152
  0
DIMSTYLE
105
241
330
17C
100
AcDbSymbolTableRecord
100
AcDbDimStyleTableRecord
  2
Dim 1-200
 70
     0
 40
0.2
 41
1.5
 42
0.0
 43
5.0
 44
1.25
 45
0.005
 46
1.25
 73
     0
 74
     0
 77
     1
 78
     9
140
2.0
141
2.5
147
1.0
172
     1
174
     1
179
     2
271
     2
272
     2
279
     2
289
     2
340
20
342
152
  0
DIMSTYLE
105
242
330
17C
100
AcDbSymbolTableRecord
100
AcDbDimStyleTableRecord
  2
AEC Scale - Italiano
 70
     0
 41
1.0
 42
10.0
 43
10.0
 44
10.0
 73
     0
 74
     0
 75
     1
 76
     1
 77
     1
140
10.0
141
1.0
147
10.0
173
     1
271
     0
272
     0
279
     2
340
1A
343
238
344
232
  0
ENDTAB
  0
TABLE
  2
BLOCK_RECORD
  5
1
330
0
100
AcDbSymbolTable
 70
    23
  0
BLOCK_RECORD
  5
2
102
{ACAD_XDICTIONARY
360
3
102
}
330
1
100
AcDbSymbolTableRecord
100
AcDbBlockTableRecord
  2
*Model_Space
340
163
  0
BLOCK_RECORD
  5
165
330
1
100
AcDbSymbolTableRecord
100
AcDbBlockTableRecord
  2
*Paper_Space
340
168
  0
BLOCK_RECORD
  5
169
330
1
100
AcDbSymbolTableRecord
100
AcDbBlockTableRecord
  2
*Paper_Space0
340
16C
  0
BLOCK_RECORD
  5
152
330
1
100
AcDbSymbolTableRecord
100
AcDbBlockTableRecord
  2
_ArchTick
340
0
310
2800000020000000200000000100080000000000000400000000000000000000000000000000000000000000000080000080000000808000800000008000800080800000C0C0C000C0DCC000F0CAA6000020400000206000002080000020A0000020C0000020E00000400000004020000040400000406000004080000040A0
310
000040C0000040E00000600000006020000060400000606000006080000060A0000060C0000060E00000800000008020000080400000806000008080000080A0000080C0000080E00000A0000000A0200000A0400000A0600000A0800000A0A00000A0C00000A0E00000C0000000C0200000C0400000C0600000C0800000C0
310
A00000C0C00000C0E00000E0000000E0200000E0400000E0600000E0800000E0A00000E0C00000E0E00040000000400020004000400040006000400080004000A0004000C0004000E00040200000402020004020400040206000402080004020A0004020C0004020E000404000004040200040404000404060004040800040
310
40A0004040C0004040E00040600000406020004060400040606000406080004060A0004060C0004060E00040800000408020004080400040806000408080004080A0004080C0004080E00040A0000040A0200040A0400040A0600040A0800040A0A00040A0C00040A0E00040C0000040C0200040C0400040C0600040C08000
310
40C0A00040C0C00040C0E00040E0000040E0200040E0400040E0600040E0800040E0A00040E0C00040E0E00080000000800020008000400080006000800080008000A0008000C0008000E00080200000802020008020400080206000802080008020A0008020C0008020E00080400000804020008040400080406000804080
310
008040A0008040C0008040E00080600000806020008060400080606000806080008060A0008060C0008060E00080800000808020008080400080806000808080008080A0008080C0008080E00080A0000080A0200080A0400080A0600080A0800080A0A00080A0C00080A0E00080C0000080C0200080C0400080C0600080C0
310
800080C0A00080C0C00080C0E00080E0000080E0200080E0400080E0600080E0800080E0A00080E0C00080E0E000C0000000C0002000C0004000C0006000C0008000C000A000C000C000C000E000C0200000C0202000C0204000C0206000C0208000C020A000C020C000C020E000C0400000C0402000C0404000C0406000C0
310
408000C040A000C040C000C040E000C0600000C0602000C0604000C0606000C0608000C060A000C060C000C060E000C0800000C0802000C0804000C0806000C0808000C080A000C080C000C080E000C0A00000C0A02000C0A04000C0A06000C0A08000C0A0A000C0A0C000C0A0E000C0C00000C0C02000C0C04000C0C06000
310
C0C08000C0C0A000F0FBFF00A4A0A000808080000000FF0000FF000000FFFF00FF000000FF00FF00FFFF0000FFFFFF00000000FF000000000000000000000000000000000000000000000000000000000000FF00FF00000000000000000000000000000000000000000000000000000000FF000000FF000000000000000000
310
0000000000000000000000000000000000FF0000000000FF0000000000000000000000000000000000000000000000000000FF0000000000FF0000000000000000000000000000000000000000000000000000FF0000000000FF0000000000000000000000000000000000000000000000000000FF0000000000FF00000000
310
00000000000000000000000000000000000000000000FF0000000000FF0000000000000000000000000000000000000000000000000000FF0000000000FF0000000000000000000000000000000000000000000000000000FF0000000000FF0000000000000000000000000000000000000000000000000000FF0000000000
310
FF0000000000000000000000000000000000000000000000000000FF0000000000FF0000000000000000000000000000000000000000000000000000FF0000000000FF0000000000000000000000000000000000000000000000000000FF0000000000FF0000000000000000000000000000000000000000000000000000FF
310
0000000000FF0000000000000000000000000000000000000000000000000000FF0000000000FF0000000000000000000000000000000000000000000000000000FF0000000000FF0000000000000000000000000000000000000000000000000000FF0000000000FF00000000000000000000000000000000000000000000
310
00000000FF0000000000FF0000000000000000000000000000000000000000000000000000FF0000000000FF0000000000000000000000000000000000000000000000000000FF0000000000FF0000000000000000000000000000000000000000000000000000FF0000000000FF0000000000000000000000000000000000
310
000000000000000000FF0000000000FF0000000000000000000000000000000000000000000000000000FF0000000000FF0000000000000000000000000000000000000000000000000000FF0000000000FF0000000000000000000000000000000000000000000000000000FF0000000000FF000000000000000000000000
310
0000000000000000000000000000FF0000000000FF0000000000000000000000000000000000000000000000000000FF0000000000FF0000000000000000000000000000000000000000000000000000FF0000000000FF0000000000000000000000000000000000000000000000000000FF000000FF000000000000000000
310
00000000000000000000000000000000000000FF00FF000000000000000000000000000000000000000000000000000000000000FF000000
102
{BLKREFS
331
280
331
2D7
331
2D8
331
2F1
331
2F2
331
4FE
331
53F
331
5CC
331
7CE
331
8C4
331
B19
331
D6F
331
12E5
331
1324
331
14C6
331
16EA
102
}
  0
BLOCK_RECORD
  5
232
330
1
100
AcDbSymbolTableRecord
100
AcDbBlockTableRecord
  2
_Arrivo
340
0
310
2800000020000000200000000100080000000000000400000000000000000000000000000000000000000000000080000080000000808000800000008000800080800000C0C0C000C0DCC000F0CAA6000020400000206000002080000020A0000020C0000020E00000400000004020000040400000406000004080000040A0
310
000040C0000040E00000600000006020000060400000606000006080000060A0000060C0000060E00000800000008020000080400000806000008080000080A0000080C0000080E00000A0000000A0200000A0400000A0600000A0800000A0A00000A0C00000A0E00000C0000000C0200000C0400000C0600000C0800000C0
310
A00000C0C00000C0E00000E0000000E0200000E0400000E0600000E0800000E0A00000E0C00000E0E00040000000400020004000400040006000400080004000A0004000C0004000E00040200000402020004020400040206000402080004020A0004020C0004020E000404000004040200040404000404060004040800040
310
40A0004040C0004040E00040600000406020004060400040606000406080004060A0004060C0004060E00040800000408020004080400040806000408080004080A0004080C0004080E00040A0000040A0200040A0400040A0600040A0800040A0A00040A0C00040A0E00040C0000040C0200040C0400040C0600040C08000
310
40C0A00040C0C00040C0E00040E0000040E0200040E0400040E0600040E0800040E0A00040E0C00040E0E00080000000800020008000400080006000800080008000A0008000C0008000E00080200000802020008020400080206000802080008020A0008020C0008020E00080400000804020008040400080406000804080
310
008040A0008040C0008040E00080600000806020008060400080606000806080008060A0008060C0008060E00080800000808020008080400080806000808080008080A0008080C0008080E00080A0000080A0200080A0400080A0600080A0800080A0A00080A0C00080A0E00080C0000080C0200080C0400080C0600080C0
310
800080C0A00080C0C00080C0E00080E0000080E0200080E0400080E0600080E0800080E0A00080E0C00080E0E000C0000000C0002000C0004000C0006000C0008000C000A000C000C000C000E000C0200000C0202000C0204000C0206000C0208000C020A000C020C000C020E000C0400000C0402000C0404000C0406000C0
310
408000C040A000C040C000C040E000C0600000C0602000C0604000C0606000C0608000C060A000C060C000C060E000C0800000C0802000C0804000C0806000C0808000C080A000C080C000C080E000C0A00000C0A02000C0A04000C0A06000C0A08000C0A0A000C0A0C000C0A0E000C0C00000C0C02000C0C04000C0C06000
310
C0C08000C0C0A000F0FBFF00A4A0A000808080000000FF0000FF000000FFFF00FF000000FF00FF00FFFF0000FFFFFF00000000000000000000000000000000000000000000000000000000000000000000000000000000000000FF0000000000000000000000000000000000000000000000000000000000000000FF000000
310
00000000000000000000000000000000000000000000000000000000FF0000000000000000000000000000000000000000000000000000000000000000FF00000000000000000000000000000000000000000000000000000000000000FF0000000000000000000000000000000000000000000000000000000000000000FF
310
0000000000000000000000000000000000000000000000000000000000000000FF00000000000000000000000000000000000000000000000000000000000000FF0000000000000000000000000000000000000000000000000000000000000000FF0000000000000000000000000000000000000000000000000000000000
310
0000FF0000000000000000000000000000000000000000000000000000000000000000FF00000000000000000000000000000000000000000000000000000000000000FF0000000000000000000000000000000000000000000000000000000000000000FF0000FF0000000000000000000000000000000000000000000000
310
000000000000FFFF000000000000000000000000000000000000000000000000000000000000FFFF00000000000000000000000000000000000000000000000000000000FFFFFFFFFFFF00000000000000000000000000000000000000000000000000000000FFFF0000000000000000000000000000000000000000000000
310
000000000000FF0000FF000000000000000000000000000000000000000000000000000000FF00000000000000000000000000000000000000000000000000000000000000FF000000000000000000000000000000000000000000000000000000000000FF0000000000000000000000000000000000000000000000000000
310
0000000000FF000000000000000000000000000000000000000000000000000000000000FF00000000000000000000000000000000000000000000000000000000000000FF000000000000000000000000000000000000000000000000000000000000FF000000000000000000000000000000000000000000000000000000
310
000000FF00000000000000000000000000000000000000000000000000000000000000FF000000000000000000000000000000000000000000000000000000000000FF00000000000000000000000000000000000000000000000000000000000000FF00000000000000000000000000000000000000000000000000000000
310
0000FF0000000000000000000000000000000000000000000000000000000000000000000000000000000000000000000000000000000000
  0
BLOCK_RECORD
  5
238
330
1
100
AcDbSymbolTableRecord
100
AcDbBlockTableRecord
  2
_Partenza
340
0
310
2800000020000000200000000100080000000000000400000000000000000000000000000000000000000000000080000080000000808000800000008000800080800000C0C0C000C0DCC000F0CAA6000020400000206000002080000020A0000020C0000020E00000400000004020000040400000406000004080000040A0
310
000040C0000040E00000600000006020000060400000606000006080000060A0000060C0000060E00000800000008020000080400000806000008080000080A0000080C0000080E00000A0000000A0200000A0400000A0600000A0800000A0A00000A0C00000A0E00000C0000000C0200000C0400000C0600000C0800000C0
310
A00000C0C00000C0E00000E0000000E0200000E0400000E0600000E0800000E0A00000E0C00000E0E00040000000400020004000400040006000400080004000A0004000C0004000E00040200000402020004020400040206000402080004020A0004020C0004020E000404000004040200040404000404060004040800040
310
40A0004040C0004040E00040600000406020004060400040606000406080004060A0004060C0004060E00040800000408020004080400040806000408080004080A0004080C0004080E00040A0000040A0200040A0400040A0600040A0800040A0A00040A0C00040A0E00040C0000040C0200040C0400040C0600040C08000
310
40C0A00040C0C00040C0E00040E0000040E0200040E0400040E0600040E0800040E0A00040E0C00040E0E00080000000800020008000400080006000800080008000A0008000C0008000E00080200000802020008020400080206000802080008020A0008020C0008020E00080400000804020008040400080406000804080
310
008040A0008040C0008040E00080600000806020008060400080606000806080008060A0008060C0008060E00080800000808020008080400080806000808080008080A0008080C0008080E00080A0000080A0200080A0400080A0600080A0800080A0A00080A0C00080A0E00080C0000080C0200080C0400080C0600080C0
310
800080C0A00080C0C00080C0E00080E0000080E0200080E0400080E0600080E0800080E0A00080E0C00080E0E000C0000000C0002000C0004000C0006000C0008000C000A000C000C000C000E000C0200000C0202000C0204000C0206000C0208000C020A000C020C000C020E000C0400000C0402000C0404000C0406000C0
310
408000C040A000C040C000C040E000C0600000C0602000C0604000C0606000C0608000C060A000C060C000C060E000C0800000C0802000C0804000C0806000C0808000C080A000C080C000C080E000C0A00000C0A02000C0A04000C0A06000C0A08000C0A0A000C0A0C000C0A0E000C0C00000C0C02000C0C04000C0C06000
310
C0C08000C0C0A000F0FBFF00A4A0A000808080000000FF0000FF000000FFFF00FF000000FF00FF00FFFF0000FFFFFF0000000000000000000000000000000000000000000000000000000000000000000000000000000000000000000000000000000000000000000000000000000000000000000000000000000000000000
310
000000000000000000000000000000000000000000000000000000000000000000000000000000000000000000000000000000000000000000000000000000000000000000000000000000000000000000000000000000000000000000000000000000000000000000000000000000000000FFFFFFFFFFFFFFFFFFFFFFFFFF
310
FFFFFFFFFFFFFFFFFFFFFFFFFFFFFFFFFF0000000000000000000000000000000000000000000000000000000000000000000000000000000000000000000000000000000000000000000000000000000000000000000000000000000000000000000000000000000000000000000000000000000000000000000000000000
310
00000000000000000000000000000000000000000000000000000000000000000000000000000000000000000000000000000000000000000000000000000000000000000000000000000000000000000000000000000000000000000000000000000000000000000000000000000000000000000000000000000000000000
310
00000000000000000000000000000000000000000000000000000000000000000000000000000000000000000000000000000000000000000000000000000000000000000000000000000000000000000000000000000000000000000000000000000000000000000000000000000000000000000000000000000000000000
310
00000000000000000000000000000000000000000000000000000000000000000000000000000000000000000000000000000000000000000000000000000000000000000000000000000000000000000000000000000000000000000000000000000000000000000000000000000000000000000000000000000000000000
310
000000000000000000000000000000000000000000000000000000000000000000000000000000000000000000000000000000000000000000000000000000000000000000000000000000000000000000000000000000FFFFFFFFFFFFFFFFFFFFFFFFFFFFFFFFFFFFFFFFFFFFFFFFFFFFFFFFFFFF00000000000000000000
310
00000000000000000000000000000000000000000000000000000000000000000000000000000000000000000000000000000000000000000000000000000000000000000000000000000000000000000000000000000000000000000000000000000000000000000000000000000000000000000000000000000000000000
310
0000000000000000000000000000000000000000000000000000000000000000000000000000000000000000000000000000000000000000
  0
BLOCK_RECORD
  5
D55
330
1
100
AcDbSymbolTableRecord
100
AcDbBlockTableRecord
  2
*D13
340
0
  0
BLOCK_RECORD
  5
12CB
330
1
100
AcDbSymbolTableRecord
100
AcDbBlockTableRecord
  2
*D15
340
0
  0
BLOCK_RECORD
  5
130A
330
1
100
AcDbSymbolTableRecord
100
AcDbBlockTableRecord
  2
*D17
340
0
  0
BLOCK_RECORD
  5
14AC
330
1
100
AcDbSymbolTableRecord
100
AcDbBlockTableRecord
  2
*D20
340
0
  0
BLOCK_RECORD
  5
16D0
330
1
100
AcDbSymbolTableRecord
100
AcDbBlockTableRecord
  2
*D22
340
0
  0
ENDTAB
  0
ENDSEC
  0
SECTION
  2
BLOCKS
  0
BLOCK
  5
5
330
2
100
AcDbEntity
  8
0
100
AcDbBlockBegin
  2
*Model_Space
 70
     0
 10
0.0
 20
0.0
 30
0.0
  3
*Model_Space
  1

  0
ENDBLK
  5
162
330
2
100
AcDbEntity
  8
0
100
AcDbBlockEnd
  0
BLOCK
  5
166
330
165
100
AcDbEntity
 67
     1
  8
0
100
AcDbBlockBegin
  2
*Paper_Space
 70
     0
 10
0.0
 20
0.0
 30
0.0
  3
*Paper_Space
  1

  0
ENDBLK
  5
167
330
165
100
AcDbEntity
 67
     1
  8
0
100
AcDbBlockEnd
  0
BLOCK
  5
16A
330
169
100
AcDbEntity
 67
     1
  8
0
100
AcDbBlockBegin
  2
*Paper_Space0
 70
     0
 10
0.0
 20
0.0
 30
0.0
  3
*Paper_Space0
  1

  0
ENDBLK
  5
16B
330
169
100
AcDbEntity
 67
     1
  8
0
100
AcDbBlockEnd
  0
BLOCK
  5
153
330
152
100
AcDbEntity
  8
0
 62
     1
100
AcDbBlockBegin
  2
_ArchTick
 70
     0
 10
0.0
 20
0.0
 30
0.0
  3
_ArchTick
  1

  0
LWPOLYLINE
  5
154
330
152
100
AcDbEntity
  8
0
  6
ByBlock
 62
     0
100
AcDbPolyline
 90
        2
 70
     0
 43
0.15
 10
-0.5
 20
-0.5
 10
0.5
 20
0.5
  0
ENDBLK
  5
155
330
152
100
AcDbEntity
  8
0
 62
     1
100
AcDbBlockEnd
  0
BLOCK
  5
233
330
232
100
AcDbEntity
  8
0
100
AcDbBlockBegin
  2
_Arrivo
 70
     0
 10
0.0
 20
0.0
 30
0.0
  3
_Arrivo
  1

  0
LINE
  5
234
330
232
100
AcDbEntity
  8
0
  6
ByBlock
 62
     0
370
    -2
100
AcDbLine
 10
0.025
 20
-0.0433012701891858
 30
0.0
 11
-0.15
 21
0.2598076211353328
 31
0.0
  0
LINE
  5
235
330
232
100
AcDbEntity
  8
0
  6
ByBlock
 62
     0
370
    -2
100
AcDbLine
 10
0.025
 20
0.0433012701892585
 30
0.0
 11
-0.15
 21
-0.2598076211353328
 31
0.0
  0
LINE
  5
236
330
232
100
AcDbEntity
  8
0
  6
ByBlock
 62
     0
370
    -2
100
AcDbLine
 10
-0.05
 20
0.0
 30
0.0
 11
0.05
 21
0.0
 31
0.0
  0
ENDBLK
  5
237
330
232
100
AcDbEntity
  8
0
100
AcDbBlockEnd
  0
BLOCK
  5
239
330
238
100
AcDbEntity
  8
0
100
AcDbBlockBegin
  2
_Partenza
 70
     0
 10
0.0
 20
0.0
 30
0.0
  3
_Partenza
  1

  0
LINE
  5
23A
330
238
100
AcDbEntity
  8
0
  6
ByBlock
 62
     0
370
    -2
100
AcDbLine
 10
-0.05
 20
0.05
 30
0.0
 11
0.1
 21
0.05
 31
0.0
  0
LINE
  5
23B
330
238
100
AcDbEntity
  8
0
  6
ByBlock
 62
     0
370
    -2
100
AcDbLine
 10
-0.05
 20
-0.05
 30
0.0
 11
0.1
 21
-0.05
 31
0.0
  0
ENDBLK
  5
23C
330
238
100
AcDbEntity
  8
0
100
AcDbBlockEnd
  0
BLOCK
  5
D5C
330
D55
100
AcDbEntity
  8
0
100
AcDbBlockBegin
  2
*D13
 70
     1
 10
0.0
 20
0.0
 30
0.0
  3
*D13
  1

  0
LINE
  5
D6C
330
D55
100
AcDbEntity
  8
Text
  6
ACAD_ISO10W100
 62
     5
370
    -2
100
AcDbLine
 10
0.258964487676054
 20
0.1923867850371209
 30
0.0
 11
0.2574644876760541
 21
0.1923867850371209
 31
0.0
  0
LINE
  5
D6D
330
D55
100
AcDbEntity
  8
Text
  6
ACAD_ISO10W100
 62
     5
370
    -2
100
AcDbLine
 10
0.2574644876760541
 20
0.1923867850371209
 30
0.0
 11
0.255040248637639
 21
0.1906195654456088
 31
0.0
  0
MTEXT
  5
D6E
330
D55
100
AcDbEntity
  8
Text
  6
ACAD_ISO10W100
 62
     4
100
AcDbMText
 10
0.2733930591046255
 20
0.1923867850371209
 30
0.0
 40
0.003
 41
0.0
 71
     5
 72
     1
  1
\A1;d 440 mm
  7
ROMANS
 73
     1
 44
1.0
1001
ACAD
1000
MTEXTBEGIN
1070
    73
1070
     1
1070
    44
1040
1.0
1070
    74
1070
     0
1000
MTEXTEND
  0
INSERT
  5
D6F
330
D55
100
AcDbEntity
  8
Text
  6
ACAD_ISO10W100
 62
     5
370
    -2
100
AcDbBlockReference
  2
_ArchTick
 10
0.255040248637639
 20
0.1906195654456088
 30
0.0
 41
0.0015
 42
0.0015
 43
0.0015
 50
216.0912670112517
  0
POINT
  5
D70
330
D55
100
AcDbEntity
  8
Defpoints
  6
ACAD_ISO10W100
 62
     0
100
AcDbPoint
 10
0.255040248637639
 20
0.1906195654456088
 30
0.0
  0
POINT
  5
D71
330
D55
100
AcDbEntity
  8
Defpoints
  6
ACAD_ISO10W100
 62
     0
100
AcDbPoint
 10
0.1661514838957505
 20
0.1258215137568335
 30
0.0
  0
ENDBLK
  5
D5D
330
D55
100
AcDbEntity
  8
0
100
AcDbBlockEnd
  0
BLOCK
  5
12D2
330
12CB
100
AcDbEntity
  8
0
100
AcDbBlockBegin
  2
*D15
 70
     1
 10
0.0
 20
0.0
 30
0.0
  3
*D15
  1

  0
LINE
  5
12E2
330
12CB
100
AcDbEntity
  8
Text
  6
ACAD_ISO10W100
 62
     5
370
    -2
100
AcDbLine
 10
0.2737352685975478
 20
0.2150776791095738
 30
0.0
 11
0.2722352685975478
 21
0.2150776791095738
 31
0.0
  0
LINE
  5
12E3
330
12CB
100
AcDbEntity
  8
Text
  6
ACAD_ISO10W100
 62
     5
370
    -2
100
AcDbLine
 10
0.2722352685975478
 20
0.2150776791095738
 30
0.0
 11
0.2699877770479046
 21
0.2130905249297774
 31
0.0
  0
MTEXT
  5
12E4
330
12CB
100
AcDbEntity
  8
Text
  6
ACAD_ISO10W100
 62
     4
100
AcDbMText
 10
0.2881638400261192
 20
0.2150776791095738
 30
0.0
 40
0.003
 41
0.0
 71
     5
 72
     1
  1
\A1;d 660 mm
  7
ROMANS
 73
     1
 44
1.0
1001
ACAD
1000
MTEXTBEGIN
1070
    73
1070
     1
1070
    44
1040
1.0
1070
    74
1070
     0
1000
MTEXTEND
  0
INSERT
  5
12E5
330
12CB
100
AcDbEntity
  8
Text
  6
ACAD_ISO10W100
 62
     5
370
    -2
100
AcDbBlockReference
  2
_ArchTick
 10
0.2699877770479046
 20
0.2130905249297774
 30
0.0
 41
0.0015
 42
0.0015
 43
0.0015
 50
221.4820001879257
  0
POINT
  5
12E6
330
12CB
100
AcDbEntity
  8
Defpoints
  6
ACAD_ISO10W100
 62
     0
100
AcDbPoint
 10
0.2699877770479046
 20
0.2130905249297774
 30
0.0
  0
POINT
  5
12E7
330
12CB
100
AcDbEntity
  8
Defpoints
  6
ACAD_ISO10W100
 62
     0
100
AcDbPoint
 10
0.1463757418175257
 20
0.1037970450409773
 30
0.0
  0
ENDBLK
  5
12D3
330
12CB
100
AcDbEntity
  8
0
100
AcDbBlockEnd
  0
BLOCK
  5
1311
330
130A
100
AcDbEntity
  8
0
100
AcDbBlockBegin
  2
*D17
 70
     1
 10
0.0
 20
0.0
 30
0.0
  3
*D17
  1

  0
LINE
  5
1321
330
130A
100
AcDbEntity
  8
Text
  6
ACAD_ISO10W100
 62
     5
370
    -2
100
AcDbLine
 10
0.2597109402773935
 20
0.2031114728173879
 30
0.0
 11
0.2582109402773935
 21
0.2031114728173879
 31
0.0
  0
LINE
  5
1322
330
130A
100
AcDbEntity
  8
Text
  6
ACAD_ISO10W100
 62
     5
370
    -2
100
AcDbLine
 10
0.2582109402773935
 20
0.2031114728173879
 30
0.0
 11
0.2558313843441044
 21
0.2012845317782876
 31
0.0
  0
MTEXT
  5
1323
330
130A
100
AcDbEntity
  8
Text
  6
ACAD_ISO10W100
 62
     4
100
AcDbMText
 10
0.274139511705965
 20
0.2031114728173879
 30
0.0
 40
0.003
 41
0.0
 71
     5
 72
     1
  1
\A1;d 470 mm
  7
ROMANS
 73
     1
 44
1.0
1001
ACAD
1000
MTEXTBEGIN
1070
    73
1070
     1
1070
    44
1040
1.0
1070
    74
1070
     0
1000
MTEXTEND
  0
INSERT
  5
1324
330
130A
100
AcDbEntity
  8
Text
  6
ACAD_ISO10W100
 62
     5
370
    -2
100
AcDbBlockReference
  2
_ArchTick
 10
0.2558313843441044
 20
0.2012845317782876
 30
0.0
 41
0.0015
 42
0.0015
 43
0.0015
 50
217.5158118311028
  0
POINT
  5
1325
330
130A
100
AcDbEntity
  8
Defpoints
  6
ACAD_ISO10W100
 62
     0
100
AcDbPoint
 10
0.2558313843441044
 20
0.2012845317782876
 30
0.0
  0
POINT
  5
1326
330
130A
100
AcDbEntity
  8
Defpoints
  6
ACAD_ISO10W100
 62
     0
100
AcDbPoint
 10
0.1626321102902807
 20
0.129729341080196
 30
0.0
  0
ENDBLK
  5
1312
330
130A
100
AcDbEntity
  8
0
100
AcDbBlockEnd
  0
BLOCK
  5
14B3
330
14AC
100
AcDbEntity
  8
0
100
AcDbBlockBegin
  2
*D20
 70
     1
 10
0.0
 20
0.0
 30
0.0
  3
*D20
  1

  0
LINE
  5
14C3
330
14AC
100
AcDbEntity
  8
Text
  6
ACAD_ISO10W100
 62
     5
370
    -2
100
AcDbLine
 10
0.2774720348740678
 20
0.2019249532412534
 30
0.0
 11
0.2759720348740679
 21
0.2019249532412534
 31
0.0
  0
LINE
  5
14C4
330
14AC
100
AcDbEntity
  8
Text
  6
ACAD_ISO10W100
 62
     5
370
    -2
100
AcDbLine
 10
0.2759720348740679
 20
0.2019249532412534
 30
0.0
 11
0.2734829517340833
 21
0.2002502995092107
 31
0.0
  0
MTEXT
  5
14C5
330
14AC
100
AcDbEntity
  8
Text
  6
ACAD_ISO10W100
 62
     4
100
AcDbMText
 10
0.2919006063026393
 20
0.2019249532412534
 30
0.0
 40
0.003
 41
0.0
 71
     5
 72
     1
  1
\A1;d 300 mm
  7
ROMANS
 73
     1
 44
1.0
1001
ACAD
1000
MTEXTBEGIN
1070
    73
1070
     1
1070
    44
1040
1.0
1070
    74
1070
     0
1000
MTEXTEND
  0
INSERT
  5
14C6
330
14AC
100
AcDbEntity
  8
Text
  6
ACAD_ISO10W100
 62
     5
370
    -2
100
AcDbBlockReference
  2
_ArchTick
 10
0.2734829517340833
 20
0.2002502995092107
 30
0.0
 41
0.0015
 42
0.0015
 43
0.0015
 50
213.9326437699674
  0
POINT
  5
14C7
330
14AC
100
AcDbEntity
  8
Defpoints
  6
ACAD_ISO10W100
 62
     0
100
AcDbPoint
 10
0.2734829517340833
 20
0.2002502995092107
 30
0.0
  0
POINT
  5
14C8
330
14AC
100
AcDbEntity
  8
Defpoints
  6
ACAD_ISO10W100
 62
     0
100
AcDbPoint
 10
0.1490287947348567
 20
0.1165176129070728
 30
0.0
  0
ENDBLK
  5
14B4
330
14AC
100
AcDbEntity
  8
0
100
AcDbBlockEnd
  0
BLOCK
  5
16D7
330
16D0
100
AcDbEntity
  8
0
100
AcDbBlockBegin
  2
*D22
 70
     1
 10
0.0
 20
0.0
 30
0.0
  3
*D22
  1

  0
LINE
  5
16E7
330
16D0
100
AcDbEntity
  8
Text
  6
ACAD_ISO10W100
 62
     5
370
    -2
100
AcDbLine
 10
0.2596701017212006
 20
0.1952431616074293
 30
0.0
 11
0.2581701017212006
 21
0.1952431616074293
 31
0.0
  0
LINE
  5
16E8
330
16D0
100
AcDbEntity
  8
Text
  6
ACAD_ISO10W100
 62
     5
370
    -2
100
AcDbLine
 10
0.2581701017212006
 20
0.1952431616074293
 30
0.0
 11
0.2556538685780837
 21
0.1936095855395707
 31
0.0
  0
MTEXT
  5
16E9
330
16D0
100
AcDbEntity
  8
Text
  6
ACAD_ISO10W100
 62
     4
100
AcDbMText
 10
0.274098673149772
 20
0.1952431616074293
 30
0.0
 40
0.003
 41
0.0
 71
     5
 72
     1
  1
\A1;d 450 mm
  7
ROMANS
 73
     1
 44
1.0
1001
ACAD
1000
MTEXTBEGIN
1070
    73
1070
     1
1070
    44
1040
1.0
1070
    74
1070
     0
1000
MTEXTEND
  0
INSERT
  5
16EA
330
16D0
100
AcDbEntity
  8
Text
  6
ACAD_ISO10W100
 62
     5
370
    -2
100
AcDbBlockReference
  2
_ArchTick
 10
0.2556538685780837
 20
0.1936095855395707
 30
0.0
 41
0.0015
 42
0.0015
 43
0.0015
 50
212.992234085578
  0
POINT
  5
16EB
330
16D0
100
AcDbEntity
  8
Defpoints
  6
ACAD_ISO10W100
 62
     0
100
AcDbPoint
 10
0.2556538685780837
 20
0.1936095855395707
 30
0.0
  0
POINT
  5
16EC
330
16D0
100
AcDbEntity
  8
Defpoints
  6
ACAD_ISO10W100
 62
     0
100
AcDbPoint
 10
0.161295125711201
 20
0.1323504829948756
 30
0.0
  0
ENDBLK
  5
16D8
330
16D0
100
AcDbEntity
  8
0
100
AcDbBlockEnd
  0
ENDSEC
  0
SECTION
  2
ENTITIES
  0
LINE
  5
D
330
2
100
AcDbEntity
  8
Table
100
AcDbLine
 10
0.02
 20
0.02
 30
0.0
 11
0.4
 21
0.02
 31
0.0
  0
LINE
  5
10
330
2
100
AcDbEntity
  8
Table
100
AcDbLine
 10
0.4
 20
0.02
 30
0.0
 11
0.4
 21
0.2769999999999999
 31
0.0
  0
LINE
  5
11
330
2
100
AcDbEntity
  8
Table
100
AcDbLine
 10
0.4
 20
0.2769999999999999
 30
0.0
 11
0.02
 21
0.277
 31
0.0
  0
LINE
  5
12
330
2
100
AcDbEntity
  8
Table
100
AcDbLine
 10
0.02
 20
0.277
 30
0.0
 11
0.02
 21
0.02
 31
0.0
  0
LINE
  5
13
330
2
100
AcDbEntity
  8
Table
 62
     2
100
AcDbLine
 10
0.015
 20
0.015
 30
0.0
 11
0.4050000000000001
 21
0.015
 31
0.0
  0
LINE
  5
14
330
2
100
AcDbEntity
  8
Table
 62
     2
100
AcDbLine
 10
0.4050000000000001
 20
0.015
 30
0.0
 11
0.4050000000000001
 21
0.2819999999999998
 31
0.0
  0
LINE
  5
15
330
2
100
AcDbEntity
  8
Table
 62
     2
100
AcDbLine
 10
0.4050000000000001
 20
0.2819999999999998
 30
0.0
 11
0.0149999999999999
 21
0.282
 31
0.0
  0
LINE
  5
16
330
2
100
AcDbEntity
  8
Table
 62
     2
100
AcDbLine
 10
0.0149999999999999
 20
0.282
 30
0.0
 11
0.015
 21
0.015
 31
0.0
  0
LINE
  5
17
330
2
100
AcDbEntity
  8
Table
100
AcDbLine
 10
0.21
 20
0.2769999999999999
 30
0.0
 11
0.21
 21
0.2532994226089223
 31
0.0
  0
MTEXT
  5
18
102
{ACAD_XDICTIONARY
360
16F2
102
}
330
2
100
AcDbEntity
  8
Text
100
AcDbMText
 10
0.305
 20
0.0471738284815141
 30
0.0
 40
0.005
 41
0.1900000000000001
 71
     2
 72
     5
  3
{\fTimes New Roman|b0|i0|c238|p18;\H1.6x;\C4;Bovelacci\P\H0.4375x;\T0.95;via del Commercio, 5  47100 Forli - Italy  \fTimes New Roman|b0|i0|c0|p18;\P\fTimes New Roman|b0|i0|c238|p18;tel.+39-0543721386  fax +39-0543721127\fTimes New Roman|b0|i0|c0|p18
  1
; \fTimes New Roman|b0|i0|c238|p18;www.bovelacci.it\fTimes New Roman|b0|i0|c0|p18; \fTimes New Roman|b0|i0|c238|p18;e-mail: bovelacci@bovelacci\fTimes New Roman|b0|i0|c0|p18;.it}
 73
     1
 44
1.0
1001
ACAD
1000
ACAD_MTEXT_DEFINED_HEIGHT_BEGIN
1070
    46
1040
0.0271738284815141
1000
ACAD_MTEXT_DEFINED_HEIGHT_END
1000
MTEXTBEGIN
1070
    73
1070
     1
1070
    44
1040
1.0
1070
    74
1070
     0
1000
MTEXTEND
  0
MTEXT
  5
1C
330
2
100
AcDbEntity
  8
Text
100
AcDbMText
 10
0.0219676065851835
 20
0.0500313976452307
 30
0.0
 40
0.002
 41
0.1863544980601608
 71
     1
 72
     5
  3
{\fArial|b0|i0|c0|p34;\H1.25x;Le caratteristiche tecniche indicate vengono fornite a titolo indicativo e potranno essere modificate senza preavviso. Non devono quindi essere considerate a scopo di specifica.\P\fArial|b0|i1|c0|p34;The given values are
  3
 indicative and can be changed without notice. They cannot be considered like a state.\PThis lealfet and designs embodied within are protected by copyright law and international treaties. Unauthorized repro- duction of the leaflet or any portion of i
  1
t or reproduction of any of the designs embodied therein may result in severe civil penalties and will be prosecuted to the maximum.\PAll right reserved, Bovelacci Forlì Italy.}
 73
     1
 44
1.0
1001
ACAD
1000
MTEXTBEGIN
1070
    73
1070
     1
1070
    44
1040
1.0
1070
    74
1070
     0
1000
MTEXTEND
  0
LINE
  5
1D
330
2
100
AcDbEntity
  8
Table
100
AcDbLine
 10
0.02
 20
0.0528099428524846
 30
0.0
 11
0.4
 21
0.0528099428524846
 31
0.0
  0
MTEXT
  5
1E
330
2
100
AcDbEntity
  8
Text
100
AcDbMText
 10
0.1133313047219695
 20
0.2610796890771976
 30
0.0
 40
0.003
 41
0.1103605678262056
 71
     2
 72
     5
  1
{\fTimes New Roman|b0|i0|c0|p18;Rosoni\fTimes New Roman|b0|i1|c0|p18;   Ceiling centres}
 73
     1
 44
1.0
1001
ACAD
1000
ACAD_MTEXT_DEFINED_HEIGHT_BEGIN
1070
    46
1040
0.0141952763113409
1000
ACAD_MTEXT_DEFINED_HEIGHT_END
1000
MTEXTBEGIN
1070
    73
1070
     1
1070
    44
1040
1.0
1070
    74
1070
     0
1000
MTEXTEND
  0
TEXT
  5
1F
330
2
100
AcDbEntity
  8
Text
100
AcDbText
 10
0.2180556919891047
 20
0.269976982173197
 30
0.0
 40
0.003
  1
Rosone - Ceiling centre : D 450 mm
  7
ROMANS
100
AcDbText
  0
TEXT
  5
21
330
2
100
AcDbEntity
  8
Text
100
AcDbText
 10
0.2184542410678115
 20
0.2576348370183962
 30
0.0
 40
0.003
  1
File : E - M52
  7
ROMANS
100
AcDbText
  0
LINE
  5
22
330
2
100
AcDbEntity
  8
Table
100
AcDbLine
 10
0.4
 20
0.2654452889427402
 30
0.0
 11
0.02
 21
0.2654452889427403
 31
0.0
  0
LINE
  5
23
330
2
100
AcDbEntity
  8
Table
100
AcDbLine
 10
0.4
 20
0.2532994226089223
 30
0.0
 11
0.02
 21
0.2532994226089225
 31
0.0
  0
LINE
  5
24
330
2
100
AcDbEntity
  8
Table
100
AcDbLine
 10
0.21
 20
0.0528099428524846
 30
0.0
 11
0.21
 21
0.02
 31
0.0
  0
TEXT
  5
25
330
2
100
AcDbEntity
  8
Text
100
AcDbText
 10
0.0947789320547719
 20
0.2687784133392506
 30
0.0
 40
0.005
  1
EUROSTYL
  7
style1
 72
     1
 11
0.1140561490699125
 21
0.2687784133392506
 31
0.0
100
AcDbText
  0
TEXT
  5
252
330
2
100
AcDbEntity
  8
Text
  6
ACAD_ISO10W100
100
AcDbText
 10
0.2792397639470868
 20
0.0881830368767877
 30
0.0
 40
0.005
  1
scala 1 : 4
  7
style1
100
AcDbText
  0
CIRCLE
  5
15D5
102
{ACAD_REACTORS
330
16E0
102
}
330
2
100
AcDbEntity
  8
Profilo
  6
Continuous
370
     0
100
AcDbCircle
 10
0.2084744971446424
 20
0.1629800342672232
 30
0.0
 40
0.05625
  0
CIRCLE
  5
15D6
330
2
100
AcDbEntity
  8
Profilo
  6
Continuous
370
     0
100
AcDbCircle
 10
0.2084744971446424
 20
0.1629800342672232
 30
0.0
 40
0.0073577144462462
  0
CIRCLE
  5
15D7
330
2
100
AcDbEntity
  8
Profilo
  6
Continuous
370
     0
100
AcDbCircle
 10
0.2084744971446424
 20
0.1629800342672232
 30
0.0
 40
0.0522927468437684
  0
CIRCLE
  5
15D8
330
2
100
AcDbEntity
  8
Profilo
  6
Continuous
370
     0
100
AcDbCircle
 10
0.2084744971446424
 20
0.1629800342672232
 30
0.0
 40
0.0431970537935822
  0
LWPOLYLINE
  5
15D9
330
2
100
AcDbEntity
  8
Profilo
  6
Continuous
370
     0
100
AcDbPolyline
 90
       19
 70
   129
 43
0.0
 10
0.2051030605894064
 20
0.1187249659164918
 10
0.2050211257087733
 20
0.1162525549488905
 10
0.2056615514873197
 20
0.1142407636083267
 10
0.2071253740551986
 20
0.1136006490435058
 10
0.208497711117684
 20
0.1134177589216361
 10
0.2095040898141212
 20
0.112869088556028
 10
0.2098700454560898
 20
0.1116803036255989
 10
0.2104189802810852
 20
0.1112230774592036
 10
0.2112423797944964
 20
0.1114974135037293
 10
0.211791314619491
 20
0.1124118623896327
 10
0.2122487584909327
 20
0.1131434228771105
 10
0.2138955629659163
 20
0.1138749833645878
 10
0.215084918121297
 20
0.1149723240958041
 10
0.215676392180814
 20
0.1161111188183071
 10
0.2157983928312575
 20
0.1172086043187941
 10
0.2155369628660215
 20
0.1194558353030464
 10
0.2146132354832788
 20
0.1195951981308594
 10
0.210378042805649
 20
0.1192119507852339
 10
0.2060740071762479
 20
0.1192740843774616
  0
LWPOLYLINE
  5
15DA
330
2
100
AcDbEntity
  8
Profilo
  6
Continuous
370
     0
100
AcDbPolyline
 90
        2
 70
   128
 43
0.0
 10
0.2080402645221617
 20
0.1186301248097486
 10
0.210144512868587
 20
0.1134177589216361
  0
LWPOLYLINE
  5
15DB
330
2
100
AcDbEntity
  8
Profilo
  6
Continuous
370
     0
100
AcDbPolyline
 90
        2
 70
   128
 43
0.0
 10
0.2122487584909327
 20
0.1186301248097486
 10
0.2110594033355511
 20
0.1133263129989797
  0
LWPOLYLINE
  5
15DC
330
2
100
AcDbEntity
  8
Profilo
  6
Continuous
370
     0
100
AcDbPolyline
 90
        7
 70
   128
 43
0.0
 10
0.2193849030436199
 20
0.1145150996528528
 10
0.2186529917596809
 20
0.1127776426333716
 10
0.2178295895221891
 20
0.1122289722677634
 10
0.2161827877712861
 20
0.1121375280685506
 10
0.2154508764873462
 20
0.1125947525115019
 10
0.2149019416623525
 20
0.1130519786778977
 10
0.2140785394248608
 20
0.1136006490435058
  0
LWPOLYLINE
  5
15DD
330
2
100
AcDbEntity
  8
Profilo
  6
Continuous
370
     0
100
AcDbPolyline
 90
       19
 70
   129
 43
0.0
 10
0.2157919594888111
 20
0.11920410019363
 10
0.2163040921600021
 20
0.1167839246949359
 10
0.2174073615104255
 20
0.1149838562750672
 10
0.2189818374971713
 20
0.1147126579463696
 10
0.2203580654097494
 20
0.1148635040347877
 10
0.221466505983307
 20
0.1145716192190987
 10
0.2221063224747384
 20
0.1135049571357769
 10
0.2227487276351077
 20
0.1131923858330966
 10
0.2234825477423932
 20
0.1136558025722801
 10
0.2237966895764349
 20
0.1146750479377963
 10
0.2240657670763164
 20
0.1154948240910334
 10
0.2254896445221746
 20
0.1165992328671844
 10
0.2263818283522647
 20
0.1179493181901712
 10
0.2266835838350694
 20
0.119196570615175
 10
0.2265393938967433
 20
0.1202913618483213
 10
0.2257477630353637
 20
0.1224107280985523
 10
0.2248175257838418
 20
0.1223249788636489
 10
0.2207971172013792
 20
0.1209393200403308
 10
0.2166032794832036
 20
0.119969624997524
  0
LWPOLYLINE
  5
15DE
330
2
100
AcDbEntity
  8
Profilo
  6
Continuous
370
     0
100
AcDbPolyline
 90
        2
 70
   128
 43
0.0
 10
0.218666510575894
 20
0.1198149339073978
 10
0.2219570140947116
 20
0.1152576094897551
  0
LWPOLYLINE
  5
15DF
330
2
100
AcDbEntity
  8
Profilo
  6
Continuous
370
     0
100
AcDbPolyline
 90
        2
 70
   128
 43
0.0
 10
0.2227527133585594
 20
0.1208220924371844
 10
0.2228672039491781
 20
0.1153877684392668
  0
LWPOLYLINE
  5
15E0
330
2
100
AcDbEntity
  8
Profilo
  6
Continuous
370
     0
100
AcDbPolyline
 90
        7
 70
   128
 43
0.0
 10
0.2306662844989427
 20
0.1185344336066721
 10
0.2303714419075085
 20
0.1166723060953621
 10
0.2297032716555865
 20
0.1159425260399696
 10
0.2281262069999028
 20
0.1154596335880254
 10
0.2273061427563874
 20
0.115728414084521
 10
0.2266637375960181
 20
0.1160409853872018
 10
0.2257329565180546
 20
0.1163766593357119
  0
LWPOLYLINE
  5
15E1
330
2
100
AcDbEntity
  8
Profilo
  6
Continuous
370
     0
100
AcDbPolyline
 90
       19
 70
   129
 43
0.0
 10
0.2260555940746662
 20
0.1222273326400794
 10
0.2271320310083584
 20
0.120000044413297
 10
0.2286340259262329
 20
0.1185163123477027
 10
0.2302276525104838
 20
0.1186297913162273
 10
0.2315277899092594
 20
0.1191056069885772
 10
0.2326738738228202
 20
0.1190874710073373
 10
0.23355036735487
 20
0.1182049222942465
 10
0.2342489085977417
 20
0.1180551713632425
 10
0.2348505023415937
 20
0.1186807367006535
 10
0.2349115944031472
 20
0.1197455437099453
 10
0.234976667725231
 20
0.1206058931186805
 10
0.2360948675603953
 20
0.1220189659597975
 10
0.236638029583945
 20
0.1235433338229431
 10
0.2366325295582141
 20
0.1248265581730855
 10
0.2362305288262243
 20
0.1258550298518244
 10
0.2349547037769033
 20
0.1277233615051532
 10
0.2340720186643865
 20
0.1274174836413809
 10
0.2305000457103128
 20
0.1251099427945162
 10
0.2266601365075631
 20
0.1231647742678648
  0
LWPOLYLINE
  5
15E2
330
2
100
AcDbEntity
  8
Profilo
  6
Continuous
370
     0
100
AcDbPolyline
 90
        2
 70
   128
 43
0.0
 10
0.2287004338554632
 20
0.123508341739204
 10
0.2329859604426525
 20
0.1198709139219843
  0
LWPOLYLINE
  5
15E3
330
2
100
AcDbEntity
  8
Profilo
  6
Continuous
370
     0
100
AcDbPolyline
 90
        2
 70
   128
 43
0.0
 10
0.2324268701990364
 20
0.1254641264058985
 10
0.2338385527586861
 20
0.1202151133786268
  0
LWPOLYLINE
  5
15E4
330
2
100
AcDbEntity
  8
Profilo
  6
Continuous
370
     0
100
AcDbPolyline
 90
        7
 70
   128
 43
0.0
 10
0.2406579599370981
 20
0.1251367843176976
 10
0.2408173212178741
 20
0.1232582063969579
 10
0.240343214577863
 20
0.1223897288159577
 10
0.2389275402827919
 20
0.1215434520653467
 10
0.2380669822327197
 20
0.1216081680699073
 10
0.2373684409898489
 20
0.1217579190009117
 10
0.2363843746844141
 20
0.1218610883825615
  0
LWPOLYLINE
  5
15E5
330
2
100
AcDbEntity
  8
Profilo
  6
Continuous
370
     0
100
AcDbPolyline
 90
       19
 70
   129
 43
0.0
 10
0.2352974792116356
 20
0.1276189639750556
 10
0.236875661805932
 20
0.1257140049160619
 10
0.2386890918061597
 20
0.1246328383192481
 10
0.240209253203435
 20
0.1251243995998233
 10
0.2413577408285998
 20
0.1258975321787477
 10
0.2424748618509527
 20
0.1261541990292645
 10
0.2435370938054635
 20
0.1255070542096755
 10
0.2442511744528948
 20
0.1255288266301354
 10
0.2446855793916247
 20
0.1262801849822009
 10
0.2444900712321336
 20
0.1273286709223041
 10
0.2443473585514722
 20
0.1281795932061452
 10
0.2450948950660139
 20
0.1298192074550129
 10
0.2452574686805293
 20
0.131429267138963
 10
0.2449450327877647
 20
0.1326738870793441
 10
0.244308584083442
 20
0.1335762681680499
 10
0.242622711160611
 20
0.1350849845798947
 10
0.2418388766374091
 20
0.1345767545968746
 10
0.2389229293962216
 20
0.1314814376129137
 10
0.2356601102742599
 20
0.1286738417267868
  0
LWPOLYLINE
  5
15E6
330
2
100
AcDbEntity
  8
Profilo
  6
Continuous
370
     0
100
AcDbPolyline
 90
        2
 70
   128
 43
0.0
 10
0.2375588992116879
 20
0.1294957008669744
 10
0.2425903896392574
 20
0.126989563733402
  0
LWPOLYLINE
  5
15E7
330
2
100
AcDbEntity
  8
Profilo
  6
Continuous
370
     0
100
AcDbPolyline
 90
        2
 70
   128
 43
0.0
 10
0.2407090021809262
 20
0.132286448574736
 10
0.243335834850497
 20
0.1275278000758695
  0
LWPOLYLINE
  5
15E8
330
2
100
AcDbEntity
  8
Profilo
  6
Continuous
370
     0
100
AcDbPolyline
 90
        7
 70
   128
 43
0.0
 10
0.2487792494998835
 20
0.1339384471611729
 10
0.2493835531544855
 20
0.132152594951404
 10
0.2491310634809947
 20
0.1311958926050168
 10
0.2479590533907989
 20
0.1300354140843932
 10
0.2471080140400408
 20
0.1298923045380669
 10
0.2463939333926095
 20
0.1298705321176079
 10
0.2454137722164382
 20
0.1297352011029414
  0
LWPOLYLINE
  5
15E9
330
2
100
AcDbEntity
  8
Profilo
  6
Continuous
370
     0
100
AcDbPolyline
 90
       19
 70
   129
 43
0.0
 10
0.2429805101284443
 20
0.1350656521831513
 10
0.2449687201474242
 20
0.1335937315882106
 10
0.2469881952699422
 20
0.1329779639329039
 10
0.248346545225395
 20
0.1338190397706549
 10
0.249276637150756
 20
0.134844557600889
 10
0.2502998722686518
 20
0.1353611107387576
 10
0.2514861095854834
 20
0.1349869795173089
 10
0.2521742298658232
 20
0.1351790099552946
 10
0.2524161999633898
 20
0.1360124951056696
 10
0.25197545380644
 20
0.1369837257848368
 10
0.2516332490652944
 20
0.1377757684336228
 10
0.2519666781541729
 20
0.1395466356698532
 10
0.2517392151721081
 20
0.1411488163581052
 10
0.2511380010507407
 20
0.1422824991017995
 10
0.2503040924593829
 20
0.1430063464916185
 10
0.2483061484694182
 20
0.1440677665480837
 10
0.2476667181488963
 20
0.1433867209250879
 10
0.245576260875217
 20
0.1396835163761192
 10
0.2430801550215456
 20
0.1361766603982229
  0
LWPOLYLINE
  5
15EA
330
2
100
AcDbEntity
  8
Profilo
  6
Continuous
370
     0
100
AcDbPolyline
 90
        2
 70
   128
 43
0.0
 10
0.2447270848372767
 20
0.1374290477413671
 10
0.2502121271702993
 20
0.1361998488722079
  0
LWPOLYLINE
  5
15EB
330
2
100
AcDbEntity
  8
Profilo
  6
Continuous
370
     0
100
AcDbPolyline
 90
        2
 70
   128
 43
0.0
 10
0.2471177818977661
 20
0.1408925703773763
 10
0.2508071027106495
 20
0.1369008417606857
  0
LWPOLYLINE
  5
15EC
330
2
100
AcDbEntity
  8
Profilo
  6
Continuous
370
     0
100
AcDbPolyline
 90
        7
 70
   128
 43
0.0
 10
0.2545581733575968
 20
0.144427901485378
 10
0.2555722994541731
 20
0.1428385622257029
 10
0.2555561005292641
 20
0.1418492351768286
 10
0.2546958676103024
 20
0.1404419976796436
 10
0.2539038062725207
 20
0.1400993795890811
 10
0.2532156859921801
 20
0.1399073491510959
 10
0.2522963933500921
 20
0.1395413826867771
  0
LWPOLYLINE
  5
15ED
330
2
100
AcDbEntity
  8
Profilo
  6
Continuous
370
     0
100
AcDbPolyline
 90
       19
 70
   129
 43
0.0
 10
0.2486581769948886
 20
0.1441346228133232
 10
0.250940866899098
 20
0.1431812833571995
 10
0.2530490225902795
 20
0.1430667008213018
 10
0.2541666187418998
 20
0.1442084109457247
 10
0.2548242614055007
 20
0.1454267146585815
 10
0.2556941439131968
 20
0.1461731338930224
 10
0.2569354467912912
 20
0.1460937594163932
 10
0.2575576156550621
 20
0.1464448877608516
 10
0.2575930884889208
 20
0.147312060582191
 10
0.2569327188991062
 20
0.1481495916036287
 10
0.2564109097931693
 20
0.1488367239775708
 10
0.2563108537697036
 20
0.150635927834234
 10
0.2557065735127828
 20
0.1521371166088768
 10
0.254851521542222
 20
0.1530939766355901
 10
0.2538686168000239
 20
0.153597222947304
 10
0.2516747149853911
 20
0.154149660772813
 10
0.2512168502335432
 20
0.1533353794059503
 10
0.250073372705615
 20
0.1492395040797588
 10
0.2484890447194752
 20
0.1452371937326252
  0
LWPOLYLINE
  5
15EE
330
2
100
AcDbEntity
  8
Profilo
  6
Continuous
370
     0
100
AcDbPolyline
 90
        2
 70
   128
 43
0.0
 10
0.2497884018389633
 20
0.1468473250785858
 10
0.2554082253543617
 20
0.1469665010441588
  0
LWPOLYLINE
  5
15EF
330
2
100
AcDbEntity
  8
Profilo
  6
Continuous
370
     0
100
AcDbPolyline
 90
        2
 70
   128
 43
0.0
 10
0.2512807543673785
 20
0.1507823352966302
 10
0.255818153408067
 20
0.1477895113199741
  0
LWPOLYLINE
  5
15F0
330
2
100
AcDbEntity
  8
Profilo
  6
Continuous
370
     0
100
AcDbPolyline
 90
        7
 70
   128
 43
0.0
 10
0.25765888146116
 20
0.1559955383326053
 10
0.2590238926771764
 20
0.1546950786437827
 10
0.2592449259234841
 20
0.1537306229844451
 10
0.2587464637861865
 20
0.1521584100389346
 10
0.2580594121873083
 20
0.1516361951221928
 10
0.2574372433235366
 20
0.1512850667777353
 10
0.2566322451623966
 20
0.1507097335044365
  0
LWPOLYLINE
  5
15F1
330
2
100
AcDbEntity
  8
Profilo
  6
Continuous
370
     0
100
AcDbPolyline
 90
       19
 70
   129
 43
0.0
 10
0.2520005144501691
 20
0.1542988202569118
 10
0.2544450225996166
 20
0.1539194665635478
 10
0.2565193405135229
 20
0.1543127282675541
 10
0.2573312322352759
 20
0.1556887206361657
 10
0.2576782058359439
 20
0.1570290068482072
 10
0.2583441813239859
 20
0.1579619130064385
 10
0.2595684097520203
 20
0.1581819082306961
 10
0.2600884690063523
 20
0.1586717281785466
 10
0.2599153830243368
 20
0.1595221917385195
 10
0.2590737682818733
 20
0.1601773488435632
 10
0.2584026804596806
 20
0.1607196373067119
 10
0.2578749542162668
 20
0.1624426145954987
 10
0.2569289752565529
 20
0.1637555678215497
 10
0.25586977794934
 20
0.1644799959045738
 10
0.2547949999072061
 20
0.1647333942917715
 10
0.2525326418668621
 20
0.1647447442079353
 10
0.2522829521187961
 20
0.1638445501704553
 10
0.2521529090941701
 20
0.1595940414530983
 10
0.2515724343593166
 20
0.155328876466297
  0
LWPOLYLINE
  5
15F2
330
2
100
AcDbEntity
  8
Profilo
  6
Continuous
370
     0
100
AcDbPolyline
 90
        2
 70
   128
 43
0.0
 10
0.2524487048697501
 20
0.1572031768338358
 10
0.2578767058520357
 20
0.1586638015602089
  0
LWPOLYLINE
  5
15F3
330
2
100
AcDbEntity
  8
Profilo
  6
Continuous
370
     0
100
AcDbPolyline
 90
        2
 70
   128
 43
0.0
 10
0.2529559827616203
 20
0.1613809861432228
 10
0.2580777628906421
 20
0.1595609988576523
  0
LWPOLYLINE
  5
15F4
330
2
100
AcDbEntity
  8
Profilo
  6
Continuous
370
     0
100
AcDbPolyline
 90
        7
 70
   128
 43
0.0
 10
0.2579011719262103
 20
0.1679690886959422
 10
0.2595377387714064
 20
0.1670330865681089
 10
0.2599831585400778
 20
0.1661495529555744
 10
0.2598754359920281
 20
0.1645037358633699
 10
0.2593333230736483
 20
0.1638322733532361
 10
0.2588132638193163
 20
0.163342453405386
 10
0.2581693437062007
 20
0.1625911896017008
  0
LWPOLYLINE
  5
15F5
330
2
100
AcDbEntity
  8
Profilo
  6
Continuous
370
     0
100
AcDbPolyline
 90
       19
 70
   129
 43
0.0
 10
0.252813277990289
 20
0.164967538303851
 10
0.2552775384567532
 20
0.1651842170310099
 10
0.2571974667760679
 20
0.1660624680341323
 10
0.2576564698721906
 20
0.167592774971997
 10
0.2576726095654516
 20
0.1689771511203218
 10
0.2580959739591975
 20
0.1700423270874028
 10
0.2592319802308249
 20
0.1705489066897632
 10
0.2596197059221941
 20
0.1711489516860605
 10
0.2592481202524375
 20
0.1719332801338703
 10
0.2582741719470112
 20
0.1723679879729739
 10
0.2574928065934852
 20
0.1727339166909896
 10
0.2565680796611829
 20
0.1742805342346434
 10
0.2553353788573209
 20
0.1753289478429949
 10
0.254133592910925
 20
0.1757788428553331
 10
0.2530294037620038
 20
0.175767666724817
 10
0.2508300695219183
 20
0.1752372691157638
 10
0.2508030658382052
 20
0.1743034784130522
 10
0.2516940149447853
 20
0.170145360421212
 10
0.2521511285428699
 20
0.1658652166805317
  0
LWPOLYLINE
  5
15F6
330
2
100
AcDbEntity
  8
Profilo
  6
Continuous
370
     0
100
AcDbPolyline
 90
        2
 70
   128
 43
0.0
 10
0.2525533867872942
 20
0.1678947585450919
 10
0.2574741095493589
 20
0.1706119458323235
  0
LWPOLYLINE
  5
15F7
330
2
100
AcDbEntity
  8
Profilo
  6
Continuous
370
     0
100
AcDbPolyline
 90
        2
 70
   128
 43
0.0
 10
0.2520461088954249
 20
0.1720725678544788
 10
0.2574546108685947
 20
0.1715311883056463
  0
LWPOLYLINE
  5
15F8
330
2
100
AcDbEntity
  8
Profilo
  6
Continuous
370
     0
100
AcDbPolyline
 90
        7
 70
   128
 43
0.0
 10
0.2552709637116093
 20
0.1796526933503573
 10
0.2570839748696192
 20
0.1791355458249531
 10
0.2577278949827348
 20
0.1783842820212678
 10
0.2580171724668714
 20
0.1767605096894676
 10
0.2576515038613063
 20
0.1759788225463635
 10
0.2572637781699363
 20
0.1753787775500671
 10
0.2568183584012649
 20
0.1744952439375321
  0
LWPOLYLINE
  5
15F9
330
2
100
AcDbEntity
  8
Profilo
  6
Continuous
370
     0
100
AcDbPolyline
 90
       19
 70
   129
 43
0.0
 10
0.25104923275257
 20
0.1755207498404643
 10
0.2533900316749624
 20
0.1763208684081195
 10
0.2550439911444229
 20
0.1776330679543683
 10
0.2551234300233769
 20
0.1792287535846973
 10
0.2548077978289249
 20
0.1805767647595669
 10
0.2549639467286766
 20
0.1817123063800483
 10
0.2559457102886042
 20
0.1824760297953645
 10
0.2561785692091536
 20
0.1831514274059976
 10
0.2556300790601236
 20
0.1838240384231756
 10
0.2545803995270874
 20
0.1840130333568298
 10
0.2537341667564286
 20
0.1841813358827181
 10
0.2524661809032975
 20
0.1854617098913278
 10
0.251018398345322
 20
0.1861846538938903
 10
0.2497438671906342
 20
0.1863338695727277
 10
0.2486744383946975
 20
0.1860587684405799
 10
0.246665945266648
 20
0.1850174480874303
 10
0.2468631970032316
 20
0.1841043292409384
 10
0.2487233595174121
 20
0.1802802566781565
 10
0.2501914956676534
 20
0.1762338805801165
  0
LWPOLYLINE
  5
15FA
330
2
100
AcDbEntity
  8
Profilo
  6
Continuous
370
     0
100
AcDbPolyline
 90
        2
 70
   128
 43
0.0
 10
0.250096363859053
 20
0.1783007143456142
 10
0.254223833880064
 20
0.1821165511451442
  0
LWPOLYLINE
  5
15FB
330
2
100
AcDbEntity
  8
Profilo
  6
Continuous
370
     0
100
AcDbPolyline
 90
        2
 70
   128
 43
0.0
 10
0.2486040113306378
 20
0.1822357245636586
 10
0.253984912672381
 20
0.1830044157631077
  0
LWPOLYLINE
  5
15FC
330
2
100
AcDbEntity
  8
Profilo
  6
Continuous
370
     0
100
AcDbPolyline
 90
        7
 70
   128
 43
0.0
 10
0.2499211149583702
 20
0.1903673436615104
 10
0.2518052048107193
 20
0.1902991054729568
 10
0.2526102029718593
 20
0.189723772199659
 10
0.2532796687322827
 20
0.188216412374014
 10
0.2531116957697372
 20
0.1873699294133802
 10
0.252878836849187
 20
0.1866945318027471
 10
0.2526578036028801
 20
0.1857300761434087
  0
LWPOLYLINE
  5
15FD
330
2
100
AcDbEntity
  8
Profilo
  6
Continuous
370
     0
100
AcDbPolyline
 90
       19
 70
   129
 43
0.0
 10
0.2468108986341855
 20
0.1853451405716074
 10
0.2488921972875955
 20
0.1866821989969185
 10
0.250184065794733
 20
0.1883520868183178
 10
0.2498793237576231
 20
0.1899204156923571
 10
0.2492502630713227
 20
0.1911537203841099
 10
0.249130121670605
 20
0.1922936341065349
 10
0.2499005859892962
 20
0.1932701165059306
 10
0.2499650452249706
 20
0.1939816150767404
 10
0.2492715268504486
 20
0.1945034189558095
 10
0.2482071196488327
 20
0.1944357172854383
 10
0.2473451994337397
 20
0.1943966124881496
 10
0.2458076453886224
 20
0.1953363322783049
 10
0.2442289209363293
 20
0.1956917917974448
 10
0.2429557156913267
 20
0.1955316562699044
 10
0.2419831985627787
 20
0.1950086180139723
 10
0.2402822728667926
 20
0.1935168926706068
 10
0.2406923164697232
 20
0.19267751282864
 10
0.2434135865075955
 20
0.1894097268923279
 10
0.2458074224733993
 20
0.1858322791077669
  0
LWPOLYLINE
  5
15FE
330
2
100
AcDbEntity
  8
Profilo
  6
Continuous
370
     0
100
AcDbPolyline
 90
        2
 70
   128
 43
0.0
 10
0.2452204293267
 20
0.1878162879083869
 10
0.2483147730517794
 20
0.1925090116554287
  0
LWPOLYLINE
  5
15FF
330
2
100
AcDbEntity
  8
Profilo
  6
Continuous
370
     0
100
AcDbPolyline
 90
        2
 70
   128
 43
0.0
 10
0.2428297322662105
 20
0.1912798105443961
 10
0.2478703145493248
 20
0.1933138989536934
  0
LWPOLYLINE
  5
1600
330
2
100
AcDbEntity
  8
Profilo
  6
Continuous
370
     0
100
AcDbPolyline
 90
        7
 70
   128
 43
0.0
 10
0.242162539430123
 20
0.1994903430994868
 10
0.2440082115229802
 20
0.1998749800032671
 10
0.2449275041650682
 20
0.1995090135389493
 10
0.245938251285194
 20
0.1982056684934957
 10
0.2459777359436923
 20
0.1973435842281639
 10
0.245913276708017
 20
0.196632085657354
 10
0.2459294756329269
 20
0.1956427586084793
  0
LWPOLYLINE
  5
1601
330
2
100
AcDbEntity
  8
Profilo
  6
Continuous
370
     0
100
AcDbPolyline
 90
       19
 70
   129
 43
0.0
 10
0.2403445922083784
 20
0.1938697526181936
 10
0.2420454330802817
 20
0.1956660459254914
 10
0.242900131923214
 20
0.1975965742116566
 10
0.2422289194695446
 20
0.1990464007558906
 10
0.2413229890119408
 20
0.2000933237787222
 10
0.2409335394922676
 20
0.2011713619609606
 10
0.2414479279840422
 20
0.2023038537367519
 10
0.2413402413983652
 20
0.2030101035569952
 10
0.2405419995654412
 20
0.203350774953184
 10
0.2395247241728418
 20
0.2030303112537839
 10
0.2386972081832617
 20
0.2027860717619963
 10
0.2369794429984811
 20
0.2033305242352357
 10
0.2353615263786055
 20
0.2032978412557432
 10
0.2341636411042163
 20
0.2028376610166165
 10
0.2333445548036115
 20
0.2020970827191689
 10
0.2320500481585259
 20
0.200241646040342
 10
0.2326490533840493
 20
0.1995247869082946
 10
0.2360732806224257
 20
0.1970031994391517
 10
0.2392536953586999
 20
0.1941025882298149
  0
LWPOLYLINE
  5
1602
330
2
100
AcDbEntity
  8
Profilo
  6
Continuous
370
     0
100
AcDbPolyline
 90
        2
 70
   128
 43
0.0
 10
0.2382089547819548
 20
0.1958884686856435
 10
0.2400903402012824
 20
0.2011853553333765
  0
LWPOLYLINE
  5
1603
330
2
100
AcDbEntity
  8
Profilo
  6
Continuous
370
     0
100
AcDbPolyline
 90
        2
 70
   128
 43
0.0
 10
0.2350588518127166
 20
0.1986792163934051
 10
0.2394661747166775
 20
0.2018604881878135
  0
LWPOLYLINE
  5
1604
330
2
100
AcDbEntity
  8
Profilo
  6
Continuous
370
     0
100
AcDbPolyline
 90
        7
 70
   128
 43
0.0
 10
0.2324461373352962
 20
0.2064914960977047
 10
0.2341461279153696
 20
0.2073066543950695
 10
0.23512628909154
 20
0.2071713233804038
 10
0.2364195766226611
 20
0.2061477387917175
 10
0.2366642241973744
 20
0.2053201544256396
 10
0.2367719107830506
 20
0.2046139046053963
 10
0.2370244004565414
 20
0.2036572022590087
  0
LWPOLYLINE
  5
1605
330
2
100
AcDbEntity
  8
Profilo
  6
Continuous
370
     0
100
AcDbPolyline
 90
       19
 70
   129
 43
0.0
 10
0.2320261117005493
 20
0.200599166513779
 10
0.2332476481017769
 20
0.202750300665304
 10
0.2336155052904558
 20
0.2048292741294276
 10
0.2326168308482754
 20
0.2060763396950105
 10
0.2314866800046411
 20
0.2068760376882442
 10
0.2308505557565039
 20
0.2078295486696547
 10
0.2310789740319474
 20
0.2090522335162722
 10
0.2308053999778534
 20
0.2097121899135097
 10
0.2299488256003659
 20
0.2098519302435625
 10
0.2290378023649537
 20
0.2092973287005043
 10
0.2282927828223051
 20
0.2088621488257057
 10
0.2264946367665759
 20
0.2089796923832894
 10
0.2249315554121789
 20
0.2085607663211342
 10
0.2238786068464138
 20
0.2078272853732324
 10
0.2232605536922863
 20
0.2069122067530243
 10
0.2224476981189738
 20
0.2048008899742724
 10
0.2232008529606781
 20
0.2042482127992214
 10
0.2271290337590244
 20
0.2026193692953562
 10
0.230911193121633
 20
0.2005641676414383
  0
LWPOLYLINE
  5
1606
330
2
100
AcDbEntity
  8
Profilo
  6
Continuous
370
     0
100
AcDbPolyline
 90
        2
 70
   128
 43
0.0
 10
0.2294694216396838
 20
0.2020481308717937
 10
0.2300285094712471
 20
0.2076413446216508
  0
LWPOLYLINE
  5
1607
330
2
100
AcDbEntity
  8
Profilo
  6
Continuous
370
     0
100
AcDbPolyline
 90
        2
 70
   128
 43
0.0
 10
0.2257429852961106
 20
0.2040039155384881
 10
0.2292609112337087
 20
0.2081474867647686
  0
LWPOLYLINE
  5
1608
330
2
100
AcDbEntity
  8
Profilo
  6
Continuous
370
     0
100
AcDbPolyline
 90
        7
 70
   128
 43
0.0
 10
0.2213365906459541
 20
0.2109639210920638
 10
0.2227921024399444
 20
0.2121622267457502
 10
0.2237761687453801
 20
0.2122653961274004
 10
0.2252768355170971
 20
0.2115810590111969
 10
0.22571242798024
 20
0.2108360707395829
 10
0.2259860020343332
 20
0.2101761143423453
 10
0.2264601086743452
 20
0.2093076367613452
  0
LWPOLYLINE
  5
1609
330
2
100
AcDbEntity
  8
Profilo
  6
Continuous
370
     0
100
AcDbPolyline
 90
       19
 70
   129
 43
0.0
 10
0.2223388969613669
 20
0.2051422931831762
 10
0.2230101376363824
 20
0.2075232520810964
 10
0.2228697746481083
 20
0.2096298483422048
 10
0.2216016775459637
 20
0.2106016780113642
 10
0.2203129865753997
 20
0.2111076754344164
 10
0.2194671568278828
 20
0.2118812446226308
 10
0.2193963300470922
 20
0.2131230645410683
 10
0.2189727676542039
 20
0.2136983732483369
 10
0.2181076417214516
 20
0.2136290613122054
 10
0.2173558160022357
 20
0.2128725533512775
 10
0.2167365907342995
 20
0.2122717241659771
 10
0.2149625655203866
 20
0.211955527603591
 10
0.2135451600382152
 20
0.2111747049187723
 10
0.2126983417244046
 20
0.2102105505086922
 10
0.2123172407195415
 20
0.2091741526089546
 10
0.2120332764293129
 20
0.2069296577871341
 10
0.2128968102654036
 20
0.2065732821575937
 10
0.2171006530340767
 20
0.2059318450828463
 10
0.2212647516684549
 20
0.2048414938341179
  0
LWPOLYLINE
  5
160A
330
2
100
AcDbEntity
  8
Profilo
  6
Continuous
370
     0
100
AcDbPolyline
 90
        2
 70
   128
 43
0.0
 10
0.2195097397992078
 20
0.20593729729004
 10
0.2187140378904375
 20
0.2115017808893838
  0
LWPOLYLINE
  5
160B
330
2
100
AcDbEntity
  8
Profilo
  6
Continuous
370
     0
100
AcDbPolyline
 90
        2
 70
   128
 43
0.0
 10
0.2154235370165425
 20
0.2069444558198262
 10
0.2178476169194246
 20
0.211809517179576
  0
LWPOLYLINE
  5
160C
330
2
100
AcDbEntity
  8
Profilo
  6
Continuous
370
     0
100
AcDbPolyline
 90
        7
 70
   128
 43
0.0
 10
0.2094795458341243
 20
0.2126476969984952
 10
0.2106059897871348
 20
0.2141595088395743
 10
0.2115367708650984
 20
0.2144951827880848
 10
0.2131576035793408
 20
0.2141898643300942
 10
0.2137588258802692
 20
0.2135707681633677
 10
0.2141823882731575
 20
0.2129954594560986
 10
0.2148505585250804
 20
0.2122656794007061
  0
LWPOLYLINE
  5
160D
330
2
100
AcDbEntity
  8
Profilo
  6
Continuous
370
     0
100
AcDbPolyline
 90
       19
 70
   129
 43
0.0
 10
0.2118459336998784
 20
0.2072351026179542
 10
0.2119278685805115
 20
0.2097075135855555
 10
0.2112874428019651
 20
0.2117193049261193
 10
0.2098236202340862
 20
0.2123594194909402
 10
0.2084512831716008
 20
0.2125423096128099
 10
0.2074449044751636
 20
0.213090979978418
 10
0.207078948833195
 20
0.2142797649088471
 10
0.2065300140081996
 20
0.2147369910752424
 10
0.2057066144947883
 20
0.2144626550307167
 10
0.2051576796697938
 20
0.2135482061448133
 10
0.2047002357983521
 20
0.2128166456573355
 10
0.2030534313233685
 20
0.2120850851698582
 10
0.2018640761679877
 20
0.2109877444386419
 10
0.2012726021084707
 20
0.2098489497161389
 10
0.2011506014580273
 20
0.2087514642156519
 10
0.2014120314232632
 20
0.2065042332313996
 10
0.2023357588060051
 20
0.2063648704035866
 10
0.2065709514836358
 20
0.2067481177492121
 10
0.2108749871130369
 20
0.2066859841569844
  0
LWPOLYLINE
  5
160E
330
2
100
AcDbEntity
  8
Profilo
  6
Continuous
370
     0
100
AcDbPolyline
 90
        2
 70
   128
 43
0.0
 10
0.208908729767123
 20
0.2073299437246974
 10
0.2068044814206977
 20
0.2125423096128099
  0
LWPOLYLINE
  5
160F
330
2
100
AcDbEntity
  8
Profilo
  6
Continuous
370
     0
100
AcDbPolyline
 90
        2
 70
   128
 43
0.0
 10
0.2047002357983521
 20
0.2073299437246974
 10
0.2058895909537337
 20
0.2126337555354663
  0
LWPOLYLINE
  5
1610
330
2
100
AcDbEntity
  8
Profilo
  6
Continuous
370
     0
100
AcDbPolyline
 90
        7
 70
   128
 43
0.0
 10
0.1975640912456649
 20
0.2114449688815932
 10
0.1982960025296039
 20
0.2131824259010744
 10
0.1991194047670957
 20
0.2137310962666826
 10
0.2007662065179987
 20
0.2138225404658954
 10
0.2014981178019377
 20
0.2133653160229437
 10
0.2020470526269322
 20
0.2129080898565483
 10
0.202870454864424
 20
0.2123594194909402
  0
LWPOLYLINE
  5
1611
330
2
100
AcDbEntity
  8
Profilo
  6
Continuous
370
     0
100
AcDbPolyline
 90
       19
 70
   129
 43
0.0
 10
0.2011570348004736
 20
0.2067559683408156
 10
0.2006449021292826
 20
0.2091761438395097
 10
0.1995416327788593
 20
0.2109762122593788
 10
0.1979671567921135
 20
0.211247410588076
 10
0.1965909288795353
 20
0.2110965644996579
 10
0.1954824883059778
 20
0.2113884493153469
 10
0.1948426718145464
 20
0.2124551113986691
 10
0.1942002666541771
 20
0.2127676827013494
 10
0.1934664465468916
 20
0.2123042659621655
 10
0.1931523047128498
 20
0.2112850205966493
 10
0.1928832272129684
 20
0.2104652444434121
 10
0.1914593497671102
 20
0.2093608356672616
 10
0.19056716593702
 20
0.2080107503442748
 10
0.1902654104542154
 20
0.2067634979192706
 10
0.1904096003925415
 20
0.2056687066861243
 10
0.1912012312539211
 20
0.2035493404358937
 10
0.192131468505442
 20
0.2036350896707971
 10
0.1961518770879056
 20
0.2050207484941152
 10
0.2003457148060812
 20
0.2059904435369216
  0
LWPOLYLINE
  5
1612
330
2
100
AcDbEntity
  8
Profilo
  6
Continuous
370
     0
100
AcDbPolyline
 90
        2
 70
   128
 43
0.0
 10
0.1982824837133907
 20
0.2061451346270478
 10
0.1949919801945732
 20
0.2107024590446909
  0
LWPOLYLINE
  5
1613
330
2
100
AcDbEntity
  8
Profilo
  6
Continuous
370
     0
100
AcDbPolyline
 90
        2
 70
   128
 43
0.0
 10
0.1941962809307254
 20
0.2051379760972616
 10
0.1940817903401066
 20
0.2105723000951792
  0
LWPOLYLINE
  5
1614
330
2
100
AcDbEntity
  8
Profilo
  6
Continuous
370
     0
100
AcDbPolyline
 90
        7
 70
   128
 43
0.0
 10
0.1862827097903421
 20
0.2074256349277735
 10
0.1865775523817763
 20
0.2092877624390839
 10
0.1872457226336983
 20
0.2100175424944764
 10
0.1888227872893811
 20
0.2105004349464206
 10
0.1896428515328974
 20
0.210231654449925
 10
0.1902852566932667
 20
0.2099190831472442
 10
0.1912160377712302
 20
0.2095834091987341
  0
LWPOLYLINE
  5
1615
330
2
100
AcDbEntity
  8
Profilo
  6
Continuous
370
     0
100
AcDbPolyline
 90
       19
 70
   129
 43
0.0
 10
0.1908934002146185
 20
0.2037327358943666
 10
0.1898169632809263
 20
0.205960024121149
 10
0.1883149683630518
 20
0.2074437561867433
 10
0.1867213417788009
 20
0.2073302772182187
 10
0.1854212043800254
 20
0.2068544615458688
 10
0.1842751204664645
 20
0.2068725975271087
 10
0.1833986269344139
 20
0.2077551462401995
 10
0.1827000856915431
 20
0.2079048971712035
 10
0.1820984919476911
 20
0.2072793318337925
 10
0.1820373998861375
 20
0.2062145248245007
 10
0.1819723265640538
 20
0.2053541754157655
 10
0.1808541267288894
 20
0.2039411025746485
 10
0.1803109647053389
 20
0.2024167347115029
 10
0.1803164647310707
 20
0.2011335103613606
 10
0.1807184654630605
 20
0.2001050386826216
 10
0.1819942905123815
 20
0.1982367070292928
 10
0.1828769756248982
 20
0.1985425848930656
 10
0.1864489485789711
 20
0.2008501257399298
 10
0.1902888577817217
 20
0.2027952942665812
  0
LWPOLYLINE
  5
1616
330
2
100
AcDbEntity
  8
Profilo
  6
Continuous
370
     0
100
AcDbPolyline
 90
        2
 70
   128
 43
0.0
 10
0.1882485604338215
 20
0.202451726795242
 10
0.1839630338466323
 20
0.2060891546124617
  0
LWPOLYLINE
  5
1617
330
2
100
AcDbEntity
  8
Profilo
  6
Continuous
370
     0
100
AcDbPolyline
 90
        2
 70
   128
 43
0.0
 10
0.1845221240902484
 20
0.200495942128548
 10
0.1831104415305986
 20
0.2057449551558193
  0
LWPOLYLINE
  5
1618
330
2
100
AcDbEntity
  8
Profilo
  6
Continuous
370
     0
100
AcDbPolyline
 90
        7
 70
   128
 43
0.0
 10
0.1762910343521866
 20
0.2008232842167484
 10
0.1761316730714106
 20
0.2027018621374881
 10
0.1766057797114218
 20
0.2035703397184883
 10
0.1780214540064928
 20
0.2044166164690993
 10
0.1788820120565651
 20
0.2043519004645387
 10
0.179580553299435
 20
0.2042021495335343
 10
0.1805646196048707
 20
0.2040989801518845
  0
LWPOLYLINE
  5
1619
330
2
100
AcDbEntity
  8
Profilo
  6
Continuous
370
     0
100
AcDbPolyline
 90
       19
 70
   129
 43
0.0
 10
0.1816515150776483
 20
0.1983411045593904
 10
0.1800733324833528
 20
0.2002460636183841
 10
0.1782599024831251
 20
0.2013272302151979
 10
0.1767397410858489
 20
0.2008356689346227
 10
0.1755912534606849
 20
0.2000625363556983
 10
0.1744741324383321
 20
0.199805869505181
 10
0.1734119004838213
 20
0.2004530143247705
 10
0.17269781983639
 20
0.2004312419043106
 10
0.1722634148976601
 20
0.1996798835522451
 10
0.1724589230571512
 20
0.1986313976121419
 10
0.1726016357378126
 20
0.1977804753283008
 10
0.1718540992232709
 20
0.1961408610794331
 10
0.1716915256087554
 20
0.194530801395483
 10
0.1720039615015201
 20
0.1932861814551019
 10
0.1726404102058427
 20
0.1923838003663961
 10
0.1743262831286738
 20
0.1908750839545513
 10
0.1751101176518757
 20
0.1913833139375714
 10
0.1780260648930623
 20
0.1944786309215323
 10
0.1812888840150248
 20
0.1972862268076592
  0
LWPOLYLINE
  5
161A
330
2
100
AcDbEntity
  8
Profilo
  6
Continuous
370
     0
100
AcDbPolyline
 90
        2
 70
   128
 43
0.0
 10
0.1793900950775968
 20
0.1964643676674716
 10
0.1743586046500274
 20
0.198970504801044
  0
LWPOLYLINE
  5
161B
330
2
100
AcDbEntity
  8
Profilo
  6
Continuous
370
     0
100
AcDbPolyline
 90
        2
 70
   128
 43
0.0
 10
0.1762399921083586
 20
0.19367361995971
 10
0.1736131594387877
 20
0.1984322684585765
  0
LWPOLYLINE
  5
161C
330
2
100
AcDbEntity
  8
Profilo
  6
Continuous
370
     0
100
AcDbPolyline
 90
        7
 70
   128
 43
0.0
 10
0.1681697447894004
 20
0.1920216213732727
 10
0.1675654411347993
 20
0.193807473583042
 10
0.1678179308082901
 20
0.1947641759294292
 10
0.1689899408984858
 20
0.1959246544500528
 10
0.169840980249244
 20
0.1960677639963791
 10
0.1705550608966753
 20
0.1960895364168381
 10
0.1715352220728465
 20
0.1962248674315046
  0
LWPOLYLINE
  5
161D
330
2
100
AcDbEntity
  8
Profilo
  6
Continuous
370
     0
100
AcDbPolyline
 90
       19
 70
   129
 43
0.0
 10
0.1739684841608404
 20
0.1908944163512947
 10
0.1719802741418606
 20
0.1923663369462354
 10
0.1699607990193426
 20
0.1929821046015421
 10
0.1686024490638898
 20
0.1921410287637911
 10
0.1676723571385288
 20
0.191115510933557
 10
0.1666491220206321
 20
0.1905989577956884
 10
0.1654628847038013
 20
0.1909730890171371
 10
0.1647747644234616
 20
0.1907810585791514
 10
0.164532794325895
 20
0.1899475734287764
 10
0.1649735404828447
 20
0.1889763427496092
 10
0.1653157452239904
 20
0.1881843001008233
 10
0.1649823161351118
 20
0.1864134328645933
 10
0.1652097791171758
 20
0.1848112521763408
 10
0.1658109932385432
 20
0.1836775694326465
 10
0.166644901829901
 20
0.1829537220428275
 10
0.1686428458198665
 20
0.1818923019863623
 10
0.1692822761403885
 20
0.1825733476093581
 10
0.1713727334140678
 20
0.1862765521583268
 10
0.1738688392677383
 20
0.1897834081362231
  0
LWPOLYLINE
  5
161E
330
2
100
AcDbEntity
  8
Profilo
  6
Continuous
370
     0
100
AcDbPolyline
 90
        2
 70
   128
 43
0.0
 10
0.1722219094520081
 20
0.1885310207930789
 10
0.1667368671189855
 20
0.1897602196622381
  0
LWPOLYLINE
  5
161F
330
2
100
AcDbEntity
  8
Profilo
  6
Continuous
370
     0
100
AcDbPolyline
 90
        2
 70
   128
 43
0.0
 10
0.1698312123915187
 20
0.1850674981570697
 10
0.1661418915786352
 20
0.1890592267737604
  0
LWPOLYLINE
  5
1620
330
2
100
AcDbEntity
  8
Profilo
  6
Continuous
370
     0
100
AcDbPolyline
 90
        7
 70
   128
 43
0.0
 10
0.162390820931688
 20
0.181532167049068
 10
0.1613766948351116
 20
0.1831215063087431
 10
0.1613928937600206
 20
0.1841108333576174
 10
0.1622531266789824
 20
0.1855180708548024
 10
0.163045188016764
 20
0.1858606889453649
 10
0.1637333082971046
 20
0.1860527193833501
 10
0.1646526009391926
 20
0.1864186858476689
  0
LWPOLYLINE
  5
1621
330
2
100
AcDbEntity
  8
Profilo
  6
Continuous
370
     0
100
AcDbPolyline
 90
       19
 70
   129
 43
0.0
 10
0.1682908172943962
 20
0.1818254457211228
 10
0.1660081273901868
 20
0.1827787851772465
 10
0.1638999716990053
 20
0.1828933677131446
 10
0.1627823755473849
 20
0.1817516575887213
 10
0.162124732883784
 20
0.1805333538758645
 10
0.161254850376088
 20
0.1797869346414236
 10
0.1600135474979936
 20
0.1798663091180528
 10
0.1593913786342227
 20
0.1795151807735944
 10
0.159355905800364
 20
0.178648007952255
 10
0.1600162753901786
 20
0.1778104769308173
 10
0.1605380844961155
 20
0.1771233445568752
 10
0.1606381405195811
 20
0.1753241407002124
 10
0.161242420776502
 20
0.1738229519255692
 10
0.1620974727470628
 20
0.1728660918988563
 10
0.1630803774892608
 20
0.172362845587142
 10
0.1652742793038937
 20
0.171810407761633
 10
0.1657321440557415
 20
0.1726246891284962
 10
0.1668756215836697
 20
0.1767205644546877
 10
0.1684599495698096
 20
0.1807228748018209
  0
LWPOLYLINE
  5
1622
330
2
100
AcDbEntity
  8
Profilo
  6
Continuous
370
     0
100
AcDbPolyline
 90
        2
 70
   128
 43
0.0
 10
0.1671605924503214
 20
0.1791127434558602
 10
0.1615407689349231
 20
0.1789935674902876
  0
LWPOLYLINE
  5
1623
330
2
100
AcDbEntity
  8
Profilo
  6
Continuous
370
     0
100
AcDbPolyline
 90
        2
 70
   128
 43
0.0
 10
0.1656682399219063
 20
0.1751777332378162
 10
0.1611308408812178
 20
0.1781705572144723
  0
LWPOLYLINE
  5
1624
330
2
100
AcDbEntity
  8
Profilo
  6
Continuous
370
     0
100
AcDbPolyline
 90
        7
 70
   128
 43
0.0
 10
0.1592901128281248
 20
0.1699645302018411
 10
0.1579251016121084
 20
0.1712649898906633
 10
0.1577040683658006
 20
0.1722294455500013
 10
0.1582025305030974
 20
0.1738016584955114
 10
0.1588895821019765
 20
0.1743238734122532
 10
0.1595117509657482
 20
0.1746750017567112
 10
0.1603167491268882
 20
0.1752503350300095
  0
LWPOLYLINE
  5
1625
330
2
100
AcDbEntity
  8
Profilo
  6
Continuous
370
     0
100
AcDbPolyline
 90
       19
 70
   129
 43
0.0
 10
0.1649484798391148
 20
0.1716612482775342
 10
0.1625039716896681
 20
0.1720406019708982
 10
0.1604296537757619
 20
0.1716473402668919
 10
0.1596177620540089
 20
0.1702713478982803
 10
0.1592707884533409
 20
0.1689310616862388
 10
0.1586048129652988
 20
0.1679981555280075
 10
0.1573805845372644
 20
0.1677781603037499
 10
0.1568605252829325
 20
0.1672883403558994
 10
0.157033611264948
 20
0.1664378767959265
 10
0.1578752260074114
 20
0.1657827196908828
 10
0.1585463138296033
 20
0.1652404312277341
 10
0.1590740400730179
 20
0.1635174539389473
 10
0.160020019032731
 20
0.1622045007128963
 10
0.1610792163399448
 20
0.1614800726298722
 10
0.1621539943820787
 20
0.1612266742426745
 10
0.1644163524224227
 20
0.1612153243265107
 10
0.1646660421704886
 20
0.1621155183639907
 10
0.1647960851951147
 20
0.1663660270813477
 10
0.1653765599299672
 20
0.170631192068149
  0
LWPOLYLINE
  5
1626
330
2
100
AcDbEntity
  8
Profilo
  6
Continuous
370
     0
100
AcDbPolyline
 90
        2
 70
   128
 43
0.0
 10
0.1645002894195346
 20
0.1687568917006102
 10
0.1590722884372482
 20
0.1672962669742371
  0
LWPOLYLINE
  5
1627
330
2
100
AcDbEntity
  8
Profilo
  6
Continuous
370
     0
100
AcDbPolyline
 90
        2
 70
   128
 43
0.0
 10
0.1639930115276644
 20
0.1645790823912232
 10
0.1588712313986427
 20
0.1663990696767941
  0
LWPOLYLINE
  5
1628
330
2
100
AcDbEntity
  8
Profilo
  6
Continuous
370
     0
100
AcDbPolyline
 90
        7
 70
   128
 43
0.0
 10
0.1590478223630736
 20
0.1579909798385038
 10
0.1574112555178784
 20
0.1589269819663371
 10
0.156965835749207
 20
0.1598105155788721
 10
0.1570735582972558
 20
0.1614563326710761
 10
0.1576156712156356
 20
0.1621277951812099
 10
0.1581357304699675
 20
0.16261761512906
 10
0.1587796505830841
 20
0.1633688789327457
  0
LWPOLYLINE
  5
1629
330
2
100
AcDbEntity
  8
Profilo
  6
Continuous
370
     0
100
AcDbPolyline
 90
       19
 70
   129
 43
0.0
 10
0.1641357162989958
 20
0.160992530230595
 10
0.1616714558325316
 20
0.1607758515034361
 10
0.1597515275132169
 20
0.1598976005003137
 10
0.1592925244170942
 20
0.158367293562449
 10
0.1592763847238332
 20
0.1569829174141242
 10
0.1588530203300873
 20
0.1559177414470432
 10
0.1577170140584598
 20
0.1554111618446828
 10
0.1573292883670907
 20
0.1548111168483859
 10
0.1577008740368473
 20
0.1540267884005762
 10
0.1586748223422736
 20
0.1535920805614721
 10
0.1594561876957996
 20
0.1532261518434564
 10
0.1603809146281019
 20
0.1516795342998026
 10
0.1616136154319638
 20
0.1506311206914515
 10
0.1628154013783598
 20
0.1501812256791129
 10
0.163919590527281
 20
0.150192401809629
 10
0.1661189247673664
 20
0.1507227994186826
 10
0.1661459284510796
 20
0.1516565901213938
 10
0.1652549793444995
 20
0.155814708113234
 10
0.1647978657464149
 20
0.1600948518539143
  0
LWPOLYLINE
  5
162A
330
2
100
AcDbEntity
  8
Profilo
  6
Continuous
370
     0
100
AcDbPolyline
 90
        2
 70
   128
 43
0.0
 10
0.1643956075019897
 20
0.1580653099893541
 10
0.1594748847399259
 20
0.1553481227021225
  0
LWPOLYLINE
  5
162B
330
2
100
AcDbEntity
  8
Profilo
  6
Continuous
370
     0
100
AcDbPolyline
 90
        2
 70
   128
 43
0.0
 10
0.1649028853938599
 20
0.1538875006799672
 10
0.1594943834206892
 20
0.1544288802287997
  0
LWPOLYLINE
  5
162C
330
2
100
AcDbEntity
  8
Profilo
  6
Continuous
370
     0
100
AcDbPolyline
 90
        7
 70
   128
 43
0.0
 10
0.1616780305776755
 20
0.1463073751840891
 10
0.1598650194196656
 20
0.1468245227094929
 10
0.1592210993065499
 20
0.1475757865131782
 10
0.1589318218224134
 20
0.1491995588449789
 10
0.1592974904279785
 20
0.1499812459880825
 10
0.1596852161193485
 20
0.1505812909843789
 10
0.1601306358880199
 20
0.1514648245969144
  0
LWPOLYLINE
  5
162D
330
2
100
AcDbEntity
  8
Profilo
  6
Continuous
370
     0
100
AcDbPolyline
 90
       19
 70
   129
 43
0.0
 10
0.1658997615367148
 20
0.1504393186939817
 10
0.1635589626143223
 20
0.149639200126327
 10
0.1619050031448619
 20
0.1483270005800777
 10
0.1618255642659079
 20
0.1467313149497487
 10
0.1621411964603598
 20
0.1453833037748791
 10
0.1619850475606082
 20
0.1442477621543976
 10
0.1610032840006805
 20
0.1434840387390815
 10
0.1607704250801312
 20
0.142808641128448
 10
0.1613189152291612
 20
0.1421360301112704
 10
0.1623685947621973
 20
0.1419470351776162
 10
0.1632148275328562
 20
0.141778732651728
 10
0.1644828133859872
 20
0.1404983586431181
 10
0.1659305959439627
 20
0.1397754146405557
 10
0.1672051270986505
 20
0.1396261989617183
 10
0.1682745558945873
 20
0.1399013000938665
 10
0.1702830490226368
 20
0.1409426204470157
 10
0.1700857972860532
 20
0.1418557392935076
 10
0.1682256347718727
 20
0.1456798118562895
 10
0.1667574986216314
 20
0.1497261879543295
  0
LWPOLYLINE
  5
162E
330
2
100
AcDbEntity
  8
Profilo
  6
Continuous
370
     0
100
AcDbPolyline
 90
        2
 70
   128
 43
0.0
 10
0.1668526304302318
 20
0.1476593541888318
 10
0.1627251604092208
 20
0.1438435173893018
  0
LWPOLYLINE
  5
162F
330
2
100
AcDbEntity
  8
Profilo
  6
Continuous
370
     0
100
AcDbPolyline
 90
        2
 70
   128
 43
0.0
 10
0.168344982958647
 20
0.1437243439707874
 10
0.1629640816169038
 20
0.1429556527713383
  0
LWPOLYLINE
  5
1630
330
2
100
AcDbEntity
  8
Profilo
  6
Continuous
370
     0
100
AcDbPolyline
 90
        7
 70
   128
 43
0.0
 10
0.1670278793309146
 20
0.1355927248729356
 10
0.1651437894785654
 20
0.1356609630614892
 10
0.1643387913174255
 20
0.136236296334787
 10
0.1636693255570021
 20
0.137743656160432
 10
0.1638372985195475
 20
0.1385901391210658
 10
0.1640701574400978
 20
0.1392655367316989
 10
0.1642911906864046
 20
0.1402299923910373
  0
LWPOLYLINE
  5
1631
330
2
100
AcDbEntity
  8
Profilo
  6
Continuous
370
     0
100
AcDbPolyline
 90
       19
 70
   129
 43
0.0
 10
0.1701380956550993
 20
0.1406149279628386
 10
0.1680567970016893
 20
0.1392778695375274
 10
0.1667649284945509
 20
0.1376079817161282
 10
0.1670696705316608
 20
0.1360396528420889
 10
0.1676987312179621
 20
0.1348063481503361
 10
0.1678188726186798
 20
0.1336664344279111
 10
0.1670484082999886
 20
0.1326899520285155
 10
0.1669839490643132
 20
0.1319784534577056
 10
0.1676774674388362
 20
0.1314566495786365
 10
0.1687418746404512
 20
0.1315243512490077
 10
0.1696037948555451
 20
0.1315634560462964
 10
0.1711413489006615
 20
0.1306237362561411
 10
0.1727200733529555
 20
0.1302682767370016
 10
0.1739932785979581
 20
0.1304284122645421
 10
0.1749657957265061
 20
0.1309514505204737
 10
0.1766667214224922
 20
0.1324431758638392
 10
0.1762566778195616
 20
0.133282555705806
 10
0.1735354077816893
 20
0.1365503416421186
 10
0.1711415718158855
 20
0.1401277894266795
  0
LWPOLYLINE
  5
1632
330
2
100
AcDbEntity
  8
Profilo
  6
Continuous
370
     0
100
AcDbPolyline
 90
        2
 70
   128
 43
0.0
 10
0.1717285649625848
 20
0.1381437806260591
 10
0.1686342212375054
 20
0.1334510568790173
  0
LWPOLYLINE
  5
1633
330
2
100
AcDbEntity
  8
Profilo
  6
Continuous
370
     0
100
AcDbPolyline
 90
        2
 70
   128
 43
0.0
 10
0.1741192620230743
 20
0.1346802579900499
 10
0.1690786797399599
 20
0.1326461695807526
  0
LWPOLYLINE
  5
1634
330
2
100
AcDbEntity
  8
Profilo
  6
Continuous
370
     0
100
AcDbPolyline
 90
        7
 70
   128
 43
0.0
 10
0.1747864548591609
 20
0.1264697254349592
 10
0.1729407827663036
 20
0.1260850885311789
 10
0.1720214901242165
 20
0.1264510549954967
 10
0.1710107430040908
 20
0.1277544000409503
 10
0.1709712583455916
 20
0.1286164843062821
 10
0.1710357175812669
 20
0.1293279828770919
 10
0.1710195186563579
 20
0.1303173099259667
  0
LWPOLYLINE
  5
1635
330
2
100
AcDbEntity
  8
Profilo
  6
Continuous
370
     0
100
AcDbPolyline
 90
       19
 70
   129
 43
0.0
 10
0.1766044020809063
 20
0.1320903159162523
 10
0.1749035612090022
 20
0.1302940226089547
 10
0.1740488623660699
 20
0.1283634943227894
 10
0.1747200748197402
 20
0.1269136677785554
 10
0.1756260052773439
 20
0.1258667447557243
 10
0.1760154547970172
 20
0.124788706573485
 10
0.1755010663052425
 20
0.1236562147976941
 10
0.1756087528909187
 20
0.1229499649774508
 10
0.1764069947238436
 20
0.122609293581262
 10
0.177424270116443
 20
0.1229297572806621
 10
0.1782517861060222
 20
0.1231739967724497
 10
0.1799695512908037
 20
0.1226295442992103
 10
0.1815874679106793
 20
0.1226622272787028
 10
0.1827853531850685
 20
0.1231224075178299
 10
0.1836044394856733
 20
0.1238629858152771
 10
0.184898946130758
 20
0.125718422494104
 10
0.1842999409052355
 20
0.1264352816261514
 10
0.1808757136668582
 20
0.1289568690952947
 10
0.177695298930584
 20
0.1318574803046311
  0
LWPOLYLINE
  5
1636
330
2
100
AcDbEntity
  8
Profilo
  6
Continuous
370
     0
100
AcDbPolyline
 90
        2
 70
   128
 43
0.0
 10
0.17874003950733
 20
0.1300715998488025
 10
0.1768586540880024
 20
0.1247747132010695
  0
LWPOLYLINE
  5
1637
330
2
100
AcDbEntity
  8
Profilo
  6
Continuous
370
     0
100
AcDbPolyline
 90
        2
 70
   128
 43
0.0
 10
0.1818901424765682
 20
0.1272808521410409
 10
0.1774828195726064
 20
0.1240995803466325
  0
LWPOLYLINE
  5
1638
330
2
100
AcDbEntity
  8
Profilo
  6
Continuous
370
     0
100
AcDbPolyline
 90
        7
 70
   128
 43
0.0
 10
0.1845028569539886
 20
0.1194685724367413
 10
0.1828028663739152
 20
0.1186534141393765
 10
0.1818227051977448
 20
0.1187887451540426
 10
0.1805294176666237
 20
0.1198123297427285
 10
0.1802847700919103
 20
0.1206399141088064
 10
0.1801770835062342
 20
0.1213461639290497
 10
0.1799245938327425
 20
0.1223028662754373
  0
LWPOLYLINE
  5
1639
330
2
100
AcDbEntity
  8
Profilo
  6
Continuous
370
     0
100
AcDbPolyline
 90
       19
 70
   129
 43
0.0
 10
0.1849228825887355
 20
0.125360902020667
 10
0.1837013461875079
 20
0.123209767869142
 10
0.1833334889988289
 20
0.1211307944050184
 10
0.1843321634410093
 20
0.1198837288394355
 10
0.1854623142846437
 20
0.1190840308462023
 10
0.1860984385327808
 20
0.1181305198647918
 10
0.1858700202573373
 20
0.1169078350181739
 10
0.1861435943114313
 20
0.1162478786209363
 10
0.1870001686889189
 20
0.1161081382908836
 10
0.1879111919243301
 20
0.1166627398339417
 10
0.1886562114669796
 20
0.1170979197087403
 10
0.1904543575227089
 20
0.116980376151157
 10
0.1920174388771059
 20
0.1173993022133118
 10
0.193070387442871
 20
0.1181327831612136
 10
0.1936884405969985
 20
0.1190478617814217
 10
0.1945012961703101
 20
0.1211591785601736
 10
0.1937481413286066
 20
0.1217118557352246
 10
0.1898199605302604
 20
0.1233406992390898
 10
0.1860378011676509
 20
0.1253959008930082
  0
LWPOLYLINE
  5
163A
330
2
100
AcDbEntity
  8
Profilo
  6
Continuous
370
     0
100
AcDbPolyline
 90
        2
 70
   128
 43
0.0
 10
0.1874795726496001
 20
0.1239119376626523
 10
0.1869204848180368
 20
0.1183187239127952
  0
LWPOLYLINE
  5
163B
330
2
100
AcDbEntity
  8
Profilo
  6
Continuous
370
     0
100
AcDbPolyline
 90
        2
 70
   128
 43
0.0
 10
0.1912060089931733
 20
0.1219561529959579
 10
0.187688083055576
 20
0.1178125817696774
  0
LWPOLYLINE
  5
163C
330
2
100
AcDbEntity
  8
Profilo
  6
Continuous
370
     0
100
AcDbPolyline
 90
        7
 70
   128
 43
0.0
 10
0.1956124036433298
 20
0.1149961474423822
 10
0.1941568918493395
 20
0.1137978417886958
 10
0.1931728255439047
 20
0.1136946724070456
 10
0.1916721587721877
 20
0.1143790095232491
 10
0.1912365663090447
 20
0.1151239977948631
 10
0.1909629922549516
 20
0.1157839541921011
 10
0.1904888856149396
 20
0.1166524317731013
  0
LWPOLYLINE
  5
163D
330
2
100
AcDbEntity
  8
Profilo
  6
Continuous
370
     0
100
AcDbPolyline
 90
       19
 70
   129
 43
0.0
 10
0.1946100973279179
 20
0.1208177753512694
 10
0.1939388566529023
 20
0.1184368164533496
 10
0.1940792196411756
 20
0.1163302201922412
 10
0.1953473167433211
 20
0.1153583905230818
 10
0.1966360077138851
 20
0.1148523931000296
 10
0.197481837461402
 20
0.1140788239118152
 10
0.1975526642421916
 20
0.1128370039933782
 10
0.19797622663508
 20
0.1122616952861091
 10
0.1988413525678332
 20
0.1123310072222406
 10
0.199593178287049
 20
0.1130875151831685
 10
0.2002124035549844
 20
0.1136883443684689
 10
0.2019864287688973
 20
0.114004540930855
 10
0.2034038342510687
 20
0.1147853636156737
 10
0.2042506525648793
 20
0.1157495180257542
 10
0.2046317535697433
 20
0.1167859159254914
 10
0.2049157178599719
 20
0.1190304107473119
 10
0.2040521840238803
 20
0.1193867863768523
 10
0.1998483412552081
 20
0.1200282234515997
 10
0.1956842426208289
 20
0.1211185747003281
  0
LWPOLYLINE
  5
163E
330
2
100
AcDbEntity
  8
Profilo
  6
Continuous
370
     0
100
AcDbPolyline
 90
        2
 70
   128
 43
0.0
 10
0.1974392544900769
 20
0.1200227712444065
 10
0.1982349563988472
 20
0.1144582876450622
  0
LWPOLYLINE
  5
163F
330
2
100
AcDbEntity
  8
Profilo
  6
Continuous
370
     0
100
AcDbPolyline
 90
        2
 70
   128
 43
0.0
 10
0.2015254572727423
 20
0.1190156127146198
 10
0.1991013773698602
 20
0.11415055135487
  0
LWPOLYLINE
  5
1640
330
2
100
AcDbEntity
  8
Profilo
  6
Continuous
370
     0
100
AcDbPolyline
 90
        7
 70
   128
 43
0.0
 10
0.2074694484551605
 20
0.1133123715359508
 10
0.2063430045021499
 20
0.1118005596948713
 10
0.2054122234241864
 20
0.1114648857463612
 10
0.203791390709944
 20
0.1117702042043518
 10
0.2031901684090147
 20
0.1123893003710783
 10
0.2027666060161273
 20
0.1129646090783474
 10
0.2020984357642044
 20
0.1136943891337399
  0
LWPOLYLINE
  5
1641
330
2
100
AcDbEntity
  8
Profilo
  6
Continuous
370
     0
100
AcDbPolyline
 90
       59
 70
   128
 43
0.0
 10
0.218086236002806
 20
0.1715799491733059
 10
0.2165956493481456
 20
0.1725731973520042
 10
0.2165956493481456
 20
0.1735664438072589
 10
0.2172912568168648
 20
0.1752549619194699
 10
0.2188812151887471
 20
0.1769434817551246
 10
0.2206699197191557
 20
0.1787313253745826
 10
0.2210674093121259
 20
0.180717818285092
 10
0.2212661554706512
 20
0.1825056636279936
 10
0.2199743122504365
 20
0.1827043129190449
 10
0.2198749405332145
 20
0.1832009352849505
 10
0.2209680375949039
 20
0.1857833777920559
 10
0.2205705480019329
 20
0.1868759480311144
 10
0.2201730584089618
 20
0.1883658185757178
 10
0.2203718018434075
 20
0.1894583905382199
 10
0.2192787047817182
 20
0.1894583905382199
 10
0.2181856077200288
 20
0.1894583905382199
 10
0.2175893746926121
 20
0.1906502862845254
 10
0.2168937672238937
 20
0.1933320508519907
 10
0.2158006701622044
 20
0.1957158440680458
 10
0.2144094552247668
 20
0.198000311776853
 10
0.2124220072599134
 20
0.1999868046873623
 10
0.2107326744467277
 20
0.2015759990157695
 10
0.2092420877920673
 20
0.2030658695603734
 10
0.2089439726403996
 20
0.2049530369636352
 10
0.2072546398272139
 20
0.2054496610529844
 10
0.2064596606412727
 20
0.2051516862546861
 10
0.2056646814553307
 20
0.2037611412173297
 10
0.2056646814553307
 20
0.2029665440531259
 10
0.2034784873319519
 20
0.2037611412173297
 10
0.200994175332825
 20
0.204655063888781
 10
0.1979136303062823
 20
0.2043570890904827
 10
0.1945349674039913
 20
0.2035624919262789
 10
0.1932431241837766
 20
0.2027678947620751
 10
0.1931437524665538
 20
0.2010793749264204
 10
0.1931437524665538
 20
0.2005827525605149
 10
0.1907588149087294
 20
0.2014766735085225
 10
0.1895663461298171
 20
0.2012780242174712
 10
0.1888707386610988
 20
0.2006820763443187
 10
0.1889701103783217
 20
0.1998874791801149
 10
0.1889701103783217
 20
0.1994901805980132
 10
0.1865851728204972
 20
0.1998874791801149
 10
0.1856908191932536
 20
0.1995895061052602
 10
0.1833058816354292
 20
0.1981989610679038
 10
0.1827096458839328
 20
0.1967090905233
 10
0.1815171771050206
 20
0.1957158440680458
 10
0.1762504379550991
 20
0.1915442072325327
 10
0.1761510662378762
 20
0.1907496100683288
 10
0.1726730288942828
 20
0.1869752735383615
 10
0.1695924838677392
 20
0.1814130916654919
 10
0.1670088001513894
 20
0.1744603647552661
 10
0.1663131926826711
 20
0.170288729643197
 10
0.1667106822756412
 20
0.1682029112254402
 10
0.1675056614615833
 20
0.1667130406808364
 10
0.1691949942747681
 20
0.1671103392629385
 10
0.1712818166809249
 20
0.1683022367326877
 10
0.1731698929285554
 20
0.1699907548448987
 10
0.1757535766449052
 20
0.1717785984643568
 10
0.1783372576371753
 20
0.1730698197179097
 10
0.1811196875120495
 20
0.1734671183000114
  0
LWPOLYLINE
  5
1642
330
2
100
AcDbEntity
  8
Profilo
  6
Continuous
370
     0
100
AcDbPolyline
 90
        4
 70
   128
 43
0.0
 10
0.213813222197351
 20
0.1734671183000114
 10
0.2165956493481456
 20
0.1780360537176262
 10
0.2174900029753901
 20
0.1823070143369432
 10
0.2193780792230207
 20
0.1854854029937576
  0
LWPOLYLINE
  5
1643
330
2
100
AcDbEntity
  8
Profilo
  6
Continuous
370
     0
100
AcDbPolyline
 90
       11
 70
   128
 43
0.0
 10
0.2125213789771354
 20
0.1746590140463169
 10
0.2140119656317967
 20
0.1789299746656335
 10
0.2154031805692333
 20
0.183796883158103
 10
0.2164962776309236
 20
0.1869752735383615
 10
0.2161981597551745
 20
0.1884651423595217
 10
0.2145088296660693
 20
0.1883658185757178
 10
0.2129188685701064
 20
0.1863793256652085
 10
0.2127201251356607
 20
0.1840948579564013
 10
0.2127201251356607
 20
0.1813137678816881
 10
0.2119251459497196
 20
0.1756522605015716
 10
0.2110307923224759
 20
0.1745596902625135
  0
LWPOLYLINE
  5
1644
330
2
100
AcDbEntity
  8
Profilo
  6
Continuous
370
     0
100
AcDbPolyline
 90
        8
 70
   128
 43
0.0
 10
0.2153038088520114
 20
0.1887631171578195
 10
0.2150056909762632
 20
0.1924381299039835
 10
0.2142107117903211
 20
0.1940273242323911
 10
0.2133163581630775
 20
0.1946232721055437
 10
0.2110307923224759
 20
0.1939280004485873
 10
0.2107326744467277
 20
0.1922394806129327
 10
0.2112295384810012
 20
0.1896570398292708
 10
0.2120245176669424
 20
0.1872732466132161
  0
LWPOLYLINE
  5
1645
330
2
100
AcDbEntity
  8
Profilo
  6
Continuous
370
     0
100
AcDbPolyline
 90
        4
 70
   128
 43
0.0
 10
0.2137138477560476
 20
0.1950205706876454
 10
0.211428281915446
 20
0.1982982848517072
 10
0.2087452264818743
 20
0.2008807256353696
 10
0.2062609144827474
 20
0.2023705961799734
  0
LWPOLYLINE
  5
1646
330
2
100
AcDbEntity
  8
Profilo
  6
Continuous
370
     0
100
AcDbPolyline
 90
       20
 70
   128
 43
0.0
 10
0.2102358131365338
 20
0.1920408313218818
 10
0.2088445981990963
 20
0.1953185454859437
 10
0.2077515011374069
 20
0.1997881553963115
 10
0.2077515011374069
 20
0.2010793749264204
 10
0.2067577785170209
 20
0.2014766735085225
 10
0.2053665635795834
 20
0.1993908568142094
 10
0.2050684457038352
 20
0.1972057128892055
 10
0.2039753486421458
 20
0.1976030114713077
 10
0.2023853902702626
 20
0.1975036876875039
 10
0.2022860185530406
 20
0.1961131426501475
 10
0.2031803694562038
 20
0.194225973523442
 10
0.2044722126764185
 20
0.192934752269889
 10
0.2060621710483017
 20
0.1920408313218818
 10
0.2074533859857393
 20
0.1906502862845254
 10
0.2066584067997981
 20
0.1901536621951763
 10
0.2077515011374069
 20
0.1884651423595217
 10
0.2093414622333698
 20
0.1860813508669106
 10
0.2103351848537576
 20
0.1817110664637903
 10
0.2106333027295049
 20
0.1768441579713207
 10
0.2103351848537576
 20
0.1748576633373682
  0
LWPOLYLINE
  5
1647
330
2
100
AcDbEntity
  8
Profilo
  6
Continuous
370
     0
100
AcDbPolyline
 90
        5
 70
   128
 43
0.0
 10
0.210931420605253
 20
0.1859820270831068
 10
0.2093414622333698
 20
0.1903523114862272
 10
0.2077515011374069
 20
0.192934752269889
 10
0.2059627993310797
 20
0.1954178692697471
 10
0.2053665635795834
 20
0.1967090905233
  0
LWPOLYLINE
  5
1648
330
2
100
AcDbEntity
  8
Profilo
  6
Continuous
370
     0
100
AcDbPolyline
 90
        8
 70
   128
 43
0.0
 10
0.2044722126764185
 20
0.199688829889064
 10
0.2018885289600696
 20
0.2022712723961695
 10
0.200497314022632
 20
0.2026685709782717
 10
0.1988079812094463
 20
0.2027678947620751
 10
0.1988079812094463
 20
0.2019732975978712
 10
0.1990067273679716
 20
0.2006820763443187
 10
0.200497314022632
 20
0.1998874791801149
 10
0.2024847619874854
 20
0.198000311776853
  0
LWPOLYLINE
  5
1649
330
2
100
AcDbEntity
  8
Profilo
  6
Continuous
370
     0
100
AcDbPolyline
 90
        3
 70
   128
 43
0.0
 10
0.1981123764648076
 20
0.2002847777622166
 10
0.196323671934399
 20
0.2014766735085225
 10
0.1942368495282432
 20
0.2024699216872204
  0
LWPOLYLINE
  5
164A
330
2
100
AcDbEntity
  8
Profilo
  6
Continuous
370
     0
100
AcDbPolyline
 90
        3
 70
   128
 43
0.0
 10
0.1999010782711357
 20
0.1969077398143513
 10
0.1945349674039913
 20
0.199688829889064
 10
0.1936406165008273
 20
0.2001854539784132
  0
LWPOLYLINE
  5
164B
330
2
100
AcDbEntity
  8
Profilo
  6
Continuous
370
     0
100
AcDbPolyline
 90
       23
 70
   128
 43
0.0
 10
0.2091427160748454
 20
0.183796883158103
 10
0.2068571502342429
 20
0.1877698707025653
 10
0.2044722126764185
 20
0.1907496100683288
 10
0.2008948036156031
 20
0.1937293511575365
 10
0.1955286927484578
 20
0.1962124664339509
 10
0.1921500298461669
 20
0.1967090905233
 10
0.190063207440011
 20
0.196609765016053
 10
0.190063207440011
 20
0.194921246903842
 10
0.1884732490681278
 20
0.1946232721055437
 10
0.1851939578830597
 20
0.1952192199786967
 10
0.1828090176011556
 20
0.1943252990306895
 10
0.1817159232635459
 20
0.191842182030831
 10
0.1828090176011556
 20
0.1910475848666271
 10
0.1826102741667099
 20
0.1893590650309725
 10
0.1824115280081846
 20
0.1863793256652085
 10
0.1844983504143414
 20
0.1861806763741576
 10
0.1867839162549421
 20
0.1877698707025653
 10
0.1885726207853506
 20
0.1893590650309725
 10
0.1884732490681278
 20
0.1876705451953178
 10
0.1899638357227882
 20
0.1873725721204631
 10
0.1924481449978346
 20
0.1884651423595217
 10
0.1955286927484578
 20
0.1891604157399216
 10
0.1972180228375639
 20
0.1891604157399216
  0
LWPOLYLINE
  5
164C
330
2
100
AcDbEntity
  8
Profilo
  6
Continuous
370
     0
100
AcDbPolyline
 90
       15
 70
   128
 43
0.0
 10
0.2086458547646515
 20
0.1754536112105208
 10
0.2087452264818743
 20
0.180121870411939
 10
0.2070558963927691
 20
0.184492156538503
 10
0.2060621710483017
 20
0.1854854029937576
 10
0.2051678201451377
 20
0.1847901296133576
 10
0.2039753486421458
 20
0.1869752735383615
 10
0.2013916649257961
 20
0.1897563636130746
 10
0.199602963119468
 20
0.190550960777278
 10
0.1975161407133112
 20
0.190550960777278
 10
0.1977148868718375
 20
0.1891604157399216
 10
0.2010935497741284
 20
0.1868759480311144
 10
0.2046709561108642
 20
0.1834989100832483
 10
0.2060621710483017
 20
0.1809164675761428
 10
0.2072546398272139
 20
0.1773407803372263
 10
0.2075527577029621
 20
0.1760495590836733
  0
LWPOLYLINE
  5
164D
330
2
100
AcDbEntity
  8
Profilo
  6
Continuous
370
     0
100
AcDbPolyline
 90
       14
 70
   128
 43
0.0
 10
0.2051678201451377
 20
0.1761488845909207
 10
0.2036772334904773
 20
0.1796252480460335
 10
0.2008948036156031
 20
0.1818103902475936
 10
0.1987086094922235
 20
0.1833002607921974
 10
0.196323671934399
 20
0.1838962086653504
 10
0.1948330852797395
 20
0.1833995845760013
 10
0.1948330852797395
 20
0.1813137678816881
 10
0.1961249257758737
 20
0.1803205197029903
 10
0.1990067273679716
 20
0.1796252480460335
 10
0.2020872723945153
 20
0.1778374044265754
 10
0.2029816260217589
 20
0.1755529367177678
 10
0.2027828798632336
 20
0.1737650930983097
 10
0.2008948036156031
 20
0.1737650930983097
 10
0.1999010782711357
 20
0.1729704959341059
  0
LWPOLYLINE
  5
164E
330
2
100
AcDbEntity
  8
Profilo
  6
Continuous
370
     0
100
AcDbPolyline
 90
        2
 70
   128
 43
0.0
 10
0.1961249257758737
 20
0.1841941817402047
 10
0.1925475194391379
 20
0.1877698707025653
  0
LWPOLYLINE
  5
164F
330
2
100
AcDbEntity
  8
Profilo
  6
Continuous
370
     0
100
AcDbPolyline
 90
        3
 70
   128
 43
0.0
 10
0.1933424986250791
 20
0.1848894551206051
 10
0.1875788954408832
 20
0.1863793256652085
 10
0.1857901909104755
 20
0.1863793256652085
  0
LWPOLYLINE
  5
1650
330
2
100
AcDbEntity
  8
Profilo
  6
Continuous
370
     0
100
AcDbPolyline
 90
        2
 70
   128
 43
0.0
 10
0.1814178053877977
 20
0.1866772987400631
 10
0.1791322395471961
 20
0.1866772987400631
  0
LWPOLYLINE
  5
1651
330
2
100
AcDbEntity
  8
Profilo
  6
Continuous
370
     0
100
AcDbPolyline
 90
        7
 70
   128
 43
0.0
 10
0.2053665635795834
 20
0.1865779749562598
 10
0.2019879006772915
 20
0.1902529877024233
 10
0.199205473526497
 20
0.1915442072325327
 10
0.1929450090321081
 20
0.1925374536877869
 10
0.1899638357227882
 20
0.1923388043967365
 10
0.1867839162549421
 20
0.1903523114862272
 10
0.1852933296002825
 20
0.1880678437774195
  0
LWPOLYLINE
  5
1652
330
2
100
AcDbEntity
  8
Profilo
  6
Continuous
370
     0
100
AcDbPolyline
 90
        6
 70
   128
 43
0.0
 10
0.2015904110843214
 20
0.1916435327397797
 10
0.1982117481820305
 20
0.193630025650289
 10
0.1939387316524959
 20
0.1945239483217399
 10
0.1910569327844775
 20
0.1941266497396382
 10
0.1876782698821866
 20
0.192934752269889
 10
0.1834052533526511
 20
0.191146908650431
  0
LWPOLYLINE
  5
1653
330
2
100
AcDbEntity
  8
Profilo
  6
Continuous
370
     0
100
AcDbPolyline
 90
       12
 70
   128
 43
0.0
 10
0.2008948036156031
 20
0.1740630661731644
 10
0.2002985678641067
 20
0.1767448324640733
 10
0.199205473526497
 20
0.1781353775014301
 10
0.1978142585890594
 20
0.1786320015907792
 10
0.1975161407133112
 20
0.1771421310461754
 10
0.1964230436516228
 20
0.1773407803372263
 10
0.1955286927484578
 20
0.1763475338819716
 10
0.1956280644656807
 20
0.1753542874267174
 10
0.1945349674039913
 20
0.1751556381356661
 10
0.1945349674039913
 20
0.1734671183000114
 10
0.1957274361829036
 20
0.1725731973520042
 10
0.1984104916164762
 20
0.1721758970464585
  0
LWPOLYLINE
  5
1654
330
2
100
AcDbEntity
  8
Profilo
  6
Continuous
370
     0
100
AcDbPolyline
 90
        2
 70
   128
 43
0.0
 10
0.1974167689960893
 20
0.1732684690089606
 10
0.1960255540586517
 20
0.1746590140463169
  0
LWPOLYLINE
  5
1655
330
2
100
AcDbEntity
  8
Profilo
  6
Continuous
370
     0
100
AcDbPolyline
 90
        2
 70
   128
 43
0.0
 10
0.1999010782711357
 20
0.1747583395535644
 10
0.1986092377750015
 20
0.1765461831730229
  0
LWPOLYLINE
  5
1656
330
2
100
AcDbEntity
  8
Profilo
  6
Continuous
370
     0
100
AcDbPolyline
 90
       13
 70
   128
 43
0.0
 10
0.196323671934399
 20
0.1775394296282771
 10
0.1960255540586517
 20
0.1794265987549831
 10
0.1951312031554877
 20
0.1806184945012886
 10
0.1942368495282432
 20
0.1812144423744411
 10
0.1927462628735836
 20
0.1812144423744411
 10
0.1926468911563608
 20
0.1804198452102373
 10
0.1914544223774486
 20
0.1803205197029903
 10
0.1912556762189224
 20
0.1794265987549831
 10
0.1912556762189224
 20
0.1781353775014301
 10
0.1901625791572339
 20
0.1775394296282771
 10
0.1901625791572339
 20
0.1764468576657754
 10
0.1921500298461669
 20
0.1752549619194699
 10
0.193839359935273
 20
0.1750563126284186
  0
LWPOLYLINE
  5
1657
330
2
100
AcDbEntity
  8
Profilo
  6
Continuous
370
     0
100
AcDbPolyline
 90
        2
 70
   128
 43
0.0
 10
0.1949324569969624
 20
0.1775394296282771
 10
0.1926468911563608
 20
0.1785326760835318
  0
LWPOLYLINE
  5
1658
330
2
100
AcDbEntity
  8
Profilo
  6
Continuous
370
     0
100
AcDbPolyline
 90
       13
 70
   128
 43
0.0
 10
0.1922494015633898
 20
0.1813137678816881
 10
0.1912556762189224
 20
0.1830022859938992
 10
0.1898644612814857
 20
0.1836975593742996
 10
0.1883738746268253
 20
0.1839955324491543
 10
0.1868832879721658
 20
0.1836975593742996
 10
0.1867839162549421
 20
0.1825056636279936
 10
0.1868832879721658
 20
0.1815124171727394
 10
0.1854920757588079
 20
0.1812144423744411
 10
0.1849952117245344
 20
0.1804198452102373
 10
0.1855914474760298
 20
0.1794265987549831
 10
0.1857901909104755
 20
0.1777380789193284
 10
0.1873801520064384
 20
0.1774401058444737
 10
0.189168856536847
 20
0.1771421310461754
  0
LWPOLYLINE
  5
1659
330
2
100
AcDbEntity
  8
Profilo
  6
Continuous
370
     0
100
AcDbPolyline
 90
       10
 70
   128
 43
0.0
 10
0.185889565351778
 20
0.1826049874117975
 10
0.183902114662845
 20
0.1835982338670521
 10
0.1821134128565169
 20
0.1833002607921974
 10
0.1810203157948276
 20
0.1824063381207466
 10
0.1810203157948276
 20
0.1813137678816881
 10
0.1803247083261084
 20
0.1802211959191864
 10
0.1804240800433312
 20
0.1794265987549831
 10
0.1807221979190794
 20
0.1788306508818301
 10
0.1816165488222434
 20
0.1772414565534224
 10
0.183504625069874
 20
0.1771421310461754
  0
LWPOLYLINE
  5
165A
330
2
100
AcDbEntity
  8
Profilo
  6
Continuous
370
     0
100
AcDbPolyline
 90
        2
 70
   128
 43
0.0
 10
0.1841008608213703
 20
0.180717818285092
 10
0.1816165488222434
 20
0.1802211959191864
  0
LWPOLYLINE
  5
165B
330
2
100
AcDbEntity
  8
Profilo
  6
Continuous
370
     0
100
AcDbPolyline
 90
       11
 70
   128
 43
0.0
 10
0.1803247083261084
 20
0.1824063381207466
 10
0.1780391424855068
 20
0.1824063381207466
 10
0.1758529483621281
 20
0.1814130916654919
 10
0.1751573408934097
 20
0.1799232211208881
 10
0.1752567126106317
 20
0.1788306508818301
 10
0.1751573408934097
 20
0.1773407803372263
 10
0.1755548304863799
 20
0.1771421310461754
 10
0.1758529483621281
 20
0.1769434817551246
 10
0.1771447888582631
 20
0.1757515860088191
 10
0.1790328651058937
 20
0.1761488845909207
 10
0.1806228262018565
 20
0.1770428072623716
  0
LWPOLYLINE
  5
165C
330
2
100
AcDbEntity
  8
Profilo
  6
Continuous
370
     0
100
AcDbPolyline
 90
        4
 70
   128
 43
0.0
 10
0.179231611264419
 20
0.1799232211208881
 10
0.1780391424855068
 20
0.1793272732477356
 10
0.1769460454238174
 20
0.1783340267924809
 10
0.1764491813895439
 20
0.1779367282103788
  0
LWPOLYLINE
  5
165D
330
2
100
AcDbEntity
  8
Profilo
  6
Continuous
370
     0
100
AcDbPolyline
 90
        4
 70
   128
 43
0.0
 10
0.1793309829816418
 20
0.180717818285092
 10
0.1775422784512333
 20
0.180717818285092
 10
0.1764491813895439
 20
0.1797245718298373
 10
0.1759523200793509
 20
0.1794265987549831
  0
LWPOLYLINE
  5
165E
330
2
100
AcDbEntity
  8
Profilo
  6
Continuous
370
     0
100
AcDbPolyline
 90
       15
 70
   128
 43
0.0
 10
0.1745611051419134
 20
0.180121870411939
 10
0.1726730288942828
 20
0.1800225466281356
 10
0.1710830705223996
 20
0.1784333522997279
 10
0.1707849526466514
 20
0.1771421310461754
 10
0.1712818166809249
 20
0.1768441579713207
 10
0.1701887196192355
 20
0.1765461831730229
 10
0.1688968763990208
 20
0.1753542874267174
 10
0.168797504681798
 20
0.1732684690089606
 10
0.1688968763990208
 20
0.1722752225537059
 10
0.1700893451779331
 20
0.1724738718447567
 10
0.1718780497083407
 20
0.1725731973520042
 10
0.173070518487253
 20
0.1742617154642152
 10
0.1736667542387493
 20
0.1742617154642152
 10
0.1751573408934097
 20
0.1743610409714622
 10
0.1759523200793509
 20
0.1754536112105208
  0
LWPOLYLINE
  5
165F
330
2
100
AcDbEntity
  8
Profilo
  6
Continuous
370
     0
100
AcDbPolyline
 90
        4
 70
   128
 43
0.0
 10
0.1745611051419134
 20
0.1783340267924809
 10
0.1732692646457783
 20
0.1783340267924809
 10
0.1721761675840889
 20
0.1776387551355246
 10
0.1717786779911188
 20
0.1770428072623716
  0
LWPOLYLINE
  5
1660
330
2
100
AcDbEntity
  8
Profilo
  6
Continuous
370
     0
100
AcDbPolyline
 90
        3
 70
   128
 43
0.0
 10
0.1742629899902457
 20
0.1772414565534224
 10
0.1723749110185337
 20
0.1758509097926225
 10
0.1715799318325926
 20
0.1749569888446152
  0
LWPOLYLINE
  5
1661
330
2
100
AcDbEntity
  8
Profilo
  6
Continuous
370
     0
100
AcDbPolyline
 90
        2
 70
   128
 43
0.0
 10
0.1751573408934097
 20
0.1760495590836733
 10
0.1736667542387493
 20
0.1750563126284186
  0
LWPOLYLINE
  5
1662
330
2
100
AcDbEntity
  8
Profilo
  6
Continuous
370
     0
100
AcDbPolyline
 90
       59
 70
   128
 43
0.0
 10
0.1998745822385597
 20
0.1725917731253864
 10
0.1988813340598614
 20
0.1711011864707264
 10
0.1978880876046067
 20
0.1711011864707264
 10
0.1961995694923952
 20
0.1717967939394452
 10
0.194511049656741
 20
0.173386752311328
 10
0.192723206037283
 20
0.1751754568417361
 10
0.1907367131267736
 20
0.1755729464347067
 10
0.188948867783872
 20
0.175771692593232
 10
0.1887502184928207
 20
0.1744798493730173
 10
0.1882535961269152
 20
0.1743804776557949
 10
0.1856711536198092
 20
0.1754735747174843
 10
0.1845785833807507
 20
0.1750760851245133
 10
0.1830887128361478
 20
0.1746785955315427
 10
0.1819961408736457
 20
0.1748773389659884
 10
0.1819961408736457
 20
0.1737842419042986
 10
0.1819961408736457
 20
0.1726911448426092
 10
0.1808042451273397
 20
0.1720949118151929
 10
0.1781224805598744
 20
0.1713993043464741
 10
0.1757386873438198
 20
0.1703062072847848
 10
0.1734542196350117
 20
0.1689149923473472
 10
0.1714677267245033
 20
0.1669275443824938
 10
0.1698785323960956
 20
0.1652382115693081
 10
0.1683886618514918
 20
0.1637476249146482
 10
0.1665014944482299
 20
0.1634495097629805
 10
0.1660048703588808
 20
0.1617601769497948
 10
0.1663028451571795
 20
0.1609651977638536
 10
0.167693390194535
 20
0.1601702185779115
 10
0.1684879873587393
 20
0.1601702185779115
 10
0.167693390194535
 20
0.1579840244545328
 10
0.1667994675230842
 20
0.1554997124554059
 10
0.1670974423213829
 20
0.1524191674288631
 10
0.1678920394855863
 20
0.1490405045265722
 10
0.1686866366497897
 20
0.1477486613063575
 10
0.1703751564854448
 20
0.1476492895891342
 10
0.1708717788513503
 20
0.1476492895891342
 10
0.1699778579033431
 20
0.1452643520313102
 10
0.1701765071943935
 20
0.144071883252398
 10
0.1707724550675465
 20
0.1433762757836797
 10
0.1715670522317498
 20
0.1434756475009021
 10
0.1719643508138524
 20
0.1434756475009021
 10
0.1715670522317498
 20
0.1410907099430776
 10
0.171865025306605
 20
0.140196356315834
 10
0.1732555703439613
 20
0.1378114187580095
 10
0.1747454408885651
 20
0.1372151830065136
 10
0.1757386873438198
 20
0.1360227142276014
 10
0.1799103241793325
 20
0.1307559750776795
 10
0.1807049213435359
 20
0.1306566033604571
 10
0.1844792578735042
 20
0.1271785660168632
 10
0.1900414397463732
 20
0.12409802099032
 10
0.1969941666565995
 20
0.1215143372739702
 10
0.2011658017686686
 20
0.1208187298052519
 10
0.2032516201864245
 20
0.1212162193982225
 10
0.2047414907310292
 20
0.1220111985841637
 10
0.2043441921489266
 20
0.1237005313973494
 10
0.2031522946791779
 20
0.1257873538035057
 10
0.2014637765669665
 20
0.1276754300511363
 10
0.1996759329475084
 20
0.130259113767486
 10
0.198384711693955
 20
0.1328427947597557
 10
0.1979874131118533
 20
0.1356252246346308
  0
LWPOLYLINE
  5
1663
330
2
100
AcDbEntity
  8
Profilo
  6
Continuous
370
     0
100
AcDbPolyline
 90
        4
 70
   128
 43
0.0
 10
0.1979874131118542
 20
0.1683187593199314
 10
0.1934184776942389
 20
0.1711011864707264
 10
0.1891475170749224
 20
0.1719955400979705
 10
0.185969128418108
 20
0.173883616345601
  0
LWPOLYLINE
  5
1664
330
2
100
AcDbEntity
  8
Profilo
  6
Continuous
370
     0
100
AcDbPolyline
 90
       11
 70
   128
 43
0.0
 10
0.1967955173655482
 20
0.1670269160997162
 10
0.1925245567462317
 20
0.1685175027543771
 10
0.1876576482537622
 20
0.1699087176918142
 10
0.1844792578735042
 20
0.171001814753504
 10
0.182989389052344
 20
0.1707036968777554
 10
0.1830887128361478
 20
0.1690143667886497
 10
0.1850752057466563
 20
0.1674244056926873
 10
0.1873596734554643
 20
0.167225662258242
 10
0.1901407635301771
 20
0.167225662258242
 10
0.1958022709102936
 20
0.1664306830723004
 10
0.1968948411493521
 20
0.1655363294450563
  0
LWPOLYLINE
  5
1665
330
2
100
AcDbEntity
  8
Profilo
  6
Continuous
370
     0
100
AcDbPolyline
 90
        8
 70
   128
 43
0.0
 10
0.1826914142540461
 20
0.1698093459745918
 10
0.1790164015078817
 20
0.1695112280988436
 10
0.177427207179474
 20
0.168716248912902
 10
0.1768312593063219
 20
0.1678218952856579
 10
0.1775265309632779
 20
0.1655363294450563
 10
0.179215050798933
 20
0.1652382115693081
 10
0.1817974915825944
 20
0.1657350756035816
 10
0.184181284798649
 20
0.1665300547895228
  0
LWPOLYLINE
  5
1666
330
2
100
AcDbEntity
  8
Profilo
  6
Continuous
370
     0
100
AcDbPolyline
 90
        4
 70
   128
 43
0.0
 10
0.1764339607242202
 20
0.1682193848786285
 10
0.1731562465601575
 20
0.1659338190380269
 10
0.1705738057764961
 20
0.1632507636044547
 10
0.1690839352318922
 20
0.1607664516053278
  0
LWPOLYLINE
  5
1667
330
2
100
AcDbEntity
  8
Profilo
  6
Continuous
370
     0
100
AcDbPolyline
 90
       20
 70
   128
 43
0.0
 10
0.1794137000899834
 20
0.1647413502591151
 10
0.1761359859259215
 20
0.1633501353216771
 10
0.1716663760155537
 20
0.1622570382599882
 10
0.1703751564854448
 20
0.1622570382599882
 10
0.1699778579033431
 20
0.1612633156396013
 10
0.1720636745976554
 20
0.1598721007021638
 10
0.1742488185226596
 20
0.1595739828264156
 10
0.1738515199405579
 20
0.1584808857647267
 10
0.1739508437243609
 20
0.1568909273928434
 10
0.1753413887617181
 20
0.156791555675621
 10
0.1772285578884236
 20
0.1576859065787846
 10
0.1785197791419761
 20
0.1589777497989993
 10
0.1794137000899834
 20
0.1605677081708825
 10
0.1808042451273397
 20
0.1619589231083201
 10
0.1813008692166889
 20
0.1611639439223785
 10
0.182989389052344
 20
0.1622570382599882
 10
0.185373180544955
 20
0.1638469993559506
 10
0.1897434649480754
 20
0.164840721976338
 10
0.194610373440544
 20
0.1651388398520857
 10
0.1965968680744969
 20
0.164840721976338
  0
LWPOLYLINE
  5
1668
330
2
100
AcDbEntity
  8
Profilo
  6
Continuous
370
     0
100
AcDbPolyline
 90
        5
 70
   128
 43
0.0
 10
0.1854725043287579
 20
0.1654369577278339
 10
0.1811022199256385
 20
0.1638469993559506
 10
0.1785197791419761
 20
0.1622570382599882
 10
0.1760366621421177
 20
0.1604683364536601
 10
0.1747454408885651
 20
0.1598721007021638
  0
LWPOLYLINE
  5
1669
330
2
100
AcDbEntity
  8
Profilo
  6
Continuous
370
     0
100
AcDbPolyline
 90
        8
 70
   128
 43
0.0
 10
0.1717657015228011
 20
0.1589777497989993
 10
0.1691832590156952
 20
0.1563940660826504
 10
0.1687859604335935
 20
0.1550028511452124
 10
0.1686866366497897
 20
0.1533135183320267
 10
0.1694812338139939
 20
0.1533135183320267
 10
0.1707724550675465
 20
0.1535122644905525
 10
0.1715670522317498
 20
0.1550028511452124
 10
0.1734542196350117
 20
0.1569902991100658
  0
LWPOLYLINE
  5
166A
330
2
100
AcDbEntity
  8
Profilo
  6
Continuous
370
     0
100
AcDbPolyline
 90
        3
 70
   128
 43
0.0
 10
0.1711697536496481
 20
0.152617913587388
 10
0.1699778579033431
 20
0.1508292090569803
 10
0.1689846097246448
 20
0.148742386650824
  0
LWPOLYLINE
  5
166B
330
2
100
AcDbEntity
  8
Profilo
  6
Continuous
370
     0
100
AcDbPolyline
 90
        3
 70
   128
 43
0.0
 10
0.1745467915975138
 20
0.1544066153937165
 10
0.1717657015228011
 20
0.1490405045265722
 10
0.171269077433452
 20
0.1481461536234077
  0
LWPOLYLINE
  5
166C
330
2
100
AcDbEntity
  8
Profilo
  6
Continuous
370
     0
100
AcDbPolyline
 90
       23
 70
   128
 43
0.0
 10
0.1876576482537622
 20
0.1636482531974257
 10
0.1836846607092999
 20
0.1613626873568237
 10
0.1807049213435359
 20
0.1589777497989993
 10
0.1777251802543283
 20
0.1554003407381835
 10
0.1752420649779143
 20
0.1500342298710387
 10
0.1747454408885651
 20
0.1466555669687477
 10
0.1748447663958126
 20
0.1445687445625919
 10
0.1765332845080232
 20
0.1445687445625919
 10
0.176831259306321
 20
0.1429787861907086
 10
0.1762353114331689
 20
0.1396994950056405
 10
0.1771292323811762
 20
0.137314554723736
 10
0.1796123493810346
 20
0.1362214603861263
 10
0.180406946545238
 20
0.137314554723736
 10
0.1820954663808931
 20
0.1371158112892908
 10
0.1850752057466563
 20
0.136917065130765
 10
0.1852738550377075
 20
0.1390038875369218
 10
0.1836846607092999
 20
0.1412894533775229
 10
0.1820954663808931
 20
0.143078157907931
 10
0.1837839862165473
 20
0.1429787861907086
 10
0.1840819592914025
 20
0.144469372845369
 10
0.182989389052344
 20
0.1469536821204154
 10
0.1822941156719435
 20
0.1500342298710387
 10
0.1822941156719435
 20
0.1517235599601443
  0
LWPOLYLINE
  5
166D
330
2
100
AcDbEntity
  8
Profilo
  6
Continuous
370
     0
100
AcDbPolyline
 90
       15
 70
   128
 43
0.0
 10
0.1960009202013448
 20
0.1631513918872323
 10
0.1913326609999266
 20
0.1632507636044547
 10
0.1869623748733626
 20
0.1615614335153495
 10
0.185969128418108
 20
0.1605677081708825
 10
0.1866644017985075
 20
0.1596733572677185
 10
0.1844792578735042
 20
0.1584808857647267
 10
0.1816981677987905
 20
0.1558972020483769
 10
0.1809035706345872
 20
0.1541085002420488
 10
0.1809035706345872
 20
0.1520216778358921
 10
0.1822941156719435
 20
0.1522204239944179
 10
0.1845785833807507
 20
0.1555990868967088
 10
0.1879556213286164
 20
0.159176493233445
 10
0.1905380638357224
 20
0.1605677081708825
 10
0.1941137510746393
 20
0.1617601769497948
 10
0.1954049723281919
 20
0.1620582948255425
  0
LWPOLYLINE
  5
166E
330
2
100
AcDbEntity
  8
Profilo
  6
Continuous
370
     0
100
AcDbPolyline
 90
       14
 70
   128
 43
0.0
 10
0.1953056468209444
 20
0.1596733572677185
 10
0.1918292833658313
 20
0.1581827706130581
 10
0.1896441411642715
 20
0.1554003407381835
 10
0.1881542706196677
 20
0.1532141466148043
 10
0.1875583227465147
 20
0.1508292090569803
 10
0.1880549468358639
 20
0.1493386224023199
 10
0.1901407635301771
 20
0.1493386224023199
 10
0.1911340117088753
 20
0.1506304628984545
 10
0.1918292833658313
 20
0.1535122644905525
 10
0.1936171269852902
 20
0.1565928095170957
 10
0.1959015946940974
 20
0.1574871631443393
 10
0.1976894383135554
 20
0.1572884169858145
 10
0.1976894383135554
 20
0.1554003407381835
 10
0.1984840354777588
 20
0.1544066153937165
  0
LWPOLYLINE
  5
166F
330
2
100
AcDbEntity
  8
Profilo
  6
Continuous
370
     0
100
AcDbPolyline
 90
        2
 70
   128
 43
0.0
 10
0.1872603496716605
 20
0.1506304628984545
 10
0.1836846607092999
 20
0.1470530565617188
  0
LWPOLYLINE
  5
1670
330
2
100
AcDbEntity
  8
Profilo
  6
Continuous
370
     0
100
AcDbPolyline
 90
        3
 70
   128
 43
0.0
 10
0.1865650762912601
 20
0.14784803574766
 10
0.1850752057466563
 20
0.1420844325634645
 10
0.1850752057466563
 20
0.1402957280330564
  0
LWPOLYLINE
  5
1671
330
2
100
AcDbEntity
  8
Profilo
  6
Continuous
370
     0
100
AcDbPolyline
 90
        2
 70
   128
 43
0.0
 10
0.184777232671802
 20
0.1359233425103786
 10
0.184777232671802
 20
0.1336377766697774
  0
LWPOLYLINE
  5
1672
330
2
100
AcDbEntity
  8
Profilo
  6
Continuous
370
     0
100
AcDbPolyline
 90
        7
 70
   128
 43
0.0
 10
0.1848765564556059
 20
0.1598721007021638
 10
0.1812015437094414
 20
0.1564934377998724
 10
0.1799103241793325
 20
0.1537110106490778
 10
0.1789170777240778
 20
0.1474505461546889
 10
0.1791157270151291
 20
0.144469372845369
 10
0.1811022199256385
 20
0.1412894533775229
 10
0.1833866876344456
 20
0.1397988667228629
  0
LWPOLYLINE
  5
1673
330
2
100
AcDbEntity
  8
Profilo
  6
Continuous
370
     0
100
AcDbPolyline
 90
        6
 70
   128
 43
0.0
 10
0.179810998672085
 20
0.1560959482069022
 10
0.1778245057615757
 20
0.1527172853046113
 10
0.1769305830901249
 20
0.1484442687750763
 10
0.1773278816722266
 20
0.1455624699070584
 10
0.1785197791419761
 20
0.1421838070047674
 10
0.1803076227614342
 20
0.137910790475232
  0
LWPOLYLINE
  5
1674
330
2
100
AcDbEntity
  8
Profilo
  6
Continuous
370
     0
100
AcDbPolyline
 90
       12
 70
   128
 43
0.0
 10
0.1973914652387012
 20
0.1554003407381835
 10
0.1947096989477914
 20
0.1548041049866875
 10
0.1933191539104351
 20
0.1537110106490778
 10
0.1928225298210859
 20
0.1523197957116403
 10
0.1943124003656897
 20
0.1520216778358921
 10
0.1941137510746393
 20
0.1509285807742032
 10
0.1951069975298931
 20
0.1500342298710387
 10
0.1961002439851478
 20
0.1501336015882611
 10
0.1962988932761991
 20
0.1490405045265722
 10
0.1979874131118533
 20
0.1490405045265722
 10
0.1988813340598605
 20
0.1502329733054844
 10
0.1992786343654067
 20
0.1529160287390566
  0
LWPOLYLINE
  5
1675
330
2
100
AcDbEntity
  8
Profilo
  6
Continuous
370
     0
100
AcDbPolyline
 90
        2
 70
   128
 43
0.0
 10
0.1981860624029046
 20
0.1519223061186701
 10
0.1967955173655482
 20
0.1505310911812321
  0
LWPOLYLINE
  5
1676
330
2
100
AcDbEntity
  8
Profilo
  6
Continuous
370
     0
100
AcDbPolyline
 90
        2
 70
   128
 43
0.0
 10
0.1966961918583008
 20
0.1544066153937165
 10
0.1949083482388427
 20
0.1531147748975819
  0
LWPOLYLINE
  5
1677
330
2
100
AcDbEntity
  8
Profilo
  6
Continuous
370
     0
100
AcDbPolyline
 90
       13
 70
   128
 43
0.0
 10
0.1939151017835881
 20
0.1508292090569803
 10
0.1920279326568826
 20
0.1505310911812321
 10
0.1908360369105766
 20
0.1496367402780681
 10
0.1902400890374245
 20
0.148742386650824
 10
0.1902400890374245
 20
0.147251799996164
 10
0.1910346862016279
 20
0.1471524282789412
 10
0.1911340117088753
 20
0.145959959500029
 10
0.1920279326568826
 20
0.1457612133415032
 10
0.1933191539104351
 20
0.1457612133415032
 10
0.1939151017835881
 20
0.1446681162798143
 10
0.1950076737460902
 20
0.1446681162798143
 10
0.1961995694923952
 20
0.1466555669687477
 10
0.1963982187834465
 20
0.1483448970578534
  0
LWPOLYLINE
  5
1678
330
2
100
AcDbEntity
  8
Profilo
  6
Continuous
370
     0
100
AcDbPolyline
 90
        2
 70
   128
 43
0.0
 10
0.1939151017835881
 20
0.1494379941195432
 10
0.1929218553283334
 20
0.1471524282789412
  0
LWPOLYLINE
  5
1679
330
2
100
AcDbEntity
  8
Profilo
  6
Continuous
370
     0
100
AcDbPolyline
 90
       13
 70
   128
 43
0.0
 10
0.1901407635301771
 20
0.1467549386859702
 10
0.1884522454179656
 20
0.1457612133415032
 10
0.187756972037566
 20
0.1443699984040661
 10
0.1874589989627109
 20
0.1428794117494061
 10
0.187756972037566
 20
0.1413888250947462
 10
0.1889488677838711
 20
0.1412894533775229
 10
0.1899421142391258
 20
0.1413888250947462
 10
0.1902400890374245
 20
0.1399976128813887
 10
0.1910346862016279
 20
0.1395007488471152
 10
0.1920279326568826
 20
0.1400969845986111
 10
0.1937164524925368
 20
0.1402957280330564
 10
0.1940144255673919
 20
0.1418856891290197
 10
0.1943124003656897
 20
0.1436743936594274
  0
LWPOLYLINE
  5
167A
330
2
100
AcDbEntity
  8
Profilo
  6
Continuous
370
     0
100
AcDbPolyline
 90
       10
 70
   128
 43
0.0
 10
0.1888495440000673
 20
0.1403951024743589
 10
0.1878562975448135
 20
0.1384076517854254
 10
0.1881542706196677
 20
0.1366189499790973
 10
0.1890481932911185
 20
0.1355258529174084
 10
0.1901407635301771
 20
0.1355258529174084
 10
0.1912333354926792
 20
0.1348302454486892
 10
0.1920279326568826
 20
0.1349296171659116
 10
0.1926238805300346
 20
0.1352277350416598
 10
0.1942130748584423
 20
0.1361220859448238
 10
0.1943124003656897
 20
0.1380101621924548
  0
LWPOLYLINE
  5
167B
330
2
100
AcDbEntity
  8
Profilo
  6
Continuous
370
     0
100
AcDbPolyline
 90
        2
 70
   128
 43
0.0
 10
0.1907367131267736
 20
0.1386063979439507
 10
0.1912333354926792
 20
0.1361220859448238
  0
LWPOLYLINE
  5
167C
330
2
100
AcDbEntity
  8
Profilo
  6
Continuous
370
     0
100
AcDbPolyline
 90
       11
 70
   128
 43
0.0
 10
0.1890481932911185
 20
0.1348302454486892
 10
0.1890481932911185
 20
0.1325446796080876
 10
0.1900414397463732
 20
0.1303584854847084
 10
0.191531310290977
 20
0.1296628780159901
 10
0.1926238805300346
 20
0.1297622497332125
 10
0.1941137510746393
 20
0.1296628780159901
 10
0.1943124003656897
 20
0.1300603676089607
 10
0.194511049656741
 20
0.1303584854847084
 10
0.1957029454030461
 20
0.1316503259808435
 10
0.1953056468209444
 20
0.1335384022284745
 10
0.1944117241494936
 20
0.1351283633244374
  0
LWPOLYLINE
  5
167D
330
2
100
AcDbEntity
  8
Profilo
  6
Continuous
370
     0
100
AcDbPolyline
 90
        4
 70
   128
 43
0.0
 10
0.191531310290977
 20
0.1337371483869994
 10
0.19212725816413
 20
0.1325446796080876
 10
0.1931205046193847
 20
0.1314515825463983
 10
0.1935178032014864
 20
0.1309547185121247
  0
LWPOLYLINE
  5
167E
330
2
100
AcDbEntity
  8
Profilo
  6
Continuous
370
     0
100
AcDbPolyline
 90
        4
 70
   128
 43
0.0
 10
0.1907367131267736
 20
0.1338365201042227
 10
0.1907367131267736
 20
0.1320478155738141
 10
0.1917299595820274
 20
0.1309547185121247
 10
0.1920279326568826
 20
0.1304578572019313
  0
LWPOLYLINE
  5
167F
330
2
100
AcDbEntity
  8
Profilo
  6
Continuous
370
     0
100
AcDbPolyline
 90
       15
 70
   128
 43
0.0
 10
0.1913326609999257
 20
0.1290666422644938
 10
0.1914319847837296
 20
0.1271785660168632
 10
0.1930211791121372
 20
0.1255886076449804
 10
0.1943124003656897
 20
0.1252904897692322
 10
0.194610373440544
 20
0.1257873538035057
 10
0.1949083482388427
 20
0.1246942567418159
 10
0.1961002439851478
 20
0.1234024135216012
 10
0.1981860624029046
 20
0.1233030418043788
 10
0.1991793088581593
 20
0.1234024135216012
 10
0.1989806595671089
 20
0.1245948823005134
 10
0.1988813340598605
 20
0.1263835868309216
 10
0.1971928159476499
 20
0.1275760556098338
 10
0.1971928159476499
 20
0.1281722913613302
 10
0.1970934904404025
 20
0.1296628780159901
 10
0.1960009202013448
 20
0.1304578572019313
  0
LWPOLYLINE
  5
1680
330
2
100
AcDbEntity
  8
Profilo
  6
Continuous
370
     0
100
AcDbPolyline
 90
        4
 70
   128
 43
0.0
 10
0.1931205046193847
 20
0.1290666422644938
 10
0.1931205046193847
 20
0.1277748017683591
 10
0.1938157762763406
 20
0.1266817047066693
 10
0.1944117241494936
 20
0.1262842151136992
  0
LWPOLYLINE
  5
1681
330
2
100
AcDbEntity
  8
Profilo
  6
Continuous
370
     0
100
AcDbPolyline
 90
        3
 70
   128
 43
0.0
 10
0.1942130748584423
 20
0.1287685271128261
 10
0.1956036216192423
 20
0.1268804481411146
 10
0.1964975425672504
 20
0.1260854689551734
  0
LWPOLYLINE
  5
1682
330
2
100
AcDbEntity
  8
Profilo
  6
Continuous
370
     0
100
AcDbPolyline
 90
        2
 70
   128
 43
0.0
 10
0.1954049723281919
 20
0.1296628780159901
 10
0.1963982187834465
 20
0.1281722913613302
  0
LWPOLYLINE
  5
1683
330
2
100
AcDbEntity
  8
Profilo
  6
Continuous
370
     0
100
AcDbPolyline
 90
       59
 70
   128
 43
0.0
 10
0.1988627582864788
 20
0.1543801193611401
 10
0.2003533449411392
 20
0.1533868711824418
 10
0.2003533449411392
 20
0.1523936247271871
 10
0.19965773747242
 20
0.1507051066149761
 10
0.1980677791005367
 20
0.1490165867793214
 10
0.196279074570129
 20
0.1472287431598634
 10
0.1958815849771589
 20
0.145242250249354
 10
0.1956828388186336
 20
0.1434544049064519
 10
0.1969746820388483
 20
0.1432557556154011
 10
0.1970740537560702
 20
0.1427591332494956
 10
0.1959809566943809
 20
0.1401766907423901
 10
0.1963784462873519
 20
0.1390841205033316
 10
0.196775935880322
 20
0.1375942499587277
 10
0.1965771924458772
 20
0.1365016779962261
 10
0.1976702895075666
 20
0.1365016779962261
 10
0.198763386569256
 20
0.1365016779962261
 10
0.1993596195966718
 20
0.1353097822499206
 10
0.200055227065391
 20
0.1326280176824548
 10
0.2011483241270804
 20
0.1302442244664002
 10
0.2025395390645179
 20
0.1279597567575926
 10
0.2045269870293713
 20
0.1259732638470837
 10
0.2062163198425571
 20
0.124384069518676
 10
0.2077069064972175
 20
0.1228941989740726
 10
0.2080050216488851
 20
0.1210070315708103
 10
0.2096943544620708
 20
0.1205104074814616
 10
0.210489333648012
 20
0.1208083822797599
 10
0.2112843128339532
 20
0.1221989273171158
 10
0.2112843128339532
 20
0.1229935244813197
 10
0.2134705069573328
 20
0.1221989273171158
 10
0.2159548189564597
 20
0.121305004645665
 10
0.2190353639830016
 20
0.1216029794439633
 10
0.2224140268852934
 20
0.1223975766081671
 10
0.2237058701055081
 20
0.1231921737723709
 10
0.223805241822731
 20
0.1248806936080256
 10
0.223805241822731
 20
0.1253773159739311
 10
0.2261901793805554
 20
0.1244833950259235
 10
0.2273826481594676
 20
0.1246820443169743
 10
0.2280782556281859
 20
0.1252779921901273
 10
0.2279788839109631
 20
0.1260725893543311
 10
0.2279788839109631
 20
0.1264698879364328
 10
0.2303638214687875
 20
0.1260725893543311
 10
0.2312581750960312
 20
0.1263705624291854
 10
0.2336431126538556
 20
0.1277611074665422
 10
0.2342393484053511
 20
0.1292509780111455
 10
0.2354318171842633
 20
0.1302442244664002
 10
0.2406985563341857
 20
0.1344158613019133
 10
0.2407979280514085
 20
0.1352104584661172
 10
0.244275965395002
 20
0.1389847949960846
 10
0.2473565104215447
 20
0.1445469768689536
 10
0.2499401941378954
 20
0.1514997037791799
 10
0.2506358016066137
 20
0.155671338891249
 10
0.2502383120136427
 20
0.1577571573090053
 10
0.2494433328277015
 20
0.1592470278536096
 10
0.2477540000145157
 20
0.1588497292715075
 10
0.2456671776083599
 20
0.1576578318017583
 10
0.2437791013607293
 20
0.1559693136895473
 10
0.2411954176443796
 20
0.1541814700700888
 10
0.2386117366521094
 20
0.1528902488165363
 10
0.2358293067772343
 20
0.1524929502344341
  0
LWPOLYLINE
  5
1684
330
2
100
AcDbEntity
  8
Profilo
  6
Continuous
370
     0
100
AcDbPolyline
 90
        4
 70
   128
 43
0.0
 10
0.2031357720919338
 20
0.1524929502344341
 10
0.2003533449411392
 20
0.1479240148168193
 10
0.1994589913138947
 20
0.1436530541975028
 10
0.1975709150662641
 20
0.1404746655406879
  0
LWPOLYLINE
  5
1685
330
2
100
AcDbEntity
  8
Profilo
  6
Continuous
370
     0
100
AcDbPolyline
 90
       11
 70
   128
 43
0.0
 10
0.2044276153121494
 20
0.1513010544881291
 10
0.2029370286574881
 20
0.1470300938688121
 10
0.2015458137200514
 20
0.1421631853763426
 10
0.2004527166583612
 20
0.1389847949960846
 10
0.2007508345341102
 20
0.1374949261749244
 10
0.2024401646232155
 20
0.1375942499587277
 10
0.2040301257191783
 20
0.1395807428692371
 10
0.2042288691536231
 20
0.1418652105780447
 10
0.2042288691536231
 20
0.1446463006527574
 10
0.2050238483395643
 20
0.1503078080328744
 10
0.2059182019668089
 20
0.1514003782719325
  0
LWPOLYLINE
  5
1686
330
2
100
AcDbEntity
  8
Profilo
  6
Continuous
370
     0
100
AcDbPolyline
 90
        8
 70
   128
 43
0.0
 10
0.2016451854372734
 20
0.1371969513766261
 10
0.2019433033130216
 20
0.1335219386304625
 10
0.2027382824989636
 20
0.1319327443020549
 10
0.2036326361262073
 20
0.1313367964289019
 10
0.2059182019668089
 20
0.1320320680858587
 10
0.2062163198425571
 20
0.1337205879215134
 10
0.2057194558082835
 20
0.1363030287051752
 10
0.2049244766223424
 20
0.1386868219212299
  0
LWPOLYLINE
  5
1687
330
2
100
AcDbEntity
  8
Profilo
  6
Continuous
370
     0
100
AcDbPolyline
 90
        4
 70
   128
 43
0.0
 10
0.2032351465332371
 20
0.1309394978468002
 10
0.2055207123738378
 20
0.1276617836827383
 10
0.2082037678074105
 20
0.1250793428990764
 10
0.2106880798065374
 20
0.1235894723544726
  0
LWPOLYLINE
  5
1688
330
2
100
AcDbEntity
  8
Profilo
  6
Continuous
370
     0
100
AcDbPolyline
 90
       20
 70
   128
 43
0.0
 10
0.2067131811527501
 20
0.1339192372125642
 10
0.2081043960901876
 20
0.1306415230485023
 10
0.209197493151877
 20
0.1261719131381345
 10
0.209197493151877
 20
0.1248806936080256
 10
0.2101912157722638
 20
0.1244833950259235
 10
0.2115824307097014
 20
0.1265692117202366
 10
0.2118805485854496
 20
0.12875435564524
 10
0.2129736456471389
 20
0.1283570570631383
 10
0.2145636040190213
 20
0.1284563808469417
 10
0.2146629757362441
 20
0.1298469258842985
 10
0.2137686248330801
 20
0.131734095011004
 10
0.2124767816128654
 20
0.1330253162645565
 10
0.2108868232409831
 20
0.1339192372125642
 10
0.2094956083035446
 20
0.1353097822499206
 10
0.2102905874894867
 20
0.1358064063392697
 10
0.209197493151877
 20
0.1374949261749244
 10
0.2076075320559141
 20
0.1398787176675354
 10
0.2066138094355272
 20
0.1442490020706558
 10
0.206315691559779
 20
0.1491159105631248
 10
0.2066138094355272
 20
0.1511024051970778
  0
LWPOLYLINE
  5
1689
330
2
100
AcDbEntity
  8
Profilo
  6
Continuous
370
     0
100
AcDbPolyline
 90
        5
 70
   128
 43
0.0
 10
0.2060175736840317
 20
0.1399780414513388
 10
0.2076075320559141
 20
0.1356077570482189
 10
0.209197493151877
 20
0.1330253162645565
 10
0.210986194958205
 20
0.1305421992646985
 10
0.2115824307097014
 20
0.1292509780111455
  0
LWPOLYLINE
  5
168A
330
2
100
AcDbEntity
  8
Profilo
  6
Continuous
370
     0
100
AcDbPolyline
 90
        8
 70
   128
 43
0.0
 10
0.2124767816128654
 20
0.126271238645382
 10
0.2150604653292152
 20
0.1236887961382765
 10
0.2164516802666527
 20
0.1232914975561743
 10
0.2181410130798385
 20
0.1231921737723709
 10
0.2181410130798385
 20
0.1239867709365743
 10
0.2179422669213131
 20
0.1252779921901273
 10
0.2164516802666527
 20
0.1260725893543311
 10
0.2144642323017993
 20
0.1279597567575926
  0
LWPOLYLINE
  5
168B
330
2
100
AcDbEntity
  8
Profilo
  6
Continuous
370
     0
100
AcDbPolyline
 90
        3
 70
   128
 43
0.0
 10
0.2188366178244772
 20
0.125675290772229
 10
0.2206253223548849
 20
0.1244833950259235
 10
0.2227121447610407
 20
0.1234901468472252
  0
LWPOLYLINE
  5
168C
330
2
100
AcDbEntity
  8
Profilo
  6
Continuous
370
     0
100
AcDbPolyline
 90
        3
 70
   128
 43
0.0
 10
0.2170479160181482
 20
0.1290523287200947
 10
0.2224140268852934
 20
0.126271238645382
 10
0.2233083777884575
 20
0.1257746145560328
  0
LWPOLYLINE
  5
168D
330
2
100
AcDbEntity
  8
Profilo
  6
Continuous
370
     0
100
AcDbPolyline
 90
       23
 70
   128
 43
0.0
 10
0.2078062782144394
 20
0.1421631853763426
 10
0.210091844055041
 20
0.1381901978318807
 10
0.2124767816128654
 20
0.1352104584661172
 10
0.2160541906736817
 20
0.1322307173769095
 10
0.221420301540826
 20
0.1297476021004947
 10
0.2247989644431179
 20
0.1292509780111455
 10
0.2268857868492737
 20
0.129350303518393
 10
0.2268857868492737
 20
0.131038821630604
 10
0.2284757452211561
 20
0.1313367964289019
 10
0.2317550364062251
 20
0.1307408485557493
 10
0.2341399766881291
 20
0.1316347695037566
 10
0.2352330710257389
 20
0.134117886503615
 10
0.2341399766881291
 20
0.1349124836678189
 10
0.2343387201225748
 20
0.1366010035034735
 10
0.2345374662811002
 20
0.1395807428692371
 10
0.2324506438749434
 20
0.1397793921602884
 10
0.2301650780343418
 20
0.1381901978318807
 10
0.2283763735039341
 20
0.1366010035034735
 10
0.2284757452211561
 20
0.1382895233391282
 10
0.2269851585664966
 20
0.1385874964139829
 10
0.2245008492914493
 20
0.1374949261749244
 10
0.221420301540826
 20
0.1367996527945244
 10
0.2197309714517208
 20
0.1367996527945244
  0
LWPOLYLINE
  5
168E
330
2
100
AcDbEntity
  8
Profilo
  6
Continuous
370
     0
100
AcDbPolyline
 90
       15
 70
   128
 43
0.0
 10
0.2083031395246324
 20
0.1505064573239252
 10
0.2082037678074105
 20
0.1458381981225066
 10
0.2098930978965157
 20
0.141467911995943
 10
0.2108868232409831
 20
0.1404746655406879
 10
0.2117811741441471
 20
0.1411699389210884
 10
0.2129736456471389
 20
0.1389847949960846
 10
0.2155573293634887
 20
0.1362037049213714
 10
0.2173460311698168
 20
0.135409107757168
 10
0.2194328535759726
 20
0.135409107757168
 10
0.2192341074174473
 20
0.1367996527945244
 10
0.2158554445151564
 20
0.1390841205033316
 10
0.2122780381784206
 20
0.1424611584511973
 10
0.2108868232409831
 20
0.1450436009583027
 10
0.2096943544620708
 20
0.1486192881972197
 10
0.2093962365863227
 20
0.1499105094507723
  0
LWPOLYLINE
  5
168F
330
2
100
AcDbEntity
  8
Profilo
  6
Continuous
370
     0
100
AcDbPolyline
 90
       14
 70
   128
 43
0.0
 10
0.2117811741441471
 20
0.1498111839435253
 10
0.2132717607988066
 20
0.1463348204884121
 10
0.2160541906736817
 20
0.1441496782868519
 10
0.2182403847970604
 20
0.1426598077422486
 10
0.2206253223548849
 20
0.1420638598690956
 10
0.2221159090095452
 20
0.1425604839584447
 10
0.2221159090095452
 20
0.1446463006527574
 10
0.2208240685134111
 20
0.1456395488314557
 10
0.2179422669213131
 20
0.1463348204884121
 10
0.2148617218947695
 20
0.1481226641078706
 10
0.2139673682675258
 20
0.1504071318166778
 10
0.2141661144260512
 20
0.1521949754361363
 10
0.2160541906736817
 20
0.1521949754361363
 10
0.2170479160181491
 20
0.1529895726003397
  0
LWPOLYLINE
  5
1690
330
2
100
AcDbEntity
  8
Profilo
  6
Continuous
370
     0
100
AcDbPolyline
 90
        2
 70
   128
 43
0.0
 10
0.2208240685134111
 20
0.1417658867942409
 10
0.2244014748501468
 20
0.1381901978318807
  0
LWPOLYLINE
  5
1691
330
2
100
AcDbEntity
  8
Profilo
  6
Continuous
370
     0
100
AcDbPolyline
 90
        3
 70
   128
 43
0.0
 10
0.2236064956642056
 20
0.1410706134138409
 10
0.2293700988484006
 20
0.1395807428692371
 10
0.2311588033788092
 20
0.1395807428692371
  0
LWPOLYLINE
  5
1692
330
2
100
AcDbEntity
  8
Profilo
  6
Continuous
370
     0
100
AcDbPolyline
 90
        2
 70
   128
 43
0.0
 10
0.235531188901487
 20
0.1392827697943824
 10
0.2378167547420877
 20
0.1392827697943824
  0
LWPOLYLINE
  5
1693
330
2
100
AcDbEntity
  8
Profilo
  6
Continuous
370
     0
100
AcDbPolyline
 90
        7
 70
   128
 43
0.0
 10
0.2115824307097014
 20
0.1393820935781862
 10
0.2149610936119923
 20
0.1357070808320227
 10
0.2177435207627869
 20
0.1344158613019133
 10
0.2240039852571758
 20
0.1334226148466587
 10
0.2269851585664966
 20
0.1336212641377095
 10
0.2301650780343418
 20
0.1356077570482189
 10
0.2316556646890022
 20
0.137892224757026
  0
LWPOLYLINE
  5
1694
330
2
100
AcDbEntity
  8
Profilo
  6
Continuous
370
     0
100
AcDbPolyline
 90
        6
 70
   128
 43
0.0
 10
0.2153585832049634
 20
0.1343165357946659
 10
0.2187372461072543
 20
0.132330042884157
 10
0.2230102626367889
 20
0.1314361202127057
 10
0.2258920615048063
 20
0.1318334187948074
 10
0.2292707244070982
 20
0.1330253162645565
 10
0.2335437409366337
 20
0.134813159884015
  0
LWPOLYLINE
  5
1695
330
2
100
AcDbEntity
  8
Profilo
  6
Continuous
370
     0
100
AcDbPolyline
 90
       12
 70
   128
 43
0.0
 10
0.2160541906736817
 20
0.1518970023612816
 10
0.2166504264251781
 20
0.1492152360703723
 10
0.2177435207627869
 20
0.1478246910330159
 10
0.2191347357002253
 20
0.1473280669436668
 10
0.2194328535759726
 20
0.1488179374882706
 10
0.220525950637662
 20
0.1486192881972197
 10
0.221420301540826
 20
0.149612534652474
 10
0.2213209298236041
 20
0.1506057811077286
 10
0.2224140268852934
 20
0.1508044303987795
 10
0.2224140268852934
 20
0.1524929502344341
 10
0.2212215581063812
 20
0.1533868711824418
 10
0.2185385026728086
 20
0.1537841714879871
  0
LWPOLYLINE
  5
1696
330
2
100
AcDbEntity
  8
Profilo
  6
Continuous
370
     0
100
AcDbPolyline
 90
        2
 70
   128
 43
0.0
 10
0.2195322252931955
 20
0.1526915995254854
 10
0.220923440230633
 20
0.1513010544881291
  0
LWPOLYLINE
  5
1697
330
2
100
AcDbEntity
  8
Profilo
  6
Continuous
370
     0
100
AcDbPolyline
 90
        2
 70
   128
 43
0.0
 10
0.2170479160181491
 20
0.1512017289808816
 10
0.2183397565142833
 20
0.1494138853614231
  0
LWPOLYLINE
  5
1698
330
2
100
AcDbEntity
  8
Profilo
  6
Continuous
370
     0
100
AcDbPolyline
 90
       13
 70
   128
 43
0.0
 10
0.2206253223548849
 20
0.1484206389061689
 10
0.220923440230633
 20
0.1465334697794629
 10
0.2218177911337971
 20
0.1453415740331574
 10
0.2227121447610407
 20
0.1447456261600049
 10
0.2242027314157011
 20
0.1447456261600049
 10
0.224302103132924
 20
0.1455402233242087
 10
0.2254945719118362
 20
0.1456395488314557
 10
0.2256933180703615
 20
0.1465334697794629
 10
0.2256933180703615
 20
0.1478246910330159
 10
0.2267864151320509
 20
0.1484206389061689
 10
0.2267864151320509
 20
0.1495132108686706
 10
0.2247989644431179
 20
0.1507051066149761
 10
0.2231096343540118
 20
0.1509037559060269
  0
LWPOLYLINE
  5
1699
330
2
100
AcDbEntity
  8
Profilo
  6
Continuous
370
     0
100
AcDbPolyline
 90
        2
 70
   128
 43
0.0
 10
0.2220165372923224
 20
0.1484206389061689
 10
0.224302103132924
 20
0.1474273924509138
  0
LWPOLYLINE
  5
169A
330
2
100
AcDbEntity
  8
Profilo
  6
Continuous
370
     0
100
AcDbPolyline
 90
       13
 70
   128
 43
0.0
 10
0.224699592725895
 20
0.1446463006527574
 10
0.2256933180703615
 20
0.1429577825405464
 10
0.2270845330077991
 20
0.1422625091601464
 10
0.2285751196624595
 20
0.1419645360852917
 10
0.230065706317119
 20
0.1422625091601464
 10
0.2301650780343418
 20
0.1434544049064519
 10
0.230065706317119
 20
0.1444476513617066
 10
0.2314569185304769
 20
0.1447456261600049
 10
0.2319537825647504
 20
0.1455402233242087
 10
0.231357546813254
 20
0.1465334697794629
 10
0.2311588033788092
 20
0.1482219896151176
 10
0.2295688422828455
 20
0.1485199626899723
 10
0.2277801377524378
 20
0.1488179374882706
  0
LWPOLYLINE
  5
169B
330
2
100
AcDbEntity
  8
Profilo
  6
Continuous
370
     0
100
AcDbPolyline
 90
       10
 70
   128
 43
0.0
 10
0.2310594289375067
 20
0.1433550811226481
 10
0.2330468796264398
 20
0.1423618346673939
 10
0.2348355814327678
 20
0.1426598077422486
 10
0.2359286784944572
 20
0.1435537304136994
 10
0.2359286784944572
 20
0.1446463006527574
 10
0.2366242859631755
 20
0.1457388726152596
 10
0.2365249142459536
 20
0.1465334697794629
 10
0.2362267963702054
 20
0.1471294176526159
 10
0.2353324454670413
 20
0.1487186119810231
 10
0.2334443692194099
 20
0.1488179374882706
  0
LWPOLYLINE
  5
169C
330
2
100
AcDbEntity
  8
Profilo
  6
Continuous
370
     0
100
AcDbPolyline
 90
        2
 70
   128
 43
0.0
 10
0.2328481334679144
 20
0.145242250249354
 10
0.2353324454670413
 20
0.1457388726152596
  0
LWPOLYLINE
  5
169D
330
2
100
AcDbEntity
  8
Profilo
  6
Continuous
370
     0
100
AcDbPolyline
 90
       11
 70
   128
 43
0.0
 10
0.2366242859631755
 20
0.1435537304136994
 10
0.238909851803778
 20
0.1435537304136994
 10
0.2410960459271567
 20
0.1445469768689536
 10
0.241791653395875
 20
0.1460368474135579
 10
0.2416922816786522
 20
0.1471294176526159
 10
0.241791653395875
 20
0.1486192881972197
 10
0.2413941638029049
 20
0.1488179374882706
 10
0.2410960459271567
 20
0.1490165867793214
 10
0.2398042054310216
 20
0.1502084825256269
 10
0.2379161291833902
 20
0.1498111839435253
 10
0.2363261680874282
 20
0.1489172612720744
  0
LWPOLYLINE
  5
169E
330
2
100
AcDbEntity
  8
Profilo
  6
Continuous
370
     0
100
AcDbPolyline
 90
        4
 70
   128
 43
0.0
 10
0.2377173830248658
 20
0.1460368474135579
 10
0.238909851803778
 20
0.1466327952867104
 10
0.2400029488654674
 20
0.1476260417419651
 10
0.2404998128997409
 20
0.1480233403240668
  0
LWPOLYLINE
  5
169F
330
2
100
AcDbEntity
  8
Profilo
  6
Continuous
370
     0
100
AcDbPolyline
 90
        4
 70
   128
 43
0.0
 10
0.2376180113076429
 20
0.145242250249354
 10
0.2394067158380515
 20
0.145242250249354
 10
0.2404998128997409
 20
0.1462354967046083
 10
0.2409966742099339
 20
0.1465334697794629
  0
LWPOLYLINE
  5
16A0
330
2
100
AcDbEntity
  8
Profilo
  6
Continuous
370
     0
100
AcDbPolyline
 90
       15
 70
   128
 43
0.0
 10
0.2423878891473714
 20
0.1458381981225066
 10
0.244275965395002
 20
0.1459375219063104
 10
0.2458659237668852
 20
0.1475267162347176
 10
0.2461640416426334
 20
0.1488179374882706
 10
0.2456671776083599
 20
0.1491159105631248
 10
0.2467602746700492
 20
0.1494138853614231
 10
0.2480521178902639
 20
0.1506057811077286
 10
0.2481514896074868
 20
0.1526915995254854
 10
0.2480521178902639
 20
0.1536848459807397
 10
0.2468596491113517
 20
0.1534861966896893
 10
0.245070944580944
 20
0.1533868711824418
 10
0.2438784758020318
 20
0.1516983530702308
 10
0.2432822400505354
 20
0.1516983530702308
 10
0.241791653395875
 20
0.1515990275629833
 10
0.2409966742099339
 20
0.1505064573239252
  0
LWPOLYLINE
  5
16A1
330
2
100
AcDbEntity
  8
Profilo
  6
Continuous
370
     0
100
AcDbPolyline
 90
        4
 70
   128
 43
0.0
 10
0.2423878891473714
 20
0.1476260417419651
 10
0.2436797296435065
 20
0.1476260417419651
 10
0.2447728267051958
 20
0.148321313398921
 10
0.245170316298166
 20
0.1489172612720744
  0
LWPOLYLINE
  5
16A2
330
2
100
AcDbEntity
  8
Profilo
  6
Continuous
370
     0
100
AcDbPolyline
 90
        3
 70
   128
 43
0.0
 10
0.2426860042990391
 20
0.1487186119810231
 10
0.2445740832707501
 20
0.1501091587418236
 10
0.2453690624566913
 20
0.1510030796898308
  0
LWPOLYLINE
  5
16A3
330
2
100
AcDbEntity
  8
Profilo
  6
Continuous
370
     0
100
AcDbPolyline
 90
        2
 70
   128
 43
0.0
 10
0.241791653395875
 20
0.1499105094507723
 10
0.2432822400505354
 20
0.1509037559060269
  0
LWPOLYLINE
  5
16A4
330
2
100
AcDbEntity
  8
Profilo
  6
Continuous
370
     0
100
AcDbPolyline
 90
       59
 70
   128
 43
0.0
 10
0.2170744120507251
 20
0.1533682954090596
 10
0.2180676602294234
 20
0.1548588820637196
 10
0.219060906684678
 20
0.1548588820637196
 10
0.2207494247968886
 20
0.1541632745950008
 10
0.2224379446325437
 20
0.152573316223118
 10
0.2242257882520018
 20
0.1507846116927099
 10
0.2262122811625111
 20
0.1503871220997393
 10
0.2280001265054128
 20
0.150188375941214
 10
0.2281987757964641
 20
0.1514802191614287
 10
0.2286953981623696
 20
0.1515795908786511
 10
0.2312778406694755
 20
0.1504864938169617
 10
0.2323704109085332
 20
0.1508839834099327
 10
0.233860281453137
 20
0.1512814730029029
 10
0.2349528534156391
 20
0.1510827295684576
 10
0.2349528534156391
 20
0.1521758266301474
 10
0.2349528534156391
 20
0.1532689236918368
 10
0.2361447491619451
 20
0.1538651567192531
 10
0.2388265137294103
 20
0.1545607641879719
 10
0.241210306945465
 20
0.1556538612496612
 10
0.2434947746542722
 20
0.1570450761870988
 10
0.2454812675647815
 20
0.1590325241519522
 10
0.2470704618931891
 20
0.1607218569651379
 10
0.248560332437793
 20
0.1622124436197978
 10
0.2504474998410548
 20
0.1625105587714655
 10
0.250944123930404
 20
0.1641998915846512
 10
0.2506461491321053
 20
0.1649948707705924
 10
0.2492556040947489
 20
0.1657898499565345
 10
0.2484610069305455
 20
0.1657898499565345
 10
0.2492556040947489
 20
0.1679760440799132
 10
0.2501495267661997
 20
0.1704603560790401
 10
0.2498515519679019
 20
0.1735409011055829
 10
0.2490569548036985
 20
0.1769195640078738
 10
0.2482623576394942
 20
0.1782114072280885
 10
0.24657383780384
 20
0.1783107789453118
 10
0.2460772154379345
 20
0.1783107789453118
 10
0.2469711363859417
 20
0.1806957165031358
 10
0.2467724870948904
 20
0.181888185282048
 10
0.2461765392217383
 20
0.1825837927507663
 10
0.245381942057534
 20
0.1824844210335439
 10
0.2449846434754324
 20
0.1824844210335439
 10
0.245381942057534
 20
0.1848693585913684
 10
0.2450839689826798
 20
0.185763712218612
 10
0.2436934239453234
 20
0.1881486497764365
 10
0.2422035534007196
 20
0.1887448855279324
 10
0.241210306945465
 20
0.1899373543068446
 10
0.2370386701099523
 20
0.1952040934567665
 10
0.236244072945748
 20
0.1953034651739889
 10
0.2324697364157806
 20
0.1987815025175828
 10
0.2269075545429116
 20
0.201862047544126
 10
0.2199548276326853
 20
0.2044457312604758
 10
0.2157831925206162
 20
0.2051413387291941
 10
0.2136973741028594
 20
0.2047438491362235
 10
0.2122075035582556
 20
0.2039488699502823
 10
0.2126048021403581
 20
0.2022595371370966
 10
0.2137966996101068
 20
0.2001727147309403
 10
0.2154852177223183
 20
0.1982846384833097
 10
0.2172730613417764
 20
0.19570095476696
 10
0.2185642825953289
 20
0.1931172737746903
 10
0.2189615811774306
 20
0.1903348438998152
  0
LWPOLYLINE
  5
16A5
330
2
100
AcDbEntity
  8
Profilo
  6
Continuous
370
     0
100
AcDbPolyline
 90
        4
 70
   128
 43
0.0
 10
0.2189615811774306
 20
0.1576413092145146
 10
0.2235305165950459
 20
0.1548588820637196
 10
0.2278014772143624
 20
0.1539645284364755
 10
0.2309798658711768
 20
0.152076452188845
  0
LWPOLYLINE
  5
16A6
330
2
100
AcDbEntity
  8
Profilo
  6
Continuous
370
     0
100
AcDbPolyline
 90
       11
 70
   128
 43
0.0
 10
0.2201534769237365
 20
0.1589331524347298
 10
0.2244244375430531
 20
0.1574425657800689
 10
0.2292913460355226
 20
0.1560513508426318
 10
0.2324697364157806
 20
0.154958253780942
 10
0.2339596052369408
 20
0.1552563716566906
 10
0.233860281453137
 20
0.1569457017457963
 10
0.2318737885426276
 20
0.1585356628417587
 10
0.2295893208338204
 20
0.158734406276204
 10
0.2268082307591077
 20
0.158734406276204
 10
0.2211467233789912
 20
0.1595293854621456
 10
0.2200541531399327
 20
0.1604237390893897
  0
LWPOLYLINE
  5
16A7
330
2
100
AcDbEntity
  8
Profilo
  6
Continuous
370
     0
100
AcDbPolyline
 90
        8
 70
   128
 43
0.0
 10
0.2342575800352387
 20
0.1561507225598542
 10
0.2379325927814031
 20
0.1564488404356024
 10
0.2395217871098108
 20
0.157243819621544
 10
0.2401177349829628
 20
0.1581381732487881
 10
0.2394224633260069
 20
0.1604237390893897
 10
0.2377339434903518
 20
0.1607218569651379
 10
0.2351515027066895
 20
0.1602249929308644
 10
0.2327677094906357
 20
0.1594300137449232
  0
LWPOLYLINE
  5
16A8
330
2
100
AcDbEntity
  8
Profilo
  6
Continuous
370
     0
100
AcDbPolyline
 90
        4
 70
   128
 43
0.0
 10
0.2405150335650645
 20
0.1577406836558175
 10
0.2437927477291264
 20
0.1600262494964191
 10
0.2463751885127887
 20
0.1627093049299913
 10
0.2478650590573925
 20
0.1651936169291182
  0
LWPOLYLINE
  5
16A9
330
2
100
AcDbEntity
  8
Profilo
  6
Continuous
370
     0
100
AcDbPolyline
 90
       20
 70
   128
 43
0.0
 10
0.2375352941993014
 20
0.1612187182753309
 10
0.2408130083633633
 20
0.1626099332127689
 10
0.2452826182737311
 20
0.1637030302744578
 10
0.24657383780384
 20
0.1637030302744578
 10
0.2469711363859417
 20
0.1646967528948447
 10
0.2448853196916285
 20
0.1660879678322822
 10
0.2427001757666252
 20
0.1663860857080304
 10
0.2430974743487269
 20
0.1674791827697193
 10
0.242998150564923
 20
0.1690691411416026
 10
0.2416076055275667
 20
0.169168512858825
 10
0.2397204364008612
 20
0.1682741619556614
 10
0.2384292151473086
 20
0.1669823187354467
 10
0.2375352941993014
 20
0.1653923603635635
 10
0.2361447491619451
 20
0.1640011454261259
 10
0.235648125072595
 20
0.1647961246120675
 10
0.2339596052369408
 20
0.1637030302744578
 10
0.2315758137443298
 20
0.1621130691784954
 10
0.2272055293412094
 20
0.161119346558108
 10
0.2223386208487399
 20
0.1608212286823603
 10
0.2203521262147869
 20
0.161119346558108
  0
LWPOLYLINE
  5
16AA
330
2
100
AcDbEntity
  8
Profilo
  6
Continuous
370
     0
100
AcDbPolyline
 90
        5
 70
   128
 43
0.0
 10
0.2314764899605259
 20
0.1605231108066121
 10
0.2358467743636463
 20
0.1621130691784954
 10
0.2384292151473086
 20
0.1637030302744578
 10
0.2409123321471662
 20
0.1654917320807859
 10
0.2422035534007196
 20
0.1660879678322822
  0
LWPOLYLINE
  5
16AB
330
2
100
AcDbEntity
  8
Profilo
  6
Continuous
370
     0
100
AcDbPolyline
 90
        8
 70
   128
 43
0.0
 10
0.2451832927664836
 20
0.1669823187354467
 10
0.2477657352735887
 20
0.1695660024517956
 10
0.2481630338556913
 20
0.1709572173892336
 10
0.2482623576394942
 20
0.1726465502024193
 10
0.2474677604752908
 20
0.1726465502024193
 10
0.2461765392217383
 20
0.1724478040438935
 10
0.245381942057534
 20
0.1709572173892336
 10
0.2434947746542722
 20
0.1689697694243802
  0
LWPOLYLINE
  5
16AC
330
2
100
AcDbEntity
  8
Profilo
  6
Continuous
370
     0
100
AcDbPolyline
 90
        3
 70
   128
 43
0.0
 10
0.2457792406396357
 20
0.173342154947058
 10
0.2469711363859417
 20
0.1751308594774657
 10
0.24796438456464
 20
0.177217681883622
  0
LWPOLYLINE
  5
16AD
330
2
100
AcDbEntity
  8
Profilo
  6
Continuous
370
     0
100
AcDbPolyline
 90
        3
 70
   128
 43
0.0
 10
0.2424022026917709
 20
0.1715534531407295
 10
0.2451832927664836
 20
0.1769195640078738
 10
0.2456799168558328
 20
0.1778139149110383
  0
LWPOLYLINE
  5
16AE
330
2
100
AcDbEntity
  8
Profilo
  6
Continuous
370
     0
100
AcDbPolyline
 90
       23
 70
   128
 43
0.0
 10
0.2292913460355226
 20
0.1623118153370203
 10
0.2332643335799849
 20
0.1645973811776223
 10
0.236244072945748
 20
0.1669823187354467
 10
0.2392238140349556
 20
0.1705597277962625
 10
0.2417069293113705
 20
0.1759258386634073
 10
0.2422035534007196
 20
0.1793045015656983
 10
0.2421042278934722
 20
0.1813913239718541
 10
0.2404157097812616
 20
0.1813913239718541
 10
0.2401177349829628
 20
0.1829812823437374
 10
0.2407136828561158
 20
0.1862605735288055
 10
0.2398197619081086
 20
0.18864551381071
 10
0.2373366449082501
 20
0.1897386081483197
 10
0.2365420477440467
 20
0.18864551381071
 10
0.2348535279083916
 20
0.1888442572451552
 10
0.2318737885426276
 20
0.189043003403681
 10
0.2316751392515772
 20
0.1869561809975242
 10
0.2332643335799849
 20
0.1846706151569231
 10
0.2348535279083916
 20
0.182881910626515
 10
0.2331650080727374
 20
0.1829812823437374
 10
0.2328670349978823
 20
0.181490695689077
 10
0.2339596052369408
 20
0.1790063864140306
 10
0.2346548786173412
 20
0.1759258386634073
 10
0.2346548786173412
 20
0.1742365085743017
  0
LWPOLYLINE
  5
16AF
330
2
100
AcDbEntity
  8
Profilo
  6
Continuous
370
     0
100
AcDbPolyline
 90
       15
 70
   128
 43
0.0
 10
0.2209480740879399
 20
0.1628086766472137
 10
0.2256163332893581
 20
0.1627093049299913
 10
0.2299866194159221
 20
0.1643986350190965
 10
0.2309798658711768
 20
0.1653923603635635
 10
0.2302845924907773
 20
0.1662867112667275
 10
0.2324697364157806
 20
0.1674791827697193
 10
0.2352508264904933
 20
0.1700628664860691
 10
0.2360454236546976
 20
0.1718515682923972
 10
0.2360454236546976
 20
0.1739383906985539
 10
0.2346548786173412
 20
0.1737396445400281
 10
0.2323704109085332
 20
0.1703609816377372
 10
0.2289933729606675
 20
0.166783575301001
 10
0.2264109304535624
 20
0.1653923603635635
 10
0.2228352432146454
 20
0.1641998915846512
 10
0.2215440219610929
 20
0.1639017737089035
  0
LWPOLYLINE
  5
16B0
330
2
100
AcDbEntity
  8
Profilo
  6
Continuous
370
     0
100
AcDbPolyline
 90
       14
 70
   128
 43
0.0
 10
0.2216433474683404
 20
0.1662867112667275
 10
0.2251197109234526
 20
0.1677772979213879
 10
0.2273048531250132
 20
0.1705597277962625
 10
0.2287947236696171
 20
0.1727459219196417
 10
0.2293906715427691
 20
0.1751308594774657
 10
0.2288940474534209
 20
0.1766214461321261
 10
0.2268082307591077
 20
0.1766214461321261
 10
0.2258149825804094
 20
0.1753296056359915
 10
0.2251197109234526
 20
0.1724478040438935
 10
0.2233318673039946
 20
0.1693672590173503
 10
0.2210473995951874
 20
0.1684729053901067
 10
0.2192595559757293
 20
0.1686716515486315
 10
0.2192595559757293
 20
0.1705597277962625
 10
0.2184649588115251
 20
0.1715534531407295
  0
LWPOLYLINE
  5
16B1
330
2
100
AcDbEntity
  8
Profilo
  6
Continuous
370
     0
100
AcDbPolyline
 90
        2
 70
   128
 43
0.0
 10
0.2296886446176243
 20
0.1753296056359915
 10
0.2332643335799849
 20
0.1789070119727272
  0
LWPOLYLINE
  5
16B2
330
2
100
AcDbEntity
  8
Profilo
  6
Continuous
370
     0
100
AcDbPolyline
 90
        3
 70
   128
 43
0.0
 10
0.2303839179980247
 20
0.178112032786786
 10
0.2318737885426276
 20
0.1838756359709815
 10
0.2318737885426276
 20
0.1856643405013896
  0
LWPOLYLINE
  5
16B3
330
2
100
AcDbEntity
  8
Profilo
  6
Continuous
370
     0
100
AcDbPolyline
 90
        2
 70
   128
 43
0.0
 10
0.2321717616174828
 20
0.1900367260240674
 10
0.2321717616174828
 20
0.1923222918646686
  0
LWPOLYLINE
  5
16B4
330
2
100
AcDbEntity
  8
Profilo
  6
Continuous
370
     0
100
AcDbPolyline
 90
        7
 70
   128
 43
0.0
 10
0.2320724378336789
 20
0.1660879678322822
 10
0.2357474505798425
 20
0.1694666307345736
 10
0.2370386701099523
 20
0.1722490578853682
 10
0.2380319165652061
 20
0.1785095223797571
 10
0.2378332672741557
 20
0.181490695689077
 10
0.2358467743636463
 20
0.1846706151569231
 10
0.2335623066548391
 20
0.1861612018115831
  0
LWPOLYLINE
  5
16B5
330
2
100
AcDbEntity
  8
Profilo
  6
Continuous
370
     0
100
AcDbPolyline
 90
        6
 70
   128
 43
0.0
 10
0.2371379956171988
 20
0.1698641203275438
 10
0.2391244885277082
 20
0.1732427832298347
 10
0.240018411199159
 20
0.1775157997593697
 10
0.2396211126170573
 20
0.1803975986273876
 10
0.2384292151473086
 20
0.1837762615296785
 10
0.2366413715278506
 20
0.188049278059214
  0
LWPOLYLINE
  5
16B6
330
2
100
AcDbEntity
  8
Profilo
  6
Continuous
370
     0
100
AcDbPolyline
 90
       12
 70
   128
 43
0.0
 10
0.2195575290505836
 20
0.1705597277962625
 10
0.2222392953414924
 20
0.1711559635477585
 10
0.2236298403788497
 20
0.1722490578853682
 10
0.2241264644681988
 20
0.1736402728228057
 10
0.222636593923595
 20
0.1739383906985539
 10
0.2228352432146454
 20
0.1750314877602428
 10
0.2218419967593908
 20
0.1759258386634073
 10
0.220848750304137
 20
0.1758264669461849
 10
0.2206501010130857
 20
0.1769195640078738
 10
0.2189615811774306
 20
0.1769195640078738
 10
0.2180676602294234
 20
0.1757270952289616
 10
0.2176703599238781
 20
0.1730440397953894
  0
LWPOLYLINE
  5
16B7
330
2
100
AcDbEntity
  8
Profilo
  6
Continuous
370
     0
100
AcDbPolyline
 90
        2
 70
   128
 43
0.0
 10
0.2187629318863802
 20
0.1740377624157759
 10
0.2201534769237365
 20
0.1754289773532139
  0
LWPOLYLINE
  5
16B8
330
2
100
AcDbEntity
  8
Profilo
  6
Continuous
370
     0
100
AcDbPolyline
 90
        2
 70
   128
 43
0.0
 10
0.2202528024309831
 20
0.1715534531407295
 10
0.222040646050442
 20
0.1728452936368641
  0
LWPOLYLINE
  5
16B9
330
2
100
AcDbEntity
  8
Profilo
  6
Continuous
370
     0
100
AcDbPolyline
 90
       13
 70
   128
 43
0.0
 10
0.2230338925056967
 20
0.1751308594774657
 10
0.2249210616324022
 20
0.1754289773532139
 10
0.2261129573787073
 20
0.1763233282563779
 10
0.2267089052518603
 20
0.177217681883622
 10
0.2267089052518603
 20
0.178708268538282
 10
0.2259143080876569
 20
0.1788076402555048
 10
0.2258149825804094
 20
0.180000109034417
 10
0.2249210616324022
 20
0.1801988551929428
 10
0.2236298403788497
 20
0.1801988551929428
 10
0.2230338925056967
 20
0.1812919522546317
 10
0.2219413205431946
 20
0.1812919522546317
 10
0.2207494247968886
 20
0.1793045015656983
 10
0.2205507755058382
 20
0.1776151714765926
  0
LWPOLYLINE
  5
16BA
330
2
100
AcDbEntity
  8
Profilo
  6
Continuous
370
     0
100
AcDbPolyline
 90
        2
 70
   128
 43
0.0
 10
0.2230338925056967
 20
0.1765220744149028
 10
0.2240271389609514
 20
0.1788076402555048
  0
LWPOLYLINE
  5
16BB
330
2
100
AcDbEntity
  8
Profilo
  6
Continuous
370
     0
100
AcDbPolyline
 90
       13
 70
   128
 43
0.0
 10
0.2268082307591077
 20
0.1792051298484758
 10
0.2284967488713183
 20
0.1801988551929428
 10
0.2291920222517187
 20
0.1815900701303799
 10
0.229489995326573
 20
0.1830806567850398
 10
0.2291920222517187
 20
0.1845712434396998
 10
0.2280001265054128
 20
0.1846706151569231
 10
0.227006880050159
 20
0.1845712434396998
 10
0.2267089052518603
 20
0.1859624556530573
 10
0.2259143080876569
 20
0.1864593196873308
 10
0.2249210616324022
 20
0.1858630839358349
 10
0.2232325417967471
 20
0.1856643405013896
 10
0.2229345687218929
 20
0.1840743794054263
 10
0.222636593923595
 20
0.1822856748750186
  0
LWPOLYLINE
  5
16BC
330
2
100
AcDbEntity
  8
Profilo
  6
Continuous
370
     0
100
AcDbPolyline
 90
       10
 70
   128
 43
0.0
 10
0.2280994502892166
 20
0.1855649660600871
 10
0.2290926967444713
 20
0.1875524167490206
 10
0.2287947236696171
 20
0.1893411185553487
 10
0.2279008009981662
 20
0.1904342156170376
 10
0.2268082307591077
 20
0.1904342156170376
 10
0.2257156587966056
 20
0.1911298230857568
 10
0.2249210616324022
 20
0.1910304513685344
 10
0.2243251137592492
 20
0.1907323334927862
 10
0.2227359194308416
 20
0.1898379825896222
 10
0.222636593923595
 20
0.1879499063419912
  0
LWPOLYLINE
  5
16BD
330
2
100
AcDbEntity
  8
Profilo
  6
Continuous
370
     0
100
AcDbPolyline
 90
        2
 70
   128
 43
0.0
 10
0.2262122811625111
 20
0.1873536705904953
 10
0.2257156587966056
 20
0.1898379825896222
  0
LWPOLYLINE
  5
16BE
330
2
100
AcDbEntity
  8
Profilo
  6
Continuous
370
     0
100
AcDbPolyline
 90
       11
 70
   128
 43
0.0
 10
0.2279008009981662
 20
0.1911298230857568
 10
0.2279008009981662
 20
0.1934153889263584
 10
0.2269075545429116
 20
0.1956015830497376
 10
0.2254176839983077
 20
0.1962971905184559
 10
0.2243251137592492
 20
0.1961978188012335
 10
0.2228352432146454
 20
0.1962971905184559
 10
0.222636593923595
 20
0.1958997009254853
 10
0.2224379446325437
 20
0.1956015830497376
 10
0.2212460488862387
 20
0.1943097425536025
 10
0.2216433474683404
 20
0.1924216663059715
 10
0.2225372701397912
 20
0.1908317052100086
  0
LWPOLYLINE
  5
16BF
330
2
100
AcDbEntity
  8
Profilo
  6
Continuous
370
     0
100
AcDbPolyline
 90
        4
 70
   128
 43
0.0
 10
0.2254176839983077
 20
0.1922229201474466
 10
0.2248217361251548
 20
0.1934153889263584
 10
0.2238284896699001
 20
0.1945084859880477
 10
0.2234311910877984
 20
0.1950053500223213
  0
LWPOLYLINE
  5
16C0
330
2
100
AcDbEntity
  8
Profilo
  6
Continuous
370
     0
100
AcDbPolyline
 90
        4
 70
   128
 43
0.0
 10
0.2262122811625111
 20
0.1921235484302233
 10
0.2262122811625111
 20
0.1939122529606319
 10
0.2252190347072565
 20
0.1950053500223213
 10
0.2249210616324022
 20
0.1955022113325147
  0
LWPOLYLINE
  5
16C1
330
2
100
AcDbEntity
  8
Profilo
  6
Continuous
370
     0
100
AcDbPolyline
 90
       15
 70
   128
 43
0.0
 10
0.2256163332893581
 20
0.1968934262699523
 10
0.2255170095055552
 20
0.1987815025175828
 10
0.2239278151771475
 20
0.2003714608894656
 10
0.222636593923595
 20
0.2006695787652138
 10
0.2223386208487399
 20
0.2001727147309403
 10
0.222040646050442
 20
0.2012658117926301
 10
0.220848750304137
 20
0.2025576550128448
 10
0.2187629318863802
 20
0.2026570267300672
 10
0.2177696854311255
 20
0.2025576550128448
 10
0.2179683347221759
 20
0.2013651862339326
 10
0.2180676602294234
 20
0.1995764817035244
 10
0.2197561783416349
 20
0.1983840129246122
 10
0.2197561783416349
 20
0.1977877771731158
 10
0.2198555038488814
 20
0.1962971905184559
 10
0.2209480740879399
 20
0.1955022113325147
  0
LWPOLYLINE
  5
16C2
330
2
100
AcDbEntity
  8
Profilo
  6
Continuous
370
     0
100
AcDbPolyline
 90
        4
 70
   128
 43
0.0
 10
0.2238284896699001
 20
0.1968934262699523
 10
0.2238284896699001
 20
0.1981852667660869
 10
0.2231332180129442
 20
0.1992783638277767
 10
0.2225372701397912
 20
0.1996758534207468
  0
LWPOLYLINE
  5
16C3
330
2
100
AcDbEntity
  8
Profilo
  6
Continuous
370
     0
100
AcDbPolyline
 90
        3
 70
   128
 43
0.0
 10
0.2227359194308416
 20
0.1971915414216199
 10
0.2213453726700416
 20
0.1990796203933314
 10
0.2204514517220344
 20
0.1998745995792726
  0
LWPOLYLINE
  5
16C4
330
2
100
AcDbEntity
  8
Profilo
  6
Continuous
370
     0
100
AcDbPolyline
 90
        2
 70
   128
 43
0.0
 10
0.2215440219610929
 20
0.1962971905184559
 10
0.2205507755058382
 20
0.1977877771731158
  0
LWPOLYLINE
  5
16C5
330
2
100
AcDbEntity
  8
Profilo
  6
Continuous
370
     0
100
AcDbPolyline
 90
        8
 70
   128
 43
0.0
 10
0.2125590747972772
 20
0.1571917139632933
 10
0.21148453144501
 20
0.1578390463103248
 10
0.2112776212184861
 20
0.1591488462869506
 10
0.2115535024285442
 20
0.1601139626941539
 10
0.2122495675427165
 20
0.1609992216141312
 10
0.2135114104690146
 20
0.1611420020307992
 10
0.2145589772562546
 20
0.1606422671255737
 10
0.2148640633288454
 20
0.1599760889216964
  0
LWPOLYLINE
  5
16C6
330
2
100
AcDbEntity
  8
Profilo
  6
Continuous
370
     0
100
AcDbPolyline
 90
        8
 70
   128
 43
0.0
 10
0.2154556902396913
 20
0.1617753062850958
 10
0.2142381402563573
 20
0.1614732224862958
 10
0.2131656641866157
 20
0.1622530833074938
 10
0.2126783013048816
 20
0.1631306011380958
 10
0.2125445210818382
 20
0.164248766085896
 10
0.2133358177709697
 20
0.1652419847767208
 10
0.2144299252902531
 20
0.1656293604154436
 10
0.2151167128464688
 20
0.165374029720778
  0
LWPOLYLINE
  5
16C7
330
2
100
AcDbEntity
  8
Profilo
  6
Continuous
370
     0
100
AcDbPolyline
 90
        8
 70
   128
 43
0.0
 10
0.2142628174485723
 20
0.1670646119198576
 10
0.2136154851015408
 20
0.1659900685675904
 10
0.2123056851249145
 20
0.1657831583410665
 10
0.2113405687177117
 20
0.1660590395511246
 10
0.2104553097977344
 20
0.1667551046652969
 10
0.2103125293810659
 20
0.1680169475915954
 10
0.210812264286292
 20
0.169064514378835
 10
0.2114784424901692
 20
0.1693696004514263
  0
LWPOLYLINE
  5
16C8
330
2
100
AcDbEntity
  8
Profilo
  6
Continuous
370
     0
100
AcDbPolyline
 90
        8
 70
   128
 43
0.0
 10
0.2096792251267698
 20
0.1699612273622722
 10
0.2099813089255693
 20
0.1687436773789377
 10
0.2092014481043714
 20
0.1676712013091961
 10
0.2083239302737698
 20
0.1671838384274625
 10
0.2072057653259696
 20
0.167050058204419
 10
0.2062125466351448
 20
0.1678413548935505
 10
0.2058251709964221
 20
0.1689354624128339
 10
0.2060805016910876
 20
0.1696222499690492
  0
LWPOLYLINE
  5
16C9
330
2
100
AcDbEntity
  8
Profilo
  6
Continuous
370
     0
100
AcDbPolyline
 90
        8
 70
   128
 43
0.0
 10
0.2043899194920076
 20
0.1687683545711523
 10
0.2054644628442748
 20
0.1681210222241212
 10
0.2056713730707986
 20
0.1668112222474954
 10
0.2053954918607406
 20
0.1658461058402921
 10
0.2046994267465683
 20
0.1649608469203148
 10
0.2034375838202693
 20
0.1648180665036468
 10
0.2023900170330302
 20
0.1653178014088719
 10
0.2020849309604384
 20
0.1659839796127496
  0
LWPOLYLINE
  5
16CA
330
2
100
AcDbEntity
  8
Profilo
  6
Continuous
370
     0
100
AcDbPolyline
 90
        8
 70
   128
 43
0.0
 10
0.2014933040495925
 20
0.1641847622493507
 10
0.2027108540329274
 20
0.1644868460481502
 10
0.203783330102669
 20
0.1637069852269522
 10
0.2042706929844031
 20
0.1628294673963502
 10
0.2044044732074466
 20
0.16171130244855
 10
0.2036131765183151
 20
0.1607180837577252
 10
0.2025190689990317
 20
0.1603307081190029
 10
0.2018322814428159
 20
0.160586038813668
  0
LWPOLYLINE
  5
16CB
330
2
100
AcDbEntity
  8
Profilo
  6
Continuous
370
     0
100
AcDbPolyline
 90
        8
 70
   128
 43
0.0
 10
0.2026861768407124
 20
0.1588954566145884
 10
0.2033335091877439
 20
0.1599699999668556
 10
0.2046433091643693
 20
0.1601769101933795
 10
0.2056084255715731
 20
0.1599010289833214
 10
0.2064936844915504
 20
0.1592049638691491
 10
0.2066364649082188
 20
0.1579431209428506
 10
0.2061367300029928
 20
0.156895554155611
 10
0.2054705517991155
 20
0.1565904680830197
  0
LWPOLYLINE
  5
16CC
330
2
100
AcDbEntity
  8
Profilo
  6
Continuous
370
     0
100
AcDbPolyline
 90
        8
 70
   128
 43
0.0
 10
0.2072697691625149
 20
0.1559988411721738
 10
0.2069676853637155
 20
0.1572163911555083
 10
0.2077475461849134
 20
0.1582888672252499
 10
0.2086250640155149
 20
0.1587762301069835
 10
0.2097432289633161
 20
0.158910010330027
 10
0.21073644765414
 20
0.1581187136408955
 10
0.2111238232928627
 20
0.1570246061216121
 10
0.2108684925981972
 20
0.1563378185653968
  0
CIRCLE
  5
16CD
330
2
100
AcDbEntity
  8
Profilo
  6
Continuous
370
     0
100
AcDbCircle
 10
0.2084744971446424
 20
0.1629800342672232
 30
0.0
 40
0.0111005903035099
  0
CIRCLE
  5
16CE
330
2
100
AcDbEntity
  8
Profilo
  6
Continuous
370
     0
100
AcDbCircle
 10
0.2084744971446424
 20
0.1629800342672232
 30
0.0
 40
0.0091352882377362
  0
DIMENSION
  5
16CF
102
{ACAD_XDICTIONARY
360
16D9
102
}
102
{ACAD_REACTORS
330
16E0
102
}
330
2
100
AcDbEntity
  8
Text
  6
ACAD_ISO10W100
100
AcDbDimension
  2
*D22
 10
0.161295125711201
 20
0.1323504829948756
 30
0.0
 11
0.274098673149772
 21
0.1952431616074293
 31
0.0
 70
    35
  1
d 450 mm
 71
     5
 42
0.1124999999999999
  3
Bovelacci
100
AcDbDiametricDimension
 15
0.2556538685780837
 25
0.1936095855395707
 35
0.0
 40
0.0
1001
ACAD
1000
DSTYLE
1002
{
1070
   288
1070
     1
1002
}
  0
ENDSEC
  0
SECTION
  2
OBJECTS
  0
DICTIONARY
  5
9
330
0
100
AcDbDictionary
281
     1
  3
ACAD_2007HEADERVARS_RT
350
208
  3
ACAD_COLOR
350
184
  3
ACAD_GROUP
350
17F
  3
ACAD_LAYOUT
350
164
  3
ACAD_MATERIAL
350
B
  3
ACAD_MLINESTYLE
350
180
  3
ACAD_PLOTSETTINGS
350
181
  3
ACAD_PLOTSTYLENAME
350
8
  3
ACAD_TABLESTYLE
350
185
  3
ACAD_VISUALSTYLE
350
17A
  3
ACDBHEADERROUNDTRIPXREC
350
16F1
  3
AcDbVariableDictionary
350
18B
  3
DWGPROPS
350
16F0
  0
DICTIONARY
  5
16E
330
16D
100
AcDbDictionary
280
     1
281
     1
  3
ACAD_LAYERSTATES
360
16F
  0
DICTIONARY
  5
3
330
2
100
AcDbDictionary
280
     1
281
     1
  3
ACAD_SORTENTS
360
18A
  0
DICTIONARY
  5
16F2
330
18
100
AcDbDictionary
280
     1
281
     1
  3
ACAD_MTEXT_RT
360
16F3
  0
DICTIONARY
  5
16D9
330
16CF
100
AcDbDictionary
280
     1
281
     1
  3
ACAD_DIMASSOC
360
16E0
  0
DICTIONARY
  5
208
102
{ACAD_REACTORS
330
9
102
}
330
9
100
AcDbDictionary
281
     1
  3
DIMFXL
350
209
  0
DICTIONARY
  5
184
102
{ACAD_REACTORS
330
9
102
}
330
9
100
AcDbDictionary
281
     1
  0
DICTIONARY
  5
17F
102
{ACAD_REACTORS
330
9
102
}
330
9
100
AcDbDictionary
281
     1
  0
DICTIONARY
  5
164
102
{ACAD_REACTORS
330
9
102
}
330
9
100
AcDbDictionary
281
     1
  3
Layout1
350
168
  3
Layout2
350
16C
  3
Model
350
163
  0
DICTIONARY
  5
B
102
{ACAD_REACTORS
330
9
102
}
330
9
100
AcDbDictionary
281
     1
  3
ByBlock
350
183
  3
ByLayer
350
182
  3
Global
350
A
  0
DICTIONARY
  5
180
102
{ACAD_REACTORS
330
9
102
}
330
9
100
AcDbDictionary
281
     1
  3
Standard
350
186
  0
DICTIONARY
  5
181
102
{ACAD_REACTORS
330
9
102
}
330
9
100
AcDbDictionary
281
     1
  0
ACDBDICTIONARYWDFLT
  5
8
102
{ACAD_REACTORS
330
9
102
}
330
9
100
AcDbDictionary
281
     1
  3
Normal
350
7
100
AcDbDictionaryWithDefault
340
7
  0
DICTIONARY
  5
185
102
{ACAD_REACTORS
330
9
102
}
330
9
100
AcDbDictionary
281
     1
  3
Standard
350
187
  0
DICTIONARY
  5
17A
102
{ACAD_REACTORS
330
9
102
}
330
9
100
AcDbDictionary
281
     1
  3
2dWireframe
350
179
  3
3D Hidden
350
1BD
  3
3dWireframe
350
189
  3
Basic
350
1BC
  3
Brighten
350
1C0
  3
ColorChange
350
1C4
  3
Conceptual
350
1BE
  3
Dim
350
1BF
  3
Facepattern
350
1C3
  3
Flat
350
1B8
  3
FlatWithEdges
350
1B9
  3
Gouraud
350
1BA
  3
GouraudWithEdges
350
1BB
  3
Linepattern
350
1C2
  3
Realistic
350
188
  3
Thicken
350
1C1
  0
DICTIONARY
  5
16F1
102
{ACAD_REACTORS
330
9
102
}
330
9
100
AcDbDictionary
281
     1
  0
DICTIONARY
  5
18B
102
{ACAD_REACTORS
330
9
102
}
330
9
100
AcDbDictionary
281
     1
  3
CTABLESTYLE
350
18C
  3
DIMASSOC
350
190
  3
HIDETEXT
350
18F
  3
INDEXCTL
350
18E
  3
PROJECTNAME
350
2F9
  3
SORTENTS
350
18D
  0
XRECORD
  5
16F0
102
{ACAD_REACTORS
330
9
102
}
330
9
100
AcDbXrecord
280
     1
  1
DWGPROPS COOKIE
  2

  3

  4

  6

  7

  8
Mario
  9

300
=
301
=
302
=
303
=
304
=
305
=
306
=
307
=
308
=
309
=
 40
0.1384906712962963
 41
2454297.625402373
 42
2454305.994079317
  1

 90
        0
  0
DICTIONARY
  5
16F
102
{ACAD_REACTORS
330
16E
102
}
330
16E
100
AcDbDictionary
281
     1
  0
SORTENTSTABLE
  5
18A
102
{ACAD_REACTORS
330
3
102
}
330
3
100
AcDbSortentsTable
330
2
331
15
  5
11
331
13
  5
D
331
24
  5
18
331
11
  5
15
331
22
  5
23
331
D
  5
13
331
1E
  5
1F
331
1C
  5
1D
331
18
  5
1C
331
16
  5
12
331
14
  5
10
331
12
  5
16
331
23
  5
24
331
21
  5
22
331
10
  5
14
331
1F
  5
21
331
1D
  5
1E
  0
XRECORD
  5
16F3
102
{ACAD_REACTORS
330
16F2
102
}
330
16F2
100
AcDbXrecord
280
     1
 40
7955300.0
  1
{\fTimes New Roman|b0|i0|c238|p18;\H1.6x;\C4;Bovelacci\P\pt0.09;\H0.4375x;\T0.95;via del Commercio, 5  47100 Forli - Italy  \fTimes New Roman|b0|i0|c0|p18;\P\fTimes New Roman|b0|i0|c238|p18;tel.+39-0543721386  fax +39-0543721127\fTimes New Roman|b0|i
  1
0|c0|p18; \fTimes New Roman|b0|i0|c238|p18;www.bovelacci.it\fTimes New Roman|b0|i0|c0|p18; \fTimes New Roman|b0|i0|c238|p18;e-mail: bovelacci@bovelacci\fTimes New Roman|b0|i0|c0|p18;.it}
  0
DIMASSOC
  5
16E0
102
{ACAD_REACTORS
330
16D9
102
}
330
16D9
100
AcDbDimAssoc
330
16CF
 90
        2
 70
     0
 71
     0
  1
AcDbOsnapPointRef
 72
     3
331
15D5
 73
     2
 91
        0
 40
0.0
 10
0.0
 20
0.0
 30
0.0
 75
     0
  0
XRECORD
  5
209
102
{ACAD_REACTORS
330
208
102
}
330
208
100
AcDbXrecord
280
     1
 40
0.18
  0
LAYOUT
  5
168
102
{ACAD_XDICTIONARY
360
16F6
102
}
102
{ACAD_REACTORS
330
164
102
}
330
164
100
AcDbPlotSettings
  1

  2
C:\Documents and Settings\All Users\Dati applicazioni\Autodesk\ADT 2006\enu\Plotters\Default Windows System Printer.pc3
  4

  6

 40
0.0
 41
0.0
 42
0.0
 43
0.0
 44
0.0
 45
0.0
 46
0.0
 47
0.0
 48
0.0
 49
0.0
140
0.0
141
0.0
142
1.0
143
1.0
 70
   688
 72
     0
 73
     0
 74
     5
  7

 75
    16
147
1.0
148
0.0
149
0.0
100
AcDbLayout
  1
Layout1
 70
     1
 71
     1
 10
0.0
 20
0.0
 11
420.0
 21
297.0
 12
0.0
 22
0.0
 32
0.0
 14
1.000000000000000E+20
 24
1.000000000000000E+20
 34
1.000000000000000E+20
 15
-1.000000000000000E+20
 25
-1.000000000000000E+20
 35
-1.000000000000000E+20
146
0.0
 13
0.0
 23
0.0
 33
0.0
 16
1.0
 26
0.0
 36
0.0
 17
0.0
 27
1.0
 37
0.0
 76
     0
330
165
  0
LAYOUT
  5
16C
102
{ACAD_XDICTIONARY
360
16F8
102
}
102
{ACAD_REACTORS
330
164
102
}
330
164
100
AcDbPlotSettings
  1

  2
C:\Documents and Settings\All Users\Dati applicazioni\Autodesk\ADT 2006\enu\Plotters\Default Windows System Printer.pc3
  4

  6

 40
0.0
 41
0.0
 42
0.0
 43
0.0
 44
0.0
 45
0.0
 46
0.0
 47
0.0
 48
0.0
 49
0.0
140
0.0
141
0.0
142
1.0
143
1.0
 70
   688
 72
     0
 73
     0
 74
     5
  7

 75
    16
147
1.0
148
0.0
149
0.0
100
AcDbLayout
  1
Layout2
 70
     1
 71
     2
 10
0.0
 20
0.0
 11
12.0
 21
9.0
 12
0.0
 22
0.0
 32
0.0
 14
0.0
 24
0.0
 34
0.0
 15
0.0
 25
0.0
 35
0.0
146
0.0
 13
0.0
 23
0.0
 33
0.0
 16
1.0
 26
0.0
 36
0.0
 17
0.0
 27
1.0
 37
0.0
 76
     0
330
169
  0
LAYOUT
  5
163
102
{ACAD_XDICTIONARY
360
16F4
102
}
102
{ACAD_REACTORS
330
164
102
}
330
164
100
AcDbPlotSettings
  1

  2
C:\Documents and Settings\All Users\Dati applicazioni\Autodesk\ADT 2006\enu\Plotters\Default Windows System Printer.pc3
  4

  6

 40
0.0
 41
0.0
 42
0.0
 43
0.0
 44
0.0
 45
0.0
 46
0.0
 47
0.0
 48
0.0
 49
0.0
140
0.0
141
0.0
142
1.0
143
1.0
 70
  1712
 72
     0
 73
     0
 74
     0
  7

 75
     0
147
1.0
148
0.0
149
0.0
100
AcDbLayout
  1
Model
 70
     1
 71
     0
 10
0.0
 20
0.0
 11
12.0
 21
9.0
 12
0.0
 22
0.0
 32
0.0
 14
0.0
 24
0.0
 34
0.0
 15
0.0
 25
0.0
 35
0.0
146
0.0
 13
0.0
 23
0.0
 33
0.0
 16
1.0
 26
0.0
 36
0.0
 17
0.0
 27
1.0
 37
0.0
 76
     0
330
2
  0
MATERIAL
  5
183
102
{ACAD_XDICTIONARY
360
1B0
102
}
102
{ACAD_REACTORS
330
B
102
}
330
B
100
AcDbMaterial
  1
ByBlock
  0
MATERIAL
  5
182
102
{ACAD_XDICTIONARY
360
1AE
102
}
102
{ACAD_REACTORS
330
B
102
}
330
B
100
AcDbMaterial
  1
ByLayer
  0
MATERIAL
  5
A
102
{ACAD_XDICTIONARY
360
193
102
}
102
{ACAD_REACTORS
330
B
102
}
330
B
100
AcDbMaterial
  1
Global
  0
MLINESTYLE
  5
186
102
{ACAD_REACTORS
330
180
102
}
330
180
100
AcDbMlineStyle
  2
STANDARD
 70
     0
  3

 62
   256
 51
90.0
 52
90.0
 71
     2
 49
0.5
 62
   256
  6
BYLAYER
 49
-0.5
 62
   256
  6
BYLAYER
  0
ACDBPLACEHOLDER
  5
7
102
{ACAD_REACTORS
330
8
102
}
330
8
  0
TABLESTYLE
  5
187
102
{ACAD_XDICTIONARY
360
21A
102
}
102
{ACAD_REACTORS
330
185
102
}
330
185
100
AcDbTableStyle
  3
Standard
 70
     0
 71
     0
 40
1.5
 41
1.5
280
     0
281
     0
  7
Standard
140
4.5
170
     2
 62
     0
 63
     7
283
     0
274
    -2
284
     1
 64
     0
275
    -2
285
     1
 65
     0
276
    -2
286
     1
 66
     0
277
    -2
287
     1
 67
     0
278
    -2
288
     1
 68
     0
279
    -2
289
     1
 69
     0
  7
Standard
140
6.0
170
     5
 62
     0
 63
     7
283
     0
274
    -2
284
     1
 64
     0
275
    -2
285
     1
 65
     0
276
    -2
286
     1
 66
     0
277
    -2
287
     1
 67
     0
278
    -2
288
     1
 68
     0
279
    -2
289
     1
 69
     0
  7
Standard
140
4.5
170
     5
 62
     0
 63
     7
283
     0
274
    -2
284
     1
 64
     0
275
    -2
285
     1
 65
     0
276
    -2
286
     1
 66
     0
277
    -2
287
     1
 67
     0
278
    -2
288
     1
 68
     0
279
    -2
289
     1
 69
     0
  0
VISUALSTYLE
  5
179
102
{ACAD_REACTORS
330
17A
102
}
330
17A
100
AcDbVisualStyle
  2
2dWireframe
 70
     4
 71
     0
 72
     2
 73
     0
 90
        0
 40
-0.6
 41
-30.0
 62
     5
 63
     7
 74
     1
 91
        4
 64
     7
 65
   257
 75
     1
175
     1
 42
1.0
 92
        0
 66
   257
 43
1.0
 76
     1
 77
     6
 78
     2
 67
     7
 79
     5
170
     0
171
     0
290
     0
174
     0
 93
        1
 44
0.0
173
     0
291
     0
 45
0.0
1001
ACAD
1000
AcDbSavedByObjectVersion
1070
     0
1000
AcDbSavedByObjectVersion
1070
     0
1000
AcDbSavedByObjectVersion
1070
     0
1001
ACAD
1000
AcRTDxfName
1000
VISUALSTYLE
  0
VISUALSTYLE
  5
1BD
102
{ACAD_REACTORS
330
17A
102
}
330
17A
100
AcDbVisualStyle
  2
3D Hidden
 70
     6
 71
     1
 72
     2
 73
     2
 90
        0
 40
-0.6
 41
-30.0
 62
     5
 63
     7
 74
     2
 91
        2
 64
     7
 65
   257
 75
     2
175
     1
 42
40.0
 92
        0
 66
   257
 43
1.0
 76
     1
 77
     6
 78
     2
 67
     7
 79
     3
170
     0
171
     0
290
     0
174
     0
 93
        1
 44
0.0
173
     0
291
     0
 45
0.0
1001
ACAD
1000
AcDbSavedByObjectVersion
1070
     0
1000
AcDbSavedByObjectVersion
1070
     0
1001
ACAD
1000
AcRTDxfName
1000
VISUALSTYLE
  0
VISUALSTYLE
  5
189
102
{ACAD_REACTORS
330
17A
102
}
330
17A
100
AcDbVisualStyle
  2
3dWireframe
 70
     5
 71
     0
 72
     2
 73
     0
 90
        0
 40
-0.6
 41
-30.0
 62
     5
 63
     7
 74
     1
 91
        4
 64
     7
 65
   257
 75
     1
175
     1
 42
1.0
 92
        0
 66
   257
 43
1.0
 76
     1
 77
     6
 78
     2
 67
     7
 79
     5
170
     0
171
     0
290
     0
174
     0
 93
        1
 44
0.0
173
     0
291
     0
 45
0.0
1001
ACAD
1000
AcDbSavedByObjectVersion
1070
     0
1000
AcDbSavedByObjectVersion
1070
     0
1000
AcDbSavedByObjectVersion
1070
     0
1001
ACAD
1000
AcRTDxfName
1000
VISUALSTYLE
  0
VISUALSTYLE
  5
1BC
102
{ACAD_REACTORS
330
17A
102
}
330
17A
100
AcDbVisualStyle
  2
Basic
 70
     7
 71
     1
 72
     0
 73
     1
 90
        0
 40
-0.6
 41
-30.0
 62
     5
 63
     7
 74
     0
 91
        4
 64
     7
 65
   257
 75
     1
175
     1
 42
1.0
 92
        8
 66
     7
 43
1.0
 76
     1
 77
     6
 78
     2
 67
     7
 79
     5
170
     0
171
     0
290
     0
174
     0
 93
        1
 44
0.0
173
     0
291
     1
 45
0.0
1001
ACAD
1000
AcDbSavedByObjectVersion
1070
     0
1000
AcDbSavedByObjectVersion
1070
     0
1001
ACAD
1000
AcRTDxfName
1000
VISUALSTYLE
  0
VISUALSTYLE
  5
1C0
102
{ACAD_REACTORS
330
17A
102
}
330
17A
100
AcDbVisualStyle
  2
Brighten
 70
    12
 71
     2
 72
     2
 73
     0
 90
        0
 40
-0.6
 41
-30.0
 62
     5
 63
     7
 74
     1
 91
        4
 64
     7
 65
   257
 75
     1
175
     1
 42
1.0
 92
        8
 66
     7
 43
1.0
 76
     1
 77
     6
 78
     2
 67
     7
 79
     5
170
     0
171
     0
290
     0
174
     0
 93
        1
 44
50.0
173
     0
291
     1
 45
0.0
1001
ACAD
1000
AcDbSavedByObjectVersion
1070
     0
1000
AcDbSavedByObjectVersion
1070
     0
1001
ACAD
1000
AcRTDxfName
1000
VISUALSTYLE
  0
VISUALSTYLE
  5
1C4
102
{ACAD_REACTORS
330
17A
102
}
330
17A
100
AcDbVisualStyle
  2
ColorChange
 70
    16
 71
     2
 72
     2
 73
     3
 90
        0
 40
-0.6
 41
-30.0
 62
     5
 63
     8
 74
     1
 91
        4
 64
     7
 65
   257
 75
     1
175
     1
 42
1.0
 92
        8
 66
     8
 43
1.0
 76
     1
 77
     6
 78
     2
 67
     7
 79
     5
170
     0
171
     0
290
     0
174
     0
 93
        1
 44
0.0
173
     0
291
     1
 45
0.0
1001
ACAD
1000
AcDbSavedByObjectVersion
1070
     0
1000
AcDbSavedByObjectVersion
1070
     0
1001
ACAD
1000
AcRTDxfName
1000
VISUALSTYLE
  0
VISUALSTYLE
  5
1BE
102
{ACAD_REACTORS
330
17A
102
}
330
17A
100
AcDbVisualStyle
  2
Conceptual
 70
     9
 71
     3
 72
     2
 73
     0
 90
        0
 40
-0.6
 41
-30.0
 62
     5
 63
     7
 74
     2
 91
        2
 64
     7
 65
   257
 75
     1
175
     1
 42
40.0
 92
        8
 66
     7
 43
1.0
 76
     1
 77
     6
 78
     2
 67
     7
 79
     3
170
     0
171
     0
290
     0
174
     0
 93
        1
 44
0.0
173
     0
291
     0
 45
0.0
1001
ACAD
1000
AcDbSavedByObjectVersion
1070
     0
1000
AcDbSavedByObjectVersion
1070
     0
1001
ACAD
1000
AcRTDxfName
1000
VISUALSTYLE
  0
VISUALSTYLE
  5
1BF
102
{ACAD_REACTORS
330
17A
102
}
330
17A
100
AcDbVisualStyle
  2
Dim
 70
    11
 71
     2
 72
     2
 73
     0
 90
        0
 40
-0.6
 41
-30.0
 62
     5
 63
     7
 74
     1
 91
        4
 64
     7
 65
   257
 75
     1
175
     1
 42
1.0
 92
        8
 66
     7
 43
1.0
 76
     1
 77
     6
 78
     2
 67
     7
 79
     5
170
     0
171
     0
290
     0
174
     0
 93
        1
 44
-50.0
173
     0
291
     1
 45
0.0
1001
ACAD
1000
AcDbSavedByObjectVersion
1070
     0
1000
AcDbSavedByObjectVersion
1070
     0
1001
ACAD
1000
AcRTDxfName
1000
VISUALSTYLE
  0
VISUALSTYLE
  5
1C3
102
{ACAD_REACTORS
330
17A
102
}
330
17A
100
AcDbVisualStyle
  2
Facepattern
 70
    15
 71
     2
 72
     2
 73
     0
 90
        0
 40
-0.6
 41
-30.0
 62
     5
 63
     7
 74
     1
 91
        4
 64
     7
 65
   257
 75
     1
175
     1
 42
1.0
 92
        8
 66
     7
 43
1.0
 76
     1
 77
     6
 78
     2
 67
     7
 79
     5
170
     0
171
     0
290
     0
174
     0
 93
        1
 44
0.0
173
     0
291
     1
 45
0.0
1001
ACAD
1000
AcDbSavedByObjectVersion
1070
     0
1000
AcDbSavedByObjectVersion
1070
     0
1001
ACAD
1000
AcRTDxfName
1000
VISUALSTYLE
  0
VISUALSTYLE
  5
1B8
102
{ACAD_REACTORS
330
17A
102
}
330
17A
100
AcDbVisualStyle
  2
Flat
 70
     0
 71
     2
 72
     1
 73
     1
 90
        2
 40
-0.6
 41
30.0
 62
     5
 63
     7
 74
     0
 91
        4
 64
     7
 65
   257
 75
     1
175
     1
 42
1.0
 92
        8
 66
     7
 43
1.0
 76
     1
 77
     6
 78
     2
 67
     7
 79
     5
170
     0
171
     0
290
     0
174
     0
 93
       13
 44
0.0
173
     0
291
     1
 45
0.0
1001
ACAD
1000
AcDbSavedByObjectVersion
1070
     0
1000
AcDbSavedByObjectVersion
1070
     0
1001
ACAD
1000
AcRTDxfName
1000
VISUALSTYLE
  0
VISUALSTYLE
  5
1B9
102
{ACAD_REACTORS
330
17A
102
}
330
17A
100
AcDbVisualStyle
  2
FlatWithEdges
 70
     1
 71
     2
 72
     1
 73
     1
 90
        2
 40
-0.6
 41
30.0
 62
     5
 63
     7
 74
     1
 91
        4
 64
     7
 65
   257
 75
     1
175
     1
 42
1.0
 92
        0
 66
   257
 43
1.0
 76
     1
 77
     6
 78
     2
 67
     7
 79
     5
170
     0
171
     0
290
     0
174
     0
 93
       13
 44
0.0
173
     0
291
     1
 45
0.0
1001
ACAD
1000
AcDbSavedByObjectVersion
1070
     0
1000
AcDbSavedByObjectVersion
1070
     0
1001
ACAD
1000
AcRTDxfName
1000
VISUALSTYLE
  0
VISUALSTYLE
  5
1BA
102
{ACAD_REACTORS
330
17A
102
}
330
17A
100
AcDbVisualStyle
  2
Gouraud
 70
     2
 71
     2
 72
     2
 73
     1
 90
        2
 40
-0.6
 41
30.0
 62
     5
 63
     7
 74
     0
 91
        4
 64
     7
 65
   257
 75
     1
175
     1
 42
1.0
 92
        0
 66
     7
 43
1.0
 76
     1
 77
     6
 78
     2
 67
     7
 79
     5
170
     0
171
     0
290
     0
174
     0
 93
       13
 44
0.0
173
     0
291
     1
 45
0.0
1001
ACAD
1000
AcDbSavedByObjectVersion
1070
     0
1000
AcDbSavedByObjectVersion
1070
     0
1001
ACAD
1000
AcRTDxfName
1000
VISUALSTYLE
  0
VISUALSTYLE
  5
1BB
102
{ACAD_REACTORS
330
17A
102
}
330
17A
100
AcDbVisualStyle
  2
GouraudWithEdges
 70
     3
 71
     2
 72
     2
 73
     1
 90
        2
 40
-0.6
 41
30.0
 62
     5
 63
     7
 74
     1
 91
        4
 64
     7
 65
   257
 75
     1
175
     1
 42
1.0
 92
        0
 66
   257
 43
1.0
 76
     1
 77
     6
 78
     2
 67
     7
 79
     5
170
     0
171
     0
290
     0
174
     0
 93
       13
 44
0.0
173
     0
291
     1
 45
0.0
1001
ACAD
1000
AcDbSavedByObjectVersion
1070
     0
1000
AcDbSavedByObjectVersion
1070
     0
1001
ACAD
1000
AcRTDxfName
1000
VISUALSTYLE
  0
VISUALSTYLE
  5
1C2
102
{ACAD_REACTORS
330
17A
102
}
330
17A
100
AcDbVisualStyle
  2
Linepattern
 70
    14
 71
     2
 72
     2
 73
     0
 90
        0
 40
-0.6
 41
-30.0
 62
     5
 63
     7
 74
     1
 91
        4
 64
     7
 65
   257
 75
     7
175
     7
 42
1.0
 92
        8
 66
     7
 43
1.0
 76
     1
 77
     6
 78
     2
 67
     7
 79
     5
170
     0
171
     0
290
     0
174
     0
 93
        1
 44
0.0
173
     0
291
     1
 45
0.0
1001
ACAD
1000
AcDbSavedByObjectVersion
1070
     0
1000
AcDbSavedByObjectVersion
1070
     0
1001
ACAD
1000
AcRTDxfName
1000
VISUALSTYLE
  0
VISUALSTYLE
  5
188
102
{ACAD_REACTORS
330
17A
102
}
330
17A
100
AcDbVisualStyle
  2
Realistic
 70
     8
 71
     2
 72
     2
 73
     0
 90
        0
 40
-0.6
 41
-30.0
 62
     5
 63
     7
 74
     1
 91
        0
 64
     7
 65
   257
 75
     1
175
     1
 42
1.0
 92
        8
 66
     8
 43
1.0
 76
     1
 77
     6
 78
     2
 67
     7
 79
     5
170
     0
171
     0
290
     0
174
     0
 93
       13
 44
0.0
173
     0
291
     0
 45
0.0
1001
ACAD
1000
AcDbSavedByObjectVersion
1070
     0
1000
AcDbSavedByObjectVersion
1070
     0
1000
AcDbSavedByObjectVersion
1070
     0
1001
ACAD
1000
AcRTDxfName
1000
VISUALSTYLE
  0
VISUALSTYLE
  5
1C1
102
{ACAD_REACTORS
330
17A
102
}
330
17A
100
AcDbVisualStyle
  2
Thicken
 70
    13
 71
     2
 72
     2
 73
     0
 90
        0
 40
-0.6
 41
-30.0
 62
     5
 63
     7
 74
     1
 91
        4
 64
     7
 65
   257
 75
     1
175
     1
 42
1.0
 92
       12
 66
     7
 43
1.0
 76
     1
 77
     6
 78
     2
 67
     7
 79
     5
170
     0
171
     0
290
     0
174
     0
 93
        1
 44
0.0
173
     0
291
     1
 45
0.0
1001
ACAD
1000
AcDbSavedByObjectVersion
1070
     0
1000
AcDbSavedByObjectVersion
1070
     0
1001
ACAD
1000
AcRTDxfName
1000
VISUALSTYLE
  0
DICTIONARYVAR
  5
18C
102
{ACAD_REACTORS
330
18B
102
}
330
18B
100
DictionaryVariables
280
     0
  1
STANDARD
  0
DICTIONARYVAR
  5
190
102
{ACAD_REACTORS
330
18B
102
}
330
18B
100
DictionaryVariables
280
     0
  1
2
  0
DICTIONARYVAR
  5
18F
102
{ACAD_REACTORS
330
18B
102
}
330
18B
100
DictionaryVariables
280
     0
  1
1
  0
DICTIONARYVAR
  5
18E
102
{ACAD_REACTORS
330
18B
102
}
330
18B
100
DictionaryVariables
280
     0
  1
0
  0
DICTIONARYVAR
  5
2F9
102
{ACAD_REACTORS
330
18B
102
}
330
18B
100
DictionaryVariables
280
     0
  1

  0
DICTIONARYVAR
  5
18D
102
{ACAD_REACTORS
330
18B
102
}
330
18B
100
DictionaryVariables
280
     0
  1
127
  0
DICTIONARY
  5
16F6
330
168
100
AcDbDictionary
280
     1
281
     1
  3
ACAD_XREC_ROUNDTRIP
360
16F7
  0
DICTIONARY
  5
16F8
330
16C
100
AcDbDictionary
280
     1
281
     1
  3
ACAD_XREC_ROUNDTRIP
360
16F9
  0
DICTIONARY
  5
16F4
330
163
100
AcDbDictionary
280
     1
281
     1
  3
ACAD_XREC_ROUNDTRIP
360
16F5
  0
DICTIONARY
  5
1B0
330
183
100
AcDbDictionary
280
     1
281
     1
  3
ACAD_XREC_ROUNDTRIP
360
1B1
  0
DICTIONARY
  5
1AE
330
182
100
AcDbDictionary
280
     1
281
     1
  3
ACAD_XREC_ROUNDTRIP
360
1AF
  0
DICTIONARY
  5
193
330
A
100
AcDbDictionary
280
     1
281
     1
  3
ACAD_XREC_ROUNDTRIP
360
194
  0
DICTIONARY
  5
21A
330
187
100
AcDbDictionary
280
     1
281
     1
  3
ACAD_XREC_ROUNDTRIP
360
21B
  0
XRECORD
  5
16F7
102
{ACAD_REACTORS
330
16F6
102
}
330
16F6
100
AcDbXrecord
280
     1
102
SHADEPLOT
 70
     0
102
SHADEPLOTRESLEVEL
 70
     2
102
SHADEPLOTCUSTOMDPI
 70
   300
  0
XRECORD
  5
16F9
102
{ACAD_REACTORS
330
16F8
102
}
330
16F8
100
AcDbXrecord
280
     1
102
SHADEPLOT
 70
     0
102
SHADEPLOTRESLEVEL
 70
     2
102
SHADEPLOTCUSTOMDPI
 70
   300
  0
XRECORD
  5
16F5
102
{ACAD_REACTORS
330
16F4
102
}
330
16F4
100
AcDbXrecord
280
     1
102
SHADEPLOT
 70
     0
102
SHADEPLOTRESLEVEL
 70
     2
102
SHADEPLOTCUSTOMDPI
 70
   300
  0
XRECORD
  5
1B1
102
{ACAD_REACTORS
330
1B0
102
}
330
1B0
100
AcDbXrecord
280
     1
102
MATERIAL
148
0.0
149
0.0
149
0.0
 93
        0
 94
       63
282
     0
 72
     1
 77
     1
171
     1
175
     1
179
     1
273
     0
  0
XRECORD
  5
1AF
102
{ACAD_REACTORS
330
1AE
102
}
330
1AE
100
AcDbXrecord
280
     1
102
MATERIAL
148
0.0
149
0.0
149
0.0
 93
        0
 94
       63
282
     0
 72
     1
 77
     1
171
     1
175
     1
179
     1
273
     0
  0
XRECORD
  5
194
102
{ACAD_REACTORS
330
193
102
}
330
193
100
AcDbXrecord
280
     1
102
MATERIAL
148
0.0
149
0.0
149
0.0
 93
        0
 94
       63
282
     0
 72
     1
 77
     1
171
     1
175
     1
179
     1
273
     0
  0
XRECORD
  5
21B
102
{ACAD_REACTORS
330
21A
102
}
330
21A
100
AcDbXrecord
280
     1
102
ACAD_ROUNDTRIP_PRE2007_TABLESTYLE
 90
        4
 91
        0
  1

 92
        4
 93
        0
  2

 94
        4
 95
        0
  3

  0
ENDSEC
  0
EOF
