  0
SECTION
  2
HEADER
  9
$ACADVER
  1
AC1015
  9
$ACADMAINTVER
 70
    20
  9
$DWGCODEPAGE
  3
ANSI_1252
  9
$INSBASE
 10
0.0
 20
0.0
 30
0.0
  9
$EXTMIN
 10
0.0149999999999999
 20
0.015
 30
0.0
  9
$EXTMAX
 10
0.6907629201835047
 20
0.282
 30
0.0
  9
$LIMMIN
 10
0.0
 20
0.0
  9
$LIMMAX
 10
1.0
 20
0.5
  9
$ORTHOMODE
 70
     0
  9
$REGENMODE
 70
     1
  9
$FILLMODE
 70
     1
  9
$QTEXTMODE
 70
     0
  9
$MIRRTEXT
 70
     0
  9
$LTSCALE
 40
1.0
  9
$ATTMODE
 70
     1
  9
$TEXTSIZE
 40
0.008
  9
$TRACEWID
 40
1.0
  9
$TEXTSTYLE
  7
style1
  9
$CLAYER
  8
Text
  9
$CELTYPE
  6
ACAD_ISO10W100
  9
$CECOLOR
 62
   256
  9
$CELTSCALE
 40
1.0
  9
$DISPSILH
 70
     0
  9
$DIMSCALE
 40
0.001
  9
$DIMASZ
 40
1.5
  9
$DIMEXO
 40
0.0625
  9
$DIMDLI
 40
0.38
  9
$DIMRND
 40
0.0
  9
$DIMDLE
 40
0.0
  9
$DIMEXE
 40
0.18
  9
$DIMTP
 40
0.0
  9
$DIMTM
 40
0.0
  9
$DIMTXT
 40
3.0
  9
$DIMCEN
 40
0.0
  9
$DIMTSZ
 40
0.0
  9
$DIMTOL
 70
     0
  9
$DIMLIM
 70
     0
  9
$DIMTIH
 70
     1
  9
$DIMTOH
 70
     1
  9
$DIMSE1
 70
     0
  9
$DIMSE2
 70
     0
  9
$DIMTAD
 70
     0
  9
$DIMZIN
 70
     0
  9
$DIMBLK
  1
ArchTick
  9
$DIMASO
 70
     1
  9
$DIMSHO
 70
     1
  9
$DIMPOST
  1

  9
$DIMAPOST
  1

  9
$DIMALT
 70
     0
  9
$DIMALTD
 70
     2
  9
$DIMALTF
 40
25.4
  9
$DIMLFAC
 40
1.0
  9
$DIMTOFL
 70
     0
  9
$DIMTVP
 40
0.0
  9
$DIMTIX
 70
     0
  9
$DIMSOXD
 70
     0
  9
$DIMSAH
 70
     0
  9
$DIMBLK1
  1

  9
$DIMBLK2
  1

  9
$DIMSTYLE
  2
Bovelacci
  9
$DIMCLRD
 70
     5
  9
$DIMCLRE
 70
     5
  9
$DIMCLRT
 70
     4
  9
$DIMTFAC
 40
1.0
  9
$DIMGAP
 40
2.0
  9
$DIMJUST
 70
     0
  9
$DIMSD1
 70
     0
  9
$DIMSD2
 70
     0
  9
$DIMTOLJ
 70
     1
  9
$DIMTZIN
 70
     0
  9
$DIMALTZ
 70
     0
  9
$DIMALTTZ
 70
     0
  9
$DIMUPT
 70
     0
  9
$DIMDEC
 70
     2
  9
$DIMTDEC
 70
     2
  9
$DIMALTU
 70
     2
  9
$DIMALTTD
 70
     2
  9
$DIMTXSTY
  7
ROMANS
  9
$DIMAUNIT
 70
     0
  9
$DIMADEC
 70
     0
  9
$DIMALTRND
 40
0.0
  9
$DIMAZIN
 70
     0
  9
$DIMDSEP
 70
    46
  9
$DIMATFIT
 70
     3
  9
$DIMFRAC
 70
     0
  9
$DIMLDRBLK
  1

  9
$DIMLUNIT
 70
     2
  9
$DIMLWD
 70
    -2
  9
$DIMLWE
 70
    -2
  9
$DIMTMOVE
 70
     2
  9
$LUNITS
 70
     2
  9
$LUPREC
 70
     2
  9
$SKETCHINC
 40
1.0
  9
$FILLETRAD
 40
0.0
  9
$AUNITS
 70
     0
  9
$AUPREC
 70
     0
  9
$MENU
  1
.
  9
$ELEVATION
 40
0.0
  9
$PELEVATION
 40
0.0
  9
$THICKNESS
 40
0.0
  9
$LIMCHECK
 70
     0
  9
$CHAMFERA
 40
0.0
  9
$CHAMFERB
 40
0.0
  9
$CHAMFERC
 40
0.0
  9
$CHAMFERD
 40
0.0
  9
$SKPOLY
 70
     0
  9
$TDCREATE
 40
2454297.625402373
  9
$TDUCREATE
 40
2454297.542069039
  9
$TDUPDATE
 40
2454306.010687025
  9
$TDUUPDATE
 40
2454305.927353692
  9
$TDINDWG
 40
0.0772253009
  9
$TDUSRTIMER
 40
0.0772232986
  9
$USRTIMER
 70
     1
  9
$ANGBASE
 50
0.0
  9
$ANGDIR
 70
     0
  9
$PDMODE
 70
     0
  9
$PDSIZE
 40
0.0
  9
$PLINEWID
 40
0.0
  9
$SPLFRAME
 70
     0
  9
$SPLINETYPE
 70
     6
  9
$SPLINESEGS
 70
     8
  9
$HANDSEED
  5
329
  9
$SURFTAB1
 70
     6
  9
$SURFTAB2
 70
     6
  9
$SURFTYPE
 70
     6
  9
$SURFU
 70
     6
  9
$SURFV
 70
     6
  9
$UCSBASE
  2

  9
$UCSNAME
  2

  9
$UCSORG
 10
0.0
 20
0.0
 30
0.0
  9
$UCSXDIR
 10
1.0
 20
0.0
 30
0.0
  9
$UCSYDIR
 10
0.0
 20
1.0
 30
0.0
  9
$UCSORTHOREF
  2

  9
$UCSORTHOVIEW
 70
     0
  9
$UCSORGTOP
 10
0.0
 20
0.0
 30
0.0
  9
$UCSORGBOTTOM
 10
0.0
 20
0.0
 30
0.0
  9
$UCSORGLEFT
 10
0.0
 20
0.0
 30
0.0
  9
$UCSORGRIGHT
 10
0.0
 20
0.0
 30
0.0
  9
$UCSORGFRONT
 10
0.0
 20
0.0
 30
0.0
  9
$UCSORGBACK
 10
0.0
 20
0.0
 30
0.0
  9
$PUCSBASE
  2

  9
$PUCSNAME
  2

  9
$PUCSORG
 10
0.0
 20
0.0
 30
0.0
  9
$PUCSXDIR
 10
1.0
 20
0.0
 30
0.0
  9
$PUCSYDIR
 10
0.0
 20
1.0
 30
0.0
  9
$PUCSORTHOREF
  2

  9
$PUCSORTHOVIEW
 70
     0
  9
$PUCSORGTOP
 10
0.0
 20
0.0
 30
0.0
  9
$PUCSORGBOTTOM
 10
0.0
 20
0.0
 30
0.0
  9
$PUCSORGLEFT
 10
0.0
 20
0.0
 30
0.0
  9
$PUCSORGRIGHT
 10
0.0
 20
0.0
 30
0.0
  9
$PUCSORGFRONT
 10
0.0
 20
0.0
 30
0.0
  9
$PUCSORGBACK
 10
0.0
 20
0.0
 30
0.0
  9
$USERI1
 70
     0
  9
$USERI2
 70
     0
  9
$USERI3
 70
     0
  9
$USERI4
 70
     0
  9
$USERI5
 70
     0
  9
$USERR1
 40
0.0
  9
$USERR2
 40
0.0
  9
$USERR3
 40
0.0
  9
$USERR4
 40
0.0
  9
$USERR5
 40
0.0
  9
$WORLDVIEW
 70
     1
  9
$SHADEDGE
 70
     3
  9
$SHADEDIF
 70
    70
  9
$TILEMODE
 70
     1
  9
$MAXACTVP
 70
    64
  9
$PINSBASE
 10
0.0
 20
0.0
 30
0.0
  9
$PLIMCHECK
 70
     0
  9
$PEXTMIN
 10
1.000000000000000E+20
 20
1.000000000000000E+20
 30
1.000000000000000E+20
  9
$PEXTMAX
 10
-1.000000000000000E+20
 20
-1.000000000000000E+20
 30
-1.000000000000000E+20
  9
$PLIMMIN
 10
0.0
 20
0.0
  9
$PLIMMAX
 10
420.0
 20
297.0
  9
$UNITMODE
 70
     0
  9
$VISRETAIN
 70
     1
  9
$PLINEGEN
 70
     0
  9
$PSLTSCALE
 70
     1
  9
$TREEDEPTH
 70
  3020
  9
$CMLSTYLE
  2
Standard
  9
$CMLJUST
 70
     0
  9
$CMLSCALE
 40
20.0
  9
$PROXYGRAPHICS
 70
     1
  9
$MEASUREMENT
 70
     1
  9
$CELWEIGHT
370
    -1
  9
$ENDCAPS
280
     0
  9
$JOINSTYLE
280
     0
  9
$LWDISPLAY
290
     0
  9
$INSUNITS
 70
     4
  9
$HYPERLINKBASE
  1

  9
$STYLESHEET
  1

  9
$XEDIT
290
     1
  9
$CEPSNTYPE
380
     0
  9
$PSTYLEMODE
290
     1
  9
$FINGERPRINTGUID
  2
{904A8C64-524F-4709-A9C6-320D2C273A6D}
  9
$VERSIONGUID
  2
{F6E4C0A2-0924-4BE4-A552-62F96048EF71}
  9
$EXTNAMES
290
     1
  9
$PSVPSCALE
 40
0.0
  9
$OLESTARTUP
290
     0
  0
ENDSEC
  0
SECTION
  2
CLASSES
  0
CLASS
  1
ACDBDICTIONARYWDFLT
  2
AcDbDictionaryWithDefault
  3
ObjectDBX Classes
 90
        0
280
     0
281
     0
  0
CLASS
  1
TABLESTYLE
  2
AcDbTableStyle
  3
ObjectDBX Classes
 90
     2047
280
     0
281
     0
  0
CLASS
  1
SORTENTSTABLE
  2
AcDbSortentsTable
  3
ObjectDBX Classes
 90
        0
280
     0
281
     0
  0
CLASS
  1
DICTIONARYVAR
  2
AcDbDictionaryVar
  3
ObjectDBX Classes
 90
        0
280
     0
281
     0
  0
CLASS
  1
ACDBPLACEHOLDER
  2
AcDbPlaceHolder
  3
ObjectDBX Classes
 90
        0
280
     0
281
     0
  0
CLASS
  1
LAYOUT
  2
AcDbLayout
  3
ObjectDBX Classes
 90
        0
280
     0
281
     0
  0
CLASS
  1
DIMASSOC
  2
AcDbDimAssoc
  3
"AcDbDimAssoc|Product Desc:     AcDim ARX App For Dimension|Company:          Autodesk, Inc.|WEB Address:      www.autodesk.com"
 90
        0
280
     0
281
     0
  0
CLASS
  1
MATERIAL
  2
AcDbMaterial
  3
ObjectDBX Classes
 90
        0
280
     0
281
     0
  0
CLASS
  1
VISUALSTYLE
  2
AcDbVisualStyle
  3
ObjectDBX Classes
 90
     4095
280
     0
281
     0
  0
ENDSEC
  0
SECTION
  2
TABLES
  0
TABLE
  2
VPORT
  5
177
330
0
100
AcDbSymbolTable
 70
     3
  0
VPORT
  5
31E
330
177
100
AcDbSymbolTableRecord
100
AcDbViewportTableRecord
  2
*Active
 70
     0
 10
0.0
 20
0.0
 11
1.0
 21
1.0
 12
0.2047847929951629
 22
0.147017661218329
 13
0.0
 23
0.0
 14
10.0
 24
10.0
 15
10.0
 25
10.0
 16
0.0
 26
0.0
 36
1.0
 17
0.0
 27
0.0
 37
0.0
 40
0.2805500621696667
 41
1.546526867627784
 42
50.0
 43
0.0
 44
0.0
 50
0.0
 51
0.0
 71
     0
 72
  1000
 73
     1
 74
     3
 75
     0
 76
     0
 77
     0
 78
     0
281
     0
 65
     1
110
0.0
120
0.0
130
0.0
111
1.0
121
0.0
131
0.0
112
0.0
122
1.0
132
0.0
 79
     0
146
0.0
  0
ENDTAB
  0
TABLE
  2
LTYPE
  5
172
330
0
100
AcDbSymbolTable
 70
     3
  0
LTYPE
  5
173
330
172
100
AcDbSymbolTableRecord
100
AcDbLinetypeTableRecord
  2
ByBlock
 70
     0
  3

 72
    65
 73
     0
 40
0.0
  0
LTYPE
  5
174
330
172
100
AcDbSymbolTableRecord
100
AcDbLinetypeTableRecord
  2
ByLayer
 70
     0
  3

 72
    65
 73
     0
 40
0.0
  0
LTYPE
  5
C
330
172
100
AcDbSymbolTableRecord
100
AcDbLinetypeTableRecord
  2
Continuous
 70
     0
  3
Solid line
 72
    65
 73
     0
 40
0.0
  0
LTYPE
  5
14E
330
172
100
AcDbSymbolTableRecord
100
AcDbLinetypeTableRecord
  2
ACAD_ISO10W100
 70
     0
  3
ISO dash dot __ . __ . __ . __ . __ . __ . __ .
 72
    65
 73
     4
 40
18.0
 49
12.0
 74
     0
 49
-3.0
 74
     0
 49
0.0
 74
     0
 49
-3.0
 74
     0
  0
ENDTAB
  0
TABLE
  2
LAYER
  5
16D
102
{ACAD_XDICTIONARY
360
16E
102
}
330
0
100
AcDbSymbolTable
 70
     7
  0
LAYER
  5
6
330
16D
100
AcDbSymbolTableRecord
100
AcDbLayerTableRecord
  2
0
 70
     0
 62
     7
  6
Continuous
370
    -3
390
7
  0
LAYER
  5
15F
330
16D
100
AcDbSymbolTableRecord
100
AcDbLayerTableRecord
  2
Defpoints
 70
     0
 62
     7
  6
Continuous
290
     0
370
    -3
390
7
  0
LAYER
  5
28
330
16D
100
AcDbSymbolTableRecord
100
AcDbLayerTableRecord
  2
Profilo
 70
     0
 62
     1
  6
Continuous
370
    -3
390
7
1001
AcAecLayerStandard
1000

1000

  0
LAYER
  5
14D
330
16D
100
AcDbSymbolTableRecord
100
AcDbLayerTableRecord
  2
Sezione
 70
     0
 62
     2
  6
Continuous
370
    -3
390
7
1001
AcAecLayerStandard
1000

1000

  0
LAYER
  5
E
330
16D
100
AcDbSymbolTableRecord
100
AcDbLayerTableRecord
  2
Table
 70
     0
 62
     3
  6
Continuous
370
    -3
390
7
1001
AcAecLayerStandard
1000

1000

  0
LAYER
  5
19
330
16D
100
AcDbSymbolTableRecord
100
AcDbLayerTableRecord
  2
Text
 70
     0
 62
     4
  6
Continuous
370
    -3
390
7
1001
AcAecLayerStandard
1000

1000

  0
LAYER
  5
256
330
16D
100
AcDbSymbolTableRecord
100
AcDbLayerTableRecord
  2
Bovelacci
 70
     0
 62
     9
  6
Continuous
370
    -3
390
7
1001
AcAecLayerStandard
1000

1000

  0
ENDTAB
  0
TABLE
  2
STYLE
  5
170
330
0
100
AcDbSymbolTable
 70
     3
  0
STYLE
  5
1A
330
170
100
AcDbSymbolTableRecord
100
AcDbTextStyleTableRecord
  2
Standard
 70
     0
 40
0.0
 41
1.0
 50
0.0
 71
     0
 42
2.5
  3
txt
  4

  0
STYLE
  5
20
330
170
100
AcDbSymbolTableRecord
100
AcDbTextStyleTableRecord
  2
ROMANS
 70
     0
 40
0.0
 41
1.0
 50
0.0
 71
     0
 42
2.5
  3
romans
  4

  0
STYLE
  5
26
330
170
100
AcDbSymbolTableRecord
100
AcDbTextStyleTableRecord
  2
style1
 70
     0
 40
0.0
 41
1.0
 50
0.0
 71
     0
 42
0.008
  3
TIMES.TTF
  4

1001
ACAD
1000
Times New Roman
1071
       18
  0
ENDTAB
  0
TABLE
  2
VIEW
  5
175
330
0
100
AcDbSymbolTable
 70
     1
  0
ENDTAB
  0
TABLE
  2
UCS
  5
176
330
0
100
AcDbSymbolTable
 70
     0
  0
ENDTAB
  0
TABLE
  2
APPID
  5
17B
330
0
100
AcDbSymbolTable
 70
    10
  0
APPID
  5
1B
330
17B
100
AcDbSymbolTableRecord
100
AcDbRegAppTableRecord
  2
ACAD
 70
     0
  0
APPID
  5
157
330
17B
100
AcDbSymbolTableRecord
100
AcDbRegAppTableRecord
  2
ACAD_DSTYLE_DIMJOGGED_JOGANGLE_SYMBOL
 70
     0
  0
APPID
  5
F
330
17B
100
AcDbSymbolTableRecord
100
AcDbRegAppTableRecord
  2
AcAecLayerStandard
 70
     0
  0
APPID
  5
19C
330
17B
100
AcDbSymbolTableRecord
100
AcDbRegAppTableRecord
  2
ACAD_DSTYLE_DIMFLIPARROW_WHICH_SYMBOL
 70
     0
  0
APPID
  5
1A7
330
17B
100
AcDbSymbolTableRecord
100
AcDbRegAppTableRecord
  2
ACAD_DSTYLE_DIMEXT_LENGTH
 70
     0
  0
APPID
  5
1D2
330
17B
100
AcDbSymbolTableRecord
100
AcDbRegAppTableRecord
  2
ACAD_EXEMPT_FROM_CAD_STANDARDS
 70
     0
  0
APPID
  5
1D3
330
17B
100
AcDbSymbolTableRecord
100
AcDbRegAppTableRecord
  2
ACAD_DSTYLE_DIM_LINETYPE
 70
     0
  0
APPID
  5
1D4
330
17B
100
AcDbSymbolTableRecord
100
AcDbRegAppTableRecord
  2
ACAD_DSTYLE_DIM_EXT1_LINETYPE
 70
     0
  0
APPID
  5
1D5
330
17B
100
AcDbSymbolTableRecord
100
AcDbRegAppTableRecord
  2
ACAD_DSTYLE_DIM_EXT2_LINETYPE
 70
     0
  0
APPID
  5
25C
330
17B
100
AcDbSymbolTableRecord
100
AcDbRegAppTableRecord
  2
ACAD_PSEXT
 70
     0
  0
ENDTAB
  0
TABLE
  2
DIMSTYLE
  5
17C
330
0
100
AcDbSymbolTable
 70
     8
100
AcDbDimStyleTable
 71
     2
340
156
340
17D
  0
DIMSTYLE
105
17D
330
17C
100
AcDbSymbolTableRecord
100
AcDbDimStyleTableRecord
  2
ISO-25
 70
     0
 41
2.5
 42
0.625
 43
3.75
 44
1.25
 73
     0
 74
     0
 77
     1
 78
     8
140
2.5
141
2.5
143
0.03937007874016
147
0.625
171
     3
172
     1
271
     2
272
     2
274
     3
278
    44
283
     0
284
     8
340
1A
  0
DIMSTYLE
105
156
102
{ACAD_REACTORS
330
2FD
102
}
330
17C
100
AcDbSymbolTableRecord
100
AcDbDimStyleTableRecord
  2
Bovelacci
 70
     0
 40
0.001
 41
1.5
140
3.0
141
0.0
147
2.0
176
     5
177
     5
178
     4
271
     2
272
     2
279
     2
340
20
342
152
1001
ACAD_DSTYLE_DIMJOGGED_JOGANGLE_SYMBOL
1070
   384
1040
0.7853981633974483
1001
ACAD_DSTYLE_DIMEXT_LENGTH
1070
   378
1040
0.18
  0
DIMSTYLE
105
257
330
17C
100
AcDbSymbolTableRecord
100
AcDbDimStyleTableRecord
  2
Dim 1-100
 70
     0
 40
0.1
 41
1.5
 42
0.0
 43
5.0
 44
1.25
 45
0.005
 46
1.25
 73
     0
 74
     0
 77
     1
 78
     9
140
2.0
141
2.5
147
1.0
172
     1
174
     1
179
     2
279
     2
289
     2
340
20
342
152
  0
DIMSTYLE
105
258
330
17C
100
AcDbSymbolTableRecord
100
AcDbDimStyleTableRecord
  2
Standard
 70
     0
 42
0.0
 73
     0
 74
     0
 77
     1
271
     2
272
     2
340
20
  0
DIMSTYLE
105
259
330
17C
100
AcDbSymbolTableRecord
100
AcDbDimStyleTableRecord
  2
Dim 1-50
 70
     0
 40
0.05
 41
1.5
 42
0.0
 43
5.0
 44
1.25
 45
0.005
 46
1.25
 73
     0
 74
     0
 77
     1
 78
     9
140
2.0
141
2.5
147
1.0
172
     1
174
     1
179
     2
279
     2
289
     2
340
20
342
152
  0
DIMSTYLE
105
25A
330
17C
100
AcDbSymbolTableRecord
100
AcDbDimStyleTableRecord
  2
Dim 1-200
 70
     0
 40
0.2
 41
1.5
 42
0.0
 43
5.0
 44
1.25
 45
0.005
 46
1.25
 73
     0
 74
     0
 77
     1
 78
     9
140
2.0
141
2.5
147
1.0
172
     1
174
     1
179
     2
271
     2
272
     2
279
     2
289
     2
340
20
342
152
  0
DIMSTYLE
105
25B
330
17C
100
AcDbSymbolTableRecord
100
AcDbDimStyleTableRecord
  2
AEC Scale - Italiano
 70
     0
 41
1.0
 42
10.0
 43
10.0
 44
10.0
 73
     0
 74
     0
 75
     1
 76
     1
 77
     1
140
10.0
141
1.0
147
10.0
173
     1
271
     0
272
     0
279
     2
340
1A
343
251
344
24B
  0
ENDTAB
  0
TABLE
  2
BLOCK_RECORD
  5
1
330
0
100
AcDbSymbolTable
 70
     8
  0
BLOCK_RECORD
  5
2
102
{ACAD_XDICTIONARY
360
3
102
}
330
1
100
AcDbSymbolTableRecord
100
AcDbBlockTableRecord
  2
*Model_Space
340
163
  0
BLOCK_RECORD
  5
165
330
1
100
AcDbSymbolTableRecord
100
AcDbBlockTableRecord
  2
*Paper_Space
340
168
  0
BLOCK_RECORD
  5
169
330
1
100
AcDbSymbolTableRecord
100
AcDbBlockTableRecord
  2
*Paper_Space0
340
16C
  0
BLOCK_RECORD
  5
152
330
1
100
AcDbSymbolTableRecord
100
AcDbBlockTableRecord
  2
_ArchTick
340
0
310
2800000020000000200000000100080000000000000400000000000000000000000000000000000000000000000080000080000000808000800000008000800080800000C0C0C000C0DCC000F0CAA6000020400000206000002080000020A0000020C0000020E00000400000004020000040400000406000004080000040A0
310
000040C0000040E00000600000006020000060400000606000006080000060A0000060C0000060E00000800000008020000080400000806000008080000080A0000080C0000080E00000A0000000A0200000A0400000A0600000A0800000A0A00000A0C00000A0E00000C0000000C0200000C0400000C0600000C0800000C0
310
A00000C0C00000C0E00000E0000000E0200000E0400000E0600000E0800000E0A00000E0C00000E0E00040000000400020004000400040006000400080004000A0004000C0004000E00040200000402020004020400040206000402080004020A0004020C0004020E000404000004040200040404000404060004040800040
310
40A0004040C0004040E00040600000406020004060400040606000406080004060A0004060C0004060E00040800000408020004080400040806000408080004080A0004080C0004080E00040A0000040A0200040A0400040A0600040A0800040A0A00040A0C00040A0E00040C0000040C0200040C0400040C0600040C08000
310
40C0A00040C0C00040C0E00040E0000040E0200040E0400040E0600040E0800040E0A00040E0C00040E0E00080000000800020008000400080006000800080008000A0008000C0008000E00080200000802020008020400080206000802080008020A0008020C0008020E00080400000804020008040400080406000804080
310
008040A0008040C0008040E00080600000806020008060400080606000806080008060A0008060C0008060E00080800000808020008080400080806000808080008080A0008080C0008080E00080A0000080A0200080A0400080A0600080A0800080A0A00080A0C00080A0E00080C0000080C0200080C0400080C0600080C0
310
800080C0A00080C0C00080C0E00080E0000080E0200080E0400080E0600080E0800080E0A00080E0C00080E0E000C0000000C0002000C0004000C0006000C0008000C000A000C000C000C000E000C0200000C0202000C0204000C0206000C0208000C020A000C020C000C020E000C0400000C0402000C0404000C0406000C0
310
408000C040A000C040C000C040E000C0600000C0602000C0604000C0606000C0608000C060A000C060C000C060E000C0800000C0802000C0804000C0806000C0808000C080A000C080C000C080E000C0A00000C0A02000C0A04000C0A06000C0A08000C0A0A000C0A0C000C0A0E000C0C00000C0C02000C0C04000C0C06000
310
C0C08000C0C0A000F0FBFF00A4A0A000808080000000FF0000FF000000FFFF00FF000000FF00FF00FFFF0000FFFFFF00000000FF000000000000000000000000000000000000000000000000000000000000FF00FF00000000000000000000000000000000000000000000000000000000FF000000FF000000000000000000
310
0000000000000000000000000000000000FF0000000000FF0000000000000000000000000000000000000000000000000000FF0000000000FF0000000000000000000000000000000000000000000000000000FF0000000000FF0000000000000000000000000000000000000000000000000000FF0000000000FF00000000
310
00000000000000000000000000000000000000000000FF0000000000FF0000000000000000000000000000000000000000000000000000FF0000000000FF0000000000000000000000000000000000000000000000000000FF0000000000FF0000000000000000000000000000000000000000000000000000FF0000000000
310
FF0000000000000000000000000000000000000000000000000000FF0000000000FF0000000000000000000000000000000000000000000000000000FF0000000000FF0000000000000000000000000000000000000000000000000000FF0000000000FF0000000000000000000000000000000000000000000000000000FF
310
0000000000FF0000000000000000000000000000000000000000000000000000FF0000000000FF0000000000000000000000000000000000000000000000000000FF0000000000FF0000000000000000000000000000000000000000000000000000FF0000000000FF00000000000000000000000000000000000000000000
310
00000000FF0000000000FF0000000000000000000000000000000000000000000000000000FF0000000000FF0000000000000000000000000000000000000000000000000000FF0000000000FF0000000000000000000000000000000000000000000000000000FF0000000000FF0000000000000000000000000000000000
310
000000000000000000FF0000000000FF0000000000000000000000000000000000000000000000000000FF0000000000FF0000000000000000000000000000000000000000000000000000FF0000000000FF0000000000000000000000000000000000000000000000000000FF0000000000FF000000000000000000000000
310
0000000000000000000000000000FF0000000000FF0000000000000000000000000000000000000000000000000000FF0000000000FF0000000000000000000000000000000000000000000000000000FF0000000000FF0000000000000000000000000000000000000000000000000000FF000000FF000000000000000000
310
00000000000000000000000000000000000000FF00FF000000000000000000000000000000000000000000000000000000000000FF000000
102
{BLKREFS
331
15D
331
211
331
318
102
}
  0
BLOCK_RECORD
  5
19E
330
1
100
AcDbSymbolTableRecord
100
AcDbBlockTableRecord
  2
*D2
340
0
  0
BLOCK_RECORD
  5
24B
330
1
100
AcDbSymbolTableRecord
100
AcDbBlockTableRecord
  2
_Arrivo
340
0
310
2800000020000000200000000100080000000000000400000000000000000000000000000000000000000000000080000080000000808000800000008000800080800000C0C0C000C0DCC000F0CAA6000020400000206000002080000020A0000020C0000020E00000400000004020000040400000406000004080000040A0
310
000040C0000040E00000600000006020000060400000606000006080000060A0000060C0000060E00000800000008020000080400000806000008080000080A0000080C0000080E00000A0000000A0200000A0400000A0600000A0800000A0A00000A0C00000A0E00000C0000000C0200000C0400000C0600000C0800000C0
310
A00000C0C00000C0E00000E0000000E0200000E0400000E0600000E0800000E0A00000E0C00000E0E00040000000400020004000400040006000400080004000A0004000C0004000E00040200000402020004020400040206000402080004020A0004020C0004020E000404000004040200040404000404060004040800040
310
40A0004040C0004040E00040600000406020004060400040606000406080004060A0004060C0004060E00040800000408020004080400040806000408080004080A0004080C0004080E00040A0000040A0200040A0400040A0600040A0800040A0A00040A0C00040A0E00040C0000040C0200040C0400040C0600040C08000
310
40C0A00040C0C00040C0E00040E0000040E0200040E0400040E0600040E0800040E0A00040E0C00040E0E00080000000800020008000400080006000800080008000A0008000C0008000E00080200000802020008020400080206000802080008020A0008020C0008020E00080400000804020008040400080406000804080
310
008040A0008040C0008040E00080600000806020008060400080606000806080008060A0008060C0008060E00080800000808020008080400080806000808080008080A0008080C0008080E00080A0000080A0200080A0400080A0600080A0800080A0A00080A0C00080A0E00080C0000080C0200080C0400080C0600080C0
310
800080C0A00080C0C00080C0E00080E0000080E0200080E0400080E0600080E0800080E0A00080E0C00080E0E000C0000000C0002000C0004000C0006000C0008000C000A000C000C000C000E000C0200000C0202000C0204000C0206000C0208000C020A000C020C000C020E000C0400000C0402000C0404000C0406000C0
310
408000C040A000C040C000C040E000C0600000C0602000C0604000C0606000C0608000C060A000C060C000C060E000C0800000C0802000C0804000C0806000C0808000C080A000C080C000C080E000C0A00000C0A02000C0A04000C0A06000C0A08000C0A0A000C0A0C000C0A0E000C0C00000C0C02000C0C04000C0C06000
310
C0C08000C0C0A000F0FBFF00A4A0A000808080000000FF0000FF000000FFFF00FF000000FF00FF00FFFF0000FFFFFF00000000000000000000000000000000000000000000000000000000000000000000000000000000000000FF0000000000000000000000000000000000000000000000000000000000000000FF000000
310
00000000000000000000000000000000000000000000000000000000FF0000000000000000000000000000000000000000000000000000000000000000FF00000000000000000000000000000000000000000000000000000000000000FF0000000000000000000000000000000000000000000000000000000000000000FF
310
0000000000000000000000000000000000000000000000000000000000000000FF00000000000000000000000000000000000000000000000000000000000000FF0000000000000000000000000000000000000000000000000000000000000000FF0000000000000000000000000000000000000000000000000000000000
310
0000FF0000000000000000000000000000000000000000000000000000000000000000FF00000000000000000000000000000000000000000000000000000000000000FF0000000000000000000000000000000000000000000000000000000000000000FF0000FF0000000000000000000000000000000000000000000000
310
000000000000FFFF000000000000000000000000000000000000000000000000000000000000FFFF00000000000000000000000000000000000000000000000000000000FFFFFFFFFFFF00000000000000000000000000000000000000000000000000000000FFFF0000000000000000000000000000000000000000000000
310
000000000000FF0000FF000000000000000000000000000000000000000000000000000000FF00000000000000000000000000000000000000000000000000000000000000FF000000000000000000000000000000000000000000000000000000000000FF0000000000000000000000000000000000000000000000000000
310
0000000000FF000000000000000000000000000000000000000000000000000000000000FF00000000000000000000000000000000000000000000000000000000000000FF000000000000000000000000000000000000000000000000000000000000FF000000000000000000000000000000000000000000000000000000
310
000000FF00000000000000000000000000000000000000000000000000000000000000FF000000000000000000000000000000000000000000000000000000000000FF00000000000000000000000000000000000000000000000000000000000000FF00000000000000000000000000000000000000000000000000000000
310
0000FF0000000000000000000000000000000000000000000000000000000000000000000000000000000000000000000000000000000000
  0
BLOCK_RECORD
  5
251
330
1
100
AcDbSymbolTableRecord
100
AcDbBlockTableRecord
  2
_Partenza
340
0
310
2800000020000000200000000100080000000000000400000000000000000000000000000000000000000000000080000080000000808000800000008000800080800000C0C0C000C0DCC000F0CAA6000020400000206000002080000020A0000020C0000020E00000400000004020000040400000406000004080000040A0
310
000040C0000040E00000600000006020000060400000606000006080000060A0000060C0000060E00000800000008020000080400000806000008080000080A0000080C0000080E00000A0000000A0200000A0400000A0600000A0800000A0A00000A0C00000A0E00000C0000000C0200000C0400000C0600000C0800000C0
310
A00000C0C00000C0E00000E0000000E0200000E0400000E0600000E0800000E0A00000E0C00000E0E00040000000400020004000400040006000400080004000A0004000C0004000E00040200000402020004020400040206000402080004020A0004020C0004020E000404000004040200040404000404060004040800040
310
40A0004040C0004040E00040600000406020004060400040606000406080004060A0004060C0004060E00040800000408020004080400040806000408080004080A0004080C0004080E00040A0000040A0200040A0400040A0600040A0800040A0A00040A0C00040A0E00040C0000040C0200040C0400040C0600040C08000
310
40C0A00040C0C00040C0E00040E0000040E0200040E0400040E0600040E0800040E0A00040E0C00040E0E00080000000800020008000400080006000800080008000A0008000C0008000E00080200000802020008020400080206000802080008020A0008020C0008020E00080400000804020008040400080406000804080
310
008040A0008040C0008040E00080600000806020008060400080606000806080008060A0008060C0008060E00080800000808020008080400080806000808080008080A0008080C0008080E00080A0000080A0200080A0400080A0600080A0800080A0A00080A0C00080A0E00080C0000080C0200080C0400080C0600080C0
310
800080C0A00080C0C00080C0E00080E0000080E0200080E0400080E0600080E0800080E0A00080E0C00080E0E000C0000000C0002000C0004000C0006000C0008000C000A000C000C000C000E000C0200000C0202000C0204000C0206000C0208000C020A000C020C000C020E000C0400000C0402000C0404000C0406000C0
310
408000C040A000C040C000C040E000C0600000C0602000C0604000C0606000C0608000C060A000C060C000C060E000C0800000C0802000C0804000C0806000C0808000C080A000C080C000C080E000C0A00000C0A02000C0A04000C0A06000C0A08000C0A0A000C0A0C000C0A0E000C0C00000C0C02000C0C04000C0C06000
310
C0C08000C0C0A000F0FBFF00A4A0A000808080000000FF0000FF000000FFFF00FF000000FF00FF00FFFF0000FFFFFF0000000000000000000000000000000000000000000000000000000000000000000000000000000000000000000000000000000000000000000000000000000000000000000000000000000000000000
310
000000000000000000000000000000000000000000000000000000000000000000000000000000000000000000000000000000000000000000000000000000000000000000000000000000000000000000000000000000000000000000000000000000000000000000000000000000000000FFFFFFFFFFFFFFFFFFFFFFFFFF
310
FFFFFFFFFFFFFFFFFFFFFFFFFFFFFFFFFF0000000000000000000000000000000000000000000000000000000000000000000000000000000000000000000000000000000000000000000000000000000000000000000000000000000000000000000000000000000000000000000000000000000000000000000000000000
310
00000000000000000000000000000000000000000000000000000000000000000000000000000000000000000000000000000000000000000000000000000000000000000000000000000000000000000000000000000000000000000000000000000000000000000000000000000000000000000000000000000000000000
310
00000000000000000000000000000000000000000000000000000000000000000000000000000000000000000000000000000000000000000000000000000000000000000000000000000000000000000000000000000000000000000000000000000000000000000000000000000000000000000000000000000000000000
310
00000000000000000000000000000000000000000000000000000000000000000000000000000000000000000000000000000000000000000000000000000000000000000000000000000000000000000000000000000000000000000000000000000000000000000000000000000000000000000000000000000000000000
310
000000000000000000000000000000000000000000000000000000000000000000000000000000000000000000000000000000000000000000000000000000000000000000000000000000000000000000000000000000FFFFFFFFFFFFFFFFFFFFFFFFFFFFFFFFFFFFFFFFFFFFFFFFFFFFFFFFFFFF00000000000000000000
310
00000000000000000000000000000000000000000000000000000000000000000000000000000000000000000000000000000000000000000000000000000000000000000000000000000000000000000000000000000000000000000000000000000000000000000000000000000000000000000000000000000000000000
310
0000000000000000000000000000000000000000000000000000000000000000000000000000000000000000000000000000000000000000
  0
BLOCK_RECORD
  5
2FE
330
1
100
AcDbSymbolTableRecord
100
AcDbBlockTableRecord
  2
*D7
340
0
  0
ENDTAB
  0
ENDSEC
  0
SECTION
  2
BLOCKS
  0
BLOCK
  5
5
330
2
100
AcDbEntity
  8
0
100
AcDbBlockBegin
  2
*Model_Space
 70
     0
 10
0.0
 20
0.0
 30
0.0
  3
*Model_Space
  1

  0
ENDBLK
  5
162
330
2
100
AcDbEntity
  8
0
100
AcDbBlockEnd
  0
BLOCK
  5
166
330
165
100
AcDbEntity
 67
     1
  8
0
100
AcDbBlockBegin
  2
*Paper_Space
 70
     0
 10
0.0
 20
0.0
 30
0.0
  3
*Paper_Space
  1

  0
ENDBLK
  5
167
330
165
100
AcDbEntity
 67
     1
  8
0
100
AcDbBlockEnd
  0
BLOCK
  5
16A
330
169
100
AcDbEntity
 67
     1
  8
0
100
AcDbBlockBegin
  2
*Paper_Space0
 70
     0
 10
0.0
 20
0.0
 30
0.0
  3
*Paper_Space0
  1

  0
ENDBLK
  5
16B
330
169
100
AcDbEntity
 67
     1
  8
0
100
AcDbBlockEnd
  0
BLOCK
  5
153
330
152
100
AcDbEntity
  8
0
 62
     1
100
AcDbBlockBegin
  2
_ArchTick
 70
     0
 10
0.0
 20
0.0
 30
0.0
  3
_ArchTick
  1

  0
LWPOLYLINE
  5
154
330
152
100
AcDbEntity
  8
0
  6
ByBlock
 62
     0
100
AcDbPolyline
 90
        2
 70
     0
 43
0.15
 10
-0.5
 20
-0.5
 10
0.5
 20
0.5
  0
ENDBLK
  5
155
330
152
100
AcDbEntity
  8
0
 62
     1
100
AcDbBlockEnd
  0
BLOCK
  5
1A5
330
19E
100
AcDbEntity
  8
0
100
AcDbBlockBegin
  2
*D2
 70
     1
 10
0.0
 20
0.0
 30
0.0
  3
*D2
  1

  0
LINE
  5
20E
330
19E
100
AcDbEntity
  8
Sezione
  6
ACAD_ISO10W100
 62
     5
370
    -2
100
AcDbLine
 10
0.2798037962738808
 20
0.1903534367689069
 30
0.0
 11
0.2529466534167379
 21
0.190353436768907
 31
0.0
  0
LINE
  5
20F
330
19E
100
AcDbEntity
  8
Sezione
  6
ACAD_ISO10W100
 62
     5
370
    -2
100
AcDbLine
 10
0.2529466534167379
 20
0.190353436768907
 30
0.0
 11
0.2507223528394369
 21
0.1883403577983203
 31
0.0
  0
MTEXT
  5
210
330
19E
100
AcDbEntity
  8
Sezione
  6
ACAD_ISO10W100
 62
     4
100
AcDbMText
 10
0.2673752248453093
 20
0.193853436768907
 30
0.0
 40
0.003
 41
0.0
 71
     5
 72
     1
  1
\A1;d 410 mm
  7
ROMANS
 73
     1
 44
1.0
1001
ACAD
1000
MTEXTBEGIN
1070
    73
1070
     1
1070
    44
1040
1.0
1070
    74
1070
     0
1000
MTEXTEND
  0
INSERT
  5
211
330
19E
100
AcDbEntity
  8
Sezione
  6
ACAD_ISO10W100
 62
     5
370
    -2
100
AcDbBlockReference
  2
_ArchTick
 10
0.2507223528394369
 20
0.1883403577983203
 30
0.0
 41
0.0015
 42
0.0015
 43
0.0015
 50
312.1463264419372
  0
POINT
  5
212
330
19E
100
AcDbEntity
  8
Defpoints
  6
ACAD_ISO10W100
 62
     0
100
AcDbPoint
 10
0.2507223528394369
 20
0.1883403577983203
 30
0.0
  0
POINT
  5
213
330
19E
100
AcDbEntity
  8
Defpoints
  6
ACAD_ISO10W100
 62
     0
100
AcDbPoint
 10
0.1747785735100222
 20
0.1196082688553671
 30
0.0
  0
ENDBLK
  5
1A6
330
19E
100
AcDbEntity
  8
0
100
AcDbBlockEnd
  0
BLOCK
  5
24C
330
24B
100
AcDbEntity
  8
0
100
AcDbBlockBegin
  2
_Arrivo
 70
     0
 10
0.0
 20
0.0
 30
0.0
  3
_Arrivo
  1

  0
LINE
  5
24D
330
24B
100
AcDbEntity
  8
0
  6
ByBlock
 62
     0
370
    -2
100
AcDbLine
 10
0.025
 20
-0.0433012701891858
 30
0.0
 11
-0.15
 21
0.2598076211353328
 31
0.0
  0
LINE
  5
24E
330
24B
100
AcDbEntity
  8
0
  6
ByBlock
 62
     0
370
    -2
100
AcDbLine
 10
0.025
 20
0.0433012701892585
 30
0.0
 11
-0.15
 21
-0.2598076211353328
 31
0.0
  0
LINE
  5
24F
330
24B
100
AcDbEntity
  8
0
  6
ByBlock
 62
     0
370
    -2
100
AcDbLine
 10
-0.05
 20
0.0
 30
0.0
 11
0.05
 21
0.0
 31
0.0
  0
ENDBLK
  5
250
330
24B
100
AcDbEntity
  8
0
100
AcDbBlockEnd
  0
BLOCK
  5
252
330
251
100
AcDbEntity
  8
0
100
AcDbBlockBegin
  2
_Partenza
 70
     0
 10
0.0
 20
0.0
 30
0.0
  3
_Partenza
  1

  0
LINE
  5
253
330
251
100
AcDbEntity
  8
0
  6
ByBlock
 62
     0
370
    -2
100
AcDbLine
 10
-0.05
 20
0.05
 30
0.0
 11
0.1
 21
0.05
 31
0.0
  0
LINE
  5
254
330
251
100
AcDbEntity
  8
0
  6
ByBlock
 62
     0
370
    -2
100
AcDbLine
 10
-0.05
 20
-0.05
 30
0.0
 11
0.1
 21
-0.05
 31
0.0
  0
ENDBLK
  5
255
330
251
100
AcDbEntity
  8
0
100
AcDbBlockEnd
  0
BLOCK
  5
305
330
2FE
100
AcDbEntity
  8
0
100
AcDbBlockBegin
  2
*D7
 70
     1
 10
0.0
 20
0.0
 30
0.0
  3
*D7
  1

  0
LINE
  5
315
330
2FE
100
AcDbEntity
  8
Text
  6
ACAD_ISO10W100
 62
     5
370
    -2
100
AcDbLine
 10
0.2815301135083527
 20
0.1950550445874022
 30
0.0
 11
0.2800301135083527
 21
0.1950550445874022
 31
0.0
  0
LINE
  5
316
330
2FE
100
AcDbEntity
  8
Text
  6
ACAD_ISO10W100
 62
     5
370
    -2
100
AcDbLine
 10
0.2800301135083527
 20
0.1950550445874022
 30
0.0
 11
0.2774233514293517
 21
0.1935701905664688
 31
0.0
  0
MTEXT
  5
317
330
2FE
100
AcDbEntity
  8
Text
  6
ACAD_ISO10W100
 62
     4
100
AcDbMText
 10
0.2959586849369241
 20
0.1950550445874023
 30
0.0
 40
0.003
 41
0.0
 71
     5
 72
     1
  1
\A1;d 155 mm
  7
ROMANS
 73
     1
 44
1.0
1001
ACAD
1000
MTEXTBEGIN
1070
    73
1070
     1
1070
    44
1040
1.0
1070
    74
1070
     0
1000
MTEXTEND
  0
INSERT
  5
318
330
2FE
100
AcDbEntity
  8
Text
  6
ACAD_ISO10W100
 62
     5
370
    -2
100
AcDbBlockReference
  2
_ArchTick
 10
0.2774233514293517
 20
0.1935701905664688
 30
0.0
 41
0.0015
 42
0.0015
 43
0.0015
 50
209.6665417139984
  0
POINT
  5
319
330
2FE
100
AcDbEntity
  8
Defpoints
  6
ACAD_ISO10W100
 62
     0
100
AcDbPoint
 10
0.2774233514293517
 20
0.1935701905664688
 30
0.0
  0
POINT
  5
31A
330
2FE
100
AcDbEntity
  8
Defpoints
  6
ACAD_ISO10W100
 62
     0
100
AcDbPoint
 10
0.1427406440142999
 20
0.1168527328182384
 30
0.0
  0
ENDBLK
  5
306
330
2FE
100
AcDbEntity
  8
0
100
AcDbBlockEnd
  0
ENDSEC
  0
SECTION
  2
ENTITIES
  0
LINE
  5
D
330
2
100
AcDbEntity
  8
Table
100
AcDbLine
 10
0.02
 20
0.02
 30
0.0
 11
0.4
 21
0.02
 31
0.0
  0
LINE
  5
10
330
2
100
AcDbEntity
  8
Table
100
AcDbLine
 10
0.4
 20
0.02
 30
0.0
 11
0.4
 21
0.2769999999999999
 31
0.0
  0
LINE
  5
11
330
2
100
AcDbEntity
  8
Table
100
AcDbLine
 10
0.4
 20
0.2769999999999999
 30
0.0
 11
0.02
 21
0.277
 31
0.0
  0
LINE
  5
12
330
2
100
AcDbEntity
  8
Table
100
AcDbLine
 10
0.02
 20
0.277
 30
0.0
 11
0.02
 21
0.02
 31
0.0
  0
LINE
  5
13
330
2
100
AcDbEntity
  8
Table
 62
     2
100
AcDbLine
 10
0.015
 20
0.015
 30
0.0
 11
0.4050000000000001
 21
0.015
 31
0.0
  0
LINE
  5
14
330
2
100
AcDbEntity
  8
Table
 62
     2
100
AcDbLine
 10
0.4050000000000001
 20
0.015
 30
0.0
 11
0.4050000000000001
 21
0.2819999999999998
 31
0.0
  0
LINE
  5
15
330
2
100
AcDbEntity
  8
Table
 62
     2
100
AcDbLine
 10
0.4050000000000001
 20
0.2819999999999998
 30
0.0
 11
0.0149999999999999
 21
0.282
 31
0.0
  0
LINE
  5
16
330
2
100
AcDbEntity
  8
Table
 62
     2
100
AcDbLine
 10
0.0149999999999999
 20
0.282
 30
0.0
 11
0.015
 21
0.015
 31
0.0
  0
LINE
  5
17
330
2
100
AcDbEntity
  8
Table
100
AcDbLine
 10
0.21
 20
0.2769999999999999
 30
0.0
 11
0.21
 21
0.2532994226089223
 31
0.0
  0
MTEXT
  5
18
102
{ACAD_XDICTIONARY
360
321
102
}
330
2
100
AcDbEntity
  8
Text
100
AcDbMText
 10
0.305
 20
0.0471738284815141
 30
0.0
 40
0.005
 41
0.1900000000000001
 71
     2
 72
     5
  3
{\fTimes New Roman|b0|i0|c238|p18;\H1.6x;\C4;Bovelacci\P\H0.4375x;\T0.95;via del Commercio, 5  47100 Forli - Italy  \fTimes New Roman|b0|i0|c0|p18;\P\fTimes New Roman|b0|i0|c238|p18;tel.+39-0543721386  fax +39-0543721127\fTimes New Roman|b0|i0|c0|p18
  1
; \fTimes New Roman|b0|i0|c238|p18;www.bovelacci.it\fTimes New Roman|b0|i0|c0|p18; \fTimes New Roman|b0|i0|c238|p18;e-mail: bovelacci@bovelacci\fTimes New Roman|b0|i0|c0|p18;.it}
 73
     1
 44
1.0
1001
ACAD
1000
ACAD_MTEXT_DEFINED_HEIGHT_BEGIN
1070
    46
1040
0.0271738284815141
1000
ACAD_MTEXT_DEFINED_HEIGHT_END
1000
MTEXTBEGIN
1070
    73
1070
     1
1070
    44
1040
1.0
1070
    74
1070
     0
1000
MTEXTEND
  0
MTEXT
  5
1C
330
2
100
AcDbEntity
  8
Text
100
AcDbMText
 10
0.0219676065851835
 20
0.0500313976452307
 30
0.0
 40
0.002
 41
0.1863544980601608
 71
     1
 72
     5
  3
{\fArial|b0|i0|c0|p34;\H1.25x;Le caratteristiche tecniche indicate vengono fornite a titolo indicativo e potranno essere modificate senza preavviso. Non devono quindi essere considerate a scopo di specifica.\P\fArial|b0|i1|c0|p34;The given values are
  3
 indicative and can be changed without notice. They cannot be considered like a state.\PThis lealfet and designs embodied within are protected by copyright law and international treaties. Unauthorized repro- duction of the leaflet or any portion of i
  1
t or reproduction of any of the designs embodied therein may result in severe civil penalties and will be prosecuted to the maximum.\PAll right reserved, Bovelacci Forlì Italy.}
 73
     1
 44
1.0
1001
ACAD
1000
MTEXTBEGIN
1070
    73
1070
     1
1070
    44
1040
1.0
1070
    74
1070
     0
1000
MTEXTEND
  0
LINE
  5
1D
330
2
100
AcDbEntity
  8
Table
100
AcDbLine
 10
0.02
 20
0.0528099428524846
 30
0.0
 11
0.4
 21
0.0528099428524846
 31
0.0
  0
MTEXT
  5
1E
330
2
100
AcDbEntity
  8
Text
100
AcDbMText
 10
0.1133313047219695
 20
0.2610796890771976
 30
0.0
 40
0.003
 41
0.1103605678262056
 71
     2
 72
     5
  1
{\fTimes New Roman|b0|i0|c0|p18;Rosoni\fTimes New Roman|b0|i1|c0|p18;   Ceiling centres}
 73
     1
 44
1.0
1001
ACAD
1000
ACAD_MTEXT_DEFINED_HEIGHT_BEGIN
1070
    46
1040
0.0141952763113409
1000
ACAD_MTEXT_DEFINED_HEIGHT_END
1000
MTEXTBEGIN
1070
    73
1070
     1
1070
    44
1040
1.0
1070
    74
1070
     0
1000
MTEXTEND
  0
TEXT
  5
1F
330
2
100
AcDbEntity
  8
Text
100
AcDbText
 10
0.2180556919891047
 20
0.269976982173197
 30
0.0
 40
0.003
  1
Rosone - Ceiling centre : D 155 mm
  7
ROMANS
100
AcDbText
  0
TEXT
  5
21
330
2
100
AcDbEntity
  8
Text
100
AcDbText
 10
0.2184542410678115
 20
0.2576348370183962
 30
0.0
 40
0.003
  1
File : E - R03L
  7
ROMANS
100
AcDbText
  0
LINE
  5
22
330
2
100
AcDbEntity
  8
Table
100
AcDbLine
 10
0.4
 20
0.2654452889427402
 30
0.0
 11
0.02
 21
0.2654452889427403
 31
0.0
  0
LINE
  5
23
330
2
100
AcDbEntity
  8
Table
100
AcDbLine
 10
0.4
 20
0.2532994226089223
 30
0.0
 11
0.02
 21
0.2532994226089225
 31
0.0
  0
LINE
  5
24
330
2
100
AcDbEntity
  8
Table
100
AcDbLine
 10
0.21
 20
0.0528099428524846
 30
0.0
 11
0.21
 21
0.02
 31
0.0
  0
TEXT
  5
25
330
2
100
AcDbEntity
  8
Text
100
AcDbText
 10
0.0947789320547719
 20
0.2687784133392506
 30
0.0
 40
0.005
  1
EUROSTYL
  7
style1
 72
     1
 11
0.1140561490699125
 21
0.2687784133392506
 31
0.0
100
AcDbText
  0
TEXT
  5
23F
330
2
100
AcDbEntity
  8
Text
  6
ACAD_ISO10W100
100
AcDbText
 10
0.2891749546253992
 20
0.0739501841484137
 30
0.0
 40
0.005
  1
scala 1 : 1
  7
style1
100
AcDbText
  0
CIRCLE
  5
2AC
330
2
100
AcDbEntity
  8
Profilo
  6
Continuous
370
     0
100
AcDbCircle
 10
0.2100819977218258
 20
0.1552114616923535
 30
0.0
 40
0.0123396489109517
  0
LWPOLYLINE
  5
2AD
330
2
100
AcDbEntity
  8
Profilo
  6
Continuous
370
     0
100
AcDbPolyline
 90
       15
 70
   128
 43
0.0
 10
0.2011609406419268
 20
0.168721718346982
 10
0.1962949074695945
 20
0.173045003312882
 10
0.1938618908834293
 20
0.177638485611721
 10
0.1933212217762943
 20
0.183582997121547
 10
0.1944025599905625
 20
0.1892573042073855
 10
0.1965652476272268
 20
0.1916891511143234
 10
0.1998092622700263
 20
0.1933103847492979
 10
0.2038642973857261
 20
0.1930401803253104
 10
0.207648981135657
 20
0.1924997714773345
 10
0.210622666828959
 20
0.1903381289943858
 10
0.2126630625311332
 20
0.187260840620968
 10
0.2133260235727565
 20
0.1833127926975595
 10
0.212515014307991
 20
0.1781789015507446
 10
0.2117040050432237
 20
0.1738556165848446
 10
0.211974345200856
 20
0.1703429519819565
  0
LWPOLYLINE
  5
2AE
330
2
100
AcDbEntity
  8
Profilo
  6
Continuous
370
     0
100
AcDbPolyline
 90
        4
 70
   128
 43
0.0
 10
0.206026973814259
 20
0.1703429519819565
 10
0.2041346263352253
 20
0.1773682811877335
 10
0.2025126190138256
 20
0.1838532086365839
 10
0.2016421506057657
 20
0.1864535246868127
  0
LWPOLYLINE
  5
2AF
330
2
100
AcDbEntity
  8
Profilo
  6
Continuous
370
     0
100
AcDbPolyline
 90
       15
 70
   128
 43
0.0
 10
0.1942206636692187
 20
0.158456515831863
 10
0.1877228344991941
 20
0.1580727348946181
 10
0.182754349489608
 20
0.1596004148505705
 10
0.1781686342981352
 20
0.1634215084579779
 10
0.174920914863268
 20
0.168198471060974
 10
0.1747305905180401
 20
0.171447297593151
 10
0.1758780699730522
 20
0.1748875476425211
 10
0.1789364761818213
 20
0.1775638270902741
 10
0.181994778487061
 20
0.1798578758734801
 10
0.1856260038641064
 20
0.1804320771341364
 10
0.1892447529779275
 20
0.1796988832949373
 10
0.1925052286852153
 20
0.1773759760840412
 10
0.1955619677782785
 20
0.173172296689533
 10
0.1980455217439463
 20
0.169541802422422
 10
0.2007205100633733
 20
0.1672491328203754
  0
LWPOLYLINE
  5
2B0
330
2
100
AcDbEntity
  8
Profilo
  6
Continuous
370
     0
100
AcDbPolyline
 90
        4
 70
   128
 43
0.0
 10
0.196515083425675
 20
0.1630437061826772
 10
0.1902093337694168
 20
0.1666732723693632
 10
0.1844768652187358
 20
0.1701118761678518
 10
0.182022649992243
 20
0.1713350631660496
  0
LWPOLYLINE
  5
2B1
330
2
100
AcDbEntity
  8
Profilo
  6
Continuous
370
     0
100
AcDbPolyline
 90
       15
 70
   128
 43
0.0
 10
0.1965717410671974
 20
0.1462904046124555
 10
0.1922484561012965
 20
0.1414243714401231
 10
0.1876549738024574
 20
0.1389913548539571
 10
0.1817104622926314
 20
0.1384506857468238
 10
0.176036155206793
 20
0.1395320239610911
 10
0.173604308299856
 20
0.1416947115977564
 10
0.1719830746648814
 20
0.1449387262405549
 10
0.1722532790888689
 20
0.1489937613562547
 10
0.1727936879368439
 20
0.1527784451061865
 10
0.1749553304197935
 20
0.1557521307994877
 10
0.1780326187932104
 20
0.1577925265016619
 10
0.181980666716619
 20
0.1584554875432861
 10
0.1871145578634348
 20
0.1576444782785197
 10
0.1914378428293339
 20
0.1568334690137524
 10
0.1949505074322228
 20
0.1571038091713855
  0
LWPOLYLINE
  5
2B2
330
2
100
AcDbEntity
  8
Profilo
  6
Continuous
370
     0
100
AcDbPolyline
 90
        4
 70
   128
 43
0.0
 10
0.1949505074322228
 20
0.1511564377847885
 10
0.187925178226445
 20
0.1492640903057539
 10
0.1814402507775945
 20
0.1476420829843543
 10
0.1788399347273657
 20
0.1467716145762943
  0
LWPOLYLINE
  5
2B3
330
2
100
AcDbEntity
  8
Profilo
  6
Continuous
370
     0
100
AcDbPolyline
 90
       15
 70
   128
 43
0.0
 10
0.2068369435823154
 20
0.1393501276397473
 10
0.2072207245195603
 20
0.1328522984697218
 10
0.205693044563608
 20
0.1278838134601367
 10
0.2018719509562015
 20
0.1232980982686639
 10
0.1970949883532054
 20
0.1200503788337975
 10
0.1938461618210283
 20
0.1198600544885688
 10
0.1904059117716574
 20
0.1210075339435818
 10
0.1877296323239044
 20
0.1240659401523508
 10
0.1854355835406984
 20
0.1271242424575906
 10
0.184861382280042
 20
0.130755467834636
 10
0.1855945761192412
 20
0.1343742169484571
 10
0.1879174833301373
 20
0.1376346926557439
 10
0.1921211627246446
 20
0.140691431748808
 10
0.1957516569917565
 20
0.1431749857144767
 10
0.1980443265938039
 20
0.145849974033902
  0
LWPOLYLINE
  5
2B4
330
2
100
AcDbEntity
  8
Profilo
  6
Continuous
370
     0
100
AcDbPolyline
 90
        4
 70
   128
 43
0.0
 10
0.2022497532315022
 20
0.1416445473962046
 10
0.1986201870448152
 20
0.1353387977399454
 10
0.1951815832463275
 20
0.1296063291892636
 10
0.1939583962481279
 20
0.1271521139627716
  0
LWPOLYLINE
  5
2B5
330
2
100
AcDbEntity
  8
Profilo
  6
Continuous
370
     0
100
AcDbPolyline
 90
       15
 70
   128
 43
0.0
 10
0.219003054801723
 20
0.141701205037726
 10
0.223869087974057
 20
0.137377920071826
 10
0.2263021045602205
 20
0.132784437772987
 10
0.2268427736673555
 20
0.126839926263161
 10
0.2257614354530872
 20
0.1211656191773216
 10
0.223598747816423
 20
0.1187337722703845
 10
0.2203547331736235
 20
0.1171125386354092
 10
0.2162996980579237
 20
0.1173827430593967
 10
0.2125150143079928
 20
0.1179231519073726
 10
0.2095413286146908
 20
0.1200847943903222
 10
0.2075009329125166
 20
0.12316208276374
 10
0.2068379718708933
 20
0.1271101306871485
 10
0.2076489811356588
 20
0.1322440218339625
 10
0.2084599904004261
 20
0.1365673067998625
 10
0.2081896502427938
 20
0.1400799714027515
  0
LWPOLYLINE
  5
2B6
330
2
100
AcDbEntity
  8
Profilo
  6
Continuous
370
     0
100
AcDbPolyline
 90
        4
 70
   128
 43
0.0
 10
0.2141370216293907
 20
0.1400799714027515
 10
0.2160293691084245
 20
0.1330546421969745
 10
0.2176513764298242
 20
0.1265697147481241
 10
0.2185218448378841
 20
0.1239693986978952
  0
LWPOLYLINE
  5
2B7
330
2
100
AcDbEntity
  8
Profilo
  6
Continuous
370
     0
100
AcDbPolyline
 90
       15
 70
   128
 43
0.0
 10
0.225943331774431
 20
0.1519664075528432
 10
0.2324411609444557
 20
0.152350188490089
 10
0.2374096459540418
 20
0.1508225085341366
 10
0.2419953611455146
 20
0.1470014149267292
 10
0.2452430805803818
 20
0.1422244523237331
 10
0.2454334049256097
 20
0.1389756257915561
 10
0.2442859254705976
 20
0.135535375742186
 10
0.2412275192618285
 20
0.1328590962944339
 10
0.2381692169565888
 20
0.130565047511227
 10
0.2345379915795434
 20
0.1299908462505707
 10
0.2309192424657223
 20
0.1307240400897698
 10
0.2276587667584344
 20
0.1330469473006659
 10
0.2246020276653695
 20
0.1372506266951742
 10
0.2221184736997018
 20
0.1408811209622852
 10
0.2194434853802765
 20
0.1431737905643325
  0
LWPOLYLINE
  5
2B8
330
2
100
AcDbEntity
  8
Profilo
  6
Continuous
370
     0
100
AcDbPolyline
 90
        4
 70
   128
 43
0.0
 10
0.2236489120179748
 20
0.1473792172020299
 10
0.2299546616742329
 20
0.1437496510153439
 10
0.2356871302249139
 20
0.1403110472168553
 10
0.2381413454514067
 20
0.1390878602186575
  0
LWPOLYLINE
  5
2B9
330
2
100
AcDbEntity
  8
Profilo
  6
Continuous
370
     0
100
AcDbPolyline
 90
       15
 70
   128
 43
0.0
 10
0.2235922543764524
 20
0.1641325187722525
 10
0.2279155393423533
 20
0.1689985519445849
 10
0.2325090216411922
 20
0.1714315685307501
 10
0.2384535331510182
 20
0.1719722376378833
 10
0.2441278402368567
 20
0.1708908994236168
 10
0.2465596871437938
 20
0.1687282117869516
 10
0.2481809207787684
 20
0.1654841971441531
 10
0.2479107163547827
 20
0.1614291620284532
 10
0.2473703075068059
 20
0.1576444782785215
 10
0.2452086650238563
 20
0.1546707925852204
 10
0.2421313766504394
 20
0.1526303968830462
 10
0.2381833287270307
 20
0.151967435841421
 10
0.233049437580215
 20
0.1527784451061884
 10
0.2287261526143158
 20
0.1535894543709557
 10
0.2252134880114269
 20
0.1533191142133216
  0
LWPOLYLINE
  5
2BA
330
2
100
AcDbEntity
  8
Profilo
  6
Continuous
370
     0
100
AcDbPolyline
 90
        4
 70
   128
 43
0.0
 10
0.2252134880114269
 20
0.1592664855999193
 10
0.2322388172172047
 20
0.1611588330789532
 10
0.2387237446660553
 20
0.1627808404003538
 10
0.2413240607162841
 20
0.1636513088084128
  0
LWPOLYLINE
  5
2BB
330
2
100
AcDbEntity
  8
Profilo
  6
Continuous
370
     0
100
AcDbPolyline
 90
       15
 70
   128
 43
0.0
 10
0.2133270518613344
 20
0.1710727957449606
 10
0.2129432709240895
 20
0.1775706249149853
 10
0.2144709508800417
 20
0.1825391099245713
 10
0.2182920444874483
 20
0.1871248251160432
 10
0.2230690070904444
 20
0.1903725445509105
 10
0.2263178336226232
 20
0.1905628688961393
 10
0.2297580836719923
 20
0.1894153894411262
 10
0.2324343631197454
 20
0.1863569832323572
 10
0.2347284119029513
 20
0.1832986809271174
 10
0.2353026131636078
 20
0.1796674555500721
 10
0.2345694193244086
 20
0.1760487064362509
 10
0.2322465121135124
 20
0.1727882307289632
 10
0.2280428327190034
 20
0.1697314916358991
 10
0.2244123384518932
 20
0.1672479376702313
 10
0.2221196688498459
 20
0.1645729493508051
  0
LWPOLYLINE
  5
2BC
330
2
100
AcDbEntity
  8
Profilo
  6
Continuous
370
     0
100
AcDbPolyline
 90
        4
 70
   128
 43
0.0
 10
0.2179142422121476
 20
0.1687783759885034
 10
0.2215438083988346
 20
0.1750841256447626
 10
0.2249824121973223
 20
0.1808165941954435
 10
0.2262055991955201
 20
0.1832708094219364
  0
CIRCLE
  5
2BD
330
2
100
AcDbEntity
  8
Profilo
  6
Continuous
370
     0
100
AcDbCircle
 10
0.2160826637788009
 20
0.1913568716469663
 30
0.0
 40
0.0043313296504748
  0
CIRCLE
  5
2BE
330
2
100
AcDbEntity
  8
Profilo
  6
Continuous
370
     0
100
AcDbCircle
 10
0.1887664448946751
 20
0.1850132378405517
 30
0.0
 40
0.0043313296504748
  0
CIRCLE
  5
2BF
330
2
100
AcDbEntity
  8
Profilo
  6
Continuous
370
     0
100
AcDbCircle
 10
0.1739365877672121
 20
0.1612121277493305
 30
0.0
 40
0.0043313296504748
  0
CIRCLE
  5
2C0
330
2
100
AcDbEntity
  8
Profilo
  6
Continuous
370
     0
100
AcDbCircle
 10
0.1802802215736268
 20
0.1338959088652037
 30
0.0
 40
0.0043313296504748
  0
CIRCLE
  5
2C1
330
2
100
AcDbEntity
  8
Profilo
  6
Continuous
370
     0
100
AcDbCircle
 10
0.2040813316648489
 20
0.1190660517377416
 30
0.0
 40
0.0043313296504748
  0
CIRCLE
  5
2C2
330
2
100
AcDbEntity
  8
Profilo
  6
Continuous
370
     0
100
AcDbCircle
 10
0.2313975505489747
 20
0.1254096855441555
 30
0.0
 40
0.0043313296504748
  0
CIRCLE
  5
2C3
330
2
100
AcDbEntity
  8
Profilo
  6
Continuous
370
     0
100
AcDbCircle
 10
0.2462274076764377
 20
0.1492107956353776
 30
0.0
 40
0.0043313296504748
  0
CIRCLE
  5
2C4
330
2
100
AcDbEntity
  8
Profilo
  6
Continuous
370
     0
100
AcDbCircle
 10
0.239883773870023
 20
0.1765270145195042
 30
0.0
 40
0.0043313296504748
  0
LWPOLYLINE
  5
2C5
330
2
100
AcDbEntity
  8
Profilo
  6
Continuous
370
     0
100
AcDbPolyline
 90
       21
 70
   128
 43
0.0
 10
0.2011773941805419
 20
0.1955403353077316
 10
0.2015257541490083
 20
0.1982098174503773
 10
0.2012066698228185
 20
0.2014973696101773
 10
0.2001914707988579
 20
0.2042622618177695
 10
0.1985361416993232
 20
0.2077367836678267
 10
0.1977084771495558
 20
0.2150167524449301
 10
0.1980395429694628
 20
0.2196494553360559
 10
0.2000259378889062
 20
0.2264330577708232
 10
0.2023433986282548
 20
0.2299075867119291
 10
0.2051574693056004
 20
0.2325548455068582
 10
0.2073094083431286
 20
0.2328857493106997
 10
0.2102890007222946
 20
0.2317275753606806
 10
0.2132686043095902
 20
0.2277566871682865
 10
0.2162481966887562
 20
0.2236203435284482
 10
0.2177380040864705
 20
0.2194839998886099
 10
0.2182346028163309
 20
0.2160094709475032
 10
0.2187312015461931
 20
0.2120385827551109
 10
0.2185656686362378
 20
0.2074058798639851
 10
0.2165792625086631
 20
0.2009531812330593
 10
0.2165792625086631
 20
0.1976441077393985
 10
0.2165792625086631
 20
0.1963204783419335
  0
LWPOLYLINE
  5
2C6
330
2
100
AcDbEntity
  8
Profilo
  6
Continuous
370
     0
100
AcDbPolyline
 90
        4
 70
   128
 43
0.0
 10
0.2089647374426651
 20
0.1936732195470044
 10
0.2087992045327116
 20
0.2077367836678267
 10
0.2083026058028512
 20
0.2160094709475032
 10
0.2076404741630373
 20
0.220642173838629
  0
LWPOLYLINE
  5
2C7
330
2
100
AcDbEntity
  8
Profilo
  6
Continuous
370
     0
100
AcDbPolyline
 90
       21
 70
   128
 43
0.0
 10
0.1864220249863564
 20
0.1890628383478082
 10
0.1857223010421833
 20
0.1916624298502331
 10
0.1841694138194807
 20
0.1945776237175764
 10
0.1821734137796973
 20
0.1967435511907481
 10
0.1793144471576582
 20
0.1993201237917747
 10
0.1757638613812098
 20
0.2057292044315102
 10
0.1742968676726324
 20
0.2101359572171275
 10
0.1735360850186538
 20
0.2171633490891076
 10
0.1743474949021024
 20
0.2212602490930195
 10
0.1759342951219391
 20
0.2247828955366393
 10
0.1777957961504875
 20
0.2259121222053601
 10
0.1809917945472943
 20
0.2259823496365584
 10
0.1852641824395977
 20
0.2234539722375878
 10
0.1895998770354712
 20
0.2207727296480164
 10
0.1925591897791374
 20
0.2175213710282561
 10
0.194347631842561
 20
0.2145013649609013
 10
0.1963260223679555
 20
0.2110227827405108
 10
0.1979459485439925
 20
0.2066793766570431
 10
0.1985800894395718
 20
0.1999576957474951
 10
0.1998464170420746
 20
0.196900510475126
 10
0.2003529480830757
 20
0.1956776363661786
  0
LWPOLYLINE
  5
2C8
330
2
100
AcDbEntity
  8
Profilo
  6
Continuous
370
     0
100
AcDbPolyline
 90
        4
 70
   128
 43
0.0
 10
0.1943311063068087
 20
0.190317935560197
 10
0.188796280850303
 20
0.2032476279034347
 10
0.1851716630848443
 20
0.2107005542535431
 10
0.1827870745714879
 20
0.2147272268262585
  0
LWPOLYLINE
  5
2C9
330
2
100
AcDbEntity
  8
Profilo
  6
Continuous
370
     0
100
AcDbPolyline
 90
       21
 70
   128
 43
0.0
 10
0.1752686721629573
 20
0.177431776155584
 10
0.1736273909336319
 20
0.1795657127769011
 10
0.1710771138171143
 20
0.1816647365117813
 10
0.1684041856737792
 20
0.182901956426924
 10
0.1647768332808468
 20
0.1841883199571028
 10
0.159043870776042
 20
0.1887507880305307
 10
0.1560021540327803
 20
0.1922607025463434
 10
0.1526100160679356
 20
0.1984620271464935
 10
0.1517918452961791
 20
0.2025575823261065
 10
0.1519097991094167
 20
0.2064193254302453
 10
0.1531974654719351
 20
0.2081749604399977
 10
0.1561233081022681
 20
0.2094628977626267
 10
0.1610380479722675
 20
0.2087619536962752
 10
0.1660697745857966
 20
0.2079440070357079
 10
0.170048064136429
 20
0.2060726233122456
 10
0.172856075441528
 20
0.2039669086659742
 10
0.1760150657391151
 20
0.2015102150272132
 10
0.1791738319255138
 20
0.1981173499545367
 10
0.1823319776413966
 20
0.1921500017526577
 10
0.1846718459482091
 20
0.1898101334458445
 10
0.1856077932709343
 20
0.1888741861231201
  0
LWPOLYLINE
  5
2CA
330
2
100
AcDbEntity
  8
Profilo
  6
Continuous
370
     0
100
AcDbPolyline
 90
        4
 70
   128
 43
0.0
 10
0.1820954056067023
 20
0.1816180091679879
 10
0.1720339146060805
 20
0.1914454012823355
 10
0.165833093002572
 20
0.1969439262270182
 10
0.1620890796004826
 20
0.199751544084004
  0
LWPOLYLINE
  5
2CB
330
2
100
AcDbEntity
  8
Profilo
  6
Continuous
370
     0
100
AcDbPolyline
 90
       21
 70
   128
 43
0.0
 10
0.1694153325723153
 20
0.1624178725139864
 10
0.1670823642467507
 20
0.1637612817477829
 10
0.1639229538090898
 20
0.164724578014263
 10
0.1609800266418713
 20
0.1648447348547218
 10
0.1571365199978363
 20
0.1646450521274983
 10
0.1500939723365969
 20
0.1666663132293151
 10
0.1459406063595807
 20
0.1687450368077443
 10
0.140433535339211
 20
0.1731761986808391
 10
0.1381103429955104
 20
0.1766468978863574
 10
0.1367414930033401
 20
0.1802598222701984
 10
0.1372592891688615
 20
0.1823745861056197
 10
0.1394695430150801
 20
0.1846841565374889
 10
0.1442784102697985
 20
0.1859173581837851
 10
0.1492401341367859
 20
0.1870872324165885
 10
0.1536317419735855
 20
0.1868807247971848
 10
0.1570318282538441
 20
0.1860098775385402
 10
0.1608904906871373
 20
0.1849490818179283
 10
0.1651072033663024
 20
0.1830232907069588
 10
0.1703085548459082
 20
0.1787187498823378
 10
0.1733657401182764
 20
0.1774524222798351
 10
0.1745886142272255
 20
0.1769458912388341
  0
LWPOLYLINE
  5
2CC
330
2
100
AcDbEntity
  8
Profilo
  6
Continuous
370
     0
100
AcDbPolyline
 90
        4
 70
   128
 43
0.0
 10
0.1741204098570339
 20
0.1688979252985628
 10
0.1610640241094963
 20
0.1741268858201431
 10
0.153231017546485
 20
0.1768339087808227
 10
0.1486975713565659
 20
0.1779950375544738
  0
LWPOLYLINE
  5
2CD
330
2
100
AcDbEntity
  8
Profilo
  6
Continuous
370
     0
100
AcDbPolyline
 90
       21
 70
   128
 43
0.0
 10
0.1697531241064478
 20
0.1463068581510715
 10
0.1670836419638011
 20
0.1466552181195378
 10
0.1637960898040021
 20
0.1463361337933481
 10
0.1610311975964098
 20
0.1453209347693874
 10
0.1575566757463527
 20
0.1436656056698527
 10
0.1502767069692492
 20
0.1428379411200853
 10
0.1456440040781235
 20
0.1431690069399915
 10
0.1388604016433561
 20
0.1451554018594349
 10
0.1353858727022494
 20
0.1474728625987844
 10
0.1327386139073212
 20
0.1502869332761291
 10
0.1324077101034788
 20
0.1524388723136573
 10
0.1335658840534979
 20
0.1554184646928233
 10
0.1375367722458929
 20
0.1583980682801189
 10
0.1416731158857303
 20
0.1613776606592858
 10
0.1458094595255694
 20
0.1628674680569991
 10
0.1492839884666761
 20
0.1633640667868604
 10
0.1532548766590676
 20
0.1638606655167218
 10
0.1578875795501933
 20
0.1636951326067665
 10
0.1643402781811201
 20
0.1617087264791918
 10
0.1676493516747808
 20
0.1617087264791918
 10
0.1689729810722458
 20
0.1617087264791918
  0
LWPOLYLINE
  5
2CE
330
2
100
AcDbEntity
  8
Profilo
  6
Continuous
370
     0
100
AcDbPolyline
 90
        4
 70
   128
 43
0.0
 10
0.171620239867174
 20
0.1540942014131946
 10
0.1575566757463527
 20
0.1539286685032412
 10
0.1492839884666761
 20
0.1534320697733799
 10
0.1446512855755504
 20
0.152769938133565
  0
LWPOLYLINE
  5
2CF
330
2
100
AcDbEntity
  8
Profilo
  6
Continuous
370
     0
100
AcDbPolyline
 90
       21
 70
   128
 43
0.0
 10
0.1762306210663702
 20
0.1315514889568851
 10
0.1736310295639445
 20
0.1308517650127119
 10
0.170715835696603
 20
0.1292988777900094
 10
0.1685499082234312
 20
0.127302877750226
 10
0.1659733356224038
 20
0.1244439111281869
 10
0.1595642549826692
 20
0.1208933253517394
 10
0.155157502197051
 20
0.119426331643161
 10
0.1481301103250717
 20
0.1186655489891825
 10
0.1440332103211599
 20
0.119476958872632
 10
0.1405105638775392
 20
0.1210637590924687
 10
0.1393813372088193
 20
0.1229252601210161
 10
0.139311109777621
 20
0.1261212585178238
 10
0.1418394871765916
 20
0.1303936464101263
 10
0.1445207297661621
 20
0.1347293410059999
 10
0.1477720883859224
 20
0.137688653749666
 10
0.1507920944532781
 20
0.1394770958130906
 10
0.1542706766736686
 20
0.1414554863384833
 10
0.1586140827571363
 20
0.143075412514522
 10
0.1653357636666843
 20
0.1437095534101005
 10
0.1683929489390525
 20
0.1449758810126042
 10
0.1696158230479998
 20
0.1454824120536043
  0
LWPOLYLINE
  5
2D0
330
2
100
AcDbEntity
  8
Profilo
  6
Continuous
370
     0
100
AcDbPolyline
 90
        4
 70
   128
 43
0.0
 10
0.1749755238539823
 20
0.1394605702773383
 10
0.1620458315107438
 20
0.1339257448208325
 10
0.1545929051606354
 20
0.1303011270553729
 10
0.15056623258792
 20
0.1279165385420166
  0
LWPOLYLINE
  5
2D1
330
2
100
AcDbEntity
  8
Profilo
  6
Continuous
370
     0
100
AcDbPolyline
 90
       21
 70
   128
 43
0.0
 10
0.1878616832585944
 20
0.1203981361334868
 10
0.1857277466372764
 20
0.1187568549041615
 10
0.1836287229023981
 20
0.1162065777876439
 10
0.1823915029872545
 20
0.1135336496443088
 10
0.1811051394570757
 20
0.1099062972513763
 10
0.1765426713836469
 20
0.1041733347465715
 10
0.173032756867835
 20
0.101131618003309
 10
0.1668314322676849
 20
0.0977394800384643
 10
0.1627358770880729
 20
0.0969213092667069
 10
0.1588741339839341
 20
0.0970392630799463
 10
0.1571184989741798
 20
0.0983269294424648
 10
0.1558305616515517
 20
0.1012527720727977
 10
0.1565315057179024
 20
0.106167511942797
 10
0.1573494523784706
 20
0.1111992385563252
 10
0.159220836101932
 20
0.1151775281069577
 10
0.1613265507482051
 20
0.1179855394120567
 10
0.1637832443869644
 20
0.1211445297096446
 10
0.1671761094596427
 20
0.1243032958960434
 10
0.1731434576615207
 20
0.1274614416119253
 10
0.1754833259683329
 20
0.1298013099187377
 10
0.1764192732910583
 20
0.1307372572414629
  0
LWPOLYLINE
  5
2D2
330
2
100
AcDbEntity
  8
Profilo
  6
Continuous
370
     0
100
AcDbPolyline
 90
        4
 70
   128
 43
0.0
 10
0.1836754502461897
 20
0.1272248695772319
 10
0.173848058131842
 20
0.1171633785766092
 10
0.1683495331871612
 20
0.1109625569730998
 10
0.1655419153301754
 20
0.1072185435710121
  0
LWPOLYLINE
  5
2D3
330
2
100
AcDbEntity
  8
Profilo
  6
Continuous
370
     0
100
AcDbPolyline
 90
       21
 70
   128
 43
0.0
 10
0.202875586900193
 20
0.114544796542844
 10
0.2015321776663956
 20
0.1122118282172803
 10
0.2005688813999153
 20
0.1090524177796176
 10
0.2004487245594575
 20
0.1061094906124008
 10
0.2006484072866801
 20
0.1022659839683649
 10
0.1986271461848634
 20
0.0952234363071266
 10
0.1965484226064333
 20
0.0910700703301103
 10
0.1921172607333386
 20
0.0855629993097397
 10
0.1886465615278219
 20
0.08323980696604
 10
0.1850336371439791
 20
0.0818709569738688
 10
0.1829188733085587
 20
0.0823887531393911
 10
0.1806093028766895
 20
0.0845990069856097
 10
0.1793761012303943
 20
0.0894078742403263
 10
0.1782062269975899
 20
0.0943695981073146
 10
0.1784127346169928
 20
0.0987612059441142
 10
0.1792835818756373
 20
0.1021612922243728
 10
0.180344377596251
 20
0.1060199546576669
 10
0.1822701687072197
 20
0.1102366673368318
 10
0.1865747095318415
 20
0.1154380188164369
 10
0.1878410371343424
 20
0.118495204088806
 10
0.1883475681753435
 20
0.1197180781977533
  0
LWPOLYLINE
  5
2D4
330
2
100
AcDbEntity
  8
Profilo
  6
Continuous
370
     0
100
AcDbPolyline
 90
        4
 70
   128
 43
0.0
 10
0.1963955341156147
 20
0.1192498738275635
 10
0.1911665735940353
 20
0.106193488080025
 10
0.1884595506333557
 20
0.0983604815170146
 10
0.1872984218597047
 20
0.0938270353270955
  0
LWPOLYLINE
  5
2D5
330
2
100
AcDbEntity
  8
Profilo
  6
Continuous
370
     0
100
AcDbPolyline
 90
       21
 70
   128
 43
0.0
 10
0.2189866012631079
 20
0.1148825880769755
 10
0.2186382412946415
 20
0.1122131059343306
 10
0.2189573256208313
 20
0.1089255537745307
 10
0.2199725246447901
 20
0.1061606615669376
 10
0.2216278537443266
 20
0.1026861397168814
 10
0.2224555182940939
 20
0.0954061709397779
 10
0.222124452474187
 20
0.0907734680486522
 10
0.2201380575547436
 20
0.0839898656138848
 10
0.217820596815395
 20
0.080515336672779
 10
0.2150065261380494
 20
0.0778680778778499
 10
0.2128545871005212
 20
0.0775371740740084
 10
0.2098749947213552
 20
0.0786953480240275
 10
0.2068953911340596
 20
0.0826662362164207
 10
0.2039157987548936
 20
0.086802579856259
 10
0.2024259913571793
 20
0.0909389234960981
 10
0.2019293926273189
 20
0.0944134524372039
 10
0.2014327938974567
 20
0.0983843406295971
 10
0.201598326807412
 20
0.1030170435207228
 10
0.2035847329349867
 20
0.1094697421516487
 10
0.2035847329349867
 20
0.1127788156453094
 10
0.2035847329349867
 20
0.1141024450427744
  0
LWPOLYLINE
  5
2D6
330
2
100
AcDbEntity
  8
Profilo
  6
Continuous
370
     0
100
AcDbPolyline
 90
        4
 70
   128
 43
0.0
 10
0.2111992580009847
 20
0.1167497038377036
 10
0.2113647909109364
 20
0.1026861397168814
 10
0.2118613896407986
 20
0.0944134524372039
 10
0.2125235212806125
 20
0.0897807495460791
  0
LWPOLYLINE
  5
2D7
330
2
100
AcDbEntity
  8
Profilo
  6
Continuous
370
     0
100
AcDbPolyline
 90
       21
 70
   128
 43
0.0
 10
0.2337419704572934
 20
0.1213600850368998
 10
0.2344416944014664
 20
0.118760493534474
 10
0.2359945816241691
 20
0.1158452996671317
 10
0.2379905816639525
 20
0.1136793721939598
 10
0.2408495482859916
 20
0.1111027995929324
 10
0.24440013406244
 20
0.1046937189531979
 10
0.2458671277710174
 20
0.1002869661675806
 10
0.246627910424996
 20
0.0932595742955996
 10
0.2458165005415474
 20
0.0891626742916886
 10
0.2442297003217106
 20
0.0856400278480688
 10
0.2423681992931623
 20
0.084510801179348
 10
0.2391722008963555
 20
0.0844405737481496
 10
0.234899813004052
 20
0.0869689511471194
 10
0.2305641184081786
 20
0.0896501937366908
 10
0.2276048056645123
 20
0.0929015523564511
 10
0.2258163636010888
 20
0.0959215584238059
 10
0.2238379730756943
 20
0.0994001406441973
 10
0.2222180468996573
 20
0.1037435467276649
 10
0.2215839060040778
 20
0.110465227637212
 10
0.2203175784015752
 20
0.1135224129095811
 10
0.2198110473605741
 20
0.1147452870185294
  0
LWPOLYLINE
  5
2D8
330
2
100
AcDbEntity
  8
Profilo
  6
Continuous
370
     0
100
AcDbPolyline
 90
        4
 70
   128
 43
0.0
 10
0.2258328891368411
 20
0.120104987824511
 10
0.2313677145933468
 20
0.1071752954812724
 10
0.2349923323588055
 20
0.099722369131165
 10
0.2373769208721619
 20
0.0956956965584496
  0
LWPOLYLINE
  5
2D9
330
2
100
AcDbEntity
  8
Profilo
  6
Continuous
370
     0
100
AcDbPolyline
 90
       21
 70
   128
 43
0.0
 10
0.2448953232806925
 20
0.1329911472291231
 10
0.2465366045100179
 20
0.1308572106078051
 10
0.2490868816265355
 20
0.1287581868729258
 10
0.2517598097698706
 20
0.1275209669577831
 10
0.255387162162803
 20
0.1262346034276034
 10
0.2611201246676078
 20
0.1216721353541764
 10
0.2641618414108695
 20
0.1181622208383637
 10
0.2675539793757142
 20
0.1119608962382136
 10
0.2683721501474707
 20
0.1078653410586007
 10
0.2682541963342331
 20
0.1040035979544619
 10
0.2669665299717145
 20
0.1022479629447084
 10
0.2640406873413816
 20
0.1009600256220804
 10
0.2591259474713823
 20
0.101660969688432
 10
0.2540942208578532
 20
0.1024789163489983
 10
0.2501159313072208
 20
0.1043503000724615
 10
0.2473079200021218
 20
0.1064560147187329
 10
0.2441489297045347
 20
0.1089127083574939
 10
0.240990163518136
 20
0.1123055734301704
 10
0.237832017802253
 20
0.1182729216320502
 10
0.2354921494954407
 20
0.1206127899388626
 10
0.2345562021727154
 20
0.121548737261587
  0
LWPOLYLINE
  5
2DA
330
2
100
AcDbEntity
  8
Profilo
  6
Continuous
370
     0
100
AcDbPolyline
 90
        4
 70
   128
 43
0.0
 10
0.2380685898369474
 20
0.1288049142167192
 10
0.2481300808375693
 20
0.1189775221023707
 10
0.2543309024410778
 20
0.1134789971576898
 10
0.2580749158431672
 20
0.1106713793007032
  0
LWPOLYLINE
  5
2DB
330
2
100
AcDbEntity
  8
Profilo
  6
Continuous
370
     0
100
AcDbPolyline
 90
       21
 70
   128
 43
0.0
 10
0.2507486628713345
 20
0.1480050508707217
 10
0.2530816311968991
 20
0.1466616416369252
 10
0.2562410416345617
 20
0.1456983453704448
 10
0.2591839688017785
 20
0.1455781885299862
 10
0.2630274754458135
 20
0.1457778712572096
 10
0.2700700231070527
 20
0.143756610155393
 10
0.2742233890840691
 20
0.1416778865769638
 10
0.2797304601044388
 20
0.1372467247038689
 10
0.2820536524481394
 20
0.1337760254983505
 10
0.2834225024403096
 20
0.1301631011145096
 10
0.2829047062747882
 20
0.1280483372790883
 10
0.2806944524285697
 20
0.1257387668472191
 10
0.2758855851738531
 20
0.1245055652009229
 10
0.2709238613068639
 20
0.1233356909681195
 10
0.2665322534700643
 20
0.1235421985875224
 10
0.2631321671898057
 20
0.1244130458461677
 10
0.2592735047565124
 20
0.1254738415667796
 10
0.2550567920773474
 20
0.1273996326777492
 10
0.2498554405977416
 20
0.1317041735023702
 10
0.2467982553253734
 20
0.1329705011048728
 10
0.2455753812164261
 20
0.1334770321458738
  0
LWPOLYLINE
  5
2DC
330
2
100
AcDbEntity
  8
Profilo
  6
Continuous
370
     0
100
AcDbPolyline
 90
        4
 70
   128
 43
0.0
 10
0.2460435855866159
 20
0.1415249980861451
 10
0.2590999713341535
 20
0.1362960375645649
 10
0.2669329778971647
 20
0.1335890146038853
 10
0.2714664240870839
 20
0.1324278858302343
  0
LWPOLYLINE
  5
2DD
330
2
100
AcDbEntity
  8
Profilo
  6
Continuous
370
     0
100
AcDbPolyline
 90
       21
 70
   128
 43
0.0
 10
0.250410871337202
 20
0.1641160652336365
 10
0.2530803534798487
 20
0.1637677052651701
 10
0.2563679056396477
 20
0.16408678959136
 10
0.25913279784724
 20
0.1651019886153197
 10
0.2626073196972971
 20
0.1667573177148552
 10
0.2698872884744006
 20
0.1675849822646227
 10
0.2745199913655263
 20
0.1672539164447165
 10
0.2813035938002937
 20
0.1652675215252731
 10
0.2847781227414003
 20
0.1629500607859237
 10
0.2874253815363286
 20
0.1601359901085789
 10
0.2877562853401709
 20
0.1579840510710508
 10
0.2865981113901519
 20
0.1550044586918838
 10
0.2826272231977569
 20
0.1520248551045882
 10
0.2784908795579195
 20
0.1490452627254223
 10
0.2743545359180803
 20
0.1475554553277089
 10
0.2708800069769737
 20
0.1470588565978476
 10
0.2669091187845822
 20
0.1465622578679854
 10
0.2622764158934565
 20
0.1467277907779416
 10
0.2558237172625297
 20
0.1487141969055162
 10
0.252514643768869
 20
0.1487141969055162
 10
0.251191014371404
 20
0.1487141969055162
  0
LWPOLYLINE
  5
2DE
330
2
100
AcDbEntity
  8
Profilo
  6
Continuous
370
     0
100
AcDbPolyline
 90
        4
 70
   128
 43
0.0
 10
0.2485437555764758
 20
0.1563287219715134
 10
0.2626073196972971
 20
0.1564942548814659
 10
0.2708800069769737
 20
0.1569908536113272
 10
0.2755127098680994
 20
0.1576529852511421
  0
LWPOLYLINE
  5
2DF
330
2
100
AcDbEntity
  8
Profilo
  6
Continuous
370
     0
100
AcDbPolyline
 90
       21
 70
   128
 43
0.0
 10
0.2439333743772796
 20
0.1788714344278229
 10
0.2465329658797053
 20
0.1795711583719961
 10
0.2494481597470468
 20
0.1811240455946986
 10
0.2516140872202186
 20
0.183120045634482
 10
0.254190659821246
 20
0.1859790122565202
 10
0.2605997404609806
 20
0.1895295980329686
 10
0.2650064932465987
 20
0.1909965917415469
 10
0.272033885118578
 20
0.1917573743955255
 10
0.2761307851224899
 20
0.1909459645120761
 10
0.2796534315661088
 20
0.1893591642922394
 10
0.2807826582348305
 20
0.1874976632636919
 10
0.2808528856660288
 20
0.1843016648668841
 10
0.2783245082670582
 20
0.1800292769745817
 10
0.2756432656774876
 20
0.1756935823787082
 10
0.2723919070577274
 20
0.172734269635042
 10
0.2693719009903717
 20
0.1709458275716175
 10
0.2658933187699812
 20
0.1689674370462238
 10
0.2615499126865135
 20
0.1673475108701851
 10
0.2548282317769654
 20
0.1667133699746066
 10
0.2517710465045972
 20
0.1654470423721039
 10
0.2505481723956482
 20
0.1649405113311028
  0
LWPOLYLINE
  5
2E0
330
2
100
AcDbEntity
  8
Profilo
  6
Continuous
370
     0
100
AcDbPolyline
 90
        4
 70
   128
 43
0.0
 10
0.2451884715896675
 20
0.1709623531073698
 10
0.258118163932906
 20
0.1764971785638755
 10
0.2655710902830144
 20
0.1801217963293351
 10
0.2695977628557298
 20
0.1825063848426914
  0
LWPOLYLINE
  5
2E1
330
2
100
AcDbEntity
  8
Profilo
  6
Continuous
370
     0
100
AcDbPolyline
 90
       21
 70
   128
 43
0.0
 10
0.2323023121850554
 20
0.1900247872512212
 10
0.2344362488063716
 20
0.1916660684805457
 10
0.2365352725412535
 20
0.1942163455970641
 10
0.2377724924563953
 20
0.1968892737403993
 10
0.2390588559865741
 20
0.2005166261333317
 10
0.2436213240600029
 20
0.2062495886381365
 10
0.2471312385758146
 20
0.2092913053813991
 10
0.2533325631759649
 20
0.2126834433462438
 10
0.2574281183555769
 20
0.2135016141180003
 10
0.2612898614597157
 20
0.2133836603047618
 10
0.2630454964694699
 20
0.2120959939422423
 10
0.2643334337920979
 20
0.2091701513119104
 10
0.2636324897257474
 20
0.204255411441911
 10
0.2628145430651791
 20
0.1992236848283828
 10
0.2609431593417177
 20
0.1952453952777504
 10
0.2588374446954447
 20
0.1924373839726514
 10
0.2563807510566836
 20
0.1892783936750625
 10
0.2529878859840089
 20
0.1861196274886647
 10
0.2470205377821291
 20
0.1829614817727827
 10
0.2446806694753167
 20
0.1806216134659703
 10
0.2437447221525915
 20
0.179685666143245
  0
LWPOLYLINE
  5
2E2
330
2
100
AcDbEntity
  8
Profilo
  6
Continuous
370
     0
100
AcDbPolyline
 90
        4
 70
   128
 43
0.0
 10
0.2364885451974583
 20
0.1831980538074762
 10
0.2463159373118078
 20
0.1932595448080989
 10
0.2518144622564886
 20
0.1994603664116073
 10
0.2546220801134762
 20
0.2032043798136959
  0
LWPOLYLINE
  5
2E3
330
2
100
AcDbEntity
  8
Profilo
  6
Continuous
370
     0
100
AcDbPolyline
 90
       21
 70
   128
 43
0.0
 10
0.2172884085434568
 20
0.1958781268418641
 10
0.2186318177772542
 20
0.1982110951674277
 10
0.2195951140437344
 20
0.2013705056050895
 10
0.2197152708841923
 20
0.2043134327723072
 10
0.2195155881569697
 20
0.2081569394163422
 10
0.2215368492587864
 20
0.2151994870775815
 10
0.2236155728372147
 20
0.2193528530545977
 10
0.2280467347103112
 20
0.2248599240749675
 10
0.2315174339158279
 20
0.2271831164186681
 10
0.2351303582996689
 20
0.2285519664108392
 10
0.2372451221350911
 20
0.228034170245317
 10
0.2395546925669603
 20
0.2258239163990984
 10
0.2407878942132555
 20
0.2210150491443809
 10
0.2419577684460599
 20
0.2160533252773926
 10
0.241751260826657
 20
0.2116617174405929
 10
0.2408804135680107
 20
0.2082616311603353
 10
0.2398196178473988
 20
0.2044029687270412
 10
0.2378938267364301
 20
0.2001862560478753
 10
0.2335892859118083
 20
0.1949849045682712
 10
0.2323229583093056
 20
0.191927719295902
 10
0.2318164272683045
 20
0.1907048451869538
  0
LWPOLYLINE
  5
2E4
330
2
100
AcDbEntity
  8
Profilo
  6
Continuous
370
     0
100
AcDbPolyline
 90
        4
 70
   128
 43
0.0
 10
0.2237684613280333
 20
0.1911730495571445
 10
0.2289974218496145
 20
0.2042294353046822
 10
0.2317044448102941
 20
0.2120624418676935
 10
0.2328655735839451
 20
0.2165958880576126
  0
LWPOLYLINE
  5
2E5
330
2
100
AcDbEntity
  8
Profilo
  6
Continuous
370
     0
100
AcDbPolyline
 90
       10
 70
   128
 43
0.0
 10
0.1869906779614627
 20
0.2228021995623969
 10
0.1879578053048227
 20
0.2258632990708364
 10
0.1895696804743778
 20
0.2290049599875145
 10
0.1910203714894152
 20
0.2299716188848361
 10
0.1929546373842683
 20
0.2303743975618321
 10
0.1950500762255025
 20
0.2302132889274521
 10
0.1971455262748698
 20
0.2295688472988888
 10
0.1986768037630995
 20
0.2287632899448985
 10
0.1994827469519436
 20
0.227877185364766
 10
0.2001274947781404
 20
0.2269105193763957
  0
LWPOLYLINE
  5
2E6
330
2
100
AcDbEntity
  8
Profilo
  6
Continuous
370
     0
100
AcDbPolyline
 90
       10
 70
   128
 43
0.0
 10
0.1628825444523549
 20
0.2088204954940873
 10
0.1626046215435171
 20
0.2120186862882058
 10
0.1628915384387106
 20
0.2155380404296445
 10
0.1638618778307492
 20
0.2169862722167361
 10
0.1654947697748419
 20
0.2180986027042934
 10
0.1674923564370765
 20
0.2187516474625543
 10
0.1696749169834621
 20
0.2189581550492678
 10
0.1713979063666269
 20
0.2187999116227508
 10
0.1724815983253247
 20
0.2182896788432997
 10
0.1734471947039591
 20
0.2176433302330082
  0
LWPOLYLINE
  5
2E7
330
2
100
AcDbEntity
  8
Profilo
  6
Continuous
370
     0
100
AcDbPolyline
 90
       10
 70
   128
 43
0.0
 10
0.1459600998394155
 20
0.1866773019965646
 10
0.1444794379218717
 20
0.1895256885196299
 10
0.1433977160463193
 20
0.19288694612082
 10
0.1437399784390685
 20
0.1945962706363508
 10
0.1448229034361148
 20
0.1962488107010388
 10
0.1464185234581912
 20
0.1976165887073605
 10
0.1483559194433734
 20
0.1986426066012695
 10
0.15000831120682
 20
0.1991557682294335
 10
0.1512047696583547
 20
0.1990990855660634
 10
0.1523442112939328
 20
0.1988714550506043
  0
LWPOLYLINE
  5
2E8
330
2
100
AcDbEntity
  8
Profilo
  6
Continuous
370
     0
100
AcDbPolyline
 90
       10
 70
   128
 43
0.0
 10
0.1387996329126224
 20
0.1597437195512781
 10
0.1363416493410838
 20
0.161808660775842
 10
0.1340559710445053
 20
0.1645001008368782
 10
0.1337180500912858
 20
0.1662102889184233
 10
0.1340861426272255
 20
0.168151454315708
 10
0.1350368773251152
 20
0.170025733767567
 10
0.136434157772884
 20
0.1717150600451984
 10
0.1377643902496004
 20
0.1728215025219771
 10
0.138891465240647
 20
0.1732269993963568
 10
0.1400312824732151
 20
0.1734527416582313
  0
LWPOLYLINE
  5
2E9
330
2
100
AcDbEntity
  8
Profilo
  6
Continuous
370
     0
100
AcDbPolyline
 90
       10
 70
   128
 43
0.0
 10
0.1424912598517825
 20
0.1321201419319913
 10
0.139430160343343
 20
0.1330872692753513
 10
0.136288499426664
 20
0.1346991444449065
 10
0.1353218405293433
 20
0.1361498354599447
 10
0.1349190618523472
 20
0.138084101354797
 10
0.1350801704867273
 20
0.1401795401960321
 10
0.1357246121152897
 20
0.1422749902453985
 10
0.13653016946928
 20
0.1438062677336291
 10
0.1374162740494125
 20
0.1446122109224722
 10
0.1383829400377827
 20
0.1452569587486691
  0
LWPOLYLINE
  5
2EA
330
2
100
AcDbEntity
  8
Profilo
  6
Continuous
370
     0
100
AcDbPolyline
 90
       10
 70
   128
 43
0.0
 10
0.1564729639200911
 20
0.1080120084228844
 10
0.1532747731259736
 20
0.1077340855140457
 10
0.1497554189845349
 20
0.1080210024092401
 10
0.1483071871974424
 20
0.1089913418012778
 10
0.147194856709886
 20
0.1106242337453706
 10
0.1465418119516251
 20
0.1126218204076043
 10
0.1463353043649107
 20
0.1148043809539916
 10
0.1464935477914278
 20
0.1165273703371547
 10
0.1470037805708788
 20
0.1176110622958534
 10
0.1476501291811711
 20
0.1185766586744886
  0
LWPOLYLINE
  5
2EB
330
2
100
AcDbEntity
  8
Profilo
  6
Continuous
370
     0
100
AcDbPolyline
 90
       10
 70
   128
 43
0.0
 10
0.1786161574176148
 20
0.0910895638099451
 10
0.1757677708945485
 20
0.0896089018924013
 10
0.1724065132933585
 20
0.088527180016848
 10
0.1706971887778277
 20
0.0888694424095972
 10
0.1690446487131396
 20
0.0899523674066444
 10
0.1676768707068188
 20
0.0915479874287208
 10
0.1666508528129089
 20
0.0934853834139021
 10
0.1661376911847459
 20
0.0951377751773487
 10
0.1661943738481142
 20
0.0963342336288834
 10
0.1664220043635751
 20
0.0974736752644615
  0
LWPOLYLINE
  5
2EC
330
2
100
AcDbEntity
  8
Profilo
  6
Continuous
370
     0
100
AcDbPolyline
 90
       10
 70
   128
 43
0.0
 10
0.2055497398628994
 20
0.0839290968831502
 10
0.2034847986383372
 20
0.0814711133116143
 10
0.2007933585773003
 20
0.079185435015034
 10
0.1990831704957543
 20
0.0788475140618145
 10
0.1971420050984704
 20
0.0792156065977551
 10
0.1952677256466124
 20
0.0801663412956438
 10
0.1935783993689791
 20
0.0815636217434136
 10
0.1924719568922004
 20
0.0828938542201291
 10
0.1920664600178217
 20
0.0840209292111757
 10
0.1918407177559462
 20
0.0851607464437446
  0
LWPOLYLINE
  5
2ED
330
2
100
AcDbEntity
  8
Profilo
  6
Continuous
370
     0
100
AcDbPolyline
 90
       10
 70
   128
 43
0.0
 10
0.2331733174821871
 20
0.0876207238223111
 10
0.232206190138827
 20
0.0845596243138708
 10
0.230594314969272
 20
0.0814179633971936
 10
0.2291436239542346
 20
0.080451304499872
 10
0.2272093580593815
 20
0.0800485258228759
 10
0.2251139192181473
 20
0.0802096344572551
 10
0.22301846916878
 20
0.0808540760858184
 10
0.2214871916805503
 20
0.0816596334398096
 10
0.2206812484917062
 20
0.0825457380199421
 10
0.2200365006655094
 20
0.0835124040083123
  0
LWPOLYLINE
  5
2EE
330
2
100
AcDbEntity
  8
Profilo
  6
Continuous
370
     0
100
AcDbPolyline
 90
       10
 70
   128
 43
0.0
 10
0.2572814509912948
 20
0.1016024278906208
 10
0.2575593739001327
 20
0.0984042370965014
 10
0.2572724570049392
 20
0.0948848829550627
 10
0.2563021176129006
 20
0.0934366511679711
 10
0.2546692256688079
 20
0.0923243206804147
 10
0.2526716390065733
 20
0.0916712759221538
 10
0.2504890784601876
 20
0.0914647683354394
 10
0.2487660890770229
 20
0.0916230117619573
 10
0.2476823971183251
 20
0.0921332445414075
 10
0.2467168007396907
 20
0.092779593151699
  0
LWPOLYLINE
  5
2EF
330
2
100
AcDbEntity
  8
Profilo
  6
Continuous
370
     0
100
AcDbPolyline
 90
       10
 70
   128
 43
0.0
 10
0.2742038956042343
 20
0.1237456213881425
 10
0.2756845575217781
 20
0.1208972348650772
 10
0.2767662793973304
 20
0.1175359772638871
 10
0.2764240170045813
 20
0.1158266527483563
 10
0.275341092007535
 20
0.1141741126836683
 10
0.2737454719854586
 20
0.1128063346773465
 10
0.2718080760002763
 20
0.1117803167834376
 10
0.2701556842368298
 20
0.1112671551552737
 10
0.2689592257852951
 20
0.1113238378186437
 10
0.267819784149717
 20
0.1115514683341038
  0
LWPOLYLINE
  5
2F0
330
2
100
AcDbEntity
  8
Profilo
  6
Continuous
370
     0
100
AcDbPolyline
 90
       10
 70
   128
 43
0.0
 10
0.2813643625310291
 20
0.1506792038334297
 10
0.2838223461025642
 20
0.1486142626088658
 10
0.2861080243991445
 20
0.1459228225478298
 10
0.286445945352364
 20
0.1442126344662847
 10
0.2860778528164243
 20
0.1422714690689999
 10
0.2851271181185346
 20
0.1403971896171411
 10
0.2837298376707657
 20
0.1387078633395097
 10
0.2823996051940494
 20
0.1376014208627309
 10
0.2812725302030046
 20
0.1371959239883512
 10
0.2801327129704347
 20
0.1369701817264767
  0
LWPOLYLINE
  5
2F1
330
2
100
AcDbEntity
  8
Profilo
  6
Continuous
370
     0
100
AcDbPolyline
 90
       10
 70
   128
 43
0.0
 10
0.2776727355918673
 20
0.1783027814527167
 10
0.2807338351003068
 20
0.1773356541093558
 10
0.2838754960169858
 20
0.1757237789398006
 10
0.2848421549143065
 20
0.1742730879247624
 10
0.2852449335913025
 20
0.1723388220299111
 10
0.2850838249569225
 20
0.170243383188676
 10
0.28443938332836
 20
0.1681479331393086
 10
0.2836338259743698
 20
0.166616655651079
 10
0.2827477213942373
 20
0.1658107124622358
 10
0.2817810554058671
 20
0.1651659646360389
  0
LWPOLYLINE
  5
2F2
330
2
100
AcDbEntity
  8
Profilo
  6
Continuous
370
     0
100
AcDbPolyline
 90
       10
 70
   128
 43
0.0
 10
0.2636910315235585
 20
0.2024109149618236
 10
0.2668892223176762
 20
0.2026888378706614
 10
0.2704085764591149
 20
0.2024019209754678
 10
0.2718568082462074
 20
0.2014315815834293
 10
0.2729691387337638
 20
0.1997986896393374
 10
0.2736221834920247
 20
0.1978011029771028
 10
0.2738286910787391
 20
0.1956185424307164
 10
0.273670447652222
 20
0.1938955530475533
 10
0.273160214872771
 20
0.1928118610888547
 10
0.2725138662624786
 20
0.1918462647102194
  0
LWPOLYLINE
  5
2F3
330
2
100
AcDbEntity
  8
Profilo
  6
Continuous
370
     0
100
AcDbPolyline
 90
       10
 70
   128
 43
0.0
 10
0.241547838026035
 20
0.219333359574763
 10
0.2443962245491011
 20
0.2208140214923068
 10
0.2477574821502912
 20
0.2218957433678592
 10
0.2494668066658221
 20
0.22155348097511
 10
0.2511193467305102
 20
0.2204705559780637
 10
0.2524871247368328
 20
0.2188749359559873
 10
0.2535131426307409
 20
0.2169375399708059
 10
0.2540263042589039
 20
0.2152851482073585
 10
0.2539696215955356
 20
0.2140886897558246
 10
0.2537419910800747
 20
0.2129492481202456
  0
LWPOLYLINE
  5
2F4
330
2
100
AcDbEntity
  8
Profilo
  6
Continuous
370
     0
100
AcDbPolyline
 90
       10
 70
   128
 43
0.0
 10
0.2146142555807504
 20
0.226493826501557
 10
0.2166791968053126
 20
0.2289518100730937
 10
0.2193706368663495
 20
0.2312374883696732
 10
0.2210808249478955
 20
0.2315754093228936
 10
0.2230219903451793
 20
0.231207316786953
 10
0.2248962697970374
 20
0.2302565820890642
 10
0.2265855960746705
 20
0.2288593016412945
 10
0.2276920385514476
 20
0.227529069164579
 10
0.2280975354258281
 20
0.2264019941735324
 10
0.2283232776877035
 20
0.2252621769409635
  0
CIRCLE
  5
2FC
102
{ACAD_REACTORS
330
30E
102
}
330
2
100
AcDbEntity
  8
Sezione
  6
ACAD_ISO10W100
 62
     3
 48
0.001
100
AcDbCircle
 10
0.2100819977218258
 20
0.1552114616923535
 30
0.0
 40
0.0775
  0
DIMENSION
  5
2FD
102
{ACAD_XDICTIONARY
360
307
102
}
102
{ACAD_REACTORS
330
30E
102
}
330
2
100
AcDbEntity
  8
Text
  6
ACAD_ISO10W100
100
AcDbDimension
  2
*D7
 10
0.1427406440142999
 20
0.1168527328182384
 30
0.0
 11
0.2959586849369241
 21
0.1950550445874023
 31
0.0
 70
    35
  1
d 155 mm
 71
     5
 42
0.1549999999999999
  3
Bovelacci
100
AcDbDiametricDimension
 15
0.2774233514293517
 25
0.1935701905664688
 35
0.0
 40
0.0
1001
ACAD
1000
DSTYLE
1002
{
1070
   288
1070
     1
1002
}
  0
ENDSEC
  0
SECTION
  2
OBJECTS
  0
DICTIONARY
  5
9
330
0
100
AcDbDictionary
281
     1
  3
ACAD_2007HEADERVARS_RT
350
208
  3
ACAD_COLOR
350
184
  3
ACAD_GROUP
350
17F
  3
ACAD_LAYOUT
350
164
  3
ACAD_MATERIAL
350
B
  3
ACAD_MLINESTYLE
350
180
  3
ACAD_PLOTSETTINGS
350
181
  3
ACAD_PLOTSTYLENAME
350
8
  3
ACAD_TABLESTYLE
350
185
  3
ACAD_VISUALSTYLE
350
17A
  3
ACDBHEADERROUNDTRIPXREC
350
320
  3
AcDbVariableDictionary
350
18B
  3
DWGPROPS
350
31F
  0
DICTIONARY
  5
16E
330
16D
100
AcDbDictionary
280
     1
281
     1
  3
ACAD_LAYERSTATES
360
16F
  0
DICTIONARY
  5
3
330
2
100
AcDbDictionary
280
     1
281
     1
  3
ACAD_SORTENTS
360
18A
  0
DICTIONARY
  5
321
330
18
100
AcDbDictionary
280
     1
281
     1
  3
ACAD_MTEXT_RT
360
322
  0
DICTIONARY
  5
307
330
2FD
100
AcDbDictionary
280
     1
281
     1
  3
ACAD_DIMASSOC
360
30E
  0
DICTIONARY
  5
208
102
{ACAD_REACTORS
330
9
102
}
330
9
100
AcDbDictionary
281
     1
  3
DIMFXL
350
209
  0
DICTIONARY
  5
184
102
{ACAD_REACTORS
330
9
102
}
330
9
100
AcDbDictionary
281
     1
  0
DICTIONARY
  5
17F
102
{ACAD_REACTORS
330
9
102
}
330
9
100
AcDbDictionary
281
     1
  0
DICTIONARY
  5
164
102
{ACAD_REACTORS
330
9
102
}
330
9
100
AcDbDictionary
281
     1
  3
Layout1
350
168
  3
Layout2
350
16C
  3
Model
350
163
  0
DICTIONARY
  5
B
102
{ACAD_REACTORS
330
9
102
}
330
9
100
AcDbDictionary
281
     1
  3
ByBlock
350
183
  3
ByLayer
350
182
  3
Global
350
A
  0
DICTIONARY
  5
180
102
{ACAD_REACTORS
330
9
102
}
330
9
100
AcDbDictionary
281
     1
  3
Standard
350
186
  0
DICTIONARY
  5
181
102
{ACAD_REACTORS
330
9
102
}
330
9
100
AcDbDictionary
281
     1
  0
ACDBDICTIONARYWDFLT
  5
8
102
{ACAD_REACTORS
330
9
102
}
330
9
100
AcDbDictionary
281
     1
  3
Normal
350
7
100
AcDbDictionaryWithDefault
340
7
  0
DICTIONARY
  5
185
102
{ACAD_REACTORS
330
9
102
}
330
9
100
AcDbDictionary
281
     1
  3
Standard
350
187
  0
DICTIONARY
  5
17A
102
{ACAD_REACTORS
330
9
102
}
330
9
100
AcDbDictionary
281
     1
  3
2dWireframe
350
179
  3
3D Hidden
350
1BD
  3
3dWireframe
350
189
  3
Basic
350
1BC
  3
Brighten
350
1C0
  3
ColorChange
350
1C4
  3
Conceptual
350
1BE
  3
Dim
350
1BF
  3
Facepattern
350
1C3
  3
Flat
350
1B8
  3
FlatWithEdges
350
1B9
  3
Gouraud
350
1BA
  3
GouraudWithEdges
350
1BB
  3
Linepattern
350
1C2
  3
Realistic
350
188
  3
Thicken
350
1C1
  0
DICTIONARY
  5
320
102
{ACAD_REACTORS
330
9
102
}
330
9
100
AcDbDictionary
281
     1
  0
DICTIONARY
  5
18B
102
{ACAD_REACTORS
330
9
102
}
330
9
100
AcDbDictionary
281
     1
  3
CTABLESTYLE
350
18C
  3
DIMASSOC
350
190
  3
HIDETEXT
350
18F
  3
INDEXCTL
350
18E
  3
PROJECTNAME
350
31D
  3
SORTENTS
350
18D
  0
XRECORD
  5
31F
102
{ACAD_REACTORS
330
9
102
}
330
9
100
AcDbXrecord
280
     1
  1
DWGPROPS COOKIE
  2

  3

  4

  6

  7

  8
Mario
  9

300
=
301
=
302
=
303
=
304
=
305
=
306
=
307
=
308
=
309
=
 40
0.0772240393518519
 41
2454297.625402373
 42
2454306.010687025
  1

 90
        0
  0
DICTIONARY
  5
16F
102
{ACAD_REACTORS
330
16E
102
}
330
16E
100
AcDbDictionary
281
     1
  0
SORTENTSTABLE
  5
18A
102
{ACAD_REACTORS
330
3
102
}
330
3
100
AcDbSortentsTable
330
2
331
2F2
  5
2F3
331
2D0
  5
2D1
331
2AE
  5
2AF
331
2E1
  5
2E2
331
2BF
  5
2C0
331
2F0
  5
2F1
331
2CE
  5
2CF
331
2AC
  5
2AD
331
2DF
  5
2E0
331
2BD
  5
2BE
331
D
  5
14
331
1E
  5
21
331
2EE
  5
2EF
331
2CC
  5
2CD
331
2DD
  5
2DE
331
2BB
  5
2BC
331
1C
  5
1E
331
2EC
  5
2ED
331
2CA
  5
2CB
331
2DB
  5
2DC
331
2B9
  5
2BA
331
2EA
  5
2EB
331
2C8
  5
2C9
331
2D9
  5
2DA
331
2B7
  5
2B8
331
18
  5
1D
331
2E8
  5
2E9
331
2D7
  5
2D8
331
2B5
  5
2B6
331
2C6
  5
2C7
331
16
  5
13
331
2D5
  5
2D6
331
2B3
  5
2B4
331
25
  5
23F
331
2E6
  5
2E7
331
2C4
  5
2C5
331
14
  5
11
331
2D3
  5
2D4
331
2B1
  5
2B2
331
23
  5
25
331
2E4
  5
2E5
331
2C2
  5
2C3
331
12
  5
17
331
2F3
  5
2F4
331
2D1
  5
2D2
331
2AF
  5
2B0
331
21
  5
23
331
2E2
  5
2E3
331
2C0
  5
2C1
331
10
  5
15
331
2F1
  5
2F2
331
2CF
  5
2D0
331
2AD
  5
2AE
331
2E0
  5
2E1
331
2BE
  5
2BF
331
1F
  5
22
331
2EF
  5
2F0
331
2CD
  5
2CE
331
2DE
  5
2DF
331
2BC
  5
2BD
331
1D
  5
1F
331
2ED
  5
2EE
331
2CB
  5
2CC
331
2DC
  5
2DD
331
2BA
  5
2BB
331
23F
  5
2AC
331
2EB
  5
2EC
331
2C9
  5
2CA
331
2DA
  5
2DB
331
2B8
  5
2B9
331
2FC
  5
D
331
2E9
  5
2EA
331
2D8
  5
2D9
331
2B6
  5
2B7
331
2C7
  5
2C8
331
17
  5
18
331
2D6
  5
2D7
331
2B4
  5
2B5
331
2E7
  5
2E8
331
2C5
  5
2C6
331
15
  5
12
331
2D4
  5
2D5
331
2B2
  5
2B3
331
24
  5
1C
331
2E5
  5
2E6
331
2C3
  5
2C4
331
13
  5
10
331
2F4
  5
2FC
331
2D2
  5
2D3
331
2B0
  5
2B1
331
22
  5
24
331
2E3
  5
2E4
331
2C1
  5
2C2
331
11
  5
16
  0
XRECORD
  5
322
102
{ACAD_REACTORS
330
321
102
}
330
321
100
AcDbXrecord
280
     1
 40
7955300.0
  1
{\fTimes New Roman|b0|i0|c238|p18;\H1.6x;\C4;Bovelacci\P\pt0.09;\H0.4375x;\T0.95;via del Commercio, 5  47100 Forli - Italy  \fTimes New Roman|b0|i0|c0|p18;\P\fTimes New Roman|b0|i0|c238|p18;tel.+39-0543721386  fax +39-0543721127\fTimes New Roman|b0|i
  1
0|c0|p18; \fTimes New Roman|b0|i0|c238|p18;www.bovelacci.it\fTimes New Roman|b0|i0|c0|p18; \fTimes New Roman|b0|i0|c238|p18;e-mail: bovelacci@bovelacci\fTimes New Roman|b0|i0|c0|p18;.it}
  0
DIMASSOC
  5
30E
102
{ACAD_REACTORS
330
307
102
}
330
307
100
AcDbDimAssoc
330
2FD
 90
        2
 70
     0
 71
     0
  1
AcDbOsnapPointRef
 72
     3
331
2FC
 73
     2
 91
        0
 40
0.0
 10
0.0
 20
0.0
 30
0.0
 75
     0
  0
XRECORD
  5
209
102
{ACAD_REACTORS
330
208
102
}
330
208
100
AcDbXrecord
280
     1
 40
0.18
  0
LAYOUT
  5
168
102
{ACAD_XDICTIONARY
360
325
102
}
102
{ACAD_REACTORS
330
164
102
}
330
164
100
AcDbPlotSettings
  1

  2
C:\Documents and Settings\All Users\Dati applicazioni\Autodesk\ADT 2006\enu\Plotters\Default Windows System Printer.pc3
  4

  6

 40
0.0
 41
0.0
 42
0.0
 43
0.0
 44
0.0
 45
0.0
 46
0.0
 47
0.0
 48
0.0
 49
0.0
140
0.0
141
0.0
142
1.0
143
1.0
 70
   688
 72
     0
 73
     0
 74
     5
  7

 75
    16
147
1.0
148
0.0
149
0.0
100
AcDbLayout
  1
Layout1
 70
     1
 71
     1
 10
0.0
 20
0.0
 11
420.0
 21
297.0
 12
0.0
 22
0.0
 32
0.0
 14
1.000000000000000E+20
 24
1.000000000000000E+20
 34
1.000000000000000E+20
 15
-1.000000000000000E+20
 25
-1.000000000000000E+20
 35
-1.000000000000000E+20
146
0.0
 13
0.0
 23
0.0
 33
0.0
 16
1.0
 26
0.0
 36
0.0
 17
0.0
 27
1.0
 37
0.0
 76
     0
330
165
  0
LAYOUT
  5
16C
102
{ACAD_XDICTIONARY
360
327
102
}
102
{ACAD_REACTORS
330
164
102
}
330
164
100
AcDbPlotSettings
  1

  2
C:\Documents and Settings\All Users\Dati applicazioni\Autodesk\ADT 2006\enu\Plotters\Default Windows System Printer.pc3
  4

  6

 40
0.0
 41
0.0
 42
0.0
 43
0.0
 44
0.0
 45
0.0
 46
0.0
 47
0.0
 48
0.0
 49
0.0
140
0.0
141
0.0
142
1.0
143
1.0
 70
   688
 72
     0
 73
     0
 74
     5
  7

 75
    16
147
1.0
148
0.0
149
0.0
100
AcDbLayout
  1
Layout2
 70
     1
 71
     2
 10
0.0
 20
0.0
 11
12.0
 21
9.0
 12
0.0
 22
0.0
 32
0.0
 14
0.0
 24
0.0
 34
0.0
 15
0.0
 25
0.0
 35
0.0
146
0.0
 13
0.0
 23
0.0
 33
0.0
 16
1.0
 26
0.0
 36
0.0
 17
0.0
 27
1.0
 37
0.0
 76
     0
330
169
  0
LAYOUT
  5
163
102
{ACAD_XDICTIONARY
360
323
102
}
102
{ACAD_REACTORS
330
164
102
}
330
164
100
AcDbPlotSettings
  1

  2
C:\Documents and Settings\All Users\Dati applicazioni\Autodesk\ADT 2006\enu\Plotters\Default Windows System Printer.pc3
  4

  6

 40
0.0
 41
0.0
 42
0.0
 43
0.0
 44
0.0
 45
0.0
 46
0.0
 47
0.0
 48
0.0
 49
0.0
140
0.0
141
0.0
142
1.0
143
1.0
 70
  1712
 72
     0
 73
     0
 74
     0
  7

 75
     0
147
1.0
148
0.0
149
0.0
100
AcDbLayout
  1
Model
 70
     1
 71
     0
 10
0.0
 20
0.0
 11
12.0
 21
9.0
 12
0.0
 22
0.0
 32
0.0
 14
0.0
 24
0.0
 34
0.0
 15
0.0
 25
0.0
 35
0.0
146
0.0
 13
0.0
 23
0.0
 33
0.0
 16
1.0
 26
0.0
 36
0.0
 17
0.0
 27
1.0
 37
0.0
 76
     0
330
2
  0
MATERIAL
  5
183
102
{ACAD_XDICTIONARY
360
1B0
102
}
102
{ACAD_REACTORS
330
B
102
}
330
B
100
AcDbMaterial
  1
ByBlock
  0
MATERIAL
  5
182
102
{ACAD_XDICTIONARY
360
1AE
102
}
102
{ACAD_REACTORS
330
B
102
}
330
B
100
AcDbMaterial
  1
ByLayer
  0
MATERIAL
  5
A
102
{ACAD_XDICTIONARY
360
193
102
}
102
{ACAD_REACTORS
330
B
102
}
330
B
100
AcDbMaterial
  1
Global
  0
MLINESTYLE
  5
186
102
{ACAD_REACTORS
330
180
102
}
330
180
100
AcDbMlineStyle
  2
STANDARD
 70
     0
  3

 62
   256
 51
90.0
 52
90.0
 71
     2
 49
0.5
 62
   256
  6
BYLAYER
 49
-0.5
 62
   256
  6
BYLAYER
  0
ACDBPLACEHOLDER
  5
7
102
{ACAD_REACTORS
330
8
102
}
330
8
  0
TABLESTYLE
  5
187
102
{ACAD_XDICTIONARY
360
21A
102
}
102
{ACAD_REACTORS
330
185
102
}
330
185
100
AcDbTableStyle
  3
Standard
 70
     0
 71
     0
 40
1.5
 41
1.5
280
     0
281
     0
  7
Standard
140
4.5
170
     2
 62
     0
 63
     7
283
     0
274
    -2
284
     1
 64
     0
275
    -2
285
     1
 65
     0
276
    -2
286
     1
 66
     0
277
    -2
287
     1
 67
     0
278
    -2
288
     1
 68
     0
279
    -2
289
     1
 69
     0
  7
Standard
140
6.0
170
     5
 62
     0
 63
     7
283
     0
274
    -2
284
     1
 64
     0
275
    -2
285
     1
 65
     0
276
    -2
286
     1
 66
     0
277
    -2
287
     1
 67
     0
278
    -2
288
     1
 68
     0
279
    -2
289
     1
 69
     0
  7
Standard
140
4.5
170
     5
 62
     0
 63
     7
283
     0
274
    -2
284
     1
 64
     0
275
    -2
285
     1
 65
     0
276
    -2
286
     1
 66
     0
277
    -2
287
     1
 67
     0
278
    -2
288
     1
 68
     0
279
    -2
289
     1
 69
     0
  0
VISUALSTYLE
  5
179
102
{ACAD_REACTORS
330
17A
102
}
330
17A
100
AcDbVisualStyle
  2
2dWireframe
 70
     4
 71
     0
 72
     2
 73
     0
 90
        0
 40
-0.6
 41
-30.0
 62
     5
 63
     7
 74
     1
 91
        4
 64
     7
 65
   257
 75
     1
175
     1
 42
1.0
 92
        0
 66
   257
 43
1.0
 76
     1
 77
     6
 78
     2
 67
     7
 79
     5
170
     0
171
     0
290
     0
174
     0
 93
        1
 44
0.0
173
     0
291
     0
 45
0.0
1001
ACAD
1000
AcDbSavedByObjectVersion
1070
     0
1000
AcDbSavedByObjectVersion
1070
     0
1000
AcDbSavedByObjectVersion
1070
     0
1001
ACAD
1000
AcRTDxfName
1000
VISUALSTYLE
  0
VISUALSTYLE
  5
1BD
102
{ACAD_REACTORS
330
17A
102
}
330
17A
100
AcDbVisualStyle
  2
3D Hidden
 70
     6
 71
     1
 72
     2
 73
     2
 90
        0
 40
-0.6
 41
-30.0
 62
     5
 63
     7
 74
     2
 91
        2
 64
     7
 65
   257
 75
     2
175
     1
 42
40.0
 92
        0
 66
   257
 43
1.0
 76
     1
 77
     6
 78
     2
 67
     7
 79
     3
170
     0
171
     0
290
     0
174
     0
 93
        1
 44
0.0
173
     0
291
     0
 45
0.0
1001
ACAD
1000
AcDbSavedByObjectVersion
1070
     0
1000
AcDbSavedByObjectVersion
1070
     0
1001
ACAD
1000
AcRTDxfName
1000
VISUALSTYLE
  0
VISUALSTYLE
  5
189
102
{ACAD_REACTORS
330
17A
102
}
330
17A
100
AcDbVisualStyle
  2
3dWireframe
 70
     5
 71
     0
 72
     2
 73
     0
 90
        0
 40
-0.6
 41
-30.0
 62
     5
 63
     7
 74
     1
 91
        4
 64
     7
 65
   257
 75
     1
175
     1
 42
1.0
 92
        0
 66
   257
 43
1.0
 76
     1
 77
     6
 78
     2
 67
     7
 79
     5
170
     0
171
     0
290
     0
174
     0
 93
        1
 44
0.0
173
     0
291
     0
 45
0.0
1001
ACAD
1000
AcDbSavedByObjectVersion
1070
     0
1000
AcDbSavedByObjectVersion
1070
     0
1000
AcDbSavedByObjectVersion
1070
     0
1001
ACAD
1000
AcRTDxfName
1000
VISUALSTYLE
  0
VISUALSTYLE
  5
1BC
102
{ACAD_REACTORS
330
17A
102
}
330
17A
100
AcDbVisualStyle
  2
Basic
 70
     7
 71
     1
 72
     0
 73
     1
 90
        0
 40
-0.6
 41
-30.0
 62
     5
 63
     7
 74
     0
 91
        4
 64
     7
 65
   257
 75
     1
175
     1
 42
1.0
 92
        8
 66
     7
 43
1.0
 76
     1
 77
     6
 78
     2
 67
     7
 79
     5
170
     0
171
     0
290
     0
174
     0
 93
        1
 44
0.0
173
     0
291
     1
 45
0.0
1001
ACAD
1000
AcDbSavedByObjectVersion
1070
     0
1000
AcDbSavedByObjectVersion
1070
     0
1001
ACAD
1000
AcRTDxfName
1000
VISUALSTYLE
  0
VISUALSTYLE
  5
1C0
102
{ACAD_REACTORS
330
17A
102
}
330
17A
100
AcDbVisualStyle
  2
Brighten
 70
    12
 71
     2
 72
     2
 73
     0
 90
        0
 40
-0.6
 41
-30.0
 62
     5
 63
     7
 74
     1
 91
        4
 64
     7
 65
   257
 75
     1
175
     1
 42
1.0
 92
        8
 66
     7
 43
1.0
 76
     1
 77
     6
 78
     2
 67
     7
 79
     5
170
     0
171
     0
290
     0
174
     0
 93
        1
 44
50.0
173
     0
291
     1
 45
0.0
1001
ACAD
1000
AcDbSavedByObjectVersion
1070
     0
1000
AcDbSavedByObjectVersion
1070
     0
1001
ACAD
1000
AcRTDxfName
1000
VISUALSTYLE
  0
VISUALSTYLE
  5
1C4
102
{ACAD_REACTORS
330
17A
102
}
330
17A
100
AcDbVisualStyle
  2
ColorChange
 70
    16
 71
     2
 72
     2
 73
     3
 90
        0
 40
-0.6
 41
-30.0
 62
     5
 63
     8
 74
     1
 91
        4
 64
     7
 65
   257
 75
     1
175
     1
 42
1.0
 92
        8
 66
     8
 43
1.0
 76
     1
 77
     6
 78
     2
 67
     7
 79
     5
170
     0
171
     0
290
     0
174
     0
 93
        1
 44
0.0
173
     0
291
     1
 45
0.0
1001
ACAD
1000
AcDbSavedByObjectVersion
1070
     0
1000
AcDbSavedByObjectVersion
1070
     0
1001
ACAD
1000
AcRTDxfName
1000
VISUALSTYLE
  0
VISUALSTYLE
  5
1BE
102
{ACAD_REACTORS
330
17A
102
}
330
17A
100
AcDbVisualStyle
  2
Conceptual
 70
     9
 71
     3
 72
     2
 73
     0
 90
        0
 40
-0.6
 41
-30.0
 62
     5
 63
     7
 74
     2
 91
        2
 64
     7
 65
   257
 75
     1
175
     1
 42
40.0
 92
        8
 66
     7
 43
1.0
 76
     1
 77
     6
 78
     2
 67
     7
 79
     3
170
     0
171
     0
290
     0
174
     0
 93
        1
 44
0.0
173
     0
291
     0
 45
0.0
1001
ACAD
1000
AcDbSavedByObjectVersion
1070
     0
1000
AcDbSavedByObjectVersion
1070
     0
1001
ACAD
1000
AcRTDxfName
1000
VISUALSTYLE
  0
VISUALSTYLE
  5
1BF
102
{ACAD_REACTORS
330
17A
102
}
330
17A
100
AcDbVisualStyle
  2
Dim
 70
    11
 71
     2
 72
     2
 73
     0
 90
        0
 40
-0.6
 41
-30.0
 62
     5
 63
     7
 74
     1
 91
        4
 64
     7
 65
   257
 75
     1
175
     1
 42
1.0
 92
        8
 66
     7
 43
1.0
 76
     1
 77
     6
 78
     2
 67
     7
 79
     5
170
     0
171
     0
290
     0
174
     0
 93
        1
 44
-50.0
173
     0
291
     1
 45
0.0
1001
ACAD
1000
AcDbSavedByObjectVersion
1070
     0
1000
AcDbSavedByObjectVersion
1070
     0
1001
ACAD
1000
AcRTDxfName
1000
VISUALSTYLE
  0
VISUALSTYLE
  5
1C3
102
{ACAD_REACTORS
330
17A
102
}
330
17A
100
AcDbVisualStyle
  2
Facepattern
 70
    15
 71
     2
 72
     2
 73
     0
 90
        0
 40
-0.6
 41
-30.0
 62
     5
 63
     7
 74
     1
 91
        4
 64
     7
 65
   257
 75
     1
175
     1
 42
1.0
 92
        8
 66
     7
 43
1.0
 76
     1
 77
     6
 78
     2
 67
     7
 79
     5
170
     0
171
     0
290
     0
174
     0
 93
        1
 44
0.0
173
     0
291
     1
 45
0.0
1001
ACAD
1000
AcDbSavedByObjectVersion
1070
     0
1000
AcDbSavedByObjectVersion
1070
     0
1001
ACAD
1000
AcRTDxfName
1000
VISUALSTYLE
  0
VISUALSTYLE
  5
1B8
102
{ACAD_REACTORS
330
17A
102
}
330
17A
100
AcDbVisualStyle
  2
Flat
 70
     0
 71
     2
 72
     1
 73
     1
 90
        2
 40
-0.6
 41
30.0
 62
     5
 63
     7
 74
     0
 91
        4
 64
     7
 65
   257
 75
     1
175
     1
 42
1.0
 92
        8
 66
     7
 43
1.0
 76
     1
 77
     6
 78
     2
 67
     7
 79
     5
170
     0
171
     0
290
     0
174
     0
 93
       13
 44
0.0
173
     0
291
     1
 45
0.0
1001
ACAD
1000
AcDbSavedByObjectVersion
1070
     0
1000
AcDbSavedByObjectVersion
1070
     0
1001
ACAD
1000
AcRTDxfName
1000
VISUALSTYLE
  0
VISUALSTYLE
  5
1B9
102
{ACAD_REACTORS
330
17A
102
}
330
17A
100
AcDbVisualStyle
  2
FlatWithEdges
 70
     1
 71
     2
 72
     1
 73
     1
 90
        2
 40
-0.6
 41
30.0
 62
     5
 63
     7
 74
     1
 91
        4
 64
     7
 65
   257
 75
     1
175
     1
 42
1.0
 92
        0
 66
   257
 43
1.0
 76
     1
 77
     6
 78
     2
 67
     7
 79
     5
170
     0
171
     0
290
     0
174
     0
 93
       13
 44
0.0
173
     0
291
     1
 45
0.0
1001
ACAD
1000
AcDbSavedByObjectVersion
1070
     0
1000
AcDbSavedByObjectVersion
1070
     0
1001
ACAD
1000
AcRTDxfName
1000
VISUALSTYLE
  0
VISUALSTYLE
  5
1BA
102
{ACAD_REACTORS
330
17A
102
}
330
17A
100
AcDbVisualStyle
  2
Gouraud
 70
     2
 71
     2
 72
     2
 73
     1
 90
        2
 40
-0.6
 41
30.0
 62
     5
 63
     7
 74
     0
 91
        4
 64
     7
 65
   257
 75
     1
175
     1
 42
1.0
 92
        0
 66
     7
 43
1.0
 76
     1
 77
     6
 78
     2
 67
     7
 79
     5
170
     0
171
     0
290
     0
174
     0
 93
       13
 44
0.0
173
     0
291
     1
 45
0.0
1001
ACAD
1000
AcDbSavedByObjectVersion
1070
     0
1000
AcDbSavedByObjectVersion
1070
     0
1001
ACAD
1000
AcRTDxfName
1000
VISUALSTYLE
  0
VISUALSTYLE
  5
1BB
102
{ACAD_REACTORS
330
17A
102
}
330
17A
100
AcDbVisualStyle
  2
GouraudWithEdges
 70
     3
 71
     2
 72
     2
 73
     1
 90
        2
 40
-0.6
 41
30.0
 62
     5
 63
     7
 74
     1
 91
        4
 64
     7
 65
   257
 75
     1
175
     1
 42
1.0
 92
        0
 66
   257
 43
1.0
 76
     1
 77
     6
 78
     2
 67
     7
 79
     5
170
     0
171
     0
290
     0
174
     0
 93
       13
 44
0.0
173
     0
291
     1
 45
0.0
1001
ACAD
1000
AcDbSavedByObjectVersion
1070
     0
1000
AcDbSavedByObjectVersion
1070
     0
1001
ACAD
1000
AcRTDxfName
1000
VISUALSTYLE
  0
VISUALSTYLE
  5
1C2
102
{ACAD_REACTORS
330
17A
102
}
330
17A
100
AcDbVisualStyle
  2
Linepattern
 70
    14
 71
     2
 72
     2
 73
     0
 90
        0
 40
-0.6
 41
-30.0
 62
     5
 63
     7
 74
     1
 91
        4
 64
     7
 65
   257
 75
     7
175
     7
 42
1.0
 92
        8
 66
     7
 43
1.0
 76
     1
 77
     6
 78
     2
 67
     7
 79
     5
170
     0
171
     0
290
     0
174
     0
 93
        1
 44
0.0
173
     0
291
     1
 45
0.0
1001
ACAD
1000
AcDbSavedByObjectVersion
1070
     0
1000
AcDbSavedByObjectVersion
1070
     0
1001
ACAD
1000
AcRTDxfName
1000
VISUALSTYLE
  0
VISUALSTYLE
  5
188
102
{ACAD_REACTORS
330
17A
102
}
330
17A
100
AcDbVisualStyle
  2
Realistic
 70
     8
 71
     2
 72
     2
 73
     0
 90
        0
 40
-0.6
 41
-30.0
 62
     5
 63
     7
 74
     1
 91
        0
 64
     7
 65
   257
 75
     1
175
     1
 42
1.0
 92
        8
 66
     8
 43
1.0
 76
     1
 77
     6
 78
     2
 67
     7
 79
     5
170
     0
171
     0
290
     0
174
     0
 93
       13
 44
0.0
173
     0
291
     0
 45
0.0
1001
ACAD
1000
AcDbSavedByObjectVersion
1070
     0
1000
AcDbSavedByObjectVersion
1070
     0
1000
AcDbSavedByObjectVersion
1070
     0
1001
ACAD
1000
AcRTDxfName
1000
VISUALSTYLE
  0
VISUALSTYLE
  5
1C1
102
{ACAD_REACTORS
330
17A
102
}
330
17A
100
AcDbVisualStyle
  2
Thicken
 70
    13
 71
     2
 72
     2
 73
     0
 90
        0
 40
-0.6
 41
-30.0
 62
     5
 63
     7
 74
     1
 91
        4
 64
     7
 65
   257
 75
     1
175
     1
 42
1.0
 92
       12
 66
     7
 43
1.0
 76
     1
 77
     6
 78
     2
 67
     7
 79
     5
170
     0
171
     0
290
     0
174
     0
 93
        1
 44
0.0
173
     0
291
     1
 45
0.0
1001
ACAD
1000
AcDbSavedByObjectVersion
1070
     0
1000
AcDbSavedByObjectVersion
1070
     0
1001
ACAD
1000
AcRTDxfName
1000
VISUALSTYLE
  0
DICTIONARYVAR
  5
18C
102
{ACAD_REACTORS
330
18B
102
}
330
18B
100
DictionaryVariables
280
     0
  1
STANDARD
  0
DICTIONARYVAR
  5
190
102
{ACAD_REACTORS
330
18B
102
}
330
18B
100
DictionaryVariables
280
     0
  1
2
  0
DICTIONARYVAR
  5
18F
102
{ACAD_REACTORS
330
18B
102
}
330
18B
100
DictionaryVariables
280
     0
  1
1
  0
DICTIONARYVAR
  5
18E
102
{ACAD_REACTORS
330
18B
102
}
330
18B
100
DictionaryVariables
280
     0
  1
0
  0
DICTIONARYVAR
  5
31D
102
{ACAD_REACTORS
330
18B
102
}
330
18B
100
DictionaryVariables
280
     0
  1

  0
DICTIONARYVAR
  5
18D
102
{ACAD_REACTORS
330
18B
102
}
330
18B
100
DictionaryVariables
280
     0
  1
127
  0
DICTIONARY
  5
325
330
168
100
AcDbDictionary
280
     1
281
     1
  3
ACAD_XREC_ROUNDTRIP
360
326
  0
DICTIONARY
  5
327
330
16C
100
AcDbDictionary
280
     1
281
     1
  3
ACAD_XREC_ROUNDTRIP
360
328
  0
DICTIONARY
  5
323
330
163
100
AcDbDictionary
280
     1
281
     1
  3
ACAD_XREC_ROUNDTRIP
360
324
  0
DICTIONARY
  5
1B0
330
183
100
AcDbDictionary
280
     1
281
     1
  3
ACAD_XREC_ROUNDTRIP
360
1B1
  0
DICTIONARY
  5
1AE
330
182
100
AcDbDictionary
280
     1
281
     1
  3
ACAD_XREC_ROUNDTRIP
360
1AF
  0
DICTIONARY
  5
193
330
A
100
AcDbDictionary
280
     1
281
     1
  3
ACAD_XREC_ROUNDTRIP
360
194
  0
DICTIONARY
  5
21A
330
187
100
AcDbDictionary
280
     1
281
     1
  3
ACAD_XREC_ROUNDTRIP
360
21B
  0
XRECORD
  5
326
102
{ACAD_REACTORS
330
325
102
}
330
325
100
AcDbXrecord
280
     1
102
SHADEPLOT
 70
     0
102
SHADEPLOTRESLEVEL
 70
     2
102
SHADEPLOTCUSTOMDPI
 70
   300
  0
XRECORD
  5
328
102
{ACAD_REACTORS
330
327
102
}
330
327
100
AcDbXrecord
280
     1
102
SHADEPLOT
 70
     0
102
SHADEPLOTRESLEVEL
 70
     2
102
SHADEPLOTCUSTOMDPI
 70
   300
  0
XRECORD
  5
324
102
{ACAD_REACTORS
330
323
102
}
330
323
100
AcDbXrecord
280
     1
102
SHADEPLOT
 70
     0
102
SHADEPLOTRESLEVEL
 70
     2
102
SHADEPLOTCUSTOMDPI
 70
   300
  0
XRECORD
  5
1B1
102
{ACAD_REACTORS
330
1B0
102
}
330
1B0
100
AcDbXrecord
280
     1
102
MATERIAL
148
0.0
149
0.0
149
0.0
 93
        0
 94
       63
282
     0
 72
     1
 77
     1
171
     1
175
     1
179
     1
273
     0
  0
XRECORD
  5
1AF
102
{ACAD_REACTORS
330
1AE
102
}
330
1AE
100
AcDbXrecord
280
     1
102
MATERIAL
148
0.0
149
0.0
149
0.0
 93
        0
 94
       63
282
     0
 72
     1
 77
     1
171
     1
175
     1
179
     1
273
     0
  0
XRECORD
  5
194
102
{ACAD_REACTORS
330
193
102
}
330
193
100
AcDbXrecord
280
     1
102
MATERIAL
148
0.0
149
0.0
149
0.0
 93
        0
 94
       63
282
     0
 72
     1
 77
     1
171
     1
175
     1
179
     1
273
     0
  0
XRECORD
  5
21B
102
{ACAD_REACTORS
330
21A
102
}
330
21A
100
AcDbXrecord
280
     1
102
ACAD_ROUNDTRIP_PRE2007_TABLESTYLE
 90
        4
 91
        0
  1

 92
        4
 93
        0
  2

 94
        4
 95
        0
  3

  0
ENDSEC
  0
EOF
