  0
SECTION
  2
HEADER
  9
$ACADVER
  1
AC1015
  9
$ACADMAINTVER
 70
    20
  9
$DWGCODEPAGE
  3
ANSI_1252
  9
$INSBASE
 10
0.0
 20
0.0
 30
0.0
  9
$EXTMIN
 10
0.0149999999999999
 20
0.015
 30
0.0
  9
$EXTMAX
 10
0.6907629201835047
 20
0.282
 30
0.0
  9
$LIMMIN
 10
0.0
 20
0.0
  9
$LIMMAX
 10
1.0
 20
0.5
  9
$ORTHOMODE
 70
     0
  9
$REGENMODE
 70
     1
  9
$FILLMODE
 70
     1
  9
$QTEXTMODE
 70
     0
  9
$MIRRTEXT
 70
     0
  9
$LTSCALE
 40
1.0
  9
$ATTMODE
 70
     1
  9
$TEXTSIZE
 40
0.008
  9
$TRACEWID
 40
1.0
  9
$TEXTSTYLE
  7
style1
  9
$CLAYER
  8
Sezione
  9
$CELTYPE
  6
ACAD_ISO10W100
  9
$CECOLOR
 62
   256
  9
$CELTSCALE
 40
1.0
  9
$DISPSILH
 70
     0
  9
$DIMSCALE
 40
0.001
  9
$DIMASZ
 40
1.5
  9
$DIMEXO
 40
0.0625
  9
$DIMDLI
 40
0.38
  9
$DIMRND
 40
0.0
  9
$DIMDLE
 40
0.0
  9
$DIMEXE
 40
0.18
  9
$DIMTP
 40
0.0
  9
$DIMTM
 40
0.0
  9
$DIMTXT
 40
3.0
  9
$DIMCEN
 40
0.0
  9
$DIMTSZ
 40
0.0
  9
$DIMTOL
 70
     0
  9
$DIMLIM
 70
     0
  9
$DIMTIH
 70
     1
  9
$DIMTOH
 70
     1
  9
$DIMSE1
 70
     0
  9
$DIMSE2
 70
     0
  9
$DIMTAD
 70
     0
  9
$DIMZIN
 70
     0
  9
$DIMBLK
  1
ArchTick
  9
$DIMASO
 70
     1
  9
$DIMSHO
 70
     1
  9
$DIMPOST
  1

  9
$DIMAPOST
  1

  9
$DIMALT
 70
     0
  9
$DIMALTD
 70
     2
  9
$DIMALTF
 40
25.4
  9
$DIMLFAC
 40
1.0
  9
$DIMTOFL
 70
     0
  9
$DIMTVP
 40
0.0
  9
$DIMTIX
 70
     0
  9
$DIMSOXD
 70
     0
  9
$DIMSAH
 70
     0
  9
$DIMBLK1
  1

  9
$DIMBLK2
  1

  9
$DIMSTYLE
  2
Bovelacci
  9
$DIMCLRD
 70
     5
  9
$DIMCLRE
 70
     5
  9
$DIMCLRT
 70
     4
  9
$DIMTFAC
 40
1.0
  9
$DIMGAP
 40
2.0
  9
$DIMJUST
 70
     0
  9
$DIMSD1
 70
     0
  9
$DIMSD2
 70
     0
  9
$DIMTOLJ
 70
     1
  9
$DIMTZIN
 70
     0
  9
$DIMALTZ
 70
     0
  9
$DIMALTTZ
 70
     0
  9
$DIMUPT
 70
     0
  9
$DIMDEC
 70
     2
  9
$DIMTDEC
 70
     2
  9
$DIMALTU
 70
     2
  9
$DIMALTTD
 70
     2
  9
$DIMTXSTY
  7
ROMANS
  9
$DIMAUNIT
 70
     0
  9
$DIMADEC
 70
     0
  9
$DIMALTRND
 40
0.0
  9
$DIMAZIN
 70
     0
  9
$DIMDSEP
 70
    46
  9
$DIMATFIT
 70
     3
  9
$DIMFRAC
 70
     0
  9
$DIMLDRBLK
  1

  9
$DIMLUNIT
 70
     2
  9
$DIMLWD
 70
    -2
  9
$DIMLWE
 70
    -2
  9
$DIMTMOVE
 70
     2
  9
$LUNITS
 70
     2
  9
$LUPREC
 70
     2
  9
$SKETCHINC
 40
1.0
  9
$FILLETRAD
 40
0.0
  9
$AUNITS
 70
     0
  9
$AUPREC
 70
     0
  9
$MENU
  1
.
  9
$ELEVATION
 40
0.0
  9
$PELEVATION
 40
0.0
  9
$THICKNESS
 40
0.0
  9
$LIMCHECK
 70
     0
  9
$CHAMFERA
 40
0.0
  9
$CHAMFERB
 40
0.0
  9
$CHAMFERC
 40
0.0
  9
$CHAMFERD
 40
0.0
  9
$SKPOLY
 70
     0
  9
$TDCREATE
 40
2454297.625402373
  9
$TDUCREATE
 40
2454297.542069039
  9
$TDUPDATE
 40
2454306.027971643
  9
$TDUUPDATE
 40
2454305.944638310
  9
$TDINDWG
 40
0.0945101042
  9
$TDUSRTIMER
 40
0.0945081019
  9
$USRTIMER
 70
     1
  9
$ANGBASE
 50
0.0
  9
$ANGDIR
 70
     0
  9
$PDMODE
 70
     0
  9
$PDSIZE
 40
0.0
  9
$PLINEWID
 40
0.0
  9
$SPLFRAME
 70
     0
  9
$SPLINETYPE
 70
     6
  9
$SPLINESEGS
 70
     8
  9
$HANDSEED
  5
51B
  9
$SURFTAB1
 70
     6
  9
$SURFTAB2
 70
     6
  9
$SURFTYPE
 70
     6
  9
$SURFU
 70
     6
  9
$SURFV
 70
     6
  9
$UCSBASE
  2

  9
$UCSNAME
  2

  9
$UCSORG
 10
0.0
 20
0.0
 30
0.0
  9
$UCSXDIR
 10
1.0
 20
0.0
 30
0.0
  9
$UCSYDIR
 10
0.0
 20
1.0
 30
0.0
  9
$UCSORTHOREF
  2

  9
$UCSORTHOVIEW
 70
     0
  9
$UCSORGTOP
 10
0.0
 20
0.0
 30
0.0
  9
$UCSORGBOTTOM
 10
0.0
 20
0.0
 30
0.0
  9
$UCSORGLEFT
 10
0.0
 20
0.0
 30
0.0
  9
$UCSORGRIGHT
 10
0.0
 20
0.0
 30
0.0
  9
$UCSORGFRONT
 10
0.0
 20
0.0
 30
0.0
  9
$UCSORGBACK
 10
0.0
 20
0.0
 30
0.0
  9
$PUCSBASE
  2

  9
$PUCSNAME
  2

  9
$PUCSORG
 10
0.0
 20
0.0
 30
0.0
  9
$PUCSXDIR
 10
1.0
 20
0.0
 30
0.0
  9
$PUCSYDIR
 10
0.0
 20
1.0
 30
0.0
  9
$PUCSORTHOREF
  2

  9
$PUCSORTHOVIEW
 70
     0
  9
$PUCSORGTOP
 10
0.0
 20
0.0
 30
0.0
  9
$PUCSORGBOTTOM
 10
0.0
 20
0.0
 30
0.0
  9
$PUCSORGLEFT
 10
0.0
 20
0.0
 30
0.0
  9
$PUCSORGRIGHT
 10
0.0
 20
0.0
 30
0.0
  9
$PUCSORGFRONT
 10
0.0
 20
0.0
 30
0.0
  9
$PUCSORGBACK
 10
0.0
 20
0.0
 30
0.0
  9
$USERI1
 70
     0
  9
$USERI2
 70
     0
  9
$USERI3
 70
     0
  9
$USERI4
 70
     0
  9
$USERI5
 70
     0
  9
$USERR1
 40
0.0
  9
$USERR2
 40
0.0
  9
$USERR3
 40
0.0
  9
$USERR4
 40
0.0
  9
$USERR5
 40
0.0
  9
$WORLDVIEW
 70
     1
  9
$SHADEDGE
 70
     3
  9
$SHADEDIF
 70
    70
  9
$TILEMODE
 70
     1
  9
$MAXACTVP
 70
    64
  9
$PINSBASE
 10
0.0
 20
0.0
 30
0.0
  9
$PLIMCHECK
 70
     0
  9
$PEXTMIN
 10
1.000000000000000E+20
 20
1.000000000000000E+20
 30
1.000000000000000E+20
  9
$PEXTMAX
 10
-1.000000000000000E+20
 20
-1.000000000000000E+20
 30
-1.000000000000000E+20
  9
$PLIMMIN
 10
0.0
 20
0.0
  9
$PLIMMAX
 10
420.0
 20
297.0
  9
$UNITMODE
 70
     0
  9
$VISRETAIN
 70
     1
  9
$PLINEGEN
 70
     0
  9
$PSLTSCALE
 70
     1
  9
$TREEDEPTH
 70
  3020
  9
$CMLSTYLE
  2
Standard
  9
$CMLJUST
 70
     0
  9
$CMLSCALE
 40
20.0
  9
$PROXYGRAPHICS
 70
     1
  9
$MEASUREMENT
 70
     1
  9
$CELWEIGHT
370
    -1
  9
$ENDCAPS
280
     0
  9
$JOINSTYLE
280
     0
  9
$LWDISPLAY
290
     0
  9
$INSUNITS
 70
     4
  9
$HYPERLINKBASE
  1

  9
$STYLESHEET
  1

  9
$XEDIT
290
     1
  9
$CEPSNTYPE
380
     0
  9
$PSTYLEMODE
290
     1
  9
$FINGERPRINTGUID
  2
{904A8C64-524F-4709-A9C6-320D2C273A6D}
  9
$VERSIONGUID
  2
{2BD7532B-8C33-4406-8384-2F9D3D5736CF}
  9
$EXTNAMES
290
     1
  9
$PSVPSCALE
 40
0.0
  9
$OLESTARTUP
290
     0
  0
ENDSEC
  0
SECTION
  2
CLASSES
  0
CLASS
  1
ACDBDICTIONARYWDFLT
  2
AcDbDictionaryWithDefault
  3
ObjectDBX Classes
 90
        0
280
     0
281
     0
  0
CLASS
  1
TABLESTYLE
  2
AcDbTableStyle
  3
ObjectDBX Classes
 90
     2047
280
     0
281
     0
  0
CLASS
  1
SORTENTSTABLE
  2
AcDbSortentsTable
  3
ObjectDBX Classes
 90
        0
280
     0
281
     0
  0
CLASS
  1
DICTIONARYVAR
  2
AcDbDictionaryVar
  3
ObjectDBX Classes
 90
        0
280
     0
281
     0
  0
CLASS
  1
ACDBPLACEHOLDER
  2
AcDbPlaceHolder
  3
ObjectDBX Classes
 90
        0
280
     0
281
     0
  0
CLASS
  1
LAYOUT
  2
AcDbLayout
  3
ObjectDBX Classes
 90
        0
280
     0
281
     0
  0
CLASS
  1
DIMASSOC
  2
AcDbDimAssoc
  3
"AcDbDimAssoc|Product Desc:     AcDim ARX App For Dimension|Company:          Autodesk, Inc.|WEB Address:      www.autodesk.com"
 90
        0
280
     0
281
     0
  0
CLASS
  1
MATERIAL
  2
AcDbMaterial
  3
ObjectDBX Classes
 90
        0
280
     0
281
     0
  0
CLASS
  1
VISUALSTYLE
  2
AcDbVisualStyle
  3
ObjectDBX Classes
 90
     4095
280
     0
281
     0
  0
ENDSEC
  0
SECTION
  2
TABLES
  0
TABLE
  2
VPORT
  5
177
330
0
100
AcDbSymbolTable
 70
     9
  0
VPORT
  5
510
330
177
100
AcDbSymbolTableRecord
100
AcDbViewportTableRecord
  2
*Active
 70
     0
 10
0.0
 20
0.0
 11
1.0
 21
1.0
 12
0.2012794924223895
 22
0.1494549669422215
 13
0.0
 23
0.0
 14
10.0
 24
10.0
 15
10.0
 25
10.0
 16
0.0
 26
0.0
 36
1.0
 17
0.0
 27
0.0
 37
0.0
 40
0.2791619360126267
 41
1.546526867627784
 42
50.0
 43
0.0
 44
0.0
 50
0.0
 51
0.0
 71
     0
 72
  1000
 73
     1
 74
     3
 75
     0
 76
     0
 77
     0
 78
     0
281
     0
 65
     1
110
0.0
120
0.0
130
0.0
111
1.0
121
0.0
131
0.0
112
0.0
122
1.0
132
0.0
 79
     0
146
0.0
  0
ENDTAB
  0
TABLE
  2
LTYPE
  5
172
330
0
100
AcDbSymbolTable
 70
     3
  0
LTYPE
  5
173
330
172
100
AcDbSymbolTableRecord
100
AcDbLinetypeTableRecord
  2
ByBlock
 70
     0
  3

 72
    65
 73
     0
 40
0.0
  0
LTYPE
  5
174
330
172
100
AcDbSymbolTableRecord
100
AcDbLinetypeTableRecord
  2
ByLayer
 70
     0
  3

 72
    65
 73
     0
 40
0.0
  0
LTYPE
  5
C
330
172
100
AcDbSymbolTableRecord
100
AcDbLinetypeTableRecord
  2
Continuous
 70
     0
  3
Solid line
 72
    65
 73
     0
 40
0.0
  0
LTYPE
  5
14E
330
172
100
AcDbSymbolTableRecord
100
AcDbLinetypeTableRecord
  2
ACAD_ISO10W100
 70
     0
  3
ISO dash dot __ . __ . __ . __ . __ . __ . __ .
 72
    65
 73
     4
 40
18.0
 49
12.0
 74
     0
 49
-3.0
 74
     0
 49
0.0
 74
     0
 49
-3.0
 74
     0
  0
ENDTAB
  0
TABLE
  2
LAYER
  5
16D
102
{ACAD_XDICTIONARY
360
16E
102
}
330
0
100
AcDbSymbolTable
 70
     7
  0
LAYER
  5
6
330
16D
100
AcDbSymbolTableRecord
100
AcDbLayerTableRecord
  2
0
 70
     0
 62
     7
  6
Continuous
370
    -3
390
7
  0
LAYER
  5
15F
330
16D
100
AcDbSymbolTableRecord
100
AcDbLayerTableRecord
  2
Defpoints
 70
     0
 62
     7
  6
Continuous
290
     0
370
    -3
390
7
  0
LAYER
  5
28
330
16D
100
AcDbSymbolTableRecord
100
AcDbLayerTableRecord
  2
Profilo
 70
     0
 62
     1
  6
Continuous
370
    -3
390
7
1001
AcAecLayerStandard
1000

1000

  0
LAYER
  5
14D
330
16D
100
AcDbSymbolTableRecord
100
AcDbLayerTableRecord
  2
Sezione
 70
     0
 62
     2
  6
Continuous
370
    -3
390
7
1001
AcAecLayerStandard
1000

1000

  0
LAYER
  5
E
330
16D
100
AcDbSymbolTableRecord
100
AcDbLayerTableRecord
  2
Table
 70
     0
 62
     3
  6
Continuous
370
    -3
390
7
1001
AcAecLayerStandard
1000

1000

  0
LAYER
  5
19
330
16D
100
AcDbSymbolTableRecord
100
AcDbLayerTableRecord
  2
Text
 70
     0
 62
     4
  6
Continuous
370
    -3
390
7
1001
AcAecLayerStandard
1000

1000

  0
LAYER
  5
256
330
16D
100
AcDbSymbolTableRecord
100
AcDbLayerTableRecord
  2
Bovelacci
 70
     0
 62
     9
  6
Continuous
370
    -3
390
7
1001
AcAecLayerStandard
1000

1000

  0
ENDTAB
  0
TABLE
  2
STYLE
  5
170
330
0
100
AcDbSymbolTable
 70
     3
  0
STYLE
  5
1A
330
170
100
AcDbSymbolTableRecord
100
AcDbTextStyleTableRecord
  2
Standard
 70
     0
 40
0.0
 41
1.0
 50
0.0
 71
     0
 42
2.5
  3
txt
  4

  0
STYLE
  5
20
330
170
100
AcDbSymbolTableRecord
100
AcDbTextStyleTableRecord
  2
ROMANS
 70
     0
 40
0.0
 41
1.0
 50
0.0
 71
     0
 42
2.5
  3
romans
  4

  0
STYLE
  5
26
330
170
100
AcDbSymbolTableRecord
100
AcDbTextStyleTableRecord
  2
style1
 70
     0
 40
0.0
 41
1.0
 50
0.0
 71
     0
 42
0.008
  3
TIMES.TTF
  4

1001
ACAD
1000
Times New Roman
1071
       18
  0
ENDTAB
  0
TABLE
  2
VIEW
  5
175
330
0
100
AcDbSymbolTable
 70
     4
  0
ENDTAB
  0
TABLE
  2
UCS
  5
176
330
0
100
AcDbSymbolTable
 70
     0
  0
ENDTAB
  0
TABLE
  2
APPID
  5
17B
330
0
100
AcDbSymbolTable
 70
    10
  0
APPID
  5
1B
330
17B
100
AcDbSymbolTableRecord
100
AcDbRegAppTableRecord
  2
ACAD
 70
     0
  0
APPID
  5
157
330
17B
100
AcDbSymbolTableRecord
100
AcDbRegAppTableRecord
  2
ACAD_DSTYLE_DIMJOGGED_JOGANGLE_SYMBOL
 70
     0
  0
APPID
  5
F
330
17B
100
AcDbSymbolTableRecord
100
AcDbRegAppTableRecord
  2
AcAecLayerStandard
 70
     0
  0
APPID
  5
19C
330
17B
100
AcDbSymbolTableRecord
100
AcDbRegAppTableRecord
  2
ACAD_DSTYLE_DIMFLIPARROW_WHICH_SYMBOL
 70
     0
  0
APPID
  5
1A7
330
17B
100
AcDbSymbolTableRecord
100
AcDbRegAppTableRecord
  2
ACAD_DSTYLE_DIMEXT_LENGTH
 70
     0
  0
APPID
  5
1D2
330
17B
100
AcDbSymbolTableRecord
100
AcDbRegAppTableRecord
  2
ACAD_EXEMPT_FROM_CAD_STANDARDS
 70
     0
  0
APPID
  5
1D3
330
17B
100
AcDbSymbolTableRecord
100
AcDbRegAppTableRecord
  2
ACAD_DSTYLE_DIM_LINETYPE
 70
     0
  0
APPID
  5
1D4
330
17B
100
AcDbSymbolTableRecord
100
AcDbRegAppTableRecord
  2
ACAD_DSTYLE_DIM_EXT1_LINETYPE
 70
     0
  0
APPID
  5
1D5
330
17B
100
AcDbSymbolTableRecord
100
AcDbRegAppTableRecord
  2
ACAD_DSTYLE_DIM_EXT2_LINETYPE
 70
     0
  0
APPID
  5
25C
330
17B
100
AcDbSymbolTableRecord
100
AcDbRegAppTableRecord
  2
ACAD_PSEXT
 70
     0
  0
ENDTAB
  0
TABLE
  2
DIMSTYLE
  5
17C
330
0
100
AcDbSymbolTable
 70
     8
100
AcDbDimStyleTable
 71
     2
340
156
340
17D
  0
DIMSTYLE
105
17D
330
17C
100
AcDbSymbolTableRecord
100
AcDbDimStyleTableRecord
  2
ISO-25
 70
     0
 41
2.5
 42
0.625
 43
3.75
 44
1.25
 73
     0
 74
     0
 77
     1
 78
     8
140
2.5
141
2.5
143
0.03937007874016
147
0.625
171
     3
172
     1
271
     2
272
     2
274
     3
278
    44
283
     0
284
     8
340
1A
  0
DIMSTYLE
105
156
102
{ACAD_REACTORS
330
4EF
102
}
330
17C
100
AcDbSymbolTableRecord
100
AcDbDimStyleTableRecord
  2
Bovelacci
 70
     0
 40
0.001
 41
1.5
140
3.0
141
0.0
147
2.0
176
     5
177
     5
178
     4
271
     2
272
     2
279
     2
340
20
342
152
1001
ACAD_DSTYLE_DIMJOGGED_JOGANGLE_SYMBOL
1070
   384
1040
0.7853981633974483
1001
ACAD_DSTYLE_DIMEXT_LENGTH
1070
   378
1040
0.18
  0
DIMSTYLE
105
257
330
17C
100
AcDbSymbolTableRecord
100
AcDbDimStyleTableRecord
  2
Dim 1-100
 70
     0
 40
0.1
 41
1.5
 42
0.0
 43
5.0
 44
1.25
 45
0.005
 46
1.25
 73
     0
 74
     0
 77
     1
 78
     9
140
2.0
141
2.5
147
1.0
172
     1
174
     1
179
     2
279
     2
289
     2
340
20
342
152
  0
DIMSTYLE
105
258
330
17C
100
AcDbSymbolTableRecord
100
AcDbDimStyleTableRecord
  2
Standard
 70
     0
 42
0.0
 73
     0
 74
     0
 77
     1
271
     2
272
     2
340
20
  0
DIMSTYLE
105
259
330
17C
100
AcDbSymbolTableRecord
100
AcDbDimStyleTableRecord
  2
Dim 1-50
 70
     0
 40
0.05
 41
1.5
 42
0.0
 43
5.0
 44
1.25
 45
0.005
 46
1.25
 73
     0
 74
     0
 77
     1
 78
     9
140
2.0
141
2.5
147
1.0
172
     1
174
     1
179
     2
279
     2
289
     2
340
20
342
152
  0
DIMSTYLE
105
25A
330
17C
100
AcDbSymbolTableRecord
100
AcDbDimStyleTableRecord
  2
Dim 1-200
 70
     0
 40
0.2
 41
1.5
 42
0.0
 43
5.0
 44
1.25
 45
0.005
 46
1.25
 73
     0
 74
     0
 77
     1
 78
     9
140
2.0
141
2.5
147
1.0
172
     1
174
     1
179
     2
271
     2
272
     2
279
     2
289
     2
340
20
342
152
  0
DIMSTYLE
105
25B
330
17C
100
AcDbSymbolTableRecord
100
AcDbDimStyleTableRecord
  2
AEC Scale - Italiano
 70
     0
 41
1.0
 42
10.0
 43
10.0
 44
10.0
 73
     0
 74
     0
 75
     1
 76
     1
 77
     1
140
10.0
141
1.0
147
10.0
173
     1
271
     0
272
     0
279
     2
340
1A
343
251
344
24B
  0
ENDTAB
  0
TABLE
  2
BLOCK_RECORD
  5
1
330
0
100
AcDbSymbolTable
 70
    14
  0
BLOCK_RECORD
  5
2
102
{ACAD_XDICTIONARY
360
3
102
}
330
1
100
AcDbSymbolTableRecord
100
AcDbBlockTableRecord
  2
*Model_Space
340
163
  0
BLOCK_RECORD
  5
165
330
1
100
AcDbSymbolTableRecord
100
AcDbBlockTableRecord
  2
*Paper_Space
340
168
  0
BLOCK_RECORD
  5
169
330
1
100
AcDbSymbolTableRecord
100
AcDbBlockTableRecord
  2
*Paper_Space0
340
16C
  0
BLOCK_RECORD
  5
152
330
1
100
AcDbSymbolTableRecord
100
AcDbBlockTableRecord
  2
_ArchTick
340
0
310
2800000020000000200000000100080000000000000400000000000000000000000000000000000000000000000080000080000000808000800000008000800080800000C0C0C000C0DCC000F0CAA6000020400000206000002080000020A0000020C0000020E00000400000004020000040400000406000004080000040A0
310
000040C0000040E00000600000006020000060400000606000006080000060A0000060C0000060E00000800000008020000080400000806000008080000080A0000080C0000080E00000A0000000A0200000A0400000A0600000A0800000A0A00000A0C00000A0E00000C0000000C0200000C0400000C0600000C0800000C0
310
A00000C0C00000C0E00000E0000000E0200000E0400000E0600000E0800000E0A00000E0C00000E0E00040000000400020004000400040006000400080004000A0004000C0004000E00040200000402020004020400040206000402080004020A0004020C0004020E000404000004040200040404000404060004040800040
310
40A0004040C0004040E00040600000406020004060400040606000406080004060A0004060C0004060E00040800000408020004080400040806000408080004080A0004080C0004080E00040A0000040A0200040A0400040A0600040A0800040A0A00040A0C00040A0E00040C0000040C0200040C0400040C0600040C08000
310
40C0A00040C0C00040C0E00040E0000040E0200040E0400040E0600040E0800040E0A00040E0C00040E0E00080000000800020008000400080006000800080008000A0008000C0008000E00080200000802020008020400080206000802080008020A0008020C0008020E00080400000804020008040400080406000804080
310
008040A0008040C0008040E00080600000806020008060400080606000806080008060A0008060C0008060E00080800000808020008080400080806000808080008080A0008080C0008080E00080A0000080A0200080A0400080A0600080A0800080A0A00080A0C00080A0E00080C0000080C0200080C0400080C0600080C0
310
800080C0A00080C0C00080C0E00080E0000080E0200080E0400080E0600080E0800080E0A00080E0C00080E0E000C0000000C0002000C0004000C0006000C0008000C000A000C000C000C000E000C0200000C0202000C0204000C0206000C0208000C020A000C020C000C020E000C0400000C0402000C0404000C0406000C0
310
408000C040A000C040C000C040E000C0600000C0602000C0604000C0606000C0608000C060A000C060C000C060E000C0800000C0802000C0804000C0806000C0808000C080A000C080C000C080E000C0A00000C0A02000C0A04000C0A06000C0A08000C0A0A000C0A0C000C0A0E000C0C00000C0C02000C0C04000C0C06000
310
C0C08000C0C0A000F0FBFF00A4A0A000808080000000FF0000FF000000FFFF00FF000000FF00FF00FFFF0000FFFFFF00000000FF000000000000000000000000000000000000000000000000000000000000FF00FF00000000000000000000000000000000000000000000000000000000FF000000FF000000000000000000
310
0000000000000000000000000000000000FF0000000000FF0000000000000000000000000000000000000000000000000000FF0000000000FF0000000000000000000000000000000000000000000000000000FF0000000000FF0000000000000000000000000000000000000000000000000000FF0000000000FF00000000
310
00000000000000000000000000000000000000000000FF0000000000FF0000000000000000000000000000000000000000000000000000FF0000000000FF0000000000000000000000000000000000000000000000000000FF0000000000FF0000000000000000000000000000000000000000000000000000FF0000000000
310
FF0000000000000000000000000000000000000000000000000000FF0000000000FF0000000000000000000000000000000000000000000000000000FF0000000000FF0000000000000000000000000000000000000000000000000000FF0000000000FF0000000000000000000000000000000000000000000000000000FF
310
0000000000FF0000000000000000000000000000000000000000000000000000FF0000000000FF0000000000000000000000000000000000000000000000000000FF0000000000FF0000000000000000000000000000000000000000000000000000FF0000000000FF00000000000000000000000000000000000000000000
310
00000000FF0000000000FF0000000000000000000000000000000000000000000000000000FF0000000000FF0000000000000000000000000000000000000000000000000000FF0000000000FF0000000000000000000000000000000000000000000000000000FF0000000000FF0000000000000000000000000000000000
310
000000000000000000FF0000000000FF0000000000000000000000000000000000000000000000000000FF0000000000FF0000000000000000000000000000000000000000000000000000FF0000000000FF0000000000000000000000000000000000000000000000000000FF0000000000FF000000000000000000000000
310
0000000000000000000000000000FF0000000000FF0000000000000000000000000000000000000000000000000000FF0000000000FF0000000000000000000000000000000000000000000000000000FF0000000000FF0000000000000000000000000000000000000000000000000000FF000000FF000000000000000000
310
00000000000000000000000000000000000000FF00FF000000000000000000000000000000000000000000000000000000000000FF000000
102
{BLKREFS
331
15D
331
211
331
318
331
354
331
429
331
50A
102
}
  0
BLOCK_RECORD
  5
19E
330
1
100
AcDbSymbolTableRecord
100
AcDbBlockTableRecord
  2
*D2
340
0
  0
BLOCK_RECORD
  5
24B
330
1
100
AcDbSymbolTableRecord
100
AcDbBlockTableRecord
  2
_Arrivo
340
0
310
2800000020000000200000000100080000000000000400000000000000000000000000000000000000000000000080000080000000808000800000008000800080800000C0C0C000C0DCC000F0CAA6000020400000206000002080000020A0000020C0000020E00000400000004020000040400000406000004080000040A0
310
000040C0000040E00000600000006020000060400000606000006080000060A0000060C0000060E00000800000008020000080400000806000008080000080A0000080C0000080E00000A0000000A0200000A0400000A0600000A0800000A0A00000A0C00000A0E00000C0000000C0200000C0400000C0600000C0800000C0
310
A00000C0C00000C0E00000E0000000E0200000E0400000E0600000E0800000E0A00000E0C00000E0E00040000000400020004000400040006000400080004000A0004000C0004000E00040200000402020004020400040206000402080004020A0004020C0004020E000404000004040200040404000404060004040800040
310
40A0004040C0004040E00040600000406020004060400040606000406080004060A0004060C0004060E00040800000408020004080400040806000408080004080A0004080C0004080E00040A0000040A0200040A0400040A0600040A0800040A0A00040A0C00040A0E00040C0000040C0200040C0400040C0600040C08000
310
40C0A00040C0C00040C0E00040E0000040E0200040E0400040E0600040E0800040E0A00040E0C00040E0E00080000000800020008000400080006000800080008000A0008000C0008000E00080200000802020008020400080206000802080008020A0008020C0008020E00080400000804020008040400080406000804080
310
008040A0008040C0008040E00080600000806020008060400080606000806080008060A0008060C0008060E00080800000808020008080400080806000808080008080A0008080C0008080E00080A0000080A0200080A0400080A0600080A0800080A0A00080A0C00080A0E00080C0000080C0200080C0400080C0600080C0
310
800080C0A00080C0C00080C0E00080E0000080E0200080E0400080E0600080E0800080E0A00080E0C00080E0E000C0000000C0002000C0004000C0006000C0008000C000A000C000C000C000E000C0200000C0202000C0204000C0206000C0208000C020A000C020C000C020E000C0400000C0402000C0404000C0406000C0
310
408000C040A000C040C000C040E000C0600000C0602000C0604000C0606000C0608000C060A000C060C000C060E000C0800000C0802000C0804000C0806000C0808000C080A000C080C000C080E000C0A00000C0A02000C0A04000C0A06000C0A08000C0A0A000C0A0C000C0A0E000C0C00000C0C02000C0C04000C0C06000
310
C0C08000C0C0A000F0FBFF00A4A0A000808080000000FF0000FF000000FFFF00FF000000FF00FF00FFFF0000FFFFFF00000000000000000000000000000000000000000000000000000000000000000000000000000000000000FF0000000000000000000000000000000000000000000000000000000000000000FF000000
310
00000000000000000000000000000000000000000000000000000000FF0000000000000000000000000000000000000000000000000000000000000000FF00000000000000000000000000000000000000000000000000000000000000FF0000000000000000000000000000000000000000000000000000000000000000FF
310
0000000000000000000000000000000000000000000000000000000000000000FF00000000000000000000000000000000000000000000000000000000000000FF0000000000000000000000000000000000000000000000000000000000000000FF0000000000000000000000000000000000000000000000000000000000
310
0000FF0000000000000000000000000000000000000000000000000000000000000000FF00000000000000000000000000000000000000000000000000000000000000FF0000000000000000000000000000000000000000000000000000000000000000FF0000FF0000000000000000000000000000000000000000000000
310
000000000000FFFF000000000000000000000000000000000000000000000000000000000000FFFF00000000000000000000000000000000000000000000000000000000FFFFFFFFFFFF00000000000000000000000000000000000000000000000000000000FFFF0000000000000000000000000000000000000000000000
310
000000000000FF0000FF000000000000000000000000000000000000000000000000000000FF00000000000000000000000000000000000000000000000000000000000000FF000000000000000000000000000000000000000000000000000000000000FF0000000000000000000000000000000000000000000000000000
310
0000000000FF000000000000000000000000000000000000000000000000000000000000FF00000000000000000000000000000000000000000000000000000000000000FF000000000000000000000000000000000000000000000000000000000000FF000000000000000000000000000000000000000000000000000000
310
000000FF00000000000000000000000000000000000000000000000000000000000000FF000000000000000000000000000000000000000000000000000000000000FF00000000000000000000000000000000000000000000000000000000000000FF00000000000000000000000000000000000000000000000000000000
310
0000FF0000000000000000000000000000000000000000000000000000000000000000000000000000000000000000000000000000000000
  0
BLOCK_RECORD
  5
251
330
1
100
AcDbSymbolTableRecord
100
AcDbBlockTableRecord
  2
_Partenza
340
0
310
2800000020000000200000000100080000000000000400000000000000000000000000000000000000000000000080000080000000808000800000008000800080800000C0C0C000C0DCC000F0CAA6000020400000206000002080000020A0000020C0000020E00000400000004020000040400000406000004080000040A0
310
000040C0000040E00000600000006020000060400000606000006080000060A0000060C0000060E00000800000008020000080400000806000008080000080A0000080C0000080E00000A0000000A0200000A0400000A0600000A0800000A0A00000A0C00000A0E00000C0000000C0200000C0400000C0600000C0800000C0
310
A00000C0C00000C0E00000E0000000E0200000E0400000E0600000E0800000E0A00000E0C00000E0E00040000000400020004000400040006000400080004000A0004000C0004000E00040200000402020004020400040206000402080004020A0004020C0004020E000404000004040200040404000404060004040800040
310
40A0004040C0004040E00040600000406020004060400040606000406080004060A0004060C0004060E00040800000408020004080400040806000408080004080A0004080C0004080E00040A0000040A0200040A0400040A0600040A0800040A0A00040A0C00040A0E00040C0000040C0200040C0400040C0600040C08000
310
40C0A00040C0C00040C0E00040E0000040E0200040E0400040E0600040E0800040E0A00040E0C00040E0E00080000000800020008000400080006000800080008000A0008000C0008000E00080200000802020008020400080206000802080008020A0008020C0008020E00080400000804020008040400080406000804080
310
008040A0008040C0008040E00080600000806020008060400080606000806080008060A0008060C0008060E00080800000808020008080400080806000808080008080A0008080C0008080E00080A0000080A0200080A0400080A0600080A0800080A0A00080A0C00080A0E00080C0000080C0200080C0400080C0600080C0
310
800080C0A00080C0C00080C0E00080E0000080E0200080E0400080E0600080E0800080E0A00080E0C00080E0E000C0000000C0002000C0004000C0006000C0008000C000A000C000C000C000E000C0200000C0202000C0204000C0206000C0208000C020A000C020C000C020E000C0400000C0402000C0404000C0406000C0
310
408000C040A000C040C000C040E000C0600000C0602000C0604000C0606000C0608000C060A000C060C000C060E000C0800000C0802000C0804000C0806000C0808000C080A000C080C000C080E000C0A00000C0A02000C0A04000C0A06000C0A08000C0A0A000C0A0C000C0A0E000C0C00000C0C02000C0C04000C0C06000
310
C0C08000C0C0A000F0FBFF00A4A0A000808080000000FF0000FF000000FFFF00FF000000FF00FF00FFFF0000FFFFFF0000000000000000000000000000000000000000000000000000000000000000000000000000000000000000000000000000000000000000000000000000000000000000000000000000000000000000
310
000000000000000000000000000000000000000000000000000000000000000000000000000000000000000000000000000000000000000000000000000000000000000000000000000000000000000000000000000000000000000000000000000000000000000000000000000000000000FFFFFFFFFFFFFFFFFFFFFFFFFF
310
FFFFFFFFFFFFFFFFFFFFFFFFFFFFFFFFFF0000000000000000000000000000000000000000000000000000000000000000000000000000000000000000000000000000000000000000000000000000000000000000000000000000000000000000000000000000000000000000000000000000000000000000000000000000
310
00000000000000000000000000000000000000000000000000000000000000000000000000000000000000000000000000000000000000000000000000000000000000000000000000000000000000000000000000000000000000000000000000000000000000000000000000000000000000000000000000000000000000
310
00000000000000000000000000000000000000000000000000000000000000000000000000000000000000000000000000000000000000000000000000000000000000000000000000000000000000000000000000000000000000000000000000000000000000000000000000000000000000000000000000000000000000
310
00000000000000000000000000000000000000000000000000000000000000000000000000000000000000000000000000000000000000000000000000000000000000000000000000000000000000000000000000000000000000000000000000000000000000000000000000000000000000000000000000000000000000
310
000000000000000000000000000000000000000000000000000000000000000000000000000000000000000000000000000000000000000000000000000000000000000000000000000000000000000000000000000000FFFFFFFFFFFFFFFFFFFFFFFFFFFFFFFFFFFFFFFFFFFFFFFFFFFFFFFFFFFF00000000000000000000
310
00000000000000000000000000000000000000000000000000000000000000000000000000000000000000000000000000000000000000000000000000000000000000000000000000000000000000000000000000000000000000000000000000000000000000000000000000000000000000000000000000000000000000
310
0000000000000000000000000000000000000000000000000000000000000000000000000000000000000000000000000000000000000000
  0
BLOCK_RECORD
  5
2FE
330
1
100
AcDbSymbolTableRecord
100
AcDbBlockTableRecord
  2
*D7
340
0
  0
BLOCK_RECORD
  5
33A
330
1
100
AcDbSymbolTableRecord
100
AcDbBlockTableRecord
  2
*D9
340
0
  0
BLOCK_RECORD
  5
40F
330
1
100
AcDbSymbolTableRecord
100
AcDbBlockTableRecord
  2
*D11
340
0
  0
BLOCK_RECORD
  5
4F0
330
1
100
AcDbSymbolTableRecord
100
AcDbBlockTableRecord
  2
*D13
340
0
  0
ENDTAB
  0
ENDSEC
  0
SECTION
  2
BLOCKS
  0
BLOCK
  5
5
330
2
100
AcDbEntity
  8
0
100
AcDbBlockBegin
  2
*Model_Space
 70
     0
 10
0.0
 20
0.0
 30
0.0
  3
*Model_Space
  1

  0
ENDBLK
  5
162
330
2
100
AcDbEntity
  8
0
100
AcDbBlockEnd
  0
BLOCK
  5
166
330
165
100
AcDbEntity
 67
     1
  8
0
100
AcDbBlockBegin
  2
*Paper_Space
 70
     0
 10
0.0
 20
0.0
 30
0.0
  3
*Paper_Space
  1

  0
ENDBLK
  5
167
330
165
100
AcDbEntity
 67
     1
  8
0
100
AcDbBlockEnd
  0
BLOCK
  5
16A
330
169
100
AcDbEntity
 67
     1
  8
0
100
AcDbBlockBegin
  2
*Paper_Space0
 70
     0
 10
0.0
 20
0.0
 30
0.0
  3
*Paper_Space0
  1

  0
ENDBLK
  5
16B
330
169
100
AcDbEntity
 67
     1
  8
0
100
AcDbBlockEnd
  0
BLOCK
  5
153
330
152
100
AcDbEntity
  8
0
 62
     1
100
AcDbBlockBegin
  2
_ArchTick
 70
     0
 10
0.0
 20
0.0
 30
0.0
  3
_ArchTick
  1

  0
LWPOLYLINE
  5
154
330
152
100
AcDbEntity
  8
0
  6
ByBlock
 62
     0
100
AcDbPolyline
 90
        2
 70
     0
 43
0.15
 10
-0.5
 20
-0.5
 10
0.5
 20
0.5
  0
ENDBLK
  5
155
330
152
100
AcDbEntity
  8
0
 62
     1
100
AcDbBlockEnd
  0
BLOCK
  5
1A5
330
19E
100
AcDbEntity
  8
0
100
AcDbBlockBegin
  2
*D2
 70
     1
 10
0.0
 20
0.0
 30
0.0
  3
*D2
  1

  0
LINE
  5
20E
330
19E
100
AcDbEntity
  8
Sezione
  6
ACAD_ISO10W100
 62
     5
370
    -2
100
AcDbLine
 10
0.2798037962738808
 20
0.1903534367689069
 30
0.0
 11
0.2529466534167379
 21
0.190353436768907
 31
0.0
  0
LINE
  5
20F
330
19E
100
AcDbEntity
  8
Sezione
  6
ACAD_ISO10W100
 62
     5
370
    -2
100
AcDbLine
 10
0.2529466534167379
 20
0.190353436768907
 30
0.0
 11
0.2507223528394369
 21
0.1883403577983203
 31
0.0
  0
MTEXT
  5
210
330
19E
100
AcDbEntity
  8
Sezione
  6
ACAD_ISO10W100
 62
     4
100
AcDbMText
 10
0.2673752248453093
 20
0.193853436768907
 30
0.0
 40
0.003
 41
0.0
 71
     5
 72
     1
  1
\A1;d 410 mm
  7
ROMANS
 73
     1
 44
1.0
1001
ACAD
1000
MTEXTBEGIN
1070
    73
1070
     1
1070
    44
1040
1.0
1070
    74
1070
     0
1000
MTEXTEND
  0
INSERT
  5
211
330
19E
100
AcDbEntity
  8
Sezione
  6
ACAD_ISO10W100
 62
     5
370
    -2
100
AcDbBlockReference
  2
_ArchTick
 10
0.2507223528394369
 20
0.1883403577983203
 30
0.0
 41
0.0015
 42
0.0015
 43
0.0015
 50
312.1463264419372
  0
POINT
  5
212
330
19E
100
AcDbEntity
  8
Defpoints
  6
ACAD_ISO10W100
 62
     0
100
AcDbPoint
 10
0.2507223528394369
 20
0.1883403577983203
 30
0.0
  0
POINT
  5
213
330
19E
100
AcDbEntity
  8
Defpoints
  6
ACAD_ISO10W100
 62
     0
100
AcDbPoint
 10
0.1747785735100222
 20
0.1196082688553671
 30
0.0
  0
ENDBLK
  5
1A6
330
19E
100
AcDbEntity
  8
0
100
AcDbBlockEnd
  0
BLOCK
  5
24C
330
24B
100
AcDbEntity
  8
0
100
AcDbBlockBegin
  2
_Arrivo
 70
     0
 10
0.0
 20
0.0
 30
0.0
  3
_Arrivo
  1

  0
LINE
  5
24D
330
24B
100
AcDbEntity
  8
0
  6
ByBlock
 62
     0
370
    -2
100
AcDbLine
 10
0.025
 20
-0.0433012701891858
 30
0.0
 11
-0.15
 21
0.2598076211353328
 31
0.0
  0
LINE
  5
24E
330
24B
100
AcDbEntity
  8
0
  6
ByBlock
 62
     0
370
    -2
100
AcDbLine
 10
0.025
 20
0.0433012701892585
 30
0.0
 11
-0.15
 21
-0.2598076211353328
 31
0.0
  0
LINE
  5
24F
330
24B
100
AcDbEntity
  8
0
  6
ByBlock
 62
     0
370
    -2
100
AcDbLine
 10
-0.05
 20
0.0
 30
0.0
 11
0.05
 21
0.0
 31
0.0
  0
ENDBLK
  5
250
330
24B
100
AcDbEntity
  8
0
100
AcDbBlockEnd
  0
BLOCK
  5
252
330
251
100
AcDbEntity
  8
0
100
AcDbBlockBegin
  2
_Partenza
 70
     0
 10
0.0
 20
0.0
 30
0.0
  3
_Partenza
  1

  0
LINE
  5
253
330
251
100
AcDbEntity
  8
0
  6
ByBlock
 62
     0
370
    -2
100
AcDbLine
 10
-0.05
 20
0.05
 30
0.0
 11
0.1
 21
0.05
 31
0.0
  0
LINE
  5
254
330
251
100
AcDbEntity
  8
0
  6
ByBlock
 62
     0
370
    -2
100
AcDbLine
 10
-0.05
 20
-0.05
 30
0.0
 11
0.1
 21
-0.05
 31
0.0
  0
ENDBLK
  5
255
330
251
100
AcDbEntity
  8
0
100
AcDbBlockEnd
  0
BLOCK
  5
305
330
2FE
100
AcDbEntity
  8
0
100
AcDbBlockBegin
  2
*D7
 70
     1
 10
0.0
 20
0.0
 30
0.0
  3
*D7
  1

  0
LINE
  5
315
330
2FE
100
AcDbEntity
  8
Text
  6
ACAD_ISO10W100
 62
     5
370
    -2
100
AcDbLine
 10
0.2815301135083527
 20
0.1950550445874022
 30
0.0
 11
0.2800301135083527
 21
0.1950550445874022
 31
0.0
  0
LINE
  5
316
330
2FE
100
AcDbEntity
  8
Text
  6
ACAD_ISO10W100
 62
     5
370
    -2
100
AcDbLine
 10
0.2800301135083527
 20
0.1950550445874022
 30
0.0
 11
0.2774233514293517
 21
0.1935701905664688
 31
0.0
  0
MTEXT
  5
317
330
2FE
100
AcDbEntity
  8
Text
  6
ACAD_ISO10W100
 62
     4
100
AcDbMText
 10
0.2959586849369241
 20
0.1950550445874023
 30
0.0
 40
0.003
 41
0.0
 71
     5
 72
     1
  1
\A1;d 155 mm
  7
ROMANS
 73
     1
 44
1.0
1001
ACAD
1000
MTEXTBEGIN
1070
    73
1070
     1
1070
    44
1040
1.0
1070
    74
1070
     0
1000
MTEXTEND
  0
INSERT
  5
318
330
2FE
100
AcDbEntity
  8
Text
  6
ACAD_ISO10W100
 62
     5
370
    -2
100
AcDbBlockReference
  2
_ArchTick
 10
0.2774233514293517
 20
0.1935701905664688
 30
0.0
 41
0.0015
 42
0.0015
 43
0.0015
 50
209.6665417139984
  0
POINT
  5
319
330
2FE
100
AcDbEntity
  8
Defpoints
  6
ACAD_ISO10W100
 62
     0
100
AcDbPoint
 10
0.2774233514293517
 20
0.1935701905664688
 30
0.0
  0
POINT
  5
31A
330
2FE
100
AcDbEntity
  8
Defpoints
  6
ACAD_ISO10W100
 62
     0
100
AcDbPoint
 10
0.1427406440142999
 20
0.1168527328182384
 30
0.0
  0
ENDBLK
  5
306
330
2FE
100
AcDbEntity
  8
0
100
AcDbBlockEnd
  0
BLOCK
  5
341
330
33A
100
AcDbEntity
  8
0
100
AcDbBlockBegin
  2
*D9
 70
     1
 10
0.0
 20
0.0
 30
0.0
  3
*D9
  1

  0
LINE
  5
351
330
33A
100
AcDbEntity
  8
Text
  6
ACAD_ISO10W100
 62
     5
370
    -2
100
AcDbLine
 10
0.2787524636959899
 20
0.1987712750328122
 30
0.0
 11
0.2772524636959899
 21
0.1987712750328122
 31
0.0
  0
LINE
  5
352
330
33A
100
AcDbEntity
  8
Text
  6
ACAD_ISO10W100
 62
     5
370
    -2
100
AcDbLine
 10
0.2772524636959899
 20
0.1987712750328122
 30
0.0
 11
0.274622579422064
 21
0.197327769332873
 31
0.0
  0
MTEXT
  5
353
330
33A
100
AcDbEntity
  8
Text
  6
ACAD_ISO10W100
 62
     4
100
AcDbMText
 10
0.2931810351245614
 20
0.1987712750328122
 30
0.0
 40
0.003
 41
0.0
 71
     5
 72
     1
  1
\A1;d 150 mm
  7
ROMANS
 73
     1
 44
1.0
1001
ACAD
1000
MTEXTBEGIN
1070
    73
1070
     1
1070
    44
1040
1.0
1070
    74
1070
     0
1000
MTEXTEND
  0
INSERT
  5
354
330
33A
100
AcDbEntity
  8
Text
  6
ACAD_ISO10W100
 62
     5
370
    -2
100
AcDbBlockReference
  2
_ArchTick
 10
0.274622579422064
 20
0.197327769332873
 30
0.0
 41
0.0015
 42
0.0015
 43
0.0015
 50
208.7617507883887
  0
POINT
  5
355
330
33A
100
AcDbEntity
  8
Defpoints
  6
ACAD_ISO10W100
 62
     0
100
AcDbPoint
 10
0.274622579422064
 20
0.197327769332873
 30
0.0
  0
POINT
  5
356
330
33A
100
AcDbEntity
  8
Defpoints
  6
ACAD_ISO10W100
 62
     0
100
AcDbPoint
 10
0.1431283657257678
 20
0.1251524843359102
 30
0.0
  0
ENDBLK
  5
342
330
33A
100
AcDbEntity
  8
0
100
AcDbBlockEnd
  0
BLOCK
  5
416
330
40F
100
AcDbEntity
  8
0
100
AcDbBlockBegin
  2
*D11
 70
     1
 10
0.0
 20
0.0
 30
0.0
  3
*D11
  1

  0
LINE
  5
426
330
40F
100
AcDbEntity
  8
Sezione
  6
ACAD_ISO10W100
 62
     5
370
    -2
100
AcDbLine
 10
0.2759037661605144
 20
0.2036876842792695
 30
0.0
 11
0.2744037661605144
 21
0.2036876842792696
 31
0.0
  0
LINE
  5
427
330
40F
100
AcDbEntity
  8
Sezione
  6
ACAD_ISO10W100
 62
     5
370
    -2
100
AcDbLine
 10
0.2744037661605144
 20
0.2036876842792696
 30
0.0
 11
0.2719719355577186
 21
0.2019309259238588
 31
0.0
  0
MTEXT
  5
428
330
40F
100
AcDbEntity
  8
Sezione
  6
ACAD_ISO10W100
 62
     4
100
AcDbMText
 10
0.2903323375890858
 20
0.2036876842792696
 30
0.0
 40
0.003
 41
0.0
 71
     5
 72
     1
  1
\A1;d 160 mm
  7
ROMANS
 73
     1
 44
1.0
1001
ACAD
1000
MTEXTBEGIN
1070
    73
1070
     1
1070
    44
1040
1.0
1070
    74
1070
     0
1000
MTEXTEND
  0
INSERT
  5
429
330
40F
100
AcDbEntity
  8
Sezione
  6
ACAD_ISO10W100
 62
     5
370
    -2
100
AcDbBlockReference
  2
_ArchTick
 10
0.2719719355577186
 20
0.2019309259238588
 30
0.0
 41
0.0015
 42
0.0015
 43
0.0015
 50
215.844407392604
  0
POINT
  5
42A
330
40F
100
AcDbEntity
  8
Defpoints
  6
ACAD_ISO10W100
 62
     0
100
AcDbPoint
 10
0.2719719355577186
 20
0.2019309259238588
 30
0.0
  0
POINT
  5
42B
330
40F
100
AcDbEntity
  8
Defpoints
  6
ACAD_ISO10W100
 62
     0
100
AcDbPoint
 10
0.1422743034086082
 20
0.1082371469686151
 30
0.0
  0
ENDBLK
  5
417
330
40F
100
AcDbEntity
  8
0
100
AcDbBlockEnd
  0
BLOCK
  5
4F7
330
4F0
100
AcDbEntity
  8
0
100
AcDbBlockBegin
  2
*D13
 70
     1
 10
0.0
 20
0.0
 30
0.0
  3
*D13
  1

  0
LINE
  5
507
330
4F0
100
AcDbEntity
  8
Sezione
  6
ACAD_ISO10W100
 62
     5
370
    -2
100
AcDbLine
 10
0.2464146712406719
 20
0.19255037450989
 30
0.0
 11
0.2449146712406719
 21
0.19255037450989
 31
0.0
  0
LINE
  5
508
330
4F0
100
AcDbEntity
  8
Sezione
  6
ACAD_ISO10W100
 62
     5
370
    -2
100
AcDbLine
 10
0.2449146712406719
 20
0.19255037450989
 30
0.0
 11
0.2428631975234567
 21
0.1903614351348558
 31
0.0
  0
MTEXT
  5
509
330
4F0
100
AcDbEntity
  8
Sezione
  6
ACAD_ISO10W100
 62
     4
100
AcDbMText
 10
0.2608432426692433
 20
0.19255037450989
 30
0.0
 40
0.003
 41
0.0
 71
     5
 72
     1
  1
\A1;d 190 mm
  7
ROMANS
 73
     1
 44
1.0
1001
ACAD
1000
MTEXTBEGIN
1070
    73
1070
     1
1070
    44
1040
1.0
1070
    74
1070
     0
1000
MTEXTEND
  0
INSERT
  5
50A
330
4F0
100
AcDbEntity
  8
Sezione
  6
ACAD_ISO10W100
 62
     5
370
    -2
100
AcDbBlockReference
  2
_ArchTick
 10
0.2428631975234567
 20
0.1903614351348558
 30
0.0
 41
0.0015
 42
0.0015
 43
0.0015
 50
226.8567635951091
  0
POINT
  5
50B
330
4F0
100
AcDbEntity
  8
Defpoints
  6
ACAD_ISO10W100
 62
     0
100
AcDbPoint
 10
0.2428631975234567
 20
0.1903614351348558
 30
0.0
  0
POINT
  5
50C
330
4F0
100
AcDbEntity
  8
Defpoints
  6
ACAD_ISO10W100
 62
     0
100
AcDbPoint
 10
0.1778998631449754
 20
0.1210450215921052
 30
0.0
  0
ENDBLK
  5
4F8
330
4F0
100
AcDbEntity
  8
0
100
AcDbBlockEnd
  0
ENDSEC
  0
SECTION
  2
ENTITIES
  0
LINE
  5
D
330
2
100
AcDbEntity
  8
Table
100
AcDbLine
 10
0.02
 20
0.02
 30
0.0
 11
0.4
 21
0.02
 31
0.0
  0
LINE
  5
10
330
2
100
AcDbEntity
  8
Table
100
AcDbLine
 10
0.4
 20
0.02
 30
0.0
 11
0.4
 21
0.2769999999999999
 31
0.0
  0
LINE
  5
11
330
2
100
AcDbEntity
  8
Table
100
AcDbLine
 10
0.4
 20
0.2769999999999999
 30
0.0
 11
0.02
 21
0.277
 31
0.0
  0
LINE
  5
12
330
2
100
AcDbEntity
  8
Table
100
AcDbLine
 10
0.02
 20
0.277
 30
0.0
 11
0.02
 21
0.02
 31
0.0
  0
LINE
  5
13
330
2
100
AcDbEntity
  8
Table
 62
     2
100
AcDbLine
 10
0.015
 20
0.015
 30
0.0
 11
0.4050000000000001
 21
0.015
 31
0.0
  0
LINE
  5
14
330
2
100
AcDbEntity
  8
Table
 62
     2
100
AcDbLine
 10
0.4050000000000001
 20
0.015
 30
0.0
 11
0.4050000000000001
 21
0.2819999999999998
 31
0.0
  0
LINE
  5
15
330
2
100
AcDbEntity
  8
Table
 62
     2
100
AcDbLine
 10
0.4050000000000001
 20
0.2819999999999998
 30
0.0
 11
0.0149999999999999
 21
0.282
 31
0.0
  0
LINE
  5
16
330
2
100
AcDbEntity
  8
Table
 62
     2
100
AcDbLine
 10
0.0149999999999999
 20
0.282
 30
0.0
 11
0.015
 21
0.015
 31
0.0
  0
LINE
  5
17
330
2
100
AcDbEntity
  8
Table
100
AcDbLine
 10
0.21
 20
0.2769999999999999
 30
0.0
 11
0.21
 21
0.2532994226089223
 31
0.0
  0
MTEXT
  5
18
102
{ACAD_XDICTIONARY
360
513
102
}
330
2
100
AcDbEntity
  8
Text
100
AcDbMText
 10
0.305
 20
0.0471738284815141
 30
0.0
 40
0.005
 41
0.1900000000000001
 71
     2
 72
     5
  3
{\fTimes New Roman|b0|i0|c238|p18;\H1.6x;\C4;Bovelacci\P\H0.4375x;\T0.95;via del Commercio, 5  47100 Forli - Italy  \fTimes New Roman|b0|i0|c0|p18;\P\fTimes New Roman|b0|i0|c238|p18;tel.+39-0543721386  fax +39-0543721127\fTimes New Roman|b0|i0|c0|p18
  1
; \fTimes New Roman|b0|i0|c238|p18;www.bovelacci.it\fTimes New Roman|b0|i0|c0|p18; \fTimes New Roman|b0|i0|c238|p18;e-mail: bovelacci@bovelacci\fTimes New Roman|b0|i0|c0|p18;.it}
 73
     1
 44
1.0
1001
ACAD
1000
ACAD_MTEXT_DEFINED_HEIGHT_BEGIN
1070
    46
1040
0.0271738284815141
1000
ACAD_MTEXT_DEFINED_HEIGHT_END
1000
MTEXTBEGIN
1070
    73
1070
     1
1070
    44
1040
1.0
1070
    74
1070
     0
1000
MTEXTEND
  0
MTEXT
  5
1C
330
2
100
AcDbEntity
  8
Text
100
AcDbMText
 10
0.0219676065851835
 20
0.0500313976452307
 30
0.0
 40
0.002
 41
0.1863544980601608
 71
     1
 72
     5
  3
{\fArial|b0|i0|c0|p34;\H1.25x;Le caratteristiche tecniche indicate vengono fornite a titolo indicativo e potranno essere modificate senza preavviso. Non devono quindi essere considerate a scopo di specifica.\P\fArial|b0|i1|c0|p34;The given values are
  3
 indicative and can be changed without notice. They cannot be considered like a state.\PThis lealfet and designs embodied within are protected by copyright law and international treaties. Unauthorized repro- duction of the leaflet or any portion of i
  1
t or reproduction of any of the designs embodied therein may result in severe civil penalties and will be prosecuted to the maximum.\PAll right reserved, Bovelacci Forlì Italy.}
 73
     1
 44
1.0
1001
ACAD
1000
MTEXTBEGIN
1070
    73
1070
     1
1070
    44
1040
1.0
1070
    74
1070
     0
1000
MTEXTEND
  0
LINE
  5
1D
330
2
100
AcDbEntity
  8
Table
100
AcDbLine
 10
0.02
 20
0.0528099428524846
 30
0.0
 11
0.4
 21
0.0528099428524846
 31
0.0
  0
MTEXT
  5
1E
330
2
100
AcDbEntity
  8
Text
100
AcDbMText
 10
0.1133313047219695
 20
0.2610796890771976
 30
0.0
 40
0.003
 41
0.1103605678262056
 71
     2
 72
     5
  1
{\fTimes New Roman|b0|i0|c0|p18;Rosoni\fTimes New Roman|b0|i1|c0|p18;   Ceiling centres}
 73
     1
 44
1.0
1001
ACAD
1000
ACAD_MTEXT_DEFINED_HEIGHT_BEGIN
1070
    46
1040
0.0141952763113409
1000
ACAD_MTEXT_DEFINED_HEIGHT_END
1000
MTEXTBEGIN
1070
    73
1070
     1
1070
    44
1040
1.0
1070
    74
1070
     0
1000
MTEXTEND
  0
TEXT
  5
1F
330
2
100
AcDbEntity
  8
Text
100
AcDbText
 10
0.2180556919891047
 20
0.269976982173197
 30
0.0
 40
0.003
  1
Rosone - Ceiling centre : D 190 mm
  7
ROMANS
100
AcDbText
  0
TEXT
  5
21
330
2
100
AcDbEntity
  8
Text
100
AcDbText
 10
0.2184542410678115
 20
0.2576348370183962
 30
0.0
 40
0.003
  1
File : E - R19
  7
ROMANS
100
AcDbText
  0
LINE
  5
22
330
2
100
AcDbEntity
  8
Table
100
AcDbLine
 10
0.4
 20
0.2654452889427402
 30
0.0
 11
0.02
 21
0.2654452889427403
 31
0.0
  0
LINE
  5
23
330
2
100
AcDbEntity
  8
Table
100
AcDbLine
 10
0.4
 20
0.2532994226089223
 30
0.0
 11
0.02
 21
0.2532994226089225
 31
0.0
  0
LINE
  5
24
330
2
100
AcDbEntity
  8
Table
100
AcDbLine
 10
0.21
 20
0.0528099428524846
 30
0.0
 11
0.21
 21
0.02
 31
0.0
  0
TEXT
  5
25
330
2
100
AcDbEntity
  8
Text
100
AcDbText
 10
0.0947789320547719
 20
0.2687784133392506
 30
0.0
 40
0.005
  1
EUROSTYL
  7
style1
 72
     1
 11
0.1140561490699125
 21
0.2687784133392506
 31
0.0
100
AcDbText
  0
TEXT
  5
23F
330
2
100
AcDbEntity
  8
Text
  6
ACAD_ISO10W100
100
AcDbText
 10
0.2727191750033584
 20
0.0899414580955704
 30
0.0
 40
0.005
  1
scala 1 : 2
  7
style1
100
AcDbText
  0
CIRCLE
  5
497
330
2
100
AcDbEntity
  8
Profilo
  6
Continuous
370
     0
100
AcDbCircle
 10
0.210381530334216
 20
0.1557032283634805
 30
0.0
 40
0.0148851335138256
  0
CIRCLE
  5
498
330
2
100
AcDbEntity
  8
Profilo
  6
Continuous
370
     0
100
AcDbCircle
 10
0.210381530334216
 20
0.1557032283634805
 30
0.0
 40
0.02120207244377
  0
CIRCLE
  5
499
330
2
100
AcDbEntity
  8
Profilo
  6
Continuous
370
     0
100
AcDbCircle
 10
0.210381530334216
 20
0.1557032283634805
 30
0.0
 40
0.0408922935484514
  0
CIRCLE
  5
49A
102
{ACAD_REACTORS
330
500
102
}
330
2
100
AcDbEntity
  8
Profilo
  6
Continuous
370
     0
100
AcDbCircle
 10
0.210381530334216
 20
0.1557032283634805
 30
0.0
 40
0.0475
  0
LWPOLYLINE
  5
49B
330
2
100
AcDbEntity
  8
Profilo
  6
Continuous
370
     0
100
AcDbPolyline
 90
       33
 70
   128
 43
0.0
 10
0.1896135376006956
 20
0.1692464287505406
 10
0.189200549488723
 20
0.1709801485587872
 10
0.1899439292029848
 20
0.1720533991526012
 10
0.1920088697628528
 20
0.17230107290808
 10
0.1930826410794047
 20
0.1709801485587872
 10
0.1930826410794047
 20
0.1696592206896015
 10
0.192339261365142
 20
0.1679255044012478
 10
0.1906047124075641
 20
0.1668522502875409
 10
0.1889527543961163
 20
0.1669348058594378
 10
0.1876311935505126
 20
0.1676778271258752
 10
0.1868052173265657
 20
0.1694115469341217
 10
0.1867226208168815
 20
0.1716406107334341
 10
0.1878789886431176
 20
0.173126653266308
 10
0.1895309410910122
 20
0.1741173482882243
 10
0.1916784781605627
 20
0.1749429286464523
 10
0.1947345935272993
 20
0.1759336236683686
 10
0.1981211004963233
 20
0.1775847843848246
 10
0.2000208424732697
 20
0.178988267825908
 10
0.2001034445465071
 20
0.1801440810314054
 10
0.1991948662493237
 20
0.1804743103587829
 10
0.1984514865350602
 20
0.1794836153368666
 10
0.1974603172917449
 20
0.1795661744286572
 10
0.1971299256894556
 20
0.1805568694505735
 10
0.1978733054037183
 20
0.1814650053806992
 10
0.1991948662493237
 20
0.1819603564115497
 10
0.2004338305852431
 20
0.1819603564115497
 10
0.2016728004847175
 20
0.1812173316252195
 10
0.2021683851063742
 20
0.1785754794067409
 10
0.20125980680919
 20
0.177089436873866
 10
0.1986992816276652
 20
0.1755208352492015
 10
0.1965517445581138
 20
0.1741999073800149
 10
0.1944042019250101
 20
0.1740347927163266
 10
0.1939912138130366
 20
0.1735394452053689
  0
LWPOLYLINE
  5
49C
330
2
100
AcDbEntity
  8
Profilo
  6
Continuous
370
     0
100
AcDbPolyline
 90
        5
 70
   128
 43
0.0
 10
0.1934956291913781
 20
0.1713103778861638
 10
0.1951475816392718
 20
0.1716406107334341
 10
0.1962213529558237
 20
0.1722185173361832
 10
0.1967169375774822
 20
0.1729615386026198
 10
0.196634341067798
 20
0.1737045598690572
  0
LWPOLYLINE
  5
49D
330
2
100
AcDbEntity
  8
Profilo
  6
Continuous
370
     0
100
AcDbPolyline
 90
       68
 70
   128
 43
0.0
 10
0.1923438846777876
 20
0.1756961470430931
 10
0.1920839666029246
 20
0.176475521765084
 10
0.1912392412049493
 20
0.1766054163787847
 10
0.1900696154316166
 20
0.1768002600592822
 10
0.1900046386946781
 20
0.1779043730754721
 10
0.1901995744690495
 20
0.1790734351584589
 10
0.1901995744690495
 20
0.1799177589472465
 10
0.1892248900336404
 20
0.1802424972414447
 10
0.1884451358090513
 20
0.1806971301493445
 10
0.1880552642603095
 20
0.1818012431655336
 10
0.1884451358090513
 20
0.1828404106348196
 10
0.1892898667705807
 20
0.1835548362900137
 10
0.1901345921685569
 20
0.184139367331507
 10
0.1903295335064805
 20
0.1848537929867011
 10
0.1903295335064805
 20
0.1856981167754896
 10
0.1898096973567536
 20
0.1866723316580852
 10
0.1898746796572461
 20
0.1881661320352701
 10
0.1901995744690495
 20
0.1892702450514592
 10
0.1913042179418878
 20
0.1897898305460486
 10
0.1923438846777876
 20
0.1897898305460486
 10
0.1927337562265294
 20
0.1891403504377585
 10
0.1937734229624302
 20
0.1893351941182568
 10
0.1937734229624302
 20
0.1903094125207452
 10
0.1940983177742317
 20
0.1915434201506359
 10
0.1944881948865276
 20
0.192192900258926
 10
0.1952679435475644
 20
0.192972271461024
 10
0.1962426279829717
 20
0.1932320642083183
 10
0.1974122537563043
 20
0.1935568025025174
 10
0.198581873966083
 20
0.1934269078888158
 10
0.1991666868527484
 20
0.1927124822336217
 10
0.1992966458901795
 20
0.192192900258926
 10
0.1996215407019828
 20
0.192972271461024
 10
0.1997514997394139
 20
0.1938165952498117
 10
0.2004662660999581
 20
0.1943361772245082
 10
0.2014409560989194
 20
0.1949856573327984
 10
0.2029354711204996
 20
0.195505239307495
 10
0.2040401145933397
 20
0.195505239307495
 10
0.2050797813292395
 20
0.1953103956269966
 10
0.2055996174789665
 20
0.194466071838209
 10
0.2058595299902763
 20
0.19401143893031
 10
0.2060544713282
 20
0.1934918569556134
 10
0.2064443428769418
 20
0.1931671151415215
 10
0.2072240915379786
 20
0.1936867006361109
 10
0.2081987759733859
 20
0.1945959699718025
 10
0.2091734659723472
 20
0.1947908136523009
 10
0.210083173670816
 20
0.1947908136523009
 10
0.2109278990687913
 20
0.194076384477214
 10
0.211707647729829
 20
0.1929073259141201
 10
0.2115127119554567
 20
0.1916083692174326
 10
0.2114477296549659
 20
0.1903743580676491
 10
0.2126823321652362
 20
0.1895949868655511
 10
0.213851957938568
 20
0.1895949868655511
 10
0.2148916246744679
 20
0.188945506757261
 10
0.2148916246744679
 20
0.1880362374215694
 10
0.2147616656370368
 20
0.1868671753385827
 10
0.2145667298626654
 20
0.1861527496833886
 10
0.2157363500724441
 20
0.1856981167754896
 10
0.2161262271847391
 20
0.184594000239406
 10
0.2159962681473062
 20
0.1832950435427194
 10
0.2152814962232097
 20
0.1821909305265295
 10
0.2132671450519026
 20
0.180502286468847
 10
0.2115127119554567
 20
0.1794631225194538
 10
0.2104080684826184
 20
0.1788785914779605
 10
0.2092384427092857
 20
0.1784239585700615
 10
0.2072890738384712
 20
0.1779693221422689
 10
0.2063793661400033
 20
0.1783590095032648
 10
0.2057945532533378
 20
0.1795280715862506
 10
0.2057945532533378
 20
0.1797878608136529
  0
CIRCLE
  5
49E
330
2
100
AcDbEntity
  8
Profilo
  6
Continuous
370
     0
100
AcDbCircle
 10
0.2059245122907689
 20
0.183035254315318
 30
0.0
 40
0.0028943588313963
  0
LWPOLYLINE
  5
49F
330
2
100
AcDbEntity
  8
Profilo
  6
Continuous
370
     0
100
AcDbPolyline
 90
        6
 70
   128
 43
0.0
 10
0.1951379845101333
 20
0.1831651489290178
 10
0.1923438846777876
 20
0.1849187420534979
 10
0.1911742589044567
 20
0.1868022297916787
 10
0.1917590717911222
 20
0.1877764446742742
 10
0.1926687794895909
 20
0.1877764446742742
 10
0.1929936743013934
 20
0.1870620190190802
  0
LWPOLYLINE
  5
4A0
330
2
100
AcDbEntity
  8
Profilo
  6
Continuous
370
     0
100
AcDbPolyline
 90
        9
 70
   128
 43
0.0
 10
0.198581873966083
 20
0.1859579060028911
 10
0.1970223766440085
 20
0.1882310811020669
 10
0.196437563757343
 20
0.1895300377987543
 10
0.1961404422027369
 20
0.1909194874261959
 10
0.1967012094128005
 20
0.1917266024254158
 10
0.1976721662676142
 20
0.1915434201506359
 10
0.1982569791542796
 20
0.1903094125207452
 10
0.1986468562665737
 20
0.1888156121435602
 10
0.1990340016742862
 20
0.1873547192466201
  0
LWPOLYLINE
  5
4A1
330
2
100
AcDbEntity
  8
Profilo
  6
Continuous
370
     0
100
AcDbPolyline
 90
       12
 70
   128
 43
0.0
 10
0.2019607866850923
 20
0.1878413937410719
 10
0.2019607866850923
 20
0.1910238381759393
 10
0.2018958099481538
 20
0.1926475331668258
 10
0.2020907457225243
 20
0.1936867006361109
 10
0.2028055120830685
 20
0.1941413335440099
 10
0.2037152197815364
 20
0.1941413335440099
 10
0.2042379211611229
 20
0.193632293649038
 10
0.2043000326682027
 20
0.192972271461024
 10
0.2040401145933397
 20
0.190764045428645
 10
0.2038566007935336
 20
0.1893500938255923
 10
0.2036502430445979
 20
0.1882310811020669
 10
0.2035425716009827
 20
0.1870632615413315
  0
LWPOLYLINE
  5
4A2
330
2
100
AcDbEntity
  8
Profilo
  6
Continuous
370
     0
100
AcDbPolyline
 90
       12
 70
   128
 43
0.0
 10
0.2063143838395107
 20
0.1864125424306837
 10
0.2074190273123491
 20
0.1900496197734509
 10
0.2078738811615834
 20
0.1916083692174326
 10
0.2084586940482498
 20
0.1929073259141201
 10
0.2092384427092857
 20
0.193297013275116
 10
0.2099903124056177
 20
0.1931518564050942
 10
0.2102071185073204
 20
0.192408880897267
 10
0.210083173670816
 20
0.1912186818564368
 10
0.209563337521089
 20
0.1899846707066533
 10
0.2089135478974842
 20
0.1882960301688645
 10
0.2081337992364474
 20
0.1870620190190802
 10
0.2077439221241524
 20
0.1862826442970893
  0
LWPOLYLINE
  5
4A3
330
2
100
AcDbEntity
  8
Profilo
  6
Continuous
370
     0
100
AcDbPolyline
 90
        2
 70
   128
 43
0.0
 10
0.2094333784836571
 20
0.1855032730949913
 10
0.2130072325405918
 20
0.1879712883547726
  0
LWPOLYLINE
  5
4A4
330
2
100
AcDbEntity
  8
Profilo
  6
Continuous
370
     0
100
AcDbPolyline
 90
        4
 70
   128
 43
0.0
 10
0.2100181913703234
 20
0.1827754615680228
 10
0.2120325425416314
 20
0.1829053597016173
 10
0.2135920398637041
 20
0.1832950435427194
 10
0.2144367708252335
 20
0.1838146290373088
  0
LWPOLYLINE
  5
4A5
330
2
100
AcDbEntity
  8
Profilo
  6
Continuous
370
     0
100
AcDbPolyline
 90
       33
 70
   128
 43
0.0
 10
0.1968383299471559
 20
0.13493523562996
 10
0.1951046101389085
 20
0.1345222475179874
 10
0.1940313595450953
 20
0.1352656272322492
 10
0.1937836857896165
 20
0.1373305677921172
 10
0.1951046101389085
 20
0.13840433910867
 10
0.196425538008095
 20
0.13840433910867
 10
0.1981592542964488
 20
0.1376609593944065
 10
0.1992325084101556
 20
0.1359264104368294
 10
0.1991499528382579
 20
0.1342744524253816
 10
0.1984069315718204
 20
0.1329528915797771
 10
0.1966732117635739
 20
0.1321269153558302
 10
0.1944441479642625
 20
0.132044318846146
 10
0.1929581054313885
 20
0.133200686672382
 10
0.1919674104094713
 20
0.1348526391202766
 10
0.1911418300512433
 20
0.137000176189828
 10
0.1901511350293279
 20
0.1400562915565637
 10
0.1884999743128719
 20
0.1434427985255886
 10
0.1870964908717885
 20
0.1453425405025341
 10
0.1859406776662902
 20
0.1454251425757724
 10
0.1856104483389136
 20
0.1445165642785881
 10
0.1866011433608299
 20
0.1437731845643255
 10
0.1865185842690393
 20
0.1427820153210093
 10
0.185527889247123
 20
0.1424516237187201
 10
0.1846197533169973
 20
0.1431950034329827
 10
0.1841244022861468
 20
0.1445165642785881
 10
0.1841244022861468
 20
0.1457555286145076
 10
0.1848674270724771
 20
0.1469944985139819
 10
0.1875092792909556
 20
0.1474900831356387
 10
0.1889953218238296
 20
0.1465815048384553
 10
0.190563923448495
 20
0.1440209796569305
 10
0.1918848513176816
 20
0.1418734425873782
 10
0.192049965981369
 20
0.1397258999542745
 10
0.1925453134923276
 20
0.1393129118423011
  0
LWPOLYLINE
  5
4A6
330
2
100
AcDbEntity
  8
Profilo
  6
Continuous
370
     0
100
AcDbPolyline
 90
        5
 70
   128
 43
0.0
 10
0.1947743808115328
 20
0.1388173272206434
 10
0.1944441479642625
 20
0.1404692796685363
 10
0.1938662413615133
 20
0.141543050985089
 10
0.1931232200950768
 20
0.1420386356067467
 10
0.1923801988286393
 20
0.1419560390970624
  0
LWPOLYLINE
  5
4A7
330
2
100
AcDbEntity
  8
Profilo
  6
Continuous
370
     0
100
AcDbPolyline
 90
       68
 70
   128
 43
0.0
 10
0.1903886116546034
 20
0.137665582707053
 10
0.1896092369326126
 20
0.1374056646321899
 10
0.1894793423189118
 20
0.1365609392342137
 10
0.1892844986384143
 20
0.135391313460882
 10
0.1881803856222244
 20
0.1353263367239425
 10
0.1870113235392377
 20
0.1355212724983139
 10
0.18616699975045
 20
0.1355212724983139
 10
0.1858422614562509
 20
0.1345465880629058
 10
0.185387628548352
 20
0.1337668338383158
 10
0.1842835155321629
 20
0.1333769622895748
 10
0.1832443480628769
 20
0.1337668338383158
 10
0.1825299224076828
 20
0.134611564799846
 10
0.1819453913661886
 20
0.1354562901978213
 10
0.1812309657109945
 20
0.1356512315357458
 10
0.1803866419222069
 20
0.1356512315357458
 10
0.1794124270396113
 20
0.1351313953860189
 10
0.1779186266624264
 20
0.1351963776865115
 10
0.1768145136462373
 20
0.1355212724983139
 10
0.176294928151647
 20
0.1366259159711531
 10
0.176294928151647
 20
0.137665582707053
 10
0.1769444082599372
 20
0.1380554542557939
 10
0.1767495645794397
 20
0.1390951209916955
 10
0.1757753461769513
 20
0.1390951209916955
 10
0.1745413385470607
 20
0.139420015803497
 10
0.1738918584387705
 20
0.139809892915792
 10
0.1731124872366725
 20
0.1405896415768288
 10
0.1728526944893782
 20
0.1415643260122361
 10
0.1725279561951791
 20
0.1427339517855688
 10
0.1726578508088798
 20
0.1439035719953474
 10
0.1733722764640739
 20
0.1444883848820129
 10
0.1738918584387705
 20
0.1446183439194448
 10
0.1731124872366725
 20
0.1449432387312473
 10
0.1722681634478849
 20
0.1450731977686783
 10
0.1717485814731883
 20
0.1457879641292235
 10
0.1710991013648981
 20
0.1467626541281839
 10
0.1705795193902015
 20
0.1482571691497649
 10
0.1705795193902015
 20
0.1493618126226041
 10
0.1707743630706999
 20
0.150401479358504
 10
0.1716186868594867
 20
0.150921315508231
 10
0.1720733197673865
 20
0.1511812280195408
 10
0.1725929017420831
 20
0.1513761693574653
 10
0.172917643556175
 20
0.1517660409062072
 10
0.1723980580615847
 20
0.152545789567244
 10
0.171488788725894
 20
0.1535204740026512
 10
0.1712939450453956
 20
0.1544951640016117
 10
0.1712939450453956
 20
0.1554048717000804
 10
0.1720083742204825
 20
0.1562495970980566
 10
0.1731774327835764
 20
0.1570293457590934
 10
0.1744763894802639
 20
0.1568344099847221
 10
0.1757104006300474
 20
0.1567694276842304
 10
0.1764897718321454
 20
0.1580040301945007
 10
0.1764897718321454
 20
0.1591736559678334
 10
0.1771392519404356
 20
0.1602133227037323
 10
0.1780485212761271
 20
0.1602133227037323
 10
0.1792175833591139
 20
0.1600833636663013
 10
0.1799320090143079
 20
0.1598884278919299
 10
0.1803866419222069
 20
0.1610580481017085
 10
0.1814907584582897
 20
0.1614479252140044
 10
0.1827897151549771
 20
0.1613179661765716
 10
0.1838938281711671
 20
0.1606031942524742
 10
0.1855824722288495
 20
0.158588843081167
 10
0.1866216361782418
 20
0.1568344099847221
 10
0.1872061672197352
 20
0.1557297665118829
 10
0.187660800127635
 20
0.154560140738551
 10
0.1881154365554276
 20
0.1526107718677365
 10
0.1877257491944317
 20
0.1517010641692677
 10
0.186556687111445
 20
0.1511162512826023
 10
0.1862968978840436
 20
0.1511162512826023
  0
CIRCLE
  5
4A8
330
2
100
AcDbEntity
  8
Profilo
  6
Continuous
370
     0
100
AcDbCircle
 10
0.1830495043823786
 20
0.1512462103200334
 30
0.0
 40
0.0028943588313963
  0
LWPOLYLINE
  5
4A9
330
2
100
AcDbEntity
  8
Profilo
  6
Continuous
370
     0
100
AcDbPolyline
 90
        6
 70
   128
 43
0.0
 10
0.1829196097686778
 20
0.1404596825393978
 10
0.1811660166441986
 20
0.137665582707053
 10
0.1792825289060178
 20
0.1364959569337212
 10
0.1783083140234214
 20
0.1370807698203866
 10
0.1783083140234214
 20
0.1379904775188554
 10
0.1790227396786164
 20
0.1383153723306578
  0
LWPOLYLINE
  5
4AA
330
2
100
AcDbEntity
  8
Profilo
  6
Continuous
370
     0
100
AcDbPolyline
 90
        9
 70
   128
 43
0.0
 10
0.1801268526948054
 20
0.1439035719953474
 10
0.1778536775956296
 20
0.1423440746732738
 10
0.1765547208989422
 20
0.1417592617866074
 10
0.1751652712714997
 20
0.1414621402320013
 10
0.1743581562722798
 20
0.1420229074420649
 10
0.1745413385470607
 20
0.1429938642968795
 10
0.1757753461769513
 20
0.143578677183545
 10
0.1772691465541363
 20
0.1439685542958391
 10
0.1787300394510756
 20
0.1443556997035506
  0
LWPOLYLINE
  5
4AB
330
2
100
AcDbEntity
  8
Profilo
  6
Continuous
370
     0
100
AcDbPolyline
 90
       12
 70
   128
 43
0.0
 10
0.1782433649566246
 20
0.1472824847143576
 10
0.1750609205217573
 20
0.1472824847143576
 10
0.1734372255308707
 20
0.1472175079774183
 10
0.1723980580615847
 20
0.1474124437517887
 10
0.1719434251536858
 20
0.148127210112333
 10
0.1719434251536858
 20
0.1490369178108017
 10
0.1724524650486585
 20
0.1495596191903883
 10
0.1731124872366725
 20
0.1496217306974672
 10
0.1753207132690515
 20
0.1493618126226041
 10
0.1767346648721042
 20
0.1491782988227981
 10
0.1778536775956296
 20
0.1489719410738624
 10
0.1790214971563642
 20
0.1488642696302471
  0
LWPOLYLINE
  5
4AC
330
2
100
AcDbEntity
  8
Profilo
  6
Continuous
370
     0
100
AcDbPolyline
 90
       12
 70
   128
 43
0.0
 10
0.1796722162670128
 20
0.1516360818687752
 10
0.1760351389242456
 20
0.1527407253416144
 10
0.1744763894802639
 20
0.1531955791908479
 10
0.1731774327835764
 20
0.1537803920775151
 10
0.1727877454225806
 20
0.154560140738551
 10
0.1729329022926023
 20
0.1553120104348822
 10
0.1736758778004295
 20
0.1555288165365849
 10
0.1748660768412589
 20
0.1554048717000804
 10
0.1761000879910433
 20
0.1548850355503535
 10
0.177788728528832
 20
0.1542352459267495
 10
0.1790227396786164
 20
0.1534554972657118
 10
0.1798021144006063
 20
0.1530656201534168
  0
LWPOLYLINE
  5
4AD
330
2
100
AcDbEntity
  8
Profilo
  6
Continuous
370
     0
100
AcDbPolyline
 90
        2
 70
   128
 43
0.0
 10
0.1805814856027044
 20
0.1547550765129224
 10
0.1781134703429239
 20
0.1583289305698572
  0
LWPOLYLINE
  5
4AE
330
2
100
AcDbEntity
  8
Profilo
  6
Continuous
370
     0
100
AcDbPolyline
 90
        4
 70
   128
 43
0.0
 10
0.1833092971296737
 20
0.1553398893995879
 10
0.1831793989960793
 20
0.1573542405708958
 10
0.1827897151549771
 20
0.1589137378929686
 10
0.1822701296603877
 20
0.1597584688544988
  0
LWPOLYLINE
  5
4AF
330
2
100
AcDbEntity
  8
Profilo
  6
Continuous
370
     0
100
AcDbPolyline
 90
       33
 70
   128
 43
0.0
 10
0.2311495230677365
 20
0.1421600279764204
 10
0.231562511179709
 20
0.1404263081681729
 10
0.2308191314654473
 20
0.1393530575743598
 10
0.2287541909055792
 20
0.1391053838188809
 10
0.2276804195890265
 20
0.1404263081681729
 10
0.2276804195890265
 20
0.1417472360373595
 10
0.2284237993032891
 20
0.1434809523257132
 10
0.2301583482608671
 20
0.14455420643942
 10
0.2318103062723149
 20
0.1444716508675223
 10
0.2331318671179186
 20
0.1437286296010849
 10
0.2339578433418663
 20
0.1419949097928392
 10
0.2340404398515505
 20
0.1397658459935269
 10
0.2328840720253136
 20
0.1382798034606529
 10
0.231232119577419
 20
0.1372891084387358
 10
0.2290845825078684
 20
0.1364635280805077
 10
0.2260284671411319
 20
0.1354728330585923
 10
0.2226419601721079
 20
0.1338216723421364
 10
0.2207422181951624
 20
0.1324181889010529
 10
0.2206596161219241
 20
0.1312623756955547
 10
0.2215681944191083
 20
0.130932146368178
 10
0.222311574133371
 20
0.1319228413900944
 10
0.2233027433766863
 20
0.1318402822983038
 10
0.2236331349789764
 20
0.1308495872763875
 10
0.2228897552647129
 20
0.1299414513462618
 10
0.2215681944191083
 20
0.1294461003154113
 10
0.220329230083188
 20
0.1294461003154113
 10
0.2190902601837137
 20
0.1301891251017415
 10
0.2185946755620569
 20
0.1328309773202201
 10
0.2195032538592412
 20
0.1343170198530941
 10
0.222063779040766
 20
0.1358856214777595
 10
0.2242113161103183
 20
0.1372065493469461
 10
0.226358858743422
 20
0.1373716640106335
 10
0.2267718468553954
 20
0.1378670115215921
  0
LWPOLYLINE
  5
4B0
330
2
100
AcDbEntity
  8
Profilo
  6
Continuous
370
     0
100
AcDbPolyline
 90
        5
 70
   128
 43
0.0
 10
0.2272674314770531
 20
0.1400960788407972
 10
0.2256154790291602
 20
0.1397658459935269
 10
0.2245417077126075
 20
0.1391879393907778
 10
0.2240461230909498
 20
0.1384449181243412
 10
0.2241287196006341
 20
0.1377018968579038
  0
LWPOLYLINE
  5
4B1
330
2
100
AcDbEntity
  8
Profilo
  6
Continuous
370
     0
100
AcDbPolyline
 90
       68
 70
   128
 43
0.0
 10
0.2284191759906435
 20
0.1357103096838679
 10
0.2286790940655066
 20
0.134930934961877
 10
0.2295238194634819
 20
0.1348010403481763
 10
0.2306934452368146
 20
0.1346061966676788
 10
0.230758421973754
 20
0.1335020836514889
 10
0.2305634861993817
 20
0.1323330215685021
 10
0.2305634861993817
 20
0.1314886977797145
 10
0.2315381706347908
 20
0.1311639594855154
 10
0.2323179248593798
 20
0.1307093265776164
 10
0.2327077964081217
 20
0.1296052135614274
 10
0.2323179248593798
 20
0.1285660460921414
 10
0.2314731938978505
 20
0.1278516204369473
 10
0.2306284684998743
 20
0.1272670893954539
 10
0.2304335271619506
 20
0.1265526637402599
 10
0.2304335271619506
 20
0.1257083399514713
 10
0.2309533633116776
 20
0.1247341250688758
 10
0.230888381011185
 20
0.1232403246916909
 10
0.2305634861993817
 20
0.1221362116755018
 10
0.2294588427265434
 20
0.1216166261809115
 10
0.2284191759906435
 20
0.1216166261809115
 10
0.2280293044419017
 20
0.1222661062892016
 10
0.226989637706001
 20
0.1220712626087042
 10
0.226989637706001
 20
0.1210970442062158
 10
0.2266647428941995
 20
0.1198630365763251
 10
0.2262748657819036
 20
0.119213556468035
 10
0.2254951171208668
 20
0.1184341852659369
 10
0.2245204326854595
 20
0.1181743925186427
 10
0.2233508069121277
 20
0.1178496542244436
 10
0.2221811867023482
 20
0.1179795488381443
 10
0.2215963738156828
 20
0.1186939744933384
 10
0.2214664147782517
 20
0.119213556468035
 10
0.2211415199664493
 20
0.1184341852659369
 10
0.2210115609290173
 20
0.1175898614771493
 10
0.2202967945684731
 20
0.1170702795024527
 10
0.2193221045695117
 20
0.1164207993941626
 10
0.2178275895479316
 20
0.115901217419466
 10
0.2167229460750915
 20
0.115901217419466
 10
0.2156832793391916
 20
0.1160960610999644
 10
0.2151634431894656
 20
0.1169403848887511
 10
0.2149035306781548
 20
0.117395017796651
 10
0.2147085893402312
 20
0.1179145997713475
 10
0.2143187177914894
 20
0.1182393415854394
 10
0.2135389691304526
 20
0.1177197560908501
 10
0.2125642846950453
 20
0.1168104867551585
 10
0.211589594696084
 20
0.1166156430746601
 10
0.2106798869976161
 20
0.1166156430746601
 10
0.2098351615996399
 20
0.117330072249747
 10
0.2090554129386031
 20
0.1184991308128409
 10
0.2092503487129744
 20
0.1197980875095284
 10
0.2093153310134652
 20
0.1210320986593119
 10
0.2080807285031958
 20
0.1218114698614099
 10
0.2069111027298631
 20
0.1218114698614099
 10
0.2058714359939633
 20
0.1224609499697
 10
0.2058714359939633
 20
0.1233702193053916
 10
0.2060013950313952
 20
0.1245392813883783
 10
0.2061963308057666
 20
0.1252537070435724
 10
0.2050267105959871
 20
0.1257083399514713
 10
0.2046368334836921
 20
0.1268124564875541
 10
0.2047667925211249
 20
0.1281114131842415
 10
0.2054815644452215
 20
0.1292155262004315
 10
0.2074959156165286
 20
0.130904170258114
 10
0.2092503487129744
 20
0.1319433342075063
 10
0.2103549921858128
 20
0.1325278652490005
 10
0.2115246179591455
 20
0.1329824981568994
 10
0.21347398682996
 20
0.1334371345846921
 10
0.2143836945284279
 20
0.1330474472236962
 10
0.2149685074150942
 20
0.1318783851407095
 10
0.2149685074150942
 20
0.131618595913308
  0
CIRCLE
  5
4B2
330
2
100
AcDbEntity
  8
Profilo
  6
Continuous
370
     0
100
AcDbCircle
 10
0.2148385483776622
 20
0.128371202411643
 30
0.0
 40
0.0028943588313963
  0
LWPOLYLINE
  5
4B3
330
2
100
AcDbEntity
  8
Profilo
  6
Continuous
370
     0
100
AcDbPolyline
 90
        6
 70
   128
 43
0.0
 10
0.2256250761582987
 20
0.1282413077979423
 10
0.2284191759906435
 20
0.1264877146734631
 10
0.2295888017639744
 20
0.1246042269352823
 10
0.229003988877309
 20
0.1236300120526867
 10
0.2280942811788411
 20
0.1236300120526867
 10
0.2277693863670378
 20
0.1243444377078808
  0
LWPOLYLINE
  5
4B4
330
2
100
AcDbEntity
  8
Profilo
  6
Continuous
370
     0
100
AcDbPolyline
 90
        9
 70
   128
 43
0.0
 10
0.2221811867023482
 20
0.1254485507240699
 10
0.2237406840244227
 20
0.1231753756248941
 10
0.2243254969110882
 20
0.1218764189282066
 10
0.2246226184656952
 20
0.1204869693007642
 10
0.2240618512556316
 20
0.1196798543015451
 10
0.223090894400817
 20
0.1198630365763251
 10
0.2225060815141515
 20
0.1210970442062158
 10
0.2221162044018574
 20
0.1225908445834007
 10
0.2217290589941459
 20
0.12405173748034
  0
LWPOLYLINE
  5
4B5
330
2
100
AcDbEntity
  8
Profilo
  6
Continuous
370
     0
100
AcDbPolyline
 90
       12
 70
   128
 43
0.0
 10
0.2188022739833388
 20
0.1235650629858891
 10
0.2188022739833388
 20
0.1203826185510217
 10
0.2188672507202782
 20
0.1187589235601352
 10
0.2186723149459078
 20
0.1177197560908501
 10
0.2179575485853626
 20
0.1172651231829502
 10
0.2170478408868948
 20
0.1172651231829502
 10
0.2165251395073082
 20
0.117774163077923
 10
0.2164630280002293
 20
0.1184341852659369
 10
0.2167229460750915
 20
0.120642411298316
 10
0.2169064598748984
 20
0.1220563629013686
 10
0.2171128176238333
 20
0.1231753756248941
 10
0.2172204890674494
 20
0.1243431951856295
  0
LWPOLYLINE
  5
4B6
330
2
100
AcDbEntity
  8
Profilo
  6
Continuous
370
     0
100
AcDbPolyline
 90
       12
 70
   128
 43
0.0
 10
0.2144486768289204
 20
0.1249939142962772
 10
0.2133440333560821
 20
0.12135683695351
 10
0.2128891795068477
 20
0.1197980875095284
 10
0.2123043666201814
 20
0.1184991308128409
 10
0.2115246179591455
 20
0.118109443451845
 10
0.2107727482628134
 20
0.1182546003218667
 10
0.2105559421611107
 20
0.1189975758296939
 10
0.2106798869976161
 20
0.1201877748705233
 10
0.2111997231473421
 20
0.1214217860203077
 10
0.211849512770947
 20
0.1231104265580964
 10
0.2126292614319838
 20
0.1243444377078808
 10
0.2130191385442797
 20
0.1251238124298708
  0
LWPOLYLINE
  5
4B7
330
2
100
AcDbEntity
  8
Profilo
  6
Continuous
370
     0
100
AcDbPolyline
 90
        2
 70
   128
 43
0.0
 10
0.2113296821847741
 20
0.1259031836319688
 10
0.2077558281278393
 20
0.1234351683721883
  0
LWPOLYLINE
  5
4B8
330
2
100
AcDbEntity
  8
Profilo
  6
Continuous
370
     0
100
AcDbPolyline
 90
        4
 70
   128
 43
0.0
 10
0.2107448692981086
 20
0.1286309951589381
 10
0.2087305181267998
 20
0.1285010970253437
 10
0.207171020804727
 20
0.1281114131842415
 10
0.2063262898431977
 20
0.1275918276896522
  0
LWPOLYLINE
  5
4B9
330
2
100
AcDbEntity
  8
Profilo
  6
Continuous
370
     0
100
AcDbPolyline
 90
       33
 70
   128
 43
0.0
 10
0.2239247307212762
 20
0.176471221097001
 10
0.2256584505295227
 20
0.1768842092089735
 10
0.2267317011233367
 20
0.1761408294947118
 10
0.2269793748788156
 20
0.1740758889348437
 10
0.2256584505295227
 20
0.1730021176182919
 10
0.2243375226603361
 20
0.1730021176182919
 10
0.2226038063719824
 20
0.1737454973325545
 10
0.2215305522582764
 20
0.1754800462901316
 10
0.2216131078301733
 20
0.1771320043015803
 10
0.2223561290966107
 20
0.1784535651471839
 10
0.2240898489048573
 20
0.1792795413711308
 10
0.2263189127041696
 20
0.179362137880815
 10
0.2278049552370436
 20
0.1782057700545789
 10
0.2287956502589599
 20
0.1765538176066843
 10
0.2296212306171879
 20
0.1744062805371329
 10
0.2306119256391041
 20
0.1713501651703972
 10
0.2322630863555601
 20
0.1679636582013733
 10
0.2336665697966436
 20
0.1660639162244268
 10
0.234822383002141
 20
0.1659813141511894
 10
0.2351526123295176
 20
0.1668898924483728
 10
0.2341619173076022
 20
0.1676332721626363
 10
0.2342444763993918
 20
0.1686244414059517
 10
0.2352351714213081
 20
0.1689548330082409
 10
0.2361433073514338
 20
0.1682114532939782
 10
0.2366386583822853
 20
0.1668898924483728
 10
0.2366386583822853
 20
0.1656509281124534
 10
0.235895633595955
 20
0.164411958212979
 10
0.2332537813774764
 20
0.1639163735913223
 10
0.2317677388446016
 20
0.1648249518885065
 10
0.230199137219937
 20
0.1673854770700305
 10
0.2288782093507504
 20
0.1695330141395828
 10
0.2287130946870621
 20
0.1716805567726864
 10
0.2282177471761035
 20
0.1720935448846599
  0
LWPOLYLINE
  5
4BA
330
2
100
AcDbEntity
  8
Profilo
  6
Continuous
370
     0
100
AcDbPolyline
 90
        5
 70
   128
 43
0.0
 10
0.2259886798568993
 20
0.1725891295063175
 10
0.2263189127041696
 20
0.1709371770584247
 10
0.2268968193069178
 20
0.169863405741872
 10
0.2276398405733553
 20
0.1693678211202143
 10
0.2283828618397927
 20
0.1694504176298985
  0
LWPOLYLINE
  5
4BB
330
2
100
AcDbEntity
  8
Profilo
  6
Continuous
370
     0
100
AcDbPolyline
 90
       68
 70
   128
 43
0.0
 10
0.2303744490138286
 20
0.1737408740199089
 10
0.2311538237358195
 20
0.174000792094771
 10
0.2312837183495193
 20
0.1748455174927472
 10
0.2314785620300177
 20
0.1760151432660799
 10
0.2325826750462077
 20
0.1760801200030184
 10
0.2337517371291935
 20
0.1758851842286471
 10
0.234596060917982
 20
0.1758851842286471
 10
0.2349207992121802
 20
0.1768598686640552
 10
0.23537543212008
 20
0.1776396228886452
 10
0.2364795451362691
 20
0.178029494437387
 10
0.2375187126055551
 20
0.1776396228886452
 10
0.2382331382607492
 20
0.1767948919271158
 10
0.2388176693022426
 20
0.1759501665291396
 10
0.2395320949574367
 20
0.175755225191216
 10
0.2403764187462243
 20
0.175755225191216
 10
0.2413506336288198
 20
0.1762750613409421
 10
0.2428444340060056
 20
0.1762100790404495
 10
0.2439485470221947
 20
0.1758851842286471
 10
0.2444681325167841
 20
0.1747805407558087
 10
0.2444681325167841
 20
0.1737408740199089
 10
0.243818652408494
 20
0.1733510024711671
 10
0.2440134960889915
 20
0.1723113357352664
 10
0.2449877144914807
 20
0.1723113357352664
 10
0.2462217221213705
 20
0.1719864409234639
 10
0.2468712022296606
 20
0.1715965638111689
 10
0.2476505734317587
 20
0.1708168151501321
 10
0.2479103661790538
 20
0.1698421307147249
 10
0.2482351044732529
 20
0.1686725049413922
 10
0.2481052098595513
 20
0.1675028847316136
 10
0.2473907842043572
 20
0.1669180718449481
 10
0.2468712022296606
 20
0.166788112807517
 10
0.2476505734317587
 20
0.1664632179957137
 10
0.2484948972205472
 20
0.1663332589582827
 10
0.2490144791952429
 20
0.1656184925977375
 10
0.2496639593035339
 20
0.1646438025987771
 10
0.2501835412782296
 20
0.1631492875771969
 10
0.2501835412782296
 20
0.1620446441043568
 10
0.2499886975977321
 20
0.161004977368457
 10
0.2491443738089445
 20
0.16048514121873
 10
0.2486897409010447
 20
0.1602252287074202
 10
0.248170158926349
 20
0.1600302873694956
 10
0.247845417112257
 20
0.1596404158207547
 10
0.2483650026068465
 20
0.158860667159717
 10
0.249274271942538
 20
0.1578859827243098
 10
0.2494691156230355
 20
0.1569112927253493
 10
0.2494691156230355
 20
0.1560015850268805
 10
0.2487546864479486
 20
0.1551568596289052
 10
0.2475856278848547
 20
0.1543771109678675
 10
0.2462866711881682
 20
0.1545720467422389
 10
0.2450526600383847
 20
0.1546370290427306
 10
0.2442732888362866
 20
0.1534024265324603
 10
0.2442732888362866
 20
0.1522328007591285
 10
0.2436238087279956
 20
0.1511931340232286
 10
0.242714539392304
 20
0.1511931340232286
 10
0.2415454773093173
 20
0.1513230930606597
 10
0.2408310516541232
 20
0.1515180288350311
 10
0.2403764187462243
 20
0.1503484086252524
 10
0.2392723022101415
 20
0.1499585315129575
 10
0.2379733455134541
 20
0.1500884905503894
 10
0.236869232497265
 20
0.1508032624744868
 10
0.2351805884395817
 20
0.1528176136457939
 10
0.2341414244901894
 20
0.1545720467422389
 10
0.233556893448696
 20
0.1556766902150781
 10
0.2331022605407971
 20
0.1568463159884099
 10
0.2326476241130044
 20
0.1587956848592245
 10
0.2330373114739994
 20
0.1597053925576932
 10
0.2342063735569861
 20
0.1602902054443587
 10
0.2344661627843876
 20
0.1602902054443587
  0
CIRCLE
  5
4BC
330
2
100
AcDbEntity
  8
Profilo
  6
Continuous
370
     0
100
AcDbCircle
 10
0.2377135562860526
 20
0.1601602464069276
 30
0.0
 40
0.0028943588313963
  0
LWPOLYLINE
  5
4BD
330
2
100
AcDbEntity
  8
Profilo
  6
Continuous
370
     0
100
AcDbPolyline
 90
        6
 70
   128
 43
0.0
 10
0.2378434508997533
 20
0.1709467741875632
 10
0.2395970440242334
 20
0.1737408740199089
 10
0.2414805317624142
 20
0.1749104997932398
 10
0.2424547466450098
 20
0.1743256869065743
 10
0.2424547466450098
 20
0.1734159792081056
 10
0.2417403209898157
 20
0.1730910843963032
  0
LWPOLYLINE
  5
4BE
330
2
100
AcDbEntity
  8
Profilo
  6
Continuous
370
     0
100
AcDbPolyline
 90
        9
 70
   128
 43
0.0
 10
0.2406362079736257
 20
0.1675028847316136
 10
0.2429093830728024
 20
0.1690623820536881
 10
0.2442083397694899
 20
0.1696471949403535
 10
0.2455977893969314
 20
0.1699443164949597
 10
0.2464049043961514
 20
0.1693835492848961
 10
0.2462217221213705
 20
0.1684125924300823
 10
0.2449877144914807
 20
0.167827779543416
 10
0.2434939141142958
 20
0.1674379024311219
 10
0.2420330212173556
 20
0.1670507570234103
  0
LWPOLYLINE
  5
4BF
330
2
100
AcDbEntity
  8
Profilo
  6
Continuous
370
     0
100
AcDbPolyline
 90
       12
 70
   128
 43
0.0
 10
0.2425196957118065
 20
0.1641239720126042
 10
0.2457021401466748
 20
0.1641239720126042
 10
0.2473258351375605
 20
0.1641889487495427
 10
0.2483650026068465
 20
0.1639940129751722
 10
0.2488196355147454
 20
0.163279246614628
 10
0.2488196355147454
 20
0.1623695389161592
 10
0.2483105956197726
 20
0.1618468375365736
 10
0.2476505734317587
 20
0.1617847260294938
 10
0.2454423473993796
 20
0.1620446441043568
 10
0.244028395796327
 20
0.1622281579041629
 10
0.2429093830728024
 20
0.1624345156530986
 10
0.241741563512067
 20
0.1625421870967139
  0
LWPOLYLINE
  5
4C0
330
2
100
AcDbEntity
  8
Profilo
  6
Continuous
370
     0
100
AcDbPolyline
 90
       12
 70
   128
 43
0.0
 10
0.2410908444014184
 20
0.1597703748581858
 10
0.2447279217441856
 20
0.1586657313853474
 10
0.2462866711881682
 20
0.1582108775361131
 10
0.2475856278848547
 20
0.1576260646494458
 10
0.2479753152458506
 20
0.1568463159884099
 10
0.2478301583758289
 20
0.1560944462920788
 10
0.2470871828680017
 20
0.1558776401903761
 10
0.2458969838271723
 20
0.1560015850268805
 10
0.2446629726773888
 20
0.1565214211766075
 10
0.2429743321395992
 20
0.1571712108002123
 10
0.2417403209898157
 20
0.1579509594612491
 10
0.2409609462678248
 20
0.1583408365735441
  0
LWPOLYLINE
  5
4C1
330
2
100
AcDbEntity
  8
Profilo
  6
Continuous
370
     0
100
AcDbPolyline
 90
        2
 70
   128
 43
0.0
 10
0.2401815750657268
 20
0.1566513802140386
 10
0.2426495903255073
 20
0.1530775261571038
  0
LWPOLYLINE
  5
4C2
330
2
100
AcDbEntity
  8
Profilo
  6
Continuous
370
     0
100
AcDbPolyline
 90
        4
 70
   128
 43
0.0
 10
0.2374537635387584
 20
0.1560665673273731
 10
0.2375836616723519
 20
0.1540522161560651
 10
0.2379733455134541
 20
0.1524927188339924
 10
0.2384929310080444
 20
0.1516479878724621
  0
LWPOLYLINE
  5
4C3
330
2
100
AcDbEntity
  8
Profilo
  6
Continuous
370
     0
100
AcDbPolyline
 90
       21
 70
   128
 43
0.0
 10
0.2204935941331398
 20
0.1789206225210251
 10
0.2202940906816528
 20
0.1798679630200861
 10
0.2190371560691413
 20
0.1807753140140584
 10
0.2174939210128506
 20
0.1805121984877123
 10
0.216732765746356
 20
0.1794491837429253
 10
0.2165931038722744
 20
0.1780532575122469
 10
0.21708191764978
 20
0.1767969196807662
 10
0.218199195951764
 20
0.176098956565427
 10
0.2197719790386992
 20
0.1760698857686207
 10
0.2208715874959615
 20
0.1764133498939135
 10
0.2214557550104641
 20
0.1771346182212219
 10
0.2219711959532229
 20
0.1779589278980542
 10
0.2223148232483951
 20
0.1790236638705491
 10
0.2222117361725542
 20
0.1804318569285512
 10
0.2215932025904013
 20
0.1814965893811524
 10
0.2206310472766293
 20
0.1822178612283536
 10
0.2194627122476231
 20
0.1827674010129088
 10
0.2181912901427752
 20
0.1829391330755557
 10
0.2170916816855128
 20
0.1829391330755557
 10
0.216163886875838
 20
0.1827674010129088
 10
0.2156140854289839
 20
0.1826300160667702
  0
LWPOLYLINE
  5
4C4
330
2
100
AcDbEntity
  8
Profilo
  6
Continuous
370
     0
100
AcDbPolyline
 90
        9
 70
   128
 43
0.0
 10
0.2114561918192677
 20
0.1792297395298106
 10
0.2114218313151706
 20
0.1782336977903314
 10
0.2118685456861846
 20
0.1776154672926542
 10
0.2128307009999566
 20
0.1773406974003762
 10
0.2139646755248665
 20
0.1773750445168845
 10
0.2149268308386394
 20
0.1775811201761459
 10
0.2157858990765695
 20
0.1780619692475782
 10
0.2163357005234237
 20
0.1785428147991168
 10
0.2165418802386596
 20
0.178748893978272
  0
LWPOLYLINE
  5
4C5
330
2
100
AcDbEntity
  8
Profilo
  6
Continuous
370
     0
100
AcDbPolyline
 90
       12
 70
   128
 43
0.0
 10
0.2141291564094359
 20
0.1927419120595215
 10
0.2147277835985091
 20
0.1940240577469408
 10
0.2144712259097328
 20
0.1947933444554129
 10
0.2133167441280057
 20
0.1951779878096489
 10
0.2122050182520385
 20
0.1951779878096489
 10
0.2116919084380391
 20
0.1939813192053701
 10
0.2121195008769647
 20
0.1931692939553273
 10
0.2124188089079477
 20
0.1923572687052846
 10
0.2131884652836171
 20
0.1914597663721023
 10
0.2139581216592865
 20
0.1909041688515862
 10
0.2149843357237322
 20
0.1908186952883395
 10
0.2157112306300877
 20
0.1905195254973502
  0
LWPOLYLINE
  5
4C6
330
2
100
AcDbEntity
  8
Profilo
  6
Continuous
370
     0
100
AcDbPolyline
 90
       69
 70
   128
 43
0.0
 10
0.2142146737845088
 20
0.1950070336433698
 10
0.2148560568793436
 20
0.1958190588934126
 10
0.2154546785048637
 20
0.1958617974349814
 10
0.2166519217559055
 20
0.1958617974349814
 10
0.2176781358203512
 20
0.1953916769976058
 10
0.2182339959765573
 20
0.1941522698517573
 10
0.2183622748209459
 20
0.1928273891426611
 10
0.218960896446466
 20
0.1936821529342736
 10
0.2197733087278961
 20
0.1939385806638003
 10
0.2205857265728794
 20
0.1939813192053701
 10
0.2213126270427872
 20
0.1932547710384678
 10
0.2214409003236217
 20
0.1925282193516718
 10
0.2218257312932326
 20
0.1924000072468552
 10
0.2228947012634399
 20
0.192442745788425
 10
0.2235788402640346
 20
0.191716194101629
 10
0.2237926309199438
 20
0.1906477411220604
 10
0.2239209097643315
 20
0.189792977330447
 10
0.2245195313898516
 20
0.1895365496009211
 10
0.2258022920159681
 20
0.1895365496009211
 10
0.2262726403606536
 20
0.189792977330447
 10
0.2259305708603558
 20
0.1904340519341035
 10
0.2251609089211333
 20
0.191117861559436
 10
0.2243057351703901
 20
0.191716194101629
 10
0.2244340140147769
 20
0.1924854843299948
 10
0.2251181530153734
 20
0.1928701276842308
 10
0.2260160882354296
 20
0.1927846506010913
 10
0.2266574657667104
 20
0.1924854843299948
 10
0.2267002272360243
 20
0.192271791622145
 10
0.2274698836116937
 20
0.1921435759974348
 10
0.22798298786214
 20
0.1920153638926183
 10
0.2283250573624378
 20
0.1914170278305325
 10
0.2288381616128832
 20
0.1908614338299093
 10
0.2299071315830896
 20
0.1907759567467697
 10
0.2307195438645189
 20
0.19056226403892
 10
0.2312326536785183
 20
0.1901776206846839
 10
0.2314892058037423
 20
0.1894938110593505
 10
0.2317457579289646
 20
0.1888954749972647
 10
0.2326436875854685
 20
0.1887245243508784
 10
0.2333278265860632
 20
0.1879552376424054
 10
0.233071274460841
 20
0.1872286859556094
 10
0.2321305833350231
 20
0.1868440426013733
 10
0.2314036884286676
 20
0.1868440426013733
 10
0.2305485091143713
 20
0.1868867811429431
 10
0.2302492010833874
 20
0.1857328510802341
 10
0.2299498874888495
 20
0.1853909462675678
 10
0.2289236789879578
 20
0.1832967753301058
 10
0.228880923082198
 20
0.1824847500800639
 10
0.2289236789879578
 20
0.181330820017354
 10
0.2296505794578656
 20
0.1802196284962148
 10
0.2302064396140735
 20
0.1804333176841717
 10
0.2300781663332381
 20
0.1814162971004945
 10
0.2297788527387019
 20
0.1829121319758698
 10
0.2297788527387019
 20
0.184023323497009
 10
0.2302492010833874
 20
0.1846643981006646
 10
0.2314464443344284
 20
0.1846216595590948
 10
0.231916792679113
 20
0.1841942776632881
 10
0.2320023100541877
 20
0.1835104680379556
 10
0.2323016180851716
 20
0.1831258211638267
 10
0.2327719664298571
 20
0.1830830861421497
 10
0.2333705880553771
 20
0.1831258211638267
 10
0.2340974885252867
 20
0.1827411778095907
 10
0.2343112791811959
 20
0.1823565344553537
 10
0.2343540406505089
 20
0.1816299862884514
 10
0.2340547270559727
 20
0.1802623635178917
 10
0.2343112791811959
 20
0.1798777201636565
 10
0.2349099008067159
 20
0.1797067695172694
 10
0.2354657665264761
 20
0.1795785538925592
 10
0.2356368012766237
 20
0.1794503382678498
 10
0.2362354229021455
 20
0.1784673623714199
  0
LWPOLYLINE
  5
4C7
330
2
100
AcDbEntity
  8
Profilo
  6
Continuous
370
     0
100
AcDbPolyline
 90
        6
 70
   128
 43
0.0
 10
0.2223388355436797
 20
0.182271060892107
 10
0.22409194451448
 20
0.1834677294963858
 10
0.2248616008901494
 20
0.1844507053928148
 10
0.2260160882354296
 20
0.1859892788097608
 10
0.2267429831417851
 20
0.1872714244971792
 10
0.2275126395174545
 20
0.1887672628924481
  0
LWPOLYLINE
  5
4C8
330
2
100
AcDbEntity
  8
Profilo
  6
Continuous
370
     0
100
AcDbPolyline
 90
        7
 70
   128
 43
0.0
 10
0.2271705700171576
 20
0.1796640309756996
 10
0.2266574657667104
 20
0.1815017706637412
 10
0.2269567793612484
 20
0.1837241572259125
 10
0.2274271221423798
 20
0.1850917799964713
 10
0.22798298786214
 20
0.1860747558929003
 10
0.2284726806810391
 20
0.1871090377506151
 10
0.2289236789879578
 20
0.1879552376424054
  0
LWPOLYLINE
  5
4C9
330
2
100
AcDbEntity
  8
Profilo
  6
Continuous
370
     0
100
AcDbPolyline
 90
       12
 70
   128
 43
0.0
 10
0.2163605807329954
 20
0.1933924375760516
 10
0.2165415074805987
 20
0.1904990573191889
 10
0.2165415074805987
 20
0.1874851207249226
 10
0.2168430464963857
 20
0.1859781524277886
 10
0.2173858156120914
 20
0.1850136946887635
 10
0.2182904326594506
 20
0.1845314622993572
 10
0.2204615091222712
 20
0.1842903496245483
 10
0.2220295075535188
 20
0.1845314622993572
 10
0.2233562814484
 20
0.1851945291948707
 10
0.2240196628322892
 20
0.186279546791194
 10
0.2243815107639429
 20
0.1879070714257325
 10
0.2244418196798112
 20
0.1892332052167585
  0
LWPOLYLINE
  5
4CA
330
2
100
AcDbEntity
  8
Profilo
  6
Continuous
370
     0
100
AcDbPolyline
 90
        5
 70
   128
 43
0.0
 10
0.2180491969959797
 20
0.1873042862188146
 10
0.2186522750275519
 20
0.189353761554163
 10
0.2194965831590445
 20
0.1906798953451898
 10
0.2204012002064037
 20
0.1915840749155131
 10
0.2210645871538444
 20
0.1920663037850248
  0
LWPOLYLINE
  5
4CB
330
2
100
AcDbEntity
  8
Profilo
  6
Continuous
370
     0
100
AcDbPolyline
 90
       21
 70
   128
 43
0.0
 10
0.1871641361766714
 20
0.1658152921624043
 10
0.1862167956776104
 20
0.1656157887109182
 10
0.1853094446836381
 20
0.1643588540984058
 10
0.1855725602099843
 20
0.1628156190421151
 10
0.1866355749547712
 20
0.1620544637756205
 10
0.1880315011854488
 20
0.1619148019015397
 10
0.1892878390169304
 20
0.1624036156790445
 10
0.1899858021322696
 20
0.1635208939810293
 10
0.1900148729290758
 20
0.1650936770679636
 10
0.189671408803783
 20
0.1661932855252259
 10
0.1889501404764746
 20
0.1667774530397295
 10
0.1881258307996423
 20
0.1672928939824882
 10
0.1870610948271474
 20
0.1676365212776596
 10
0.1856529017691453
 20
0.1675334342018186
 10
0.1845881693165441
 20
0.1669149006196657
 10
0.1838668974693429
 20
0.1659527453058938
 10
0.1833173576847877
 20
0.1647844102768885
 10
0.1831456256221409
 20
0.1635129881720396
 10
0.1831456256221409
 20
0.1624133797147782
 10
0.1833173576847877
 20
0.1614855849051024
 10
0.1834547426309263
 20
0.1609357834582483
  0
LWPOLYLINE
  5
4CC
330
2
100
AcDbEntity
  8
Profilo
  6
Continuous
370
     0
100
AcDbPolyline
 90
        9
 70
   128
 43
0.0
 10
0.1868550191678859
 20
0.1567778898485321
 10
0.1878510609073643
 20
0.1567435293444359
 10
0.1884692914050423
 20
0.1571902437154491
 10
0.1887440612973195
 20
0.1581523990292211
 10
0.1887097141808121
 20
0.1592863735541319
 10
0.1885036385215506
 20
0.1602485288679039
 10
0.1880227894501183
 20
0.161107597105834
 10
0.1875419438985797
 20
0.1616573985526881
 10
0.1873358647194245
 20
0.1618635782679241
  0
LWPOLYLINE
  5
4CD
330
2
100
AcDbEntity
  8
Profilo
  6
Continuous
370
     0
100
AcDbPolyline
 90
       12
 70
   128
 43
0.0
 10
0.173342846638175
 20
0.1594508544387003
 10
0.1720607009507558
 20
0.1600494816277744
 10
0.1712914142422837
 20
0.1597929239389981
 10
0.1709067708880467
 20
0.1586384421572702
 10
0.1709067708880467
 20
0.157526716281303
 10
0.1721034394923264
 20
0.1570136064673044
 10
0.1729154647423683
 20
0.1574411989062301
 10
0.1737274899924119
 20
0.1577405069372122
 10
0.1746249923255942
 20
0.1585101633128816
 10
0.1751805898461103
 20
0.159279819688551
 10
0.175266063409357
 20
0.1603060337529967
 10
0.1755652332003463
 20
0.161032928659353
  0
LWPOLYLINE
  5
4CE
330
2
100
AcDbEntity
  8
Profilo
  6
Continuous
370
     0
100
AcDbPolyline
 90
       69
 70
   128
 43
0.0
 10
0.1710777250543267
 20
0.1595363718137741
 10
0.170265699804284
 20
0.160177754908609
 10
0.1702229612627142
 20
0.160776376534129
 10
0.1702229612627142
 20
0.16197361978517
 10
0.1706930817000907
 20
0.1629998338496157
 10
0.1719324888459393
 20
0.1635556940058227
 10
0.1732573695550346
 20
0.1636839728502104
 10
0.1724026057634229
 20
0.1642825944757305
 10
0.1721461780338962
 20
0.1650950067571615
 10
0.1721034394923264
 20
0.1659074246021439
 10
0.1728299876592287
 20
0.1666343250720526
 10
0.1735565393460248
 20
0.1667625983528871
 10
0.1736847514508413
 20
0.1671474293224979
 10
0.1736420129092715
 20
0.1682163992927044
 10
0.1743685645960675
 20
0.1689005382932991
 10
0.1754370175756361
 20
0.1691143289492083
 10
0.1762917813672487
 20
0.1692426077935969
 10
0.1765482090967754
 20
0.1698412294191169
 10
0.1765482090967754
 20
0.1711239900452326
 10
0.1762917813672487
 20
0.1715943383899181
 10
0.1756507067635931
 20
0.1712522688896212
 10
0.1749668971382605
 20
0.1704826069503977
 10
0.1743685645960675
 20
0.1696274331996554
 10
0.1735992743677017
 20
0.1697557120440423
 10
0.1732146310134657
 20
0.1704398510446379
 10
0.1733001080966052
 20
0.1713377862646941
 10
0.1735992743677017
 20
0.1719791637959758
 10
0.1738129670755515
 20
0.1720219252652888
 10
0.1739411827002617
 20
0.1727915816409582
 10
0.1740693948050782
 20
0.1733046858914053
 10
0.174667730867164
 20
0.1736467553917023
 10
0.1752233248677864
 20
0.1741598596421476
 10
0.1753088019509268
 20
0.175228829612355
 10
0.1755224946587766
 20
0.1760412418937842
 10
0.1759071380130126
 20
0.1765543517077828
 10
0.176590947638346
 20
0.1768109038330068
 10
0.177189283700431
 20
0.1770674559582299
 10
0.1773602343468181
 20
0.1779653856147338
 10
0.1781295210552911
 20
0.1786495246153286
 10
0.1788560727420871
 20
0.1783929724901054
 10
0.1792407160963232
 20
0.1774522813642885
 10
0.1792407160963232
 20
0.1767253864579321
 10
0.1791979775547534
 20
0.1758702071436358
 10
0.1803519076174625
 20
0.1755708991126519
 10
0.1806938124301287
 20
0.1752715855181148
 10
0.1827879833675898
 20
0.1742453770172223
 10
0.1836000086176326
 20
0.1742026211114624
 10
0.1847539386803416
 20
0.1742453770172223
 10
0.1858651302014809
 20
0.174972277487131
 10
0.1856514410135239
 20
0.1755281376433388
 10
0.1846684615972021
 20
0.1753998643625025
 10
0.1831726267218268
 20
0.1751005507679664
 10
0.1820614352006875
 20
0.1751005507679664
 10
0.1814203605970319
 20
0.1755708991126519
 10
0.1814630991386017
 20
0.1767681423636938
 10
0.1818904810344075
 20
0.1772384907083775
 10
0.1825742906597401
 20
0.1773240080834522
 10
0.1829589375338698
 20
0.177623316114436
 10
0.1830016725555468
 20
0.1780936644591216
 10
0.1829589375338698
 20
0.1786922860846416
 10
0.1833435808881059
 20
0.1794191865545511
 10
0.1837282242423428
 20
0.1796329772104603
 10
0.1844547724092451
 20
0.1796757386797743
 10
0.1858223951798048
 20
0.1793764250852381
 10
0.18620703853404
 20
0.1796329772104603
 10
0.1863779891804271
 20
0.1802315988359804
 10
0.1865062048051374
 20
0.1807874645557406
 10
0.1866344204298467
 20
0.180958499305889
 10
0.1876173963262757
 20
0.18155712093141
  0
LWPOLYLINE
  5
4CF
330
2
100
AcDbEntity
  8
Profilo
  6
Continuous
370
     0
100
AcDbPolyline
 90
        6
 70
   128
 43
0.0
 10
0.1838136978055895
 20
0.1676605335729442
 10
0.1826170292013107
 20
0.1694136425437445
 10
0.1816340533048817
 20
0.1701832989194139
 10
0.1800954798879357
 20
0.1713377862646941
 10
0.1788133342005165
 20
0.1720646811710504
 10
0.1773174958052484
 20
0.1728343375467198
  0
LWPOLYLINE
  5
4D0
330
2
100
AcDbEntity
  8
Profilo
  6
Continuous
370
     0
100
AcDbPolyline
 90
        7
 70
   128
 43
0.0
 10
0.1864207277219969
 20
0.172492268046422
 10
0.1845829880339553
 20
0.1719791637959758
 10
0.182360601471784
 20
0.1722784773905128
 10
0.1809929787012252
 20
0.1727488201716452
 10
0.1800100028047962
 20
0.1733046858914053
 10
0.1789757209470815
 20
0.1737943787103036
 10
0.1781295210552911
 20
0.1742453770172223
  0
LWPOLYLINE
  5
4D1
330
2
100
AcDbEntity
  8
Profilo
  6
Continuous
370
     0
100
AcDbPolyline
 90
       12
 70
   128
 43
0.0
 10
0.1726923211216449
 20
0.1616822787622598
 10
0.1755857013785076
 20
0.1618632055098641
 10
0.1785996379727739
 20
0.1618632055098641
 10
0.1801066062699079
 20
0.1621647445256511
 10
0.181071064008933
 20
0.1627075136413558
 10
0.1815532963983384
 20
0.1636121306887159
 10
0.1817944090731483
 20
0.1657832071515357
 10
0.1815532963983384
 20
0.1673512055827833
 10
0.1808902295028259
 20
0.1686779794776654
 10
0.1798052119065026
 20
0.1693413608615537
 10
0.178177687271964
 20
0.1697032087932073
 10
0.1768515534809381
 20
0.1697635177090757
  0
LWPOLYLINE
  5
4D2
330
2
100
AcDbEntity
  8
Profilo
  6
Continuous
370
     0
100
AcDbPolyline
 90
        5
 70
   128
 43
0.0
 10
0.178780472478882
 20
0.1633708950252442
 10
0.1767309971435327
 20
0.1639739730568173
 10
0.1754048633525067
 20
0.164818281188309
 10
0.1745006837821834
 20
0.1657228982356682
 10
0.1740184549126718
 20
0.1663862851831097
  0
LWPOLYLINE
  5
4D3
330
2
100
AcDbEntity
  8
Profilo
  6
Continuous
370
     0
100
AcDbPolyline
 90
       21
 70
   128
 43
0.0
 10
0.2002694665352913
 20
0.1324858342059358
 10
0.2004689699867783
 20
0.1315384937068748
 10
0.2017259045992898
 20
0.1306311427129025
 10
0.2032691396555815
 20
0.1308942582392487
 10
0.2040302949220751
 20
0.1319572729840357
 10
0.2041699567961568
 20
0.1333531992147141
 10
0.2036811430186511
 20
0.1346095370461948
 10
0.2025638647166672
 20
0.135307500161534
 10
0.2009910816297329
 20
0.1353365709583403
 10
0.1998914731724697
 20
0.1349931068330474
 10
0.1993073056579671
 20
0.1342718385057391
 10
0.1987918647152083
 20
0.1334475288289068
 10
0.1984482374200369
 20
0.1323827928564119
 10
0.198551324495877
 20
0.1309745997984097
 10
0.1991698580780299
 20
0.1299098673458086
 10
0.2001320133918019
 20
0.1291885954986074
 10
0.201300348420808
 20
0.1286390557140522
 10
0.2025717705256569
 20
0.1284673236514053
 10
0.2036713789829183
 20
0.1284673236514053
 10
0.2045991737925941
 20
0.1286390557140522
 10
0.2051489752394482
 20
0.1287764406601908
  0
LWPOLYLINE
  5
4D4
330
2
100
AcDbEntity
  8
Profilo
  6
Continuous
370
     0
100
AcDbPolyline
 90
        9
 70
   128
 43
0.0
 10
0.2093068688491644
 20
0.1321767171971504
 10
0.2093412293532606
 20
0.1331727589366287
 10
0.2088945149822474
 20
0.1337909894343068
 10
0.2079323596684746
 20
0.1340657593265839
 10
0.2067983851435646
 20
0.1340314122100765
 10
0.2058362298297927
 20
0.1338253365508151
 10
0.2049771615918616
 20
0.1333444874793827
 10
0.2044273601450084
 20
0.1328636419278441
 10
0.2042211804297724
 20
0.132657562748689
  0
LWPOLYLINE
  5
4D5
330
2
100
AcDbEntity
  8
Profilo
  6
Continuous
370
     0
100
AcDbPolyline
 90
       12
 70
   128
 43
0.0
 10
0.2066339042589953
 20
0.1186645446674394
 10
0.2060352770699221
 20
0.1173823989800202
 10
0.2062918347586984
 20
0.1166131122715481
 10
0.2074463165404263
 20
0.1162284689173121
 10
0.2085580424163926
 20
0.1162284689173121
 10
0.2090711522303921
 20
0.1174251375215909
 10
0.2086435597914664
 20
0.1182371627716327
 10
0.2083442517604834
 20
0.1190491880216764
 10
0.207574595384814
 20
0.1199466903548587
 10
0.2068049390091446
 20
0.1205022878753748
 10
0.2057787249446989
 20
0.1205877614386215
 10
0.2050518300383435
 20
0.1208869312296108
  0
LWPOLYLINE
  5
4D6
330
2
100
AcDbEntity
  8
Profilo
  6
Continuous
370
     0
100
AcDbPolyline
 90
       69
 70
   128
 43
0.0
 10
0.2065483868839224
 20
0.1163994230835912
 10
0.2059070037890875
 20
0.1155873978335484
 10
0.2053083821635675
 20
0.1155446592919787
 10
0.2041111389125256
 20
0.1155446592919787
 10
0.2030849248480799
 20
0.1160147797293551
 10
0.2025290646918738
 20
0.1172541868752037
 10
0.2024007858474852
 20
0.118579067584299
 10
0.2018021642219652
 20
0.1177243037926874
 10
0.200989751940535
 20
0.1174678760631606
 10
0.2001773340955517
 20
0.1174251375215909
 10
0.199450433625644
 20
0.1181516856884932
 10
0.1993221603448094
 20
0.1188782373752892
 10
0.1989373293751986
 20
0.1190064494801057
 10
0.1978683594049913
 20
0.1189637109385359
 10
0.1971842204043965
 20
0.119690262625332
 10
0.1969704297484873
 20
0.1207587156049006
 10
0.1968421509040996
 20
0.121613479396514
 10
0.1962435292785796
 20
0.1218699071260398
 10
0.1949607686524639
 20
0.1218699071260398
 10
0.1944904203077775
 20
0.121613479396514
 10
0.1948324898080753
 20
0.1209724047928575
 10
0.1956021517472979
 20
0.120288595167525
 10
0.1964573254980411
 20
0.119690262625332
 10
0.1963290466536543
 20
0.1189209723969662
 10
0.1956449076530586
 20
0.1185363290427301
 10
0.1947469724330015
 20
0.1186218061258697
 10
0.1941055949017207
 20
0.1189209723969662
 10
0.1940628334324068
 20
0.1191346651048159
 10
0.1932931770567374
 20
0.1192628807295262
 10
0.1927800728062912
 20
0.1193910928343427
 10
0.1924380033059934
 20
0.1199894288964285
 10
0.191924899055548
 20
0.1205450228970508
 10
0.1908559290853416
 20
0.1206304999801912
 10
0.1900435168039123
 20
0.120844192688041
 10
0.1895304069899129
 20
0.1212288360422771
 10
0.1892738548646897
 20
0.1219126456676105
 10
0.1890173027394666
 20
0.1225109817296954
 10
0.1881193730829627
 20
0.1226819323760826
 10
0.187435234082368
 20
0.1234512190845556
 10
0.1876917862075911
 20
0.1241777707713516
 10
0.188632477333408
 20
0.1245624141255877
 10
0.1893593722397635
 20
0.1245624141255877
 10
0.1902145515540608
 20
0.1245196755840179
 10
0.1905138595850437
 20
0.1256736056467269
 10
0.1908131731795817
 20
0.1260155104593932
 10
0.1918393816804733
 20
0.1281096813968543
 10
0.1918821375862332
 20
0.1289217066468971
 10
0.1918393816804733
 20
0.130075636709607
 10
0.1911124812105656
 20
0.1311868282307453
 10
0.1905566210543577
 20
0.1309731390427884
 10
0.1906848943351931
 20
0.1299901596264665
 10
0.1909842079297301
 20
0.1284943247510912
 10
0.1909842079297301
 20
0.127383133229952
 10
0.1905138595850437
 20
0.1267420586262964
 10
0.1893166163340028
 20
0.1267847971678661
 10
0.1888462679893181
 20
0.1272121790636729
 10
0.1887607506142435
 20
0.1278959886890054
 10
0.1884614425832605
 20
0.1282806355631343
 10
0.1879910942385741
 20
0.1283233705848112
 10
0.187392472613054
 20
0.1282806355631343
 10
0.1866655721431454
 20
0.1286652789173703
 10
0.1864517814872362
 20
0.1290499222716072
 10
0.1864090200179223
 20
0.1297764704385096
 10
0.1867083336124584
 20
0.1311440932090693
 10
0.1864517814872362
 20
0.1315287365633044
 10
0.1858531598617161
 20
0.1316996872096916
 10
0.185297294141956
 20
0.1318279028344018
 10
0.1851262593918075
 20
0.1319561184591111
 10
0.1845276377662866
 20
0.1329390943555411
  0
LWPOLYLINE
  5
4D7
330
2
100
AcDbEntity
  8
Profilo
  6
Continuous
370
     0
100
AcDbPolyline
 90
        6
 70
   128
 43
0.0
 10
0.1984242251247514
 20
0.129135395834854
 10
0.1966711161539512
 20
0.1279387272305752
 10
0.1959014597782818
 20
0.1269557513341462
 10
0.1947469724330015
 20
0.1254171779172002
 10
0.1940200775266461
 20
0.1241350322297809
 10
0.1932504211509767
 20
0.1226391938345128
  0
LWPOLYLINE
  5
4D8
330
2
100
AcDbEntity
  8
Profilo
  6
Continuous
370
     0
100
AcDbPolyline
 90
        7
 70
   128
 43
0.0
 10
0.1935924906512745
 20
0.1317424257512614
 10
0.1941055949017207
 20
0.1299046860632198
 10
0.1938062813071828
 20
0.1276822995010485
 10
0.1933359385260514
 20
0.1263146767304897
 10
0.1927800728062912
 20
0.1253317008340606
 10
0.1922903799873921
 20
0.1242974189763459
 10
0.1918393816804733
 20
0.1234512190845556
  0
LWPOLYLINE
  5
4D9
330
2
100
AcDbEntity
  8
Profilo
  6
Continuous
370
     0
100
AcDbPolyline
 90
       12
 70
   128
 43
0.0
 10
0.2044024799354358
 20
0.1180140191509093
 10
0.2042215531878324
 20
0.120907399407772
 10
0.2042215531878324
 20
0.1239213360020383
 10
0.2039200141720454
 20
0.1254283042991724
 10
0.2033772450563398
 20
0.1263927620381975
 10
0.2024726280089806
 20
0.1268749944276037
 10
0.2003015515461608
 20
0.1271161071024127
 10
0.1987335531149124
 20
0.1268749944276037
 10
0.1974067792200311
 20
0.1262119275320903
 10
0.1967433978361428
 20
0.125126909935767
 10
0.1963815499044883
 20
0.1234993853012285
 10
0.1963212409886199
 20
0.1221732515102025
  0
LWPOLYLINE
  5
4DA
330
2
100
AcDbEntity
  8
Profilo
  6
Continuous
370
     0
100
AcDbPolyline
 90
        5
 70
   128
 43
0.0
 10
0.2027138636724515
 20
0.1241021705081464
 10
0.2021107856408792
 20
0.1220526951727971
 10
0.2012664775093866
 20
0.1207265613817712
 10
0.2003618604620274
 20
0.1198223818114479
 10
0.1996984735145868
 20
0.1193401529419362
  0
LWPOLYLINE
  5
4DB
330
2
100
AcDbEntity
  8
Profilo
  6
Continuous
370
     0
100
AcDbPolyline
 90
       21
 70
   128
 43
0.0
 10
0.2335989244917607
 20
0.1455911645645566
 10
0.2345462649908208
 20
0.1457906680160428
 10
0.2354536159847931
 20
0.1470476026285552
 10
0.2351905004584469
 20
0.1485908376848459
 10
0.2341274857136599
 20
0.1493519929513405
 10
0.2327315594829824
 20
0.1494916548254221
 10
0.2314752216515008
 20
0.1490028410479165
 10
0.2307772585361625
 20
0.1478855627459325
 10
0.2307481877393553
 20
0.1463127796589974
 10
0.2310916518646482
 20
0.145213171201735
 10
0.2318129201919565
 20
0.1446290036872324
 10
0.2326372298687898
 20
0.1441135627444736
 10
0.2337019658412838
 20
0.1437699354493014
 10
0.2351101588992859
 20
0.1438730225251423
 10
0.236174891351888
 20
0.1444915561072952
 10
0.2368961631990891
 20
0.1454537114210672
 10
0.2374457029836434
 20
0.1466220464500725
 10
0.2376174350462903
 20
0.1478934685549214
 10
0.2376174350462903
 20
0.1489930770121828
 10
0.2374457029836434
 20
0.1499208718218585
 10
0.2373083180375057
 20
0.1504706732687127
  0
LWPOLYLINE
  5
4DC
330
2
100
AcDbEntity
  8
Profilo
  6
Continuous
370
     0
100
AcDbPolyline
 90
        9
 70
   128
 43
0.0
 10
0.2339080415005461
 20
0.1546285668784288
 10
0.2329119997610669
 20
0.1546629273825251
 10
0.2322937692633888
 20
0.1542162130115119
 10
0.2320189993711117
 20
0.1532540576977399
 10
0.2320533464876191
 20
0.1521200831728291
 10
0.2322594221468814
 20
0.1511579278590571
 10
0.2327402712183137
 20
0.150298859621127
 10
0.2332211167698523
 20
0.1497490581742728
 10
0.2334271959490066
 20
0.1495428784590369
  0
LWPOLYLINE
  5
4DD
330
2
100
AcDbEntity
  8
Profilo
  6
Continuous
370
     0
100
AcDbPolyline
 90
       12
 70
   128
 43
0.0
 10
0.2474202140302562
 20
0.1519556022882607
 10
0.2487023597176754
 20
0.1513569750991865
 10
0.2494716464261475
 20
0.1516135327879629
 10
0.2498562897803844
 20
0.1527680145696908
 10
0.2498562897803844
 20
0.153879740445658
 10
0.2486596211761056
 20
0.1543928502596565
 10
0.2478475959260629
 20
0.1539652578207309
 10
0.2470355706760201
 20
0.1536659497897488
 10
0.2461380683428378
 20
0.1528962934140794
 10
0.2455824708223218
 20
0.15212663703841
 10
0.2454969972590741
 20
0.1511004229739643
 10
0.2451978274680848
 20
0.1503735280676079
  0
LWPOLYLINE
  5
4DE
330
2
100
AcDbEntity
  8
Profilo
  6
Continuous
370
     0
100
AcDbPolyline
 90
       69
 70
   128
 43
0.0
 10
0.2496853356141044
 20
0.1518700849131869
 10
0.2504973608641472
 20
0.151228701818352
 10
0.250540099405717
 20
0.1506300801928319
 10
0.250540099405717
 20
0.149432836941791
 10
0.2500699789683405
 20
0.1484066228773453
 10
0.2488305718224919
 20
0.1478507627211383
 10
0.2475056911133966
 20
0.1477224838767505
 10
0.2483604549050082
 20
0.1471238622512305
 10
0.248616882634535
 20
0.1463114499698004
 10
0.2486596211761056
 20
0.145499032124817
 10
0.2479330730092024
 20
0.1447721316549084
 10
0.2472065213224064
 20
0.1446438583740739
 10
0.2470783092175899
 20
0.1442590274044631
 10
0.2471210477591597
 20
0.1431900574342566
 10
0.2463944960723636
 20
0.1425059184336619
 10
0.245326043092795
 20
0.1422921277777527
 10
0.2444712793011825
 20
0.1421638489333641
 10
0.2442148515716558
 20
0.141565227307844
 10
0.2442148515716558
 20
0.1402824666817284
 10
0.2444712793011825
 20
0.1398121183370429
 10
0.2451123539048381
 20
0.1401541878373407
 10
0.2457961635301715
 20
0.1409238497765632
 10
0.2463944960723636
 20
0.1417790235273064
 10
0.2471637863007294
 20
0.1416507446829187
 10
0.2475484296549664
 20
0.1409666056823231
 10
0.2474629525718259
 20
0.1400686704622669
 10
0.2471637863007294
 20
0.1394272929309852
 10
0.2469500935928797
 20
0.1393845314616722
 10
0.2468218779681703
 20
0.1386148750860028
 10
0.2466936658633538
 20
0.1381017708355565
 10
0.2460953298012671
 20
0.1377597013352587
 10
0.2455397358006448
 20
0.1372465970848133
 10
0.2454542587175053
 20
0.1361776271146069
 10
0.2452405660096555
 20
0.1353652148331776
 10
0.2448559226554186
 20
0.1348521050191782
 10
0.244172113030086
 20
0.1345955528939542
 10
0.2435737769680002
 20
0.1343390007687319
 10
0.243402826321613
 20
0.133441071112228
 10
0.24263353961314
 20
0.1327569321116333
 10
0.241906987926344
 20
0.1330134842368555
 10
0.2415223445721089
 20
0.1339541753626734
 10
0.2415223445721089
 20
0.1346810702690288
 10
0.2415650831136777
 20
0.1355362495833252
 10
0.2404111530509696
 20
0.1358355576143091
 10
0.2400692482383033
 20
0.1361348712088461
 10
0.2379750773008413
 20
0.1371610797097386
 10
0.2371630520507986
 20
0.1372038356154985
 10
0.2360091219880895
 20
0.1371610797097386
 10
0.2348979304669503
 20
0.13643417923983
 10
0.2351116196549072
 20
0.135878319083623
 10
0.23609459907123
 20
0.1360065923644584
 10
0.2375904339466044
 20
0.1363059059589946
 10
0.2387016254677436
 20
0.1363059059589946
 10
0.2393427000714001
 20
0.1358355576143091
 10
0.2392999615298303
 20
0.1346383143632681
 10
0.2388725796340236
 20
0.1341679660185835
 10
0.2381887700086911
 20
0.1340824486435088
 10
0.2378041231345613
 20
0.1337831406125249
 10
0.2377613881128853
 20
0.1333127922678394
 10
0.2378041231345613
 20
0.1327141706423194
 10
0.2374194797803253
 20
0.1319872701724098
 10
0.2370348364260892
 20
0.1317734795165006
 10
0.236308288259186
 20
0.1317307180471876
 10
0.2349406654886272
 20
0.1320300316417238
 10
0.2345560221343912
 20
0.1317734795165006
 10
0.234385071488004
 20
0.1311748578909806
 10
0.2342568558632947
 20
0.1306189921712204
 10
0.2341286402385845
 20
0.130447957421072
 10
0.2331456643421554
 20
0.129849335795551
  0
LWPOLYLINE
  5
4DF
330
2
100
AcDbEntity
  8
Profilo
  6
Continuous
370
     0
100
AcDbPolyline
 90
        6
 70
   128
 43
0.0
 10
0.2369493628628416
 20
0.1437459231540168
 10
0.2381460314671204
 20
0.1419928141832165
 10
0.2391290073635504
 20
0.1412231578075471
 10
0.2406675807804954
 20
0.1400686704622669
 10
0.2419497264679147
 20
0.1393417755559114
 10
0.2434455648631828
 20
0.138572119180242
  0
LWPOLYLINE
  5
4E0
330
2
100
AcDbEntity
  8
Profilo
  6
Continuous
370
     0
100
AcDbPolyline
 90
        7
 70
   128
 43
0.0
 10
0.2343423329464342
 20
0.1389141886805389
 10
0.2361800726344758
 20
0.1394272929309852
 10
0.2384024591966471
 20
0.1391279793364482
 10
0.2397700819672059
 20
0.1386576365553167
 10
0.2407530578636359
 20
0.1381017708355565
 10
0.2417873397213506
 20
0.1376120780166574
 10
0.24263353961314
 20
0.1371610797097386
  0
LWPOLYLINE
  5
4E1
330
2
100
AcDbEntity
  8
Profilo
  6
Continuous
370
     0
100
AcDbPolyline
 90
       12
 70
   128
 43
0.0
 10
0.2480707395467863
 20
0.1497241779647011
 10
0.2451773592899245
 20
0.1495432512170969
 10
0.2421634226956573
 20
0.1495432512170969
 10
0.2406564543985232
 20
0.1492417122013107
 10
0.239691996659499
 20
0.1486989430856052
 10
0.2392097642700928
 20
0.1477943260382459
 10
0.2389686515952829
 20
0.1456232495754252
 10
0.2392097642700928
 20
0.1440552511441777
 10
0.2398728311656053
 20
0.1427284772492956
 10
0.2409578487619295
 20
0.1420650958654073
 10
0.2425853733964671
 20
0.1417032479337537
 10
0.243911507187494
 20
0.1416429390178852
  0
LWPOLYLINE
  5
4E2
330
2
100
AcDbEntity
  8
Profilo
  6
Continuous
370
     0
100
AcDbPolyline
 90
        5
 70
   128
 43
0.0
 10
0.2419825881895501
 20
0.1480355617017168
 10
0.2440320635248985
 20
0.1474324836701437
 10
0.2453581973159244
 20
0.146588175538652
 10
0.2462623768862477
 20
0.1456835584912927
 10
0.2467446057557603
 20
0.1450201715438512
  0
LWPOLYLINE
  5
4E3
330
2
100
AcDbEntity
  8
Profilo
  6
Continuous
370
     0
100
AcDbPolyline
 90
       17
 70
   128
 43
0.0
 10
0.1818576830583578
 20
0.1777050485711054
 10
0.180723986711103
 20
0.1795538794421883
 10
0.180723986711103
 20
0.1805081154117585
 10
0.1817980195146522
 20
0.1807466761640986
 10
0.1817980195146522
 20
0.1814623513813296
 10
0.1824543685673903
 20
0.1828937053356854
 10
0.1836477395854579
 20
0.1830726215000733
 10
0.1837670722364213
 20
0.1842057771539252
 10
0.1838267413436792
 20
0.185637131108281
 10
0.1845427650672309
 20
0.1859353294087849
 10
0.1855571231999682
 20
0.1855178489721649
 10
0.1862731469235182
 20
0.185219650671661
 10
0.1869891650835158
 20
0.1849810934392147
 10
0.1871085032980333
 20
0.1862335277092897
 10
0.1875261814852895
 20
0.1868895618584632
 10
0.1885405451815809
 20
0.18677028324224
 10
0.1891372306906134
 20
0.18677028324224
  0
LWPOLYLINE
  5
4E4
330
2
100
AcDbEntity
  8
Profilo
  6
Continuous
370
     0
100
AcDbPolyline
 90
        4
 70
   128
 43
0.0
 10
0.1831107231836824
 20
0.180269558179313
 10
0.1831703922909411
 20
0.1811045120127672
 10
0.1837670722364213
 20
0.1812237906289904
 10
0.1840057486654563
 20
0.1810448744646025
  0
LWPOLYLINE
  5
4E5
330
2
100
AcDbEntity
  8
Profilo
  6
Continuous
370
     0
100
AcDbPolyline
 90
        6
 70
   128
 43
0.0
 10
0.1860941396017428
 20
0.1819394693661143
 10
0.1854974596562626
 20
0.1834901019366941
 10
0.1855752770738124
 20
0.1839728552702735
 10
0.1860941396017428
 20
0.1840268574696444
 10
0.1863555208910772
 20
0.1836551286030557
 10
0.1865714868962587
 20
0.1831919036361893
  0
LWPOLYLINE
  5
4E6
330
2
100
AcDbEntity
  8
Profilo
  6
Continuous
370
     0
100
AcDbPolyline
 90
       17
 70
   128
 43
0.0
 10
0.1883797101265912
 20
0.1271793810876223
 10
0.1865308792555083
 20
0.1260456847403683
 10
0.1855766432859372
 20
0.1260456847403683
 10
0.185338082533598
 20
0.1271197175439167
 10
0.1846224073163669
 20
0.1271197175439167
 10
0.1831910533620103
 20
0.1277760665966556
 10
0.1830121371976223
 20
0.1289694376147223
 10
0.1818789815437714
 20
0.1290887702656857
 10
0.1804476275894147
 20
0.1291484393729445
 10
0.1801494292889108
 20
0.1298644630964953
 10
0.1805669097255316
 20
0.1308788212292326
 10
0.1808651080260355
 20
0.1315948449527835
 10
0.1811036652584819
 20
0.1323108631127811
 10
0.1798512309884068
 20
0.1324302013272987
 10
0.1791951968392333
 20
0.1328478795145549
 10
0.1793144754554565
 20
0.1338622432108454
 10
0.1793144754554565
 20
0.1344589287198787
  0
LWPOLYLINE
  5
4E7
330
2
100
AcDbEntity
  8
Profilo
  6
Continuous
370
     0
100
AcDbPolyline
 90
        4
 70
   128
 43
0.0
 10
0.1858152005183835
 20
0.1284324212129477
 10
0.1849802466849293
 20
0.1284920903202056
 10
0.1848609680687061
 20
0.1290887702656857
 10
0.185039884233094
 20
0.1293274466947207
  0
LWPOLYLINE
  5
4E8
330
2
100
AcDbEntity
  8
Profilo
  6
Continuous
370
     0
100
AcDbPolyline
 90
        6
 70
   128
 43
0.0
 10
0.1841452893315814
 20
0.1314158376310073
 10
0.1825946567610024
 20
0.1308191576855271
 10
0.182111903427423
 20
0.1308969751030768
 10
0.1820579012280521
 20
0.1314158376310073
 10
0.1824296300946409
 20
0.1316772189203417
 10
0.1828928550615072
 20
0.1318931849255231
  0
LWPOLYLINE
  5
4E9
330
2
100
AcDbEntity
  8
Profilo
  6
Continuous
370
     0
100
AcDbPolyline
 90
       17
 70
   128
 43
0.0
 10
0.2389053776100742
 20
0.1337014081558556
 10
0.2400390739573281
 20
0.1318525772847727
 10
0.2400390739573281
 20
0.1308983413152016
 10
0.2389650411537798
 20
0.1306597805628624
 10
0.2389650411537798
 20
0.1299441053456314
 10
0.2383086921010409
 20
0.1285127513912756
 10
0.2371153210829733
 20
0.1283338352268868
 10
0.2369959884320099
 20
0.1272006795730358
 10
0.236936319324752
 20
0.1257693256186791
 10
0.2362202956012003
 20
0.1254711273181752
 10
0.2352059374684638
 20
0.125888607754796
 10
0.234489913744913
 20
0.1261868060552999
 10
0.2337738955849153
 20
0.1264253632877463
 10
0.2336545573703979
 20
0.1251729290176713
 10
0.2332368791831416
 20
0.1245168948684978
 10
0.2322225154868511
 20
0.124636173484721
 10
0.2316258299778178
 20
0.124636173484721
  0
LWPOLYLINE
  5
4EA
330
2
100
AcDbEntity
  8
Profilo
  6
Continuous
370
     0
100
AcDbPolyline
 90
        4
 70
   128
 43
0.0
 10
0.2376523374847488
 20
0.131136898547648
 10
0.2375926683774909
 20
0.1303019447141938
 10
0.2369959884320099
 20
0.1301826660979706
 10
0.2367573120029758
 20
0.1303615822623585
  0
LWPOLYLINE
  5
4EB
330
2
100
AcDbEntity
  8
Profilo
  6
Continuous
370
     0
100
AcDbPolyline
 90
        6
 70
   128
 43
0.0
 10
0.2346689210666883
 20
0.1294669873608467
 10
0.2352656010121694
 20
0.1279163547902669
 10
0.2351877835946197
 20
0.1274336014566874
 10
0.2346689210666883
 20
0.1273795992573165
 10
0.234407539777354
 20
0.1277513281239053
 10
0.2341915737721725
 20
0.1282145530907717
  0
LWPOLYLINE
  5
4EC
330
2
100
AcDbEntity
  8
Profilo
  6
Continuous
370
     0
100
AcDbPolyline
 90
       17
 70
   128
 43
0.0
 10
0.2323833505418409
 20
0.1842270756393387
 10
0.2342321814129238
 20
0.1853607719865935
 10
0.235186417382494
 20
0.1853607719865935
 10
0.2354249781348332
 20
0.1842867391830443
 10
0.2361406533520642
 20
0.1842867391830443
 10
0.2375720073064209
 20
0.1836303901303062
 10
0.2377509234708088
 20
0.1824370191122386
 10
0.2388840791246598
 20
0.1823176864612752
 10
0.2403154330790165
 20
0.1822580173540165
 10
0.2406136313795204
 20
0.1815419936304656
 10
0.2401961509429005
 20
0.1805276354977283
 10
0.2398979526423965
 20
0.1798116117741784
 10
0.2396593954099502
 20
0.1790955936141798
 10
0.2409118296800252
 20
0.1789762553996632
 10
0.2415678638291978
 20
0.1785585772124061
 10
0.2414485852129755
 20
0.1775442135161156
 10
0.2414485852129755
 20
0.1769475280070831
  0
LWPOLYLINE
  5
4ED
330
2
100
AcDbEntity
  8
Profilo
  6
Continuous
370
     0
100
AcDbPolyline
 90
        4
 70
   128
 43
0.0
 10
0.2349478601500485
 20
0.1829740355140133
 10
0.2357828139835028
 20
0.1829143664067554
 10
0.2359020925997259
 20
0.1823176864612752
 10
0.2357231764353371
 20
0.1820790100322403
  0
LWPOLYLINE
  5
4EE
330
2
100
AcDbEntity
  8
Profilo
  6
Continuous
370
     0
100
AcDbPolyline
 90
        6
 70
   128
 43
0.0
 10
0.2366177713368498
 20
0.1799906190959537
 10
0.2381684039074297
 20
0.1805872990414339
 10
0.2386511572410082
 20
0.1805094816238841
 10
0.2387051594403791
 20
0.1799906190959537
 10
0.2383334305737912
 20
0.1797292378066193
 10
0.2378702056069248
 20
0.1795132718014378
  0
DIMENSION
  5
4EF
102
{ACAD_XDICTIONARY
360
4F9
102
}
102
{ACAD_REACTORS
330
500
102
}
330
2
100
AcDbEntity
  8
Sezione
  6
ACAD_ISO10W100
100
AcDbDimension
  2
*D13
 10
0.1778998631449754
 20
0.1210450215921052
 30
0.0
 11
0.2608432426692433
 21
0.19255037450989
 31
0.0
 70
    35
  1
d 190 mm
 71
     5
 42
0.095
  3
Bovelacci
100
AcDbDiametricDimension
 15
0.2428631975234567
 25
0.1903614351348558
 35
0.0
 40
0.0
1001
ACAD
1000
DSTYLE
1002
{
1070
   288
1070
     1
1002
}
  0
ENDSEC
  0
SECTION
  2
OBJECTS
  0
DICTIONARY
  5
9
330
0
100
AcDbDictionary
281
     1
  3
ACAD_2007HEADERVARS_RT
350
208
  3
ACAD_COLOR
350
184
  3
ACAD_GROUP
350
17F
  3
ACAD_LAYOUT
350
164
  3
ACAD_MATERIAL
350
B
  3
ACAD_MLINESTYLE
350
180
  3
ACAD_PLOTSETTINGS
350
181
  3
ACAD_PLOTSTYLENAME
350
8
  3
ACAD_TABLESTYLE
350
185
  3
ACAD_VISUALSTYLE
350
17A
  3
ACDBHEADERROUNDTRIPXREC
350
512
  3
AcDbVariableDictionary
350
18B
  3
DWGPROPS
350
511
  0
DICTIONARY
  5
16E
330
16D
100
AcDbDictionary
280
     1
281
     1
  3
ACAD_LAYERSTATES
360
16F
  0
DICTIONARY
  5
3
330
2
100
AcDbDictionary
280
     1
281
     1
  3
ACAD_SORTENTS
360
18A
  0
DICTIONARY
  5
513
330
18
100
AcDbDictionary
280
     1
281
     1
  3
ACAD_MTEXT_RT
360
514
  0
DICTIONARY
  5
4F9
330
4EF
100
AcDbDictionary
280
     1
281
     1
  3
ACAD_DIMASSOC
360
500
  0
DICTIONARY
  5
208
102
{ACAD_REACTORS
330
9
102
}
330
9
100
AcDbDictionary
281
     1
  3
DIMFXL
350
209
  0
DICTIONARY
  5
184
102
{ACAD_REACTORS
330
9
102
}
330
9
100
AcDbDictionary
281
     1
  0
DICTIONARY
  5
17F
102
{ACAD_REACTORS
330
9
102
}
330
9
100
AcDbDictionary
281
     1
  0
DICTIONARY
  5
164
102
{ACAD_REACTORS
330
9
102
}
330
9
100
AcDbDictionary
281
     1
  3
Layout1
350
168
  3
Layout2
350
16C
  3
Model
350
163
  0
DICTIONARY
  5
B
102
{ACAD_REACTORS
330
9
102
}
330
9
100
AcDbDictionary
281
     1
  3
ByBlock
350
183
  3
ByLayer
350
182
  3
Global
350
A
  0
DICTIONARY
  5
180
102
{ACAD_REACTORS
330
9
102
}
330
9
100
AcDbDictionary
281
     1
  3
Standard
350
186
  0
DICTIONARY
  5
181
102
{ACAD_REACTORS
330
9
102
}
330
9
100
AcDbDictionary
281
     1
  0
ACDBDICTIONARYWDFLT
  5
8
102
{ACAD_REACTORS
330
9
102
}
330
9
100
AcDbDictionary
281
     1
  3
Normal
350
7
100
AcDbDictionaryWithDefault
340
7
  0
DICTIONARY
  5
185
102
{ACAD_REACTORS
330
9
102
}
330
9
100
AcDbDictionary
281
     1
  3
Standard
350
187
  0
DICTIONARY
  5
17A
102
{ACAD_REACTORS
330
9
102
}
330
9
100
AcDbDictionary
281
     1
  3
2dWireframe
350
179
  3
3D Hidden
350
1BD
  3
3dWireframe
350
189
  3
Basic
350
1BC
  3
Brighten
350
1C0
  3
ColorChange
350
1C4
  3
Conceptual
350
1BE
  3
Dim
350
1BF
  3
Facepattern
350
1C3
  3
Flat
350
1B8
  3
FlatWithEdges
350
1B9
  3
Gouraud
350
1BA
  3
GouraudWithEdges
350
1BB
  3
Linepattern
350
1C2
  3
Realistic
350
188
  3
Thicken
350
1C1
  0
DICTIONARY
  5
512
102
{ACAD_REACTORS
330
9
102
}
330
9
100
AcDbDictionary
281
     1
  0
DICTIONARY
  5
18B
102
{ACAD_REACTORS
330
9
102
}
330
9
100
AcDbDictionary
281
     1
  3
CTABLESTYLE
350
18C
  3
DIMASSOC
350
190
  3
HIDETEXT
350
18F
  3
INDEXCTL
350
18E
  3
PROJECTNAME
350
31D
  3
SORTENTS
350
18D
  0
XRECORD
  5
511
102
{ACAD_REACTORS
330
9
102
}
330
9
100
AcDbXrecord
280
     1
  1
DWGPROPS COOKIE
  2

  3

  4

  6

  7

  8
Mario
  9

300
=
301
=
302
=
303
=
304
=
305
=
306
=
307
=
308
=
309
=
 40
0.0945088310185185
 41
2454297.625402373
 42
2454306.027971643
  1

 90
        0
  0
DICTIONARY
  5
16F
102
{ACAD_REACTORS
330
16E
102
}
330
16E
100
AcDbDictionary
281
     1
  0
SORTENTSTABLE
  5
18A
102
{ACAD_REACTORS
330
3
102
}
330
3
100
AcDbSortentsTable
330
2
331
D
  5
15
331
1E
  5
22
331
1C
  5
1F
331
18
  5
1E
331
16
  5
14
331
25
  5
2AC
331
14
  5
12
331
23
  5
23F
331
12
  5
18
331
21
  5
24
331
10
  5
16
331
1F
  5
23
331
1D
  5
21
331
23F
  5
3BB
331
17
  5
1C
331
15
  5
13
331
24
  5
1D
331
13
  5
11
331
22
  5
25
331
11
  5
17
  0
XRECORD
  5
514
102
{ACAD_REACTORS
330
513
102
}
330
513
100
AcDbXrecord
280
     1
 40
7955300.0
  1
{\fTimes New Roman|b0|i0|c238|p18;\H1.6x;\C4;Bovelacci\P\pt0.09;\H0.4375x;\T0.95;via del Commercio, 5  47100 Forli - Italy  \fTimes New Roman|b0|i0|c0|p18;\P\fTimes New Roman|b0|i0|c238|p18;tel.+39-0543721386  fax +39-0543721127\fTimes New Roman|b0|i
  1
0|c0|p18; \fTimes New Roman|b0|i0|c238|p18;www.bovelacci.it\fTimes New Roman|b0|i0|c0|p18; \fTimes New Roman|b0|i0|c238|p18;e-mail: bovelacci@bovelacci\fTimes New Roman|b0|i0|c0|p18;.it}
  0
DIMASSOC
  5
500
102
{ACAD_REACTORS
330
4F9
102
}
330
4F9
100
AcDbDimAssoc
330
4EF
 90
        2
 70
     0
 71
     0
  1
AcDbOsnapPointRef
 72
     3
331
49A
 73
     2
 91
        0
 40
0.0
 10
0.0
 20
0.0
 30
0.0
 75
     0
  0
XRECORD
  5
209
102
{ACAD_REACTORS
330
208
102
}
330
208
100
AcDbXrecord
280
     1
 40
0.18
  0
LAYOUT
  5
168
102
{ACAD_XDICTIONARY
360
517
102
}
102
{ACAD_REACTORS
330
164
102
}
330
164
100
AcDbPlotSettings
  1

  2
C:\Documents and Settings\All Users\Dati applicazioni\Autodesk\ADT 2006\enu\Plotters\Default Windows System Printer.pc3
  4

  6

 40
0.0
 41
0.0
 42
0.0
 43
0.0
 44
0.0
 45
0.0
 46
0.0
 47
0.0
 48
0.0
 49
0.0
140
0.0
141
0.0
142
1.0
143
1.0
 70
   688
 72
     0
 73
     0
 74
     5
  7

 75
    16
147
1.0
148
0.0
149
0.0
100
AcDbLayout
  1
Layout1
 70
     1
 71
     1
 10
0.0
 20
0.0
 11
420.0
 21
297.0
 12
0.0
 22
0.0
 32
0.0
 14
1.000000000000000E+20
 24
1.000000000000000E+20
 34
1.000000000000000E+20
 15
-1.000000000000000E+20
 25
-1.000000000000000E+20
 35
-1.000000000000000E+20
146
0.0
 13
0.0
 23
0.0
 33
0.0
 16
1.0
 26
0.0
 36
0.0
 17
0.0
 27
1.0
 37
0.0
 76
     0
330
165
  0
LAYOUT
  5
16C
102
{ACAD_XDICTIONARY
360
519
102
}
102
{ACAD_REACTORS
330
164
102
}
330
164
100
AcDbPlotSettings
  1

  2
C:\Documents and Settings\All Users\Dati applicazioni\Autodesk\ADT 2006\enu\Plotters\Default Windows System Printer.pc3
  4

  6

 40
0.0
 41
0.0
 42
0.0
 43
0.0
 44
0.0
 45
0.0
 46
0.0
 47
0.0
 48
0.0
 49
0.0
140
0.0
141
0.0
142
1.0
143
1.0
 70
   688
 72
     0
 73
     0
 74
     5
  7

 75
    16
147
1.0
148
0.0
149
0.0
100
AcDbLayout
  1
Layout2
 70
     1
 71
     2
 10
0.0
 20
0.0
 11
12.0
 21
9.0
 12
0.0
 22
0.0
 32
0.0
 14
0.0
 24
0.0
 34
0.0
 15
0.0
 25
0.0
 35
0.0
146
0.0
 13
0.0
 23
0.0
 33
0.0
 16
1.0
 26
0.0
 36
0.0
 17
0.0
 27
1.0
 37
0.0
 76
     0
330
169
  0
LAYOUT
  5
163
102
{ACAD_XDICTIONARY
360
515
102
}
102
{ACAD_REACTORS
330
164
102
}
330
164
100
AcDbPlotSettings
  1

  2
C:\Documents and Settings\All Users\Dati applicazioni\Autodesk\ADT 2006\enu\Plotters\Default Windows System Printer.pc3
  4

  6

 40
0.0
 41
0.0
 42
0.0
 43
0.0
 44
0.0
 45
0.0
 46
0.0
 47
0.0
 48
0.0
 49
0.0
140
0.0
141
0.0
142
1.0
143
1.0
 70
  1712
 72
     0
 73
     0
 74
     0
  7

 75
     0
147
1.0
148
0.0
149
0.0
100
AcDbLayout
  1
Model
 70
     1
 71
     0
 10
0.0
 20
0.0
 11
12.0
 21
9.0
 12
0.0
 22
0.0
 32
0.0
 14
0.0
 24
0.0
 34
0.0
 15
0.0
 25
0.0
 35
0.0
146
0.0
 13
0.0
 23
0.0
 33
0.0
 16
1.0
 26
0.0
 36
0.0
 17
0.0
 27
1.0
 37
0.0
 76
     0
330
2
  0
MATERIAL
  5
183
102
{ACAD_XDICTIONARY
360
1B0
102
}
102
{ACAD_REACTORS
330
B
102
}
330
B
100
AcDbMaterial
  1
ByBlock
  0
MATERIAL
  5
182
102
{ACAD_XDICTIONARY
360
1AE
102
}
102
{ACAD_REACTORS
330
B
102
}
330
B
100
AcDbMaterial
  1
ByLayer
  0
MATERIAL
  5
A
102
{ACAD_XDICTIONARY
360
193
102
}
102
{ACAD_REACTORS
330
B
102
}
330
B
100
AcDbMaterial
  1
Global
  0
MLINESTYLE
  5
186
102
{ACAD_REACTORS
330
180
102
}
330
180
100
AcDbMlineStyle
  2
STANDARD
 70
     0
  3

 62
   256
 51
90.0
 52
90.0
 71
     2
 49
0.5
 62
   256
  6
BYLAYER
 49
-0.5
 62
   256
  6
BYLAYER
  0
ACDBPLACEHOLDER
  5
7
102
{ACAD_REACTORS
330
8
102
}
330
8
  0
TABLESTYLE
  5
187
102
{ACAD_XDICTIONARY
360
21A
102
}
102
{ACAD_REACTORS
330
185
102
}
330
185
100
AcDbTableStyle
  3
Standard
 70
     0
 71
     0
 40
1.5
 41
1.5
280
     0
281
     0
  7
Standard
140
4.5
170
     2
 62
     0
 63
     7
283
     0
274
    -2
284
     1
 64
     0
275
    -2
285
     1
 65
     0
276
    -2
286
     1
 66
     0
277
    -2
287
     1
 67
     0
278
    -2
288
     1
 68
     0
279
    -2
289
     1
 69
     0
  7
Standard
140
6.0
170
     5
 62
     0
 63
     7
283
     0
274
    -2
284
     1
 64
     0
275
    -2
285
     1
 65
     0
276
    -2
286
     1
 66
     0
277
    -2
287
     1
 67
     0
278
    -2
288
     1
 68
     0
279
    -2
289
     1
 69
     0
  7
Standard
140
4.5
170
     5
 62
     0
 63
     7
283
     0
274
    -2
284
     1
 64
     0
275
    -2
285
     1
 65
     0
276
    -2
286
     1
 66
     0
277
    -2
287
     1
 67
     0
278
    -2
288
     1
 68
     0
279
    -2
289
     1
 69
     0
  0
VISUALSTYLE
  5
179
102
{ACAD_REACTORS
330
17A
102
}
330
17A
100
AcDbVisualStyle
  2
2dWireframe
 70
     4
 71
     0
 72
     2
 73
     0
 90
        0
 40
-0.6
 41
-30.0
 62
     5
 63
     7
 74
     1
 91
        4
 64
     7
 65
   257
 75
     1
175
     1
 42
1.0
 92
        0
 66
   257
 43
1.0
 76
     1
 77
     6
 78
     2
 67
     7
 79
     5
170
     0
171
     0
290
     0
174
     0
 93
        1
 44
0.0
173
     0
291
     0
 45
0.0
1001
ACAD
1000
AcDbSavedByObjectVersion
1070
     0
1000
AcDbSavedByObjectVersion
1070
     0
1000
AcDbSavedByObjectVersion
1070
     0
1001
ACAD
1000
AcRTDxfName
1000
VISUALSTYLE
  0
VISUALSTYLE
  5
1BD
102
{ACAD_REACTORS
330
17A
102
}
330
17A
100
AcDbVisualStyle
  2
3D Hidden
 70
     6
 71
     1
 72
     2
 73
     2
 90
        0
 40
-0.6
 41
-30.0
 62
     5
 63
     7
 74
     2
 91
        2
 64
     7
 65
   257
 75
     2
175
     1
 42
40.0
 92
        0
 66
   257
 43
1.0
 76
     1
 77
     6
 78
     2
 67
     7
 79
     3
170
     0
171
     0
290
     0
174
     0
 93
        1
 44
0.0
173
     0
291
     0
 45
0.0
1001
ACAD
1000
AcDbSavedByObjectVersion
1070
     0
1000
AcDbSavedByObjectVersion
1070
     0
1001
ACAD
1000
AcRTDxfName
1000
VISUALSTYLE
  0
VISUALSTYLE
  5
189
102
{ACAD_REACTORS
330
17A
102
}
330
17A
100
AcDbVisualStyle
  2
3dWireframe
 70
     5
 71
     0
 72
     2
 73
     0
 90
        0
 40
-0.6
 41
-30.0
 62
     5
 63
     7
 74
     1
 91
        4
 64
     7
 65
   257
 75
     1
175
     1
 42
1.0
 92
        0
 66
   257
 43
1.0
 76
     1
 77
     6
 78
     2
 67
     7
 79
     5
170
     0
171
     0
290
     0
174
     0
 93
        1
 44
0.0
173
     0
291
     0
 45
0.0
1001
ACAD
1000
AcDbSavedByObjectVersion
1070
     0
1000
AcDbSavedByObjectVersion
1070
     0
1000
AcDbSavedByObjectVersion
1070
     0
1001
ACAD
1000
AcRTDxfName
1000
VISUALSTYLE
  0
VISUALSTYLE
  5
1BC
102
{ACAD_REACTORS
330
17A
102
}
330
17A
100
AcDbVisualStyle
  2
Basic
 70
     7
 71
     1
 72
     0
 73
     1
 90
        0
 40
-0.6
 41
-30.0
 62
     5
 63
     7
 74
     0
 91
        4
 64
     7
 65
   257
 75
     1
175
     1
 42
1.0
 92
        8
 66
     7
 43
1.0
 76
     1
 77
     6
 78
     2
 67
     7
 79
     5
170
     0
171
     0
290
     0
174
     0
 93
        1
 44
0.0
173
     0
291
     1
 45
0.0
1001
ACAD
1000
AcDbSavedByObjectVersion
1070
     0
1000
AcDbSavedByObjectVersion
1070
     0
1001
ACAD
1000
AcRTDxfName
1000
VISUALSTYLE
  0
VISUALSTYLE
  5
1C0
102
{ACAD_REACTORS
330
17A
102
}
330
17A
100
AcDbVisualStyle
  2
Brighten
 70
    12
 71
     2
 72
     2
 73
     0
 90
        0
 40
-0.6
 41
-30.0
 62
     5
 63
     7
 74
     1
 91
        4
 64
     7
 65
   257
 75
     1
175
     1
 42
1.0
 92
        8
 66
     7
 43
1.0
 76
     1
 77
     6
 78
     2
 67
     7
 79
     5
170
     0
171
     0
290
     0
174
     0
 93
        1
 44
50.0
173
     0
291
     1
 45
0.0
1001
ACAD
1000
AcDbSavedByObjectVersion
1070
     0
1000
AcDbSavedByObjectVersion
1070
     0
1001
ACAD
1000
AcRTDxfName
1000
VISUALSTYLE
  0
VISUALSTYLE
  5
1C4
102
{ACAD_REACTORS
330
17A
102
}
330
17A
100
AcDbVisualStyle
  2
ColorChange
 70
    16
 71
     2
 72
     2
 73
     3
 90
        0
 40
-0.6
 41
-30.0
 62
     5
 63
     8
 74
     1
 91
        4
 64
     7
 65
   257
 75
     1
175
     1
 42
1.0
 92
        8
 66
     8
 43
1.0
 76
     1
 77
     6
 78
     2
 67
     7
 79
     5
170
     0
171
     0
290
     0
174
     0
 93
        1
 44
0.0
173
     0
291
     1
 45
0.0
1001
ACAD
1000
AcDbSavedByObjectVersion
1070
     0
1000
AcDbSavedByObjectVersion
1070
     0
1001
ACAD
1000
AcRTDxfName
1000
VISUALSTYLE
  0
VISUALSTYLE
  5
1BE
102
{ACAD_REACTORS
330
17A
102
}
330
17A
100
AcDbVisualStyle
  2
Conceptual
 70
     9
 71
     3
 72
     2
 73
     0
 90
        0
 40
-0.6
 41
-30.0
 62
     5
 63
     7
 74
     2
 91
        2
 64
     7
 65
   257
 75
     1
175
     1
 42
40.0
 92
        8
 66
     7
 43
1.0
 76
     1
 77
     6
 78
     2
 67
     7
 79
     3
170
     0
171
     0
290
     0
174
     0
 93
        1
 44
0.0
173
     0
291
     0
 45
0.0
1001
ACAD
1000
AcDbSavedByObjectVersion
1070
     0
1000
AcDbSavedByObjectVersion
1070
     0
1001
ACAD
1000
AcRTDxfName
1000
VISUALSTYLE
  0
VISUALSTYLE
  5
1BF
102
{ACAD_REACTORS
330
17A
102
}
330
17A
100
AcDbVisualStyle
  2
Dim
 70
    11
 71
     2
 72
     2
 73
     0
 90
        0
 40
-0.6
 41
-30.0
 62
     5
 63
     7
 74
     1
 91
        4
 64
     7
 65
   257
 75
     1
175
     1
 42
1.0
 92
        8
 66
     7
 43
1.0
 76
     1
 77
     6
 78
     2
 67
     7
 79
     5
170
     0
171
     0
290
     0
174
     0
 93
        1
 44
-50.0
173
     0
291
     1
 45
0.0
1001
ACAD
1000
AcDbSavedByObjectVersion
1070
     0
1000
AcDbSavedByObjectVersion
1070
     0
1001
ACAD
1000
AcRTDxfName
1000
VISUALSTYLE
  0
VISUALSTYLE
  5
1C3
102
{ACAD_REACTORS
330
17A
102
}
330
17A
100
AcDbVisualStyle
  2
Facepattern
 70
    15
 71
     2
 72
     2
 73
     0
 90
        0
 40
-0.6
 41
-30.0
 62
     5
 63
     7
 74
     1
 91
        4
 64
     7
 65
   257
 75
     1
175
     1
 42
1.0
 92
        8
 66
     7
 43
1.0
 76
     1
 77
     6
 78
     2
 67
     7
 79
     5
170
     0
171
     0
290
     0
174
     0
 93
        1
 44
0.0
173
     0
291
     1
 45
0.0
1001
ACAD
1000
AcDbSavedByObjectVersion
1070
     0
1000
AcDbSavedByObjectVersion
1070
     0
1001
ACAD
1000
AcRTDxfName
1000
VISUALSTYLE
  0
VISUALSTYLE
  5
1B8
102
{ACAD_REACTORS
330
17A
102
}
330
17A
100
AcDbVisualStyle
  2
Flat
 70
     0
 71
     2
 72
     1
 73
     1
 90
        2
 40
-0.6
 41
30.0
 62
     5
 63
     7
 74
     0
 91
        4
 64
     7
 65
   257
 75
     1
175
     1
 42
1.0
 92
        8
 66
     7
 43
1.0
 76
     1
 77
     6
 78
     2
 67
     7
 79
     5
170
     0
171
     0
290
     0
174
     0
 93
       13
 44
0.0
173
     0
291
     1
 45
0.0
1001
ACAD
1000
AcDbSavedByObjectVersion
1070
     0
1000
AcDbSavedByObjectVersion
1070
     0
1001
ACAD
1000
AcRTDxfName
1000
VISUALSTYLE
  0
VISUALSTYLE
  5
1B9
102
{ACAD_REACTORS
330
17A
102
}
330
17A
100
AcDbVisualStyle
  2
FlatWithEdges
 70
     1
 71
     2
 72
     1
 73
     1
 90
        2
 40
-0.6
 41
30.0
 62
     5
 63
     7
 74
     1
 91
        4
 64
     7
 65
   257
 75
     1
175
     1
 42
1.0
 92
        0
 66
   257
 43
1.0
 76
     1
 77
     6
 78
     2
 67
     7
 79
     5
170
     0
171
     0
290
     0
174
     0
 93
       13
 44
0.0
173
     0
291
     1
 45
0.0
1001
ACAD
1000
AcDbSavedByObjectVersion
1070
     0
1000
AcDbSavedByObjectVersion
1070
     0
1001
ACAD
1000
AcRTDxfName
1000
VISUALSTYLE
  0
VISUALSTYLE
  5
1BA
102
{ACAD_REACTORS
330
17A
102
}
330
17A
100
AcDbVisualStyle
  2
Gouraud
 70
     2
 71
     2
 72
     2
 73
     1
 90
        2
 40
-0.6
 41
30.0
 62
     5
 63
     7
 74
     0
 91
        4
 64
     7
 65
   257
 75
     1
175
     1
 42
1.0
 92
        0
 66
     7
 43
1.0
 76
     1
 77
     6
 78
     2
 67
     7
 79
     5
170
     0
171
     0
290
     0
174
     0
 93
       13
 44
0.0
173
     0
291
     1
 45
0.0
1001
ACAD
1000
AcDbSavedByObjectVersion
1070
     0
1000
AcDbSavedByObjectVersion
1070
     0
1001
ACAD
1000
AcRTDxfName
1000
VISUALSTYLE
  0
VISUALSTYLE
  5
1BB
102
{ACAD_REACTORS
330
17A
102
}
330
17A
100
AcDbVisualStyle
  2
GouraudWithEdges
 70
     3
 71
     2
 72
     2
 73
     1
 90
        2
 40
-0.6
 41
30.0
 62
     5
 63
     7
 74
     1
 91
        4
 64
     7
 65
   257
 75
     1
175
     1
 42
1.0
 92
        0
 66
   257
 43
1.0
 76
     1
 77
     6
 78
     2
 67
     7
 79
     5
170
     0
171
     0
290
     0
174
     0
 93
       13
 44
0.0
173
     0
291
     1
 45
0.0
1001
ACAD
1000
AcDbSavedByObjectVersion
1070
     0
1000
AcDbSavedByObjectVersion
1070
     0
1001
ACAD
1000
AcRTDxfName
1000
VISUALSTYLE
  0
VISUALSTYLE
  5
1C2
102
{ACAD_REACTORS
330
17A
102
}
330
17A
100
AcDbVisualStyle
  2
Linepattern
 70
    14
 71
     2
 72
     2
 73
     0
 90
        0
 40
-0.6
 41
-30.0
 62
     5
 63
     7
 74
     1
 91
        4
 64
     7
 65
   257
 75
     7
175
     7
 42
1.0
 92
        8
 66
     7
 43
1.0
 76
     1
 77
     6
 78
     2
 67
     7
 79
     5
170
     0
171
     0
290
     0
174
     0
 93
        1
 44
0.0
173
     0
291
     1
 45
0.0
1001
ACAD
1000
AcDbSavedByObjectVersion
1070
     0
1000
AcDbSavedByObjectVersion
1070
     0
1001
ACAD
1000
AcRTDxfName
1000
VISUALSTYLE
  0
VISUALSTYLE
  5
188
102
{ACAD_REACTORS
330
17A
102
}
330
17A
100
AcDbVisualStyle
  2
Realistic
 70
     8
 71
     2
 72
     2
 73
     0
 90
        0
 40
-0.6
 41
-30.0
 62
     5
 63
     7
 74
     1
 91
        0
 64
     7
 65
   257
 75
     1
175
     1
 42
1.0
 92
        8
 66
     8
 43
1.0
 76
     1
 77
     6
 78
     2
 67
     7
 79
     5
170
     0
171
     0
290
     0
174
     0
 93
       13
 44
0.0
173
     0
291
     0
 45
0.0
1001
ACAD
1000
AcDbSavedByObjectVersion
1070
     0
1000
AcDbSavedByObjectVersion
1070
     0
1000
AcDbSavedByObjectVersion
1070
     0
1001
ACAD
1000
AcRTDxfName
1000
VISUALSTYLE
  0
VISUALSTYLE
  5
1C1
102
{ACAD_REACTORS
330
17A
102
}
330
17A
100
AcDbVisualStyle
  2
Thicken
 70
    13
 71
     2
 72
     2
 73
     0
 90
        0
 40
-0.6
 41
-30.0
 62
     5
 63
     7
 74
     1
 91
        4
 64
     7
 65
   257
 75
     1
175
     1
 42
1.0
 92
       12
 66
     7
 43
1.0
 76
     1
 77
     6
 78
     2
 67
     7
 79
     5
170
     0
171
     0
290
     0
174
     0
 93
        1
 44
0.0
173
     0
291
     1
 45
0.0
1001
ACAD
1000
AcDbSavedByObjectVersion
1070
     0
1000
AcDbSavedByObjectVersion
1070
     0
1001
ACAD
1000
AcRTDxfName
1000
VISUALSTYLE
  0
DICTIONARYVAR
  5
18C
102
{ACAD_REACTORS
330
18B
102
}
330
18B
100
DictionaryVariables
280
     0
  1
STANDARD
  0
DICTIONARYVAR
  5
190
102
{ACAD_REACTORS
330
18B
102
}
330
18B
100
DictionaryVariables
280
     0
  1
2
  0
DICTIONARYVAR
  5
18F
102
{ACAD_REACTORS
330
18B
102
}
330
18B
100
DictionaryVariables
280
     0
  1
1
  0
DICTIONARYVAR
  5
18E
102
{ACAD_REACTORS
330
18B
102
}
330
18B
100
DictionaryVariables
280
     0
  1
0
  0
DICTIONARYVAR
  5
31D
102
{ACAD_REACTORS
330
18B
102
}
330
18B
100
DictionaryVariables
280
     0
  1

  0
DICTIONARYVAR
  5
18D
102
{ACAD_REACTORS
330
18B
102
}
330
18B
100
DictionaryVariables
280
     0
  1
127
  0
DICTIONARY
  5
517
330
168
100
AcDbDictionary
280
     1
281
     1
  3
ACAD_XREC_ROUNDTRIP
360
518
  0
DICTIONARY
  5
519
330
16C
100
AcDbDictionary
280
     1
281
     1
  3
ACAD_XREC_ROUNDTRIP
360
51A
  0
DICTIONARY
  5
515
330
163
100
AcDbDictionary
280
     1
281
     1
  3
ACAD_XREC_ROUNDTRIP
360
516
  0
DICTIONARY
  5
1B0
330
183
100
AcDbDictionary
280
     1
281
     1
  3
ACAD_XREC_ROUNDTRIP
360
1B1
  0
DICTIONARY
  5
1AE
330
182
100
AcDbDictionary
280
     1
281
     1
  3
ACAD_XREC_ROUNDTRIP
360
1AF
  0
DICTIONARY
  5
193
330
A
100
AcDbDictionary
280
     1
281
     1
  3
ACAD_XREC_ROUNDTRIP
360
194
  0
DICTIONARY
  5
21A
330
187
100
AcDbDictionary
280
     1
281
     1
  3
ACAD_XREC_ROUNDTRIP
360
21B
  0
XRECORD
  5
518
102
{ACAD_REACTORS
330
517
102
}
330
517
100
AcDbXrecord
280
     1
102
SHADEPLOT
 70
     0
102
SHADEPLOTRESLEVEL
 70
     2
102
SHADEPLOTCUSTOMDPI
 70
   300
  0
XRECORD
  5
51A
102
{ACAD_REACTORS
330
519
102
}
330
519
100
AcDbXrecord
280
     1
102
SHADEPLOT
 70
     0
102
SHADEPLOTRESLEVEL
 70
     2
102
SHADEPLOTCUSTOMDPI
 70
   300
  0
XRECORD
  5
516
102
{ACAD_REACTORS
330
515
102
}
330
515
100
AcDbXrecord
280
     1
102
SHADEPLOT
 70
     0
102
SHADEPLOTRESLEVEL
 70
     2
102
SHADEPLOTCUSTOMDPI
 70
   300
  0
XRECORD
  5
1B1
102
{ACAD_REACTORS
330
1B0
102
}
330
1B0
100
AcDbXrecord
280
     1
102
MATERIAL
148
0.0
149
0.0
149
0.0
 93
        0
 94
       63
282
     0
 72
     1
 77
     1
171
     1
175
     1
179
     1
273
     0
  0
XRECORD
  5
1AF
102
{ACAD_REACTORS
330
1AE
102
}
330
1AE
100
AcDbXrecord
280
     1
102
MATERIAL
148
0.0
149
0.0
149
0.0
 93
        0
 94
       63
282
     0
 72
     1
 77
     1
171
     1
175
     1
179
     1
273
     0
  0
XRECORD
  5
194
102
{ACAD_REACTORS
330
193
102
}
330
193
100
AcDbXrecord
280
     1
102
MATERIAL
148
0.0
149
0.0
149
0.0
 93
        0
 94
       63
282
     0
 72
     1
 77
     1
171
     1
175
     1
179
     1
273
     0
  0
XRECORD
  5
21B
102
{ACAD_REACTORS
330
21A
102
}
330
21A
100
AcDbXrecord
280
     1
102
ACAD_ROUNDTRIP_PRE2007_TABLESTYLE
 90
        4
 91
        0
  1

 92
        4
 93
        0
  2

 94
        4
 95
        0
  3

  0
ENDSEC
  0
EOF
