  0
SECTION
  2
HEADER
  9
$ACADVER
  1
AC1015
  9
$ACADMAINTVER
 70
    20
  9
$DWGCODEPAGE
  3
ANSI_1252
  9
$INSBASE
 10
0.0
 20
0.0
 30
0.0
  9
$EXTMIN
 10
-0.0957876215495604
 20
-0.1451768209528949
 30
0.0
  9
$EXTMAX
 10
0.750171479133493
 20
0.282
 30
0.0
  9
$LIMMIN
 10
0.0
 20
0.0
  9
$LIMMAX
 10
1.0
 20
0.5
  9
$ORTHOMODE
 70
     0
  9
$REGENMODE
 70
     1
  9
$FILLMODE
 70
     1
  9
$QTEXTMODE
 70
     0
  9
$MIRRTEXT
 70
     0
  9
$LTSCALE
 40
1.0
  9
$ATTMODE
 70
     1
  9
$TEXTSIZE
 40
0.005
  9
$TRACEWID
 40
1.0
  9
$TEXTSTYLE
  7
style1
  9
$CLAYER
  8
Dimensione
  9
$CELTYPE
  6
ByLayer
  9
$CECOLOR
 62
   256
  9
$CELTSCALE
 40
1.0
  9
$DISPSILH
 70
     0
  9
$DIMSCALE
 40
0.001
  9
$DIMASZ
 40
1.5
  9
$DIMEXO
 40
0.0625
  9
$DIMDLI
 40
0.38
  9
$DIMRND
 40
0.0
  9
$DIMDLE
 40
0.0
  9
$DIMEXE
 40
0.18
  9
$DIMTP
 40
0.0
  9
$DIMTM
 40
0.0
  9
$DIMTXT
 40
3.0
  9
$DIMCEN
 40
0.0
  9
$DIMTSZ
 40
0.0
  9
$DIMTOL
 70
     0
  9
$DIMLIM
 70
     0
  9
$DIMTIH
 70
     1
  9
$DIMTOH
 70
     1
  9
$DIMSE1
 70
     0
  9
$DIMSE2
 70
     0
  9
$DIMTAD
 70
     0
  9
$DIMZIN
 70
     0
  9
$DIMBLK
  1
ArchTick
  9
$DIMASO
 70
     1
  9
$DIMSHO
 70
     1
  9
$DIMPOST
  1

  9
$DIMAPOST
  1

  9
$DIMALT
 70
     0
  9
$DIMALTD
 70
     2
  9
$DIMALTF
 40
25.4
  9
$DIMLFAC
 40
1.0
  9
$DIMTOFL
 70
     0
  9
$DIMTVP
 40
0.0
  9
$DIMTIX
 70
     0
  9
$DIMSOXD
 70
     0
  9
$DIMSAH
 70
     0
  9
$DIMBLK1
  1

  9
$DIMBLK2
  1

  9
$DIMSTYLE
  2
Bovelacci
  9
$DIMCLRD
 70
     5
  9
$DIMCLRE
 70
     5
  9
$DIMCLRT
 70
     4
  9
$DIMTFAC
 40
1.0
  9
$DIMGAP
 40
2.0
  9
$DIMJUST
 70
     0
  9
$DIMSD1
 70
     0
  9
$DIMSD2
 70
     0
  9
$DIMTOLJ
 70
     1
  9
$DIMTZIN
 70
     0
  9
$DIMALTZ
 70
     0
  9
$DIMALTTZ
 70
     0
  9
$DIMUPT
 70
     0
  9
$DIMDEC
 70
     2
  9
$DIMTDEC
 70
     2
  9
$DIMALTU
 70
     2
  9
$DIMALTTD
 70
     2
  9
$DIMTXSTY
  7
ROMANS
  9
$DIMAUNIT
 70
     0
  9
$DIMADEC
 70
     0
  9
$DIMALTRND
 40
0.0
  9
$DIMAZIN
 70
     0
  9
$DIMDSEP
 70
    46
  9
$DIMATFIT
 70
     3
  9
$DIMFRAC
 70
     0
  9
$DIMLDRBLK
  1

  9
$DIMLUNIT
 70
     2
  9
$DIMLWD
 70
    -2
  9
$DIMLWE
 70
    -2
  9
$DIMTMOVE
 70
     2
  9
$LUNITS
 70
     2
  9
$LUPREC
 70
     2
  9
$SKETCHINC
 40
1.0
  9
$FILLETRAD
 40
0.0
  9
$AUNITS
 70
     0
  9
$AUPREC
 70
     0
  9
$MENU
  1
.
  9
$ELEVATION
 40
0.0
  9
$PELEVATION
 40
0.0
  9
$THICKNESS
 40
0.0
  9
$LIMCHECK
 70
     0
  9
$CHAMFERA
 40
0.0
  9
$CHAMFERB
 40
0.0
  9
$CHAMFERC
 40
0.0
  9
$CHAMFERD
 40
0.0
  9
$SKPOLY
 70
     0
  9
$TDCREATE
 40
2454297.625402373
  9
$TDUCREATE
 40
2454297.542069039
  9
$TDUPDATE
 40
2454334.980139421
  9
$TDUUPDATE
 40
2454334.896806088
  9
$TDINDWG
 40
0.2874929514
  9
$TDUSRTIMER
 40
0.2874923958
  9
$USRTIMER
 70
     1
  9
$ANGBASE
 50
0.0
  9
$ANGDIR
 70
     0
  9
$PDMODE
 70
     0
  9
$PDSIZE
 40
0.0
  9
$PLINEWID
 40
0.0
  9
$SPLFRAME
 70
     0
  9
$SPLINETYPE
 70
     6
  9
$SPLINESEGS
 70
     8
  9
$HANDSEED
  5
1D73
  9
$SURFTAB1
 70
     6
  9
$SURFTAB2
 70
     6
  9
$SURFTYPE
 70
     6
  9
$SURFU
 70
     6
  9
$SURFV
 70
     6
  9
$UCSBASE
  2

  9
$UCSNAME
  2

  9
$UCSORG
 10
0.0
 20
0.0
 30
0.0
  9
$UCSXDIR
 10
1.0
 20
0.0
 30
0.0
  9
$UCSYDIR
 10
0.0
 20
1.0
 30
0.0
  9
$UCSORTHOREF
  2

  9
$UCSORTHOVIEW
 70
     0
  9
$UCSORGTOP
 10
0.0
 20
0.0
 30
0.0
  9
$UCSORGBOTTOM
 10
0.0
 20
0.0
 30
0.0
  9
$UCSORGLEFT
 10
0.0
 20
0.0
 30
0.0
  9
$UCSORGRIGHT
 10
0.0
 20
0.0
 30
0.0
  9
$UCSORGFRONT
 10
0.0
 20
0.0
 30
0.0
  9
$UCSORGBACK
 10
0.0
 20
0.0
 30
0.0
  9
$PUCSBASE
  2

  9
$PUCSNAME
  2

  9
$PUCSORG
 10
0.0
 20
0.0
 30
0.0
  9
$PUCSXDIR
 10
1.0
 20
0.0
 30
0.0
  9
$PUCSYDIR
 10
0.0
 20
1.0
 30
0.0
  9
$PUCSORTHOREF
  2

  9
$PUCSORTHOVIEW
 70
     0
  9
$PUCSORGTOP
 10
0.0
 20
0.0
 30
0.0
  9
$PUCSORGBOTTOM
 10
0.0
 20
0.0
 30
0.0
  9
$PUCSORGLEFT
 10
0.0
 20
0.0
 30
0.0
  9
$PUCSORGRIGHT
 10
0.0
 20
0.0
 30
0.0
  9
$PUCSORGFRONT
 10
0.0
 20
0.0
 30
0.0
  9
$PUCSORGBACK
 10
0.0
 20
0.0
 30
0.0
  9
$USERI1
 70
     0
  9
$USERI2
 70
     0
  9
$USERI3
 70
     0
  9
$USERI4
 70
     0
  9
$USERI5
 70
     0
  9
$USERR1
 40
0.0
  9
$USERR2
 40
0.0
  9
$USERR3
 40
0.0
  9
$USERR4
 40
0.0
  9
$USERR5
 40
0.0
  9
$WORLDVIEW
 70
     1
  9
$SHADEDGE
 70
     3
  9
$SHADEDIF
 70
    70
  9
$TILEMODE
 70
     1
  9
$MAXACTVP
 70
    64
  9
$PINSBASE
 10
0.0
 20
0.0
 30
0.0
  9
$PLIMCHECK
 70
     0
  9
$PEXTMIN
 10
29.06606628894805
 20
20.36233246326446
 30
0.0
  9
$PEXTMAX
 10
261.5945966005325
 20
183.2609921693802
 30
0.0
  9
$PLIMMIN
 10
-3.17498779296875
 20
-3.174999952316281
  9
$PLIMMAX
 10
293.8356628417969
 20
206.7983276844024
  9
$UNITMODE
 70
     0
  9
$VISRETAIN
 70
     1
  9
$PLINEGEN
 70
     0
  9
$PSLTSCALE
 70
     1
  9
$TREEDEPTH
 70
  3020
  9
$CMLSTYLE
  2
Standard
  9
$CMLJUST
 70
     0
  9
$CMLSCALE
 40
20.0
  9
$PROXYGRAPHICS
 70
     1
  9
$MEASUREMENT
 70
     1
  9
$CELWEIGHT
370
    -1
  9
$ENDCAPS
280
     0
  9
$JOINSTYLE
280
     0
  9
$LWDISPLAY
290
     0
  9
$INSUNITS
 70
     4
  9
$HYPERLINKBASE
  1

  9
$STYLESHEET
  1

  9
$XEDIT
290
     1
  9
$CEPSNTYPE
380
     0
  9
$PSTYLEMODE
290
     1
  9
$FINGERPRINTGUID
  2
{4F38C4E7-9F37-4C76-96D9-79C94F9B03D9}
  9
$VERSIONGUID
  2
{C9D8493F-2D8E-4C6E-9F54-292D37AFF7E8}
  9
$EXTNAMES
290
     1
  9
$PSVPSCALE
 40
0.0
  9
$OLESTARTUP
290
     0
  0
ENDSEC
  0
SECTION
  2
CLASSES
  0
CLASS
  1
ACDBDICTIONARYWDFLT
  2
AcDbDictionaryWithDefault
  3
ObjectDBX Classes
 90
        0
280
     0
281
     0
  0
CLASS
  1
TABLESTYLE
  2
AcDbTableStyle
  3
ObjectDBX Classes
 90
     2047
280
     0
281
     0
  0
CLASS
  1
SORTENTSTABLE
  2
AcDbSortentsTable
  3
ObjectDBX Classes
 90
        0
280
     0
281
     0
  0
CLASS
  1
DICTIONARYVAR
  2
AcDbDictionaryVar
  3
ObjectDBX Classes
 90
        0
280
     0
281
     0
  0
CLASS
  1
DIMASSOC
  2
AcDbDimAssoc
  3
"AcDbDimAssoc|Product Desc:     AcDim ARX App For Dimension|Company:          Autodesk, Inc.|WEB Address:      www.autodesk.com"
 90
        0
280
     0
281
     0
  0
CLASS
  1
ACDBPLACEHOLDER
  2
AcDbPlaceHolder
  3
ObjectDBX Classes
 90
        0
280
     0
281
     0
  0
CLASS
  1
LAYOUT
  2
AcDbLayout
  3
ObjectDBX Classes
 90
        0
280
     0
281
     0
  0
CLASS
  1
MATERIAL
  2
AcDbMaterial
  3
ObjectDBX Classes
 90
        0
280
     0
281
     0
  0
CLASS
  1
VISUALSTYLE
  2
AcDbVisualStyle
  3
ObjectDBX Classes
 90
     4095
280
     0
281
     0
  0
CLASS
  1
ACAD_EVALUATION_GRAPH
  2
AcDbEvalGraph
  3
ObjectDBX Classes
 90
    33921
280
     0
281
     0
  0
CLASS
  1
ACAECUSTOBJ
  2
AcAeEditorObj
  3
AcAeEditorObj
 90
    33792
280
     0
281
     0
  0
CLASS
  1
ACDB_DYNAMICBLOCKPURGEPREVENTER_VERSION
  2
AcDbDynamicBlockPurgePreventer
  3
ObjectDBX Classes
 90
    33921
280
     0
281
     0
  0
ENDSEC
  0
SECTION
  2
TABLES
  0
TABLE
  2
VPORT
  5
96
330
0
100
AcDbSymbolTable
 70
     5
  0
VPORT
  5
1D65
330
96
100
AcDbSymbolTableRecord
100
AcDbViewportTableRecord
  2
*Active
 70
     0
 10
0.0
 20
0.0
 11
1.0
 21
1.0
 12
0.2074994619854628
 22
0.1484271574241856
 13
0.0
 23
0.0
 14
10.0
 24
10.0
 15
10.0
 25
10.0
 16
0.0
 26
0.0
 36
1.0
 17
0.0
 27
0.0
 37
0.0
 40
0.2894591100266935
 41
1.546526867627784
 42
50.0
 43
0.0
 44
0.0
 50
0.0
 51
0.0
 71
     0
 72
  1000
 73
     1
 74
     3
 75
     0
 76
     0
 77
     0
 78
     0
281
     0
 65
     1
110
0.0
120
0.0
130
0.0
111
1.0
121
0.0
131
0.0
112
0.0
122
1.0
132
0.0
 79
     0
146
0.0
  0
ENDTAB
  0
TABLE
  2
LTYPE
  5
91
330
0
100
AcDbSymbolTable
 70
     5
  0
LTYPE
  5
92
330
91
100
AcDbSymbolTableRecord
100
AcDbLinetypeTableRecord
  2
ByBlock
 70
     0
  3

 72
    65
 73
     0
 40
0.0
  0
LTYPE
  5
93
330
91
100
AcDbSymbolTableRecord
100
AcDbLinetypeTableRecord
  2
ByLayer
 70
     0
  3

 72
    65
 73
     0
 40
0.0
  0
LTYPE
  5
C
330
91
100
AcDbSymbolTableRecord
100
AcDbLinetypeTableRecord
  2
Continuous
 70
     0
  3
Solid line
 72
    65
 73
     0
 40
0.0
  0
LTYPE
  5
105
330
91
100
AcDbSymbolTableRecord
100
AcDbLinetypeTableRecord
  2
ACAD_ISO10W100
 70
     0
  3
ISO dash dot __ . __ . __ . __ . __ . __ . __ .
 72
    65
 73
     4
 40
18.0
 49
12.0
 74
     0
 49
-3.0
 74
     0
 49
0.0
 74
     0
 49
-3.0
 74
     0
  0
LTYPE
  5
190
330
91
100
AcDbSymbolTableRecord
100
AcDbLinetypeTableRecord
  2
RAYITAX4
 70
     0
  3
RAYITAX4
 72
    65
 73
     2
 40
18.0
 49
12.0
 74
     0
 49
-6.0
 74
     0
  0
LTYPE
  5
73C
330
91
100
AcDbSymbolTableRecord
100
AcDbLinetypeTableRecord
  2
RAYITA
 70
     0
  3
rayita
 72
    65
 73
     2
 40
1.5
 49
1.0
 74
     0
 49
-0.5
 74
     0
  0
ENDTAB
  0
TABLE
  2
LAYER
  5
8A
102
{ACAD_XDICTIONARY
360
8B
102
}
330
0
100
AcDbSymbolTable
 70
    12
  0
LAYER
  5
6
330
8A
100
AcDbSymbolTableRecord
100
AcDbLayerTableRecord
  2
0
 70
     0
 62
     7
  6
Continuous
370
    -3
390
7
  0
LAYER
  5
3F
330
8A
100
AcDbSymbolTableRecord
100
AcDbLayerTableRecord
  2
Defpoints
 70
     0
 62
     7
  6
Continuous
290
     0
370
    -3
390
7
  0
LAYER
  5
2E
330
8A
100
AcDbSymbolTableRecord
100
AcDbLayerTableRecord
  2
Dimensione
 70
     0
 62
   150
  6
Continuous
370
    -3
390
7
1001
AcAecLayerStandard
1000

1000

  0
LAYER
  5
2A
330
8A
100
AcDbSymbolTableRecord
100
AcDbLayerTableRecord
  2
Profilo
 70
     0
 62
     1
  6
Continuous
370
    -3
390
7
1001
AcAecLayerStandard
1000

1000

  0
LAYER
  5
54
330
8A
100
AcDbSymbolTableRecord
100
AcDbLayerTableRecord
  2
Sezione
 70
     0
 62
     2
  6
Continuous
370
    -3
390
7
1001
AcAecLayerStandard
1000

1000

  0
LAYER
  5
E
330
8A
100
AcDbSymbolTableRecord
100
AcDbLayerTableRecord
  2
Table
 70
     0
 62
     3
  6
Continuous
370
    -3
390
7
1001
AcAecLayerStandard
1000

1000

  0
LAYER
  5
19
330
8A
100
AcDbSymbolTableRecord
100
AcDbLayerTableRecord
  2
Text
 70
     0
 62
     4
  6
Continuous
370
    -3
390
7
1001
AcAecLayerStandard
1000

1000

  0
LAYER
  5
5C
330
8A
100
AcDbSymbolTableRecord
100
AcDbLayerTableRecord
  2
Vista
 70
     0
 62
     2
  6
Continuous
370
    -3
390
7
1001
AcAecLayerStandard
1000

1000

  0
LAYER
  5
256
330
8A
100
AcDbSymbolTableRecord
100
AcDbLayerTableRecord
  2
CORTE
 70
     0
 62
     1
  6
Continuous
370
    -3
390
7
  0
LAYER
  5
40E
330
8A
100
AcDbSymbolTableRecord
100
AcDbLayerTableRecord
  2
COTAS
 70
     0
 62
     4
  6
Continuous
370
    -3
390
7
  0
LAYER
  5
594
330
8A
100
AcDbSymbolTableRecord
100
AcDbLayerTableRecord
  2
MARCO
 70
     0
 62
     4
  6
Continuous
370
    -3
390
7
  0
LAYER
  5
B5A
330
8A
100
AcDbSymbolTableRecord
100
AcDbLayerTableRecord
  2
TRAMA
 70
     0
 62
     4
  6
Continuous
370
    -3
390
7
  0
ENDTAB
  0
TABLE
  2
STYLE
  5
8F
330
0
100
AcDbSymbolTable
 70
     5
  0
STYLE
  5
1A
330
8F
100
AcDbSymbolTableRecord
100
AcDbTextStyleTableRecord
  2
Standard
 70
     0
 40
0.0
 41
1.0
 50
0.0
 71
     0
 42
2.5
  3
txt
  4

  0
STYLE
  5
20
330
8F
100
AcDbSymbolTableRecord
100
AcDbTextStyleTableRecord
  2
ROMANS
 70
     0
 40
0.0
 41
1.0
 50
0.0
 71
     0
 42
2.5
  3
romans
  4

  0
STYLE
  5
28
330
8F
100
AcDbSymbolTableRecord
100
AcDbTextStyleTableRecord
  2
Arial
 70
     0
 40
0.0
 41
1.0
 50
0.0
 71
     0
 42
0.25
  3
ARIAL.TTF
  4

1001
ACAD
1000
Arial
1071
       34
  0
STYLE
  5
26
330
8F
100
AcDbSymbolTableRecord
100
AcDbTextStyleTableRecord
  2
style1
 70
     0
 40
0.0
 41
1.0
 50
0.0
 71
     0
 42
0.005
  3
TIMES.TTF
  4

1001
ACAD
1000
Times New Roman
1071
       18
  0
STYLE
  5
595
330
8F
100
AcDbSymbolTableRecord
100
AcDbTextStyleTableRecord
  2
EUROROMANOBLIQUE
 70
     0
 40
0.0
 41
1.0
 50
0.0
 71
     0
 42
2.5
  3
euro____.pfb
  4

  0
ENDTAB
  0
TABLE
  2
VIEW
  5
94
330
0
100
AcDbSymbolTable
 70
     1
  0
ENDTAB
  0
TABLE
  2
UCS
  5
95
330
0
100
AcDbSymbolTable
 70
     0
  0
ENDTAB
  0
TABLE
  2
APPID
  5
98
330
0
100
AcDbSymbolTable
 70
    13
  0
APPID
  5
1B
330
98
100
AcDbSymbolTableRecord
100
AcDbRegAppTableRecord
  2
ACAD
 70
     0
  0
APPID
  5
34
330
98
100
AcDbSymbolTableRecord
100
AcDbRegAppTableRecord
  2
ACAD_DSTYLE_DIMJOGGED_JOGANGLE_SYMBOL
 70
     0
  0
APPID
  5
F
330
98
100
AcDbSymbolTableRecord
100
AcDbRegAppTableRecord
  2
AcAecLayerStandard
 70
     0
  0
APPID
  5
85
330
98
100
AcDbSymbolTableRecord
100
AcDbRegAppTableRecord
  2
ACAD_PSEXT
 70
     0
  0
APPID
  5
BA
330
98
100
AcDbSymbolTableRecord
100
AcDbRegAppTableRecord
  2
ACAD_DSTYLE_DIMEXT_LENGTH
 70
     0
  0
APPID
  5
101
330
98
100
AcDbSymbolTableRecord
100
AcDbRegAppTableRecord
  2
ACAD_EXEMPT_FROM_CAD_STANDARDS
 70
     0
  0
APPID
  5
102
330
98
100
AcDbSymbolTableRecord
100
AcDbRegAppTableRecord
  2
ACAD_DSTYLE_DIM_LINETYPE
 70
     0
  0
APPID
  5
103
330
98
100
AcDbSymbolTableRecord
100
AcDbRegAppTableRecord
  2
ACAD_DSTYLE_DIM_EXT1_LINETYPE
 70
     0
  0
APPID
  5
104
330
98
100
AcDbSymbolTableRecord
100
AcDbRegAppTableRecord
  2
ACAD_DSTYLE_DIM_EXT2_LINETYPE
 70
     0
  0
APPID
  5
10D5
330
98
100
AcDbSymbolTableRecord
100
AcDbRegAppTableRecord
  2
ACAUTHENVIRON
 70
     0
  0
APPID
  5
10D9
330
98
100
AcDbSymbolTableRecord
100
AcDbRegAppTableRecord
  2
AcDbDynamicBlockTrueName
 70
     0
  0
APPID
  5
10DA
330
98
100
AcDbSymbolTableRecord
100
AcDbRegAppTableRecord
  2
AcDbDynamicBlockGUID
 70
     0
  0
APPID
  5
10DC
330
98
100
AcDbSymbolTableRecord
100
AcDbRegAppTableRecord
  2
AcDbBlockRepETag
 70
     0
  0
ENDTAB
  0
TABLE
  2
DIMSTYLE
  5
99
330
0
100
AcDbSymbolTable
 70
     8
100
AcDbDimStyleTable
 71
     2
340
2F
340
9A
  0
DIMSTYLE
105
9A
330
99
100
AcDbSymbolTableRecord
100
AcDbDimStyleTableRecord
  2
ISO-25
 70
     0
 41
2.5
 42
0.625
 43
3.75
 44
1.25
 73
     0
 74
     0
 77
     1
 78
     8
140
2.5
141
2.5
143
0.03937007874016
147
0.625
171
     3
172
     1
271
     2
272
     2
274
     3
278
    44
283
     0
284
     8
340
1A
  0
DIMSTYLE
105
2F
102
{ACAD_REACTORS
330
1D25
330
1D3F
102
}
330
99
100
AcDbSymbolTableRecord
100
AcDbDimStyleTableRecord
  2
Bovelacci
 70
     0
 40
0.001
 41
1.5
140
3.0
141
0.0
147
2.0
176
     5
177
     5
178
     4
271
     2
272
     2
279
     2
340
20
342
30
1001
ACAD_DSTYLE_DIMJOGGED_JOGANGLE_SYMBOL
1070
   384
1040
0.7853981633974483
1001
ACAD_DSTYLE_DIMEXT_LENGTH
1070
   378
1040
0.18
  0
DIMSTYLE
105
194
330
99
100
AcDbSymbolTableRecord
100
AcDbDimStyleTableRecord
  2
STANDARD
 70
     0
340
1A
  0
DIMSTYLE
105
4EB
330
99
100
AcDbSymbolTableRecord
100
AcDbDimStyleTableRecord
  2
Dim 1-100
 70
     0
 40
0.1
 41
1.5
 42
0.0
 43
5.0
 44
1.25
 45
0.005
 46
1.25
 73
     0
 74
     0
 77
     1
 78
     9
140
2.0
141
2.5
147
1.0
172
     1
174
     1
179
     2
279
     2
289
     2
340
20
342
30
  0
DIMSTYLE
105
4EC
330
99
100
AcDbSymbolTableRecord
100
AcDbDimStyleTableRecord
  2
Dim 1-50
 70
     0
 40
0.05
 41
1.5
 42
0.0
 43
5.0
 44
1.25
 45
0.005
 46
1.25
 73
     0
 74
     0
 77
     1
 78
     9
140
2.0
141
2.5
147
1.0
172
     1
174
     1
179
     2
279
     2
289
     2
340
20
342
30
  0
DIMSTYLE
105
4ED
330
99
100
AcDbSymbolTableRecord
100
AcDbDimStyleTableRecord
  2
Dim 1-200
 70
     0
 40
0.2
 41
1.5
 42
0.0
 43
5.0
 44
1.25
 45
0.005
 46
1.25
 73
     0
 74
     0
 77
     1
 78
     9
140
2.0
141
2.5
147
1.0
172
     1
174
     1
179
     2
271
     2
272
     2
279
     2
289
     2
340
20
342
30
  0
DIMSTYLE
105
4EE
330
99
100
AcDbSymbolTableRecord
100
AcDbDimStyleTableRecord
  2
AEC Scale - Italiano
 70
     0
 41
1.0
 42
10.0
 43
10.0
 44
10.0
 73
     0
 74
     0
 75
     1
 76
     1
 77
     1
140
10.0
141
1.0
147
10.0
173
     1
271
     0
272
     0
279
     2
340
1A
343
4E6
344
4E0
  0
ENDTAB
  0
TABLE
  2
BLOCK_RECORD
  5
1
330
0
100
AcDbSymbolTable
 70
    24
  0
BLOCK_RECORD
  5
2
102
{ACAD_XDICTIONARY
360
3
102
}
330
1
100
AcDbSymbolTableRecord
100
AcDbBlockTableRecord
  2
*Model_Space
340
77
  0
BLOCK_RECORD
  5
79
330
1
100
AcDbSymbolTableRecord
100
AcDbBlockTableRecord
  2
*Paper_Space
340
82
  0
BLOCK_RECORD
  5
86
330
1
100
AcDbSymbolTableRecord
100
AcDbBlockTableRecord
  2
*Paper_Space0
340
89
  0
BLOCK_RECORD
  5
30
330
1
100
AcDbSymbolTableRecord
100
AcDbBlockTableRecord
  2
_ArchTick
340
0
310
2800000020000000200000000100080000000000000400000000000000000000000000000000000000000000000080000080000000808000800000008000800080800000C0C0C000C0DCC000F0CAA6000020400000206000002080000020A0000020C0000020E00000400000004020000040400000406000004080000040A0
310
000040C0000040E00000600000006020000060400000606000006080000060A0000060C0000060E00000800000008020000080400000806000008080000080A0000080C0000080E00000A0000000A0200000A0400000A0600000A0800000A0A00000A0C00000A0E00000C0000000C0200000C0400000C0600000C0800000C0
310
A00000C0C00000C0E00000E0000000E0200000E0400000E0600000E0800000E0A00000E0C00000E0E00040000000400020004000400040006000400080004000A0004000C0004000E00040200000402020004020400040206000402080004020A0004020C0004020E000404000004040200040404000404060004040800040
310
40A0004040C0004040E00040600000406020004060400040606000406080004060A0004060C0004060E00040800000408020004080400040806000408080004080A0004080C0004080E00040A0000040A0200040A0400040A0600040A0800040A0A00040A0C00040A0E00040C0000040C0200040C0400040C0600040C08000
310
40C0A00040C0C00040C0E00040E0000040E0200040E0400040E0600040E0800040E0A00040E0C00040E0E00080000000800020008000400080006000800080008000A0008000C0008000E00080200000802020008020400080206000802080008020A0008020C0008020E00080400000804020008040400080406000804080
310
008040A0008040C0008040E00080600000806020008060400080606000806080008060A0008060C0008060E00080800000808020008080400080806000808080008080A0008080C0008080E00080A0000080A0200080A0400080A0600080A0800080A0A00080A0C00080A0E00080C0000080C0200080C0400080C0600080C0
310
800080C0A00080C0C00080C0E00080E0000080E0200080E0400080E0600080E0800080E0A00080E0C00080E0E000C0000000C0002000C0004000C0006000C0008000C000A000C000C000C000E000C0200000C0202000C0204000C0206000C0208000C020A000C020C000C020E000C0400000C0402000C0404000C0406000C0
310
408000C040A000C040C000C040E000C0600000C0602000C0604000C0606000C0608000C060A000C060C000C060E000C0800000C0802000C0804000C0806000C0808000C080A000C080C000C080E000C0A00000C0A02000C0A04000C0A06000C0A08000C0A0A000C0A0C000C0A0E000C0C00000C0C02000C0C04000C0C06000
310
C0C08000C0C0A000F0FBFF00A4A0A000808080000000FF0000FF000000FFFF00FF000000FF00FF00FFFF0000FFFFFF00000000FF000000000000000000000000000000000000000000000000000000000000FF00FF00000000000000000000000000000000000000000000000000000000FF000000FF000000000000000000
310
0000000000000000000000000000000000FF0000000000FF0000000000000000000000000000000000000000000000000000FF0000000000FF0000000000000000000000000000000000000000000000000000FF0000000000FF0000000000000000000000000000000000000000000000000000FF0000000000FF00000000
310
00000000000000000000000000000000000000000000FF0000000000FF0000000000000000000000000000000000000000000000000000FF0000000000FF0000000000000000000000000000000000000000000000000000FF0000000000FF0000000000000000000000000000000000000000000000000000FF0000000000
310
FF0000000000000000000000000000000000000000000000000000FF0000000000FF0000000000000000000000000000000000000000000000000000FF0000000000FF0000000000000000000000000000000000000000000000000000FF0000000000FF0000000000000000000000000000000000000000000000000000FF
310
0000000000FF0000000000000000000000000000000000000000000000000000FF0000000000FF0000000000000000000000000000000000000000000000000000FF0000000000FF0000000000000000000000000000000000000000000000000000FF0000000000FF00000000000000000000000000000000000000000000
310
00000000FF0000000000FF0000000000000000000000000000000000000000000000000000FF0000000000FF0000000000000000000000000000000000000000000000000000FF0000000000FF0000000000000000000000000000000000000000000000000000FF0000000000FF0000000000000000000000000000000000
310
000000000000000000FF0000000000FF0000000000000000000000000000000000000000000000000000FF0000000000FF0000000000000000000000000000000000000000000000000000FF0000000000FF0000000000000000000000000000000000000000000000000000FF0000000000FF000000000000000000000000
310
0000000000000000000000000000FF0000000000FF0000000000000000000000000000000000000000000000000000FF0000000000FF0000000000000000000000000000000000000000000000000000FF0000000000FF0000000000000000000000000000000000000000000000000000FF000000FF000000000000000000
310
00000000000000000000000000000000000000FF00FF000000000000000000000000000000000000000000000000000000000000FF000000
102
{BLKREFS
331
16B6
331
16B7
331
16C0
331
16C1
331
17F2
331
17F3
331
180C
331
180D
331
19AC
331
19AD
331
19C6
331
19C7
331
1D52
331
1D53
331
1D5D
331
1D5E
102
}
  0
BLOCK_RECORD
  5
179
330
1
100
AcDbSymbolTableRecord
100
AcDbBlockTableRecord
  2
DOT
340
0
  0
BLOCK_RECORD
  5
213
330
1
100
AcDbSymbolTableRecord
100
AcDbBlockTableRecord
  2
ELEMENT
340
0
102
{BLKREFS
331
244
102
}
  0
BLOCK_RECORD
  5
235
330
1
100
AcDbSymbolTableRecord
100
AcDbBlockTableRecord
  2
NOM-J
340
0
  0
BLOCK_RECORD
  5
3FB
330
1
100
AcDbSymbolTableRecord
100
AcDbBlockTableRecord
  2
NOM-QR
340
0
  0
BLOCK_RECORD
  5
4E0
330
1
100
AcDbSymbolTableRecord
100
AcDbBlockTableRecord
  2
_Arrivo
340
0
310
2800000020000000200000000100080000000000000400000000000000000000000000000000000000000000000080000080000000808000800000008000800080800000C0C0C000C0DCC000F0CAA6000020400000206000002080000020A0000020C0000020E00000400000004020000040400000406000004080000040A0
310
000040C0000040E00000600000006020000060400000606000006080000060A0000060C0000060E00000800000008020000080400000806000008080000080A0000080C0000080E00000A0000000A0200000A0400000A0600000A0800000A0A00000A0C00000A0E00000C0000000C0200000C0400000C0600000C0800000C0
310
A00000C0C00000C0E00000E0000000E0200000E0400000E0600000E0800000E0A00000E0C00000E0E00040000000400020004000400040006000400080004000A0004000C0004000E00040200000402020004020400040206000402080004020A0004020C0004020E000404000004040200040404000404060004040800040
310
40A0004040C0004040E00040600000406020004060400040606000406080004060A0004060C0004060E00040800000408020004080400040806000408080004080A0004080C0004080E00040A0000040A0200040A0400040A0600040A0800040A0A00040A0C00040A0E00040C0000040C0200040C0400040C0600040C08000
310
40C0A00040C0C00040C0E00040E0000040E0200040E0400040E0600040E0800040E0A00040E0C00040E0E00080000000800020008000400080006000800080008000A0008000C0008000E00080200000802020008020400080206000802080008020A0008020C0008020E00080400000804020008040400080406000804080
310
008040A0008040C0008040E00080600000806020008060400080606000806080008060A0008060C0008060E00080800000808020008080400080806000808080008080A0008080C0008080E00080A0000080A0200080A0400080A0600080A0800080A0A00080A0C00080A0E00080C0000080C0200080C0400080C0600080C0
310
800080C0A00080C0C00080C0E00080E0000080E0200080E0400080E0600080E0800080E0A00080E0C00080E0E000C0000000C0002000C0004000C0006000C0008000C000A000C000C000C000E000C0200000C0202000C0204000C0206000C0208000C020A000C020C000C020E000C0400000C0402000C0404000C0406000C0
310
408000C040A000C040C000C040E000C0600000C0602000C0604000C0606000C0608000C060A000C060C000C060E000C0800000C0802000C0804000C0806000C0808000C080A000C080C000C080E000C0A00000C0A02000C0A04000C0A06000C0A08000C0A0A000C0A0C000C0A0E000C0C00000C0C02000C0C04000C0C06000
310
C0C08000C0C0A000F0FBFF00A4A0A000808080000000FF0000FF000000FFFF00FF000000FF00FF00FFFF0000FFFFFF00000000000000000000000000000000000000000000000000000000000000000000000000000000000000FF0000000000000000000000000000000000000000000000000000000000000000FF000000
310
00000000000000000000000000000000000000000000000000000000FF0000000000000000000000000000000000000000000000000000000000000000FF00000000000000000000000000000000000000000000000000000000000000FF0000000000000000000000000000000000000000000000000000000000000000FF
310
0000000000000000000000000000000000000000000000000000000000000000FF00000000000000000000000000000000000000000000000000000000000000FF0000000000000000000000000000000000000000000000000000000000000000FF0000000000000000000000000000000000000000000000000000000000
310
0000FF0000000000000000000000000000000000000000000000000000000000000000FF00000000000000000000000000000000000000000000000000000000000000FF0000000000000000000000000000000000000000000000000000000000000000FF0000FF0000000000000000000000000000000000000000000000
310
000000000000FFFF000000000000000000000000000000000000000000000000000000000000FFFF00000000000000000000000000000000000000000000000000000000FFFFFFFFFFFF00000000000000000000000000000000000000000000000000000000FFFF0000000000000000000000000000000000000000000000
310
000000000000FF0000FF000000000000000000000000000000000000000000000000000000FF00000000000000000000000000000000000000000000000000000000000000FF000000000000000000000000000000000000000000000000000000000000FF0000000000000000000000000000000000000000000000000000
310
0000000000FF000000000000000000000000000000000000000000000000000000000000FF00000000000000000000000000000000000000000000000000000000000000FF000000000000000000000000000000000000000000000000000000000000FF000000000000000000000000000000000000000000000000000000
310
000000FF00000000000000000000000000000000000000000000000000000000000000FF000000000000000000000000000000000000000000000000000000000000FF00000000000000000000000000000000000000000000000000000000000000FF00000000000000000000000000000000000000000000000000000000
310
0000FF0000000000000000000000000000000000000000000000000000000000000000000000000000000000000000000000000000000000
  0
BLOCK_RECORD
  5
4E6
330
1
100
AcDbSymbolTableRecord
100
AcDbBlockTableRecord
  2
_Partenza
340
0
310
2800000020000000200000000100080000000000000400000000000000000000000000000000000000000000000080000080000000808000800000008000800080800000C0C0C000C0DCC000F0CAA6000020400000206000002080000020A0000020C0000020E00000400000004020000040400000406000004080000040A0
310
000040C0000040E00000600000006020000060400000606000006080000060A0000060C0000060E00000800000008020000080400000806000008080000080A0000080C0000080E00000A0000000A0200000A0400000A0600000A0800000A0A00000A0C00000A0E00000C0000000C0200000C0400000C0600000C0800000C0
310
A00000C0C00000C0E00000E0000000E0200000E0400000E0600000E0800000E0A00000E0C00000E0E00040000000400020004000400040006000400080004000A0004000C0004000E00040200000402020004020400040206000402080004020A0004020C0004020E000404000004040200040404000404060004040800040
310
40A0004040C0004040E00040600000406020004060400040606000406080004060A0004060C0004060E00040800000408020004080400040806000408080004080A0004080C0004080E00040A0000040A0200040A0400040A0600040A0800040A0A00040A0C00040A0E00040C0000040C0200040C0400040C0600040C08000
310
40C0A00040C0C00040C0E00040E0000040E0200040E0400040E0600040E0800040E0A00040E0C00040E0E00080000000800020008000400080006000800080008000A0008000C0008000E00080200000802020008020400080206000802080008020A0008020C0008020E00080400000804020008040400080406000804080
310
008040A0008040C0008040E00080600000806020008060400080606000806080008060A0008060C0008060E00080800000808020008080400080806000808080008080A0008080C0008080E00080A0000080A0200080A0400080A0600080A0800080A0A00080A0C00080A0E00080C0000080C0200080C0400080C0600080C0
310
800080C0A00080C0C00080C0E00080E0000080E0200080E0400080E0600080E0800080E0A00080E0C00080E0E000C0000000C0002000C0004000C0006000C0008000C000A000C000C000C000E000C0200000C0202000C0204000C0206000C0208000C020A000C020C000C020E000C0400000C0402000C0404000C0406000C0
310
408000C040A000C040C000C040E000C0600000C0602000C0604000C0606000C0608000C060A000C060C000C060E000C0800000C0802000C0804000C0806000C0808000C080A000C080C000C080E000C0A00000C0A02000C0A04000C0A06000C0A08000C0A0A000C0A0C000C0A0E000C0C00000C0C02000C0C04000C0C06000
310
C0C08000C0C0A000F0FBFF00A4A0A000808080000000FF0000FF000000FFFF00FF000000FF00FF00FFFF0000FFFFFF0000000000000000000000000000000000000000000000000000000000000000000000000000000000000000000000000000000000000000000000000000000000000000000000000000000000000000
310
000000000000000000000000000000000000000000000000000000000000000000000000000000000000000000000000000000000000000000000000000000000000000000000000000000000000000000000000000000000000000000000000000000000000000000000000000000000000FFFFFFFFFFFFFFFFFFFFFFFFFF
310
FFFFFFFFFFFFFFFFFFFFFFFFFFFFFFFFFF0000000000000000000000000000000000000000000000000000000000000000000000000000000000000000000000000000000000000000000000000000000000000000000000000000000000000000000000000000000000000000000000000000000000000000000000000000
310
00000000000000000000000000000000000000000000000000000000000000000000000000000000000000000000000000000000000000000000000000000000000000000000000000000000000000000000000000000000000000000000000000000000000000000000000000000000000000000000000000000000000000
310
00000000000000000000000000000000000000000000000000000000000000000000000000000000000000000000000000000000000000000000000000000000000000000000000000000000000000000000000000000000000000000000000000000000000000000000000000000000000000000000000000000000000000
310
00000000000000000000000000000000000000000000000000000000000000000000000000000000000000000000000000000000000000000000000000000000000000000000000000000000000000000000000000000000000000000000000000000000000000000000000000000000000000000000000000000000000000
310
000000000000000000000000000000000000000000000000000000000000000000000000000000000000000000000000000000000000000000000000000000000000000000000000000000000000000000000000000000FFFFFFFFFFFFFFFFFFFFFFFFFFFFFFFFFFFFFFFFFFFFFFFFFFFFFFFFFFFF00000000000000000000
310
00000000000000000000000000000000000000000000000000000000000000000000000000000000000000000000000000000000000000000000000000000000000000000000000000000000000000000000000000000000000000000000000000000000000000000000000000000000000000000000000000000000000000
310
0000000000000000000000000000000000000000000000000000000000000000000000000000000000000000000000000000000000000000
  0
BLOCK_RECORD
  5
73D
330
1
100
AcDbSymbolTableRecord
100
AcDbBlockTableRecord
  2
A$C6CE44357
340
0
1001
ACAD
1000
DesignCenter Data
1002
{
1070
     1
1070
     0
1002
}
  0
BLOCK_RECORD
  5
B69
102
{ACAD_XDICTIONARY
360
B6D
102
}
330
1
100
AcDbSymbolTableRecord
100
AcDbBlockTableRecord
  2
A$C263D6B6A
340
0
1001
ACAD
1000
DesignCenter Data
1002
{
1070
     1
1070
     4
1002
}
  0
BLOCK_RECORD
  5
BFB
330
1
100
AcDbSymbolTableRecord
100
AcDbBlockTableRecord
  2
*X10
340
0
102
{BLKREFS
331
C22
102
}
  0
BLOCK_RECORD
  5
C1F
330
1
100
AcDbSymbolTableRecord
100
AcDbBlockTableRecord
  2
A$C6C65579B
340
0
1001
ACAD
1000
DesignCenter Data
1002
{
1070
     1
1070
     0
1002
}
  0
BLOCK_RECORD
  5
FEB
102
{ACAD_XDICTIONARY
360
10D6
102
}
330
1
100
AcDbSymbolTableRecord
100
AcDbBlockTableRecord
  2
Z4
340
0
1001
AcDbDynamicBlockGUID
1000
{4CAFDB11-9655-4F72-B423-0BC31DC420EB}
1001
AcDbBlockRepETag
1070
     1
1071
       20
  0
BLOCK_RECORD
  5
199A
330
1
100
AcDbSymbolTableRecord
100
AcDbBlockTableRecord
  2
*D17
340
0
  0
BLOCK_RECORD
  5
19B4
330
1
100
AcDbSymbolTableRecord
100
AcDbBlockTableRecord
  2
*D18
340
0
  0
BLOCK_RECORD
  5
1D26
330
1
100
AcDbSymbolTableRecord
100
AcDbBlockTableRecord
  2
*D22
340
0
  0
BLOCK_RECORD
  5
1D40
330
1
100
AcDbSymbolTableRecord
100
AcDbBlockTableRecord
  2
*D23
340
0
  0
ENDTAB
  0
ENDSEC
  0
SECTION
  2
BLOCKS
  0
BLOCK
  5
5
330
2
100
AcDbEntity
  8
0
100
AcDbBlockBegin
  2
*Model_Space
 70
     0
 10
0.0
 20
0.0
 30
0.0
  3
*Model_Space
  1

  0
ENDBLK
  5
76
330
2
100
AcDbEntity
  8
0
100
AcDbBlockEnd
  0
BLOCK
  5
7A
330
79
100
AcDbEntity
 67
     1
  8
0
100
AcDbBlockBegin
  2
*Paper_Space
 70
     0
 10
0.0
 20
0.0
 30
0.0
  3
*Paper_Space
  1

  0
ENDBLK
  5
81
330
79
100
AcDbEntity
 67
     1
  8
0
100
AcDbBlockEnd
  0
BLOCK
  5
87
330
86
100
AcDbEntity
 67
     1
  8
0
100
AcDbBlockBegin
  2
*Paper_Space0
 70
     0
 10
0.0
 20
0.0
 30
0.0
  3
*Paper_Space0
  1

  0
ENDBLK
  5
88
330
86
100
AcDbEntity
 67
     1
  8
0
100
AcDbBlockEnd
  0
BLOCK
  5
31
330
30
100
AcDbEntity
  8
0
 62
     1
100
AcDbBlockBegin
  2
_ArchTick
 70
     0
 10
0.0
 20
0.0
 30
0.0
  3
_ArchTick
  1

  0
LWPOLYLINE
  5
32
330
30
100
AcDbEntity
  8
0
  6
ByBlock
 62
     0
100
AcDbPolyline
 90
        2
 70
     0
 43
0.15
 10
-0.5
 20
-0.5
 10
0.5
 20
0.5
  0
ENDBLK
  5
33
330
30
100
AcDbEntity
  8
0
 62
     1
100
AcDbBlockEnd
  0
BLOCK
  5
17A
330
179
100
AcDbEntity
  8
0
100
AcDbBlockBegin
  2
DOT
 70
     0
 10
0.0
 20
0.0
 30
0.0
  3
DOT
  1

  0
LWPOLYLINE
  5
17B
330
179
100
AcDbEntity
  8
0
  6
ByBlock
 62
     0
100
AcDbPolyline
 90
        2
 70
     1
 43
0.5
 10
-0.25
 20
0.0
 42
1.0
 10
0.25
 20
0.0
 42
1.0
  0
LINE
  5
17C
330
179
100
AcDbEntity
  8
0
  6
ByBlock
 62
     0
100
AcDbLine
 10
-0.5
 20
0.0
 30
0.0
 11
-1.0
 21
0.0
 31
0.0
  0
ENDBLK
  5
17D
330
179
100
AcDbEntity
  8
0
100
AcDbBlockEnd
  0
BLOCK
  5
214
330
213
100
AcDbEntity
  8
0
100
AcDbBlockBegin
  2
ELEMENT
 70
     0
 10
0.0
 20
0.0
 30
0.0
  3
ELEMENT
  1

  0
LINE
  5
215
330
213
100
AcDbEntity
  8
CORTE
 62
     1
100
AcDbLine
 10
0.0287752548522349
 20
0.037775254852221
 30
0.0
 11
0.0062928932188697
 21
0.015292893218799
 31
0.0
  0
ARC
  5
216
330
213
100
AcDbEntity
  8
CORTE
 62
     1
100
AcDbCircle
 10
0.0148333333333994
 20
0.0291666666666402
 30
0.0
 40
0.0191847740553366
100
AcDbArc
 50
270.4730994291238
 51
359.5269005707907
  0
LINE
  5
217
330
213
100
AcDbEntity
  8
CORTE
100
AcDbLine
 10
0.0130000000000337
 20
-0.0000000000000568
 30
0.0
 11
0.0099999999999909
 21
0.0000000000000284
 31
0.0
  0
LINE
  5
218
330
213
100
AcDbEntity
  8
CORTE
100
AcDbLine
 10
-0.0009999999999764
 20
0.0010000000000048
 30
0.0
 11
-0.0009999999999764
 21
0.0140000000000384
 31
0.0
  0
ARC
  5
219
330
213
100
AcDbEntity
  8
CORTE
100
AcDbCircle
 10
0.0
 20
0.0010000000000048
 30
0.0
 40
0.001
100
AcDbArc
 50
180.0
 51
269.9999999991858
  0
LINE
  5
21A
330
213
100
AcDbEntity
  8
CORTE
100
AcDbLine
 10
0.0040000000000191
 20
-0.0039999999999623
 30
0.0
 11
0.0040000000000191
 21
-0.0010000000000332
 31
0.0
  0
LINE
  5
21B
330
213
100
AcDbEntity
  8
CORTE
100
AcDbLine
 10
0.0090000000000146
 20
-0.0039999999999907
 30
0.0
 11
0.0090000000000146
 21
-0.0009999999999764
 31
0.0
  0
ARC
  5
21C
330
213
100
AcDbEntity
  8
CORTE
100
AcDbCircle
 10
0.0049999999999955
 20
-0.0039999999999623
 30
0.0
 40
0.001
100
AcDbArc
 50
180.0
 51
269.9999999996743
  0
LINE
  5
21D
330
213
100
AcDbEntity
  8
CORTE
100
AcDbLine
 10
0.0080000000000382
 20
-0.0049999999999955
 30
0.0
 11
0.0049999999999955
 21
-0.004999999999967
 31
0.0
  0
ARC
  5
21E
330
213
100
AcDbEntity
  8
CORTE
100
AcDbCircle
 10
0.0080000000000382
 20
-0.0039999999999907
 30
0.0
 40
0.001
100
AcDbArc
 50
269.9999999995929
 51
0.000000000000007
  0
LINE
  5
21F
330
213
100
AcDbEntity
  8
CORTE
100
AcDbLine
 10
0.0030000000000427
 20
-0.0000000000000284
 30
0.0
 11
0.0
 21
0.0
 31
0.0
  0
ARC
  5
220
330
213
100
AcDbEntity
  8
CORTE
100
AcDbCircle
 10
0.0030000000000427
 20
-0.0010000000000332
 30
0.0
 40
0.001
100
AcDbArc
 50
0.000000000000007
 51
89.99999999967434
  0
ARC
  5
221
330
213
100
AcDbEntity
  8
CORTE
100
AcDbCircle
 10
0.0099999999999909
 20
-0.0009999999999764
 30
0.0
 40
0.001
100
AcDbArc
 50
89.99999999967434
 51
180.0
  0
ARC
  5
222
330
213
100
AcDbEntity
  8
CORTE
100
AcDbCircle
 10
0.0
 20
0.0140000000000384
 30
0.0
 40
0.001
100
AcDbArc
 50
89.99999999975274
 51
180.0
  0
LINE
  5
223
330
213
100
AcDbEntity
  8
CORTE
100
AcDbLine
 10
0.0055857864376776
 20
0.0149999999999864
 30
0.0
 11
0.0
 21
0.0150000000000432
 31
0.0
  0
ARC
  5
224
330
213
100
AcDbEntity
  8
CORTE
 62
     1
100
AcDbCircle
 10
0.0055857864376776
 20
0.0159999999999911
 30
0.0
 40
0.001
100
AcDbArc
 50
269.9999999997674
 51
315.0000000000357
  0
LINE
  5
225
330
213
100
AcDbEntity
  8
CORTE
100
AcDbLine
 10
0.01400000000001
 20
0.0009999999999479
 30
0.0
 11
0.01400000000001
 21
0.0089825806863075
 31
0.0
  0
ARC
  5
226
330
213
100
AcDbEntity
  8
CORTE
100
AcDbCircle
 10
0.0130000000000337
 20
0.0009999999999479
 30
0.0
 40
0.001
100
AcDbArc
 50
269.9999999991858
 51
0.000000000000007
  0
ARC
  5
227
330
213
100
AcDbEntity
  8
CORTE
 62
     1
100
AcDbCircle
 10
0.0149999999999864
 20
0.0089825806862791
 30
0.0
 40
0.001
100
AcDbArc
 50
90.47309942941524
 51
179.9999999983715
  0
LINE
  5
228
330
213
100
AcDbEntity
  8
CORTE
100
AcDbLine
 10
0.0440000000000964
 20
0.0339999999999918
 30
0.0
 11
0.0440000000000396
 21
0.0310000000000059
 31
0.0
  0
ARC
  5
229
330
213
100
AcDbEntity
  8
CORTE
100
AcDbCircle
 10
0.0430000000000632
 20
0.0310000000000059
 30
0.0
 40
0.001
100
AcDbArc
 50
270.0
 51
0.000000000000007
  0
ARC
  5
22A
330
213
100
AcDbEntity
  8
CORTE
 62
     1
100
AcDbCircle
 10
0.0350174193137605
 20
0.0290000000000248
 30
0.0
 40
0.001
100
AcDbArc
 50
90.00000000325689
 51
179.5269005705982
  0
LINE
  5
22B
330
213
100
AcDbEntity
  8
CORTE
100
AcDbLine
 10
0.0430000000000632
 20
0.0300000000000011
 30
0.0
 11
0.0350174193137036
 21
0.0300000000000296
 31
0.0
  0
LINE
  5
22C
330
213
100
AcDbEntity
  8
CORTE
100
AcDbLine
 10
0.047999999999945
 20
0.0400000000000205
 30
0.0
 11
0.0300000000000296
 21
0.0400000000000205
 31
0.0
  0
ARC
  5
22D
330
213
100
AcDbEntity
  8
CORTE
 62
     1
100
AcDbCircle
 10
0.0300000000000296
 20
0.0390000000000157
 30
0.0
 40
0.001
100
AcDbArc
 50
90.0
 51
195.0000055997392
  0
ARC
  5
22E
330
213
100
AcDbEntity
  8
CORTE
 62
     1
100
AcDbCircle
 10
0.0280681480710428
 20
0.0384823616334131
 30
0.0
 40
0.001
100
AcDbArc
 50
315.0
 51
15.00000559812761
  0
LINE
  5
22F
330
213
100
AcDbEntity
  8
CORTE
100
AcDbLine
 10
0.0489999999998645
 20
0.0360000000000582
 30
0.0
 11
0.0489999999999213
 21
0.0389999999999873
 31
0.0
  0
LINE
  5
230
330
213
100
AcDbEntity
  8
CORTE
100
AcDbLine
 10
0.0480000000000018
 20
0.0350000000000534
 30
0.0
 11
0.0450000000000728
 21
0.0349999999999966
 31
0.0
  0
ARC
  5
231
330
213
100
AcDbEntity
  8
CORTE
100
AcDbCircle
 10
0.0480000000000018
 20
0.0360000000000582
 30
0.0
 40
0.001
100
AcDbArc
 50
270.0000000004071
 51
0.000000000000007
  0
ARC
  5
232
330
213
100
AcDbEntity
  8
CORTE
100
AcDbCircle
 10
0.0450000000000728
 20
0.0339999999999918
 30
0.0
 40
0.001
100
AcDbArc
 50
90.0
 51
180.0
  0
ARC
  5
233
330
213
100
AcDbEntity
  8
CORTE
100
AcDbCircle
 10
0.047999999999945
 20
0.0390000000000157
 30
0.0
 40
0.001
100
AcDbArc
 50
359.9999999991858
 51
90.0
  0
ENDBLK
  5
234
330
213
100
AcDbEntity
  8
0
100
AcDbBlockEnd
  0
BLOCK
  5
236
330
235
100
AcDbEntity
  8
0
 62
     4
100
AcDbBlockBegin
  2
NOM-J
 70
     0
 10
0.0
 20
0.0
 30
0.0
  3
NOM-J
  1

  0
LINE
  5
237
330
235
100
AcDbEntity
  8
Vista
 62
     4
100
AcDbLine
 10
0.0211489998446837
 20
0.0224999999999795
 30
0.0
 11
0.093805067538824
 21
0.0379594292031982
 31
0.0
  0
LINE
  5
238
330
235
100
AcDbEntity
  8
Vista
 62
     4
100
AcDbLine
 10
0.0197074998707194
 20
0.0224999999999795
 30
0.0
 11
0.0923635675646324
 21
0.0379594292032266
 31
0.0
  0
LINE
  5
239
330
235
100
AcDbEntity
  8
Vista
 62
     4
100
AcDbLine
 10
0.0182659998964141
 20
0.0224999999999795
 30
0.0
 11
0.0909220675904408
 21
0.0379594292031982
 31
0.0
  0
LINE
  5
23A
330
235
100
AcDbEntity
  8
Vista
 62
     4
100
AcDbLine
 10
0.0168244999223362
 20
0.0224999999999795
 30
0.0
 11
0.0894805676163628
 21
0.0379594292032266
 31
0.0
  0
LINE
  5
23B
330
235
100
AcDbEntity
  8
Vista
 62
     4
100
AcDbLine
 10
0.0153829999481445
 20
0.0224999999999795
 30
0.0
 11
0.0880390676422849
 21
0.0379594292032266
 31
0.0
  0
LINE
  5
23C
330
235
100
AcDbEntity
  8
Vista
 62
     4
100
AcDbLine
 10
0.0139414999740666
 20
0.0224999999999795
 30
0.0
 11
0.0865975676682069
 21
0.0379594292032266
 31
0.0
  0
LINE
  5
23D
330
235
100
AcDbEntity
  8
Vista
 62
     2
100
AcDbLine
 10
0.0125000000000455
 20
0.022500000000008
 30
0.0
 11
0.0851560676940153
 21
0.0379594292032266
 31
0.0
  0
LINE
  5
23E
330
235
100
AcDbEntity
  8
Vista
 62
     2
100
AcDbLine
 10
0.0218535533905424
 20
0.0223535533905874
 30
0.0
 11
0.0945096210847396
 21
0.0378129825938061
 31
0.0
  0
LINE
  5
23F
330
235
100
AcDbEntity
  8
Vista
 62
     2
100
AcDbLine
 10
0.02150000000006
 20
0.0200000000000387
 30
0.0
 11
0.094359627334427
 21
0.0355027417029987
 31
0.0
  0
LINE
  5
240
330
235
100
AcDbEntity
  8
Vista
 62
     2
100
AcDbLine
 10
0.0190000000000055
 20
0.0175000000000125
 30
0.0
 11
0.0918596273343724
 21
0.0330027417029726
 31
0.0
  0
LINE
  5
241
330
235
100
AcDbEntity
  8
Vista
 62
     2
100
AcDbLine
 10
0.0075428343679391
 20
0.0078574386832884
 30
0.0
 11
0.0801989020703786
 21
0.0233168678888376
 31
0.0
  0
LINE
  5
242
330
235
100
AcDbEntity
  8
Vista
 62
     2
100
AcDbLine
 10
0.0040000000000191
 20
0.0024999999999693
 30
0.0
 11
0.0746560676942068
 21
0.0175338782567849
 31
0.0
  0
LINE
  5
243
330
235
100
AcDbEntity
  8
Vista
 62
     3
100
AcDbLine
 10
0.0018535533906174
 20
0.0001464466094205
 30
0.0
 11
0.074509621085781
 21
0.0156058758136055
 31
0.0
  0
INSERT
  5
244
330
235
100
AcDbEntity
  8
CORTE
 62
     4
100
AcDbBlockReference
  2
ELEMENT
 10
-0.0024999999999977
 20
0.0024999999999977
 30
0.0
 41
0.5
 42
0.5
 43
0.5
  0
LINE
  5
245
330
235
100
AcDbEntity
  8
Vista
 62
     2
100
AcDbLine
 10
-0.0024999999999977
 20
0.0100000000000193
 30
0.0
 11
0.0013108568762163
 21
0.0108108568761622
 31
0.0
  0
ARC
  5
246
330
235
100
AcDbEntity
  8
CORTE
 62
     3
100
AcDbCircle
 10
0.0775727343608992
 20
0.0325427625365364
 30
0.0
 40
0.0095923870276683
100
AcDbArc
 50
278.1349003175446
 51
356.7599311023579
  0
LINE
  5
247
330
235
100
AcDbEntity
  8
CORTE
 62
     3
100
AcDbLine
 10
0.0771560676942045
 20
0.0184594292032045
 30
0.0
 11
0.0771560676942045
 21
0.0224507195463559
 31
0.0
  0
ARC
  5
248
330
235
100
AcDbEntity
  8
CORTE
 62
     3
100
AcDbCircle
 10
0.0751560676941949
 20
0.0174594292032282
 30
0.0
 40
0.0005
100
AcDbArc
 50
89.99999999967434
 51
180.0
  0
LINE
  5
249
330
235
100
AcDbEntity
  8
Vista
 62
     3
100
AcDbLine
 10
0.074509621085781
 20
0.0156058758135771
 30
0.0
 11
0.0746560676941499
 21
0.0156370360599851
 31
0.0
  0
ARC
  5
24A
330
235
100
AcDbEntity
  8
CORTE
100
AcDbCircle
 10
0.0741560676942186
 20
0.0159594292032068
 30
0.0
 40
0.0005
100
AcDbArc
 50
315.0000001496929
 51
0.000000000000007
  0
LINE
  5
24B
330
235
100
AcDbEntity
  8
CORTE
 62
     3
100
AcDbLine
 10
0.0746560676942068
 20
0.0159594292032068
 30
0.0
 11
0.0746560676942068
 21
0.0174594292032282
 31
0.0
  0
ARC
  5
24C
330
235
100
AcDbEntity
  8
CORTE
 62
     3
100
AcDbCircle
 10
0.0766560676942163
 20
0.0184594292032045
 30
0.0
 40
0.0005
100
AcDbArc
 50
269.9999999991858
 51
0.000000000000007
  0
LINE
  5
24D
330
235
100
AcDbEntity
  8
CORTE
 62
     3
100
AcDbLine
 10
0.0766560676942163
 20
0.017959429203188
 30
0.0
 11
0.0751560676941949
 21
0.0179594292032164
 31
0.0
  0
ARC
  5
24E
330
235
100
AcDbEntity
  8
CORTE
 62
     3
100
AcDbCircle
 10
0.0776560676941927
 20
0.0224507195463559
 30
0.0
 40
0.0005
100
AcDbArc
 50
152.521182623883
 51
179.9999999983715
  0
LINE
  5
24F
330
235
100
AcDbEntity
  8
CORTE
 62
     3
100
AcDbLine
 10
0.0946560676941317
 20
0.0359594292032455
 30
0.0
 11
0.0946560676941317
 21
0.03745942920321
 31
0.0
  0
ARC
  5
250
330
235
100
AcDbEntity
  8
CORTE
 62
     3
100
AcDbCircle
 10
0.0916560676942027
 20
0.0334594292032193
 30
0.0
 40
0.0005
100
AcDbArc
 50
270.0
 51
0.000000000000007
  0
ARC
  5
251
330
235
100
AcDbEntity
  8
CORTE
 62
     3
100
AcDbCircle
 10
0.0941560676942004
 20
0.0359594292032455
 30
0.0
 40
0.0005
100
AcDbArc
 50
294.0240004981589
 51
0.000000000000007
  0
LINE
  5
252
330
235
100
AcDbEntity
  8
CORTE
 62
     3
100
AcDbLine
 10
0.0921560676942477
 20
0.0349594292032123
 30
0.0
 11
0.0921560676941908
 21
0.0334594292032193
 31
0.0
  0
LINE
  5
253
330
235
100
AcDbEntity
  8
CORTE
 62
     3
100
AcDbLine
 10
0.0941560676941436
 20
0.0379594292032266
 30
0.0
 11
0.0851560676942427
 21
0.0379594292032266
 31
0.0
  0
ARC
  5
254
330
235
100
AcDbEntity
  8
CORTE
 62
     3
100
AcDbCircle
 10
0.0941560676941436
 20
0.03745942920321
 30
0.0
 40
0.0005
100
AcDbArc
 50
359.9999999991858
 51
90.0
  0
ENDBLK
  5
255
330
235
100
AcDbEntity
  8
0
 62
     4
100
AcDbBlockEnd
  0
BLOCK
  5
3FC
330
3FB
100
AcDbEntity
  8
0
 62
     1
100
AcDbBlockBegin
  2
NOM-QR
 70
     0
 10
0.0
 20
0.0
 30
0.0
  3
NOM-QR
  1

  0
LINE
  5
3FD
330
3FB
100
AcDbEntity
  8
CORTE
 62
     4
100
AcDbLine
 10
0.0184292030348843
 20
0.0200000000000102
 30
0.0
 11
0.0860297709413658
 21
0.0343689442811126
 31
0.0
  0
LINE
  5
3FE
330
3FB
100
AcDbEntity
  8
CORTE
 62
     4
100
AcDbLine
 10
0.0155433624279908
 20
0.0200000000000102
 30
0.0
 11
0.0831439303344155
 21
0.0343689442811126
 31
0.0
  0
LINE
  5
3FF
330
3FB
100
AcDbEntity
  8
CORTE
 62
     4
100
AcDbLine
 10
0.0126575218209837
 20
0.0200000000000102
 30
0.0
 11
0.0802580897274084
 21
0.034368944281141
 31
0.0
  0
LINE
  5
400
330
3FB
100
AcDbEntity
  8
CORTE
 62
     4
100
AcDbLine
 10
0.0097716812139765
 20
0.0200000000000102
 30
0.0
 11
0.077372249120458
 21
0.0343689442811126
 31
0.0
  0
LINE
  5
401
330
3FB
100
AcDbEntity
  8
CORTE
 62
     4
100
AcDbLine
 10
0.0068858406069694
 20
0.0200000000000102
 30
0.0
 11
0.0744864085134509
 21
0.0343689442811126
 31
0.0
  0
LINE
  5
402
330
3FB
100
AcDbEntity
  8
CORTE
 62
     3
100
AcDbLine
 10
0.0081347328614925
 20
0.0017290908471352
 30
0.0
 11
0.0757353007679171
 21
0.0160980351282376
 31
0.0
  0
LINE
  5
403
330
3FB
100
AcDbEntity
  8
CORTE
 62
     3
100
AcDbLine
 10
0.0040000000000191
 20
0.0200000000000102
 30
0.0
 11
0.0716005679065006
 21
0.034368944281141
 31
0.0
  0
LINE
  5
404
330
3FB
100
AcDbEntity
  8
CORTE
 62
     3
100
AcDbLine
 10
0.0200000000000387
 20
0.0200000000000102
 30
0.0
 11
0.0876005679064633
 21
0.0343689442811126
 31
0.0
  0
ARC
  5
405
330
3FB
100
AcDbEntity
  8
CORTE
 62
     1
100
AcDbCircle
 10
0.0
 20
0.0200000000000102
 30
0.0
 40
0.0200000000000102
100
AcDbArc
 50
270.0
 51
0.0
  0
LINE
  5
406
330
3FB
100
AcDbEntity
  8
CORTE
 62
     1
100
AcDbLine
 10
0.0
 20
0.0160000000000196
 30
0.0
 11
0.0
 21
0.0
 31
0.0
  0
LINE
  5
407
330
3FB
100
AcDbEntity
  8
COTAS
 62
     1
100
AcDbLine
 10
0.0200000000000387
 20
0.0200000000000102
 30
0.0
 11
0.0040000000000191
 21
0.0200000000000102
 31
0.0
  0
ARC
  5
408
330
3FB
100
AcDbEntity
  8
CORTE
 62
     1
100
AcDbCircle
 10
0.0
 20
0.0200000000000102
 30
0.0
 40
0.004
100
AcDbArc
 50
270.0
 51
0.0
  0
ARC
  5
409
330
3FB
100
AcDbEntity
  8
CORTE
 62
     1
100
AcDbCircle
 10
0.0676005679064247
 20
0.0343689442811126
 30
0.0
 40
0.0200000000000102
100
AcDbArc
 50
270.0
 51
0.0
  0
LINE
  5
40A
330
3FB
100
AcDbEntity
  8
COTAS
 62
     1
100
AcDbLine
 10
0.0876005679064633
 20
0.0343689442811126
 30
0.0
 11
0.0716005679064438
 21
0.0343689442811126
 31
0.0
  0
ENDBLK
  5
40B
330
3FB
100
AcDbEntity
  8
0
 62
     1
100
AcDbBlockEnd
  0
BLOCK
  5
4E1
330
4E0
100
AcDbEntity
  8
0
100
AcDbBlockBegin
  2
_Arrivo
 70
     0
 10
0.0
 20
0.0
 30
0.0
  3
_Arrivo
  1

  0
LINE
  5
4E2
330
4E0
100
AcDbEntity
  8
0
  6
ByBlock
 62
     0
370
    -2
100
AcDbLine
 10
0.025
 20
-0.0433012701891858
 30
0.0
 11
-0.15
 21
0.2598076211353328
 31
0.0
  0
LINE
  5
4E3
330
4E0
100
AcDbEntity
  8
0
  6
ByBlock
 62
     0
370
    -2
100
AcDbLine
 10
0.025
 20
0.0433012701892585
 30
0.0
 11
-0.15
 21
-0.2598076211353328
 31
0.0
  0
LINE
  5
4E4
330
4E0
100
AcDbEntity
  8
0
  6
ByBlock
 62
     0
370
    -2
100
AcDbLine
 10
-0.05
 20
0.0
 30
0.0
 11
0.05
 21
0.0
 31
0.0
  0
ENDBLK
  5
4E5
330
4E0
100
AcDbEntity
  8
0
100
AcDbBlockEnd
  0
BLOCK
  5
4E7
330
4E6
100
AcDbEntity
  8
0
100
AcDbBlockBegin
  2
_Partenza
 70
     0
 10
0.0
 20
0.0
 30
0.0
  3
_Partenza
  1

  0
LINE
  5
4E8
330
4E6
100
AcDbEntity
  8
0
  6
ByBlock
 62
     0
370
    -2
100
AcDbLine
 10
-0.05
 20
0.05
 30
0.0
 11
0.1
 21
0.05
 31
0.0
  0
LINE
  5
4E9
330
4E6
100
AcDbEntity
  8
0
  6
ByBlock
 62
     0
370
    -2
100
AcDbLine
 10
-0.05
 20
-0.05
 30
0.0
 11
0.1
 21
-0.05
 31
0.0
  0
ENDBLK
  5
4EA
330
4E6
100
AcDbEntity
  8
0
100
AcDbBlockEnd
  0
BLOCK
  5
807
330
73D
100
AcDbEntity
  8
0
 62
     3
100
AcDbBlockBegin
  2
A$C6CE44357
 70
     0
 10
0.0
 20
0.0
 30
0.0
  3
A$C6CE44357
  1

  0
LINE
  5
73E
330
73D
100
AcDbEntity
  8
Vista
 62
     3
100
AcDbLine
 10
-265.2371225605411
 20
-42.42864078547465
 30
0.0
 11
-265.1113419531143
 21
-42.4023863117474
 31
0.0
  0
LINE
  5
73F
330
73D
100
AcDbEntity
  8
Vista
 62
     4
100
AcDbLine
 10
-265.2590480951634
 20
-42.54823976658282
 30
0.0
 11
-265.2510480951634
 21
-42.54823976658282
 31
0.0
  0
LINE
  5
740
330
73D
100
AcDbEntity
  8
Vista
 62
     3
100
AcDbLine
 10
-265.2678775571128
 20
-42.55723976658283
 30
0.0
 11
-265.2164242716711
 21
-42.55723976658283
 31
0.0
  0
LINE
  5
741
330
73D
100
AcDbEntity
  8
Vista
 62
     2
100
AcDbLine
 10
-265.240902830533
 20
-42.52873976658283
 30
0.0
 11
-265.2164242716711
 21
-42.52873976658283
 31
0.0
  0
LINE
  5
742
330
73D
100
AcDbEntity
  8
Vista
 62
     2
100
AcDbLine
 10
-265.245902830533
 20
-42.53973976658282
 30
0.0
 11
-265.2164242716711
 21
-42.53973976658282
 31
0.0
  0
LINE
  5
743
330
73D
100
AcDbEntity
  8
Vista
 62
     2
100
AcDbLine
 10
-265.2411287103258
 20
-42.53147306509318
 30
0.0
 11
-265.2164242716712
 21
-42.53147306509318
 31
0.0
  0
LINE
  5
744
330
73D
100
AcDbEntity
  8
Vista
 62
     2
100
AcDbLine
 10
-265.2649809809004
 20
-42.55319036467706
 30
0.0
 11
-265.2164242716712
 21
-42.55319036467706
 31
0.0
  0
LWPOLYLINE
  5
745
330
73D
100
AcDbEntity
  8
CORTE
  6
Continuous
 62
     1
100
AcDbPolyline
 90
       30
 70
     1
 43
0.0
 10
-265.2651647001392
 20
-42.55337345319399
 42
0.2685636005234304
 10
-265.2649137067366
 20
-42.55293986846818
 10
-265.2649137067366
 20
-42.54823976658282
 10
-265.2624028305331
 20
-42.54823976658282
 42
0.4142135623730693
 10
-265.261402830533
 20
-42.54723976658282
 10
-265.261402830533
 20
-42.53973976658282
 10
-265.258902830533
 20
-42.53973976658282
 42
-0.2526773759784102
 10
-265.2565834054943
 20
-42.53823976658283
 10
-265.2512222555718
 20
-42.53823976658283
 42
-0.2526773759784102
 10
-265.2489028305331
 20
-42.53973976658282
 10
-265.245902830533
 20
-42.53973976658282
 42
0.414213562373069
 10
-265.244902830533
 20
-42.53873976658282
 10
-265.244902830533
 20
-42.53523036708408
 42
-0.3189892314182299
 10
-265.2417043063426
 20
-42.53182012245305
 42
0.356818340496206
 10
-265.240902830533
 20
-42.53084002646501
 10
-265.240902830533
 20
-42.52873976658283
 42
0.364269306410865
 10
-265.234652830533
 20
-42.52348976658284
 42
-0.3260576707120786
 10
-265.2292666879074
 20
-42.51829884552306
 42
0.3747567555282292
 10
-265.228402830533
 20
-42.51730815627538
 10
-265.228402830533
 20
-42.51473976658282
 10
-265.240902830533
 20
-42.51473976658282
 10
-265.240902830533
 20
-42.52073976658282
 10
-265.254402830533
 20
-42.53323976658283
 10
-265.264402830533
 20
-42.53323976658283
 42
0.4142135623730704
 10
-265.269402830533
 20
-42.53823976658283
 10
-265.269402830533
 20
-42.54351258119139
 10
-265.270902830533
 20
-42.54473976658282
 10
-265.270902830533
 20
-42.55723976658283
 10
-265.2678775571128
 20
-42.55723976658283
 42
0.3849291685644514
 10
-265.2673801055846
 20
-42.55679018460604
 42
-0.2416670294637286
  0
LINE
  5
746
330
73D
100
AcDbEntity
  8
CORTE
  6
RAYITA
 62
     4
100
AcDbLine
 10
-265.2649137067366
 20
-42.54823976658282
 30
0.0
 11
-265.2649137067366
 21
-42.53973976658282
 31
0.0
  0
LINE
  5
747
330
73D
100
AcDbEntity
  8
CORTE
  6
RAYITA
 62
     4
100
AcDbLine
 10
-265.2631769303866
 20
-42.5441333561959
 30
0.0
 11
-265.2631769303866
 21
-42.53973976658282
 31
0.0
  0
LINE
  5
748
330
73D
100
AcDbEntity
  8
CORTE
  6
RAYITA
 62
     4
100
AcDbLine
 10
-265.2631769303866
 20
-42.5441333561959
 30
0.0
 11
-265.2649137067366
 21
-42.5441333561959
 31
0.0
  0
LINE
  5
749
330
73D
100
AcDbEntity
  8
CORTE
  6
RAYITA
 62
     4
100
AcDbLine
 10
-265.261402830533
 20
-42.53973976658282
 30
0.0
 11
-265.2649137067366
 21
-42.53973976658282
 31
0.0
  0
LINE
  5
74A
330
73D
100
AcDbEntity
  8
Vista
 62
     3
100
AcDbLine
 10
-265.228402830533
 20
-42.51473976658282
 30
0.0
 11
-265.2164242716711
 21
-42.51473976658279
 31
0.0
  0
LINE
  5
74B
330
73D
100
AcDbEntity
  8
Vista
 62
     2
100
AcDbLine
 10
-265.2286491254761
 20
-42.51796536909266
 30
0.0
 11
-265.2164242716712
 21
-42.51796536909266
 31
0.0
  0
LINE
  5
74C
330
73D
100
AcDbEntity
  8
Vista
 62
     4
100
AcDbLine
 10
-265.2590480951634
 20
-42.53973976658282
 30
0.0
 11
-265.2590480951634
 21
-42.54823976658282
 31
0.0
  0
LINE
  5
74D
330
73D
100
AcDbEntity
  8
Vista
 62
     4
100
AcDbLine
 10
-265.2510480951634
 20
-42.53973976658282
 30
0.0
 11
-265.2510480951634
 21
-42.54823976658282
 31
0.0
  0
LINE
  5
74E
330
73D
100
AcDbEntity
  8
Vista
 62
     4
100
AcDbLine
 10
-265.2470480951634
 20
-42.53973976658282
 30
0.0
 11
-265.2470480951635
 21
-42.54823976658282
 31
0.0
  0
LINE
  5
74F
330
73D
100
AcDbEntity
  8
Vista
 62
     4
100
AcDbLine
 10
-265.2390480951634
 20
-42.53973976658282
 30
0.0
 11
-265.2390480951634
 21
-42.54823976658282
 31
0.0
  0
LINE
  5
750
330
73D
100
AcDbEntity
  8
Vista
 62
     4
100
AcDbLine
 10
-265.2350480951635
 20
-42.53973976658282
 30
0.0
 11
-265.2350480951635
 21
-42.54823976658282
 31
0.0
  0
LINE
  5
751
330
73D
100
AcDbEntity
  8
Vista
 62
     4
100
AcDbLine
 10
-265.2510480951634
 20
-42.5441333561959
 30
0.0
 11
-265.2470480951635
 21
-42.5441333561959
 31
0.0
  0
LINE
  5
752
330
73D
100
AcDbEntity
  8
Vista
 62
     4
100
AcDbLine
 10
-265.2390480951634
 20
-42.5441333561959
 30
0.0
 11
-265.2350480951635
 21
-42.5441333561959
 31
0.0
  0
LINE
  5
753
330
73D
100
AcDbEntity
  8
Vista
 62
     4
100
AcDbLine
 10
-265.2470480951635
 20
-42.54823976658282
 30
0.0
 11
-265.2390480951634
 21
-42.54823976658282
 31
0.0
  0
LINE
  5
754
330
73D
100
AcDbEntity
  8
Vista
 62
     4
100
AcDbLine
 10
-265.2350480951635
 20
-42.54823976658282
 30
0.0
 11
-265.2270480951634
 21
-42.54823976658282
 31
0.0
  0
LINE
  5
755
330
73D
100
AcDbEntity
  8
Vista
 62
     4
100
AcDbLine
 10
-265.2230480951634
 20
-42.53973976658282
 30
0.0
 11
-265.2230480951634
 21
-42.54823976658282
 31
0.0
  0
LINE
  5
756
330
73D
100
AcDbEntity
  8
Vista
 62
     4
100
AcDbLine
 10
-265.2270480951634
 20
-42.53973976658282
 30
0.0
 11
-265.2270480951634
 21
-42.54823976658282
 31
0.0
  0
LINE
  5
757
330
73D
100
AcDbEntity
  8
Vista
 62
     4
100
AcDbLine
 10
-265.2230480951634
 20
-42.54823976658282
 30
0.0
 11
-265.2164242716711
 21
-42.54823976658282
 31
0.0
  0
LINE
  5
758
330
73D
100
AcDbEntity
  8
Vista
 62
     4
100
AcDbLine
 10
-265.2270480951634
 20
-42.5441333561959
 30
0.0
 11
-265.2230480951634
 21
-42.5441333561959
 31
0.0
  0
LINE
  5
759
330
73D
100
AcDbEntity
  8
Vista
 62
     4
100
AcDbLine
 10
-265.2079942150913
 20
-42.54823976658282
 30
0.0
 11
-265.2030480951634
 21
-42.54823976658282
 31
0.0
  0
LINE
  5
75A
330
73D
100
AcDbEntity
  8
Vista
 62
     4
100
AcDbLine
 10
-265.1870480951635
 20
-42.53973976658282
 30
0.0
 11
-265.1870480951635
 21
-42.54823976658282
 31
0.0
  0
LINE
  5
75B
330
73D
100
AcDbEntity
  8
Vista
 62
     4
100
AcDbLine
 10
-265.1910480951634
 20
-42.53973976658282
 30
0.0
 11
-265.1910480951634
 21
-42.54823976658282
 31
0.0
  0
LINE
  5
75C
330
73D
100
AcDbEntity
  8
Vista
 62
     4
100
AcDbLine
 10
-265.1990480951635
 20
-42.53973976658282
 30
0.0
 11
-265.1990480951635
 21
-42.54823976658282
 31
0.0
  0
LINE
  5
75D
330
73D
100
AcDbEntity
  8
Vista
 62
     4
100
AcDbLine
 10
-265.2030480951634
 20
-42.53973976658282
 30
0.0
 11
-265.2030480951634
 21
-42.54823976658282
 31
0.0
  0
LINE
  5
75E
330
73D
100
AcDbEntity
  8
Vista
 62
     4
100
AcDbLine
 10
-265.1990480951635
 20
-42.54823976658282
 30
0.0
 11
-265.1910480951634
 21
-42.54823976658282
 31
0.0
  0
LINE
  5
75F
330
73D
100
AcDbEntity
  8
Vista
 62
     4
100
AcDbLine
 10
-265.2030480951634
 20
-42.5441333561959
 30
0.0
 11
-265.1990480951635
 21
-42.5441333561959
 31
0.0
  0
LINE
  5
760
330
73D
100
AcDbEntity
  8
Vista
 62
     4
100
AcDbLine
 10
-265.1910480951634
 20
-42.5441333561959
 30
0.0
 11
-265.1870480951635
 21
-42.5441333561959
 31
0.0
  0
LINE
  5
761
330
73D
100
AcDbEntity
  8
Vista
 62
     4
100
AcDbLine
 10
-265.1870480951635
 20
-42.54823976658282
 30
0.0
 11
-265.1790480951634
 21
-42.54823976658282
 31
0.0
  0
LINE
  5
762
330
73D
100
AcDbEntity
  8
Vista
 62
     4
100
AcDbLine
 10
-265.1630480951634
 20
-42.53973976658282
 30
0.0
 11
-265.1630480951634
 21
-42.54823976658282
 31
0.0
  0
LINE
  5
763
330
73D
100
AcDbEntity
  8
Vista
 62
     4
100
AcDbLine
 10
-265.1670480951634
 20
-42.53973976658282
 30
0.0
 11
-265.1670480951634
 21
-42.54823976658282
 31
0.0
  0
LINE
  5
764
330
73D
100
AcDbEntity
  8
Vista
 62
     4
100
AcDbLine
 10
-265.1750480951634
 20
-42.53973976658282
 30
0.0
 11
-265.1750480951634
 21
-42.54823976658282
 31
0.0
  0
LINE
  5
765
330
73D
100
AcDbEntity
  8
Vista
 62
     4
100
AcDbLine
 10
-265.1790480951634
 20
-42.53973976658282
 30
0.0
 11
-265.1790480951634
 21
-42.54823976658282
 31
0.0
  0
LINE
  5
766
330
73D
100
AcDbEntity
  8
Vista
 62
     4
100
AcDbLine
 10
-265.1750480951634
 20
-42.54823976658282
 30
0.0
 11
-265.1670480951634
 21
-42.54823976658282
 31
0.0
  0
LINE
  5
767
330
73D
100
AcDbEntity
  8
Vista
 62
     4
100
AcDbLine
 10
-265.1790480951634
 20
-42.5441333561959
 30
0.0
 11
-265.1750480951634
 21
-42.5441333561959
 31
0.0
  0
LINE
  5
768
330
73D
100
AcDbEntity
  8
Vista
 62
     4
100
AcDbLine
 10
-265.1670480951634
 20
-42.5441333561959
 30
0.0
 11
-265.1630480951634
 21
-42.5441333561959
 31
0.0
  0
LINE
  5
769
330
73D
100
AcDbEntity
  8
Vista
 62
     4
100
AcDbLine
 10
-265.1630480951634
 20
-42.54823976658282
 30
0.0
 11
-265.1550480951634
 21
-42.54823976658282
 31
0.0
  0
LINE
  5
76A
330
73D
100
AcDbEntity
  8
Vista
 62
     4
100
AcDbLine
 10
-265.1390480951635
 20
-42.53973976658282
 30
0.0
 11
-265.1390480951635
 21
-42.54823976658282
 31
0.0
  0
LINE
  5
76B
330
73D
100
AcDbEntity
  8
Vista
 62
     4
100
AcDbLine
 10
-265.1430480951634
 20
-42.53973976658282
 30
0.0
 11
-265.1430480951634
 21
-42.54823976658282
 31
0.0
  0
LINE
  5
76C
330
73D
100
AcDbEntity
  8
Vista
 62
     4
100
AcDbLine
 10
-265.1510480951634
 20
-42.53973976658282
 30
0.0
 11
-265.1510480951634
 21
-42.54823976658282
 31
0.0
  0
LINE
  5
76D
330
73D
100
AcDbEntity
  8
Vista
 62
     4
100
AcDbLine
 10
-265.1550480951634
 20
-42.53973976658282
 30
0.0
 11
-265.1550480951634
 21
-42.54823976658282
 31
0.0
  0
LINE
  5
76E
330
73D
100
AcDbEntity
  8
Vista
 62
     4
100
AcDbLine
 10
-265.1510480951634
 20
-42.54823976658282
 30
0.0
 11
-265.1430480951634
 21
-42.54823976658282
 31
0.0
  0
LINE
  5
76F
330
73D
100
AcDbEntity
  8
Vista
 62
     4
100
AcDbLine
 10
-265.1550480951634
 20
-42.5441333561959
 30
0.0
 11
-265.1510480951634
 21
-42.5441333561959
 31
0.0
  0
LINE
  5
770
330
73D
100
AcDbEntity
  8
Vista
 62
     4
100
AcDbLine
 10
-265.1430480951634
 20
-42.5441333561959
 30
0.0
 11
-265.1390480951635
 21
-42.5441333561959
 31
0.0
  0
LINE
  5
771
330
73D
100
AcDbEntity
  8
Vista
 62
     4
100
AcDbLine
 10
-265.1390480951635
 20
-42.54823976658282
 30
0.0
 11
-265.1310480951634
 21
-42.54823976658282
 31
0.0
  0
LINE
  5
772
330
73D
100
AcDbEntity
  8
Vista
 62
     4
100
AcDbLine
 10
-265.1150480951634
 20
-42.53973976658282
 30
0.0
 11
-265.1150480951634
 21
-42.54823976658282
 31
0.0
  0
LINE
  5
773
330
73D
100
AcDbEntity
  8
Vista
 62
     4
100
AcDbLine
 10
-265.1190480951634
 20
-42.53973976658282
 30
0.0
 11
-265.1190480951634
 21
-42.54823976658282
 31
0.0
  0
LINE
  5
774
330
73D
100
AcDbEntity
  8
Vista
 62
     4
100
AcDbLine
 10
-265.1270480951634
 20
-42.53973976658282
 30
0.0
 11
-265.1270480951634
 21
-42.54823976658282
 31
0.0
  0
LINE
  5
775
330
73D
100
AcDbEntity
  8
Vista
 62
     4
100
AcDbLine
 10
-265.1310480951634
 20
-42.53973976658282
 30
0.0
 11
-265.1310480951634
 21
-42.54823976658282
 31
0.0
  0
LINE
  5
776
330
73D
100
AcDbEntity
  8
Vista
 62
     4
100
AcDbLine
 10
-265.1270480951634
 20
-42.54823976658282
 30
0.0
 11
-265.1190480951634
 21
-42.54823976658282
 31
0.0
  0
LINE
  5
777
330
73D
100
AcDbEntity
  8
Vista
 62
     4
100
AcDbLine
 10
-265.1310480951634
 20
-42.5441333561959
 30
0.0
 11
-265.1270480951634
 21
-42.5441333561959
 31
0.0
  0
LINE
  5
778
330
73D
100
AcDbEntity
  8
Vista
 62
     4
100
AcDbLine
 10
-265.1190480951634
 20
-42.5441333561959
 30
0.0
 11
-265.1150480951634
 21
-42.5441333561959
 31
0.0
  0
LINE
  5
779
330
73D
100
AcDbEntity
  8
Vista
 62
     4
100
AcDbLine
 10
-265.1150480951634
 20
-42.54823976658282
 30
0.0
 11
-265.1070480951634
 21
-42.54823976658282
 31
0.0
  0
LINE
  5
77A
330
73D
100
AcDbEntity
  8
Vista
 62
     4
100
AcDbLine
 10
-265.1030480951634
 20
-42.53973976658282
 30
0.0
 11
-265.1030480951634
 21
-42.54823976658282
 31
0.0
  0
LINE
  5
77B
330
73D
100
AcDbEntity
  8
Vista
 62
     4
100
AcDbLine
 10
-265.1070480951634
 20
-42.53973976658282
 30
0.0
 11
-265.1070480951634
 21
-42.54823976658282
 31
0.0
  0
LINE
  5
77C
330
73D
100
AcDbEntity
  8
Vista
 62
     4
100
AcDbLine
 10
-265.1030480951634
 20
-42.54823976658282
 30
0.0
 11
-265.0999942150913
 21
-42.54823976658285
 31
0.0
  0
LINE
  5
77D
330
73D
100
AcDbEntity
  8
Vista
 62
     4
100
AcDbLine
 10
-265.1070480951634
 20
-42.5441333561959
 30
0.0
 11
-265.1030480951634
 21
-42.5441333561959
 31
0.0
  0
LINE
  5
77E
330
73D
100
AcDbEntity
  8
CORTE
  6
RAYITA
 62
     4
100
AcDbLine
 10
-265.2611334367446
 20
-42.46214078547466
 30
0.0
 11
-265.2611334367446
 21
-42.45803437508773
 31
0.0
  0
LINE
  5
77F
330
73D
100
AcDbEntity
  8
CORTE
  6
RAYITA
 62
     4
100
AcDbLine
 10
-265.2576225605411
 20
-42.45364078547466
 30
0.0
 11
-265.2593966603947
 21
-42.45364078547466
 31
0.0
  0
LINE
  5
780
330
73D
100
AcDbEntity
  8
CORTE
  6
RAYITA
 62
     4
100
AcDbLine
 10
-265.2593966603947
 20
-42.45803437508773
 30
0.0
 11
-265.2611334367446
 21
-42.45803437508773
 31
0.0
  0
LINE
  5
781
330
73D
100
AcDbEntity
  8
CORTE
  6
RAYITA
 62
     4
100
AcDbLine
 10
-265.2593966603947
 20
-42.45803437508773
 30
0.0
 11
-265.2593966603947
 21
-42.45364078547466
 31
0.0
  0
LINE
  5
782
330
73D
100
AcDbEntity
  8
Vista
 62
     2
100
AcDbLine
 10
-265.2246225605411
 20
-42.42864078547465
 30
0.0
 11
-265.0988419531143
 21
-42.4023863117474
 31
0.0
  0
LINE
  5
783
330
73D
100
AcDbEntity
  8
Vista
 62
     2
100
AcDbLine
 10
-265.2253196169622
 20
-42.43216218366036
 30
0.0
 11
-265.1005238724924
 21
-42.40611328262953
 31
0.0
  0
LINE
  5
784
330
73D
100
AcDbEntity
  8
Vista
 62
     2
100
AcDbLine
 10
-265.2357843481861
 20
-42.4424980657533
 30
0.0
 11
-265.1113419531143
 21
-42.41652292015008
 31
0.0
  0
LINE
  5
785
330
73D
100
AcDbEntity
  8
Vista
 62
     2
100
AcDbLine
 10
-265.2377407371607
 20
-42.44566528066572
 30
0.0
 11
-265.1119601297339
 21
-42.41941080693844
 31
0.0
  0
LINE
  5
786
330
73D
100
AcDbEntity
  8
Vista
 62
     2
100
AcDbLine
 10
-265.2616957494533
 20
-42.44725731687553
 30
0.0
 11
-265.2475622982738
 21
-42.44430720930124
 31
0.0
  0
LINE
  5
787
330
73D
100
AcDbEntity
  8
Vista
 62
     2
100
AcDbLine
 10
-265.2419054000998
 20
-42.45361692139899
 30
0.0
 11
-265.1318419531143
 21
-42.43064312650061
 31
0.0
  0
LINE
  5
788
330
73D
100
AcDbEntity
  8
Vista
 62
     4
100
AcDbLine
 10
-265.2551225605411
 20
-42.45364078547466
 30
0.0
 11
-265.2479363219937
 21
-42.45214078547464
 31
0.0
  0
LINE
  5
789
330
73D
100
AcDbEntity
  8
Vista
 62
     4
100
AcDbLine
 10
-265.2543974497464
 20
-42.4613609643679
 30
0.0
 11
-265.2463974497463
 21
-42.4596911060796
 31
0.0
  0
LINE
  5
78A
330
73D
100
AcDbEntity
  8
Vista
 62
     4
100
AcDbLine
 10
-265.2593966603947
 20
-42.45803437508773
 30
0.0
 11
-265.2558974497463
 21
-42.45730397684979
 31
0.0
  0
LINE
  5
78B
330
73D
100
AcDbEntity
  8
Vista
 62
     2
100
AcDbLine
 10
-265.2611968867646
 20
-42.46708465797961
 30
0.0
 11
-265.1354162793379
 21
-42.44083018425236
 31
0.0
  0
LINE
  5
78C
330
73D
100
AcDbEntity
  8
Vista
 62
     3
100
AcDbLine
 10
-265.264002248065
 20
-42.47113166995989
 30
0.0
 11
-265.1382216406382
 21
-42.44487719623264
 31
0.0
  0
ARC
  5
78D
330
73D
100
AcDbEntity
  8
CORTE
  6
Continuous
 62
     1
100
AcDbCircle
 10
-265.2616334367446
 20
-42.46684088735999
 30
0.0
 40
0.0004999999999999
100
AcDbArc
 50
299.8686408419573
 51
359.9999999999935
  0
LINE
  5
78E
330
73D
100
AcDbEntity
  8
CORTE
  6
Continuous
 62
     1
100
AcDbLine
 10
-265.2611334367446
 20
-42.46684088735999
 30
0.0
 11
-265.2611334367446
 21
-42.46214078547466
 31
0.0
  0
LINE
  5
78F
330
73D
100
AcDbEntity
  8
CORTE
  6
Continuous
 62
     1
100
AcDbLine
 10
-265.2576225605411
 20
-42.45364078547466
 30
0.0
 11
-265.2551225605411
 21
-42.45364078547466
 31
0.0
  0
ARC
  5
790
330
73D
100
AcDbEntity
  8
CORTE
  6
Continuous
 62
     1
100
AcDbCircle
 10
-265.2525734960763
 20
-42.45503911726784
 30
0.0
 40
0.0029074149083751
100
AcDbArc
 50
94.53017172282182
 51
151.2522954919238
  0
LINE
  5
791
330
73D
100
AcDbEntity
  8
CORTE
  6
Continuous
 62
     1
100
AcDbLine
 10
-265.2528031355024
 20
-42.45214078547464
 30
0.0
 11
-265.2474419855798
 21
-42.45214078547464
 31
0.0
  0
ARC
  5
792
330
73D
100
AcDbEntity
  8
CORTE
  6
Continuous
 62
     1
100
AcDbCircle
 10
-265.2476716250059
 20
-42.45503911726784
 30
0.0
 40
0.0029074149083745
100
AcDbArc
 50
28.74770450807759
 51
85.46982827718144
  0
LINE
  5
793
330
73D
100
AcDbEntity
  8
CORTE
  6
Continuous
 62
     1
100
AcDbLine
 10
-265.245122560541
 20
-42.45364078547466
 30
0.0
 11
-265.2421225605411
 21
-42.45364078547466
 31
0.0
  0
ARC
  5
794
330
73D
100
AcDbEntity
  8
CORTE
  6
Continuous
 62
     1
100
AcDbCircle
 10
-265.2421225605411
 20
-42.45264078547466
 30
0.0
 40
0.001
100
AcDbArc
 50
270.0
 51
359.9999999999951
  0
LINE
  5
795
330
73D
100
AcDbEntity
  8
CORTE
  6
Continuous
 62
     1
100
AcDbLine
 10
-265.2411225605411
 20
-42.45264078547466
 30
0.0
 11
-265.2411225605411
 21
-42.44913138597588
 31
0.0
  0
ARC
  5
796
330
73D
100
AcDbEntity
  8
CORTE
  6
Continuous
 62
     1
100
AcDbCircle
 10
-265.2371225605411
 20
-42.44967795498879
 30
0.0
 40
0.0040371695141331
100
AcDbArc
 50
101.4506709648844
 51
172.21916242068
  0
ARC
  5
797
330
73D
100
AcDbEntity
  8
CORTE
  6
Continuous
 62
     1
100
AcDbCircle
 10
-265.238122560541
 20
-42.44474104535682
 30
0.0
 40
0.0010000000000001
100
AcDbArc
 50
281.4506709648813
 51
359.9999999999935
  0
LINE
  5
798
330
73D
100
AcDbEntity
  8
CORTE
  6
Continuous
 62
     1
100
AcDbLine
 10
-265.2371225605411
 20
-42.44474104535682
 30
0.0
 11
-265.2371225605411
 21
-42.44264078547463
 31
0.0
  0
ARC
  5
799
330
73D
100
AcDbEntity
  8
CORTE
  6
Continuous
 62
     1
100
AcDbCircle
 10
-265.2371225605411
 20
-42.4362955473794
 30
0.0
 40
0.0063452380952395
100
AcDbArc
 50
270.0
 51
350.0605185437708
  0
ARC
  5
79A
330
73D
100
AcDbEntity
  8
CORTE
  6
Continuous
 62
     1
100
AcDbCircle
 10
-265.224622560541
 20
-42.43848602356989
 30
0.0
 40
0.0063452380952396
100
AcDbArc
 50
97.82469757354439
 51
170.060518543773
  0
ARC
  5
79B
330
73D
100
AcDbEntity
  8
CORTE
  6
Continuous
 62
     1
100
AcDbCircle
 10
-265.2256225605411
 20
-42.43120917516718
 30
0.0
 40
0.001
100
AcDbArc
 50
277.8246975735409
 51
359.9999999999984
  0
LINE
  5
79C
330
73D
100
AcDbEntity
  8
CORTE
  6
Continuous
 62
     1
100
AcDbLine
 10
-265.2246225605411
 20
-42.43120917516718
 30
0.0
 11
-265.2246225605411
 21
-42.42864078547465
 31
0.0
  0
LINE
  5
79D
330
73D
100
AcDbEntity
  8
CORTE
  6
Continuous
 62
     1
100
AcDbLine
 10
-265.2246225605411
 20
-42.42864078547465
 30
0.0
 11
-265.2371225605411
 21
-42.42864078547465
 31
0.0
  0
LINE
  5
79E
330
73D
100
AcDbEntity
  8
CORTE
  6
Continuous
 62
     1
100
AcDbLine
 10
-265.2371225605411
 20
-42.42864078547465
 30
0.0
 11
-265.2371225605411
 21
-42.43464078547465
 31
0.0
  0
LINE
  5
79F
330
73D
100
AcDbEntity
  8
CORTE
  6
Continuous
 62
     1
100
AcDbLine
 10
-265.2371225605411
 20
-42.43464078547465
 30
0.0
 11
-265.2506225605411
 21
-42.44714078547464
 31
0.0
  0
LINE
  5
7A0
330
73D
100
AcDbEntity
  8
CORTE
  6
Continuous
 62
     1
100
AcDbLine
 10
-265.2506225605411
 20
-42.44714078547464
 30
0.0
 11
-265.2606225605411
 21
-42.44714078547464
 31
0.0
  0
ARC
  5
7A1
330
73D
100
AcDbEntity
  8
CORTE
  6
Continuous
 62
     1
100
AcDbCircle
 10
-265.2606225605411
 20
-42.45214078547464
 30
0.0
 40
0.005
100
AcDbArc
 50
90.00000000000325
 51
179.9999999999967
  0
LINE
  5
7A2
330
73D
100
AcDbEntity
  8
CORTE
  6
Continuous
 62
     1
100
AcDbLine
 10
-265.2656225605411
 20
-42.45214078547464
 30
0.0
 11
-265.2656225605411
 21
-42.45741360008323
 31
0.0
  0
LINE
  5
7A3
330
73D
100
AcDbEntity
  8
CORTE
  6
Continuous
 62
     1
100
AcDbLine
 10
-265.2656225605411
 20
-42.45741360008323
 30
0.0
 11
-265.2671225605411
 21
-42.45864078547465
 31
0.0
  0
LINE
  5
7A4
330
73D
100
AcDbEntity
  8
CORTE
  6
Continuous
 62
     1
100
AcDbLine
 10
-265.2671225605411
 20
-42.45864078547465
 30
0.0
 11
-265.2671225605411
 21
-42.47114078547464
 31
0.0
  0
LINE
  5
7A5
330
73D
100
AcDbEntity
  8
CORTE
  6
Continuous
 62
     1
100
AcDbLine
 10
-265.2671225605411
 20
-42.47114078547464
 30
0.0
 11
-265.2640972871209
 21
-42.47114078547464
 31
0.0
  0
ARC
  5
7A6
330
73D
100
AcDbEntity
  8
CORTE
  6
Continuous
 62
     1
100
AcDbCircle
 10
-265.2640972871209
 20
-42.47064078547466
 30
0.0
 40
0.0005
100
AcDbArc
 50
270.0
 51
354.2126842324164
  0
ARC
  5
7A7
330
73D
100
AcDbEntity
  8
CORTE
  6
Continuous
 62
     1
100
AcDbCircle
 10
-265.2591640162722
 20
-42.47114078547464
 30
0.0
 40
0.004458544268822
100
AcDbArc
 50
119.8686408419609
 51
174.2126842324128
  0
LINE
  5
7A8
330
73D
100
AcDbEntity
  8
CORTE
  6
Continuous
 62
     4
100
AcDbLine
 10
-265.2573974497463
 20
-42.4613609643679
 30
0.0
 11
-265.2573974497463
 21
-42.45761707527883
 31
0.0
  0
LINE
  5
7A9
330
73D
100
AcDbEntity
  8
Vista
 62
     4
100
AcDbLine
 10
-265.2611334367446
 20
-42.46214078547466
 30
0.0
 11
-265.2573974497463
 21
-42.4613609643679
 31
0.0
  0
LINE
  5
7AA
330
73D
100
AcDbEntity
  8
CORTE
  6
Continuous
 62
     1
100
AcDbLine
 10
-265.2593974497464
 20
-42.45803437508773
 30
0.0
 11
-265.2593974497464
 21
-42.45359456852866
 31
0.0
  0
LINE
  5
7AB
330
73D
100
AcDbEntity
  8
Vista
 62
     4
100
AcDbLine
 10
-265.2573974497463
 20
-42.4613609643679
 30
0.0
 11
-265.2543974497464
 21
-42.4613609643679
 31
0.0
  0
LINE
  5
7AC
330
73D
100
AcDbEntity
  8
Vista
 62
     4
100
AcDbLine
 10
-265.2463974497463
 20
-42.45532102013244
 30
0.0
 11
-265.2438974497463
 21
-42.45479918941735
 31
0.0
  0
LINE
  5
7AD
330
73D
100
AcDbEntity
  8
CORTE
  6
Continuous
 62
     4
100
AcDbLine
 10
-265.2543974497464
 20
-42.4613609643679
 30
0.0
 11
-265.2543974497464
 21
-42.45348943144084
 31
0.0
  0
LINE
  5
7AE
330
73D
100
AcDbEntity
  8
CORTE
  6
Continuous
 62
     4
100
AcDbLine
 10
-265.2558974497463
 20
-42.45730397684979
 30
0.0
 11
-265.2558974497463
 21
-42.45364078547466
 31
0.0
  0
LINE
  5
7AF
330
73D
100
AcDbEntity
  8
CORTE
  6
Continuous
 62
     4
100
AcDbLine
 10
-265.2463974497463
 20
-42.4596911060796
 30
0.0
 11
-265.2463974497463
 21
-42.45242577862588
 31
0.0
  0
LINE
  5
7B0
330
73D
100
AcDbEntity
  8
Vista
 62
     4
100
AcDbLine
 10
-265.2463974497463
 20
-42.45906490922148
 30
0.0
 11
-265.2453974497464
 21
-42.45885617693547
 31
0.0
  0
LINE
  5
7B1
330
73D
100
AcDbEntity
  8
CORTE
  6
Continuous
 62
     4
100
AcDbLine
 10
-265.2423974497464
 20
-42.45885617693547
 30
0.0
 11
-265.2423974497464
 21
-42.45364078547466
 31
0.0
  0
LINE
  5
7B2
330
73D
100
AcDbEntity
  8
CORTE
  6
Continuous
 62
     4
100
AcDbLine
 10
-265.2453974497464
 20
-42.45885617693547
 30
0.0
 11
-265.2453974497464
 21
-42.4551122878464
 31
0.0
  0
LINE
  5
7B3
330
73D
100
AcDbEntity
  8
CORTE
  6
Continuous
 62
     4
100
AcDbLine
 10
-265.2343974497463
 20
-42.45718631864717
 30
0.0
 11
-265.2343974497463
 21
-42.45204976975823
 31
0.0
  0
LINE
  5
7B4
330
73D
100
AcDbEntity
  8
Vista
 62
     4
100
AcDbLine
 10
-265.2423974497464
 20
-42.45885617693547
 30
0.0
 11
-265.2453974497464
 21
-42.45885617693547
 31
0.0
  0
LINE
  5
7B5
330
73D
100
AcDbEntity
  8
CORTE
  6
Continuous
 62
     4
100
AcDbLine
 10
-265.2438974497463
 20
-42.45479918941735
 30
0.0
 11
-265.2438974497463
 21
-42.45364078547466
 31
0.0
  0
LINE
  5
7B6
330
73D
100
AcDbEntity
  8
Vista
 62
     4
100
AcDbLine
 10
-265.2423974497464
 20
-42.45885617693547
 30
0.0
 11
-265.2343974497463
 21
-42.45718631864717
 31
0.0
  0
LINE
  5
7B7
330
73D
100
AcDbEntity
  8
CORTE
  6
Continuous
 62
     4
100
AcDbLine
 10
-265.2333974497464
 20
-42.45635698981327
 30
0.0
 11
-265.2333974497464
 21
-42.45261310072421
 31
0.0
  0
LINE
  5
7B8
330
73D
100
AcDbEntity
  8
CORTE
  6
Continuous
 62
     4
100
AcDbLine
 10
-265.2303974497463
 20
-42.45635698981327
 30
0.0
 11
-265.2303974497463
 21
-42.45121484061409
 31
0.0
  0
LINE
  5
7B9
330
73D
100
AcDbEntity
  8
Vista
 62
     4
100
AcDbLine
 10
-265.2303974497463
 20
-42.45635698981327
 30
0.0
 11
-265.2223974497463
 21
-42.45468713152497
 31
0.0
  0
LINE
  5
7BA
330
73D
100
AcDbEntity
  8
Vista
 62
     4
100
AcDbLine
 10
-265.2303974497463
 20
-42.45635698981327
 30
0.0
 11
-265.2333974497464
 21
-42.45635698981327
 31
0.0
  0
LINE
  5
7BB
330
73D
100
AcDbEntity
  8
Vista
 62
     4
100
AcDbLine
 10
-265.2343974497463
 20
-42.45656572209931
 30
0.0
 11
-265.2333974497464
 21
-42.45635698981327
 31
0.0
  0
LINE
  5
7BC
330
73D
100
AcDbEntity
  8
Vista
 62
     4
100
AcDbLine
 10
-265.2343974497463
 20
-42.45282183301024
 30
0.0
 11
-265.2318974497463
 21
-42.45230000229516
 31
0.0
  0
LINE
  5
7BD
330
73D
100
AcDbEntity
  8
CORTE
  6
Continuous
 62
     4
100
AcDbLine
 10
-265.2318974497463
 20
-42.45230000229516
 30
0.0
 11
-265.2318974497463
 21
-42.45152793904314
 31
0.0
  0
LINE
  5
7BE
330
73D
100
AcDbEntity
  8
CORTE
  6
Continuous
 62
     4
100
AcDbLine
 10
-265.2223974497463
 20
-42.45468713152497
 30
0.0
 11
-265.2223974497463
 21
-42.44955058263606
 31
0.0
  0
LINE
  5
7BF
330
73D
100
AcDbEntity
  8
Vista
 62
     4
100
AcDbLine
 10
-265.2183974497464
 20
-42.45381967473214
 30
0.0
 11
-265.2103974497463
 21
-42.45214981644385
 31
0.0
  0
LINE
  5
7C0
330
73D
100
AcDbEntity
  8
Vista
 62
     4
100
AcDbLine
 10
-265.2183974497464
 20
-42.45381967473214
 30
0.0
 11
-265.2213974497463
 21
-42.45381967473214
 31
0.0
  0
LINE
  5
7C1
330
73D
100
AcDbEntity
  8
CORTE
  6
Continuous
 62
     4
100
AcDbLine
 10
-265.2198974497463
 20
-42.44976268721403
 30
0.0
 11
-265.2198974497463
 21
-42.44902315161072
 31
0.0
  0
LINE
  5
7C2
330
73D
100
AcDbEntity
  8
Vista
 62
     4
100
AcDbLine
 10
-265.2223974497463
 20
-42.45028451792911
 30
0.0
 11
-265.2198974497463
 21
-42.44976268721403
 31
0.0
  0
LINE
  5
7C3
330
73D
100
AcDbEntity
  8
Vista
 62
     4
100
AcDbLine
 10
-265.2223974497463
 20
-42.45402840701818
 30
0.0
 11
-265.2213974497463
 21
-42.45381967473214
 31
0.0
  0
LINE
  5
7C4
330
73D
100
AcDbEntity
  8
CORTE
  6
Continuous
 62
     4
100
AcDbLine
 10
-265.2213974497463
 20
-42.45381967473214
 30
0.0
 11
-265.2213974497463
 21
-42.45007578564307
 31
0.0
  0
LINE
  5
7C5
330
73D
100
AcDbEntity
  8
CORTE
  6
Continuous
 62
     4
100
AcDbLine
 10
-265.2183974497464
 20
-42.45381967473214
 30
0.0
 11
-265.2183974497464
 21
-42.44867752553297
 31
0.0
  0
LINE
  5
7C6
330
73D
100
AcDbEntity
  8
CORTE
  6
Continuous
 62
     4
100
AcDbLine
 10
-265.2103974497463
 20
-42.45214981644385
 30
0.0
 11
-265.2103974497463
 21
-42.44704019489337
 31
0.0
  0
LINE
  5
7C7
330
73D
100
AcDbEntity
  8
Vista
 62
     4
100
AcDbLine
 10
-265.2063974497464
 20
-42.45136478851414
 30
0.0
 11
-265.1983974497463
 21
-42.44969493022584
 31
0.0
  0
LINE
  5
7C8
330
73D
100
AcDbEntity
  8
Vista
 62
     4
100
AcDbLine
 10
-265.2063974497464
 20
-42.45136478851414
 30
0.0
 11
-265.2093974497463
 21
-42.45136478851414
 31
0.0
  0
LINE
  5
7C9
330
73D
100
AcDbEntity
  8
CORTE
  6
Continuous
 62
     4
100
AcDbLine
 10
-265.2078974497463
 20
-42.44730780099603
 30
0.0
 11
-265.2078974497463
 21
-42.44653573774401
 31
0.0
  0
LINE
  5
7CA
330
73D
100
AcDbEntity
  8
Vista
 62
     4
100
AcDbLine
 10
-265.2103974497463
 20
-42.44782963171111
 30
0.0
 11
-265.2078974497463
 21
-42.44730780099603
 31
0.0
  0
LINE
  5
7CB
330
73D
100
AcDbEntity
  8
Vista
 62
     4
100
AcDbLine
 10
-265.2103974497463
 20
-42.45157352080018
 30
0.0
 11
-265.2093974497463
 21
-42.45136478851414
 31
0.0
  0
LINE
  5
7CC
330
73D
100
AcDbEntity
  8
CORTE
  6
Continuous
 62
     4
100
AcDbLine
 10
-265.2093974497463
 20
-42.45136478851414
 30
0.0
 11
-265.2093974497463
 21
-42.44762089942507
 31
0.0
  0
LINE
  5
7CD
330
73D
100
AcDbEntity
  8
CORTE
  6
Continuous
 62
     4
100
AcDbLine
 10
-265.2063974497464
 20
-42.45136478851414
 30
0.0
 11
-265.2063974497464
 21
-42.44622263931496
 31
0.0
  0
LINE
  5
7CE
330
73D
100
AcDbEntity
  8
CORTE
  6
Continuous
 62
     4
100
AcDbLine
 10
-265.1983974497463
 20
-42.44969493022584
 30
0.0
 11
-265.1983974497463
 21
-42.44455838133693
 31
0.0
  0
LINE
  5
7CF
330
73D
100
AcDbEntity
  8
Vista
 62
     4
100
AcDbLine
 10
-265.1943974497464
 20
-42.44883783223379
 30
0.0
 11
-265.1863974497463
 21
-42.44716797394549
 31
0.0
  0
LINE
  5
7D0
330
73D
100
AcDbEntity
  8
Vista
 62
     4
100
AcDbLine
 10
-265.1943974497464
 20
-42.44883783223379
 30
0.0
 11
-265.1973974497463
 21
-42.44883783223379
 31
0.0
  0
LINE
  5
7D1
330
73D
100
AcDbEntity
  8
CORTE
  6
Continuous
 62
     4
100
AcDbLine
 10
-265.1958974497463
 20
-42.44478084471568
 30
0.0
 11
-265.1958974497463
 21
-42.44400878146369
 31
0.0
  0
LINE
  5
7D2
330
73D
100
AcDbEntity
  8
Vista
 62
     4
100
AcDbLine
 10
-265.1983974497463
 20
-42.44530267543076
 30
0.0
 11
-265.1958974497463
 21
-42.44478084471568
 31
0.0
  0
LINE
  5
7D3
330
73D
100
AcDbEntity
  8
Vista
 62
     4
100
AcDbLine
 10
-265.1983974497463
 20
-42.44904656451983
 30
0.0
 11
-265.1973974497463
 21
-42.44883783223379
 31
0.0
  0
LINE
  5
7D4
330
73D
100
AcDbEntity
  8
CORTE
  6
Continuous
 62
     4
100
AcDbLine
 10
-265.1973974497463
 20
-42.44883783223379
 30
0.0
 11
-265.1973974497463
 21
-42.44509394314476
 31
0.0
  0
LINE
  5
7D5
330
73D
100
AcDbEntity
  8
CORTE
  6
Continuous
 62
     4
100
AcDbLine
 10
-265.1943974497464
 20
-42.44883783223379
 30
0.0
 11
-265.1943974497464
 21
-42.44369568303464
 31
0.0
  0
LINE
  5
7D6
330
73D
100
AcDbEntity
  8
CORTE
  6
Continuous
 62
     4
100
AcDbLine
 10
-265.1838974497463
 20
-42.44224352963455
 30
0.0
 11
-265.1838974497463
 21
-42.44150399403126
 31
0.0
  0
LINE
  5
7D7
330
73D
100
AcDbEntity
  8
CORTE
  6
Continuous
 62
     4
100
AcDbLine
 10
-265.1823974497464
 20
-42.44630051715266
 30
0.0
 11
-265.1823974497464
 21
-42.44115836795351
 31
0.0
  0
LINE
  5
7D8
330
73D
100
AcDbEntity
  8
Vista
 62
     4
100
AcDbLine
 10
-265.1823974497464
 20
-42.44630051715266
 30
0.0
 11
-265.1853974497464
 21
-42.44630051715266
 31
0.0
  0
LINE
  5
7D9
330
73D
100
AcDbEntity
  8
CORTE
  6
Continuous
 62
     4
100
AcDbLine
 10
-265.1853974497464
 20
-42.44630051715266
 30
0.0
 11
-265.1853974497464
 21
-42.44255662806362
 31
0.0
  0
LINE
  5
7DA
330
73D
100
AcDbEntity
  8
Vista
 62
     4
100
AcDbLine
 10
-265.1863974497463
 20
-42.4465092494387
 30
0.0
 11
-265.1853974497464
 21
-42.44630051715266
 31
0.0
  0
LINE
  5
7DB
330
73D
100
AcDbEntity
  8
Vista
 62
     4
100
AcDbLine
 10
-265.1863974497463
 20
-42.44276536034966
 30
0.0
 11
-265.1838974497463
 21
-42.44224352963455
 31
0.0
  0
LINE
  5
7DC
330
73D
100
AcDbEntity
  8
CORTE
  6
Continuous
 62
     4
100
AcDbLine
 10
-265.1863974497463
 20
-42.44716797394549
 30
0.0
 11
-265.1863974497463
 21
-42.44203142505658
 31
0.0
  0
LINE
  5
7DD
330
73D
100
AcDbEntity
  8
Vista
 62
     4
100
AcDbLine
 10
-265.1703974497463
 20
-42.44384563093466
 30
0.0
 11
-265.1623974497463
 21
-42.44217577264636
 31
0.0
  0
LINE
  5
7DE
330
73D
100
AcDbEntity
  8
Vista
 62
     4
100
AcDbLine
 10
-265.1823974497464
 20
-42.44630051715266
 30
0.0
 11
-265.1743974497463
 21
-42.44463065886439
 31
0.0
  0
LINE
  5
7DF
330
73D
100
AcDbEntity
  8
CORTE
  6
Continuous
 62
     4
100
AcDbLine
 10
-265.1743974497463
 20
-42.44463065886439
 30
0.0
 11
-265.1743974497463
 21
-42.43952103731389
 31
0.0
  0
LINE
  5
7E0
330
73D
100
AcDbEntity
  8
CORTE
  6
Continuous
 62
     4
100
AcDbLine
 10
-265.1733974497464
 20
-42.44384563093466
 30
0.0
 11
-265.1733974497464
 21
-42.44010174184562
 31
0.0
  0
LINE
  5
7E1
330
73D
100
AcDbEntity
  8
CORTE
  6
Continuous
 62
     4
100
AcDbLine
 10
-265.1703974497463
 20
-42.44384563093466
 30
0.0
 11
-265.1703974497463
 21
-42.43870348173551
 31
0.0
  0
LINE
  5
7E2
330
73D
100
AcDbEntity
  8
Vista
 62
     4
100
AcDbLine
 10
-265.1703974497463
 20
-42.44384563093466
 30
0.0
 11
-265.1733974497464
 21
-42.44384563093466
 31
0.0
  0
LINE
  5
7E3
330
73D
100
AcDbEntity
  8
Vista
 62
     4
100
AcDbLine
 10
-265.1743974497463
 20
-42.4440543632207
 30
0.0
 11
-265.1733974497464
 21
-42.44384563093466
 31
0.0
  0
LINE
  5
7E4
330
73D
100
AcDbEntity
  8
CORTE
  6
Continuous
 62
     4
100
AcDbLine
 10
-265.1718974497463
 20
-42.43978864341655
 30
0.0
 11
-265.1718974497463
 21
-42.43901658016456
 31
0.0
  0
LINE
  5
7E5
330
73D
100
AcDbEntity
  8
Vista
 62
     4
100
AcDbLine
 10
-265.1743974497463
 20
-42.44031047413163
 30
0.0
 11
-265.1718974497463
 21
-42.43978864341655
 31
0.0
  0
LINE
  5
7E6
330
73D
100
AcDbEntity
  8
CORTE
  6
Continuous
 62
     4
100
AcDbLine
 10
-265.1623974497463
 20
-42.44217577264636
 30
0.0
 11
-265.1623974497463
 21
-42.43703922375745
 31
0.0
  0
LINE
  5
7E7
330
73D
100
AcDbEntity
  8
Vista
 62
     4
100
AcDbLine
 10
-265.1583974497464
 20
-42.44133239831891
 30
0.0
 11
-265.1503974497463
 21
-42.43966254003062
 31
0.0
  0
LINE
  5
7E8
330
73D
100
AcDbEntity
  8
Vista
 62
     4
100
AcDbLine
 10
-265.1583974497464
 20
-42.44133239831891
 30
0.0
 11
-265.1613974497463
 21
-42.44133239831891
 31
0.0
  0
LINE
  5
7E9
330
73D
100
AcDbEntity
  8
CORTE
  6
Continuous
 62
     4
100
AcDbLine
 10
-265.1598974497463
 20
-42.4372754108008
 30
0.0
 11
-265.1598974497463
 21
-42.43650334754879
 31
0.0
  0
LINE
  5
7EA
330
73D
100
AcDbEntity
  8
Vista
 62
     4
100
AcDbLine
 10
-265.1623974497463
 20
-42.43779724151589
 30
0.0
 11
-265.1598974497463
 21
-42.4372754108008
 31
0.0
  0
LINE
  5
7EB
330
73D
100
AcDbEntity
  8
Vista
 62
     4
100
AcDbLine
 10
-265.1623974497463
 20
-42.44154113060496
 30
0.0
 11
-265.1613974497463
 21
-42.44133239831891
 31
0.0
  0
LINE
  5
7EC
330
73D
100
AcDbEntity
  8
CORTE
  6
Continuous
 62
     4
100
AcDbLine
 10
-265.1613974497463
 20
-42.44133239831891
 30
0.0
 11
-265.1613974497463
 21
-42.43758850922985
 31
0.0
  0
LINE
  5
7ED
330
73D
100
AcDbEntity
  8
CORTE
  6
Continuous
 62
     4
100
AcDbLine
 10
-265.1583974497464
 20
-42.44133239831891
 30
0.0
 11
-265.1583974497464
 21
-42.43619024911974
 31
0.0
  0
LINE
  5
7EE
330
73D
100
AcDbEntity
  8
CORTE
  6
Continuous
 62
     4
100
AcDbLine
 10
-265.1478974497463
 20
-42.43473809571968
 30
0.0
 11
-265.1478974497463
 21
-42.43399856011636
 31
0.0
  0
LINE
  5
7EF
330
73D
100
AcDbEntity
  8
CORTE
  6
Continuous
 62
     4
100
AcDbLine
 10
-265.1463974497464
 20
-42.43879508323779
 30
0.0
 11
-265.1463974497464
 21
-42.43365293403861
 31
0.0
  0
LINE
  5
7F0
330
73D
100
AcDbEntity
  8
Vista
 62
     4
100
AcDbLine
 10
-265.1463974497464
 20
-42.43879508323779
 30
0.0
 11
-265.1493974497463
 21
-42.43879508323779
 31
0.0
  0
LINE
  5
7F1
330
73D
100
AcDbEntity
  8
CORTE
  6
Continuous
 62
     4
100
AcDbLine
 10
-265.1493974497463
 20
-42.43879508323779
 30
0.0
 11
-265.1493974497463
 21
-42.43505119414872
 31
0.0
  0
LINE
  5
7F2
330
73D
100
AcDbEntity
  8
Vista
 62
     4
100
AcDbLine
 10
-265.1503974497463
 20
-42.43900381552383
 30
0.0
 11
-265.1493974497463
 21
-42.43879508323779
 31
0.0
  0
LINE
  5
7F3
330
73D
100
AcDbEntity
  8
Vista
 62
     4
100
AcDbLine
 10
-265.1503974497463
 20
-42.43525992643476
 30
0.0
 11
-265.1478974497463
 21
-42.43473809571968
 31
0.0
  0
LINE
  5
7F4
330
73D
100
AcDbEntity
  8
CORTE
  6
Continuous
 62
     4
100
AcDbLine
 10
-265.1503974497463
 20
-42.43966254003062
 30
0.0
 11
-265.1503974497463
 21
-42.43452599114171
 31
0.0
  0
LINE
  5
7F5
330
73D
100
AcDbEntity
  8
Vista
 62
     4
100
AcDbLine
 10
-265.1463974497464
 20
-42.43879508323779
 30
0.0
 11
-265.1383974497463
 21
-42.43712522494949
 31
0.0
  0
LINE
  5
7F6
330
73D
100
AcDbEntity
  8
CORTE
  6
Continuous
 62
     4
100
AcDbLine
 10
-265.1383974497463
 20
-42.43712522494949
 30
0.0
 11
-265.1383974497463
 21
-42.43201560339902
 31
0.0
  0
LINE
  5
7F7
330
73D
100
AcDbEntity
  8
CORTE
  6
Continuous
 62
     4
100
AcDbLine
 10
-265.1373974497464
 20
-42.43634019701978
 30
0.0
 11
-265.1373974497464
 21
-42.43259630793072
 31
0.0
  0
LINE
  5
7F8
330
73D
100
AcDbEntity
  8
CORTE
  6
Continuous
 62
     4
100
AcDbLine
 10
-265.1343974497464
 20
-42.43634019701978
 30
0.0
 11
-265.1343974497464
 21
-42.43119804782061
 31
0.0
  0
LINE
  5
7F9
330
73D
100
AcDbEntity
  8
Vista
 62
     4
100
AcDbLine
 10
-265.1383974497463
 20
-42.43654892930583
 30
0.0
 11
-265.1373974497464
 21
-42.43634019701978
 31
0.0
  0
LINE
  5
7FA
330
73D
100
AcDbEntity
  8
CORTE
  6
Continuous
 62
     4
100
AcDbLine
 10
-265.1358974497463
 20
-42.43228320950167
 30
0.0
 11
-265.1358974497463
 21
-42.43151114624966
 31
0.0
  0
LINE
  5
7FB
330
73D
100
AcDbEntity
  8
Vista
 62
     4
100
AcDbLine
 10
-265.1383974497463
 20
-42.43280504021676
 30
0.0
 11
-265.1358974497463
 21
-42.43228320950167
 31
0.0
  0
LINE
  5
7FC
330
73D
100
AcDbEntity
  8
Vista
 62
     4
100
AcDbLine
 10
-265.1353528293179
 20
-42.43634019701978
 30
0.0
 11
-265.1373974497464
 21
-42.43634019701978
 31
0.0
  0
LWPOLYLINE
  5
7FD
330
73D
100
AcDbEntity
  8
Vista
  6
Continuous
 62
     3
100
AcDbPolyline
 90
       21
 70
     0
 43
0.0
 10
-265.1383166796941
 20
-42.44488631174739
 42
0.384929168564455
 10
-265.1378192281659
 20
-42.4444367297706
 42
-0.2416670294637282
 10
-265.1356038227205
 20
-42.44101999835858
 42
0.2685636005234456
 10
-265.1353528293179
 20
-42.44058641363274
 10
-265.1353528293179
 20
-42.43634019701978
 10
-265.1343974497464
 20
-42.43634019701978
 10
-265.1318419531143
 20
-42.43580678236582
 10
-265.1318419531143
 20
-42.43064312650061
 10
-265.1161247926731
 20
-42.42736244767171
 42
0.3514578094911731
 10
-265.1153419531143
 20
-42.42638631174741
 10
-265.1153419531143
 20
-42.42287691224864
 42
-0.3189892314182308
 10
-265.1121434289239
 20
-42.41946666761764
 42
0.3568183404962087
 10
-265.1113419531143
 20
-42.41848657162957
 10
-265.1113419531143
 20
-42.41652292015008
 10
-265.1100037407593
 20
-42.41624359202602
 42
0.3051840064494136
 10
-265.1050919531143
 20
-42.4111363117474
 42
-0.2900042141350497
 10
-265.1005238724924
 20
-42.40611328262953
 10
-265.0995390095354
 20
-42.40590770993311
 42
0.3266838343405565
 10
-265.0988419531143
 20
-42.40495470143993
 10
-265.0988419531143
 20
-42.4023863117474
 10
-265.1113419531143
 20
-42.4023863117474
  0
LINE
  5
7FE
330
73D
100
AcDbEntity
  8
Vista
 62
     6
100
AcDbLine
 10
-265.0999942150913
 20
-42.55723976658283
 30
0.0
 11
-265.0999942150913
 21
-42.51473976658282
 31
0.0
  0
LINE
  5
7FF
330
73D
100
AcDbEntity
  8
Vista
 62
     6
100
AcDbLine
 10
-265.2079942150913
 20
-42.55723976658283
 30
0.0
 11
-265.2079942150913
 21
-42.51473976658282
 31
0.0
  0
LINE
  5
800
330
73D
100
AcDbEntity
  8
Vista
 62
     2
100
AcDbLine
 10
-265.2079942150914
 20
-42.51796536909266
 30
0.0
 11
-265.0999942150913
 21
-42.51796536909266
 31
0.0
  0
LINE
  5
801
330
73D
100
AcDbEntity
  8
Vista
 62
     3
100
AcDbLine
 10
-265.2079942150913
 20
-42.51473976658279
 30
0.0
 11
-265.0999942150913
 21
-42.51473976658284
 31
0.0
  0
LINE
  5
802
330
73D
100
AcDbEntity
  8
Vista
 62
     2
100
AcDbLine
 10
-265.2079942150913
 20
-42.52873976658283
 30
0.0
 11
-265.0999942150913
 21
-42.52873976658283
 31
0.0
  0
LINE
  5
803
330
73D
100
AcDbEntity
  8
Vista
 62
     2
100
AcDbLine
 10
-265.2079942150914
 20
-42.53147306509318
 30
0.0
 11
-265.0999942150913
 21
-42.53147306509318
 31
0.0
  0
LINE
  5
804
330
73D
100
AcDbEntity
  8
Vista
 62
     2
100
AcDbLine
 10
-265.2079942150913
 20
-42.53973976658282
 30
0.0
 11
-265.0999942150913
 21
-42.53973976658282
 31
0.0
  0
LINE
  5
805
330
73D
100
AcDbEntity
  8
Vista
 62
     2
100
AcDbLine
 10
-265.2079942150913
 20
-42.55319036467706
 30
0.0
 11
-265.0999942150913
 21
-42.55319036467709
 31
0.0
  0
LINE
  5
806
330
73D
100
AcDbEntity
  8
Vista
 62
     3
100
AcDbLine
 10
-265.2079942150913
 20
-42.55723976658283
 30
0.0
 11
-265.0999942150913
 21
-42.55723976658283
 31
0.0
  0
ENDBLK
  5
808
330
73D
100
AcDbEntity
  8
0
 62
     3
100
AcDbBlockEnd
  0
BLOCK
  5
B6F
330
B69
100
AcDbEntity
  8
0
 62
     3
100
AcDbBlockBegin
  2
A$C263D6B6A
 70
     0
 10
0.0
 20
0.0
 30
0.0
  3
A$C263D6B6A
  1

  0
HATCH
  5
B6A
330
B69
100
AcDbEntity
  8
Sezione
100
AcDbHatch
 10
0.0
 20
0.0
 30
0.0
210
0.0
220
0.0
230
1.0
  2
ANSI31
 70
     0
 71
     0
 91
        1
 92
        7
 72
     0
 73
     1
 93
        6
 10
0.0922667539244952
 20
0.0862807646728965
 10
-0.0000000665657739
 20
0.0862807646728965
 10
-0.0000000665657739
 20
0.0003091066906239
 10
0.0191316019951639
 20
0.0003091066906239
 10
0.0191316019951639
 20
0.0668219886661159
 10
0.0922667539244952
 20
0.0668219886661158
 97
        0
 75
     0
 76
     1
 52
0.0
 41
0.002
 77
     0
 78
     1
 53
45.0
 43
-0.0858288002254417
 44
-0.1359207187670848
 45
-0.0044901280605346
 46
0.0044901280605346
 79
     0
 47
0.0003507291251325
 98
        1
 10
0.0287510465309501
 20
0.0740124973428604
1001
ACAD
1010
0.0
1020
0.0
1030
0.0
  0
LINE
  5
B6B
330
B69
100
AcDbEntity
  8
Sezione
100
AcDbLine
 10
0.0191316019951639
 20
0.0000000122728271
 30
0.0
 11
0.0191316019951639
 21
0.0668219886661159
 31
0.0
  0
LINE
  5
B6C
330
B69
100
AcDbEntity
  8
Sezione
100
AcDbLine
 10
0.0191316019951639
 20
0.0668219886661159
 30
0.0
 11
0.0923266054750259
 21
0.0668219886661159
 31
0.0
  0
ENDBLK
  5
B70
330
B69
100
AcDbEntity
  8
0
 62
     3
100
AcDbBlockEnd
  0
BLOCK
  5
BFC
330
BFB
100
AcDbEntity
  8
0
100
AcDbBlockBegin
  2
*X10
 70
     1
 10
0.0
 20
0.0
 30
0.0
  3
*X10
  1

  0
LINE
  5
BFD
330
BFB
100
AcDbEntity
  8
0
 62
     0
100
AcDbLine
 10
486.460053877036
 20
124.0678285189305
 30
0.0
 11
503.5693156116774
 21
141.1770902535719
 31
0.0
  0
LINE
  5
BFE
330
BFB
100
AcDbEntity
  8
0
 62
     0
100
AcDbLine
 10
615.6341149734076
 20
253.2418896153022
 30
0.0
 11
629.3545087289434
 21
266.9622833708378
 31
0.0
  0
LINE
  5
BFF
330
BFB
100
AcDbEntity
  8
0
 62
     0
100
AcDbLine
 10
486.460053877036
 20
132.9066632837623
 30
0.0
 11
503.5693156116774
 21
150.0159250184037
 31
0.0
  0
LINE
  5
C00
330
BFB
100
AcDbEntity
  8
0
 62
     0
100
AcDbLine
 10
606.7952802085758
 20
253.2418896153022
 30
0.0
 11
620.5156739641116
 21
266.9622833708378
 31
0.0
  0
LINE
  5
C01
330
BFB
100
AcDbEntity
  8
0
 62
     0
100
AcDbLine
 10
486.460053877036
 20
141.7454980485942
 30
0.0
 11
503.5693156116774
 21
158.8547597832356
 31
0.0
  0
LINE
  5
C02
330
BFB
100
AcDbEntity
  8
0
 62
     0
100
AcDbLine
 10
597.9564454437441
 20
253.2418896153022
 30
0.0
 11
611.6768391992796
 21
266.9622833708378
 31
0.0
  0
LINE
  5
C03
330
BFB
100
AcDbEntity
  8
0
 62
     0
100
AcDbLine
 10
486.460053877036
 20
150.584332813426
 30
0.0
 11
503.5693156116774
 21
167.6935945480674
 31
0.0
  0
LINE
  5
C04
330
BFB
100
AcDbEntity
  8
0
 62
     0
100
AcDbLine
 10
589.1176106789122
 20
253.2418896153022
 30
0.0
 11
602.8380044344478
 21
266.9622833708378
 31
0.0
  0
LINE
  5
C05
330
BFB
100
AcDbEntity
  8
0
 62
     0
100
AcDbLine
 10
486.460053877036
 20
159.4231675782578
 30
0.0
 11
503.5693156116774
 21
176.5324293128992
 31
0.0
  0
LINE
  5
C06
330
BFB
100
AcDbEntity
  8
0
 62
     0
100
AcDbLine
 10
580.2787759140803
 20
253.2418896153022
 30
0.0
 11
593.999169669616
 21
266.9622833708378
 31
0.0
  0
LINE
  5
C07
330
BFB
100
AcDbEntity
  8
0
 62
     0
100
AcDbLine
 10
486.460053877036
 20
168.2620023430897
 30
0.0
 11
503.5693156116774
 21
185.3712640777311
 31
0.0
  0
LINE
  5
C08
330
BFB
100
AcDbEntity
  8
0
 62
     0
100
AcDbLine
 10
571.4399411492485
 20
253.2418896153022
 30
0.0
 11
585.1603349047841
 21
266.9622833708378
 31
0.0
  0
LINE
  5
C09
330
BFB
100
AcDbEntity
  8
0
 62
     0
100
AcDbLine
 10
486.460053877036
 20
177.1008371079215
 30
0.0
 11
503.5693156116773
 21
194.2100988425629
 31
0.0
  0
LINE
  5
C0A
330
BFB
100
AcDbEntity
  8
0
 62
     0
100
AcDbLine
 10
562.6011063844166
 20
253.2418896153022
 30
0.0
 11
576.3215001399522
 21
266.9622833708378
 31
0.0
  0
LINE
  5
C0B
330
BFB
100
AcDbEntity
  8
0
 62
     0
100
AcDbLine
 10
486.460053877036
 20
185.9396718727533
 30
0.0
 11
503.5693156116773
 21
203.0489336073947
 31
0.0
  0
LINE
  5
C0C
330
BFB
100
AcDbEntity
  8
0
 62
     0
100
AcDbLine
 10
553.7622716195848
 20
253.2418896153022
 30
0.0
 11
567.4826653751203
 21
266.9622833708378
 31
0.0
  0
LINE
  5
C0D
330
BFB
100
AcDbEntity
  8
0
 62
     0
100
AcDbLine
 10
486.4600538770359
 20
194.7785066375852
 30
0.0
 11
503.5693156116773
 21
211.8877683722266
 31
0.0
  0
LINE
  5
C0E
330
BFB
100
AcDbEntity
  8
0
 62
     0
100
AcDbLine
 10
544.9234368547529
 20
253.2418896153022
 30
0.0
 11
558.6438306102885
 21
266.9622833708378
 31
0.0
  0
LINE
  5
C0F
330
BFB
100
AcDbEntity
  8
0
 62
     0
100
AcDbLine
 10
486.4600538770359
 20
203.617341402417
 30
0.0
 11
503.5693156116773
 21
220.7266031370584
 31
0.0
  0
LINE
  5
C10
330
BFB
100
AcDbEntity
  8
0
 62
     0
100
AcDbLine
 10
536.084602089921
 20
253.2418896153022
 30
0.0
 11
549.8049958454567
 21
266.9622833708378
 31
0.0
  0
LINE
  5
C11
330
BFB
100
AcDbEntity
  8
0
 62
     0
100
AcDbLine
 10
486.4600538770359
 20
212.4561761672488
 30
0.0
 11
503.5693156116773
 21
229.5654379018902
 31
0.0
  0
LINE
  5
C12
330
BFB
100
AcDbEntity
  8
0
 62
     0
100
AcDbLine
 10
527.2457673250892
 20
253.2418896153022
 30
0.0
 11
540.9661610806248
 21
266.9622833708378
 31
0.0
  0
LINE
  5
C13
330
BFB
100
AcDbEntity
  8
0
 62
     0
100
AcDbLine
 10
486.4600538770359
 20
221.2950109320807
 30
0.0
 11
503.5693156116773
 21
238.4042726667221
 31
0.0
  0
LINE
  5
C14
330
BFB
100
AcDbEntity
  8
0
 62
     0
100
AcDbLine
 10
518.4069325602573
 20
253.2418896153022
 30
0.0
 11
532.1273263157929
 21
266.9622833708378
 31
0.0
  0
LINE
  5
C15
330
BFB
100
AcDbEntity
  8
0
 62
     0
100
AcDbLine
 10
486.4600538770359
 20
230.1338456969125
 30
0.0
 11
503.5693156116773
 21
247.2431074315539
 31
0.0
  0
LINE
  5
C16
330
BFB
100
AcDbEntity
  8
0
 62
     0
100
AcDbLine
 10
509.5680977954256
 20
253.2418896153021
 30
0.0
 11
523.2884915509611
 21
266.9622833708377
 31
0.0
  0
LINE
  5
C17
330
BFB
100
AcDbEntity
  8
0
 62
     0
100
AcDbLine
 10
486.4600538770359
 20
238.9726804617443
 30
0.0
 11
514.4496567861292
 21
266.9622833708377
 31
0.0
  0
LINE
  5
C18
330
BFB
100
AcDbEntity
  8
0
 62
     0
100
AcDbLine
 10
486.4600538770359
 20
247.8115152265762
 30
0.0
 11
505.6108220212975
 21
266.9622833708377
 31
0.0
  0
LINE
  5
C19
330
BFB
100
AcDbEntity
  8
0
 62
     0
100
AcDbLine
 10
486.4600538770359
 20
256.6503499914079
 30
0.0
 11
496.7719872564656
 21
266.9622833708377
 31
0.0
  0
LINE
  5
C1A
330
BFB
100
AcDbEntity
  8
0
 62
     0
100
AcDbLine
 10
486.4600538770358
 20
265.4891847562398
 30
0.0
 11
487.9331524916337
 21
266.9622833708377
 31
0.0
  0
LINE
  5
C1B
330
BFB
100
AcDbEntity
  8
0
 62
     0
100
AcDbLine
 10
494.0552738068973
 20
122.8242136839599
 30
0.0
 11
503.5693156116774
 21
132.3382554887401
 31
0.0
  0
LINE
  5
C1C
330
BFB
100
AcDbEntity
  8
0
 62
     0
100
AcDbLine
 10
624.4729497382395
 20
253.2418896153022
 30
0.0
 11
629.496054025455
 21
258.2649939025177
 31
0.0
  0
LINE
  5
C1D
330
BFB
100
AcDbEntity
  8
0
 62
     0
100
AcDbLine
 10
502.8941085717291
 20
122.8242136839599
 30
0.0
 11
503.5693156116775
 21
123.4994207239083
 31
0.0
  0
ENDBLK
  5
C1E
330
BFB
100
AcDbEntity
  8
0
100
AcDbBlockEnd
  0
BLOCK
  5
C24
330
C1F
100
AcDbEntity
  8
0
100
AcDbBlockBegin
  2
A$C6C65579B
 70
     0
 10
0.0
 20
0.0
 30
0.0
  3
A$C6C65579B
  1

  0
LINE
  5
C20
330
C1F
100
AcDbEntity
  8
CORTE
  6
RAYITAX4
 62
     4
100
AcDbLine
 10
-265.2537935691752
 20
-42.42682209115611
 30
0.0
 11
-265.2537935691752
 21
-42.55723976708748
 31
0.0
  0
LINE
  5
C21
330
C1F
100
AcDbEntity
  8
CORTE
  6
RAYITAX4
 62
     4
100
AcDbLine
 10
-265.2537935691752
 20
-42.42682209115611
 30
0.0
 11
-265.1278668307615
 21
-42.42682209115611
 31
0.0
  0
INSERT
  5
C22
330
C1F
100
AcDbEntity
  8
TRAMA
100
AcDbBlockReference
  2
*X10
 10
-265.7573628847869
 20
-42.68006398077142
 30
0.0
 41
0.0009999999999764
 42
0.0010000000000048
 43
0.001
1001
ACAD
1000
HATCH
1002
{
1070
    16
1000
ANSI31
1040
50.0
1040
0.0
1002
}
  0
LWPOLYLINE
  5
C23
330
C1F
100
AcDbEntity
  8
CORTE
  6
Continuous
 62
     1
100
AcDbPolyline
 90
       27
 70
     0
 43
0.0
 10
-265.2434935691752
 20
-42.52048009449487
 42
-0.1309515943895288
 10
-265.2396188804983
 20
-42.50227169263183
 42
-0.0391865213385924
 10
-265.2318861974755
 20
-42.48961463308666
 42
0.148047983309989
 10
-265.2273603786659
 20
-42.46536751056521
 42
-0.477131438324366
 10
-265.226266012113
 20
-42.46426334617865
 42
0.3174254686240992
 10
-265.2222487718652
 20
-42.46199398787246
 10
-265.2204935691752
 20
-42.45828353660647
 42
0.3390955557305459
 10
-265.2133594019252
 20
-42.45748275993213
 42
0.1067380655143518
 10
-265.2064935691752
 20
-42.44728353660645
 10
-265.2014935691752
 20
-42.44428353660646
 42
0.6316956553984646
 10
-265.1944935691752
 20
-42.44228353660645
 42
-0.4142135623730849
 10
-265.1884935691752
 20
-42.43628353660648
 10
-265.1804935691752
 20
-42.43628353660648
 42
0.4142135623730847
 10
-265.1784935691752
 20
-42.43428353660647
 10
-265.1784935691752
 20
-42.42728353660647
 10
-265.1984935691753
 20
-42.42728353660647
 10
-265.2184935691752
 20
-42.43928353660646
 10
-265.2222940706685
 20
-42.43961583728498
 42
0.2192482621402799
 10
-265.2266538493824
 20
-42.4421056036295
 10
-265.2379730166141
 20
-42.45795243775387
 42
0.1840335527349514
 10
-265.239055826335
 20
-42.46208505147598
 10
-265.2384935691752
 20
-42.46728353660649
 10
-265.2534935691752
 20
-42.5122835366065
 10
-265.2534935691752
 20
-42.53228353660648
 10
-265.2454935691752
 20
-42.53228353660648
 42
0.4142135623730847
 10
-265.2434935691752
 20
-42.53028353660647
 10
-265.2434935691752
 20
-42.51681234902133
  0
ENDBLK
  5
C25
330
C1F
100
AcDbEntity
  8
0
100
AcDbBlockEnd
  0
BLOCK
  5
FEC
330
FEB
100
AcDbEntity
  8
0
100
AcDbBlockBegin
  2
Z4
 70
     0
 10
0.0
 20
0.0
 30
0.0
  3
Z4
  1

  0
LINE
  5
10C1
330
FEB
100
AcDbEntity
  8
Vista
100
AcDbLine
 10
-0.0000013798916711
 20
0.0115999999867427
 30
0.0
 11
0.0210150918188106
 21
0.011600211399184
 31
0.0
1001
AcDbBlockRepETag
1070
     1
1071
        0
1005
10C1
  0
LINE
  5
10C2
330
FEB
100
AcDbEntity
  8
Vista
100
AcDbLine
 10
-0.0000012632029893
 20
-0.0000000000126761
 30
0.0
 11
0.0210152085074924
 21
0.0000002113997652
 31
0.0
1001
AcDbBlockRepETag
1070
     1
1071
        1
1005
10C2
  0
ARC
  5
10C3
330
FEB
100
AcDbEntity
  8
Vista
100
AcDbCircle
 10
0.0128448849221172
 20
0.0132154841897716
 30
0.0
 40
0.0140847949245492
100
AcDbArc
 50
210.8168847834205
 51
229.3422399532511
1001
AcDbBlockRepETag
1070
     1
1071
        2
1005
10C3
  0
ARC
  5
10C4
330
FEB
100
AcDbEntity
  8
Vista
100
AcDbCircle
 10
0.0104987367970466
 20
0.0104837643425242
 30
0.0
 40
0.0094838638854241
100
AcDbArc
 50
173.2406441673128
 51
270.0000000001934
1001
AcDbBlockRepETag
1070
     1
1071
        3
1005
10C4
  0
ARC
  5
10C5
330
FEB
100
AcDbEntity
  8
Vista
100
AcDbCircle
 10
0.0110245753859886
 20
0.0096688012202151
 30
0.0
 40
0.008684834291003
100
AcDbArc
 50
167.1518779515916
 51
266.5288030567311
1001
AcDbBlockRepETag
1070
     1
1071
        4
1005
10C5
  0
LINE
  5
10C6
330
FEB
100
AcDbEntity
  8
Vista
100
AcDbLine
 10
0.0021417852681793
 20
0.0059999004570841
 30
0.0
 11
0.0035422438405703
 21
0.0052595993301168
 31
0.0
1001
AcDbBlockRepETag
1070
     1
1071
        5
1005
10C6
  0
LWPOLYLINE
  5
10C7
330
FEB
100
AcDbEntity
  8
Vista
100
AcDbPolyline
 90
        6
 70
     0
 43
0.0
 10
-0.0000012632029893
 20
-0.0000000000126477
 42
0.1674163687838473
 10
0.0003641139388151
 20
0.0001254370196193
 42
-0.1204418495943024
 10
0.0035585668839531
 20
0.002205555161737
 42
1.087992653208241
 10
0.0035360325489933
 20
0.00256297800928
 42
0.0381093343277957
 10
0.000498736796942
 20
0.0022098778801194
 10
0.0011181350445213
 20
0.0116000112483619
1001
AcDbBlockRepETag
1070
     1
1071
        6
1005
10C7
  0
LINE
  5
10C8
330
FEB
100
AcDbEntity
  8
Vista
100
AcDbLine
 10
0.0007487367969929
 20
0.0022568144178194
 30
0.0
 11
0.0007487367969929
 21
0.0059999004570841
 31
0.0
1001
AcDbBlockRepETag
1070
     1
1071
        7
1005
10C8
  0
ARC
  5
10C9
330
FEB
100
AcDbEntity
  8
Vista
100
AcDbCircle
 10
0.0099728982081047
 20
0.0096688012202151
 30
0.0
 40
0.008684834291003
100
AcDbArc
 50
273.4711969436545
 51
12.84920570272593
1001
AcDbBlockRepETag
1070
     1
1071
        8
1005
10C9
  0
ARC
  5
10CA
330
FEB
100
AcDbEntity
  8
Vista
100
AcDbCircle
 10
0.0104987367970466
 20
0.0104837643425242
 30
0.0
 40
0.0094838638854241
100
AcDbArc
 50
270.0000000001923
 51
6.760508551422351
1001
AcDbBlockRepETag
1070
     1
1071
        9
1005
10CA
  0
ARC
  5
10CB
330
FEB
100
AcDbEntity
  8
Vista
100
AcDbCircle
 10
0.0104987367970466
 20
0.0104837643425242
 30
0.0
 40
0.0104838638854241
100
AcDbArc
 50
270.0000000001923
 51
310.6577600471345
1001
AcDbBlockRepETag
1070
     1
1071
       10
1005
10CB
  0
ARC
  5
10CC
330
FEB
100
AcDbEntity
  8
Vista
100
AcDbCircle
 10
0.0104987367970466
 20
0.0104837643425242
 30
0.0
 40
0.0104838638854241
100
AcDbArc
 50
229.3422399532511
 51
270.0000000001934
1001
AcDbBlockRepETag
1070
     1
1071
       11
1005
10CC
  0
LINE
  5
10CD
330
FEB
100
AcDbEntity
  8
Vista
100
AcDbLine
 10
0.0202487367969866
 20
0.0059999004571409
 30
0.0
 11
0.0204987367969807
 21
0.0022098778801762
 31
0.0
1001
AcDbBlockRepETag
1070
     1
1071
       12
1005
10CD
  0
LINE
  5
10CE
330
FEB
100
AcDbEntity
  8
Vista
100
AcDbLine
 10
0.0202487367969866
 20
0.0022568144178763
 30
0.0
 11
0.0202487367969866
 21
0.0116002036901364
 31
0.0
1001
AcDbBlockRepETag
1070
     1
1071
       13
1005
10CE
  0
ARC
  5
10CF
330
FEB
100
AcDbEntity
  8
Vista
100
AcDbCircle
 10
0.008152588671976
 20
0.0132154841897716
 30
0.0
 40
0.0140847949245492
100
AcDbArc
 50
310.6577600471345
 51
329.1831152169651
1001
AcDbBlockRepETag
1070
     1
1071
       14
1005
10CF
  0
ARC
  5
10D0
330
FEB
100
AcDbEntity
  8
Vista
100
AcDbCircle
 10
0.017435084485669
 20
0.0023852179221251
 30
0.0
 40
0.0001797034135256
100
AcDbArc
 50
81.56617699754743
 51
271.2187516830706
1001
AcDbBlockRepETag
1070
     1
1071
       15
1005
10D0
  0
ARC
  5
10D1
330
FEB
100
AcDbEntity
  8
Vista
100
AcDbCircle
 10
0.0147810850871792
 20
-0.0053690130053781
 30
0.0
 40
0.0080273344703467
100
AcDbArc
 50
43.23100722392323
 51
70.66466339396645
1001
AcDbBlockRepETag
1070
     1
1071
       16
1005
10D1
  0
ARC
  5
10D2
330
FEB
100
AcDbEntity
  8
Vista
100
AcDbCircle
 10
0.0166670905408637
 20
-0.0175095153721543
 30
0.0
 40
0.0200882050784421
100
AcDbArc
 50
79.00396312718872
 51
87.73375467656311
1001
AcDbBlockRepETag
1070
     1
1071
       17
1005
10D2
  0
ARC
  5
10D3
330
FEB
100
AcDbEntity
  8
Vista
100
AcDbCircle
 10
0.0209993624462754
 20
0.0005930374113916
 30
0.0
 40
0.0005930377539629
100
AcDbArc
 50
231.4503103357746
 51
271.531134397806
1001
AcDbBlockRepETag
1070
     1
1071
       18
1005
10D3
  0
LINE
  5
10D4
330
FEB
100
AcDbEntity
  8
Vista
100
AcDbLine
 10
0.0188556883257434
 20
0.0059999004571409
 30
0.0
 11
0.0174552297534092
 21
0.0052595993301736
 31
0.0
1001
AcDbBlockRepETag
1070
     1
1071
       19
1005
10D4
  0
ENDBLK
  5
1001
330
FEB
100
AcDbEntity
  8
0
100
AcDbBlockEnd
  0
BLOCK
  5
19A5
330
199A
100
AcDbEntity
  8
0
100
AcDbBlockBegin
  2
*D17
 70
     1
 10
0.0
 20
0.0
 30
0.0
  3
*D17
  1

  0
LINE
  5
19A8
330
199A
100
AcDbEntity
  8
Dimensione
 62
     5
370
    -2
100
AcDbLine
 10
0.0713042988132395
 20
0.1520728013937699
 30
0.0
 11
0.0713042988132395
 21
0.1277166780135135
 31
0.0
  0
LINE
  5
19A9
330
199A
100
AcDbEntity
  8
Dimensione
 62
     5
370
    -2
100
AcDbLine
 10
0.1147390669463641
 20
0.1923077978687771
 30
0.0
 11
0.1147390669463641
 21
0.1277166780135135
 31
0.0
  0
LINE
  5
19AA
330
199A
100
AcDbEntity
  8
Dimensione
 62
     5
370
    -2
100
AcDbLine
 10
0.0713042988132395
 20
0.1278966780135136
 30
0.0
 11
0.0828788257369446
 21
0.1278966780135136
 31
0.0
  0
LINE
  5
19AB
330
199A
100
AcDbEntity
  8
Dimensione
 62
     5
370
    -2
100
AcDbLine
 10
0.1147390669463641
 20
0.1278966780135136
 30
0.0
 11
0.1031645400226589
 21
0.1278966780135136
 31
0.0
  0
INSERT
  5
19AC
330
199A
100
AcDbEntity
  8
Dimensione
 62
     5
370
    -2
100
AcDbBlockReference
  2
_ArchTick
 10
0.0713042988132395
 20
0.1278966780135136
 30
0.0
 41
0.0015
 42
0.0015
 43
0.0015
 50
180.0
  0
INSERT
  5
19AD
330
199A
100
AcDbEntity
  8
Dimensione
 62
     5
370
    -2
100
AcDbBlockReference
  2
_ArchTick
 10
0.1147390669463641
 20
0.1278966780135136
 30
0.0
 41
0.0015
 42
0.0015
 43
0.0015
  0
MTEXT
  5
19AE
330
199A
100
AcDbEntity
  8
Dimensione
 62
     4
100
AcDbMText
 10
0.0930216828798018
 20
0.1278966780135136
 30
0.0
 40
0.003
 41
0.0
 71
     5
 72
     1
  1
\A1;90 mm
  7
ROMANS
 73
     1
 44
1.0
1001
ACAD
1000
MTEXTBEGIN
1070
    73
1070
     1
1070
    44
1040
1.0
1070
    74
1070
     0
1000
MTEXTEND
  0
POINT
  5
19AF
330
199A
100
AcDbEntity
  8
Defpoints
 62
     0
100
AcDbPoint
 10
0.0713042988132395
 20
0.1521353013937698
 30
0.0
  0
POINT
  5
19B0
330
199A
100
AcDbEntity
  8
Defpoints
 62
     0
100
AcDbPoint
 10
0.1147390669463641
 20
0.1923702978687771
 30
0.0
  0
POINT
  5
19B1
330
199A
100
AcDbEntity
  8
Defpoints
 62
     0
100
AcDbPoint
 10
0.1147390669463641
 20
0.1278966780135136
 30
0.0
  0
ENDBLK
  5
19A6
330
199A
100
AcDbEntity
  8
0
100
AcDbBlockEnd
  0
BLOCK
  5
19BF
330
19B4
100
AcDbEntity
  8
0
100
AcDbBlockBegin
  2
*D18
 70
     1
 10
0.0
 20
0.0
 30
0.0
  3
*D18
  1

  0
LINE
  5
19C2
330
19B4
100
AcDbEntity
  8
Dimensione
 62
     5
370
    -2
100
AcDbLine
 10
0.0754854223735842
 20
0.1521353013937698
 30
0.0
 11
0.1512034165872077
 21
0.1521353013937698
 31
0.0
  0
LINE
  5
19C3
330
19B4
100
AcDbEntity
  8
Dimensione
 62
     5
370
    -2
100
AcDbLine
 10
0.1148015669463641
 20
0.197172792675147
 30
0.0
 11
0.1512034165872078
 21
0.197172792675147
 31
0.0
  0
LINE
  5
19C4
330
19B4
100
AcDbEntity
  8
Dimensione
 62
     5
370
    -2
100
AcDbLine
 10
0.1510234165872077
 20
0.1521353013937698
 30
0.0
 11
0.1510234165872077
 21
0.1711540470344584
 31
0.0
  0
LINE
  5
19C5
330
19B4
100
AcDbEntity
  8
Dimensione
 62
     5
370
    -2
100
AcDbLine
 10
0.1510234165872078
 20
0.197172792675147
 30
0.0
 11
0.1510234165872077
 21
0.1781540470344584
 31
0.0
  0
INSERT
  5
19C6
330
19B4
100
AcDbEntity
  8
Dimensione
 62
     5
370
    -2
100
AcDbBlockReference
  2
_ArchTick
 10
0.1510234165872077
 20
0.1521353013937698
 30
0.0
 41
0.0015
 42
0.0015
 43
0.0015
 50
270.0
  0
INSERT
  5
19C7
330
19B4
100
AcDbEntity
  8
Dimensione
 62
     5
370
    -2
100
AcDbBlockReference
  2
_ArchTick
 10
0.1510234165872078
 20
0.197172792675147
 30
0.0
 41
0.0015
 42
0.0015
 43
0.0015
 50
90.0
  0
MTEXT
  5
19C8
330
19B4
100
AcDbEntity
  8
Dimensione
 62
     4
100
AcDbMText
 10
0.1510234165872077
 20
0.1746540470344584
 30
0.0
 40
0.003
 41
0.0
 71
     5
 72
     1
  1
\A1;90 mm
  7
ROMANS
 73
     1
 44
1.0
1001
ACAD
1000
MTEXTBEGIN
1070
    73
1070
     1
1070
    44
1040
1.0
1070
    74
1070
     0
1000
MTEXTEND
  0
POINT
  5
19C9
330
19B4
100
AcDbEntity
  8
Defpoints
 62
     0
100
AcDbPoint
 10
0.0754229223735842
 20
0.1521353013937698
 30
0.0
  0
POINT
  5
19CA
330
19B4
100
AcDbEntity
  8
Defpoints
 62
     0
100
AcDbPoint
 10
0.1147390669463641
 20
0.197172792675147
 30
0.0
  0
POINT
  5
19CB
330
19B4
100
AcDbEntity
  8
Defpoints
 62
     0
100
AcDbPoint
 10
0.1510234165872078
 20
0.197172792675147
 30
0.0
  0
ENDBLK
  5
19C0
330
19B4
100
AcDbEntity
  8
0
100
AcDbBlockEnd
  0
BLOCK
  5
1D31
330
1D26
100
AcDbEntity
  8
0
100
AcDbBlockBegin
  2
*D22
 70
     1
 10
0.0
 20
0.0
 30
0.0
  3
*D22
  1

  0
LINE
  5
1D59
330
1D26
100
AcDbEntity
  8
Dimensione
 62
     5
370
    -2
100
AcDbLine
 10
0.0723633544440202
 20
0.13578953143773
 30
0.0
 11
0.1503287284598786
 21
0.13578953143773
 31
0.0
  0
LINE
  5
1D5A
330
1D26
100
AcDbEntity
  8
Dimensione
 62
     5
370
    -2
100
AcDbLine
 10
0.1325991540514463
 20
0.2057895314377515
 30
0.0
 11
0.1503287284598786
 21
0.2057895314377515
 31
0.0
  0
LINE
  5
1D5B
330
1D26
100
AcDbEntity
  8
Dimensione
 62
     5
370
    -2
100
AcDbLine
 10
0.1501487284598786
 20
0.13578953143773
 30
0.0
 11
0.1501487284598786
 21
0.1672895314377407
 31
0.0
  0
LINE
  5
1D5C
330
1D26
100
AcDbEntity
  8
Dimensione
 62
     5
370
    -2
100
AcDbLine
 10
0.1501487284598786
 20
0.2057895314377515
 30
0.0
 11
0.1501487284598786
 21
0.1742895314377407
 31
0.0
  0
INSERT
  5
1D5D
330
1D26
100
AcDbEntity
  8
Dimensione
 62
     5
370
    -2
100
AcDbBlockReference
  2
_ArchTick
 10
0.1501487284598786
 20
0.13578953143773
 30
0.0
 41
0.0015
 42
0.0015
 43
0.0015
 50
270.0
  0
INSERT
  5
1D5E
330
1D26
100
AcDbEntity
  8
Dimensione
 62
     5
370
    -2
100
AcDbBlockReference
  2
_ArchTick
 10
0.1501487284598786
 20
0.2057895314377515
 30
0.0
 41
0.0015
 42
0.0015
 43
0.0015
 50
90.0
  0
MTEXT
  5
1D5F
330
1D26
100
AcDbEntity
  8
Dimensione
 62
     4
100
AcDbMText
 10
0.1501487284598786
 20
0.1707895314377408
 30
0.0
 40
0.003
 41
0.0
 71
     5
 72
     1
  1
\A1;70 mm
  7
ROMANS
 73
     1
 44
1.0
1001
ACAD
1000
MTEXTBEGIN
1070
    73
1070
     1
1070
    44
1040
1.0
1070
    74
1070
     0
1000
MTEXTEND
  0
POINT
  5
1D60
330
1D26
100
AcDbEntity
  8
Defpoints
 62
     0
100
AcDbPoint
 10
0.0723008544440202
 20
0.13578953143773
 30
0.0
  0
POINT
  5
1D61
330
1D26
100
AcDbEntity
  8
Defpoints
 62
     0
100
AcDbPoint
 10
0.1325366540514463
 20
0.2057895314377515
 30
0.0
  0
POINT
  5
1D62
330
1D26
100
AcDbEntity
  8
Defpoints
 62
     0
100
AcDbPoint
 10
0.1501487284598786
 20
0.2057895314377515
 30
0.0
  0
ENDBLK
  5
1D32
330
1D26
100
AcDbEntity
  8
0
100
AcDbBlockEnd
  0
BLOCK
  5
1D4B
330
1D40
100
AcDbEntity
  8
0
100
AcDbBlockBegin
  2
*D23
 70
     1
 10
0.0
 20
0.0
 30
0.0
  3
*D23
  1

  0
LINE
  5
1D4E
330
1D40
100
AcDbEntity
  8
Dimensione
 62
     5
370
    -2
100
AcDbLine
 10
0.1325366540514463
 20
0.1966557808001053
 30
0.0
 11
0.1325366540514463
 21
0.1148595767869226
 31
0.0
  0
LINE
  5
1D4F
330
1D40
100
AcDbEntity
  8
Dimensione
 62
     5
370
    -2
100
AcDbLine
 10
0.0625991540514531
 20
0.13572703143773
 30
0.0
 11
0.0625991540514531
 21
0.1148595767869226
 31
0.0
  0
LINE
  5
1D50
330
1D40
100
AcDbEntity
  8
Dimensione
 62
     5
370
    -2
100
AcDbLine
 10
0.1325366540514463
 20
0.1150395767869226
 30
0.0
 11
0.1077107611943068
 21
0.1150395767869226
 31
0.0
  0
LINE
  5
1D51
330
1D40
100
AcDbEntity
  8
Dimensione
 62
     5
370
    -2
100
AcDbLine
 10
0.0625991540514531
 20
0.1150395767869226
 30
0.0
 11
0.0874250469085926
 21
0.1150395767869226
 31
0.0
  0
INSERT
  5
1D52
330
1D40
100
AcDbEntity
  8
Dimensione
 62
     5
370
    -2
100
AcDbBlockReference
  2
_ArchTick
 10
0.1325366540514463
 20
0.1150395767869226
 30
0.0
 41
0.0015
 42
0.0015
 43
0.0015
  0
INSERT
  5
1D53
330
1D40
100
AcDbEntity
  8
Dimensione
 62
     5
370
    -2
100
AcDbBlockReference
  2
_ArchTick
 10
0.0625991540514531
 20
0.1150395767869226
 30
0.0
 41
0.0015
 42
0.0015
 43
0.0015
 50
180.0
  0
MTEXT
  5
1D54
330
1D40
100
AcDbEntity
  8
Dimensione
 62
     4
100
AcDbMText
 10
0.0975679040514497
 20
0.1150395767869226
 30
0.0
 40
0.003
 41
0.0
 71
     5
 72
     1
  1
\A1;70 mm
  7
ROMANS
 73
     1
 44
1.0
1001
ACAD
1000
MTEXTBEGIN
1070
    73
1070
     1
1070
    44
1040
1.0
1070
    74
1070
     0
1000
MTEXTEND
  0
POINT
  5
1D55
330
1D40
100
AcDbEntity
  8
Defpoints
 62
     0
100
AcDbPoint
 10
0.1325366540514463
 20
0.1967182808001053
 30
0.0
  0
POINT
  5
1D56
330
1D40
100
AcDbEntity
  8
Defpoints
 62
     0
100
AcDbPoint
 10
0.0625991540514531
 20
0.13578953143773
 30
0.0
  0
POINT
  5
1D57
330
1D40
100
AcDbEntity
  8
Defpoints
 62
     0
100
AcDbPoint
 10
0.0625991540514531
 20
0.1150395767869226
 30
0.0
  0
ENDBLK
  5
1D4C
330
1D40
100
AcDbEntity
  8
0
100
AcDbBlockEnd
  0
ENDSEC
  0
SECTION
  2
ENTITIES
  0
LINE
  5
D
330
2
100
AcDbEntity
  8
Table
100
AcDbLine
 10
0.02
 20
0.02
 30
0.0
 11
0.4
 21
0.02
 31
0.0
  0
LINE
  5
10
330
2
100
AcDbEntity
  8
Table
100
AcDbLine
 10
0.4
 20
0.02
 30
0.0
 11
0.4
 21
0.2769999999999999
 31
0.0
  0
LINE
  5
11
330
2
100
AcDbEntity
  8
Table
100
AcDbLine
 10
0.4
 20
0.2769999999999999
 30
0.0
 11
0.02
 21
0.277
 31
0.0
  0
LINE
  5
12
330
2
100
AcDbEntity
  8
Table
100
AcDbLine
 10
0.02
 20
0.277
 30
0.0
 11
0.02
 21
0.02
 31
0.0
  0
LINE
  5
13
330
2
100
AcDbEntity
  8
Table
 62
     2
100
AcDbLine
 10
0.015
 20
0.015
 30
0.0
 11
0.4050000000000001
 21
0.015
 31
0.0
  0
LINE
  5
14
330
2
100
AcDbEntity
  8
Table
 62
     2
100
AcDbLine
 10
0.4050000000000001
 20
0.015
 30
0.0
 11
0.4050000000000001
 21
0.2819999999999998
 31
0.0
  0
LINE
  5
15
330
2
100
AcDbEntity
  8
Table
 62
     2
100
AcDbLine
 10
0.4050000000000001
 20
0.2819999999999998
 30
0.0
 11
0.0149999999999999
 21
0.282
 31
0.0
  0
LINE
  5
16
330
2
100
AcDbEntity
  8
Table
 62
     2
100
AcDbLine
 10
0.0149999999999999
 20
0.282
 30
0.0
 11
0.015
 21
0.015
 31
0.0
  0
LINE
  5
17
330
2
100
AcDbEntity
  8
Table
100
AcDbLine
 10
0.21
 20
0.2769999999999999
 30
0.0
 11
0.21
 21
0.2532994226089223
 31
0.0
  0
LINE
  5
1D
330
2
100
AcDbEntity
  8
Table
100
AcDbLine
 10
0.02
 20
0.0528099428524846
 30
0.0
 11
0.4
 21
0.0528099428524846
 31
0.0
  0
MTEXT
  5
1E
330
2
100
AcDbEntity
  8
Text
100
AcDbMText
 10
0.1133313047219695
 20
0.2610796890771976
 30
0.0
 40
0.003
 41
0.1103605678262056
 71
     2
 72
     5
  1
{\fTimes New Roman|b0|i0|c0|p18;Le cornici estruse per soffitti \fTimes New Roman|b0|i1|c0|p18;      Extruded ceilings moulding}
 73
     1
 44
1.0
1001
ACAD
1000
ACAD_MTEXT_DEFINED_HEIGHT_BEGIN
1070
    46
1040
0.0141952763113409
1000
ACAD_MTEXT_DEFINED_HEIGHT_END
1000
MTEXTBEGIN
1070
    73
1070
     1
1070
    44
1040
1.0
1070
    74
1070
     0
1000
MTEXTEND
  0
TEXT
  5
1F
330
2
100
AcDbEntity
  8
Text
100
AcDbText
 10
0.2180556919891047
 20
0.269976982173197
 30
0.0
 40
0.003
  1
Cornice - Moulding : H 70 x 70 mm
  7
ROMANS
100
AcDbText
  0
TEXT
  5
21
330
2
100
AcDbEntity
  8
Text
100
AcDbText
 10
0.2184542410678115
 20
0.2576348370183962
 30
0.0
 40
0.003
  1
File : E - R1L
  7
ROMANS
100
AcDbText
  0
LINE
  5
22
330
2
100
AcDbEntity
  8
Table
100
AcDbLine
 10
0.4
 20
0.2654452889427402
 30
0.0
 11
0.02
 21
0.2654452889427403
 31
0.0
  0
LINE
  5
23
330
2
100
AcDbEntity
  8
Table
100
AcDbLine
 10
0.4
 20
0.2532994226089223
 30
0.0
 11
0.02
 21
0.2532994226089225
 31
0.0
  0
LINE
  5
24
330
2
100
AcDbEntity
  8
Table
100
AcDbLine
 10
0.21
 20
0.0528099428524846
 30
0.0
 11
0.21
 21
0.02
 31
0.0
  0
TEXT
  5
25
330
2
100
AcDbEntity
  8
Text
100
AcDbText
 10
0.0947789320547719
 20
0.2687784133392506
 30
0.0
 40
0.005
  1
EUROSTYL
  7
style1
 72
     1
 11
0.1140561490699125
 21
0.2687784133392506
 31
0.0
100
AcDbText
  0
TEXT
  5
27
330
2
100
AcDbEntity
  8
Text
100
AcDbText
 10
0.3415396129227681
 20
0.1536989643537565
 30
0.0
 40
0.005
  1
scala 1:2
  7
Arial
100
AcDbText
  0
MTEXT
  5
10F
102
{ACAD_XDICTIONARY
360
1D71
102
}
330
2
100
AcDbEntity
  8
Text
100
AcDbMText
 10
0.305
 20
0.0471738284815141
 30
0.0
 40
0.005
 41
0.1900000000000001
 71
     2
 72
     5
  3
{\fTimes New Roman|b0|i0|c238|p18;\H1.6x;\C4;Bovelacci\P\H0.4375x;\T0.95;via del Commercio, 5  47100 Forli - Italy  \fTimes New Roman|b0|i0|c0|p18;\P\fTimes New Roman|b0|i0|c238|p18;tel.+39-0543721386  fax +39-0543721127\fTimes New Roman|b0|i0|c0|p18
  1
; \fTimes New Roman|b0|i0|c238|p18;www.bovelacci.it\fTimes New Roman|b0|i0|c0|p18; \fTimes New Roman|b0|i0|c238|p18;e-mail: bovelacci@bovelacci\fTimes New Roman|b0|i0|c0|p18;.it}
 73
     1
 44
1.0
1001
ACAD
1000
ACAD_MTEXT_DEFINED_HEIGHT_BEGIN
1070
    46
1040
0.0271738284815141
1000
ACAD_MTEXT_DEFINED_HEIGHT_END
1000
MTEXTBEGIN
1070
    73
1070
     1
1070
    44
1040
1.0
1070
    74
1070
     0
1000
MTEXTEND
  0
MTEXT
  5
110
330
2
100
AcDbEntity
  8
Text
100
AcDbMText
 10
0.0219676065851835
 20
0.0500313976452307
 30
0.0
 40
0.002
 41
0.1863544980601608
 71
     1
 72
     5
  3
{\fArial|b0|i0|c0|p34;\H1.25x;Le caratteristiche tecniche indicate vengono fornite a titolo indicativo e potranno essere modificate senza preavviso. Non devono quindi essere considerate a scopo di specifica.\P\fArial|b0|i1|c0|p34;The given values are
  3
 indicative and can be changed without notice. They cannot be considered like a state.\PThis lealfet and designs embodied within are protected by copyright law and international treaties. Unauthorized repro- duction of the leaflet or any portion of i
  1
t or reproduction of any of the designs embodied therein may result in severe civil penalties and will be prosecuted to the maximum.\PAll right reserved, Bovelacci Forlì Italy.}
 73
     1
 44
1.0
1001
ACAD
1000
MTEXTBEGIN
1070
    73
1070
     1
1070
    44
1040
1.0
1070
    74
1070
     0
1000
MTEXTEND
  0
TEXT
  5
1CA
330
2
100
AcDbEntity
  8
Text
100
AcDbText
 10
0.0879440355147445
 20
0.0872746169537983
 30
0.0
 40
0.005
  1
scala 1:1
  7
Arial
100
AcDbText
  0
HATCH
  5
11A4
330
2
100
AcDbEntity
  8
Sezione
100
AcDbHatch
 10
0.0
 20
0.0
 30
0.0
210
0.0
220
0.0
230
1.0
  2
ANSI31
 70
     0
 71
     0
 91
        1
 92
        7
 72
     0
 73
     1
 93
        6
 10
0.1348038242832242
 20
0.2260608835050248
 10
0.0425370037929552
 20
0.2260608835050247
 10
0.0425370037929552
 20
0.1400892255227522
 10
0.061668672353893
 20
0.1400892255227522
 10
0.061668672353893
 20
0.2066021074982441
 10
0.1348038242832242
 20
0.2066021074982441
 97
        0
 75
     0
 76
     1
 52
0.0
 41
0.002
 77
     0
 78
     1
 53
45.0
 43
-0.0432917298667126
 44
0.0038594000650435
 45
-0.0044901280605346
 46
0.0044901280605346
 79
     0
 47
0.0003507291251325
 98
        1
 10
0.0712881168896792
 20
0.2137926161749887
1001
ACAD
1010
0.0
1020
0.0
1030
0.0
  0
LINE
  5
11A5
330
2
100
AcDbEntity
  8
Sezione
100
AcDbLine
 10
0.061668672353893
 20
0.1397801311049553
 30
0.0
 11
0.061668672353893
 21
0.2066021074982441
 31
0.0
  0
LINE
  5
11A6
330
2
100
AcDbEntity
  8
Sezione
100
AcDbLine
 10
0.061668672353893
 20
0.2066021074982441
 30
0.0
 11
0.134863675833755
 21
0.2066021074982441
 31
0.0
  0
LWPOLYLINE
  5
19F0
102
{ACAD_REACTORS
330
1D58
330
1D3E
102
}
330
2
100
AcDbEntity
  8
Profilo
370
     0
100
AcDbPolyline
 90
       18
 70
   129
 43
0.0
 10
0.0625366540514531
 20
0.13578953143773
 10
0.0723008544440202
 20
0.13578953143773
 10
0.0723008544440202
 20
0.1422498194267019
 10
0.0803316004875936
 20
0.1471652311049423
 10
0.0827904421135171
 20
0.1489207341779843
 10
0.0843125808472078
 20
0.1519636068542878
 10
0.08866412411771
 20
0.1519636068542878
 42
-0.5067626992655868
 10
0.1223660927643064
 20
0.1816901308513718
 42
0.8323767306031847
 10
0.1239040413476542
 20
0.1858972870200899
 42
-0.5711565515501525
 10
0.1239040413476542
 20
0.1874036542555826
 42
0.4291839944521223
 10
0.1243323175384003
 20
0.1905678891763569
 42
-0.5111514914812561
 10
0.1309634224632501
 20
0.1967182808001053
 10
0.1325366540514463
 20
0.1967182808001053
 10
0.1325366540514463
 20
0.2057895314377515
 10
0.1087125861642133
 20
0.2057895314377516
 10
0.1087125861642133
 20
0.199561471856988
 10
0.069538270389327
 20
0.1588431786007971
 10
0.0625366540514531
 20
0.1588431786007971
  0
LWPOLYLINE
  5
1B75
330
2
100
AcDbEntity
  8
Vista
370
     0
100
AcDbPolyline
 90
       32
 70
   128
 43
0.0
 10
0.1794723253223757
 20
0.0922507115159223
 10
0.1795662977427794
 20
0.0922663662922213
 10
0.180409770232947
 20
0.0924609244183751
 10
0.1804746527321923
 20
0.0916826935966876
 10
0.1795014152435341
 20
0.0908396111882292
 10
0.1793716502450435
 20
0.0894777059880804
 10
0.1800853577367276
 20
0.0883103605970058
 10
0.1815776578220307
 20
0.087791539488236
 10
0.1830050728053989
 20
0.087791539488236
 10
0.183589017901282
 20
0.0875969813620822
 10
0.1833344928802829
 20
0.0860468879139654
 10
0.1838535528742311
 20
0.0837640767183098
 10
0.1861585225944522
 20
0.0828828305773181
 10
0.1882948457061657
 20
0.0826662025482458
 10
0.1907098155847591
 20
0.0831613516077278
 10
0.1917432741519802
 20
0.0850092473793533
 10
0.1915356496338616
 20
0.0872920568920813
 10
0.1938195167304839
 20
0.0873958211138367
 10
0.1959995728693811
 20
0.0874995853355921
 10
0.1966224464237369
 20
0.0883296991096211
 10
0.1968300683391659
 20
0.0900936875135793
 10
0.1962071973874997
 20
0.0914426223963782
 10
0.1957919483512625
 20
0.0923764987092349
 10
0.1961033838270991
 20
0.0936216676873579
 10
0.1976589189078537
 20
0.0930734004072201
 10
0.1997145950172181
 20
0.0921487734604151
 10
0.2011535711567289
 20
0.0924569813207294
 10
0.2015647053375231
 20
0.0941007633074657
 10
0.200948002764987
 20
0.0962582267443105
 10
0.1993034608364168
 20
0.0973883272809241
 10
0.197864484696906
 20
0.0981074806379207
 10
0.1964255111600777
 20
0.0993403171279676
  0
LWPOLYLINE
  5
1B77
330
2
100
AcDbEntity
  8
Vista
370
     0
100
AcDbPolyline
 90
        2
 70
   128
 43
0.0
 10
0.1813573694543285
 20
0.0949549328380975
 10
0.1822413337728206
 20
0.0953335997975126
  0
LWPOLYLINE
  5
1B78
330
2
100
AcDbEntity
  8
Vista
370
     0
100
AcDbPolyline
 90
        6
 70
   128
 43
0.0
 10
0.180905143130522
 20
0.0898885740701227
 10
0.1833719586260669
 20
0.0911214088772491
 10
0.1851192834491597
 20
0.0926624549105378
 10
0.1867638253777228
 20
0.0941007633074657
 10
0.1871749621612138
 20
0.0959500172010687
 10
0.1871749621612138
 20
0.0989293716312853
  0
LWPOLYLINE
  5
1B79
330
2
100
AcDbEntity
  8
Vista
370
     0
100
AcDbPolyline
 90
        6
 70
   128
 43
0.0
 10
0.1818301995920193
 20
0.089272154983639
 10
0.1841942295903449
 20
0.0907104633805668
 10
0.1857359860216958
 20
0.0924569813207294
 10
0.1871749621612138
 20
0.0935870818573429
 10
0.1877916647337499
 20
0.0960527548374367
 10
0.1879972331254989
 20
0.0986211620880434
  0
LWPOLYLINE
  5
1B7A
330
2
100
AcDbEntity
  8
Vista
370
     0
100
AcDbPolyline
 90
        4
 70
   128
 43
0.0
 10
0.194267049553501
 20
0.0896831004803213
 10
0.1909779656963606
 20
0.0927651908639783
 10
0.189641775054062
 20
0.0947171823939494
 10
0.1895389895568498
 20
0.098312954227722
  0
LWPOLYLINE
  5
1B7B
330
2
100
AcDbEntity
  8
Vista
370
     0
100
AcDbPolyline
 90
        5
 70
   128
 43
0.0
 10
0.1935475614837385
 20
0.089272154983639
 10
0.1910807485908903
 20
0.0914296184204909
 10
0.1894362066623201
 20
0.0935870818573429
 10
0.188613935698035
 20
0.0958472812476282
 10
0.188613935698035
 20
0.0980047446844802
  0
LWPOLYLINE
  5
1B7C
330
2
100
AcDbEntity
  8
Vista
370
     0
100
AcDbPolyline
 90
        3
 70
   128
 43
0.0
 10
0.1847081492683584
 20
0.0864982741432309
 10
0.1864554740914583
 20
0.0880393184935921
 10
0.1872777450557363
 20
0.0909159369703682
  0
LWPOLYLINE
  5
1B7D
330
2
100
AcDbEntity
  8
Vista
370
     0
100
AcDbPolyline
 90
        4
 70
   128
 43
0.0
 10
0.1852220663436823
 20
0.0854709112429854
 10
0.1866610424832003
 20
0.0870119555933465
 10
0.187380527950266
 20
0.0883475280368339
 10
0.1874833134474854
 20
0.0900940459770036
  0
LWPOLYLINE
  5
1B7E
330
2
100
AcDbEntity
  8
Vista
370
     0
100
AcDbPolyline
 90
        3
 70
   128
 43
0.0
 10
0.1882028015172408
 20
0.08403260116313
 10
0.1878944476282796
 20
0.0864982741432309
 10
0.1878944476282796
 20
0.0887584735335162
  0
LWPOLYLINE
  5
1B7F
330
2
100
AcDbEntity
  8
Vista
370
     0
100
AcDbPolyline
 90
        3
 70
   128
 43
0.0
 10
0.1889222869843066
 20
0.0841353371165704
 10
0.1884083673062931
 20
0.0876283729969098
 10
0.1884083673062931
 20
0.090299519566805
  0
LWPOLYLINE
  5
1B80
330
2
100
AcDbEntity
  8
Vista
370
     0
100
AcDbPolyline
 90
       26
 70
   128
 43
0.0
 10
0.2001352222965587
 20
0.0845761359677933
 10
0.1994247202387085
 20
0.0857705025177461
 10
0.1994247202387085
 20
0.0872112343293589
 10
0.1999292103650048
 20
0.0879316010766326
 10
0.1996409284337715
 20
0.0886519661409716
 10
0.1996409284337715
 20
0.0900926996355119
 10
0.2008661194841166
 20
0.0911012120719329
 10
0.2018750971340195
 20
0.0911012120719329
 10
0.2023795872603158
 20
0.0919656525052369
 10
0.202812008855821
 20
0.0933343483152948
 10
0.2041813369677483
 20
0.0938386036920415
 10
0.2053344568846127
 20
0.0936224940044491
 10
0.2059830866751808
 20
0.0921817621928364
 10
0.2059110155417001
 20
0.0908851023843335
 10
0.2067037849965401
 20
0.0911732480734878
 10
0.2080010445776763
 20
0.091029176070378
 10
0.20828932390622
 20
0.0904528830091488
 10
0.2075686255848608
 20
0.0891562232006459
 10
0.2082172553754289
 20
0.0892282592022008
 10
0.2087217455017252
 20
0.0884358564533793
 10
0.2084334661731815
 20
0.0868510509557291
 10
0.20908209336106
 20
0.0869230886402116
 10
0.2094424438230844
 20
0.0865629052665748
 10
0.2094424438230844
 20
0.0854103191441164
 10
0.2086587074983484
 20
0.0847226040049476
 10
0.2081946770885754
 20
0.0845029026307101
  0
LWPOLYLINE
  5
1B81
330
2
100
AcDbEntity
  8
Vista
370
     0
100
AcDbPolyline
 90
        2
 70
   128
 43
0.0
 10
0.2056948073466371
 20
0.0886519661409716
 10
0.2071362065920452
 20
0.0902367733215494
  0
LWPOLYLINE
  5
1B82
330
2
100
AcDbEntity
  8
Vista
370
     0
100
AcDbPolyline
 90
        2
 70
   128
 43
0.0
 10
0.2056948073466371
 20
0.0893002968866833
 10
0.2067758561300208
 20
0.0904528830091488
  0
LWPOLYLINE
  5
1B83
330
2
100
AcDbEntity
  8
Vista
370
     0
100
AcDbPolyline
 90
        2
 70
   128
 43
0.0
 10
0.2061992948702438
 20
0.0871391983278039
 10
0.2075686255848608
 20
0.0885078941378618
  0
LWPOLYLINE
  5
1B84
330
2
100
AcDbEntity
  8
Vista
370
     0
100
AcDbPolyline
 90
        2
 70
   128
 43
0.0
 10
0.2064875768014771
 20
0.0864908675820923
 10
0.2077127652491326
 20
0.0878595633921501
  0
LWPOLYLINE
  5
1B85
330
2
100
AcDbEntity
  8
Vista
370
     0
100
AcDbPolyline
 90
        2
 70
   128
 43
0.0
 10
0.2068479246608119
 20
0.0850501357704795
 10
0.2082172553754289
 20
0.0859145745208631
  0
LWPOLYLINE
  5
1B86
330
2
100
AcDbEntity
  8
Vista
370
     0
100
AcDbPolyline
 90
        2
 70
   128
 43
0.0
 10
0.2020913079317721
 20
0.0850501357704795
 10
0.2002895582243396
 20
0.0866349412681297
  0
LWPOLYLINE
  5
1B87
330
2
100
AcDbEntity
  8
Vista
370
     0
100
AcDbPolyline
 90
        2
 70
   128
 43
0.0
 10
0.2016588889389566
 20
0.0846179163952877
 10
0.200649908686364
 20
0.0856984648332636
  0
LWPOLYLINE
  5
1B88
330
2
100
AcDbEntity
  8
Vista
370
     0
100
AcDbPolyline
 90
        2
 70
   128
 43
0.0
 10
0.2022354475960439
 20
0.0875714177029957
 10
0.2009381880149077
 20
0.0892282592022008
  0
LWPOLYLINE
  5
1B89
330
2
100
AcDbEntity
  8
Vista
370
     0
100
AcDbPolyline
 90
        2
 70
   128
 43
0.0
 10
0.2021633790652528
 20
0.0884358564533793
 10
0.2011543988126603
 20
0.0899486259494745
  0
LWPOLYLINE
  5
1B8A
330
2
100
AcDbEntity
  8
Vista
370
     0
100
AcDbPolyline
 90
        2
 70
   128
 43
0.0
 10
0.2034606386463891
 20
0.0908130663827786
 10
0.2029561485200928
 20
0.0921097245083539
  0
LWPOLYLINE
  5
1B8B
330
2
100
AcDbEntity
  8
Vista
370
     0
100
AcDbPolyline
 90
        2
 70
   128
 43
0.0
 10
0.2040371973034765
 20
0.0911012120719329
 10
0.2034606386463891
 20
0.0926860175695831
  0
LWPOLYLINE
  5
1B8C
330
2
100
AcDbEntity
  8
Vista
370
     0
100
AcDbPolyline
 90
        2
 70
   128
 43
0.0
 10
0.2043975477655009
 20
0.091029176070378
 10
0.2046858270940446
 20
0.0924699078819907
  0
LWPOLYLINE
  5
1B8D
330
2
100
AcDbEntity
  8
Vista
370
     0
100
AcDbPolyline
 90
        2
 70
   128
 43
0.0
 10
0.2034606386463891
 20
0.0845458787108052
 10
0.203676846841452
 20
0.0899486259494745
  0
LWPOLYLINE
  5
1B8E
330
2
100
AcDbEntity
  8
Vista
370
     0
100
AcDbPolyline
 90
        2
 70
   128
 43
0.0
 10
0.2047578956248357
 20
0.0847619883984047
 10
0.2043975477655009
 20
0.0897325162618751
  0
LWPOLYLINE
  5
1B8F
330
2
100
AcDbEntity
  8
Vista
370
     0
100
AcDbPolyline
 90
       10
 70
   128
 43
0.0
 10
0.19046327562163
 20
0.0987151131632439
 10
0.1906249834542975
 20
0.0968563221230875
 10
0.1905441308393121
 20
0.0954016169697093
 10
0.1906249834542975
 20
0.0943509960201817
 10
0.1922420721917233
 20
0.0941893626752298
 10
0.1928889061250756
 20
0.0936236434434997
 10
0.1942634318121519
 20
0.0931387417257023
 10
0.1949102657455113
 20
0.0939469118163311
 10
0.1955571022815532
 20
0.0946742643930202
 10
0.1963656440475729
 20
0.0941893626752298
  0
LWPOLYLINE
  5
1B90
330
2
100
AcDbEntity
  8
Vista
370
     0
100
AcDbPolyline
 90
        2
 70
   128
 43
0.0
 10
0.1957996653319027
 20
0.0977453097276561
 10
0.1971741884162894
 20
0.0983918447904054
  0
LWPOLYLINE
  5
1B91
330
2
100
AcDbEntity
  8
Vista
370
     0
100
AcDbPolyline
 90
        2
 70
   128
 43
0.0
 10
0.197012480583622
 20
0.0969371396370272
 10
0.1981444406176662
 20
0.097179590495926
  0
LWPOLYLINE
  5
1B92
330
2
100
AcDbEntity
  8
Vista
370
     0
100
AcDbPolyline
 90
        4
 70
   128
 43
0.0
 10
0.1924846352420657
 20
0.0979069430726151
 10
0.1924846352420657
 20
0.0966138712641888
 10
0.1919186539236988
 20
0.0959673362014465
 10
0.1915952356556743
 20
0.0955632503146683
  0
LWPOLYLINE
  5
1B93
330
2
100
AcDbEntity
  8
Vista
370
     0
100
AcDbPolyline
 90
        3
 70
   128
 43
0.0
 10
0.193131469175418
 20
0.0975028571858369
 10
0.1930506165604326
 20
0.0962097870603381
 10
0.1924037800243836
 20
0.0953207994557696
  0
LWPOLYLINE
  5
1B94
330
2
100
AcDbEntity
  8
Vista
370
     0
100
AcDbPolyline
 90
        3
 70
   128
 43
0.0
 10
0.1940208687618095
 20
0.0968563221230875
 10
0.193778305711467
 20
0.0957248853425478
 10
0.1932931796107751
 20
0.0945934468790805
  0
LWPOLYLINE
  5
1B95
330
2
100
AcDbEntity
  8
Vista
370
     0
100
AcDbPolyline
 90
        3
 70
   128
 43
0.0
 10
0.1947485579128438
 20
0.0962097870603381
 10
0.1943442844271443
 20
0.0949167152519189
 10
0.1936974504937849
 20
0.0940277276473504
  0
LWPOLYLINE
  5
1B96
330
2
100
AcDbEntity
  8
Vista
370
     0
100
AcDbPolyline
 90
       10
 70
   128
 43
0.0
 10
0.2111800163607056
 20
0.0992008092225158
 10
0.2098193760333855
 20
0.0979314633170455
 10
0.2086401511196299
 20
0.0972967912057706
 10
0.2077330558329591
 20
0.0962087806700746
 10
0.2061909948866882
 20
0.0959367776154204
 10
0.2046489339404174
 20
0.0965714497266882
 10
0.2043768043133396
 20
0.0976594602623914
 10
0.2042860953052126
 20
0.0983848017414738
 10
0.2026533253508147
 20
0.0983848017414738
 10
0.2013615588878144
 20
0.099317312054986
  0
LWPOLYLINE
  5
1B97
330
2
100
AcDbEntity
  8
Vista
370
     0
100
AcDbPolyline
 90
        2
 70
   128
 43
0.0
 10
0.2060894754163929
 20
0.099317312054986
 10
0.2058281562514834
 20
0.0977501279472714
  0
LWPOLYLINE
  5
1B98
330
2
100
AcDbEntity
  8
Vista
370
     0
100
AcDbPolyline
 90
        2
 70
   128
 43
0.0
 10
0.2072642465057175
 20
0.099317312054986
 10
0.206916672157105
 20
0.0978407956321584
  0
LWPOLYLINE
  5
1B99
330
2
100
AcDbEntity
  8
Vista
370
     0
100
AcDbPolyline
 90
        2
 70
   128
 43
0.0
 10
0.2039749547529516
 20
0.099317312054986
 10
0.2031975820022807
 20
0.0989288061678616
  0
LWPOLYLINE
  5
1B9A
330
2
100
AcDbEntity
  8
Vista
370
     0
100
AcDbPolyline
 90
        2
 70
   128
 43
0.0
 10
0.2088561430927791
 20
0.099317312054986
 10
0.2090029897548418
 20
0.0986568031132004
  0
LWPOLYLINE
  5
1B9B
330
2
100
AcDbEntity
  8
Vista
370
     0
100
AcDbPolyline
 90
        7
 70
   128
 43
0.0
 10
0.2111119880187251
 20
0.0970777096161381
 10
0.210271065354908
 20
0.096611489922679
 10
0.2093627077627984
 20
0.0959629639574468
 10
0.208324587774902
 20
0.0944065023140647
 10
0.2083894702741402
 20
0.0925257776880736
 10
0.2096871202590178
 20
0.0918772517228414
 10
0.2111119880187251
 20
0.0921146190901823
  0
LWPOLYLINE
  5
1B9C
330
2
100
AcDbEntity
  8
Vista
370
     0
100
AcDbPolyline
 90
        2
 70
   128
 43
0.0
 10
0.2092503860035093
 20
0.0935870818573429
 10
0.2111119880187251
 20
0.0947500457811247
  0
LWPOLYLINE
  5
1B9D
330
2
100
AcDbEntity
  8
Vista
370
     0
100
AcDbPolyline
 90
        2
 70
   128
 43
0.0
 10
0.2098670885760525
 20
0.0929706644537797
 10
0.2111119880187251
 20
0.0936910610158974
  0
LWPOLYLINE
  5
1BA0
330
2
100
AcDbEntity
  8
Vista
370
     0
100
AcDbPolyline
 90
        3
 70
   128
 43
0.0
 10
0.2267236472479068
 20
0.0896831004803213
 10
0.2234345633907735
 20
0.0927651908639783
 10
0.223024407206611
 20
0.0933643728759651
  0
LWPOLYLINE
  5
1BA1
330
2
100
AcDbEntity
  8
Vista
370
     0
100
AcDbPolyline
 90
        3
 70
   128
 43
0.0
 10
0.2260041591781514
 20
0.089272154983639
 10
0.2235373462852961
 20
0.0914296184204909
 10
0.223024407206611
 20
0.0921025397296836
  0
LWPOLYLINE
  5
1BA6
330
2
100
AcDbEntity
  8
Vista
370
     0
100
AcDbPolyline
 90
       26
 70
   128
 43
0.0
 10
0.2326725736748589
 20
0.084427001926408
 10
0.2318813179331214
 20
0.0857705025177461
 10
0.2318813179331214
 20
0.0872112343293589
 10
0.2323858080594177
 20
0.0879316010766326
 10
0.2320975261281843
 20
0.0886519661409716
 10
0.2320975261281843
 20
0.0900926996355119
 10
0.2333227171785295
 20
0.0911012120719329
 10
0.2343316948284324
 20
0.0911012120719329
 10
0.2348361849547287
 20
0.0919656525052369
 10
0.2352686065502338
 20
0.0933343483152948
 10
0.2366379346621612
 20
0.0938386036920415
 10
0.2377910545790256
 20
0.0936224940044491
 10
0.2384396843695937
 20
0.0921817621928364
 10
0.238367613236113
 20
0.0908851023843335
 10
0.239160382690953
 20
0.0911732480734878
 10
0.2404576422720892
 20
0.091029176070378
 10
0.2407459216006258
 20
0.0904528830091488
 10
0.2400252232792737
 20
0.0891562232006459
 10
0.2406738530698418
 20
0.0892282592022008
 10
0.2411783431961381
 20
0.0884358564533793
 10
0.2408900638675944
 20
0.0868510509557291
 10
0.2415386910554658
 20
0.0869230886402116
 10
0.2418990415174973
 20
0.0865629052665748
 10
0.2418990415174973
 20
0.0854103191441164
 10
0.2411404968109936
 20
0.0847158967417465
 10
0.2406016297224032
 20
0.0844682077750343
  0
LWPOLYLINE
  5
1BA7
330
2
100
AcDbEntity
  8
Vista
370
     0
100
AcDbPolyline
 90
        2
 70
   128
 43
0.0
 10
0.23815140504105
 20
0.0886519661409716
 10
0.2395928042864581
 20
0.0902367733215494
  0
LWPOLYLINE
  5
1BA8
330
2
100
AcDbEntity
  8
Vista
370
     0
100
AcDbPolyline
 90
        2
 70
   128
 43
0.0
 10
0.23815140504105
 20
0.0893002968866833
 10
0.2392324538244337
 20
0.0904528830091488
  0
LWPOLYLINE
  5
1BA9
330
2
100
AcDbEntity
  8
Vista
370
     0
100
AcDbPolyline
 90
        2
 70
   128
 43
0.0
 10
0.2386558925646567
 20
0.0871391983278039
 10
0.2400252232792737
 20
0.0885078941378618
  0
LWPOLYLINE
  5
1BAA
330
2
100
AcDbEntity
  8
Vista
370
     0
100
AcDbPolyline
 90
        2
 70
   128
 43
0.0
 10
0.23894417449589
 20
0.0864908675820923
 10
0.2401693629435455
 20
0.0878595633921501
  0
LWPOLYLINE
  5
1BAB
330
2
100
AcDbEntity
  8
Vista
370
     0
100
AcDbPolyline
 90
        2
 70
   128
 43
0.0
 10
0.2393045223552248
 20
0.0850501357704795
 10
0.2406738530698418
 20
0.0859145745208631
  0
LWPOLYLINE
  5
1BAC
330
2
100
AcDbEntity
  8
Vista
370
     0
100
AcDbPolyline
 90
        2
 70
   128
 43
0.0
 10
0.234547905626185
 20
0.0850501357704795
 10
0.2327461559187525
 20
0.0866349412681297
  0
LWPOLYLINE
  5
1BAD
330
2
100
AcDbEntity
  8
Vista
370
     0
100
AcDbPolyline
 90
        2
 70
   128
 43
0.0
 10
0.2341154866333694
 20
0.0846179163952877
 10
0.2331065063807769
 20
0.0856984648332636
  0
LWPOLYLINE
  5
1BAE
330
2
100
AcDbEntity
  8
Vista
370
     0
100
AcDbPolyline
 90
        2
 70
   128
 43
0.0
 10
0.2346920452904568
 20
0.0875714177029957
 10
0.2333947857093206
 20
0.0892282592022008
  0
LWPOLYLINE
  5
1BAF
330
2
100
AcDbEntity
  8
Vista
370
     0
100
AcDbPolyline
 90
        2
 70
   128
 43
0.0
 10
0.2346199767596657
 20
0.0884358564533793
 10
0.2336109965070732
 20
0.0899486259494745
  0
LWPOLYLINE
  5
1BB0
330
2
100
AcDbEntity
  8
Vista
370
     0
100
AcDbPolyline
 90
        2
 70
   128
 43
0.0
 10
0.235917236340802
 20
0.0908130663827786
 10
0.2354127462145057
 20
0.0921097245083539
  0
LWPOLYLINE
  5
1BB1
330
2
100
AcDbEntity
  8
Vista
370
     0
100
AcDbPolyline
 90
        2
 70
   128
 43
0.0
 10
0.2364937949978894
 20
0.0911012120719329
 10
0.235917236340802
 20
0.0926860175695831
  0
LWPOLYLINE
  5
1BB2
330
2
100
AcDbEntity
  8
Vista
370
     0
100
AcDbPolyline
 90
        2
 70
   128
 43
0.0
 10
0.2368541454599138
 20
0.091029176070378
 10
0.2371424247884575
 20
0.0924699078819907
  0
LWPOLYLINE
  5
1BB3
330
2
100
AcDbEntity
  8
Vista
370
     0
100
AcDbPolyline
 90
        2
 70
   128
 43
0.0
 10
0.235917236340802
 20
0.0845458787108052
 10
0.2361334445358649
 20
0.0899486259494745
  0
LWPOLYLINE
  5
1BB4
330
2
100
AcDbEntity
  8
Vista
370
     0
100
AcDbPolyline
 90
        2
 70
   128
 43
0.0
 10
0.2372144933192486
 20
0.0847619883984047
 10
0.2368541454599138
 20
0.0897325162618751
  0
LWPOLYLINE
  5
1BB6
330
2
100
AcDbEntity
  8
Vista
370
     0
100
AcDbPolyline
 90
        2
 70
   128
 43
0.0
 10
0.2282562630263085
 20
0.0977453097276561
 10
0.2296307861106952
 20
0.0983918447904054
  0
LWPOLYLINE
  5
1BB7
330
2
100
AcDbEntity
  8
Vista
370
     0
100
AcDbPolyline
 90
        2
 70
   128
 43
0.0
 10
0.2294690782780278
 20
0.0969371396370272
 10
0.230601038312072
 20
0.097179590495926
  0
LWPOLYLINE
  5
1BB8
330
2
100
AcDbEntity
  8
Vista
370
     0
100
AcDbPolyline
 90
        4
 70
   128
 43
0.0
 10
0.2249412329364715
 20
0.0979069430726151
 10
0.2249412329364715
 20
0.0966138712641888
 10
0.2243752516181046
 20
0.0959673362014465
 10
0.22405183335008
 20
0.0955632503146683
  0
LWPOLYLINE
  5
1BB9
330
2
100
AcDbEntity
  8
Vista
370
     0
100
AcDbPolyline
 90
        3
 70
   128
 43
0.0
 10
0.2255880668698238
 20
0.0975028571858369
 10
0.2255072142548384
 20
0.0962097870603381
 10
0.2248603777187965
 20
0.0953207994557696
  0
LWPOLYLINE
  5
1BBA
330
2
100
AcDbEntity
  8
Vista
370
     0
100
AcDbPolyline
 90
        3
 70
   128
 43
0.0
 10
0.2264774664562152
 20
0.0968563221230875
 10
0.2262349034058728
 20
0.0957248853425478
 10
0.225749777305188
 20
0.0945934468790805
  0
LWPOLYLINE
  5
1BBB
330
2
100
AcDbEntity
  8
Vista
370
     0
100
AcDbPolyline
 90
        3
 70
   128
 43
0.0
 10
0.2272051556072496
 20
0.0962097870603381
 10
0.2268008821215501
 20
0.0949167152519189
 10
0.2261540481881978
 20
0.0940277276473504
  0
LWPOLYLINE
  5
1BBC
330
2
100
AcDbEntity
  8
Vista
370
     0
100
AcDbPolyline
 90
       10
 70
   128
 43
0.0
 10
0.2436366140551114
 20
0.0992008092225158
 10
0.2422759737277913
 20
0.0979314633170455
 10
0.2410967488140427
 20
0.0972967912057706
 10
0.2401896535273649
 20
0.0962087806700746
 10
0.238647592581094
 20
0.0959367776154204
 10
0.2371055316348303
 20
0.0965714497266882
 10
0.2368334020077525
 20
0.0976594602623914
 10
0.2367426929996184
 20
0.0983848017414738
 10
0.2351099230452205
 20
0.0983848017414738
 10
0.2338181565822201
 20
0.099317312054986
  0
LWPOLYLINE
  5
1BBD
330
2
100
AcDbEntity
  8
Vista
370
     0
100
AcDbPolyline
 90
        2
 70
   128
 43
0.0
 10
0.238556883572967
 20
0.0993821445922899
 10
0.2382847539458892
 20
0.0977501279472714
  0
LWPOLYLINE
  5
1BBE
330
2
100
AcDbEntity
  8
Vista
370
     0
100
AcDbPolyline
 90
        2
 70
   128
 43
0.0
 10
0.2397361058840259
 20
0.0993821445922899
 10
0.2393732698515107
 20
0.0978407956321584
  0
LWPOLYLINE
  5
1BBF
330
2
100
AcDbEntity
  8
Vista
370
     0
100
AcDbPolyline
 90
        2
 70
   128
 43
0.0
 10
0.2364315524473574
 20
0.099317312054986
 10
0.2356541796966864
 20
0.0989288061678616
  0
LWPOLYLINE
  5
1BC0
330
2
100
AcDbEntity
  8
Vista
370
     0
100
AcDbPolyline
 90
        2
 70
   128
 43
0.0
 10
0.2413127407871848
 20
0.099317312054986
 10
0.2414595874492476
 20
0.0986568031132004
  0
LWPOLYLINE
  5
1BC1
330
2
100
AcDbEntity
  8
Vista
370
     0
100
AcDbPolyline
 90
       37
 70
   128
 43
0.0
 10
0.2465378265890961
 20
0.0987238997244114
 10
0.2427276630493138
 20
0.096611489922679
 10
0.2418193054572113
 20
0.0959629639574468
 10
0.2407811854693078
 20
0.0944065023140647
 10
0.2408460679685531
 20
0.0925257776880736
 10
0.2421437179534307
 20
0.0918772517228414
 10
0.244479493131591
 20
0.0922663662922213
 10
0.2453229656217657
 20
0.0924609244183751
 10
0.245387848121011
 20
0.0916826935966876
 10
0.2444146106323528
 20
0.0908396111882292
 10
0.2442848456338622
 20
0.0894777059880804
 10
0.2449985531255463
 20
0.0883103605970058
 10
0.2464908532108494
 20
0.087791539488236
 10
0.2479182681942105
 20
0.087791539488236
 10
0.2485022132901007
 20
0.0875969813620822
 10
0.2482476882690945
 20
0.0860468879139654
 10
0.2487667482630498
 20
0.0837640767183098
 10
0.2510717179832709
 20
0.0828828305773181
 10
0.2532080410949844
 20
0.0826662025482458
 10
0.2556230109735778
 20
0.0831613516077278
 10
0.2566564695407989
 20
0.0850092473793533
 10
0.2564488450226803
 20
0.0872920568920813
 10
0.2587327121192955
 20
0.0873958211138367
 10
0.2609127682581998
 20
0.0874995853355921
 10
0.2615356418125556
 20
0.0883296991096211
 10
0.2617432637279846
 20
0.0900936875135793
 10
0.2611203927763184
 20
0.0914426223963782
 10
0.2607051437400811
 20
0.0923764987092349
 10
0.2610165792159107
 20
0.0936216676873579
 10
0.2625721142966653
 20
0.0930734004072201
 10
0.2646277904060297
 20
0.0921487734604151
 10
0.2660667665455476
 20
0.0924569813207294
 10
0.2664779007263418
 20
0.0941007633074657
 10
0.2658611981537986
 20
0.0962582267443105
 10
0.2642166562252355
 20
0.0973883272809241
 10
0.2627776800857176
 20
0.0981074806379207
 10
0.2613387065488963
 20
0.0993403171279676
  0
LWPOLYLINE
  5
1BC2
330
2
100
AcDbEntity
  8
Vista
370
     0
100
AcDbPolyline
 90
        3
 70
   128
 43
0.0
 10
0.2417069836979151
 20
0.0935870818573429
 10
0.2441737965907704
 20
0.0951281278906317
 10
0.2472573146588515
 20
0.096360962697751
  0
LWPOLYLINE
  5
1BC3
330
2
100
AcDbEntity
  8
Vista
370
     0
100
AcDbPolyline
 90
        3
 70
   128
 43
0.0
 10
0.2423236862704583
 20
0.0929706644537797
 10
0.2442765820879897
 20
0.0941007633074657
 10
0.2471545291616322
 20
0.0953335997975126
  0
LWPOLYLINE
  5
1BC4
330
2
100
AcDbEntity
  8
Vista
370
     0
100
AcDbPolyline
 90
        6
 70
   128
 43
0.0
 10
0.2458183385193406
 20
0.0898885740701227
 10
0.2482851540148785
 20
0.0911214088772491
 10
0.2500324788379713
 20
0.0926624549105378
 10
0.2516770207665415
 20
0.0941007633074657
 10
0.2520881575500324
 20
0.0959500172010687
 10
0.2520881575500324
 20
0.0989293716312853
  0
LWPOLYLINE
  5
1BC5
330
2
100
AcDbEntity
  8
Vista
370
     0
100
AcDbPolyline
 90
        6
 70
   128
 43
0.0
 10
0.246743394980838
 20
0.089272154983639
 10
0.2491074249791636
 20
0.0907104633805668
 10
0.2506491814105145
 20
0.0924569813207294
 10
0.2520881575500324
 20
0.0935870818573429
 10
0.2527048601225685
 20
0.0960527548374367
 10
0.2529104285143104
 20
0.0986211620880434
  0
LWPOLYLINE
  5
1BC6
330
2
100
AcDbEntity
  8
Vista
370
     0
100
AcDbPolyline
 90
        4
 70
   128
 43
0.0
 10
0.2591802449423126
 20
0.0896831004803213
 10
0.2558911610851793
 20
0.0927651908639783
 10
0.2545549704428807
 20
0.0947171823939494
 10
0.2544521849456613
 20
0.098312954227722
  0
LWPOLYLINE
  5
1BC7
330
2
100
AcDbEntity
  8
Vista
370
     0
100
AcDbPolyline
 90
        5
 70
   128
 43
0.0
 10
0.2584607568725572
 20
0.089272154983639
 10
0.2559939439797019
 20
0.0914296184204909
 10
0.2543494020511388
 20
0.0935870818573429
 10
0.2535271310868536
 20
0.0958472812476282
 10
0.2535271310868536
 20
0.0980047446844802
  0
LWPOLYLINE
  5
1BC8
330
2
100
AcDbEntity
  8
Vista
370
     0
100
AcDbPolyline
 90
        3
 70
   128
 43
0.0
 10
0.2496213446571771
 20
0.0864982741432309
 10
0.2513686694802699
 20
0.0880393184935921
 10
0.252190940444555
 20
0.0909159369703682
  0
LWPOLYLINE
  5
1BC9
330
2
100
AcDbEntity
  8
Vista
370
     0
100
AcDbPolyline
 90
        4
 70
   128
 43
0.0
 10
0.250135261732501
 20
0.0854709112429854
 10
0.2515742378720189
 20
0.0870119555933465
 10
0.2522937233390847
 20
0.0883475280368339
 10
0.2523965088362969
 20
0.0900940459770036
  0
LWPOLYLINE
  5
1BCA
330
2
100
AcDbEntity
  8
Vista
370
     0
100
AcDbPolyline
 90
        3
 70
   128
 43
0.0
 10
0.2531159969060595
 20
0.08403260116313
 10
0.2528076430170982
 20
0.0864982741432309
 10
0.2528076430170982
 20
0.0887584735335162
  0
LWPOLYLINE
  5
1BCB
330
2
100
AcDbEntity
  8
Vista
370
     0
100
AcDbPolyline
 90
        3
 70
   128
 43
0.0
 10
0.2538354823731252
 20
0.0841353371165704
 10
0.2533215626951117
 20
0.0876283729969098
 10
0.2533215626951117
 20
0.090299519566805
  0
LWPOLYLINE
  5
1BCC
330
2
100
AcDbEntity
  8
Vista
370
     0
100
AcDbPolyline
 90
       26
 70
   128
 43
0.0
 10
0.2652116261263024
 20
0.0843621550535545
 10
0.2643379156275272
 20
0.0857705025177461
 10
0.2643379156275272
 20
0.0872112343293589
 10
0.2648424057538234
 20
0.0879316010766326
 10
0.2645541238225901
 20
0.0886519661409716
 10
0.2645541238225901
 20
0.0900926996355119
 10
0.2657793148729353
 20
0.0911012120719329
 10
0.2667882925228382
 20
0.0911012120719329
 10
0.2672927826491345
 20
0.0919656525052369
 10
0.2677252042446396
 20
0.0933343483152948
 10
0.269094532356567
 20
0.0938386036920415
 10
0.2702476522734314
 20
0.0936224940044491
 10
0.2708962820639995
 20
0.0921817621928364
 10
0.2708242109305188
 20
0.0908851023843335
 10
0.2716169803853587
 20
0.0911732480734878
 10
0.272914239966495
 20
0.091029176070378
 10
0.2732025192950387
 20
0.0904528830091488
 10
0.2724818209736795
 20
0.0891562232006459
 10
0.2731304507642476
 20
0.0892282592022008
 10
0.2736349408905438
 20
0.0884358564533793
 10
0.2733466615620002
 20
0.0868510509557291
 10
0.2739952887498787
 20
0.0869230886402116
 10
0.2743556392119031
 20
0.0865629052665748
 10
0.2743556392119031
 20
0.0854103191441164
 10
0.2734126304396536
 20
0.0846071821049992
 10
0.2731449548817293
 20
0.0843268904689583
  0
LWPOLYLINE
  5
1BCD
330
2
100
AcDbEntity
  8
Vista
370
     0
100
AcDbPolyline
 90
        2
 70
   128
 43
0.0
 10
0.2706080027354558
 20
0.0886519661409716
 10
0.2720494019808639
 20
0.0902367733215494
  0
LWPOLYLINE
  5
1BCE
330
2
100
AcDbEntity
  8
Vista
370
     0
100
AcDbPolyline
 90
        2
 70
   128
 43
0.0
 10
0.2706080027354558
 20
0.0893002968866833
 10
0.2716890515188395
 20
0.0904528830091488
  0
LWPOLYLINE
  5
1BCF
330
2
100
AcDbEntity
  8
Vista
370
     0
100
AcDbPolyline
 90
        2
 70
   128
 43
0.0
 10
0.2711124902590625
 20
0.0871391983278039
 10
0.2724818209736795
 20
0.0885078941378618
  0
LWPOLYLINE
  5
1BD0
330
2
100
AcDbEntity
  8
Vista
370
     0
100
AcDbPolyline
 90
        2
 70
   128
 43
0.0
 10
0.2714007721902958
 20
0.0864908675820923
 10
0.2726259606379513
 20
0.0878595633921501
  0
LWPOLYLINE
  5
1BD1
330
2
100
AcDbEntity
  8
Vista
370
     0
100
AcDbPolyline
 90
        2
 70
   128
 43
0.0
 10
0.2717611200496306
 20
0.0850501357704795
 10
0.2731304507642476
 20
0.0859145745208631
  0
LWPOLYLINE
  5
1BD2
330
2
100
AcDbEntity
  8
Vista
370
     0
100
AcDbPolyline
 90
        2
 70
   128
 43
0.0
 10
0.2670045033205908
 20
0.0850501357704795
 10
0.2652027536131583
 20
0.0866349412681297
  0
LWPOLYLINE
  5
1BD3
330
2
100
AcDbEntity
  8
Vista
370
     0
100
AcDbPolyline
 90
        2
 70
   128
 43
0.0
 10
0.2665720843277752
 20
0.0846179163952877
 10
0.2655631040751827
 20
0.0856984648332636
  0
LWPOLYLINE
  5
1BD4
330
2
100
AcDbEntity
  8
Vista
370
     0
100
AcDbPolyline
 90
        2
 70
   128
 43
0.0
 10
0.2671486429848626
 20
0.0875714177029957
 10
0.2658513834037264
 20
0.0892282592022008
  0
LWPOLYLINE
  5
1BD5
330
2
100
AcDbEntity
  8
Vista
370
     0
100
AcDbPolyline
 90
        2
 70
   128
 43
0.0
 10
0.2670765744540715
 20
0.0884358564533793
 10
0.266067594201479
 20
0.0899486259494745
  0
LWPOLYLINE
  5
1BD6
330
2
100
AcDbEntity
  8
Vista
370
     0
100
AcDbPolyline
 90
        2
 70
   128
 43
0.0
 10
0.2683738340352078
 20
0.0908130663827786
 10
0.2678693439089115
 20
0.0921097245083539
  0
LWPOLYLINE
  5
1BD7
330
2
100
AcDbEntity
  8
Vista
370
     0
100
AcDbPolyline
 90
        2
 70
   128
 43
0.0
 10
0.2689503926922951
 20
0.0911012120719329
 10
0.2683738340352078
 20
0.0926860175695831
  0
LWPOLYLINE
  5
1BD8
330
2
100
AcDbEntity
  8
Vista
370
     0
100
AcDbPolyline
 90
        2
 70
   128
 43
0.0
 10
0.2693107431543196
 20
0.091029176070378
 10
0.2695990224828633
 20
0.0924699078819907
  0
LWPOLYLINE
  5
1BD9
330
2
100
AcDbEntity
  8
Vista
370
     0
100
AcDbPolyline
 90
        2
 70
   128
 43
0.0
 10
0.2683738340352078
 20
0.0845458787108052
 10
0.2685900422302707
 20
0.0899486259494745
  0
LWPOLYLINE
  5
1BDA
330
2
100
AcDbEntity
  8
Vista
370
     0
100
AcDbPolyline
 90
        2
 70
   128
 43
0.0
 10
0.2696710910136544
 20
0.0847619883984047
 10
0.2693107431543196
 20
0.0897325162618751
  0
LWPOLYLINE
  5
1BDB
330
2
100
AcDbEntity
  8
Vista
370
     0
100
AcDbPolyline
 90
       10
 70
   128
 43
0.0
 10
0.2553764710104487
 20
0.0987151131632439
 10
0.2555381788431161
 20
0.0968563221230875
 10
0.2554573262281237
 20
0.0954016169697093
 10
0.2555381788431161
 20
0.0943509960201817
 10
0.2571552675805349
 20
0.0941893626752298
 10
0.2578021015138943
 20
0.0936236434434997
 10
0.2591766272009706
 20
0.0931387417257023
 10
0.2598234611343229
 20
0.0939469118163311
 10
0.2604702976703719
 20
0.0946742643930202
 10
0.2612788394363916
 20
0.0941893626752298
  0
LWPOLYLINE
  5
1BDC
330
2
100
AcDbEntity
  8
Vista
370
     0
100
AcDbPolyline
 90
        2
 70
   128
 43
0.0
 10
0.2607128607207143
 20
0.0977453097276561
 10
0.262087383805101
 20
0.0983918447904054
  0
LWPOLYLINE
  5
1BDD
330
2
100
AcDbEntity
  8
Vista
370
     0
100
AcDbPolyline
 90
        2
 70
   128
 43
0.0
 10
0.2619256759724406
 20
0.0969371396370272
 10
0.2630576360064778
 20
0.097179590495926
  0
LWPOLYLINE
  5
1BDE
330
2
100
AcDbEntity
  8
Vista
370
     0
100
AcDbPolyline
 90
        4
 70
   128
 43
0.0
 10
0.2573978306308844
 20
0.0979069430726151
 10
0.2573978306308844
 20
0.0966138712641888
 10
0.2568318493125103
 20
0.0959673362014465
 10
0.2565084310444929
 20
0.0955632503146683
  0
LWPOLYLINE
  5
1BDF
330
2
100
AcDbEntity
  8
Vista
370
     0
100
AcDbPolyline
 90
        3
 70
   128
 43
0.0
 10
0.2580446645642367
 20
0.0975028571858369
 10
0.2579638119492513
 20
0.0962097870603381
 10
0.2573169754132023
 20
0.0953207994557696
  0
LWPOLYLINE
  5
1BE0
330
2
100
AcDbEntity
  8
Vista
370
     0
100
AcDbPolyline
 90
        3
 70
   128
 43
0.0
 10
0.2589340641506281
 20
0.0968563221230875
 10
0.2586915011002786
 20
0.0957248853425478
 10
0.2582063749995938
 20
0.0945934468790805
  0
LWPOLYLINE
  5
1BE1
330
2
100
AcDbEntity
  8
Vista
370
     0
100
AcDbPolyline
 90
        3
 70
   128
 43
0.0
 10
0.2596617533016625
 20
0.0962097870603381
 10
0.2592574798159559
 20
0.0949167152519189
 10
0.2586106458826036
 20
0.0940277276473504
  0
LWPOLYLINE
  5
1BE2
330
2
100
AcDbEntity
  8
Vista
370
     0
100
AcDbPolyline
 90
       10
 70
   128
 43
0.0
 10
0.2760932117495172
 20
0.0992008092225158
 10
0.2747325714221971
 20
0.0979314633170455
 10
0.2735533465084485
 20
0.0972967912057706
 10
0.2726462512217707
 20
0.0962087806700746
 10
0.2711041902755069
 20
0.0959367776154204
 10
0.2695621293292361
 20
0.0965714497266882
 10
0.2692899997021583
 20
0.0976594602623914
 10
0.2691992906940313
 20
0.0983848017414738
 10
0.2675665207396334
 20
0.0983848017414738
 10
0.266274754276633
 20
0.099317312054986
  0
LWPOLYLINE
  5
1BE3
330
2
100
AcDbEntity
  8
Vista
370
     0
100
AcDbPolyline
 90
        2
 70
   128
 43
0.0
 10
0.2710134812673728
 20
0.0993821445922899
 10
0.270741351640295
 20
0.0977501279472714
  0
LWPOLYLINE
  5
1BE4
330
2
100
AcDbEntity
  8
Vista
370
     0
100
AcDbPolyline
 90
        2
 70
   128
 43
0.0
 10
0.2721927035784388
 20
0.0993821445922899
 10
0.2718298675459165
 20
0.0978407956321584
  0
LWPOLYLINE
  5
1BE5
330
2
100
AcDbEntity
  8
Vista
370
     0
100
AcDbPolyline
 90
        2
 70
   128
 43
0.0
 10
0.268888150141766
 20
0.099317312054986
 10
0.2681107773910993
 20
0.0989288061678616
  0
LWPOLYLINE
  5
1BE6
330
2
100
AcDbEntity
  8
Vista
370
     0
100
AcDbPolyline
 90
        2
 70
   128
 43
0.0
 10
0.2737693384815964
 20
0.099317312054986
 10
0.2739161851436533
 20
0.0986568031132004
  0
LWPOLYLINE
  5
1BE7
330
2
100
AcDbEntity
  8
Vista
370
     0
100
AcDbPolyline
 90
       37
 70
   128
 43
0.0
 10
0.2789944242835018
 20
0.0987238997244114
 10
0.2751842607437267
 20
0.096611489922679
 10
0.2742759031516171
 20
0.0959629639574468
 10
0.2732377831637136
 20
0.0944065023140647
 10
0.2733026656629589
 20
0.0925257776880736
 10
0.2746003156478365
 20
0.0918772517228414
 10
0.2769360908260039
 20
0.0922663662922213
 10
0.2777795633161715
 20
0.0924609244183751
 10
0.2778444458154168
 20
0.0916826935966876
 10
0.2768712083267586
 20
0.0908396111882292
 10
0.276741443328268
 20
0.0894777059880804
 10
0.2774551508199521
 20
0.0883103605970058
 10
0.2789474509052552
 20
0.087791539488236
 10
0.2803748658886234
 20
0.087791539488236
 10
0.2809588109845065
 20
0.0875969813620822
 10
0.2807042859635074
 20
0.0860468879139654
 10
0.2812233459574556
 20
0.0837640767183098
 10
0.2835283156776767
 20
0.0828828305773181
 10
0.2856646387893902
 20
0.0826662025482458
 10
0.2880796086679835
 20
0.0831613516077278
 10
0.2891130672352047
 20
0.0850092473793533
 10
0.2889054427170861
 20
0.0872920568920813
 10
0.2911893098137084
 20
0.0873958211138367
 10
0.2933693659526055
 20
0.0874995853355921
 10
0.2939922395069614
 20
0.0883296991096211
 10
0.2941998614223904
 20
0.0900936875135793
 10
0.2935769904707242
 20
0.0914426223963782
 10
0.2931617414344869
 20
0.0923764987092349
 10
0.2934731769103236
 20
0.0936216676873579
 10
0.2950287119910782
 20
0.0930734004072201
 10
0.2970843881004426
 20
0.0921487734604151
 10
0.2985233642399534
 20
0.0924569813207294
 10
0.2989344984207476
 20
0.0941007633074657
 10
0.2983177958482115
 20
0.0962582267443105
 10
0.2966732539196413
 20
0.0973883272809241
 10
0.2952342777801304
 20
0.0981074806379207
 10
0.2937953042433021
 20
0.0993403171279676
  0
LWPOLYLINE
  5
1BE8
330
2
100
AcDbEntity
  8
Vista
370
     0
100
AcDbPolyline
 90
        3
 70
   128
 43
0.0
 10
0.274163581392328
 20
0.0935870818573429
 10
0.2766303942851762
 20
0.0951281278906317
 10
0.2797139123532644
 20
0.096360962697751
  0
LWPOLYLINE
  5
1BE9
330
2
100
AcDbEntity
  8
Vista
370
     0
100
AcDbPolyline
 90
        3
 70
   128
 43
0.0
 10
0.2747802839648641
 20
0.0929706644537797
 10
0.2767331797823955
 20
0.0941007633074657
 10
0.2796111268560451
 20
0.0953335997975126
  0
LWPOLYLINE
  5
1BEA
330
2
100
AcDbEntity
  8
Vista
370
     0
100
AcDbPolyline
 90
        6
 70
   128
 43
0.0
 10
0.2782749362137464
 20
0.0898885740701227
 10
0.2807417517092914
 20
0.0911214088772491
 10
0.2824890765323842
 20
0.0926624549105378
 10
0.2841336184609473
 20
0.0941007633074657
 10
0.2845447552444382
 20
0.0959500172010687
 10
0.2845447552444382
 20
0.0989293716312853
  0
LWPOLYLINE
  5
1BEB
330
2
100
AcDbEntity
  8
Vista
370
     0
100
AcDbPolyline
 90
        6
 70
   128
 43
0.0
 10
0.2791999926752438
 20
0.089272154983639
 10
0.2815640226735694
 20
0.0907104633805668
 10
0.2831057791049203
 20
0.0924569813207294
 10
0.2845447552444382
 20
0.0935870818573429
 10
0.2851614578169743
 20
0.0960527548374367
 10
0.2853670262087233
 20
0.0986211620880434
  0
LWPOLYLINE
  5
1BEC
330
2
100
AcDbEntity
  8
Vista
370
     0
100
AcDbPolyline
 90
        4
 70
   128
 43
0.0
 10
0.2916368426367255
 20
0.0896831004803213
 10
0.2883477587795851
 20
0.0927651908639783
 10
0.2870115681372864
 20
0.0947171823939494
 10
0.2869087826400742
 20
0.098312954227722
  0
LWPOLYLINE
  5
1BED
330
2
100
AcDbEntity
  8
Vista
370
     0
100
AcDbPolyline
 90
        5
 70
   128
 43
0.0
 10
0.290917354566963
 20
0.089272154983639
 10
0.2884505416741148
 20
0.0914296184204909
 10
0.2868059997455445
 20
0.0935870818573429
 10
0.2859837287812594
 20
0.0958472812476282
 10
0.2859837287812594
 20
0.0980047446844802
  0
LWPOLYLINE
  5
1BEE
330
2
100
AcDbEntity
  8
Vista
370
     0
100
AcDbPolyline
 90
        3
 70
   128
 43
0.0
 10
0.2820779423515829
 20
0.0864982741432309
 10
0.2838252671746828
 20
0.0880393184935921
 10
0.2846475381389608
 20
0.0909159369703682
  0
LWPOLYLINE
  5
1BEF
330
2
100
AcDbEntity
  8
Vista
370
     0
100
AcDbPolyline
 90
        4
 70
   128
 43
0.0
 10
0.2825918594269068
 20
0.0854709112429854
 10
0.2840308355664247
 20
0.0870119555933465
 10
0.2847503210334905
 20
0.0883475280368339
 10
0.2848531065307098
 20
0.0900940459770036
  0
LWPOLYLINE
  5
1BF0
330
2
100
AcDbEntity
  8
Vista
370
     0
100
AcDbPolyline
 90
        3
 70
   128
 43
0.0
 10
0.2855725946004652
 20
0.08403260116313
 10
0.285264240711504
 20
0.0864982741432309
 10
0.285264240711504
 20
0.0887584735335162
  0
LWPOLYLINE
  5
1BF1
330
2
100
AcDbEntity
  8
Vista
370
     0
100
AcDbPolyline
 90
        3
 70
   128
 43
0.0
 10
0.286292080067531
 20
0.0841353371165704
 10
0.2857781603895175
 20
0.0876283729969098
 10
0.2857781603895175
 20
0.090299519566805
  0
LWPOLYLINE
  5
1BF2
330
2
100
AcDbEntity
  8
Vista
370
     0
100
AcDbPolyline
 90
       26
 70
   128
 43
0.0
 10
0.2976295545815144
 20
0.0844190611592044
 10
0.296794513321933
 20
0.0857705025177461
 10
0.296794513321933
 20
0.0872112343293589
 10
0.2972990034482292
 20
0.0879316010766326
 10
0.2970107215169959
 20
0.0886519661409716
 10
0.2970107215169959
 20
0.0900926996355119
 10
0.298235912567341
 20
0.0911012120719329
 10
0.299244890217244
 20
0.0911012120719329
 10
0.2997493803435403
 20
0.0919656525052369
 10
0.3001818019390454
 20
0.0933343483152948
 10
0.3015511300509728
 20
0.0938386036920415
 10
0.3027042499678372
 20
0.0936224940044491
 10
0.3033528797584053
 20
0.0921817621928364
 10
0.3032808086249246
 20
0.0908851023843335
 10
0.3040735780797645
 20
0.0911732480734878
 10
0.3053708376609008
 20
0.091029176070378
 10
0.3056591169894445
 20
0.0904528830091488
 10
0.3049384186680852
 20
0.0891562232006459
 10
0.3055870484586534
 20
0.0892282592022008
 10
0.3060915385849496
 20
0.0884358564533793
 10
0.3058032592564059
 20
0.0868510509557291
 10
0.3064518864442844
 20
0.0869230886402116
 10
0.3068122369063089
 20
0.0865629052665748
 10
0.3068122369063089
 20
0.0854103191441164
 10
0.3060371876382886
 20
0.0846263320842664
 10
0.3056559680829227
 20
0.0844358109168708
  0
LWPOLYLINE
  5
1BF3
330
2
100
AcDbEntity
  8
Vista
370
     0
100
AcDbPolyline
 90
        2
 70
   128
 43
0.0
 10
0.3030646004298616
 20
0.0886519661409716
 10
0.3045059996752697
 20
0.0902367733215494
  0
LWPOLYLINE
  5
1BF4
330
2
100
AcDbEntity
  8
Vista
370
     0
100
AcDbPolyline
 90
        2
 70
   128
 43
0.0
 10
0.3030646004298616
 20
0.0893002968866833
 10
0.3041456492132453
 20
0.0904528830091488
  0
LWPOLYLINE
  5
1BF5
330
2
100
AcDbEntity
  8
Vista
370
     0
100
AcDbPolyline
 90
        2
 70
   128
 43
0.0
 10
0.3035690879534683
 20
0.0871391983278039
 10
0.3049384186680852
 20
0.0885078941378618
  0
LWPOLYLINE
  5
1BF6
330
2
100
AcDbEntity
  8
Vista
370
     0
100
AcDbPolyline
 90
        2
 70
   128
 43
0.0
 10
0.3038573698847016
 20
0.0864908675820923
 10
0.3050825583323571
 20
0.0878595633921501
  0
LWPOLYLINE
  5
1BF7
330
2
100
AcDbEntity
  8
Vista
370
     0
100
AcDbPolyline
 90
        2
 70
   128
 43
0.0
 10
0.3042177177440364
 20
0.0850501357704795
 10
0.3055870484586534
 20
0.0859145745208631
  0
LWPOLYLINE
  5
1BF8
330
2
100
AcDbEntity
  8
Vista
370
     0
100
AcDbPolyline
 90
        2
 70
   128
 43
0.0
 10
0.2994611010149966
 20
0.0850501357704795
 10
0.297659351307564
 20
0.0866349412681297
  0
LWPOLYLINE
  5
1BF9
330
2
100
AcDbEntity
  8
Vista
370
     0
100
AcDbPolyline
 90
        2
 70
   128
 43
0.0
 10
0.299028682022181
 20
0.0846179163952877
 10
0.2980197017695885
 20
0.0856984648332636
  0
LWPOLYLINE
  5
1BFA
330
2
100
AcDbEntity
  8
Vista
370
     0
100
AcDbPolyline
 90
        2
 70
   128
 43
0.0
 10
0.2996052406792684
 20
0.0875714177029957
 10
0.2983079810981322
 20
0.0892282592022008
  0
LWPOLYLINE
  5
1BFB
330
2
100
AcDbEntity
  8
Vista
370
     0
100
AcDbPolyline
 90
        2
 70
   128
 43
0.0
 10
0.2995331721484773
 20
0.0884358564533793
 10
0.2985241918958847
 20
0.0899486259494745
  0
LWPOLYLINE
  5
1BFC
330
2
100
AcDbEntity
  8
Vista
370
     0
100
AcDbPolyline
 90
        2
 70
   128
 43
0.0
 10
0.3008304317296135
 20
0.0908130663827786
 10
0.3003259416033173
 20
0.0921097245083539
  0
LWPOLYLINE
  5
1BFD
330
2
100
AcDbEntity
  8
Vista
370
     0
100
AcDbPolyline
 90
        2
 70
   128
 43
0.0
 10
0.3014069903867009
 20
0.0911012120719329
 10
0.3008304317296135
 20
0.0926860175695831
  0
LWPOLYLINE
  5
1BFE
330
2
100
AcDbEntity
  8
Vista
370
     0
100
AcDbPolyline
 90
        2
 70
   128
 43
0.0
 10
0.3017673408487254
 20
0.091029176070378
 10
0.3020556201772691
 20
0.0924699078819907
  0
LWPOLYLINE
  5
1BFF
330
2
100
AcDbEntity
  8
Vista
370
     0
100
AcDbPolyline
 90
        2
 70
   128
 43
0.0
 10
0.3008304317296135
 20
0.0845458787108052
 10
0.3010466399246765
 20
0.0899486259494745
  0
LWPOLYLINE
  5
1C00
330
2
100
AcDbEntity
  8
Vista
370
     0
100
AcDbPolyline
 90
        2
 70
   128
 43
0.0
 10
0.3021276887080602
 20
0.0847619883984047
 10
0.3017673408487254
 20
0.0897325162618751
  0
LWPOLYLINE
  5
1C01
330
2
100
AcDbEntity
  8
Vista
370
     0
100
AcDbPolyline
 90
       10
 70
   128
 43
0.0
 10
0.2878330687048545
 20
0.0987151131632439
 10
0.2879947765375219
 20
0.0968563221230875
 10
0.2879139239225366
 20
0.0954016169697093
 10
0.2879947765375219
 20
0.0943509960201817
 10
0.2896118652749477
 20
0.0941893626752298
 10
0.2902586992083
 20
0.0936236434434997
 10
0.2916332248953763
 20
0.0931387417257023
 10
0.2922800588287358
 20
0.0939469118163311
 10
0.2929268953647777
 20
0.0946742643930202
 10
0.2937354371307974
 20
0.0941893626752298
  0
LWPOLYLINE
  5
1C02
330
2
100
AcDbEntity
  8
Vista
370
     0
100
AcDbPolyline
 90
        2
 70
   128
 43
0.0
 10
0.2931694584151201
 20
0.0977453097276561
 10
0.2945439814995139
 20
0.0983918447904054
  0
LWPOLYLINE
  5
1C03
330
2
100
AcDbEntity
  8
Vista
370
     0
100
AcDbPolyline
 90
        2
 70
   128
 43
0.0
 10
0.2943822736668464
 20
0.0969371396370272
 10
0.2955142337008907
 20
0.097179590495926
  0
LWPOLYLINE
  5
1C04
330
2
100
AcDbEntity
  8
Vista
370
     0
100
AcDbPolyline
 90
        4
 70
   128
 43
0.0
 10
0.2898544283252902
 20
0.0979069430726151
 10
0.2898544283252902
 20
0.0966138712641888
 10
0.2892884470069232
 20
0.0959673362014465
 10
0.2889650287388987
 20
0.0955632503146683
  0
LWPOLYLINE
  5
1C05
330
2
100
AcDbEntity
  8
Vista
370
     0
100
AcDbPolyline
 90
        3
 70
   128
 43
0.0
 10
0.2905012622586425
 20
0.0975028571858369
 10
0.2904204096436571
 20
0.0962097870603381
 10
0.2897735731076081
 20
0.0953207994557696
  0
LWPOLYLINE
  5
1C06
330
2
100
AcDbEntity
  8
Vista
370
     0
100
AcDbPolyline
 90
        3
 70
   128
 43
0.0
 10
0.2913906618450339
 20
0.0968563221230875
 10
0.2911480987946915
 20
0.0957248853425478
 10
0.2906629726939995
 20
0.0945934468790805
  0
LWPOLYLINE
  5
1C07
330
2
100
AcDbEntity
  8
Vista
370
     0
100
AcDbPolyline
 90
        3
 70
   128
 43
0.0
 10
0.2921183509960683
 20
0.0962097870603381
 10
0.2917140775103688
 20
0.0949167152519189
 10
0.2910672435770094
 20
0.0940277276473504
  0
LWPOLYLINE
  5
1C08
330
2
100
AcDbEntity
  8
Vista
370
     0
100
AcDbPolyline
 90
       10
 70
   128
 43
0.0
 10
0.3085498094439301
 20
0.0992008092225158
 10
0.30718916911661
 20
0.0979314633170455
 10
0.3060099442028543
 20
0.0972967912057706
 10
0.3051028489161835
 20
0.0962087806700746
 10
0.3035607879699127
 20
0.0959367776154204
 10
0.3020187270236418
 20
0.0965714497266882
 10
0.3017465973965641
 20
0.0976594602623914
 10
0.301655888388437
 20
0.0983848017414738
 10
0.3000231184340392
 20
0.0983848017414738
 10
0.2987313519710388
 20
0.099317312054986
  0
LWPOLYLINE
  5
1C09
330
2
100
AcDbEntity
  8
Vista
370
     0
100
AcDbPolyline
 90
        2
 70
   128
 43
0.0
 10
0.3034700789617857
 20
0.0993821445922899
 10
0.3031979493347079
 20
0.0977501279472714
  0
LWPOLYLINE
  5
1C0A
330
2
100
AcDbEntity
  8
Vista
370
     0
100
AcDbPolyline
 90
        2
 70
   128
 43
0.0
 10
0.3046493012728446
 20
0.0993821445922899
 10
0.3042864652403294
 20
0.0978407956321584
  0
LWPOLYLINE
  5
1C0B
330
2
100
AcDbEntity
  8
Vista
370
     0
100
AcDbPolyline
 90
        2
 70
   128
 43
0.0
 10
0.3013447478361761
 20
0.099317312054986
 10
0.3005673750855051
 20
0.0989288061678616
  0
LWPOLYLINE
  5
1C0C
330
2
100
AcDbEntity
  8
Vista
370
     0
100
AcDbPolyline
 90
        2
 70
   128
 43
0.0
 10
0.3062259361760035
 20
0.099317312054986
 10
0.3063727828380662
 20
0.0986568031132004
  0
LWPOLYLINE
  5
1C0D
330
2
100
AcDbEntity
  8
Vista
370
     0
100
AcDbPolyline
 90
       37
 70
   128
 43
0.0
 10
0.3114510219779147
 20
0.0987238997244114
 10
0.3076408584381325
 20
0.096611489922679
 10
0.3067325008460229
 20
0.0959629639574468
 10
0.3056943808581265
 20
0.0944065023140647
 10
0.3057592633573647
 20
0.0925257776880736
 10
0.3070569133422423
 20
0.0918772517228414
 10
0.3093926885204097
 20
0.0922663662922213
 10
0.3102361610105773
 20
0.0924609244183751
 10
0.3103010435098226
 20
0.0916826935966876
 10
0.3093278060211644
 20
0.0908396111882292
 10
0.3091980410226809
 20
0.0894777059880804
 10
0.3099117485143579
 20
0.0883103605970058
 10
0.311404048599661
 20
0.087791539488236
 10
0.3128314635830292
 20
0.087791539488236
 10
0.3134154086789194
 20
0.0875969813620822
 10
0.3131608836579132
 20
0.0860468879139654
 10
0.3136799436518685
 20
0.0837640767183098
 10
0.3159849133720896
 20
0.0828828305773181
 10
0.3181212364838031
 20
0.0826662025482458
 10
0.3205362063623964
 20
0.0831613516077278
 10
0.3215696649296176
 20
0.0850092473793533
 10
0.321362040411499
 20
0.0872920568920813
 10
0.3236459075081142
 20
0.0873958211138367
 10
0.3258259636470184
 20
0.0874995853355921
 10
0.3264488372013743
 20
0.0883296991096211
 10
0.3266564591167962
 20
0.0900936875135793
 10
0.3260335881651371
 20
0.0914426223963782
 10
0.3256183391288998
 20
0.0923764987092349
 10
0.3259297746047294
 20
0.0936216676873579
 10
0.3274853096854839
 20
0.0930734004072201
 10
0.3295409857948484
 20
0.0921487734604151
 10
0.3309799619343592
 20
0.0924569813207294
 10
0.3313910961151605
 20
0.0941007633074657
 10
0.3307743935426173
 20
0.0962582267443105
 10
0.3291298516140542
 20
0.0973883272809241
 10
0.3276908754745362
 20
0.0981074806379207
 10
0.326251901937715
 20
0.0993403171279676
  0
LWPOLYLINE
  5
1C0E
330
2
100
AcDbEntity
  8
Vista
370
     0
100
AcDbPolyline
 90
        3
 70
   128
 43
0.0
 10
0.3066201790867338
 20
0.0935870818573429
 10
0.3090869919795891
 20
0.0951281278906317
 10
0.3121705100476702
 20
0.096360962697751
  0
LWPOLYLINE
  5
1C0F
330
2
100
AcDbEntity
  8
Vista
370
     0
100
AcDbPolyline
 90
        3
 70
   128
 43
0.0
 10
0.307236881659277
 20
0.0929706644537797
 10
0.3091897774768013
 20
0.0941007633074657
 10
0.3120677245504508
 20
0.0953335997975126
  0
LWPOLYLINE
  5
1C10
330
2
100
AcDbEntity
  8
Vista
370
     0
100
AcDbPolyline
 90
        6
 70
   128
 43
0.0
 10
0.3107315339081522
 20
0.0898885740701227
 10
0.3131983494036972
 20
0.0911214088772491
 10
0.31494567422679
 20
0.0926624549105378
 10
0.3165902161553602
 20
0.0941007633074657
 10
0.317001352938844
 20
0.0959500172010687
 10
0.317001352938844
 20
0.0989293716312853
  0
LWPOLYLINE
  5
1C11
330
2
100
AcDbEntity
  8
Vista
370
     0
100
AcDbPolyline
 90
        6
 70
   128
 43
0.0
 10
0.3116565903696566
 20
0.089272154983639
 10
0.3140206203679823
 20
0.0907104633805668
 10
0.3155623767993332
 20
0.0924569813207294
 10
0.317001352938844
 20
0.0935870818573429
 10
0.3176180555113872
 20
0.0960527548374367
 10
0.3178236239031291
 20
0.0986211620880434
  0
LWPOLYLINE
  5
1C12
330
2
100
AcDbEntity
  8
Vista
370
     0
100
AcDbPolyline
 90
        4
 70
   128
 43
0.0
 10
0.3240934403311313
 20
0.0896831004803213
 10
0.320804356473998
 20
0.0927651908639783
 10
0.3194681658316993
 20
0.0947171823939494
 10
0.31936538033448
 20
0.098312954227722
  0
LWPOLYLINE
  5
1C13
330
2
100
AcDbEntity
  8
Vista
370
     0
100
AcDbPolyline
 90
        5
 70
   128
 43
0.0
 10
0.3233739522613759
 20
0.089272154983639
 10
0.3209071393685205
 20
0.0914296184204909
 10
0.3192625974399503
 20
0.0935870818573429
 10
0.3184403264756723
 20
0.0958472812476282
 10
0.3184403264756723
 20
0.0980047446844802
  0
LWPOLYLINE
  5
1C14
330
2
100
AcDbEntity
  8
Vista
370
     0
100
AcDbPolyline
 90
        3
 70
   128
 43
0.0
 10
0.3145345400459958
 20
0.0864982741432309
 10
0.3162818648690886
 20
0.0880393184935921
 10
0.3171041358333737
 20
0.0909159369703682
  0
LWPOLYLINE
  5
1C15
330
2
100
AcDbEntity
  8
Vista
370
     0
100
AcDbPolyline
 90
        4
 70
   128
 43
0.0
 10
0.3150484571213197
 20
0.0854709112429854
 10
0.3164874332608305
 20
0.0870119555933465
 10
0.3172069187278963
 20
0.0883475280368339
 10
0.3173097042251156
 20
0.0900940459770036
  0
LWPOLYLINE
  5
1C16
330
2
100
AcDbEntity
  8
Vista
370
     0
100
AcDbPolyline
 90
        3
 70
   128
 43
0.0
 10
0.318029192294871
 20
0.08403260116313
 10
0.3177208384059098
 20
0.0864982741432309
 10
0.3177208384059098
 20
0.0887584735335162
  0
LWPOLYLINE
  5
1C17
330
2
100
AcDbEntity
  8
Vista
370
     0
100
AcDbPolyline
 90
        3
 70
   128
 43
0.0
 10
0.3187486777619368
 20
0.0841353371165704
 10
0.3182347580839233
 20
0.0876283729969098
 10
0.3182347580839233
 20
0.090299519566805
  0
LWPOLYLINE
  5
1C18
330
2
100
AcDbEntity
  8
Vista
370
     0
100
AcDbPolyline
 90
       26
 70
   128
 43
0.0
 10
0.3300572341697634
 20
0.0844195763686109
 10
0.3292511110163458
 20
0.0857705025177461
 10
0.3292511110163458
 20
0.0872112343293589
 10
0.3297556011426421
 20
0.0879316010766326
 10
0.3294673192114088
 20
0.0886519661409716
 10
0.3294673192114088
 20
0.0900926996355119
 10
0.3306925102617539
 20
0.0911012120719329
 10
0.3317014879116569
 20
0.0911012120719329
 10
0.3322059780379531
 20
0.0919656525052369
 10
0.3326383996334583
 20
0.0933343483152948
 10
0.3340077277453857
 20
0.0938386036920415
 10
0.3351608476622501
 20
0.0936224940044491
 10
0.3358094774528182
 20
0.0921817621928364
 10
0.3357374063193375
 20
0.0908851023843335
 10
0.3365301757741774
 20
0.0911732480734878
 10
0.3378274353553137
 20
0.091029176070378
 10
0.3381157146838503
 20
0.0904528830091488
 10
0.3373950163624981
 20
0.0891562232006459
 10
0.3380436461530663
 20
0.0892282592022008
 10
0.3385481362793625
 20
0.0884358564533793
 10
0.3382598569508188
 20
0.0868510509557291
 10
0.3389084841386902
 20
0.0869230886402116
 10
0.3392688346007218
 20
0.0865629052665748
 10
0.3392688346007218
 20
0.0854103191441164
 10
0.3386414373540709
 20
0.0847552693717173
 10
0.3381788382065831
 20
0.0844049774057689
  0
LWPOLYLINE
  5
1C19
330
2
100
AcDbEntity
  8
Vista
370
     0
100
AcDbPolyline
 90
        2
 70
   128
 43
0.0
 10
0.3355211981242745
 20
0.0886519661409716
 10
0.3369625973696826
 20
0.0902367733215494
  0
LWPOLYLINE
  5
1C1A
330
2
100
AcDbEntity
  8
Vista
370
     0
100
AcDbPolyline
 90
        2
 70
   128
 43
0.0
 10
0.3355211981242745
 20
0.0893002968866833
 10
0.3366022469076582
 20
0.0904528830091488
  0
LWPOLYLINE
  5
1C1B
330
2
100
AcDbEntity
  8
Vista
370
     0
100
AcDbPolyline
 90
        2
 70
   128
 43
0.0
 10
0.3360256856478812
 20
0.0871391983278039
 10
0.3373950163624981
 20
0.0885078941378618
  0
LWPOLYLINE
  5
1C1C
330
2
100
AcDbEntity
  8
Vista
370
     0
100
AcDbPolyline
 90
        2
 70
   128
 43
0.0
 10
0.3363139675791145
 20
0.0864908675820923
 10
0.33753915602677
 20
0.0878595633921501
  0
LWPOLYLINE
  5
1C1D
330
2
100
AcDbEntity
  8
Vista
370
     0
100
AcDbPolyline
 90
        2
 70
   128
 43
0.0
 10
0.3366743154384493
 20
0.0850501357704795
 10
0.3380436461530663
 20
0.0859145745208631
  0
LWPOLYLINE
  5
1C1E
330
2
100
AcDbEntity
  8
Vista
370
     0
100
AcDbPolyline
 90
        2
 70
   128
 43
0.0
 10
0.3319176987094095
 20
0.0850501357704795
 10
0.3301159490019769
 20
0.0866349412681297
  0
LWPOLYLINE
  5
1C1F
330
2
100
AcDbEntity
  8
Vista
370
     0
100
AcDbPolyline
 90
        2
 70
   128
 43
0.0
 10
0.3314852797165939
 20
0.0846179163952877
 10
0.3304762994640014
 20
0.0856984648332636
  0
LWPOLYLINE
  5
1C20
330
2
100
AcDbEntity
  8
Vista
370
     0
100
AcDbPolyline
 90
        2
 70
   128
 43
0.0
 10
0.3320618383736813
 20
0.0875714177029957
 10
0.3307645787925451
 20
0.0892282592022008
  0
LWPOLYLINE
  5
1C21
330
2
100
AcDbEntity
  8
Vista
370
     0
100
AcDbPolyline
 90
        2
 70
   128
 43
0.0
 10
0.3319897698428902
 20
0.0884358564533793
 10
0.3309807895902976
 20
0.0899486259494745
  0
LWPOLYLINE
  5
1C22
330
2
100
AcDbEntity
  8
Vista
370
     0
100
AcDbPolyline
 90
        2
 70
   128
 43
0.0
 10
0.3332870294240264
 20
0.0908130663827786
 10
0.3327825392977302
 20
0.0921097245083539
  0
LWPOLYLINE
  5
1C23
330
2
100
AcDbEntity
  8
Vista
370
     0
100
AcDbPolyline
 90
        2
 70
   128
 43
0.0
 10
0.3338635880811138
 20
0.0911012120719329
 10
0.3332870294240264
 20
0.0926860175695831
  0
LWPOLYLINE
  5
1C24
330
2
100
AcDbEntity
  8
Vista
370
     0
100
AcDbPolyline
 90
        2
 70
   128
 43
0.0
 10
0.3342239385431382
 20
0.091029176070378
 10
0.3345122178716819
 20
0.0924699078819907
  0
LWPOLYLINE
  5
1C25
330
2
100
AcDbEntity
  8
Vista
370
     0
100
AcDbPolyline
 90
        2
 70
   128
 43
0.0
 10
0.3332870294240264
 20
0.0845458787108052
 10
0.3335032376190894
 20
0.0899486259494745
  0
LWPOLYLINE
  5
1C26
330
2
100
AcDbEntity
  8
Vista
370
     0
100
AcDbPolyline
 90
        2
 70
   128
 43
0.0
 10
0.3345842864024731
 20
0.0847619883984047
 10
0.3342239385431382
 20
0.0897325162618751
  0
LWPOLYLINE
  5
1C27
330
2
100
AcDbEntity
  8
Vista
370
     0
100
AcDbPolyline
 90
       10
 70
   128
 43
0.0
 10
0.3202896663992603
 20
0.0987151131632439
 10
0.3204513742319277
 20
0.0968563221230875
 10
0.3203705216169423
 20
0.0954016169697093
 10
0.3204513742319277
 20
0.0943509960201817
 10
0.3220684629693535
 20
0.0941893626752298
 10
0.3227152969027058
 20
0.0936236434434997
 10
0.3240898225897892
 20
0.0931387417257023
 10
0.3247366565231415
 20
0.0939469118163311
 10
0.3253834930591906
 20
0.0946742643930202
 10
0.3261920348252103
 20
0.0941893626752298
  0
LWPOLYLINE
  5
1C28
330
2
100
AcDbEntity
  8
Vista
370
     0
100
AcDbPolyline
 90
        2
 70
   128
 43
0.0
 10
0.325626056109533
 20
0.0977453097276561
 10
0.3270005791939197
 20
0.0983918447904054
  0
LWPOLYLINE
  5
1C29
330
2
100
AcDbEntity
  8
Vista
370
     0
100
AcDbPolyline
 90
        2
 70
   128
 43
0.0
 10
0.3268388713612522
 20
0.0969371396370272
 10
0.3279708313952965
 20
0.097179590495926
  0
LWPOLYLINE
  5
1C2A
330
2
100
AcDbEntity
  8
Vista
370
     0
100
AcDbPolyline
 90
        4
 70
   128
 43
0.0
 10
0.322311026019696
 20
0.0979069430726151
 10
0.322311026019696
 20
0.0966138712641888
 10
0.321745044701329
 20
0.0959673362014465
 10
0.3214216264333045
 20
0.0955632503146683
  0
LWPOLYLINE
  5
1C2B
330
2
100
AcDbEntity
  8
Vista
370
     0
100
AcDbPolyline
 90
        3
 70
   128
 43
0.0
 10
0.3229578599530483
 20
0.0975028571858369
 10
0.3228770073380629
 20
0.0962097870603381
 10
0.322230170802021
 20
0.0953207994557696
  0
LWPOLYLINE
  5
1C2C
330
2
100
AcDbEntity
  8
Vista
370
     0
100
AcDbPolyline
 90
        3
 70
   128
 43
0.0
 10
0.3238472595394397
 20
0.0968563221230875
 10
0.3236046964890973
 20
0.0957248853425478
 10
0.3231195703884124
 20
0.0945934468790805
  0
LWPOLYLINE
  5
1C2D
330
2
100
AcDbEntity
  8
Vista
370
     0
100
AcDbPolyline
 90
        3
 70
   128
 43
0.0
 10
0.3245749486904741
 20
0.0962097870603381
 10
0.3241706752047746
 20
0.0949167152519189
 10
0.3235238412714223
 20
0.0940277276473504
  0
LWPOLYLINE
  5
1C2E
330
2
100
AcDbEntity
  8
Vista
370
     0
100
AcDbPolyline
 90
       10
 70
   128
 43
0.0
 10
0.3410064071383358
 20
0.0992008092225158
 10
0.3396457668110158
 20
0.0979314633170455
 10
0.3384665418972601
 20
0.0972967912057706
 10
0.3375594466105893
 20
0.0962087806700746
 10
0.3360173856643185
 20
0.0959367776154204
 10
0.3344753247180547
 20
0.0965714497266882
 10
0.334203195090977
 20
0.0976594602623914
 10
0.3341124860828428
 20
0.0983848017414738
 10
0.332479716128445
 20
0.0983848017414738
 10
0.3311879496654446
 20
0.099317312054986
  0
LWPOLYLINE
  5
1C2F
330
2
100
AcDbEntity
  8
Vista
370
     0
100
AcDbPolyline
 90
        2
 70
   128
 43
0.0
 10
0.3359266766561915
 20
0.0993821445922899
 10
0.3356545470291137
 20
0.0977501279472714
  0
LWPOLYLINE
  5
1C30
330
2
100
AcDbEntity
  8
Vista
370
     0
100
AcDbPolyline
 90
        2
 70
   128
 43
0.0
 10
0.3371058989672504
 20
0.0993821445922899
 10
0.3367430629347352
 20
0.0978407956321584
  0
LWPOLYLINE
  5
1C31
330
2
100
AcDbEntity
  8
Vista
370
     0
100
AcDbPolyline
 90
        2
 70
   128
 43
0.0
 10
0.3338013455305819
 20
0.099317312054986
 10
0.3330239727799109
 20
0.0989288061678616
  0
LWPOLYLINE
  5
1C32
330
2
100
AcDbEntity
  8
Vista
370
     0
100
AcDbPolyline
 90
        2
 70
   128
 43
0.0
 10
0.3386825338704093
 20
0.099317312054986
 10
0.338829380532472
 20
0.0986568031132004
  0
LWPOLYLINE
  5
1C33
330
2
100
AcDbEntity
  8
Vista
370
     0
100
AcDbPolyline
 90
       37
 70
   128
 43
0.0
 10
0.3439076196723205
 20
0.0987238997244114
 10
0.3400974561325383
 20
0.096611489922679
 10
0.3391890985404358
 20
0.0959629639574468
 10
0.3381509785525323
 20
0.0944065023140647
 10
0.3382158610517776
 20
0.0925257776880736
 10
0.3395135110366552
 20
0.0918772517228414
 10
0.3418492862148155
 20
0.0922663662922213
 10
0.3426927587049902
 20
0.0924609244183751
 10
0.3427576412042355
 20
0.0916826935966876
 10
0.3417844037155773
 20
0.0908396111882292
 10
0.3416546387170867
 20
0.0894777059880804
 10
0.3423683462087708
 20
0.0883103605970058
 10
0.3438606462940739
 20
0.087791539488236
 10
0.3452880612774349
 20
0.087791539488236
 10
0.3458720063733252
 20
0.0875969813620822
 10
0.345617481352319
 20
0.0860468879139654
 10
0.3461365413462742
 20
0.0837640767183098
 10
0.3484415110664953
 20
0.0828828305773181
 10
0.3505778341782089
 20
0.0826662025482458
 10
0.3529928040568022
 20
0.0831613516077278
 10
0.3540262626240234
 20
0.0850092473793533
 10
0.3538186381059047
 20
0.0872920568920813
 10
0.35610250520252
 20
0.0873958211138367
 10
0.3582825613414242
 20
0.0874995853355921
 10
0.3589054348957801
 20
0.0883296991096211
 10
0.3591130568112091
 20
0.0900936875135793
 10
0.3584901858595428
 20
0.0914426223963782
 10
0.3580749368233056
 20
0.0923764987092349
 10
0.3583863722991352
 20
0.0936216676873579
 10
0.3599419073798897
 20
0.0930734004072201
 10
0.3619975834892541
 20
0.0921487734604151
 10
0.3634365596287721
 20
0.0924569813207294
 10
0.3638476938095663
 20
0.0941007633074657
 10
0.3632309912370302
 20
0.0962582267443105
 10
0.36158644930846
 20
0.0973883272809241
 10
0.360147473168942
 20
0.0981074806379207
 10
0.3587084996321208
 20
0.0993403171279676
  0
LWPOLYLINE
  5
1C34
330
2
100
AcDbEntity
  8
Vista
370
     0
100
AcDbPolyline
 90
        3
 70
   128
 43
0.0
 10
0.3390767767811396
 20
0.0935870818573429
 10
0.3415435896739949
 20
0.0951281278906317
 10
0.3446271077420759
 20
0.096360962697751
  0
LWPOLYLINE
  5
1C35
330
2
100
AcDbEntity
  8
Vista
370
     0
100
AcDbPolyline
 90
        3
 70
   128
 43
0.0
 10
0.3396934793536828
 20
0.0929706644537797
 10
0.3416463751712142
 20
0.0941007633074657
 10
0.3445243222448566
 20
0.0953335997975126
  0
LWPOLYLINE
  5
1C36
330
2
100
AcDbEntity
  8
Vista
370
     0
100
AcDbPolyline
 90
        6
 70
   128
 43
0.0
 10
0.343188131602558
 20
0.0898885740701227
 10
0.345654947098103
 20
0.0911214088772491
 10
0.3474022719211958
 20
0.0926624549105378
 10
0.349046813849766
 20
0.0941007633074657
 10
0.3494579506332569
 20
0.0959500172010687
 10
0.3494579506332569
 20
0.0989293716312853
  0
LWPOLYLINE
  5
1C37
330
2
100
AcDbEntity
  8
Vista
370
     0
100
AcDbPolyline
 90
        6
 70
   128
 43
0.0
 10
0.3441131880640624
 20
0.089272154983639
 10
0.3464772180623881
 20
0.0907104633805668
 10
0.348018974493739
 20
0.0924569813207294
 10
0.3494579506332569
 20
0.0935870818573429
 10
0.350074653205793
 20
0.0960527548374367
 10
0.3502802215975349
 20
0.0986211620880434
  0
LWPOLYLINE
  5
1C38
330
2
100
AcDbEntity
  8
Vista
370
     0
100
AcDbPolyline
 90
        4
 70
   128
 43
0.0
 10
0.3565500380255371
 20
0.0896831004803213
 10
0.3532609541684037
 20
0.0927651908639783
 10
0.3519247635261051
 20
0.0947171823939494
 10
0.3518219780288858
 20
0.098312954227722
  0
LWPOLYLINE
  5
1C39
330
2
100
AcDbEntity
  8
Vista
370
     0
100
AcDbPolyline
 90
        5
 70
   128
 43
0.0
 10
0.3558305499557817
 20
0.089272154983639
 10
0.3533637370629263
 20
0.0914296184204909
 10
0.3517191951343632
 20
0.0935870818573429
 10
0.3508969241700781
 20
0.0958472812476282
 10
0.3508969241700781
 20
0.0980047446844802
  0
LWPOLYLINE
  5
1C3A
330
2
100
AcDbEntity
  8
Vista
370
     0
100
AcDbPolyline
 90
        3
 70
   128
 43
0.0
 10
0.3469911377404016
 20
0.0864982741432309
 10
0.3487384625634944
 20
0.0880393184935921
 10
0.3495607335277795
 20
0.0909159369703682
  0
LWPOLYLINE
  5
1C3B
330
2
100
AcDbEntity
  8
Vista
370
     0
100
AcDbPolyline
 90
        4
 70
   128
 43
0.0
 10
0.3475050548157255
 20
0.0854709112429854
 10
0.3489440309552434
 20
0.0870119555933465
 10
0.3496635164223092
 20
0.0883475280368339
 10
0.3497663019195214
 20
0.0900940459770036
  0
LWPOLYLINE
  5
1C3C
330
2
100
AcDbEntity
  8
Vista
370
     0
100
AcDbPolyline
 90
        3
 70
   128
 43
0.0
 10
0.3504857899892839
 20
0.08403260116313
 10
0.3501774361003227
 20
0.0864982741432309
 10
0.3501774361003227
 20
0.0887584735335162
  0
LWPOLYLINE
  5
1C3D
330
2
100
AcDbEntity
  8
Vista
370
     0
100
AcDbPolyline
 90
        3
 70
   128
 43
0.0
 10
0.3512052754563497
 20
0.0841353371165704
 10
0.3506913557783362
 20
0.0876283729969098
 10
0.3506913557783362
 20
0.090299519566805
  0
LWPOLYLINE
  5
1C3E
330
2
100
AcDbEntity
  8
Vista
370
     0
100
AcDbPolyline
 90
       26
 70
   128
 43
0.0
 10
0.3624801225073868
 20
0.084473812381066
 10
0.3617077087107516
 20
0.0857705025177461
 10
0.3617077087107516
 20
0.0872112343293589
 10
0.3622121988370479
 20
0.0879316010766326
 10
0.3619239169058146
 20
0.0886519661409716
 10
0.3619239169058146
 20
0.0900926996355119
 10
0.3631491079561597
 20
0.0911012120719329
 10
0.3641580856060627
 20
0.0911012120719329
 10
0.3646625757323589
 20
0.0919656525052369
 10
0.3650949973278641
 20
0.0933343483152948
 10
0.3664643254397915
 20
0.0938386036920415
 10
0.3676174453566559
 20
0.0936224940044491
 10
0.368266075147224
 20
0.0921817621928364
 10
0.3681940040137432
 20
0.0908851023843335
 10
0.3689867734685832
 20
0.0911732480734878
 10
0.3702840330497195
 20
0.091029176070378
 10
0.3705723123782632
 20
0.0904528830091488
 10
0.3698516140569039
 20
0.0891562232006459
 10
0.370500243847472
 20
0.0892282592022008
 10
0.3710047339737683
 20
0.0884358564533793
 10
0.3707164546452246
 20
0.0868510509557291
 10
0.3713650818331031
 20
0.0869230886402116
 10
0.3717254322951276
 20
0.0865629052665748
 10
0.3717254322951276
 20
0.0854103191441164
 10
0.3709667553402001
 20
0.0847207108148265
 10
0.3705962375795659
 20
0.0844209052817629
  0
LWPOLYLINE
  5
1C3F
330
2
100
AcDbEntity
  8
Vista
370
     0
100
AcDbPolyline
 90
        2
 70
   128
 43
0.0
 10
0.3679777958186803
 20
0.0886519661409716
 10
0.3694191950640884
 20
0.0902367733215494
  0
LWPOLYLINE
  5
1C40
330
2
100
AcDbEntity
  8
Vista
370
     0
100
AcDbPolyline
 90
        2
 70
   128
 43
0.0
 10
0.3679777958186803
 20
0.0893002968866833
 10
0.3690588446020639
 20
0.0904528830091488
  0
LWPOLYLINE
  5
1C41
330
2
100
AcDbEntity
  8
Vista
370
     0
100
AcDbPolyline
 90
        2
 70
   128
 43
0.0
 10
0.3684822833422869
 20
0.0871391983278039
 10
0.3698516140569039
 20
0.0885078941378618
  0
LWPOLYLINE
  5
1C42
330
2
100
AcDbEntity
  8
Vista
370
     0
100
AcDbPolyline
 90
        2
 70
   128
 43
0.0
 10
0.3687705652735203
 20
0.0864908675820923
 10
0.3699957537211758
 20
0.0878595633921501
  0
LWPOLYLINE
  5
1C43
330
2
100
AcDbEntity
  8
Vista
370
     0
100
AcDbPolyline
 90
        2
 70
   128
 43
0.0
 10
0.3691309131328551
 20
0.0850501357704795
 10
0.370500243847472
 20
0.0859145745208631
  0
LWPOLYLINE
  5
1C44
330
2
100
AcDbEntity
  8
Vista
370
     0
100
AcDbPolyline
 90
        2
 70
   128
 43
0.0
 10
0.3643742964038152
 20
0.0850501357704795
 10
0.3625725466963827
 20
0.0866349412681297
  0
LWPOLYLINE
  5
1C45
330
2
100
AcDbEntity
  8
Vista
370
     0
100
AcDbPolyline
 90
        2
 70
   128
 43
0.0
 10
0.3639418774109997
 20
0.0846179163952877
 10
0.3629328971584071
 20
0.0856984648332636
  0
LWPOLYLINE
  5
1C46
330
2
100
AcDbEntity
  8
Vista
370
     0
100
AcDbPolyline
 90
        2
 70
   128
 43
0.0
 10
0.3645184360680871
 20
0.0875714177029957
 10
0.3632211764869508
 20
0.0892282592022008
  0
LWPOLYLINE
  5
1C47
330
2
100
AcDbEntity
  8
Vista
370
     0
100
AcDbPolyline
 90
        2
 70
   128
 43
0.0
 10
0.364446367537296
 20
0.0884358564533793
 10
0.3634373872847034
 20
0.0899486259494745
  0
LWPOLYLINE
  5
1C48
330
2
100
AcDbEntity
  8
Vista
370
     0
100
AcDbPolyline
 90
        2
 70
   128
 43
0.0
 10
0.3657436271184322
 20
0.0908130663827786
 10
0.3652391369921359
 20
0.0921097245083539
  0
LWPOLYLINE
  5
1C49
330
2
100
AcDbEntity
  8
Vista
370
     0
100
AcDbPolyline
 90
        2
 70
   128
 43
0.0
 10
0.3663201857755196
 20
0.0911012120719329
 10
0.3657436271184322
 20
0.0926860175695831
  0
LWPOLYLINE
  5
1C4A
330
2
100
AcDbEntity
  8
Vista
370
     0
100
AcDbPolyline
 90
        2
 70
   128
 43
0.0
 10
0.366680536237544
 20
0.091029176070378
 10
0.3669688155660877
 20
0.0924699078819907
  0
LWPOLYLINE
  5
1C4B
330
2
100
AcDbEntity
  8
Vista
370
     0
100
AcDbPolyline
 90
        2
 70
   128
 43
0.0
 10
0.3657436271184322
 20
0.0845458787108052
 10
0.3659598353134952
 20
0.0899486259494745
  0
LWPOLYLINE
  5
1C4C
330
2
100
AcDbEntity
  8
Vista
370
     0
100
AcDbPolyline
 90
        2
 70
   128
 43
0.0
 10
0.3670408840968788
 20
0.0847619883984047
 10
0.366680536237544
 20
0.0897325162618751
  0
LWPOLYLINE
  5
1C4D
330
2
100
AcDbEntity
  8
Vista
370
     0
100
AcDbPolyline
 90
       10
 70
   128
 43
0.0
 10
0.3527462640936732
 20
0.0987151131632439
 10
0.3529079719263406
 20
0.0968563221230875
 10
0.3528271193113481
 20
0.0954016169697093
 10
0.3529079719263406
 20
0.0943509960201817
 10
0.3545250606637593
 20
0.0941893626752298
 10
0.3551718945971187
 20
0.0936236434434997
 10
0.356546420284195
 20
0.0931387417257023
 10
0.3571932542175473
 20
0.0939469118163311
 10
0.3578400907535963
 20
0.0946742643930202
 10
0.3586486325196161
 20
0.0941893626752298
  0
LWPOLYLINE
  5
1C4E
330
2
100
AcDbEntity
  8
Vista
370
     0
100
AcDbPolyline
 90
        2
 70
   128
 43
0.0
 10
0.3580826538039388
 20
0.0977453097276561
 10
0.3594571768883255
 20
0.0983918447904054
  0
LWPOLYLINE
  5
1C4F
330
2
100
AcDbEntity
  8
Vista
370
     0
100
AcDbPolyline
 90
        2
 70
   128
 43
0.0
 10
0.3592954690556651
 20
0.0969371396370272
 10
0.3604274290897023
 20
0.097179590495926
  0
LWPOLYLINE
  5
1C50
330
2
100
AcDbEntity
  8
Vista
370
     0
100
AcDbPolyline
 90
        4
 70
   128
 43
0.0
 10
0.3547676237141089
 20
0.0979069430726151
 10
0.3547676237141089
 20
0.0966138712641888
 10
0.3542016423957348
 20
0.0959673362014465
 10
0.3538782241277174
 20
0.0955632503146683
  0
LWPOLYLINE
  5
1C51
330
2
100
AcDbEntity
  8
Vista
370
     0
100
AcDbPolyline
 90
        3
 70
   128
 43
0.0
 10
0.3554144576474612
 20
0.0975028571858369
 10
0.3553336050324758
 20
0.0962097870603381
 10
0.3546867684964268
 20
0.0953207994557696
  0
LWPOLYLINE
  5
1C52
330
2
100
AcDbEntity
  8
Vista
370
     0
100
AcDbPolyline
 90
        3
 70
   128
 43
0.0
 10
0.3563038572338526
 20
0.0968563221230875
 10
0.3560612941835031
 20
0.0957248853425478
 10
0.3555761680828182
 20
0.0945934468790805
  0
LWPOLYLINE
  5
1C53
330
2
100
AcDbEntity
  8
Vista
370
     0
100
AcDbPolyline
 90
        3
 70
   128
 43
0.0
 10
0.357031546384887
 20
0.0962097870603381
 10
0.3566272728991804
 20
0.0949167152519189
 10
0.3559804389658281
 20
0.0940277276473504
  0
LWPOLYLINE
  5
1C54
330
2
100
AcDbEntity
  8
Vista
370
     0
100
AcDbPolyline
 90
       10
 70
   128
 43
0.0
 10
0.3734630048327416
 20
0.0992008092225158
 10
0.3721023645054216
 20
0.0979314633170455
 10
0.370923139591673
 20
0.0972967912057706
 10
0.3700160443049951
 20
0.0962087806700746
 10
0.3684739833587314
 20
0.0959367776154204
 10
0.3669319224124605
 20
0.0965714497266882
 10
0.3666597927853827
 20
0.0976594602623914
 10
0.3665690837772557
 20
0.0983848017414738
 10
0.3649363138228578
 20
0.0983848017414738
 10
0.3636445473598575
 20
0.099317312054986
  0
LWPOLYLINE
  5
1C55
330
2
100
AcDbEntity
  8
Vista
370
     0
100
AcDbPolyline
 90
        2
 70
   128
 43
0.0
 10
0.3683832743505973
 20
0.0993821445922899
 10
0.3681111447235195
 20
0.0977501279472714
  0
LWPOLYLINE
  5
1C56
330
2
100
AcDbEntity
  8
Vista
370
     0
100
AcDbPolyline
 90
        2
 70
   128
 43
0.0
 10
0.3695624966616633
 20
0.0993821445922899
 10
0.3691996606291481
 20
0.0978407956321584
  0
LWPOLYLINE
  5
1C57
330
2
100
AcDbEntity
  8
Vista
370
     0
100
AcDbPolyline
 90
        2
 70
   128
 43
0.0
 10
0.3662579432249904
 20
0.099317312054986
 10
0.3654805704743238
 20
0.0989288061678616
  0
LWPOLYLINE
  5
1C58
330
2
100
AcDbEntity
  8
Vista
370
     0
100
AcDbPolyline
 90
        2
 70
   128
 43
0.0
 10
0.3711391315648209
 20
0.099317312054986
 10
0.3712859782268778
 20
0.0986568031132004
  0
LWPOLYLINE
  5
1C59
330
2
100
AcDbEntity
  8
Vista
370
     0
100
AcDbPolyline
 90
        7
 70
   128
 43
0.0
 10
0.3740648922425873
 20
0.0974491206030177
 10
0.3725540538269512
 20
0.096611489922679
 10
0.3716456962348416
 20
0.0959629639574468
 10
0.3706075762469381
 20
0.0944065023140647
 10
0.3706724587461834
 20
0.0925257776880736
 10
0.3719701087310609
 20
0.0918772517228414
 10
0.3740648922425873
 20
0.0922262197192696
  0
LWPOLYLINE
  5
1C5A
330
2
100
AcDbEntity
  8
Vista
370
     0
100
AcDbPolyline
 90
        3
 70
   128
 43
0.0
 10
0.3715333744755525
 20
0.0935870818573429
 10
0.3740001873684007
 20
0.0951281278906317
 10
0.3740648922425873
 20
0.0951539978285812
  0
LWPOLYLINE
  5
1C5B
330
2
100
AcDbEntity
  8
Vista
370
     0
100
AcDbPolyline
 90
        2
 70
   128
 43
0.0
 10
0.3721500770480886
 20
0.0929706644537797
 10
0.3740648922425873
 20
0.0940787268690389
  0
LWPOLYLINE
  5
1CF4
330
2
100
AcDbEntity
  8
Profilo
370
     0
100
AcDbPolyline
 90
       18
 70
   129
 43
0.0
 10
0.2036855078398363
 20
0.1655439384459825
 10
0.2085676080361198
 20
0.1655439384459825
 10
0.2085676080361198
 20
0.1687740824404684
 10
0.2125829810579065
 20
0.1712317882795886
 10
0.2138124018708682
 20
0.1721095398161097
 10
0.2145734712377136
 20
0.1736309761542614
 10
0.2167492428729647
 20
0.1736309761542614
 42
-0.5067626992655868
 10
0.2336002271962629
 20
0.1884942381528034
 42
0.8323767306031847
 10
0.2343692014879368
 20
0.1905978162371624
 42
-0.5711565515501525
 10
0.2343692014879368
 20
0.1913509998549088
 42
0.4291839944521223
 10
0.2345833395833099
 20
0.1929331173152959
 42
-0.5111514914812561
 10
0.2378988920457348
 20
0.1960083131271701
 10
0.2386855078398329
 20
0.1960083131271701
 10
0.2386855078398329
 20
0.2005439384459933
 10
0.2267734738962164
 20
0.2005439384459933
 10
0.2267734738962164
 20
0.1974299086556115
 10
0.2071863160087732
 20
0.177070762027516
 10
0.2036855078398363
 20
0.177070762027516
  0
LWPOLYLINE
  5
1CF5
330
2
100
AcDbEntity
  8
Profilo
370
     0
100
AcDbPolyline
 90
       18
 70
   129
 43
0.0
 10
0.1648246794846377
 20
0.0763516085093835
 10
0.1697067796809213
 20
0.0763516085093835
 10
0.1697067796809213
 20
0.0795817525038695
 10
0.173722152702708
 20
0.0820394583429897
 10
0.1749515735156697
 20
0.0829172098795107
 10
0.1757126428825151
 20
0.0844386462176624
 10
0.1778884145177662
 20
0.0844386462176624
 42
-0.5067626992655868
 10
0.1947393988410644
 20
0.0993019082162044
 42
0.8323767306031847
 10
0.1955083731327383
 20
0.1014054863005634
 42
-0.5711565515501525
 10
0.1955083731327383
 20
0.1021586699183098
 42
0.4291839944521223
 10
0.1957225112281113
 20
0.1037407873786969
 42
-0.5111514914812561
 10
0.1990380636905362
 20
0.1068159831905711
 10
0.1998246794846343
 20
0.1068159831905711
 10
0.1998246794846343
 20
0.1113516085093943
 10
0.1879126455410178
 20
0.1113516085093943
 10
0.1879126455410178
 20
0.1082375787190125
 10
0.1683254876535747
 20
0.0878784320909171
 10
0.1648246794846377
 20
0.0878784320909171
  0
LINE
  5
1CF6
330
2
100
AcDbEntity
  8
Vista
 62
     3
100
AcDbLine
 10
0.1998246794846343
 20
0.1113516085093943
 30
0.0
 11
0.2111119880187251
 21
0.1113516085093943
 31
0.0
  0
LINE
  5
1CF7
330
2
100
AcDbEntity
  8
Vista
100
AcDbLine
 10
0.1998246794846343
 20
0.1068159831905711
 30
0.0
 11
0.2111119880187251
 21
0.1068159831905711
 31
0.0
  0
LINE
  5
1CF8
330
2
100
AcDbEntity
  8
Vista
100
AcDbLine
 10
0.1951955649571301
 20
0.099317312054986
 30
0.0
 11
0.2111119880187251
 21
0.099317312054986
 31
0.0
  0
LINE
  5
1CF9
330
2
100
AcDbEntity
  8
Vista
 62
     3
100
AcDbLine
 10
0.1697067796809213
 20
0.0763516085093835
 30
0.0
 11
0.2111119880187251
 21
0.0763516085093835
 31
0.0
  0
LINE
  5
1CFA
330
2
100
AcDbEntity
  8
Vista
100
AcDbLine
 10
0.1697067796809213
 20
0.0795817525038695
 30
0.0
 11
0.2111119880187251
 21
0.0795817525038695
 31
0.0
  0
LINE
  5
1CFB
330
2
100
AcDbEntity
  8
Vista
100
AcDbLine
 10
0.177948091562498
 20
0.0843160806123344
 30
0.0
 11
0.1837280395867384
 21
0.0843160806123344
 31
0.0
  0
LINE
  5
1CFF
330
2
100
AcDbEntity
  8
Vista
100
AcDbLine
 10
0.2238122097580393
 20
0.0843160806123344
 30
0.0
 11
0.2486412349755554
 21
0.0843160806123344
 31
0.0
  0
LINE
  5
1D00
330
2
100
AcDbEntity
  8
Vista
100
AcDbLine
 10
0.223024407206611
 20
0.0795817525038695
 30
0.0
 11
0.3740648922425873
 21
0.0795817525038695
 31
0.0
  0
LINE
  5
1D01
330
2
100
AcDbEntity
  8
Vista
 62
     3
100
AcDbLine
 10
0.223024407206611
 20
0.0763516085093835
 30
0.0
 11
0.3740648922425873
 21
0.0763516085093835
 31
0.0
  0
LINE
  5
1D02
330
2
100
AcDbEntity
  8
Vista
100
AcDbLine
 10
0.223024407206611
 20
0.099317312054986
 30
0.0
 11
0.3740648922425873
 21
0.099317312054986
 31
0.0
  0
LINE
  5
1D03
330
2
100
AcDbEntity
  8
Vista
100
AcDbLine
 10
0.223024407206611
 20
0.1068159831905712
 30
0.0
 11
0.3740648922425873
 21
0.1068159831905712
 31
0.0
  0
LINE
  5
1D04
330
2
100
AcDbEntity
  8
Vista
 62
     3
100
AcDbLine
 10
0.223024407206611
 20
0.1113516085093943
 30
0.0
 11
0.3740648922425873
 21
0.1113516085093943
 31
0.0
  0
LWPOLYLINE
  5
1D05
330
2
100
AcDbEntity
  8
Vista
370
     0
100
AcDbPolyline
 90
       19
 70
   128
 43
0.0
 10
0.223024407206611
 20
0.0831322356448776
 10
0.223166413279172
 20
0.0831613516077278
 10
0.2241998718463931
 20
0.0850092473793533
 10
0.2239922473282745
 20
0.0872920568920813
 10
0.2262761144248897
 20
0.0873958211138367
 10
0.228456170563794
 20
0.0874995853355921
 10
0.2290790441181498
 20
0.0883296991096211
 10
0.2292866660335717
 20
0.0900936875135793
 10
0.2286637950819126
 20
0.0914426223963782
 10
0.2282485460456753
 20
0.0923764987092349
 10
0.2285599815215049
 20
0.0936216676873579
 10
0.2301155166022595
 20
0.0930734004072201
 10
0.2321711927116239
 20
0.0921487734604151
 10
0.2336101688511347
 20
0.0924569813207294
 10
0.234021303031936
 20
0.0941007633074657
 10
0.2334046004593928
 20
0.0962582267443105
 10
0.2317600585308297
 20
0.0973883272809241
 10
0.2303210823913118
 20
0.0981074806379207
 10
0.2288821088544906
 20
0.0993403171279676
  0
LINE
  5
1D06
330
2
100
AcDbEntity
  8
Vista
100
AcDbLine
 10
0.3536386005356695
 20
0.0843160806123344
 30
0.0
 11
0.3740648922425873
 21
0.0843160806123344
 31
0.0
  0
LINE
  5
1D07
330
2
100
AcDbEntity
  8
Vista
100
AcDbLine
 10
0.3211820028412637
 20
0.0843160806123344
 30
0.0
 11
0.3460110280587799
 21
0.0843160806123344
 31
0.0
  0
LINE
  5
1D08
330
2
100
AcDbEntity
  8
Vista
100
AcDbLine
 10
0.2887254051468508
 20
0.0843160806123344
 30
0.0
 11
0.3135544303643741
 21
0.0843160806123344
 31
0.0
  0
LINE
  5
1D09
330
2
100
AcDbEntity
  8
Vista
100
AcDbLine
 10
0.2562688074524451
 20
0.0843160806123344
 30
0.0
 11
0.2810978326699629
 21
0.0843160806123344
 31
0.0
  0
LINE
  5
1D0A
330
2
100
AcDbEntity
  8
Vista
100
AcDbLine
 10
0.1913556120636264
 20
0.0843160806123344
 30
0.0
 11
0.2111119880187251
 21
0.0843160806123344
 31
0.0
  0
LWPOLYLINE
  5
1D12
330
2
100
AcDbEntity
  8
Vista
370
     0
100
AcDbPolyline
 90
        8
 70
   128
 43
0.0
 10
0.223024407206611
 20
0.0950939298305486
 10
0.2230815811487032
 20
0.0943509960201817
 10
0.2246986698861291
 20
0.0941893626752298
 10
0.2253455038194814
 20
0.0936236434434997
 10
0.2267200295065648
 20
0.0931387417257023
 10
0.2273668634399171
 20
0.0939469118163311
 10
0.2280136999759661
 20
0.0946742643930202
 10
0.2288222417419858
 20
0.0941893626752298
  0
LINE
  5
1D13
330
2
100
AcDbEntity
  8
Vista
100
AcDbLine
 10
0.1952991781710704
 20
0.1018536504754357
 30
0.0
 11
0.2111119880187251
 21
0.1018536504754357
 31
0.0
  0
LINE
  5
1D14
330
2
100
AcDbEntity
  8
Vista
100
AcDbLine
 10
0.223024407206611
 20
0.1018536504754357
 30
0.0
 11
0.3740648922425873
 21
0.1018536504754357
 31
0.0
  0
LINE
  5
1D15
330
2
100
AcDbEntity
  8
Vista
 62
     6
100
AcDbLine
 10
0.223024407206611
 20
0.0763516085093835
 30
0.0
 11
0.223024407206611
 21
0.1113516085093943
 31
0.0
  0
LINE
  5
1D16
330
2
100
AcDbEntity
  8
Vista
 62
     6
100
AcDbLine
 10
0.3740648922425873
 20
0.0763516085093835
 30
0.0
 11
0.3740648922425873
 21
0.1113516085093943
 31
0.0
  0
LINE
  5
1D18
330
2
100
AcDbEntity
  8
Vista
 62
     3
100
AcDbLine
 10
0.2386855078398329
 20
0.2005439384459933
 30
0.0
 11
0.3399945171925974
 21
0.222077833140213
 31
0.0
  0
LWPOLYLINE
  5
1D19
330
2
100
AcDbEntity
  8
Profilo
370
     0
100
AcDbPolyline
 90
        5
 70
   128
 43
0.0
 10
0.3098766173888843
 20
0.1870778331402022
 10
0.3098766173888843
 20
0.1903079771346882
 10
0.313891990410671
 20
0.1927656829738084
 10
0.3151214112236327
 20
0.1936434345103294
 10
0.3156236117281184
 20
0.1946473720354063
  0
LINE
  5
1D1A
330
2
100
AcDbEntity
  8
Vista
 62
     3
100
AcDbLine
 10
0.2267734738962164
 20
0.2005439384459933
 30
0.0
 11
0.3280824832489809
 21
0.222077833140213
 31
0.0
  0
LINE
  5
1D1B
330
2
100
AcDbEntity
  8
Vista
100
AcDbLine
 10
0.2386855078398329
 20
0.1960083131271701
 30
0.0
 11
0.3399945171925974
 21
0.2175422078213899
 31
0.0
  0
LINE
  5
1D1C
330
2
100
AcDbEntity
  8
Vista
100
AcDbLine
 10
0.2336002271962635
 20
0.1884942381528033
 30
0.0
 11
0.3349092365490268
 21
0.2100281328470233
 31
0.0
  0
LINE
  5
1D1D
330
2
100
AcDbEntity
  8
Vista
100
AcDbLine
 10
0.2167492428729647
 20
0.1736309761542614
 30
0.0
 11
0.3180582522257292
 21
0.1951648708484811
 31
0.0
  0
LINE
  5
1D1E
330
2
100
AcDbEntity
  8
Vista
 62
     3
100
AcDbLine
 10
0.2085676080361198
 20
0.1655439384459825
 30
0.0
 11
0.3098766173888843
 21
0.1870778331402022
 31
0.0
  0
LINE
  5
1D1F
330
2
100
AcDbEntity
  8
Vista
100
AcDbLine
 10
0.2085676080361198
 20
0.1687740824404684
 30
0.0
 11
0.3098766173888843
 21
0.1903079771346882
 31
0.0
  0
LINE
  5
1D20
330
2
100
AcDbEntity
  8
Vista
 62
     3
100
AcDbLine
 10
0.2036855078398363
 20
0.177070762027516
 30
0.0
 11
0.2080862542676672
 21
0.1780061695569974
 31
0.0
  0
LINE
  5
1D21
330
2
100
AcDbEntity
  8
Vista
100
AcDbLine
 10
0.2341541114319202
 20
0.1909728369192816
 30
0.0
 11
0.3354631207846847
 21
0.2125067316135013
 31
0.0
  0
LWPOLYLINE
  5
1D22
330
2
100
AcDbEntity
  8
Profilo
370
     0
100
AcDbPolyline
 90
        3
 70
   128
 43
0.0
 10
0.3399945171925974
 20
0.2175422078213899
 10
0.3399945171925974
 20
0.222077833140213
 10
0.3280824832489809
 20
0.222077833140213
  0
LWPOLYLINE
  5
1D23
330
2
100
AcDbEntity
  8
Profilo
370
     0
100
AcDbPolyline
 90
        5
 70
   128
 43
0.0
 10
0.3349092365490274
 20
0.2100281328470231
 42
0.8323767306031072
 10
0.3356782108407013
 20
0.2121317109313821
 42
-0.5711565515501525
 10
0.3356782108407013
 20
0.2128848945491285
 42
0.4291839944521223
 10
0.3358923489360744
 20
0.2144670120095157
 42
-0.241412519122306
 10
0.3367692223256133
 20
0.2168566502340918
  0
LWPOLYLINE
  5
1D24
330
2
100
AcDbEntity
  8
Profilo
370
     0
100
AcDbPolyline
 90
        2
 70
   128
 43
0.0
 10
0.3180582522257292
 20
0.1951648708484811
 42
-0.2624721349064496
 10
0.3236787732043063
 20
0.2076410241725082
  0
DIMENSION
  5
1D25
102
{ACAD_XDICTIONARY
360
1D33
102
}
102
{ACAD_REACTORS
330
1D3E
102
}
330
2
100
AcDbEntity
  8
Dimensione
100
AcDbDimension
  2
*D22
 10
0.1501487284598786
 20
0.2057895314377515
 30
0.0
 11
0.1501487284598786
 21
0.1707895314377408
 31
0.0
 70
    32
  1
70 mm
 71
     5
 42
0.0700000000000216
  3
Bovelacci
100
AcDbAlignedDimension
 13
0.0723008544440202
 23
0.13578953143773
 33
0.0
 14
0.1325366540514463
 24
0.2057895314377515
 34
0.0
 50
90.0
100
AcDbRotatedDimension
  0
DIMENSION
  5
1D3F
102
{ACAD_XDICTIONARY
360
1D4D
102
}
102
{ACAD_REACTORS
330
1D58
102
}
330
2
100
AcDbEntity
  8
Dimensione
100
AcDbDimension
  2
*D23
 10
0.0625991540514531
 20
0.1150395767869226
 30
0.0
 11
0.0975679040514497
 21
0.1150395767869226
 31
0.0
 70
    32
  1
70 mm
 71
     5
 42
0.0699374999999932
  3
Bovelacci
100
AcDbAlignedDimension
 13
0.1325366540514463
 23
0.1967182808001053
 33
0.0
 14
0.0625991540514531
 24
0.13578953143773
 34
0.0
100
AcDbRotatedDimension
  0
VIEWPORT
  5
7B
102
{ACAD_XDICTIONARY
360
1D6A
102
}
330
79
100
AcDbEntity
 67
     1
  8
0
100
AcDbViewport
 10
145.330337524414
 20
101.8116638660431
 30
0.0
 40
351.1337450215151
 41
222.1517806396485
 68
     1
 69
     1
 12
145.330337524414
 22
101.8116638660431
 13
0.0
 23
0.0
 14
10.0
 24
10.0
 15
10.0
 25
10.0
 16
0.0
 26
0.0
 36
1.0
 17
0.0
 27
0.0
 37
0.0
 42
50.0
 43
0.0
 44
0.0
 45
222.1517806396485
 50
0.0
 51
0.0
 72
  1000
 90
    32800
  1

281
     0
 71
     1
 74
     0
110
0.0
120
0.0
130
0.0
111
1.0
121
0.0
131
0.0
112
0.0
122
1.0
132
0.0
 79
     0
146
0.0
  0
VIEWPORT
  5
80
102
{ACAD_XDICTIONARY
360
1D6C
102
}
330
79
100
AcDbEntity
 67
     1
  8
Sezione
100
AcDbViewport
 10
145.3303314447403
 20
101.8116623163223
 30
0.0
 40
232.5285303115845
 41
162.8986597061157
 68
     2
 69
     2
 12
0.2100067158578973
 22
0.1484909068076998
 13
0.0
 23
0.0
 14
10.0
 24
10.0
 15
10.0
 25
10.0
 16
0.0
 26
0.0
 36
1.0
 17
0.0
 27
0.0
 37
0.0
 42
50.0
 43
0.0
 44
0.0
 45
0.2752830087467564
 50
0.0
 51
0.0
 72
  1000
 90
    32864
  1

281
     0
 71
     1
 74
     0
110
0.0
120
0.0
130
0.0
111
1.0
121
0.0
131
0.0
112
0.0
122
1.0
132
0.0
 79
     0
146
0.0
  0
ENDSEC
  0
SECTION
  2
OBJECTS
  0
DICTIONARY
  5
9
330
0
100
AcDbDictionary
281
     1
  3
ACAD_2007HEADERVARS_RT
350
14A
  3
ACAD_COLOR
350
A1
  3
ACAD_GROUP
350
9C
  3
ACAD_LAYOUT
350
78
  3
ACAD_MATERIAL
350
B
  3
ACAD_MLINESTYLE
350
9D
  3
ACAD_PLOTSETTINGS
350
9E
  3
ACAD_PLOTSTYLENAME
350
8
  3
ACAD_TABLESTYLE
350
A2
  3
ACAD_VISUALSTYLE
350
7F
  3
ACDBHEADERROUNDTRIPXREC
350
1D67
  3
AcDbVariableDictionary
350
A9
  3
AEC_PROPERTY_SET_DEFS
350
10D
  3
DWGPROPS
350
1D66
  0
DICTIONARY
  5
8B
330
8A
100
AcDbDictionary
280
     1
281
     1
  3
ACAD_LAYERFILTERS
360
48D
  3
ACAD_LAYERSTATES
360
8D
  3
ACLYDICTIONARY
360
48C
  0
DICTIONARY
  5
3
330
2
100
AcDbDictionary
280
     1
281
     1
  3
ACAD_SORTENTS
360
A8
  0
DICTIONARY
  5
B6D
330
B69
100
AcDbDictionary
280
     1
281
     1
  3
ACAD_SORTENTS
360
B6E
  0
DICTIONARY
  5
10D6
330
FEB
100
AcDbDictionary
280
     1
281
     1
  0
DICTIONARY
  5
1D71
330
10F
100
AcDbDictionary
280
     1
281
     1
  3
ACAD_MTEXT_RT
360
1D72
  0
DICTIONARY
  5
1D33
330
1D25
100
AcDbDictionary
280
     1
281
     1
  3
ACAD_DIMASSOC
360
1D3E
  0
DICTIONARY
  5
1D4D
330
1D3F
100
AcDbDictionary
280
     1
281
     1
  3
ACAD_DIMASSOC
360
1D58
  0
DICTIONARY
  5
1D6A
330
7B
100
AcDbDictionary
280
     1
281
     1
  3
ACAD_XREC_ROUNDTRIP
360
1D6B
  0
DICTIONARY
  5
1D6C
330
80
100
AcDbDictionary
280
     1
281
     1
  3
ACAD_XREC_ROUNDTRIP
360
1D6D
  0
DICTIONARY
  5
14A
102
{ACAD_REACTORS
330
9
102
}
330
9
100
AcDbDictionary
281
     1
  3
DIMFXL
350
14B
  0
DICTIONARY
  5
A1
102
{ACAD_REACTORS
330
9
102
}
330
9
100
AcDbDictionary
281
     1
  0
DICTIONARY
  5
9C
102
{ACAD_REACTORS
330
9
102
}
330
9
100
AcDbDictionary
281
     1
  0
DICTIONARY
  5
78
102
{ACAD_REACTORS
330
9
102
}
330
9
100
AcDbDictionary
281
     1
  3
Layout1
350
82
  3
Layout2
350
89
  3
Model
350
77
  0
DICTIONARY
  5
B
102
{ACAD_REACTORS
330
9
102
}
330
9
100
AcDbDictionary
281
     1
  3
ByBlock
350
A0
  3
ByLayer
350
9F
  3
Global
350
A
  0
DICTIONARY
  5
9D
102
{ACAD_REACTORS
330
9
102
}
330
9
100
AcDbDictionary
281
     1
  3
Standard
350
A3
  0
DICTIONARY
  5
9E
102
{ACAD_REACTORS
330
9
102
}
330
9
100
AcDbDictionary
281
     1
  0
ACDBDICTIONARYWDFLT
  5
8
102
{ACAD_REACTORS
330
9
102
}
330
9
100
AcDbDictionary
281
     1
  3
Normal
350
7
100
AcDbDictionaryWithDefault
340
7
  0
DICTIONARY
  5
A2
102
{ACAD_REACTORS
330
9
102
}
330
9
100
AcDbDictionary
281
     1
  3
Standard
350
A4
  0
DICTIONARY
  5
7F
102
{ACAD_REACTORS
330
9
102
}
330
9
100
AcDbDictionary
281
     1
  3
2dWireframe
350
7E
  3
3D Hidden
350
D8
  3
3dWireframe
350
A6
  3
Basic
350
D7
  3
Brighten
350
DB
  3
ColorChange
350
DF
  3
Conceptual
350
D9
  3
Dim
350
DA
  3
Facepattern
350
DE
  3
Flat
350
D3
  3
FlatWithEdges
350
D4
  3
Gouraud
350
D5
  3
GouraudWithEdges
350
D6
  3
Linepattern
350
DD
  3
Realistic
350
A5
  3
Thicken
350
DC
  0
DICTIONARY
  5
1D67
102
{ACAD_REACTORS
330
9
102
}
330
9
100
AcDbDictionary
281
     1
  0
DICTIONARY
  5
A9
102
{ACAD_REACTORS
330
9
102
}
330
9
100
AcDbDictionary
281
     1
  3
CTABLESTYLE
350
AA
  3
DIMASSOC
350
AE
  3
HIDETEXT
350
AD
  3
INDEXCTL
350
AC
  3
PROJECTNAME
350
16A
  3
SORTENTS
350
AB
  0
DICTIONARY
  5
10D
102
{ACAD_REACTORS
330
9
102
}
330
9
100
AcDbDictionary
281
     1
  0
XRECORD
  5
1D66
102
{ACAD_REACTORS
330
9
102
}
330
9
100
AcDbXrecord
280
     1
  1
DWGPROPS COOKIE
  2

  3

  4

  6

  7

  8
Mario
  9

300
=
301
=
302
=
303
=
304
=
305
=
306
=
307
=
308
=
309
=
 40
0.2874916898148148
 41
2454297.625402373
 42
2454334.980139421
  1

 90
        0
  0
DICTIONARY
  5
48D
102
{ACAD_REACTORS
330
8B
102
}
330
8B
100
AcDbDictionary
281
     1
  0
DICTIONARY
  5
8D
102
{ACAD_REACTORS
330
8B
102
}
330
8B
100
AcDbDictionary
281
     1
  0
DICTIONARY
  5
48C
102
{ACAD_REACTORS
330
8B
102
}
330
8B
100
AcDbDictionary
281
     1
1001
ACAD
1000
<All
  0
SORTENTSTABLE
  5
A8
102
{ACAD_REACTORS
330
3
102
}
330
3
100
AcDbSortentsTable
330
2
331
1D00
  5
1D01
331
1C4B
  5
1C4D
331
1C14
  5
1C16
331
1BD5
  5
1BD7
331
1D08
  5
1D06
331
1C53
  5
1C55
331
1C1C
  5
1C1E
331
1BDD
  5
1BDF
331
1B9A
  5
1B9A
331
1C5B
  5
1CF5
331
1C24
  5
1C26
331
1BE5
  5
1BE7
331
1D18
  5
1D18
331
1C2C
  5
1C2E
331
1BAA
  5
1BAB
331
1BED
  5
1BEF
331
1BB2
  5
1BB3
331
110
  5
110
331
D
  5
13
331
15
  5
11
331
1D
  5
1E
331
1D20
  5
1D23
331
1C34
  5
1C36
331
1BF5
  5
1BF7
331
1BBA
  5
1BBC
331
1C3C
  5
1C3E
331
1BFD
  5
1BFF
331
1B7B
  5
1B7B
331
1BC2
  5
1BC4
331
1C44
  5
1C46
331
1C05
  5
1C07
331
1B83
  5
1B83
331
1BCA
  5
1BCC
331
1CF9
  5
1CFE
331
1C0D
  5
1C0F
331
1B8B
  5
1B8B
331
1B93
  5
1B93
331
25
  5
25
331
1D01
  5
1CFF
331
1C4C
  5
1C4E
331
1C15
  5
1C17
331
1BD6
  5
1BD8
331
11A4
  5
11A4
331
1D09
  5
1D05
331
1C54
  5
1C56
331
1C1D
  5
1C1F
331
1BDE
  5
1BE0
331
1B9B
  5
1B9B
331
1C25
  5
1C27
331
1BE6
  5
1BE8
331
1D19
  5
1D19
331
1C2D
  5
1C2F
331
1BAB
  5
1BAC
331
1BEE
  5
1BF0
331
1BB3
  5
1BB4
331
16
  5
12
331
1E
  5
1F
331
1D21
  5
1D24
331
1C35
  5
1C37
331
1BF6
  5
1BF8
331
1BBB
  5
1BBD
331
1C3D
  5
1C3F
331
1BFE
  5
1C00
331
1B7C
  5
1B7C
331
1BC3
  5
1BC5
331
1C45
  5
1C47
331
1C06
  5
1C08
331
1B84
  5
1B84
331
1BCB
  5
1BCD
331
1CFA
  5
1D00
331
1C0E
  5
1C10
331
1B8C
  5
1B8C
331
1B94
  5
1B94
331
1D02
  5
1CFD
331
1C4D
  5
1C4F
331
1C16
  5
1C18
331
1BD7
  5
1BD9
331
11A5
  5
11A5
331
1D0A
  5
1D03
331
1C55
  5
1C57
331
1B9C
  5
1B9D
331
1C1E
  5
1C20
331
1BDF
  5
1BE1
331
1C26
  5
1C28
331
1D12
  5
1BB7
331
1BE7
  5
1BE9
331
1D1A
  5
1D1D
331
1C2E
  5
1C30
331
1BAC
  5
1BAD
331
1BEF
  5
1BF1
331
1BB4
  5
1BB5
331
1B75
  5
1B75
331
17
  5
17
331
1F
  5
21
331
1D22
  5
1D1C
331
1C36
  5
1C38
331
1BF7
  5
1BF9
331
1BBC
  5
1BBE
331
1C3E
  5
1C40
331
1BFF
  5
1C01
331
1B7D
  5
1B7D
331
1BC4
  5
1BC6
331
1C46
  5
1C48
331
1C07
  5
1C09
331
1B85
  5
1B85
331
1BCC
  5
1BCE
331
1CFB
  5
1D02
331
1C0F
  5
1C11
331
1B8D
  5
1B8D
331
1B95
  5
1B95
331
27
  5
27
331
1BD0
  5
1BD2
331
1D03
  5
1CFB
331
1C4E
  5
1C50
331
1C17
  5
1C19
331
1BD8
  5
1BDA
331
11A6
  5
11A6
331
1C56
  5
1C58
331
1B9D
  5
1B9E
331
1C1F
  5
1C21
331
1BE0
  5
1BE2
331
1D13
  5
1D13
331
1C27
  5
1C29
331
1BE8
  5
1BEA
331
1D1B
  5
1D1E
331
1C2F
  5
1C31
331
1BAD
  5
1BAE
331
1CA
  5
1CA
331
10
  5
14
331
1BF0
  5
1BF2
331
1D23
  5
1D1B
331
1C37
  5
1C39
331
1BF8
  5
1BFA
331
1BBD
  5
1BBF
331
1C3F
  5
1C41
331
1C00
  5
1C02
331
1B7E
  5
1B7E
331
1BC5
  5
1BC7
331
1CF4
  5
1CF6
331
1C47
  5
1C49
331
1C08
  5
1C0A
331
1B86
  5
1B86
331
1BCD
  5
1BCF
331
1B8E
  5
1B8E
331
1B96
  5
1B96
331
1C10
  5
1C12
331
1BD1
  5
1BD3
331
1D04
  5
1CF9
331
1C4F
  5
1C51
331
1C18
  5
1C1A
331
1BD9
  5
1BDB
331
1C57
  5
1C59
331
1C20
  5
1C22
331
1BE1
  5
1BE3
331
1D14
  5
1D14
331
1C28
  5
1C2A
331
1BA6
  5
1BA7
331
1BE9
  5
1BEB
331
1D1C
  5
1D1F
331
1BAE
  5
1BAF
331
1BB6
  5
1BB8
331
1B77
  5
1B77
331
11
  5
15
331
1C30
  5
1C32
331
1BF1
  5
1BF3
331
1D24
  5
1D1A
331
1C38
  5
1C3A
331
1BF9
  5
1BFB
331
1BBE
  5
1BC0
331
1C40
  5
1C42
331
1C01
  5
1C03
331
1B7F
  5
1B7F
331
1BC6
  5
1BC8
331
1CF5
  5
1CF7
331
1C09
  5
1C0B
331
1B87
  5
1B87
331
1BCE
  5
1BD0
331
1B8F
  5
1B8F
331
1B97
  5
1B97
331
21
  5
22
331
1C48
  5
1C4A
331
1C11
  5
1C13
331
1BD2
  5
1BD4
331
1C50
  5
1C52
331
1D05
  5
1B9C
331
1C19
  5
1C1B
331
1BDA
  5
1BDC
331
1C58
  5
1C5A
331
1C21
  5
1C23
331
1BE2
  5
1BE4
331
1D15
  5
1D15
331
1C29
  5
1C2B
331
1BA7
  5
1BA8
331
1BEA
  5
1BEC
331
1D1D
  5
1D20
331
1BAF
  5
1BB0
331
1BB7
  5
1BB9
331
12
  5
16
331
1C31
  5
1C33
331
1BF2
  5
1BF4
331
1C39
  5
1C3B
331
1BFA
  5
1BFC
331
1B78
  5
1B78
331
1BBF
  5
1BC1
331
1C41
  5
1C43
331
1C02
  5
1C04
331
1B80
  5
1B80
331
1BC7
  5
1BC9
331
1CF6
  5
1CF8
331
1C0A
  5
1C0C
331
1B88
  5
1B88
331
1BCF
  5
1BD1
331
1B90
  5
1B90
331
22
  5
23
331
1C49
  5
1C4B
331
1C12
  5
1C14
331
1BD3
  5
1BD5
331
1D06
  5
1D08
331
1C51
  5
1C53
331
1C1A
  5
1C1C
331
1BDB
  5
1BDD
331
1B98
  5
1B98
331
1C59
  5
1C5B
331
1BA0
  5
1BA1
331
1C22
  5
1C24
331
1BE3
  5
1BE5
331
1D16
  5
1D16
331
1C2A
  5
1C2C
331
1BA8
  5
1BA9
331
1BEB
  5
1BED
331
1D1E
  5
1D21
331
1BB0
  5
1BB1
331
13
  5
D
331
1C32
  5
1C34
331
1BF3
  5
1BF5
331
1BB8
  5
1BBA
331
1C3A
  5
1C3C
331
1BFB
  5
1BFD
331
1B79
  5
1B79
331
1BC0
  5
1BC2
331
1C42
  5
1C44
331
1C03
  5
1C05
331
1B81
  5
1B81
331
1BC8
  5
1BCA
331
1CF7
  5
1CFA
331
1C0B
  5
1C0D
331
1B89
  5
1B89
331
1CFF
  5
1D04
331
1B91
  5
1B91
331
23
  5
24
331
1C4A
  5
1C4C
331
1C13
  5
1C15
331
1BD4
  5
1BD6
331
19F0
  5
19F0
331
1D07
  5
1D07
331
1C52
  5
1C54
331
1C1B
  5
1C1D
331
1BDC
  5
1BDE
331
1B99
  5
1B99
331
1C5A
  5
1C5C
331
1BA1
  5
1BA2
331
1C23
  5
1C25
331
1BE4
  5
1BE6
331
1C2B
  5
1C2D
331
1BA9
  5
1BAA
331
1BEC
  5
1BEE
331
1D1F
  5
1D22
331
1BB1
  5
1BB2
331
10F
  5
10F
331
14
  5
10
331
1C33
  5
1C35
331
1BF4
  5
1BF6
331
1BB9
  5
1BBB
331
1C3B
  5
1C3D
331
1BFC
  5
1BFE
331
1B7A
  5
1B7A
331
1BC1
  5
1BC3
331
1C43
  5
1C45
331
1C04
  5
1C06
331
1B82
  5
1B82
331
1BC9
  5
1BCB
331
1CF8
  5
1CFC
331
1C0C
  5
1C0E
331
1B8A
  5
1B8A
331
1B92
  5
1B92
331
24
  5
18
  0
SORTENTSTABLE
  5
B6E
102
{ACAD_REACTORS
330
B6D
102
}
330
B6D
100
AcDbSortentsTable
330
B69
  0
XRECORD
  5
1D72
102
{ACAD_REACTORS
330
1D71
102
}
330
1D71
100
AcDbXrecord
280
     1
 40
7955300.0
  1
\pt0.09;{\fTimes New Roman|b0|i0|c238|p18;\H1.6x;\C4;Bovelacci\P\H0.4375x;\T0.95;via del Commercio, 5  47100 Forli - Italy  \fTimes New Roman|b0|i0|c0|p18;\P\fTimes New Roman|b0|i0|c238|p18;tel.+39-0543721386  fax +39-0543721127\fTimes New Roman|b0|i
  1
0|c0|p18; \fTimes New Roman|b0|i0|c238|p18;www.bovelacci.it\fTimes New Roman|b0|i0|c0|p18; \fTimes New Roman|b0|i0|c238|p18;e-mail: bovelacci@bovelacci\fTimes New Roman|b0|i0|c0|p18;.it}
  0
DIMASSOC
  5
1D3E
102
{ACAD_REACTORS
330
1D33
102
}
330
1D33
100
AcDbDimAssoc
330
1D25
 90
        2
 70
     0
 71
     0
  1
AcDbOsnapPointRef
 72
     1
331
19F0
 73
     2
 91
       13
 40
1.0
 10
0.0
 20
0.0
 30
2.000000000000000E+50
 75
     0
  0
DIMASSOC
  5
1D58
102
{ACAD_REACTORS
330
1D4D
102
}
330
1D4D
100
AcDbDimAssoc
330
1D3F
 90
        1
 70
     0
 71
     0
  1
AcDbOsnapPointRef
 72
     1
331
19F0
 73
     2
 91
       12
 40
1.0
 10
0.0
 20
0.0
 30
2.000000000000000E+50
 75
     0
  0
XRECORD
  5
1D6B
102
{ACAD_REACTORS
330
1D6A
102
}
330
1D6A
100
AcDbXrecord
280
     1
102
SHADEPLOT
 70
     0
  0
XRECORD
  5
1D6D
102
{ACAD_REACTORS
330
1D6C
102
}
330
1D6C
100
AcDbXrecord
280
     1
102
SHADEPLOT
 70
     0
  0
XRECORD
  5
14B
102
{ACAD_REACTORS
330
14A
102
}
330
14A
100
AcDbXrecord
280
     1
 40
0.18
  0
LAYOUT
  5
82
102
{ACAD_XDICTIONARY
360
83
102
}
102
{ACAD_REACTORS
330
78
102
}
330
78
100
AcDbPlotSettings
  1

  2
C:\Documents and Settings\All Users\Dati applicazioni\Autodesk\ADT 2006\enu\Plotters\Default Windows System Printer.pc3
  4
A4
  6

 40
3.174999952316281
 41
3.174999952316281
 42
3.175003051757812
 43
3.17498779296875
 44
209.9733276367186
 45
297.0106506347656
 46
0.0
 47
0.0
 48
0.0
 49
0.0
140
0.0
141
0.0
142
1.0
143
1.0
 70
   688
 72
     1
 73
     1
 74
     5
  7

 75
    16
147
1.0
148
0.0
149
0.0
100
AcDbLayout
  1
Layout1
 70
     1
 71
     1
 10
-3.17498779296875
 20
-3.174999952316281
 11
293.8356628417969
 21
206.7983276844024
 12
0.0
 22
0.0
 32
0.0
 14
29.06606628894805
 24
20.36233246326446
 34
0.0
 15
261.5945966005325
 25
183.2609921693802
 35
0.0
146
0.0
 13
0.0
 23
0.0
 33
0.0
 16
1.0
 26
0.0
 36
0.0
 17
0.0
 27
1.0
 37
0.0
 76
     0
330
79
331
7B
1001
ACAD_PSEXT
1000
C:\Documents and Settings\All Users\Dati applicazioni\Autodesk\ADT 2006\enu\Plotters\Default Windows System Printer.pc3
1000
Microsoft Office Document Image Writer Driver
1000
Microsoft Document Imaging Writer Port:
1000

1070
     0
  0
LAYOUT
  5
89
102
{ACAD_XDICTIONARY
360
1D6F
102
}
102
{ACAD_REACTORS
330
78
102
}
330
78
100
AcDbPlotSettings
  1

  2
C:\Documents and Settings\All Users\Dati applicazioni\Autodesk\ADT 2006\enu\Plotters\Default Windows System Printer.pc3
  4

  6

 40
0.0
 41
0.0
 42
0.0
 43
0.0
 44
0.0
 45
0.0
 46
0.0
 47
0.0
 48
0.0
 49
0.0
140
0.0
141
0.0
142
1.0
143
1.0
 70
   688
 72
     0
 73
     0
 74
     5
  7

 75
    16
147
1.0
148
0.0
149
0.0
100
AcDbLayout
  1
Layout2
 70
     1
 71
     2
 10
0.0
 20
0.0
 11
12.0
 21
9.0
 12
0.0
 22
0.0
 32
0.0
 14
0.0
 24
0.0
 34
0.0
 15
0.0
 25
0.0
 35
0.0
146
0.0
 13
0.0
 23
0.0
 33
0.0
 16
1.0
 26
0.0
 36
0.0
 17
0.0
 27
1.0
 37
0.0
 76
     0
330
86
  0
LAYOUT
  5
77
102
{ACAD_XDICTIONARY
360
1D68
102
}
102
{ACAD_REACTORS
330
78
102
}
330
78
100
AcDbPlotSettings
  1

  2
C:\Documents and Settings\All Users\Dati applicazioni\Autodesk\ADT 2006\enu\Plotters\Default Windows System Printer.pc3
  4

  6

 40
0.0
 41
0.0
 42
0.0
 43
0.0
 44
0.0
 45
0.0
 46
0.0
 47
0.0
 48
0.0
 49
0.0
140
0.0
141
0.0
142
1.0
143
1.0
 70
  1712
 72
     0
 73
     0
 74
     0
  7

 75
     0
147
1.0
148
0.0
149
0.0
100
AcDbLayout
  1
Model
 70
     1
 71
     0
 10
0.0
 20
0.0
 11
12.0
 21
9.0
 12
0.0
 22
0.0
 32
0.0
 14
0.0
 24
0.0
 34
0.0
 15
0.0
 25
0.0
 35
0.0
146
0.0
 13
0.0
 23
0.0
 33
0.0
 16
1.0
 26
0.0
 36
0.0
 17
0.0
 27
1.0
 37
0.0
 76
     0
330
2
  0
MATERIAL
  5
A0
102
{ACAD_XDICTIONARY
360
C7
102
}
102
{ACAD_REACTORS
330
B
102
}
330
B
100
AcDbMaterial
  1
ByBlock
  0
MATERIAL
  5
9F
102
{ACAD_XDICTIONARY
360
C5
102
}
102
{ACAD_REACTORS
330
B
102
}
330
B
100
AcDbMaterial
  1
ByLayer
  0
MATERIAL
  5
A
102
{ACAD_XDICTIONARY
360
B1
102
}
102
{ACAD_REACTORS
330
B
102
}
330
B
100
AcDbMaterial
  1
Global
  0
MLINESTYLE
  5
A3
102
{ACAD_REACTORS
330
9D
102
}
330
9D
100
AcDbMlineStyle
  2
STANDARD
 70
     0
  3

 62
   256
 51
90.0
 52
90.0
 71
     2
 49
0.5
 62
   256
  6
BYLAYER
 49
-0.5
 62
   256
  6
BYLAYER
  0
ACDBPLACEHOLDER
  5
7
102
{ACAD_REACTORS
330
8
102
}
330
8
  0
TABLESTYLE
  5
A4
102
{ACAD_XDICTIONARY
360
155
102
}
102
{ACAD_REACTORS
330
A2
102
}
330
A2
100
AcDbTableStyle
  3
Standard
 70
     0
 71
     0
 40
1.5
 41
1.5
280
     0
281
     0
  7
Standard
140
4.5
170
     2
 62
     0
 63
     7
283
     0
274
    -2
284
     1
 64
     0
275
    -2
285
     1
 65
     0
276
    -2
286
     1
 66
     0
277
    -2
287
     1
 67
     0
278
    -2
288
     1
 68
     0
279
    -2
289
     1
 69
     0
  7
Standard
140
6.0
170
     5
 62
     0
 63
     7
283
     0
274
    -2
284
     1
 64
     0
275
    -2
285
     1
 65
     0
276
    -2
286
     1
 66
     0
277
    -2
287
     1
 67
     0
278
    -2
288
     1
 68
     0
279
    -2
289
     1
 69
     0
  7
Standard
140
4.5
170
     5
 62
     0
 63
     7
283
     0
274
    -2
284
     1
 64
     0
275
    -2
285
     1
 65
     0
276
    -2
286
     1
 66
     0
277
    -2
287
     1
 67
     0
278
    -2
288
     1
 68
     0
279
    -2
289
     1
 69
     0
  0
VISUALSTYLE
  5
7E
102
{ACAD_REACTORS
330
7F
102
}
330
7F
100
AcDbVisualStyle
  2
2dWireframe
 70
     4
 71
     0
 72
     2
 73
     0
 90
        0
 40
-0.6
 41
-30.0
 62
     5
 63
     7
 74
     1
 91
        4
 64
     7
 65
   257
 75
     1
175
     1
 42
1.0
 92
        0
 66
   257
 43
1.0
 76
     1
 77
     6
 78
     2
 67
     7
 79
     5
170
     0
171
     0
290
     0
174
     0
 93
        1
 44
0.0
173
     0
291
     0
 45
0.0
1001
ACAD
1000
AcDbSavedByObjectVersion
1070
     0
1000
AcDbSavedByObjectVersion
1070
     0
1000
AcDbSavedByObjectVersion
1070
     0
1001
ACAD
1000
AcRTDxfName
1000
VISUALSTYLE
  0
VISUALSTYLE
  5
D8
102
{ACAD_REACTORS
330
7F
102
}
330
7F
100
AcDbVisualStyle
  2
3D Hidden
 70
     6
 71
     1
 72
     2
 73
     2
 90
        0
 40
-0.6
 41
-30.0
 62
     5
 63
     7
 74
     2
 91
        2
 64
     7
 65
   257
 75
     2
175
     1
 42
40.0
 92
        0
 66
   257
 43
1.0
 76
     1
 77
     6
 78
     2
 67
     7
 79
     3
170
     0
171
     0
290
     0
174
     0
 93
        1
 44
0.0
173
     0
291
     0
 45
0.0
1001
ACAD
1000
AcDbSavedByObjectVersion
1070
     0
1000
AcDbSavedByObjectVersion
1070
     0
1001
ACAD
1000
AcRTDxfName
1000
VISUALSTYLE
  0
VISUALSTYLE
  5
A6
102
{ACAD_REACTORS
330
7F
102
}
330
7F
100
AcDbVisualStyle
  2
3dWireframe
 70
     5
 71
     0
 72
     2
 73
     0
 90
        0
 40
-0.6
 41
-30.0
 62
     5
 63
     7
 74
     1
 91
        4
 64
     7
 65
   257
 75
     1
175
     1
 42
1.0
 92
        0
 66
   257
 43
1.0
 76
     1
 77
     6
 78
     2
 67
     7
 79
     5
170
     0
171
     0
290
     0
174
     0
 93
        1
 44
0.0
173
     0
291
     0
 45
0.0
1001
ACAD
1000
AcDbSavedByObjectVersion
1070
     0
1000
AcDbSavedByObjectVersion
1070
     0
1000
AcDbSavedByObjectVersion
1070
     0
1001
ACAD
1000
AcRTDxfName
1000
VISUALSTYLE
  0
VISUALSTYLE
  5
D7
102
{ACAD_REACTORS
330
7F
102
}
330
7F
100
AcDbVisualStyle
  2
Basic
 70
     7
 71
     1
 72
     0
 73
     1
 90
        0
 40
-0.6
 41
-30.0
 62
     5
 63
     7
 74
     0
 91
        4
 64
     7
 65
   257
 75
     1
175
     1
 42
1.0
 92
        8
 66
     7
 43
1.0
 76
     1
 77
     6
 78
     2
 67
     7
 79
     5
170
     0
171
     0
290
     0
174
     0
 93
        1
 44
0.0
173
     0
291
     1
 45
0.0
1001
ACAD
1000
AcDbSavedByObjectVersion
1070
     0
1000
AcDbSavedByObjectVersion
1070
     0
1001
ACAD
1000
AcRTDxfName
1000
VISUALSTYLE
  0
VISUALSTYLE
  5
DB
102
{ACAD_REACTORS
330
7F
102
}
330
7F
100
AcDbVisualStyle
  2
Brighten
 70
    12
 71
     2
 72
     2
 73
     0
 90
        0
 40
-0.6
 41
-30.0
 62
     5
 63
     7
 74
     1
 91
        4
 64
     7
 65
   257
 75
     1
175
     1
 42
1.0
 92
        8
 66
     7
 43
1.0
 76
     1
 77
     6
 78
     2
 67
     7
 79
     5
170
     0
171
     0
290
     0
174
     0
 93
        1
 44
50.0
173
     0
291
     1
 45
0.0
1001
ACAD
1000
AcDbSavedByObjectVersion
1070
     0
1000
AcDbSavedByObjectVersion
1070
     0
1001
ACAD
1000
AcRTDxfName
1000
VISUALSTYLE
  0
VISUALSTYLE
  5
DF
102
{ACAD_REACTORS
330
7F
102
}
330
7F
100
AcDbVisualStyle
  2
ColorChange
 70
    16
 71
     2
 72
     2
 73
     3
 90
        0
 40
-0.6
 41
-30.0
 62
     5
 63
     8
 74
     1
 91
        4
 64
     7
 65
   257
 75
     1
175
     1
 42
1.0
 92
        8
 66
     8
 43
1.0
 76
     1
 77
     6
 78
     2
 67
     7
 79
     5
170
     0
171
     0
290
     0
174
     0
 93
        1
 44
0.0
173
     0
291
     1
 45
0.0
1001
ACAD
1000
AcDbSavedByObjectVersion
1070
     0
1000
AcDbSavedByObjectVersion
1070
     0
1001
ACAD
1000
AcRTDxfName
1000
VISUALSTYLE
  0
VISUALSTYLE
  5
D9
102
{ACAD_REACTORS
330
7F
102
}
330
7F
100
AcDbVisualStyle
  2
Conceptual
 70
     9
 71
     3
 72
     2
 73
     0
 90
        0
 40
-0.6
 41
-30.0
 62
     5
 63
     7
 74
     2
 91
        2
 64
     7
 65
   257
 75
     1
175
     1
 42
40.0
 92
        8
 66
     7
 43
1.0
 76
     1
 77
     6
 78
     2
 67
     7
 79
     3
170
     0
171
     0
290
     0
174
     0
 93
        1
 44
0.0
173
     0
291
     0
 45
0.0
1001
ACAD
1000
AcDbSavedByObjectVersion
1070
     0
1000
AcDbSavedByObjectVersion
1070
     0
1001
ACAD
1000
AcRTDxfName
1000
VISUALSTYLE
  0
VISUALSTYLE
  5
DA
102
{ACAD_REACTORS
330
7F
102
}
330
7F
100
AcDbVisualStyle
  2
Dim
 70
    11
 71
     2
 72
     2
 73
     0
 90
        0
 40
-0.6
 41
-30.0
 62
     5
 63
     7
 74
     1
 91
        4
 64
     7
 65
   257
 75
     1
175
     1
 42
1.0
 92
        8
 66
     7
 43
1.0
 76
     1
 77
     6
 78
     2
 67
     7
 79
     5
170
     0
171
     0
290
     0
174
     0
 93
        1
 44
-50.0
173
     0
291
     1
 45
0.0
1001
ACAD
1000
AcDbSavedByObjectVersion
1070
     0
1000
AcDbSavedByObjectVersion
1070
     0
1001
ACAD
1000
AcRTDxfName
1000
VISUALSTYLE
  0
VISUALSTYLE
  5
DE
102
{ACAD_REACTORS
330
7F
102
}
330
7F
100
AcDbVisualStyle
  2
Facepattern
 70
    15
 71
     2
 72
     2
 73
     0
 90
        0
 40
-0.6
 41
-30.0
 62
     5
 63
     7
 74
     1
 91
        4
 64
     7
 65
   257
 75
     1
175
     1
 42
1.0
 92
        8
 66
     7
 43
1.0
 76
     1
 77
     6
 78
     2
 67
     7
 79
     5
170
     0
171
     0
290
     0
174
     0
 93
        1
 44
0.0
173
     0
291
     1
 45
0.0
1001
ACAD
1000
AcDbSavedByObjectVersion
1070
     0
1000
AcDbSavedByObjectVersion
1070
     0
1001
ACAD
1000
AcRTDxfName
1000
VISUALSTYLE
  0
VISUALSTYLE
  5
D3
102
{ACAD_REACTORS
330
7F
102
}
330
7F
100
AcDbVisualStyle
  2
Flat
 70
     0
 71
     2
 72
     1
 73
     1
 90
        2
 40
-0.6
 41
30.0
 62
     5
 63
     7
 74
     0
 91
        4
 64
     7
 65
   257
 75
     1
175
     1
 42
1.0
 92
        8
 66
     7
 43
1.0
 76
     1
 77
     6
 78
     2
 67
     7
 79
     5
170
     0
171
     0
290
     0
174
     0
 93
       13
 44
0.0
173
     0
291
     1
 45
0.0
1001
ACAD
1000
AcDbSavedByObjectVersion
1070
     0
1000
AcDbSavedByObjectVersion
1070
     0
1001
ACAD
1000
AcRTDxfName
1000
VISUALSTYLE
  0
VISUALSTYLE
  5
D4
102
{ACAD_REACTORS
330
7F
102
}
330
7F
100
AcDbVisualStyle
  2
FlatWithEdges
 70
     1
 71
     2
 72
     1
 73
     1
 90
        2
 40
-0.6
 41
30.0
 62
     5
 63
     7
 74
     1
 91
        4
 64
     7
 65
   257
 75
     1
175
     1
 42
1.0
 92
        0
 66
   257
 43
1.0
 76
     1
 77
     6
 78
     2
 67
     7
 79
     5
170
     0
171
     0
290
     0
174
     0
 93
       13
 44
0.0
173
     0
291
     1
 45
0.0
1001
ACAD
1000
AcDbSavedByObjectVersion
1070
     0
1000
AcDbSavedByObjectVersion
1070
     0
1001
ACAD
1000
AcRTDxfName
1000
VISUALSTYLE
  0
VISUALSTYLE
  5
D5
102
{ACAD_REACTORS
330
7F
102
}
330
7F
100
AcDbVisualStyle
  2
Gouraud
 70
     2
 71
     2
 72
     2
 73
     1
 90
        2
 40
-0.6
 41
30.0
 62
     5
 63
     7
 74
     0
 91
        4
 64
     7
 65
   257
 75
     1
175
     1
 42
1.0
 92
        0
 66
     7
 43
1.0
 76
     1
 77
     6
 78
     2
 67
     7
 79
     5
170
     0
171
     0
290
     0
174
     0
 93
       13
 44
0.0
173
     0
291
     1
 45
0.0
1001
ACAD
1000
AcDbSavedByObjectVersion
1070
     0
1000
AcDbSavedByObjectVersion
1070
     0
1001
ACAD
1000
AcRTDxfName
1000
VISUALSTYLE
  0
VISUALSTYLE
  5
D6
102
{ACAD_REACTORS
330
7F
102
}
330
7F
100
AcDbVisualStyle
  2
GouraudWithEdges
 70
     3
 71
     2
 72
     2
 73
     1
 90
        2
 40
-0.6
 41
30.0
 62
     5
 63
     7
 74
     1
 91
        4
 64
     7
 65
   257
 75
     1
175
     1
 42
1.0
 92
        0
 66
   257
 43
1.0
 76
     1
 77
     6
 78
     2
 67
     7
 79
     5
170
     0
171
     0
290
     0
174
     0
 93
       13
 44
0.0
173
     0
291
     1
 45
0.0
1001
ACAD
1000
AcDbSavedByObjectVersion
1070
     0
1000
AcDbSavedByObjectVersion
1070
     0
1001
ACAD
1000
AcRTDxfName
1000
VISUALSTYLE
  0
VISUALSTYLE
  5
DD
102
{ACAD_REACTORS
330
7F
102
}
330
7F
100
AcDbVisualStyle
  2
Linepattern
 70
    14
 71
     2
 72
     2
 73
     0
 90
        0
 40
-0.6
 41
-30.0
 62
     5
 63
     7
 74
     1
 91
        4
 64
     7
 65
   257
 75
     7
175
     7
 42
1.0
 92
        8
 66
     7
 43
1.0
 76
     1
 77
     6
 78
     2
 67
     7
 79
     5
170
     0
171
     0
290
     0
174
     0
 93
        1
 44
0.0
173
     0
291
     1
 45
0.0
1001
ACAD
1000
AcDbSavedByObjectVersion
1070
     0
1000
AcDbSavedByObjectVersion
1070
     0
1001
ACAD
1000
AcRTDxfName
1000
VISUALSTYLE
  0
VISUALSTYLE
  5
A5
102
{ACAD_REACTORS
330
7F
102
}
330
7F
100
AcDbVisualStyle
  2
Realistic
 70
     8
 71
     2
 72
     2
 73
     0
 90
        0
 40
-0.6
 41
-30.0
 62
     5
 63
     7
 74
     1
 91
        0
 64
     7
 65
   257
 75
     1
175
     1
 42
1.0
 92
        8
 66
     8
 43
1.0
 76
     1
 77
     6
 78
     2
 67
     7
 79
     5
170
     0
171
     0
290
     0
174
     0
 93
       13
 44
0.0
173
     0
291
     0
 45
0.0
1001
ACAD
1000
AcDbSavedByObjectVersion
1070
     0
1000
AcDbSavedByObjectVersion
1070
     0
1000
AcDbSavedByObjectVersion
1070
     0
1001
ACAD
1000
AcRTDxfName
1000
VISUALSTYLE
  0
VISUALSTYLE
  5
DC
102
{ACAD_REACTORS
330
7F
102
}
330
7F
100
AcDbVisualStyle
  2
Thicken
 70
    13
 71
     2
 72
     2
 73
     0
 90
        0
 40
-0.6
 41
-30.0
 62
     5
 63
     7
 74
     1
 91
        4
 64
     7
 65
   257
 75
     1
175
     1
 42
1.0
 92
       12
 66
     7
 43
1.0
 76
     1
 77
     6
 78
     2
 67
     7
 79
     5
170
     0
171
     0
290
     0
174
     0
 93
        1
 44
0.0
173
     0
291
     1
 45
0.0
1001
ACAD
1000
AcDbSavedByObjectVersion
1070
     0
1000
AcDbSavedByObjectVersion
1070
     0
1001
ACAD
1000
AcRTDxfName
1000
VISUALSTYLE
  0
DICTIONARYVAR
  5
AA
102
{ACAD_REACTORS
330
A9
102
}
330
A9
100
DictionaryVariables
280
     0
  1
STANDARD
  0
DICTIONARYVAR
  5
AE
102
{ACAD_REACTORS
330
A9
102
}
330
A9
100
DictionaryVariables
280
     0
  1
2
  0
DICTIONARYVAR
  5
AD
102
{ACAD_REACTORS
330
A9
102
}
330
A9
100
DictionaryVariables
280
     0
  1
1
  0
DICTIONARYVAR
  5
AC
102
{ACAD_REACTORS
330
A9
102
}
330
A9
100
DictionaryVariables
280
     0
  1
0
  0
DICTIONARYVAR
  5
16A
102
{ACAD_REACTORS
330
A9
102
}
330
A9
100
DictionaryVariables
280
     0
  1

  0
DICTIONARYVAR
  5
AB
102
{ACAD_REACTORS
330
A9
102
}
330
A9
100
DictionaryVariables
280
     0
  1
127
  0
DICTIONARY
  5
83
330
82
100
AcDbDictionary
280
     1
281
     1
  3
ACAD_XREC_ROUNDTRIP
360
1D6E
  3
ADSK_XREC_LAYOUTTHUMBNAIL
360
84
  0
DICTIONARY
  5
1D6F
330
89
100
AcDbDictionary
280
     1
281
     1
  3
ACAD_XREC_ROUNDTRIP
360
1D70
  0
DICTIONARY
  5
1D68
330
77
100
AcDbDictionary
280
     1
281
     1
  3
ACAD_XREC_ROUNDTRIP
360
1D69
  0
DICTIONARY
  5
C7
330
A0
100
AcDbDictionary
280
     1
281
     1
  3
ACAD_XREC_ROUNDTRIP
360
C8
  0
DICTIONARY
  5
C5
330
9F
100
AcDbDictionary
280
     1
281
     1
  3
ACAD_XREC_ROUNDTRIP
360
C6
  0
DICTIONARY
  5
B1
330
A
100
AcDbDictionary
280
     1
281
     1
  3
ACAD_XREC_ROUNDTRIP
360
B2
  0
DICTIONARY
  5
155
330
A4
100
AcDbDictionary
280
     1
281
     1
  3
ACAD_XREC_ROUNDTRIP
360
156
  0
XRECORD
  5
1D6E
102
{ACAD_REACTORS
330
83
102
}
330
83
100
AcDbXrecord
280
     1
102
SHADEPLOT
 70
     0
102
SHADEPLOTRESLEVEL
 70
     2
102
SHADEPLOTCUSTOMDPI
 70
   300
  0
XRECORD
  5
84
102
{ACAD_REACTORS
330
83
102
}
330
83
100
AcDbXrecord
280
     1
310
28000000B40000007F00000001000800000000004C59000000000000000000000001000000000000FFFFFF0000000000FFFFFF000000000000000000000000000000000000000000000000000000000000000000330000006600000099000000CC000000FF00000000330000333300006633000099330000CC330000FF3300
310
0000660000336600006666000099660000CC660000FF66000000990000339900006699000099990000CC990000FF99000000CC000033CC000066CC000099CC0000CCCC0000FFCC000000FF000033FF000066FF000099FF0000CCFF0000FFFF000000003300330033006600330099003300CC003300FF003300003333003333
310
33006633330099333300CC333300FF33330000663300336633006666330099663300CC663300FF66330000993300339933006699330099993300CC993300FF99330000CC330033CC330066CC330099CC3300CCCC3300FFCC330000FF330033FF330066FF330099FF3300CCFF3300FFFF330000006600330066006600660099
310
006600CC006600FF00660000336600333366006633660099336600CC336600FF33660000666600336666006666660099666600CC666600FF66660000996600339966006699660099996600CC996600FF99660000CC660033CC660066CC660099CC6600CCCC6600FFCC660000FF660033FF660066FF660099FF6600CCFF6600
310
FFFF660000009900330099006600990099009900CC009900FF00990000339900333399006633990099339900CC339900FF33990000669900336699006666990099669900CC669900FF66990000999900339999006699990099999900CC999900FF99990000CC990033CC990066CC990099CC9900CCCC9900FFCC990000FF99
310
0033FF990066FF990099FF9900CCFF9900FFFF99000000CC003300CC006600CC009900CC00CC00CC00FF00CC000033CC003333CC006633CC009933CC00CC33CC00FF33CC000066CC003366CC006666CC009966CC00CC66CC00FF66CC000099CC003399CC006699CC009999CC00CC99CC00FF99CC0000CCCC0033CCCC0066CC
310
CC0099CCCC00CCCCCC00FFCCCC0000FFCC0033FFCC0066FFCC0099FFCC00CCFFCC00FFFFCC000000FF003300FF006600FF009900FF00CC00FF00FF00FF000033FF003333FF006633FF009933FF00CC33FF00FF33FF000066FF003366FF006666FF009966FF00CC66FF00FF66FF000099FF003399FF006699FF009999FF00CC
310
99FF00FF99FF0000CCFF0033CCFF0066CCFF0099CCFF00CCCCFF00FFCCFF0000FFFF0033FFFF0066FFFF0099FFFF00CCFFFF00FFFFFF00000000000D0D0D001A1A1A00282828003535350043434300505050005D5D5D006B6B6B00787878008686860093939300A1A1A100AEAEAE00BBBBBB00C9C9C900D6D6D600E4E4E400
310
F1F1F100FFFFFF0000000000000000000000000000000000000000000000000000000000000000000000000000000000E2E2E2E2E2E2E2E2E2E2E2E2E2E2E2E2E2E2E2E2E2E2E2E2E2E2E2E2E2E2E2E2E2E2E2E2E2E2E2E2E2E2E2E2E2E2E2E2E2E2E2E2E2E2E2E2E2E2E2E2E2E2E2E2E2E2E2E2E2E2E2E2E2E2E2E2E2E2E2
310
E2E2E2E2E2E2E2E2E2E2E2E2E2E2E2E2E2E2E2E2E2E2E2E2E2E2E2E2E2E2E2E2E2E2E2E2E2E2E2E2E2E2E2E2E2E2E2E2E2E2E2E2E2E2E2E2E2E2E2E2E2E2E2E2E2E2E2E2E2E2E2E2E2E2E2E2E2E2E2E2E2E2E2E2E2E2E2E2E2E2E2E2E2E2E2E2E2E2E2E2E2E2F5F5F5F5F5F5F5F5F5F5F5F5F5F5F5F5F5F5F5F5F5F5F5F5F5
310
F5F5F5F5F5F5F5F5F5F5F5F5F5F5F5F5F5F5F5F5F5F5F5F5F5F5F5F5F5F5F5F5F5F5F5F5F5F5F5F5F5F5F5F5F5F5F5F5F5F5F5F5F5F5F5F5F5F5F5F5F5F5F5F5F5F5F5F5F5F5F5F5F5F5F5F5F5F5F5F5F5F5F5F5F5F5F5F5F5F5F5F5F5F5F5F5F5F5F5F5F5F5F5F5F5F5F5F5F5F5F5F5F5F5F5F5F5F5F5F5F5F5F5F5F5F5F5
310
F5F5F5F5F5F5F5F5F5F5F5F5F5F5F5F5F5F5F5F5F5F5F5F5F5F5E2E2F5E2E2E2E2E2E2E2E2E2F5F5F5F5F5F5F5F5F5E2E2E2E2E2E2E2E2E2E2E2E2E2E2E2E2F5F5F5F5F5F5F5F5F5E2E2E2E2E2E2E2E2E2E2E2E2E2E2E2E2F5F5F5F5F5F5F5F5F5E2E2E2E2E2E2E2E2E2E2E2E2E2E2E2E2F5F5F5F5F5F5F5F5F5E2E2E2E2E2
310
E2E2E2E2E2E2E2E2E2E2E2F5F5F5F5F5F5F5F5F5E2E2E2E2E2E2E2E2E2E2E2E2E2E2E2E2F5F5F5F5F5F5F5F5F5E2E2E2E2E2E2E2E2E2E2E2E2E2E2E2E2F5F5F5F5F5F5F5F5F5E2E2E2E2E2E2E2E2F5E2E2F5E2F5F5F5F5F5F5F5F5F5F5F5F5F5F5F5F5F5F5F5F5F5F5F5F5F5F5F5F5F5F5F5F5F5F5F5F5F5F5F5F5F5F5F5F5
310
F5F5F5F5F5F5F5F5F5F5F5F5F5F5F5F5F5F5F5F5F5F5F5F5F5F5F5F5F5F5F5F5F5F5F5F5F5F5F5F5F5F5F5F5F5F5F5F5F5F5F5F5F5F5F5F5F5F5F5F5F5F5F5F5F5F5F5F5F5F5F5F5F5F5F5F5F5F5F5F5F5F5F5F5F5F5F5F5F5F5F5F5F5F5F5F5F5F5F5F5F5F5F5F5F5F5F5F5F5F5F5F5F5F5F5F5F5F5F5F5F5F5F5F5F5F5F5
310
F5F5F5E2F5E2E2F5E2F5F5F5F5F5F5F5F5F5F5F5F5F5F5F5F5F5F5F5F5F5F5F5F5F5F5F5F5F5F5F5F5F5F5F5F5F5F5F5F5F5F5F5F5F5F5F5F5F5F5F5F5F5F5F5F5F5F5F5F5F5F5F5F5F5F5F5F5F5F5F5F5F5F5F5F5F5F5F5F5F5F5F5F5F5F5F5F5F5F5F5F5F5F5F5F5F5F5F5F5F5F5F5F5F5F5F5F5F5F5F5F5F5F5F5F5F5F5
310
F5F5F5F5F5F5F5F5F5F5F5F5F5F5F5F5F5F5F5F5F5F5F5F5F5F5F5F5F5F5F5F5F5F5F5F5F5F5F5F5F5F5F5F5F5F5F5F5F5F5F5F5F5F5F5F5E2F5E2E2F5E2F5F5F5F5F5F5F5F5F5F5F5F5F5F5F5F5F5F5F5F5F5F5F5F5F5F5F5F5F5F5F5F5F5F5F5F5F5F5F5F5F5F5F5F5F5F5F5F5F5F5F5F5F5F5F5F5F5F5F5F5F5F5F5F5F5
310
F5F5F5F5F5F5F5F5F5F5F5F5F5F5F5F5F5F5F5F5F5F5F5F5F5F5F5F5F5F5F5F5F5F5F5F5F5F5F5F5F5F5F5F5F5F5F5F5F5F5F5F5F5F5F5F5F5F5F5F5F5F5F5F5F5F5F5F5F5F5F5F5F5F5F5F5F5F5F5F5F5F5F5F5F5F5F5F5F5F5F5F5F5F5F5F5F5F5F5F5F5F5F5F5F5F5F5F5F5E2F5E2E2F5E2F5F5F5F5F5F5F5F5F5F5F5F5
310
F5F5F5F5F5F5F5F5F5F5F5F5F5F5F5F5F5F5F5F5F5F5F5F5F5F5F5F5F5F5F5F5F5F5F5F5F5F5F5F5F5F5F5F5F5F5F5F5F5F5F5F5F5F5F5F5F5F5F5F5F5F5F5F5F5F5F5F5F5F5F5F5F5F5F5F5F5F5F5F5F5F5F5F5F5F5F5F5F5F5F5F5F5F5F5F5F5F5F5F5F5F5F5F5F5F5F5F5F5F5F5F5F5F5F5F5F5F5F5F5F5F5F5F5F5F5F5
310
F5F5F5F5F5F5F5F5F5F5F5F5F5F5F5F5F5F5F5F5F5F5F5F5F5F5F5F5F5F5F5F5F5F5F5E2F5E2E2F5E2F5F5F5F5F5F5F5F5F5F5F5F5F5F5F5F5F5F5F5F5F5F5F5F5F5F5F5F5F5F5F5F5F5F5F5F5F5F5F5F5F5F5F5F5F5F5F5F5F5F5F5F5F5F5F5F5F5F5F5F5F5F5F5F5F5F5F5F5F5F5F5F5F5F5F5F5F5F5F5F5F5F5F5F5F5F5
310
F5F5F5F5F5F5F5F5F5F5F5F5F5F5F5F5F5F5F5F5F5F5F5F5F5F5F5F5F5F5F5F5F5F5F5F5F5F5F5F5F5F5F5F5F5F5F5F5F5F5F5F5F5F5F5F5F5F5F5F5F5F5F5F5F5F5F5F5F5F5F5F5F5F5F5F5F5F5F5F5F5F5F5F5F5F5F5F5E2F5E2E2F5E2F5F5F5F5F5F5F5F5F5F5F5F5F5F5F5F5F5F5F5F5F5F5F5F5F5F5F5F5F5F5F5F5F5
310
F5F5F5F5F5F5F5F5F5F5F5F5F5F5F5F5F5F5F5F5F5F5F5F5F5F5F5F5F5F5F5F5F5F5F5F5F5F5F5F5F5F5F5F5F5F5F5F5F5F5F5F5F5F5F5F5F5F5F5F5F5F5F5F5F5F5F5F5F5F5F5F5F5F5F5F5F5F5F5F5F5F5F5F5F5F5F5F5F5F5F5F5F5F5F5F5F5F5F5F5F5F5F5F5F5F5F5F5F5F5F5F5F5F5F5F5F5F5F5F5F5F5F5F5F5F5F5
310
F5F5F5F5F5F5F5F5F5F5F5F5F5F5E2F5E2E2F5E2F5F5F5F5F5F5F5F5F5F5F5F5F5F5F5F5F5F5F5F5F5F5F5F5F5F5F5F5F5F5F5F5F5F5F5F5F5F5F5F5F5F5F5F5F5F5F5F5F5F5F5F5F5F5F5F5F5F5F5F5F5F5F5F5F5F5F5F5F5F5F5F5F5F5F5F5F5F5F5F5F5F5F5F5F5F5F5F5F5F5F5F5F5F5F5F5F5F5F5F5F5F5F5F5F5F5F5
310
F5F5F5F5F5F5F5F5F5F5F5F5F5F5F5F5F5F5F5F5F5F5F5F5F5F5F5F5F5F5F5F5F5F5F5F5F5F5F5F5F5F5F5F5F5F5F5F5F5F5F5F5F5F5F5F5F5F5F5F5F5F5F5F5F5F5F5E2F5E2E2F5F5F5F5F5F5F5F5F5F5F5F5F5F5F5F5F5F5F5F5F5F5F5F5F5F5F5F5F5F5F5F5F5F5F5F5F5F5F5F5F5F5F5F5F5F5F5F5F5F5F5F5F5F5F5F5
310
F5F5F5F5F5F5F5F5F5F5F5F5F5F5F5F5F5F5F5F5F5F5F5F5F5F5F5F5F5F5F5F5F5F5F5F5F5F5F5F5F5F5F5F5F5F5F5F5F5F5F5F5F5F5F5F5F5F5F5F5F5F5F5F5F5F5F5F5F5F5F5F5F5F5F5F5F5F5F5F5F5F5F5F5F5F5F5F5F5F5F5F5F5F5F5F5F5F5F5F5F5F5F5F5F5F5F5F5F5F5F5F5F5F5F5F5F5F5F5F5F5F5E2E2F5F5F5
310
F5F5F5F5F5F5F5F5F5F5F5F5F5F5F5F5F5F5F5F5F5F5F5F5F5F5F5F5F5F5F5F5F5F5F5F5F5F5F5F5F5F5F5F5F5F5F5F5F5F5F5F5F5F5F5F5F5F5F5F5F5F5F5F5F5F5F5F5F5F5F5F5F5F5F5F5F5F5F5F5F5F5F5F5F5F5F5F5F5F5F5F5F5F5F5F5F5F5F5F5F5F5F5F5F5F5F5F5F5F5F5F5F5F5F5F5F5F5F5F5F5F5F5F5F5F5F5
310
F5F5F5F5F5F5F5F5F5F5F5F5F5F5F5F5F5F5F5F5F5F5F5F5F5F5F5F5F5F5F5F5F5F5F5F5F5F5F5F5F5F5F5F5F5F5F5F5E2E2F5F5F5F5F5F5F5F5F5F5F5F5F5F5F5F5F5F5F5F5F5F5F5F5F5F5F5F5F5F5F5F5F5F5F5F5F5F5F5F5F5F5F5F5F5F5F5F5F5F5F5F5F5F5F5F5F5F5F5F5F5F5F5F5F5F5F5F5F5F5F5F5F5F5F5F5F5
310
F5F5F5F5F5F5F5F5F5F5F5F5F5F5F5F5F5F5F5F5F5F5F5F5F5F5F5F5F5F5F5F5F5F5F5F5F5F5F5F5F5F5F5F5F5F5F5F5F5F5F5F5F5F5F5F5F5F5F5F5F5F5F5F5F5F5F5F5F5F5F5F5F5F5F5F5F5F5F5F5F5F5F5F5F5F5F5F5F5F5F5F5F5F5F5F5F5F5F5F5F5E2E2F5F5F5F5F5F5F5F5F5F5F5F5F5F5F5F5F5F5F5F5F5F5F5F5
310
F5F5F5F5F5F5F5F5F5F5F5F5F5F5F5F5F5F5F5F5F5F5F5F5F5F5F5F5F5F5F5F5F5F5F5F5F5F5F5F5F5F5F5F5F5F5F5F5F5F5F5F5F5F5F5F5F5F5F5F5F5F5F5F5F5F5F5F5F5F5F5F5F5F5F5F5F5F5F5F5F5F5F5F5F5F5F5F5F5F5F5F5F5F5F5F5F5F5F5F5F5F5F5F5F5F5F5F5F5F5F5F5F5F5F5F5F5F5F5F5F5F5F5F5F5F5F5
310
F5F5F5F5F5F5F5F5F5F5F5F5F5F5F5F5F5F5F5F5F5F5F5F5F5F5F5E2E2F5F5F5F5F5F5F5F5F5F5F5F5F5F5F5F5F5F5F5DCDCDCDCDCDCDCDCDCDCDCDCDCDCDCDCDCDCDCDCDCDCDCDCDCDCDCDCDCDCDCDCDCDCDCDCDCDCDCDCDCDCDCDCDCDCDCDCDCDCDCDCDCDCDCDCDCDCDCDCDCDCDCDCDCDCDCDCDCDCDCDCDCDCDCDCDCDCDC
310
DCDCDCDCDCDCDCDCDCDCDCDCDCDCDCDCDCDCDCDCDCDCDCDCDCDCDCDCDCDCDCDCDCDCDCDCDCDCDCDCDCDCDCDCDCDCDCDCDCDCDCDCDCDCDCDCDCDCDCDCDCF5F5F5F5F5F5F5F5F5F5F5F5F5F5F5F5F5F5F5E2E2F5F5F5F5F5F5F5F5F5F5F5F5F5F5F5F5F5F5F5DCDCDCDCDCDCDCDCDCDCDCDCDCDCDCDCDCDCDCDCDCDCDCDCDCDC
310
DCDCDCDCDCDCDCDCDCDCDCDCDCDCDCDCDCDCDCDCDCDCDCDCDCDCDCDCDCDCDCDCDCDCDCDCDCDCDCDCDCDCDCDCDCDCDCDCDCDCDCDCDCDCDCDCDCDCDCDCDCDCDCDCDCDCDCDCDCDCDCDCDCDCDCDCDCDCDCDCDCDCDCDCDCDCDCDCDCDCDCDCDCDCDCDCDCDCDCDCDCDCDCDCDCDCDCDCDCDCDCDCDCDCF5F5F5F5F5F5F5F5F5F5F5F5F5
310
F5F5F5F5F5F5E2E2F5F5F5F5F5F5F5F5F5F5F5F5F5F5F5F5F5F5F5DCF5F5F5F5F5F5F5F5F5F5F5F5F5F5F5F5F5F5F5F5F5F5F5F5F5F5F5F5F5F5F5F5F5F5F5F5F5F5F5F5F5F5F5F5F5F5F5F5F5F5F5F5F5F5F5F5F5F5F5F5F5F5F5F5F5F5F5F5F5F5F5F5F5F5F5F5F5F5F5F5F5F5F5F5F5F5F5F5F5F5F5F5F5F5F5F5F5F5F5
310
F5F5F5F5F5F5F5F5F5F5F5F5F5F5F5F5F5F5F5F5F5F5F5F5F5F5F5F5F5F5F5F5F5F5F5F5F5F5F5DCF5F5F5F5F5F5F5F5F5F5F5F5F5F5F5F5F5F5F5E2E2F5F5F5F5F5F5F5F5F5F5F5F5F5F5F5F5F5F5F5DCF5282828282828282828282828282828282828282828282828282828282828282828282828282828282828282828
310
28282828282828282828282828282828282828282828282828282828282828282828282828282828282828282828282828282828282828282828282828282828282828282828282828282828282828282828282828282828282828F5DCF5F5F5F5F5F5F5F5F5F5F5F5F5F5F5F5F5F5F5E2E2F5F5F5F5F5F5F5F5F5F5F5F5F5
310
F5F5F5F5F5F5DCF5282D2D2D2D2D2D2D2D2D2D2D2D2D2D2D2D2D2D2D2D2DF5F5F5F5F5F5F5F5F5F5F5F5F5F5F5F5F5F5F5F5F5F5F5F5F5F5F5F5F5F5F5F5F5F5F5F5F5F5F5F5F5F5F5F5F528F5F5F5F5F5F5F5F5F5F5F5F5F5F5F5F5F5F5F5F5F5F5F5F5F5F5F5F5F5F5F5F5F5F5F5F5F5F5F5F5F5F5F5F5F5F5F5F5F5F5F5
310
F5F5F5F5F5F5F5F5F5F5F5F5F5F5F5F528F5DCF5F5F5F5F5F5F5F5F5F5F5F5F5F5F5F5F5F5F5E2E2F5E2F5F5F5F5F5F5F5F5F5F5F5F5F5F5F5F5F5DCF5282D2D2D2D2D2D2D2D2D2D2D2D2D2D2D2D2D2D2D2D2D2D2D2D2D2D2D2D2DF5F5F5F5F5F5F5F5F5F5F5F5F5F5F5F5F5F5F5F5F5F5F5F5F5F5F5F5F5F5F5F5F5F5F5F5
310
F528F5F5F5F5F5F5F5F5F5F5F5F5F5F5F5F5F5F5F5F5F5F5F5F5F5F5F5F5F5F5F5F5F5F5F5F5F5F5F5F5F5F5F5F5F5F5F5F5F5F5F5F5F5F5F5F5F5F5F5F5F5F5F5F5F5F5F528F5DCF5F5F5F5F5F5F5F5F5F5F5F5F5F5F5F5F5E2F5E2E2F5E2F5F5F5F5F5F5F5F5F5F5F5F5F5F5F5F5F5DCF5282D2D2D2D2D2D2D2D2D2D2D2D
310
2D2D2D2D2D2D2D2D2D2D2D2D2D2D2D2D2DF5F5F5F5F5F5F5F5F5F5F5F5F5F5F5F5F5F5F5F5F5F5F5F5F5F5F5F5F5F5F5F5F5F5F5F5F528F5F5F5F5F5F5F5F52D2D2D2D2D2D2D2D2D2D2D2D2D2D2D2D2D2D2D2D2D2D2D2D2D2D2D2D2D2D2D2D2D2D2D2D2D2D2D2D2D2D2D2D2D2D2D2D2D2D2DF5F5F5F5F5F5F5F528F5DCF5F5
310
F5F5F5F5F5F5F5F5F5F5F5F5F5F5F5E2F5E2E2F5E2F5F5F5F5F5F5F5F5F5F5F5F5F5F5F5F5F5DCF5282D2D2D2D2D2D2D2D2D2D2D2D2D2D2D2D2D2D2D2D2D2D2D2D2D2D2D2D2D2D2D2D2D2D2D2D2D2D2D2D2D2D2D2D2D2D2D2D2D2D2D2D2D2D2D2D2D2D2D2D2D2D2D2D2D2D28F5F5F5F5F5F5F5F52D2D2D2D2D2D2D2D2D2D2D
310
2D2D2D2D2D2D2D2D2D2D2D2D2D2D2D2D2D2D2D2D2D2D2D2D2D2D2D2D2D2D2D2D2D2D2D2D2D2D2D2DF5F5F5F5F5F5F5F528F5DCF5F5F5F5F5F5F5F5F5F5F5F5F5F5F5F5F5E2F5E2E2F5E2F5F5F5F5F5F5F5F5F5F5F5F5F5F5F5F5F5DCF5282D2D2D2D2D2D2D2D2D2D2D2D2D2D2D2D2D2D2D2D2D2D2D2D2D2D2D2D2D2D2D2D2D
310
2D2D2D2D2D2D2D2D2D2D2D2D2D2D2D2D2D2D2D2D2D2D2D2D2D2D2D2D2DF5F5F5F528F5F5F5F5F5F5F5F5F5F5F5F52D2D2D2D2D2D2D2D2D2D2D2D2D2D2D2D2D2D2D2D2D2D2D2D2D2D2D2D2D2D2D2D2D2D2D2D2D2D2D2D2D2DF5F5F5F5F5F5F5F5F5F5F5F5F528F5DCF5F5F5F5F5F5F5F5F5F5F5F5F5F5F5F5F5E2F5E2E2F5E2
310
F5F5F5F5F5F5F5F5F5F5F5F5F5F5F5F5F5DCF5282D2D2D2D2D2D2D2D2D2D2D2D2D2D2D2D2D2D2D2D2D2D2D2D2D2D2D2D2D2D2D2D2D2D2D2D2D2D2D2D2D2D2D2D2D2D2D2D2D2D2D2D2D2D2D2D2D2D2D2D2D2DF5F5F5F528F5F5F5F5F5F5F5F5F5F5F5F52D2D2D2D2D2D2D2D2D2D2D2D2D2D2D2D2D2D2D2D2D2D2D2D2D2D2D2D
310
2D2D2D2D2D2D2D2D2D2D2D2D2D2DF5F5F5F5F5F5F5F5F5F5F5F5F528F5DCF5F5F5F5F5F5F5F5F5F5F5F5F5F5F5F5F5E2F5E2E2F5E2F5F5F5F5F5F5F5F5F5F5F5F5F5F5F5F5F5DCF5282D2D2D2D2D2D2D2D2D2D2D2D2D2D2D2D2D2D2D2D2D2D2D2D2D2D2D2D2D2D2D2D2D2D2D2D2D2D2D2D2D2D2D2D2D2D2D2D2D2D2D2D2D2D
310
2D2D2D2D2DF5F5F5F5F5F5F528F5F5F5F5F5F5F5F5F5F5F5F5F5F5F5F5F5F5F5F5F5F5F5F5F5F5F5F52D2D2D2D2D2D2D2D2D2DF5F5F5F5F5F5F5F5F5F5F5F5F5F5F5F5F5F5F5F5F5F5F5F5F5F5F5F5F528F5DCF5F5F5F5F5F5F5F5F5F5F5F5F5F5F5F5F5E2F5E2E2F5E2F5F5F5F5F5F5F5F5F5F5F5F5F5F5F5F5F5DCF5282D
310
2D2D2D2D2D2D2D2D2D2D2D2D2D2D2D2D2D2D2D2D2D2D2D2D2D2D2D2D2D2D2DF5F5F5F5F5F5F5F5F5F5F5F5F5F5F5F5F5F5F5F5F5F5F5F5F5F5F5F5F5F5F5F5F5F528F5F5F5F5F5F5F5F5F5F5F5F5F5F5F5F5F5F5F5F5F5F5F5F5F5F5F5F52D2D2D2D2D2D2D2D2D2DF5F5F5F5F5F5F5F5F5F5F5F5F5F5F5F5F5F5F5F5F5F5F5
310
F5F5F5F5F5F528F5DCF5F5F5F5F5F5F5F5F5F5F5F5F5F5F5F5F5E2F5E2E2F5E2F5F5F5F5F5F5F5F5F5F5F5F5F5F5F5F5F5DCF5282D2D2D2D2D2D2D2D2D2D2D2D2D2D2D2D2D2D2D2D2D2D2D2D2D2D2D2D2D2D2D2DF5F5F5F5F5F5F5F5F5F5F5F5F5F5F5F5F5F5F5F5F5F5F5F5F5F5F5F5F5F5F5F5F5F528F5F5F5F5F5F5F5F5
310
F5F5F5F5F5F5F5F5F5F5F5F5F5F5F5F5F5F5F5F52D2D2D2D2D2D2D2D2D2DF5F5F5F5F5F5F5F5F5F5F5F5F5F5F5F5F5F5F5F5F5F5F5F5F5F5F5F5F528F5DCF5F5F5F5F5F5F5F5F5F5F5F5F5F5F5F5F5E2F5E2E2F5E2F5F5F5F5F5F5F5F5F5F5F5F5F5F5F5F5F5DCF5282D2D2D2D2D2D2D2D2D2D2D2D2D2D2D2D2D2D2D2D2D2D
310
2D2D2D2D2D2D2D2D2D2D2D2D2D2D2D2D2D2D2D2D2D2D2D2D2D2D2D2D2D2D2D2D2D2D2D2D2D2D2D2D2D2DF5F528F5F5F5F5F5F5F5F5F5F5F5F5F5F5F5F5F5F5F5F5F5F5F5F5F5F5F5F5F5F5F5F5F5F5F5F5F5F5F5F5F5F5F5F5F5F5F5F5F5F5F5F5F5F5F5F5F5F5F5F5F5F5F5F5F5F5F528F5DCF5F5F5F5F5F5F5F5F5F5F5F5
310
F5F5F5F5F5E2F5E2E2F5E2F5F5F5F5F5F5F5F5F5F5F5F5F5F5F5F5F5DCF528F5F5F5F5F5F5F5F5F5F5F5F5F5F5F5F5F5F5F5F5F5F5F5F5F5F5F5F5F5F5F5F5F5F5F5F5F5F5F5F5F5F5F5F5F5F5F5F5F5F5F5F5F5F5F5F5F5F5F5F5F5F5F5F5F5F528F5F5F5F5F5F5F5F5F5F5F5F5F5F5F5F5F5F5F5F5F5F5F5F5F5F5F5F5F5
310
F5F5F5F5F5F5F5F5F5F5F5F5F5F5F5F5F5F5F5F5F5F5F5F5F5F5F5F5F5F5F5F5F5F5F5F5F5F528F5DCF5F5F5F5F5F5F5F5F5F5F5F5F5F5F5F5F5E2F5E2E2F5E2F5F5F5F5F5F5F5F5F5F5F5F5F5F5F5F5F5DCF52828282828282828282828282828282828282828282828282828282828282828282828282828282828282828
310
2828282828282828282828282828282828282828282828282828282828282828282828282828282828282828282828282828282828282828282828282828282828282828282828282828282828282828282828282828282828282828F5DCF5F5F5F5F5F5F5F5F5F5F5F5F5F5F5F5F5E2F5E2E2F5E2F5F5F5F5F5F5F5F5F5F5
310
F5F5F5F5F5F5F5DCF528F5F5F5F5F5F5F5F5F5F5F5F5F5F5F5F5F5F5F5F5F5F5F5F5F5F5F5F5F5F5F5F5F5F5F5F5F5F5F5F5F5F5F5F5F5F5F5F5F5F5F5F5F5F5F5F5F5F5F5F5F5F5F5F5F5F5F5F5F5F5F5F5F5F5F5F5F5F5F5F5F5F5F5F5F5F5F5F5F5F5F5F5F5F5F5F5F5F5F5F5F5F5F5F5F5F5F5F5F5F5F5F5F5F5F5F5F5
310
F5F5F5F5F5F5F5F5F5F5F5F5F5F5F5F5F528F5DCF5F5F5F5F5F5F5F5F5F5F5F5F5F5F5F5F5E2F5E2E2F5E2F5F5F5F5F5F5F5F5F5F5F5F5F5F5F5F5F5DCF528F5F5F5F5F5F5F5F5F5F5F5F5F5F5F5F5F5F5F5F5F5F5F5F5F5F5F5F5F5F5F5F5F5F5F5F5F5F5F5F5F5F5F5F5F5F5F5F5F5F5F5F5F5F5F5F5F5F5F5F5F5F5F5F5
310
F5F5F5F5F5F5F5F5F5F5F5F5F5F5F5F5F5F5F5F5F5F5F5F5F5F5F5F5F5F5F5F5F5F5F5F5F5F5F5F5F5F5F5F5F5F5F5F5F5F5F5F5F5F5F5F5F5F5F5F5F5F5F5F5F5F5F5F5F5F528F5DCF5F5F5F5F5F5F5F5F5F5F5F5F5F5F5F5F5E2F5E2E2F5E2F5F5F5F5F5F5F5F5F5F5F5F5F5F5F5F5F5DCF528F5F5F5F5F5F5F5F5F5F5F5
310
F5F5F5F5F5F5F5F5F5F5F5F5F5F5F5F5F5F5F5F5F5F5F5F5F5F5F5F5F5F5F5F5F5F5F5F5F5F5F5F5F5F5F5F5F5F5F5F5F5F5F5F5F5F5F5F5F5F5F5F5F5F5F5F5F5F5F5F5F5F5F5F5F5F5F5F5F5F5F5F5F5F5F5F5F5F5F5F5F5F5F5F5F5F5F5F5F5F5F5F5F5F5F5F5F5F5F5F5F5F5F5F5F5F5F5F5F5F5F5F5F5F5F528F5DCF5
310
F5F5F5F5F5F5F5F5F5F5F5F5F5F5F5F5E2F5E2E2F5E2F5F5F5F5F5F5F5F5F5F5F5F5F5F5F5F5F5DCF528F5F5F5F5F5F5F5F5F5F5F5F5F5F5F5F5F5F5F5F5F5F5F5F5F5F5F5F5F5F5F5F5F5F5F5F5F5F5F5F5F5F5F5F5F5F5F5F5F5F5F5F5F5F5F5F5F5F5F5F5F5F5F5F5F5F5F5F5F5F5F5F5F5F5F5F5F5F5F5F5F5F5F5F5F5
310
F5F5F5F5F5F5F5F5F5F5F5F5F5F5F5F5F5F5F5F5F5F5F5F5F5F5F5F5F5F5F5F5F5F5F5F5F5F5F5F5F5F5F5F5F5F5F5F5F528F5DCF5F5F5F5F5F5F5F5F5F5F5F5F5F5F5F5F5E2F5E2E2F5E2F5F5F5F5F5F5F5F5F5F5F5F5F5F5F5F5F5DCF528F5F5F5F5F5F5F5F5F5F5F5F5F5F5F5F5F5F5F5F5F5F5F5F5F5F5F5F5F5F5F5F5
310
F5F5F5F5F5F5F5F5F5F5F5F5F5F5F5F5F5F5F5F5F5F5F5F5F5F5F5F5F5F5F5F5F5F5F5F5F5F5F5F5F5F5F5F5F5F5F5F5F5F5F5F5F5F5F5F5F5F5F5F5F5F5F5F5F5F5F5F5F5F5F5F5F5F5F5F5F5F5F5F5F5F5F5F5F5F5F5F5F5F5F5F5F5F5F5F5F5F5F5F5F5F528F5DCF5F5F5F5F5F5F5F5F5F5F5F5F5F5F5F5F5E2F5E2E2F5
310
F5F5F5F5F5F5F5F5F5F5F5F5F5F5F5F5F5F5DCF528F5F5F5F5F5F5F5F5F5F5F5F5F5F5F5F5F5F5F5F5F5F5F5F5F5F5F5F5F5F5F5F5F5F5F5F5F5F5F5F5F5F5F5F5F5F5F5F5F5F5F5F5F5F5F5F5F5F5F5F5F5F5F5F5F5F5F5F5F5F5F5F5F5F5F5F5F5F5F5F5F5F5F5F5F5F5F5F5F5F5F5F5F5F5F5F5F5F5F5F5F5F5F5F5F5F5
310
F5F5F5F5F5F5F5F5F5F5F5F5F5F5F5F5F5F5F5F5F5F5F5F5F5F5F5F528F5DCF5F5F5F5F5F5F5F5F5F5F5F5F5F5F5F5F5F5F5E2E2F5F5F5F5F5F5F5F5F5F5F5F5F5F5F5F5F5F5F5DCF528F5F5F5F5F5F5F5F5F5F5F5F5F5F5F5F5F5F5F5F5F5F5F5F5F5F5F5F5F5F5F5F5F5F5F5F5F5F5F5F5F5F5F5F5F5F5F5F5F5F5F5F5F5
310
F5F5F5F5F5F5F5F5F5F5F5F5F5F5F5F5F5F5F5F5F5F5F5F5F5F5F5F5F5F5F5F5F5F5F5F5F5F5F5F5F5F5F5F5F5F5F5F5F5F5F5F5F5F5F5F5F5F5F5F5F5F5F5F5F5F5F5F5F5F5F5F5F5F5F5F5F5F5F5F5F528F5DCF5F5F5F5F5F5F5F5F5F5F5F5F5F5F5F5F5F5F5E2E2F5F5F5F5F5F5F5F5F5F5F5F5F5F5F5F5F5F5F5DCF528
310
F5F5F5F5F5F5F5F5F5F5F5F5F5F5F5F5F5F5F5F5F5F5F5F5F5F5F5F5F5F5F5F5F5F5F5F5F5F5F5F5F5F5F5F5F5F5F5F5F5F5F5F5F5F5F5F5F5F5F5F5F5F5F5F5F5F5F5F5F5F5F5F5F5F5F5F5F5F5F5F5F5F5F5F5F5F5F5F5F5F5F5F5F5F5F5F5F5F5F5F5F5F5F5F5F5F5F5F5F5F5F5F5F5F5F5F5F5F5F5F5F5F5F5F5F5F5F5
310
F5F5F5F5F5F5F528F5DCF5F5F5F5F5F5F5F5F5F5F5F5F5F5F5F5F5F5F5E2E2F5F5F5F5F5F5F5F5F5F5F5F5F5F5F5F5F5F5F5DCF528F5F5F5F5F5F5F5F5F5F5F5F5F5F5F5F5F5F5F5F5F5F5F5F5F5F5F5F5F5F5F5F5F5F5F5F5F5F5F5F5F5F5F5F5F5F5F5F5F5F5F5F5F5F5F5F5F5F5F5F5F5F5F5F5F5F5F5F5F5F5F5F5F5F5
310
F5F5F5F5F5F5F5F5F5F5F5F5F5F5F5F5F5F5F5F5F5F5F5F5F5F5F5F5F5F5F5F5F5F5F5F5F5F5F5F5F5F5F5F5F5F5F5F5F5F5F5F5F5F5F5F5F5F5F5F528F5DCF5F5F5F5F5F5F5F5F5F5F5F5F5F5F5F5F5F5F5E2E2F5F5F5F5F5F5F5F5F5F5F5F5F5F5F5F5F5F5F5DCF528F5F5F5F5F5F5F5F5F5F5F5F5F5F5F5F5F5F5F5F5F5
310
F5F5F5F5F5F5F5F5F5F5F5F5F5F5F5F5F5F5F5F5F5F5F5F5F5F5F5F5F5F5F5F5F5F5F5F5F5F5F5F5F5F5F5F5F5F5F5F5F5F5F5F5F5F5F5F5F5F5F5F5F5F5F5F5F5F5F5F5F5F5F5F5F5F5F5F5F5F5F5F5F5F5F5F5F5F5F5F5F5F5F5F5F5F5F5F5F5F5F5F5F5F5F5F5F5F5F5F5F5F5F5F5F528F5DCF5F5F5F5F5F5F5F5F5F5F5
310
F5F5F5F5F5F5F5F5E2E2F5F5F5F5F5F5F5F5F5F5F5F5F5F5F5F5F5F5F5DCF528F5F5F5F5F5F5F5F5F5F5F5F5F5F5F5F5F5F5F5F5F5F5F5F5F5F5F5F5F5F5F5F5F5F5F5F5F5F5F5F5F5F5F5F5F5F5F5F5F5F5F5F5F5F5F5F5F5F5F5F5F5F5F5F5F5F5F5F5F5F5F5F5F5F5F5F5F5F5F5F5F5F5F5F5F5F5F5F5F5F5F5F5F5F5F5
310
F5F5F5F5F5F5F5F5F5F5F5F5F5F5F5F5F5F5F5F5F5F5F5F5F5F5F5F5F5F5F5F5F5F5F5F5F5F5F528F5DCF5F5F5F5F5F5F5F5F5F5F5F5F5F5F5F5F5F5F5E2E2F5F5F5F5F5F5F5F5F5F5F5F5F5F5F5F5F5F5F5DCF528F5F5F5F5F5F5F5F5F5F5F5F5F5F5F5F5F5F5F5F5F5F5F5F5F5F5F5F5F5F5F5F5F5F5F5F5F5F5F5F5F5F5
310
F5F5F5F5F5F5F5F5F5F5F5F5F5F5F5F5F5F5F5F5F5F5F5F5F5F5F5F5F5F5F5F5F5F5F5F5F5F5F5F5F5F5F5F5F5F5F5F5F5F5F5F5F5F5F5F5F5F5F5F5F5F5F5F5F5F5F5F5F5F5F5F5F5F5F5F5F5F5F5F5F5F5F5F5F5F5F5F5F5F5F5F528F5DCF5F5F5F5F5F5F5F5F5F5F5F5F5F5F5F5F5F5F5E2E2F5F5F5F5F5F5F5F5F5F5F5
310
F5F5F5F5F5F5F5F5DCF528F5F5F5F5F5F5F5F5F5F5F5F5F5F5F52D2D2D2D2D2D2D2D2D2DF5F5F5F5F5F5F5F5F5F5F5F5F5F5F5F5F5F5F5F5F5F5F5F5F5F5F5F5F5F5F5F5F5F5F5F5F5F5F5F5F5F5F5F5F5F5F5F5F5F5F5F5F5F5F5F5F5F5F5F5F5F5F5F5F5F5F5F5F5F5F5F5F5F5F5F5F5F5F5F5F5F5F5F5F5F5F5F5F5F5F5
310
F5F5F5F5F5F5F5F5F5F5F5F5F5F5F5F5F5F528F5DCF5F5F5F5F5F5F5F5F5F5F5F5F5F5F5F5F5F5F5E2E2F5E2F5F5F5F5F5F5F5F5F5F5F5F5F5F5F5F5F5DCF528F5F5F5F5F5F5F5F5F5F5F5F5F5F5F52D2D2D2D2D2D2D2D2D2DF5F5F5F5F5F5F5F5F5F5F5F5F5F5F5F5F5F5F5F5F5F5F5F5F5F5F5F5F5F5F5F5F5F5F5F5F5F5
310
F5F5F5F5F5F5F5F5F5F5F5F5F5F5F5F5F5F5F5F5F5F5F5F5F5F5F5F5F5F5F5F5F5F5F5F5F5F5F5F5F5F5F5F5F5F5F5F5F5F5F5F5F5F5F5F5F5F5F5F5F5F5F5F5F5F5F5F5F5F5F528F5DCF5F5F5F5F5F5F5F5F5F5F5F5F5F5F5F5F5E2F5E2E2F5E2F5F5F5F5F5F5F5F5F5F5F5F5F5F5F5F5F5DCF528F5F5F5F5F5F5F5F5F5F5
310
F5F5F5F5F5F5F5F5F5F5F5F5F5F5F5F5F5F5F5F5F5F5F5F5F5F5F5F5F5F5F5F5F5F5F5F5F5F5F5F5F5F5F5F5F5F5F5F5F5F5F5F5F5F5F5F5F5F5F5F5F5F5F5F5F5F5F5F5F5F5F5F5F5F5F5F5F5F5F5F5F5F5F5F5F5F5F5F5F5F5F5F5F5F5F5F5F5F5F5F5F5F5F5F5F5F5F5F5F5F5F5F5F5F5F5F5F5F5F5F5F5F5F5F528F5DC
310
F5F5F5F5F5F5F5F5F5F5F5F5F5F5F5F5F5E2F5E2E2F5E2F5F5F5F5F5F5F5F5F5F5F5F5F5F5F5F5F5DCF528F5F5F5F5F5F5F5F5F5F5F5F5F5F5F5F5F5F5F5F5F5F5F5F5F5F5F5F5F5F5F5F5F5F5F5F5F5F5F5F5F5F5F5F5F5F5F5F5F5F5F5F5F5F5F5F5F5F5F5F5F5F5F5F5F5F5F5F5F5F5F5F5F5F5F5F5F5F5F5F5F5F5F5F5
310
F5F5F5F5F5F5F5F5F5F5F5F5F5F5F5F5F5F5F5F5F5F5F5F5F5F5F5F5F5F5F5F5F5F5F5F5F5F5F5F5F5F5F5F5F5F5F5F5F5F528F5DCF5F5F5F5F5F5F5F5F5F5F5F5F5F5F5F5F5E2F5E2E2F5E2F5F5F5F5F5F5F5F5F5F5F5F5F5F5F5F5F5DCF528F5F5F5F5F5F5F5F5F5F5F5F5F5F5F5F5F5F5F5F5F5F5F5F5F5F5F5F5F5F5F5
310
F5F5F5F5F5F5F5F5F5F5F5F5F5F5F5F5F5F5F5F5F5F5F5F5F5F5F5F5F5F5F5F5F5F5F5F5F5F5F5F5F5F5F5F5F5F5F5F5F5F5F5F5F5F5F5F5F5F5F5F5F5F5F5F5F5F5F5F5F5F5F5F5F5F5F5F5F5F5F5F5F5F5F5F5F5F5F5F5F5F5F5F5F5F5F5F5F5F5F5F5F5F5F528F5DCF5F5F5F5F5F5F5F5F5F5F5F5F5F5F5F5F5E2F5E2E2
310
F5E2F5F5F5F5F5F5F5F5F5F5F5F5F5F5F5F5F5DCF528F5F5F5F5F5F5F5F5F5F5F5F5F5F5F5F5F5F5F5F5F5F5F5F5F5F5F5F5F5F5F5F5F5F5F5F5F5F5F5F5F5F5F5F5F5F5F5F5F5F5F5F5F5F5F5F5F5F5F5F5F5F5F5F5F5F5F5F5F5F5F5F5F5F5F5F5F5F5F5F5F5F5F5F5F5F5F5F5F5F5F5F5F5F5F5F5F5F5F5F5F5F5F5F5F5
310
F5F5F5F5F5F5F5F5F5F5F5F5F5F5F5F5F5F5F5F5F5F5F5F5F5F5F5F5F528F5DCF5F5F5F5F5F5F5F5F5F5F5F5F5F5F5F5F5E2F5E2E2F5E2F5F5F5F5F5F5F5F5F5F5F5F5F5F5F5F5F5DCF528F5F5F5F5F5F5F5F5F5F5F5F5F5F5F5F5F5F5F5F5F5F5F5F5F5F5F5F5F5F5F5F5F5F5F5F5F5F5F5F5F5F5F5F5F5F5F5F5F5F5F5F5
310
F5F5F5F5F5F5F5F5F5F5F5F5F5F5F5F5F5F5F5F5F5F5F5F5F5F5F5F5F5F5F5F5F5F5F5F5F5F5F5F5F5F5F5F5F5F5F5F5F5F5F5F5F5F5F5F5F5F5F5F5F5F5F5F5F5F5F5F5F5F5F5F5F5F5F5F5F5F5F5F5F5F528F5DCF5F5F5F5F5F5F5F5F5F5F5F5F5F5F5F5F5E2F5E2E2F5E2F5F5F5F5F5F5F5F5F5F5F5F5F5F5F5F5F5DCF5
310
28F5F5F5F5F5F5F5F5F5F5F5F5F5F5F5F5F5F5F5F5F5F5F5F5F5F5F5F5F5F5F5F5F5F5F5F5F5F5F5F5F5F5F5F5F5F5F5F5F5F5F5F5F5F5F5F5F5F5F5F5F5F5F5F5F5F5F5F5F5F5F5F5F5F5F5F5F5F5F5F5F5F5F5F5F5F5F5F5F5F5F5F5F5F5F5F5F5F5F5F5F5F5F5F5F5F5F5F5F5F5F5F5F5F5F5F5F5F5F5F5F5F5F5F5F5F5
310
F5F5F5F5F5F5F5F528F5DCF5F5F5F5F5F5F5F5F5F5F5F5F5F5F5F5F5E2F5E2E2F5E2F5F5F5F5F5F5F5F5F5F5F5F5F5F5F5F5F5DCF528F5F5F5F5F5F5F5F5F5F5F5F5F5F5F5F5F5F5F5F5F5F5F5F5F5F5F5F5F5F5F5F5F5F5F5F5F5F5F5F5F5F5F5F5F5F5F5F5F5F5F5F5F5F5F5F5F5F5F5F5F5F5F5F5F5F5F5F5F5F5F5F5F5
310
F5F5F5F5F5F5F5F5F5F5F5F5F5F5F5F5F5F5F5F5F5F5F5F5F5F5F5F5F5F5F5F5F5F5F5F5F5F5F5F5F5F5F5F5F5F5F5F5F5F5F5F5F5F5F5F5F5F5F5F5F528F5DCF5F5F5F5F5F5F5F5F5F5F5F5F5F5F5F5F5E2F5E2E2F5E2F5F5F5F5F5F5F5F5F5F5F5F5F5F5F5F5F5DCF528F5F5F5F5F5F5F5F5F5F5F5F5F5F5F5F5F5F5F5F5
310
F5F5F5F5F5F5F5F5F5F5F5F5F5F5F5F5F5F5F5F5F5F5F5F5F5F5F5F5F5F5F5F5F5F5F5F5F5F5F5F5F5F5F5F5F5F5F5F5F5F5F5F5F5F5F5F5F5F5F5F5F5F5F5F5F5F5F5F5F5F5F5F5F5F5F5F5F5F5F5F5F5F5F5F5F5F5F5F5F5F5F5F5F5F5F5F5F5F5F5F5F5F5F5F5F5F5F5F5F5F5F5F5F5F528F5DCF5F5F5F5F5F5F5F5F5F5
310
F5F5F5F5F5F5F5E2F5E2E2F5E2F5F5F5F5F5F5F5F5F5F5F5F5F5F5F5F5F5DCF528F5F5F5F5F5F5F5F5F5DCF5F5F5F5F5F5F5F5F5F5F5F5F5F5F5F5F5F5F5F5F5F5F5F5F5F5F5F5F5F5F5F5F5F5F5F5F5F5F5F5F5F5F5F5F5F5F5F5F5F5F5F5F5F5F5F5F5F5F5F5F5F5F5F5F5F5F5F5F5F5F5F5F5F5F5F5F5F5F5F5F5F5F5F5
310
F5F5F5F5F5F5F5F5F5F5F5F5F5F5F5F5F5F5F5F5F5F5F5F5F5F5F5F5F5F5F5F5F5F5F5F5F5F5F5F528F5DCF5F5F5F5F5F5F5F5F5F5F5F5F5F5F5F5F5E2F5E2E2F5E2F5F5F5F5F5F5F5F5F5F5F5F5F5F5F5F5F5DCF528F5F5F5F5F5F5F5F50FDCF5F5F5F5F52D2D2D2D2D2D2D2DF5F5F5F5F50FF5F5F5F5F5F5F5F5F5F5F5F5
310
F5F5F5F5F5F5F5F5F5F5F5F5F5F5F5F5F5F5F5F5F5F5F5F5F5F5F5F5F5F5F5F5F5F5F5F5F5F5F5F5F5F5F5F5F5F5F5F5F5F5F5F5F5F5F5F5F5F5F5F5F5F5F5F5F5F5F5F5F5F5F5F5F5F5F5F5F5F5F5F5F5F5F5F5F5F5F5F5F5F5F5F5F528F5DCF5F5F5F5F5F5F5F5F5F5F5F5F5F5F5F5F5E2F5E2E2F5E2F5F5F5F5F5F5F5F5
310
F5F5F5F5F5F5F5F5F5DCF528F5F5F5F5DCF5F5DC0FDC0F0F0F0F0F2D2D2D2D2D2D2D2D0F0F0F0F0F0F0FF5F5F5F5F5F5F5F5F5F5F5F5F5F5F5F5F5F5F5F5F5F5F5F5F5F5F5F5F5F5F5F5F5F5F5F5F5F5F5F5F5F5F5F5F5F5F5F5F5F5F5F5F5F5F5F5F5F5F5F5F5F5F5F5F5F5F5F5F5F5F5F5F5F5F5F5F5F5F5F5F5F5F5F5F5
310
F5F5F5F5F5F5F5F5F5F5F5F5F5F5F5F5F5F5F528F5DCF5F5F5F5F5F5F5F5F5F5F5F5F5F5F5F5F5E2F5E2E2F5E2F5F5F5F5F5F5F5F5F5F5F5F5F5F5F5F5F5DCF528F5F5F5DCF5F5DCF5F5DCF5F5F5F5F5F5F5F5F5F5F5F5F5F5F5F5F5F50FF5F5F5F5F5F5F5F5F5F5F5F5F5F5F5F5F5F5F5F5F5F5F5F5F5F5F5F5F5F5F5F5F5
310
F5F5F5F5F5F5F5F5F5F5F5F5F5F5F5F5F5F5F5F5F5F5F5F5F5F5F5F5F5F5F5F5F5F5F5F5F5F5F5F5F5F5F5F5F5F5F5F5F5F5F5F5F5F5F5F5F5F5F5F5F5F5F5F5F5F5F5F5F5F5F5F528F5DCF5F5F5F5F5F5F5F5F5F5F5F5F5F5F5F5F5E2F5E2E2F5E2F5F5F5F5F5F5F5F5F5F5F5F5F5F5F5F5F5DCF528F5F5F5F5F5DCF5F5DC
310
DCF5F5F5F5F5F5F5F5F5F5F5F5F5F5F5F5F5F50FF5F5F5F5F5F5F5F5F5F5F5F5F5F5F5F5F5F5F5F5F5F5F5F5F5F5F5F5F5F5F5F5F5F5F5F5F5F5F5F5F5F5F5F5F5F5F5F5F5F5F5F5F5F5F5F5F5F5F5F5F5F5F5F5F5F5F5F5F5F5F5F5F5F5F5F5F5F5F5F5F5F5F5F5F5F5F5F5F5F5F5F5F5F5F5F5F5F5F5F5F5F5F5F5F528F5
310
DCF5F5F5F5F5F5F5F5F5F5F5F5F5F5F5F5F5E2F5E2E2F5E2F5F5F5F5F5F5F5F5F5F5F5F5F5F5F5F5F5DCF528F5F5F5F5DCF5F5DCF5DCF5F5F5F5F5F5F5F5F5F5F5F5F5F5F5F5F5F50FF5F5F5F5F5F5F5F5F5F5F5F5F5F5F5F5F5F5F5F5F5F5F5F5F5F5F5F5F5F5F5F5F5F5F5F5F5F5F5F5F5F5F5F5F5F5F5F5F5F5F5F5F5F5
310
F5F5F5F5F5F5F5F5F5F5F5F5F5F5F5F5F5F5F5F5F5F5F5F5F5F5F5F5F5F5F5F5F5F5F5F5F5F5F5F5F5F5F5F5F5F5F5F5F5F5F528F5DCF5F5F5F5F5F5F5F5F5F5F5F5F5F5F5F5F5E2F5E2E2F5E2F5F5F5F5F5F5F5F5F5F5F5F5F5F5F5F5F5DCF528F5F5F5DCF5F5DCF5F5DCF5F5F5F5F5F5F5F5F5F5F5F5F5F5F5F5F5F50FF5
310
F5F5F5F5F5F5F5F5F5F5F5F5F5F5F5F5F5F5F5F5F5F5F5F5F5F5F5F5F5F5F5F5F5F5F5F5F5F5F5F5F5F5F5F5F5F5F5F5F5F5F5F5F5F5F5F5F5F5F5F5F5F5F5F5F5F5F5F5F5F5F5F5F5F5F5F5F5F5F5F5F5F5F5F5F5F5F5F5F5F5F5F5F5F5F5F5F5F5F5F5F5F5F5F528F5DCF5F5F5F5F5F5F5F5F5F5F5F5F5F5F5F5F5E2F5E2
310
E2F5F5F5F5F5F5F5F5F5F5F5F5F5F5F5F5F5F5F5DCF528F5F5F5F5F5DCF5F5F5DC1B0F0F0F0F0F0F0F0F0F0F0F0F0F0F0F0F0F0F0F0F0F0F0F0F0FF5F5F5F5F5F5F5F5F5F5F5F5F5F5F5F5F5F5F5F5F5F5F5F5F5F5F5F5F5F5F5F5F5F5F5F5F5F5F5F5F5F5F5F5F5F5F5F5F5F5F5F5F5F5F5F5F5F5F5F5F5F5F5F5F5F5F5F5
310
F5F5F5F5F5F5F5F5F5F5F5F5F5F5F5F5F5F5F5F5F5F5F5F5F5F5F5F5F5F528F5DCF5F5F5F5F5F5F5F5F5F5F5F5F5F5F5F5F5F5F5E2E2F5F5F5F5F5F5F5F5F5F5F5F5F5F5F5F5F5F5F5DCF528F5F5F5F5DCF5F5F5DCDCBEF5F5F5F5F5F5F5F5F5F5F5F5F5F5F5F5F50FF5F5F5F5F50FF5F5F5F5F5F5F5F5F5F5F5F5F5F5F5F5
310
F5F5F5F5F5F5F5F5F5F5F5F5F5F5F5F5F5F5F5F5F5F5F5F5F5F5F5F5F5F5F5F5F5F5F5F5F5F5F5F5F5F5F5F5F5F5F5F5F5F5F5F5F5F5F5F5F5F5F5F5F5F5F5F5F5F5F5F5F5F5F5F5F5F5F5F5F5F5F5F5F5F5F528F5DCF5F5F5F5F5F5F5F5F5F5F5F5F5F5F5F5F5F5F5E2E2F5F5F5F5F5F5F5F5F5F5F5F5F5F5F5F5F5F5F5DC
310
F528F5F5F5DCF5F5F5DCF5DCF5BEBEF5F5F5F5F5F5F5F5F5F5F5F5F5F5F50FF5F5F5F5F50FF5F5F5F5F5F5F5F5F5F5F5F5F5F5F5F5F5F5F5F5F5F5F5F5F5F5F5F5F5F5F5F5F5F5F5F5F5F5F5F5F5F5F5F5F5F5F5F5F5F5F5F5F5F5F5F5F5F5F5F5F5F5F5F5F5F5F5F5F5F5F5F5F5F5F5F5F5F5F5F5F5F5F5F5F5F5F5F5F5F5
310
F5F5F5F5F5F5F5F5F528F5DCF5F5F5F5F5F5F5F5F5F5F5F5F5F5F5F5F5F5F5E2E2F5F5F5F5F5F5F5F5F5F5F5F5F5F5F5F5F5F5F5DCF528F5F5F5F5F5DCDCF5F5DCF5F5BEBEF5F5F5F5F5F5F5F5F5F5F5F5F5F50FF5F5F5F5F50FF5F5F5F5F5F5F5F5F5F5F5F5F5F5F5F5F5F5F5F5F5F5F5F5F5F5F5F5F5F5F5F5F5F5F5F5F5
310
F5F5F5F5F5F5F5F5F5F5F5F5F5F5F5F5F5F5F5F5F5F5F5F5F5F5F5F5F5F5F5F5F5F5F5F5F5F5F5F5F5F5F5F5F5F5F5F5F5F5F5F5F5F5F5F5F5F5F5F5F5F528F5DCF5F5F5F5F5F5F5F5F5F5F5F5F5F5F5F5F5F5F5E2E2F5F5F5F5F5F5F5F5F5F5F5F5F5F5F5F5F5F5F5DCF528F5F5F5F5DCF5F5F5DCDCF5F5F5BEF5F5F5F5F5
310
F5F5F5F5F5F5F5F5F50FF5F5F5F5F50FF5F5F5F5F5F5F5F5F5F5F5F5F5F5F5F5F5F5F5F5F5F5F5F5F5F5F5F5F5F5F5F5F5F5F5F5F5F5F5F5F5F5F5F5F5F5F5F5F5F5F5F5F5F5F5F5F5F5F5F5F5F5F5F5F5F5F5F5F5F5F5F5F5F5F5F5F5F5F5F5F5F5F5F5F5F5F5F5F5F5F5F5F5F5F5F5F5F5F528F5DCF5F5F5F5F5F5F5F5F5
310
F5F5F5F5F5F5F5F5F5F5E2E2F5F5F5F5F5F5F5F5F5F5F5F5F5F5F5F5F5F5F5DCF528F5F5F5DCF5F5F5DCF5DCF5F5F5BEBEBEF5F5F5F5F5F5F5F5F5F5F5F50FF5F5F5F5F50FF5F5F5F5F5F5F5F5F5F5F5F5F5F5F5F5F5F5F5F5F5F5F5F5F5F5F5F5F5F5F5F5F5F5F5F5F5F5F5F5F5F5F5F5F5F5F5F5F5F5F5F5F5F5F5F5F5F5
310
F5F5F5F5F5F5F5F5F5F5F5F5F5F5F5F5F5F5F5F5F5F5F5F5F5F5F5F5F5F5F5F5F5F5F5F5F5F5F5F5F528F5DCF5F5F5F5F5F5F5F5F5F5F5F5F5F5F5F5F5F5F5E2E2F5F5F5F5F5F5F5F5F5F5F5F5F5F5F5F5F5F5F5DCF528F5F5F5F5F5DCDCF5F5DCF5F5F5F5BEBEF5F5F5F5F5F5F5F5F5F5F5F50FF5F5F5F5F50FF5F5F5F5F5
310
F5F5F5F5F5F5F5F5F5F5F5F5F5F5F5F5F5F5F5F5F5F5F5F5F5F5F5F5F5F5F5F5F5F5F5F5F5F5F5F5F5F5F5F5F5F5F5F5F5F5F5F5F5F5F5F5F5F5F5F5F5F5F5F5F5F5F5F5F5F5F5F5F5F5F5F5F5F5F5F5F5F5F5F5F5F5F5F5F5F5F5F5F5F528F5DCF5F5F5F5F5F5F5F5F5F5F5F5F5F5F5F5F5F5F5E2E2F5F5F5F5F5F5F5F5F5
310
F5F5F5F5F5F5F5F5F5F5DCF528F5F5F5F5DCF5F5F5DCDCF5F5F5F5BEF5F5F5F5F5F5F5F5F5F5F5F5F50FF5F5F5F5F50FF5F5F5F5F5F5F5F5F5F5F5F5F5F5F5F5F5F5F5F5F5F5F5F5F5F5F5F5F5F5F5F5F5F5F5F5F5F5F5F5F5F5F5F5F5F5F5F5F5F5F5F5F5F5F5F5F5F5F5F5F5F5F5F5F5F5F5F5F5F5F5F5F5F5F5F5F5F5F5
310
F5F5F5F5F5F5F5F5F5F5F5F5F5F5F5F5F5F5F5F528F5DCF5F5F5F5F5F5F5F5F5F5F5F5F5F5F5F5F5F5F5E2E2F5F5F5F5F5F5F5F5F5F5F5F5F5F5F5F5F5F5F5DCF528F5F5F5DCF5F5F5DCF5DCF5F5F5F5BEF5F5F5F5F5F5F5F5F5F5F5F5F50FF5F5F5F5F50FF5F5F5F5F5F5F5F5F5F5F5F5F5F5F5F5F5F5F5F5F5F5F5F5F5F5
310
F5F5F5F5F5F5F5F5F5F5F5F5F5F5F5F5F5F5F5F5F5F5F5F5F5F5F5F5F5F5F5F5F5F5F5F5F5F5F5F5F5F5F5F5F5F5F5F5F5F5F5F5F5F5F5F5F5F5F5F5F5F5F5F5F5F5F5F5F5F5F5F5F528F5DCF5F5F5F5F5F5F5F5F5F5F5F5F5F5F5F5F5F5F5E2E2F5E2F5F5F5F5F5F5F5F5F5F5F5F5F5F5F5F5F5DCF528F5F5F5F5F5F5DCF5
310
F5DCBEBEF5F5BEF5F5F5F5F5F5F5F5F5F5F5F5F50FF5F52D2D2D2D2D2D2D2DF5F5F5F5F5F5F5F5F5F5F5F5F5F5F5F5F5F5F5F5F5F5F5F5F5F5F5F5F5F5F5F5F5F5F5F5F5F5F5F5F5F5F5F5F5F5F5F5F5F5F5F5F5F5F5F5F5F5F5F5F5F5F5F5F5F5F5F5F5F5F5F5F5F5F5F5F5F5F5F5F5F5F5F5F5F5F5F5F5F5F5F5F5F5F528
310
F5DCF5F5F5F5F5F5F5F5F5F5F5F5F5F5F5F5F5E2F5E2E2F5E2F5F5F5F5F5F5F5F5F5F5F5F5F5F5F5F5F5DCF528F5F5F5F5F5DCF5F5DCDCF5BEF5F5BEF5F5F5F5F5F5F5F5F5F5F5F5F50FF5F52D2D2D2D2D2D2D2DF5F5F5F5F5F5F5F5F5F5F5F5F5F5F5F5F5F5F5F5F5F5F5F5F5F5F5F5F5F5F5F5F5F5F5F5F5F5F5F5F5F5F5
310
F5F5F5F5F5F5F5F5F5F5F5F5F5F5F5F5F5F5F5F5F5F5F5F5F5F5F5F5F5F5F5F5F5F5F5F5F5F5F5F5F5F5F5F5F5F5F5F5F5F5F5F528F5DCF5F5F5F5F5F5F5F5F5F5F5F5F5F5F5F5F5E2F5E2E2F5E2F5F5F5F5F5F5F5F5F5F5F5F5F5F5F5F5F5DCF528F5F5F5F5DCF5F5DCF5DCF5BEF5F5BEBEF5F5F5F5F5F5F5F5F5F5F5F50F
310
F5F5F5F5F50FF5F5F5F5F5F5F5F5F5F5F5F5F5F5F5F5F5F5F5F5F5F5F5F5F5F5F5F5F5F5F5F5F5F5F5F5F5F5F5F5F5F5F5F5F5F5F5F5F5F5F5F5F5F5F5F5F5F5F5F5F5F5F5F5F5F5F5F5F5F5F5F5F5F5F5F5F5F5F5F5F5F5F5F5F5F5F5F5F5F5F5F5F5F5F5F5F5F5F528F5DCF5F5F5F5F5F5F5F5F5F5F5F5F5F5F5F5F5E2F5
310
E2E2F5E2F5F5F5F5F5F5F5F5F5F5F5F5F5F5F5F5F5DCF528F5F5F5DCF5F5DCF5F5DCF5F5BEF5F5BEF5F5F5F5F5F5F5F5F5F5F5F50FF5F5F5F5F50FF5F5F5F5F5F5F5F5F5F5F5F5F5F5F5F5F5F5F5F5F5F5F5F5F5F5F5F5F5F5F5F5F5F5F5F5F5F5F5F5F5F5F5F5F5F5F5F5F5F5F5F5F5F5F5F5F5F5F5F5F5F5F5F5F5F5F5F5
310
F5F5F5F5F5F5F5F5F5F5F5F5F5F5F5F5F5F5F5F5F5F5F5F5F5F5F5F5F5F5F528F5DCF5F5F5F5F5F5F5F5F5F5F5F5F5F5F5F5F5E2F5E2E2F5E2F5F5F5F5F5F5F5F5F5F5F5F5F5F5F5F5F5DCF528F5F5F5F5F5DCF5F5DCDCF5F5BEF5F5F5BEBEF5F5F5F5BEBEF5F5F5F50FF5F5F5F5F50FF5F5F5F5F5F5F5F5F5F5F5F5F5F5F5
310
F5F5F5F5F5F5F5F5F5F5F5F5F5F5F5F5F5F5F5F5F5F5F5F5F5F5F5F5F5F5F5F5F5F5F5F5F5F5F5F5F5F5F5F5F5F5F5F5F5F5F5F5F5F5F5F5F5F5F5F5F5F5F5F5F5F5F5F5F5F5F5F5F5F5F5F5F5F5F5F5F5F5F5F528F5DCF5F5F5F5F5F5F5F5F5F5F5F5F5F5F5F5F5E2F5E2E2F5E2F5F5F5F5F5F5F5F5F5F5F5F5F5F5F5F5F5
310
DCF528F5F5F5F5DCF5F5DCF5DCF5F5F5BEF5F5F5BEBEBEBEBEF5BEF5F5F5F50FF5F5F5F5F50FF5F5F5F5F5F5F5F5F5F5F5F5F5F5F5F5F5F5F5F5F5F5F5F5F5F5F5F5F5F5F5F5F5F5F5F5F5F5F5F5F5F5F5F5F5F5F5F5F5F5F5F5F5F5F5F5F5F5F5F5F5F5F5F5F5F5F5F5F5F5F5F5F5F5F5F5F5F5F5F5F5F5F5F5F5F5F5F5F5
310
F5F5F5F5F5F5F5F5F5F528F5DCF5F5F5F5F5F5F5F5F5F5F5F5F5F5F5F5F5E2F5E2E2F5E2F5F5F5F5F5F5F5F5F5F5F5F5F5F5F5F5F5DCF528F5F5F5DCF5F5DCF5F5DCF5F5F5F5BEF5F5F5F5F5F5F5F5BEBEF5F5F50FF5F5F5F5F50FF5F5F5F5F5F5F5F5F5F5F5F5F5F5F5F5F5F5F5F5F5F5F5F5F5F5F5F5F5F5F5F5F5F5F5F5
310
F5F5F5F5F5F5F5F5F5F5F5F5F5F5F5F5F5F5F5F5F5F5F5F5F5F5F5F5F5F5F5F5F5F5F5F5F5F5F5F5F5F5F5F5F5F5F5F5F5F5F5F5F5F5F5F5F5F5F5F5F5F5F528F5DCF5F5F5F5F5F5F5F5F5F5F5F5F5F5F5F5F5E2F5E2E2F5E2F5F5F5F5F5F5F5F5F5F5F5F5F5F5F5F5F5DCF528F5F5F5F5F5DCF5F5F5DCF5F5F5F5F5BEBEBE
310
F5F5F5F5F5F5F5BEBEF50FF5F5F5F5F50FF5F5F5F5F5F5F5F5F5F5F5F5F5F5F5F5F5F5F5F5F5F5F5F5F5F5F5F5F5F5F5F5F5F5F5F5F5F5F5F5F5F5F5F5F5F5F5F5F5F5F5F5F5F5F5F5F5F5F5F5F5F5F5F5F5F5F5F5F5F5F5F5F5F5F5F5F5F5F5F5F5F5F5F5F5F5F5F5F5F5F5F5F5F5F5F5F5F5F528F5DCF5F5F5F5F5F5F5F5
310
F5F5F5F5F5F5F5F5F5E2F5E2E2F5E2F5F5F5F5F5F5F5F5F5F5F5F5F5F5F5F5F5DCF528F5F5F5F5DCF5F5F5DCDCF5F5F5F5F5F5F5F5BEBEF5F5F5F5F5F5BEF50FF5F5F5F5F50FF5F5F5F5F5F5F5F5F5F5F5F5F5F5F5F5F5F5F5F5F5F5F5F5F5F5F5F5F5F5F5F5F5F5F5F5F5F5F5F5F5F5F5F5F5F5F5F5F5F5F5F5F5F5F5F5F5
310
F5F5F5F5F5F5F5F5F5F5F5F5F5F5F5F5F5F5F5F5F5F5F5F5F5F5F5F5F5F5F5F5F5F5F5F5F5F5F5F5F5F528F5DCF5F5F5F5F5F5F5F5F5F5F5F5F5F5F5F5F5E2F5E2E2F5E2F5F5F5F5F5F5F5F5F5F5F5F5F5F5F5F5F5DCF528F5F5F5DCF5F5F5DCF5DCF5F5F5F5F5F5F5F5F5BEBEF5F5F5F5F5F5BE1BF5F5F5F5F50FF5F5F5F5
310
F5F5F5F5F5F5F5F5F5F5F5F5F5F5F5F5F5F5F5F5F5F5F5F5F5F5F5F5F5F5F5F5F5F5F5F5F5F5F5F5F5F5F5F5F5F5F5F5F5F5F5F5F5F5F5F5F5F5F5F5F5F5F5F5F5F5F5F5F5F5F5F5F5F5F5F5F5F5F5F5F5F5F5F5F5F5F5F5F5F5F5F5F5F5F528F5DCF5F5F5F5F5F5F5F5F5F5F5F5F5F5F5F5F5E2F5E2E2F5E2F5F5F5F5F5F5
310
F5F5F5F5F5F5F5F5F5F5F5DCF528F5F5F5F5F5DCDCF5F5DCF5F5F5F5F5F5F5F5F5F5BEF5F5F5F5F5F5F5BEF5F5F5F5F50F0FF5F5F5F5F5F5F5F5F5F5F5F5F5F5F5F5F5F5F5F5F5F5F5F5F5F5F5F5F5F5F5F5F5F5F5F5F5F5F5F5F5F5F5F5F5F5F5F5F5F5F5F5F5F5F5F5F5F5F5F5F5F5F5F5F5F5F5F5F5F5F5F5F5F5F5F5F5
310
F5F5F5F5F5F5F5F5F5F5F5F5F5F5F5F5F5F5F5F5F528F5DCF5F5F5F5F5F5F5F5F5F5F5F5F5F5F5F5F5E2F5E2E2F5E2F5F5F5F5F5F5F5F5F5F5F5F5F5F5F5F5F5DCF528F5F5F5F5DCF5F5F5DCDCDCDCDCDCDCDCDCDCDCDCDCDCDCDCDCDCDCDCDCDCDCDCDCDCDCDCDCF5F5F5F5F5F5F5F5F5F5F5F5F5F5F5F5F5F5F5F5F5F5F5
310
F5F5F5F5F5F5F5F5F5F5F5F5F5F5F5F5F5F5F5F5F5F5F5F5F5F5F5F5F5F5F5F5F5F5F5F5F5F5F5F5F5F5F5F5F5F5F5F5F5F5F5F5F5F5F5F5F5F5F5F5F5F5F5F5F5F5F5F5F5F5F5F5F5F528F5DCF5F5F5F5F5F5F5F5F5F5F5F5F5F5F5F5F5E2F5E2E2F5E2F5F5F5F5F5F5F5F5F5F5F5F5F5F5F5F5F5DCF528F5F5F5DCF5F5F5
310
DCF5F5DCF5F5DCF5F5F5DCF5F5DCF5F5DCF5F5DCF5F5DCF5F5DCF5F5F5F5F5F5F5F5F5F5F5F5F5F5F5F5F5F5F5F5F5F5F5F5F5F5F5F5F5F5F5F5F5F5F5F5F5F5F5F5F5F5F5F5F5F5F5F5F5F5F5F5F5F5F5F5F5F5F5F5F5F5F5F5F5F5F5F5F5F5F5F5F5F5F5F5F5F5F5F5F5F5F5F5F5F5F5F5F5F5F5F5F5F5F5F5F5F5F5F5F5
310
28F5DCF5F5F5F5F5F5F5F5F5F5F5F5F5F5F5F5F5E2F5E2E2F5E2F5F5F5F5F5F5F5F5F5F5F5F5F5F5F5F5F5DCF528F5F5F5F5F5DCDCF5F5DCF5F5DCF5F5F5DCF5F5DCF5F5DCF5F5DCF5F5DCF5F5DCF5F5F5F5F5F5F5F5F5F5F5F5F5F5F5F5F5F5F5F5F5F5F5F5F5F5F5F5F5F5F5F5F5F5F5F5F5F5F5F5F5F5F5F5F5F5F5F5F5
310
F5F5F5F5F5F5F5F5F5F5F5F5F5F5F5F5F5F5F5F5F5F5F5F5F5F5F5F5F5F5F5F5F5F5F5F5F5F5F5F5F5F5F5F5F5F5F5F5F5F5F5F5F528F5DCF5F5F5F5F5F5F5F5F5F5F5F5F5F5F5F5F5E2F5E2E2F5E2F5F5F5F5F5F5F5F5F5F5F5F5F5F5F5F5F5DCF528F5F5F5F5DCF5F5F5DCF5F5DCF5F5DCDCF5DCDCF5DCDCF5F5DCF5F5DC
310
F5F5DCF5F5F5F5F5F5F5F5F5F5F5F5F5F5F5F5F5F5F5F5F5F5F5F5F5F5F5F5F5F5F5F5F5F5F5F5F5F5F5F5F5F5F5F5F5F5F5F5F5F5F5F5F5F5F5F5F5F5F5F5F5F5F5F5F5F5F5F5F5F5F5F5F5F5F5F5F5F5F5F5F5F5F5F5F5F5F5F5F5F5F5F5F5F5F5F5F5F5F5F5F5F5F528F5DCF5F5F5F5F5F5F5F5F5F5F5F5F5F5F5F5F5E2
310
F5E2E2F5E2F5F5F5F5F5F5F5F5F5F5F5F5F5F5F5F5F5DCF528F5F5F5DCF5F5F5DCF5F5DCF5F5DCF5F5DCF5F5DCF5F5F5DCF5F5DCF5F5DCF5F5F5DCF5F5F5F5F5F5F5F5F5F5F5F5F5F5F5F5F5F5F5F5F5F5F5F5F5F5F5F5F5F5F5F5F5F5F5F5F5F5F5F5F5F5F5F5F5F5F5F5F5F5F5F5F5F5F5F5F5F5F5F5F5F5F5F5F5F5F5F5
310
F5F5F5F5F5F5F5F5F5F5F5F5F5F5F5F5F5F5F5F5F5F5F5F5F5F5F5F5F5F5F5F528F5DCF5F5F5F5F5F5F5F5F5F5F5F5F5F5F5F5F5E2F5E2E2F5F5F5F5F5F5F5F5F5F5F5F5F5F5F5F5F5F5F5DCF528F5F5F5F5F5F5DCF5F5DCF5F5DCF5F5DCF5F5DCF5F5F5DCF5F5DCF5F5DCF5F5DCDCF5F5F5F5F5F5F5F5F5F5F5F5F5F5F5F5
310
F5F5F5F5F5F5F5F5F5F5F5F5F5F5F5F5F5F5F5F5F5F5F5F5F5F5F5F5F5F5F5F5F5F5F5F5F5F5F5F5F5F5F5F5F5F5F5F5F5F5F5F5F5F5F5F5F5F5F5F5F5F5F5F5F5F5F5F5F5F5F5F5F5F5F5F5F5F5F5F5F5F5F5F5F528F5DCF5F5F5F5F5F5F5F5F5F5F5F5F5F5F5F5F5F5F5E2E2F5F5F5F5F5F5F5F5F5F5F5F5F5F5F5F5F5F5
310
F5DCF528F5F5F5F5F5F5F5F5F5F5F5F5F5F5F5F5F5F5F5F5F5F5F5F5F5F5F5F5F5F5F5F5F5F5F5F5F5F5F5F5F5F5F5F5F5F5F5F5F5F5F5F5F5F5F5F5F5F5F5F5F5F5F5F5F5F5F5F5F5F5F5F5F5F5F5F5F5F5F5F5F5F5F5F5F5F5F5F5F5F5F5F5F5F5F5F5F5F5F5F5F5F5F5F5F5F5F5F5F5F5F5F5F5F5F5F5F5F5F5F5F5F5F5
310
F5F5F5F5F5F5F5F5F5F5F528F5DCF5F5F5F5F5F5F5F5F5F5F5F5F5F5F5F5F5F5F5E2E2F5F5F5F5F5F5F5F5F5F5F5F5F5F5F5F5F5F5F5DCF528F5F5F5F5F5F5F5F5F5F5F5F5F5F5F5F5F5F5F5F5F5F5F5F5F5F5F5F5F5F5F5F5F5F5F5F5F5F5F5F5F5F5F5F5F5F5F5F5F5F5F5F5F5F5F5F5F5F5F5F5F5F5F5F5F5F5F5F5F5F5
310
F5F5F5F5F5F5F5F5F5F5F5F5F5F5F5F5F5F5F5F5F5F5F5F5F5F5F5F5F5F5F5F5F5F5F5F5F5F5F5F5F5F5F5F5F5F5F5F5F5F5F5F5F5F5F5F5F5F5F5F5F5F5F5F528F5DCF5F5F5F5F5F5F5F5F5F5F5F5F5F5F5F5F5F5F5E2E2F5F5F5F5F5F5F5F5F5F5F5F5F5F5F5F5F5F5F5DCF528F5F5F5F5F5F5F5F5F5F5F5F5F5F5F5F5F5
310
F5F5F5F5F5F5F5F5F5F5F5F5F5F5F5F5F5F5F5F5F5F5F5F5F5F5F5F5F5F5F5F5F5F5F5F5F5F5F5F5F5F5F5F5F5F5F5F5F5F5F5F5F5F5F5F5F5F5F5F5F5F5F5F5F5F5F5F5F5F5F5F5F5F5F5F5F5F5F5F5F5F5F5F5F5F5F5F5F5F5F5F5F5F5F5F5F5F5F5F5F5F5F5F5F5F5F5F5F5F5F5F5F5F5F5F5F528F5DCF5F5F5F5F5F5F5
310
F5F5F5F5F5F5F5F5F5F5F5F5E2E2F5F5F5F5F5F5F5F5F5F5F5F5F5F5F5F5F5F5F5DCF528F5F5F5F5F5F5F5F5F5F5F5F5F5F5F5F5F5F5F5F5F5F5F5F5F5F5F5F5F5F5F5F5F5F5F5F5F5F5F5F5F5F5F5F5F5F5F5F5F5F5F5F5F5F5F5F5F5F5F5F5F5F5F5F5F5F5F5F5F5F5F5F5F5F5F5F5F5F5F5F5F5F5F5F5F5F5F5F5F5F5F5
310
F5F5F5F5F5F5F5F5F5F5F5F5F5F5F5F5F5F5F5F5F5F5F5F5F5F5F5F5F5F5F5F5F5F5F5F5F5F5F5F5F5F5F528F5DCF5F5F5F5F5F5F5F5F5F5F5F5F5F5F5F5F5F5F5E2E2F5F5F5F5F5F5F5F5F5F5F5F5F5F5F5F5F5F5F5DCF528F5F5F5F5F5F5F5F5F5F5F5F5F5F5F5F5F5F5F5F5F5F5F5F5F5F5F5F5F5F5F5F5F5F5F5F5F5F5
310
F5F5F5F5F5F5F5F5F5F5F5F5F5F5F5F5F5F5F5F5F5F5F5F5F5F5F5F5F5F5F5F5F5F5F5F5F5F5F5F5F5F5F5F5F5F5F5F5F5F5F5F5F5F5F5F5F5F5F5F5F5F5F5F5F5F5F5F5F5F5F5F5F5F5F5F5F5F5F5F5F5F5F5F5F5F5F5F5F5F5F5F5F5F5F5F528F5DCF5F5F5F5F5F5F5F5F5F5F5F5F5F5F5F5F5F5F5E2E2F5F5F5F5F5F5F5
310
F5F5F5F5F5F5F5F5F5F5F5F5DCF528F5F5F5F5F5F5F5F5F5F5F5F5F5F5F5F5F5F5F5F5F5F5F5F5F5F5F5F5F5F5F5F5F5F5F5F5F5F5F5F5F5F5F5F5F5F5F5F5F5F5F5F5F5F5F5F5F5F5F5F5F5F5F5F5F5F5F5F5F5F5F5F5F5F5F5F5F5F5F5F5F5F5F5F5F5F5F5F5F5F5F5F5F5F5F5F5F5F5F5F5F5F5F5F5F5F5F5F5F5F5F5F5
310
F5F5F5F5F5F5F5F5F5F5F5F5F5F5F5F5F5F5F5F5F5F528F5DCF5F5F5F5F5F5F5F5F5F5F5F5F5F5F5F5F5F5F5E2E2F5F5F5F5F5F5F5F5F5F5F5F5F5F5F5F5F5F5F5DCF528F5F5F5F5F5F5F5F5F5F5F5F5F5F5F5F5F5F5F5F5F5F5F5F5F5F5F5F5F5F5F5F5F5F5F5F5F5F5F5F5F5F5F5F5F5F5F5F5F5F5F5F5F5F5F5F5F5F5F5
310
F5F5F5F5F5F5F5F5F5F5F5F5F5F5F5F5F5F5F5F5F5F5F5F5F5F5F5F5F5F5F5F5F5F5F5F5F5F5F5F5F5F5F5F5F5F5F5F5F5F5F5F5F5F5F5F5F5F5F5F5F5F5F5F5F5F5F5F5F5F5F5F5F5F5F528F5DCF5F5F5F5F5F5F5F5F5F5F5F5F5F5F5F5F5F5F5E2E2F5E2F5F5F5F5F5F5F5F5F5F5F5F5F5F5F5F5F5DCF528F5F5F5F5F5F5
310
F5F5F5F5F5F5F5F5F5F5F5F5F5F5F5F5F5F5F5F5F5F5F5F5F5F5F5F5F5F5F5F5F5F5F5F5F5F5F5F5F5F5F5F5F5F5F5F5F5F5F5F5F5F5F5F5F5F5F5F5F5F5F5F5F5F5F5F5F5F5F5F5F5F5F5F5F5F5F5F5F5F5F5F5F5F5F5F5F5F5F5F5F5F5F5F5F5F5F5F5F5F5F5F5F5F5F5F5F5F5F5F5F5F5F5F5F5F5F5F5F5F5F5F5F5F5F5
310
F528F5DCF5F5F5F5F5F5F5F5F5F5F5F5F5F5F5F5F5E2F5E2E2F5E2F5F5F5F5F5F5F5F5F5F5F5F5F5F5F5F5F5DCF528F5F5F5F5F5F5F5F5F5F5F5F5F5F5F5F5F5F5F5F5F5F5F5F5F5F5F5F5F5F5F5F5F5F5F5F5F5F5F5F5F5F5F5F5F5F5F5F5F5F5F5F5F5F5F5F5F5F5F5F5F5F5F5F5F5F5F5F5F5F5F5F5F5F5F5F5F5F5F5F5
310
F5F5F5F5F5F5F5F5F5F5F5F5F5F5F5F5F5F5F5F5F5F5F5F5F5F5F5F5F5F5F5F5F5F5F5F5F5F5F5F5F5F5F5F5F5F5F5F5F5F5F5F5F5F528F5DCF5F5F5F5F5F5F5F5F5F5F5F5F5F5F5F5F5E2F5E2E2F5E2F5F5F5F5F5F5F5F5F5F5F5F5F5F5F5F5F5DCF528F5F5F5F5F5F5F5F5F5F5F5F5F5F5F5F5F5F5F5F5F5F5F5F5F5F5F5
310
F5F5F5F5F5F5F5F5F5F5F5F5F5F5F5F5F5F5F5F5F5F5F5F5F5F5F5F5F5F5F5F5F5F5F5F5F5F5F5F5F5F5F5F5F5F5F5F5F5F5F5F5F5F5F5F5F5F5F5F5F5F5F5F5F5F5F5F5F5F5F5F5F5F5F5F5F5F5F5F5F5F5F5F5F5F5F5F5F5F5F5F5F5F5F5F5F5F5F5F5F5F5F5F5F5F5F528F5DCF5F5F5F5F5F5F5F5F5F5F5F5F5F5F5F5F5
310
E2F5E2E2F5E2F5F5F5F5F5F5F5F5F5F5F5F5F5F5F5F5F5DCF528F5F5F5F5F5F5F5F5F5F5F5F5F5F5F5F5F5F5F5F5F5F5F5F5F5F5F5F5F5F5F5F5F5F5F5F5F5F5F5F5F5F5F5F5F5F5F5F5F5F5F5F5F5F5F5F5F5F5F5F5F5F5F5F5F5F5F5F5F5F5F5F5F5F5F5F5F5F5F5F5F5F5F5F5F5F5F5F5F5F5F5F5F5F5F5F5F5F5F5F5F5
310
F5F5F5F5F5F5F5F5F5F5F5F5F5F5F5F5F5F5F5F5F5F5F5F5F5F5F5F5F5F5F5F5F528F5DCF5F5F5F5F5F5F5F5F5F5F5F5F5F5F5F5F5E2F5E2E2F5E2F5F5F5F5F5F5F5F5F5F5F5F5F5F5F5F5F5DCF528F5F5F5F5F5F5F5F5F5F5F5F5F5F5F5F5F5F5F5F5F5F5F5F5F5F5F5F5F5F5F5F5F5F5F5F5F5F5F5F5F5F5F5F5F5F5F5F5
310
F5F5F5F5F5F5F5F5F5F5F5F5F5F5F5F5F5F5F5F5F5F5F5F5F5F5F5F5F5F5F5F5F5F5F5F5F5F5F5F5F5F5F5F5F5F5F5F5F5F5F5F5F5F5F5F5F5F5F5F5F5F5F5F5F5F5F5F5F5F5F5F5F5F5F5F5F5F5F5F5F5F5F5F5F5F528F5DCF5F5F5F5F5F5F5F5F5F5F5F5F5F5F5F5F5E2F5E2E2F5E2F5F5F5F5F5F5F5F5F5F5F5F5F5F5F5
310
F5F5DCF528F5F5F5F5F5F5F5F5F5F5F5F5F5F5F5F5F5F5F5F5F5F5F5F5F5F5F5F5F5F5F5F5F5F5F5F5F5F5F5F5F5F5F5F5F5F5F5F5F5F5F5F5F5F5F5F5F5F5F5F5F5F5F5F5F5F5F5F5F5F5F5F5F5F5F5F5F5F5F5F5F5F5F5F5F5F5F5F5F5F5F5F5F5F5F5F5F5F5F5F5F5F5F5F5F5F5F5F5F5F5F5F5F5F5F5F5F5F5F5F5F5F5
310
F5F5F5F5F5F5F5F5F5F5F5F528F5DCF5F5F5F5F5F5F5F5F5F5F5F5F5F5F5F5F5E2F5E2E2F5E2F5F5F5F5F5F5F5F5F5F5F5F5F5F5F5F5F5DCF528F5F5F5F5F5F5F5F5F5F5F5F5F5F5F5F5F5F5F5F5F5F5F5F5F5F5F5F5F5F5F5F5F5F5F5F5F5F5F5F5F5F5F5F5F5F5F5F5F5F5F5F5F5F5F5F5F5F5F5F5F5F5F5F5F5F5F5F5F5
310
F5F5F5F5F5F5F5F5F5F5F5F5F5F5F5F5F5F5F5F5F5F5F5F5F5F5F5F5F5F5F5F5F5F5F5F5F5F5F5F5F5F5F5F5F5F5F5F5F5F5F5F5F5F5F5F5F5F5F5F5F5F5F5F5F528F5DCF5F5F5F5F5F5F5F5F5F5F5F5F5F5F5F5F5E2F5E2E2F5E2F5F5F5F5F5F5F5F5F5F5F5F5F5F5F5F5F5DCF528F5F5F5F5F5F5F5F5F5F5F5F5F5F5F5F5
310
F5F5F5F5F5F5F5F5F5F5F5F5F5F5F5F5F5F5F5F5F5F5F5F5F5F5F5F5F5F5F5F5F5F5F5F5F5F5F5F5F5F5F5F5F5F5F5F5F5F5F5F5F5F5F5F5F5F5F5F5F5F5F5F5F5F5F5F5F5F5F5F5F5F5F5F5F5F5F5F5F5F5F5F5F5F5F5F5F5F5F5F5F5F5F5F5F5F5F5F5F5F5F5F5F5F5F5F5F5F5F5F5F5F5F5F5F5F528F5DCF5F5F5F5F5F5
310
F5F5F5F5F5F5F5F5F5F5F5E2F5E2E2F5E2F5F5F5F5F5F5F5F5F5F5F5F5F5F5F5F5F5DCF528282828282828282828282828282828282828282828282828282828282828282828282828282828282828282828282828282828282828282828282828282828282828282828282828282828282828282828282828282828282828
310
282828282828282828282828282828282828282828282828282828282828282828282828282828282828282828F5DCF5F5F5F5F5F5F5F5F5F5F5F5F5F5F5F5F5E2F5E2E2F5E2F5F5F5F5F5F5F5F5F5F5F5F5F5F5F5F5F5DCF528F5F5F5F5F5F5F5F5F5F5F5F5F5F5F5F5F5F5F5F5F5F5F5F5F5F5F5F5F5F5F5F5F5F5F5F5F5
310
F5F5F5F5F5F5F5F5F5F5F5F5F5F5F5F5F5F5F5F5F5F5F5F5F5F5F5F5F528F5F5F5F5F5F5F5F5F5F5F5F5F5F5F5F5F5F5F5F5F5F5F5F5F5F5F5F5F5F5F5F5F5F5F5F5F5F5F5F5F5F5F5F5F5F5F5F5F5F5F5F5F5F5F5F5F5F5F5F5F5F5F5F5F5F5F528F5DCF5F5F5F5F5F5F5F5F5F5F5F5F5F5F5F5F5E2F5E2E2F5E2F5F5F5F5
310
F5F5F5F5F5F5F5F5F5F5F5F5F5DCF528F5F5F5F5F5F5F5F5F5F5F5F5F52D2D2D2D2D2D2D2D2D2D2D2D2D2D2D2D2D2D2D2D2D2D2D2D2D2D2D2D2D2D2D2D2D2D2D2D2D2DF5F5F5F5F5F5F5F5F5F5F5F5F5F5F528F5F5F52D2D2D2DF52D2D2D2D2D2DF5F5F5F5F5F5F5F5F5F5F5F5F5F5F5F5F5F5F5F5F5F5F5F5F5F5F5F5F5F5
310
F5F5F5F5F5F5F5F5F5F5F5F5F5F5F5F5F5F5F5F5F5F5F528F5DCF5F5F5F5F5F5F5F5F5F5F5F5F5F5F5F5F5E2F5E2E2F5E2F5F5F5F5F5F5F5F5F5F5F5F5F5F5F5F5F5DCF528F5F5F5F5F5F5F5F5F5F5F5F5F52D2D2D2D2D2D2D2D2D2D2D2D2D2D2D2D2D2D2D2D2D2D2D2D2D2D2D2D2D2D2D2D2D2D2D2D2D2DF5F5F5F5F5F5F5
310
F5F5F5F5F5F5F5F528F5F5F52D2D2D2DF52D2D2D2DF52DF5F5F5F5F5F5F5F5F5F5F5F5F5F5F5F5F5F5F5F5F5F5F5F5F5F5F5F5F5F5F5F5F5F5F5F5F5F5F5F5F5F5F5F5F5F5F5F5F5F5F5F5F528F5DCF5F5F5F5F5F5F5F5F5F5F5F5F5F5F5F5F5E2F5E2E2F5E2F5F5F5F5F5F5F5F5F5F5F5F5F5F5F5F5F5DCF528F5F5F5F5F5
310
F5F5F5F5F5F5F5F5F5F5F5F5F5F5F5F5F5F5F5F5F5F5F5F5F5F5F5F5F5F5F5F5F5F5F5F5F5F5F5F5F5F5F5F5F5F5F5F5F5F5F5F5F5F5F5F5F5F5F5F5F528F5F5F5F5F5F5F5F5F5F5F5F5F5F5F5F5F5F5F5F5F5F5F5F5F5F5F5F5F5F5F5F5F5F5F5F5F5F5F5F5F5F5F5F5F5F5F5F5F5F5F5F5F5F5F5F5F5F5F5F5F5F5F5F5F5
310
F5F528F5DCF5F5F5F5F5F5F5F5F5F5F5F5F5F5F5F5F5E2F5E2E2F5E2F5F5F5F5F5F5F5F5F5F5F5F5F5F5F5F5F5DCF52828282828282828282828282828282828282828282828282828282D2D2D2D2D2D2D2D2D2D2D2D2D28282828282828282828282828282828282828282828282828282828282828282828282828282828
310
2828282828282828282828282828282828282828282828282828282828282828282828282828282828282828282828282828282828282828F5DCF5F5F5F5F5F5F5F5F5F5F5F5F5F5F5F5F5E2F5E2E2F5E2F5F5F5F5F5F5F5F5F5F5F5F5F5F5F5F5F5DCF528F5F5F5F5F5F5F5F5F5F5F5F5F5F5F5F5F5F5F5F5F5F5F5F5F5F5
310
2D2D2D2D2D2D2D2D2D2D2D2D2DF5F5F5F5F5F5F5F5F5F5F5F5F5F5F5F5F5F5F5F5F5F5F5F5F5F5F528F5F5F52D2D2D2D2D2D2D2D2D2D2DF5F52D2D2D2D2D2D2D2D2D2DF5F5F5F5F5F5F5F5F5F5F5F5F5F5F5F5F5F5F5F5F5F5F5F5F5F5F5F5F5F5F5F5F5F5F5F5F5F5F5F5F528F5DCF5F5F5F5F5F5F5F5F5F5F5F5F5F5F5F5
310
F5E2F5E2E2F5E2F5F5F5F5F5F5F5F5F5F5F5F5F5F5F5F5F5DCF528F5F5F5F5F5F5F5F5F5F5F5F5F5F5F5F5F5F5F5F5F5F5F5F5F5F52D2D2D2D2D2D2D2D2D2D2D2D2DF5F5F5F5F5F5F5F5F5F5F5F5F5F5F5F5F5F5F5F5F5F5F5F5F5F5F528F5F5F52D2D2D2D2D2D2D2D2D2D2DF52D2D2D2D2D2D2D2D2D2D2DF5F5F5F5F5F5F5
310
F5F5F5F5F5F5F5F5F5F5F5F5F5F5F5F5F5F5F5F5F5F5F5F5F5F5F5F5F5F5F5F5F5F528F5DCF5F5F5F5F5F5F5F5F5F5F5F5F5F5F5F5F5E2F5E2E2F5F5F5F5F5F5F5F5F5F5F5F5F5F5F5F5F5F5F5DCF528F5F5F5F5F5F5F5F5F5F5F5F5F5F5F5F5F5F5F5F5F5F5F5F5F5F5F5F5F5F5F5F5F5F5F5F5F5F5F5F5F5F5F5F5F5F5F5
310
F5F5F5F5F5F5F5F5F5F5F5F5F5F5F5F5F5F5F528F5F5F5F5F5F5F5F5F5F5F5F5F5F5F5F5F5F5F5F5F5F5F5F5F5F5F5F5F5F5F5F5F5F5F5F5F5F5F5F5F5F5F5F5F5F5F5F5F5F5F5F5F5F5F5F5F5F5F5F5F5F5F5F5F5F5F528F5DCF5F5F5F5F5F5F5F5F5F5F5F5F5F5F5F5F5F5F5E2E2F5F5F5F5F5F5F5F5F5F5F5F5F5F5F5F5
310
F5F5F5DCF52828282828282828282828282828282828282828282828282828282828282828282828282828282828282828282828282828282828282828282828282828282828282828282828282828282828282828282828282828282828282828282828282828282828282828282828282828282828282828282828282828
310
2828282828282828282828282828F5DCF5F5F5F5F5F5F5F5F5F5F5F5F5F5F5F5F5F5F5E2E2F5F5F5F5F5F5F5F5F5F5F5F5F5F5F5F5F5F5F5DCF5F5F5F5F5F5F5F5F5F5F5F5F5F5F5F5F5F5F5F5F5F5F5F5F5F5F5F5F5F5F5F5F5F5F5F5F5F5F5F5F5F5F5F5F5F5F5F5F5F5F5F5F5F5F5F5F5F5F5F5F5F5F5F5F5F5F5F5F5F5
310
F5F5F5F5F5F5F5F5F5F5F5F5F5F5F5F5F5F5F5F5F5F5F5F5F5F5F5F5F5F5F5F5F5F5F5F5F5F5F5F5F5F5F5F5F5F5F5F5F5F5F5F5F5F5F5F5F5F5F5F5F5F5F5F5F5F5F5F5DCF5F5F5F5F5F5F5F5F5F5F5F5F5F5F5F5F5F5F5E2E2F5F5F5F5F5F5F5F5F5F5F5F5F5F5F5F5F5F5F5DCDCDCDCDCDCDCDCDCDCDCDCDCDCDCDCDCDC
310
DCDCDCDCDCDCDCDCDCDCDCDCDCDCDCDCDCDCDCDCDCDCDCDCDCDCDCDCDCDCDCDCDCDCDCDCDCDCDCDCDCDCDCDCDCDCDCDCDCDCDCDCDCDCDCDCDCDCDCDCDCDCDCDCDCDCDCDCDCDCDCDCDCDCDCDCDCDCDCDCDCDCDCDCDCDCDCDCDCDCDCDCDCDCDCDCDCDCDCDCDCDCDCDCDCDCDCDCDCDCDCDCDCDCDCDCDCDCDCDCDCDCF5F5F5F5F5
310
F5F5F5F5F5F5F5F5F5F5F5F5F5F5E2E2F5F5F5F5F5F5F5F5F5F5F5F5F5F5F5F5F5F5F5DCDCDCDCDCDCDCDCDCDCDCDCDCDCDCDCDCDCDCDCDCDCDCDCDCDCDCDCDCDCDCDCDCDCDCDCDCDCDCDCDCDCDCDCDCDCDCDCDCDCDCDCDCDCDCDCDCDCDCDCDCDCDCDCDCDCDCDCDCDCDCDCDCDCDCDCDCDCDCDCDCDCDCDCDCDCDCDCDCDCDCDC
310
DCDCDCDCDCDCDCDCDCDCDCDCDCDCDCDCDCDCDCDCDCDCDCDCDCDCDCDCDCDCDCDCDCDCDCDCDCDCDCDCDCDCDCDCDCDCDCDCF5F5F5F5F5F5F5F5F5F5F5F5F5F5F5F5F5F5F5E2E2F5F5F5F5F5F5F5F5F5F5F5F5F5F5F5F5F5F5F5F5F5F5F5F5F5F5F5F5F5F5F5F5F5F5F5F5F5F5F5F5F5F5F5F5F5F5F5F5F5F5F5F5F5F5F5F5F5F5
310
F5F5F5F5F5F5F5F5F5F5F5F5F5F5F5F5F5F5F5F5F5F5F5F5F5F5F5F5F5F5F5F5F5F5F5F5F5F5F5F5F5F5F5F5F5F5F5F5F5F5F5F5F5F5F5F5F5F5F5F5F5F5F5F5F5F5F5F5F5F5F5F5F5F5F5F5F5F5F5F5F5F5F5F5F5F5F5F5F5F5F5F5F5F5F5F5F5F5F5F5F5F5F5F5F5F5F5F5F5F5F5F5F5F5F5F5F5F5F5F5E2E2F5F5F5F5F5
310
F5F5F5F5F5F5F5F5F5F5F5F5F5F5F5F5F5F5F5F5F5F5F5F5F5F5F5F5F5F5F5F5F5F5F5F5F5F5F5F5F5F5F5F5F5F5F5F5F5F5F5F5F5F5F5F5F5F5F5F5F5F5F5F5F5F5F5F5F5F5F5F5F5F5F5F5F5F5F5F5F5F5F5F5F5F5F5F5F5F5F5F5F5F5F5F5F5F5F5F5F5F5F5F5F5F5F5F5F5F5F5F5F5F5F5F5F5F5F5F5F5F5F5F5F5F5F5
310
F5F5F5F5F5F5F5F5F5F5F5F5F5F5F5F5F5F5F5F5F5F5F5F5F5F5F5F5F5F5F5F5F5F5F5F5F5F5F5F5F5F5F5F5F5F5E2E2F5F5F5F5F5F5F5F5F5F5F5F5F5F5F5F5F5F5F5F5F5F5F5F5F5F5F5F5F5F5F5F5F5F5F5F5F5F5F5F5F5F5F5F5F5F5F5F5F5F5F5F5F5F5F5F5F5F5F5F5F5F5F5F5F5F5F5F5F5F5F5F5F5F5F5F5F5F5F5
310
F5F5F5F5F5F5F5F5F5F5F5F5F5F5F5F5F5F5F5F5F5F5F5F5F5F5F5F5F5F5F5F5F5F5F5F5F5F5F5F5F5F5F5F5F5F5F5F5F5F5F5F5F5F5F5F5F5F5F5F5F5F5F5F5F5F5F5F5F5F5F5F5F5F5F5F5F5F5F5F5F5F5F5F5F5F5F5F5F5F5F5F5F5F5F5F5F5F5F5E2E2F5F5F5F5F5F5F5F5F5F5F5F5F5F5F5F5F5F5F5F5F5F5F5F5F5F5
310
F5F5F5F5F5F5F5F5F5F5F5F5F5F5F5F5F5F5F5F5F5F5F5F5F5F5F5F5F5F5F5F5F5F5F5F5F5F5F5F5F5F5F5F5F5F5F5F5F5F5F5F5F5F5F5F5F5F5F5F5F5F5F5F5F5F5F5F5F5F5F5F5F5F5F5F5F5F5F5F5F5F5F5F5F5F5F5F5F5F5F5F5F5F5F5F5F5F5F5F5F5F5F5F5F5F5F5F5F5F5F5F5F5F5F5F5F5F5F5F5F5F5F5F5F5F5F5
310
F5F5F5F5F5F5F5F5F5F5F5F5F5F5F5F5F5F5F5F5F5F5F5F5F5E2E2F5E2F5F5F5F5F5F5F5F5F5F5F5F5F5F5F5F5F5F5F5F5F5F5F5F5F5F5F5F5F5F5F5F5F5F5F5F5F5F5F5F5F5F5F5F5F5F5F5F5F5F5F5F5F5F5F5F5F5F5F5F5F5F5F5F5F5F5F5F5F5F5F5F5F5F5F5F5F5F5F5F5F5F5F5F5F5F5F5F5F5F5F5F5F5F5F5F5F5F5
310
F5F5F5F5F5F5F5F5F5F5F5F5F5F5F5F5F5F5F5F5F5F5F5F5F5F5F5F5F5F5F5F5F5F5F5F5F5F5F5F5F5F5F5F5F5F5F5F5F5F5F5F5F5F5F5F5F5F5F5F5F5F5F5F5F5F5F5F5F5F5F5F5F5F5F5F5E2F5E2E2F5E2F5F5F5F5F5F5F5F5F5F5F5F5F5F5F5F5F5F5F5F5F5F5F5F5F5F5F5F5F5F5F5F5F5F5F5F5F5F5F5F5F5F5F5F5F5
310
F5F5F5F5F5F5F5F5F5F5F5F5F5F5F5F5F5F5F5F5F5F5F5F5F5F5F5F5F5F5F5F5F5F5F5F5F5F5F5F5F5F5F5F5F5F5F5F5F5F5F5F5F5F5F5F5F5F5F5F5F5F5F5F5F5F5F5F5F5F5F5F5F5F5F5F5F5F5F5F5F5F5F5F5F5F5F5F5F5F5F5F5F5F5F5F5F5F5F5F5F5F5F5F5F5F5F5F5F5F5F5F5F5F5F5F5F5F5F5F5F5F5F5F5F5F5F5
310
F5F5E2F5E2E2F5E2F5F5F5F5F5F5F5F5F5F5F5F5F5F5F5F5F5F5F5F5F5F5F5F5F5F5F5F5F5F5F5F5F5F5F5F5F5F5F5F5F5F5F5F5F5F5F5F5F5F5F5F5F5F5F5F5F5F5F5F5F5F5F5F5F5F5F5F5F5F5F5F5F5F5F5F5F5F5F5F5F5F5F5F5F5F5F5F5F5F5F5F5F5F5F5F5F5F5F5F5F5F5F5F5F5F5F5F5F5F5F5F5F5F5F5F5F5F5F5
310
F5F5F5F5F5F5F5F5F5F5F5F5F5F5F5F5F5F5F5F5F5F5F5F5F5F5F5F5F5F5F5F5F5F5F5F5F5F5F5F5F5F5F5F5F5F5F5F5F5F5F5F5F5F5F5E2F5E2E2F5E2F5F5F5F5F5F5F5F5F5F5F5F5F5F5F5F5F5F5F5F5F5F5F5F5F5F5F5F5F5F5F5F5F5F5F5F5F5F5F5F5F5F5F5F5F5F5F5F5F5F5F5F5F5F5F5F5F5F5F5F5F5F5F5F5F5F5
310
F5F5F5F5F5F5F5F5F5F5F5F5F5F5F5F5F5F5F5F5F5F5F5F5F5F5F5F5F5F5F5F5F5F5F5F5F5F5F5F5F5F5F5F5F5F5F5F5F5F5F5F5F5F5F5F5F5F5F5F5F5F5F5F5F5F5F5F5F5F5F5F5F5F5F5F5F5F5F5F5F5F5F5F5F5F5F5F5F5F5F5F5F5F5F5F5F5F5F5F5F5F5F5F5F5F5F5F5E2F5E2E2F5E2F5F5F5F5F5F5F5F5F5F5F5F5F5
310
F5F5F5F5F5F5F5F5F5F5F5F5F5F5F5F5F5F5F5F5F5F5F5F5F5F5F5F5F5F5F5F5F5F5F5F5F5F5F5F5F5F5F5F5F5F5F5F5F5F5F5F5F5F5F5F5F5F5F5F5F5F5F5F5F5F5F5F5F5F5F5F5F5F5F5F5F5F5F5F5F5F5F5F5F5F5F5F5F5F5F5F5F5F5F5F5F5F5F5F5F5F5F5F5F5F5F5F5F5F5F5F5F5F5F5F5F5F5F5F5F5F5F5F5F5F5F5
310
F5F5F5F5F5F5F5F5F5F5F5F5F5F5F5F5F5F5F5F5F5F5F5F5F5F5F5F5F5F5F5F5F5F5E2F5E2E2F5E2F5F5F5F5F5F5F5F5F5F5F5F5F5F5F5F5F5F5F5F5F5F5F5F5F5F5F5F5F5F5F5F5F5F5F5F5F5F5F5F5F5F5F5F5F5F5F5F5F5F5F5F5F5F5F5F5F5F5F5F5F5F5F5F5F5F5F5F5F5F5F5F5F5F5F5F5F5F5F5F5F5F5F5F5F5F5F5
310
F5F5F5F5F5F5F5F5F5F5F5F5F5F5F5F5F5F5F5F5F5F5F5F5F5F5F5F5F5F5F5F5F5F5F5F5F5F5F5F5F5F5F5F5F5F5F5F5F5F5F5F5F5F5F5F5F5F5F5F5F5F5F5F5F5F5F5F5F5F5F5F5F5F5F5F5F5F5F5F5F5F5F5F5F5F5F5E2F5E2E2F5E2F5F5F5F5F5F5F5F5F5F5F5F5F5F5F5F5F5F5F5F5F5F5F5F5F5F5F5F5F5F5F5F5F5F5
310
F5F5F5F5F5F5F5F5F5F5F5F5F5F5F5F5F5F5F5F5F5F5F5F5F5F5F5F5F5F5F5F5F5F5F5F5F5F5F5F5F5F5F5F5F5F5F5F5F5F5F5F5F5F5F5F5F5F5F5F5F5F5F5F5F5F5F5F5F5F5F5F5F5F5F5F5F5F5F5F5F5F5F5F5F5F5F5F5F5F5F5F5F5F5F5F5F5F5F5F5F5F5F5F5F5F5F5F5F5F5F5F5F5F5F5F5F5F5F5F5F5F5F5F5F5F5F5
310
F5F5F5F5F5F5F5F5F5F5F5F5F5E2F5E2E2F5E2E2E2E2E2E2E2E2E2F5F5F5F5F5F5F5F5F5E2E2E2E2E2E2E2E2E2E2E2E2E2E2E2E2F5F5F5F5F5F5F5F5F5E2E2E2E2E2E2E2E2E2E2E2E2E2E2E2E2F5F5F5F5F5F5F5F5F5E2E2E2E2E2E2E2E2E2E2E2E2E2E2E2E2F5F5F5F5F5F5F5F5F5E2E2E2E2E2E2E2E2E2E2E2E2E2E2E2E2
310
F5F5F5F5F5F5F5F5F5E2E2E2E2E2E2E2E2E2E2E2E2E2E2E2E2F5F5F5F5F5F5F5F5F5E2E2E2E2E2E2E2E2E2E2E2E2E2E2E2E2F5F5F5F5F5F5F5F5F5E2E2E2E2E2E2E2E2F5E2E2F5F5F5F5F5F5F5F5F5F5F5F5F5F5F5F5F5F5F5F5F5F5F5F5F5F5F5F5F5F5F5F5F5F5F5F5F5F5F5F5F5F5F5F5F5F5F5F5F5F5F5F5F5F5F5F5F5
310
F5F5F5F5F5F5F5F5F5F5F5F5F5F5F5F5F5F5F5F5F5F5F5F5F5F5F5F5F5F5F5F5F5F5F5F5F5F5F5F5F5F5F5F5F5F5F5F5F5F5F5F5F5F5F5F5F5F5F5F5F5F5F5F5F5F5F5F5F5F5F5F5F5F5F5F5F5F5F5F5F5F5F5F5F5F5F5F5F5F5F5F5F5F5F5F5F5F5F5F5F5F5F5F5F5F5F5F5F5F5F5F5F5F5F5F5F5F5F5F5F5E2E2E2E2E2E2
310
E2E2E2E2E2E2E2E2E2E2E2E2E2E2E2E2E2E2E2E2E2E2E2E2E2E2E2E2E2E2E2E2E2E2E2E2E2E2E2E2E2E2E2E2E2E2E2E2E2E2E2E2E2E2E2E2E2E2E2E2E2E2E2E2E2E2E2E2E2E2E2E2E2E2E2E2E2E2E2E2E2E2E2E2E2E2E2E2E2E2E2E2E2E2E2E2E2E2E2E2E2E2E2E2E2E2E2E2E2E2E2E2E2E2E2E2E2E2E2E2E2E2E2E2E2E2E2
310
E2E2E2E2E2E2E2E2E2E2E2E2E2E2E2E2E2E2E2E2E2E2E2E2E2E2E2E2E2E2E2E2E2E2E2E2E2E2E2E2E2E2E2E2E2E2E2E2
  0
XRECORD
  5
1D70
102
{ACAD_REACTORS
330
1D6F
102
}
330
1D6F
100
AcDbXrecord
280
     1
102
SHADEPLOT
 70
     0
102
SHADEPLOTRESLEVEL
 70
     2
102
SHADEPLOTCUSTOMDPI
 70
   300
  0
XRECORD
  5
1D69
102
{ACAD_REACTORS
330
1D68
102
}
330
1D68
100
AcDbXrecord
280
     1
102
SHADEPLOT
 70
     0
102
SHADEPLOTRESLEVEL
 70
     2
102
SHADEPLOTCUSTOMDPI
 70
   300
  0
XRECORD
  5
C8
102
{ACAD_REACTORS
330
C7
102
}
330
C7
100
AcDbXrecord
280
     1
102
MATERIAL
148
0.0
149
0.0
149
0.0
 93
        0
 94
       63
282
     0
 72
     1
 77
     1
171
     1
175
     1
179
     1
273
     0
  0
XRECORD
  5
C6
102
{ACAD_REACTORS
330
C5
102
}
330
C5
100
AcDbXrecord
280
     1
102
MATERIAL
148
0.0
149
0.0
149
0.0
 93
        0
 94
       63
282
     0
 72
     1
 77
     1
171
     1
175
     1
179
     1
273
     0
  0
XRECORD
  5
B2
102
{ACAD_REACTORS
330
B1
102
}
330
B1
100
AcDbXrecord
280
     1
102
MATERIAL
148
0.0
149
0.0
149
0.0
 93
        0
 94
       63
282
     0
 72
     1
 77
     1
171
     1
175
     1
179
     1
273
     0
  0
XRECORD
  5
156
102
{ACAD_REACTORS
330
155
102
}
330
155
100
AcDbXrecord
280
     1
102
ACAD_ROUNDTRIP_PRE2007_TABLESTYLE
 90
        4
 91
        0
  1

 92
        4
 93
        0
  2

 94
        4
 95
        0
  3

  0
ENDSEC
  0
EOF
