  0
SECTION
  2
HEADER
  9
$ACADVER
  1
AC1015
  9
$ACADMAINTVER
 70
    20
  9
$DWGCODEPAGE
  3
ANSI_1252
  9
$INSBASE
 10
0.0
 20
0.0
 30
0.0
  9
$EXTMIN
 10
0.0149999999999999
 20
0.015
 30
0.0
  9
$EXTMAX
 10
0.7712480892530439
 20
0.3498513168398593
 30
0.0
  9
$LIMMIN
 10
0.0
 20
0.0
  9
$LIMMAX
 10
1.0
 20
0.5
  9
$ORTHOMODE
 70
     0
  9
$REGENMODE
 70
     1
  9
$FILLMODE
 70
     1
  9
$QTEXTMODE
 70
     0
  9
$MIRRTEXT
 70
     0
  9
$LTSCALE
 40
1.0
  9
$ATTMODE
 70
     1
  9
$TEXTSIZE
 40
0.008
  9
$TRACEWID
 40
1.0
  9
$TEXTSTYLE
  7
style1
  9
$CLAYER
  8
Sezione
  9
$CELTYPE
  6
ACAD_ISO10W100
  9
$CECOLOR
 62
   256
  9
$CELTSCALE
 40
1.0
  9
$DISPSILH
 70
     0
  9
$DIMSCALE
 40
0.001
  9
$DIMASZ
 40
1.5
  9
$DIMEXO
 40
0.0625
  9
$DIMDLI
 40
0.38
  9
$DIMRND
 40
0.0
  9
$DIMDLE
 40
0.0
  9
$DIMEXE
 40
0.18
  9
$DIMTP
 40
0.0
  9
$DIMTM
 40
0.0
  9
$DIMTXT
 40
3.0
  9
$DIMCEN
 40
0.0
  9
$DIMTSZ
 40
0.0
  9
$DIMTOL
 70
     0
  9
$DIMLIM
 70
     0
  9
$DIMTIH
 70
     1
  9
$DIMTOH
 70
     1
  9
$DIMSE1
 70
     0
  9
$DIMSE2
 70
     0
  9
$DIMTAD
 70
     0
  9
$DIMZIN
 70
     0
  9
$DIMBLK
  1
ArchTick
  9
$DIMASO
 70
     1
  9
$DIMSHO
 70
     1
  9
$DIMPOST
  1

  9
$DIMAPOST
  1

  9
$DIMALT
 70
     0
  9
$DIMALTD
 70
     2
  9
$DIMALTF
 40
25.4
  9
$DIMLFAC
 40
1.0
  9
$DIMTOFL
 70
     0
  9
$DIMTVP
 40
0.0
  9
$DIMTIX
 70
     0
  9
$DIMSOXD
 70
     0
  9
$DIMSAH
 70
     0
  9
$DIMBLK1
  1

  9
$DIMBLK2
  1

  9
$DIMSTYLE
  2
Bovelacci
  9
$DIMCLRD
 70
     5
  9
$DIMCLRE
 70
     5
  9
$DIMCLRT
 70
     4
  9
$DIMTFAC
 40
1.0
  9
$DIMGAP
 40
2.0
  9
$DIMJUST
 70
     0
  9
$DIMSD1
 70
     0
  9
$DIMSD2
 70
     0
  9
$DIMTOLJ
 70
     1
  9
$DIMTZIN
 70
     0
  9
$DIMALTZ
 70
     0
  9
$DIMALTTZ
 70
     0
  9
$DIMUPT
 70
     0
  9
$DIMDEC
 70
     2
  9
$DIMTDEC
 70
     2
  9
$DIMALTU
 70
     2
  9
$DIMALTTD
 70
     2
  9
$DIMTXSTY
  7
ROMANS
  9
$DIMAUNIT
 70
     0
  9
$DIMADEC
 70
     0
  9
$DIMALTRND
 40
0.0
  9
$DIMAZIN
 70
     0
  9
$DIMDSEP
 70
    46
  9
$DIMATFIT
 70
     3
  9
$DIMFRAC
 70
     0
  9
$DIMLDRBLK
  1

  9
$DIMLUNIT
 70
     2
  9
$DIMLWD
 70
    -2
  9
$DIMLWE
 70
    -2
  9
$DIMTMOVE
 70
     2
  9
$LUNITS
 70
     2
  9
$LUPREC
 70
     2
  9
$SKETCHINC
 40
1.0
  9
$FILLETRAD
 40
0.0
  9
$AUNITS
 70
     0
  9
$AUPREC
 70
     0
  9
$MENU
  1
.
  9
$ELEVATION
 40
0.0
  9
$PELEVATION
 40
0.0
  9
$THICKNESS
 40
0.0
  9
$LIMCHECK
 70
     0
  9
$CHAMFERA
 40
0.0
  9
$CHAMFERB
 40
0.0
  9
$CHAMFERC
 40
0.0
  9
$CHAMFERD
 40
0.0
  9
$SKPOLY
 70
     0
  9
$TDCREATE
 40
2454297.625402373
  9
$TDUCREATE
 40
2454297.542069039
  9
$TDUPDATE
 40
2454306.827522963
  9
$TDUUPDATE
 40
2454306.744189630
  9
$TDINDWG
 40
0.1097240394
  9
$TDUSRTIMER
 40
0.1097220370
  9
$USRTIMER
 70
     1
  9
$ANGBASE
 50
0.0
  9
$ANGDIR
 70
     0
  9
$PDMODE
 70
     0
  9
$PDSIZE
 40
0.0
  9
$PLINEWID
 40
0.0
  9
$SPLFRAME
 70
     0
  9
$SPLINETYPE
 70
     6
  9
$SPLINESEGS
 70
     8
  9
$HANDSEED
  5
9DC
  9
$SURFTAB1
 70
     6
  9
$SURFTAB2
 70
     6
  9
$SURFTYPE
 70
     6
  9
$SURFU
 70
     6
  9
$SURFV
 70
     6
  9
$UCSBASE
  2

  9
$UCSNAME
  2

  9
$UCSORG
 10
0.0
 20
0.0
 30
0.0
  9
$UCSXDIR
 10
1.0
 20
0.0
 30
0.0
  9
$UCSYDIR
 10
0.0
 20
1.0
 30
0.0
  9
$UCSORTHOREF
  2

  9
$UCSORTHOVIEW
 70
     0
  9
$UCSORGTOP
 10
0.0
 20
0.0
 30
0.0
  9
$UCSORGBOTTOM
 10
0.0
 20
0.0
 30
0.0
  9
$UCSORGLEFT
 10
0.0
 20
0.0
 30
0.0
  9
$UCSORGRIGHT
 10
0.0
 20
0.0
 30
0.0
  9
$UCSORGFRONT
 10
0.0
 20
0.0
 30
0.0
  9
$UCSORGBACK
 10
0.0
 20
0.0
 30
0.0
  9
$PUCSBASE
  2

  9
$PUCSNAME
  2

  9
$PUCSORG
 10
0.0
 20
0.0
 30
0.0
  9
$PUCSXDIR
 10
1.0
 20
0.0
 30
0.0
  9
$PUCSYDIR
 10
0.0
 20
1.0
 30
0.0
  9
$PUCSORTHOREF
  2

  9
$PUCSORTHOVIEW
 70
     0
  9
$PUCSORGTOP
 10
0.0
 20
0.0
 30
0.0
  9
$PUCSORGBOTTOM
 10
0.0
 20
0.0
 30
0.0
  9
$PUCSORGLEFT
 10
0.0
 20
0.0
 30
0.0
  9
$PUCSORGRIGHT
 10
0.0
 20
0.0
 30
0.0
  9
$PUCSORGFRONT
 10
0.0
 20
0.0
 30
0.0
  9
$PUCSORGBACK
 10
0.0
 20
0.0
 30
0.0
  9
$USERI1
 70
     0
  9
$USERI2
 70
     0
  9
$USERI3
 70
     0
  9
$USERI4
 70
     0
  9
$USERI5
 70
     0
  9
$USERR1
 40
0.0
  9
$USERR2
 40
0.0
  9
$USERR3
 40
0.0
  9
$USERR4
 40
0.0
  9
$USERR5
 40
0.0
  9
$WORLDVIEW
 70
     1
  9
$SHADEDGE
 70
     3
  9
$SHADEDIF
 70
    70
  9
$TILEMODE
 70
     1
  9
$MAXACTVP
 70
    64
  9
$PINSBASE
 10
0.0
 20
0.0
 30
0.0
  9
$PLIMCHECK
 70
     0
  9
$PEXTMIN
 10
1.000000000000000E+20
 20
1.000000000000000E+20
 30
1.000000000000000E+20
  9
$PEXTMAX
 10
-1.000000000000000E+20
 20
-1.000000000000000E+20
 30
-1.000000000000000E+20
  9
$PLIMMIN
 10
0.0
 20
0.0
  9
$PLIMMAX
 10
420.0
 20
297.0
  9
$UNITMODE
 70
     0
  9
$VISRETAIN
 70
     1
  9
$PLINEGEN
 70
     0
  9
$PSLTSCALE
 70
     1
  9
$TREEDEPTH
 70
  3020
  9
$CMLSTYLE
  2
Standard
  9
$CMLJUST
 70
     0
  9
$CMLSCALE
 40
20.0
  9
$PROXYGRAPHICS
 70
     1
  9
$MEASUREMENT
 70
     1
  9
$CELWEIGHT
370
    -1
  9
$ENDCAPS
280
     0
  9
$JOINSTYLE
280
     0
  9
$LWDISPLAY
290
     0
  9
$INSUNITS
 70
     4
  9
$HYPERLINKBASE
  1

  9
$STYLESHEET
  1

  9
$XEDIT
290
     1
  9
$CEPSNTYPE
380
     0
  9
$PSTYLEMODE
290
     1
  9
$FINGERPRINTGUID
  2
{904A8C64-524F-4709-A9C6-320D2C273A6D}
  9
$VERSIONGUID
  2
{B76BCA5E-0AF7-4CFB-AE57-E84AE2364EA4}
  9
$EXTNAMES
290
     1
  9
$PSVPSCALE
 40
0.0
  9
$OLESTARTUP
290
     0
  0
ENDSEC
  0
SECTION
  2
CLASSES
  0
CLASS
  1
ACDBDICTIONARYWDFLT
  2
AcDbDictionaryWithDefault
  3
ObjectDBX Classes
 90
        0
280
     0
281
     0
  0
CLASS
  1
TABLESTYLE
  2
AcDbTableStyle
  3
ObjectDBX Classes
 90
     2047
280
     0
281
     0
  0
CLASS
  1
SORTENTSTABLE
  2
AcDbSortentsTable
  3
ObjectDBX Classes
 90
        0
280
     0
281
     0
  0
CLASS
  1
DICTIONARYVAR
  2
AcDbDictionaryVar
  3
ObjectDBX Classes
 90
        0
280
     0
281
     0
  0
CLASS
  1
ACDBPLACEHOLDER
  2
AcDbPlaceHolder
  3
ObjectDBX Classes
 90
        0
280
     0
281
     0
  0
CLASS
  1
LAYOUT
  2
AcDbLayout
  3
ObjectDBX Classes
 90
        0
280
     0
281
     0
  0
CLASS
  1
DIMASSOC
  2
AcDbDimAssoc
  3
"AcDbDimAssoc|Product Desc:     AcDim ARX App For Dimension|Company:          Autodesk, Inc.|WEB Address:      www.autodesk.com"
 90
        0
280
     0
281
     0
  0
CLASS
  1
MATERIAL
  2
AcDbMaterial
  3
ObjectDBX Classes
 90
        0
280
     0
281
     0
  0
CLASS
  1
VISUALSTYLE
  2
AcDbVisualStyle
  3
ObjectDBX Classes
 90
     4095
280
     0
281
     0
  0
ENDSEC
  0
SECTION
  2
TABLES
  0
TABLE
  2
VPORT
  5
177
330
0
100
AcDbSymbolTable
 70
     4
  0
VPORT
  5
9D1
330
177
100
AcDbSymbolTableRecord
100
AcDbViewportTableRecord
  2
*Active
 70
     0
 10
0.0
 20
0.0
 11
1.0
 21
1.0
 12
0.2094069087863827
 22
0.1493857540493097
 13
0.0
 23
0.0
 14
10.0
 24
10.0
 15
10.0
 25
10.0
 16
0.0
 26
0.0
 36
1.0
 17
0.0
 27
0.0
 37
0.0
 40
0.2757815436895339
 41
1.546526867627784
 42
50.0
 43
0.0
 44
0.0
 50
0.0
 51
0.0
 71
     0
 72
  1000
 73
     1
 74
     3
 75
     0
 76
     0
 77
     0
 78
     0
281
     0
 65
     1
110
0.0
120
0.0
130
0.0
111
1.0
121
0.0
131
0.0
112
0.0
122
1.0
132
0.0
 79
     0
146
0.0
  0
ENDTAB
  0
TABLE
  2
LTYPE
  5
172
330
0
100
AcDbSymbolTable
 70
     3
  0
LTYPE
  5
173
330
172
100
AcDbSymbolTableRecord
100
AcDbLinetypeTableRecord
  2
ByBlock
 70
     0
  3

 72
    65
 73
     0
 40
0.0
  0
LTYPE
  5
174
330
172
100
AcDbSymbolTableRecord
100
AcDbLinetypeTableRecord
  2
ByLayer
 70
     0
  3

 72
    65
 73
     0
 40
0.0
  0
LTYPE
  5
C
330
172
100
AcDbSymbolTableRecord
100
AcDbLinetypeTableRecord
  2
Continuous
 70
     0
  3
Solid line
 72
    65
 73
     0
 40
0.0
  0
LTYPE
  5
14E
330
172
100
AcDbSymbolTableRecord
100
AcDbLinetypeTableRecord
  2
ACAD_ISO10W100
 70
     0
  3
ISO dash dot __ . __ . __ . __ . __ . __ . __ .
 72
    65
 73
     4
 40
18.0
 49
12.0
 74
     0
 49
-3.0
 74
     0
 49
0.0
 74
     0
 49
-3.0
 74
     0
  0
ENDTAB
  0
TABLE
  2
LAYER
  5
16D
102
{ACAD_XDICTIONARY
360
16E
102
}
330
0
100
AcDbSymbolTable
 70
     7
  0
LAYER
  5
6
330
16D
100
AcDbSymbolTableRecord
100
AcDbLayerTableRecord
  2
0
 70
     0
 62
     7
  6
Continuous
370
    -3
390
7
  0
LAYER
  5
15F
330
16D
100
AcDbSymbolTableRecord
100
AcDbLayerTableRecord
  2
Defpoints
 70
     0
 62
     7
  6
Continuous
290
     0
370
    -3
390
7
  0
LAYER
  5
28
330
16D
100
AcDbSymbolTableRecord
100
AcDbLayerTableRecord
  2
Profilo
 70
     0
 62
     1
  6
Continuous
370
    -3
390
7
1001
AcAecLayerStandard
1000

1000

  0
LAYER
  5
14D
330
16D
100
AcDbSymbolTableRecord
100
AcDbLayerTableRecord
  2
Sezione
 70
     0
 62
     2
  6
Continuous
370
    -3
390
7
1001
AcAecLayerStandard
1000

1000

  0
LAYER
  5
E
330
16D
100
AcDbSymbolTableRecord
100
AcDbLayerTableRecord
  2
Table
 70
     0
 62
     3
  6
Continuous
370
    -3
390
7
1001
AcAecLayerStandard
1000

1000

  0
LAYER
  5
19
330
16D
100
AcDbSymbolTableRecord
100
AcDbLayerTableRecord
  2
Text
 70
     0
 62
     4
  6
Continuous
370
    -3
390
7
1001
AcAecLayerStandard
1000

1000

  0
LAYER
  5
256
330
16D
100
AcDbSymbolTableRecord
100
AcDbLayerTableRecord
  2
Bovelacci
 70
     0
 62
     9
  6
Continuous
370
    -3
390
7
1001
AcAecLayerStandard
1000

1000

  0
ENDTAB
  0
TABLE
  2
STYLE
  5
170
330
0
100
AcDbSymbolTable
 70
     3
  0
STYLE
  5
1A
330
170
100
AcDbSymbolTableRecord
100
AcDbTextStyleTableRecord
  2
Standard
 70
     0
 40
0.0
 41
1.0
 50
0.0
 71
     0
 42
2.5
  3
txt
  4

  0
STYLE
  5
20
330
170
100
AcDbSymbolTableRecord
100
AcDbTextStyleTableRecord
  2
ROMANS
 70
     0
 40
0.0
 41
1.0
 50
0.0
 71
     0
 42
2.5
  3
romans
  4

  0
STYLE
  5
26
330
170
100
AcDbSymbolTableRecord
100
AcDbTextStyleTableRecord
  2
style1
 70
     0
 40
0.0
 41
1.0
 50
0.0
 71
     0
 42
0.008
  3
TIMES.TTF
  4

1001
ACAD
1000
Times New Roman
1071
       18
  0
ENDTAB
  0
TABLE
  2
VIEW
  5
175
330
0
100
AcDbSymbolTable
 70
     1
  0
ENDTAB
  0
TABLE
  2
UCS
  5
176
330
0
100
AcDbSymbolTable
 70
     0
  0
ENDTAB
  0
TABLE
  2
APPID
  5
17B
330
0
100
AcDbSymbolTable
 70
    10
  0
APPID
  5
1B
330
17B
100
AcDbSymbolTableRecord
100
AcDbRegAppTableRecord
  2
ACAD
 70
     0
  0
APPID
  5
157
330
17B
100
AcDbSymbolTableRecord
100
AcDbRegAppTableRecord
  2
ACAD_DSTYLE_DIMJOGGED_JOGANGLE_SYMBOL
 70
     0
  0
APPID
  5
F
330
17B
100
AcDbSymbolTableRecord
100
AcDbRegAppTableRecord
  2
AcAecLayerStandard
 70
     0
  0
APPID
  5
19C
330
17B
100
AcDbSymbolTableRecord
100
AcDbRegAppTableRecord
  2
ACAD_DSTYLE_DIMFLIPARROW_WHICH_SYMBOL
 70
     0
  0
APPID
  5
1A7
330
17B
100
AcDbSymbolTableRecord
100
AcDbRegAppTableRecord
  2
ACAD_DSTYLE_DIMEXT_LENGTH
 70
     0
  0
APPID
  5
1D2
330
17B
100
AcDbSymbolTableRecord
100
AcDbRegAppTableRecord
  2
ACAD_EXEMPT_FROM_CAD_STANDARDS
 70
     0
  0
APPID
  5
1D3
330
17B
100
AcDbSymbolTableRecord
100
AcDbRegAppTableRecord
  2
ACAD_DSTYLE_DIM_LINETYPE
 70
     0
  0
APPID
  5
1D4
330
17B
100
AcDbSymbolTableRecord
100
AcDbRegAppTableRecord
  2
ACAD_DSTYLE_DIM_EXT1_LINETYPE
 70
     0
  0
APPID
  5
1D5
330
17B
100
AcDbSymbolTableRecord
100
AcDbRegAppTableRecord
  2
ACAD_DSTYLE_DIM_EXT2_LINETYPE
 70
     0
  0
APPID
  5
25C
330
17B
100
AcDbSymbolTableRecord
100
AcDbRegAppTableRecord
  2
ACAD_PSEXT
 70
     0
  0
ENDTAB
  0
TABLE
  2
DIMSTYLE
  5
17C
330
0
100
AcDbSymbolTable
 70
     8
100
AcDbDimStyleTable
 71
     2
340
156
340
17D
  0
DIMSTYLE
105
17D
330
17C
100
AcDbSymbolTableRecord
100
AcDbDimStyleTableRecord
  2
ISO-25
 70
     0
 41
2.5
 42
0.625
 43
3.75
 44
1.25
 73
     0
 74
     0
 77
     1
 78
     8
140
2.5
141
2.5
143
0.03937007874016
147
0.625
171
     3
172
     1
271
     2
272
     2
274
     3
278
    44
283
     0
284
     8
340
1A
  0
DIMSTYLE
105
156
102
{ACAD_REACTORS
330
9B2
102
}
330
17C
100
AcDbSymbolTableRecord
100
AcDbDimStyleTableRecord
  2
Bovelacci
 70
     0
 40
0.001
 41
1.5
140
3.0
141
0.0
147
2.0
176
     5
177
     5
178
     4
271
     2
272
     2
279
     2
340
20
342
152
1001
ACAD_DSTYLE_DIMJOGGED_JOGANGLE_SYMBOL
1070
   384
1040
0.7853981633974483
1001
ACAD_DSTYLE_DIMEXT_LENGTH
1070
   378
1040
0.18
  0
DIMSTYLE
105
257
330
17C
100
AcDbSymbolTableRecord
100
AcDbDimStyleTableRecord
  2
Dim 1-100
 70
     0
 40
0.1
 41
1.5
 42
0.0
 43
5.0
 44
1.25
 45
0.005
 46
1.25
 73
     0
 74
     0
 77
     1
 78
     9
140
2.0
141
2.5
147
1.0
172
     1
174
     1
179
     2
279
     2
289
     2
340
20
342
152
  0
DIMSTYLE
105
258
330
17C
100
AcDbSymbolTableRecord
100
AcDbDimStyleTableRecord
  2
Standard
 70
     0
 42
0.0
 73
     0
 74
     0
 77
     1
271
     2
272
     2
340
20
  0
DIMSTYLE
105
259
330
17C
100
AcDbSymbolTableRecord
100
AcDbDimStyleTableRecord
  2
Dim 1-50
 70
     0
 40
0.05
 41
1.5
 42
0.0
 43
5.0
 44
1.25
 45
0.005
 46
1.25
 73
     0
 74
     0
 77
     1
 78
     9
140
2.0
141
2.5
147
1.0
172
     1
174
     1
179
     2
279
     2
289
     2
340
20
342
152
  0
DIMSTYLE
105
25A
330
17C
100
AcDbSymbolTableRecord
100
AcDbDimStyleTableRecord
  2
Dim 1-200
 70
     0
 40
0.2
 41
1.5
 42
0.0
 43
5.0
 44
1.25
 45
0.005
 46
1.25
 73
     0
 74
     0
 77
     1
 78
     9
140
2.0
141
2.5
147
1.0
172
     1
174
     1
179
     2
271
     2
272
     2
279
     2
289
     2
340
20
342
152
  0
DIMSTYLE
105
25B
330
17C
100
AcDbSymbolTableRecord
100
AcDbDimStyleTableRecord
  2
AEC Scale - Italiano
 70
     0
 41
1.0
 42
10.0
 43
10.0
 44
10.0
 73
     0
 74
     0
 75
     1
 76
     1
 77
     1
140
10.0
141
1.0
147
10.0
173
     1
271
     0
272
     0
279
     2
340
1A
343
251
344
24B
  0
ENDTAB
  0
TABLE
  2
BLOCK_RECORD
  5
1
330
0
100
AcDbSymbolTable
 70
    16
  0
BLOCK_RECORD
  5
2
102
{ACAD_XDICTIONARY
360
3
102
}
330
1
100
AcDbSymbolTableRecord
100
AcDbBlockTableRecord
  2
*Model_Space
340
163
  0
BLOCK_RECORD
  5
165
330
1
100
AcDbSymbolTableRecord
100
AcDbBlockTableRecord
  2
*Paper_Space
340
168
  0
BLOCK_RECORD
  5
169
330
1
100
AcDbSymbolTableRecord
100
AcDbBlockTableRecord
  2
*Paper_Space0
340
16C
  0
BLOCK_RECORD
  5
152
330
1
100
AcDbSymbolTableRecord
100
AcDbBlockTableRecord
  2
_ArchTick
340
0
310
2800000020000000200000000100080000000000000400000000000000000000000000000000000000000000000080000080000000808000800000008000800080800000C0C0C000C0DCC000F0CAA6000020400000206000002080000020A0000020C0000020E00000400000004020000040400000406000004080000040A0
310
000040C0000040E00000600000006020000060400000606000006080000060A0000060C0000060E00000800000008020000080400000806000008080000080A0000080C0000080E00000A0000000A0200000A0400000A0600000A0800000A0A00000A0C00000A0E00000C0000000C0200000C0400000C0600000C0800000C0
310
A00000C0C00000C0E00000E0000000E0200000E0400000E0600000E0800000E0A00000E0C00000E0E00040000000400020004000400040006000400080004000A0004000C0004000E00040200000402020004020400040206000402080004020A0004020C0004020E000404000004040200040404000404060004040800040
310
40A0004040C0004040E00040600000406020004060400040606000406080004060A0004060C0004060E00040800000408020004080400040806000408080004080A0004080C0004080E00040A0000040A0200040A0400040A0600040A0800040A0A00040A0C00040A0E00040C0000040C0200040C0400040C0600040C08000
310
40C0A00040C0C00040C0E00040E0000040E0200040E0400040E0600040E0800040E0A00040E0C00040E0E00080000000800020008000400080006000800080008000A0008000C0008000E00080200000802020008020400080206000802080008020A0008020C0008020E00080400000804020008040400080406000804080
310
008040A0008040C0008040E00080600000806020008060400080606000806080008060A0008060C0008060E00080800000808020008080400080806000808080008080A0008080C0008080E00080A0000080A0200080A0400080A0600080A0800080A0A00080A0C00080A0E00080C0000080C0200080C0400080C0600080C0
310
800080C0A00080C0C00080C0E00080E0000080E0200080E0400080E0600080E0800080E0A00080E0C00080E0E000C0000000C0002000C0004000C0006000C0008000C000A000C000C000C000E000C0200000C0202000C0204000C0206000C0208000C020A000C020C000C020E000C0400000C0402000C0404000C0406000C0
310
408000C040A000C040C000C040E000C0600000C0602000C0604000C0606000C0608000C060A000C060C000C060E000C0800000C0802000C0804000C0806000C0808000C080A000C080C000C080E000C0A00000C0A02000C0A04000C0A06000C0A08000C0A0A000C0A0C000C0A0E000C0C00000C0C02000C0C04000C0C06000
310
C0C08000C0C0A000F0FBFF00A4A0A000808080000000FF0000FF000000FFFF00FF000000FF00FF00FFFF0000FFFFFF00000000FF000000000000000000000000000000000000000000000000000000000000FF00FF00000000000000000000000000000000000000000000000000000000FF000000FF000000000000000000
310
0000000000000000000000000000000000FF0000000000FF0000000000000000000000000000000000000000000000000000FF0000000000FF0000000000000000000000000000000000000000000000000000FF0000000000FF0000000000000000000000000000000000000000000000000000FF0000000000FF00000000
310
00000000000000000000000000000000000000000000FF0000000000FF0000000000000000000000000000000000000000000000000000FF0000000000FF0000000000000000000000000000000000000000000000000000FF0000000000FF0000000000000000000000000000000000000000000000000000FF0000000000
310
FF0000000000000000000000000000000000000000000000000000FF0000000000FF0000000000000000000000000000000000000000000000000000FF0000000000FF0000000000000000000000000000000000000000000000000000FF0000000000FF0000000000000000000000000000000000000000000000000000FF
310
0000000000FF0000000000000000000000000000000000000000000000000000FF0000000000FF0000000000000000000000000000000000000000000000000000FF0000000000FF0000000000000000000000000000000000000000000000000000FF0000000000FF00000000000000000000000000000000000000000000
310
00000000FF0000000000FF0000000000000000000000000000000000000000000000000000FF0000000000FF0000000000000000000000000000000000000000000000000000FF0000000000FF0000000000000000000000000000000000000000000000000000FF0000000000FF0000000000000000000000000000000000
310
000000000000000000FF0000000000FF0000000000000000000000000000000000000000000000000000FF0000000000FF0000000000000000000000000000000000000000000000000000FF0000000000FF0000000000000000000000000000000000000000000000000000FF0000000000FF000000000000000000000000
310
0000000000000000000000000000FF0000000000FF0000000000000000000000000000000000000000000000000000FF0000000000FF0000000000000000000000000000000000000000000000000000FF0000000000FF0000000000000000000000000000000000000000000000000000FF000000FF000000000000000000
310
00000000000000000000000000000000000000FF00FF000000000000000000000000000000000000000000000000000000000000FF000000
102
{BLKREFS
331
211
331
318
331
354
331
429
331
50A
331
5EC
331
6DD
331
847
331
9CD
102
}
  0
BLOCK_RECORD
  5
24B
330
1
100
AcDbSymbolTableRecord
100
AcDbBlockTableRecord
  2
_Arrivo
340
0
310
2800000020000000200000000100080000000000000400000000000000000000000000000000000000000000000080000080000000808000800000008000800080800000C0C0C000C0DCC000F0CAA6000020400000206000002080000020A0000020C0000020E00000400000004020000040400000406000004080000040A0
310
000040C0000040E00000600000006020000060400000606000006080000060A0000060C0000060E00000800000008020000080400000806000008080000080A0000080C0000080E00000A0000000A0200000A0400000A0600000A0800000A0A00000A0C00000A0E00000C0000000C0200000C0400000C0600000C0800000C0
310
A00000C0C00000C0E00000E0000000E0200000E0400000E0600000E0800000E0A00000E0C00000E0E00040000000400020004000400040006000400080004000A0004000C0004000E00040200000402020004020400040206000402080004020A0004020C0004020E000404000004040200040404000404060004040800040
310
40A0004040C0004040E00040600000406020004060400040606000406080004060A0004060C0004060E00040800000408020004080400040806000408080004080A0004080C0004080E00040A0000040A0200040A0400040A0600040A0800040A0A00040A0C00040A0E00040C0000040C0200040C0400040C0600040C08000
310
40C0A00040C0C00040C0E00040E0000040E0200040E0400040E0600040E0800040E0A00040E0C00040E0E00080000000800020008000400080006000800080008000A0008000C0008000E00080200000802020008020400080206000802080008020A0008020C0008020E00080400000804020008040400080406000804080
310
008040A0008040C0008040E00080600000806020008060400080606000806080008060A0008060C0008060E00080800000808020008080400080806000808080008080A0008080C0008080E00080A0000080A0200080A0400080A0600080A0800080A0A00080A0C00080A0E00080C0000080C0200080C0400080C0600080C0
310
800080C0A00080C0C00080C0E00080E0000080E0200080E0400080E0600080E0800080E0A00080E0C00080E0E000C0000000C0002000C0004000C0006000C0008000C000A000C000C000C000E000C0200000C0202000C0204000C0206000C0208000C020A000C020C000C020E000C0400000C0402000C0404000C0406000C0
310
408000C040A000C040C000C040E000C0600000C0602000C0604000C0606000C0608000C060A000C060C000C060E000C0800000C0802000C0804000C0806000C0808000C080A000C080C000C080E000C0A00000C0A02000C0A04000C0A06000C0A08000C0A0A000C0A0C000C0A0E000C0C00000C0C02000C0C04000C0C06000
310
C0C08000C0C0A000F0FBFF00A4A0A000808080000000FF0000FF000000FFFF00FF000000FF00FF00FFFF0000FFFFFF00000000000000000000000000000000000000000000000000000000000000000000000000000000000000FF0000000000000000000000000000000000000000000000000000000000000000FF000000
310
00000000000000000000000000000000000000000000000000000000FF0000000000000000000000000000000000000000000000000000000000000000FF00000000000000000000000000000000000000000000000000000000000000FF0000000000000000000000000000000000000000000000000000000000000000FF
310
0000000000000000000000000000000000000000000000000000000000000000FF00000000000000000000000000000000000000000000000000000000000000FF0000000000000000000000000000000000000000000000000000000000000000FF0000000000000000000000000000000000000000000000000000000000
310
0000FF0000000000000000000000000000000000000000000000000000000000000000FF00000000000000000000000000000000000000000000000000000000000000FF0000000000000000000000000000000000000000000000000000000000000000FF0000FF0000000000000000000000000000000000000000000000
310
000000000000FFFF000000000000000000000000000000000000000000000000000000000000FFFF00000000000000000000000000000000000000000000000000000000FFFFFFFFFFFF00000000000000000000000000000000000000000000000000000000FFFF0000000000000000000000000000000000000000000000
310
000000000000FF0000FF000000000000000000000000000000000000000000000000000000FF00000000000000000000000000000000000000000000000000000000000000FF000000000000000000000000000000000000000000000000000000000000FF0000000000000000000000000000000000000000000000000000
310
0000000000FF000000000000000000000000000000000000000000000000000000000000FF00000000000000000000000000000000000000000000000000000000000000FF000000000000000000000000000000000000000000000000000000000000FF000000000000000000000000000000000000000000000000000000
310
000000FF00000000000000000000000000000000000000000000000000000000000000FF000000000000000000000000000000000000000000000000000000000000FF00000000000000000000000000000000000000000000000000000000000000FF00000000000000000000000000000000000000000000000000000000
310
0000FF0000000000000000000000000000000000000000000000000000000000000000000000000000000000000000000000000000000000
  0
BLOCK_RECORD
  5
251
330
1
100
AcDbSymbolTableRecord
100
AcDbBlockTableRecord
  2
_Partenza
340
0
310
2800000020000000200000000100080000000000000400000000000000000000000000000000000000000000000080000080000000808000800000008000800080800000C0C0C000C0DCC000F0CAA6000020400000206000002080000020A0000020C0000020E00000400000004020000040400000406000004080000040A0
310
000040C0000040E00000600000006020000060400000606000006080000060A0000060C0000060E00000800000008020000080400000806000008080000080A0000080C0000080E00000A0000000A0200000A0400000A0600000A0800000A0A00000A0C00000A0E00000C0000000C0200000C0400000C0600000C0800000C0
310
A00000C0C00000C0E00000E0000000E0200000E0400000E0600000E0800000E0A00000E0C00000E0E00040000000400020004000400040006000400080004000A0004000C0004000E00040200000402020004020400040206000402080004020A0004020C0004020E000404000004040200040404000404060004040800040
310
40A0004040C0004040E00040600000406020004060400040606000406080004060A0004060C0004060E00040800000408020004080400040806000408080004080A0004080C0004080E00040A0000040A0200040A0400040A0600040A0800040A0A00040A0C00040A0E00040C0000040C0200040C0400040C0600040C08000
310
40C0A00040C0C00040C0E00040E0000040E0200040E0400040E0600040E0800040E0A00040E0C00040E0E00080000000800020008000400080006000800080008000A0008000C0008000E00080200000802020008020400080206000802080008020A0008020C0008020E00080400000804020008040400080406000804080
310
008040A0008040C0008040E00080600000806020008060400080606000806080008060A0008060C0008060E00080800000808020008080400080806000808080008080A0008080C0008080E00080A0000080A0200080A0400080A0600080A0800080A0A00080A0C00080A0E00080C0000080C0200080C0400080C0600080C0
310
800080C0A00080C0C00080C0E00080E0000080E0200080E0400080E0600080E0800080E0A00080E0C00080E0E000C0000000C0002000C0004000C0006000C0008000C000A000C000C000C000E000C0200000C0202000C0204000C0206000C0208000C020A000C020C000C020E000C0400000C0402000C0404000C0406000C0
310
408000C040A000C040C000C040E000C0600000C0602000C0604000C0606000C0608000C060A000C060C000C060E000C0800000C0802000C0804000C0806000C0808000C080A000C080C000C080E000C0A00000C0A02000C0A04000C0A06000C0A08000C0A0A000C0A0C000C0A0E000C0C00000C0C02000C0C04000C0C06000
310
C0C08000C0C0A000F0FBFF00A4A0A000808080000000FF0000FF000000FFFF00FF000000FF00FF00FFFF0000FFFFFF0000000000000000000000000000000000000000000000000000000000000000000000000000000000000000000000000000000000000000000000000000000000000000000000000000000000000000
310
000000000000000000000000000000000000000000000000000000000000000000000000000000000000000000000000000000000000000000000000000000000000000000000000000000000000000000000000000000000000000000000000000000000000000000000000000000000000FFFFFFFFFFFFFFFFFFFFFFFFFF
310
FFFFFFFFFFFFFFFFFFFFFFFFFFFFFFFFFF0000000000000000000000000000000000000000000000000000000000000000000000000000000000000000000000000000000000000000000000000000000000000000000000000000000000000000000000000000000000000000000000000000000000000000000000000000
310
00000000000000000000000000000000000000000000000000000000000000000000000000000000000000000000000000000000000000000000000000000000000000000000000000000000000000000000000000000000000000000000000000000000000000000000000000000000000000000000000000000000000000
310
00000000000000000000000000000000000000000000000000000000000000000000000000000000000000000000000000000000000000000000000000000000000000000000000000000000000000000000000000000000000000000000000000000000000000000000000000000000000000000000000000000000000000
310
00000000000000000000000000000000000000000000000000000000000000000000000000000000000000000000000000000000000000000000000000000000000000000000000000000000000000000000000000000000000000000000000000000000000000000000000000000000000000000000000000000000000000
310
000000000000000000000000000000000000000000000000000000000000000000000000000000000000000000000000000000000000000000000000000000000000000000000000000000000000000000000000000000FFFFFFFFFFFFFFFFFFFFFFFFFFFFFFFFFFFFFFFFFFFFFFFFFFFFFFFFFFFF00000000000000000000
310
00000000000000000000000000000000000000000000000000000000000000000000000000000000000000000000000000000000000000000000000000000000000000000000000000000000000000000000000000000000000000000000000000000000000000000000000000000000000000000000000000000000000000
310
0000000000000000000000000000000000000000000000000000000000000000000000000000000000000000000000000000000000000000
  0
BLOCK_RECORD
  5
6C3
330
1
100
AcDbSymbolTableRecord
100
AcDbBlockTableRecord
  2
*D10
340
0
  0
BLOCK_RECORD
  5
82D
330
1
100
AcDbSymbolTableRecord
100
AcDbBlockTableRecord
  2
*D12
340
0
  0
BLOCK_RECORD
  5
9B3
330
1
100
AcDbSymbolTableRecord
100
AcDbBlockTableRecord
  2
*D15
340
0
  0
ENDTAB
  0
ENDSEC
  0
SECTION
  2
BLOCKS
  0
BLOCK
  5
5
330
2
100
AcDbEntity
  8
0
100
AcDbBlockBegin
  2
*Model_Space
 70
     0
 10
0.0
 20
0.0
 30
0.0
  3
*Model_Space
  1

  0
ENDBLK
  5
162
330
2
100
AcDbEntity
  8
0
100
AcDbBlockEnd
  0
BLOCK
  5
166
330
165
100
AcDbEntity
 67
     1
  8
0
100
AcDbBlockBegin
  2
*Paper_Space
 70
     0
 10
0.0
 20
0.0
 30
0.0
  3
*Paper_Space
  1

  0
ENDBLK
  5
167
330
165
100
AcDbEntity
 67
     1
  8
0
100
AcDbBlockEnd
  0
BLOCK
  5
16A
330
169
100
AcDbEntity
 67
     1
  8
0
100
AcDbBlockBegin
  2
*Paper_Space0
 70
     0
 10
0.0
 20
0.0
 30
0.0
  3
*Paper_Space0
  1

  0
ENDBLK
  5
16B
330
169
100
AcDbEntity
 67
     1
  8
0
100
AcDbBlockEnd
  0
BLOCK
  5
153
330
152
100
AcDbEntity
  8
0
 62
     1
100
AcDbBlockBegin
  2
_ArchTick
 70
     0
 10
0.0
 20
0.0
 30
0.0
  3
_ArchTick
  1

  0
LWPOLYLINE
  5
154
330
152
100
AcDbEntity
  8
0
  6
ByBlock
 62
     0
100
AcDbPolyline
 90
        2
 70
     0
 43
0.15
 10
-0.5
 20
-0.5
 10
0.5
 20
0.5
  0
ENDBLK
  5
155
330
152
100
AcDbEntity
  8
0
 62
     1
100
AcDbBlockEnd
  0
BLOCK
  5
24C
330
24B
100
AcDbEntity
  8
0
100
AcDbBlockBegin
  2
_Arrivo
 70
     0
 10
0.0
 20
0.0
 30
0.0
  3
_Arrivo
  1

  0
LINE
  5
24D
330
24B
100
AcDbEntity
  8
0
  6
ByBlock
 62
     0
370
    -2
100
AcDbLine
 10
0.025
 20
-0.0433012701891858
 30
0.0
 11
-0.15
 21
0.2598076211353328
 31
0.0
  0
LINE
  5
24E
330
24B
100
AcDbEntity
  8
0
  6
ByBlock
 62
     0
370
    -2
100
AcDbLine
 10
0.025
 20
0.0433012701892585
 30
0.0
 11
-0.15
 21
-0.2598076211353328
 31
0.0
  0
LINE
  5
24F
330
24B
100
AcDbEntity
  8
0
  6
ByBlock
 62
     0
370
    -2
100
AcDbLine
 10
-0.05
 20
0.0
 30
0.0
 11
0.05
 21
0.0
 31
0.0
  0
ENDBLK
  5
250
330
24B
100
AcDbEntity
  8
0
100
AcDbBlockEnd
  0
BLOCK
  5
252
330
251
100
AcDbEntity
  8
0
100
AcDbBlockBegin
  2
_Partenza
 70
     0
 10
0.0
 20
0.0
 30
0.0
  3
_Partenza
  1

  0
LINE
  5
253
330
251
100
AcDbEntity
  8
0
  6
ByBlock
 62
     0
370
    -2
100
AcDbLine
 10
-0.05
 20
0.05
 30
0.0
 11
0.1
 21
0.05
 31
0.0
  0
LINE
  5
254
330
251
100
AcDbEntity
  8
0
  6
ByBlock
 62
     0
370
    -2
100
AcDbLine
 10
-0.05
 20
-0.05
 30
0.0
 11
0.1
 21
-0.05
 31
0.0
  0
ENDBLK
  5
255
330
251
100
AcDbEntity
  8
0
100
AcDbBlockEnd
  0
BLOCK
  5
6CA
330
6C3
100
AcDbEntity
  8
0
100
AcDbBlockBegin
  2
*D10
 70
     1
 10
0.0
 20
0.0
 30
0.0
  3
*D10
  1

  0
LINE
  5
6DA
330
6C3
100
AcDbEntity
  8
Sezione
  6
ACAD_ISO10W100
 62
     5
370
    -2
100
AcDbLine
 10
0.2580272919594555
 20
0.2091457005418985
 30
0.0
 11
0.2565272919594555
 21
0.2091457005418986
 31
0.0
  0
LINE
  5
6DB
330
6C3
100
AcDbEntity
  8
Sezione
  6
ACAD_ISO10W100
 62
     5
370
    -2
100
AcDbLine
 10
0.2565272919594555
 20
0.2091457005418986
 30
0.0
 11
0.2544161538279562
 21
0.2070142466273769
 31
0.0
  0
MTEXT
  5
6DC
330
6C3
100
AcDbEntity
  8
Sezione
  6
ACAD_ISO10W100
 62
     4
100
AcDbMText
 10
0.2724558633880269
 20
0.2091457005418985
 30
0.0
 40
0.003
 41
0.0
 71
     5
 72
     1
  1
\A1;d 250 mm
  7
ROMANS
 73
     1
 44
1.0
1001
ACAD
1000
MTEXTBEGIN
1070
    73
1070
     1
1070
    44
1040
1.0
1070
    74
1070
     0
1000
MTEXTEND
  0
INSERT
  5
6DD
330
6C3
100
AcDbEntity
  8
Sezione
  6
ACAD_ISO10W100
 62
     5
370
    -2
100
AcDbBlockReference
  2
_ArchTick
 10
0.2544161538279562
 20
0.2070142466273769
 30
0.0
 41
0.0015
 42
0.0015
 43
0.0015
 50
225.2743605124572
  0
POINT
  5
6DE
330
6C3
100
AcDbEntity
  8
Defpoints
  6
ACAD_ISO10W100
 62
     0
100
AcDbPoint
 10
0.2544161538279562
 20
0.2070142466273769
 30
0.0
  0
POINT
  5
6DF
330
6C3
100
AcDbEntity
  8
Defpoints
  6
ACAD_ISO10W100
 62
     0
100
AcDbPoint
 10
0.1664520650154866
 20
0.1182036668556404
 30
0.0
  0
ENDBLK
  5
6CB
330
6C3
100
AcDbEntity
  8
0
100
AcDbBlockEnd
  0
BLOCK
  5
834
330
82D
100
AcDbEntity
  8
0
100
AcDbBlockBegin
  2
*D12
 70
     1
 10
0.0
 20
0.0
 30
0.0
  3
*D12
  1

  0
LINE
  5
844
330
82D
100
AcDbEntity
  8
Sezione
  6
ACAD_ISO10W100
 62
     5
370
    -2
100
AcDbLine
 10
0.2668759768663114
 20
0.2106523346372896
 30
0.0
 11
0.2653759768663114
 21
0.2106523346372896
 31
0.0
  0
LINE
  5
845
330
82D
100
AcDbEntity
  8
Sezione
  6
ACAD_ISO10W100
 62
     5
370
    -2
100
AcDbLine
 10
0.2653759768663114
 20
0.2106523346372896
 30
0.0
 11
0.2631789214633089
 21
0.2086095552668882
 31
0.0
  0
MTEXT
  5
846
330
82D
100
AcDbEntity
  8
Sezione
  6
ACAD_ISO10W100
 62
     4
100
AcDbMText
 10
0.2813045482948828
 20
0.2106523346372896
 30
0.0
 40
0.003
 41
0.0
 71
     5
 72
     1
  1
\A1;d 290 mm
  7
ROMANS
 73
     1
 44
1.0
1001
ACAD
1000
MTEXTBEGIN
1070
    73
1070
     1
1070
    44
1040
1.0
1070
    74
1070
     0
1000
MTEXTEND
  0
INSERT
  5
847
330
82D
100
AcDbEntity
  8
Sezione
  6
ACAD_ISO10W100
 62
     5
370
    -2
100
AcDbBlockReference
  2
_ArchTick
 10
0.2631789214633089
 20
0.2086095552668882
 30
0.0
 41
0.0015
 42
0.0015
 43
0.0015
 50
222.916082132817
  0
POINT
  5
848
330
82D
100
AcDbEntity
  8
Defpoints
  6
ACAD_ISO10W100
 62
     0
100
AcDbPoint
 10
0.2631789214633089
 20
0.2086095552668882
 30
0.0
  0
POINT
  5
849
330
82D
100
AcDbEntity
  8
Defpoints
  6
ACAD_ISO10W100
 62
     0
100
AcDbPoint
 10
0.1569879103181878
 20
0.1098752190308209
 30
0.0
  0
ENDBLK
  5
835
330
82D
100
AcDbEntity
  8
0
100
AcDbBlockEnd
  0
BLOCK
  5
9BA
330
9B3
100
AcDbEntity
  8
0
100
AcDbBlockBegin
  2
*D15
 70
     1
 10
0.0
 20
0.0
 30
0.0
  3
*D15
  1

  0
LINE
  5
9CA
330
9B3
100
AcDbEntity
  8
Sezione
  6
ACAD_ISO10W100
 62
     5
370
    -2
100
AcDbLine
 10
0.2720801551691272
 20
0.2106523321067409
 30
0.0
 11
0.2705801551691272
 21
0.2106523321067409
 31
0.0
  0
LINE
  5
9CB
330
9B3
100
AcDbEntity
  8
Sezione
  6
ACAD_ISO10W100
 62
     5
370
    -2
100
AcDbLine
 10
0.2705801551691272
 20
0.2106523321067409
 30
0.0
 11
0.268259040554878
 21
0.2087516935436473
 31
0.0
  0
MTEXT
  5
9CC
330
9B3
100
AcDbEntity
  8
Sezione
  6
ACAD_ISO10W100
 62
     4
100
AcDbMText
 10
0.2865087265976987
 20
0.2106523321067409
 30
0.0
 40
0.003
 41
0.0
 71
     5
 72
     1
  1
\A1;d 310 mm
  7
ROMANS
 73
     1
 44
1.0
1001
ACAD
1000
MTEXTBEGIN
1070
    73
1070
     1
1070
    44
1040
1.0
1070
    74
1070
     0
1000
MTEXTEND
  0
INSERT
  5
9CD
330
9B3
100
AcDbEntity
  8
Sezione
  6
ACAD_ISO10W100
 62
     5
370
    -2
100
AcDbBlockReference
  2
_ArchTick
 10
0.268259040554878
 20
0.2087516935436473
 30
0.0
 41
0.0015
 42
0.0015
 43
0.0015
 50
219.3122411371381
  0
POINT
  5
9CE
330
9B3
100
AcDbEntity
  8
Defpoints
  6
ACAD_ISO10W100
 62
     0
100
AcDbPoint
 10
0.268259040554878
 20
0.2087516935436473
 30
0.0
  0
POINT
  5
9CF
330
9B3
100
AcDbEntity
  8
Defpoints
  6
ACAD_ISO10W100
 62
     0
100
AcDbPoint
 10
0.1483347854853323
 20
0.1105520344504785
 30
0.0
  0
ENDBLK
  5
9BB
330
9B3
100
AcDbEntity
  8
0
100
AcDbBlockEnd
  0
ENDSEC
  0
SECTION
  2
ENTITIES
  0
LINE
  5
D
330
2
100
AcDbEntity
  8
Table
100
AcDbLine
 10
0.02
 20
0.02
 30
0.0
 11
0.4
 21
0.02
 31
0.0
  0
LINE
  5
10
330
2
100
AcDbEntity
  8
Table
100
AcDbLine
 10
0.4
 20
0.02
 30
0.0
 11
0.4
 21
0.2769999999999999
 31
0.0
  0
LINE
  5
11
330
2
100
AcDbEntity
  8
Table
100
AcDbLine
 10
0.4
 20
0.2769999999999999
 30
0.0
 11
0.02
 21
0.277
 31
0.0
  0
LINE
  5
12
330
2
100
AcDbEntity
  8
Table
100
AcDbLine
 10
0.02
 20
0.277
 30
0.0
 11
0.02
 21
0.02
 31
0.0
  0
LINE
  5
13
330
2
100
AcDbEntity
  8
Table
 62
     2
100
AcDbLine
 10
0.015
 20
0.015
 30
0.0
 11
0.4050000000000001
 21
0.015
 31
0.0
  0
LINE
  5
14
330
2
100
AcDbEntity
  8
Table
 62
     2
100
AcDbLine
 10
0.4050000000000001
 20
0.015
 30
0.0
 11
0.4050000000000001
 21
0.2819999999999998
 31
0.0
  0
LINE
  5
15
330
2
100
AcDbEntity
  8
Table
 62
     2
100
AcDbLine
 10
0.4050000000000001
 20
0.2819999999999998
 30
0.0
 11
0.0149999999999999
 21
0.282
 31
0.0
  0
LINE
  5
16
330
2
100
AcDbEntity
  8
Table
 62
     2
100
AcDbLine
 10
0.0149999999999999
 20
0.282
 30
0.0
 11
0.015
 21
0.015
 31
0.0
  0
LINE
  5
17
330
2
100
AcDbEntity
  8
Table
100
AcDbLine
 10
0.21
 20
0.2769999999999999
 30
0.0
 11
0.21
 21
0.2532994226089223
 31
0.0
  0
MTEXT
  5
18
102
{ACAD_XDICTIONARY
360
9D4
102
}
330
2
100
AcDbEntity
  8
Text
100
AcDbMText
 10
0.305
 20
0.0471738284815141
 30
0.0
 40
0.005
 41
0.1900000000000001
 71
     2
 72
     5
  3
{\fTimes New Roman|b0|i0|c238|p18;\H1.6x;\C4;Bovelacci\P\H0.4375x;\T0.95;via del Commercio, 5  47100 Forli - Italy  \fTimes New Roman|b0|i0|c0|p18;\P\fTimes New Roman|b0|i0|c238|p18;tel.+39-0543721386  fax +39-0543721127\fTimes New Roman|b0|i0|c0|p18
  1
; \fTimes New Roman|b0|i0|c238|p18;www.bovelacci.it\fTimes New Roman|b0|i0|c0|p18; \fTimes New Roman|b0|i0|c238|p18;e-mail: bovelacci@bovelacci\fTimes New Roman|b0|i0|c0|p18;.it}
 73
     1
 44
1.0
1001
ACAD
1000
ACAD_MTEXT_DEFINED_HEIGHT_BEGIN
1070
    46
1040
0.0271738284815141
1000
ACAD_MTEXT_DEFINED_HEIGHT_END
1000
MTEXTBEGIN
1070
    73
1070
     1
1070
    44
1040
1.0
1070
    74
1070
     0
1000
MTEXTEND
  0
MTEXT
  5
1C
330
2
100
AcDbEntity
  8
Text
100
AcDbMText
 10
0.0219676065851835
 20
0.0500313976452307
 30
0.0
 40
0.002
 41
0.1863544980601608
 71
     1
 72
     5
  3
{\fArial|b0|i0|c0|p34;\H1.25x;Le caratteristiche tecniche indicate vengono fornite a titolo indicativo e potranno essere modificate senza preavviso. Non devono quindi essere considerate a scopo di specifica.\P\fArial|b0|i1|c0|p34;The given values are
  3
 indicative and can be changed without notice. They cannot be considered like a state.\PThis lealfet and designs embodied within are protected by copyright law and international treaties. Unauthorized repro- duction of the leaflet or any portion of i
  1
t or reproduction of any of the designs embodied therein may result in severe civil penalties and will be prosecuted to the maximum.\PAll right reserved, Bovelacci Forlì Italy.}
 73
     1
 44
1.0
1001
ACAD
1000
MTEXTBEGIN
1070
    73
1070
     1
1070
    44
1040
1.0
1070
    74
1070
     0
1000
MTEXTEND
  0
LINE
  5
1D
330
2
100
AcDbEntity
  8
Table
100
AcDbLine
 10
0.02
 20
0.0528099428524846
 30
0.0
 11
0.4
 21
0.0528099428524846
 31
0.0
  0
MTEXT
  5
1E
330
2
100
AcDbEntity
  8
Text
100
AcDbMText
 10
0.1133313047219695
 20
0.2610796890771976
 30
0.0
 40
0.003
 41
0.1103605678262056
 71
     2
 72
     5
  1
{\fTimes New Roman|b0|i0|c0|p18;Rosoni\fTimes New Roman|b0|i1|c0|p18;   Ceiling centres}
 73
     1
 44
1.0
1001
ACAD
1000
ACAD_MTEXT_DEFINED_HEIGHT_BEGIN
1070
    46
1040
0.0141952763113409
1000
ACAD_MTEXT_DEFINED_HEIGHT_END
1000
MTEXTBEGIN
1070
    73
1070
     1
1070
    44
1040
1.0
1070
    74
1070
     0
1000
MTEXTEND
  0
TEXT
  5
1F
330
2
100
AcDbEntity
  8
Text
100
AcDbText
 10
0.2180556919891047
 20
0.269976982173197
 30
0.0
 40
0.003
  1
Rosone - Ceiling centre : D 310 mm
  7
ROMANS
100
AcDbText
  0
TEXT
  5
21
330
2
100
AcDbEntity
  8
Text
100
AcDbText
 10
0.2184542410678115
 20
0.2576348370183962
 30
0.0
 40
0.003
  1
File : E - R31
  7
ROMANS
100
AcDbText
  0
LINE
  5
22
330
2
100
AcDbEntity
  8
Table
100
AcDbLine
 10
0.4
 20
0.2654452889427402
 30
0.0
 11
0.02
 21
0.2654452889427403
 31
0.0
  0
LINE
  5
23
330
2
100
AcDbEntity
  8
Table
100
AcDbLine
 10
0.4
 20
0.2532994226089223
 30
0.0
 11
0.02
 21
0.2532994226089225
 31
0.0
  0
LINE
  5
24
330
2
100
AcDbEntity
  8
Table
100
AcDbLine
 10
0.21
 20
0.0528099428524846
 30
0.0
 11
0.21
 21
0.02
 31
0.0
  0
TEXT
  5
25
330
2
100
AcDbEntity
  8
Text
100
AcDbText
 10
0.0947789320547719
 20
0.2687784133392506
 30
0.0
 40
0.005
  1
EUROSTYL
  7
style1
 72
     1
 11
0.1140561490699125
 21
0.2687784133392506
 31
0.0
100
AcDbText
  0
TEXT
  5
23F
330
2
100
AcDbEntity
  8
Text
  6
ACAD_ISO10W100
100
AcDbText
 10
0.279790072709841
 20
0.0798448468098327
 30
0.0
 40
0.005
  1
scala 1 : 2
  7
style1
100
AcDbText
  0
CIRCLE
  5
904
330
2
100
AcDbEntity
  8
Profilo
  6
Continuous
370
     0
100
AcDbCircle
 10
0.2082969130201051
 20
0.1596518639970629
 30
0.0
 40
0.0712158324810173
  0
CIRCLE
  5
905
102
{ACAD_REACTORS
330
9C3
102
}
330
2
100
AcDbEntity
  8
Profilo
  6
Continuous
370
     0
100
AcDbCircle
 10
0.2082969130201051
 20
0.1596518639970629
 30
0.0
 40
0.0775
  0
CIRCLE
  5
906
330
2
100
AcDbEntity
  8
Profilo
  6
Continuous
370
     0
100
AcDbCircle
 10
0.2082969130201051
 20
0.1596518639970629
 30
0.0
 40
0.0615243029018969
  0
LWPOLYLINE
  5
907
330
2
100
AcDbEntity
  8
Profilo
  6
Continuous
370
     0
100
AcDbPolyline
 90
       17
 70
   128
 43
0.0
 10
0.1884003302252855
 20
0.2212578073718991
 10
0.1863675186105689
 20
0.2195880063435535
 10
0.1844464838056585
 20
0.2186095066031125
 10
0.1818507186355665
 20
0.2174464473725916
 10
0.1787178925325379
 20
0.2164623168037693
 10
0.1761102760901463
 20
0.2164942444851089
 10
0.1738843959109908
 20
0.2169991158914261
 10
0.1730788096890738
 20
0.2178937788537588
 10
0.1730788096890738
 20
0.21887790614694
 10
0.1737948874813306
 20
0.2195041695654453
 10
0.1752270327108669
 20
0.220398832527778
 10
0.1771067252661909
 20
0.220577764465116
 10
0.1781808367770883
 20
0.220577764465116
 10
0.1798815124730919
 20
0.2200409653774592
 10
0.1818507186355665
 20
0.2200409653774592
 10
0.1839989416573595
 20
0.220398832527778
 10
0.1862398831519863
 20
0.2217561307701107
  0
LWPOLYLINE
  5
908
330
2
100
AcDbEntity
  8
Profilo
  6
Continuous
370
     0
100
AcDbPolyline
 90
       17
 70
   128
 43
0.0
 10
0.1767639141535171
 20
0.216192435699995
 10
0.1750959244642947
 20
0.2141581375576788
 10
0.1734026976339504
 20
0.2128236641166804
 10
0.1710837109635475
 20
0.211176544080239
 10
0.1682030755852097
 20
0.2096001392510804
 10
0.1656393349799416
 20
0.2091227327195376
 10
0.1633577289390495
 20
0.2091836554824272
 10
0.1623930817450803
 20
0.2099039656713607
 10
0.1622010880345486
 20
0.2108691832345556
 10
0.1627812286608354
 20
0.2116231130241605
 10
0.1640113155359466
 20
0.2127799829625431
 10
0.1658199824366187
 20
0.2133221865987863
 10
0.1668734551960171
 20
0.213531735359329
 10
0.1686461771922674
 20
0.2133370360848005
 10
0.170577545610501
 20
0.2137212091491531
 10
0.172614674711705
 20
0.2144912975036103
 10
0.1745477613927098
 20
0.2162597016386133
  0
LWPOLYLINE
  5
909
330
2
100
AcDbEntity
  8
Profilo
  6
Continuous
370
     0
100
AcDbPolyline
 90
       17
 70
   128
 43
0.0
 10
0.1663392935442833
 20
0.2089542415658666
 10
0.1651002256888909
 20
0.2066336232463403
 10
0.163699876590631
 20
0.2049944591707419
 10
0.1617467857771584
 20
0.2029265762276612
 10
0.1592290423256242
 20
0.2008184774916963
 10
0.1568077006711754
 20
0.1998500832125426
 10
0.1545580496091596
 20
0.1994647161043946
 10
0.1534714122938223
 20
0.1999829924033211
 10
0.1530948030833827
 20
0.2008922074668774
 10
0.1535167120647771
 20
0.2017448305285757
 10
0.1544974690366936
 20
0.2031194495800562
 10
0.1561656042280313
 20
0.2040040883335376
 10
0.1571579538685843
 20
0.204415133013271
 10
0.1589345974529164
 20
0.2045700157358009
 10
0.1607539067217218
 20
0.2053235983090914
 10
0.1626016561734116
 20
0.2064763138040945
 10
0.1641526006037339
 20
0.2085878650525913
  0
LWPOLYLINE
  5
90A
330
2
100
AcDbEntity
  8
Profilo
  6
Continuous
370
     0
100
AcDbPolyline
 90
       17
 70
   128
 43
0.0
 10
0.1575270807214015
 20
0.1998213847108591
 10
0.1567645513826439
 20
0.1973036262747264
 10
0.1557108946469907
 20
0.1954227637206983
 10
0.1541987558751026
 20
0.1930135854528018
 10
0.1521406598192478
 20
0.1904548058622172
 10
0.1499547679174964
 20
0.1890326386845181
 10
0.1478235246630501
 20
0.1882157911471832
 10
0.1466566560889793
 20
0.1885121164885873
 10
0.1461099042593852
 20
0.1893303884275056
 10
0.1463573678703427
 20
0.1902489389351935
 10
0.1470511049986478
 20
0.1917884812605187
 10
0.1485146029807489
 20
0.1929815589600515
 10
0.1494076940622855
 20
0.1935783033424489
 10
0.1511199838181079
 20
0.194076816005872
 10
0.1527573189025646
 20
0.1951708483324207
 10
0.1543446807295408
 20
0.1966618927579485
 10
0.1554538809845014
 20
0.1990354453896316
  0
LWPOLYLINE
  5
90B
330
2
100
AcDbEntity
  8
Profilo
  6
Continuous
370
     0
100
AcDbPolyline
 90
       17
 70
   128
 43
0.0
 10
0.1506659240817076
 20
0.1891448357021485
 10
0.1504092368344421
 20
0.1865266931941324
 10
0.1497427638988502
 20
0.1844764126548281
 10
0.1487296878135322
 20
0.1818185224318668
 10
0.1472103306305894
 20
0.1789073944513472
 10
0.1453438910814584
 20
0.1770861074621827
 10
0.1434129581176351
 20
0.175869170488426
 10
0.1422107003897453
 20
0.1759321572556217
 10
0.1415148173071867
 20
0.1766280403381802
 10
0.1415783256599146
 20
0.1775772189109762
 10
0.1419583830158211
 20
0.1792225207619683
 10
0.1431610023819751
 20
0.1806781881006451
 10
0.1439205139150812
 20
0.1814376996337511
 10
0.1455026475073411
 20
0.1822606846759797
 10
0.1468950865383811
 20
0.1836531237070197
 10
0.148161059315838
 20
0.1854251970619835
 10
0.1487858894516845
 20
0.1879695367803226
  0
LWPOLYLINE
  5
90C
330
2
100
AcDbEntity
  8
Profilo
  6
Continuous
370
     0
100
AcDbPolyline
 90
       17
 70
   128
 43
0.0
 10
0.1460194940270854
 20
0.1773348883306592
 10
0.1462785132182742
 20
0.1747169754990739
 10
0.1460248362638947
 20
0.1725760681058069
 10
0.145549754810967
 20
0.1697716071584864
 10
0.1446275245454118
 20
0.166620003803747
 10
0.1431522635740614
 20
0.1644695880407191
 10
0.141495845571781
 20
0.1628993278359768
 10
0.1403044007803218
 20
0.162726555482822
 10
0.1394861288414035
 20
0.1632733073124161
 10
0.1393632413455248
 20
0.1642166375500714
 10
0.1394150135379832
 20
0.1659044708992926
 10
0.1403105383003838
 20
0.167566787397638
 10
0.1409072826827811
 20
0.1684598784791728
 10
0.1422984596047994
 20
0.1695757090465676
 10
0.1433924919313481
 20
0.1712130441310243
 10
0.1442884250354131
 20
0.1731980466301873
 10
0.1444048731804348
 20
0.1758153958866856
  0
LWPOLYLINE
  5
90D
330
2
100
AcDbEntity
  8
Profilo
  6
Continuous
370
     0
100
AcDbPolyline
 90
       17
 70
   128
 43
0.0
 10
0.1437663502587871
 20
0.1648453922507848
 10
0.1445311219261716
 20
0.1623283140176038
 10
0.1446999896160972
 20
0.1601790536408639
 10
0.144781159909368
 20
0.1573357958306317
 10
0.1444914973531124
 20
0.1540648314511518
 10
0.1434641084113353
 20
0.1516679261860702
 10
0.1421458605854959
 20
0.1498046869693968
 10
0.1410110152856316
 20
0.1494027950405318
 10
0.1401018002220771
 20
0.1497794042509696
 10
0.1397972393751403
 20
0.1506806345014805
 10
0.1395187368278283
 20
0.1523461368598692
 10
0.1400727524720726
 20
0.1541512206270855
 10
0.140483797151806
 20
0.1551435702676386
 10
0.1416305552546491
 20
0.1565093656172628
 10
0.1423841378279378
 20
0.1583286748860665
 10
0.1428756010518666
 20
0.1604503239965854
 10
0.1424791921691555
 20
0.1630400995271447
  0
LWPOLYLINE
  5
90E
330
2
100
AcDbEntity
  8
Profilo
  6
Continuous
370
     0
100
AcDbPolyline
 90
       17
 70
   128
 43
0.0
 10
0.1439930798282494
 20
0.1521563117926842
 10
0.1452342142255394
 20
0.1498367980628149
 10
0.1458191370691488
 20
0.1477617795735607
 10
0.1464534397797697
 20
0.1449889897035458
 10
0.146807476502405
 20
0.1417243656260524
 10
0.1462674415710681
 20
0.1391730825840515
 10
0.1453380234463357
 20
0.1370884675936302
 10
0.1443033891065117
 20
0.1364729005704962
 10
0.1433381715433168
 20
0.1366648942810279
 10
0.1428636414478714
 20
0.137489390771281
 10
0.1422655668574984
 20
0.1390685578172274
 10
0.1424567828730727
 20
0.1409470404964462
 10
0.1426663316336154
 20
0.1420005132558465
 10
0.1435246016464995
 20
0.1435637866383569
 10
0.1439087747108538
 20
0.1454951550565923
 10
0.1439768813985656
 20
0.147671916992984
 10
0.1430828492591751
 20
0.1501345951763276
  0
LWPOLYLINE
  5
90F
330
2
100
AcDbEntity
  8
Profilo
  6
Continuous
370
     0
100
AcDbPolyline
 90
       17
 70
   128
 43
0.0
 10
0.1466909696452689
 20
0.1397552812022432
 10
0.1483607706736145
 20
0.1377224695875284
 10
0.1493392704140573
 20
0.1358014347826163
 10
0.1505023296445764
 20
0.133205669612526
 10
0.1514864602134005
 20
0.1300728435094956
 10
0.1514545325320591
 20
0.127465227067104
 10
0.1509496611257437
 20
0.1252393468879486
 10
0.1500549981634092
 20
0.1244337606660316
 10
0.1490708708702297
 20
0.1244337606660316
 10
0.1484446074517245
 20
0.1251498384582884
 10
0.14754994448939
 20
0.1265819836878247
 10
0.147371012552052
 20
0.1284616762431486
 10
0.147371012552052
 20
0.129535787754046
 10
0.1479078116397088
 20
0.1312364634500515
 10
0.1479078116397088
 20
0.133205669612526
 10
0.14754994448939
 20
0.1353538926343191
 10
0.1461926462470591
 20
0.137594834128944
  0
LWPOLYLINE
  5
910
330
2
100
AcDbEntity
  8
Profilo
  6
Continuous
370
     0
100
AcDbPolyline
 90
       17
 70
   128
 43
0.0
 10
0.151756341317173
 20
0.1281188651304766
 10
0.1537906394594892
 20
0.1264508754412524
 10
0.1551251129004876
 20
0.12475764861091
 10
0.1567722329369308
 20
0.1224386619405052
 10
0.1583486377660876
 20
0.1195580265621693
 10
0.1588260442976321
 20
0.1169942859568994
 10
0.1587651215347408
 20
0.1147126799160073
 10
0.158044811345809
 20
0.1137480327220398
 10
0.1570795937826142
 20
0.1135560390115081
 10
0.1563256639930093
 20
0.1141361796377932
 10
0.1551687940546267
 20
0.1153662665129061
 10
0.1546265904183817
 20
0.1171749334135764
 10
0.154417041657839
 20
0.1182284061729767
 10
0.1546117409323675
 20
0.1200011281692251
 10
0.1542275678680149
 20
0.1219324965874587
 10
0.1534574795135595
 20
0.1239696256886628
 10
0.1516890753785565
 20
0.1259027123696693
  0
LWPOLYLINE
  5
911
330
2
100
AcDbEntity
  8
Profilo
  6
Continuous
370
     0
100
AcDbPolyline
 90
       17
 70
   128
 43
0.0
 10
0.1589945354513031
 20
0.1176942445212411
 10
0.1613151537708277
 20
0.1164551766658487
 10
0.1629543178464261
 20
0.1150548275675905
 10
0.1650222007895068
 20
0.1131017367541161
 10
0.1671302995254718
 20
0.1105839933025819
 10
0.1680986938046272
 20
0.1081626516481332
 10
0.1684840609127733
 20
0.1059130005861174
 10
0.1679657846138469
 20
0.1048263632707801
 10
0.1670565695502906
 20
0.1044497540603423
 10
0.1662039464885923
 20
0.1048716630417349
 10
0.1648293274371135
 20
0.1058524200136531
 10
0.1639446886836304
 20
0.1075205552049908
 10
0.1635336440038988
 20
0.1085129048455421
 10
0.1633787612813671
 20
0.1102895484298759
 10
0.1626251787080783
 20
0.1121088576986796
 10
0.1614724632130753
 20
0.1139566071503694
 10
0.1593609119645767
 20
0.1155075515806917
  0
LWPOLYLINE
  5
912
330
2
100
AcDbEntity
  8
Profilo
  6
Continuous
370
     0
100
AcDbPolyline
 90
       17
 70
   128
 43
0.0
 10
0.1681273923063089
 20
0.1088820316983593
 10
0.1706451507424433
 20
0.1081195023596017
 10
0.1725260132964697
 20
0.1070658456239503
 10
0.174935191564368
 20
0.1055537068520603
 10
0.1774939711549526
 20
0.1034956107962056
 10
0.1789161383326516
 20
0.1013097188944542
 10
0.1797329858699848
 20
0.0991784756400079
 10
0.1794366605285806
 20
0.0980116070659371
 10
0.1786183885896624
 20
0.0974648552363448
 10
0.1776998380819745
 20
0.0977123188473005
 10
0.176160295756651
 20
0.0984060559756056
 10
0.1749672180571165
 20
0.0998695539577085
 10
0.1743704736747191
 20
0.1007626450392433
 10
0.1738719610112978
 20
0.1024749347950656
 10
0.1727779286847473
 20
0.1041122698795224
 10
0.1712868842592212
 20
0.1056996317065003
 10
0.1689133316275364
 20
0.1068088319614592
  0
LWPOLYLINE
  5
913
330
2
100
AcDbEntity
  8
Profilo
  6
Continuous
370
     0
100
AcDbPolyline
 90
       17
 70
   128
 43
0.0
 10
0.1788039413150213
 20
0.1020208750586654
 10
0.1814220838230356
 20
0.1017641878114016
 10
0.1834723643623399
 20
0.101097714875808
 10
0.186130254585303
 20
0.1000846387904918
 10
0.1890413825658208
 20
0.098565281607549
 10
0.1908626695549853
 20
0.0966988420584162
 10
0.192079606528742
 20
0.0947679090945929
 10
0.192016619761548
 20
0.0935656513667031
 10
0.1913207366789877
 20
0.0928697682841445
 10
0.1903715581061918
 20
0.0929332766368724
 10
0.1887262562552015
 20
0.0933133339927789
 10
0.1872705889165229
 20
0.094515953358933
 10
0.1865110773834169
 20
0.095275464892039
 10
0.1856880923411901
 20
0.0968575984842989
 10
0.1842956533101501
 20
0.0982500375153389
 10
0.1825235799551845
 20
0.0995160102927958
 10
0.1799792402368472
 20
0.1001408404286422
  0
LWPOLYLINE
  5
914
330
2
100
AcDbEntity
  8
Profilo
  6
Continuous
370
     0
100
AcDbPolyline
 90
       17
 70
   128
 43
0.0
 10
0.1906138886865088
 20
0.0973744450040432
 10
0.1932318015180958
 20
0.097633464195232
 10
0.1953727089113611
 20
0.0973797872408525
 10
0.1981771698586816
 20
0.0969047057879266
 10
0.2013287732134228
 20
0.0959824755223696
 10
0.2034791889764489
 20
0.0945072145510192
 10
0.2050494491811912
 20
0.0928507965487406
 10
0.205222221534346
 20
0.0916593517572796
 10
0.2046754697047537
 20
0.0908410798183613
 10
0.2037321394670966
 20
0.0907181923224826
 10
0.2020443061178754
 20
0.090769964514941
 10
0.20038198961953
 20
0.0916654892773416
 10
0.1994888985379952
 20
0.0922622336597389
 10
0.1983730679706004
 20
0.0936534105817572
 10
0.1967357328861437
 20
0.0947474429083059
 10
0.1947507303869807
 20
0.0956433760123709
 10
0.1921333811304824
 20
0.0957598241573926
  0
LWPOLYLINE
  5
915
330
2
100
AcDbEntity
  8
Profilo
  6
Continuous
370
     0
100
AcDbPolyline
 90
       17
 70
   128
 43
0.0
 10
0.2031033847663832
 20
0.0951213012357449
 10
0.2056204629995642
 20
0.0958860729031294
 10
0.2077697233763041
 20
0.096054940593055
 10
0.210612981186538
 20
0.0961361108863258
 10
0.2138839455660162
 20
0.0958464483300702
 10
0.2162808508310996
 20
0.0948190593882931
 10
0.2181440900477711
 20
0.0935008115624555
 10
0.218545981976638
 20
0.0923659662625894
 10
0.2181693727661984
 20
0.0914567511990349
 10
0.2172681425156875
 20
0.0911521903520981
 10
0.2156026401573006
 20
0.0908736878047862
 10
0.2137975563900825
 20
0.0914277034490304
 10
0.2128052067495294
 20
0.0918387481287638
 10
0.211439411399907
 20
0.0929855062316069
 10
0.2096201021311015
 20
0.0937390888048974
 10
0.2074984530205826
 20
0.0942305520288244
 10
0.2049086774900233
 20
0.0938341431461133
  0
LWPOLYLINE
  5
916
330
2
100
AcDbEntity
  8
Profilo
  6
Continuous
370
     0
100
AcDbPolyline
 90
       17
 70
   128
 43
0.0
 10
0.2157924652244838
 20
0.0953480308052072
 10
0.2181119789543531
 20
0.0965891652024972
 10
0.2201869974436073
 20
0.0971740880461084
 10
0.222959787313624
 20
0.0978083907567275
 10
0.2262244113911156
 20
0.0981624274793628
 10
0.2287756944331165
 20
0.0976223925480259
 10
0.2308603094235377
 20
0.0966929744232935
 10
0.2314758764466718
 20
0.0956583400834695
 10
0.2312838827361401
 20
0.0946931225202746
 10
0.2304593862458888
 20
0.094218592424831
 10
0.2288802191999424
 20
0.0936205178344562
 10
0.2270017365207217
 20
0.0938117338500305
 10
0.2259482637613233
 20
0.0940212826105732
 10
0.2243849903788111
 20
0.0948795526234591
 10
0.2224536219605775
 20
0.0952637256878117
 10
0.220276860024184
 20
0.0953318323755234
 10
0.2178141818408421
 20
0.094437800236133
  0
LWPOLYLINE
  5
917
330
2
100
AcDbEntity
  8
Profilo
  6
Continuous
370
     0
100
AcDbPolyline
 90
       17
 70
   128
 43
0.0
 10
0.2281934958149248
 20
0.0980459206222267
 10
0.2302263074296413
 20
0.0997157216505723
 10
0.2321473422345517
 20
0.100694221391015
 10
0.2347431074046438
 20
0.1018572806215342
 10
0.2378759335076741
 20
0.1028414111903583
 10
0.2404835499500639
 20
0.1028094835090169
 10
0.2427094301292194
 20
0.1023046121027015
 10
0.2435150163511364
 20
0.1014099491403687
 10
0.2435150163511364
 20
0.1004258218471875
 10
0.2427989385588796
 20
0.0997995584286823
 10
0.2413667933293433
 20
0.0989048954663496
 10
0.2394871007740194
 20
0.0987259635290116
 10
0.2384129892631219
 20
0.0987259635290116
 10
0.2367123135671183
 20
0.0992627626166666
 10
0.2347431074046438
 20
0.0992627626166666
 10
0.2325948843828507
 20
0.0989048954663496
 10
0.230353942888224
 20
0.0975475972240169
  0
LWPOLYLINE
  5
918
330
2
100
AcDbEntity
  8
Profilo
  6
Continuous
370
     0
100
AcDbPolyline
 90
       17
 70
   128
 43
0.0
 10
0.2398299118866931
 20
0.1031112922941307
 10
0.2414979015759155
 20
0.105145590436447
 10
0.2431911284062598
 20
0.1064800638774453
 10
0.2455101150766628
 20
0.1081271839138885
 10
0.2483907504550005
 20
0.1097035887430454
 10
0.2509544910602686
 20
0.1101809952745899
 10
0.2532360971011607
 20
0.1101200725117003
 10
0.2542007442951299
 20
0.1093997623227668
 10
0.2543927380056616
 20
0.1084345447595719
 10
0.2538125973793748
 20
0.1076806149699671
 10
0.2525825105042636
 20
0.1065237450315845
 10
0.2507738436035916
 20
0.1059815413953394
 10
0.2497203708441931
 20
0.1057719926347985
 10
0.2479476488479428
 20
0.1059666919093271
 10
0.2460162804297092
 20
0.1055825188449727
 10
0.2439791513285052
 20
0.1048124304905172
 10
0.2420460646475004
 20
0.1030440263555142
  0
LWPOLYLINE
  5
919
330
2
100
AcDbEntity
  8
Profilo
  6
Continuous
370
     0
100
AcDbPolyline
 90
       17
 70
   128
 43
0.0
 10
0.2502545324959269
 20
0.1103494864282609
 10
0.2514936003513211
 20
0.1126701047477873
 10
0.2528939494495774
 20
0.1143092688233856
 10
0.2548470402630518
 20
0.1163771517664646
 10
0.257364783714586
 20
0.1184852505024295
 10
0.2597861253690348
 20
0.1194536447815849
 10
0.2620357764310506
 20
0.1198390118897311
 10
0.2631224137463879
 20
0.1193207355908047
 10
0.2634990229568275
 20
0.1184115205272501
 10
0.2630771139754331
 20
0.11755889746555
 10
0.2620963570035166
 20
0.1161842784140713
 10
0.2604282218121789
 20
0.11529963966059
 10
0.2594358721716259
 20
0.1148885949808566
 10
0.2576592285872938
 20
0.1147337122583266
 10
0.2558399193184884
 20
0.1139801296850361
 10
0.2539921698667986
 20
0.112827414190033
 10
0.2524412254364763
 20
0.1107158629415362
  0
LWPOLYLINE
  5
91A
330
2
100
AcDbEntity
  8
Profilo
  6
Continuous
370
     0
100
AcDbPolyline
 90
       17
 70
   128
 43
0.0
 10
0.2590667453188087
 20
0.1194823432832667
 10
0.2598292746575663
 20
0.1220001017194011
 10
0.2608829313932195
 20
0.1238809642734274
 10
0.2623950701651077
 20
0.1262901425413257
 10
0.2644531662209624
 20
0.1288489221319103
 10
0.2666390581227138
 20
0.1302710893096094
 10
0.2687703013771601
 20
0.1310879368469443
 10
0.269937169951231
 20
0.1307916115055384
 10
0.270483921780825
 20
0.1299733395666219
 10
0.2702364581698693
 20
0.1290547890589323
 10
0.2695427210415624
 20
0.1275152467336088
 10
0.2680792230594613
 20
0.126322169034076
 10
0.2671861319779247
 20
0.1257254246516769
 10
0.2654738422221023
 20
0.1252269119882555
 10
0.2638365071376456
 20
0.124132879661705
 10
0.2622491453106694
 20
0.122641835236179
 10
0.2611399450557088
 20
0.1202682826044959
  0
LWPOLYLINE
  5
91B
330
2
100
AcDbEntity
  8
Profilo
  6
Continuous
370
     0
100
AcDbPolyline
 90
       17
 70
   128
 43
0.0
 10
0.2659279019585026
 20
0.1301588922919791
 10
0.2661845892057681
 20
0.1327770347999951
 10
0.26685106214136
 20
0.1348273153392977
 10
0.267864138226678
 20
0.1374852055622607
 10
0.2693834954096208
 20
0.1403963335427786
 10
0.2712499349587518
 20
0.1422176205319431
 10
0.2731808679225751
 20
0.1434345575056998
 10
0.274383125650465
 20
0.1433715707385058
 10
0.2750790087330235
 20
0.1426756876559473
 10
0.2750155003802956
 20
0.1417265090831495
 10
0.2746354430243891
 20
0.1400812072321592
 10
0.2734328236582351
 20
0.1386255398934807
 10
0.2726733121251308
 20
0.1378660283603746
 10
0.2710911785328691
 20
0.1370430433181479
 10
0.2696987395018291
 20
0.1356506042871078
 10
0.2684327667243722
 20
0.1338785309321423
 10
0.2678079365885257
 20
0.1313341912138049
  0
LWPOLYLINE
  5
91C
330
2
100
AcDbEntity
  8
Profilo
  6
Continuous
370
     0
100
AcDbPolyline
 90
       17
 70
   128
 43
0.0
 10
0.2705743320131249
 20
0.1419688396634665
 10
0.270315312821936
 20
0.1445867524950536
 10
0.2705689897763155
 20
0.1467276598883188
 10
0.2710440712292432
 20
0.1495321208356394
 10
0.2719663014947984
 20
0.1526837241903806
 10
0.2734415624661488
 20
0.1548341399534067
 10
0.2750979804684293
 20
0.1564044001581489
 10
0.2762894252598884
 20
0.1565771725113055
 10
0.2771076971988067
 20
0.1560304206817115
 10
0.2772305846946854
 20
0.1550870904440543
 10
0.277178812502227
 20
0.1533992570948331
 10
0.2762832877398265
 20
0.1517369405964878
 10
0.2756865433574291
 20
0.150843849514953
 10
0.2742953664354109
 20
0.1497280189475581
 10
0.2732013341088622
 20
0.1480906838631014
 10
0.2723054010047972
 20
0.1461056813639402
 10
0.2721889528597754
 20
0.1434883321074402
  0
LWPOLYLINE
  5
91D
330
2
100
AcDbEntity
  8
Profilo
  6
Continuous
370
     0
100
AcDbPolyline
 90
       17
 70
   128
 43
0.0
 10
0.2728274757814231
 20
0.154458335743341
 10
0.2720627041140404
 20
0.1569754139765237
 10
0.271893836424113
 20
0.1591246743532636
 10
0.2718126661308422
 20
0.1619679321634958
 10
0.2721023286870978
 20
0.165238896542974
 10
0.2731297176288767
 20
0.1676358018080574
 10
0.2744479654547143
 20
0.1694990410247289
 10
0.2755828107545786
 20
0.1699009329535958
 10
0.2764920258181349
 20
0.1695243237431562
 10
0.2767965866650699
 20
0.168623093492647
 10
0.2770750892123819
 20
0.1669575911342583
 10
0.2765210735681376
 20
0.1651525073670402
 10
0.276110028888406
 20
0.1641601577264872
 10
0.2749632707855611
 20
0.1627943623768647
 10
0.2742096882122724
 20
0.1609750531080593
 10
0.2737182249883436
 20
0.1588534039975403
 10
0.2741146338710547
 20
0.156263628466981
  0
LWPOLYLINE
  5
91E
330
2
100
AcDbEntity
  8
Profilo
  6
Continuous
370
     0
100
AcDbPolyline
 90
       17
 70
   128
 43
0.0
 10
0.2726007462119608
 20
0.1671474162014434
 10
0.2713596118146708
 20
0.1694669299313109
 10
0.2707746889710614
 20
0.171541948420565
 10
0.2701403862604423
 20
0.1743147382905817
 10
0.2697863495378052
 20
0.1775793623680734
 10
0.2703263844691421
 20
0.1801306454100743
 10
0.2712558025938745
 20
0.1822152604004955
 10
0.2722904369336985
 20
0.1828308274236295
 10
0.2732556544968934
 20
0.1826388337130979
 10
0.2737301845923388
 20
0.1818143372228466
 10
0.2743282591827119
 20
0.1802351701769002
 10
0.2741370431671375
 20
0.1783566874976795
 10
0.2739274944065966
 20
0.177303214738281
 10
0.2730692243937107
 20
0.1757399413557689
 10
0.2726850513293564
 20
0.1738085729375353
 10
0.2726169446416446
 20
0.1716318110011418
 10
0.2735109767810351
 20
0.1691691328177999
  0
LWPOLYLINE
  5
91F
330
2
100
AcDbEntity
  8
Profilo
  6
Continuous
370
     0
100
AcDbPolyline
 90
       17
 70
   128
 43
0.0
 10
0.2699028563949413
 20
0.1795484467918825
 10
0.2682330553665957
 20
0.1815812584065991
 10
0.267254555626153
 20
0.1835022932115095
 10
0.2660914963956338
 20
0.1860980583816015
 10
0.2651073658268115
 20
0.1892308844846319
 10
0.2651392935081511
 20
0.1918385009270235
 10
0.2656441649144683
 20
0.194064381106179
 10
0.266538827876801
 20
0.1948699673280941
 10
0.2675229551699823
 20
0.1948699673280941
 10
0.2681492185884875
 20
0.1941538895358373
 10
0.2690438815508203
 20
0.1927217443063011
 10
0.2692228134881582
 20
0.1908420517509771
 10
0.2692228134881582
 20
0.1897679402400797
 10
0.2686860144005014
 20
0.1880672645440761
 10
0.2686860144005014
 20
0.1860980583816015
 10
0.2690438815508203
 20
0.1839498353598085
 10
0.2704011797931529
 20
0.1817088938651817
  0
LWPOLYLINE
  5
920
330
2
100
AcDbEntity
  8
Profilo
  6
Continuous
370
     0
100
AcDbPolyline
 90
       17
 70
   128
 43
0.0
 10
0.2648374847230372
 20
0.1911848628636509
 10
0.262803186580721
 20
0.1928528525528733
 10
0.2614687131397226
 20
0.1945460793832176
 10
0.2598215931032795
 20
0.1968650660536205
 10
0.2582451882741226
 20
0.1997457014319582
 10
0.2577677817425781
 20
0.2023094420372264
 10
0.2578287045054695
 20
0.2045910480781185
 10
0.2585490146944012
 20
0.2055556952720877
 10
0.2595142322575978
 20
0.2057476889826194
 10
0.2602681620472027
 20
0.2051675483563326
 10
0.2614250319855835
 20
0.2039374614812214
 10
0.2619672356218285
 20
0.2021287945805511
 10
0.2621767843823712
 20
0.2010753218211509
 10
0.2619820851078427
 20
0.1993025998249006
 10
0.2623662581721953
 20
0.197371231406667
 10
0.2631363465266525
 20
0.195334102305463
 10
0.2649047506616537
 20
0.1934010156244582
  0
LWPOLYLINE
  5
921
330
2
100
AcDbEntity
  8
Profilo
  6
Continuous
370
     0
100
AcDbPolyline
 90
       17
 70
   128
 43
0.0
 10
0.2575992905889071
 20
0.2016094834728847
 10
0.2552786722693825
 20
0.2028485513282789
 10
0.2536395081937841
 20
0.204248900426537
 10
0.2515716252507034
 20
0.2062019912400114
 10
0.2494635265147385
 20
0.2087197346915438
 10
0.2484951322355848
 20
0.2111410763459925
 10
0.2481097651274369
 20
0.2133907274080083
 10
0.2486280414263633
 20
0.2144773647233457
 10
0.2495372564899196
 20
0.2148539739337853
 10
0.2503898795516179
 20
0.2144320649523909
 10
0.2517644986030985
 20
0.2134513079804744
 10
0.2526491373565798
 20
0.2117831727891367
 10
0.2530601820363132
 20
0.2107908231485837
 10
0.2532150647588431
 20
0.2090141795642516
 10
0.2539686473321336
 20
0.2071948702954462
 10
0.2551213628271349
 20
0.2053471208437564
 10
0.2572329140756335
 20
0.2037961764134359
  0
LWPOLYLINE
  5
922
330
2
100
AcDbEntity
  8
Profilo
  6
Continuous
370
     0
100
AcDbPolyline
 90
       17
 70
   128
 43
0.0
 10
0.2484664337339013
 20
0.2104216962957683
 10
0.2459486752977669
 20
0.2111842256345259
 10
0.2440678127437406
 20
0.2122378823701773
 10
0.241658634475844
 20
0.2137500211420672
 10
0.2390998548852594
 20
0.2158081171979219
 10
0.2376776877075604
 20
0.2179940090996716
 10
0.2368608401702255
 20
0.2201252523541179
 10
0.2371571655116296
 20
0.2212921209281887
 10
0.2379754374505478
 20
0.2218388727577828
 10
0.2388939879582357
 20
0.2215914091468271
 10
0.2404335302835592
 20
0.2208976720185202
 10
0.2416266079830938
 20
0.2194341740364191
 10
0.2422233523654911
 20
0.2185410829548843
 10
0.2427218650289125
 20
0.2168287931990601
 10
0.2438158973554629
 20
0.2151914581146052
 10
0.245306941780989
 20
0.2136040962876272
 10
0.2476804944126738
 20
0.2124948960326666
  0
LWPOLYLINE
  5
923
330
2
100
AcDbEntity
  8
Profilo
  6
Continuous
370
     0
100
AcDbPolyline
 90
       17
 70
   128
 43
0.0
 10
0.2377898847251907
 20
0.2172828529354621
 10
0.2351717422171746
 20
0.2175395401827259
 10
0.2331214616778703
 20
0.2182060131183178
 10
0.2304635714549073
 20
0.2192190892036358
 10
0.2275524434743894
 20
0.2207384463865786
 10
0.2257311564852249
 20
0.2226048859357096
 10
0.2245142195114682
 20
0.2245358188995329
 10
0.2245772062786639
 20
0.2257380766274228
 10
0.2252730893612225
 20
0.2264339597099831
 10
0.2262222679340184
 20
0.2263704513572534
 10
0.2278675697850088
 20
0.2259903940013469
 10
0.2293232371236873
 20
0.2247877746351946
 10
0.2300827486567933
 20
0.2240282631020886
 10
0.2309057336990201
 20
0.2224461295098287
 10
0.2322981727300601
 20
0.2210536904787887
 10
0.2340702460850257
 20
0.2197877177013318
 10
0.2366145858033648
 20
0.2191628875654835
  0
LWPOLYLINE
  5
924
330
2
100
AcDbEntity
  8
Profilo
  6
Continuous
370
     0
100
AcDbPolyline
 90
       17
 70
   128
 43
0.0
 10
0.2259799373537015
 20
0.2219292829900826
 10
0.2233620245221144
 20
0.2216702637988938
 10
0.2212211171288492
 20
0.2219239407532733
 10
0.2184166561815286
 20
0.222399022206201
 10
0.2152650528267892
 20
0.2233212524717562
 10
0.2131146370637613
 20
0.2247965134431084
 10
0.2115443768590191
 20
0.226452931445387
 10
0.2113716045058642
 20
0.227644376236848
 10
0.2119183563354565
 20
0.2284626481757645
 10
0.2128616865731137
 20
0.228585535671645
 10
0.2145495199223348
 20
0.2285337634791848
 10
0.2162118364206802
 20
0.227638238716786
 10
0.217104927502215
 20
0.2270414943343869
 10
0.2182207580696098
 20
0.2256503174123704
 10
0.2198580931540666
 20
0.2245562850858199
 10
0.2218430956532296
 20
0.223660351981755
 10
0.2244604449097278
 20
0.2235439038367332
  0
LWPOLYLINE
  5
925
330
2
100
AcDbEntity
  8
Profilo
  6
Continuous
370
     0
100
AcDbPolyline
 90
       17
 70
   128
 43
0.0
 10
0.213490441273827
 20
0.2241824267583826
 10
0.2109733630406461
 20
0.2234176550909982
 10
0.2088241026639062
 20
0.2232487874010726
 10
0.2059808448536722
 20
0.2231676171078
 10
0.202709880474194
 20
0.2234572796640574
 10
0.2003129752091124
 20
0.2244846686058345
 10
0.1984497359924391
 20
0.2258029164316721
 10
0.1980478440635722
 20
0.2269377617315364
 10
0.1984244532740118
 20
0.2278469767950927
 10
0.1993256835245227
 20
0.2281515376420295
 10
0.2009911858829096
 20
0.2284300401893397
 10
0.2027962696501278
 20
0.2278760245450972
 10
0.2037886192906808
 20
0.2274649798653638
 10
0.2051544146403033
 20
0.2263182217625207
 10
0.2069737239091087
 20
0.2255646391892302
 10
0.2090953730196277
 20
0.2250731759653014
 10
0.2116851485501869
 20
0.2254695848480125
  0
LWPOLYLINE
  5
926
330
2
100
AcDbEntity
  8
Profilo
  6
Continuous
370
     0
100
AcDbPolyline
 90
       17
 70
   128
 43
0.0
 10
0.2008013608157264
 20
0.2239556971889204
 10
0.1984818470858571
 20
0.2227145627916286
 10
0.196406828596603
 20
0.2221296399480192
 10
0.193634038726588
 20
0.2214953372374001
 10
0.1903694146490946
 20
0.221141300514763
 10
0.1878181316070937
 20
0.2216813354461017
 10
0.1857335166166725
 20
0.2226107535708323
 10
0.1851179495935384
 20
0.2236453879106563
 10
0.1853099433040701
 20
0.2246106054738512
 10
0.1861344397943214
 20
0.2250851355692966
 10
0.1877136068402678
 20
0.2256832101596714
 10
0.1895920895194885
 20
0.2254919941440971
 10
0.1906455622788887
 20
0.2252824453835544
 10
0.1922088356613991
 20
0.2244241753706685
 10
0.1941402040796327
 20
0.2240400023063159
 10
0.1963169660160262
 20
0.2239718956186024
 10
0.1987796441993699
 20
0.2248659277579946
  0
LWPOLYLINE
  5
927
330
2
100
AcDbEntity
  8
Profilo
  6
Continuous
370
     0
100
AcDbPolyline
 90
        6
 70
   128
 43
0.0
 10
0.17795582828307
 20
0.220615329526121
 10
0.1792701493956597
 20
0.2221041775460918
 10
0.1809349606254309
 20
0.2229799728112333
 10
0.1824245242078661
 20
0.2234178671681629
 10
0.1837388453204558
 20
0.2234178671681629
 10
0.184965547786867
 20
0.2234178671681629
  0
LWPOLYLINE
  5
928
330
2
100
AcDbEntity
  8
Profilo
  6
Continuous
370
     0
100
AcDbPolyline
 90
        6
 70
   128
 43
0.0
 10
0.1666454415972702
 20
0.2135246816386655
 10
0.167644048558572
 20
0.2152413331904984
 10
0.1691060117270848
 20
0.2164250888541094
 10
0.1704815248118607
 20
0.2171451686327174
 10
0.1717705916128112
 20
0.2174015799618058
 10
0.1729737233353021
 20
0.2176408977409959
  0
LWPOLYLINE
  5
929
330
2
100
AcDbEntity
  8
Profilo
  6
Continuous
370
     0
100
AcDbPolyline
 90
        6
 70
   128
 43
0.0
 10
0.1569356975998368
 20
0.2043637315814685
 10
0.1575802145043537
 20
0.2062422167087362
 10
0.1587831471869205
 20
0.2076884417045196
 10
0.1599917495775842
 20
0.2086630346427402
 10
0.1612060239526536
 20
0.2091660035573358
 10
0.1623393492538505
 20
0.209635442267674
  0
LWPOLYLINE
  5
92A
330
2
100
AcDbEntity
  8
Profilo
  6
Continuous
370
     0
100
AcDbPolyline
 90
        6
 70
   128
 43
0.0
 10
0.149199736307303
 20
0.1934845295277071
 10
0.1494653947318434
 20
0.1954526591004327
 10
0.1503630689000848
 20
0.1971057758128548
 10
0.1513583146845563
 20
0.198297428850632
 10
0.1524511327504823
 20
0.1990276265374152
 10
0.1534710985746384
 20
0.1997091459125254
  0
LWPOLYLINE
  5
92B
330
2
100
AcDbEntity
  8
Profilo
  6
Continuous
370
     0
100
AcDbPolyline
 90
        6
 70
   128
 43
0.0
 10
0.1437348463737629
 20
0.1813051571111796
 10
0.1436114372140538
 20
0.1832872970136264
 10
0.1441693557531072
 20
0.1850837770945052
 10
0.1449129981940289
 20
0.1864466956738816
 10
0.1458423635653969
 20
0.1873760610452514
 10
0.146709773197895
 20
0.1882434706777477
  0
LWPOLYLINE
  5
92C
330
2
100
AcDbEntity
  8
Profilo
  6
Continuous
370
     0
100
AcDbPolyline
 90
        6
 70
   128
 43
0.0
 10
0.1407510404546177
 20
0.1682936607835831
 10
0.1402433062554587
 20
0.1702136384908947
 10
0.140440028668753
 20
0.172084444218202
 10
0.1409034900041584
 20
0.1735662521425073
 10
0.1416336876909434
 20
0.1746590702084333
 10
0.1423152070660518
 20
0.1756790360325912
  0
LWPOLYLINE
  5
92D
330
2
100
AcDbEntity
  8
Profilo
  6
Continuous
370
     0
100
AcDbPolyline
 90
        6
 70
   128
 43
0.0
 10
0.1403629845380032
 20
0.154950065051857
 10
0.1394904372399268
 20
0.156734096897479
 10
0.1393184035954413
 20
0.1586073342562727
 10
0.139483873266125
 20
0.1601510864779815
 10
0.1399868421807207
 20
0.1613653608530509
 10
0.140456280891057
 20
0.1624986861542496
  0
LWPOLYLINE
  5
92E
330
2
100
AcDbEntity
  8
Profilo
  6
Continuous
370
     0
100
AcDbPolyline
 90
        6
 70
   128
 43
0.0
 10
0.1425855913951683
 20
0.1417871568167953
 10
0.1413817625015121
 20
0.1433666834573962
 10
0.1408475839557259
 20
0.145170364986502
 10
0.1407087030550387
 20
0.1467167359734812
 10
0.1409651143841253
 20
0.1480058027744334
 10
0.1412044321633155
 20
0.1492089344969226
  0
LWPOLYLINE
  5
92F
330
2
100
AcDbEntity
  8
Profilo
  6
Continuous
370
     0
100
AcDbPolyline
 90
        6
 70
   128
 43
0.0
 10
0.147333447491047
 20
0.1293107792600278
 10
0.1458445994710762
 20
0.1306251003726174
 10
0.1449688042059347
 20
0.1322899116023887
 10
0.1445309098490051
 20
0.1337794751848257
 10
0.1445309098490051
 20
0.1350937962974136
 10
0.1445309098490051
 20
0.1363204987638248
  0
LWPOLYLINE
  5
930
330
2
100
AcDbEntity
  8
Profilo
  6
Continuous
370
     0
100
AcDbPolyline
 90
        6
 70
   128
 43
0.0
 10
0.1544240953785025
 20
0.1180003925742298
 10
0.1527074438266696
 20
0.1189989995355315
 10
0.1515236881630604
 20
0.1204609627040444
 10
0.1508036083844506
 20
0.1218364757888185
 10
0.1505471970553622
 20
0.1231255425897707
 10
0.1503078792761738
 20
0.1243286743122599
  0
LWPOLYLINE
  5
931
330
2
100
AcDbEntity
  8
Profilo
  6
Continuous
370
     0
100
AcDbPolyline
 90
        6
 70
   128
 43
0.0
 10
0.1635850454356995
 20
0.1082906485767964
 10
0.1617065603084336
 20
0.1089351654813114
 10
0.1602603353126502
 20
0.1101380981638783
 10
0.1592857423744278
 20
0.111346700554542
 10
0.1587827734598322
 20
0.1125609749296114
 10
0.1583133347494958
 20
0.11369430023081
  0
LWPOLYLINE
  5
932
330
2
100
AcDbEntity
  8
Profilo
  6
Continuous
370
     0
100
AcDbPolyline
 90
        6
 70
   128
 43
0.0
 10
0.1744642474894626
 20
0.1005546872842608
 10
0.1724961179167352
 20
0.1008203457088012
 10
0.1708430012043149
 20
0.1017180198770425
 10
0.1696513481665378
 20
0.1027132656615141
 10
0.1689211504797528
 20
0.10380608372744
 10
0.1682396311046443
 20
0.1048260495515979
  0
LWPOLYLINE
  5
933
330
2
100
AcDbEntity
  8
Profilo
  6
Continuous
370
     0
100
AcDbPolyline
 90
        6
 70
   128
 43
0.0
 10
0.1866436199059884
 20
0.0950897973507207
 10
0.1846614800035433
 20
0.0949663881910116
 10
0.1828649999226646
 20
0.0955243067300668
 10
0.1815020813432864
 20
0.0962679491709867
 10
0.1805727159719184
 20
0.0971973145423547
 10
0.1797053063394203
 20
0.0980647241748528
  0
LWPOLYLINE
  5
934
330
2
100
AcDbEntity
  8
Profilo
  6
Continuous
370
     0
100
AcDbPolyline
 90
        6
 70
   128
 43
0.0
 10
0.1996551162335849
 20
0.0921059914315755
 10
0.1977351385262733
 20
0.0915982572324182
 10
0.195864332798966
 20
0.0917949796457108
 10
0.1943825248746607
 20
0.0922584409811162
 10
0.1932897068087347
 20
0.0929886386679012
 10
0.1922697409845786
 20
0.0936701580430096
  0
LWPOLYLINE
  5
935
330
2
100
AcDbEntity
  8
Profilo
  6
Continuous
370
     0
100
AcDbPolyline
 90
        6
 70
   128
 43
0.0
 10
0.2129987119653109
 20
0.091717935514961
 10
0.2112146801196908
 20
0.0908453882168846
 10
0.2093414427608971
 20
0.0906733545723991
 10
0.2077976905391865
 20
0.0908388242430828
 10
0.2065834161641171
 20
0.0913417931576785
 10
0.2054500908629202
 20
0.0918112318680148
  0
LWPOLYLINE
  5
936
330
2
100
AcDbEntity
  8
Profilo
  6
Continuous
370
     0
100
AcDbPolyline
 90
        6
 70
   128
 43
0.0
 10
0.2261616202003727
 20
0.0939405423721279
 10
0.2245820935597735
 20
0.0927367134784699
 10
0.2227784120306677
 20
0.0922025349326838
 10
0.2212320410436868
 20
0.0920636540319965
 10
0.2199429742427363
 20
0.0923200653610849
 10
0.2187398425202454
 20
0.0925593831402751
  0
LWPOLYLINE
  5
937
330
2
100
AcDbEntity
  8
Profilo
  6
Continuous
370
     0
100
AcDbPolyline
 90
        6
 70
   128
 43
0.0
 10
0.2386379977571402
 20
0.0986883984680066
 10
0.2373236766445506
 20
0.097199550448034
 10
0.2356588654147793
 20
0.0963237551828925
 10
0.2341693018323441
 20
0.0958858608259629
 10
0.2328549807197544
 20
0.0958858608259629
 10
0.2316282782533432
 20
0.0958858608259629
  0
LWPOLYLINE
  5
938
330
2
100
AcDbEntity
  8
Profilo
  6
Continuous
370
     0
100
AcDbPolyline
 90
        6
 70
   128
 43
0.0
 10
0.24994838444294
 20
0.1057790463554603
 10
0.2489497774816365
 20
0.1040623948036273
 10
0.2474878143131254
 20
0.1028786391400182
 10
0.2461123012283495
 20
0.1021585593614084
 10
0.2448232344273991
 20
0.1019021480323218
 10
0.2436201027049081
 20
0.1016628302531316
  0
LWPOLYLINE
  5
939
330
2
100
AcDbEntity
  8
Profilo
  6
Continuous
370
     0
100
AcDbPolyline
 90
        6
 70
   128
 43
0.0
 10
0.2596581284403734
 20
0.1149399964126573
 10
0.2590136115358566
 20
0.1130615112853913
 10
0.2578106788532897
 20
0.1116152862896079
 10
0.256602076462626
 20
0.1106406933513856
 10
0.2553878020875566
 20
0.1101377244367899
 10
0.2542544767863597
 20
0.1096682857264536
  0
LWPOLYLINE
  5
93A
330
2
100
AcDbEntity
  8
Profilo
  6
Continuous
370
     0
100
AcDbPolyline
 90
        6
 70
   128
 43
0.0
 10
0.2673940897329072
 20
0.1258191984664204
 10
0.2671284313083668
 20
0.123851068893693
 10
0.2662307571401254
 20
0.1221979521812727
 10
0.2652355113556539
 20
0.1210062991434956
 10
0.2641426932897279
 20
0.1202761014567105
 10
0.2631227274655719
 20
0.1195945820816021
  0
LWPOLYLINE
  5
93B
330
2
100
AcDbEntity
  8
Profilo
  6
Continuous
370
     0
100
AcDbPolyline
 90
        6
 70
   128
 43
0.0
 10
0.2728589796664473
 20
0.137998570882948
 10
0.2729823888261564
 20
0.1360164309805011
 10
0.272424470287103
 20
0.1342199508996223
 10
0.2716808278461813
 20
0.1328570323202441
 10
0.2707514624748133
 20
0.1319276669488761
 10
0.2698840528423152
 20
0.131060257316378
  0
LWPOLYLINE
  5
93C
330
2
100
AcDbEntity
  8
Profilo
  6
Continuous
370
     0
100
AcDbPolyline
 90
        6
 70
   128
 43
0.0
 10
0.2758427855855925
 20
0.1510100672105427
 10
0.2763505197847516
 20
0.1490900895032311
 10
0.2761537973714572
 20
0.1472192837759237
 10
0.2756903360360519
 20
0.1457374758516184
 10
0.2749601383492686
 20
0.1446446577856942
 10
0.2742786189741584
 20
0.1436246919615364
  0
LWPOLYLINE
  5
93D
330
2
100
AcDbEntity
  8
Profilo
  6
Continuous
370
     0
100
AcDbPolyline
 90
        6
 70
   128
 43
0.0
 10
0.276230841502207
 20
0.1643536629422705
 10
0.2771033888002834
 20
0.1625696310966486
 10
0.2772754224447689
 20
0.1606963937378548
 10
0.2771099527740852
 20
0.1591526415161443
 10
0.2766069838594896
 20
0.1579383671410767
 10
0.2761375451491532
 20
0.156805041839878
  0
LWPOLYLINE
  5
93E
330
2
100
AcDbEntity
  8
Profilo
  6
Continuous
370
     0
100
AcDbPolyline
 90
        6
 70
   128
 43
0.0
 10
0.2740082346450419
 20
0.1775165711773304
 10
0.2752120635386999
 20
0.1759370445367313
 10
0.2757462420844843
 20
0.1741333630076255
 10
0.2758851229851715
 20
0.1725869920206445
 10
0.2756287116560849
 20
0.1712979252196941
 10
0.2753893938768948
 20
0.1700947934972031
  0
LWPOLYLINE
  5
93F
330
2
100
AcDbEntity
  8
Profilo
  6
Continuous
370
     0
100
AcDbPolyline
 90
        6
 70
   128
 43
0.0
 10
0.2692603785491632
 20
0.189992948734098
 10
0.270749226569134
 20
0.1886786276215083
 10
0.2716250218342755
 20
0.1870138163917371
 10
0.2720629161912051
 20
0.1855242528093018
 10
0.2720629161912051
 20
0.1842099316967122
 10
0.2720629161912051
 20
0.182983229230301
  0
LWPOLYLINE
  5
940
330
2
100
AcDbEntity
  8
Profilo
  6
Continuous
370
     0
100
AcDbPolyline
 90
        6
 70
   128
 43
0.0
 10
0.2621697306617077
 20
0.2013033354198978
 10
0.2638863822135407
 20
0.2003047284585961
 10
0.2650701378771498
 20
0.1988427652900832
 10
0.2657902176557596
 20
0.1974672522053073
 10
0.266046628984848
 20
0.1961781854043568
 10
0.2662859467640382
 20
0.1949750536818659
  0
LWPOLYLINE
  5
941
330
2
100
AcDbEntity
  8
Profilo
  6
Continuous
370
     0
100
AcDbPolyline
 90
        6
 70
   128
 43
0.0
 10
0.2530087806045107
 20
0.2110130794173312
 10
0.2548872657317767
 20
0.2103685625128143
 10
0.2563334907275601
 20
0.2091656298302475
 10
0.2573080836657824
 20
0.2079570274395838
 10
0.2578110525803781
 20
0.2067427530645162
 10
0.2582804912907144
 20
0.2056094277633175
  0
LWPOLYLINE
  5
942
330
2
100
AcDbEntity
  8
Profilo
  6
Continuous
370
     0
100
AcDbPolyline
 90
        6
 70
   128
 43
0.0
 10
0.2421295785507476
 20
0.218749040709865
 10
0.244097708123475
 20
0.2184833822853264
 10
0.245750824835897
 20
0.2175857081170832
 10
0.2469424778736742
 20
0.2165904623326135
 10
0.2476726755604575
 20
0.2154976442666875
 10
0.2483541949355676
 20
0.2144776784425296
  0
LWPOLYLINE
  5
943
330
2
100
AcDbEntity
  8
Profilo
  6
Continuous
370
     0
100
AcDbPolyline
 90
        6
 70
   128
 43
0.0
 10
0.2299502061342218
 20
0.2242139306434051
 10
0.2319323460366669
 20
0.2243373398031142
 10
0.2337288261175474
 20
0.2237794212640608
 10
0.2350917446969238
 20
0.2230357788231409
 10
0.2360211100682918
 20
0.2221064134517711
 10
0.2368885197007899
 20
0.2212390038192748
  0
LWPOLYLINE
  5
944
330
2
100
AcDbEntity
  8
Profilo
  6
Continuous
370
     0
100
AcDbPolyline
 90
        6
 70
   128
 43
0.0
 10
0.2169387098066253
 20
0.2271977365625503
 10
0.2188586875139369
 20
0.2277054707617093
 10
0.2207294932412442
 20
0.2275087483484167
 10
0.2222113011655495
 20
0.2270452870130097
 10
0.2233041192314755
 20
0.2263150893262264
 10
0.2243240850556316
 20
0.2256335699511162
  0
LWPOLYLINE
  5
945
330
2
100
AcDbEntity
  8
Profilo
  6
Continuous
370
     0
100
AcDbPolyline
 90
        6
 70
   128
 43
0.0
 10
0.2035951140748993
 20
0.2275857924791666
 10
0.2053791459205194
 20
0.2284583397772412
 10
0.2072523832793132
 20
0.2286303734217267
 10
0.2087961355010237
 20
0.2284649037510448
 10
0.2100104098760931
 20
0.2279619348364491
 10
0.21114373517729
 20
0.227492496126111
  0
LWPOLYLINE
  5
946
330
2
100
AcDbEntity
  8
Profilo
  6
Continuous
370
     0
100
AcDbPolyline
 90
        6
 70
   128
 43
0.0
 10
0.1904322058398376
 20
0.2253631856219997
 10
0.1920117324804367
 20
0.2265670145156577
 10
0.1938154140095425
 20
0.2271011930614438
 10
0.1953617849965235
 20
0.2272400739621293
 10
0.1966508517974739
 20
0.2269836626330427
 10
0.1978539835199649
 20
0.2267443448538525
  0
CIRCLE
  5
947
330
2
100
AcDbEntity
  8
Profilo
  6
Continuous
370
     0
100
AcDbCircle
 10
0.1693482787245668
 20
0.1924506695375982
 30
0.0
 40
0.0021759683697563
  0
CIRCLE
  5
948
330
2
100
AcDbEntity
  8
Profilo
  6
Continuous
370
     0
100
AcDbCircle
 10
0.1665650122140154
 20
0.1888273025282
 30
0.0
 40
0.0021759683697563
  0
CIRCLE
  5
949
330
2
100
AcDbEntity
  8
Profilo
  6
Continuous
370
     0
100
AcDbCircle
 10
0.1641177464307941
 20
0.184969032042629
 30
0.0
 40
0.0021759683697563
  0
CIRCLE
  5
94A
330
2
100
AcDbEntity
  8
Profilo
  6
Continuous
370
     0
100
AcDbCircle
 10
0.162026185320022
 20
0.1809069226062089
 30
0.0
 40
0.0021759683697563
  0
CIRCLE
  5
94B
330
2
100
AcDbEntity
  8
Profilo
  6
Continuous
370
     0
100
AcDbCircle
 10
0.1603071689019431
 20
0.1766736799356398
 30
0.0
 40
0.0021759683697563
  0
CIRCLE
  5
94C
330
2
100
AcDbEntity
  8
Profilo
  6
Continuous
370
     0
100
AcDbCircle
 10
0.158974537685991
 20
0.1723033876118002
 30
0.0
 40
0.0021759683697563
  0
CIRCLE
  5
94D
330
2
100
AcDbEntity
  8
Profilo
  6
Continuous
370
     0
100
AcDbCircle
 10
0.1580390212351426
 20
0.1678312326587882
 30
0.0
 40
0.0021759683697563
  0
CIRCLE
  5
94E
330
2
100
AcDbEntity
  8
Profilo
  6
Continuous
370
     0
100
AcDbCircle
 10
0.1575081517777854
 20
0.1632932222387037
 30
0.0
 40
0.0021759683697563
  0
CIRCLE
  5
94F
330
2
100
AcDbEntity
  8
Profilo
  6
Continuous
370
     0
100
AcDbCircle
 10
0.1573862035626417
 20
0.1587258937431425
 30
0.0
 40
0.0021759683697563
  0
CIRCLE
  5
950
330
2
100
AcDbEntity
  8
Profilo
  6
Continuous
370
     0
100
AcDbCircle
 10
0.1576741584450372
 20
0.1541660206156038
 30
0.0
 40
0.0021759683697563
  0
CIRCLE
  5
951
330
2
100
AcDbEntity
  8
Profilo
  6
Continuous
370
     0
100
AcDbCircle
 10
0.1583696979815756
 20
0.1496503162733486
 30
0.0
 40
0.0021759683697563
  0
CIRCLE
  5
952
330
2
100
AcDbEntity
  8
Profilo
  6
Continuous
370
     0
100
AcDbCircle
 10
0.1594672220968758
 20
0.1452151385125496
 30
0.0
 40
0.0021759683697563
  0
CIRCLE
  5
953
330
2
100
AcDbEntity
  8
Profilo
  6
Continuous
370
     0
100
AcDbCircle
 10
0.1609578941720966
 20
0.1408961967766945
 30
0.0
 40
0.0021759683697563
  0
CIRCLE
  5
954
330
2
100
AcDbEntity
  8
Profilo
  6
Continuous
370
     0
100
AcDbCircle
 10
0.1628297121921887
 20
0.136728264645145
 30
0.0
 40
0.0021759683697563
  0
CIRCLE
  5
955
330
2
100
AcDbEntity
  8
Profilo
  6
Continuous
370
     0
100
AcDbCircle
 10
0.1650676053790669
 20
0.1327448998567181
 30
0.0
 40
0.0021759683697563
  0
CIRCLE
  5
956
330
2
100
AcDbEntity
  8
Profilo
  6
Continuous
370
     0
100
AcDbCircle
 10
0.1676535555326475
 20
0.1289781741225105
 30
0.0
 40
0.0021759683697563
  0
CIRCLE
  5
957
330
2
100
AcDbEntity
  8
Profilo
  6
Continuous
370
     0
100
AcDbCircle
 10
0.1705667421028125
 20
0.125458414903337
 30
0.0
 40
0.0021759683697563
  0
CIRCLE
  5
958
330
2
100
AcDbEntity
  8
Profilo
  6
Continuous
370
     0
100
AcDbCircle
 10
0.1737837098242214
 20
0.1222139612308431
 30
0.0
 40
0.0021759683697563
  0
CIRCLE
  5
959
330
2
100
AcDbEntity
  8
Profilo
  6
Continuous
370
     0
100
AcDbCircle
 10
0.1772785575643287
 20
0.1192709355382909
 30
0.0
 40
0.0021759683697563
  0
CIRCLE
  5
95A
330
2
100
AcDbEntity
  8
Profilo
  6
Continuous
370
     0
100
AcDbCircle
 10
0.1810231468640677
 20
0.1166530333380876
 30
0.0
 40
0.0021759683697563
  0
CIRCLE
  5
95B
330
2
100
AcDbEntity
  8
Profilo
  6
Continuous
370
     0
100
AcDbCircle
 10
0.184987328492181
 20
0.1143813324394486
 30
0.0
 40
0.0021759683697563
  0
CIRCLE
  5
95C
330
2
100
AcDbEntity
  8
Profilo
  6
Continuous
370
     0
100
AcDbCircle
 10
0.1891391851890991
 20
0.1124741232422707
 30
0.0
 40
0.0021759683697563
  0
CIRCLE
  5
95D
330
2
100
AcDbEntity
  8
Profilo
  6
Continuous
370
     0
100
AcDbCircle
 10
0.1934452886459508
 20
0.1109467614735869
 30
0.0
 40
0.0021759683697563
  0
CIRCLE
  5
95E
330
2
100
AcDbEntity
  8
Profilo
  6
Continuous
370
     0
100
AcDbCircle
 10
0.1978709686496498
 20
0.109811544552285
 30
0.0
 40
0.0021759683697563
  0
CIRCLE
  5
95F
330
2
100
AcDbEntity
  8
Profilo
  6
Continuous
370
     0
100
AcDbCircle
 10
0.2023805922270641
 20
0.1090776125775189
 30
0.0
 40
0.0021759683697563
  0
CIRCLE
  5
960
330
2
100
AcDbEntity
  8
Profilo
  6
Continuous
370
     0
100
AcDbCircle
 10
0.2069378505407635
 20
0.1087508747380056
 30
0.0
 40
0.0021759683697563
  0
CIRCLE
  5
961
330
2
100
AcDbEntity
  8
Profilo
  6
Continuous
370
     0
100
AcDbCircle
 10
0.2115060512264297
 20
0.1088339617347106
 30
0.0
 40
0.0021759683697563
  0
CIRCLE
  5
962
330
2
100
AcDbEntity
  8
Profilo
  6
Continuous
370
     0
100
AcDbCircle
 10
0.2160484138182022
 20
0.1093262045999882
 30
0.0
 40
0.0021759683697563
  0
CIRCLE
  5
963
330
2
100
AcDbEntity
  8
Profilo
  6
Continuous
370
     0
100
AcDbCircle
 10
0.2205283658833559
 20
0.110223640083721
 30
0.0
 40
0.0021759683697563
  0
CIRCLE
  5
964
330
2
100
AcDbEntity
  8
Profilo
  6
Continuous
370
     0
100
AcDbCircle
 10
0.2249098374820346
 20
0.11151904256308
 30
0.0
 40
0.0021759683697563
  0
CIRCLE
  5
965
330
2
100
AcDbEntity
  8
Profilo
  6
Continuous
370
     0
100
AcDbCircle
 10
0.2291575515811854
 20
0.1132019822189857
 30
0.0
 40
0.0021759683697563
  0
CIRCLE
  5
966
330
2
100
AcDbEntity
  8
Profilo
  6
Continuous
370
     0
100
AcDbCircle
 10
0.2332373080844996
 20
0.1152589090108801
 30
0.0
 40
0.0021759683697563
  0
CIRCLE
  5
967
330
2
100
AcDbEntity
  8
Profilo
  6
Continuous
370
     0
100
AcDbCircle
 10
0.2371162591914708
 20
0.1176732617736874
 30
0.0
 40
0.0021759683697563
  0
CIRCLE
  5
968
330
2
100
AcDbEntity
  8
Profilo
  6
Continuous
370
     0
100
AcDbCircle
 10
0.2407631738685709
 20
0.1204256015585802
 30
0.0
 40
0.0021759683697563
  0
CIRCLE
  5
969
330
2
100
AcDbEntity
  8
Profilo
  6
Continuous
370
     0
100
AcDbCircle
 10
0.2441486893031723
 20
0.1234937681439575
 30
0.0
 40
0.0021759683697563
  0
CIRCLE
  5
96A
330
2
100
AcDbEntity
  8
Profilo
  6
Continuous
370
     0
100
AcDbCircle
 10
0.2472455473156452
 20
0.1268530584565294
 30
0.0
 40
0.0021759683697563
  0
CIRCLE
  5
96B
330
2
100
AcDbEntity
  8
Profilo
  6
Continuous
370
     0
100
AcDbCircle
 10
0.2500288138261948
 20
0.1304764254659275
 30
0.0
 40
0.0021759683697563
  0
CIRCLE
  5
96C
330
2
100
AcDbEntity
  8
Profilo
  6
Continuous
370
     0
100
AcDbCircle
 10
0.2524760796094161
 20
0.1343346959514985
 30
0.0
 40
0.0021759683697563
  0
CIRCLE
  5
96D
330
2
100
AcDbEntity
  8
Profilo
  6
Continuous
370
     0
100
AcDbCircle
 10
0.2545676407201882
 20
0.1383968053879186
 30
0.0
 40
0.0021759683697563
  0
CIRCLE
  5
96E
330
2
100
AcDbEntity
  8
Profilo
  6
Continuous
370
     0
100
AcDbCircle
 10
0.2562866571382671
 20
0.1426300480584878
 30
0.0
 40
0.0021759683697563
  0
CIRCLE
  5
96F
330
2
100
AcDbEntity
  8
Profilo
  6
Continuous
370
     0
100
AcDbCircle
 10
0.2576192883542192
 20
0.1470003403823273
 30
0.0
 40
0.0021759683697563
  0
CIRCLE
  5
970
330
2
100
AcDbEntity
  8
Profilo
  6
Continuous
370
     0
100
AcDbCircle
 10
0.2585548048050676
 20
0.1514724953353393
 30
0.0
 40
0.0021759683697563
  0
CIRCLE
  5
971
330
2
100
AcDbEntity
  8
Profilo
  6
Continuous
370
     0
100
AcDbCircle
 10
0.2590856742624266
 20
0.1560105057554221
 30
0.0
 40
0.0021759683697563
  0
CIRCLE
  5
972
330
2
100
AcDbEntity
  8
Profilo
  6
Continuous
370
     0
100
AcDbCircle
 10
0.2592076224775686
 20
0.160577834250985
 30
0.0
 40
0.0021759683697563
  0
CIRCLE
  5
973
330
2
100
AcDbEntity
  8
Profilo
  6
Continuous
370
     0
100
AcDbCircle
 10
0.258919667595173
 20
0.1651377073785237
 30
0.0
 40
0.0021759683697563
  0
CIRCLE
  5
974
330
2
100
AcDbEntity
  8
Profilo
  6
Continuous
370
     0
100
AcDbCircle
 10
0.2582241280586364
 20
0.169653411720779
 30
0.0
 40
0.0021759683697563
  0
CIRCLE
  5
975
330
2
100
AcDbEntity
  8
Profilo
  6
Continuous
370
     0
100
AcDbCircle
 10
0.2571266039433362
 20
0.1740885894815779
 30
0.0
 40
0.0021759683697563
  0
CIRCLE
  5
976
330
2
100
AcDbEntity
  8
Profilo
  6
Continuous
370
     0
100
AcDbCircle
 10
0.2556359318681154
 20
0.178407531217433
 30
0.0
 40
0.0021759683697563
  0
CIRCLE
  5
977
330
2
100
AcDbEntity
  8
Profilo
  6
Continuous
370
     0
100
AcDbCircle
 10
0.2537641138480215
 20
0.1825754633489826
 30
0.0
 40
0.0021759683697563
  0
CIRCLE
  5
978
330
2
100
AcDbEntity
  8
Profilo
  6
Continuous
370
     0
100
AcDbCircle
 10
0.251526220661145
 20
0.1865588281374077
 30
0.0
 40
0.0021759683697563
  0
CIRCLE
  5
979
330
2
100
AcDbEntity
  8
Profilo
  6
Continuous
370
     0
100
AcDbCircle
 10
0.2489402705075627
 20
0.1903255538716152
 30
0.0
 40
0.0021759683697563
  0
CIRCLE
  5
97A
330
2
100
AcDbEntity
  8
Profilo
  6
Continuous
370
     0
100
AcDbCircle
 10
0.2460270839373977
 20
0.1938453130907906
 30
0.0
 40
0.0021759683697563
  0
CIRCLE
  5
97B
330
2
100
AcDbEntity
  8
Profilo
  6
Continuous
370
     0
100
AcDbCircle
 10
0.2428101162159888
 20
0.1970897667632844
 30
0.0
 40
0.0021759683697563
  0
CIRCLE
  5
97C
330
2
100
AcDbEntity
  8
Profilo
  6
Continuous
370
     0
100
AcDbCircle
 10
0.2393152684758815
 20
0.2000327924558366
 30
0.0
 40
0.0021759683697563
  0
CIRCLE
  5
97D
330
2
100
AcDbEntity
  8
Profilo
  6
Continuous
370
     0
100
AcDbCircle
 10
0.2355706791761425
 20
0.2026506946560381
 30
0.0
 40
0.0021759683697563
  0
CIRCLE
  5
97E
330
2
100
AcDbEntity
  8
Profilo
  6
Continuous
370
     0
100
AcDbCircle
 10
0.2316064975480292
 20
0.2049223955546772
 30
0.0
 40
0.0021759683697563
  0
CIRCLE
  5
97F
330
2
100
AcDbEntity
  8
Profilo
  6
Continuous
370
     0
100
AcDbCircle
 10
0.2274546408511111
 20
0.2068296047518569
 30
0.0
 40
0.0021759683697563
  0
CIRCLE
  5
980
330
2
100
AcDbEntity
  8
Profilo
  6
Continuous
370
     0
100
AcDbCircle
 10
0.2231485373942594
 20
0.2083569665205406
 30
0.0
 40
0.0021759683697563
  0
CIRCLE
  5
981
330
2
100
AcDbEntity
  8
Profilo
  6
Continuous
370
     0
100
AcDbCircle
 10
0.2187228573905604
 20
0.2094921834418425
 30
0.0
 40
0.0021759683697563
  0
CIRCLE
  5
982
330
2
100
AcDbEntity
  8
Profilo
  6
Continuous
370
     0
100
AcDbCircle
 10
0.2142132338131462
 20
0.2102261154166068
 30
0.0
 40
0.0021759683697563
  0
CIRCLE
  5
983
330
2
100
AcDbEntity
  8
Profilo
  6
Continuous
370
     0
100
AcDbCircle
 10
0.2096559754994485
 20
0.2105528532561202
 30
0.0
 40
0.0021759683697563
  0
CIRCLE
  5
984
330
2
100
AcDbEntity
  8
Profilo
  6
Continuous
370
     0
100
AcDbCircle
 10
0.2050877748137805
 20
0.210469766259417
 30
0.0
 40
0.0021759683697563
  0
CIRCLE
  5
985
330
2
100
AcDbEntity
  8
Profilo
  6
Continuous
370
     0
100
AcDbCircle
 10
0.2005454122220081
 20
0.2099775233941393
 30
0.0
 40
0.0021759683697563
  0
CIRCLE
  5
986
330
2
100
AcDbEntity
  8
Profilo
  6
Continuous
370
     0
100
AcDbCircle
 10
0.1960654601568543
 20
0.2090800879104048
 30
0.0
 40
0.0021759683697563
  0
CIRCLE
  5
987
330
2
100
AcDbEntity
  8
Profilo
  6
Continuous
370
     0
100
AcDbCircle
 10
0.1916839885581756
 20
0.2077846854310458
 30
0.0
 40
0.0021759683697563
  0
CIRCLE
  5
988
330
2
100
AcDbEntity
  8
Profilo
  6
Continuous
370
     0
100
AcDbCircle
 10
0.1874362744590248
 20
0.2061017457751401
 30
0.0
 40
0.0021759683697563
  0
CIRCLE
  5
989
330
2
100
AcDbEntity
  8
Profilo
  6
Continuous
370
     0
100
AcDbCircle
 10
0.1833565179557106
 20
0.2040448189832475
 30
0.0
 40
0.0021759683697563
  0
CIRCLE
  5
98A
330
2
100
AcDbEntity
  8
Profilo
  6
Continuous
370
     0
100
AcDbCircle
 10
0.1794775668487394
 20
0.2016304662204384
 30
0.0
 40
0.0021759683697563
  0
CIRCLE
  5
98B
330
2
100
AcDbEntity
  8
Profilo
  6
Continuous
370
     0
100
AcDbCircle
 10
0.1758306521716393
 20
0.1988781264355474
 30
0.0
 40
0.0021759683697563
  0
CIRCLE
  5
98C
330
2
100
AcDbEntity
  8
Profilo
  6
Continuous
370
     0
100
AcDbCircle
 10
0.1724451367370379
 20
0.1958099598501682
 30
0.0
 40
0.0021759683697563
  0
LWPOLYLINE
  5
98D
330
2
100
AcDbEntity
  8
Profilo
  6
Continuous
370
     0
100
AcDbPolyline
 90
       51
 70
   129
 43
0.0
 10
0.205027634194741
 20
0.1611976426727949
 10
0.205027634194741
 20
0.1622926242382586
 10
0.2043357352760684
 20
0.1630418224962739
 10
0.2038744676044559
 20
0.1637910174786498
 10
0.2039897858167312
 20
0.164770739033511
 10
0.205027634194741
 20
0.1654623056484045
 10
0.2063745683104803
 20
0.1655549113198095
 10
0.2079959041652022
 20
0.1654999788055921
 10
0.2097271684661597
 20
0.1656098471096698
 10
0.2113123913351758
 20
0.1653470456378038
 10
0.2122925831957922
 20
0.164540215736665
 10
0.2126961891725227
 20
0.1633299741606006
 10
0.2120042902538501
 20
0.1621773609520151
 10
0.2111970731229005
 20
0.1617739492770877
 10
0.211001907675421
 20
0.1610867556440944
 10
0.2112547348177824
 20
0.1606213360685021
 10
0.2117159973119045
 20
0.1606213360685021
 10
0.2125808761377361
 20
0.1609094877328271
 10
0.2134457497860773
 20
0.1610247510190724
 10
0.2143106234344203
 20
0.1606789677116239
 10
0.2146565728937575
 20
0.1590076795418692
 10
0.2140223304924764
 20
0.1579126979764055
 10
0.213330431573802
 20
0.1565871931140975
 10
0.2130491437744628
 20
0.1556426388503883
 10
0.2128691639021913
 20
0.1547430132906168
 10
0.2118889720415749
 20
0.1537056633682766
 10
0.2110240983932319
 20
0.1534175117039517
 10
0.2100439065326154
 20
0.1534175117039517
 10
0.2092366894016657
 20
0.1538785550219991
 10
0.2092366894016657
 20
0.1548006449337386
 10
0.2091213763668791
 20
0.1557803664886016
 10
0.2086808445386734
 20
0.1557699040884571
 10
0.2083141592359312
 20
0.1553193198949095
 10
0.2083141592359312
 20
0.1546277532800161
 10
0.2083141592359312
 20
0.1539938150326016
 10
0.2080258662939873
 20
0.1531869884071056
 10
0.2074492855875882
 20
0.1530717283965032
 10
0.2062961189973032
 20
0.1530717283965032
 10
0.2055465583837468
 20
0.1536480317251548
 10
0.2046240230405236
 20
0.1547430132906168
 10
0.2039897858167312
 20
0.1557227348454798
 10
0.2031249069909013
 20
0.1566448247572193
 10
0.2024906697671089
 20
0.1576821746795595
 10
0.2019140838832212
 20
0.1591229395524699
 10
0.2019140838832212
 20
0.1601026611073329
 10
0.2020294020954965
 20
0.1609094877328271
 10
0.2023753515548337
 20
0.1612552710402756
 10
0.2031825686857833
 20
0.1613705343265191
 10
0.2039321241218492
 20
0.1613705343265191
 10
0.2042204170637931
 20
0.1612552710402756
 10
0.2046816847354056
 20
0.1610247510190724
  0
LWPOLYLINE
  5
98E
330
2
100
AcDbEntity
  8
Profilo
  6
Continuous
370
     0
100
AcDbPolyline
 90
       20
 70
   129
 43
0.0
 10
0.2020334146494638
 20
0.1686776789870436
 10
0.2008227675764123
 20
0.1669962068467029
 10
0.1994365777391516
 20
0.1661208275880796
 10
0.197342102230563
 20
0.1664350795668529
 10
0.1955456274557759
 20
0.1680062379158208
 10
0.1947596690946196
 20
0.1706996573757728
 10
0.195433343252049
 20
0.1723830424909675
 10
0.1967807019218832
 20
0.1738419740737086
 10
0.1982403396179575
 20
0.1750764586752783
 10
0.2002613724452211
 20
0.1764231667674355
 10
0.2021701262462465
 20
0.1772087475797391
 10
0.2039666010210355
 20
0.1773209710703249
 10
0.2056507967695844
 20
0.1770965208135123
 10
0.2068858712356918
 20
0.1760864897443962
 10
0.207671829596848
 20
0.1744031046292015
 10
0.207671829596848
 20
0.1727197195140068
 10
0.2072227134918951
 20
0.1709241076325853
 10
0.2060999128745355
 20
0.1700263033296959
 10
0.2046402803559517
 20
0.1699140765634691
 10
0.203351215034655
 20
0.1695299616948173
  0
LWPOLYLINE
  5
98F
330
2
100
AcDbEntity
  8
Profilo
  6
Continuous
370
     0
100
AcDbPolyline
 90
       20
 70
   129
 43
0.0
 10
0.1973485787636027
 20
0.1587404227865171
 10
0.1981994528163669
 20
0.1568512355960653
 10
0.1982644585736524
 20
0.1552130703532185
 10
0.1969450706225513
 20
0.1535563273445625
 10
0.194686170191583
 20
0.1527861137268228
 10
0.1919606213356393
 20
0.1534521635497213
 10
0.1908396041402409
 20
0.1548772750415249
 10
0.1902498116621225
 20
0.1567735876689816
 10
0.1899105354846182
 20
0.1586549132948874
 10
0.1897547684789616
 20
0.1610785331112584
 10
0.190028812439293
 20
0.1631243527986704
 10
0.1908298614329387
 20
0.164736257336186
 10
0.1918663389314976
 20
0.1660825885109695
 10
0.1933585887290197
 20
0.1666471788396272
 10
0.1952094221837073
 20
0.1664861461891064
 10
0.1966672764578186
 20
0.1656444536315099
 10
0.1979977639099908
 20
0.1643577017346608
 10
0.1982138849352411
 20
0.1629364257251978
 10
0.1975812599064857
 20
0.1616162335008017
 10
0.1972693804800607
 20
0.1603078127510965
  0
LWPOLYLINE
  5
990
330
2
100
AcDbEntity
  8
Profilo
  6
Continuous
370
     0
100
AcDbPolyline
 90
       20
 70
   129
 43
0.0
 10
0.203612077134244
 20
0.1497146077965347
 10
0.2056735982600615
 20
0.1495068927464252
 10
0.2071247938546059
 20
0.1487441067622018
 10
0.2078998814120934
 20
0.1467731117747742
 10
0.2074374557559122
 20
0.1444317398080667
 10
0.205497865261123
 20
0.1424043701710115
 10
0.2037031739082988
 20
0.1421460965476203
 10
0.2017660227603444
 20
0.1425834775923377
 10
0.1999671088867658
 20
0.143230318616672
 10
0.1977903090538455
 20
0.1443072303408875
 10
0.1961555992131516
 20
0.1455674692159942
 10
0.1951601734320083
 20
0.1470671502629258
 10
0.1945124551820201
 20
0.14863793169452
 10
0.1947696305134312
 20
0.1502125530922939
 10
0.1958345056069661
 20
0.1517349055569678
 10
0.1972923598810756
 20
0.152576598114566
 10
0.1990719634382008
 20
0.1530854580991402
 10
0.2004108850808106
 20
0.1525619863925666
 10
0.2012378925706391
 20
0.1513540209343972
 10
0.2022150784655108
 20
0.1504297150533421
  0
LWPOLYLINE
  5
991
330
2
100
AcDbEntity
  8
Profilo
  6
Continuous
370
     0
100
AcDbPolyline
 90
       20
 70
   129
 43
0.0
 10
0.2145604113907464
 20
0.1506260490070822
 10
0.2157710584637997
 20
0.1523075211474228
 10
0.2171572483010586
 20
0.153182900406048
 10
0.2192517238096472
 20
0.1528686484272746
 10
0.2210481985844344
 20
0.1512974900783067
 10
0.2218341569455906
 20
0.148604070618353
 10
0.2211604827881612
 20
0.1469206855031583
 10
0.219813124118327
 20
0.1454617539204189
 10
0.2183534864222527
 20
0.1442272693188474
 10
0.2163324535949891
 20
0.142880561226692
 10
0.2144236997939637
 20
0.1420949804143866
 10
0.2126272250191765
 20
0.1419827569238027
 10
0.2109430292706276
 20
0.1422072071806134
 10
0.2097079548045184
 20
0.1432172382497313
 10
0.2089219964433622
 20
0.144900623364926
 10
0.2089219964433622
 20
0.146584008480119
 10
0.2093711125483151
 20
0.1483796203615423
 10
0.2104939131656747
 20
0.1492774246644316
 10
0.2119535456842585
 20
0.1493896514306584
 10
0.2132426110055552
 20
0.1497737662993085
  0
LWPOLYLINE
  5
992
330
2
100
AcDbEntity
  8
Profilo
  6
Continuous
370
     0
100
AcDbPolyline
 90
       20
 70
   129
 43
0.0
 10
0.2192452472766075
 20
0.1605633052076104
 10
0.2183943732238434
 20
0.1624524923980622
 10
0.2183293674665578
 20
0.164090657640909
 10
0.2196487554176589
 20
0.1657474006495651
 10
0.2219076558486273
 20
0.1665176142673047
 10
0.2246332047045727
 20
0.1658515644444044
 10
0.2257542218999693
 20
0.1644264529526026
 10
0.2263440143780877
 20
0.1625301403251441
 10
0.226683290555592
 20
0.1606488146992383
 10
0.2268390575612487
 20
0.1582251948828691
 10
0.2265650136009172
 20
0.1561793751954571
 10
0.2257639646072715
 20
0.1545674706579415
 10
0.2247274871087126
 20
0.1532211394831563
 10
0.2232352373111923
 20
0.1526565491545003
 10
0.2213844038565029
 20
0.1528175818050211
 10
0.2199265495823917
 20
0.1536592743626176
 10
0.2185960621302194
 20
0.154946026259465
 10
0.2183799411049692
 20
0.1563673022689279
 10
0.2190125661337245
 20
0.1576874944933259
 10
0.2193244455601495
 20
0.158995915243031
  0
LWPOLYLINE
  5
993
330
2
100
AcDbEntity
  8
Profilo
  6
Continuous
370
     0
100
AcDbPolyline
 90
       20
 70
   129
 43
0.0
 10
0.2129817489059662
 20
0.1695891201975911
 10
0.2109202277801487
 20
0.1697968352477023
 10
0.2094690321856043
 20
0.1705596212319257
 10
0.2086939446281169
 20
0.1725306162193533
 10
0.209156370284298
 20
0.1748719881860609
 10
0.2110959607790872
 20
0.1768993578231143
 10
0.2128906521319114
 20
0.1771576314465054
 10
0.2148278032798676
 20
0.1767202504017898
 10
0.2166267171534444
 20
0.1760734093774537
 10
0.2188035169863647
 20
0.17499649765324
 10
0.2204382268270604
 20
0.1737362587781334
 10
0.2214336526082019
 20
0.1722365777312017
 10
0.2220813708581919
 20
0.1706657962996058
 10
0.221824195526779
 20
0.1690911749018319
 10
0.2207593204332459
 20
0.167568822437158
 10
0.2193014661591346
 20
0.1667271298795615
 10
0.2175218626020094
 20
0.1662182698949873
 10
0.2161829409594014
 20
0.166741741601561
 10
0.2153559334695712
 20
0.1679497070597303
 10
0.2143787475747012
 20
0.1688740129407854
  0
LWPOLYLINE
  5
994
330
2
100
AcDbEntity
  8
Profilo
  6
Continuous
370
     0
100
AcDbPolyline
 90
       54
 70
   128
 43
0.0
 10
0.2004231379112249
 20
0.1767380968040765
 10
0.2002985519936584
 20
0.1798511489175126
 10
0.1990527342378958
 20
0.1820925461771367
 10
0.1970594216866854
 20
0.18333776833277
 10
0.1955644372732768
 20
0.1850810780403961
 10
0.1955644372732768
 20
0.1869489079982024
 10
0.1959381846710007
 20
0.1884431739298321
 10
0.1946923669152381
 20
0.1900619601116403
 10
0.1945677809976716
 20
0.1925524044229036
 10
0.1955644372732768
 20
0.1936731030527156
 10
0.1973085883443315
 20
0.1934240560010764
 10
0.198928153497818
 20
0.1921788371210859
 10
0.1999248097734232
 20
0.1908090947152757
 10
0.2007968801314619
 20
0.1913071822672719
 10
0.2005477186513045
 20
0.1928014481989017
 10
0.1995510623756993
 20
0.1939221468287137
 10
0.1981806587023685
 20
0.1956654565363415
 10
0.1970594216866854
 20
0.1974087629683282
 10
0.1970594216866854
 20
0.1994011164519524
 10
0.1976823305645667
 20
0.2007708588577625
 10
0.1991773149779754
 20
0.2010199059094035
 10
0.2009214660490284
 20
0.2005218150817662
 10
0.2024164504624371
 20
0.1987785086497794
 10
0.2030393593403184
 20
0.1995256399777737
 10
0.2044097578361605
 20
0.2015179934613997
 10
0.206652237045017
 20
0.2021406045392155
 10
0.2091438725565404
 20
0.2022651247893922
 10
0.2110126043676748
 20
0.2020160810133959
 10
0.2126321695211613
 20
0.2008953823835839
 10
0.2132550783990408
 20
0.1994011164519524
 10
0.2138779924544125
 20
0.198031374046144
 10
0.2146254820723716
 20
0.1987785086497794
 10
0.2162450472258581
 20
0.1995256399777737
 10
0.2182383597770685
 20
0.199152072675956
 10
0.2196087634503994
 20
0.1975332864941478
 10
0.2194841775328329
 20
0.1954164094847023
 10
0.2181137790369907
 20
0.1934240560010764
 10
0.2169925420213077
 20
0.1923033573712644
 10
0.2169925420213077
 20
0.19155622604327
 10
0.2181137790369907
 20
0.1923033573712644
 10
0.2196087634503994
 20
0.1925524044229036
 10
0.221103747863808
 20
0.1923033573712644
 10
0.2221003989619246
 20
0.1910581384912738
 10
0.2221003989619246
 20
0.1895638725596441
 10
0.2216020760016115
 20
0.1883186504040125
 10
0.2216020760016115
 20
0.1871979517742005
 10
0.2223495656195689
 20
0.1868243877480239
 10
0.2229724744974519
 20
0.1858282093683904
 10
0.222224984879491
 20
0.1838358558847645
 10
0.220854581206162
 20
0.1823415932287776
 10
0.2188612686549516
 20
0.1809718475473246
 10
0.2178646123793464
 20
0.1787304502877024
 10
0.2178646123793464
 20
0.1768626203298961
 10
0.2178646123793464
 20
0.1758664419502626
  0
LWPOLYLINE
  5
995
330
2
100
AcDbEntity
  8
Profilo
  6
Continuous
370
     0
100
AcDbPolyline
 90
        3
 70
   128
 43
0.0
 10
0.2060293229896453
 20
0.1774852314077119
 10
0.206652237045017
 20
0.1853301218163942
 10
0.2069911215494906
 20
0.1915964672991546
  0
LWPOLYLINE
  5
996
330
2
100
AcDbEntity
  8
Profilo
  6
Continuous
370
     0
100
AcDbPolyline
 90
        4
 70
   128
 43
0.0
 10
0.2110126043676748
 20
0.1778587954338885
 10
0.2100159480920678
 20
0.1858282093683904
 10
0.20989136735199
 20
0.19155622604327
 10
0.2098901844322281
 20
0.1915834198266815
  0
LWPOLYLINE
  5
997
330
2
100
AcDbEntity
  8
Profilo
  6
Continuous
370
     0
100
AcDbPolyline
 90
       54
 70
   128
 43
0.0
 10
0.1895629137998172
 20
0.161376091132594
 10
0.1868046386274913
 20
0.1628247226197462
 10
0.1842406227828044
 20
0.1628665114245823
 10
0.1821655724870657
 20
0.1617628631953675
 10
0.1799083297868926
 20
0.1613398235689075
 10
0.1782907415934827
 20
0.1622737385478107
 10
0.1771835430355435
 20
0.1633445462546529
 10
0.1751587242009216
 20
0.1630750295205811
 10
0.1729396432018739
 20
0.1642123571066459
 10
0.1724674178562719
 20
0.1656358360750673
 10
0.1735551744652573
 20
0.1670217916848177
 10
0.1754433482253437
 20
0.1678017668108257
 10
0.1771279080832184
 20
0.167980025261436
 10
0.1771325867889009
 20
0.1689843041213827
 10
0.1757139337920219
 20
0.1695156569157387
 10
0.1742450521708148
 20
0.1692128765771294
 10
0.1720500998406806
 20
0.1688977270363988
 10
0.1699797336761581
 20
0.1687983605131457
 10
0.1682543049460201
 20
0.1697945372549586
 10
0.1673795276648886
 20
0.1710188633703517
 10
0.1679113387981332
 20
0.1724380813764451
 10
0.1692147736437879
 20
0.1736995150981965
 10
0.1714720135071723
 20
0.174122556362477
 10
0.1711364332361076
 20
0.1750355769389639
 10
0.1700962037538898
 20
0.1772185535914822
 10
0.1706782463482512
 20
0.1794719030927187
 10
0.1718162264040743
 20
0.1816919828677598
 10
0.17296627054631
 20
0.1831858302010619
 10
0.1747466066064551
 20
0.1840280654521592
 10
0.1763521333021978
 20
0.1838203873988323
 10
0.1778498220499558
 20
0.1836749755922525
 10
0.1775765293121396
 20
0.1846958878922876
 10
0.1777392771788766
 20
0.1864720381222881
 10
0.179059452227881
 20
0.1880115137784099
 10
0.181146564021287
 20
0.1883889250820502
 10
0.182917540329369
 20
0.1872225920077607
 10
0.1839577698115868
 20
0.1850396153552406
 10
0.1843677047871499
 20
0.1835082463010899
 10
0.1850147394971544
 20
0.1831346806370927
 10
0.1849283232949905
 20
0.1844792660403346
 10
0.1854601344282369
 20
0.1858984840464281
 10
0.1864233077083992
 20
0.1870686550008823
 10
0.1880000244408007
 20
0.1873091707305651
 10
0.1892940966976018
 20
0.1865620377647502
 10
0.1901233292375779
 20
0.1855078663440149
 10
0.1910938827209816
 20
0.1849475170291089
 10
0.1917911434665691
 20
0.185408080014238
 10
0.1929653136889731
 20
0.1854494457369092
 10
0.1943169976101324
 20
0.1838059239968789
 10
0.1949258651934795
 20
0.1818719882743419
 10
0.195115443474736
 20
0.1794608561265839
 10
0.1965582223037399
 20
0.1774770278432566
 10
0.1981758104971481
 20
0.1765431128643534
 10
0.1990385262806123
 20
0.1760450236745367
  0
LWPOLYLINE
  5
998
330
2
100
AcDbEntity
  8
Profilo
  6
Continuous
370
     0
100
AcDbPolyline
 90
        3
 70
   128
 43
0.0
 10
0.1917189687922325
 20
0.1666047571306425
 10
0.1852365514360934
 20
0.171066661731308
 10
0.1799791793113703
 20
0.1744933170625119
  0
LWPOLYLINE
  5
999
330
2
100
AcDbEntity
  8
Profilo
  6
Continuous
370
     0
100
AcDbPolyline
 90
        4
 70
   128
 43
0.0
 10
0.1938870935446375
 20
0.1711071874113074
 10
0.1864870504862819
 20
0.1742287647250439
 10
0.1814641521624965
 20
0.1769848829767525
 10
0.1814400101953557
 20
0.176997455429894
  0
LWPOLYLINE
  5
99A
330
2
100
AcDbEntity
  8
Profilo
  6
Continuous
370
     0
100
AcDbPolyline
 90
       54
 70
   128
 43
0.0
 10
0.1974366889086974
 20
0.1442898583255822
 10
0.1948029996539398
 20
0.1426254376992965
 10
0.1934848015650119
 20
0.1404258292445085
 10
0.1934030638204853
 20
0.1380769588596621
 10
0.192640805533721
 20
0.1359106095255743
 10
0.191023217340311
 20
0.1349766945466711
 10
0.189542271384648
 20
0.1345532363218836
 10
0.1887632703057887
 20
0.1326649334060036
 10
0.1866687752243075
 20
0.1313118166808053
 10
0.1851998936031003
 20
0.1316145970194146
 10
0.1845434991410326
 20
0.133249599680806
 10
0.1848121077476326
 20
0.1352747936868027
 10
0.1855000113299021
 20
0.1368227945432249
 10
0.1846326196775441
 20
0.1373289858511736
 10
0.1834631281608226
 20
0.1363660727138999
 10
0.1829909028152206
 20
0.1349425937454786
 10
0.1821663541584173
 20
0.1328841344971202
 10
0.1812172250095778
 20
0.1310414615418821
 10
0.1794917962794398
 20
0.1300452848000691
 10
0.177994110120427
 20
0.1298998685096521
 10
0.1770309368402647
 20
0.1310700394641063
 10
0.1765902206148646
 20
0.132829564013495
 10
0.1773524760648404
 20
0.1349959117097622
 10
0.1763939869158944
 20
0.135161800958253
 10
0.1739833589378343
 20
0.1353524241271472
 10
0.1723229223233411
 20
0.1369831625505661
 10
0.170969266867639
 20
0.1390787220754287
 10
0.1702505791987403
 20
0.1408216131847307
 10
0.1704113501054008
 20
0.1427845470656382
 10
0.1713939679232621
 20
0.1440711349439411
 10
0.1722687426156484
 20
0.1452954655431714
 10
0.1712479602598731
 20
0.1455692432395729
 10
0.1697911429731236
 20
0.146598262141579
 10
0.1691180054709158
 20
0.1485113050995185
 10
0.169834713590991
 20
0.150507502584967
 10
0.171730275816643
 20
0.1514580465201213
 10
0.1741409037947013
 20
0.1512674233512289
 10
0.1756720757859473
 20
0.1508567529268884
 10
0.1763191104959536
 20
0.1512303185908855
 10
0.1751114572781049
 20
0.1518277726661349
 10
0.1741482839979427
 20
0.1529979436205874
 10
0.1736164728646963
 20
0.1544171616266808
 10
0.174196538498983
 20
0.1559028962363541
 10
0.1754906107557823
 20
0.156650029202169
 10
0.1768181662560715
 20
0.1568410799370653
 10
0.1777887197394752
 20
0.1574014292519713
 10
0.1777384908671054
 20
0.158235556263277
 10
0.178289752211628
 20
0.1592731003655817
 10
0.1803889257507465
 20
0.1596219321091773
 10
0.1823681970074227
 20
0.1591822590426272
 10
0.1845510878398895
 20
0.1581408725763221
 10
0.1869905229444986
 20
0.1583984415526188
 10
0.1886081111379085
 20
0.159332356531522
 10
0.1894708269213727
 20
0.1598304457213387
  0
LWPOLYLINE
  5
99B
330
2
100
AcDbEntity
  8
Profilo
  6
Continuous
370
     0
100
AcDbPolyline
 90
        3
 70
   128
 43
0.0
 10
0.1939865588226923
 20
0.1487713897199935
 10
0.1868812274111815
 20
0.1453884039119767
 10
0.1812849707819842
 20
0.1425487137604205
  0
LWPOLYLINE
  5
99C
330
2
100
AcDbEntity
  8
Profilo
  6
Continuous
370
     0
100
AcDbPolyline
 90
        4
 70
   128
 43
0.0
 10
0.1911714021970696
 20
0.1529002559744835
 10
0.1847680154143192
 20
0.1480524193537164
 10
0.1798696978306116
 20
0.1450805209305453
 10
0.1798467387832331
 20
0.1450658996002751
  0
LWPOLYLINE
  5
99D
330
2
100
AcDbEntity
  8
Profilo
  6
Continuous
370
     0
100
AcDbPolyline
 90
       54
 70
   128
 43
0.0
 10
0.2161706881289853
 20
0.142565631190051
 10
0.2162952740465518
 20
0.1394525790766131
 10
0.2175410918023144
 20
0.1372111818169891
 10
0.2195344043535248
 20
0.1359659596613575
 10
0.2210293887669334
 20
0.1342226499537297
 10
0.2210293887669334
 20
0.1323548199959233
 10
0.2206556413692096
 20
0.1308605540642936
 10
0.2219014591249722
 20
0.1292417678824872
 10
0.2220260450425386
 20
0.1267513235712222
 10
0.2210293887669334
 20
0.1256306249414102
 10
0.2192852376958787
 20
0.1258796719930512
 10
0.2176656725423922
 20
0.1271248908730399
 10
0.216669016266787
 20
0.12849463327885
 10
0.2157969459087501
 20
0.1279965457268538
 10
0.2160461073889057
 20
0.1265022797952241
 10
0.2170427636645109
 20
0.1253815811654139
 10
0.2184131673378418
 20
0.123638271457786
 10
0.2195344043535248
 20
0.1218949650257993
 10
0.2195344043535248
 20
0.1199026115421734
 10
0.2189114954756435
 20
0.1185328691363633
 10
0.2174165110622366
 20
0.1182838220847241
 10
0.2156723599911818
 20
0.1187819129123614
 10
0.2141773755777732
 20
0.1205252193443481
 10
0.2135544666998919
 20
0.1197780880163538
 10
0.2121840682040514
 20
0.1177857345327279
 10
0.2099415889951932
 20
0.1171631234549121
 10
0.2074499534836698
 20
0.1170386032047336
 10
0.2055812216725354
 20
0.1172876469807317
 10
0.2039616565190507
 20
0.1184083456105437
 10
0.2033387476411694
 20
0.1199026115421734
 10
0.2027158335857995
 20
0.1212723539479835
 10
0.2019683439678386
 20
0.1205252193443481
 10
0.2003487788143521
 20
0.1197780880163538
 10
0.1983554662631417
 20
0.1201516553181715
 10
0.1969850625898109
 20
0.1217704414999797
 10
0.1971096485073791
 20
0.1238873185094252
 10
0.1984800470032195
 20
0.1258796719930512
 10
0.1996012840189025
 20
0.1270003706228632
 10
0.1996012840189025
 20
0.1277475019508557
 10
0.1984800470032195
 20
0.1270003706228632
 10
0.1969850625898109
 20
0.1267513235712222
 10
0.1954900781764022
 20
0.1270003706228632
 10
0.1944934270782857
 20
0.1282455895028537
 10
0.1944934270782857
 20
0.1297398554344834
 10
0.1949917500386005
 20
0.130985077590115
 10
0.1949917500386005
 20
0.132105776219927
 10
0.1942442604206414
 20
0.1324793402461018
 10
0.1936213515427583
 20
0.1334755186257371
 10
0.1943688411607192
 20
0.1354678721093613
 10
0.1957392448340483
 20
0.1369621347653499
 10
0.1977325573852586
 20
0.1383318804468011
 10
0.1987292136608656
 20
0.1405732777064251
 10
0.1987292136608656
 20
0.1424411076642314
 10
0.1987292136608656
 20
0.143437286043865
  0
LWPOLYLINE
  5
99E
330
2
100
AcDbEntity
  8
Profilo
  6
Continuous
370
     0
100
AcDbPolyline
 90
        3
 70
   128
 43
0.0
 10
0.2105645030505649
 20
0.1418184965864156
 10
0.2099415889951932
 20
0.1339736061777316
 10
0.2096027044907196
 20
0.1277072606949712
  0
LWPOLYLINE
  5
99F
330
2
100
AcDbEntity
  8
Profilo
  6
Continuous
370
     0
100
AcDbPolyline
 90
        4
 70
   128
 43
0.0
 10
0.2055812216725354
 20
0.141444932560239
 10
0.2065778779481424
 20
0.1334755186257371
 10
0.2067024586882202
 20
0.1277475019508557
 10
0.2067036416079822
 20
0.1277203081674443
  0
LWPOLYLINE
  5
9A0
330
2
100
AcDbEntity
  8
Profilo
  6
Continuous
370
     0
100
AcDbPolyline
 90
       54
 70
   128
 43
0.0
 10
0.2270309122403931
 20
0.1579276368615318
 10
0.2297891874127189
 20
0.1564790053743813
 10
0.2323532032574058
 20
0.1564372165695435
 10
0.2344282535531446
 20
0.1575408647987601
 10
0.2366854962533176
 20
0.15796390442522
 10
0.2383030844467275
 20
0.1570299894463168
 10
0.2394102830046667
 20
0.1559591817394746
 10
0.2414351018392886
 20
0.1562286984735465
 10
0.2436541828383363
 20
0.1550913708874816
 10
0.2441264081839383
 20
0.1536678919190603
 10
0.243038651574953
 20
0.1522819363093098
 10
0.2411504778148665
 20
0.1515019611833
 10
0.2394659179569918
 20
0.1513237027326898
 10
0.2394612392513093
 20
0.1503194238727431
 10
0.2408798922481883
 20
0.1497880710783889
 10
0.2423487738693955
 20
0.1500908514169982
 10
0.2445437261995296
 20
0.1504060009577287
 10
0.2466140923640521
 20
0.1505053674809801
 10
0.2483395210941901
 20
0.1495091907391671
 10
0.2492142983753234
 20
0.1482848646237759
 10
0.248682487242077
 20
0.1468656466176824
 10
0.2473790523964223
 20
0.1456042128959293
 10
0.2451218125330379
 20
0.1451811716316488
 10
0.2454573928041026
 20
0.1442681510551636
 10
0.2464976222863204
 20
0.1420851744026453
 10
0.245915579691959
 20
0.1398318249014089
 10
0.2447775996361359
 20
0.1376117451263677
 10
0.2436275554939002
 20
0.1361178977930656
 10
0.2418472194337551
 20
0.1352756625419683
 10
0.2402416927380124
 20
0.1354833405952952
 10
0.2387440039902562
 20
0.135628752401875
 10
0.2390172967280706
 20
0.1346078401018381
 10
0.2388545488613336
 20
0.1328316898718395
 10
0.2375343738123292
 20
0.1312922142157159
 10
0.235447262018925
 20
0.1309148029120773
 10
0.2336762857108412
 20
0.1320811359863668
 10
0.2326360562286234
 20
0.1342641126388851
 10
0.2322261212530603
 20
0.1357954816930377
 10
0.2315790865430558
 20
0.1361690473570348
 10
0.2316655027452197
 20
0.1348244619537912
 10
0.2311336916119733
 20
0.1334052439476977
 10
0.230170518331811
 20
0.1322350729932452
 10
0.2285938015994096
 20
0.1319945572635624
 10
0.2272997293426084
 20
0.1327416902293773
 10
0.2264704968026323
 20
0.1337958616501126
 10
0.2254999433192286
 20
0.1343562109650186
 10
0.2248026825736411
 20
0.1338956479798895
 10
0.2236285123512371
 20
0.1338542822572183
 10
0.2222768284300778
 20
0.1354978039972486
 10
0.2216679608467307
 20
0.1374317397197856
 10
0.2214783825654742
 20
0.1398428718675418
 10
0.2200356037364703
 20
0.1418267001508692
 10
0.2184180155430622
 20
0.1427606151297723
 10
0.217555299759598
 20
0.1432587043195909
  0
LWPOLYLINE
  5
9A1
330
2
100
AcDbEntity
  8
Profilo
  6
Continuous
370
     0
100
AcDbPolyline
 90
        3
 70
   128
 43
0.0
 10
0.2248748572479777
 20
0.152698970863485
 10
0.2313572746041168
 20
0.1482370662628195
 10
0.2366146467288401
 20
0.1448104109316143
  0
LWPOLYLINE
  5
9A2
330
2
100
AcDbEntity
  8
Profilo
  6
Continuous
370
     0
100
AcDbPolyline
 90
        4
 70
   128
 43
0.0
 10
0.2227067324955727
 20
0.1481965405828184
 10
0.2301067755539283
 20
0.1450749632690836
 10
0.2351296738777138
 20
0.142318845017375
 10
0.2351538158448554
 20
0.1423062725642331
  0
LWPOLYLINE
  5
9A3
330
2
100
AcDbEntity
  8
Profilo
  6
Continuous
370
     0
100
AcDbPolyline
 90
       54
 70
   128
 43
0.0
 10
0.2191571371315129
 20
0.1750138696685454
 10
0.2217908263862705
 20
0.1766782902948311
 10
0.2231090244751983
 20
0.178877898749619
 10
0.2231907622197249
 20
0.1812267691344654
 10
0.2239530205064892
 20
0.1833931184685532
 10
0.2255706086998992
 20
0.1843270334474564
 10
0.2270515546555623
 20
0.1847504916722439
 10
0.2278305557344216
 20
0.1866387945881222
 10
0.2299250508159027
 20
0.1879919113133223
 10
0.2313939324371099
 20
0.187689130974713
 10
0.2320503268991794
 20
0.1860541283133216
 10
0.2317817182925794
 20
0.184028934307323
 10
0.2310938147103099
 20
0.1824809334509027
 10
0.2319612063626661
 20
0.1819747421429522
 10
0.2331306978793894
 20
0.1829376552802277
 10
0.2336029232249897
 20
0.184361134248649
 10
0.2344274718817929
 20
0.1864195934970055
 10
0.2353766010306324
 20
0.1882622664522436
 10
0.2371020297607704
 20
0.1892584431940566
 10
0.2385997159197832
 20
0.1894038594844755
 10
0.2395628891999455
 20
0.1882336885300212
 10
0.2400036054253456
 20
0.1864741639806325
 10
0.2392413499753698
 20
0.1843078162843653
 10
0.2401998391243159
 20
0.1841419270358727
 10
0.2426104671023759
 20
0.1839513038669803
 10
0.2442709037168709
 20
0.1823205654435597
 10
0.2456245591725712
 20
0.1802250059186971
 10
0.2463432468414699
 20
0.1784821148093968
 10
0.2461824759348095
 20
0.1765191809284875
 10
0.2451998581169481
 20
0.1752325930501847
 10
0.2443250834245618
 20
0.1740082624509544
 10
0.2453458657803371
 20
0.1737344847545547
 10
0.2468026830670866
 20
0.1727054658525485
 10
0.2474758205692944
 20
0.1707924228946073
 10
0.2467591124492192
 20
0.1687962254091605
 10
0.2448635502235672
 20
0.1678456814740045
 10
0.242452922245509
 20
0.1680363046428986
 10
0.2409217502542629
 20
0.1684469750672374
 10
0.2402747155442584
 20
0.1680734094032402
 10
0.2414823687621053
 20
0.1674759553279926
 10
0.2424455420422675
 20
0.1663057843735384
 10
0.2429773531755139
 20
0.1648865663674449
 10
0.242397287541229
 20
0.1634008317577716
 10
0.2411032152844279
 20
0.1626536987919568
 10
0.2397756597841387
 20
0.1624626480570622
 10
0.238805106300735
 20
0.1619022987421562
 10
0.2388553351731049
 20
0.1610681717308505
 10
0.2383040738285822
 20
0.160030627628544
 10
0.2362049002894655
 20
0.1596817958849502
 10
0.2342256290327875
 20
0.1601214689514986
 10
0.2320427382003207
 20
0.1611628554178036
 10
0.2296033030957116
 20
0.1609052864415087
 10
0.2279857149023017
 20
0.1599713714626055
 10
0.2271229991188375
 20
0.1594732822727888
  0
LWPOLYLINE
  5
9A4
330
2
100
AcDbEntity
  8
Profilo
  6
Continuous
370
     0
100
AcDbPolyline
 90
        3
 70
   128
 43
0.0
 10
0.2226072672175179
 20
0.1705323382741341
 10
0.2297125986290287
 20
0.173915324082149
 10
0.235308855258226
 20
0.1767550142337053
  0
LWPOLYLINE
  5
9A5
330
2
100
AcDbEntity
  8
Profilo
  6
Continuous
370
     0
100
AcDbPolyline
 90
        4
 70
   128
 43
0.0
 10
0.2254224238431406
 20
0.166403472019644
 10
0.231825810625891
 20
0.1712513086404112
 10
0.2367241282095986
 20
0.1742232070635804
 10
0.2367470872569771
 20
0.1742378283938507
  0
LWPOLYLINE
  5
9A6
330
2
100
AcDbEntity
  8
Profilo
  6
Continuous
370
     0
100
AcDbPolyline
 90
        6
 70
   128
 43
0.0
 10
0.2198135434949333
 20
0.1956960477557977
 10
0.2244974728145341
 20
0.1956960477557977
 10
0.2281953131135599
 20
0.1956960477557977
 10
0.2300442306743275
 20
0.1950800370963573
 10
0.2317698877547092
 20
0.1927391979007392
 10
0.2348514204743144
 20
0.1884271298359369
  0
LWPOLYLINE
  5
9A7
330
2
100
AcDbEntity
  8
Profilo
  6
Continuous
370
     0
100
AcDbPolyline
 90
        6
 70
   128
 43
0.0
 10
0.1828400494637799
 20
0.1876476504336292
 10
0.185182014123582
 20
0.1917040522139363
 10
0.1870309342730931
 20
0.1949064758520279
 10
0.1884888739335548
 20
0.1961996800994367
 10
0.1913789286833265
 20
0.1965237233714582
 10
0.1966540555300953
 20
0.1970363749568292
  0
LWPOLYLINE
  5
9A8
330
2
100
AcDbEntity
  8
Profilo
  6
Continuous
370
     0
100
AcDbPolyline
 90
        6
 70
   128
 43
0.0
 10
0.1713234189889534
 20
0.1516034666748961
 10
0.1689814543291512
 20
0.1556598684552014
 10
0.1671325341796401
 20
0.1588622920932948
 10
0.1667415562793342
 20
0.1607715070001422
 10
0.1679059539487224
 20
0.1634363894677836
 10
0.170099548075886
 20
0.1682611091179552
  0
LWPOLYLINE
  5
9A9
330
2
100
AcDbEntity
  8
Profilo
  6
Continuous
370
     0
100
AcDbPolyline
 90
        6
 70
   128
 43
0.0
 10
0.1967802825452769
 20
0.1236076802383298
 10
0.1920963532256761
 20
0.1236076802383298
 10
0.1883985129266503
 20
0.1236076802383298
 10
0.1865495953658844
 20
0.1242236908977702
 10
0.184823938285501
 20
0.1265645300933883
 10
0.1817424055658958
 20
0.1308765981581906
  0
LWPOLYLINE
  5
9AA
330
2
100
AcDbEntity
  8
Profilo
  6
Continuous
370
     0
100
AcDbPolyline
 90
        6
 70
   128
 43
0.0
 10
0.2337537765764304
 20
0.1316560775604966
 10
0.23141181191663
 20
0.1275996757801913
 10
0.2295628917671171
 20
0.1243972521420978
 10
0.2281049521066554
 20
0.1231040478946909
 10
0.2252148973568837
 20
0.1227800046226693
 10
0.2199397705101149
 20
0.1222673530372983
  0
LWPOLYLINE
  5
9AB
330
2
100
AcDbEntity
  8
Profilo
  6
Continuous
370
     0
100
AcDbPolyline
 90
        6
 70
   128
 43
0.0
 10
0.2452704070512586
 20
0.1677002613192314
 10
0.247612371711059
 20
0.1636438595389261
 10
0.2494612918605701
 20
0.1604414359008327
 10
0.2498522697608778
 20
0.1585322209939853
 10
0.2486878720914878
 20
0.1558673385263439
 10
0.2464942779643242
 20
0.1510426188761705
  0
DIMENSION
  5
9B2
102
{ACAD_XDICTIONARY
360
9BC
102
}
102
{ACAD_REACTORS
330
9C3
102
}
330
2
100
AcDbEntity
  8
Sezione
  6
ACAD_ISO10W100
100
AcDbDimension
  2
*D15
 10
0.1483347854853323
 20
0.1105520344504785
 30
0.0
 11
0.2865087265976987
 21
0.2106523321067409
 31
0.0
 70
    35
  1
d 310 mm
 71
     5
 42
0.155
  3
Bovelacci
100
AcDbDiametricDimension
 15
0.268259040554878
 25
0.2087516935436473
 35
0.0
 40
0.0
1001
ACAD
1000
DSTYLE
1002
{
1070
   288
1070
     1
1002
}
  0
ENDSEC
  0
SECTION
  2
OBJECTS
  0
DICTIONARY
  5
9
330
0
100
AcDbDictionary
281
     1
  3
ACAD_2007HEADERVARS_RT
350
208
  3
ACAD_COLOR
350
184
  3
ACAD_GROUP
350
17F
  3
ACAD_LAYOUT
350
164
  3
ACAD_MATERIAL
350
B
  3
ACAD_MLINESTYLE
350
180
  3
ACAD_PLOTSETTINGS
350
181
  3
ACAD_PLOTSTYLENAME
350
8
  3
ACAD_TABLESTYLE
350
185
  3
ACAD_VISUALSTYLE
350
17A
  3
ACDBHEADERROUNDTRIPXREC
350
9D3
  3
AcDbVariableDictionary
350
18B
  3
DWGPROPS
350
9D2
  0
DICTIONARY
  5
16E
330
16D
100
AcDbDictionary
280
     1
281
     1
  3
ACAD_LAYERSTATES
360
16F
  0
DICTIONARY
  5
3
330
2
100
AcDbDictionary
280
     1
281
     1
  3
ACAD_SORTENTS
360
18A
  0
DICTIONARY
  5
9D4
330
18
100
AcDbDictionary
280
     1
281
     1
  3
ACAD_MTEXT_RT
360
9D5
  0
DICTIONARY
  5
9BC
330
9B2
100
AcDbDictionary
280
     1
281
     1
  3
ACAD_DIMASSOC
360
9C3
  0
DICTIONARY
  5
208
102
{ACAD_REACTORS
330
9
102
}
330
9
100
AcDbDictionary
281
     1
  3
DIMFXL
350
209
  0
DICTIONARY
  5
184
102
{ACAD_REACTORS
330
9
102
}
330
9
100
AcDbDictionary
281
     1
  0
DICTIONARY
  5
17F
102
{ACAD_REACTORS
330
9
102
}
330
9
100
AcDbDictionary
281
     1
  0
DICTIONARY
  5
164
102
{ACAD_REACTORS
330
9
102
}
330
9
100
AcDbDictionary
281
     1
  3
Layout1
350
168
  3
Layout2
350
16C
  3
Model
350
163
  0
DICTIONARY
  5
B
102
{ACAD_REACTORS
330
9
102
}
330
9
100
AcDbDictionary
281
     1
  3
ByBlock
350
183
  3
ByLayer
350
182
  3
Global
350
A
  0
DICTIONARY
  5
180
102
{ACAD_REACTORS
330
9
102
}
330
9
100
AcDbDictionary
281
     1
  3
Standard
350
186
  0
DICTIONARY
  5
181
102
{ACAD_REACTORS
330
9
102
}
330
9
100
AcDbDictionary
281
     1
  0
ACDBDICTIONARYWDFLT
  5
8
102
{ACAD_REACTORS
330
9
102
}
330
9
100
AcDbDictionary
281
     1
  3
Normal
350
7
100
AcDbDictionaryWithDefault
340
7
  0
DICTIONARY
  5
185
102
{ACAD_REACTORS
330
9
102
}
330
9
100
AcDbDictionary
281
     1
  3
Standard
350
187
  0
DICTIONARY
  5
17A
102
{ACAD_REACTORS
330
9
102
}
330
9
100
AcDbDictionary
281
     1
  3
2dWireframe
350
179
  3
3D Hidden
350
1BD
  3
3dWireframe
350
189
  3
Basic
350
1BC
  3
Brighten
350
1C0
  3
ColorChange
350
1C4
  3
Conceptual
350
1BE
  3
Dim
350
1BF
  3
Facepattern
350
1C3
  3
Flat
350
1B8
  3
FlatWithEdges
350
1B9
  3
Gouraud
350
1BA
  3
GouraudWithEdges
350
1BB
  3
Linepattern
350
1C2
  3
Realistic
350
188
  3
Thicken
350
1C1
  0
DICTIONARY
  5
9D3
102
{ACAD_REACTORS
330
9
102
}
330
9
100
AcDbDictionary
281
     1
  0
DICTIONARY
  5
18B
102
{ACAD_REACTORS
330
9
102
}
330
9
100
AcDbDictionary
281
     1
  3
CTABLESTYLE
350
18C
  3
DIMASSOC
350
190
  3
HIDETEXT
350
18F
  3
INDEXCTL
350
18E
  3
PROJECTNAME
350
31D
  3
SORTENTS
350
18D
  0
XRECORD
  5
9D2
102
{ACAD_REACTORS
330
9
102
}
330
9
100
AcDbXrecord
280
     1
  1
DWGPROPS COOKIE
  2

  3

  4

  6

  7

  8
Mario
  9

300
=
301
=
302
=
303
=
304
=
305
=
306
=
307
=
308
=
309
=
 40
0.1097227777777778
 41
2454297.625402373
 42
2454306.827522963
  1

 90
        0
  0
DICTIONARY
  5
16F
102
{ACAD_REACTORS
330
16E
102
}
330
16E
100
AcDbDictionary
281
     1
  0
SORTENTSTABLE
  5
18A
102
{ACAD_REACTORS
330
3
102
}
330
3
100
AcDbSortentsTable
330
2
331
23F
  5
3BB
331
1E
  5
22
331
24
  5
1D
331
16
  5
14
331
12
  5
18
331
1D
  5
21
331
23
  5
23F
331
15
  5
13
331
11
  5
17
331
D
  5
15
331
1C
  5
1F
331
18
  5
1E
331
22
  5
25
331
14
  5
12
331
10
  5
16
331
1F
  5
23
331
25
  5
2AC
331
17
  5
1C
331
21
  5
24
331
13
  5
11
  0
XRECORD
  5
9D5
102
{ACAD_REACTORS
330
9D4
102
}
330
9D4
100
AcDbXrecord
280
     1
 40
7955300.0
  1
{\fTimes New Roman|b0|i0|c238|p18;\H1.6x;\C4;Bovelacci\P\pt0.09;\H0.4375x;\T0.95;via del Commercio, 5  47100 Forli - Italy  \fTimes New Roman|b0|i0|c0|p18;\P\fTimes New Roman|b0|i0|c238|p18;tel.+39-0543721386  fax +39-0543721127\fTimes New Roman|b0|i
  1
0|c0|p18; \fTimes New Roman|b0|i0|c238|p18;www.bovelacci.it\fTimes New Roman|b0|i0|c0|p18; \fTimes New Roman|b0|i0|c238|p18;e-mail: bovelacci@bovelacci\fTimes New Roman|b0|i0|c0|p18;.it}
  0
DIMASSOC
  5
9C3
102
{ACAD_REACTORS
330
9BC
102
}
330
9BC
100
AcDbDimAssoc
330
9B2
 90
        2
 70
     0
 71
     0
  1
AcDbOsnapPointRef
 72
     3
331
905
 73
     2
 91
        0
 40
0.0
 10
0.0
 20
0.0
 30
0.0
 75
     0
  0
XRECORD
  5
209
102
{ACAD_REACTORS
330
208
102
}
330
208
100
AcDbXrecord
280
     1
 40
0.18
  0
LAYOUT
  5
168
102
{ACAD_XDICTIONARY
360
9D8
102
}
102
{ACAD_REACTORS
330
164
102
}
330
164
100
AcDbPlotSettings
  1

  2
C:\Documents and Settings\All Users\Dati applicazioni\Autodesk\ADT 2006\enu\Plotters\Default Windows System Printer.pc3
  4

  6

 40
0.0
 41
0.0
 42
0.0
 43
0.0
 44
0.0
 45
0.0
 46
0.0
 47
0.0
 48
0.0
 49
0.0
140
0.0
141
0.0
142
1.0
143
1.0
 70
   688
 72
     0
 73
     0
 74
     5
  7

 75
    16
147
1.0
148
0.0
149
0.0
100
AcDbLayout
  1
Layout1
 70
     1
 71
     1
 10
0.0
 20
0.0
 11
420.0
 21
297.0
 12
0.0
 22
0.0
 32
0.0
 14
1.000000000000000E+20
 24
1.000000000000000E+20
 34
1.000000000000000E+20
 15
-1.000000000000000E+20
 25
-1.000000000000000E+20
 35
-1.000000000000000E+20
146
0.0
 13
0.0
 23
0.0
 33
0.0
 16
1.0
 26
0.0
 36
0.0
 17
0.0
 27
1.0
 37
0.0
 76
     0
330
165
  0
LAYOUT
  5
16C
102
{ACAD_XDICTIONARY
360
9DA
102
}
102
{ACAD_REACTORS
330
164
102
}
330
164
100
AcDbPlotSettings
  1

  2
C:\Documents and Settings\All Users\Dati applicazioni\Autodesk\ADT 2006\enu\Plotters\Default Windows System Printer.pc3
  4

  6

 40
0.0
 41
0.0
 42
0.0
 43
0.0
 44
0.0
 45
0.0
 46
0.0
 47
0.0
 48
0.0
 49
0.0
140
0.0
141
0.0
142
1.0
143
1.0
 70
   688
 72
     0
 73
     0
 74
     5
  7

 75
    16
147
1.0
148
0.0
149
0.0
100
AcDbLayout
  1
Layout2
 70
     1
 71
     2
 10
0.0
 20
0.0
 11
12.0
 21
9.0
 12
0.0
 22
0.0
 32
0.0
 14
0.0
 24
0.0
 34
0.0
 15
0.0
 25
0.0
 35
0.0
146
0.0
 13
0.0
 23
0.0
 33
0.0
 16
1.0
 26
0.0
 36
0.0
 17
0.0
 27
1.0
 37
0.0
 76
     0
330
169
  0
LAYOUT
  5
163
102
{ACAD_XDICTIONARY
360
9D6
102
}
102
{ACAD_REACTORS
330
164
102
}
330
164
100
AcDbPlotSettings
  1

  2
C:\Documents and Settings\All Users\Dati applicazioni\Autodesk\ADT 2006\enu\Plotters\Default Windows System Printer.pc3
  4

  6

 40
0.0
 41
0.0
 42
0.0
 43
0.0
 44
0.0
 45
0.0
 46
0.0
 47
0.0
 48
0.0
 49
0.0
140
0.0
141
0.0
142
1.0
143
1.0
 70
  1712
 72
     0
 73
     0
 74
     0
  7

 75
     0
147
1.0
148
0.0
149
0.0
100
AcDbLayout
  1
Model
 70
     1
 71
     0
 10
0.0
 20
0.0
 11
12.0
 21
9.0
 12
0.0
 22
0.0
 32
0.0
 14
0.0
 24
0.0
 34
0.0
 15
0.0
 25
0.0
 35
0.0
146
0.0
 13
0.0
 23
0.0
 33
0.0
 16
1.0
 26
0.0
 36
0.0
 17
0.0
 27
1.0
 37
0.0
 76
     0
330
2
  0
MATERIAL
  5
183
102
{ACAD_XDICTIONARY
360
1B0
102
}
102
{ACAD_REACTORS
330
B
102
}
330
B
100
AcDbMaterial
  1
ByBlock
  0
MATERIAL
  5
182
102
{ACAD_XDICTIONARY
360
1AE
102
}
102
{ACAD_REACTORS
330
B
102
}
330
B
100
AcDbMaterial
  1
ByLayer
  0
MATERIAL
  5
A
102
{ACAD_XDICTIONARY
360
193
102
}
102
{ACAD_REACTORS
330
B
102
}
330
B
100
AcDbMaterial
  1
Global
  0
MLINESTYLE
  5
186
102
{ACAD_REACTORS
330
180
102
}
330
180
100
AcDbMlineStyle
  2
STANDARD
 70
     0
  3

 62
   256
 51
90.0
 52
90.0
 71
     2
 49
0.5
 62
   256
  6
BYLAYER
 49
-0.5
 62
   256
  6
BYLAYER
  0
ACDBPLACEHOLDER
  5
7
102
{ACAD_REACTORS
330
8
102
}
330
8
  0
TABLESTYLE
  5
187
102
{ACAD_XDICTIONARY
360
21A
102
}
102
{ACAD_REACTORS
330
185
102
}
330
185
100
AcDbTableStyle
  3
Standard
 70
     0
 71
     0
 40
1.5
 41
1.5
280
     0
281
     0
  7
Standard
140
4.5
170
     2
 62
     0
 63
     7
283
     0
274
    -2
284
     1
 64
     0
275
    -2
285
     1
 65
     0
276
    -2
286
     1
 66
     0
277
    -2
287
     1
 67
     0
278
    -2
288
     1
 68
     0
279
    -2
289
     1
 69
     0
  7
Standard
140
6.0
170
     5
 62
     0
 63
     7
283
     0
274
    -2
284
     1
 64
     0
275
    -2
285
     1
 65
     0
276
    -2
286
     1
 66
     0
277
    -2
287
     1
 67
     0
278
    -2
288
     1
 68
     0
279
    -2
289
     1
 69
     0
  7
Standard
140
4.5
170
     5
 62
     0
 63
     7
283
     0
274
    -2
284
     1
 64
     0
275
    -2
285
     1
 65
     0
276
    -2
286
     1
 66
     0
277
    -2
287
     1
 67
     0
278
    -2
288
     1
 68
     0
279
    -2
289
     1
 69
     0
  0
VISUALSTYLE
  5
179
102
{ACAD_REACTORS
330
17A
102
}
330
17A
100
AcDbVisualStyle
  2
2dWireframe
 70
     4
 71
     0
 72
     2
 73
     0
 90
        0
 40
-0.6
 41
-30.0
 62
     5
 63
     7
 74
     1
 91
        4
 64
     7
 65
   257
 75
     1
175
     1
 42
1.0
 92
        0
 66
   257
 43
1.0
 76
     1
 77
     6
 78
     2
 67
     7
 79
     5
170
     0
171
     0
290
     0
174
     0
 93
        1
 44
0.0
173
     0
291
     0
 45
0.0
1001
ACAD
1000
AcDbSavedByObjectVersion
1070
     0
1000
AcDbSavedByObjectVersion
1070
     0
1000
AcDbSavedByObjectVersion
1070
     0
1001
ACAD
1000
AcRTDxfName
1000
VISUALSTYLE
  0
VISUALSTYLE
  5
1BD
102
{ACAD_REACTORS
330
17A
102
}
330
17A
100
AcDbVisualStyle
  2
3D Hidden
 70
     6
 71
     1
 72
     2
 73
     2
 90
        0
 40
-0.6
 41
-30.0
 62
     5
 63
     7
 74
     2
 91
        2
 64
     7
 65
   257
 75
     2
175
     1
 42
40.0
 92
        0
 66
   257
 43
1.0
 76
     1
 77
     6
 78
     2
 67
     7
 79
     3
170
     0
171
     0
290
     0
174
     0
 93
        1
 44
0.0
173
     0
291
     0
 45
0.0
1001
ACAD
1000
AcDbSavedByObjectVersion
1070
     0
1000
AcDbSavedByObjectVersion
1070
     0
1001
ACAD
1000
AcRTDxfName
1000
VISUALSTYLE
  0
VISUALSTYLE
  5
189
102
{ACAD_REACTORS
330
17A
102
}
330
17A
100
AcDbVisualStyle
  2
3dWireframe
 70
     5
 71
     0
 72
     2
 73
     0
 90
        0
 40
-0.6
 41
-30.0
 62
     5
 63
     7
 74
     1
 91
        4
 64
     7
 65
   257
 75
     1
175
     1
 42
1.0
 92
        0
 66
   257
 43
1.0
 76
     1
 77
     6
 78
     2
 67
     7
 79
     5
170
     0
171
     0
290
     0
174
     0
 93
        1
 44
0.0
173
     0
291
     0
 45
0.0
1001
ACAD
1000
AcDbSavedByObjectVersion
1070
     0
1000
AcDbSavedByObjectVersion
1070
     0
1000
AcDbSavedByObjectVersion
1070
     0
1001
ACAD
1000
AcRTDxfName
1000
VISUALSTYLE
  0
VISUALSTYLE
  5
1BC
102
{ACAD_REACTORS
330
17A
102
}
330
17A
100
AcDbVisualStyle
  2
Basic
 70
     7
 71
     1
 72
     0
 73
     1
 90
        0
 40
-0.6
 41
-30.0
 62
     5
 63
     7
 74
     0
 91
        4
 64
     7
 65
   257
 75
     1
175
     1
 42
1.0
 92
        8
 66
     7
 43
1.0
 76
     1
 77
     6
 78
     2
 67
     7
 79
     5
170
     0
171
     0
290
     0
174
     0
 93
        1
 44
0.0
173
     0
291
     1
 45
0.0
1001
ACAD
1000
AcDbSavedByObjectVersion
1070
     0
1000
AcDbSavedByObjectVersion
1070
     0
1001
ACAD
1000
AcRTDxfName
1000
VISUALSTYLE
  0
VISUALSTYLE
  5
1C0
102
{ACAD_REACTORS
330
17A
102
}
330
17A
100
AcDbVisualStyle
  2
Brighten
 70
    12
 71
     2
 72
     2
 73
     0
 90
        0
 40
-0.6
 41
-30.0
 62
     5
 63
     7
 74
     1
 91
        4
 64
     7
 65
   257
 75
     1
175
     1
 42
1.0
 92
        8
 66
     7
 43
1.0
 76
     1
 77
     6
 78
     2
 67
     7
 79
     5
170
     0
171
     0
290
     0
174
     0
 93
        1
 44
50.0
173
     0
291
     1
 45
0.0
1001
ACAD
1000
AcDbSavedByObjectVersion
1070
     0
1000
AcDbSavedByObjectVersion
1070
     0
1001
ACAD
1000
AcRTDxfName
1000
VISUALSTYLE
  0
VISUALSTYLE
  5
1C4
102
{ACAD_REACTORS
330
17A
102
}
330
17A
100
AcDbVisualStyle
  2
ColorChange
 70
    16
 71
     2
 72
     2
 73
     3
 90
        0
 40
-0.6
 41
-30.0
 62
     5
 63
     8
 74
     1
 91
        4
 64
     7
 65
   257
 75
     1
175
     1
 42
1.0
 92
        8
 66
     8
 43
1.0
 76
     1
 77
     6
 78
     2
 67
     7
 79
     5
170
     0
171
     0
290
     0
174
     0
 93
        1
 44
0.0
173
     0
291
     1
 45
0.0
1001
ACAD
1000
AcDbSavedByObjectVersion
1070
     0
1000
AcDbSavedByObjectVersion
1070
     0
1001
ACAD
1000
AcRTDxfName
1000
VISUALSTYLE
  0
VISUALSTYLE
  5
1BE
102
{ACAD_REACTORS
330
17A
102
}
330
17A
100
AcDbVisualStyle
  2
Conceptual
 70
     9
 71
     3
 72
     2
 73
     0
 90
        0
 40
-0.6
 41
-30.0
 62
     5
 63
     7
 74
     2
 91
        2
 64
     7
 65
   257
 75
     1
175
     1
 42
40.0
 92
        8
 66
     7
 43
1.0
 76
     1
 77
     6
 78
     2
 67
     7
 79
     3
170
     0
171
     0
290
     0
174
     0
 93
        1
 44
0.0
173
     0
291
     0
 45
0.0
1001
ACAD
1000
AcDbSavedByObjectVersion
1070
     0
1000
AcDbSavedByObjectVersion
1070
     0
1001
ACAD
1000
AcRTDxfName
1000
VISUALSTYLE
  0
VISUALSTYLE
  5
1BF
102
{ACAD_REACTORS
330
17A
102
}
330
17A
100
AcDbVisualStyle
  2
Dim
 70
    11
 71
     2
 72
     2
 73
     0
 90
        0
 40
-0.6
 41
-30.0
 62
     5
 63
     7
 74
     1
 91
        4
 64
     7
 65
   257
 75
     1
175
     1
 42
1.0
 92
        8
 66
     7
 43
1.0
 76
     1
 77
     6
 78
     2
 67
     7
 79
     5
170
     0
171
     0
290
     0
174
     0
 93
        1
 44
-50.0
173
     0
291
     1
 45
0.0
1001
ACAD
1000
AcDbSavedByObjectVersion
1070
     0
1000
AcDbSavedByObjectVersion
1070
     0
1001
ACAD
1000
AcRTDxfName
1000
VISUALSTYLE
  0
VISUALSTYLE
  5
1C3
102
{ACAD_REACTORS
330
17A
102
}
330
17A
100
AcDbVisualStyle
  2
Facepattern
 70
    15
 71
     2
 72
     2
 73
     0
 90
        0
 40
-0.6
 41
-30.0
 62
     5
 63
     7
 74
     1
 91
        4
 64
     7
 65
   257
 75
     1
175
     1
 42
1.0
 92
        8
 66
     7
 43
1.0
 76
     1
 77
     6
 78
     2
 67
     7
 79
     5
170
     0
171
     0
290
     0
174
     0
 93
        1
 44
0.0
173
     0
291
     1
 45
0.0
1001
ACAD
1000
AcDbSavedByObjectVersion
1070
     0
1000
AcDbSavedByObjectVersion
1070
     0
1001
ACAD
1000
AcRTDxfName
1000
VISUALSTYLE
  0
VISUALSTYLE
  5
1B8
102
{ACAD_REACTORS
330
17A
102
}
330
17A
100
AcDbVisualStyle
  2
Flat
 70
     0
 71
     2
 72
     1
 73
     1
 90
        2
 40
-0.6
 41
30.0
 62
     5
 63
     7
 74
     0
 91
        4
 64
     7
 65
   257
 75
     1
175
     1
 42
1.0
 92
        8
 66
     7
 43
1.0
 76
     1
 77
     6
 78
     2
 67
     7
 79
     5
170
     0
171
     0
290
     0
174
     0
 93
       13
 44
0.0
173
     0
291
     1
 45
0.0
1001
ACAD
1000
AcDbSavedByObjectVersion
1070
     0
1000
AcDbSavedByObjectVersion
1070
     0
1001
ACAD
1000
AcRTDxfName
1000
VISUALSTYLE
  0
VISUALSTYLE
  5
1B9
102
{ACAD_REACTORS
330
17A
102
}
330
17A
100
AcDbVisualStyle
  2
FlatWithEdges
 70
     1
 71
     2
 72
     1
 73
     1
 90
        2
 40
-0.6
 41
30.0
 62
     5
 63
     7
 74
     1
 91
        4
 64
     7
 65
   257
 75
     1
175
     1
 42
1.0
 92
        0
 66
   257
 43
1.0
 76
     1
 77
     6
 78
     2
 67
     7
 79
     5
170
     0
171
     0
290
     0
174
     0
 93
       13
 44
0.0
173
     0
291
     1
 45
0.0
1001
ACAD
1000
AcDbSavedByObjectVersion
1070
     0
1000
AcDbSavedByObjectVersion
1070
     0
1001
ACAD
1000
AcRTDxfName
1000
VISUALSTYLE
  0
VISUALSTYLE
  5
1BA
102
{ACAD_REACTORS
330
17A
102
}
330
17A
100
AcDbVisualStyle
  2
Gouraud
 70
     2
 71
     2
 72
     2
 73
     1
 90
        2
 40
-0.6
 41
30.0
 62
     5
 63
     7
 74
     0
 91
        4
 64
     7
 65
   257
 75
     1
175
     1
 42
1.0
 92
        0
 66
     7
 43
1.0
 76
     1
 77
     6
 78
     2
 67
     7
 79
     5
170
     0
171
     0
290
     0
174
     0
 93
       13
 44
0.0
173
     0
291
     1
 45
0.0
1001
ACAD
1000
AcDbSavedByObjectVersion
1070
     0
1000
AcDbSavedByObjectVersion
1070
     0
1001
ACAD
1000
AcRTDxfName
1000
VISUALSTYLE
  0
VISUALSTYLE
  5
1BB
102
{ACAD_REACTORS
330
17A
102
}
330
17A
100
AcDbVisualStyle
  2
GouraudWithEdges
 70
     3
 71
     2
 72
     2
 73
     1
 90
        2
 40
-0.6
 41
30.0
 62
     5
 63
     7
 74
     1
 91
        4
 64
     7
 65
   257
 75
     1
175
     1
 42
1.0
 92
        0
 66
   257
 43
1.0
 76
     1
 77
     6
 78
     2
 67
     7
 79
     5
170
     0
171
     0
290
     0
174
     0
 93
       13
 44
0.0
173
     0
291
     1
 45
0.0
1001
ACAD
1000
AcDbSavedByObjectVersion
1070
     0
1000
AcDbSavedByObjectVersion
1070
     0
1001
ACAD
1000
AcRTDxfName
1000
VISUALSTYLE
  0
VISUALSTYLE
  5
1C2
102
{ACAD_REACTORS
330
17A
102
}
330
17A
100
AcDbVisualStyle
  2
Linepattern
 70
    14
 71
     2
 72
     2
 73
     0
 90
        0
 40
-0.6
 41
-30.0
 62
     5
 63
     7
 74
     1
 91
        4
 64
     7
 65
   257
 75
     7
175
     7
 42
1.0
 92
        8
 66
     7
 43
1.0
 76
     1
 77
     6
 78
     2
 67
     7
 79
     5
170
     0
171
     0
290
     0
174
     0
 93
        1
 44
0.0
173
     0
291
     1
 45
0.0
1001
ACAD
1000
AcDbSavedByObjectVersion
1070
     0
1000
AcDbSavedByObjectVersion
1070
     0
1001
ACAD
1000
AcRTDxfName
1000
VISUALSTYLE
  0
VISUALSTYLE
  5
188
102
{ACAD_REACTORS
330
17A
102
}
330
17A
100
AcDbVisualStyle
  2
Realistic
 70
     8
 71
     2
 72
     2
 73
     0
 90
        0
 40
-0.6
 41
-30.0
 62
     5
 63
     7
 74
     1
 91
        0
 64
     7
 65
   257
 75
     1
175
     1
 42
1.0
 92
        8
 66
     8
 43
1.0
 76
     1
 77
     6
 78
     2
 67
     7
 79
     5
170
     0
171
     0
290
     0
174
     0
 93
       13
 44
0.0
173
     0
291
     0
 45
0.0
1001
ACAD
1000
AcDbSavedByObjectVersion
1070
     0
1000
AcDbSavedByObjectVersion
1070
     0
1000
AcDbSavedByObjectVersion
1070
     0
1001
ACAD
1000
AcRTDxfName
1000
VISUALSTYLE
  0
VISUALSTYLE
  5
1C1
102
{ACAD_REACTORS
330
17A
102
}
330
17A
100
AcDbVisualStyle
  2
Thicken
 70
    13
 71
     2
 72
     2
 73
     0
 90
        0
 40
-0.6
 41
-30.0
 62
     5
 63
     7
 74
     1
 91
        4
 64
     7
 65
   257
 75
     1
175
     1
 42
1.0
 92
       12
 66
     7
 43
1.0
 76
     1
 77
     6
 78
     2
 67
     7
 79
     5
170
     0
171
     0
290
     0
174
     0
 93
        1
 44
0.0
173
     0
291
     1
 45
0.0
1001
ACAD
1000
AcDbSavedByObjectVersion
1070
     0
1000
AcDbSavedByObjectVersion
1070
     0
1001
ACAD
1000
AcRTDxfName
1000
VISUALSTYLE
  0
DICTIONARYVAR
  5
18C
102
{ACAD_REACTORS
330
18B
102
}
330
18B
100
DictionaryVariables
280
     0
  1
STANDARD
  0
DICTIONARYVAR
  5
190
102
{ACAD_REACTORS
330
18B
102
}
330
18B
100
DictionaryVariables
280
     0
  1
2
  0
DICTIONARYVAR
  5
18F
102
{ACAD_REACTORS
330
18B
102
}
330
18B
100
DictionaryVariables
280
     0
  1
1
  0
DICTIONARYVAR
  5
18E
102
{ACAD_REACTORS
330
18B
102
}
330
18B
100
DictionaryVariables
280
     0
  1
0
  0
DICTIONARYVAR
  5
31D
102
{ACAD_REACTORS
330
18B
102
}
330
18B
100
DictionaryVariables
280
     0
  1

  0
DICTIONARYVAR
  5
18D
102
{ACAD_REACTORS
330
18B
102
}
330
18B
100
DictionaryVariables
280
     0
  1
127
  0
DICTIONARY
  5
9D8
330
168
100
AcDbDictionary
280
     1
281
     1
  3
ACAD_XREC_ROUNDTRIP
360
9D9
  0
DICTIONARY
  5
9DA
330
16C
100
AcDbDictionary
280
     1
281
     1
  3
ACAD_XREC_ROUNDTRIP
360
9DB
  0
DICTIONARY
  5
9D6
330
163
100
AcDbDictionary
280
     1
281
     1
  3
ACAD_XREC_ROUNDTRIP
360
9D7
  0
DICTIONARY
  5
1B0
330
183
100
AcDbDictionary
280
     1
281
     1
  3
ACAD_XREC_ROUNDTRIP
360
1B1
  0
DICTIONARY
  5
1AE
330
182
100
AcDbDictionary
280
     1
281
     1
  3
ACAD_XREC_ROUNDTRIP
360
1AF
  0
DICTIONARY
  5
193
330
A
100
AcDbDictionary
280
     1
281
     1
  3
ACAD_XREC_ROUNDTRIP
360
194
  0
DICTIONARY
  5
21A
330
187
100
AcDbDictionary
280
     1
281
     1
  3
ACAD_XREC_ROUNDTRIP
360
21B
  0
XRECORD
  5
9D9
102
{ACAD_REACTORS
330
9D8
102
}
330
9D8
100
AcDbXrecord
280
     1
102
SHADEPLOT
 70
     0
102
SHADEPLOTRESLEVEL
 70
     2
102
SHADEPLOTCUSTOMDPI
 70
   300
  0
XRECORD
  5
9DB
102
{ACAD_REACTORS
330
9DA
102
}
330
9DA
100
AcDbXrecord
280
     1
102
SHADEPLOT
 70
     0
102
SHADEPLOTRESLEVEL
 70
     2
102
SHADEPLOTCUSTOMDPI
 70
   300
  0
XRECORD
  5
9D7
102
{ACAD_REACTORS
330
9D6
102
}
330
9D6
100
AcDbXrecord
280
     1
102
SHADEPLOT
 70
     0
102
SHADEPLOTRESLEVEL
 70
     2
102
SHADEPLOTCUSTOMDPI
 70
   300
  0
XRECORD
  5
1B1
102
{ACAD_REACTORS
330
1B0
102
}
330
1B0
100
AcDbXrecord
280
     1
102
MATERIAL
148
0.0
149
0.0
149
0.0
 93
        0
 94
       63
282
     0
 72
     1
 77
     1
171
     1
175
     1
179
     1
273
     0
  0
XRECORD
  5
1AF
102
{ACAD_REACTORS
330
1AE
102
}
330
1AE
100
AcDbXrecord
280
     1
102
MATERIAL
148
0.0
149
0.0
149
0.0
 93
        0
 94
       63
282
     0
 72
     1
 77
     1
171
     1
175
     1
179
     1
273
     0
  0
XRECORD
  5
194
102
{ACAD_REACTORS
330
193
102
}
330
193
100
AcDbXrecord
280
     1
102
MATERIAL
148
0.0
149
0.0
149
0.0
 93
        0
 94
       63
282
     0
 72
     1
 77
     1
171
     1
175
     1
179
     1
273
     0
  0
XRECORD
  5
21B
102
{ACAD_REACTORS
330
21A
102
}
330
21A
100
AcDbXrecord
280
     1
102
ACAD_ROUNDTRIP_PRE2007_TABLESTYLE
 90
        4
 91
        0
  1

 92
        4
 93
        0
  2

 94
        4
 95
        0
  3

  0
ENDSEC
  0
EOF
