  0
SECTION
  2
HEADER
  9
$ACADVER
  1
AC1015
  9
$ACADMAINTVER
 70
    20
  9
$DWGCODEPAGE
  3
ANSI_1252
  9
$INSBASE
 10
0.0
 20
0.0
 30
0.0
  9
$EXTMIN
 10
0.0149999999999999
 20
0.0045311709285686
 30
0.0
  9
$EXTMAX
 10
0.8559501070427135
 20
0.4148579169273883
 30
0.0
  9
$LIMMIN
 10
0.0
 20
0.0
  9
$LIMMAX
 10
1.0
 20
0.5
  9
$ORTHOMODE
 70
     0
  9
$REGENMODE
 70
     1
  9
$FILLMODE
 70
     1
  9
$QTEXTMODE
 70
     0
  9
$MIRRTEXT
 70
     0
  9
$LTSCALE
 40
1.0
  9
$ATTMODE
 70
     1
  9
$TEXTSIZE
 40
0.008
  9
$TRACEWID
 40
1.0
  9
$TEXTSTYLE
  7
style1
  9
$CLAYER
  8
Sezione
  9
$CELTYPE
  6
ACAD_ISO10W100
  9
$CECOLOR
 62
   256
  9
$CELTSCALE
 40
1.0
  9
$DISPSILH
 70
     0
  9
$DIMSCALE
 40
0.001
  9
$DIMASZ
 40
1.5
  9
$DIMEXO
 40
0.0625
  9
$DIMDLI
 40
0.38
  9
$DIMRND
 40
0.0
  9
$DIMDLE
 40
0.0
  9
$DIMEXE
 40
0.18
  9
$DIMTP
 40
0.0
  9
$DIMTM
 40
0.0
  9
$DIMTXT
 40
3.0
  9
$DIMCEN
 40
0.0
  9
$DIMTSZ
 40
0.0
  9
$DIMTOL
 70
     0
  9
$DIMLIM
 70
     0
  9
$DIMTIH
 70
     1
  9
$DIMTOH
 70
     1
  9
$DIMSE1
 70
     0
  9
$DIMSE2
 70
     0
  9
$DIMTAD
 70
     0
  9
$DIMZIN
 70
     0
  9
$DIMBLK
  1
ArchTick
  9
$DIMASO
 70
     1
  9
$DIMSHO
 70
     1
  9
$DIMPOST
  1

  9
$DIMAPOST
  1

  9
$DIMALT
 70
     0
  9
$DIMALTD
 70
     2
  9
$DIMALTF
 40
25.4
  9
$DIMLFAC
 40
1.0
  9
$DIMTOFL
 70
     0
  9
$DIMTVP
 40
0.0
  9
$DIMTIX
 70
     0
  9
$DIMSOXD
 70
     0
  9
$DIMSAH
 70
     0
  9
$DIMBLK1
  1

  9
$DIMBLK2
  1

  9
$DIMSTYLE
  2
Bovelacci
  9
$DIMCLRD
 70
     5
  9
$DIMCLRE
 70
     5
  9
$DIMCLRT
 70
     4
  9
$DIMTFAC
 40
1.0
  9
$DIMGAP
 40
2.0
  9
$DIMJUST
 70
     0
  9
$DIMSD1
 70
     0
  9
$DIMSD2
 70
     0
  9
$DIMTOLJ
 70
     1
  9
$DIMTZIN
 70
     0
  9
$DIMALTZ
 70
     0
  9
$DIMALTTZ
 70
     0
  9
$DIMUPT
 70
     0
  9
$DIMDEC
 70
     2
  9
$DIMTDEC
 70
     2
  9
$DIMALTU
 70
     2
  9
$DIMALTTD
 70
     2
  9
$DIMTXSTY
  7
ROMANS
  9
$DIMAUNIT
 70
     0
  9
$DIMADEC
 70
     0
  9
$DIMALTRND
 40
0.0
  9
$DIMAZIN
 70
     0
  9
$DIMDSEP
 70
    46
  9
$DIMATFIT
 70
     3
  9
$DIMFRAC
 70
     0
  9
$DIMLDRBLK
  1

  9
$DIMLUNIT
 70
     2
  9
$DIMLWD
 70
    -2
  9
$DIMLWE
 70
    -2
  9
$DIMTMOVE
 70
     2
  9
$LUNITS
 70
     2
  9
$LUPREC
 70
     2
  9
$SKETCHINC
 40
1.0
  9
$FILLETRAD
 40
0.0
  9
$AUNITS
 70
     0
  9
$AUPREC
 70
     0
  9
$MENU
  1
.
  9
$ELEVATION
 40
0.0
  9
$PELEVATION
 40
0.0
  9
$THICKNESS
 40
0.0
  9
$LIMCHECK
 70
     0
  9
$CHAMFERA
 40
0.0
  9
$CHAMFERB
 40
0.0
  9
$CHAMFERC
 40
0.0
  9
$CHAMFERD
 40
0.0
  9
$SKPOLY
 70
     0
  9
$TDCREATE
 40
2454297.625402373
  9
$TDUCREATE
 40
2454297.542069039
  9
$TDUPDATE
 40
2454306.854762002
  9
$TDUUPDATE
 40
2454306.771428669
  9
$TDINDWG
 40
0.1369636227
  9
$TDUSRTIMER
 40
0.1369616204
  9
$USRTIMER
 70
     1
  9
$ANGBASE
 50
0.0
  9
$ANGDIR
 70
     0
  9
$PDMODE
 70
     0
  9
$PDSIZE
 40
0.0
  9
$PLINEWID
 40
0.0
  9
$SPLFRAME
 70
     0
  9
$SPLINETYPE
 70
     6
  9
$SPLINESEGS
 70
     8
  9
$HANDSEED
  5
F40
  9
$SURFTAB1
 70
     6
  9
$SURFTAB2
 70
     6
  9
$SURFTYPE
 70
     6
  9
$SURFU
 70
     6
  9
$SURFV
 70
     6
  9
$UCSBASE
  2

  9
$UCSNAME
  2

  9
$UCSORG
 10
0.0
 20
0.0
 30
0.0
  9
$UCSXDIR
 10
1.0
 20
0.0
 30
0.0
  9
$UCSYDIR
 10
0.0
 20
1.0
 30
0.0
  9
$UCSORTHOREF
  2

  9
$UCSORTHOVIEW
 70
     0
  9
$UCSORGTOP
 10
0.0
 20
0.0
 30
0.0
  9
$UCSORGBOTTOM
 10
0.0
 20
0.0
 30
0.0
  9
$UCSORGLEFT
 10
0.0
 20
0.0
 30
0.0
  9
$UCSORGRIGHT
 10
0.0
 20
0.0
 30
0.0
  9
$UCSORGFRONT
 10
0.0
 20
0.0
 30
0.0
  9
$UCSORGBACK
 10
0.0
 20
0.0
 30
0.0
  9
$PUCSBASE
  2

  9
$PUCSNAME
  2

  9
$PUCSORG
 10
0.0
 20
0.0
 30
0.0
  9
$PUCSXDIR
 10
1.0
 20
0.0
 30
0.0
  9
$PUCSYDIR
 10
0.0
 20
1.0
 30
0.0
  9
$PUCSORTHOREF
  2

  9
$PUCSORTHOVIEW
 70
     0
  9
$PUCSORGTOP
 10
0.0
 20
0.0
 30
0.0
  9
$PUCSORGBOTTOM
 10
0.0
 20
0.0
 30
0.0
  9
$PUCSORGLEFT
 10
0.0
 20
0.0
 30
0.0
  9
$PUCSORGRIGHT
 10
0.0
 20
0.0
 30
0.0
  9
$PUCSORGFRONT
 10
0.0
 20
0.0
 30
0.0
  9
$PUCSORGBACK
 10
0.0
 20
0.0
 30
0.0
  9
$USERI1
 70
     0
  9
$USERI2
 70
     0
  9
$USERI3
 70
     0
  9
$USERI4
 70
     0
  9
$USERI5
 70
     0
  9
$USERR1
 40
0.0
  9
$USERR2
 40
0.0
  9
$USERR3
 40
0.0
  9
$USERR4
 40
0.0
  9
$USERR5
 40
0.0
  9
$WORLDVIEW
 70
     1
  9
$SHADEDGE
 70
     3
  9
$SHADEDIF
 70
    70
  9
$TILEMODE
 70
     1
  9
$MAXACTVP
 70
    64
  9
$PINSBASE
 10
0.0
 20
0.0
 30
0.0
  9
$PLIMCHECK
 70
     0
  9
$PEXTMIN
 10
1.000000000000000E+20
 20
1.000000000000000E+20
 30
1.000000000000000E+20
  9
$PEXTMAX
 10
-1.000000000000000E+20
 20
-1.000000000000000E+20
 30
-1.000000000000000E+20
  9
$PLIMMIN
 10
0.0
 20
0.0
  9
$PLIMMAX
 10
420.0
 20
297.0
  9
$UNITMODE
 70
     0
  9
$VISRETAIN
 70
     1
  9
$PLINEGEN
 70
     0
  9
$PSLTSCALE
 70
     1
  9
$TREEDEPTH
 70
  3020
  9
$CMLSTYLE
  2
Standard
  9
$CMLJUST
 70
     0
  9
$CMLSCALE
 40
20.0
  9
$PROXYGRAPHICS
 70
     1
  9
$MEASUREMENT
 70
     1
  9
$CELWEIGHT
370
    -1
  9
$ENDCAPS
280
     0
  9
$JOINSTYLE
280
     0
  9
$LWDISPLAY
290
     0
  9
$INSUNITS
 70
     4
  9
$HYPERLINKBASE
  1

  9
$STYLESHEET
  1

  9
$XEDIT
290
     1
  9
$CEPSNTYPE
380
     0
  9
$PSTYLEMODE
290
     1
  9
$FINGERPRINTGUID
  2
{904A8C64-524F-4709-A9C6-320D2C273A6D}
  9
$VERSIONGUID
  2
{C7D7762A-8832-4F25-AF9B-072938EBD78D}
  9
$EXTNAMES
290
     1
  9
$PSVPSCALE
 40
0.0
  9
$OLESTARTUP
290
     0
  0
ENDSEC
  0
SECTION
  2
CLASSES
  0
CLASS
  1
ACDBDICTIONARYWDFLT
  2
AcDbDictionaryWithDefault
  3
ObjectDBX Classes
 90
        0
280
     0
281
     0
  0
CLASS
  1
TABLESTYLE
  2
AcDbTableStyle
  3
ObjectDBX Classes
 90
     2047
280
     0
281
     0
  0
CLASS
  1
SORTENTSTABLE
  2
AcDbSortentsTable
  3
ObjectDBX Classes
 90
        0
280
     0
281
     0
  0
CLASS
  1
DICTIONARYVAR
  2
AcDbDictionaryVar
  3
ObjectDBX Classes
 90
        0
280
     0
281
     0
  0
CLASS
  1
ACDBPLACEHOLDER
  2
AcDbPlaceHolder
  3
ObjectDBX Classes
 90
        0
280
     0
281
     0
  0
CLASS
  1
LAYOUT
  2
AcDbLayout
  3
ObjectDBX Classes
 90
        0
280
     0
281
     0
  0
CLASS
  1
DIMASSOC
  2
AcDbDimAssoc
  3
"AcDbDimAssoc|Product Desc:     AcDim ARX App For Dimension|Company:          Autodesk, Inc.|WEB Address:      www.autodesk.com"
 90
        0
280
     0
281
     0
  0
CLASS
  1
MATERIAL
  2
AcDbMaterial
  3
ObjectDBX Classes
 90
        0
280
     0
281
     0
  0
CLASS
  1
VISUALSTYLE
  2
AcDbVisualStyle
  3
ObjectDBX Classes
 90
     4095
280
     0
281
     0
  0
ENDSEC
  0
SECTION
  2
TABLES
  0
TABLE
  2
VPORT
  5
177
330
0
100
AcDbSymbolTable
 70
    15
  0
VPORT
  5
F35
330
177
100
AcDbSymbolTableRecord
100
AcDbViewportTableRecord
  2
*Active
 70
     0
 10
0.0
 20
0.0
 11
1.0
 21
1.0
 12
0.2080203119695554
 22
0.1482458046370214
 13
0.0
 23
0.0
 14
10.0
 24
10.0
 15
10.0
 25
10.0
 16
0.0
 26
0.0
 36
1.0
 17
0.0
 27
0.0
 37
0.0
 40
0.277140258015887
 41
1.546526867627784
 42
50.0
 43
0.0
 44
0.0
 50
0.0
 51
0.0
 71
     0
 72
  1000
 73
     1
 74
     3
 75
     0
 76
     0
 77
     0
 78
     0
281
     0
 65
     1
110
0.0
120
0.0
130
0.0
111
1.0
121
0.0
131
0.0
112
0.0
122
1.0
132
0.0
 79
     0
146
0.0
  0
ENDTAB
  0
TABLE
  2
LTYPE
  5
172
330
0
100
AcDbSymbolTable
 70
     3
  0
LTYPE
  5
173
330
172
100
AcDbSymbolTableRecord
100
AcDbLinetypeTableRecord
  2
ByBlock
 70
     0
  3

 72
    65
 73
     0
 40
0.0
  0
LTYPE
  5
174
330
172
100
AcDbSymbolTableRecord
100
AcDbLinetypeTableRecord
  2
ByLayer
 70
     0
  3

 72
    65
 73
     0
 40
0.0
  0
LTYPE
  5
C
330
172
100
AcDbSymbolTableRecord
100
AcDbLinetypeTableRecord
  2
Continuous
 70
     0
  3
Solid line
 72
    65
 73
     0
 40
0.0
  0
LTYPE
  5
14E
330
172
100
AcDbSymbolTableRecord
100
AcDbLinetypeTableRecord
  2
ACAD_ISO10W100
 70
     0
  3
ISO dash dot __ . __ . __ . __ . __ . __ . __ .
 72
    65
 73
     4
 40
18.0
 49
12.0
 74
     0
 49
-3.0
 74
     0
 49
0.0
 74
     0
 49
-3.0
 74
     0
  0
ENDTAB
  0
TABLE
  2
LAYER
  5
16D
102
{ACAD_XDICTIONARY
360
16E
102
}
330
0
100
AcDbSymbolTable
 70
     7
  0
LAYER
  5
6
330
16D
100
AcDbSymbolTableRecord
100
AcDbLayerTableRecord
  2
0
 70
     0
 62
     7
  6
Continuous
370
    -3
390
7
  0
LAYER
  5
15F
330
16D
100
AcDbSymbolTableRecord
100
AcDbLayerTableRecord
  2
Defpoints
 70
     0
 62
     7
  6
Continuous
290
     0
370
    -3
390
7
  0
LAYER
  5
28
330
16D
100
AcDbSymbolTableRecord
100
AcDbLayerTableRecord
  2
Profilo
 70
     0
 62
     1
  6
Continuous
370
    -3
390
7
1001
AcAecLayerStandard
1000

1000

  0
LAYER
  5
14D
330
16D
100
AcDbSymbolTableRecord
100
AcDbLayerTableRecord
  2
Sezione
 70
     0
 62
     2
  6
Continuous
370
    -3
390
7
1001
AcAecLayerStandard
1000

1000

  0
LAYER
  5
E
330
16D
100
AcDbSymbolTableRecord
100
AcDbLayerTableRecord
  2
Table
 70
     0
 62
     3
  6
Continuous
370
    -3
390
7
1001
AcAecLayerStandard
1000

1000

  0
LAYER
  5
19
330
16D
100
AcDbSymbolTableRecord
100
AcDbLayerTableRecord
  2
Text
 70
     0
 62
     4
  6
Continuous
370
    -3
390
7
1001
AcAecLayerStandard
1000

1000

  0
LAYER
  5
256
330
16D
100
AcDbSymbolTableRecord
100
AcDbLayerTableRecord
  2
Bovelacci
 70
     0
 62
     9
  6
Continuous
370
    -3
390
7
1001
AcAecLayerStandard
1000

1000

  0
ENDTAB
  0
TABLE
  2
STYLE
  5
170
330
0
100
AcDbSymbolTable
 70
     3
  0
STYLE
  5
1A
330
170
100
AcDbSymbolTableRecord
100
AcDbTextStyleTableRecord
  2
Standard
 70
     0
 40
0.0
 41
1.0
 50
0.0
 71
     0
 42
2.5
  3
txt
  4

  0
STYLE
  5
20
330
170
100
AcDbSymbolTableRecord
100
AcDbTextStyleTableRecord
  2
ROMANS
 70
     0
 40
0.0
 41
1.0
 50
0.0
 71
     0
 42
2.5
  3
romans
  4

  0
STYLE
  5
26
330
170
100
AcDbSymbolTableRecord
100
AcDbTextStyleTableRecord
  2
style1
 70
     0
 40
0.0
 41
1.0
 50
0.0
 71
     0
 42
0.008
  3
TIMES.TTF
  4

1001
ACAD
1000
Times New Roman
1071
       18
  0
ENDTAB
  0
TABLE
  2
VIEW
  5
175
330
0
100
AcDbSymbolTable
 70
     4
  0
ENDTAB
  0
TABLE
  2
UCS
  5
176
330
0
100
AcDbSymbolTable
 70
     0
  0
ENDTAB
  0
TABLE
  2
APPID
  5
17B
330
0
100
AcDbSymbolTable
 70
    10
  0
APPID
  5
1B
330
17B
100
AcDbSymbolTableRecord
100
AcDbRegAppTableRecord
  2
ACAD
 70
     0
  0
APPID
  5
157
330
17B
100
AcDbSymbolTableRecord
100
AcDbRegAppTableRecord
  2
ACAD_DSTYLE_DIMJOGGED_JOGANGLE_SYMBOL
 70
     0
  0
APPID
  5
F
330
17B
100
AcDbSymbolTableRecord
100
AcDbRegAppTableRecord
  2
AcAecLayerStandard
 70
     0
  0
APPID
  5
19C
330
17B
100
AcDbSymbolTableRecord
100
AcDbRegAppTableRecord
  2
ACAD_DSTYLE_DIMFLIPARROW_WHICH_SYMBOL
 70
     0
  0
APPID
  5
1A7
330
17B
100
AcDbSymbolTableRecord
100
AcDbRegAppTableRecord
  2
ACAD_DSTYLE_DIMEXT_LENGTH
 70
     0
  0
APPID
  5
1D2
330
17B
100
AcDbSymbolTableRecord
100
AcDbRegAppTableRecord
  2
ACAD_EXEMPT_FROM_CAD_STANDARDS
 70
     0
  0
APPID
  5
1D3
330
17B
100
AcDbSymbolTableRecord
100
AcDbRegAppTableRecord
  2
ACAD_DSTYLE_DIM_LINETYPE
 70
     0
  0
APPID
  5
1D4
330
17B
100
AcDbSymbolTableRecord
100
AcDbRegAppTableRecord
  2
ACAD_DSTYLE_DIM_EXT1_LINETYPE
 70
     0
  0
APPID
  5
1D5
330
17B
100
AcDbSymbolTableRecord
100
AcDbRegAppTableRecord
  2
ACAD_DSTYLE_DIM_EXT2_LINETYPE
 70
     0
  0
APPID
  5
25C
330
17B
100
AcDbSymbolTableRecord
100
AcDbRegAppTableRecord
  2
ACAD_PSEXT
 70
     0
  0
ENDTAB
  0
TABLE
  2
DIMSTYLE
  5
17C
330
0
100
AcDbSymbolTable
 70
     8
100
AcDbDimStyleTable
 71
     2
340
156
340
17D
  0
DIMSTYLE
105
17D
330
17C
100
AcDbSymbolTableRecord
100
AcDbDimStyleTableRecord
  2
ISO-25
 70
     0
 41
2.5
 42
0.625
 43
3.75
 44
1.25
 73
     0
 74
     0
 77
     1
 78
     8
140
2.5
141
2.5
143
0.03937007874016
147
0.625
171
     3
172
     1
271
     2
272
     2
274
     3
278
    44
283
     0
284
     8
340
1A
  0
DIMSTYLE
105
156
102
{ACAD_REACTORS
330
F16
102
}
330
17C
100
AcDbSymbolTableRecord
100
AcDbDimStyleTableRecord
  2
Bovelacci
 70
     0
 40
0.001
 41
1.5
140
3.0
141
0.0
147
2.0
176
     5
177
     5
178
     4
271
     2
272
     2
279
     2
340
20
342
152
1001
ACAD_DSTYLE_DIMJOGGED_JOGANGLE_SYMBOL
1070
   384
1040
0.7853981633974483
1001
ACAD_DSTYLE_DIMEXT_LENGTH
1070
   378
1040
0.18
  0
DIMSTYLE
105
257
330
17C
100
AcDbSymbolTableRecord
100
AcDbDimStyleTableRecord
  2
Dim 1-100
 70
     0
 40
0.1
 41
1.5
 42
0.0
 43
5.0
 44
1.25
 45
0.005
 46
1.25
 73
     0
 74
     0
 77
     1
 78
     9
140
2.0
141
2.5
147
1.0
172
     1
174
     1
179
     2
279
     2
289
     2
340
20
342
152
  0
DIMSTYLE
105
258
330
17C
100
AcDbSymbolTableRecord
100
AcDbDimStyleTableRecord
  2
Standard
 70
     0
 42
0.0
 73
     0
 74
     0
 77
     1
271
     2
272
     2
340
20
  0
DIMSTYLE
105
259
330
17C
100
AcDbSymbolTableRecord
100
AcDbDimStyleTableRecord
  2
Dim 1-50
 70
     0
 40
0.05
 41
1.5
 42
0.0
 43
5.0
 44
1.25
 45
0.005
 46
1.25
 73
     0
 74
     0
 77
     1
 78
     9
140
2.0
141
2.5
147
1.0
172
     1
174
     1
179
     2
279
     2
289
     2
340
20
342
152
  0
DIMSTYLE
105
25A
330
17C
100
AcDbSymbolTableRecord
100
AcDbDimStyleTableRecord
  2
Dim 1-200
 70
     0
 40
0.2
 41
1.5
 42
0.0
 43
5.0
 44
1.25
 45
0.005
 46
1.25
 73
     0
 74
     0
 77
     1
 78
     9
140
2.0
141
2.5
147
1.0
172
     1
174
     1
179
     2
271
     2
272
     2
279
     2
289
     2
340
20
342
152
  0
DIMSTYLE
105
25B
330
17C
100
AcDbSymbolTableRecord
100
AcDbDimStyleTableRecord
  2
AEC Scale - Italiano
 70
     0
 41
1.0
 42
10.0
 43
10.0
 44
10.0
 73
     0
 74
     0
 75
     1
 76
     1
 77
     1
140
10.0
141
1.0
147
10.0
173
     1
271
     0
272
     0
279
     2
340
1A
343
251
344
24B
  0
ENDTAB
  0
TABLE
  2
BLOCK_RECORD
  5
1
330
0
100
AcDbSymbolTable
 70
    24
  0
BLOCK_RECORD
  5
2
102
{ACAD_XDICTIONARY
360
3
102
}
330
1
100
AcDbSymbolTableRecord
100
AcDbBlockTableRecord
  2
*Model_Space
340
163
  0
BLOCK_RECORD
  5
165
330
1
100
AcDbSymbolTableRecord
100
AcDbBlockTableRecord
  2
*Paper_Space
340
168
  0
BLOCK_RECORD
  5
169
330
1
100
AcDbSymbolTableRecord
100
AcDbBlockTableRecord
  2
*Paper_Space0
340
16C
  0
BLOCK_RECORD
  5
152
330
1
100
AcDbSymbolTableRecord
100
AcDbBlockTableRecord
  2
_ArchTick
340
0
310
2800000020000000200000000100080000000000000400000000000000000000000000000000000000000000000080000080000000808000800000008000800080800000C0C0C000C0DCC000F0CAA6000020400000206000002080000020A0000020C0000020E00000400000004020000040400000406000004080000040A0
310
000040C0000040E00000600000006020000060400000606000006080000060A0000060C0000060E00000800000008020000080400000806000008080000080A0000080C0000080E00000A0000000A0200000A0400000A0600000A0800000A0A00000A0C00000A0E00000C0000000C0200000C0400000C0600000C0800000C0
310
A00000C0C00000C0E00000E0000000E0200000E0400000E0600000E0800000E0A00000E0C00000E0E00040000000400020004000400040006000400080004000A0004000C0004000E00040200000402020004020400040206000402080004020A0004020C0004020E000404000004040200040404000404060004040800040
310
40A0004040C0004040E00040600000406020004060400040606000406080004060A0004060C0004060E00040800000408020004080400040806000408080004080A0004080C0004080E00040A0000040A0200040A0400040A0600040A0800040A0A00040A0C00040A0E00040C0000040C0200040C0400040C0600040C08000
310
40C0A00040C0C00040C0E00040E0000040E0200040E0400040E0600040E0800040E0A00040E0C00040E0E00080000000800020008000400080006000800080008000A0008000C0008000E00080200000802020008020400080206000802080008020A0008020C0008020E00080400000804020008040400080406000804080
310
008040A0008040C0008040E00080600000806020008060400080606000806080008060A0008060C0008060E00080800000808020008080400080806000808080008080A0008080C0008080E00080A0000080A0200080A0400080A0600080A0800080A0A00080A0C00080A0E00080C0000080C0200080C0400080C0600080C0
310
800080C0A00080C0C00080C0E00080E0000080E0200080E0400080E0600080E0800080E0A00080E0C00080E0E000C0000000C0002000C0004000C0006000C0008000C000A000C000C000C000E000C0200000C0202000C0204000C0206000C0208000C020A000C020C000C020E000C0400000C0402000C0404000C0406000C0
310
408000C040A000C040C000C040E000C0600000C0602000C0604000C0606000C0608000C060A000C060C000C060E000C0800000C0802000C0804000C0806000C0808000C080A000C080C000C080E000C0A00000C0A02000C0A04000C0A06000C0A08000C0A0A000C0A0C000C0A0E000C0C00000C0C02000C0C04000C0C06000
310
C0C08000C0C0A000F0FBFF00A4A0A000808080000000FF0000FF000000FFFF00FF000000FF00FF00FFFF0000FFFFFF00000000FF000000000000000000000000000000000000000000000000000000000000FF00FF00000000000000000000000000000000000000000000000000000000FF000000FF000000000000000000
310
0000000000000000000000000000000000FF0000000000FF0000000000000000000000000000000000000000000000000000FF0000000000FF0000000000000000000000000000000000000000000000000000FF0000000000FF0000000000000000000000000000000000000000000000000000FF0000000000FF00000000
310
00000000000000000000000000000000000000000000FF0000000000FF0000000000000000000000000000000000000000000000000000FF0000000000FF0000000000000000000000000000000000000000000000000000FF0000000000FF0000000000000000000000000000000000000000000000000000FF0000000000
310
FF0000000000000000000000000000000000000000000000000000FF0000000000FF0000000000000000000000000000000000000000000000000000FF0000000000FF0000000000000000000000000000000000000000000000000000FF0000000000FF0000000000000000000000000000000000000000000000000000FF
310
0000000000FF0000000000000000000000000000000000000000000000000000FF0000000000FF0000000000000000000000000000000000000000000000000000FF0000000000FF0000000000000000000000000000000000000000000000000000FF0000000000FF00000000000000000000000000000000000000000000
310
00000000FF0000000000FF0000000000000000000000000000000000000000000000000000FF0000000000FF0000000000000000000000000000000000000000000000000000FF0000000000FF0000000000000000000000000000000000000000000000000000FF0000000000FF0000000000000000000000000000000000
310
000000000000000000FF0000000000FF0000000000000000000000000000000000000000000000000000FF0000000000FF0000000000000000000000000000000000000000000000000000FF0000000000FF0000000000000000000000000000000000000000000000000000FF0000000000FF000000000000000000000000
310
0000000000000000000000000000FF0000000000FF0000000000000000000000000000000000000000000000000000FF0000000000FF0000000000000000000000000000000000000000000000000000FF0000000000FF0000000000000000000000000000000000000000000000000000FF000000FF000000000000000000
310
00000000000000000000000000000000000000FF00FF000000000000000000000000000000000000000000000000000000000000FF000000
102
{BLKREFS
331
211
331
318
331
354
331
429
331
50A
331
5EC
331
6DD
331
847
331
9CD
331
A12
331
BBC
331
CB8
331
F31
102
}
  0
BLOCK_RECORD
  5
24B
330
1
100
AcDbSymbolTableRecord
100
AcDbBlockTableRecord
  2
_Arrivo
340
0
310
2800000020000000200000000100080000000000000400000000000000000000000000000000000000000000000080000080000000808000800000008000800080800000C0C0C000C0DCC000F0CAA6000020400000206000002080000020A0000020C0000020E00000400000004020000040400000406000004080000040A0
310
000040C0000040E00000600000006020000060400000606000006080000060A0000060C0000060E00000800000008020000080400000806000008080000080A0000080C0000080E00000A0000000A0200000A0400000A0600000A0800000A0A00000A0C00000A0E00000C0000000C0200000C0400000C0600000C0800000C0
310
A00000C0C00000C0E00000E0000000E0200000E0400000E0600000E0800000E0A00000E0C00000E0E00040000000400020004000400040006000400080004000A0004000C0004000E00040200000402020004020400040206000402080004020A0004020C0004020E000404000004040200040404000404060004040800040
310
40A0004040C0004040E00040600000406020004060400040606000406080004060A0004060C0004060E00040800000408020004080400040806000408080004080A0004080C0004080E00040A0000040A0200040A0400040A0600040A0800040A0A00040A0C00040A0E00040C0000040C0200040C0400040C0600040C08000
310
40C0A00040C0C00040C0E00040E0000040E0200040E0400040E0600040E0800040E0A00040E0C00040E0E00080000000800020008000400080006000800080008000A0008000C0008000E00080200000802020008020400080206000802080008020A0008020C0008020E00080400000804020008040400080406000804080
310
008040A0008040C0008040E00080600000806020008060400080606000806080008060A0008060C0008060E00080800000808020008080400080806000808080008080A0008080C0008080E00080A0000080A0200080A0400080A0600080A0800080A0A00080A0C00080A0E00080C0000080C0200080C0400080C0600080C0
310
800080C0A00080C0C00080C0E00080E0000080E0200080E0400080E0600080E0800080E0A00080E0C00080E0E000C0000000C0002000C0004000C0006000C0008000C000A000C000C000C000E000C0200000C0202000C0204000C0206000C0208000C020A000C020C000C020E000C0400000C0402000C0404000C0406000C0
310
408000C040A000C040C000C040E000C0600000C0602000C0604000C0606000C0608000C060A000C060C000C060E000C0800000C0802000C0804000C0806000C0808000C080A000C080C000C080E000C0A00000C0A02000C0A04000C0A06000C0A08000C0A0A000C0A0C000C0A0E000C0C00000C0C02000C0C04000C0C06000
310
C0C08000C0C0A000F0FBFF00A4A0A000808080000000FF0000FF000000FFFF00FF000000FF00FF00FFFF0000FFFFFF00000000000000000000000000000000000000000000000000000000000000000000000000000000000000FF0000000000000000000000000000000000000000000000000000000000000000FF000000
310
00000000000000000000000000000000000000000000000000000000FF0000000000000000000000000000000000000000000000000000000000000000FF00000000000000000000000000000000000000000000000000000000000000FF0000000000000000000000000000000000000000000000000000000000000000FF
310
0000000000000000000000000000000000000000000000000000000000000000FF00000000000000000000000000000000000000000000000000000000000000FF0000000000000000000000000000000000000000000000000000000000000000FF0000000000000000000000000000000000000000000000000000000000
310
0000FF0000000000000000000000000000000000000000000000000000000000000000FF00000000000000000000000000000000000000000000000000000000000000FF0000000000000000000000000000000000000000000000000000000000000000FF0000FF0000000000000000000000000000000000000000000000
310
000000000000FFFF000000000000000000000000000000000000000000000000000000000000FFFF00000000000000000000000000000000000000000000000000000000FFFFFFFFFFFF00000000000000000000000000000000000000000000000000000000FFFF0000000000000000000000000000000000000000000000
310
000000000000FF0000FF000000000000000000000000000000000000000000000000000000FF00000000000000000000000000000000000000000000000000000000000000FF000000000000000000000000000000000000000000000000000000000000FF0000000000000000000000000000000000000000000000000000
310
0000000000FF000000000000000000000000000000000000000000000000000000000000FF00000000000000000000000000000000000000000000000000000000000000FF000000000000000000000000000000000000000000000000000000000000FF000000000000000000000000000000000000000000000000000000
310
000000FF00000000000000000000000000000000000000000000000000000000000000FF000000000000000000000000000000000000000000000000000000000000FF00000000000000000000000000000000000000000000000000000000000000FF00000000000000000000000000000000000000000000000000000000
310
0000FF0000000000000000000000000000000000000000000000000000000000000000000000000000000000000000000000000000000000
  0
BLOCK_RECORD
  5
251
330
1
100
AcDbSymbolTableRecord
100
AcDbBlockTableRecord
  2
_Partenza
340
0
310
2800000020000000200000000100080000000000000400000000000000000000000000000000000000000000000080000080000000808000800000008000800080800000C0C0C000C0DCC000F0CAA6000020400000206000002080000020A0000020C0000020E00000400000004020000040400000406000004080000040A0
310
000040C0000040E00000600000006020000060400000606000006080000060A0000060C0000060E00000800000008020000080400000806000008080000080A0000080C0000080E00000A0000000A0200000A0400000A0600000A0800000A0A00000A0C00000A0E00000C0000000C0200000C0400000C0600000C0800000C0
310
A00000C0C00000C0E00000E0000000E0200000E0400000E0600000E0800000E0A00000E0C00000E0E00040000000400020004000400040006000400080004000A0004000C0004000E00040200000402020004020400040206000402080004020A0004020C0004020E000404000004040200040404000404060004040800040
310
40A0004040C0004040E00040600000406020004060400040606000406080004060A0004060C0004060E00040800000408020004080400040806000408080004080A0004080C0004080E00040A0000040A0200040A0400040A0600040A0800040A0A00040A0C00040A0E00040C0000040C0200040C0400040C0600040C08000
310
40C0A00040C0C00040C0E00040E0000040E0200040E0400040E0600040E0800040E0A00040E0C00040E0E00080000000800020008000400080006000800080008000A0008000C0008000E00080200000802020008020400080206000802080008020A0008020C0008020E00080400000804020008040400080406000804080
310
008040A0008040C0008040E00080600000806020008060400080606000806080008060A0008060C0008060E00080800000808020008080400080806000808080008080A0008080C0008080E00080A0000080A0200080A0400080A0600080A0800080A0A00080A0C00080A0E00080C0000080C0200080C0400080C0600080C0
310
800080C0A00080C0C00080C0E00080E0000080E0200080E0400080E0600080E0800080E0A00080E0C00080E0E000C0000000C0002000C0004000C0006000C0008000C000A000C000C000C000E000C0200000C0202000C0204000C0206000C0208000C020A000C020C000C020E000C0400000C0402000C0404000C0406000C0
310
408000C040A000C040C000C040E000C0600000C0602000C0604000C0606000C0608000C060A000C060C000C060E000C0800000C0802000C0804000C0806000C0808000C080A000C080C000C080E000C0A00000C0A02000C0A04000C0A06000C0A08000C0A0A000C0A0C000C0A0E000C0C00000C0C02000C0C04000C0C06000
310
C0C08000C0C0A000F0FBFF00A4A0A000808080000000FF0000FF000000FFFF00FF000000FF00FF00FFFF0000FFFFFF0000000000000000000000000000000000000000000000000000000000000000000000000000000000000000000000000000000000000000000000000000000000000000000000000000000000000000
310
000000000000000000000000000000000000000000000000000000000000000000000000000000000000000000000000000000000000000000000000000000000000000000000000000000000000000000000000000000000000000000000000000000000000000000000000000000000000FFFFFFFFFFFFFFFFFFFFFFFFFF
310
FFFFFFFFFFFFFFFFFFFFFFFFFFFFFFFFFF0000000000000000000000000000000000000000000000000000000000000000000000000000000000000000000000000000000000000000000000000000000000000000000000000000000000000000000000000000000000000000000000000000000000000000000000000000
310
00000000000000000000000000000000000000000000000000000000000000000000000000000000000000000000000000000000000000000000000000000000000000000000000000000000000000000000000000000000000000000000000000000000000000000000000000000000000000000000000000000000000000
310
00000000000000000000000000000000000000000000000000000000000000000000000000000000000000000000000000000000000000000000000000000000000000000000000000000000000000000000000000000000000000000000000000000000000000000000000000000000000000000000000000000000000000
310
00000000000000000000000000000000000000000000000000000000000000000000000000000000000000000000000000000000000000000000000000000000000000000000000000000000000000000000000000000000000000000000000000000000000000000000000000000000000000000000000000000000000000
310
000000000000000000000000000000000000000000000000000000000000000000000000000000000000000000000000000000000000000000000000000000000000000000000000000000000000000000000000000000FFFFFFFFFFFFFFFFFFFFFFFFFFFFFFFFFFFFFFFFFFFFFFFFFFFFFFFFFFFF00000000000000000000
310
00000000000000000000000000000000000000000000000000000000000000000000000000000000000000000000000000000000000000000000000000000000000000000000000000000000000000000000000000000000000000000000000000000000000000000000000000000000000000000000000000000000000000
310
0000000000000000000000000000000000000000000000000000000000000000000000000000000000000000000000000000000000000000
  0
BLOCK_RECORD
  5
6C3
330
1
100
AcDbSymbolTableRecord
100
AcDbBlockTableRecord
  2
*D10
340
0
  0
BLOCK_RECORD
  5
82D
330
1
100
AcDbSymbolTableRecord
100
AcDbBlockTableRecord
  2
*D12
340
0
  0
BLOCK_RECORD
  5
9B3
330
1
100
AcDbSymbolTableRecord
100
AcDbBlockTableRecord
  2
*D15
340
0
  0
BLOCK_RECORD
  5
9F8
330
1
100
AcDbSymbolTableRecord
100
AcDbBlockTableRecord
  2
*D17
340
0
  0
BLOCK_RECORD
  5
BA2
330
1
100
AcDbSymbolTableRecord
100
AcDbBlockTableRecord
  2
*D19
340
0
  0
BLOCK_RECORD
  5
C9E
330
1
100
AcDbSymbolTableRecord
100
AcDbBlockTableRecord
  2
*D21
340
0
  0
BLOCK_RECORD
  5
F17
330
1
100
AcDbSymbolTableRecord
100
AcDbBlockTableRecord
  2
*D23
340
0
  0
ENDTAB
  0
ENDSEC
  0
SECTION
  2
BLOCKS
  0
BLOCK
  5
5
330
2
100
AcDbEntity
  8
0
100
AcDbBlockBegin
  2
*Model_Space
 70
     0
 10
0.0
 20
0.0
 30
0.0
  3
*Model_Space
  1

  0
ENDBLK
  5
162
330
2
100
AcDbEntity
  8
0
100
AcDbBlockEnd
  0
BLOCK
  5
166
330
165
100
AcDbEntity
 67
     1
  8
0
100
AcDbBlockBegin
  2
*Paper_Space
 70
     0
 10
0.0
 20
0.0
 30
0.0
  3
*Paper_Space
  1

  0
ENDBLK
  5
167
330
165
100
AcDbEntity
 67
     1
  8
0
100
AcDbBlockEnd
  0
BLOCK
  5
16A
330
169
100
AcDbEntity
 67
     1
  8
0
100
AcDbBlockBegin
  2
*Paper_Space0
 70
     0
 10
0.0
 20
0.0
 30
0.0
  3
*Paper_Space0
  1

  0
ENDBLK
  5
16B
330
169
100
AcDbEntity
 67
     1
  8
0
100
AcDbBlockEnd
  0
BLOCK
  5
153
330
152
100
AcDbEntity
  8
0
 62
     1
100
AcDbBlockBegin
  2
_ArchTick
 70
     0
 10
0.0
 20
0.0
 30
0.0
  3
_ArchTick
  1

  0
LWPOLYLINE
  5
154
330
152
100
AcDbEntity
  8
0
  6
ByBlock
 62
     0
100
AcDbPolyline
 90
        2
 70
     0
 43
0.15
 10
-0.5
 20
-0.5
 10
0.5
 20
0.5
  0
ENDBLK
  5
155
330
152
100
AcDbEntity
  8
0
 62
     1
100
AcDbBlockEnd
  0
BLOCK
  5
24C
330
24B
100
AcDbEntity
  8
0
100
AcDbBlockBegin
  2
_Arrivo
 70
     0
 10
0.0
 20
0.0
 30
0.0
  3
_Arrivo
  1

  0
LINE
  5
24D
330
24B
100
AcDbEntity
  8
0
  6
ByBlock
 62
     0
370
    -2
100
AcDbLine
 10
0.025
 20
-0.0433012701891858
 30
0.0
 11
-0.15
 21
0.2598076211353328
 31
0.0
  0
LINE
  5
24E
330
24B
100
AcDbEntity
  8
0
  6
ByBlock
 62
     0
370
    -2
100
AcDbLine
 10
0.025
 20
0.0433012701892585
 30
0.0
 11
-0.15
 21
-0.2598076211353328
 31
0.0
  0
LINE
  5
24F
330
24B
100
AcDbEntity
  8
0
  6
ByBlock
 62
     0
370
    -2
100
AcDbLine
 10
-0.05
 20
0.0
 30
0.0
 11
0.05
 21
0.0
 31
0.0
  0
ENDBLK
  5
250
330
24B
100
AcDbEntity
  8
0
100
AcDbBlockEnd
  0
BLOCK
  5
252
330
251
100
AcDbEntity
  8
0
100
AcDbBlockBegin
  2
_Partenza
 70
     0
 10
0.0
 20
0.0
 30
0.0
  3
_Partenza
  1

  0
LINE
  5
253
330
251
100
AcDbEntity
  8
0
  6
ByBlock
 62
     0
370
    -2
100
AcDbLine
 10
-0.05
 20
0.05
 30
0.0
 11
0.1
 21
0.05
 31
0.0
  0
LINE
  5
254
330
251
100
AcDbEntity
  8
0
  6
ByBlock
 62
     0
370
    -2
100
AcDbLine
 10
-0.05
 20
-0.05
 30
0.0
 11
0.1
 21
-0.05
 31
0.0
  0
ENDBLK
  5
255
330
251
100
AcDbEntity
  8
0
100
AcDbBlockEnd
  0
BLOCK
  5
6CA
330
6C3
100
AcDbEntity
  8
0
100
AcDbBlockBegin
  2
*D10
 70
     1
 10
0.0
 20
0.0
 30
0.0
  3
*D10
  1

  0
LINE
  5
6DA
330
6C3
100
AcDbEntity
  8
Sezione
  6
ACAD_ISO10W100
 62
     5
370
    -2
100
AcDbLine
 10
0.2580272919594555
 20
0.2091457005418985
 30
0.0
 11
0.2565272919594555
 21
0.2091457005418986
 31
0.0
  0
LINE
  5
6DB
330
6C3
100
AcDbEntity
  8
Sezione
  6
ACAD_ISO10W100
 62
     5
370
    -2
100
AcDbLine
 10
0.2565272919594555
 20
0.2091457005418986
 30
0.0
 11
0.2544161538279562
 21
0.2070142466273769
 31
0.0
  0
MTEXT
  5
6DC
330
6C3
100
AcDbEntity
  8
Sezione
  6
ACAD_ISO10W100
 62
     4
100
AcDbMText
 10
0.2724558633880269
 20
0.2091457005418985
 30
0.0
 40
0.003
 41
0.0
 71
     5
 72
     1
  1
\A1;d 250 mm
  7
ROMANS
 73
     1
 44
1.0
1001
ACAD
1000
MTEXTBEGIN
1070
    73
1070
     1
1070
    44
1040
1.0
1070
    74
1070
     0
1000
MTEXTEND
  0
INSERT
  5
6DD
330
6C3
100
AcDbEntity
  8
Sezione
  6
ACAD_ISO10W100
 62
     5
370
    -2
100
AcDbBlockReference
  2
_ArchTick
 10
0.2544161538279562
 20
0.2070142466273769
 30
0.0
 41
0.0015
 42
0.0015
 43
0.0015
 50
225.2743605124572
  0
POINT
  5
6DE
330
6C3
100
AcDbEntity
  8
Defpoints
  6
ACAD_ISO10W100
 62
     0
100
AcDbPoint
 10
0.2544161538279562
 20
0.2070142466273769
 30
0.0
  0
POINT
  5
6DF
330
6C3
100
AcDbEntity
  8
Defpoints
  6
ACAD_ISO10W100
 62
     0
100
AcDbPoint
 10
0.1664520650154866
 20
0.1182036668556404
 30
0.0
  0
ENDBLK
  5
6CB
330
6C3
100
AcDbEntity
  8
0
100
AcDbBlockEnd
  0
BLOCK
  5
834
330
82D
100
AcDbEntity
  8
0
100
AcDbBlockBegin
  2
*D12
 70
     1
 10
0.0
 20
0.0
 30
0.0
  3
*D12
  1

  0
LINE
  5
844
330
82D
100
AcDbEntity
  8
Sezione
  6
ACAD_ISO10W100
 62
     5
370
    -2
100
AcDbLine
 10
0.2668759768663114
 20
0.2106523346372896
 30
0.0
 11
0.2653759768663114
 21
0.2106523346372896
 31
0.0
  0
LINE
  5
845
330
82D
100
AcDbEntity
  8
Sezione
  6
ACAD_ISO10W100
 62
     5
370
    -2
100
AcDbLine
 10
0.2653759768663114
 20
0.2106523346372896
 30
0.0
 11
0.2631789214633089
 21
0.2086095552668882
 31
0.0
  0
MTEXT
  5
846
330
82D
100
AcDbEntity
  8
Sezione
  6
ACAD_ISO10W100
 62
     4
100
AcDbMText
 10
0.2813045482948828
 20
0.2106523346372896
 30
0.0
 40
0.003
 41
0.0
 71
     5
 72
     1
  1
\A1;d 290 mm
  7
ROMANS
 73
     1
 44
1.0
1001
ACAD
1000
MTEXTBEGIN
1070
    73
1070
     1
1070
    44
1040
1.0
1070
    74
1070
     0
1000
MTEXTEND
  0
INSERT
  5
847
330
82D
100
AcDbEntity
  8
Sezione
  6
ACAD_ISO10W100
 62
     5
370
    -2
100
AcDbBlockReference
  2
_ArchTick
 10
0.2631789214633089
 20
0.2086095552668882
 30
0.0
 41
0.0015
 42
0.0015
 43
0.0015
 50
222.916082132817
  0
POINT
  5
848
330
82D
100
AcDbEntity
  8
Defpoints
  6
ACAD_ISO10W100
 62
     0
100
AcDbPoint
 10
0.2631789214633089
 20
0.2086095552668882
 30
0.0
  0
POINT
  5
849
330
82D
100
AcDbEntity
  8
Defpoints
  6
ACAD_ISO10W100
 62
     0
100
AcDbPoint
 10
0.1569879103181878
 20
0.1098752190308209
 30
0.0
  0
ENDBLK
  5
835
330
82D
100
AcDbEntity
  8
0
100
AcDbBlockEnd
  0
BLOCK
  5
9BA
330
9B3
100
AcDbEntity
  8
0
100
AcDbBlockBegin
  2
*D15
 70
     1
 10
0.0
 20
0.0
 30
0.0
  3
*D15
  1

  0
LINE
  5
9CA
330
9B3
100
AcDbEntity
  8
Sezione
  6
ACAD_ISO10W100
 62
     5
370
    -2
100
AcDbLine
 10
0.2720801551691272
 20
0.2106523321067409
 30
0.0
 11
0.2705801551691272
 21
0.2106523321067409
 31
0.0
  0
LINE
  5
9CB
330
9B3
100
AcDbEntity
  8
Sezione
  6
ACAD_ISO10W100
 62
     5
370
    -2
100
AcDbLine
 10
0.2705801551691272
 20
0.2106523321067409
 30
0.0
 11
0.268259040554878
 21
0.2087516935436473
 31
0.0
  0
MTEXT
  5
9CC
330
9B3
100
AcDbEntity
  8
Sezione
  6
ACAD_ISO10W100
 62
     4
100
AcDbMText
 10
0.2865087265976987
 20
0.2106523321067409
 30
0.0
 40
0.003
 41
0.0
 71
     5
 72
     1
  1
\A1;d 310 mm
  7
ROMANS
 73
     1
 44
1.0
1001
ACAD
1000
MTEXTBEGIN
1070
    73
1070
     1
1070
    44
1040
1.0
1070
    74
1070
     0
1000
MTEXTEND
  0
INSERT
  5
9CD
330
9B3
100
AcDbEntity
  8
Sezione
  6
ACAD_ISO10W100
 62
     5
370
    -2
100
AcDbBlockReference
  2
_ArchTick
 10
0.268259040554878
 20
0.2087516935436473
 30
0.0
 41
0.0015
 42
0.0015
 43
0.0015
 50
219.3122411371381
  0
POINT
  5
9CE
330
9B3
100
AcDbEntity
  8
Defpoints
  6
ACAD_ISO10W100
 62
     0
100
AcDbPoint
 10
0.268259040554878
 20
0.2087516935436473
 30
0.0
  0
POINT
  5
9CF
330
9B3
100
AcDbEntity
  8
Defpoints
  6
ACAD_ISO10W100
 62
     0
100
AcDbPoint
 10
0.1483347854853323
 20
0.1105520344504785
 30
0.0
  0
ENDBLK
  5
9BB
330
9B3
100
AcDbEntity
  8
0
100
AcDbBlockEnd
  0
BLOCK
  5
9FF
330
9F8
100
AcDbEntity
  8
0
100
AcDbBlockBegin
  2
*D17
 70
     1
 10
0.0
 20
0.0
 30
0.0
  3
*D17
  1

  0
LINE
  5
A0F
330
9F8
100
AcDbEntity
  8
Sezione
  6
ACAD_ISO10W100
 62
     5
370
    -2
100
AcDbLine
 10
0.270541626019994
 20
0.2147084216870797
 30
0.0
 11
0.2690416260199941
 21
0.2147084216870796
 31
0.0
  0
LINE
  5
A10
330
9F8
100
AcDbEntity
  8
Sezione
  6
ACAD_ISO10W100
 62
     5
370
    -2
100
AcDbLine
 10
0.2690416260199941
 20
0.2147084216870796
 30
0.0
 11
0.266907749695741
 21
0.2125997320862155
 31
0.0
  0
MTEXT
  5
A11
330
9F8
100
AcDbEntity
  8
Sezione
  6
ACAD_ISO10W100
 62
     4
100
AcDbMText
 10
0.2849701974485655
 20
0.2147084216870797
 30
0.0
 40
0.003
 41
0.0
 71
     5
 72
     1
  1
\A1;d 320 mm
  7
ROMANS
 73
     1
 44
1.0
1001
ACAD
1000
MTEXTBEGIN
1070
    73
1070
     1
1070
    44
1040
1.0
1070
    74
1070
     0
1000
MTEXTEND
  0
INSERT
  5
A12
330
9F8
100
AcDbEntity
  8
Sezione
  6
ACAD_ISO10W100
 62
     5
370
    -2
100
AcDbBlockReference
  2
_ArchTick
 10
0.266907749695741
 20
0.2125997320862155
 30
0.0
 41
0.0015
 42
0.0015
 43
0.0015
 50
224.6598577317865
  0
POINT
  5
A13
330
9F8
100
AcDbEntity
  8
Defpoints
  6
ACAD_ISO10W100
 62
     0
100
AcDbPoint
 10
0.266907749695741
 20
0.2125997320862155
 30
0.0
  0
POINT
  5
A14
330
9F8
100
AcDbEntity
  8
Defpoints
  6
ACAD_ISO10W100
 62
     0
100
AcDbPoint
 10
0.1531010124022461
 20
0.1001362867067971
 30
0.0
  0
ENDBLK
  5
A00
330
9F8
100
AcDbEntity
  8
0
100
AcDbBlockEnd
  0
BLOCK
  5
BA9
330
BA2
100
AcDbEntity
  8
0
100
AcDbBlockBegin
  2
*D19
 70
     1
 10
0.0
 20
0.0
 30
0.0
  3
*D19
  1

  0
LINE
  5
BB9
330
BA2
100
AcDbEntity
  8
Sezione
  6
ACAD_ISO10W100
 62
     5
370
    -2
100
AcDbLine
 10
0.2721196718501769
 20
0.2115475428616256
 30
0.0
 11
0.2706196718501769
 21
0.2115475428616256
 31
0.0
  0
LINE
  5
BBA
330
BA2
100
AcDbEntity
  8
Sezione
  6
ACAD_ISO10W100
 62
     5
370
    -2
100
AcDbLine
 10
0.2706196718501769
 20
0.2115475428616256
 30
0.0
 11
0.26845501015967
 21
0.2094704680517903
 31
0.0
  0
MTEXT
  5
BBB
330
BA2
100
AcDbEntity
  8
Sezione
  6
ACAD_ISO10W100
 62
     4
100
AcDbMText
 10
0.2865482432787483
 20
0.2115475428616256
 30
0.0
 40
0.003
 41
0.0
 71
     5
 72
     1
  1
\A1;d 330 mm
  7
ROMANS
 73
     1
 44
1.0
1001
ACAD
1000
MTEXTBEGIN
1070
    73
1070
     1
1070
    44
1040
1.0
1070
    74
1070
     0
1000
MTEXTEND
  0
INSERT
  5
BBC
330
BA2
100
AcDbEntity
  8
Sezione
  6
ACAD_ISO10W100
 62
     5
370
    -2
100
AcDbBlockReference
  2
_ArchTick
 10
0.26845501015967
 20
0.2094704680517903
 30
0.0
 41
0.0015
 42
0.0015
 43
0.0015
 50
223.817077498188
  0
POINT
  5
BBD
330
BA2
100
AcDbEntity
  8
Defpoints
  6
ACAD_ISO10W100
 62
     0
100
AcDbPoint
 10
0.26845501015967
 20
0.2094704680517903
 30
0.0
  0
POINT
  5
BBE
330
BA2
100
AcDbEntity
  8
Defpoints
  6
ACAD_ISO10W100
 62
     0
100
AcDbPoint
 10
0.1493986171817919
 20
0.0952313535108543
 30
0.0
  0
ENDBLK
  5
BAA
330
BA2
100
AcDbEntity
  8
0
100
AcDbBlockEnd
  0
BLOCK
  5
CA5
330
C9E
100
AcDbEntity
  8
0
100
AcDbBlockBegin
  2
*D21
 70
     1
 10
0.0
 20
0.0
 30
0.0
  3
*D21
  1

  0
LINE
  5
CB5
330
C9E
100
AcDbEntity
  8
Sezione
  6
ACAD_ISO10W100
 62
     5
370
    -2
100
AcDbLine
 10
0.2517131923565132
 20
0.1920875998421381
 30
0.0
 11
0.2502131923565132
 21
0.1920875998421381
 31
0.0
  0
LINE
  5
CB6
330
C9E
100
AcDbEntity
  8
Sezione
  6
ACAD_ISO10W100
 62
     5
370
    -2
100
AcDbLine
 10
0.2502131923565132
 20
0.1920875998421381
 30
0.0
 11
0.2477847082184422
 21
0.1903262183414014
 31
0.0
  0
MTEXT
  5
CB7
330
C9E
100
AcDbEntity
  8
Sezione
  6
ACAD_ISO10W100
 62
     4
100
AcDbMText
 10
0.2661417637850846
 20
0.1920875998421381
 30
0.0
 40
0.003
 41
0.0
 71
     5
 72
     1
  1
\A1;d 380 mm
  7
ROMANS
 73
     1
 44
1.0
1001
ACAD
1000
MTEXTBEGIN
1070
    73
1070
     1
1070
    44
1040
1.0
1070
    74
1070
     0
1000
MTEXTEND
  0
INSERT
  5
CB8
330
C9E
100
AcDbEntity
  8
Sezione
  6
ACAD_ISO10W100
 62
     5
370
    -2
100
AcDbBlockReference
  2
_ArchTick
 10
0.2477847082184422
 20
0.1903262183414014
 30
0.0
 41
0.0015
 42
0.0015
 43
0.0015
 50
215.9534071794428
  0
POINT
  5
CB9
330
C9E
100
AcDbEntity
  8
Defpoints
  6
ACAD_ISO10W100
 62
     0
100
AcDbPoint
 10
0.2477847082184422
 20
0.1903262183414014
 30
0.0
  0
POINT
  5
CBA
330
C9E
100
AcDbEntity
  8
Defpoints
  6
ACAD_ISO10W100
 62
     0
100
AcDbPoint
 10
0.1708827105128607
 20
0.1345491374847382
 30
0.0
  0
ENDBLK
  5
CA6
330
C9E
100
AcDbEntity
  8
0
100
AcDbBlockEnd
  0
BLOCK
  5
F1E
330
F17
100
AcDbEntity
  8
0
100
AcDbBlockBegin
  2
*D23
 70
     1
 10
0.0
 20
0.0
 30
0.0
  3
*D23
  1

  0
LINE
  5
F2E
330
F17
100
AcDbEntity
  8
Sezione
  6
ACAD_ISO10W100
 62
     5
370
    -2
100
AcDbLine
 10
0.2503579376781857
 20
0.1980055183402467
 30
0.0
 11
0.2488579376781857
 21
0.1980055183402467
 31
0.0
  0
LINE
  5
F2F
330
F17
100
AcDbEntity
  8
Sezione
  6
ACAD_ISO10W100
 62
     5
370
    -2
100
AcDbLine
 10
0.2488579376781857
 20
0.1980055183402467
 30
0.0
 11
0.2466795059210188
 21
0.1959428901431722
 31
0.0
  0
MTEXT
  5
F30
330
F17
100
AcDbEntity
  8
Sezione
  6
ACAD_ISO10W100
 62
     4
100
AcDbMText
 10
0.2647865091067571
 20
0.1980055183402467
 30
0.0
 40
0.003
 41
0.0
 71
     5
 72
     1
  1
\A1;d 400 mm
  7
ROMANS
 73
     1
 44
1.0
1001
ACAD
1000
MTEXTBEGIN
1070
    73
1070
     1
1070
    44
1040
1.0
1070
    74
1070
     0
1000
MTEXTEND
  0
INSERT
  5
F31
330
F17
100
AcDbEntity
  8
Sezione
  6
ACAD_ISO10W100
 62
     5
370
    -2
100
AcDbBlockReference
  2
_ArchTick
 10
0.2466795059210188
 20
0.1959428901431722
 30
0.0
 41
0.0015
 42
0.0015
 43
0.0015
 50
223.4359082248928
  0
POINT
  5
F32
330
F17
100
AcDbEntity
  8
Defpoints
  6
ACAD_ISO10W100
 62
     0
100
AcDbPoint
 10
0.2466795059210188
 20
0.1959428901431722
 30
0.0
  0
POINT
  5
F33
330
F17
100
AcDbEntity
  8
Defpoints
  6
ACAD_ISO10W100
 62
     0
100
AcDbPoint
 10
0.1740651140154545
 20
0.127188616907357
 30
0.0
  0
ENDBLK
  5
F1F
330
F17
100
AcDbEntity
  8
0
100
AcDbBlockEnd
  0
ENDSEC
  0
SECTION
  2
ENTITIES
  0
LINE
  5
D
330
2
100
AcDbEntity
  8
Table
100
AcDbLine
 10
0.02
 20
0.02
 30
0.0
 11
0.4
 21
0.02
 31
0.0
  0
LINE
  5
10
330
2
100
AcDbEntity
  8
Table
100
AcDbLine
 10
0.4
 20
0.02
 30
0.0
 11
0.4
 21
0.2769999999999999
 31
0.0
  0
LINE
  5
11
330
2
100
AcDbEntity
  8
Table
100
AcDbLine
 10
0.4
 20
0.2769999999999999
 30
0.0
 11
0.02
 21
0.277
 31
0.0
  0
LINE
  5
12
330
2
100
AcDbEntity
  8
Table
100
AcDbLine
 10
0.02
 20
0.277
 30
0.0
 11
0.02
 21
0.02
 31
0.0
  0
LINE
  5
13
330
2
100
AcDbEntity
  8
Table
 62
     2
100
AcDbLine
 10
0.015
 20
0.015
 30
0.0
 11
0.4050000000000001
 21
0.015
 31
0.0
  0
LINE
  5
14
330
2
100
AcDbEntity
  8
Table
 62
     2
100
AcDbLine
 10
0.4050000000000001
 20
0.015
 30
0.0
 11
0.4050000000000001
 21
0.2819999999999998
 31
0.0
  0
LINE
  5
15
330
2
100
AcDbEntity
  8
Table
 62
     2
100
AcDbLine
 10
0.4050000000000001
 20
0.2819999999999998
 30
0.0
 11
0.0149999999999999
 21
0.282
 31
0.0
  0
LINE
  5
16
330
2
100
AcDbEntity
  8
Table
 62
     2
100
AcDbLine
 10
0.0149999999999999
 20
0.282
 30
0.0
 11
0.015
 21
0.015
 31
0.0
  0
LINE
  5
17
330
2
100
AcDbEntity
  8
Table
100
AcDbLine
 10
0.21
 20
0.2769999999999999
 30
0.0
 11
0.21
 21
0.2532994226089223
 31
0.0
  0
MTEXT
  5
18
102
{ACAD_XDICTIONARY
360
F38
102
}
330
2
100
AcDbEntity
  8
Text
100
AcDbMText
 10
0.305
 20
0.0471738284815141
 30
0.0
 40
0.005
 41
0.1900000000000001
 71
     2
 72
     5
  3
{\fTimes New Roman|b0|i0|c238|p18;\H1.6x;\C4;Bovelacci\P\H0.4375x;\T0.95;via del Commercio, 5  47100 Forli - Italy  \fTimes New Roman|b0|i0|c0|p18;\P\fTimes New Roman|b0|i0|c238|p18;tel.+39-0543721386  fax +39-0543721127\fTimes New Roman|b0|i0|c0|p18
  1
; \fTimes New Roman|b0|i0|c238|p18;www.bovelacci.it\fTimes New Roman|b0|i0|c0|p18; \fTimes New Roman|b0|i0|c238|p18;e-mail: bovelacci@bovelacci\fTimes New Roman|b0|i0|c0|p18;.it}
 73
     1
 44
1.0
1001
ACAD
1000
ACAD_MTEXT_DEFINED_HEIGHT_BEGIN
1070
    46
1040
0.0271738284815141
1000
ACAD_MTEXT_DEFINED_HEIGHT_END
1000
MTEXTBEGIN
1070
    73
1070
     1
1070
    44
1040
1.0
1070
    74
1070
     0
1000
MTEXTEND
  0
MTEXT
  5
1C
330
2
100
AcDbEntity
  8
Text
100
AcDbMText
 10
0.0219676065851835
 20
0.0500313976452307
 30
0.0
 40
0.002
 41
0.1863544980601608
 71
     1
 72
     5
  3
{\fArial|b0|i0|c0|p34;\H1.25x;Le caratteristiche tecniche indicate vengono fornite a titolo indicativo e potranno essere modificate senza preavviso. Non devono quindi essere considerate a scopo di specifica.\P\fArial|b0|i1|c0|p34;The given values are
  3
 indicative and can be changed without notice. They cannot be considered like a state.\PThis lealfet and designs embodied within are protected by copyright law and international treaties. Unauthorized repro- duction of the leaflet or any portion of i
  1
t or reproduction of any of the designs embodied therein may result in severe civil penalties and will be prosecuted to the maximum.\PAll right reserved, Bovelacci Forlì Italy.}
 73
     1
 44
1.0
1001
ACAD
1000
MTEXTBEGIN
1070
    73
1070
     1
1070
    44
1040
1.0
1070
    74
1070
     0
1000
MTEXTEND
  0
LINE
  5
1D
330
2
100
AcDbEntity
  8
Table
100
AcDbLine
 10
0.02
 20
0.0528099428524846
 30
0.0
 11
0.4
 21
0.0528099428524846
 31
0.0
  0
MTEXT
  5
1E
330
2
100
AcDbEntity
  8
Text
100
AcDbMText
 10
0.1133313047219695
 20
0.2610796890771976
 30
0.0
 40
0.003
 41
0.1103605678262056
 71
     2
 72
     5
  1
{\fTimes New Roman|b0|i0|c0|p18;Rosoni\fTimes New Roman|b0|i1|c0|p18;   Ceiling centres}
 73
     1
 44
1.0
1001
ACAD
1000
ACAD_MTEXT_DEFINED_HEIGHT_BEGIN
1070
    46
1040
0.0141952763113409
1000
ACAD_MTEXT_DEFINED_HEIGHT_END
1000
MTEXTBEGIN
1070
    73
1070
     1
1070
    44
1040
1.0
1070
    74
1070
     0
1000
MTEXTEND
  0
TEXT
  5
1F
330
2
100
AcDbEntity
  8
Text
100
AcDbText
 10
0.2180556919891047
 20
0.269976982173197
 30
0.0
 40
0.003
  1
Rosone - Ceiling centre : D 400 mm
  7
ROMANS
100
AcDbText
  0
TEXT
  5
21
330
2
100
AcDbEntity
  8
Text
100
AcDbText
 10
0.2184542410678115
 20
0.2576348370183962
 30
0.0
 40
0.003
  1
File : E - R40
  7
ROMANS
100
AcDbText
  0
LINE
  5
22
330
2
100
AcDbEntity
  8
Table
100
AcDbLine
 10
0.4
 20
0.2654452889427402
 30
0.0
 11
0.02
 21
0.2654452889427403
 31
0.0
  0
LINE
  5
23
330
2
100
AcDbEntity
  8
Table
100
AcDbLine
 10
0.4
 20
0.2532994226089223
 30
0.0
 11
0.02
 21
0.2532994226089225
 31
0.0
  0
LINE
  5
24
330
2
100
AcDbEntity
  8
Table
100
AcDbLine
 10
0.21
 20
0.0528099428524846
 30
0.0
 11
0.21
 21
0.02
 31
0.0
  0
TEXT
  5
25
330
2
100
AcDbEntity
  8
Text
100
AcDbText
 10
0.0947789320547719
 20
0.2687784133392506
 30
0.0
 40
0.005
  1
EUROSTYL
  7
style1
 72
     1
 11
0.1140561490699125
 21
0.2687784133392506
 31
0.0
100
AcDbText
  0
TEXT
  5
23F
330
2
100
AcDbEntity
  8
Text
  6
ACAD_ISO10W100
100
AcDbText
 10
0.2693054777903039
 20
0.0953837817154628
 30
0.0
 40
0.005
  1
scala 1 : 4
  7
style1
100
AcDbText
  0
CIRCLE
  5
DF3
330
2
100
AcDbEntity
  8
Profilo
  6
Continuous
370
     0
100
AcDbCircle
 10
0.2103723099682366
 20
0.1615657535252646
 30
0.0
 40
0.0067794035948282
  0
LWPOLYLINE
  5
DF4
330
2
100
AcDbEntity
  8
Profilo
  6
Continuous
370
     0
100
AcDbPolyline
 90
        8
 70
   128
 43
0.0
 10
0.2069980253524977
 20
0.1560180181862687
 10
0.2073357986255557
 20
0.1569464453007885
 10
0.2073357986255557
 20
0.1577904700961763
 10
0.2069980253524977
 20
0.1585922953360546
 10
0.2064913654429106
 20
0.15909871085491
 10
0.2059002647504384
 20
0.1592253143336098
 10
0.2051402748860582
 20
0.1591831131740429
 10
0.2046758391709817
 20
0.1590565096953431
  0
LWPOLYLINE
  5
DF5
330
2
100
AcDbEntity
  8
Profilo
  6
Continuous
370
     0
100
AcDbPolyline
 90
        8
 70
   128
 43
0.0
 10
0.2126058720661821
 20
0.1554686751745977
 10
0.212090596709966
 20
0.1563116217910829
 10
0.2114307115529483
 20
0.1568378626435221
 10
0.2105932211458816
 20
0.1570737107246465
 10
0.209881392263392
 20
0.1569933329679365
 10
0.2094138644243266
 20
0.156610127815102
 10
0.2089730126895157
 20
0.1559896318201568
 10
0.2087824243429834
 20
0.1555475853786781
  0
LWPOLYLINE
  5
DF6
330
2
100
AcDbEntity
  8
Profilo
  6
Continuous
370
     0
100
AcDbPolyline
 90
        8
 70
   128
 43
0.0
 10
0.2165318009637505
 20
0.1595105565187109
 10
0.2155514898311914
 20
0.1596332666419709
 10
0.2147286264995956
 20
0.1594454534562188
 10
0.2140220663167327
 20
0.1589377259630786
 10
0.2136410901285173
 20
0.1583310810210132
 10
0.213649193141505
 20
0.157726628532689
 10
0.2138594498843125
 20
0.1569950838423704
 10
0.214086225818557
 20
0.1565704644246508
  0
LWPOLYLINE
  5
DF7
330
2
100
AcDbEntity
  8
Profilo
  6
Continuous
370
     0
100
AcDbPolyline
 90
        8
 70
   128
 43
0.0
 10
0.2158195075109781
 20
0.1651000431271388
 10
0.2151123548795975
 20
0.1644101135315281
 10
0.2147461462454665
 20
0.1636496734671462
 10
0.2147025705157042
 20
0.1627806995578298
 10
0.2149393298619879
 20
0.162104603445085
 10
0.2154169619929773
 20
0.1617340686735644
 10
0.2161199995976137
 20
0.1614423433604741
 10
0.2165933729087623
 20
0.1613548980487136
  0
LWPOLYLINE
  5
DF8
330
2
100
AcDbEntity
  8
Profilo
  6
Continuous
370
     0
100
AcDbPolyline
 90
        8
 70
   128
 43
0.0
 10
0.2110053632059412
 20
0.1680281375789858
 10
0.2111038694304528
 20
0.1670450993219992
 10
0.2114700780645837
 20
0.1662846592576173
 10
0.2121223002012151
 20
0.1657087940096769
 10
0.2127985104652359
 20
0.1654723608889979
 10
0.2133860049776717
 20
0.1656147640747665
 10
0.214052421788492
 20
0.1659825332497744
 10
0.2144159327181951
 20
0.1662981101472869
  0
LWPOLYLINE
  5
DF9
330
2
100
AcDbEntity
  8
Profilo
  6
Continuous
370
     0
100
AcDbPolyline
 90
        8
 70
   128
 43
0.0
 10
0.2057145169009804
 20
0.1660899250297703
 10
0.2065445047851659
 20
0.1655540259692436
 10
0.2073673681167627
 20
0.1653662127834925
 10
0.2082242515479982
 20
0.165517094474138
 10
0.2088307126087721
 20
0.165898363307752
 10
0.2090856741520872
 20
0.1664464719474308
 10
0.2092136447181183
 20
0.1671967979206312
 10
0.2091935621220362
 20
0.1676777611869953
  0
LWPOLYLINE
  5
DFA
330
2
100
AcDbEntity
  8
Profilo
  6
Continuous
370
     0
100
AcDbPolyline
 90
        8
 70
   128
 43
0.0
 10
0.2039310837773274
 20
0.1607449190613817
 10
0.204867555515728
 20
0.1610597021202416
 10
0.2055274406727456
 20
0.1615859429726807
 10
0.2059437346976278
 20
0.1623499546114313
 10
0.2060237690068407
 20
0.1630618221911602
 10
0.2057542063386502
 20
0.1636028992996923
 10
0.2052473662135477
 20
0.1641707713094049
 10
0.2048588126961415
 20
0.1644549457951852
  0
LWPOLYLINE
  5
DFB
330
2
100
AcDbEntity
  8
Profilo
  6
Continuous
370
     0
100
AcDbPolyline
 90
       10
 70
   128
 43
0.0
 10
0.1986697656918317
 20
0.1788718027885376
 10
0.2028546716817614
 20
0.172260131126803
 10
0.2050821234434432
 20
0.1693590913400766
 10
0.2063645939796148
 20
0.1684145659003666
 10
0.2081870545119007
 20
0.1684145659003666
 10
0.2102795075068651
 20
0.1688193627465366
 10
0.2117644736577351
 20
0.170101216752643
 10
0.2123719605018304
 20
0.1721926644510885
 10
0.2132494423439832
 20
0.1759707630018112
 10
0.2144644134967948
 20
0.1825149695918895
  0
LWPOLYLINE
  5
DFC
330
2
100
AcDbEntity
  8
Profilo
  6
Continuous
370
     0
100
AcDbPolyline
 90
       18
 70
   128
 43
0.0
 10
0.2154768915702878
 20
0.1891266428576814
 10
0.2128444511145864
 20
0.1873050586539768
 10
0.2113594849637173
 20
0.1856184078017005
 10
0.2103470068902251
 20
0.1835944267789686
 10
0.2089970369706944
 20
0.181098182234354
 10
0.207849562665863
 20
0.1786019392937967
 10
0.207377072053107
 20
0.1759032979301549
 10
0.2077145638991447
 20
0.1742166454738203
 10
0.2081195551285424
 20
0.1728673247919994
 10
0.2084570495099582
 20
0.1719902660280039
 10
0.2084570495099582
 20
0.1707084120218976
 10
0.2077145638991447
 20
0.1709108104449821
 10
0.2072420758217677
 20
0.1724625295498876
 10
0.2071534034920675
 20
0.1743160056329687
 10
0.2068265019222679
 20
0.175770016758374
 10
0.2059765593620162
 20
0.1771260039048712
 10
0.2037271081205827
 20
0.1797361558098236
 10
0.2014564890035653
 20
0.1814716774944587
  0
LWPOLYLINE
  5
DFD
330
2
100
AcDbEntity
  8
Profilo
  6
Continuous
370
     0
100
AcDbPolyline
 90
       10
 70
   128
 43
0.0
 10
0.1898601367636463
 20
0.1655280298998913
 10
0.1974944700347445
 20
0.1638120474370079
 10
0.2011208611858832
 20
0.1633357487767728
 10
0.2026955851421033
 20
0.1635747120461495
 10
0.203984259342928
 20
0.1648633862469742
 10
0.2051776124500517
 20
0.1666292085439565
 10
0.2053212344249549
 20
0.1685856458392789
 10
0.2042719156418287
 20
0.1704940807562874
 10
0.202220869897576
 20
0.173786073222449
 10
0.1984525313813459
 20
0.179272640420878
  0
LWPOLYLINE
  5
DFE
330
2
100
AcDbEntity
  8
Profilo
  6
Continuous
370
     0
100
AcDbPolyline
 90
       18
 70
   128
 43
0.0
 10
0.1944933024916831
 20
0.184663729533679
 10
0.1939199405373293
 20
0.1815142584934406
 10
0.1940625531573554
 20
0.1792715866031898
 10
0.1947777937519526
 20
0.1771244857854544
 10
0.1955883323124523
 20
0.17440480145596
 10
0.1965420557610253
 20
0.1718283042830186
 10
0.1981161820529202
 20
0.1695859753584707
 10
0.1995474682152285
 20
0.1686319747420197
 10
0.2007879540639668
 20
0.1679642329825375
 10
0.2016467728291984
 20
0.1675827033487287
 10
0.2025531804894076
 20
0.1666762956885195
 10
0.2018850465816035
 20
0.1662943963756447
 10
0.200453715956485
 20
0.1670575279536768
 10
0.1990804096437373
 20
0.1683054326551561
 10
0.1978211142002559
 20
0.1691024194650648
 10
0.1962612863457933
 20
0.1694602470235818
 10
0.192825028007108
 20
0.1697153009087351
 10
0.1899922586798717
 20
0.169336929885701
  0
LWPOLYLINE
  5
DFF
330
2
100
AcDbEntity
  8
Profilo
  6
Continuous
370
     0
100
AcDbPolyline
 90
       10
 70
   128
 43
0.0
 10
0.1930662607049645
 20
0.1498632092488596
 10
0.1996779323666982
 20
0.1540481152387894
 10
0.2025789721534255
 20
0.1562755670004721
 10
0.2035234975931346
 20
0.1575580375366428
 10
0.2035234975931346
 20
0.1593804980689286
 10
0.2031187007469655
 20
0.1614729510638939
 10
0.2018368467408582
 20
0.1629579172147639
 10
0.1997453990424127
 20
0.1635654040588583
 10
0.1959673004916909
 20
0.1644428859010112
 10
0.1894230939016126
 20
0.1656578570538236
  0
LWPOLYLINE
  5
E00
330
2
100
AcDbEntity
  8
Profilo
  6
Continuous
370
     0
100
AcDbPolyline
 90
       18
 70
   128
 43
0.0
 10
0.1828114206358207
 20
0.1666703351273158
 10
0.1846330048395253
 20
0.1640378946716143
 10
0.1863196556918008
 20
0.1625529285207452
 10
0.1883436367145326
 20
0.1615404504472531
 10
0.1908398812591481
 20
0.1601904805277223
 10
0.1933361241997054
 20
0.1590430062228909
 10
0.1960347655633472
 20
0.1585705156101349
 10
0.1977214180196809
 20
0.1589080074561726
 10
0.1990707387015018
 20
0.1593129986855704
 10
0.1999477974654973
 20
0.1596504930669862
 10
0.2012296514716045
 20
0.1596504930669862
 10
0.2010272530485191
 20
0.1589080074561726
 10
0.1994755339436136
 20
0.1584355193787956
 10
0.1976220578605334
 20
0.1583468470490963
 10
0.1961680467351272
 20
0.1580199454792959
 10
0.1948120595886309
 20
0.1571700029190441
 10
0.1922019076836776
 20
0.1549205516776106
 10
0.1904663859990434
 20
0.1526499325605932
  0
LWPOLYLINE
  5
E01
330
2
100
AcDbEntity
  8
Profilo
  6
Continuous
370
     0
100
AcDbPolyline
 90
       10
 70
   128
 43
0.0
 10
0.2064100335936108
 20
0.1410535803206743
 10
0.2081260160564942
 20
0.1486879135917734
 10
0.2086023147167293
 20
0.1523143047429112
 10
0.2083633514473526
 20
0.1538890286991312
 10
0.2070746772465279
 20
0.1551777028999559
 10
0.2053088549495448
 20
0.1563710560070806
 10
0.2033524176542232
 20
0.1565146779819837
 10
0.2014439827372139
 20
0.1554653591988566
 10
0.1981519902710531
 20
0.1534143134546049
 10
0.1926654230726232
 20
0.1496459749383738
  0
LWPOLYLINE
  5
E02
330
2
100
AcDbEntity
  8
Profilo
  6
Continuous
370
     0
100
AcDbPolyline
 90
       18
 70
   128
 43
0.0
 10
0.1872743339598231
 20
0.145686746048711
 10
0.1904238050000615
 20
0.1451133840943573
 10
0.1926664768903115
 20
0.1452559967143834
 10
0.1948135777080469
 20
0.1459712373089805
 10
0.1975332620375421
 20
0.1467817758694803
 10
0.2001097592104835
 20
0.1477354993180533
 10
0.2023520881350314
 20
0.1493096256099491
 10
0.2033060887514815
 20
0.1507409117722565
 10
0.2039738305109646
 20
0.1519813976209947
 10
0.2043553601447734
 20
0.1528402163862272
 10
0.2052617678049826
 20
0.1537466240464365
 10
0.2056436671178574
 20
0.1530784901386315
 10
0.2048805355398244
 20
0.1516471595135129
 10
0.203632630838346
 20
0.1502738532007652
 10
0.2028356440284365
 20
0.1490145577572848
 10
0.2024778164699204
 20
0.1474547299028213
 10
0.202222762584767
 20
0.1440184715641359
 10
0.2026011336078011
 20
0.1411857022369005
  0
LWPOLYLINE
  5
E03
330
2
100
AcDbEntity
  8
Profilo
  6
Continuous
370
     0
100
AcDbPolyline
 90
       10
 70
   128
 43
0.0
 10
0.2220748542446425
 20
0.1442597042619924
 10
0.2178899482547127
 20
0.1508713759237261
 10
0.21566249649303
 20
0.1537724157104534
 10
0.2143800259568593
 20
0.1547169411501625
 10
0.2125575654245726
 20
0.1547169411501625
 10
0.2104651124296082
 20
0.1543121443039934
 10
0.2089801462787382
 20
0.1530302902978862
 10
0.2083726594346429
 20
0.1509388425994407
 10
0.20749517759249
 20
0.1471607440487188
 10
0.2062802064396785
 20
0.1406165374586406
  0
LWPOLYLINE
  5
E04
330
2
100
AcDbEntity
  8
Profilo
  6
Continuous
370
     0
100
AcDbPolyline
 90
       18
 70
   128
 43
0.0
 10
0.2052677283661863
 20
0.1340048641928486
 10
0.2079001688218878
 20
0.1358264483965532
 10
0.2093851349727569
 20
0.1375130992488296
 10
0.210397613046249
 20
0.1395370802715605
 10
0.2117475829657789
 20
0.142033324816176
 10
0.2128950572706112
 20
0.1445295677567333
 10
0.2133675478833663
 20
0.1472282091203751
 10
0.2130300560373286
 20
0.1489148615767097
 10
0.2126250648079317
 20
0.1502641822585307
 10
0.212287570426515
 20
0.1511412410225261
 10
0.212287570426515
 20
0.1524230950286325
 10
0.2130300560373286
 20
0.1522206966055479
 10
0.2135025441147056
 20
0.1506689775006416
 10
0.2135912164444058
 20
0.1488155014175614
 10
0.2139181180142053
 20
0.1473614902921561
 10
0.2147680605744571
 20
0.1460055031456588
 10
0.2170175118158906
 20
0.1433953512407056
 10
0.219288130932908
 20
0.1416598295560714
  0
LWPOLYLINE
  5
E05
330
2
100
AcDbEntity
  8
Profilo
  6
Continuous
370
     0
100
AcDbPolyline
 90
       10
 70
   128
 43
0.0
 10
0.2308844831728278
 20
0.1576034771506387
 10
0.2232501499017288
 20
0.1593194596135221
 10
0.21962375875059
 20
0.1597957582737572
 10
0.21804903479437
 20
0.1595567950043806
 10
0.2167603605935462
 20
0.1582681208035559
 10
0.2155670074864215
 20
0.1565022985065727
 10
0.2154233855115184
 20
0.1545458612112511
 10
0.2164727042946446
 20
0.1526374262942418
 10
0.2185237500388972
 20
0.1493454338280811
 10
0.2222920885551283
 20
0.1438588666296521
  0
LWPOLYLINE
  5
E06
330
2
100
AcDbEntity
  8
Profilo
  6
Continuous
370
     0
100
AcDbPolyline
 90
       18
 70
   128
 43
0.0
 10
0.2262513174447902
 20
0.138467777516851
 10
0.2268246793991449
 20
0.1416172485570895
 10
0.2266820667791178
 20
0.1438599204473403
 10
0.2259668261845207
 20
0.1460070212650748
 10
0.225156287624021
 20
0.14872670559457
 10
0.2242025641754479
 20
0.1513032027675114
 10
0.222628437883553
 20
0.1535455316920593
 10
0.2211971517212456
 20
0.1544995323085094
 10
0.2199566658725065
 20
0.1551672740679926
 10
0.2190978471072749
 20
0.1555488037018013
 10
0.2181914394470656
 20
0.1564552113620106
 10
0.2188595733548697
 20
0.1568371106748854
 10
0.2202909039799892
 20
0.1560739790968533
 10
0.2216642102927369
 20
0.154826074395374
 10
0.2229235057362173
 20
0.1540290875854653
 10
0.22448333359068
 20
0.1536712600269483
 10
0.2279195919293653
 20
0.153416206141795
 10
0.2307523612566016
 20
0.153794577164829
  0
LWPOLYLINE
  5
E07
330
2
100
AcDbEntity
  8
Profilo
  6
Continuous
370
     0
100
AcDbPolyline
 90
       10
 70
   128
 43
0.0
 10
0.2276783592315097
 20
0.1732682978016704
 10
0.2210666875697751
 20
0.1690833918117407
 10
0.2181656477830478
 20
0.166855940050058
 10
0.2172211223433387
 20
0.1655734695138873
 10
0.2172211223433387
 20
0.1637510089816014
 10
0.2176259191895087
 20
0.1616585559866361
 10
0.218907773195615
 20
0.1601735898357661
 10
0.2209992208940605
 20
0.1595661029916717
 10
0.2247773194447824
 20
0.158688621149518
 10
0.2313215260348607
 20
0.1574736499967064
  0
LWPOLYLINE
  5
E08
330
2
100
AcDbEntity
  8
Profilo
  6
Continuous
370
     0
100
AcDbPolyline
 90
       18
 70
   128
 43
0.0
 10
0.2379331993006535
 20
0.1564611719232143
 10
0.2361116150969489
 20
0.1590936123789157
 10
0.2344249642446725
 20
0.1605785785297848
 10
0.2324009832219407
 20
0.161591056603277
 10
0.2299047386773261
 20
0.1629410265228068
 10
0.2274084957367688
 20
0.1640885008276391
 10
0.2247098543731261
 20
0.1645609914403951
 10
0.2230232019167924
 20
0.1642234995943566
 10
0.2216738812349714
 20
0.1638185083649597
 10
0.220796822470976
 20
0.1634810139835439
 10
0.2195149684648696
 20
0.1634810139835439
 10
0.2197173668879542
 20
0.1642234995943566
 10
0.2212690859928597
 20
0.1646959876717344
 10
0.2231225620759407
 20
0.1647846600014338
 10
0.224576573201346
 20
0.1651115615712333
 10
0.2259325603478433
 20
0.1659615041314859
 10
0.2285427122527956
 20
0.1682109553729194
 10
0.2302782339374298
 20
0.1704815744899368
  0
LWPOLYLINE
  5
E09
330
2
100
AcDbEntity
  8
Profilo
  6
Continuous
370
     0
100
AcDbPolyline
 90
       10
 70
   128
 43
0.0
 10
0.2143345863428634
 20
0.1820779267298558
 10
0.2126186038799791
 20
0.1744435934587567
 10
0.2121423052197449
 20
0.1708172023076189
 10
0.2123812684891215
 20
0.1692424783513988
 10
0.2136699426899453
 20
0.1679538041505741
 10
0.2154357649869285
 20
0.1667604510434495
 10
0.217392202282251
 20
0.1666168290685464
 10
0.2193006371992594
 20
0.1676661478516734
 10
0.222592629665421
 20
0.1697171935959252
 10
0.22807919686385
 20
0.1734855321121562
  0
LWPOLYLINE
  5
E0A
330
2
100
AcDbEntity
  8
Profilo
  6
Continuous
370
     0
100
AcDbPolyline
 90
       18
 70
   128
 43
0.0
 10
0.2334702859766502
 20
0.1774447610018182
 10
0.2303208149364126
 20
0.1780181229561728
 10
0.2280781430461618
 20
0.1778755103361467
 10
0.2259310422284264
 20
0.1771602697415486
 10
0.2232113578989312
 20
0.1763497311810489
 10
0.2206348607259907
 20
0.1753960077324759
 10
0.2183925318014419
 20
0.173821881440581
 10
0.2174385311849918
 20
0.1723905952782736
 10
0.2167707894255086
 20
0.1711501094295353
 10
0.2163892597917008
 20
0.1702912906643028
 10
0.2154828521314915
 20
0.1693848830040936
 10
0.2151009528186158
 20
0.1700530169118977
 10
0.2158640843966488
 20
0.1714843475370171
 10
0.2171119890981272
 20
0.1728576538497648
 10
0.2179089759080368
 20
0.1741169492932453
 10
0.2182668034665529
 20
0.1756767771477088
 10
0.2185218573517063
 20
0.1791130354863941
 10
0.2181434863286731
 20
0.1819458048136295
  0
LWPOLYLINE
  5
E0B
330
2
100
AcDbEntity
  8
Profilo
  6
Continuous
370
     0
100
AcDbPolyline
 90
        6
 70
   128
 43
0.0
 10
0.2014564890035653
 20
0.1814716774944587
 10
0.2001458174516897
 20
0.1823628888613979
 10
0.1986669666339031
 20
0.1831840766843136
 10
0.1967937579643924
 20
0.183873874519725
 10
0.1952440559927935
 20
0.1844110526611871
 10
0.1944933024916831
 20
0.184663729533679
  0
LWPOLYLINE
  5
E0C
330
2
100
AcDbEntity
  8
Profilo
  6
Continuous
370
     0
100
AcDbPolyline
 90
       13
 70
   128
 43
0.0
 10
0.2015983155447414
 20
0.1817395840385492
 10
0.2018302646521521
 20
0.1840289660669139
 10
0.2022071790993929
 20
0.1857387586626646
 10
0.2027000693680299
 20
0.1871877362543477
 10
0.2033669195656904
 20
0.1882889572991562
 10
0.2038888018881411
 20
0.1890134460949981
 10
0.2042947083891982
 20
0.1892742627031241
 10
0.2055414300876956
 20
0.1890134460949981
 10
0.2068751279476386
 20
0.18797018287061
 10
0.2078029193065254
 20
0.1867820218870528
 10
0.2086437294332095
 20
0.1857387586626646
 10
0.2093685662738782
 20
0.1844636593444189
 10
0.2098614565425143
 20
0.1835073344547202
  0
LWPOLYLINE
  5
E0D
330
2
100
AcDbEntity
  8
Profilo
  6
Continuous
370
     0
100
AcDbPolyline
 90
        3
 70
   128
 43
0.0
 10
0.2069911037690331
 20
0.177363673957349
 10
0.2062372723391717
 20
0.1815077463406334
 10
0.2058023712489219
 20
0.1837681510628462
  0
LWPOLYLINE
  5
E0E
330
2
100
AcDbEntity
  8
Profilo
  6
Continuous
370
     0
100
AcDbPolyline
 90
        2
 70
   128
 43
0.0
 10
0.2051065264620677
 20
0.183333457785342
 10
0.2035988661377222
 20
0.1853330458994289
  0
LWPOLYLINE
  5
E0F
330
2
100
AcDbEntity
  8
Profilo
  6
Continuous
370
     0
100
AcDbPolyline
 90
        2
 70
   128
 43
0.0
 10
0.2050485398190596
 20
0.1805804019652031
 10
0.2031059784044642
 20
0.1826089689895001
  0
LWPOLYLINE
  5
E10
330
2
100
AcDbEntity
  8
Profilo
  6
Continuous
370
     0
100
AcDbPolyline
 90
        2
 70
   128
 43
0.0
 10
0.2065562001434051
 20
0.1829277450221054
 10
0.207339023627082
 20
0.1855938609034966
  0
LWPOLYLINE
  5
E11
330
2
100
AcDbEntity
  8
Profilo
  6
Continuous
370
     0
100
AcDbPolyline
 90
        2
 70
   128
 43
0.0
 10
0.2082378229321533
 20
0.1815077463406334
 10
0.2087597052546048
 20
0.1828408050833576
  0
LWPOLYLINE
  5
E12
330
2
100
AcDbEntity
  8
Profilo
  6
Continuous
370
     0
100
AcDbPolyline
 90
       11
 70
   128
 43
0.0
 10
0.1972493198545149
 20
0.184036636671842
 10
0.1974774101157595
 20
0.1854957102040131
 10
0.197682689576115
 20
0.1861568531489117
 10
0.1981160618330942
 20
0.1870459760324523
 10
0.1986178588866061
 20
0.1874791390387098
 10
0.199142466741008
 20
0.1876843205022698
 10
0.1999179705867864
 20
0.1876159266810828
 10
0.2006934769679429
 20
0.1873195513171975
 10
0.2012180848223448
 20
0.1868863899149973
 10
0.2018339257387904
 20
0.1862480454451798
 10
0.2019935886681232
 20
0.1860200639024814
  0
LWPOLYLINE
  5
E13
330
2
100
AcDbEntity
  8
Profilo
  6
Continuous
370
     0
100
AcDbPolyline
 90
        2
 70
   128
 43
0.0
 10
0.2107908122299709
 20
0.173023500682336
 10
0.2086980093527659
 20
0.1752762027184633
  0
LWPOLYLINE
  5
E14
330
2
100
AcDbEntity
  8
Profilo
  6
Continuous
370
     0
100
AcDbPolyline
 90
        2
 70
   128
 43
0.0
 10
0.211293889649655
 20
0.1755376785943905
 10
0.2093419498697726
 20
0.1779915150559688
  0
LWPOLYLINE
  5
E15
330
2
100
AcDbEntity
  8
Profilo
  6
Continuous
370
     0
100
AcDbPolyline
 90
        2
 70
   128
 43
0.0
 10
0.2119579509309013
 20
0.1784138955849526
 10
0.2105292118703208
 20
0.1808476203684497
  0
LWPOLYLINE
  5
E16
330
2
100
AcDbEntity
  8
Profilo
  6
Continuous
370
     0
100
AcDbPolyline
 90
        2
 70
   128
 43
0.0
 10
0.2130052346812425
 20
0.1816408719187963
 10
0.2121198196395808
 20
0.184597543641974
  0
LWPOLYLINE
  5
E17
330
2
100
AcDbEntity
  8
Profilo
  6
Continuous
370
     0
100
AcDbPolyline
 90
        2
 70
   128
 43
0.0
 10
0.2153395120831034
 20
0.1809771287960247
 10
0.2171505913010405
 20
0.1834108519754636
  0
LWPOLYLINE
  5
E18
330
2
100
AcDbEntity
  8
Profilo
  6
Continuous
370
     0
100
AcDbPolyline
 90
        2
 70
   128
 43
0.0
 10
0.2154012155910776
 20
0.1780144739368417
 10
0.217695246393703
 20
0.1799855884189598
  0
LWPOLYLINE
  5
E19
330
2
100
AcDbEntity
  8
Profilo
  6
Continuous
370
     0
100
AcDbPolyline
 90
        2
 70
   128
 43
0.0
 10
0.2150792453325743
 20
0.1752187084707779
 10
0.2171318016105446
 20
0.1765059665479851
  0
LWPOLYLINE
  5
E1A
330
2
100
AcDbEntity
  8
Profilo
  6
Continuous
370
     0
100
AcDbPolyline
 90
        2
 70
   128
 43
0.0
 10
0.2147159281205406
 20
0.1721756518128907
 10
0.2160038066191767
 20
0.1730405293611141
  0
LWPOLYLINE
  5
E1B
330
2
100
AcDbEntity
  8
Profilo
  6
Continuous
370
     0
100
AcDbPolyline
 90
        6
 70
   128
 43
0.0
 10
0.1899922586798717
 20
0.169336929885701
 10
0.1884352923365988
 20
0.1690403267444951
 10
0.186808919416767
 20
0.1685752887810865
 10
0.1849966001369119
 20
0.167738490955365
 10
0.1835209530574426
 20
0.1670225284889628
 10
0.1828114206358207
 20
0.1666703351273158
  0
LWPOLYLINE
  5
E1C
330
2
100
AcDbEntity
  8
Profilo
  6
Continuous
370
     0
100
AcDbPolyline
 90
       13
 70
   128
 43
0.0
 10
0.1899031066548391
 20
0.1696266549287697
 10
0.1884482818845952
 20
0.1714095052724935
 10
0.1875057947072893
 20
0.172885029972943
 10
0.1868297388777569
 20
0.1742581379051431
 10
0.1865225923061884
 20
0.1755083530703139
 10
0.1863793278949422
 20
0.176389670539933
 10
0.1864819219421145
 20
0.1768611149716104
 10
0.1875479125016268
 20
0.1775582551466186
 10
0.1892286778029739
 20
0.1777636234469104
 10
0.1907248820529832
 20
0.1775795143196912
 10
0.1920571230957793
 20
0.1774363583614329
 10
0.193471291515688
 20
0.1770472640321061
 10
0.1944960413815446
 20
0.1767195662689154
  0
LWPOLYLINE
  5
E1D
330
2
100
AcDbEntity
  8
Profilo
  6
Continuous
370
     0
100
AcDbPolyline
 90
        3
 70
   128
 43
0.0
 10
0.1968106194700179
 20
0.1703456963593906
 10
0.1933472784701424
 20
0.1727429587274114
 10
0.1914414094527788
 20
0.1740337847246536
  0
LWPOLYLINE
  5
E1E
330
2
100
AcDbEntity
  8
Profilo
  6
Continuous
370
     0
100
AcDbPolyline
 90
        2
 70
   128
 43
0.0
 10
0.1912567474496012
 20
0.1732343735929562
 10
0.1887767482954799
 20
0.1735822190689367
  0
LWPOLYLINE
  5
E1F
330
2
100
AcDbEntity
  8
Profilo
  6
Continuous
370
     0
100
AcDbPolyline
 90
        2
 70
   128
 43
0.0
 10
0.1931624491405171
 20
0.1712466664050616
 10
0.1903544372924133
 20
0.171307481554902
  0
LWPOLYLINE
  5
E20
330
2
100
AcDbEntity
  8
Profilo
  6
Continuous
370
     0
100
AcDbPolyline
 90
        2
 70
   128
 43
0.0
 10
0.1925687037862807
 20
0.1739725654374389
 10
0.1912370149608995
 20
0.1764113338503799
  0
LWPOLYLINE
  5
E21
330
2
100
AcDbEntity
  8
Profilo
  6
Continuous
370
     0
100
AcDbPolyline
 90
        2
 70
   128
 43
0.0
 10
0.1947618813605472
 20
0.1741575616178161
 10
0.1941882930130332
 20
0.1754692030237031
  0
LWPOLYLINE
  5
E22
330
2
100
AcDbEntity
  8
Profilo
  6
Continuous
370
     0
100
AcDbPolyline
 90
       11
 70
   128
 43
0.0
 10
0.1852036408171849
 20
0.1681757120786036
 10
0.1843332041987857
 20
0.1693687170379003
 10
0.1840108600375701
 20
0.1699813701960273
 10
0.1836885956789989
 20
0.1709165154779748
 10
0.1837371272792316
 20
0.1715776320763769
 10
0.1839629958462867
 20
0.1720936710519447
 10
0.1845597216092243
 20
0.1725936733453783
 10
0.1853176564597743
 20
0.1729324701367678
 10
0.1859949015959297
 20
0.1729971325432353
 10
0.1868817445874209
 20
0.1729812201280445
 10
0.1871558506222846
 20
0.1729329115732525
  0
LWPOLYLINE
  5
E23
330
2
100
AcDbEntity
  8
Profilo
  6
Continuous
370
     0
100
AcDbPolyline
 90
        2
 70
   128
 43
0.0
 10
0.2025663850435653
 20
0.1699635300243656
 10
0.1994936490516681
 20
0.1700765958039445
  0
LWPOLYLINE
  5
E24
330
2
100
AcDbEntity
  8
Profilo
  6
Continuous
370
     0
100
AcDbPolyline
 90
        2
 70
   128
 43
0.0
 10
0.2011443222477622
 20
0.1720970517300084
 10
0.198028967991035
 20
0.1724519462770908
  0
LWPOLYLINE
  5
E25
330
2
100
AcDbEntity
  8
Profilo
  6
Continuous
370
     0
100
AcDbPolyline
 90
        2
 70
   128
 43
0.0
 10
0.1995800919446646
 20
0.174600406503292
 10
0.1968489175684296
 20
0.1753110387229613
  0
LWPOLYLINE
  5
E26
330
2
100
AcDbEntity
  8
Profilo
  6
Continuous
370
     0
100
AcDbPolyline
 90
        2
 70
   128
 43
0.0
 10
0.1980388165379676
 20
0.1776227647933737
 10
0.1953220509326432
 20
0.1790873644384516
  0
LWPOLYLINE
  5
E27
330
2
100
AcDbEntity
  8
Profilo
  6
Continuous
370
     0
100
AcDbPolyline
 90
        2
 70
   128
 43
0.0
 10
0.200158737181072
 20
0.1788040109103217
 10
0.1997184614136291
 20
0.1818055394703035
  0
LWPOLYLINE
  5
E28
330
2
100
AcDbEntity
  8
Profilo
  6
Continuous
370
     0
100
AcDbPolyline
 90
        2
 70
   128
 43
0.0
 10
0.2022972814912276
 20
0.1767527285379902
 10
0.2025256178112136
 20
0.179768641691578
  0
LWPOLYLINE
  5
E29
330
2
100
AcDbEntity
  8
Profilo
  6
Continuous
370
     0
100
AcDbPolyline
 90
        2
 70
   128
 43
0.0
 10
0.2040465188577596
 20
0.1745481564652012
 10
0.2045876664051491
 20
0.1769097618436521
  0
LWPOLYLINE
  5
E2A
330
2
100
AcDbEntity
  8
Profilo
  6
Continuous
370
     0
100
AcDbPolyline
 90
        2
 70
   128
 43
0.0
 10
0.2059413807917363
 20
0.1721394864025239
 10
0.2062404876322221
 20
0.1736617148014987
  0
LWPOLYLINE
  5
E2B
330
2
100
AcDbEntity
  8
Profilo
  6
Continuous
370
     0
100
AcDbPolyline
 90
        6
 70
   128
 43
0.0
 10
0.1904663859990434
 20
0.1526499325605932
 10
0.1895751746321042
 20
0.1513392610087176
 10
0.1887539868091885
 20
0.1498604101909311
 10
0.1880641889737771
 20
0.1479872015214212
 10
0.1875270108323142
 20
0.1464374995498214
 10
0.1872743339598231
 20
0.145686746048711
  0
LWPOLYLINE
  5
E2C
330
2
100
AcDbEntity
  8
Profilo
  6
Continuous
370
     0
100
AcDbPolyline
 90
       13
 70
   128
 43
0.0
 10
0.1901984794549529
 20
0.1527917591017693
 10
0.1879090974265873
 20
0.1530237082091801
 10
0.1861993048308366
 20
0.1534006226564217
 10
0.1847503272391544
 20
0.1538935129250578
 10
0.183649106194345
 20
0.1545603631227184
 10
0.182924617398504
 20
0.155082245445169
 10
0.182663800790378
 20
0.1554881519462261
 10
0.182924617398504
 20
0.1567348736447245
 10
0.1839678806228921
 20
0.1580685715046666
 10
0.1851560416064484
 20
0.1589963628635533
 10
0.1861993048308366
 20
0.1598371729902384
 10
0.1874744041490823
 20
0.1605620098309071
 10
0.188430729038781
 20
0.1610549000995431
  0
LWPOLYLINE
  5
E2D
330
2
100
AcDbEntity
  8
Profilo
  6
Continuous
370
     0
100
AcDbPolyline
 90
        3
 70
   128
 43
0.0
 10
0.1945743895361531
 20
0.158184547326061
 10
0.1904303171528687
 20
0.1574307158961996
 10
0.1881699124306551
 20
0.1569958148059498
  0
LWPOLYLINE
  5
E2E
330
2
100
AcDbEntity
  8
Profilo
  6
Continuous
370
     0
100
AcDbPolyline
 90
        2
 70
   128
 43
0.0
 10
0.1886046057081601
 20
0.1562999700190957
 10
0.1866050175940732
 20
0.154792309694751
  0
LWPOLYLINE
  5
E2F
330
2
100
AcDbEntity
  8
Profilo
  6
Continuous
370
     0
100
AcDbPolyline
 90
        2
 70
   128
 43
0.0
 10
0.191357661528299
 20
0.1562419833760884
 10
0.1893290945040011
 20
0.154299421961493
  0
LWPOLYLINE
  5
E30
330
2
100
AcDbEntity
  8
Profilo
  6
Continuous
370
     0
100
AcDbPolyline
 90
        2
 70
   128
 43
0.0
 10
0.1890103184713967
 20
0.1577496437004331
 10
0.1863442025900046
 20
0.15853246718411
  0
LWPOLYLINE
  5
E31
330
2
100
AcDbEntity
  8
Profilo
  6
Continuous
370
     0
100
AcDbPolyline
 90
        2
 70
   128
 43
0.0
 10
0.1904303171528687
 20
0.1594312664891813
 10
0.1890972584101436
 20
0.1599531488116328
  0
LWPOLYLINE
  5
E32
330
2
100
AcDbEntity
  8
Profilo
  6
Continuous
370
     0
100
AcDbPolyline
 90
       11
 70
   128
 43
0.0
 10
0.1879014268216592
 20
0.1484427634115428
 10
0.1864423532894881
 20
0.1486708536727874
 10
0.1857812103445895
 20
0.1488761331331438
 10
0.1848920874610498
 20
0.149309505390123
 10
0.1844589244547914
 20
0.149811302443634
 10
0.1842537429912323
 20
0.1503359102980359
 10
0.1843221368124184
 20
0.1511114141438143
 10
0.1846185121763038
 20
0.1518869205249718
 10
0.1850516735785039
 20
0.1524115283793728
 10
0.1856900180483214
 20
0.1530273692958184
 10
0.1859179995910207
 20
0.1531870322251512
  0
LWPOLYLINE
  5
E33
330
2
100
AcDbEntity
  8
Profilo
  6
Continuous
370
     0
100
AcDbPolyline
 90
        2
 70
   128
 43
0.0
 10
0.1989145628111653
 20
0.1619842557869997
 10
0.1966618607750388
 20
0.1598914529097939
  0
LWPOLYLINE
  5
E34
330
2
100
AcDbEntity
  8
Profilo
  6
Continuous
370
     0
100
AcDbPolyline
 90
        2
 70
   128
 43
0.0
 10
0.1964003848991116
 20
0.162487333206683
 10
0.1939465484375333
 20
0.1605353934268014
  0
LWPOLYLINE
  5
E35
330
2
100
AcDbEntity
  8
Profilo
  6
Continuous
370
     0
100
AcDbPolyline
 90
        2
 70
   128
 43
0.0
 10
0.1935241679085486
 20
0.1631513944879293
 10
0.1910904431250524
 20
0.1617226554273488
  0
LWPOLYLINE
  5
E36
330
2
100
AcDbEntity
  8
Profilo
  6
Continuous
370
     0
100
AcDbPolyline
 90
        2
 70
   128
 43
0.0
 10
0.1902971915747049
 20
0.1641986782382705
 10
0.1873405198515281
 20
0.1633132631966088
  0
LWPOLYLINE
  5
E37
330
2
100
AcDbEntity
  8
Profilo
  6
Continuous
370
     0
100
AcDbPolyline
 90
        2
 70
   128
 43
0.0
 10
0.1909609346974765
 20
0.1665329556401314
 10
0.1885272115180385
 20
0.1683440348580685
  0
LWPOLYLINE
  5
E38
330
2
100
AcDbEntity
  8
Profilo
  6
Continuous
370
     0
100
AcDbPolyline
 90
        2
 70
   128
 43
0.0
 10
0.1939235895566604
 20
0.1665946591481064
 10
0.1919524750745423
 20
0.1688886899507309
  0
LWPOLYLINE
  5
E39
330
2
100
AcDbEntity
  8
Profilo
  6
Continuous
370
     0
100
AcDbPolyline
 90
        2
 70
   128
 43
0.0
 10
0.1967193550227233
 20
0.1662726888896022
 10
0.1954320969455161
 20
0.1683252451675734
  0
LWPOLYLINE
  5
E3A
330
2
100
AcDbEntity
  8
Profilo
  6
Continuous
370
     0
100
AcDbPolyline
 90
        2
 70
   128
 43
0.0
 10
0.1997624116806114
 20
0.1659093716775686
 10
0.198897534132388
 20
0.1671972501762056
  0
LWPOLYLINE
  5
E3B
330
2
100
AcDbEntity
  8
Profilo
  6
Continuous
370
     0
100
AcDbPolyline
 90
        6
 70
   128
 43
0.0
 10
0.2026011336078011
 20
0.1411857022369005
 10
0.202897736749007
 20
0.1396287358936268
 10
0.2033627747124156
 20
0.1380023629737959
 10
0.2041995725381362
 20
0.1361900436939398
 10
0.2049155350045393
 20
0.1347143966144706
 10
0.2052677283661863
 20
0.1340048641928486
  0
LWPOLYLINE
  5
E3C
330
2
100
AcDbEntity
  8
Profilo
  6
Continuous
370
     0
100
AcDbPolyline
 90
       13
 70
   128
 43
0.0
 10
0.2023114085647324
 20
0.1410965502118671
 10
0.2005285582210086
 20
0.139641725441624
 10
0.1990530335205591
 20
0.1386992382643173
 10
0.197679925588359
 20
0.1380231824347848
 10
0.1964297104231873
 20
0.1377160358632163
 10
0.1955483929535682
 20
0.1375727714519701
 10
0.1950769485218917
 20
0.1376753654991425
 10
0.1943798083468835
 20
0.1387413560586548
 10
0.1941744400465908
 20
0.1404221213600019
 10
0.19435854917381
 20
0.1419183256100112
 10
0.1945017051320692
 20
0.1432505666528072
 10
0.194890799461396
 20
0.1446647350727159
 10
0.1952184972245858
 20
0.1456894849385735
  0
LWPOLYLINE
  5
E3D
330
2
100
AcDbEntity
  8
Profilo
  6
Continuous
370
     0
100
AcDbPolyline
 90
        3
 70
   128
 43
0.0
 10
0.2015923671341115
 20
0.1480040630270458
 10
0.1991951047660907
 20
0.1445407220271713
 10
0.1979042787688485
 20
0.1426348530098076
  0
LWPOLYLINE
  5
E3E
330
2
100
AcDbEntity
  8
Profilo
  6
Continuous
370
     0
100
AcDbPolyline
 90
        2
 70
   128
 43
0.0
 10
0.1987036899005459
 20
0.1424501910066291
 10
0.1983558444245654
 20
0.1399701918525078
  0
LWPOLYLINE
  5
E3F
330
2
100
AcDbEntity
  8
Profilo
  6
Continuous
370
     0
100
AcDbPolyline
 90
        2
 70
   128
 43
0.0
 10
0.2006913970884405
 20
0.144355892697545
 10
0.2006305819385992
 20
0.1415478808494412
  0
LWPOLYLINE
  5
E40
330
2
100
AcDbEntity
  8
Profilo
  6
Continuous
370
     0
100
AcDbPolyline
 90
        2
 70
   128
 43
0.0
 10
0.1979654980560632
 20
0.1437621473433086
 10
0.1955267296431213
 20
0.1424304585179275
  0
LWPOLYLINE
  5
E41
330
2
100
AcDbEntity
  8
Profilo
  6
Continuous
370
     0
100
AcDbPolyline
 90
        2
 70
   128
 43
0.0
 10
0.197780501875686
 20
0.1459553249175751
 10
0.1964688604697991
 20
0.1453817365700611
  0
LWPOLYLINE
  5
E42
330
2
100
AcDbEntity
  8
Profilo
  6
Continuous
370
     0
100
AcDbPolyline
 90
       11
 70
   128
 43
0.0
 10
0.2037623514148985
 20
0.1363970843742128
 10
0.2025693464556018
 20
0.1355266477558137
 10
0.2019566932974739
 20
0.135204303594598
 10
0.2010215480155273
 20
0.1348820392360268
 10
0.2003604314171252
 20
0.1349305708362596
 10
0.1998443924415574
 20
0.1351564394033147
 10
0.1993443901481238
 20
0.1357531651662531
 10
0.1990055933567334
 20
0.1365111000168022
 10
0.1989409309502668
 20
0.1371883451529576
 10
0.1989568433654567
 20
0.1380751881444489
 10
0.1990051519202487
 20
0.1383492941793125
  0
LWPOLYLINE
  5
E43
330
2
100
AcDbEntity
  8
Profilo
  6
Continuous
370
     0
100
AcDbPolyline
 90
        2
 70
   128
 43
0.0
 10
0.2019745334691365
 20
0.1537598286005932
 10
0.2018614676895576
 20
0.1506870926086961
  0
LWPOLYLINE
  5
E44
330
2
100
AcDbEntity
  8
Profilo
  6
Continuous
370
     0
100
AcDbPolyline
 90
        2
 70
   128
 43
0.0
 10
0.1998410117634937
 20
0.1523377658047902
 10
0.1994861172164113
 20
0.1492224115480638
  0
LWPOLYLINE
  5
E45
330
2
100
AcDbEntity
  8
Profilo
  6
Continuous
370
     0
100
AcDbPolyline
 90
        2
 70
   128
 43
0.0
 10
0.1973376569902101
 20
0.1507735355016926
 10
0.1966270247705408
 20
0.1480423611254575
  0
LWPOLYLINE
  5
E46
330
2
100
AcDbEntity
  8
Profilo
  6
Continuous
370
     0
100
AcDbPolyline
 90
        2
 70
   128
 43
0.0
 10
0.1943152987001275
 20
0.1492322600949965
 10
0.1928506990550505
 20
0.1465154944896712
  0
LWPOLYLINE
  5
E47
330
2
100
AcDbEntity
  8
Profilo
  6
Continuous
370
     0
100
AcDbPolyline
 90
        2
 70
   128
 43
0.0
 10
0.1931340525831795
 20
0.1513521807381
 10
0.1901325240231977
 20
0.150911904970658
  0
LWPOLYLINE
  5
E48
330
2
100
AcDbEntity
  8
Profilo
  6
Continuous
370
     0
100
AcDbPolyline
 90
        2
 70
   128
 43
0.0
 10
0.195185334955511
 20
0.1534907250482556
 10
0.1921694218019232
 20
0.1537190613682424
  0
LWPOLYLINE
  5
E49
330
2
100
AcDbEntity
  8
Profilo
  6
Continuous
370
     0
100
AcDbPolyline
 90
        2
 70
   128
 43
0.0
 10
0.1973899070283001
 20
0.1552399624147875
 10
0.19502830164985
 20
0.155781109962178
  0
LWPOLYLINE
  5
E4A
330
2
100
AcDbEntity
  8
Profilo
  6
Continuous
370
     0
100
AcDbPolyline
 90
        2
 70
   128
 43
0.0
 10
0.1997985770909783
 20
0.1571348243487642
 10
0.1982763486920034
 20
0.1574339311892501
  0
LWPOLYLINE
  5
E4B
330
2
100
AcDbEntity
  8
Profilo
  6
Continuous
370
     0
100
AcDbPolyline
 90
        6
 70
   128
 43
0.0
 10
0.219288130932908
 20
0.1416598295560714
 10
0.2205988024847836
 20
0.1407686181891321
 10
0.222077653302571
 20
0.1399474303662165
 10
0.2239508619720809
 20
0.139257632530805
 10
0.2255005639436807
 20
0.1387204543893421
 10
0.2262513174447902
 20
0.138467777516851
  0
LWPOLYLINE
  5
E4C
330
2
100
AcDbEntity
  8
Profilo
  6
Continuous
370
     0
100
AcDbPolyline
 90
       13
 70
   128
 43
0.0
 10
0.2191463043917328
 20
0.1413919230119809
 10
0.218914355284322
 20
0.1391025409836153
 10
0.2185374408370804
 20
0.1373927483878654
 10
0.2180445505684434
 20
0.1359437707961824
 10
0.2173777003707829
 20
0.134842549751373
 10
0.2168558180483322
 20
0.1341180609555319
 10
0.216449911547276
 20
0.133857244347406
 10
0.2152031898487776
 20
0.1341180609555319
 10
0.2138694919888346
 20
0.1351613241799201
 10
0.2129417006299488
 20
0.1363494851634763
 10
0.2121008905032637
 20
0.1373927483878654
 10
0.211376053662595
 20
0.1386678477061112
 10
0.210883163393959
 20
0.1396241725958098
  0
LWPOLYLINE
  5
E4D
330
2
100
AcDbEntity
  8
Profilo
  6
Continuous
370
     0
100
AcDbPolyline
 90
        3
 70
   128
 43
0.0
 10
0.2137535161674402
 20
0.1457678330931811
 10
0.2145073475973025
 20
0.1416237607098967
 10
0.2149422486875514
 20
0.1393633559876839
  0
LWPOLYLINE
  5
E4E
330
2
100
AcDbEntity
  8
Profilo
  6
Continuous
370
     0
100
AcDbPolyline
 90
        2
 70
   128
 43
0.0
 10
0.2156380934744055
 20
0.139798049265188
 10
0.2171457537987511
 20
0.1377984611511012
  0
LWPOLYLINE
  5
E4F
330
2
100
AcDbEntity
  8
Profilo
  6
Continuous
370
     0
100
AcDbPolyline
 90
        2
 70
   128
 43
0.0
 10
0.2156960801174137
 20
0.142551105085327
 10
0.2176386415320091
 20
0.1405225380610291
  0
LWPOLYLINE
  5
E50
330
2
100
AcDbEntity
  8
Profilo
  6
Continuous
370
     0
100
AcDbPolyline
 90
        2
 70
   128
 43
0.0
 10
0.2141884197930681
 20
0.1402037620284247
 10
0.2134055963093913
 20
0.1375376461470334
  0
LWPOLYLINE
  5
E51
330
2
100
AcDbEntity
  8
Profilo
  6
Continuous
370
     0
100
AcDbPolyline
 90
        2
 70
   128
 43
0.0
 10
0.21250679700432
 20
0.1416237607098967
 10
0.2119849146818693
 20
0.1402907019671724
  0
LWPOLYLINE
  5
E52
330
2
100
AcDbEntity
  8
Profilo
  6
Continuous
370
     0
100
AcDbPolyline
 90
       11
 70
   128
 43
0.0
 10
0.2234953000819584
 20
0.1390948703786881
 10
0.2232672098207138
 20
0.1376357968465169
 10
0.2230619303603583
 20
0.1369746539016174
 10
0.2226285581033791
 20
0.1360855310180777
 10
0.2221267610498672
 20
0.1356523680118193
 10
0.2216021531954662
 20
0.1354471865482603
 10
0.2208266493496878
 20
0.1355155803694463
 10
0.2200511429685303
 20
0.1358119557333317
 10
0.2195265351141284
 20
0.1362451171355319
 10
0.2189106941976837
 20
0.1368834616053494
 10
0.21875103126835
 20
0.1371114431480487
  0
LWPOLYLINE
  5
E53
330
2
100
AcDbEntity
  8
Profilo
  6
Continuous
370
     0
100
AcDbPolyline
 90
        2
 70
   128
 43
0.0
 10
0.2099538077065024
 20
0.1501080063681932
 10
0.2120466105837082
 20
0.1478553043320667
  0
LWPOLYLINE
  5
E54
330
2
100
AcDbEntity
  8
Profilo
  6
Continuous
370
     0
100
AcDbPolyline
 90
        2
 70
   128
 43
0.0
 10
0.2094507302868183
 20
0.1475938284561395
 10
0.2114026700667007
 20
0.1451399919945613
  0
LWPOLYLINE
  5
E55
330
2
100
AcDbEntity
  8
Profilo
  6
Continuous
370
     0
100
AcDbPolyline
 90
        2
 70
   128
 43
0.0
 10
0.208786669005572
 20
0.1447176114655775
 10
0.2102154080661533
 20
0.1422838866820804
  0
LWPOLYLINE
  5
E56
330
2
100
AcDbEntity
  8
Profilo
  6
Continuous
370
     0
100
AcDbPolyline
 90
        2
 70
   128
 43
0.0
 10
0.2077393852552307
 20
0.1414906351317338
 10
0.2086248002968924
 20
0.1385339634085561
  0
LWPOLYLINE
  5
E57
330
2
100
AcDbEntity
  8
Profilo
  6
Continuous
370
     0
100
AcDbPolyline
 90
        2
 70
   128
 43
0.0
 10
0.2054051078533707
 20
0.1421543782545054
 10
0.2035940286354327
 20
0.1397206550750665
  0
LWPOLYLINE
  5
E58
330
2
100
AcDbEntity
  8
Profilo
  6
Continuous
370
     0
100
AcDbPolyline
 90
        2
 70
   128
 43
0.0
 10
0.2053434043453957
 20
0.1451170331136884
 10
0.2030493735427703
 20
0.1431459186315702
  0
LWPOLYLINE
  5
E59
330
2
100
AcDbEntity
  8
Profilo
  6
Continuous
370
     0
100
AcDbPolyline
 90
        2
 70
   128
 43
0.0
 10
0.2056653746038999
 20
0.1479127985797513
 10
0.2036128183259287
 20
0.1466255405025441
  0
LWPOLYLINE
  5
E5A
330
2
100
AcDbEntity
  8
Profilo
  6
Continuous
370
     0
100
AcDbPolyline
 90
        2
 70
   128
 43
0.0
 10
0.2060286918159326
 20
0.1509558552376393
 10
0.2047408133172965
 20
0.1500909776894159
  0
LWPOLYLINE
  5
E5B
330
2
100
AcDbEntity
  8
Profilo
  6
Continuous
370
     0
100
AcDbPolyline
 90
        6
 70
   128
 43
0.0
 10
0.2307523612566016
 20
0.153794577164829
 10
0.2323093275998744
 20
0.154091180306035
 10
0.2339357005197062
 20
0.1545562182694435
 10
0.2357480197995614
 20
0.1553930160951642
 10
0.2372236668790315
 20
0.1561089785615672
 10
0.2379331993006535
 20
0.1564611719232143
  0
LWPOLYLINE
  5
E5C
330
2
100
AcDbEntity
  8
Profilo
  6
Continuous
370
     0
100
AcDbPolyline
 90
       13
 70
   128
 43
0.0
 10
0.230841513281635
 20
0.1535048521217603
 10
0.2322963380518781
 20
0.1517220017780365
 10
0.2332388252291848
 20
0.1502464770775871
 10
0.2339148810587164
 20
0.148873369145387
 10
0.2342220276302849
 20
0.1476231539802162
 10
0.234365292041532
 20
0.1467418365105961
 10
0.2342626979943587
 20
0.1462703920789197
 10
0.2331967074348464
 20
0.1455732519039115
 10
0.2315159421334993
 20
0.1453678836036196
 10
0.2300197378834909
 20
0.145551992730838
 10
0.228687496840694
 20
0.1456951486890972
 10
0.2272733284207853
 20
0.1460842430184239
 10
0.2262485785549286
 20
0.1464119407816147
  0
LWPOLYLINE
  5
E5D
330
2
100
AcDbEntity
  8
Profilo
  6
Continuous
370
     0
100
AcDbPolyline
 90
        3
 70
   128
 43
0.0
 10
0.2239340004664554
 20
0.1527858106911395
 10
0.2273973414663308
 20
0.1503885483231186
 10
0.2293032104836945
 20
0.1490977223258765
  0
LWPOLYLINE
  5
E5E
330
2
100
AcDbEntity
  8
Profilo
  6
Continuous
370
     0
100
AcDbPolyline
 90
        2
 70
   128
 43
0.0
 10
0.229487872486873
 20
0.1498971334575738
 10
0.2319678716409943
 20
0.1495492879815934
  0
LWPOLYLINE
  5
E5F
330
2
100
AcDbEntity
  8
Profilo
  6
Continuous
370
     0
100
AcDbPolyline
 90
        2
 70
   128
 43
0.0
 10
0.2275821707959562
 20
0.1518848406454685
 10
0.23039018264406
 20
0.151824025495628
  0
LWPOLYLINE
  5
E60
330
2
100
AcDbEntity
  8
Profilo
  6
Continuous
370
     0
100
AcDbPolyline
 90
        2
 70
   128
 43
0.0
 10
0.2281759161501926
 20
0.1491589416130912
 10
0.2295076049755738
 20
0.1467201732001502
  0
LWPOLYLINE
  5
E61
330
2
100
AcDbEntity
  8
Profilo
  6
Continuous
370
     0
100
AcDbPolyline
 90
        2
 70
   128
 43
0.0
 10
0.2259827385759261
 20
0.1489739454327139
 10
0.2265563269234401
 20
0.147662304026827
  0
LWPOLYLINE
  5
E62
330
2
100
AcDbEntity
  8
Profilo
  6
Continuous
370
     0
100
AcDbPolyline
 90
       11
 70
   128
 43
0.0
 10
0.2355409791192884
 20
0.1549557949719265
 10
0.2364114157376875
 20
0.1537627900126297
 10
0.2367337598989041
 20
0.1531501368545018
 10
0.2370560242574744
 20
0.1522149915725552
 10
0.2370074926572416
 20
0.1515538749741532
 10
0.2367816240901874
 20
0.1510378359985853
 10
0.236184898327249
 20
0.1505378337051517
 10
0.235426963476699
 20
0.1501990369137613
 10
0.2347497183405445
 20
0.1501343745072947
 10
0.2338628753490524
 20
0.1501502869224847
 10
0.2335887693141896
 20
0.1501985954772775
  0
LWPOLYLINE
  5
E63
330
2
100
AcDbEntity
  8
Profilo
  6
Continuous
370
     0
100
AcDbPolyline
 90
        2
 70
   128
 43
0.0
 10
0.2181782348929089
 20
0.1531679770261645
 10
0.2212509708848052
 20
0.1530549112465855
  0
LWPOLYLINE
  5
E64
330
2
100
AcDbEntity
  8
Profilo
  6
Continuous
370
     0
100
AcDbPolyline
 90
        2
 70
   128
 43
0.0
 10
0.219600297688711
 20
0.1510344553205216
 10
0.2227156519454383
 20
0.1506795607734392
  0
LWPOLYLINE
  5
E65
330
2
100
AcDbEntity
  8
Profilo
  6
Continuous
370
     0
100
AcDbPolyline
 90
        2
 70
   128
 43
0.0
 10
0.2211645279918086
 20
0.1485311005472381
 10
0.2238957023680446
 20
0.1478204683275688
  0
LWPOLYLINE
  5
E66
330
2
100
AcDbEntity
  8
Profilo
  6
Continuous
370
     0
100
AcDbPolyline
 90
        2
 70
   128
 43
0.0
 10
0.2227058033985056
 20
0.1455087422571555
 10
0.2254225690038309
 20
0.1440441426120784
  0
LWPOLYLINE
  5
E67
330
2
100
AcDbEntity
  8
Profilo
  6
Continuous
370
     0
100
AcDbPolyline
 90
        2
 70
   128
 43
0.0
 10
0.2205858827554021
 20
0.1443274961402075
 10
0.2210261585228441
 20
0.1413259675802265
  0
LWPOLYLINE
  5
E68
330
2
100
AcDbEntity
  8
Profilo
  6
Continuous
370
     0
100
AcDbPolyline
 90
        2
 70
   128
 43
0.0
 10
0.2184473384452457
 20
0.1463787785125399
 10
0.2182190021252597
 20
0.143362865358952
  0
LWPOLYLINE
  5
E69
330
2
100
AcDbEntity
  8
Profilo
  6
Continuous
370
     0
100
AcDbPolyline
 90
        2
 70
   128
 43
0.0
 10
0.2166981010787137
 20
0.148583350585328
 10
0.2161569535313241
 20
0.1462217452068779
  0
LWPOLYLINE
  5
E6A
330
2
100
AcDbEntity
  8
Profilo
  6
Continuous
370
     0
100
AcDbPolyline
 90
        2
 70
   128
 43
0.0
 10
0.214803239144737
 20
0.1509920206480062
 10
0.214504132304252
 20
0.1494697922490313
  0
LWPOLYLINE
  5
E6B
330
2
100
AcDbEntity
  8
Profilo
  6
Continuous
370
     0
100
AcDbPolyline
 90
        6
 70
   128
 43
0.0
 10
0.2302782339374298
 20
0.1704815744899368
 10
0.23116944530437
 20
0.1717922460418115
 10
0.2319906331272856
 20
0.173271096859599
 10
0.2326804309626971
 20
0.1751443055291089
 10
0.2332176091041591
 20
0.1766940075007086
 10
0.2334702859766502
 20
0.1774447610018182
  0
LWPOLYLINE
  5
E6C
330
2
100
AcDbEntity
  8
Profilo
  6
Continuous
370
     0
100
AcDbPolyline
 90
       13
 70
   128
 43
0.0
 10
0.2305461404815203
 20
0.1703397479487607
 10
0.2328355225098859
 20
0.17010779884135
 10
0.2345453151056367
 20
0.1697308843941083
 10
0.2359942926973189
 20
0.1692379941254722
 10
0.2370955137421282
 20
0.1685711439278108
 10
0.2378200025379693
 20
0.1680492616053602
 10
0.2380808191460952
 20
0.1676433551043039
 10
0.2378200025379693
 20
0.1663966334058056
 10
0.2367767393135811
 20
0.1650629355458635
 10
0.2355885783300249
 20
0.1641351441869767
 10
0.2345453151056367
 20
0.1632943340602917
 10
0.2332702157873909
 20
0.162569497219623
 10
0.2323138908976923
 20
0.1620766069509869
  0
LWPOLYLINE
  5
E6D
330
2
100
AcDbEntity
  8
Profilo
  6
Continuous
370
     0
100
AcDbPolyline
 90
        3
 70
   128
 43
0.0
 10
0.2261702304003201
 20
0.1649469597244682
 10
0.2303143027836054
 20
0.1657007911543304
 10
0.2325747075058182
 20
0.1661356922445802
  0
LWPOLYLINE
  5
E6E
330
2
100
AcDbEntity
  8
Profilo
  6
Continuous
370
     0
100
AcDbPolyline
 90
        2
 70
   128
 43
0.0
 10
0.2321400142283132
 20
0.1668315370314335
 10
0.2341396023424
 20
0.1683391973557791
  0
LWPOLYLINE
  5
E6F
330
2
100
AcDbEntity
  8
Profilo
  6
Continuous
370
     0
100
AcDbPolyline
 90
        2
 70
   128
 43
0.0
 10
0.2293869584081742
 20
0.1668895236744416
 10
0.2314155254324721
 20
0.168832085089037
  0
LWPOLYLINE
  5
E70
330
2
100
AcDbEntity
  8
Profilo
  6
Continuous
370
     0
100
AcDbPolyline
 90
        2
 70
   128
 43
0.0
 10
0.2317343014650774
 20
0.165381863350097
 10
0.2344004173464687
 20
0.1645990398664201
  0
LWPOLYLINE
  5
E71
330
2
100
AcDbEntity
  8
Profilo
  6
Continuous
370
     0
100
AcDbPolyline
 90
        2
 70
   128
 43
0.0
 10
0.2303143027836054
 20
0.1637002405613488
 10
0.2316473615263297
 20
0.1631783582388973
  0
LWPOLYLINE
  5
E72
330
2
100
AcDbEntity
  8
Profilo
  6
Continuous
370
     0
100
AcDbPolyline
 90
       11
 70
   128
 43
0.0
 10
0.232843193114814
 20
0.1746887436389872
 10
0.2343022666469852
 20
0.1744606533777417
 10
0.2349634095918838
 20
0.1742553739173862
 10
0.2358525324754235
 20
0.1738220016604071
 10
0.2362856954816819
 20
0.173320204606896
 10
0.236490876945241
 20
0.1727955967524941
 10
0.2364224831240549
 20
0.1720200929067157
 10
0.2361261077601695
 20
0.1712445865255583
 10
0.2356929463579693
 20
0.1707199786711564
 10
0.2350546018881519
 20
0.1701041377547117
 10
0.2348266203454534
 20
0.169944474825378
  0
LWPOLYLINE
  5
E73
330
2
100
AcDbEntity
  8
Profilo
  6
Continuous
370
     0
100
AcDbPolyline
 90
        2
 70
   128
 43
0.0
 10
0.221830057125308
 20
0.1611472512635303
 10
0.2240827591614354
 20
0.1632400541407362
  0
LWPOLYLINE
  5
E74
330
2
100
AcDbEntity
  8
Profilo
  6
Continuous
370
     0
100
AcDbPolyline
 90
        2
 70
   128
 43
0.0
 10
0.2243442350373626
 20
0.1606441738438471
 10
0.2267980714989408
 20
0.1625961136237286
  0
LWPOLYLINE
  5
E75
330
2
100
AcDbEntity
  8
Profilo
  6
Continuous
370
     0
100
AcDbPolyline
 90
        2
 70
   128
 43
0.0
 10
0.2272204520279246
 20
0.1599801125625999
 10
0.2296541768114217
 20
0.1614088516231813
  0
LWPOLYLINE
  5
E76
330
2
100
AcDbEntity
  8
Profilo
  6
Continuous
370
     0
100
AcDbPolyline
 90
        2
 70
   128
 43
0.0
 10
0.2304474283617683
 20
0.1589328288122587
 10
0.233404100084946
 20
0.1598182438539213
  0
LWPOLYLINE
  5
E77
330
2
100
AcDbEntity
  8
Profilo
  6
Continuous
370
     0
100
AcDbPolyline
 90
        2
 70
   128
 43
0.0
 10
0.2297836852389967
 20
0.1565985514103987
 10
0.2322174084184356
 20
0.1547874721924616
  0
LWPOLYLINE
  5
E78
330
2
100
AcDbEntity
  8
Profilo
  6
Continuous
370
     0
100
AcDbPolyline
 90
        2
 70
   128
 43
0.0
 10
0.2268210303798128
 20
0.1565368479024236
 10
0.228792144861931
 20
0.1542428170997983
  0
LWPOLYLINE
  5
E79
330
2
100
AcDbEntity
  8
Profilo
  6
Continuous
370
     0
100
AcDbPolyline
 90
        2
 70
   128
 43
0.0
 10
0.22402526491375
 20
0.1568588181609278
 10
0.2253125229909572
 20
0.1548062618829566
  0
LWPOLYLINE
  5
E7A
330
2
100
AcDbEntity
  8
Profilo
  6
Continuous
370
     0
100
AcDbPolyline
 90
        2
 70
   128
 43
0.0
 10
0.2209822082558619
 20
0.1572221353729615
 10
0.2218470858040853
 20
0.1559342568743245
  0
LWPOLYLINE
  5
E7B
330
2
100
AcDbEntity
  8
Profilo
  6
Continuous
370
     0
100
AcDbPolyline
 90
        6
 70
   128
 43
0.0
 10
0.2181434863286731
 20
0.1819458048136295
 10
0.2178468831874671
 20
0.1835027711569024
 10
0.2173818452240577
 20
0.1851291440767342
 10
0.216545047398337
 20
0.1869414633565902
 10
0.215829084931934
 20
0.1884171104360595
 10
0.2154768915702878
 20
0.1891266428576814
  0
LWPOLYLINE
  5
E7C
330
2
100
AcDbEntity
  8
Profilo
  6
Continuous
370
     0
100
AcDbPolyline
 90
       13
 70
   128
 43
0.0
 10
0.2184332113717409
 20
0.182034956838663
 10
0.2202160617154656
 20
0.183489781608906
 10
0.221691586415915
 20
0.1844322687862128
 10
0.2230646943481143
 20
0.1851083246157452
 10
0.2243149095132859
 20
0.1854154711873128
 10
0.2251962269829051
 20
0.1855587355985599
 10
0.2256676714145815
 20
0.1854561415513867
 10
0.2263648115895906
 20
0.1843901509918744
 10
0.2265701798898825
 20
0.1827093856905282
 10
0.2263860707626633
 20
0.1812131814405189
 10
0.2262429148044049
 20
0.179880940397722
 10
0.2258538204750773
 20
0.1784667719778132
 10
0.2255261227118874
 20
0.1774420221119566
  0
LWPOLYLINE
  5
E7D
330
2
100
AcDbEntity
  8
Profilo
  6
Continuous
370
     0
100
AcDbPolyline
 90
        3
 70
   128
 43
0.0
 10
0.2191522528023617
 20
0.1751274440234833
 10
0.2215495151703835
 20
0.1785907850233588
 10
0.2228403411676256
 20
0.1804966540407225
  0
LWPOLYLINE
  5
E7E
330
2
100
AcDbEntity
  8
Profilo
  6
Continuous
370
     0
100
AcDbPolyline
 90
        2
 70
   128
 43
0.0
 10
0.2220409300359283
 20
0.1806813160439009
 10
0.2223887755119087
 20
0.1831613151980223
  0
LWPOLYLINE
  5
E7F
330
2
100
AcDbEntity
  8
Profilo
  6
Continuous
370
     0
100
AcDbPolyline
 90
        2
 70
   128
 43
0.0
 10
0.2200532228480336
 20
0.1787756143529842
 10
0.2201140379978741
 20
0.1815836262010888
  0
LWPOLYLINE
  5
E80
330
2
100
AcDbEntity
  8
Profilo
  6
Continuous
370
     0
100
AcDbPolyline
 90
        2
 70
   128
 43
0.0
 10
0.2227791218804109
 20
0.1793693597072206
 10
0.2252178902933519
 20
0.1807010485326026
  0
LWPOLYLINE
  5
E81
330
2
100
AcDbEntity
  8
Profilo
  6
Continuous
370
     0
100
AcDbPolyline
 90
        2
 70
   128
 43
0.0
 10
0.2229641180607873
 20
0.1771761821329549
 10
0.2242757594666751
 20
0.1777497704804689
  0
LWPOLYLINE
  5
E82
330
2
100
AcDbEntity
  8
Profilo
  6
Continuous
370
     0
100
AcDbPolyline
 90
       11
 70
   128
 43
0.0
 10
0.2169822685215756
 20
0.1867344226763172
 10
0.2181752734808724
 20
0.1876048592947164
 10
0.2187879266389994
 20
0.1879272034559321
 10
0.2197230719209469
 20
0.1882494678145032
 10
0.220384188519348
 20
0.1882009362142696
 10
0.2209002274949159
 20
0.1879750676472154
 10
0.2214002297883504
 20
0.1873783418842769
 10
0.2217390265797399
 20
0.1866204070337278
 10
0.2218036889862074
 20
0.1859431618975724
 10
0.2217877765710166
 20
0.1850563189060812
 10
0.2217394680162246
 20
0.1847822128712175
  0
LWPOLYLINE
  5
E83
330
2
100
AcDbEntity
  8
Profilo
  6
Continuous
370
     0
100
AcDbPolyline
 90
        2
 70
   128
 43
0.0
 10
0.2187700864673367
 20
0.1693716784499368
 10
0.2188831522469166
 20
0.1724444144418331
  0
LWPOLYLINE
  5
E84
330
2
100
AcDbEntity
  8
Profilo
  6
Continuous
370
     0
100
AcDbPolyline
 90
        2
 70
   128
 43
0.0
 10
0.2209036081729805
 20
0.170793741245739
 10
0.2212585027200629
 20
0.1739090955024662
  0
LWPOLYLINE
  5
E85
330
2
100
AcDbEntity
  8
Profilo
  6
Continuous
370
     0
100
AcDbPolyline
 90
        2
 70
   128
 43
0.0
 10
0.2234069629462632
 20
0.1723579715488375
 10
0.2241175951659333
 20
0.1750891459250725
  0
LWPOLYLINE
  5
E86
330
2
100
AcDbEntity
  8
Profilo
  6
Continuous
370
     0
100
AcDbPolyline
 90
        2
 70
   128
 43
0.0
 10
0.2264293212363457
 20
0.1738992469555336
 10
0.2278939208814237
 20
0.1766160125608589
  0
LWPOLYLINE
  5
E87
330
2
100
AcDbEntity
  8
Profilo
  6
Continuous
370
     0
100
AcDbPolyline
 90
        2
 70
   128
 43
0.0
 10
0.2276105673532938
 20
0.1717793263124301
 10
0.2306120959132756
 20
0.1722196020798721
  0
LWPOLYLINE
  5
E88
330
2
100
AcDbEntity
  8
Profilo
  6
Continuous
370
     0
100
AcDbPolyline
 90
        2
 70
   128
 43
0.0
 10
0.2255592849809622
 20
0.1696407820022736
 10
0.2285751981345501
 20
0.1694124456822876
  0
LWPOLYLINE
  5
E89
330
2
100
AcDbEntity
  8
Profilo
  6
Continuous
370
     0
100
AcDbPolyline
 90
        2
 70
   128
 43
0.0
 10
0.2233547129081732
 20
0.1678915446357425
 10
0.2257163182866242
 20
0.1673503970883521
  0
LWPOLYLINE
  5
E8A
330
2
100
AcDbEntity
  8
Profilo
  6
Continuous
370
     0
100
AcDbPolyline
 90
        2
 70
   128
 43
0.0
 10
0.220946042845495
 20
0.1659966827017658
 10
0.2224682712444699
 20
0.16569757586128
  0
LWPOLYLINE
  5
E8B
330
2
100
AcDbEntity
  8
Profilo
  6
Continuous
370
     0
100
AcDbPolyline
 90
        2
 70
   128
 43
0.0
 10
0.2008184381709495
 20
0.1828420369998331
 10
0.1997177238528691
 20
0.1853795619747742
  0
LWPOLYLINE
  5
E8C
330
2
100
AcDbEntity
  8
Profilo
  6
Continuous
370
     0
100
AcDbPolyline
 90
        2
 70
   128
 43
0.0
 10
0.2101390120394335
 20
0.1848827050370072
 10
0.2100324906446824
 20
0.1879703240277057
  0
LWPOLYLINE
  5
E8D
330
2
100
AcDbEntity
  8
Profilo
  6
Continuous
370
     0
100
AcDbPolyline
 90
        2
 70
   128
 43
0.0
 10
0.1885720981104735
 20
0.1698547503141305
 10
0.185999474434799
 20
0.1708707288728781
  0
LWPOLYLINE
  5
E8E
330
2
100
AcDbEntity
  8
Profilo
  6
Continuous
370
     0
100
AcDbPolyline
 90
        2
 70
   128
 43
0.0
 10
0.1937197688901924
 20
0.177888361508322
 10
0.1914611705635789
 20
0.1799963158337954
  0
LWPOLYLINE
  5
E8F
330
2
100
AcDbEntity
  8
Profilo
  6
Continuous
370
     0
100
AcDbPolyline
 90
        2
 70
   128
 43
0.0
 10
0.1890960264936681
 20
0.1520118817279774
 10
0.1865585015187279
 20
0.1509111674098971
  0
LWPOLYLINE
  5
E90
330
2
100
AcDbEntity
  8
Profilo
  6
Continuous
370
     0
100
AcDbPolyline
 90
        2
 70
   128
 43
0.0
 10
0.187055358456494
 20
0.1613324555964615
 10
0.1839677394657964
 20
0.1612259342017104
  0
LWPOLYLINE
  5
E91
330
2
100
AcDbEntity
  8
Profilo
  6
Continuous
370
     0
100
AcDbPolyline
 90
        2
 70
   128
 43
0.0
 10
0.2020833131793716
 20
0.1397655416675014
 10
0.201067334620624
 20
0.137192917991827
  0
LWPOLYLINE
  5
E92
330
2
100
AcDbEntity
  8
Profilo
  6
Continuous
370
     0
100
AcDbPolyline
 90
        2
 70
   128
 43
0.0
 10
0.1940497019851792
 20
0.1449132124472203
 10
0.1919417476597058
 20
0.1426546141206078
  0
LWPOLYLINE
  5
E93
330
2
100
AcDbEntity
  8
Profilo
  6
Continuous
370
     0
100
AcDbPolyline
 90
        2
 70
   128
 43
0.0
 10
0.2199261817655247
 20
0.1402894700506969
 10
0.2210268960836041
 20
0.1377519450757558
  0
LWPOLYLINE
  5
E94
330
2
100
AcDbEntity
  8
Profilo
  6
Continuous
370
     0
100
AcDbPolyline
 90
        2
 70
   128
 43
0.0
 10
0.2106056078970397
 20
0.1382488020135228
 10
0.2107121292917908
 20
0.1351611830228243
  0
LWPOLYLINE
  5
E95
330
2
100
AcDbEntity
  8
Profilo
  6
Continuous
370
     0
100
AcDbPolyline
 90
        2
 70
   128
 43
0.0
 10
0.2321725218260007
 20
0.1532767567363995
 10
0.2347451455016751
 20
0.1522607781776519
  0
LWPOLYLINE
  5
E96
330
2
100
AcDbEntity
  8
Profilo
  6
Continuous
370
     0
100
AcDbPolyline
 90
        2
 70
   128
 43
0.0
 10
0.2270248510462818
 20
0.1452431455422081
 10
0.2292834493728943
 20
0.1431351912167347
  0
LWPOLYLINE
  5
E97
330
2
100
AcDbEntity
  8
Profilo
  6
Continuous
370
     0
100
AcDbPolyline
 90
        2
 70
   128
 43
0.0
 10
0.2316485934428052
 20
0.1711196253225526
 10
0.2341861184177463
 20
0.172220339640633
  0
LWPOLYLINE
  5
E98
330
2
100
AcDbEntity
  8
Profilo
  6
Continuous
370
     0
100
AcDbPolyline
 90
        2
 70
   128
 43
0.0
 10
0.2336892614799793
 20
0.1617990514540686
 10
0.2367768804706778
 20
0.1619055728488197
  0
LWPOLYLINE
  5
E99
330
2
100
AcDbEntity
  8
Profilo
  6
Continuous
370
     0
100
AcDbPolyline
 90
        2
 70
   128
 43
0.0
 10
0.2186613067571026
 20
0.1833659653830286
 10
0.2196772853158493
 20
0.1859385890587031
  0
LWPOLYLINE
  5
E9A
330
2
100
AcDbEntity
  8
Profilo
  6
Continuous
370
     0
100
AcDbPolyline
 90
        2
 70
   128
 43
0.0
 10
0.226694917951294
 20
0.1782182946033097
 10
0.2288028722767674
 20
0.1804768929299223
  0
LWPOLYLINE
  5
E9B
330
2
100
AcDbEntity
  8
Profilo
  6
Continuous
370
     0
100
AcDbPolyline
 90
       25
 70
   128
 43
0.0
 10
0.2120512908925269
 20
0.1917479814625025
 10
0.2138003522155485
 20
0.1907489982567323
 10
0.215335239970232
 20
0.1902495074558768
 10
0.2170129101038081
 20
0.1898213715671095
 10
0.2187976644861742
 20
0.1892505258541648
 10
0.2206181144632631
 20
0.188751033449251
 10
0.2216532740333383
 20
0.1884656105927778
 10
0.2227955153168255
 20
0.1884299331367332
 10
0.2230453819445082
 20
0.1892505258541648
 10
0.2232952485721908
 20
0.1903565414280679
 10
0.2241876257633744
 20
0.1911414566894549
 10
0.2252941739875169
 20
0.1920334043189749
 10
0.2259366845510169
 20
0.1922117932032552
 10
0.2266862818986868
 20
0.1922117932032552
 10
0.2250086117651115
 20
0.1930680649807888
 10
0.2239377591356917
 20
0.1935675557816452
 10
0.2228312109115482
 20
0.1936032332376898
 10
0.2220102249098119
 20
0.1936032332376898
 10
0.2204396390250267
 20
0.1923188271754472
 10
0.2197614328668032
 20
0.191569590974163
 10
0.2183336293609106
 20
0.1920334043189749
 10
0.217334165385558
 20
0.1923188271754472
 10
0.2160848373179018
 20
0.1923901836915947
 10
0.2138360452748931
 20
0.1926399290920224
 10
0.2130150592731559
 20
0.1927469630642145
  0
LWPOLYLINE
  5
E9C
330
2
100
AcDbEntity
  8
Profilo
  6
Continuous
370
     0
100
AcDbPolyline
 90
        5
 70
   128
 43
0.0
 10
0.2218317494715756
 20
0.1939600126103096
 10
0.2180123715437816
 20
0.1953871301007879
 10
0.2163703970049291
 20
0.1957082320173631
 10
0.2142286917460894
 20
0.1957082320173631
 10
0.213621874241934
 20
0.1957439094734077
  0
LWPOLYLINE
  5
E9D
330
2
100
AcDbEntity
  8
Profilo
  6
Continuous
370
     0
100
AcDbPolyline
 90
       25
 70
   128
 43
0.0
 10
0.2003732474962183
 20
0.1900930143450521
 10
0.2023714637757241
 20
0.1898394109984298
 10
0.2039806620110849
 20
0.1899653177850984
 10
0.205694467621232
 20
0.1902117883654266
 10
0.2075618188624413
 20
0.1903673916279869
 10
0.2094348428041874
 20
0.1906025768641235
 10
0.2105004321422534
 20
0.19073501894624
 10
0.2115693786565933
 20
0.1911391740897821
 10
0.2114861980820868
 20
0.1919929227246599
 10
0.2112937909091903
 20
0.1931103676947428
 10
0.2118178658650607
 20
0.1941770328059797
 10
0.2124988495407287
 20
0.1954245426374583
 10
0.2130241854292365
 20
0.1958352306242437
 10
0.213716723076373
 20
0.1961220891101412
 10
0.2118390769547933
 20
0.1962711645145789
 10
0.2106585912740295
 20
0.1963228362823839
 10
0.2096226208466707
 20
0.1959323402813025
 10
0.2088641286831872
 20
0.1956181625402349
 10
0.2079046174506332
 20
0.1938304888706817
 10
0.2075647569433869
 20
0.1928787466188184
 10
0.2060681448250758
 20
0.1927608575286175
 10
0.2050355339163741
 20
0.1926420755592104
 10
0.2038539983287546
 20
0.1922299032309096
 10
0.2016808119602917
 20
0.1916000624370102
 10
0.2008813596689498
 20
0.1913847711921324
  0
LWPOLYLINE
  5
E9E
330
2
100
AcDbEntity
  8
Profilo
  6
Continuous
370
     0
100
AcDbPolyline
 90
        5
 70
   128
 43
0.0
 10
0.2085627053238339
 20
0.1958794841069229
 10
0.2044879260097752
 20
0.1957363560919576
 10
0.2028480589568506
 20
0.1954046591281473
 10
0.2008693813035365
 20
0.1945850640085804
 10
0.2002951018601407
 20
0.194385806674682
  0
LWPOLYLINE
  5
E9F
330
2
100
AcDbEntity
  8
Profilo
  6
Continuous
370
     0
100
AcDbPolyline
 90
       25
 70
   128
 43
0.0
 10
0.1902174707195467
 20
0.184095030368052
 10
0.1921606316408575
 20
0.1846254156911804
 10
0.1935991545129803
 20
0.1853575518984518
 10
0.1950881842312422
 20
0.1862411060362807
 10
0.1967538450324
 20
0.1870994690881698
 10
0.1983942920226769
 20
0.1880335271451148
 10
0.1993280848116046
 20
0.1885636710594081
 10
0.2001609991400139
 20
0.1893461298456083
 10
0.199757434851753
 20
0.1901030589075228
 10
0.1991520461261749
 20
0.1910618124067545
 10
0.1992280331854526
 20
0.1922478372739993
 10
0.1993797787211575
 20
0.1936609872442971
 10
0.1997079623078293
 20
0.1942414508104953
 10
0.2002380076755259
 20
0.1947714961781919
 10
0.1984462401670479
 20
0.1941906798305799
 10
0.1973358396787079
 20
0.1937866660070913
 10
0.1965281641546019
 20
0.1930294460251936
 10
0.1959476393855148
 20
0.1924489212561065
 10
0.1957452796923562
 20
0.1904301370901311
 10
0.195795505517472
 20
0.1894207829179704
 10
0.1944579304149328
 20
0.1887391389380724
 10
0.1935493782230913
 20
0.1882342356208662
 10
0.1926155131980762
 20
0.18740128394875
 10
0.1908487804287733
 20
0.1859877445118723
 10
0.1901925712121317
 20
0.1854829041903387
  0
LWPOLYLINE
  5
EA0
330
2
100
AcDbEntity
  8
Profilo
  6
Continuous
370
     0
100
AcDbPolyline
 90
        5
 70
   128
 43
0.0
 10
0.1955691570790956
 20
0.1925750011772214
 10
0.1918593245913709
 20
0.1908834175996314
 10
0.1904712199177505
 20
0.1899494196113352
 10
0.1889568056059219
 20
0.1884350052995074
 10
0.1885024930626866
 20
0.1880311482984804
  0
LWPOLYLINE
  5
EA1
330
2
100
AcDbEntity
  8
Profilo
  6
Continuous
370
     0
100
AcDbPolyline
 90
       25
 70
   128
 43
0.0
 10
0.1831300855144156
 20
0.1746671682201411
 10
0.1847223624420595
 20
0.1759007958555292
 10
0.1857712078839058
 20
0.1771277003826766
 10
0.1868087704337642
 20
0.1785138249699603
 10
0.1880191590371487
 20
0.1799442698176079
 10
0.1891772858923748
 20
0.1814349988234489
 10
0.1898371206449021
 20
0.1822821349647341
 10
0.1903071991312679
 20
0.1833237751363999
 10
0.1896446901338209
 20
0.1838686490372543
 10
0.188718484801168
 20
0.1845227495364987
 10
0.188334815622903
 20
0.185647572625055
 10
0.1879342211364101
 20
0.1870112234614323
 10
0.1880152894451668
 20
0.187673092291005
 10
0.1883021479310651
 20
0.1883656299381415
 10
0.1868690393964416
 20
0.1871433458622895
 10
0.1859977725090689
 20
0.1863451538897392
 10
0.1855413531651655
 20
0.1853364898050536
 10
0.1852271754240971
 20
0.1845779976415709
 10
0.1858127746992226
 20
0.1826354445681175
 10
0.186245440430125
 20
0.1817221434985521
 10
0.1852705360275701
 20
0.1805805187457794
 10
0.1846243613877514
 20
0.1797663610338593
 10
0.1840803394098904
 20
0.1786394393592807
 10
0.1829890292884031
 20
0.1766573998449237
 10
0.1825759650511431
 20
0.1759398678092985
  0
LWPOLYLINE
  5
EA2
330
2
100
AcDbEntity
  8
Profilo
  6
Continuous
370
     0
100
AcDbPolyline
 90
        5
 70
   128
 43
0.0
 10
0.1848292546708141
 20
0.1845496413920393
 10
0.1820491573759642
 20
0.1815671305172699
 10
0.1811241414350067
 20
0.1801730242314938
 10
0.1803045463154389
 20
0.1781943465781797
 10
0.1800393656387185
 20
0.177647373477458
  0
LWPOLYLINE
  5
EA3
330
2
100
AcDbEntity
  8
Profilo
  6
Continuous
370
     0
100
AcDbPolyline
 90
       25
 70
   128
 43
0.0
 10
0.1801900820309996
 20
0.1632447344495549
 10
0.1811890652367689
 20
0.1649937957725764
 10
0.1816885560376253
 20
0.1665286835272599
 10
0.1821166919263917
 20
0.168206353660836
 10
0.1826875376393373
 20
0.1699911080432022
 10
0.1831870300442511
 20
0.171811558020291
 10
0.1834724529007234
 20
0.1728467175903663
 10
0.183508130356768
 20
0.1739889588738535
 10
0.1826875376393373
 20
0.1742388255015361
 10
0.1815815220654333
 20
0.1744886921292197
 10
0.1807966068040472
 20
0.1753810693204023
 10
0.1799046591745272
 20
0.1764876175445449
 10
0.179726270290246
 20
0.1771301281080448
 10
0.179726270290246
 20
0.1778797254557147
 10
0.1788699985127125
 20
0.1762020553221395
 10
0.1783705077118569
 20
0.1751312026927196
 10
0.1783348302558123
 20
0.1740246544685762
 10
0.1783348302558123
 20
0.1732036684668399
 10
0.179619236318054
 20
0.1716330825820547
 10
0.1803684725193382
 20
0.1709548764238311
 10
0.1799046591745272
 20
0.1695270729179386
 10
0.179619236318054
 20
0.168527608942586
 10
0.1795478798019074
 20
0.1672782808749298
 10
0.1792981344014797
 20
0.1650294888319219
 10
0.1791911004292876
 20
0.1642085028301838
  0
LWPOLYLINE
  5
EA4
330
2
100
AcDbEntity
  8
Profilo
  6
Continuous
370
     0
100
AcDbPolyline
 90
        5
 70
   128
 43
0.0
 10
0.1779780508831925
 20
0.1730251930286035
 10
0.1765509333927142
 20
0.1692058151008096
 10
0.1762298314761381
 20
0.1675638405619571
 10
0.1762298314761381
 20
0.1654221353031173
 10
0.1761941540200944
 20
0.164815317798962
  0
LWPOLYLINE
  5
EA5
330
2
100
AcDbEntity
  8
Profilo
  6
Continuous
370
     0
100
AcDbPolyline
 90
       25
 70
   128
 43
0.0
 10
0.18184504914845
 20
0.1515666910532463
 10
0.1820986524950723
 20
0.1535649073327521
 10
0.1819727457084037
 20
0.1551741055681128
 10
0.1817262751280755
 20
0.1568879111782608
 10
0.1815706718655143
 20
0.1587552624194692
 10
0.1813354866293777
 20
0.1606282863612154
 10
0.1812030445472621
 20
0.1616938756992814
 10
0.18079888940372
 20
0.1627628222136221
 10
0.1799451407688422
 20
0.1626796416391156
 10
0.1788276957987585
 20
0.1624872344662183
 10
0.1777610306875215
 20
0.1630113094220886
 10
0.1765135208560438
 20
0.1636922930977567
 10
0.1761028328692584
 20
0.1642176289862645
 10
0.17581597438336
 20
0.164910166633401
 10
0.1756668989789232
 20
0.1630325205118213
 10
0.1756152272111182
 20
0.1618520348310584
 10
0.1760057232121988
 20
0.1608160644036987
 10
0.1763199009532672
 20
0.160057572240216
 10
0.1781075746228204
 20
0.1590980610076611
 10
0.1790593168746828
 20
0.1587582005004149
 10
0.1791772059648837
 20
0.1572615883821038
 10
0.1792959879342908
 20
0.1562289774734029
 10
0.1797081602625925
 20
0.1550474418857826
 10
0.1803380010564919
 20
0.1528742555173197
 10
0.1805532923013688
 20
0.1520748032259778
  0
LWPOLYLINE
  5
EA6
330
2
100
AcDbEntity
  8
Profilo
  6
Continuous
370
     0
100
AcDbPolyline
 90
        5
 70
   128
 43
0.0
 10
0.1760585793865792
 20
0.1597561488808619
 10
0.1762017074015445
 20
0.1556813695668031
 10
0.1765334043653548
 20
0.1540415025138786
 10
0.1773529994849217
 20
0.1520628248605653
 10
0.1775522568188192
 20
0.1514885454171695
  0
LWPOLYLINE
  5
EA7
330
2
100
AcDbEntity
  8
Profilo
  6
Continuous
370
     0
100
AcDbPolyline
 90
       25
 70
   128
 43
0.0
 10
0.1878430331254501
 20
0.1414109142765747
 10
0.1873126478023217
 20
0.1433540751978854
 10
0.1865805115950503
 20
0.1447925980700082
 10
0.1856969574572214
 20
0.1462816277882701
 10
0.1848385944053323
 20
0.1479472885894288
 10
0.1839045363483873
 20
0.1495877355797048
 10
0.183374392434094
 20
0.1505215283686325
 10
0.1825919336478938
 20
0.1513544426970419
 10
0.1818350045859793
 20
0.150950878408781
 10
0.1808762510867476
 20
0.1503454896832028
 10
0.1796902262195028
 20
0.1504214767424814
 10
0.1782770762492041
 20
0.1505732222781855
 10
0.177696612683006
 20
0.1509014058648572
 10
0.1771665673153093
 20
0.1514314512325539
 10
0.1777473836629222
 20
0.1496396837240759
 10
0.1781513974864108
 20
0.1485292832357359
 10
0.1789086174683077
 20
0.1477216077116299
 10
0.1794891422373948
 20
0.1471410829425428
 10
0.181507926403371
 20
0.1469387232493842
 10
0.1825172805755317
 20
0.1469889490745
 10
0.1831989245554297
 20
0.1456513739719607
 10
0.1837038278726351
 20
0.1447428217801201
 10
0.1845367795447521
 20
0.1438089567551042
 10
0.1859503189816289
 20
0.1420422239858012
 10
0.1864551593031625
 20
0.1413860147691597
  0
LWPOLYLINE
  5
EA8
330
2
100
AcDbEntity
  8
Profilo
  6
Continuous
370
     0
100
AcDbPolyline
 90
        5
 70
   128
 43
0.0
 10
0.1793630623162807
 20
0.1467626006361236
 10
0.1810546458938707
 20
0.1430527681483997
 10
0.1819886438821661
 20
0.1416646634747785
 10
0.1835030581939947
 20
0.1401502491629507
 10
0.1839069151950208
 20
0.1396959366197146
  0
LWPOLYLINE
  5
EA9
330
2
100
AcDbEntity
  8
Profilo
  6
Continuous
370
     0
100
AcDbPolyline
 90
       25
 70
   128
 43
0.0
 10
0.1972708952733611
 20
0.1343235290714444
 10
0.1960372676379729
 20
0.1359158059990884
 10
0.1948103631108247
 20
0.1369646514409337
 10
0.193424238523541
 20
0.1380022139907921
 10
0.1919937936758933
 20
0.1392126025941767
 10
0.1905030646700532
 20
0.1403707294494028
 10
0.189655928528768
 20
0.1410305642019309
 10
0.1886142883571022
 20
0.1415006426882968
 10
0.1880694144562478
 20
0.1408381336908488
 10
0.1874153139570034
 20
0.139911928358196
 10
0.1862904908684462
 20
0.1395282591799318
 10
0.1849268400320698
 20
0.139127664693439
 10
0.1842649712024971
 20
0.1392087330021947
 10
0.1835724335553606
 20
0.1394955914880931
 10
0.1847947176312126
 20
0.1380624829534696
 10
0.185592909603763
 20
0.1371912160660977
 10
0.1866015736884476
 20
0.1367347967221935
 10
0.1873600658519312
 20
0.136420618981125
 10
0.1893026189253846
 20
0.1370062182562506
 10
0.19021591999495
 20
0.137438883987153
 10
0.1913575447477227
 20
0.1364639795845981
 10
0.1921717024596428
 20
0.1358178049447793
 10
0.1932986241342214
 20
0.1352737829669193
 10
0.1952806636485775
 20
0.134182472845431
 10
0.1959981956842036
 20
0.1337694086081711
  0
LWPOLYLINE
  5
EAA
330
2
100
AcDbEntity
  8
Profilo
  6
Continuous
370
     0
100
AcDbPolyline
 90
        5
 70
   128
 43
0.0
 10
0.1873884221014628
 20
0.1360226982278421
 10
0.1903709329762313
 20
0.133242600932993
 10
0.1917650392620083
 20
0.1323175849920346
 10
0.1937437169153215
 20
0.1314979898724677
 10
0.1942906900160433
 20
0.1312328091957464
  0
LWPOLYLINE
  5
EAB
330
2
100
AcDbEntity
  8
Profilo
  6
Continuous
370
     0
100
AcDbPolyline
 90
       25
 70
   128
 43
0.0
 10
0.2086933290439463
 20
0.1313835255880276
 10
0.2069442677209248
 20
0.1323825087937978
 10
0.2054093799662413
 20
0.1328819995946533
 10
0.2037317098326661
 20
0.1333101354834205
 10
0.2019469554502991
 20
0.1338809811963653
 10
0.2001265054732102
 20
0.134380473601279
 10
0.1990913459031349
 20
0.1346658964577514
 10
0.1979491046196478
 20
0.134701573913796
 10
0.1976992379919651
 20
0.1338809811963653
 10
0.1974493713642824
 20
0.1327749656224613
 10
0.1965569941730998
 20
0.1319900503610751
 10
0.1954504459489563
 20
0.1310981027315552
 10
0.1948079353854564
 20
0.130919713847274
 10
0.1940583380377865
 20
0.130919713847274
 10
0.1957360081713626
 20
0.1300634420697404
 10
0.1968068608007825
 20
0.1295639512688849
 10
0.197913409024925
 20
0.1295282738128403
 10
0.1987343950266622
 20
0.1295282738128403
 10
0.2003049809114465
 20
0.1308126798750828
 10
0.2009831870696701
 20
0.1315619160763661
 10
0.2024109905755627
 20
0.1310981027315552
 10
0.2034104545509152
 20
0.1308126798750828
 10
0.2046597826185714
 20
0.1307413233589354
 10
0.2069085746615802
 20
0.1304915779585076
 10
0.2077295606633174
 20
0.1303845439863156
  0
LWPOLYLINE
  5
EAC
330
2
100
AcDbEntity
  8
Profilo
  6
Continuous
370
     0
100
AcDbPolyline
 90
        5
 70
   128
 43
0.0
 10
0.1989128704648986
 20
0.1291714944402205
 10
0.2027322483926917
 20
0.1277443769497422
 10
0.2043742229315451
 20
0.127423275033167
 10
0.2065159281903839
 20
0.127423275033167
 10
0.2071227456945393
 20
0.1273875975771224
  0
LWPOLYLINE
  5
EAD
330
2
100
AcDbEntity
  8
Profilo
  6
Continuous
370
     0
100
AcDbPolyline
 90
       25
 70
   128
 43
0.0
 10
0.2203713724402558
 20
0.133038492705478
 10
0.21837315616075
 20
0.1332920960521002
 10
0.2167639579253893
 20
0.1331661892654317
 10
0.2150501523152413
 20
0.1329197186851034
 10
0.2131828010740329
 20
0.1327641154225432
 10
0.2113097771322867
 20
0.1325289301864057
 10
0.2102441877942198
 20
0.13239648810429
 10
0.20917524127988
 20
0.131992332960748
 10
0.2092584218543865
 20
0.1311385843258701
 10
0.2094508290272838
 20
0.1300211393557864
 10
0.2089267540714126
 20
0.1289544742445503
 10
0.2082457703957454
 20
0.1277069644130717
 10
0.2077204345072376
 20
0.1272962764262864
 10
0.2070278968601003
 20
0.127009417940388
 10
0.20890554298168
 20
0.1268603425359511
 10
0.2100860286624437
 20
0.1268086707681462
 10
0.2111219990898034
 20
0.1271991667692267
 10
0.2118804912532861
 20
0.1275133445102952
 10
0.212840002485841
 20
0.1293010181798484
 10
0.2131798629930872
 20
0.1302527604317107
 10
0.2146764751113983
 20
0.1303706495219117
 10
0.2157090860200992
 20
0.1304894314913196
 10
0.2168906216077195
 20
0.1309016038196205
 10
0.2190638079761824
 20
0.1315314446135198
 10
0.2198632602675234
 20
0.1317467358583968
  0
LWPOLYLINE
  5
EAE
330
2
100
AcDbEntity
  8
Profilo
  6
Continuous
370
     0
100
AcDbPolyline
 90
        5
 70
   128
 43
0.0
 10
0.2121819146126402
 20
0.1272520229436072
 10
0.2162566939266981
 20
0.1273951509585725
 10
0.2178965609796226
 20
0.1277268479223828
 10
0.2198752386329368
 20
0.1285464430419496
 10
0.2204495180763326
 20
0.1287457003758481
  0
LWPOLYLINE
  5
EAF
330
2
100
AcDbEntity
  8
Profilo
  6
Continuous
370
     0
100
AcDbPolyline
 90
       25
 70
   128
 43
0.0
 10
0.2305271492169265
 20
0.1390364766824781
 10
0.2285839882956158
 20
0.1385060913593497
 10
0.227145465423493
 20
0.1377739551520782
 10
0.225656435705232
 20
0.1368904010142493
 10
0.2239907749040733
 20
0.1360320379623603
 10
0.2223503279137973
 20
0.1350979799054153
 10
0.2214165351248687
 20
0.134567835991122
 10
0.2205836207964593
 20
0.1337853772049218
 10
0.2209871850847203
 20
0.1330284481430073
 10
0.2215925738102993
 20
0.1320696946437756
 10
0.2215165867510207
 20
0.1308836697765308
 10
0.2213648412153157
 20
0.1294705198062329
 10
0.221036657628644
 20
0.1288900562400339
 10
0.2205066122609474
 20
0.1283600108723373
 10
0.2222983797694253
 20
0.1289408272199501
 10
0.2234087802577653
 20
0.1293448410434388
 10
0.2242164557818713
 20
0.1301020610253356
 10
0.2247969805509584
 20
0.1306825857944236
 10
0.2249993402441179
 20
0.1327013699603989
 10
0.2249491144190012
 20
0.1337107241325597
 10
0.2262866895215414
 20
0.1343923681124577
 10
0.227195241713382
 20
0.1348972714296639
 10
0.2281291067383979
 20
0.1357302231017801
 10
0.2298958395077
 20
0.1371437625386569
 10
0.2305520487243415
 20
0.1376486028601904
  0
LWPOLYLINE
  5
EB0
330
2
100
AcDbEntity
  8
Profilo
  6
Continuous
370
     0
100
AcDbPolyline
 90
        5
 70
   128
 43
0.0
 10
0.2251754628573777
 20
0.1305565058733087
 10
0.2288852953451024
 20
0.1322480894508986
 10
0.2302734000187228
 20
0.133182087439194
 10
0.2317878143305514
 20
0.1346965017510227
 10
0.2322421268737866
 20
0.1351003587520496
  0
LWPOLYLINE
  5
EB1
330
2
100
AcDbEntity
  8
Profilo
  6
Continuous
370
     0
100
AcDbPolyline
 90
       25
 70
   128
 43
0.0
 10
0.2376145344220577
 20
0.148464338830389
 10
0.2360222574944137
 20
0.1472307111950009
 10
0.2349734120525675
 20
0.1460038066678535
 10
0.2339358495027091
 20
0.1446176820805689
 10
0.2327254608993254
 20
0.1431872372329221
 10
0.2315673340440985
 20
0.1416965082270811
 10
0.2309074992915712
 20
0.1408493720857959
 10
0.2304374208052053
 20
0.1398077319141302
 10
0.2310999298026524
 20
0.1392628580132758
 10
0.2320261351353061
 20
0.1386087575140313
 10
0.2324098043135703
 20
0.1374839344254741
 10
0.2328103988000632
 20
0.1361202835890978
 10
0.2327293304913065
 20
0.135458414759525
 10
0.232442472005409
 20
0.1347658771123885
 10
0.2338755805400325
 20
0.1359881611882405
 10
0.2347468474274044
 20
0.1367863531607909
 10
0.2352032667713086
 20
0.1377950172454765
 10
0.2355174445123762
 20
0.1385535094089592
 10
0.2349318452372515
 20
0.1404960624824125
 10
0.2344991795063482
 20
0.141409363551978
 10
0.2354740839089031
 20
0.1425509883047507
 10
0.2361202585487228
 20
0.1433651460166707
 10
0.2366642805265828
 20
0.1444920676912493
 10
0.2377555906480711
 20
0.1464741072056064
 10
0.2381686548853301
 20
0.1471916392412316
  0
LWPOLYLINE
  5
EB2
330
2
100
AcDbEntity
  8
Profilo
  6
Continuous
370
     0
100
AcDbPolyline
 90
        5
 70
   128
 43
0.0
 10
0.2359153652656591
 20
0.1385818656584907
 10
0.2386954625605091
 20
0.1415643765332601
 10
0.2396204785014675
 20
0.1429584828190362
 10
0.2404400736210344
 20
0.1449371604723504
 10
0.2407052542977548
 20
0.1454841335730721
  0
LWPOLYLINE
  5
EB3
330
2
100
AcDbEntity
  8
Profilo
  6
Continuous
370
     0
100
AcDbPolyline
 90
       25
 70
   128
 43
0.0
 10
0.2405545379054745
 20
0.1598867726009752
 10
0.2395555546997043
 20
0.1581377112779527
 10
0.2390560638988479
 20
0.1566028235232693
 10
0.2386279280100816
 20
0.154925153389694
 10
0.2380570822971368
 20
0.1531403990073279
 10
0.2375575898922222
 20
0.1513199490302381
 10
0.2372721670357498
 20
0.1502847894601629
 10
0.2372364895797052
 20
0.1491425481766766
 10
0.2380570822971368
 20
0.148892681548993
 10
0.2391630978710399
 20
0.1486428149213104
 10
0.239948013132427
 20
0.1477504377301277
 10
0.2408399607619469
 20
0.1466438895059852
 10
0.2410183496462273
 20
0.1460013789424843
 10
0.2410183496462273
 20
0.1452517815948153
 10
0.2418746214237608
 20
0.1469294517283906
 10
0.2423741122246172
 20
0.1480003043578104
 10
0.242409789680661
 20
0.149106852581953
 10
0.242409789680661
 20
0.1499278385836902
 10
0.2411253836184193
 20
0.1514984244684754
 10
0.2403761474171351
 20
0.1521766306266989
 10
0.2408399607619469
 20
0.1536044341325915
 10
0.2411253836184193
 20
0.1546038981079441
 10
0.2411967401345667
 20
0.1558532261755994
 10
0.2414464855349945
 20
0.1581020182186081
 10
0.2415535195071856
 20
0.1589230042203453
  0
LWPOLYLINE
  5
EB4
330
2
100
AcDbEntity
  8
Profilo
  6
Continuous
370
     0
100
AcDbPolyline
 90
        5
 70
   128
 43
0.0
 10
0.2427665690532808
 20
0.1501063140219265
 10
0.2441936865437599
 20
0.1539256919497205
 10
0.2445147884603351
 20
0.155567666488573
 10
0.2445147884603351
 20
0.1577093717474127
 10
0.2445504659163797
 20
0.1583161892515681
  0
LWPOLYLINE
  5
EB5
330
2
100
AcDbEntity
  8
Profilo
  6
Continuous
370
     0
100
AcDbPolyline
 90
       25
 70
   128
 43
0.0
 10
0.2388995707880233
 20
0.1715648159972838
 10
0.238645967441401
 20
0.169566599717778
 10
0.2387718742280704
 20
0.1679574014824172
 10
0.2390183448083987
 20
0.1662435958722692
 10
0.2391739480709589
 20
0.1643762446310608
 10
0.2394091333070956
 20
0.1625032206893147
 10
0.2395415753892121
 20
0.1614376313512487
 10
0.2399457305327541
 20
0.1603686848369079
 10
0.2407994791676311
 20
0.1604518654114144
 10
0.2419169241377148
 20
0.1606442725843118
 10
0.2429835892489518
 20
0.1601201976284405
 10
0.2442310990804295
 20
0.1594392139527734
 10
0.2446417870672157
 20
0.1589138780642656
 10
0.2449286455531132
 20
0.1582213404171282
 10
0.245077720957551
 20
0.1600989865387079
 10
0.2451293927253559
 20
0.1612794722194717
 10
0.2447388967242745
 20
0.1623154426468314
 10
0.2444247189832061
 20
0.1630739348103141
 10
0.2426370453136537
 20
0.164033446042869
 10
0.2416853030617905
 20
0.1643733065501152
 10
0.2415674139715895
 20
0.1658699186684263
 10
0.2414486320021825
 20
0.1669025295771271
 10
0.2410364596738816
 20
0.1680840651647475
 10
0.2404066188799814
 20
0.1702572515332104
 10
0.2401913276351044
 20
0.1710567038245514
  0
LWPOLYLINE
  5
EB6
330
2
100
AcDbEntity
  8
Profilo
  6
Continuous
370
     0
100
AcDbPolyline
 90
        5
 70
   128
 43
0.0
 10
0.244686040549895
 20
0.1633753581696682
 10
0.2445429125349288
 20
0.1674501374837261
 10
0.2442112155711193
 20
0.1690900045366515
 10
0.2433916204515516
 20
0.1710686821899647
 10
0.243192363117654
 20
0.1716429616333606
  0
LWPOLYLINE
  5
EB7
330
2
100
AcDbEntity
  8
Profilo
  6
Continuous
370
     0
100
AcDbPolyline
 90
       25
 70
   128
 43
0.0
 10
0.232901586811024
 20
0.1817205927739554
 10
0.2334319721341524
 20
0.1797774318526437
 10
0.2341641083414239
 20
0.1783389089805218
 10
0.2350476624792528
 20
0.1768498792622599
 10
0.2359060255311418
 20
0.1751842184611012
 10
0.2368400835880868
 20
0.1735437714708252
 10
0.2373702275023792
 20
0.1726099786818975
 10
0.2381526862885794
 20
0.1717770643534873
 10
0.2389096153504939
 20
0.1721806286417491
 10
0.2398683688497265
 20
0.1727860173673272
 10
0.2410543937169713
 20
0.1727100303080487
 10
0.2424675436872692
 20
0.1725582847723446
 10
0.2430480072534673
 20
0.1722301011856728
 10
0.2435780526211639
 20
0.1717000558179762
 10
0.2429972362735511
 20
0.1734918233264542
 10
0.2425932224500624
 20
0.1746022238147942
 10
0.2418360024681656
 20
0.1754098993388993
 10
0.2412554776990785
 20
0.1759904241079873
 10
0.2392366935331023
 20
0.1761927838011459
 10
0.2382273393609415
 20
0.1761425579760301
 10
0.2375456953810444
 20
0.1774801330785694
 10
0.2370407920638382
 20
0.17838868527041
 10
0.2362078403917212
 20
0.1793225502954259
 10
0.2347943009548443
 20
0.1810892830647279
 10
0.2342894606333108
 20
0.1817454922813704
  0
LWPOLYLINE
  5
EB8
330
2
100
AcDbEntity
  8
Profilo
  6
Continuous
370
     0
100
AcDbPolyline
 90
        5
 70
   128
 43
0.0
 10
0.2413815576201934
 20
0.1763689064144065
 10
0.2396899740426035
 20
0.1800787389021303
 10
0.2387559760543072
 20
0.1814668435757516
 10
0.2372415617424795
 20
0.1829812578875793
 10
0.2368377047414525
 20
0.1834355704308155
  0
LWPOLYLINE
  5
EB9
330
2
100
AcDbEntity
  8
Profilo
  6
Continuous
370
     0
100
AcDbPolyline
 90
       25
 70
   128
 43
0.0
 10
0.2234737246631131
 20
0.1888079779790857
 10
0.2247073522985004
 20
0.1872157010514417
 10
0.2259342568256486
 20
0.1861668556095954
 10
0.2273203814129323
 20
0.1851292930597379
 10
0.22875082626058
 20
0.1839189044563534
 10
0.2302415552664201
 20
0.1827607776011273
 10
0.2310886914077062
 20
0.1821009428485991
 10
0.2321303315793719
 20
0.1816308643622333
 10
0.2326752054802255
 20
0.1822933733596803
 10
0.2333293059794708
 20
0.1832195786923341
 10
0.2344541290680271
 20
0.1836032478705982
 10
0.2358177799044043
 20
0.1840038423570911
 10
0.2364796487339762
 20
0.1839227740483345
 10
0.2371721863811136
 20
0.183635915562437
 10
0.2359499023052616
 20
0.1850690240970605
 10
0.2351517103327112
 20
0.1859402909844323
 10
0.2341430462480256
 20
0.1863967103283366
 10
0.2333845540845429
 20
0.1867108880694051
 10
0.2314420010110896
 20
0.1861252887942795
 10
0.2305286999415241
 20
0.1856926230633771
 10
0.2293870751887514
 20
0.186667527465932
 10
0.2285729174768305
 20
0.1873137021057507
 10
0.2274459958022528
 20
0.1878577240836108
 10
0.2254639562878957
 20
0.188949034205099
 10
0.2247464242522705
 20
0.189362098442359
  0
LWPOLYLINE
  5
EBA
330
2
100
AcDbEntity
  8
Profilo
  6
Continuous
370
     0
100
AcDbPolyline
 90
        5
 70
   128
 43
0.0
 10
0.2333561978350114
 20
0.1871088088226871
 10
0.230373686960242
 20
0.1898889061175371
 10
0.228979580674465
 20
0.1908139220584954
 10
0.2270009030211517
 20
0.1916335171780623
 10
0.22645392992043
 20
0.1918986978547836
  0
LWPOLYLINE
  5
EBB
330
2
100
AcDbEntity
  8
Profilo
  6
Continuous
370
     0
100
AcDbPolyline
 90
        8
 70
   128
 43
0.0
 10
0.2075679353509801
 20
0.1874239979439796
 10
0.2081217304833445
 20
0.1887323397583624
 10
0.2088265606518089
 20
0.1893361905668731
 10
0.2097831184158185
 20
0.1897387577725469
 10
0.210638983620383
 20
0.1895877950704194
 10
0.2115451963723587
 20
0.1888329815597804
 10
0.2120486464926909
 20
0.1880278471484329
 10
0.2123003715528571
 20
0.1873233561425616
  0
LWPOLYLINE
  5
EBC
330
2
100
AcDbEntity
  8
Profilo
  6
Continuous
370
     0
100
AcDbPolyline
 90
        8
 70
   128
 43
0.0
 10
0.1901047776813345
 20
0.1778673011944674
 10
0.1895712326057579
 20
0.1791840308570103
 10
0.1896426357959415
 20
0.1801094080502403
 10
0.1900343662764536
 20
0.1810704545327828
 10
0.1907463011167636
 20
0.1815688958723312
 10
0.1919208240507875
 20
0.181675951302547
 10
0.192846133046894
 20
0.1814626282945928
 10
0.1935222799114682
 20
0.1811424744240939
  0
LWPOLYLINE
  5
EBD
330
2
100
AcDbEntity
  8
Profilo
  6
Continuous
370
     0
100
AcDbPolyline
 90
        8
 70
   128
 43
0.0
 10
0.1845140655495216
 20
0.158761378908008
 10
0.1832057237351397
 20
0.1593151740403733
 10
0.1826018729266281
 20
0.1600200042088378
 10
0.1821993057209543
 20
0.1609765619728465
 10
0.1823502684230827
 20
0.161832427177411
 10
0.1831050819337208
 20
0.1627386399293875
 10
0.1839102163450683
 20
0.1632420900497189
 10
0.1846147073509405
 20
0.163493815109885
  0
LWPOLYLINE
  5
EBE
330
2
100
AcDbEntity
  8
Profilo
  6
Continuous
370
     0
100
AcDbPolyline
 90
        8
 70
   128
 43
0.0
 10
0.1940707622990339
 20
0.1412982212383624
 10
0.1927540326364909
 20
0.1407646761627868
 10
0.1918286554432618
 20
0.1408360793529695
 10
0.1908676089607193
 20
0.1412278098334816
 10
0.1903691676211709
 20
0.1419397446737916
 10
0.1902621121909542
 20
0.1431142676078154
 10
0.1904754351989093
 20
0.144039576603922
 10
0.1907955890694082
 20
0.1447157234684961
  0
LWPOLYLINE
  5
EBF
330
2
100
AcDbEntity
  8
Profilo
  6
Continuous
370
     0
100
AcDbPolyline
 90
        8
 70
   128
 43
0.0
 10
0.2131766845854932
 20
0.1357075091065496
 10
0.2126228894531288
 20
0.1343991672921676
 10
0.2119180592846643
 20
0.1337953164836569
 10
0.2109615015206547
 20
0.1333927492779832
 10
0.2101056363160911
 20
0.1335437119801106
 10
0.2091994235641146
 20
0.1342985254907496
 10
0.2086959734437823
 20
0.1351036599020972
 10
0.2084442483836162
 20
0.1358081509079685
  0
LWPOLYLINE
  5
EC0
330
2
100
AcDbEntity
  8
Profilo
  6
Continuous
370
     0
100
AcDbPolyline
 90
        8
 70
   128
 43
0.0
 10
0.2306398422551388
 20
0.1452642058560618
 10
0.2311733873307153
 20
0.1439474761935189
 10
0.2311019841405326
 20
0.1430220990002897
 10
0.2307102536600205
 20
0.1420610525177472
 10
0.2299983188197106
 20
0.1415626111781989
 10
0.2288237958856867
 20
0.1414555557479822
 10
0.2278984868895801
 20
0.1416688787559372
 10
0.2272223400250051
 20
0.1419890326264361
  0
LWPOLYLINE
  5
EC1
330
2
100
AcDbEntity
  8
Profilo
  6
Continuous
370
     0
100
AcDbPolyline
 90
        8
 70
   128
 43
0.0
 10
0.2362305543869516
 20
0.164370128142522
 10
0.2375388962013336
 20
0.1638163330101567
 10
0.2381427470098452
 20
0.1631115028416923
 10
0.2385453142155189
 20
0.1621549450776836
 10
0.2383943515133915
 20
0.1612990798731191
 10
0.2376395380027525
 20
0.1603928671211425
 10
0.2368344035914049
 20
0.1598894170008112
 10
0.2361299125855336
 20
0.159637691940645
  0
LWPOLYLINE
  5
EC2
330
2
100
AcDbEntity
  8
Profilo
  6
Continuous
370
     0
100
AcDbPolyline
 90
        8
 70
   128
 43
0.0
 10
0.2266738576374394
 20
0.1818332858121667
 10
0.2279905872999823
 20
0.1823668308877433
 10
0.2289159644932115
 20
0.1822954276975606
 10
0.2298770109757549
 20
0.1819036972170485
 10
0.2303754523153023
 20
0.1811917623767385
 10
0.230482507745519
 20
0.1800172394427146
 10
0.2302691847375649
 20
0.1790919304466081
 10
0.229949030867066
 20
0.178415783582033
  0
CIRCLE
  5
EC3
330
2
100
AcDbEntity
  8
Profilo
  6
Continuous
370
     0
100
AcDbCircle
 10
0.1990903545701192
 20
0.2011640885233052
 30
0.0
 40
0.0013399767756686
  0
CIRCLE
  5
EC4
330
2
100
AcDbEntity
  8
Profilo
  6
Continuous
370
     0
100
AcDbCircle
 10
0.1960182835171749
 20
0.200156848053205
 30
0.0
 40
0.0013399767756686
  0
CIRCLE
  5
EC5
330
2
100
AcDbEntity
  8
Profilo
  6
Continuous
370
     0
100
AcDbCircle
 10
0.1930347098104994
 20
0.1989116806524975
 30
0.0
 40
0.0013399767756686
  0
CIRCLE
  5
EC6
330
2
100
AcDbEntity
  8
Profilo
  6
Continuous
370
     0
100
AcDbCircle
 10
0.1901580281741337
 20
0.197436263192271
 30
0.0
 40
0.0013399767756686
  0
CIRCLE
  5
EC7
330
2
100
AcDbEntity
  8
Profilo
  6
Continuous
370
     0
100
AcDbCircle
 10
0.1874059743069589
 20
0.1957396921117913
 30
0.0
 40
0.0013399767756686
  0
CIRCLE
  5
EC8
330
2
100
AcDbEntity
  8
Profilo
  6
Continuous
370
     0
100
AcDbCircle
 10
0.1847955155362178
 20
0.1938324273359384
 30
0.0
 40
0.0013399767756686
  0
CIRCLE
  5
EC9
330
2
100
AcDbEntity
  8
Profilo
  6
Continuous
370
     0
100
AcDbCircle
 10
0.1823427462082974
 20
0.1917262277862848
 30
0.0
 40
0.0013399767756686
  0
CIRCLE
  5
ECA
330
2
100
AcDbEntity
  8
Profilo
  6
Continuous
370
     0
100
AcDbCircle
 10
0.180062788461733
 20
0.1894340788834368
 30
0.0
 40
0.0013399767756686
  0
CIRCLE
  5
ECB
330
2
100
AcDbEntity
  8
Profilo
  6
Continuous
370
     0
100
AcDbCircle
 10
0.1779696989941943
 20
0.1869701124875973
 30
0.0
 40
0.0013399767756686
  0
CIRCLE
  5
ECC
330
2
100
AcDbEntity
  8
Profilo
  6
Continuous
370
     0
100
AcDbCircle
 10
0.1760763823982725
 20
0.1843495197709479
 30
0.0
 40
0.0013399767756686
  0
CIRCLE
  5
ECD
330
2
100
AcDbEntity
  8
Profilo
  6
Continuous
370
     0
100
AcDbCircle
 10
0.1743945116003724
 20
0.181588457559023
 30
0.0
 40
0.0013399767756686
  0
CIRCLE
  5
ECE
330
2
100
AcDbEntity
  8
Profilo
  6
Continuous
370
     0
100
AcDbCircle
 10
0.1729344558932422
 20
0.1787039487185049
 30
0.0
 40
0.0013399767756686
  0
CIRCLE
  5
ECF
330
2
100
AcDbEntity
  8
Profilo
  6
Continuous
370
     0
100
AcDbCircle
 10
0.1717052170058342
 20
0.175713777205593
 30
0.0
 40
0.0013399767756686
  0
CIRCLE
  5
ED0
330
2
100
AcDbEntity
  8
Profilo
  6
Continuous
370
     0
100
AcDbCircle
 10
0.1707143736046535
 20
0.1726363784219955
 30
0.0
 40
0.0013399767756686
  0
CIRCLE
  5
ED1
330
2
100
AcDbEntity
  8
Profilo
  6
Continuous
370
     0
100
AcDbCircle
 10
0.1699680345687551
 20
0.1694907255545546
 30
0.0
 40
0.0013399767756686
  0
CIRCLE
  5
ED2
330
2
100
AcDbEntity
  8
Profilo
  6
Continuous
370
     0
100
AcDbCircle
 10
0.1694708013264805
 20
0.1662962125992313
 30
0.0
 40
0.0013399767756686
  0
CIRCLE
  5
ED3
330
2
100
AcDbEntity
  8
Profilo
  6
Continuous
370
     0
100
AcDbCircle
 10
0.1692257394861134
 20
0.1630725347906805
 30
0.0
 40
0.0013399767756686
  0
CIRCLE
  5
ED4
330
2
100
AcDbEntity
  8
Profilo
  6
Continuous
370
     0
100
AcDbCircle
 10
0.1692343599353923
 20
0.1598395671745727
 30
0.0
 40
0.0013399767756686
  0
CIRCLE
  5
ED5
330
2
100
AcDbEntity
  8
Profilo
  6
Continuous
370
     0
100
AcDbCircle
 10
0.1694966095263795
 20
0.1566172420713323
 30
0.0
 40
0.0013399767756686
  0
CIRCLE
  5
ED6
330
2
100
AcDbEntity
  8
Profilo
  6
Continuous
370
     0
100
AcDbCircle
 10
0.1700108714031405
 20
0.1534254261867518
 30
0.0
 40
0.0013399767756686
  0
CIRCLE
  5
ED7
330
2
100
AcDbEntity
  8
Profilo
  6
Continuous
370
     0
100
AcDbCircle
 10
0.170773974970196
 20
0.1502837981271472
 30
0.0
 40
0.0013399767756686
  0
CIRCLE
  5
ED8
330
2
100
AcDbEntity
  8
Profilo
  6
Continuous
370
     0
100
AcDbCircle
 10
0.1717812154402971
 20
0.1472117270742028
 30
0.0
 40
0.0013399767756686
  0
CIRCLE
  5
ED9
330
2
100
AcDbEntity
  8
Profilo
  6
Continuous
370
     0
100
AcDbCircle
 10
0.1730263828410037
 20
0.1442281533675274
 30
0.0
 40
0.0013399767756686
  0
CIRCLE
  5
EDA
330
2
100
AcDbEntity
  8
Profilo
  6
Continuous
370
     0
100
AcDbCircle
 10
0.1745018003012311
 20
0.1413514717311617
 30
0.0
 40
0.0013399767756686
  0
CIRCLE
  5
EDB
330
2
100
AcDbEntity
  8
Profilo
  6
Continuous
370
     0
100
AcDbCircle
 10
0.1761983713817108
 20
0.1385994178639869
 30
0.0
 40
0.0013399767756686
  0
CIRCLE
  5
EDC
330
2
100
AcDbEntity
  8
Profilo
  6
Continuous
370
     0
100
AcDbCircle
 10
0.1781056361575637
 20
0.1359889590932457
 30
0.0
 40
0.0013399767756686
  0
CIRCLE
  5
EDD
330
2
100
AcDbEntity
  8
Profilo
  6
Continuous
370
     0
100
AcDbCircle
 10
0.1802118357072164
 20
0.1335361897653253
 30
0.0
 40
0.0013399767756686
  0
CIRCLE
  5
EDE
330
2
100
AcDbEntity
  8
Profilo
  6
Continuous
370
     0
100
AcDbCircle
 10
0.1825039846100644
 20
0.1312562320187609
 30
0.0
 40
0.0013399767756686
  0
CIRCLE
  5
EDF
330
2
100
AcDbEntity
  8
Profilo
  6
Continuous
370
     0
100
AcDbCircle
 10
0.1849679510059048
 20
0.1291631425512223
 30
0.0
 40
0.0013399767756686
  0
CIRCLE
  5
EE0
330
2
100
AcDbEntity
  8
Profilo
  6
Continuous
370
     0
100
AcDbCircle
 10
0.1875885437225542
 20
0.1272698259553004
 30
0.0
 40
0.0013399767756686
  0
CIRCLE
  5
EE1
330
2
100
AcDbEntity
  8
Profilo
  6
Continuous
370
     0
100
AcDbCircle
 10
0.1903496059344791
 20
0.1255879551574004
 30
0.0
 40
0.0013399767756686
  0
CIRCLE
  5
EE2
330
2
100
AcDbEntity
  8
Profilo
  6
Continuous
370
     0
100
AcDbCircle
 10
0.1932341147749963
 20
0.124127899450271
 30
0.0
 40
0.0013399767756686
  0
CIRCLE
  5
EE3
330
2
100
AcDbEntity
  8
Profilo
  6
Continuous
370
     0
100
AcDbCircle
 10
0.1962242862879091
 20
0.122898660562863
 30
0.0
 40
0.0013399767756686
  0
CIRCLE
  5
EE4
330
2
100
AcDbEntity
  8
Profilo
  6
Continuous
370
     0
100
AcDbCircle
 10
0.1993016850715057
 20
0.1219078171616814
 30
0.0
 40
0.0013399767756686
  0
CIRCLE
  5
EE5
330
2
100
AcDbEntity
  8
Profilo
  6
Continuous
370
     0
100
AcDbCircle
 10
0.2024473379389475
 20
0.1211614781257839
 30
0.0
 40
0.0013399767756686
  0
CIRCLE
  5
EE6
330
2
100
AcDbEntity
  8
Profilo
  6
Continuous
370
     0
100
AcDbCircle
 10
0.2056418508942699
 20
0.1206642448835085
 30
0.0
 40
0.0013399767756686
  0
CIRCLE
  5
EE7
330
2
100
AcDbEntity
  8
Profilo
  6
Continuous
370
     0
100
AcDbCircle
 10
0.2088655287028207
 20
0.1204191830431414
 30
0.0
 40
0.0013399767756686
  0
CIRCLE
  5
EE8
330
2
100
AcDbEntity
  8
Profilo
  6
Continuous
370
     0
100
AcDbCircle
 10
0.2120984963189285
 20
0.1204278034924202
 30
0.0
 40
0.0013399767756686
  0
CIRCLE
  5
EE9
330
2
100
AcDbEntity
  8
Profilo
  6
Continuous
370
     0
100
AcDbCircle
 10
0.2153208214221698
 20
0.1206900530834074
 30
0.0
 40
0.0013399767756686
  0
CIRCLE
  5
EEA
330
2
100
AcDbEntity
  8
Profilo
  6
Continuous
370
     0
100
AcDbCircle
 10
0.2185126373067494
 20
0.1212043149601685
 30
0.0
 40
0.0013399767756686
  0
CIRCLE
  5
EEB
330
2
100
AcDbEntity
  8
Profilo
  6
Continuous
370
     0
100
AcDbCircle
 10
0.221654265366354
 20
0.1219674185272239
 30
0.0
 40
0.0013399767756686
  0
CIRCLE
  5
EEC
330
2
100
AcDbEntity
  8
Profilo
  6
Continuous
370
     0
100
AcDbCircle
 10
0.2247263364192984
 20
0.1229746589973251
 30
0.0
 40
0.0013399767756686
  0
CIRCLE
  5
EED
330
2
100
AcDbEntity
  8
Profilo
  6
Continuous
370
     0
100
AcDbCircle
 10
0.2277099101259739
 20
0.1242198263980325
 30
0.0
 40
0.0013399767756686
  0
CIRCLE
  5
EEE
330
2
100
AcDbEntity
  8
Profilo
  6
Continuous
370
     0
100
AcDbCircle
 10
0.2305865917623404
 20
0.125695243858259
 30
0.0
 40
0.0013399767756686
  0
CIRCLE
  5
EEF
330
2
100
AcDbEntity
  8
Profilo
  6
Continuous
370
     0
100
AcDbCircle
 10
0.2333386456295143
 20
0.1273918149387387
 30
0.0
 40
0.0013399767756686
  0
CIRCLE
  5
EF0
330
2
100
AcDbEntity
  8
Profilo
  6
Continuous
370
     0
100
AcDbCircle
 10
0.2359491044002555
 20
0.1292990797145916
 30
0.0
 40
0.0013399767756686
  0
CIRCLE
  5
EF1
330
2
100
AcDbEntity
  8
Profilo
  6
Continuous
370
     0
100
AcDbCircle
 10
0.2384018737281759
 20
0.1314052792642453
 30
0.0
 40
0.0013399767756686
  0
CIRCLE
  5
EF2
330
2
100
AcDbEntity
  8
Profilo
  6
Continuous
370
     0
100
AcDbCircle
 10
0.2406818314747412
 20
0.1336974281670933
 30
0.0
 40
0.0013399767756686
  0
CIRCLE
  5
EF3
330
2
100
AcDbEntity
  8
Profilo
  6
Continuous
370
     0
100
AcDbCircle
 10
0.2427749209422789
 20
0.1361613945629327
 30
0.0
 40
0.0013399767756686
  0
CIRCLE
  5
EF4
330
2
100
AcDbEntity
  8
Profilo
  6
Continuous
370
     0
100
AcDbCircle
 10
0.2446682375382008
 20
0.1387819872795821
 30
0.0
 40
0.0013399767756686
  0
CIRCLE
  5
EF5
330
2
100
AcDbEntity
  8
Profilo
  6
Continuous
370
     0
100
AcDbCircle
 10
0.2463501083361008
 20
0.1415430494915071
 30
0.0
 40
0.0013399767756686
  0
CIRCLE
  5
EF6
330
2
100
AcDbEntity
  8
Profilo
  6
Continuous
370
     0
100
AcDbCircle
 10
0.2478101640432311
 20
0.1444275583320251
 30
0.0
 40
0.0013399767756686
  0
CIRCLE
  5
EF7
330
2
100
AcDbEntity
  8
Profilo
  6
Continuous
370
     0
100
AcDbCircle
 10
0.2490394029306391
 20
0.1474177298449371
 30
0.0
 40
0.0013399767756686
  0
CIRCLE
  5
EF8
330
2
100
AcDbEntity
  8
Profilo
  6
Continuous
370
     0
100
AcDbCircle
 10
0.2500302463318207
 20
0.1504951286285336
 30
0.0
 40
0.0013399767756686
  0
CIRCLE
  5
EF9
330
2
100
AcDbEntity
  8
Profilo
  6
Continuous
370
     0
100
AcDbCircle
 10
0.2507765853677182
 20
0.1536407814959755
 30
0.0
 40
0.0013399767756686
  0
CIRCLE
  5
EFA
330
2
100
AcDbEntity
  8
Profilo
  6
Continuous
370
     0
100
AcDbCircle
 10
0.2512738186099936
 20
0.1568352944512978
 30
0.0
 40
0.0013399767756686
  0
CIRCLE
  5
EFB
330
2
100
AcDbEntity
  8
Profilo
  6
Continuous
370
     0
100
AcDbCircle
 10
0.2515188804503599
 20
0.1600589722598487
 30
0.0
 40
0.0013399767756686
  0
CIRCLE
  5
EFC
330
2
100
AcDbEntity
  8
Profilo
  6
Continuous
370
     0
100
AcDbCircle
 10
0.2515102600010819
 20
0.1632919398759574
 30
0.0
 40
0.0013399767756686
  0
CIRCLE
  5
EFD
330
2
100
AcDbEntity
  8
Profilo
  6
Continuous
370
     0
100
AcDbCircle
 10
0.2512480104100938
 20
0.1665142649791977
 30
0.0
 40
0.0013399767756686
  0
CIRCLE
  5
EFE
330
2
100
AcDbEntity
  8
Profilo
  6
Continuous
370
     0
100
AcDbCircle
 10
0.2507337485333327
 20
0.1697060808637774
 30
0.0
 40
0.0013399767756686
  0
CIRCLE
  5
EFF
330
2
100
AcDbEntity
  8
Profilo
  6
Continuous
370
     0
100
AcDbCircle
 10
0.2499706449662773
 20
0.172847708923382
 30
0.0
 40
0.0013399767756686
  0
CIRCLE
  5
F00
330
2
100
AcDbEntity
  8
Profilo
  6
Continuous
370
     0
100
AcDbCircle
 10
0.2489634044961761
 20
0.1759197799763272
 30
0.0
 40
0.0013399767756686
  0
CIRCLE
  5
F01
330
2
100
AcDbEntity
  8
Profilo
  6
Continuous
370
     0
100
AcDbCircle
 10
0.2477182370954696
 20
0.1789033536830027
 30
0.0
 40
0.0013399767756686
  0
CIRCLE
  5
F02
330
2
100
AcDbEntity
  8
Profilo
  6
Continuous
370
     0
100
AcDbCircle
 10
0.2462428196352422
 20
0.1817800353193684
 30
0.0
 40
0.0013399767756686
  0
CIRCLE
  5
F03
330
2
100
AcDbEntity
  8
Profilo
  6
Continuous
370
     0
100
AcDbCircle
 10
0.2445462485547634
 20
0.1845320891865423
 30
0.0
 40
0.0013399767756686
  0
CIRCLE
  5
F04
330
2
100
AcDbEntity
  8
Profilo
  6
Continuous
370
     0
100
AcDbCircle
 10
0.2426389837789105
 20
0.1871425479572835
 30
0.0
 40
0.0013399767756686
  0
CIRCLE
  5
F05
330
2
100
AcDbEntity
  8
Profilo
  6
Continuous
370
     0
100
AcDbCircle
 10
0.2405327842292568
 20
0.1895953172852038
 30
0.0
 40
0.0013399767756686
  0
CIRCLE
  5
F06
330
2
100
AcDbEntity
  8
Profilo
  6
Continuous
370
     0
100
AcDbCircle
 10
0.2382406353264088
 20
0.1918752750317691
 30
0.0
 40
0.0013399767756686
  0
CIRCLE
  5
F07
330
2
100
AcDbEntity
  8
Profilo
  6
Continuous
370
     0
100
AcDbCircle
 10
0.2357766689305694
 20
0.1939683644993078
 30
0.0
 40
0.0013399767756686
  0
CIRCLE
  5
F08
330
2
100
AcDbEntity
  8
Profilo
  6
Continuous
370
     0
100
AcDbCircle
 10
0.23315607621392
 20
0.1958616810952296
 30
0.0
 40
0.0013399767756686
  0
CIRCLE
  5
F09
330
2
100
AcDbEntity
  8
Profilo
  6
Continuous
370
     0
100
AcDbCircle
 10
0.230395014001995
 20
0.1975435518931288
 30
0.0
 40
0.0013399767756686
  0
CIRCLE
  5
F0A
330
2
100
AcDbEntity
  8
Profilo
  6
Continuous
370
     0
100
AcDbCircle
 10
0.227510505161477
 20
0.199003607600259
 30
0.0
 40
0.0013399767756686
  0
CIRCLE
  5
F0B
330
2
100
AcDbEntity
  8
Profilo
  6
Continuous
370
     0
100
AcDbCircle
 10
0.224520333648565
 20
0.200232846487667
 30
0.0
 40
0.0013399767756686
  0
CIRCLE
  5
F0C
330
2
100
AcDbEntity
  8
Profilo
  6
Continuous
370
     0
100
AcDbCircle
 10
0.2214429348649685
 20
0.2012236898888486
 30
0.0
 40
0.0013399767756686
  0
CIRCLE
  5
F0D
330
2
100
AcDbEntity
  8
Profilo
  6
Continuous
370
     0
100
AcDbCircle
 10
0.2182972819975266
 20
0.2019700289247461
 30
0.0
 40
0.0013399767756686
  0
CIRCLE
  5
F0E
330
2
100
AcDbEntity
  8
Profilo
  6
Continuous
370
     0
100
AcDbCircle
 10
0.2151027690422043
 20
0.2024672621670216
 30
0.0
 40
0.0013399767756686
  0
CIRCLE
  5
F0F
330
2
100
AcDbEntity
  8
Profilo
  6
Continuous
370
     0
100
AcDbCircle
 10
0.2118790912336526
 20
0.2027123240073887
 30
0.0
 40
0.0013399767756686
  0
CIRCLE
  5
F10
330
2
100
AcDbEntity
  8
Profilo
  6
Continuous
370
     0
100
AcDbCircle
 10
0.2086461236175447
 20
0.2027037035581098
 30
0.0
 40
0.0013399767756686
  0
CIRCLE
  5
F11
330
2
100
AcDbEntity
  8
Profilo
  6
Continuous
370
     0
100
AcDbCircle
 10
0.2054237985143044
 20
0.2024414539671226
 30
0.0
 40
0.0013399767756686
  0
CIRCLE
  5
F12
330
2
100
AcDbEntity
  8
Profilo
  6
Continuous
370
     0
100
AcDbCircle
 10
0.2022319826297239
 20
0.2019271920903607
 30
0.0
 40
0.0013399767756686
  0
CIRCLE
  5
F13
330
2
100
AcDbEntity
  8
Profilo
  6
Continuous
370
     0
100
AcDbCircle
 10
0.2103723099682366
 20
0.1615657535252646
 30
0.0
 40
0.0437475279879633
  0
CIRCLE
  5
F14
330
2
100
AcDbEntity
  8
Profilo
  6
Continuous
370
     0
100
AcDbCircle
 10
0.2103723099682366
 20
0.1615657535252646
 30
0.0
 40
0.0469428682386617
  0
CIRCLE
  5
F15
102
{ACAD_REACTORS
330
F27
102
}
330
2
100
AcDbEntity
  8
Profilo
  6
Continuous
370
     0
100
AcDbCircle
 10
0.2103723099682366
 20
0.1615657535252646
 30
0.0
 40
0.05
  0
DIMENSION
  5
F16
102
{ACAD_XDICTIONARY
360
F20
102
}
102
{ACAD_REACTORS
330
F27
102
}
330
2
100
AcDbEntity
  8
Sezione
  6
ACAD_ISO10W100
100
AcDbDimension
  2
*D23
 10
0.1740651140154545
 20
0.127188616907357
 30
0.0
 11
0.2647865091067571
 21
0.1980055183402467
 31
0.0
 70
    35
  1
d 400 mm
 71
     5
 42
0.1000000000000001
  3
Bovelacci
100
AcDbDiametricDimension
 15
0.2466795059210188
 25
0.1959428901431722
 35
0.0
 40
0.0
1001
ACAD
1000
DSTYLE
1002
{
1070
   288
1070
     1
1002
}
  0
ENDSEC
  0
SECTION
  2
OBJECTS
  0
DICTIONARY
  5
9
330
0
100
AcDbDictionary
281
     1
  3
ACAD_2007HEADERVARS_RT
350
208
  3
ACAD_COLOR
350
184
  3
ACAD_GROUP
350
17F
  3
ACAD_LAYOUT
350
164
  3
ACAD_MATERIAL
350
B
  3
ACAD_MLINESTYLE
350
180
  3
ACAD_PLOTSETTINGS
350
181
  3
ACAD_PLOTSTYLENAME
350
8
  3
ACAD_TABLESTYLE
350
185
  3
ACAD_VISUALSTYLE
350
17A
  3
ACDBHEADERROUNDTRIPXREC
350
F37
  3
AcDbVariableDictionary
350
18B
  3
DWGPROPS
350
F36
  0
DICTIONARY
  5
16E
330
16D
100
AcDbDictionary
280
     1
281
     1
  3
ACAD_LAYERSTATES
360
16F
  0
DICTIONARY
  5
3
330
2
100
AcDbDictionary
280
     1
281
     1
  3
ACAD_SORTENTS
360
18A
  0
DICTIONARY
  5
F38
330
18
100
AcDbDictionary
280
     1
281
     1
  3
ACAD_MTEXT_RT
360
F39
  0
DICTIONARY
  5
F20
330
F16
100
AcDbDictionary
280
     1
281
     1
  3
ACAD_DIMASSOC
360
F27
  0
DICTIONARY
  5
208
102
{ACAD_REACTORS
330
9
102
}
330
9
100
AcDbDictionary
281
     1
  3
DIMFXL
350
209
  0
DICTIONARY
  5
184
102
{ACAD_REACTORS
330
9
102
}
330
9
100
AcDbDictionary
281
     1
  0
DICTIONARY
  5
17F
102
{ACAD_REACTORS
330
9
102
}
330
9
100
AcDbDictionary
281
     1
  0
DICTIONARY
  5
164
102
{ACAD_REACTORS
330
9
102
}
330
9
100
AcDbDictionary
281
     1
  3
Layout1
350
168
  3
Layout2
350
16C
  3
Model
350
163
  0
DICTIONARY
  5
B
102
{ACAD_REACTORS
330
9
102
}
330
9
100
AcDbDictionary
281
     1
  3
ByBlock
350
183
  3
ByLayer
350
182
  3
Global
350
A
  0
DICTIONARY
  5
180
102
{ACAD_REACTORS
330
9
102
}
330
9
100
AcDbDictionary
281
     1
  3
Standard
350
186
  0
DICTIONARY
  5
181
102
{ACAD_REACTORS
330
9
102
}
330
9
100
AcDbDictionary
281
     1
  0
ACDBDICTIONARYWDFLT
  5
8
102
{ACAD_REACTORS
330
9
102
}
330
9
100
AcDbDictionary
281
     1
  3
Normal
350
7
100
AcDbDictionaryWithDefault
340
7
  0
DICTIONARY
  5
185
102
{ACAD_REACTORS
330
9
102
}
330
9
100
AcDbDictionary
281
     1
  3
Standard
350
187
  0
DICTIONARY
  5
17A
102
{ACAD_REACTORS
330
9
102
}
330
9
100
AcDbDictionary
281
     1
  3
2dWireframe
350
179
  3
3D Hidden
350
1BD
  3
3dWireframe
350
189
  3
Basic
350
1BC
  3
Brighten
350
1C0
  3
ColorChange
350
1C4
  3
Conceptual
350
1BE
  3
Dim
350
1BF
  3
Facepattern
350
1C3
  3
Flat
350
1B8
  3
FlatWithEdges
350
1B9
  3
Gouraud
350
1BA
  3
GouraudWithEdges
350
1BB
  3
Linepattern
350
1C2
  3
Realistic
350
188
  3
Thicken
350
1C1
  0
DICTIONARY
  5
F37
102
{ACAD_REACTORS
330
9
102
}
330
9
100
AcDbDictionary
281
     1
  0
DICTIONARY
  5
18B
102
{ACAD_REACTORS
330
9
102
}
330
9
100
AcDbDictionary
281
     1
  3
CTABLESTYLE
350
18C
  3
DIMASSOC
350
190
  3
HIDETEXT
350
18F
  3
INDEXCTL
350
18E
  3
PROJECTNAME
350
31D
  3
SORTENTS
350
18D
  0
XRECORD
  5
F36
102
{ACAD_REACTORS
330
9
102
}
330
9
100
AcDbXrecord
280
     1
  1
DWGPROPS COOKIE
  2

  3

  4

  6

  7

  8
Mario
  9

300
=
301
=
302
=
303
=
304
=
305
=
306
=
307
=
308
=
309
=
 40
0.1369621759259259
 41
2454297.625402373
 42
2454306.854762002
  1

 90
        0
  0
DICTIONARY
  5
16F
102
{ACAD_REACTORS
330
16E
102
}
330
16E
100
AcDbDictionary
281
     1
  0
SORTENTSTABLE
  5
18A
102
{ACAD_REACTORS
330
3
102
}
330
3
100
AcDbSortentsTable
330
2
331
23F
  5
3BB
331
1E
  5
22
331
24
  5
1D
331
16
  5
14
331
12
  5
18
331
1D
  5
21
331
23
  5
23F
331
15
  5
13
331
11
  5
17
331
D
  5
15
331
1C
  5
1F
331
18
  5
1E
331
22
  5
25
331
14
  5
12
331
10
  5
16
331
1F
  5
23
331
25
  5
2AC
331
17
  5
1C
331
21
  5
24
331
13
  5
11
  0
XRECORD
  5
F39
102
{ACAD_REACTORS
330
F38
102
}
330
F38
100
AcDbXrecord
280
     1
 40
7955300.0
  1
{\fTimes New Roman|b0|i0|c238|p18;\H1.6x;\C4;Bovelacci\P\pt0.09;\H0.4375x;\T0.95;via del Commercio, 5  47100 Forli - Italy  \fTimes New Roman|b0|i0|c0|p18;\P\fTimes New Roman|b0|i0|c238|p18;tel.+39-0543721386  fax +39-0543721127\fTimes New Roman|b0|i
  1
0|c0|p18; \fTimes New Roman|b0|i0|c238|p18;www.bovelacci.it\fTimes New Roman|b0|i0|c0|p18; \fTimes New Roman|b0|i0|c238|p18;e-mail: bovelacci@bovelacci\fTimes New Roman|b0|i0|c0|p18;.it}
  0
DIMASSOC
  5
F27
102
{ACAD_REACTORS
330
F20
102
}
330
F20
100
AcDbDimAssoc
330
F16
 90
        2
 70
     0
 71
     0
  1
AcDbOsnapPointRef
 72
     3
331
F15
 73
     2
 91
        0
 40
0.0
 10
0.0
 20
0.0
 30
0.0
 75
     0
  0
XRECORD
  5
209
102
{ACAD_REACTORS
330
208
102
}
330
208
100
AcDbXrecord
280
     1
 40
0.18
  0
LAYOUT
  5
168
102
{ACAD_XDICTIONARY
360
F3C
102
}
102
{ACAD_REACTORS
330
164
102
}
330
164
100
AcDbPlotSettings
  1

  2
C:\Documents and Settings\All Users\Dati applicazioni\Autodesk\ADT 2006\enu\Plotters\Default Windows System Printer.pc3
  4

  6

 40
0.0
 41
0.0
 42
0.0
 43
0.0
 44
0.0
 45
0.0
 46
0.0
 47
0.0
 48
0.0
 49
0.0
140
0.0
141
0.0
142
1.0
143
1.0
 70
   688
 72
     0
 73
     0
 74
     5
  7

 75
    16
147
1.0
148
0.0
149
0.0
100
AcDbLayout
  1
Layout1
 70
     1
 71
     1
 10
0.0
 20
0.0
 11
420.0
 21
297.0
 12
0.0
 22
0.0
 32
0.0
 14
1.000000000000000E+20
 24
1.000000000000000E+20
 34
1.000000000000000E+20
 15
-1.000000000000000E+20
 25
-1.000000000000000E+20
 35
-1.000000000000000E+20
146
0.0
 13
0.0
 23
0.0
 33
0.0
 16
1.0
 26
0.0
 36
0.0
 17
0.0
 27
1.0
 37
0.0
 76
     0
330
165
  0
LAYOUT
  5
16C
102
{ACAD_XDICTIONARY
360
F3E
102
}
102
{ACAD_REACTORS
330
164
102
}
330
164
100
AcDbPlotSettings
  1

  2
C:\Documents and Settings\All Users\Dati applicazioni\Autodesk\ADT 2006\enu\Plotters\Default Windows System Printer.pc3
  4

  6

 40
0.0
 41
0.0
 42
0.0
 43
0.0
 44
0.0
 45
0.0
 46
0.0
 47
0.0
 48
0.0
 49
0.0
140
0.0
141
0.0
142
1.0
143
1.0
 70
   688
 72
     0
 73
     0
 74
     5
  7

 75
    16
147
1.0
148
0.0
149
0.0
100
AcDbLayout
  1
Layout2
 70
     1
 71
     2
 10
0.0
 20
0.0
 11
12.0
 21
9.0
 12
0.0
 22
0.0
 32
0.0
 14
0.0
 24
0.0
 34
0.0
 15
0.0
 25
0.0
 35
0.0
146
0.0
 13
0.0
 23
0.0
 33
0.0
 16
1.0
 26
0.0
 36
0.0
 17
0.0
 27
1.0
 37
0.0
 76
     0
330
169
  0
LAYOUT
  5
163
102
{ACAD_XDICTIONARY
360
F3A
102
}
102
{ACAD_REACTORS
330
164
102
}
330
164
100
AcDbPlotSettings
  1

  2
C:\Documents and Settings\All Users\Dati applicazioni\Autodesk\ADT 2006\enu\Plotters\Default Windows System Printer.pc3
  4

  6

 40
0.0
 41
0.0
 42
0.0
 43
0.0
 44
0.0
 45
0.0
 46
0.0
 47
0.0
 48
0.0
 49
0.0
140
0.0
141
0.0
142
1.0
143
1.0
 70
  1712
 72
     0
 73
     0
 74
     0
  7

 75
     0
147
1.0
148
0.0
149
0.0
100
AcDbLayout
  1
Model
 70
     1
 71
     0
 10
0.0
 20
0.0
 11
12.0
 21
9.0
 12
0.0
 22
0.0
 32
0.0
 14
0.0
 24
0.0
 34
0.0
 15
0.0
 25
0.0
 35
0.0
146
0.0
 13
0.0
 23
0.0
 33
0.0
 16
1.0
 26
0.0
 36
0.0
 17
0.0
 27
1.0
 37
0.0
 76
     0
330
2
  0
MATERIAL
  5
183
102
{ACAD_XDICTIONARY
360
1B0
102
}
102
{ACAD_REACTORS
330
B
102
}
330
B
100
AcDbMaterial
  1
ByBlock
  0
MATERIAL
  5
182
102
{ACAD_XDICTIONARY
360
1AE
102
}
102
{ACAD_REACTORS
330
B
102
}
330
B
100
AcDbMaterial
  1
ByLayer
  0
MATERIAL
  5
A
102
{ACAD_XDICTIONARY
360
193
102
}
102
{ACAD_REACTORS
330
B
102
}
330
B
100
AcDbMaterial
  1
Global
  0
MLINESTYLE
  5
186
102
{ACAD_REACTORS
330
180
102
}
330
180
100
AcDbMlineStyle
  2
STANDARD
 70
     0
  3

 62
   256
 51
90.0
 52
90.0
 71
     2
 49
0.5
 62
   256
  6
BYLAYER
 49
-0.5
 62
   256
  6
BYLAYER
  0
ACDBPLACEHOLDER
  5
7
102
{ACAD_REACTORS
330
8
102
}
330
8
  0
TABLESTYLE
  5
187
102
{ACAD_XDICTIONARY
360
21A
102
}
102
{ACAD_REACTORS
330
185
102
}
330
185
100
AcDbTableStyle
  3
Standard
 70
     0
 71
     0
 40
1.5
 41
1.5
280
     0
281
     0
  7
Standard
140
4.5
170
     2
 62
     0
 63
     7
283
     0
274
    -2
284
     1
 64
     0
275
    -2
285
     1
 65
     0
276
    -2
286
     1
 66
     0
277
    -2
287
     1
 67
     0
278
    -2
288
     1
 68
     0
279
    -2
289
     1
 69
     0
  7
Standard
140
6.0
170
     5
 62
     0
 63
     7
283
     0
274
    -2
284
     1
 64
     0
275
    -2
285
     1
 65
     0
276
    -2
286
     1
 66
     0
277
    -2
287
     1
 67
     0
278
    -2
288
     1
 68
     0
279
    -2
289
     1
 69
     0
  7
Standard
140
4.5
170
     5
 62
     0
 63
     7
283
     0
274
    -2
284
     1
 64
     0
275
    -2
285
     1
 65
     0
276
    -2
286
     1
 66
     0
277
    -2
287
     1
 67
     0
278
    -2
288
     1
 68
     0
279
    -2
289
     1
 69
     0
  0
VISUALSTYLE
  5
179
102
{ACAD_REACTORS
330
17A
102
}
330
17A
100
AcDbVisualStyle
  2
2dWireframe
 70
     4
 71
     0
 72
     2
 73
     0
 90
        0
 40
-0.6
 41
-30.0
 62
     5
 63
     7
 74
     1
 91
        4
 64
     7
 65
   257
 75
     1
175
     1
 42
1.0
 92
        0
 66
   257
 43
1.0
 76
     1
 77
     6
 78
     2
 67
     7
 79
     5
170
     0
171
     0
290
     0
174
     0
 93
        1
 44
0.0
173
     0
291
     0
 45
0.0
1001
ACAD
1000
AcDbSavedByObjectVersion
1070
     0
1000
AcDbSavedByObjectVersion
1070
     0
1000
AcDbSavedByObjectVersion
1070
     0
1001
ACAD
1000
AcRTDxfName
1000
VISUALSTYLE
  0
VISUALSTYLE
  5
1BD
102
{ACAD_REACTORS
330
17A
102
}
330
17A
100
AcDbVisualStyle
  2
3D Hidden
 70
     6
 71
     1
 72
     2
 73
     2
 90
        0
 40
-0.6
 41
-30.0
 62
     5
 63
     7
 74
     2
 91
        2
 64
     7
 65
   257
 75
     2
175
     1
 42
40.0
 92
        0
 66
   257
 43
1.0
 76
     1
 77
     6
 78
     2
 67
     7
 79
     3
170
     0
171
     0
290
     0
174
     0
 93
        1
 44
0.0
173
     0
291
     0
 45
0.0
1001
ACAD
1000
AcDbSavedByObjectVersion
1070
     0
1000
AcDbSavedByObjectVersion
1070
     0
1001
ACAD
1000
AcRTDxfName
1000
VISUALSTYLE
  0
VISUALSTYLE
  5
189
102
{ACAD_REACTORS
330
17A
102
}
330
17A
100
AcDbVisualStyle
  2
3dWireframe
 70
     5
 71
     0
 72
     2
 73
     0
 90
        0
 40
-0.6
 41
-30.0
 62
     5
 63
     7
 74
     1
 91
        4
 64
     7
 65
   257
 75
     1
175
     1
 42
1.0
 92
        0
 66
   257
 43
1.0
 76
     1
 77
     6
 78
     2
 67
     7
 79
     5
170
     0
171
     0
290
     0
174
     0
 93
        1
 44
0.0
173
     0
291
     0
 45
0.0
1001
ACAD
1000
AcDbSavedByObjectVersion
1070
     0
1000
AcDbSavedByObjectVersion
1070
     0
1000
AcDbSavedByObjectVersion
1070
     0
1001
ACAD
1000
AcRTDxfName
1000
VISUALSTYLE
  0
VISUALSTYLE
  5
1BC
102
{ACAD_REACTORS
330
17A
102
}
330
17A
100
AcDbVisualStyle
  2
Basic
 70
     7
 71
     1
 72
     0
 73
     1
 90
        0
 40
-0.6
 41
-30.0
 62
     5
 63
     7
 74
     0
 91
        4
 64
     7
 65
   257
 75
     1
175
     1
 42
1.0
 92
        8
 66
     7
 43
1.0
 76
     1
 77
     6
 78
     2
 67
     7
 79
     5
170
     0
171
     0
290
     0
174
     0
 93
        1
 44
0.0
173
     0
291
     1
 45
0.0
1001
ACAD
1000
AcDbSavedByObjectVersion
1070
     0
1000
AcDbSavedByObjectVersion
1070
     0
1001
ACAD
1000
AcRTDxfName
1000
VISUALSTYLE
  0
VISUALSTYLE
  5
1C0
102
{ACAD_REACTORS
330
17A
102
}
330
17A
100
AcDbVisualStyle
  2
Brighten
 70
    12
 71
     2
 72
     2
 73
     0
 90
        0
 40
-0.6
 41
-30.0
 62
     5
 63
     7
 74
     1
 91
        4
 64
     7
 65
   257
 75
     1
175
     1
 42
1.0
 92
        8
 66
     7
 43
1.0
 76
     1
 77
     6
 78
     2
 67
     7
 79
     5
170
     0
171
     0
290
     0
174
     0
 93
        1
 44
50.0
173
     0
291
     1
 45
0.0
1001
ACAD
1000
AcDbSavedByObjectVersion
1070
     0
1000
AcDbSavedByObjectVersion
1070
     0
1001
ACAD
1000
AcRTDxfName
1000
VISUALSTYLE
  0
VISUALSTYLE
  5
1C4
102
{ACAD_REACTORS
330
17A
102
}
330
17A
100
AcDbVisualStyle
  2
ColorChange
 70
    16
 71
     2
 72
     2
 73
     3
 90
        0
 40
-0.6
 41
-30.0
 62
     5
 63
     8
 74
     1
 91
        4
 64
     7
 65
   257
 75
     1
175
     1
 42
1.0
 92
        8
 66
     8
 43
1.0
 76
     1
 77
     6
 78
     2
 67
     7
 79
     5
170
     0
171
     0
290
     0
174
     0
 93
        1
 44
0.0
173
     0
291
     1
 45
0.0
1001
ACAD
1000
AcDbSavedByObjectVersion
1070
     0
1000
AcDbSavedByObjectVersion
1070
     0
1001
ACAD
1000
AcRTDxfName
1000
VISUALSTYLE
  0
VISUALSTYLE
  5
1BE
102
{ACAD_REACTORS
330
17A
102
}
330
17A
100
AcDbVisualStyle
  2
Conceptual
 70
     9
 71
     3
 72
     2
 73
     0
 90
        0
 40
-0.6
 41
-30.0
 62
     5
 63
     7
 74
     2
 91
        2
 64
     7
 65
   257
 75
     1
175
     1
 42
40.0
 92
        8
 66
     7
 43
1.0
 76
     1
 77
     6
 78
     2
 67
     7
 79
     3
170
     0
171
     0
290
     0
174
     0
 93
        1
 44
0.0
173
     0
291
     0
 45
0.0
1001
ACAD
1000
AcDbSavedByObjectVersion
1070
     0
1000
AcDbSavedByObjectVersion
1070
     0
1001
ACAD
1000
AcRTDxfName
1000
VISUALSTYLE
  0
VISUALSTYLE
  5
1BF
102
{ACAD_REACTORS
330
17A
102
}
330
17A
100
AcDbVisualStyle
  2
Dim
 70
    11
 71
     2
 72
     2
 73
     0
 90
        0
 40
-0.6
 41
-30.0
 62
     5
 63
     7
 74
     1
 91
        4
 64
     7
 65
   257
 75
     1
175
     1
 42
1.0
 92
        8
 66
     7
 43
1.0
 76
     1
 77
     6
 78
     2
 67
     7
 79
     5
170
     0
171
     0
290
     0
174
     0
 93
        1
 44
-50.0
173
     0
291
     1
 45
0.0
1001
ACAD
1000
AcDbSavedByObjectVersion
1070
     0
1000
AcDbSavedByObjectVersion
1070
     0
1001
ACAD
1000
AcRTDxfName
1000
VISUALSTYLE
  0
VISUALSTYLE
  5
1C3
102
{ACAD_REACTORS
330
17A
102
}
330
17A
100
AcDbVisualStyle
  2
Facepattern
 70
    15
 71
     2
 72
     2
 73
     0
 90
        0
 40
-0.6
 41
-30.0
 62
     5
 63
     7
 74
     1
 91
        4
 64
     7
 65
   257
 75
     1
175
     1
 42
1.0
 92
        8
 66
     7
 43
1.0
 76
     1
 77
     6
 78
     2
 67
     7
 79
     5
170
     0
171
     0
290
     0
174
     0
 93
        1
 44
0.0
173
     0
291
     1
 45
0.0
1001
ACAD
1000
AcDbSavedByObjectVersion
1070
     0
1000
AcDbSavedByObjectVersion
1070
     0
1001
ACAD
1000
AcRTDxfName
1000
VISUALSTYLE
  0
VISUALSTYLE
  5
1B8
102
{ACAD_REACTORS
330
17A
102
}
330
17A
100
AcDbVisualStyle
  2
Flat
 70
     0
 71
     2
 72
     1
 73
     1
 90
        2
 40
-0.6
 41
30.0
 62
     5
 63
     7
 74
     0
 91
        4
 64
     7
 65
   257
 75
     1
175
     1
 42
1.0
 92
        8
 66
     7
 43
1.0
 76
     1
 77
     6
 78
     2
 67
     7
 79
     5
170
     0
171
     0
290
     0
174
     0
 93
       13
 44
0.0
173
     0
291
     1
 45
0.0
1001
ACAD
1000
AcDbSavedByObjectVersion
1070
     0
1000
AcDbSavedByObjectVersion
1070
     0
1001
ACAD
1000
AcRTDxfName
1000
VISUALSTYLE
  0
VISUALSTYLE
  5
1B9
102
{ACAD_REACTORS
330
17A
102
}
330
17A
100
AcDbVisualStyle
  2
FlatWithEdges
 70
     1
 71
     2
 72
     1
 73
     1
 90
        2
 40
-0.6
 41
30.0
 62
     5
 63
     7
 74
     1
 91
        4
 64
     7
 65
   257
 75
     1
175
     1
 42
1.0
 92
        0
 66
   257
 43
1.0
 76
     1
 77
     6
 78
     2
 67
     7
 79
     5
170
     0
171
     0
290
     0
174
     0
 93
       13
 44
0.0
173
     0
291
     1
 45
0.0
1001
ACAD
1000
AcDbSavedByObjectVersion
1070
     0
1000
AcDbSavedByObjectVersion
1070
     0
1001
ACAD
1000
AcRTDxfName
1000
VISUALSTYLE
  0
VISUALSTYLE
  5
1BA
102
{ACAD_REACTORS
330
17A
102
}
330
17A
100
AcDbVisualStyle
  2
Gouraud
 70
     2
 71
     2
 72
     2
 73
     1
 90
        2
 40
-0.6
 41
30.0
 62
     5
 63
     7
 74
     0
 91
        4
 64
     7
 65
   257
 75
     1
175
     1
 42
1.0
 92
        0
 66
     7
 43
1.0
 76
     1
 77
     6
 78
     2
 67
     7
 79
     5
170
     0
171
     0
290
     0
174
     0
 93
       13
 44
0.0
173
     0
291
     1
 45
0.0
1001
ACAD
1000
AcDbSavedByObjectVersion
1070
     0
1000
AcDbSavedByObjectVersion
1070
     0
1001
ACAD
1000
AcRTDxfName
1000
VISUALSTYLE
  0
VISUALSTYLE
  5
1BB
102
{ACAD_REACTORS
330
17A
102
}
330
17A
100
AcDbVisualStyle
  2
GouraudWithEdges
 70
     3
 71
     2
 72
     2
 73
     1
 90
        2
 40
-0.6
 41
30.0
 62
     5
 63
     7
 74
     1
 91
        4
 64
     7
 65
   257
 75
     1
175
     1
 42
1.0
 92
        0
 66
   257
 43
1.0
 76
     1
 77
     6
 78
     2
 67
     7
 79
     5
170
     0
171
     0
290
     0
174
     0
 93
       13
 44
0.0
173
     0
291
     1
 45
0.0
1001
ACAD
1000
AcDbSavedByObjectVersion
1070
     0
1000
AcDbSavedByObjectVersion
1070
     0
1001
ACAD
1000
AcRTDxfName
1000
VISUALSTYLE
  0
VISUALSTYLE
  5
1C2
102
{ACAD_REACTORS
330
17A
102
}
330
17A
100
AcDbVisualStyle
  2
Linepattern
 70
    14
 71
     2
 72
     2
 73
     0
 90
        0
 40
-0.6
 41
-30.0
 62
     5
 63
     7
 74
     1
 91
        4
 64
     7
 65
   257
 75
     7
175
     7
 42
1.0
 92
        8
 66
     7
 43
1.0
 76
     1
 77
     6
 78
     2
 67
     7
 79
     5
170
     0
171
     0
290
     0
174
     0
 93
        1
 44
0.0
173
     0
291
     1
 45
0.0
1001
ACAD
1000
AcDbSavedByObjectVersion
1070
     0
1000
AcDbSavedByObjectVersion
1070
     0
1001
ACAD
1000
AcRTDxfName
1000
VISUALSTYLE
  0
VISUALSTYLE
  5
188
102
{ACAD_REACTORS
330
17A
102
}
330
17A
100
AcDbVisualStyle
  2
Realistic
 70
     8
 71
     2
 72
     2
 73
     0
 90
        0
 40
-0.6
 41
-30.0
 62
     5
 63
     7
 74
     1
 91
        0
 64
     7
 65
   257
 75
     1
175
     1
 42
1.0
 92
        8
 66
     8
 43
1.0
 76
     1
 77
     6
 78
     2
 67
     7
 79
     5
170
     0
171
     0
290
     0
174
     0
 93
       13
 44
0.0
173
     0
291
     0
 45
0.0
1001
ACAD
1000
AcDbSavedByObjectVersion
1070
     0
1000
AcDbSavedByObjectVersion
1070
     0
1000
AcDbSavedByObjectVersion
1070
     0
1001
ACAD
1000
AcRTDxfName
1000
VISUALSTYLE
  0
VISUALSTYLE
  5
1C1
102
{ACAD_REACTORS
330
17A
102
}
330
17A
100
AcDbVisualStyle
  2
Thicken
 70
    13
 71
     2
 72
     2
 73
     0
 90
        0
 40
-0.6
 41
-30.0
 62
     5
 63
     7
 74
     1
 91
        4
 64
     7
 65
   257
 75
     1
175
     1
 42
1.0
 92
       12
 66
     7
 43
1.0
 76
     1
 77
     6
 78
     2
 67
     7
 79
     5
170
     0
171
     0
290
     0
174
     0
 93
        1
 44
0.0
173
     0
291
     1
 45
0.0
1001
ACAD
1000
AcDbSavedByObjectVersion
1070
     0
1000
AcDbSavedByObjectVersion
1070
     0
1001
ACAD
1000
AcRTDxfName
1000
VISUALSTYLE
  0
DICTIONARYVAR
  5
18C
102
{ACAD_REACTORS
330
18B
102
}
330
18B
100
DictionaryVariables
280
     0
  1
STANDARD
  0
DICTIONARYVAR
  5
190
102
{ACAD_REACTORS
330
18B
102
}
330
18B
100
DictionaryVariables
280
     0
  1
2
  0
DICTIONARYVAR
  5
18F
102
{ACAD_REACTORS
330
18B
102
}
330
18B
100
DictionaryVariables
280
     0
  1
1
  0
DICTIONARYVAR
  5
18E
102
{ACAD_REACTORS
330
18B
102
}
330
18B
100
DictionaryVariables
280
     0
  1
0
  0
DICTIONARYVAR
  5
31D
102
{ACAD_REACTORS
330
18B
102
}
330
18B
100
DictionaryVariables
280
     0
  1

  0
DICTIONARYVAR
  5
18D
102
{ACAD_REACTORS
330
18B
102
}
330
18B
100
DictionaryVariables
280
     0
  1
127
  0
DICTIONARY
  5
F3C
330
168
100
AcDbDictionary
280
     1
281
     1
  3
ACAD_XREC_ROUNDTRIP
360
F3D
  0
DICTIONARY
  5
F3E
330
16C
100
AcDbDictionary
280
     1
281
     1
  3
ACAD_XREC_ROUNDTRIP
360
F3F
  0
DICTIONARY
  5
F3A
330
163
100
AcDbDictionary
280
     1
281
     1
  3
ACAD_XREC_ROUNDTRIP
360
F3B
  0
DICTIONARY
  5
1B0
330
183
100
AcDbDictionary
280
     1
281
     1
  3
ACAD_XREC_ROUNDTRIP
360
1B1
  0
DICTIONARY
  5
1AE
330
182
100
AcDbDictionary
280
     1
281
     1
  3
ACAD_XREC_ROUNDTRIP
360
1AF
  0
DICTIONARY
  5
193
330
A
100
AcDbDictionary
280
     1
281
     1
  3
ACAD_XREC_ROUNDTRIP
360
194
  0
DICTIONARY
  5
21A
330
187
100
AcDbDictionary
280
     1
281
     1
  3
ACAD_XREC_ROUNDTRIP
360
21B
  0
XRECORD
  5
F3D
102
{ACAD_REACTORS
330
F3C
102
}
330
F3C
100
AcDbXrecord
280
     1
102
SHADEPLOT
 70
     0
102
SHADEPLOTRESLEVEL
 70
     2
102
SHADEPLOTCUSTOMDPI
 70
   300
  0
XRECORD
  5
F3F
102
{ACAD_REACTORS
330
F3E
102
}
330
F3E
100
AcDbXrecord
280
     1
102
SHADEPLOT
 70
     0
102
SHADEPLOTRESLEVEL
 70
     2
102
SHADEPLOTCUSTOMDPI
 70
   300
  0
XRECORD
  5
F3B
102
{ACAD_REACTORS
330
F3A
102
}
330
F3A
100
AcDbXrecord
280
     1
102
SHADEPLOT
 70
     0
102
SHADEPLOTRESLEVEL
 70
     2
102
SHADEPLOTCUSTOMDPI
 70
   300
  0
XRECORD
  5
1B1
102
{ACAD_REACTORS
330
1B0
102
}
330
1B0
100
AcDbXrecord
280
     1
102
MATERIAL
148
0.0
149
0.0
149
0.0
 93
        0
 94
       63
282
     0
 72
     1
 77
     1
171
     1
175
     1
179
     1
273
     0
  0
XRECORD
  5
1AF
102
{ACAD_REACTORS
330
1AE
102
}
330
1AE
100
AcDbXrecord
280
     1
102
MATERIAL
148
0.0
149
0.0
149
0.0
 93
        0
 94
       63
282
     0
 72
     1
 77
     1
171
     1
175
     1
179
     1
273
     0
  0
XRECORD
  5
194
102
{ACAD_REACTORS
330
193
102
}
330
193
100
AcDbXrecord
280
     1
102
MATERIAL
148
0.0
149
0.0
149
0.0
 93
        0
 94
       63
282
     0
 72
     1
 77
     1
171
     1
175
     1
179
     1
273
     0
  0
XRECORD
  5
21B
102
{ACAD_REACTORS
330
21A
102
}
330
21A
100
AcDbXrecord
280
     1
102
ACAD_ROUNDTRIP_PRE2007_TABLESTYLE
 90
        4
 91
        0
  1

 92
        4
 93
        0
  2

 94
        4
 95
        0
  3

  0
ENDSEC
  0
EOF
