  0
SECTION
  2
HEADER
  9
$ACADVER
  1
AC1015
  9
$ACADMAINTVER
 70
    20
  9
$DWGCODEPAGE
  3
ANSI_1252
  9
$INSBASE
 10
0.0
 20
0.0
 30
0.0
  9
$EXTMIN
 10
0.0149999999999999
 20
-0.0204515658674481
 30
0.0
  9
$EXTMAX
 10
1.094458303957087
 20
0.4675256652932914
 30
0.0
  9
$LIMMIN
 10
0.0
 20
0.0
  9
$LIMMAX
 10
1.0
 20
0.5
  9
$ORTHOMODE
 70
     0
  9
$REGENMODE
 70
     1
  9
$FILLMODE
 70
     1
  9
$QTEXTMODE
 70
     0
  9
$MIRRTEXT
 70
     0
  9
$LTSCALE
 40
1.0
  9
$ATTMODE
 70
     1
  9
$TEXTSIZE
 40
0.008
  9
$TRACEWID
 40
1.0
  9
$TEXTSTYLE
  7
style1
  9
$CLAYER
  8
Sezione
  9
$CELTYPE
  6
ACAD_ISO10W100
  9
$CECOLOR
 62
   256
  9
$CELTSCALE
 40
1.0
  9
$DISPSILH
 70
     0
  9
$DIMSCALE
 40
0.001
  9
$DIMASZ
 40
1.5
  9
$DIMEXO
 40
0.0625
  9
$DIMDLI
 40
0.38
  9
$DIMRND
 40
0.0
  9
$DIMDLE
 40
0.0
  9
$DIMEXE
 40
0.18
  9
$DIMTP
 40
0.0
  9
$DIMTM
 40
0.0
  9
$DIMTXT
 40
3.0
  9
$DIMCEN
 40
0.0
  9
$DIMTSZ
 40
0.0
  9
$DIMTOL
 70
     0
  9
$DIMLIM
 70
     0
  9
$DIMTIH
 70
     1
  9
$DIMTOH
 70
     1
  9
$DIMSE1
 70
     0
  9
$DIMSE2
 70
     0
  9
$DIMTAD
 70
     0
  9
$DIMZIN
 70
     0
  9
$DIMBLK
  1
ArchTick
  9
$DIMASO
 70
     1
  9
$DIMSHO
 70
     1
  9
$DIMPOST
  1

  9
$DIMAPOST
  1

  9
$DIMALT
 70
     0
  9
$DIMALTD
 70
     2
  9
$DIMALTF
 40
25.4
  9
$DIMLFAC
 40
1.0
  9
$DIMTOFL
 70
     0
  9
$DIMTVP
 40
0.0
  9
$DIMTIX
 70
     0
  9
$DIMSOXD
 70
     0
  9
$DIMSAH
 70
     0
  9
$DIMBLK1
  1

  9
$DIMBLK2
  1

  9
$DIMSTYLE
  2
Bovelacci
  9
$DIMCLRD
 70
     5
  9
$DIMCLRE
 70
     5
  9
$DIMCLRT
 70
     4
  9
$DIMTFAC
 40
1.0
  9
$DIMGAP
 40
2.0
  9
$DIMJUST
 70
     0
  9
$DIMSD1
 70
     0
  9
$DIMSD2
 70
     0
  9
$DIMTOLJ
 70
     1
  9
$DIMTZIN
 70
     0
  9
$DIMALTZ
 70
     0
  9
$DIMALTTZ
 70
     0
  9
$DIMUPT
 70
     0
  9
$DIMDEC
 70
     2
  9
$DIMTDEC
 70
     2
  9
$DIMALTU
 70
     2
  9
$DIMALTTD
 70
     2
  9
$DIMTXSTY
  7
ROMANS
  9
$DIMAUNIT
 70
     0
  9
$DIMADEC
 70
     0
  9
$DIMALTRND
 40
0.0
  9
$DIMAZIN
 70
     0
  9
$DIMDSEP
 70
    46
  9
$DIMATFIT
 70
     3
  9
$DIMFRAC
 70
     0
  9
$DIMLDRBLK
  1

  9
$DIMLUNIT
 70
     2
  9
$DIMLWD
 70
    -2
  9
$DIMLWE
 70
    -2
  9
$DIMTMOVE
 70
     2
  9
$LUNITS
 70
     2
  9
$LUPREC
 70
     2
  9
$SKETCHINC
 40
1.0
  9
$FILLETRAD
 40
0.0
  9
$AUNITS
 70
     0
  9
$AUPREC
 70
     0
  9
$MENU
  1
.
  9
$ELEVATION
 40
0.0
  9
$PELEVATION
 40
0.0
  9
$THICKNESS
 40
0.0
  9
$LIMCHECK
 70
     0
  9
$CHAMFERA
 40
0.0
  9
$CHAMFERB
 40
0.0
  9
$CHAMFERC
 40
0.0
  9
$CHAMFERD
 40
0.0
  9
$SKPOLY
 70
     0
  9
$TDCREATE
 40
2454297.625402373
  9
$TDUCREATE
 40
2454297.542069039
  9
$TDUPDATE
 40
2454306.872412106
  9
$TDUUPDATE
 40
2454306.789078773
  9
$TDINDWG
 40
0.1546129977
  9
$TDUSRTIMER
 40
0.1546109954
  9
$USRTIMER
 70
     1
  9
$ANGBASE
 50
0.0
  9
$ANGDIR
 70
     0
  9
$PDMODE
 70
     0
  9
$PDSIZE
 40
0.0
  9
$PLINEWID
 40
0.0
  9
$SPLFRAME
 70
     0
  9
$SPLINETYPE
 70
     6
  9
$SPLINESEGS
 70
     8
  9
$HANDSEED
  5
12EF
  9
$SURFTAB1
 70
     6
  9
$SURFTAB2
 70
     6
  9
$SURFTYPE
 70
     6
  9
$SURFU
 70
     6
  9
$SURFV
 70
     6
  9
$UCSBASE
  2

  9
$UCSNAME
  2

  9
$UCSORG
 10
0.0
 20
0.0
 30
0.0
  9
$UCSXDIR
 10
1.0
 20
0.0
 30
0.0
  9
$UCSYDIR
 10
0.0
 20
1.0
 30
0.0
  9
$UCSORTHOREF
  2

  9
$UCSORTHOVIEW
 70
     0
  9
$UCSORGTOP
 10
0.0
 20
0.0
 30
0.0
  9
$UCSORGBOTTOM
 10
0.0
 20
0.0
 30
0.0
  9
$UCSORGLEFT
 10
0.0
 20
0.0
 30
0.0
  9
$UCSORGRIGHT
 10
0.0
 20
0.0
 30
0.0
  9
$UCSORGFRONT
 10
0.0
 20
0.0
 30
0.0
  9
$UCSORGBACK
 10
0.0
 20
0.0
 30
0.0
  9
$PUCSBASE
  2

  9
$PUCSNAME
  2

  9
$PUCSORG
 10
0.0
 20
0.0
 30
0.0
  9
$PUCSXDIR
 10
1.0
 20
0.0
 30
0.0
  9
$PUCSYDIR
 10
0.0
 20
1.0
 30
0.0
  9
$PUCSORTHOREF
  2

  9
$PUCSORTHOVIEW
 70
     0
  9
$PUCSORGTOP
 10
0.0
 20
0.0
 30
0.0
  9
$PUCSORGBOTTOM
 10
0.0
 20
0.0
 30
0.0
  9
$PUCSORGLEFT
 10
0.0
 20
0.0
 30
0.0
  9
$PUCSORGRIGHT
 10
0.0
 20
0.0
 30
0.0
  9
$PUCSORGFRONT
 10
0.0
 20
0.0
 30
0.0
  9
$PUCSORGBACK
 10
0.0
 20
0.0
 30
0.0
  9
$USERI1
 70
     0
  9
$USERI2
 70
     0
  9
$USERI3
 70
     0
  9
$USERI4
 70
     0
  9
$USERI5
 70
     0
  9
$USERR1
 40
0.0
  9
$USERR2
 40
0.0
  9
$USERR3
 40
0.0
  9
$USERR4
 40
0.0
  9
$USERR5
 40
0.0
  9
$WORLDVIEW
 70
     1
  9
$SHADEDGE
 70
     3
  9
$SHADEDIF
 70
    70
  9
$TILEMODE
 70
     1
  9
$MAXACTVP
 70
    64
  9
$PINSBASE
 10
0.0
 20
0.0
 30
0.0
  9
$PLIMCHECK
 70
     0
  9
$PEXTMIN
 10
1.000000000000000E+20
 20
1.000000000000000E+20
 30
1.000000000000000E+20
  9
$PEXTMAX
 10
-1.000000000000000E+20
 20
-1.000000000000000E+20
 30
-1.000000000000000E+20
  9
$PLIMMIN
 10
0.0
 20
0.0
  9
$PLIMMAX
 10
420.0
 20
297.0
  9
$UNITMODE
 70
     0
  9
$VISRETAIN
 70
     1
  9
$PLINEGEN
 70
     0
  9
$PSLTSCALE
 70
     1
  9
$TREEDEPTH
 70
  3020
  9
$CMLSTYLE
  2
Standard
  9
$CMLJUST
 70
     0
  9
$CMLSCALE
 40
20.0
  9
$PROXYGRAPHICS
 70
     1
  9
$MEASUREMENT
 70
     1
  9
$CELWEIGHT
370
    -1
  9
$ENDCAPS
280
     0
  9
$JOINSTYLE
280
     0
  9
$LWDISPLAY
290
     0
  9
$INSUNITS
 70
     4
  9
$HYPERLINKBASE
  1

  9
$STYLESHEET
  1

  9
$XEDIT
290
     1
  9
$CEPSNTYPE
380
     0
  9
$PSTYLEMODE
290
     1
  9
$FINGERPRINTGUID
  2
{904A8C64-524F-4709-A9C6-320D2C273A6D}
  9
$VERSIONGUID
  2
{E584ECD4-A10A-4D27-B92D-D39835ADA853}
  9
$EXTNAMES
290
     1
  9
$PSVPSCALE
 40
0.0
  9
$OLESTARTUP
290
     0
  0
ENDSEC
  0
SECTION
  2
CLASSES
  0
CLASS
  1
ACDBDICTIONARYWDFLT
  2
AcDbDictionaryWithDefault
  3
ObjectDBX Classes
 90
        0
280
     0
281
     0
  0
CLASS
  1
TABLESTYLE
  2
AcDbTableStyle
  3
ObjectDBX Classes
 90
     2047
280
     0
281
     0
  0
CLASS
  1
SORTENTSTABLE
  2
AcDbSortentsTable
  3
ObjectDBX Classes
 90
        0
280
     0
281
     0
  0
CLASS
  1
DICTIONARYVAR
  2
AcDbDictionaryVar
  3
ObjectDBX Classes
 90
        0
280
     0
281
     0
  0
CLASS
  1
ACDBPLACEHOLDER
  2
AcDbPlaceHolder
  3
ObjectDBX Classes
 90
        0
280
     0
281
     0
  0
CLASS
  1
LAYOUT
  2
AcDbLayout
  3
ObjectDBX Classes
 90
        0
280
     0
281
     0
  0
CLASS
  1
DIMASSOC
  2
AcDbDimAssoc
  3
"AcDbDimAssoc|Product Desc:     AcDim ARX App For Dimension|Company:          Autodesk, Inc.|WEB Address:      www.autodesk.com"
 90
        0
280
     0
281
     0
  0
CLASS
  1
MATERIAL
  2
AcDbMaterial
  3
ObjectDBX Classes
 90
        0
280
     0
281
     0
  0
CLASS
  1
VISUALSTYLE
  2
AcDbVisualStyle
  3
ObjectDBX Classes
 90
     4095
280
     0
281
     0
  0
ENDSEC
  0
SECTION
  2
TABLES
  0
TABLE
  2
VPORT
  5
177
330
0
100
AcDbSymbolTable
 70
    20
  0
VPORT
  5
12E4
330
177
100
AcDbSymbolTableRecord
100
AcDbViewportTableRecord
  2
*Active
 70
     0
 10
0.0
 20
0.0
 11
1.0
 21
1.0
 12
0.2063419587162762
 22
0.1482259953019724
 13
0.0
 23
0.0
 14
10.0
 24
10.0
 15
10.0
 25
10.0
 16
0.0
 26
0.0
 36
1.0
 17
0.0
 27
0.0
 37
0.0
 40
0.2818455384613609
 41
1.546526867627784
 42
50.0
 43
0.0
 44
0.0
 50
0.0
 51
0.0
 71
     0
 72
  1000
 73
     1
 74
     3
 75
     0
 76
     0
 77
     0
 78
     0
281
     0
 65
     1
110
0.0
120
0.0
130
0.0
111
1.0
121
0.0
131
0.0
112
0.0
122
1.0
132
0.0
 79
     0
146
0.0
  0
ENDTAB
  0
TABLE
  2
LTYPE
  5
172
330
0
100
AcDbSymbolTable
 70
     3
  0
LTYPE
  5
173
330
172
100
AcDbSymbolTableRecord
100
AcDbLinetypeTableRecord
  2
ByBlock
 70
     0
  3

 72
    65
 73
     0
 40
0.0
  0
LTYPE
  5
174
330
172
100
AcDbSymbolTableRecord
100
AcDbLinetypeTableRecord
  2
ByLayer
 70
     0
  3

 72
    65
 73
     0
 40
0.0
  0
LTYPE
  5
C
330
172
100
AcDbSymbolTableRecord
100
AcDbLinetypeTableRecord
  2
Continuous
 70
     0
  3
Solid line
 72
    65
 73
     0
 40
0.0
  0
LTYPE
  5
14E
330
172
100
AcDbSymbolTableRecord
100
AcDbLinetypeTableRecord
  2
ACAD_ISO10W100
 70
     0
  3
ISO dash dot __ . __ . __ . __ . __ . __ . __ .
 72
    65
 73
     4
 40
18.0
 49
12.0
 74
     0
 49
-3.0
 74
     0
 49
0.0
 74
     0
 49
-3.0
 74
     0
  0
ENDTAB
  0
TABLE
  2
LAYER
  5
16D
102
{ACAD_XDICTIONARY
360
16E
102
}
330
0
100
AcDbSymbolTable
 70
     7
  0
LAYER
  5
6
330
16D
100
AcDbSymbolTableRecord
100
AcDbLayerTableRecord
  2
0
 70
     0
 62
     7
  6
Continuous
370
    -3
390
7
  0
LAYER
  5
15F
330
16D
100
AcDbSymbolTableRecord
100
AcDbLayerTableRecord
  2
Defpoints
 70
     0
 62
     7
  6
Continuous
290
     0
370
    -3
390
7
  0
LAYER
  5
28
330
16D
100
AcDbSymbolTableRecord
100
AcDbLayerTableRecord
  2
Profilo
 70
     0
 62
     1
  6
Continuous
370
    -3
390
7
1001
AcAecLayerStandard
1000

1000

  0
LAYER
  5
14D
330
16D
100
AcDbSymbolTableRecord
100
AcDbLayerTableRecord
  2
Sezione
 70
     0
 62
     2
  6
Continuous
370
    -3
390
7
1001
AcAecLayerStandard
1000

1000

  0
LAYER
  5
E
330
16D
100
AcDbSymbolTableRecord
100
AcDbLayerTableRecord
  2
Table
 70
     0
 62
     3
  6
Continuous
370
    -3
390
7
1001
AcAecLayerStandard
1000

1000

  0
LAYER
  5
19
330
16D
100
AcDbSymbolTableRecord
100
AcDbLayerTableRecord
  2
Text
 70
     0
 62
     4
  6
Continuous
370
    -3
390
7
1001
AcAecLayerStandard
1000

1000

  0
LAYER
  5
256
330
16D
100
AcDbSymbolTableRecord
100
AcDbLayerTableRecord
  2
Bovelacci
 70
     0
 62
     9
  6
Continuous
370
    -3
390
7
1001
AcAecLayerStandard
1000

1000

  0
ENDTAB
  0
TABLE
  2
STYLE
  5
170
330
0
100
AcDbSymbolTable
 70
     3
  0
STYLE
  5
1A
330
170
100
AcDbSymbolTableRecord
100
AcDbTextStyleTableRecord
  2
Standard
 70
     0
 40
0.0
 41
1.0
 50
0.0
 71
     0
 42
2.5
  3
txt
  4

  0
STYLE
  5
20
330
170
100
AcDbSymbolTableRecord
100
AcDbTextStyleTableRecord
  2
ROMANS
 70
     0
 40
0.0
 41
1.0
 50
0.0
 71
     0
 42
2.5
  3
romans
  4

  0
STYLE
  5
26
330
170
100
AcDbSymbolTableRecord
100
AcDbTextStyleTableRecord
  2
style1
 70
     0
 40
0.0
 41
1.0
 50
0.0
 71
     0
 42
0.008
  3
TIMES.TTF
  4

1001
ACAD
1000
Times New Roman
1071
       18
  0
ENDTAB
  0
TABLE
  2
VIEW
  5
175
330
0
100
AcDbSymbolTable
 70
     6
  0
ENDTAB
  0
TABLE
  2
UCS
  5
176
330
0
100
AcDbSymbolTable
 70
     0
  0
ENDTAB
  0
TABLE
  2
APPID
  5
17B
330
0
100
AcDbSymbolTable
 70
    10
  0
APPID
  5
1B
330
17B
100
AcDbSymbolTableRecord
100
AcDbRegAppTableRecord
  2
ACAD
 70
     0
  0
APPID
  5
157
330
17B
100
AcDbSymbolTableRecord
100
AcDbRegAppTableRecord
  2
ACAD_DSTYLE_DIMJOGGED_JOGANGLE_SYMBOL
 70
     0
  0
APPID
  5
F
330
17B
100
AcDbSymbolTableRecord
100
AcDbRegAppTableRecord
  2
AcAecLayerStandard
 70
     0
  0
APPID
  5
19C
330
17B
100
AcDbSymbolTableRecord
100
AcDbRegAppTableRecord
  2
ACAD_DSTYLE_DIMFLIPARROW_WHICH_SYMBOL
 70
     0
  0
APPID
  5
1A7
330
17B
100
AcDbSymbolTableRecord
100
AcDbRegAppTableRecord
  2
ACAD_DSTYLE_DIMEXT_LENGTH
 70
     0
  0
APPID
  5
1D2
330
17B
100
AcDbSymbolTableRecord
100
AcDbRegAppTableRecord
  2
ACAD_EXEMPT_FROM_CAD_STANDARDS
 70
     0
  0
APPID
  5
1D3
330
17B
100
AcDbSymbolTableRecord
100
AcDbRegAppTableRecord
  2
ACAD_DSTYLE_DIM_LINETYPE
 70
     0
  0
APPID
  5
1D4
330
17B
100
AcDbSymbolTableRecord
100
AcDbRegAppTableRecord
  2
ACAD_DSTYLE_DIM_EXT1_LINETYPE
 70
     0
  0
APPID
  5
1D5
330
17B
100
AcDbSymbolTableRecord
100
AcDbRegAppTableRecord
  2
ACAD_DSTYLE_DIM_EXT2_LINETYPE
 70
     0
  0
APPID
  5
25C
330
17B
100
AcDbSymbolTableRecord
100
AcDbRegAppTableRecord
  2
ACAD_PSEXT
 70
     0
  0
ENDTAB
  0
TABLE
  2
DIMSTYLE
  5
17C
330
0
100
AcDbSymbolTable
 70
     8
100
AcDbDimStyleTable
 71
     2
340
156
340
17D
  0
DIMSTYLE
105
17D
330
17C
100
AcDbSymbolTableRecord
100
AcDbDimStyleTableRecord
  2
ISO-25
 70
     0
 41
2.5
 42
0.625
 43
3.75
 44
1.25
 73
     0
 74
     0
 77
     1
 78
     8
140
2.5
141
2.5
143
0.03937007874016
147
0.625
171
     3
172
     1
271
     2
272
     2
274
     3
278
    44
283
     0
284
     8
340
1A
  0
DIMSTYLE
105
156
102
{ACAD_REACTORS
330
12C5
102
}
330
17C
100
AcDbSymbolTableRecord
100
AcDbDimStyleTableRecord
  2
Bovelacci
 70
     0
 40
0.001
 41
1.5
140
3.0
141
0.0
147
2.0
176
     5
177
     5
178
     4
271
     2
272
     2
279
     2
340
20
342
152
1001
ACAD_DSTYLE_DIMJOGGED_JOGANGLE_SYMBOL
1070
   384
1040
0.7853981633974483
1001
ACAD_DSTYLE_DIMEXT_LENGTH
1070
   378
1040
0.18
  0
DIMSTYLE
105
257
330
17C
100
AcDbSymbolTableRecord
100
AcDbDimStyleTableRecord
  2
Dim 1-100
 70
     0
 40
0.1
 41
1.5
 42
0.0
 43
5.0
 44
1.25
 45
0.005
 46
1.25
 73
     0
 74
     0
 77
     1
 78
     9
140
2.0
141
2.5
147
1.0
172
     1
174
     1
179
     2
279
     2
289
     2
340
20
342
152
  0
DIMSTYLE
105
258
330
17C
100
AcDbSymbolTableRecord
100
AcDbDimStyleTableRecord
  2
Standard
 70
     0
 42
0.0
 73
     0
 74
     0
 77
     1
271
     2
272
     2
340
20
  0
DIMSTYLE
105
259
330
17C
100
AcDbSymbolTableRecord
100
AcDbDimStyleTableRecord
  2
Dim 1-50
 70
     0
 40
0.05
 41
1.5
 42
0.0
 43
5.0
 44
1.25
 45
0.005
 46
1.25
 73
     0
 74
     0
 77
     1
 78
     9
140
2.0
141
2.5
147
1.0
172
     1
174
     1
179
     2
279
     2
289
     2
340
20
342
152
  0
DIMSTYLE
105
25A
330
17C
100
AcDbSymbolTableRecord
100
AcDbDimStyleTableRecord
  2
Dim 1-200
 70
     0
 40
0.2
 41
1.5
 42
0.0
 43
5.0
 44
1.25
 45
0.005
 46
1.25
 73
     0
 74
     0
 77
     1
 78
     9
140
2.0
141
2.5
147
1.0
172
     1
174
     1
179
     2
271
     2
272
     2
279
     2
289
     2
340
20
342
152
  0
DIMSTYLE
105
25B
330
17C
100
AcDbSymbolTableRecord
100
AcDbDimStyleTableRecord
  2
AEC Scale - Italiano
 70
     0
 41
1.0
 42
10.0
 43
10.0
 44
10.0
 73
     0
 74
     0
 75
     1
 76
     1
 77
     1
140
10.0
141
1.0
147
10.0
173
     1
271
     0
272
     0
279
     2
340
1A
343
251
344
24B
  0
ENDTAB
  0
TABLE
  2
BLOCK_RECORD
  5
1
330
0
100
AcDbSymbolTable
 70
    28
  0
BLOCK_RECORD
  5
2
102
{ACAD_XDICTIONARY
360
3
102
}
330
1
100
AcDbSymbolTableRecord
100
AcDbBlockTableRecord
  2
*Model_Space
340
163
  0
BLOCK_RECORD
  5
165
330
1
100
AcDbSymbolTableRecord
100
AcDbBlockTableRecord
  2
*Paper_Space
340
168
  0
BLOCK_RECORD
  5
169
330
1
100
AcDbSymbolTableRecord
100
AcDbBlockTableRecord
  2
*Paper_Space0
340
16C
  0
BLOCK_RECORD
  5
152
330
1
100
AcDbSymbolTableRecord
100
AcDbBlockTableRecord
  2
_ArchTick
340
0
310
2800000020000000200000000100080000000000000400000000000000000000000000000000000000000000000080000080000000808000800000008000800080800000C0C0C000C0DCC000F0CAA6000020400000206000002080000020A0000020C0000020E00000400000004020000040400000406000004080000040A0
310
000040C0000040E00000600000006020000060400000606000006080000060A0000060C0000060E00000800000008020000080400000806000008080000080A0000080C0000080E00000A0000000A0200000A0400000A0600000A0800000A0A00000A0C00000A0E00000C0000000C0200000C0400000C0600000C0800000C0
310
A00000C0C00000C0E00000E0000000E0200000E0400000E0600000E0800000E0A00000E0C00000E0E00040000000400020004000400040006000400080004000A0004000C0004000E00040200000402020004020400040206000402080004020A0004020C0004020E000404000004040200040404000404060004040800040
310
40A0004040C0004040E00040600000406020004060400040606000406080004060A0004060C0004060E00040800000408020004080400040806000408080004080A0004080C0004080E00040A0000040A0200040A0400040A0600040A0800040A0A00040A0C00040A0E00040C0000040C0200040C0400040C0600040C08000
310
40C0A00040C0C00040C0E00040E0000040E0200040E0400040E0600040E0800040E0A00040E0C00040E0E00080000000800020008000400080006000800080008000A0008000C0008000E00080200000802020008020400080206000802080008020A0008020C0008020E00080400000804020008040400080406000804080
310
008040A0008040C0008040E00080600000806020008060400080606000806080008060A0008060C0008060E00080800000808020008080400080806000808080008080A0008080C0008080E00080A0000080A0200080A0400080A0600080A0800080A0A00080A0C00080A0E00080C0000080C0200080C0400080C0600080C0
310
800080C0A00080C0C00080C0E00080E0000080E0200080E0400080E0600080E0800080E0A00080E0C00080E0E000C0000000C0002000C0004000C0006000C0008000C000A000C000C000C000E000C0200000C0202000C0204000C0206000C0208000C020A000C020C000C020E000C0400000C0402000C0404000C0406000C0
310
408000C040A000C040C000C040E000C0600000C0602000C0604000C0606000C0608000C060A000C060C000C060E000C0800000C0802000C0804000C0806000C0808000C080A000C080C000C080E000C0A00000C0A02000C0A04000C0A06000C0A08000C0A0A000C0A0C000C0A0E000C0C00000C0C02000C0C04000C0C06000
310
C0C08000C0C0A000F0FBFF00A4A0A000808080000000FF0000FF000000FFFF00FF000000FF00FF00FFFF0000FFFFFF00000000FF000000000000000000000000000000000000000000000000000000000000FF00FF00000000000000000000000000000000000000000000000000000000FF000000FF000000000000000000
310
0000000000000000000000000000000000FF0000000000FF0000000000000000000000000000000000000000000000000000FF0000000000FF0000000000000000000000000000000000000000000000000000FF0000000000FF0000000000000000000000000000000000000000000000000000FF0000000000FF00000000
310
00000000000000000000000000000000000000000000FF0000000000FF0000000000000000000000000000000000000000000000000000FF0000000000FF0000000000000000000000000000000000000000000000000000FF0000000000FF0000000000000000000000000000000000000000000000000000FF0000000000
310
FF0000000000000000000000000000000000000000000000000000FF0000000000FF0000000000000000000000000000000000000000000000000000FF0000000000FF0000000000000000000000000000000000000000000000000000FF0000000000FF0000000000000000000000000000000000000000000000000000FF
310
0000000000FF0000000000000000000000000000000000000000000000000000FF0000000000FF0000000000000000000000000000000000000000000000000000FF0000000000FF0000000000000000000000000000000000000000000000000000FF0000000000FF00000000000000000000000000000000000000000000
310
00000000FF0000000000FF0000000000000000000000000000000000000000000000000000FF0000000000FF0000000000000000000000000000000000000000000000000000FF0000000000FF0000000000000000000000000000000000000000000000000000FF0000000000FF0000000000000000000000000000000000
310
000000000000000000FF0000000000FF0000000000000000000000000000000000000000000000000000FF0000000000FF0000000000000000000000000000000000000000000000000000FF0000000000FF0000000000000000000000000000000000000000000000000000FF0000000000FF000000000000000000000000
310
0000000000000000000000000000FF0000000000FF0000000000000000000000000000000000000000000000000000FF0000000000FF0000000000000000000000000000000000000000000000000000FF0000000000FF0000000000000000000000000000000000000000000000000000FF000000FF000000000000000000
310
00000000000000000000000000000000000000FF00FF000000000000000000000000000000000000000000000000000000000000FF000000
102
{BLKREFS
331
211
331
318
331
354
331
429
331
50A
331
5EC
331
6DD
331
847
331
9CD
331
A12
331
BBC
331
CB8
331
F31
331
11A1
331
12E0
102
}
  0
BLOCK_RECORD
  5
24B
330
1
100
AcDbSymbolTableRecord
100
AcDbBlockTableRecord
  2
_Arrivo
340
0
310
2800000020000000200000000100080000000000000400000000000000000000000000000000000000000000000080000080000000808000800000008000800080800000C0C0C000C0DCC000F0CAA6000020400000206000002080000020A0000020C0000020E00000400000004020000040400000406000004080000040A0
310
000040C0000040E00000600000006020000060400000606000006080000060A0000060C0000060E00000800000008020000080400000806000008080000080A0000080C0000080E00000A0000000A0200000A0400000A0600000A0800000A0A00000A0C00000A0E00000C0000000C0200000C0400000C0600000C0800000C0
310
A00000C0C00000C0E00000E0000000E0200000E0400000E0600000E0800000E0A00000E0C00000E0E00040000000400020004000400040006000400080004000A0004000C0004000E00040200000402020004020400040206000402080004020A0004020C0004020E000404000004040200040404000404060004040800040
310
40A0004040C0004040E00040600000406020004060400040606000406080004060A0004060C0004060E00040800000408020004080400040806000408080004080A0004080C0004080E00040A0000040A0200040A0400040A0600040A0800040A0A00040A0C00040A0E00040C0000040C0200040C0400040C0600040C08000
310
40C0A00040C0C00040C0E00040E0000040E0200040E0400040E0600040E0800040E0A00040E0C00040E0E00080000000800020008000400080006000800080008000A0008000C0008000E00080200000802020008020400080206000802080008020A0008020C0008020E00080400000804020008040400080406000804080
310
008040A0008040C0008040E00080600000806020008060400080606000806080008060A0008060C0008060E00080800000808020008080400080806000808080008080A0008080C0008080E00080A0000080A0200080A0400080A0600080A0800080A0A00080A0C00080A0E00080C0000080C0200080C0400080C0600080C0
310
800080C0A00080C0C00080C0E00080E0000080E0200080E0400080E0600080E0800080E0A00080E0C00080E0E000C0000000C0002000C0004000C0006000C0008000C000A000C000C000C000E000C0200000C0202000C0204000C0206000C0208000C020A000C020C000C020E000C0400000C0402000C0404000C0406000C0
310
408000C040A000C040C000C040E000C0600000C0602000C0604000C0606000C0608000C060A000C060C000C060E000C0800000C0802000C0804000C0806000C0808000C080A000C080C000C080E000C0A00000C0A02000C0A04000C0A06000C0A08000C0A0A000C0A0C000C0A0E000C0C00000C0C02000C0C04000C0C06000
310
C0C08000C0C0A000F0FBFF00A4A0A000808080000000FF0000FF000000FFFF00FF000000FF00FF00FFFF0000FFFFFF00000000000000000000000000000000000000000000000000000000000000000000000000000000000000FF0000000000000000000000000000000000000000000000000000000000000000FF000000
310
00000000000000000000000000000000000000000000000000000000FF0000000000000000000000000000000000000000000000000000000000000000FF00000000000000000000000000000000000000000000000000000000000000FF0000000000000000000000000000000000000000000000000000000000000000FF
310
0000000000000000000000000000000000000000000000000000000000000000FF00000000000000000000000000000000000000000000000000000000000000FF0000000000000000000000000000000000000000000000000000000000000000FF0000000000000000000000000000000000000000000000000000000000
310
0000FF0000000000000000000000000000000000000000000000000000000000000000FF00000000000000000000000000000000000000000000000000000000000000FF0000000000000000000000000000000000000000000000000000000000000000FF0000FF0000000000000000000000000000000000000000000000
310
000000000000FFFF000000000000000000000000000000000000000000000000000000000000FFFF00000000000000000000000000000000000000000000000000000000FFFFFFFFFFFF00000000000000000000000000000000000000000000000000000000FFFF0000000000000000000000000000000000000000000000
310
000000000000FF0000FF000000000000000000000000000000000000000000000000000000FF00000000000000000000000000000000000000000000000000000000000000FF000000000000000000000000000000000000000000000000000000000000FF0000000000000000000000000000000000000000000000000000
310
0000000000FF000000000000000000000000000000000000000000000000000000000000FF00000000000000000000000000000000000000000000000000000000000000FF000000000000000000000000000000000000000000000000000000000000FF000000000000000000000000000000000000000000000000000000
310
000000FF00000000000000000000000000000000000000000000000000000000000000FF000000000000000000000000000000000000000000000000000000000000FF00000000000000000000000000000000000000000000000000000000000000FF00000000000000000000000000000000000000000000000000000000
310
0000FF0000000000000000000000000000000000000000000000000000000000000000000000000000000000000000000000000000000000
  0
BLOCK_RECORD
  5
251
330
1
100
AcDbSymbolTableRecord
100
AcDbBlockTableRecord
  2
_Partenza
340
0
310
2800000020000000200000000100080000000000000400000000000000000000000000000000000000000000000080000080000000808000800000008000800080800000C0C0C000C0DCC000F0CAA6000020400000206000002080000020A0000020C0000020E00000400000004020000040400000406000004080000040A0
310
000040C0000040E00000600000006020000060400000606000006080000060A0000060C0000060E00000800000008020000080400000806000008080000080A0000080C0000080E00000A0000000A0200000A0400000A0600000A0800000A0A00000A0C00000A0E00000C0000000C0200000C0400000C0600000C0800000C0
310
A00000C0C00000C0E00000E0000000E0200000E0400000E0600000E0800000E0A00000E0C00000E0E00040000000400020004000400040006000400080004000A0004000C0004000E00040200000402020004020400040206000402080004020A0004020C0004020E000404000004040200040404000404060004040800040
310
40A0004040C0004040E00040600000406020004060400040606000406080004060A0004060C0004060E00040800000408020004080400040806000408080004080A0004080C0004080E00040A0000040A0200040A0400040A0600040A0800040A0A00040A0C00040A0E00040C0000040C0200040C0400040C0600040C08000
310
40C0A00040C0C00040C0E00040E0000040E0200040E0400040E0600040E0800040E0A00040E0C00040E0E00080000000800020008000400080006000800080008000A0008000C0008000E00080200000802020008020400080206000802080008020A0008020C0008020E00080400000804020008040400080406000804080
310
008040A0008040C0008040E00080600000806020008060400080606000806080008060A0008060C0008060E00080800000808020008080400080806000808080008080A0008080C0008080E00080A0000080A0200080A0400080A0600080A0800080A0A00080A0C00080A0E00080C0000080C0200080C0400080C0600080C0
310
800080C0A00080C0C00080C0E00080E0000080E0200080E0400080E0600080E0800080E0A00080E0C00080E0E000C0000000C0002000C0004000C0006000C0008000C000A000C000C000C000E000C0200000C0202000C0204000C0206000C0208000C020A000C020C000C020E000C0400000C0402000C0404000C0406000C0
310
408000C040A000C040C000C040E000C0600000C0602000C0604000C0606000C0608000C060A000C060C000C060E000C0800000C0802000C0804000C0806000C0808000C080A000C080C000C080E000C0A00000C0A02000C0A04000C0A06000C0A08000C0A0A000C0A0C000C0A0E000C0C00000C0C02000C0C04000C0C06000
310
C0C08000C0C0A000F0FBFF00A4A0A000808080000000FF0000FF000000FFFF00FF000000FF00FF00FFFF0000FFFFFF0000000000000000000000000000000000000000000000000000000000000000000000000000000000000000000000000000000000000000000000000000000000000000000000000000000000000000
310
000000000000000000000000000000000000000000000000000000000000000000000000000000000000000000000000000000000000000000000000000000000000000000000000000000000000000000000000000000000000000000000000000000000000000000000000000000000000FFFFFFFFFFFFFFFFFFFFFFFFFF
310
FFFFFFFFFFFFFFFFFFFFFFFFFFFFFFFFFF0000000000000000000000000000000000000000000000000000000000000000000000000000000000000000000000000000000000000000000000000000000000000000000000000000000000000000000000000000000000000000000000000000000000000000000000000000
310
00000000000000000000000000000000000000000000000000000000000000000000000000000000000000000000000000000000000000000000000000000000000000000000000000000000000000000000000000000000000000000000000000000000000000000000000000000000000000000000000000000000000000
310
00000000000000000000000000000000000000000000000000000000000000000000000000000000000000000000000000000000000000000000000000000000000000000000000000000000000000000000000000000000000000000000000000000000000000000000000000000000000000000000000000000000000000
310
00000000000000000000000000000000000000000000000000000000000000000000000000000000000000000000000000000000000000000000000000000000000000000000000000000000000000000000000000000000000000000000000000000000000000000000000000000000000000000000000000000000000000
310
000000000000000000000000000000000000000000000000000000000000000000000000000000000000000000000000000000000000000000000000000000000000000000000000000000000000000000000000000000FFFFFFFFFFFFFFFFFFFFFFFFFFFFFFFFFFFFFFFFFFFFFFFFFFFFFFFFFFFF00000000000000000000
310
00000000000000000000000000000000000000000000000000000000000000000000000000000000000000000000000000000000000000000000000000000000000000000000000000000000000000000000000000000000000000000000000000000000000000000000000000000000000000000000000000000000000000
310
0000000000000000000000000000000000000000000000000000000000000000000000000000000000000000000000000000000000000000
  0
BLOCK_RECORD
  5
6C3
330
1
100
AcDbSymbolTableRecord
100
AcDbBlockTableRecord
  2
*D10
340
0
  0
BLOCK_RECORD
  5
82D
330
1
100
AcDbSymbolTableRecord
100
AcDbBlockTableRecord
  2
*D12
340
0
  0
BLOCK_RECORD
  5
9B3
330
1
100
AcDbSymbolTableRecord
100
AcDbBlockTableRecord
  2
*D15
340
0
  0
BLOCK_RECORD
  5
9F8
330
1
100
AcDbSymbolTableRecord
100
AcDbBlockTableRecord
  2
*D17
340
0
  0
BLOCK_RECORD
  5
BA2
330
1
100
AcDbSymbolTableRecord
100
AcDbBlockTableRecord
  2
*D19
340
0
  0
BLOCK_RECORD
  5
C9E
330
1
100
AcDbSymbolTableRecord
100
AcDbBlockTableRecord
  2
*D21
340
0
  0
BLOCK_RECORD
  5
F17
330
1
100
AcDbSymbolTableRecord
100
AcDbBlockTableRecord
  2
*D23
340
0
  0
BLOCK_RECORD
  5
1187
330
1
100
AcDbSymbolTableRecord
100
AcDbBlockTableRecord
  2
*D25
340
0
  0
BLOCK_RECORD
  5
12C6
330
1
100
AcDbSymbolTableRecord
100
AcDbBlockTableRecord
  2
*D27
340
0
  0
ENDTAB
  0
ENDSEC
  0
SECTION
  2
BLOCKS
  0
BLOCK
  5
5
330
2
100
AcDbEntity
  8
0
100
AcDbBlockBegin
  2
*Model_Space
 70
     0
 10
0.0
 20
0.0
 30
0.0
  3
*Model_Space
  1

  0
ENDBLK
  5
162
330
2
100
AcDbEntity
  8
0
100
AcDbBlockEnd
  0
BLOCK
  5
166
330
165
100
AcDbEntity
 67
     1
  8
0
100
AcDbBlockBegin
  2
*Paper_Space
 70
     0
 10
0.0
 20
0.0
 30
0.0
  3
*Paper_Space
  1

  0
ENDBLK
  5
167
330
165
100
AcDbEntity
 67
     1
  8
0
100
AcDbBlockEnd
  0
BLOCK
  5
16A
330
169
100
AcDbEntity
 67
     1
  8
0
100
AcDbBlockBegin
  2
*Paper_Space0
 70
     0
 10
0.0
 20
0.0
 30
0.0
  3
*Paper_Space0
  1

  0
ENDBLK
  5
16B
330
169
100
AcDbEntity
 67
     1
  8
0
100
AcDbBlockEnd
  0
BLOCK
  5
153
330
152
100
AcDbEntity
  8
0
 62
     1
100
AcDbBlockBegin
  2
_ArchTick
 70
     0
 10
0.0
 20
0.0
 30
0.0
  3
_ArchTick
  1

  0
LWPOLYLINE
  5
154
330
152
100
AcDbEntity
  8
0
  6
ByBlock
 62
     0
100
AcDbPolyline
 90
        2
 70
     0
 43
0.15
 10
-0.5
 20
-0.5
 10
0.5
 20
0.5
  0
ENDBLK
  5
155
330
152
100
AcDbEntity
  8
0
 62
     1
100
AcDbBlockEnd
  0
BLOCK
  5
24C
330
24B
100
AcDbEntity
  8
0
100
AcDbBlockBegin
  2
_Arrivo
 70
     0
 10
0.0
 20
0.0
 30
0.0
  3
_Arrivo
  1

  0
LINE
  5
24D
330
24B
100
AcDbEntity
  8
0
  6
ByBlock
 62
     0
370
    -2
100
AcDbLine
 10
0.025
 20
-0.0433012701891858
 30
0.0
 11
-0.15
 21
0.2598076211353328
 31
0.0
  0
LINE
  5
24E
330
24B
100
AcDbEntity
  8
0
  6
ByBlock
 62
     0
370
    -2
100
AcDbLine
 10
0.025
 20
0.0433012701892585
 30
0.0
 11
-0.15
 21
-0.2598076211353328
 31
0.0
  0
LINE
  5
24F
330
24B
100
AcDbEntity
  8
0
  6
ByBlock
 62
     0
370
    -2
100
AcDbLine
 10
-0.05
 20
0.0
 30
0.0
 11
0.05
 21
0.0
 31
0.0
  0
ENDBLK
  5
250
330
24B
100
AcDbEntity
  8
0
100
AcDbBlockEnd
  0
BLOCK
  5
252
330
251
100
AcDbEntity
  8
0
100
AcDbBlockBegin
  2
_Partenza
 70
     0
 10
0.0
 20
0.0
 30
0.0
  3
_Partenza
  1

  0
LINE
  5
253
330
251
100
AcDbEntity
  8
0
  6
ByBlock
 62
     0
370
    -2
100
AcDbLine
 10
-0.05
 20
0.05
 30
0.0
 11
0.1
 21
0.05
 31
0.0
  0
LINE
  5
254
330
251
100
AcDbEntity
  8
0
  6
ByBlock
 62
     0
370
    -2
100
AcDbLine
 10
-0.05
 20
-0.05
 30
0.0
 11
0.1
 21
-0.05
 31
0.0
  0
ENDBLK
  5
255
330
251
100
AcDbEntity
  8
0
100
AcDbBlockEnd
  0
BLOCK
  5
6CA
330
6C3
100
AcDbEntity
  8
0
100
AcDbBlockBegin
  2
*D10
 70
     1
 10
0.0
 20
0.0
 30
0.0
  3
*D10
  1

  0
LINE
  5
6DA
330
6C3
100
AcDbEntity
  8
Sezione
  6
ACAD_ISO10W100
 62
     5
370
    -2
100
AcDbLine
 10
0.2580272919594555
 20
0.2091457005418985
 30
0.0
 11
0.2565272919594555
 21
0.2091457005418986
 31
0.0
  0
LINE
  5
6DB
330
6C3
100
AcDbEntity
  8
Sezione
  6
ACAD_ISO10W100
 62
     5
370
    -2
100
AcDbLine
 10
0.2565272919594555
 20
0.2091457005418986
 30
0.0
 11
0.2544161538279562
 21
0.2070142466273769
 31
0.0
  0
MTEXT
  5
6DC
330
6C3
100
AcDbEntity
  8
Sezione
  6
ACAD_ISO10W100
 62
     4
100
AcDbMText
 10
0.2724558633880269
 20
0.2091457005418985
 30
0.0
 40
0.003
 41
0.0
 71
     5
 72
     1
  1
\A1;d 250 mm
  7
ROMANS
 73
     1
 44
1.0
1001
ACAD
1000
MTEXTBEGIN
1070
    73
1070
     1
1070
    44
1040
1.0
1070
    74
1070
     0
1000
MTEXTEND
  0
INSERT
  5
6DD
330
6C3
100
AcDbEntity
  8
Sezione
  6
ACAD_ISO10W100
 62
     5
370
    -2
100
AcDbBlockReference
  2
_ArchTick
 10
0.2544161538279562
 20
0.2070142466273769
 30
0.0
 41
0.0015
 42
0.0015
 43
0.0015
 50
225.2743605124572
  0
POINT
  5
6DE
330
6C3
100
AcDbEntity
  8
Defpoints
  6
ACAD_ISO10W100
 62
     0
100
AcDbPoint
 10
0.2544161538279562
 20
0.2070142466273769
 30
0.0
  0
POINT
  5
6DF
330
6C3
100
AcDbEntity
  8
Defpoints
  6
ACAD_ISO10W100
 62
     0
100
AcDbPoint
 10
0.1664520650154866
 20
0.1182036668556404
 30
0.0
  0
ENDBLK
  5
6CB
330
6C3
100
AcDbEntity
  8
0
100
AcDbBlockEnd
  0
BLOCK
  5
834
330
82D
100
AcDbEntity
  8
0
100
AcDbBlockBegin
  2
*D12
 70
     1
 10
0.0
 20
0.0
 30
0.0
  3
*D12
  1

  0
LINE
  5
844
330
82D
100
AcDbEntity
  8
Sezione
  6
ACAD_ISO10W100
 62
     5
370
    -2
100
AcDbLine
 10
0.2668759768663114
 20
0.2106523346372896
 30
0.0
 11
0.2653759768663114
 21
0.2106523346372896
 31
0.0
  0
LINE
  5
845
330
82D
100
AcDbEntity
  8
Sezione
  6
ACAD_ISO10W100
 62
     5
370
    -2
100
AcDbLine
 10
0.2653759768663114
 20
0.2106523346372896
 30
0.0
 11
0.2631789214633089
 21
0.2086095552668882
 31
0.0
  0
MTEXT
  5
846
330
82D
100
AcDbEntity
  8
Sezione
  6
ACAD_ISO10W100
 62
     4
100
AcDbMText
 10
0.2813045482948828
 20
0.2106523346372896
 30
0.0
 40
0.003
 41
0.0
 71
     5
 72
     1
  1
\A1;d 290 mm
  7
ROMANS
 73
     1
 44
1.0
1001
ACAD
1000
MTEXTBEGIN
1070
    73
1070
     1
1070
    44
1040
1.0
1070
    74
1070
     0
1000
MTEXTEND
  0
INSERT
  5
847
330
82D
100
AcDbEntity
  8
Sezione
  6
ACAD_ISO10W100
 62
     5
370
    -2
100
AcDbBlockReference
  2
_ArchTick
 10
0.2631789214633089
 20
0.2086095552668882
 30
0.0
 41
0.0015
 42
0.0015
 43
0.0015
 50
222.916082132817
  0
POINT
  5
848
330
82D
100
AcDbEntity
  8
Defpoints
  6
ACAD_ISO10W100
 62
     0
100
AcDbPoint
 10
0.2631789214633089
 20
0.2086095552668882
 30
0.0
  0
POINT
  5
849
330
82D
100
AcDbEntity
  8
Defpoints
  6
ACAD_ISO10W100
 62
     0
100
AcDbPoint
 10
0.1569879103181878
 20
0.1098752190308209
 30
0.0
  0
ENDBLK
  5
835
330
82D
100
AcDbEntity
  8
0
100
AcDbBlockEnd
  0
BLOCK
  5
9BA
330
9B3
100
AcDbEntity
  8
0
100
AcDbBlockBegin
  2
*D15
 70
     1
 10
0.0
 20
0.0
 30
0.0
  3
*D15
  1

  0
LINE
  5
9CA
330
9B3
100
AcDbEntity
  8
Sezione
  6
ACAD_ISO10W100
 62
     5
370
    -2
100
AcDbLine
 10
0.2720801551691272
 20
0.2106523321067409
 30
0.0
 11
0.2705801551691272
 21
0.2106523321067409
 31
0.0
  0
LINE
  5
9CB
330
9B3
100
AcDbEntity
  8
Sezione
  6
ACAD_ISO10W100
 62
     5
370
    -2
100
AcDbLine
 10
0.2705801551691272
 20
0.2106523321067409
 30
0.0
 11
0.268259040554878
 21
0.2087516935436473
 31
0.0
  0
MTEXT
  5
9CC
330
9B3
100
AcDbEntity
  8
Sezione
  6
ACAD_ISO10W100
 62
     4
100
AcDbMText
 10
0.2865087265976987
 20
0.2106523321067409
 30
0.0
 40
0.003
 41
0.0
 71
     5
 72
     1
  1
\A1;d 310 mm
  7
ROMANS
 73
     1
 44
1.0
1001
ACAD
1000
MTEXTBEGIN
1070
    73
1070
     1
1070
    44
1040
1.0
1070
    74
1070
     0
1000
MTEXTEND
  0
INSERT
  5
9CD
330
9B3
100
AcDbEntity
  8
Sezione
  6
ACAD_ISO10W100
 62
     5
370
    -2
100
AcDbBlockReference
  2
_ArchTick
 10
0.268259040554878
 20
0.2087516935436473
 30
0.0
 41
0.0015
 42
0.0015
 43
0.0015
 50
219.3122411371381
  0
POINT
  5
9CE
330
9B3
100
AcDbEntity
  8
Defpoints
  6
ACAD_ISO10W100
 62
     0
100
AcDbPoint
 10
0.268259040554878
 20
0.2087516935436473
 30
0.0
  0
POINT
  5
9CF
330
9B3
100
AcDbEntity
  8
Defpoints
  6
ACAD_ISO10W100
 62
     0
100
AcDbPoint
 10
0.1483347854853323
 20
0.1105520344504785
 30
0.0
  0
ENDBLK
  5
9BB
330
9B3
100
AcDbEntity
  8
0
100
AcDbBlockEnd
  0
BLOCK
  5
9FF
330
9F8
100
AcDbEntity
  8
0
100
AcDbBlockBegin
  2
*D17
 70
     1
 10
0.0
 20
0.0
 30
0.0
  3
*D17
  1

  0
LINE
  5
A0F
330
9F8
100
AcDbEntity
  8
Sezione
  6
ACAD_ISO10W100
 62
     5
370
    -2
100
AcDbLine
 10
0.270541626019994
 20
0.2147084216870797
 30
0.0
 11
0.2690416260199941
 21
0.2147084216870796
 31
0.0
  0
LINE
  5
A10
330
9F8
100
AcDbEntity
  8
Sezione
  6
ACAD_ISO10W100
 62
     5
370
    -2
100
AcDbLine
 10
0.2690416260199941
 20
0.2147084216870796
 30
0.0
 11
0.266907749695741
 21
0.2125997320862155
 31
0.0
  0
MTEXT
  5
A11
330
9F8
100
AcDbEntity
  8
Sezione
  6
ACAD_ISO10W100
 62
     4
100
AcDbMText
 10
0.2849701974485655
 20
0.2147084216870797
 30
0.0
 40
0.003
 41
0.0
 71
     5
 72
     1
  1
\A1;d 320 mm
  7
ROMANS
 73
     1
 44
1.0
1001
ACAD
1000
MTEXTBEGIN
1070
    73
1070
     1
1070
    44
1040
1.0
1070
    74
1070
     0
1000
MTEXTEND
  0
INSERT
  5
A12
330
9F8
100
AcDbEntity
  8
Sezione
  6
ACAD_ISO10W100
 62
     5
370
    -2
100
AcDbBlockReference
  2
_ArchTick
 10
0.266907749695741
 20
0.2125997320862155
 30
0.0
 41
0.0015
 42
0.0015
 43
0.0015
 50
224.6598577317865
  0
POINT
  5
A13
330
9F8
100
AcDbEntity
  8
Defpoints
  6
ACAD_ISO10W100
 62
     0
100
AcDbPoint
 10
0.266907749695741
 20
0.2125997320862155
 30
0.0
  0
POINT
  5
A14
330
9F8
100
AcDbEntity
  8
Defpoints
  6
ACAD_ISO10W100
 62
     0
100
AcDbPoint
 10
0.1531010124022461
 20
0.1001362867067971
 30
0.0
  0
ENDBLK
  5
A00
330
9F8
100
AcDbEntity
  8
0
100
AcDbBlockEnd
  0
BLOCK
  5
BA9
330
BA2
100
AcDbEntity
  8
0
100
AcDbBlockBegin
  2
*D19
 70
     1
 10
0.0
 20
0.0
 30
0.0
  3
*D19
  1

  0
LINE
  5
BB9
330
BA2
100
AcDbEntity
  8
Sezione
  6
ACAD_ISO10W100
 62
     5
370
    -2
100
AcDbLine
 10
0.2721196718501769
 20
0.2115475428616256
 30
0.0
 11
0.2706196718501769
 21
0.2115475428616256
 31
0.0
  0
LINE
  5
BBA
330
BA2
100
AcDbEntity
  8
Sezione
  6
ACAD_ISO10W100
 62
     5
370
    -2
100
AcDbLine
 10
0.2706196718501769
 20
0.2115475428616256
 30
0.0
 11
0.26845501015967
 21
0.2094704680517903
 31
0.0
  0
MTEXT
  5
BBB
330
BA2
100
AcDbEntity
  8
Sezione
  6
ACAD_ISO10W100
 62
     4
100
AcDbMText
 10
0.2865482432787483
 20
0.2115475428616256
 30
0.0
 40
0.003
 41
0.0
 71
     5
 72
     1
  1
\A1;d 330 mm
  7
ROMANS
 73
     1
 44
1.0
1001
ACAD
1000
MTEXTBEGIN
1070
    73
1070
     1
1070
    44
1040
1.0
1070
    74
1070
     0
1000
MTEXTEND
  0
INSERT
  5
BBC
330
BA2
100
AcDbEntity
  8
Sezione
  6
ACAD_ISO10W100
 62
     5
370
    -2
100
AcDbBlockReference
  2
_ArchTick
 10
0.26845501015967
 20
0.2094704680517903
 30
0.0
 41
0.0015
 42
0.0015
 43
0.0015
 50
223.817077498188
  0
POINT
  5
BBD
330
BA2
100
AcDbEntity
  8
Defpoints
  6
ACAD_ISO10W100
 62
     0
100
AcDbPoint
 10
0.26845501015967
 20
0.2094704680517903
 30
0.0
  0
POINT
  5
BBE
330
BA2
100
AcDbEntity
  8
Defpoints
  6
ACAD_ISO10W100
 62
     0
100
AcDbPoint
 10
0.1493986171817919
 20
0.0952313535108543
 30
0.0
  0
ENDBLK
  5
BAA
330
BA2
100
AcDbEntity
  8
0
100
AcDbBlockEnd
  0
BLOCK
  5
CA5
330
C9E
100
AcDbEntity
  8
0
100
AcDbBlockBegin
  2
*D21
 70
     1
 10
0.0
 20
0.0
 30
0.0
  3
*D21
  1

  0
LINE
  5
CB5
330
C9E
100
AcDbEntity
  8
Sezione
  6
ACAD_ISO10W100
 62
     5
370
    -2
100
AcDbLine
 10
0.2517131923565132
 20
0.1920875998421381
 30
0.0
 11
0.2502131923565132
 21
0.1920875998421381
 31
0.0
  0
LINE
  5
CB6
330
C9E
100
AcDbEntity
  8
Sezione
  6
ACAD_ISO10W100
 62
     5
370
    -2
100
AcDbLine
 10
0.2502131923565132
 20
0.1920875998421381
 30
0.0
 11
0.2477847082184422
 21
0.1903262183414014
 31
0.0
  0
MTEXT
  5
CB7
330
C9E
100
AcDbEntity
  8
Sezione
  6
ACAD_ISO10W100
 62
     4
100
AcDbMText
 10
0.2661417637850846
 20
0.1920875998421381
 30
0.0
 40
0.003
 41
0.0
 71
     5
 72
     1
  1
\A1;d 380 mm
  7
ROMANS
 73
     1
 44
1.0
1001
ACAD
1000
MTEXTBEGIN
1070
    73
1070
     1
1070
    44
1040
1.0
1070
    74
1070
     0
1000
MTEXTEND
  0
INSERT
  5
CB8
330
C9E
100
AcDbEntity
  8
Sezione
  6
ACAD_ISO10W100
 62
     5
370
    -2
100
AcDbBlockReference
  2
_ArchTick
 10
0.2477847082184422
 20
0.1903262183414014
 30
0.0
 41
0.0015
 42
0.0015
 43
0.0015
 50
215.9534071794428
  0
POINT
  5
CB9
330
C9E
100
AcDbEntity
  8
Defpoints
  6
ACAD_ISO10W100
 62
     0
100
AcDbPoint
 10
0.2477847082184422
 20
0.1903262183414014
 30
0.0
  0
POINT
  5
CBA
330
C9E
100
AcDbEntity
  8
Defpoints
  6
ACAD_ISO10W100
 62
     0
100
AcDbPoint
 10
0.1708827105128607
 20
0.1345491374847382
 30
0.0
  0
ENDBLK
  5
CA6
330
C9E
100
AcDbEntity
  8
0
100
AcDbBlockEnd
  0
BLOCK
  5
F1E
330
F17
100
AcDbEntity
  8
0
100
AcDbBlockBegin
  2
*D23
 70
     1
 10
0.0
 20
0.0
 30
0.0
  3
*D23
  1

  0
LINE
  5
F2E
330
F17
100
AcDbEntity
  8
Sezione
  6
ACAD_ISO10W100
 62
     5
370
    -2
100
AcDbLine
 10
0.2503579376781857
 20
0.1980055183402467
 30
0.0
 11
0.2488579376781857
 21
0.1980055183402467
 31
0.0
  0
LINE
  5
F2F
330
F17
100
AcDbEntity
  8
Sezione
  6
ACAD_ISO10W100
 62
     5
370
    -2
100
AcDbLine
 10
0.2488579376781857
 20
0.1980055183402467
 30
0.0
 11
0.2466795059210188
 21
0.1959428901431722
 31
0.0
  0
MTEXT
  5
F30
330
F17
100
AcDbEntity
  8
Sezione
  6
ACAD_ISO10W100
 62
     4
100
AcDbMText
 10
0.2647865091067571
 20
0.1980055183402467
 30
0.0
 40
0.003
 41
0.0
 71
     5
 72
     1
  1
\A1;d 400 mm
  7
ROMANS
 73
     1
 44
1.0
1001
ACAD
1000
MTEXTBEGIN
1070
    73
1070
     1
1070
    44
1040
1.0
1070
    74
1070
     0
1000
MTEXTEND
  0
INSERT
  5
F31
330
F17
100
AcDbEntity
  8
Sezione
  6
ACAD_ISO10W100
 62
     5
370
    -2
100
AcDbBlockReference
  2
_ArchTick
 10
0.2466795059210188
 20
0.1959428901431722
 30
0.0
 41
0.0015
 42
0.0015
 43
0.0015
 50
223.4359082248928
  0
POINT
  5
F32
330
F17
100
AcDbEntity
  8
Defpoints
  6
ACAD_ISO10W100
 62
     0
100
AcDbPoint
 10
0.2466795059210188
 20
0.1959428901431722
 30
0.0
  0
POINT
  5
F33
330
F17
100
AcDbEntity
  8
Defpoints
  6
ACAD_ISO10W100
 62
     0
100
AcDbPoint
 10
0.1740651140154545
 20
0.127188616907357
 30
0.0
  0
ENDBLK
  5
F1F
330
F17
100
AcDbEntity
  8
0
100
AcDbBlockEnd
  0
BLOCK
  5
118E
330
1187
100
AcDbEntity
  8
0
100
AcDbBlockBegin
  2
*D25
 70
     1
 10
0.0
 20
0.0
 30
0.0
  3
*D25
  1

  0
LINE
  5
119E
330
1187
100
AcDbEntity
  8
Sezione
  6
ACAD_ISO10W100
 62
     5
370
    -2
100
AcDbLine
 10
0.2487233430377668
 20
0.2056018570955785
 30
0.0
 11
0.2472233430377668
 21
0.2056018570955785
 31
0.0
  0
LINE
  5
119F
330
1187
100
AcDbEntity
  8
Sezione
  6
ACAD_ISO10W100
 62
     5
370
    -2
100
AcDbLine
 10
0.2472233430377668
 20
0.2056018570955785
 30
0.0
 11
0.2451694762350893
 21
0.203415162979599
 31
0.0
  0
MTEXT
  5
11A0
330
1187
100
AcDbEntity
  8
Sezione
  6
ACAD_ISO10W100
 62
     4
100
AcDbMText
 10
0.2631519144663382
 20
0.2056018570955785
 30
0.0
 40
0.003
 41
0.0
 71
     5
 72
     1
  1
\A1;d 410 mm
  7
ROMANS
 73
     1
 44
1.0
1001
ACAD
1000
MTEXTBEGIN
1070
    73
1070
     1
1070
    44
1040
1.0
1070
    74
1070
     0
1000
MTEXTEND
  0
INSERT
  5
11A1
330
1187
100
AcDbEntity
  8
Sezione
  6
ACAD_ISO10W100
 62
     5
370
    -2
100
AcDbBlockReference
  2
_ArchTick
 10
0.2451694762350893
 20
0.203415162979599
 30
0.0
 41
0.0015
 42
0.0015
 43
0.0015
 50
226.7940921288566
  0
POINT
  5
11A2
330
1187
100
AcDbEntity
  8
Defpoints
  6
ACAD_ISO10W100
 62
     0
100
AcDbPoint
 10
0.2451694762350893
 20
0.203415162979599
 30
0.0
  0
POINT
  5
11A3
330
1187
100
AcDbEntity
  8
Defpoints
  6
ACAD_ISO10W100
 62
     0
100
AcDbPoint
 10
0.1750322086303928
 20
0.1287419903171205
 30
0.0
  0
ENDBLK
  5
118F
330
1187
100
AcDbEntity
  8
0
100
AcDbBlockEnd
  0
BLOCK
  5
12CD
330
12C6
100
AcDbEntity
  8
0
100
AcDbBlockBegin
  2
*D27
 70
     1
 10
0.0
 20
0.0
 30
0.0
  3
*D27
  1

  0
LINE
  5
12DD
330
12C6
100
AcDbEntity
  8
Sezione
  6
ACAD_ISO10W100
 62
     5
370
    -2
100
AcDbLine
 10
0.2519997129554445
 20
0.1994291125252039
 30
0.0
 11
0.2504997129554445
 21
0.199429112525204
 31
0.0
  0
LINE
  5
12DE
330
12C6
100
AcDbEntity
  8
Sezione
  6
ACAD_ISO10W100
 62
     5
370
    -2
100
AcDbLine
 10
0.2504997129554445
 20
0.199429112525204
 30
0.0
 11
0.2483895355443742
 21
0.1972967074760145
 31
0.0
  0
MTEXT
  5
12DF
330
12C6
100
AcDbEntity
  8
Sezione
  6
ACAD_ISO10W100
 62
     4
100
AcDbMText
 10
0.2664282843840159
 20
0.1994291125252039
 30
0.0
 40
0.003
 41
0.0
 71
     5
 72
     1
  1
\A1;d 420 mm
  7
ROMANS
 73
     1
 44
1.0
1001
ACAD
1000
MTEXTBEGIN
1070
    73
1070
     1
1070
    44
1040
1.0
1070
    74
1070
     0
1000
MTEXTEND
  0
INSERT
  5
12E0
330
12C6
100
AcDbEntity
  8
Sezione
  6
ACAD_ISO10W100
 62
     5
370
    -2
100
AcDbBlockReference
  2
_ArchTick
 10
0.2483895355443742
 20
0.1972967074760145
 30
0.0
 41
0.0015
 42
0.0015
 43
0.0015
 50
225.30017995227
  0
POINT
  5
12E1
330
12C6
100
AcDbEntity
  8
Defpoints
  6
ACAD_ISO10W100
 62
     0
100
AcDbPoint
 10
0.2483895355443742
 20
0.1972967074760145
 30
0.0
  0
POINT
  5
12E2
330
12C6
100
AcDbEntity
  8
Defpoints
  6
ACAD_ISO10W100
 62
     0
100
AcDbPoint
 10
0.1745333261569147
 20
0.1226625307543829
 30
0.0
  0
ENDBLK
  5
12CE
330
12C6
100
AcDbEntity
  8
0
100
AcDbBlockEnd
  0
ENDSEC
  0
SECTION
  2
ENTITIES
  0
LINE
  5
D
330
2
100
AcDbEntity
  8
Table
100
AcDbLine
 10
0.02
 20
0.02
 30
0.0
 11
0.4
 21
0.02
 31
0.0
  0
LINE
  5
10
330
2
100
AcDbEntity
  8
Table
100
AcDbLine
 10
0.4
 20
0.02
 30
0.0
 11
0.4
 21
0.2769999999999999
 31
0.0
  0
LINE
  5
11
330
2
100
AcDbEntity
  8
Table
100
AcDbLine
 10
0.4
 20
0.2769999999999999
 30
0.0
 11
0.02
 21
0.277
 31
0.0
  0
LINE
  5
12
330
2
100
AcDbEntity
  8
Table
100
AcDbLine
 10
0.02
 20
0.277
 30
0.0
 11
0.02
 21
0.02
 31
0.0
  0
LINE
  5
13
330
2
100
AcDbEntity
  8
Table
 62
     2
100
AcDbLine
 10
0.015
 20
0.015
 30
0.0
 11
0.4050000000000001
 21
0.015
 31
0.0
  0
LINE
  5
14
330
2
100
AcDbEntity
  8
Table
 62
     2
100
AcDbLine
 10
0.4050000000000001
 20
0.015
 30
0.0
 11
0.4050000000000001
 21
0.2819999999999998
 31
0.0
  0
LINE
  5
15
330
2
100
AcDbEntity
  8
Table
 62
     2
100
AcDbLine
 10
0.4050000000000001
 20
0.2819999999999998
 30
0.0
 11
0.0149999999999999
 21
0.282
 31
0.0
  0
LINE
  5
16
330
2
100
AcDbEntity
  8
Table
 62
     2
100
AcDbLine
 10
0.0149999999999999
 20
0.282
 30
0.0
 11
0.015
 21
0.015
 31
0.0
  0
LINE
  5
17
330
2
100
AcDbEntity
  8
Table
100
AcDbLine
 10
0.21
 20
0.2769999999999999
 30
0.0
 11
0.21
 21
0.2532994226089223
 31
0.0
  0
MTEXT
  5
18
102
{ACAD_XDICTIONARY
360
12E7
102
}
330
2
100
AcDbEntity
  8
Text
100
AcDbMText
 10
0.305
 20
0.0471738284815141
 30
0.0
 40
0.005
 41
0.1900000000000001
 71
     2
 72
     5
  3
{\fTimes New Roman|b0|i0|c238|p18;\H1.6x;\C4;Bovelacci\P\H0.4375x;\T0.95;via del Commercio, 5  47100 Forli - Italy  \fTimes New Roman|b0|i0|c0|p18;\P\fTimes New Roman|b0|i0|c238|p18;tel.+39-0543721386  fax +39-0543721127\fTimes New Roman|b0|i0|c0|p18
  1
; \fTimes New Roman|b0|i0|c238|p18;www.bovelacci.it\fTimes New Roman|b0|i0|c0|p18; \fTimes New Roman|b0|i0|c238|p18;e-mail: bovelacci@bovelacci\fTimes New Roman|b0|i0|c0|p18;.it}
 73
     1
 44
1.0
1001
ACAD
1000
ACAD_MTEXT_DEFINED_HEIGHT_BEGIN
1070
    46
1040
0.0271738284815141
1000
ACAD_MTEXT_DEFINED_HEIGHT_END
1000
MTEXTBEGIN
1070
    73
1070
     1
1070
    44
1040
1.0
1070
    74
1070
     0
1000
MTEXTEND
  0
MTEXT
  5
1C
330
2
100
AcDbEntity
  8
Text
100
AcDbMText
 10
0.0219676065851835
 20
0.0500313976452307
 30
0.0
 40
0.002
 41
0.1863544980601608
 71
     1
 72
     5
  3
{\fArial|b0|i0|c0|p34;\H1.25x;Le caratteristiche tecniche indicate vengono fornite a titolo indicativo e potranno essere modificate senza preavviso. Non devono quindi essere considerate a scopo di specifica.\P\fArial|b0|i1|c0|p34;The given values are
  3
 indicative and can be changed without notice. They cannot be considered like a state.\PThis lealfet and designs embodied within are protected by copyright law and international treaties. Unauthorized repro- duction of the leaflet or any portion of i
  1
t or reproduction of any of the designs embodied therein may result in severe civil penalties and will be prosecuted to the maximum.\PAll right reserved, Bovelacci Forlì Italy.}
 73
     1
 44
1.0
1001
ACAD
1000
MTEXTBEGIN
1070
    73
1070
     1
1070
    44
1040
1.0
1070
    74
1070
     0
1000
MTEXTEND
  0
LINE
  5
1D
330
2
100
AcDbEntity
  8
Table
100
AcDbLine
 10
0.02
 20
0.0528099428524846
 30
0.0
 11
0.4
 21
0.0528099428524846
 31
0.0
  0
MTEXT
  5
1E
330
2
100
AcDbEntity
  8
Text
100
AcDbMText
 10
0.1133313047219695
 20
0.2610796890771976
 30
0.0
 40
0.003
 41
0.1103605678262056
 71
     2
 72
     5
  1
{\fTimes New Roman|b0|i0|c0|p18;Rosoni\fTimes New Roman|b0|i1|c0|p18;   Ceiling centres}
 73
     1
 44
1.0
1001
ACAD
1000
ACAD_MTEXT_DEFINED_HEIGHT_BEGIN
1070
    46
1040
0.0141952763113409
1000
ACAD_MTEXT_DEFINED_HEIGHT_END
1000
MTEXTBEGIN
1070
    73
1070
     1
1070
    44
1040
1.0
1070
    74
1070
     0
1000
MTEXTEND
  0
TEXT
  5
1F
330
2
100
AcDbEntity
  8
Text
100
AcDbText
 10
0.2180556919891047
 20
0.269976982173197
 30
0.0
 40
0.003
  1
Rosone - Ceiling centre : D 420 mm
  7
ROMANS
100
AcDbText
  0
TEXT
  5
21
330
2
100
AcDbEntity
  8
Text
100
AcDbText
 10
0.2184542410678115
 20
0.2576348370183962
 30
0.0
 40
0.003
  1
File : E - R42
  7
ROMANS
100
AcDbText
  0
LINE
  5
22
330
2
100
AcDbEntity
  8
Table
100
AcDbLine
 10
0.4
 20
0.2654452889427402
 30
0.0
 11
0.02
 21
0.2654452889427403
 31
0.0
  0
LINE
  5
23
330
2
100
AcDbEntity
  8
Table
100
AcDbLine
 10
0.4
 20
0.2532994226089223
 30
0.0
 11
0.02
 21
0.2532994226089225
 31
0.0
  0
LINE
  5
24
330
2
100
AcDbEntity
  8
Table
100
AcDbLine
 10
0.21
 20
0.0528099428524846
 30
0.0
 11
0.21
 21
0.02
 31
0.0
  0
TEXT
  5
25
330
2
100
AcDbEntity
  8
Text
100
AcDbText
 10
0.0947789320547719
 20
0.2687784133392506
 30
0.0
 40
0.005
  1
EUROSTYL
  7
style1
 72
     1
 11
0.1140561490699125
 21
0.2687784133392506
 31
0.0
100
AcDbText
  0
TEXT
  5
23F
330
2
100
AcDbEntity
  8
Text
  6
ACAD_ISO10W100
100
AcDbText
 10
0.2693054777903039
 20
0.0953837817154628
 30
0.0
 40
0.005
  1
scala 1 : 4
  7
style1
100
AcDbText
  0
CIRCLE
  5
123E
330
2
100
AcDbEntity
  8
Profilo
  6
Continuous
370
     0
100
AcDbCircle
 10
0.2114614308506444
 20
0.1599796191151986
 30
0.0
 40
0.0475883752673603
  0
CIRCLE
  5
123F
330
2
100
AcDbEntity
  8
Profilo
  6
Continuous
370
     0
100
AcDbCircle
 10
0.2114614308506444
 20
0.1599796191151986
 30
0.0
 40
0.0440553841295392
  0
CIRCLE
  5
1240
102
{ACAD_REACTORS
330
12D6
102
}
330
2
100
AcDbEntity
  8
Profilo
  6
Continuous
370
     0
100
AcDbCircle
 10
0.2114614308506444
 20
0.1599796191151986
 30
0.0
 40
0.0525
  0
CIRCLE
  5
1241
330
2
100
AcDbEntity
  8
Profilo
  6
Continuous
370
     0
100
AcDbCircle
 10
0.2114614308506444
 20
0.1599796191151986
 30
0.0
 40
0.0035656878142789
  0
LWPOLYLINE
  5
1242
330
2
100
AcDbEntity
  8
Profilo
  6
Continuous
370
     0
100
AcDbPolyline
 90
        9
 70
   128
 43
0.0
 10
0.203344222950308
 20
0.2068958919327764
 10
0.2030830433429105
 20
0.2088972965185932
 10
0.2029959834737771
 20
0.2100720337578635
 10
0.2040406990554833
 20
0.2102895778912584
 10
0.2049112920510381
 20
0.2104201054523585
 10
0.2063477741959541
 20
0.2105071220246534
 10
0.2065654210208998
 20
0.2095064197317447
 10
0.2067395407591648
 20
0.2078530850386514
 10
0.206783070693731
 20
0.2074179985736332
  0
LWPOLYLINE
  5
1243
330
2
100
AcDbEntity
  8
Profilo
  6
Continuous
370
     0
100
AcDbPolyline
 90
        9
 70
   128
 43
0.0
 10
0.1971633216726088
 20
0.2053953630056561
 10
0.1966377113196374
 20
0.2073440982006734
 10
0.1963948510932307
 20
0.208496749888119
 10
0.1974012493925845
 20
0.2088515999405241
 10
0.1982466768906126
 20
0.2090970015576611
 10
0.1996587438325874
 20
0.2093747060551037
 10
0.2000078292630163
 20
0.2084119420229014
 10
0.2004007633633109
 20
0.2067965671179746
 10
0.2005018962517666
 20
0.2063711646895402
  0
LWPOLYLINE
  5
1244
330
2
100
AcDbEntity
  8
Profilo
  6
Continuous
370
     0
100
AcDbPolyline
 90
        9
 70
   128
 43
0.0
 10
0.1912375704919191
 20
0.2030843890528918
 10
0.1904569089225752
 20
0.2049456796313876
 10
0.1900625821853894
 20
0.2060556766703399
 10
0.1910127040008969
 20
0.2065415003341632
 10
0.1918178793276675
 20
0.2068973968096658
 10
0.1931803326986681
 20
0.2073608335889206
 10
0.1936546272968056
 20
0.2064531883643866
 10
0.1942593638408003
 20
0.2049045996510746
 10
0.194416294964356
 20
0.2044964725756372
  0
LWPOLYLINE
  5
1245
330
2
100
AcDbEntity
  8
Profilo
  6
Continuous
370
     0
100
AcDbPolyline
 90
        9
 70
   128
 43
0.0
 10
0.1856727145784443
 20
0.2000042094594182
 10
0.184650932716925
 20
0.2017448406469247
 10
0.1841121762389277
 20
0.2027923751139268
 10
0.1849890666242824
 20
0.203400502854378
 10
0.1857396214070142
 20
0.2038605432072101
 10
0.1870281481943583
 20
0.2045014422279717
 10
0.1876191881618632
 20
0.203665112761641
 10
0.1884249356116041
 20
0.2022109448422188
 10
0.1886348645306417
 20
0.2018273761571089
  0
LWPOLYLINE
  5
1246
330
2
100
AcDbEntity
  8
Profilo
  6
Continuous
370
     0
100
AcDbPolyline
 90
        9
 70
   128
 43
0.0
 10
0.180568058917792
 20
0.1962097901030521
 10
0.179323390485624
 20
0.1977987002947922
 10
0.1786498183889278
 20
0.1987650789124636
 10
0.1794378292144283
 20
0.1994846586756079
 10
0.1801203697852434
 20
0.200040633474774
 10
0.1813119761978848
 20
0.2008475578788339
 10
0.182009214412536
 20
0.2000974684898456
 10
0.183001594185694
 20
0.1987636710252861
 10
0.1832607747136801
 20
0.1984115055227759
  0
LWPOLYLINE
  5
1247
330
2
100
AcDbEntity
  8
Profilo
  6
Continuous
370
     0
100
AcDbPolyline
 90
        9
 70
   128
 43
0.0
 10
0.1760146962111588
 20
0.191768842487099
 10
0.1745693523460017
 20
0.1931776775430586
 10
0.1737729845406286
 20
0.1940456552620736
 10
0.1744580537344267
 20
0.1948638461299904
 10
0.1750604001406679
 20
0.1955058339920278
 10
0.1761338219339446
 20
0.1964643841942794
 10
0.1769248161632819
 20
0.1958139202455508
 10
0.1780861192192966
 20
0.1946242948832065
 10
0.1783899262735678
 20
0.1943098169650309
  0
LWPOLYLINE
  5
1248
330
2
100
AcDbEntity
  8
Profilo
  6
Continuous
370
     0
100
AcDbPolyline
 90
        9
 70
   128
 43
0.0
 10
0.1720938813239168
 20
0.1867606154269735
 10
0.1704736542212841
 20
0.1879642346522036
 10
0.1695687019095877
 20
0.1887183223896033
 10
0.1701386043956901
 20
0.189620523726871
 10
0.1706500077514685
 20
0.1903370683631734
 10
0.171586089688049
 20
0.1914301390125487
 10
0.1724567246213122
 20
0.1908909080486542
 10
0.1737662274796352
 20
0.1898666836812991
 10
0.1741092396161128
 20
0.1895955052133585
  0
LWPOLYLINE
  5
1249
330
2
100
AcDbEntity
  8
Profilo
  6
Continuous
370
     0
100
AcDbPolyline
 90
        9
 70
   128
 43
0.0
 10
0.1688755812906133
 20
0.1812744808532108
 10
0.167109383941535
 20
0.1822514056341228
 10
0.1661119960189565
 20
0.1828781466763686
 10
0.1665565618739984
 20
0.1838482586787503
 10
0.1669678961743144
 20
0.1846265733333073
 10
0.1677499338498642
 20
0.1858346585581733
 10
0.1686846729860432
 20
0.1854162831684382
 10
0.1701190075371461
 20
0.1845757371041722
 10
0.1704951036961275
 20
0.1843526972726514
  0
LWPOLYLINE
  5
124A
330
2
100
AcDbEntity
  8
Profilo
  6
Continuous
370
     0
100
AcDbPolyline
 90
        9
 70
   128
 43
0.0
 10
0.166417226751586
 20
0.1754083389672491
 10
0.1645365769895997
 20
0.1761411360579831
 10
0.1634645518672451
 20
0.1766293461963288
 10
0.1637758478030098
 20
0.1776500571921599
 10
0.1640797727775314
 20
0.1784762528215224
 10
0.1646938107112024
 20
0.1797777943124205
 10
0.1656759736082685
 20
0.1794877404155858
 10
0.1672095441181063
 20
0.178845872218839
 10
0.1676120128547249
 20
0.178674951174815
  0
LWPOLYLINE
  5
124B
330
2
100
AcDbEntity
  8
Profilo
  6
Continuous
370
     0
100
AcDbPolyline
 90
        9
 70
   128
 43
0.0
 10
0.1647626871018235
 20
0.1692668712100139
 10
0.1628011451664846
 20
0.1697424638291262
 10
0.1616736131580603
 20
0.170083430942087
 10
0.1618460840911999
 20
0.1711365263194652
 10
0.1620371761915549
 20
0.1719958594430541
 10
0.1624722568618755
 20
0.1733676311612459
 10
0.1634843167996611
 20
0.1732110747759724
 10
0.1650897566661551
 20
0.1727793385999213
 10
0.1655114159162712
 20
0.1726635864334748
  0
LWPOLYLINE
  5
124C
330
2
100
AcDbEntity
  8
Profilo
  6
Continuous
370
     0
100
AcDbPolyline
 90
        9
 70
   128
 43
0.0
 10
0.1639414876405731
 20
0.1629596722191279
 10
0.1619340572941863
 20
0.1631695734050634
 10
0.1607711392350946
 20
0.1633572129264303
 10
0.1608017074177215
 20
0.1644239001733984
 10
0.1608765566008521
 20
0.1653010359712656
 10
0.1611249159829522
 20
0.1667185586179417
 10
0.1621488127278927
 20
0.1666982934966336
 10
0.1637974728385925
 20
0.1664843936835682
 10
0.1642307980828979
 20
0.1664258759948508
  0
LWPOLYLINE
  5
124D
330
2
100
AcDbEntity
  8
Profilo
  6
Continuous
370
     0
100
AcDbPolyline
 90
        9
 70
   128
 43
0.0
 10
0.1639682826916737
 20
0.1565992941100031
 10
0.161950786576329
 20
0.156539758171126
 10
0.1607732347668835
 20
0.1565707216691955
 10
0.1606613547090547
 20
0.1576319657265614
 10
0.1606186252895152
 20
0.1585112516896136
 10
0.1606758314043373
 20
0.1599492295395627
 10
0.1616932934947628
 20
0.1600656173137899
 10
0.1633557534709342
 20
0.1600733709109413
 10
0.1637930120101791
 20
0.1600731319494947
  0
LWPOLYLINE
  5
124E
330
2
100
AcDbEntity
  8
Profilo
  6
Continuous
370
     0
100
AcDbPolyline
 90
        9
 70
   128
 43
0.0
 10
0.1648425940968061
 20
0.1502992379806779
 10
0.1628510344784755
 20
0.149971327337228
 10
0.1616798623586129
 20
0.1498450622676432
 10
0.16142753056261
 20
0.1508819252100612
 10
0.1612679850479046
 20
0.1517476704594577
 10
0.1611330170509757
 20
0.1531804427638807
 10
0.1621258878517771
 20
0.1534314064910546
 10
0.1637724810557617
 20
0.1536606751352984
 10
0.1642058700009543
 20
0.1537187191653954
  0
LWPOLYLINE
  5
124F
330
2
100
AcDbEntity
  8
Profilo
  6
Continuous
370
     0
100
AcDbPolyline
 90
        9
 70
   128
 43
0.0
 10
0.1665488197482303
 20
0.1441719284820305
 10
0.1646187360554854
 20
0.1435814947072084
 10
0.1634748432194297
 20
0.1433002542731271
 10
0.1630865625521314
 20
0.1442942332568263
 10
0.162813048035749
 20
0.1451309885480817
 10
0.1624883144341704
 20
0.1465329874512636
 10
0.1634388761423868
 20
0.1469140486777275
 10
0.1650402190794504
 20
0.1473607410646754
 10
0.1654620045945969
 20
0.1474760322892236
  0
LWPOLYLINE
  5
1250
330
2
100
AcDbEntity
  8
Profilo
  6
Continuous
370
     0
100
AcDbPolyline
 90
        9
 70
   128
 43
0.0
 10
0.1690565120087766
 20
0.1383267075972229
 10
0.1672223466308389
 20
0.1374842869957279
 10
0.1661261458733487
 20
0.1370530899393599
 10
0.1656088452124611
 20
0.1379864473858282
 10
0.1652262425674267
 20
0.1387792808009466
 10
0.1647175382400126
 20
0.1401254875992458
 10
0.1656088280594417
 20
0.1406298462783858
 10
0.1671363447269356
 20
0.1412859911718108
 10
0.1675390000395258
 20
0.1414564722161767
  0
LWPOLYLINE
  5
1251
330
2
100
AcDbEntity
  8
Profilo
  6
Continuous
370
     0
100
AcDbPolyline
 90
        9
 70
   128
 43
0.0
 10
0.1723209210506478
 20
0.1328678834314211
 10
0.1706154047121378
 20
0.1317885090188443
 10
0.1695864577617008
 20
0.1312150500618748
 10
0.168949368349772
 20
0.1320711301853686
 10
0.1684645051293505
 20
0.1328058935932749
 10
0.167780907916875
 20
0.1340722851944834
 10
0.1685970207595733
 20
0.1346909410337221
 10
0.17002345258638
 20
0.135544829512456
 10
0.1703997923028209
 20
0.1357674581383647
  0
LWPOLYLINE
  5
1252
330
2
100
AcDbEntity
  8
Profilo
  6
Continuous
370
     0
100
AcDbPolyline
 90
        9
 70
   128
 43
0.0
 10
0.1762837934171553
 20
0.127892868831185
 10
0.1747373610975393
 20
0.1265958020694896
 10
0.1737940295368623
 20
0.1258903146005915
 10
0.1730485202495404
 20
0.1266538406310259
 10
0.1724700488493869
 20
0.127317422161299
 10
0.1716237575603006
 20
0.1284813997772926
 10
0.1723501298732573
 20
0.1292033128485223
 10
0.1736500221496331
 20
0.1302397072524332
 10
0.1739933304787704
 20
0.1305105106467811
  0
LWPOLYLINE
  5
1253
330
2
100
AcDbEntity
  8
Profilo
  6
Continuous
370
     0
100
AcDbPolyline
 90
        9
 70
   128
 43
0.0
 10
0.180874411557038
 20
0.1234904430499163
 10
0.1795146593776935
 20
0.1219988301261928
 10
0.1786737769808249
 20
0.1211739035859619
 10
0.1778331514490046
 20
0.1218312503832363
 10
0.1771713947049585
 20
0.1224118084077476
 10
0.1761775114273649
 20
0.123452600830393
 10
0.1768011810794454
 20
0.1242648885777552
 10
0.1779513371969243
 20
0.1254652944241533
 10
0.1782554877934914
 20
0.1257794400939521
  0
LWPOLYLINE
  5
1254
330
2
100
AcDbEntity
  8
Profilo
  6
Continuous
370
     0
100
AcDbPolyline
 90
        9
 70
   128
 43
0.0
 10
0.1860108557808338
 20
0.1197391674799771
 10
0.1848620485516164
 20
0.1180796262621865
 10
0.1841386208848479
 20
0.1171499814842761
 10
0.18321788009106
 20
0.1176894186792193
 10
0.1824846470678962
 20
0.1181765931262687
 10
0.181360907672429
 20
0.1190756273901271
 10
0.1818707452639186
 20
0.1199637945195265
 10
0.182850640659336
 20
0.121306790537644
 10
0.1831102059487306
 20
0.1216586725459751
  0
LWPOLYLINE
  5
1255
330
2
100
AcDbEntity
  8
Profilo
  6
Continuous
370
     0
100
AcDbPolyline
 90
        9
 70
   128
 43
0.0
 10
0.1916014661196868
 20
0.1167059837227825
 10
0.1906841043328158
 20
0.1149081287632715
 10
0.1900910409800001
 20
0.1138903552807672
 10
0.1891066155655214
 20
0.1143022566038564
 10
0.1883149908239097
 20
0.1146873538338938
 10
0.1870814484667025
 20
0.1154285866512287
 10
0.1874683559337025
 20
0.1163767837992001
 10
0.1882605043505135
 20
0.117838404193278
 10
0.1884708523839973
 20
0.1182217431973652
  0
LWPOLYLINE
  5
1256
330
2
100
AcDbEntity
  8
Profilo
  6
Continuous
370
     0
100
AcDbPolyline
 90
        9
 70
   128
 43
0.0
 10
0.1975464779996545
 20
0.1144450190143372
 10
0.19687693199795
 20
0.1125409330774497
 10
0.1964248161886686
 20
0.1114531930822588
 10
0.195394273248342
 20
0.1117302081446249
 10
0.1945583833505498
 20
0.112006356088458
 10
0.1932370506241905
 20
0.1125765601420833
 10
0.1934941235937857
 20
0.1135678667080581
 10
0.1940843891247259
 20
0.1151220288275377
 10
0.1942417662366585
 20
0.1155299841337724
  0
LWPOLYLINE
  5
1257
330
2
100
AcDbEntity
  8
Profilo
  6
Continuous
370
     0
100
AcDbPolyline
 90
        9
 70
   128
 43
0.0
 10
0.2037398025428998
 20
0.1129966203234264
 10
0.2033300203906241
 20
0.1110202818678153
 10
0.2030269201422032
 20
0.1098819861059203
 10
0.2019686497392139
 20
0.1100191715672133
 10
0.2011034111602687
 20
0.110181442358242
 10
0.1997178672785629
 20
0.1105704423433124
 10
0.1998405182775209
 20
0.1115871684381365
 10
0.2002183676202072
 20
0.1132061382231765
 10
0.2003199654122976
 20
0.1136314298594537
  0
LWPOLYLINE
  5
1258
330
2
100
AcDbEntity
  8
Profilo
  6
Continuous
370
     0
100
AcDbPolyline
 90
        9
 70
   128
 43
0.0
 10
0.2100709197262254
 20
0.1123866343590026
 10
0.2099282139955938
 20
0.1103733111912289
 10
0.2097795381391472
 20
0.1092047725774671
 10
0.2087124251339065
 20
0.1091996803598804
 10
0.2078332780767496
 20
0.1092451782719946
 10
0.2064082481030902
 20
0.1094460324745611
 10
0.2063942884214289
 20
0.1104700345969852
 10
0.2065529788453886
 20
0.1121249214934178
 10
0.2065969843026303
 20
0.1125599601204131
  0
LWPOLYLINE
  5
1259
330
2
100
AcDbEntity
  8
Profilo
  6
Continuous
370
     0
100
AcDbPolyline
 90
        9
 70
   128
 43
0.0
 10
0.2164268506135074
 20
0.1126259463350517
 10
0.2165537678916647
 20
0.1106115662547406
 10
0.2165621695513731
 20
0.1094336373883588
 10
0.2155052566007405
 20
0.1092863583626352
 10
0.2146278894654325
 20
0.1092142714845151
 10
0.2131888030934586
 20
0.1092233956565748
 10
0.2130384818420281
 20
0.1102364004644653
 10
0.2129751815128871
 20
0.1118976729764186
 10
0.2129608093568529
 20
0.1123346953195275
  0
LWPOLYLINE
  5
125A
330
2
100
AcDbEntity
  8
Profilo
  6
Continuous
370
     0
100
AcDbPolyline
 90
        9
 70
   128
 43
0.0
 10
0.2226941734674885
 20
0.1137102857236921
 10
0.2230884489125979
 20
0.1117307953910981
 10
0.2232537781606463
 20
0.1105644964406222
 10
0.2222259259012635
 20
0.1102776588044653
 10
0.2213659953251201
 20
0.1100892735281588
 10
0.2199385330852324
 20
0.1099065048486448
 10
0.2196545327503254
 20
0.1108904352472068
 10
0.2193703712639565
 20
0.1125284479273484
 10
0.2192978779661119
 20
0.1129596553125044
  0
LWPOLYLINE
  5
125B
330
2
100
AcDbEntity
  8
Profilo
  6
Continuous
370
     0
100
AcDbPolyline
 90
        9
 70
   128
 43
0.0
 10
0.2287610477633639
 20
0.1156203024628449
 10
0.2294156455207674
 20
0.113711025929848
 10
0.2297349520528056
 20
0.112577169527679
 10
0.2287545025325923
 20
0.1121558919055011
 10
0.2279273539971167
 20
0.1118545699707273
 10
0.2265369889868034
 20
0.1114831699510553
 10
0.2261243775611246
 20
0.1124204676790167
 10
0.2256244257859836
 20
0.1140059901522644
 10
0.2254951049909466
 20
0.114423687673464
  0
LWPOLYLINE
  5
125C
330
2
100
AcDbEntity
  8
Profilo
  6
Continuous
370
     0
100
AcDbPolyline
 90
        9
 70
   128
 43
0.0
 10
0.2345192099855962
 20
0.1183219122585505
 10
0.2354224487428049
 20
0.1165169206101139
 10
0.2358900345262049
 20
0.1154357404506104
 10
0.2349744838900771
 20
0.11488754055156
 10
0.2341948778804803
 20
0.1144786590553829
 10
0.2328664211962876
 20
0.1139252553377027
 10
0.2323325617405039
 20
0.1147991942949026
 10
0.2316257413278628
 20
0.1163039328751597
 10
0.2314419007682829
 20
0.1167006667102411
  0
LWPOLYLINE
  5
125D
330
2
100
AcDbEntity
  8
Profilo
  6
Continuous
370
     0
100
AcDbPolyline
 90
        9
 70
   128
 43
0.0
 10
0.2398659055929158
 20
0.1217669048200022
 10
0.24100166703291
 20
0.1200984081748536
 10
0.2416091879882898
 20
0.1190891979435756
 10
0.2407748742590381
 20
0.1184238584078378
 10
0.2400567228630304
 20
0.1179147138502433
 10
0.2388138808459606
 20
0.1171891819370076
 10
0.2381683000947068
 20
0.1179841666620508
 10
0.2372672242715743
 20
0.1193812692537045
 10
0.237032144586593
 20
0.1197499596779826
  0
LWPOLYLINE
  5
125E
330
2
100
AcDbEntity
  8
Profilo
  6
Continuous
370
     0
100
AcDbPolyline
 90
        9
 70
   128
 43
0.0
 10
0.2447057226755462
 20
0.1258938041733281
 10
0.2460537391085213
 20
0.1243915768936269
 10
0.2467903540100393
 20
0.1234723459710599
 10
0.2460521655359273
 20
0.1227017397984126
 10
0.2454082841821852
 20
0.1221014178760932
 10
0.2442732353774759
 20
0.1212167049014813
 10
0.2435274537345529
 20
0.1219185488731159
 10
0.2424482022203391
 20
0.1231830841473204
 10
0.2421660784125037
 20
0.1235171518714396
  0
LWPOLYLINE
  5
125F
330
2
100
AcDbEntity
  8
Profilo
  6
Continuous
370
     0
100
AcDbPolyline
 90
        9
 70
   128
 43
0.0
 10
0.2489522945829878
 20
0.1306289657017993
 10
0.2504885106237631
 20
0.1293198150689406
 10
0.251341074561052
 20
0.1285069671526752
 10
0.250712184332889
 20
0.1276448458285247
 10
0.2501540630994223
 20
0.1269640593004057
 10
0.2491470624798837
 20
0.1259359529884093
 10
0.2483143884363765
 20
0.1265321317843348
 10
0.2470762204999208
 20
0.1276415340791642
 10
0.2467520870752664
 20
0.127935017656673
  0
LWPOLYLINE
  5
1260
330
2
100
AcDbEntity
  8
Profilo
  6
Continuous
370
     0
100
AcDbPolyline
 90
        9
 70
   128
 43
0.0
 10
0.2525298411389518
 20
0.1358878903357629
 10
0.254226842975886
 20
0.1347951781738043
 10
0.2551801419252864
 20
0.1341032185541625
 10
0.2546717725040923
 20
0.1331649666539626
 10
0.2542093710775339
 20
0.1324158641717666
 10
0.2533483885930781
 20
0.1312627111038794
 10
0.2524436812370205
 20
0.1317425858993585
 10
0.2510686920144818
 20
0.1326770579045796
 10
0.2507083331416502
 20
0.1329247201140845
  0
LWPOLYLINE
  5
1261
330
2
100
AcDbEntity
  8
Profilo
  6
Continuous
370
     0
100
AcDbPolyline
 90
        9
 70
   128
 43
0.0
 10
0.2553745209403924
 20
0.1415767324405387
 10
0.2572020255355016
 20
0.1407199582238975
 10
0.2582390478546777
 20
0.1401612349366849
 10
0.2578602711048172
 20
0.1391635955878222
 10
0.2575018410495802
 20
0.1383595449030907
 10
0.2568022409530388
 20
0.1371019231231277
 10
0.255841644808632
 20
0.1374569305410668
 10
0.25435437101526
 20
0.1381997965816081
 10
0.2539642173068741
 20
0.1383972178851135
  0
LWPOLYLINE
  5
1262
330
2
100
AcDbEntity
  8
Profilo
  6
Continuous
370
     0
100
AcDbPolyline
 90
        9
 70
   128
 43
0.0
 10
0.2574355706088602
 20
0.1475939744939964
 10
0.2593609660993521
 20
0.1469884273788656
 10
0.2604632061004497
 20
0.1465729108543791
 10
0.2602207813019981
 20
0.1455336869546687
 10
0.2599727188109084
 20
0.1446890363709185
 10
0.2594469854825783
 20
0.143349388169337
 10
0.258447642410776
 20
0.1435731930939524
 10
0.256874624482649
 20
0.1441111967077223
 10
0.2564616382408764
 20
0.1442548541173899
  0
LWPOLYLINE
  5
1263
330
2
100
AcDbEntity
  8
Profilo
  6
Continuous
370
     0
100
AcDbPolyline
 90
        9
 70
   128
 43
0.0
 10
0.2586762106641953
 20
0.153832238669141
 10
0.2606651383219281
 20
0.1534887246581357
 10
0.2618129265060154
 20
0.1532238297985985
 10
0.261711179735244
 20
0.1521615663231503
 10
0.2615779114893315
 20
0.151291388650059
 10
0.2612354266529127
 20
0.1498936200807531
 10
0.2602151699545057
 20
0.149982228707863
 10
0.2585844784338156
 20
0.1503057692076278
 10
0.2581560294079259
 20
0.150393099153579
  0
LWPOLYLINE
  5
1264
330
2
100
AcDbEntity
  8
Profilo
  6
Continuous
370
     0
100
AcDbPolyline
 90
        9
 70
   128
 43
0.0
 10
0.2590743018552186
 20
0.1601802029939795
 10
0.2610912692190213
 20
0.1601048521027645
 10
0.2622641232787628
 20
0.1599953059632201
 10
0.262304870209205
 20
0.158928959028919
 10
0.2622887743834767
 20
0.1580487826076779
 10
0.2621356496889873
 20
0.1566178368838803
 10
0.2611126858689299
 20
0.1565696679904348
 10
0.2594534204844945
 20
0.1566729717883112
 10
0.259017154357505
 20
0.156702415865592
  0
LWPOLYLINE
  5
1265
330
2
100
AcDbEntity
  8
Profilo
  6
Continuous
370
     0
100
AcDbPolyline
 90
        9
 70
   128
 43
0.0
 10
0.2586227402351962
 20
0.1665245878947493
 10
0.2606317544746779
 20
0.166718744761763
 10
0.2618087448015918
 20
0.1667665021956674
 10
0.2619912583033099
 20
0.1657151007888183
 10
0.2620926221281556
 20
0.1648406323885158
 10
0.2621315900893966
 20
0.1634020447705674
 10
0.2611241739612926
 20
0.1632179579316114
 10
0.2594659443432064
 20
0.1630991815688795
 10
0.2590296462944885
 20
0.1630702143472323
  0
LWPOLYLINE
  5
1266
330
2
100
AcDbEntity
  8
Profilo
  6
Continuous
370
     0
100
AcDbPolyline
 90
        9
 70
   128
 43
0.0
 10
0.2573295839319329
 20
0.172752177672595
 10
0.2592947941403971
 20
0.1732123775639459
 10
0.2604549173142154
 20
0.173416586338759
 10
0.2607759404294474
 20
0.1723988927423755
 10
0.2609929550650123
 20
0.1715457372723318
 10
0.2612233202977925
 20
0.1701251793903557
 10
0.2602494292263127
 20
0.1698084596398918
 10
0.2586218265213955
 20
0.1694697226835579
 10
0.2581932822999637
 20
0.1693828610837397
  0
LWPOLYLINE
  5
1267
330
2
100
AcDbEntity
  8
Profilo
  6
Continuous
370
     0
100
AcDbPolyline
 90
        9
 70
   128
 43
0.0
 10
0.2552179093502986
 20
0.1787518408403962
 10
0.2571042463050177
 20
0.179469871478121
 10
0.2582267999002199
 20
0.1798268874834191
 10
0.2586806039638687
 20
0.1788610624638377
 10
0.2590093967788403
 20
0.1780444445036272
 10
0.2594270484101231
 20
0.1766672662466814
 10
0.2585040615045107
 20
0.1762235654561591
 10
0.25693613032159
 20
0.1756709126752339
 10
0.256522987309229
 20
0.1755277067445516
  0
LWPOLYLINE
  5
1268
330
2
100
AcDbEntity
  8
Profilo
  6
Continuous
370
     0
100
AcDbPolyline
 90
        9
 70
   128
 43
0.0
 10
0.2523253993732273
 20
0.1844165132667889
 10
0.2540992013465559
 20
0.1853795613771473
 10
0.2551641533676432
 20
0.1858830136538573
 10
0.2557426402354426
 20
0.1849862923814337
 10
0.2561773439142478
 20
0.1842207844979026
 10
0.2567748289407778
 20
0.1829115616446076
 10
0.2559192169242297
 20
0.1823487976651458
 10
0.2544389370324089
 20
0.1815920911615972
 10
0.2540485677759618
 20
0.1813950964132763
  0
LWPOLYLINE
  5
1269
330
2
100
AcDbEntity
  8
Profilo
  6
Continuous
370
     0
100
AcDbPolyline
 90
        9
 70
   128
 43
0.0
 10
0.248703670909785
 20
0.1896451087381262
 10
0.2503332843634873
 20
0.1908359887047731
 10
0.2513216307164128
 20
0.1914768931350906
 10
0.2520144772765023
 20
0.1906652776221748
 10
0.2525473345216951
 20
0.1899645403216398
 10
0.2533139908090205
 20
0.188746635984829
 10
0.2525410220982409
 20
0.188074851352973
 10
0.2511748091272588
 20
0.1871275945722842
 10
0.2508141797753542
 20
0.186880326382275
  0
LWPOLYLINE
  5
126A
330
2
100
AcDbEntity
  8
Profilo
  6
Continuous
370
     0
100
AcDbPolyline
 90
        9
 70
   128
 43
0.0
 10
0.2444173537902023
 20
0.1943443228443537
 10
0.2458736982335909
 20
0.1957417833860721
 10
0.2467678018542725
 20
0.1965087030152547
 10
0.247562644243374
 20
0.1957966765599021
 10
0.2481841462047893
 20
0.1951732145160922
 10
0.2491062927532996
 20
0.1940683622275087
 10
0.2484297609932455
 20
0.1932995449559286
 10
0.2472019950459354
 20
0.1921786417177916
 10
0.2468775410379025
 20
0.1918855125928031
  0
LWPOLYLINE
  5
126B
330
2
100
AcDbEntity
  8
Profilo
  6
Continuous
370
     0
100
AcDbPolyline
 90
        9
 70
   128
 43
0.0
 10
0.2395429374450226
 20
0.198430297998419
 10
0.2408000243770041
 20
0.2000094013987358
 10
0.2415839299651492
 20
0.2008886505278321
 10
0.2424665842019977
 20
0.2002889192590064
 10
0.2431656401624118
 20
0.1997538581668633
 10
0.2442268212451029
 20
0.1987817740417716
 10
0.2436587991610586
 20
0.1979296436928931
 10
0.2425913897498364
 20
0.1966550965421471
 10
0.2423089009751345
 20
0.1963213373783589
  0
LWPOLYLINE
  5
126C
330
2
100
AcDbEntity
  8
Profilo
  6
Continuous
370
     0
100
AcDbPolyline
 90
        9
 70
   128
 43
0.0
 10
0.2341674059494037
 20
0.2018301198769002
 10
0.235202802623895
 20
0.2035626869982266
 10
0.2358625213657128
 20
0.2045385754056977
 10
0.236817236464542
 20
0.2040618415420999
 10
0.2375813717537789
 20
0.2036247295794889
 10
0.2387626505690901
 20
0.2028027604821295
 10
0.2383132745286036
 20
0.2018825233422153
 10
0.2374252695996994
 20
0.2004770766029603
 10
0.2371897870772055
 20
0.2001086433405571
  0
LWPOLYLINE
  5
126D
330
2
100
AcDbEntity
  8
Profilo
  6
Continuous
370
     0
100
AcDbPolyline
 90
        9
 70
   128
 43
0.0
 10
0.2283866857902326
 20
0.2044831185778318
 10
0.2291819155290491
 20
0.206338231718843
 10
0.2297056747279611
 20
0.2073933446529389
 10
0.2307154137752154
 20
0.207048115521658
 10
0.2315309923809363
 20
0.2067167529619068
 10
0.2328112889804248
 20
0.2060595669502959
 10
0.2324885781095829
 20
0.2050876446729087
 10
0.2317958241319915
 20
0.2035763785755017
 10
0.231611550052897
 20
0.2031798459147792
  0
LWPOLYLINE
  5
126E
330
2
100
AcDbEntity
  8
Profilo
  6
Continuous
370
     0
100
AcDbPolyline
 90
        9
 70
   128
 43
0.0
 10
0.2223039340556974
 20
0.2063419512765457
 10
0.2228448059653112
 20
0.2082865058992912
 10
0.2232232591260055
 20
0.2094020148447063
 10
0.2242700033044644
 20
0.2091944510677695
 10
0.2251224712071296
 20
0.2089747510836074
 10
0.2264789386676447
 20
0.2084940756576908
 10
0.2262886517495839
 20
0.2074878122188953
 10
0.2258035109344463
 20
0.2058976953426478
 10
0.2256737336740602
 20
0.2054801394183308
  0
LWPOLYLINE
  5
126F
330
2
100
AcDbEntity
  8
Profilo
  6
Continuous
370
     0
100
AcDbPolyline
 90
        9
 70
   128
 43
0.0
 10
0.2160276975946052
 20
0.2073734470594958
 10
0.2163045598029742
 20
0.209372742540666
 10
0.216530953419833
 20
0.2105287412138429
 10
0.2175960235548344
 20
0.2104625467717663
 10
0.2184701684445254
 20
0.2103584299146154
 10
0.2198786005720996
 20
0.2100628427387559
 10
0.2198241332813802
 20
0.2090401949334569
 10
0.219555262978036
 20
0.2073996029516954
 10
0.2194822984146429
 20
0.2069684750591457
  0
LWPOLYLINE
  5
1270
330
2
100
AcDbEntity
  8
Profilo
  6
Continuous
370
     0
100
AcDbPolyline
 90
        9
 70
   128
 43
0.0
 10
0.2096699759952894
 20
0.2075591988599995
 10
0.2096778878897472
 20
0.2095775577243685
 10
0.2097481819633145
 20
0.2107534173015982
 10
0.2108125718530673
 20
0.2108297734357688
 10
0.2116927945935179
 20
0.2108430976734118
 10
0.2131280578834693
 20
0.2107378735077648
 10
0.2132103821901841
 20
0.2097170905102748
 10
0.2131625803955655
 20
0.2080552998257806
 10
0.2131477305835285
 20
0.2076182934524541
  0
LWPOLYLINE
  5
1271
330
2
100
AcDbEntity
  8
Profilo
  6
Continuous
370
     0
100
AcDbPolyline
 90
        7
 70
   128
 43
0.0
 10
0.2140651232469435
 20
0.1621412499161338
 10
0.212931468191472
 20
0.1614747150442263
 10
0.2120645575122668
 20
0.1613414091509081
 10
0.2113310161733088
 20
0.1613414091509081
 10
0.2105974776822355
 20
0.1617413286326347
 10
0.2100639946254765
 20
0.1622745558094519
 10
0.2097305670030303
 20
0.1628077829862692
  0
LWPOLYLINE
  5
1272
330
2
100
AcDbEntity
  8
Profilo
  6
Continuous
370
     0
100
AcDbPolyline
 90
        7
 70
   128
 43
0.0
 10
0.2092998000497093
 20
0.1625833115114977
 10
0.2099663349216168
 20
0.1614496564560263
 10
0.2100996408149354
 20
0.1605827457768215
 10
0.2100996408149354
 20
0.1598492044378627
 10
0.2096997213332083
 20
0.1591156659467902
 10
0.2091664941563915
 20
0.1585821828900303
 10
0.2086332669795738
 20
0.1582487552675841
  0
LWPOLYLINE
  5
1273
330
2
100
AcDbEntity
  8
Profilo
  6
Continuous
370
     0
100
AcDbPolyline
 90
        7
 70
   128
 43
0.0
 10
0.2088577384543453
 20
0.157817988314264
 10
0.2099913935098168
 20
0.158484523186171
 10
0.210858304189022
 20
0.1586178290794896
 10
0.2115918455279808
 20
0.1586178290794896
 10
0.2123253840190533
 20
0.1582179095977626
 10
0.2128588670758131
 20
0.1576846824209454
 10
0.2131922946982585
 20
0.1571514552441281
  0
LWPOLYLINE
  5
1274
330
2
100
AcDbEntity
  8
Profilo
  6
Continuous
370
     0
100
AcDbPolyline
 90
        7
 70
   128
 43
0.0
 10
0.2136230616515795
 20
0.1573759267188995
 10
0.212956526779672
 20
0.158509581774371
 10
0.2128232208863534
 20
0.1593764924535762
 10
0.2128232208863534
 20
0.1601100337925346
 10
0.2132231403680804
 20
0.1608435722836076
 10
0.2137563675448981
 20
0.1613770553403669
 10
0.2142895947217149
 20
0.1617104829628132
  0
LWPOLYLINE
  5
1275
330
2
100
AcDbEntity
  8
Profilo
  6
Continuous
370
     0
100
AcDbPolyline
 90
       15
 70
   128
 43
0.0
 10
0.2080634288907999
 20
0.1618079833810661
 10
0.2065963490607685
 20
0.1615413697926572
 10
0.2057961216277433
 20
0.1616746756859758
 10
0.2049958970426045
 20
0.1624745164512015
 10
0.2049958970426045
 20
0.1636076255532669
 10
0.2054626968531834
 20
0.1651406541370594
 10
0.2066630351548349
 20
0.1662737614373527
 10
0.2077300012683536
 20
0.1668736415608293
 10
0.2089303395700051
 20
0.1671402551492377
 10
0.2098639363432775
 20
0.1670069492559195
 10
0.210797533116549
 20
0.1664737220791023
 10
0.2111309607389953
 20
0.1656738813138766
 10
0.2111309607389953
 20
0.1650073464419691
 10
0.210797533116549
 20
0.164207505676743
 10
0.2102640500597901
 20
0.1634743178581767
  0
LWPOLYLINE
  5
1276
330
2
100
AcDbEntity
  8
Profilo
  6
Continuous
370
     0
100
AcDbPolyline
 90
       15
 70
   128
 43
0.0
 10
0.2086725127489193
 20
0.1573129228389655
 10
0.2084727247399232
 20
0.1558352588769397
 10
0.2080986594252523
 20
0.1551153911487285
 10
0.2070906826573613
 20
0.1546014967317811
 10
0.2060130318621689
 20
0.1549516467008002
 10
0.2046992841123258
 20
0.1558693315877112
 10
0.2039925599649304
 20
0.1573610705634968
 10
0.2037517507260014
 20
0.158561188791167
 10
0.2038691110696216
 20
0.1597851664844604
 10
0.2042843897769573
 20
0.1606318759927873
 10
0.2050800162269701
 20
0.1613550030281005
 10
0.2059437448004657
 20
0.1614249471518919
 10
0.2065776571337312
 20
0.1612189765491291
 10
0.2072353161037683
 20
0.1606547036468401
 10
0.2077677638255344
 20
0.1599207636133705
  0
LWPOLYLINE
  5
1277
330
2
100
AcDbEntity
  8
Profilo
  6
Continuous
370
     0
100
AcDbPolyline
 90
       15
 70
   128
 43
0.0
 10
0.2131357866317827
 20
0.1565031459129466
 10
0.2144793906817104
 20
0.1558565129488724
 10
0.2150484330362565
 20
0.1552783043321156
 10
0.2152256937189692
 20
0.1541608593505873
 10
0.2145596688995366
 20
0.1532441548305351
 10
0.213280928326911
 20
0.1522782866978162
 10
0.2116438104814979
 20
0.1520671247869011
 10
0.2104280160735166
 20
0.1522089585186431
 10
0.2093002104531538
 20
0.1526988047461614
 10
0.2086232700358193
 20
0.1533554058942236
 10
0.2081813974510038
 20
0.1543355501570481
 10
0.2083817834440329
 20
0.1551786187680905
 10
0.2087735628118783
 20
0.1557178568068071
 10
0.2095134460308139
 20
0.1561689577394879
 10
0.2103759998768564
 20
0.1564485456716659
  0
LWPOLYLINE
  5
1278
330
2
100
AcDbEntity
  8
Profilo
  6
Continuous
370
     0
100
AcDbPolyline
 90
       15
 70
   128
 43
0.0
 10
0.2152851577343733
 20
0.1604977367914621
 10
0.2163153387136458
 20
0.1615757596034438
 10
0.2170410915444649
 20
0.161938274753911
 10
0.2181586214391413
 20
0.1617615501917161
 10
0.2188246462585739
 20
0.1608448456716643
 10
0.2193480888717398
 20
0.1593302214500821
 10
0.2190430185470817
 20
0.1577079772362217
 10
0.2185324255185459
 20
0.1565955170755197
 10
0.2177180429688383
 20
0.1556742810000934
 10
0.2168843920752308
 20
0.1552333733183212
 10
0.2158156733491059
 20
0.1551160087513118
 10
0.2150757901301712
 20
0.1555671096839927
 10
0.2146840107623258
 20
0.1561063477227093
 10
0.2144836247692958
 20
0.1569494163337516
 10
0.2144842646415115
 20
0.1578561512121516
  0
LWPOLYLINE
  5
1279
330
2
100
AcDbEntity
  8
Profilo
  6
Continuous
370
     0
100
AcDbPolyline
 90
       15
 70
   128
 43
0.0
 10
0.2121502682473468
 20
0.1637763066515535
 10
0.211443351057174
 20
0.1650891943540805
 10
0.2113228486195049
 20
0.1658914496552627
 10
0.2118362593951466
 20
0.1668996728507076
 10
0.2129139101903399
 20
0.1672498228197267
 10
0.2145161560890627
 20
0.1672796017033248
 10
0.2159647301048779
 20
0.166488161552021
 10
0.2168649606668054
 20
0.165658789629835
 10
0.2174894501916031
 20
0.1645995881960404
 10
0.2176511660219371
 20
0.1636704911147421
 10
0.217432534109594
 20
0.162617811560431
 10
0.2167748751395577
 20
0.162053538658142
 10
0.2161409628062922
 20
0.1618475680553791
 10
0.2152772342327958
 20
0.1619175121791706
 10
0.2144150758495296
 20
0.1621983172206286
  0
LWPOLYLINE
  5
127A
330
2
100
AcDbEntity
  8
Profilo
  6
Continuous
370
     0
100
AcDbPolyline
 90
       18
 70
   128
 43
0.0
 10
0.2152085066803324
 20
0.1680796035065467
 10
0.2173406732181689
 20
0.1701041878874264
 10
0.2206455307822401
 20
0.1740467980592274
 10
0.2237371699837944
 20
0.1784156353837784
 10
0.2262957703987758
 20
0.1827844745101014
 10
0.228960975723187
 20
0.1868336414700896
 10
0.2303468851119352
 20
0.1889647808373854
 10
0.2313063577756531
 20
0.1902434658991804
 10
0.2319460071674269
 20
0.1905631362637431
 10
0.2324790488018862
 20
0.1903500226873681
 10
0.2324790488018862
 20
0.18981723874643
 10
0.2323724410445718
 20
0.1892844530037202
 10
0.2314129683808539
 20
0.1881123247301125
 10
0.2280015030594682
 20
0.1836369306173738
 10
0.2241636038609394
 20
0.1780959650192157
 10
0.222031437323102
 20
0.1750058109546876
 10
0.2192596213934919
 20
0.1703173014638019
 10
0.2175538887327995
 20
0.1664812480801886
  0
LWPOLYLINE
  5
127B
330
2
100
AcDbEntity
  8
Profilo
  6
Continuous
370
     0
100
AcDbPolyline
 90
       12
 70
   128
 43
0.0
 10
0.2007097804883897
 20
0.1899237955346177
 10
0.2019890792719372
 20
0.1928008342209983
 10
0.2043344613244034
 20
0.1955713179209636
 10
0.2066798433768695
 20
0.1970631165591336
 10
0.2088120099147077
 20
0.1980221294545937
 10
0.2101979164555696
 20
0.1983417998191569
 10
0.2110507842098586
 20
0.1983417998191569
 10
0.2128631246278663
 20
0.1978090158782188
 10
0.2160613744346214
 20
0.195997545073714
 10
0.217660496490113
 20
0.1948254186018784
 10
0.2197926630279503
 20
0.1918418213255381
 10
0.2205389201770393
 20
0.1905631362637431
  0
LWPOLYLINE
  5
127C
330
2
100
AcDbEntity
  8
Profilo
  6
Continuous
370
     0
100
AcDbPolyline
 90
       39
 70
   128
 43
0.0
 10
0.2076393188884738
 20
0.1683992738711094
 10
0.2033749858128
 20
0.1722353272547222
 10
0.2006031727310744
 20
0.176497609592858
 10
0.1997503049767855
 20
0.1789484211264881
 10
0.200070131096616
 20
0.180227104386511
 10
0.2006031727310744
 20
0.1808664469174085
 10
0.2006031727310744
 20
0.1817189030246814
 10
0.1998569127341008
 20
0.1822516887673912
 10
0.1991106555850117
 20
0.1827844745101014
 10
0.1991106555850117
 20
0.1838500441937493
 10
0.1987908294651821
 20
0.1842762713464993
 10
0.1982577906786083
 20
0.1855549564082947
 10
0.1986842217078668
 20
0.1864074125155671
 10
0.1995370894621567
 20
0.1866205260919426
 10
0.2003899543685592
 20
0.1865139693037549
 10
0.2010296037603338
 20
0.1859811853628167
 10
0.2013494298801635
 20
0.1869401982582773
 10
0.201242822122849
 20
0.1880057679419252
 10
0.2017758637573075
 20
0.1886451104728227
 10
0.2028419470262261
 20
0.18875166726101
 10
0.2031617702981703
 20
0.1883254401082596
 10
0.2035882041753152
 20
0.1893910097919075
 10
0.2041212458097745
 20
0.190030352322805
 10
0.2050807184734924
 20
0.1907762516418902
 10
0.205400544593322
 20
0.1904565794755554
 10
0.2063600201049263
 20
0.1910959220064529
 10
0.2078525344031035
 20
0.1912024787946406
 10
0.2089186176720221
 20
0.1908828084300779
 10
0.2093450515491662
 20
0.1902434658991804
 10
0.2093450515491662
 20
0.1891778962155325
 10
0.2095582670637959
 20
0.18875166726101
 10
0.2094516593064815
 20
0.1878992111537375
 10
0.2091318360345373
 20
0.1872598686228401
 10
0.2090252254293365
 20
0.1868336414700896
 10
0.2096648748211103
 20
0.1867270846819019
 10
0.2097714854263111
 20
0.1859811853628167
 10
0.2094516593064815
 20
0.185235286043732
 10
0.2084921837948772
 20
0.1842762713464993
 10
0.2080657527656187
 20
0.1833172584510391
  0
LWPOLYLINE
  5
127D
330
2
100
AcDbEntity
  8
Profilo
  6
Continuous
370
     0
100
AcDbPolyline
 90
       19
 70
   128
 43
0.0
 10
0.2105177425754001
 20
0.1680796035065467
 10
0.2082789682802484
 20
0.1710632007828866
 10
0.2072128850113288
 20
0.1733008987401422
 10
0.206253412347611
 20
0.1760713806383355
 10
0.2059335862277813
 20
0.1785221921719656
 10
0.2063600201049263
 20
0.1808664469174085
 10
0.2071062772540153
 20
0.1824648023437666
 10
0.2083855760375628
 20
0.1835303738291866
 10
0.2098780931836255
 20
0.1842762713464993
 10
0.2108375686952297
 20
0.184382829936459
 10
0.2124366907507214
 20
0.1840631577701243
 10
0.2133961662623256
 20
0.1828910312982891
 10
0.2146754650458731
 20
0.1808664469174085
 10
0.2154217250428476
 20
0.1778828496410682
 10
0.2154217250428476
 20
0.1757517102737728
 10
0.2149952911657027
 20
0.1729812265738074
 10
0.2142490311687282
 20
0.1708500872065116
 10
0.2130763401424951
 20
0.1690386164020069
 10
0.2122234752360925
 20
0.1680796035065467
  0
LWPOLYLINE
  5
127E
330
2
100
AcDbEntity
  8
Profilo
  6
Continuous
370
     0
100
AcDbPolyline
 90
       11
 70
   128
 43
0.0
 10
0.2111573919671739
 20
0.1697845157210921
 10
0.2104111348180848
 20
0.1705304150401769
 10
0.2101979164555696
 20
0.1717025433137845
 10
0.2103045270607704
 20
0.1724484426328693
 10
0.2106243503327145
 20
0.1730877833619951
 10
0.2111573919671739
 20
0.1734074555283295
 10
0.2116904336016332
 20
0.1731943401501829
 10
0.2123300829934069
 20
0.1724484426328693
 10
0.2122234752360925
 20
0.1713828711474498
 10
0.2122234752360925
 20
0.1702107446756141
 10
0.211903649116262
 20
0.1698910725092794
  0
LWPOLYLINE
  5
127F
330
2
100
AcDbEntity
  8
Profilo
  6
Continuous
370
     0
100
AcDbPolyline
 90
       11
 70
   128
 43
0.0
 10
0.2104111348180848
 20
0.1693582885683412
 10
0.2095582670637959
 20
0.1707435286165523
 10
0.2092384437918517
 20
0.1729812265738074
 10
0.2096648748211103
 20
0.1742599116356024
 10
0.2104111348180848
 20
0.1753254813192503
 10
0.2110507842098586
 20
0.1757517102737728
 10
0.2120102597214628
 20
0.1751123677428749
 10
0.212756516870551
 20
0.1742599116356024
 10
0.21350277401964
 20
0.1720222136783472
 10
0.2131829507476959
 20
0.1708500872065116
 10
0.2123300829934069
 20
0.1695714021447167
  0
LWPOLYLINE
  5
1280
330
2
100
AcDbEntity
  8
Profilo
  6
Continuous
370
     0
100
AcDbPolyline
 90
        8
 70
   128
 43
0.0
 10
0.2081723605229331
 20
0.1733008987401422
 10
0.2084921837948772
 20
0.1750058109546876
 10
0.2095582670637959
 20
0.1761779374265228
 10
0.2108375686952297
 20
0.176923836745608
 10
0.2115838258443179
 20
0.176710723169233
 10
0.2126499091132366
 20
0.1762844942147105
 10
0.2132895585050103
 20
0.1753254813192503
 10
0.213929207896784
 20
0.1734074555283295
  0
LWPOLYLINE
  5
1281
330
2
100
AcDbEntity
  8
Profilo
  6
Continuous
370
     0
100
AcDbPolyline
 90
       11
 70
   128
 43
0.0
 10
0.2079591421604179
 20
0.1745795820001651
 10
0.2083855760375628
 20
0.1778828496410682
 10
0.2090252254293365
 20
0.1791615347028636
 10
0.2097714854263111
 20
0.1799074340219483
 10
0.2106243503327145
 20
0.1804402197646585
 10
0.2109441764525441
 20
0.1804402197646585
 10
0.2115838258443179
 20
0.1801205475983237
 10
0.2124366907507214
 20
0.1792680914910508
 10
0.2129697323851807
 20
0.1782025218074029
 10
0.2137159923821552
 20
0.1768172799574202
 10
0.2140358156540993
 20
0.1752189245310626
  0
LWPOLYLINE
  5
1282
330
2
100
AcDbEntity
  8
Profilo
  6
Continuous
370
     0
100
AcDbPolyline
 90
       12
 70
   128
 43
0.0
 10
0.2076393188884738
 20
0.1752189245310626
 10
0.2077459266457891
 20
0.1782025218074029
 10
0.2082789682802484
 20
0.1801205475983237
 10
0.2090252254293365
 20
0.1813992326601187
 10
0.2099847009409408
 20
0.1820385751910162
 10
0.2106243503327145
 20
0.1823582455555789
 10
0.2110507842098586
 20
0.1823582455555789
 10
0.2120102597214628
 20
0.1817189030246814
 10
0.2130763401424951
 20
0.180227104386511
 10
0.2136093817769544
 20
0.1790549779146758
 10
0.2141424234114138
 20
0.1774566224883182
 10
0.2141424234114138
 20
0.1762844942147105
  0
LWPOLYLINE
  5
1283
330
2
100
AcDbEntity
  8
Profilo
  6
Continuous
370
     0
100
AcDbPolyline
 90
       48
 70
   128
 43
0.0
 10
0.2133961662623256
 20
0.1834238152392268
 10
0.2130763401424951
 20
0.1845959435128345
 10
0.2122234752360925
 20
0.185448399620107
 10
0.2115838258443179
 20
0.1864074125155671
 10
0.2113706074818027
 20
0.1871533118346523
 10
0.211903649116262
 20
0.1873664254110273
 10
0.2123300829934069
 20
0.1874729840009871
 10
0.2120102597214628
 20
0.1884319968964473
 10
0.2114772180870035
 20
0.1892844530037202
 10
0.2114772180870035
 20
0.1901369091109927
 10
0.2121168674787772
 20
0.1912024787946406
 10
0.2128631246278663
 20
0.1915221509609754
 10
0.2138226001394696
 20
0.1914155941727876
 10
0.2146754650458731
 20
0.1910959220064529
 10
0.2152085066803324
 20
0.1905631362637431
 10
0.215528332800162
 20
0.1905631362637431
 10
0.2156349405574764
 20
0.1909893652182656
 10
0.2159547638294206
 20
0.1913090355828283
 10
0.2165944160690807
 20
0.1908828084300779
 10
0.2173406732181689
 20
0.1889647808373854
 10
0.217660496490113
 20
0.1889647808373854
 10
0.2177671070953147
 20
0.1896041233682829
 10
0.2183001487297731
 20
0.1899237955346177
 10
0.2187265797590325
 20
0.1894975665800952
 10
0.2192596213934919
 20
0.1882188815183002
 10
0.2191530136361766
 20
0.1872598686228401
 10
0.2194728397560071
 20
0.1865139693037549
 10
0.2198992707852656
 20
0.1865139693037549
 10
0.2203257046624096
 20
0.1869401982582773
 10
0.220858746296869
 20
0.1875795407891748
 10
0.2214983956886427
 20
0.1875795407891748
 10
0.2222446528377318
 20
0.1873664254110273
 10
0.2226710867148767
 20
0.1860877421510044
 10
0.2223512634429325
 20
0.1851287292555442
 10
0.222031437323102
 20
0.1849156138773972
 10
0.2226710867148767
 20
0.1847025003010218
 10
0.2226710867148767
 20
0.184169714558312
 10
0.2222446528377318
 20
0.1836369306173738
 10
0.2213917879313283
 20
0.1832107016628518
 10
0.2209653540541843
 20
0.1826779159201416
 10
0.2210719618114987
 20
0.1819320184028285
 10
0.2214983956886427
 20
0.1816123462364937
 10
0.222031437323102
 20
0.1816123462364937
 10
0.2221380450804173
 20
0.1809730037055962
 10
0.2217116140511579
 20
0.1790549779146758
 10
0.2207521385395545
 20
0.1757517102737728
 10
0.2198992707852656
 20
0.1735140123165172
 10
0.2190464058788621
 20
0.1721287704665345
  0
LWPOLYLINE
  5
1284
330
2
100
AcDbEntity
  8
Profilo
  6
Continuous
370
     0
100
AcDbPolyline
 90
        8
 70
   128
 43
0.0
 10
0.2160613744346214
 20
0.1718091001019718
 10
0.2172340654608553
 20
0.1755385948956253
 10
0.2173406732181689
 20
0.1785221921719656
 10
0.21712745770354
 20
0.1818254598128691
 10
0.2162745899492511
 20
0.1850221706655845
 10
0.2153151144376468
 20
0.1870467550464646
 10
0.2136093817769544
 20
0.18875166726101
 10
0.212756516870551
 20
0.1892844530037202
  0
LWPOLYLINE
  5
1285
330
2
100
AcDbEntity
  8
Profilo
  6
Continuous
370
     0
100
AcDbPolyline
 90
        7
 70
   128
 43
0.0
 10
0.2078525344031035
 20
0.1696779589329044
 10
0.2058269784704669
 20
0.1734074555283295
 10
0.2047608952015483
 20
0.1768172799574202
 10
0.2043344613244034
 20
0.1804402197646585
 10
0.2047608952015483
 20
0.1837434874055616
 10
0.2059335862277813
 20
0.1861942989391921
 10
0.207426103373844
 20
0.1882188815183002
  0
LWPOLYLINE
  5
1286
330
2
100
AcDbEntity
  8
Profilo
  6
Continuous
370
     0
100
AcDbPolyline
 90
       11
 70
   128
 43
0.0
 10
0.2211785724166995
 20
0.1878992111537375
 10
0.220858746296869
 20
0.18981723874643
 10
0.220858746296869
 20
0.1910959220064529
 10
0.2210719618114987
 20
0.1922680502800601
 10
0.2217116140511579
 20
0.1932270631755207
 10
0.2234173467118503
 20
0.1938664057064182
 10
0.2251230793725427
 20
0.1934401767518957
 10
0.2261891597935759
 20
0.1925877206446233
 10
0.2271486353051793
 20
0.1915221509609754
 10
0.2271486353051793
 20
0.1891778962155325
 10
0.2266155936707199
 20
0.1872598686228401
  0
LWPOLYLINE
  5
1287
330
2
100
AcDbEntity
  8
Profilo
  6
Continuous
370
     0
100
AcDbPolyline
 90
        9
 70
   128
 43
0.0
 10
0.2271486353051793
 20
0.1904565794755554
 10
0.2286411524512428
 20
0.1918418213255381
 10
0.2294940173576454
 20
0.1918418213255381
 10
0.2313063577756531
 20
0.1921614916901008
 10
0.2330120904363455
 20
0.1918418213255381
 10
0.2342913920677794
 20
0.1906696948537024
 10
0.2346112153397235
 20
0.1890713394273448
 10
0.2349310414595531
 20
0.1877926543655498
 10
0.2324790488018862
 20
0.1850221706655845
  0
LWPOLYLINE
  5
1288
330
2
100
AcDbEntity
  8
Profilo
  6
Continuous
370
     0
100
AcDbPolyline
 90
        9
 70
   128
 43
0.0
 10
0.2340781737052642
 20
0.1863008557273799
 10
0.2351442569741828
 20
0.1860877421510044
 10
0.2353574724888117
 20
0.1850221706655845
 10
0.2363169480004159
 20
0.1847025003010218
 10
0.2378094651464786
 20
0.184382829936459
 10
0.2386623300528829
 20
0.1835303738291866
 10
0.2387689378101965
 20
0.1822516887673912
 10
0.2379160729037939
 20
0.1806533333410335
 10
0.2368499896348752
 20
0.1799074340219483
  0
LWPOLYLINE
  5
1289
330
2
100
AcDbEntity
  8
Profilo
  6
Continuous
370
     0
100
AcDbPolyline
 90
       18
 70
   128
 43
0.0
 10
0.2049157980239493
 20
0.1660463328311735
 10
0.2036491795507529
 20
0.168699774691048
 10
0.2009207916069369
 20
0.1730612145580667
 10
0.1977211494545448
 20
0.177351583145685
 10
0.1943567875448546
 20
0.1811350022786723
 10
0.1913293946607326
 20
0.184921024573416
 10
0.1897308302321199
 20
0.1868976610104555
 10
0.1888112218305378
 20
0.1882053091540393
 10
0.1887048597797532
 20
0.1889124354514778
 10
0.189072261759033
 20
0.1893535324545553
 10
0.1895789693978398
 20
0.1891888931624753
 10
0.1900527351414909
 20
0.1889228633113357
 10
0.1908710020153115
 20
0.1876481430261673
 10
0.194073153989192
 20
0.1830206738647872
 10
0.1981569493528439
 20
0.1776583622880642
 10
0.2004369848172405
 20
0.1746756412872515
 10
0.2040394840927298
 20
0.1705906585744531
 10
0.2071606872800564
 20
0.1677830047255778
  0
LWPOLYLINE
  5
128A
330
2
100
AcDbEntity
  8
Profilo
  6
Continuous
370
     0
100
AcDbPolyline
 90
       12
 70
   128
 43
0.0
 10
0.1796603840623505
 20
0.1590074513734111
 10
0.1773194827370337
 20
0.1611131906653586
 10
0.1754093590734063
 20
0.1641999080954865
 10
0.1747153371700887
 20
0.1668914901110657
 10
0.1744621374016799
 20
0.1692156522732248
 10
0.1745863814921376
 20
0.170632511295136
 10
0.1748499321221675
 20
0.1714436367303903
 10
0.1759166837497301
 20
0.1730026356026016
 10
0.1786278084049768
 20
0.1754845766586502
 10
0.1802367228151653
 20
0.1766432251105227
 10
0.1837331681418584
 20
0.177749053727399
 10
0.1851798760434096
 20
0.1780636510373236
  0
LWPOLYLINE
  5
128B
330
2
100
AcDbEntity
  8
Profilo
  6
Continuous
370
     0
100
AcDbPolyline
 90
       39
 70
   128
 43
0.0
 10
0.2022727657793655
 20
0.1589463910339127
 10
0.1973067108219664
 20
0.1560761749615059
 10
0.1923965020825089
 20
0.154757141745487
 10
0.1898020911732083
 20
0.1547033587241345
 10
0.1886848228327582
 20
0.1554026662972504
 10
0.188241490876361
 20
0.1561071867244329
 10
0.1874307569406839
 20
0.1563706101485388
 10
0.1866934405670029
 20
0.1558255145644246
 10
0.1859561250733672
 20
0.1552804216888101
 10
0.184942708082168
 20
0.1556097008297478
 10
0.1844385102648496
 20
0.155437239548066
 10
0.1830576904608283
 20
0.1553254249512054
 10
0.1823787309601204
 20
0.1559944083844381
 10
0.1824395985346281
 20
0.1568713895365251
 10
0.1828044898123742
 20
0.157649584404863
 10
0.1835088599836801
 20
0.1580932878349742
 10
0.1826956162265136
 20
0.1586938118328415
 10
0.1816492556265712
 20
0.1589217009714982
 10
0.181205923670174
 20
0.1596262213986807
 10
0.1814340199899278
 20
0.1606730546969152
 10
0.1819382169271999
 20
0.1608455132700964
 10
0.1810565752510152
 20
0.1615803551286615
 10
0.1806132432946179
 20
0.1622848755558449
 10
0.1802003442454283
 20
0.1634278838505711
 10
0.1806032022485717
 20
0.1636332724338906
 10
0.1802916456071899
 20
0.1647433555787013
 10
0.1806515163619129
 20
0.1661957488860623
 10
0.1812849787927111
 20
0.1671108707506322
 10
0.1820248049878805
 20
0.1673188657609855
 10
0.1830382219790807
 20
0.1669895866200474
 10
0.183509477021198
 20
0.1670606546341694
 10
0.1842872673481319
 20
0.1666958412077816
 10
0.18479648740206
 20
0.1661941034936621
 10
0.1851689090243176
 20
0.1659609993492165
 10
0.1854679130845782
 20
0.1665364142129909
 10
0.1862102499812823
 20
0.1664073113580834
 10
0.1868208106829257
 20
0.1658726430770475
 10
0.1874363936211787
 20
0.1646637758002109
 10
0.1882166946496473
 20
0.1639618645085622
  0
LWPOLYLINE
  5
128C
330
2
100
AcDbEntity
  8
Profilo
  6
Continuous
370
     0
100
AcDbPolyline
 90
       19
 70
   128
 43
0.0
 10
0.2034662721989213
 20
0.1615851510627745
 10
0.1999368832634851
 20
0.1603779324436162
 10
0.1974792681922231
 20
0.1600555137008676
 10
0.194547889970941
 20
0.1599991269609814
 10
0.1921181979853981
 20
0.1604522966595378
 10
0.1900204545489044
 20
0.1615822739326515
 10
0.1887309343465531
 20
0.1627859256469201
 10
0.1881128407067654
 20
0.1643318907890171
 10
0.1878646631749663
 20
0.1659818539553749
 10
0.1880598141723895
 20
0.1669272978081052
 10
0.1888579963604875
 20
0.1683493691273067
 10
0.1902692491182205
 20
0.1688996775654888
 10
0.1925900683514459
 20
0.1694907320296323
 10
0.1956582450043967
 20
0.1692784851998451
 10
0.197685078986797
 20
0.1686199269179692
 10
0.2001881902479234
 20
0.1673582376544142
 10
0.2019844172090353
 20
0.1659899439395655
 10
0.2033448468654817
 20
0.1643148732340595
 10
0.2039933725789349
 20
0.1632073992247834
  0
LWPOLYLINE
  5
128D
330
2
100
AcDbEntity
  8
Profilo
  6
Continuous
370
     0
100
AcDbPolyline
 90
       11
 70
   128
 43
0.0
 10
0.2020424668600662
 20
0.1627203406331771
 10
0.2011024683109084
 20
0.1622411034743944
 10
0.1999218199808301
 20
0.1624005283174627
 10
0.1992453720617013
 20
0.1627324165939342
 10
0.1987361537213608
 20
0.1632341537512755
 10
0.1985968463482473
 20
0.1638398906032107
 10
0.1989642500411146
 20
0.16428098704951
 10
0.1998713032679427
 20
0.164658834762789
 10
0.2008517783639871
 20
0.1642281650627911
 10
0.2019665368829488
 20
0.1638659580634375
 10
0.2021717314735469
 20
0.1634630012160653
  0
LWPOLYLINE
  5
128E
330
2
100
AcDbEntity
  8
Profilo
  6
Continuous
370
     0
100
AcDbPolyline
 90
       11
 70
   128
 43
0.0
 10
0.2022172268298692
 20
0.1618788964750403
 10
0.2006362346253554
 20
0.1614958337559719
 10
0.1984092265753801
 20
0.1618831504461965
 10
0.1973248992500403
 20
0.1626838458698711
 10
0.1965420892801277
 20
0.163722860443782
 10
0.1963343839879959
 20
0.1644629151564146
 10
0.197238929106923
 20
0.1651778628866772
 10
0.1982802691838423
 20
0.1656241721870441
 10
0.2006390525488322
 20
0.1656424182144468
 10
0.2016549802415661
 20
0.1649760412082474
 10
0.2026075313718461
 20
0.1637697803584449
  0
LWPOLYLINE
  5
128F
330
2
100
AcDbEntity
  8
Profilo
  6
Continuous
370
     0
100
AcDbPolyline
 90
        8
 70
   128
 43
0.0
 10
0.1977757624309953
 20
0.1609680291384038
 10
0.1962531253858679
 20
0.1617990459934614
 10
0.1954678047144216
 20
0.1631751584326336
 10
0.1951537382515496
 20
0.1646223421512053
 10
0.1955870274483149
 20
0.1652662191588462
 10
0.1963218331204613
 20
0.1661484126082225
 10
0.1974315711163999
 20
0.1664604040478911
 10
0.1994533845757762
 20
0.1664760442050378
  0
LWPOLYLINE
  5
1290
330
2
100
AcDbEntity
  8
Profilo
  6
Continuous
370
     0
100
AcDbPolyline
 90
       11
 70
   128
 43
0.0
 10
0.1964937742867421
 20
0.1611603812831103
 10
0.1934839553868097
 20
0.1625867098387453
 10
0.1924655161589999
 20
0.1635901879754843
 10
0.1919867307723711
 20
0.1645304189741476
 10
0.1917435711699622
 20
0.1655061815497595
 10
0.1918424028762344
 20
0.1658103542651054
 10
0.1923440917056047
 20
0.1663199128552698
 10
0.1934183753912673
 20
0.1668676121579186
 10
0.1945965113062242
 20
0.1670452857368897
 10
0.1961445616155824
 20
0.1673269578968984
 10
0.1977635187854028
 20
0.1671372089139479
  0
LWPOLYLINE
  5
1291
330
2
100
AcDbEntity
  8
Profilo
  6
Continuous
370
     0
100
AcDbPolyline
 90
       12
 70
   128
 43
0.0
 10
0.1957868925803603
 20
0.1610537789835386
 10
0.1929822665574386
 20
0.1620771512485809
 10
0.191322834554319
 20
0.1631768065335338
 10
0.1903373389352523
 20
0.1642816746725543
 10
0.1900257822938696
 20
0.165391757817365
 10
0.1899194202430849
 20
0.1660988841148036
 10
0.1900511955580995
 20
0.1665044468324309
 10
0.1909557406770266
 20
0.1672193945626931
 10
0.1927039624603286
 20
0.1677723061626312
 10
0.1939834399030471
 20
0.1679170518831864
 10
0.1956682851703975
 20
0.1679300856132998
 10
0.1967830454029458
 20
0.1675678780571676
  0
LWPOLYLINE
  5
1292
330
2
100
AcDbEntity
  8
Profilo
  6
Continuous
370
     0
100
AcDbPolyline
 90
       48
 70
   128
 43
0.0
 10
0.1897625414794146
 20
0.1690643168575688
 10
0.1885489495405941
 20
0.1691223516983552
 10
0.1874746658549324
 20
0.1685746523957069
 10
0.1863649278589929
 20
0.1682626609560379
 10
0.1855896473535474
 20
0.168290373808664
 10
0.1855516832217821
 20
0.1688631822454051
 10
0.1855821152954484
 20
0.1693016733782265
 10
0.1845712090057829
 20
0.169293854653903
 10
0.1835957561463482
 20
0.1690503253581005
 10
0.1827850222106711
 20
0.1693137487822064
 10
0.1819692677519709
 20
0.1702513706453349
 10
0.1818958475963419
 20
0.1710598875018335
 10
0.1822936833628757
 20
0.1719394750809543
 10
0.1828612594097314
 20
0.1726518136756822
 10
0.1835326876858816
 20
0.1729941265467333
 10
0.1836315193921547
 20
0.1732982992620792
 10
0.1832590951762643
 20
0.1735314012548025
 10
0.1830539014192083
 20
0.173934354836896
 10
0.183656930942798
 20
0.1744109888339228
 10
0.1857116897245041
 20
0.1745280184365733
 10
0.1858105205507319
 20
0.1748321884434191
 10
0.1852354141593646
 20
0.1751311488614752
 10
0.1850961067862511
 20
0.17573688571341
 10
0.185633249045853
 20
0.1760107337320954
 10
0.1870140697299196
 20
0.1761225510374566
 10
0.187893201584616
 20
0.1757248097526528
 10
0.1887014256988047
 20
0.1757984869023083
 10
0.1888332001337738
 20
0.1762040469114351
 10
0.1885596076241565
 20
0.1767413216195047
 10
0.1881162756677592
 20
0.1774458420466877
 10
0.1883139382002592
 20
0.1780541847688785
 10
0.1887472291106112
 20
0.1786980612197407
 10
0.190095104472348
 20
0.1787084890795986
 10
0.1909083491095598
 20
0.1781079677902314
 10
0.1910122021723963
 20
0.1777379388012755
 10
0.1914125477604185
 20
0.1782804258066349
 10
0.1919192571128128
 20
0.1781157859577768
 10
0.1922941894366041
 20
0.177545583948069
 10
0.1924360075112515
 20
0.1766027492308729
 10
0.1928109415486303
 20
0.1760325466643878
 10
0.1935532758517016
 20
0.1759034416577571
 10
0.1939890774635873
 20
0.1762102202433585
 10
0.1941537963873441
 20
0.1767171729632678
 10
0.1947947908762413
 20
0.1766209952582757
 10
0.1964871673681494
 20
0.1756227326841043
 10
0.199332267344325
 20
0.17368945140856
 10
0.2011968939380426
 20
0.1721868392762357
 10
0.2022507874761286
 20
0.170947653276517
  0
LWPOLYLINE
  5
1293
330
2
100
AcDbEntity
  8
Profilo
  6
Continuous
370
     0
100
AcDbPolyline
 90
        8
 70
   128
 43
0.0
 10
0.2016323866143987
 20
0.1680099360948787
 10
0.1984478077446634
 20
0.1702777088086501
 10
0.1956431817217417
 20
0.1713010810736916
 10
0.1924357002893085
 20
0.1721190669071363
 10
0.1891318969720923
 20
0.1722957794514738
 10
0.1869099085650947
 20
0.1720088949941753
 10
0.184761340313726
 20
0.1709134936803781
 10
0.1839910812113481
 20
0.1702670108024816
  0
LWPOLYLINE
  5
1294
330
2
100
AcDbEntity
  8
Profilo
  6
Continuous
370
     0
100
AcDbPolyline
 90
        7
 70
   128
 43
0.0
 10
0.2011225512365411
 20
0.1595443064530248
 10
0.1969496579907193
 20
0.1587703661126204
 10
0.1933772844004955
 20
0.1588101543692259
 10
0.189799888573662
 20
0.1595241416216325
 10
0.1867900696737288
 20
0.1609504701772676
 10
0.1848215908507158
 20
0.1628231080332695
 10
0.1833573115586069
 20
0.164868206614175
  0
LWPOLYLINE
  5
1295
330
2
100
AcDbEntity
  8
Profilo
  6
Continuous
370
     0
100
AcDbPolyline
 90
       11
 70
   128
 43
0.0
 10
0.1879110827907478
 20
0.1778487983372817
 10
0.1859880984440117
 20
0.1781373287437576
 10
0.1847719983972893
 20
0.1785324636015276
 10
0.1837231253822256
 20
0.1790974511622229
 10
0.1830087133313323
 20
0.180002147875436
 10
0.1829277628311918
 20
0.181821963744719
 10
0.1838602310358382
 20
0.1833124999162862
 10
0.1850004019389853
 20
0.1840629792234979
 10
0.1863103131689567
 20
0.1846462155200969
 10
0.1885398319204659
 20
0.1839218009646105
 10
0.1901992656371729
 20
0.1828221451228794
  0
LWPOLYLINE
  5
1296
330
2
100
AcDbEntity
  8
Profilo
  6
Continuous
370
     0
100
AcDbPolyline
 90
        9
 70
   128
 43
0.0
 10
0.1873237318737435
 20
0.1843169358223805
 10
0.1864675017482029
 20
0.1861644672527901
 10
0.1867310514981875
 20
0.1869755899795443
 10
0.1869870709036596
 20
0.1887980117190834
 10
0.1878181958669587
 20
0.1903214763058442
 10
0.1893282803309639
 20
0.1911759574593727
 10
0.1909472375007852
 20
0.1909862084764217
 10
0.1922621709673664
 20
0.1908952457772194
 10
0.1941393501422062
 20
0.187707135636309
  0
LWPOLYLINE
  5
1297
330
2
100
AcDbEntity
  8
Profilo
  6
Continuous
370
     0
100
AcDbPolyline
 90
        9
 70
   128
 43
0.0
 10
0.1934174051531685
 20
0.1896231292105851
 10
0.1939495260562061
 20
0.1905711789335706
 10
0.1950288319784774
 20
0.1904446792404181
 10
0.1956293508005333
 20
0.1912584111027066
 10
0.196394588546347
 20
0.1925790956849044
 10
0.1974688722320095
 20
0.1931267949875531
 10
0.1987179176010607
 20
0.1928330495752865
 10
0.1999744941946697
 20
0.1915280078587364
 10
0.2003544487550708
 20
0.1902836068532278
  0
LWPOLYLINE
  5
1298
330
2
100
AcDbEntity
  8
Profilo
  6
Continuous
370
     0
100
AcDbPolyline
 90
       18
 70
   128
 43
0.0
 10
0.2036689314561815
 20
0.1556290700003383
 10
0.2007539516511314
 20
0.1552444028760324
 10
0.1957628576032868
 20
0.1539973107819385
 10
0.1906937307997167
 20
0.1522800670688002
 10
0.1860558403740913
 20
0.1502495095603501
 10
0.1815196033499933
 20
0.1485402330606781
 10
0.1791457268111558
 20
0.1476307221948746
 10
0.1776179048989204
 20
0.1471602081311399
 10
0.1769125201446484
 20
0.1472775658527331
 10
0.1766065454209182
 20
0.1477632923693456
 10
0.1769197079640601
 20
0.1481943236318944
 10
0.177319119053656
 20
0.1485626938845784
 10
0.178784308457264
 20
0.1489470016958024
 10
0.1841748125356495
 20
0.1505624625849166
 10
0.1905366360720149
 20
0.1527893373703929
 10
0.1940779420224037
 20
0.1540360684774608
 10
0.1990762249487141
 20
0.1561999198083811
 10
0.2027109672649687
 20
0.158300747684745
  0
LWPOLYLINE
  5
1299
330
2
100
AcDbEntity
  8
Profilo
  6
Continuous
370
     0
100
AcDbPolyline
 90
       12
 70
   128
 43
0.0
 10
0.2025589534199077
 20
0.1294346099885889
 10
0.1998328980530046
 20
0.1278589897560779
 10
0.1963069946537011
 20
0.1269962023415984
 10
0.193532683476048
 20
0.1271678928725645
 10
0.19124403087539
 20
0.1276452911886846
 10
0.1899349114053321
 20
0.1282012878569297
 10
0.1892449268981573
 20
0.1287025909450566
 10
0.1880918752435385
 20
0.1301988891774438
 10
0.1865691926214637
 20
0.1335442839126607
 10
0.1859644343564573
 20
0.1354324945087658
 10
0.1859931898703224
 20
0.139099531456068
 10
0.1861410473761862
 20
0.1405726483481656
  0
LWPOLYLINE
  5
129A
330
2
100
AcDbEntity
  8
Profilo
  6
Continuous
370
     0
100
AcDbPolyline
 90
       39
 70
   128
 43
0.0
 10
0.2096046354875258
 20
0.1509213942869226
 10
0.2107997778095272
 20
0.1453114498155058
 10
0.2105369149984111
 20
0.1402339601175809
 10
0.2097863486299683
 20
0.1377499088487367
 10
0.2087760127011866
 20
0.1369034214374897
 10
0.2079689768493744
 20
0.1366994964763594
 10
0.2074679157212933
 20
0.136009844998617
 10
0.2077584891388704
 20
0.135140171657807
 10
0.2080490602524612
 20
0.134270499990942
 10
0.2074227341071224
 20
0.1334084360081801
 10
0.2074309488387969
 20
0.1328756219216066
 10
0.207110594054146
 20
0.1315278316385134
 10
0.2062645429764651
 20
0.1310888300308891
 10
0.2054492934520344
 20
0.1314177206139969
 10
0.204821943757477
 20
0.1320052282806882
 10
0.2046176190722311
 20
0.1328122360223599
 10
0.2037951806693345
 20
0.1322243673686413
 10
0.2032551020113957
 20
0.1312996409183503
 10
0.2024480661595844
 20
0.13109571595722
 10
0.2015229541689822
 20
0.1316361377278966
 10
0.2015147417412959
 20
0.1321689501405246
 10
0.2005434233423702
 20
0.1315575377018262
 10
0.199736387490558
 20
0.1313536127406963
 10
0.1985217291805195
 20
0.1313141313971752
 10
0.1984508829992717
 20
0.1317607406889022
 10
0.1972988548938726
 20
0.1318074672718362
 10
0.1960287529536715
 20
0.1325985389126308
 10
0.1953541709975828
 20
0.1334837856933461
 10
0.1953849748548202
 20
0.1342516762101319
 10
0.196011301000159
 20
0.1351137401928938
 10
0.1960893371189267
 20
0.1355838915956565
 10
0.1966766457344087
 20
0.1362108806058689
 10
0.1973111843074329
 20
0.1365401321760032
 10
0.1976479641333335
 20
0.1368222930445674
 10
0.197193109413575
 20
0.1372844757762001
 10
0.1975452882416406
 20
0.1379505851429076
 10
0.1982424616272813
 20
0.1383660412916058
 10
0.1995823883176207
 20
0.1385779349238657
 10
0.200491071903929
 20
0.1391031427839994
  0
LWPOLYLINE
  5
129B
330
2
100
AcDbEntity
  8
Profilo
  6
Continuous
370
     0
100
AcDbPolyline
 90
       19
 70
   128
 43
0.0
 10
0.2074638393336765
 20
0.1528719080374762
 10
0.2075213313072113
 20
0.1491422086226445
 10
0.2070685249308259
 20
0.1467052449237608
 10
0.2062163062199098
 20
0.1438999141038028
 10
0.2050345001104818
 20
0.141729176846552
 10
0.2033115894899056
 20
0.1400832864624083
 10
0.2017683650265849
 20
0.1392288287060853
 10
0.2001070633654183
 20
0.1391187162239041
 10
0.1984611640694589
 20
0.1393925520235856
 10
0.1976222985072016
 20
0.139870309869068
 10
0.1965164801731683
 20
0.1410688704450954
 10
0.1964292068325606
 20
0.1425811062360235
 10
0.1965842532168911
 20
0.1449709823649467
 10
0.197734230674929
 20
0.1478234038864744
 10
0.1989868829656056
 20
0.1495475318519982
 10
0.2009603246797487
 20
0.1515382487038451
 10
0.2028167139902002
 20
0.1528237360487715
 10
0.2048301967834196
 20
0.1535999562237144
 10
0.2060838726233158
 20
0.153874512539785
  0
LWPOLYLINE
  5
129C
330
2
100
AcDbEntity
  8
Profilo
  6
Continuous
370
     0
100
AcDbPolyline
 90
       11
 70
   128
 43
0.0
 10
0.2059442298491265
 20
0.1518685815611139
 10
0.2061095359454597
 20
0.1508264973892294
 10
0.2055930735112263
 20
0.1497528990872895
 10
0.2050683951003855
 20
0.1492121180035314
 10
0.2044338575864155
 20
0.1488828678910613
 10
0.2038147192604893
 20
0.1489375616874612
 10
0.2035087455958133
 20
0.1494232896617379
 10
0.2034296859278251
 20
0.1504027099084287
 10
0.2041422606196179
 20
0.1512021128813253
 10
0.2048312192735842
 20
0.152150383116597
 10
0.2052778626247123
 20
0.1522210142552566
  0
LWPOLYLINE
  5
129D
330
2
100
AcDbEntity
  8
Profilo
  6
Continuous
370
     0
100
AcDbPolyline
 90
       11
 70
   128
 43
0.0
 10
0.2067984945994268
 20
0.151774767624501
 10
0.2066742554353769
 20
0.1501527817960829
 10
0.2056177120392175
 20
0.1481544587177966
 10
0.2045211298679681
 20
0.1473706306424695
 10
0.2032910667028553
 20
0.146947207280305
 10
0.2025230483809008
 20
0.1469783572917241
 10
0.2021226124971513
 20
0.1480595618201034
 10
0.2020199389094466
 20
0.1491878522444977
 10
0.2027314900520198
 20
0.1514368268668475
 10
0.2036791911681859
 20
0.1521971096995306
 10
0.2051207678970095
 20
0.1527302845568493
  0
LWPOLYLINE
  5
129E
330
2
100
AcDbEntity
  8
Profilo
  6
Continuous
370
     0
100
AcDbPolyline
 90
        8
 70
   128
 43
0.0
 10
0.2062922929362512
 20
0.1472692104794172
 10
0.2050314282178891
 20
0.1460778949265215
 10
0.2034799900819482
 20
0.1457562527144357
 10
0.2020065847017336
 20
0.1459047621213935
 10
0.2015281150032044
 20
0.1465158135730654
 10
0.2009161666147983
 20
0.1474872680639546
 10
0.2009623730231218
 20
0.1486391022733292
 10
0.2015722730681548
 20
0.1505667942129559
  0
LWPOLYLINE
  5
129F
330
2
100
AcDbEntity
  8
Profilo
  6
Continuous
370
     0
100
AcDbPolyline
 90
       11
 70
   128
 43
0.0
 10
0.2057131990524446
 20
0.1461094073826313
 10
0.2034265947951597
 20
0.1436876592682356
 10
0.2021575153451223
 20
0.1430291578019128
 10
0.2011153497058946
 20
0.1428643531972776
 10
0.2001122039005119
 20
0.1429346218912461
 10
0.1998534591343248
 20
0.14312261096778
 10
0.1995238704908782
 20
0.143757207662096
 10
0.1993349494157726
 20
0.1449481605540203
 10
0.1995300358201244
 20
0.1461235385483751
 10
0.1997405235306284
 20
0.1476828633669275
 10
0.2004212708159634
 20
0.149163947472491
  0
LWPOLYLINE
  5
12A0
330
2
100
AcDbEntity
  8
Profilo
  6
Continuous
370
     0
100
AcDbPolyline
 90
       12
 70
   128
 43
0.0
 10
0.2055961454038191
 20
0.14540418100732
 10
0.2037561834386055
 20
0.1430530625739196
 10
0.2021975564241987
 20
0.1418146611250083
 10
0.2008422294867631
 20
0.1412188221262151
 10
0.199690201381364
 20
0.1412655487091486
 10
0.198984816627092
 20
0.1413829064307418
 10
0.198639824373505
 20
0.1416335579748053
 10
0.1982393884897555
 20
0.1427147625031845
 10
0.1982537685506762
 20
0.1445482793028906
 10
0.1985114874636564
 20
0.1458098635497552
 10
0.1990197374702034
 20
0.1474162742643231
 10
0.1997086971832247
 20
0.148364545957259
  0
LWPOLYLINE
  5
12A1
330
2
100
AcDbEntity
  8
Profilo
  6
Continuous
370
     0
100
AcDbPolyline
 90
       48
 70
   128
 43
0.0
 10
0.1961160442894196
 20
0.1421500749734746
 10
0.1956858293425854
 20
0.1410138142040048
 10
0.1958747504176901
 20
0.1398228613120814
 10
0.1958285440093674
 20
0.1386710271027064
 10
0.1955626126687018
 20
0.1379422552684694
 10
0.1950061079104581
 20
0.1380831567750428
 10
0.1945984820891877
 20
0.1382476006089323
 10
0.1942935309146772
 20
0.1372837554760916
 10
0.1942237095275821
 20
0.1362807899867563
 10
0.1937226483995009
 20
0.1355911385090144
 10
0.1925788350257762
 20
0.1351050510053749
 10
0.1917872017250493
 20
0.1352850697368334
 10
0.1910736022391037
 20
0.135935241545
 10
0.1905715186208572
 20
0.136695163174375
 10
0.1904534424820672
 20
0.137439509906181
 10
0.1901946977158793
 20
0.137627498982715
 10
0.1898579191349117
 20
0.1373453349825408
 10
0.1894112791468277
 20
0.1372747036276004
 10
0.1891443196489662
 20
0.1379955067907074
 10
0.1896679732656543
 20
0.1399858626555278
 10
0.1894092308034545
 20
0.1401738500581163
 10
0.1889471849012421
 20
0.1397192752268689
 10
0.188328046575315
 20
0.1397739690232679
 10
0.1882335877192838
 20
0.1403694453610896
 10
0.1885539401999465
 20
0.1417172373181282
 10
0.1892038813240569
 20
0.1424304325808509
 10
0.1893835651773226
 20
0.1432218668826174
 10
0.1890385752277237
 20
0.1434725167527354
 10
0.1884430518805682
 20
0.1433783418290956
 10
0.187636016028756
 20
0.1431744168679657
 10
0.1871185288003692
 20
0.1435503933470882
 10
0.1866400601608951
 20
0.1441614462564239
 10
0.1870466590699018
 20
0.1454465742882692
 10
0.1878690951688111
 20
0.1460344446159328
 10
0.1882531060113108
 20
0.1460188695020822
 10
0.1878608838001798
 20
0.1465672584862246
 10
0.1881740474023768
 20
0.1469982912064377
 10
0.1888322021991056
 20
0.1471786709249226
 10
0.1897727154958599
 20
0.1470221959784445
 10
0.1904308713516438
 20
0.1472025771545941
 10
0.1907830514246425
 20
0.1478686833896919
 10
0.1906259577559957
 20
0.1483779551489485
 10
0.1901947180150079
 20
0.1486912691605419
 10
0.1904842666384332
 20
0.1492711706007942
 10
0.191956643861452
 20
0.15057223619118
 10
0.1946744878597246
 20
0.1526806702939828
 10
0.1966797582252577
 20
0.1539897028815537
 10
0.1981839651587225
 20
0.1546090856653272
  0
LWPOLYLINE
  5
12A2
330
2
100
AcDbEntity
  8
Profilo
  6
Continuous
370
     0
100
AcDbPolyline
 90
        8
 70
   128
 43
0.0
 10
0.2007868038517411
 20
0.1531131469623032
 10
0.1976459348441568
 20
0.1507852127845203
 10
0.1958059728789441
 20
0.1484340943511194
 10
0.194036855850046
 20
0.1456363697576003
 10
0.1928478608621504
 20
0.1425488732635239
 10
0.1924340720156219
 20
0.1403469845371897
 10
0.1928119164698194
 20
0.1379650770793962
 10
0.1931887350708093
 20
0.1370327429450012
  0
LWPOLYLINE
  5
12A3
330
2
100
AcDbEntity
  8
Profilo
  6
Continuous
370
     0
100
AcDbPolyline
 90
        7
 70
   128
 43
0.0
 10
0.2086805482910763
 20
0.1500122412765364
 10
0.2081271143663703
 20
0.1458044232454766
 10
0.2069853493360179
 20
0.1424191893113208
 10
0.2052008310009676
 20
0.1392375178936046
 10
0.2029142267436828
 20
0.1368157697792084
 10
0.2005249488986931
 20
0.1355223120892069
 10
0.1981274573810832
 20
0.1347616699434427
  0
LWPOLYLINE
  5
12A4
330
2
100
AcDbEntity
  8
Profilo
  6
Continuous
370
     0
100
AcDbPolyline
 90
       11
 70
   128
 43
0.0
 10
0.1871893737366839
 20
0.1431037871869708
 10
0.1863207301703969
 20
0.1413640811922684
 10
0.1855691390078014
 20
0.140329604704487
 10
0.1847076843199811
 20
0.1395066579466101
 10
0.1836265011508957
 20
0.1391067783694259
 10
0.1818707383297107
 20
0.1395921438990119
 10
0.1807413027129186
 20
0.1409395748690235
 10
0.180379886663014
 20
0.1422558526960068
 10
0.1802299808137779
 20
0.1436818822344251
 10
0.1816078991807664
 20
0.1455784241626327
 10
0.1831665272542273
 20
0.1468168270692077
  0
LWPOLYLINE
  5
12A5
330
2
100
AcDbEntity
  8
Profilo
  6
Continuous
370
     0
100
AcDbPolyline
 90
        9
 70
   128
 43
0.0
 10
0.1808563080181709
 20
0.1445439476748508
 10
0.178834611552332
 20
0.1443005430441456
 10
0.1781446293491462
 20
0.1448018444583271
 10
0.1764905176255005
 20
0.1456084926706357
 10
0.1752984484410249
 20
0.1468697159304738
 10
0.1749524303342294
 20
0.1485699407979363
 10
0.1756331776195652
 20
0.1500510249034993
 10
0.1761260250750278
 20
0.1512734919254789
 10
0.1797381782657186
 20
0.1520736151984835
  0
LWPOLYLINE
  5
12A6
330
2
100
AcDbEntity
  8
Profilo
  6
Continuous
370
     0
100
AcDbPolyline
 90
        9
 70
   128
 43
0.0
 10
0.1776928668211082
 20
0.1519790792878172
 10
0.1769556523563911
 20
0.1527781198160226
 10
0.177409484585985
 20
0.1537655101915073
 10
0.1768211501172954
 20
0.1545880945046935
 10
0.1758015759076197
 20
0.1557239928294726
 10
0.1756126548325141
 20
0.1569149457213964
 10
0.1762779995667647
 20
0.1580120861343711
 10
0.1779074715174853
 20
0.1588038814231646
 10
0.1792083796189128
 20
0.1587806986252108
  0
LWPOLYLINE
  5
12A7
330
2
100
AcDbEntity
  8
Profilo
  6
Continuous
370
     0
100
AcDbPolyline
 90
       18
 70
   128
 43
0.0
 10
0.2131910341942489
 20
0.151224118176514
 10
0.2126560960714046
 20
0.1483329389594644
 10
0.2122998182526055
 20
0.1432007537911942
 10
0.2123665677471078
 20
0.1378490702218894
 10
0.212864555737664
 20
0.1328106975325684
 10
0.2130883999598674
 20
0.1279682842648563
 10
0.2132198280023831
 20
0.1254295391996126
 10
0.213195190533447
 20
0.123831097372456
 10
0.2128656008309453
 20
0.1231965021358042
 10
0.2123090960727016
 20
0.1230556006292308
 10
0.2119959335295598
 20
0.1234866318917797
 10
0.2117690174147628
 20
0.1239803270795218
 10
0.2118562873923282
 20
0.1254925626541691
 10
0.2119856501553845
 20
0.1311184415525176
 10
0.2118336779676357
 20
0.1378570374353553
 10
0.2117422899451422
 20
0.1416102806351677
 10
0.2112288994034999
 20
0.1470325970170766
 10
0.2103540905079666
 20
0.1511386338980577
  0
LWPOLYLINE
  5
12A8
330
2
100
AcDbEntity
  8
Profilo
  6
Continuous
370
     0
100
AcDbPolyline
 90
       12
 70
   128
 43
0.0
 10
0.237760444002665
 20
0.1420739330300657
 10
0.2384165504560207
 20
0.1389944068810643
 10
0.2381475459778302
 20
0.1353744575037227
 10
0.237126949277989
 20
0.1327889860718266
 10
0.2359656839507509
 20
0.1307598722952022
 10
0.2350323595324624
 20
0.1296866381118981
 10
0.2343423750252884
 20
0.1291853350237712
 10
0.232562998284386
 20
0.1285510993164817
 10
0.2289108040146179
 20
0.1281367259125822
 10
0.2269281284416791
 20
0.12814505578702
 10
0.2234494549999186
 20
0.1293055806415785
 10
0.2220941280624822
 20
0.1299014196403717
  0
LWPOLYLINE
  5
12A9
330
2
100
AcDbEntity
  8
Profilo
  6
Continuous
370
     0
100
AcDbPolyline
 90
       39
 70
   128
 43
0.0
 10
0.2195025332773626
 20
0.1554145563748716
 10
0.2252072268111527
 20
0.1548176360889434
 10
0.2299549773989615
 20
0.1529986080941171
 10
0.2320855127817523
 20
0.1515171630015267
 10
0.2325783591781589
 20
0.1502946974372114
 10
0.2325229155479973
 20
0.149464144452896
 10
0.2330239766760793
 20
0.1487744929751532
 10
0.2339408772980502
 20
0.1487821008755376
 10
0.234857775616033
 20
0.1487897071019769
 10
0.2354841017613709
 20
0.147927643119215
 10
0.2359933765620723
 20
0.1477708071857099
 10
0.2371762062207208
 20
0.1470496415779122
 10
0.2373322773992039
 20
0.1461093402300514
 10
0.2367675579092858
 20
0.145435624636905
 10
0.2360149431974707
 20
0.1450205294752332
 10
0.235184293425942
 20
0.1450755842586596
 10
0.2354892422964654
 20
0.1441117374518736
 10
0.2362018159292032
 20
0.1433123359366412
 10
0.2361463722990416
 20
0.1424817829523254
 10
0.2353465253256952
 20
0.1417689486766297
 10
0.2348372528289828
 20
0.1419257862840798
 10
0.2351185867207337
 20
0.1408130707572549
 10
0.2350631430905721
 20
0.1399825177729387
 10
0.2347253420194391
 20
0.1388151086659951
 10
0.2342786986683119
 20
0.1388857398046542
 10
0.2338782627845624
 20
0.1378045352762754
 10
0.2327334258616172
 20
0.1368410511304613
 10
0.2316830488537591
 20
0.1364730418648047
 10
0.2309622604893469
 20
0.1367396292934641
 10
0.230335934344009
 20
0.137601693276226
 10
0.2299129082756406
 20
0.1378211948088698
 10
0.2294980946349594
 20
0.1385735087541416
 10
0.2293810409863339
 20
0.139278735129453
 10
0.2292167607432076
 20
0.139686224280967
 10
0.2286366410061933
 20
0.1393964540543543
 10
0.2281119625953516
 20
0.139937235138112
 10
0.2279322787420859
 20
0.1407286694398785
 10
0.2281448160408952
 20
0.1420684941834512
 10
0.2279261123537846
 20
0.1430950017838214
  0
LWPOLYLINE
  5
12AA
330
2
100
AcDbEntity
  8
Profilo
  6
Continuous
370
     0
100
AcDbPolyline
 90
       19
 70
   128
 43
0.0
 10
0.216985942071743
 20
0.1539812801393762
 10
0.2205508630009034
 20
0.152883417752348
 10
0.2227286283412373
 20
0.1516997100998366
 10
0.225133306433325
 20
0.1500223070433014
 10
0.2268326020751288
 20
0.1482275479391181
 10
0.2278655281885284
 20
0.1460803544668471
 10
0.2282012832202773
 20
0.1443486188172202
 10
0.2277926359678974
 20
0.1427346004185491
 10
0.2270235917927343
 20
0.1412538770837314
 10
0.226309993365843
 20
0.140603703817901
 10
0.2248283778619302
 20
0.1399223836722602
 10
0.2233631872133901
 20
0.1403066883518754
 10
0.221138191915514
 20
0.1411926585643087
 10
0.2187807404179263
 20
0.1431677988446413
 10
0.2175280881272497
 20
0.144891926810165
 10
0.2162446309202806
 20
0.1473839467501389
 10
0.2155957156493788
 20
0.1495467153362601
 10
0.215479686794906
 20
0.1517015164926342
 10
0.2156059753613824
 20
0.1529786756370678
  0
LWPOLYLINE
  5
12AB
330
2
100
AcDbEntity
  8
Profilo
  6
Continuous
370
     0
100
AcDbPolyline
 90
       11
 70
   128
 43
0.0
 10
0.2174705770995193
 20
0.1522260007047694
 10
0.2185127404347598
 20
0.1520611944261893
 10
0.2193741974265682
 20
0.1512382493422578
 10
0.2197263762546338
 20
0.1505721399755503
 10
0.2198434288442042
 20
0.1498669150579032
 10
0.2196000876881574
 20
0.1492949808311167
 10
0.2190435818708587
 20
0.149154080782207
 10
0.2180876670820742
 20
0.149381548070653
 10
0.2175475873650803
 20
0.1503062759786081
 10
0.216858628711114
 20
0.1512545462138798
 10
0.2169294748923618
 20
0.1517011555056077
  0
LWPOLYLINE
  5
12AC
330
2
100
AcDbEntity
  8
Profilo
  6
Continuous
370
     0
100
AcDbPolyline
 90
       11
 70
   128
 43
0.0
 10
0.2178237817807926
 20
0.1530094646614609
 10
0.2193279899591904
 20
0.1523900850092962
 10
0.2209020182797494
 20
0.1507677367361874
 10
0.2213086205518002
 20
0.1494826089206237
 10
0.2213312096773641
 20
0.1481819043172644
 10
0.2210642535425458
 20
0.1474611013704387
 10
0.2199122254371466
 20
0.1474143747875051
 10
0.2188074295932787
 20
0.147665387318595
 10
0.2168884090191319
 20
0.1490370840476408
 10
0.2164581928273654
 20
0.150173341685501
 10
0.2163965851128897
 20
0.1517091227190736
  0
LWPOLYLINE
  5
12AD
330
2
100
AcDbEntity
  8
Profilo
  6
Continuous
370
     0
100
AcDbPolyline
 90
        8
 70
   128
 43
0.0
 10
0.2219523963466634
 20
0.1511357445441802
 10
0.2226957761406267
 20
0.149568454186107
 10
0.2225222553126191
 20
0.147993555927649
 10
0.221925707171311
 20
0.146638156070226
 10
0.2211967074382684
 20
0.1463719296285936
 10
0.220083696862726
 20
0.1460901280731105
 10
0.2190025159976296
 20
0.1464900093242402
 10
0.2173576414958229
 20
0.147665748305622
  0
LWPOLYLINE
  5
12AE
330
2
100
AcDbEntity
  8
Profilo
  6
Continuous
370
     0
100
AcDbPolyline
 90
       11
 70
   128
 43
0.0
 10
0.222876484788046
 20
0.1502265946654032
 10
0.224473104538156
 20
0.1473035434628801
 10
0.2247072095314189
 20
0.145893089038312
 10
0.2245419011310976
 20
0.144851003192482
 10
0.2241650825301087
 20
0.1439186690580875
 10
0.2239063377639208
 20
0.1437306799815535
 10
0.2232009519505946
 20
0.1436133237176241
 10
0.2220099086193268
 20
0.143801673781185
 10
0.2209523427330011
 20
0.1443504237523535
 10
0.2195343809829491
 20
0.145032467329712
 10
0.2183361487732145
 20
0.146137576630098
  0
LWPOLYLINE
  5
12AF
330
2
100
AcDbEntity
  8
Profilo
  6
Continuous
370
     0
100
AcDbPolyline
 90
       12
 70
   128
 43
0.0
 10
0.2235110233610702
 20
0.1498973430952689
 10
0.2251784903514831
 20
0.1474208997268091
 10
0.225874637883916
 20
0.1455558702547118
 10
0.2260224953897789
 20
0.1440827533626142
 10
0.2256220595060294
 20
0.143001548834235
 10
0.2252924698035277
 20
0.1423669535975832
 10
0.2249474775499407
 20
0.1421163020535198
 10
0.2237954494445424
 20
0.1420695754705862
 10
0.2220561150276494
 20
0.1426498395718104
 10
0.2209359166326963
 20
0.1432847957954891
 10
0.2195651871441746
 20
0.1442645784868707
 10
0.2188762274311524
 20
0.1452128501798066
  0
LWPOLYLINE
  5
12B0
330
2
100
AcDbEntity
  8
Profilo
  6
Continuous
370
     0
100
AcDbPolyline
 90
       48
 70
   128
 43
0.0
 10
0.2236763497565319
 20
0.1398756570893266
 10
0.2246240542357403
 20
0.1391153744729247
 10
0.2258150975670081
 20
0.1389270244093642
 10
0.2268962784321054
 20
0.1385271431582346
 10
0.2275072043303461
 20
0.1380490245420064
 10
0.227201229606615
 20
0.1375632980253939
 10
0.2269188709207115
 20
0.1372264387711565
 10
0.2277413070196208
 20
0.1366385684434933
 10
0.2286736078886888
 20
0.1362622309773435
 10
0.2291746690167709
 20
0.1355725794996015
 10
0.2292835079337219
 20
0.1343345390377172
 10
0.2288676718028753
 20
0.1336372798758713
 10
0.228028807299673
 20
0.1331595205727246
 10
0.227150926511547
 20
0.1329168393737367
 10
0.2264065231683632
 20
0.1330345580823568
 10
0.2261477784021761
 20
0.1328465690058224
 10
0.2263120620083447
 20
0.13243908007059
 10
0.22624121707203
 20
0.1319924739104717
 10
0.2254731975051425
 20
0.1319613207674434
 10
0.2237420744568817
 20
0.1330743987389594
 10
0.2234833319946818
 20
0.1328864113363705
 10
0.2237728783141182
 20
0.1323065082221727
 10
0.2235295371580723
 20
0.1317345739953867
 10
0.222934016114904
 20
0.1318287505929715
 10
0.2217511841522675
 20
0.1325499145268242
 10
0.2212737380029579
 20
0.1333884347246058
 10
0.2205765646173163
 20
0.133803890873304
 10
0.2202315746677175
 20
0.133553241003186
 10
0.220137113507699
 20
0.1329577629914193
 10
0.2200816698775365
 20
0.1321272100071035
 10
0.2195641826491506
 20
0.131751233527981
 10
0.218835181857052
 20
0.1314850085440128
 10
0.2177385984408695
 20
0.1322688334877303
 10
0.2174336472663598
 20
0.133232678620571
 10
0.2175671259562351
 20
0.1335930816597891
 10
0.2169243737105915
 20
0.1333895176856857
 10
0.2166112101083955
 20
0.1338205504058988
 10
0.2166430398188415
 20
0.1345022332125115
 10
0.2170824909284588
 20
0.1353483610943958
 10
0.2171143195798497
 20
0.1360300453586724
 10
0.2165896445320512
 20
0.1365708266587117
 10
0.2160567536935249
 20
0.1365787953298413
 10
0.215625513952538
 20
0.1362654813182483
 10
0.2151634703543128
 20
0.1367200578234416
 10
0.2143810730304927
 20
0.1385224231540639
 10
0.2132156930213687
 20
0.14175878836818
 10
0.2125903916701834
 20
0.1440704271320047
 10
0.2124661491430912
 20
0.1456924127441416
  0
LWPOLYLINE
  5
12B1
330
2
100
AcDbEntity
  8
Profilo
  6
Continuous
370
     0
100
AcDbPolyline
 90
        8
 70
   128
 43
0.0
 10
0.2146931927843405
 20
0.1477055889622246
 10
0.2159366078531781
 20
0.1439990738030105
 10
0.217604074843591
 20
0.141522630434551
 10
0.2197181818220888
 20
0.1389755557111504
 10
0.2222871458243323
 20
0.1368906653933274
 10
0.2242533986600095
 20
0.135816707778306
 10
0.2266354876265324
 20
0.1354400093251301
 10
0.227638633431916
 20
0.1355102780190985
  0
LWPOLYLINE
  5
12B2
330
2
100
AcDbEntity
  8
Profilo
  6
Continuous
370
     0
100
AcDbPolyline
 90
        7
 70
   128
 43
0.0
 10
0.2200816305242124
 20
0.1542547534943669
 10
0.2239124827940384
 20
0.1524281192731017
 10
0.2267792067883385
 20
0.1502961413853187
 10
0.2292537096305636
 20
0.1476157730557289
 10
0.2308503293806745
 20
0.1446927218532063
 10
0.2313421532869175
 20
0.1420206831817731
 10
0.2313247013334041
 20
0.1395054819015097
  0
LWPOLYLINE
  5
12B3
330
2
100
AcDbEntity
  8
Profilo
  6
Continuous
370
     0
100
AcDbPolyline
 90
       11
 70
   128
 43
0.0
 10
0.2200108226372346
 20
0.1316806021730402
 10
0.2213969557358966
 20
0.1303168743314061
 10
0.2221485468984912
 20
0.1292823978436247
 10
0.2226650116367135
 20
0.1282088012156298
 10
0.2227112157410489
 20
0.1270569653323098
 10
0.2217070451415126
 20
0.1255371218572786
 10
0.2200765473375843
 20
0.1248793438226731
 10
0.2187130090315166
 20
0.1249423689511745
 10
0.2173104508916039
 20
0.12524046737828
 10
0.2159325325246164
 20
0.1271370093064871
 10
0.2152363839331284
 20
0.1290020402362485
  0
LWPOLYLINE
  5
12B4
330
2
100
AcDbEntity
  8
Profilo
  6
Continuous
370
     0
100
AcDbPolyline
 90
        9
 70
   128
 43
0.0
 10
0.216684123687211
 20
0.1261025328187056
 10
0.2162908766819283
 20
0.1241045690535009
 10
0.2156008944787415
 20
0.1236032676393194
 10
0.2143225778068669
 20
0.1222793819119518
 10
0.2127547135706211
 20
0.1215353961671727
 10
0.2110307781558922
 20
0.1217317117702535
 10
0.2098325459461585
 20
0.12283682107064
 10
0.2088222089583218
 20
0.1236833099395517
 10
0.2091774632279004
 20
0.1273659234583683
  0
LWPOLYLINE
  5
12B5
330
2
100
AcDbEntity
  8
Profilo
  6
Continuous
370
     0
100
AcDbPolyline
 90
        9
 70
   128
 43
0.0
 10
0.2086353362265894
 20
0.1253915034781433
 10
0.2076475917273588
 20
0.1249372879599774
 10
0.2068487695481669
 20
0.125674028465344
 10
0.205884640027707
 20
0.1253686816672169
 10
0.2044892707662611
 20
0.1247500208574969
 10
0.2032982274349933
 20
0.1249383709210569
 10
0.2024603877259437
 20
0.1259101863989734
 10
0.2022108801815956
 20
0.1277045845161294
 10
0.2026349310441158
 20
0.1289346577645484
  0
LWPOLYLINE
  5
12B6
330
2
100
AcDbEntity
  8
Profilo
  6
Continuous
370
     0
100
AcDbPolyline
 90
       18
 70
   128
 43
0.0
 10
0.2203228838985098
 20
0.1589189710614202
 10
0.2229072537617642
 20
0.157516791162022
 10
0.2276781560081535
 20
0.1555920183855674
 10
0.2327885362680573
 20
0.1540017397558407
 10
0.2377342001978362
 20
0.1529184116943015
 10
0.2424087805594417
 20
0.1516349122069537
 10
0.2448638840956288
 20
0.150975392333666
 10
0.2463764792146645
 20
0.150458015019178
 10
0.2468781663304482
 20
0.1499484558722349
 10
0.2468402021986837
 20
0.1493756474354938
 10
0.246333494559877
 20
0.1492110081434143
 10
0.2457938415987413
 20
0.1491477582968376
 10
0.2443825880074661
 20
0.1496980634697419
 10
0.2390720345135278
 20
0.151559586956398
 10
0.2326162869997881
 20
0.1534973934629656
 10
0.2290185001453335
 20
0.1545702942214261
 10
0.2237029244147863
 20
0.155757618712281
 10
0.2195275204674307
 20
0.1561944611874241
  0
LWPOLYLINE
  5
12B7
330
2
100
AcDbEntity
  8
Profilo
  6
Continuous
370
     0
100
AcDbPolyline
 90
       12
 70
   128
 43
0.0
 10
0.2366175922799099
 20
0.1794583056493103
 10
0.2397491437352248
 20
0.1791306740524946
 10
0.2431087932238811
 20
0.177756209714223
 10
0.2452523409522267
 20
0.1759866099614032
 10
0.2468232921106943
 20
0.1742551503642883
 10
0.2475555853677203
 20
0.173035858492873
 10
0.2478191359977502
 20
0.1722247330576182
 10
0.247872472347701
 20
0.1703364556012473
 10
0.2471379747775413
 20
0.1667349640183865
 10
0.2465173721498073
 20
0.1648519015678064
 10
0.2443386782131722
 20
0.1619021084254101
 10
0.2433531825941055
 20
0.1607972402863892
  0
LWPOLYLINE
  5
12B8
330
2
100
AcDbEntity
  8
Profilo
  6
Continuous
370
     0
100
AcDbPolyline
 90
       39
 70
   128
 43
0.0
 10
0.2182879008204943
 20
0.1662164800091773
 10
0.2206184529977766
 20
0.1714575074553154
 10
0.2238155870422669
 20
0.1754107760259506
 10
0.2258828966915076
 20
0.1769792438751071
 10
0.2271978284445022
 20
0.1770702060175312
 10
0.2279705982484139
 20
0.1767608210048964
 10
0.2287813321840919
 20
0.1770242444290023
 10
0.2290574345151977
 20
0.1778986197108329
 10
0.2293335377263488
 20
0.1787729922841638
 10
0.230346954717549
 20
0.1791022714251015
 10
0.230653489122322
 20
0.1795381555741115
 10
0.2317048728389186
 20
0.1804402410000679
 10
0.2326473812095657
 20
0.1802981044150475
 10
0.2331136148951178
 20
0.1795528346966241
 10
0.2332758231173417
 20
0.178708784111454
 10
0.2329667780110349
 20
0.1779358020971832
 10
0.2339776851807458
 20
0.17792798066436
 10
0.2349581585632037
 20
0.1783586498075792
 10
0.2357309283671154
 20
0.1780492647949444
 10
0.2361617077423914
 20
0.1770682872135422
 10
0.235855172457573
 20
0.1766324057730327
 10
0.2370003647637877
 20
0.1765561221963435
 10
0.2377731345677003
 20
0.1762467371837083
 10
0.2387790203343427
 20
0.1755647200203622
 10
0.2385738257437446
 20
0.1751617631729904
 10
0.2394783708626718
 20
0.1744468154427278
 10
0.2400409246729169
 20
0.1730602778521987
 10
0.2400663379371477
 20
0.1719475888371328
 10
0.2395900623720082
 20
0.1713444584122318
 10
0.238576645380808
 20
0.1710151792712936
 10
0.2382371647736607
 20
0.1706806872762875
 10
0.2373934872292414
 20
0.170518653854464
 10
0.2366866055228596
 20
0.1706252561540352
 10
0.2362482949230267
 20
0.1705949374311532
 10
0.2363446159277651
 20
0.1699536668505465
 10
0.2356681680086363
 20
0.169621778574074
 10
0.2348599438944485
 20
0.1696954557237299
 10
0.2336513724786502
 20
0.1703116193219661
 10
0.2326075225802424
 20
0.1704208280485712
  0
LWPOLYLINE
  5
12B9
330
2
100
AcDbEntity
  8
Profilo
  6
Continuous
370
     0
100
AcDbPolyline
 90
       19
 70
   128
 43
0.0
 10
0.2188733580734818
 20
0.1633801528298197
 10
0.2210191084013737
 20
0.1664313359744979
 10
0.2228178477776077
 20
0.1681367281113865
 10
0.2251562392814352
 20
0.1699053668295721
 10
0.2273882678544328
 20
0.1709668819588198
 10
0.2297495619209573
 20
0.1712857337966779
 10
0.2315002944057922
 20
0.1710699200620015
 10
0.2329090381755789
 20
0.1701825143153363
 10
0.2340796420324378
 20
0.1689935411668025
 10
0.2344774795125581
 20
0.16811395414446
 10
0.2346676091069137
 20
0.1664943145612071
 10
0.2338493448267251
 20
0.1652195921243164
 10
0.2323191757234988
 20
0.1633772756996971
 10
0.2297122131131224
 20
0.1617455580039643
 10
0.2276853791307221
 20
0.1610869997220884
 10
0.2249187172395666
 20
0.1606364358937876
 10
0.2226612762358795
 20
0.160687613044885
 10
0.2205760836669195
 20
0.1612431332235787
 10
0.2194004584534963
 20
0.1617579046678107
  0
LWPOLYLINE
  5
12BA
330
2
100
AcDbEntity
  8
Profilo
  6
Continuous
370
     0
100
AcDbPolyline
 90
       11
 70
   128
 43
0.0
 10
0.220692488477336
 20
0.1632986569558411
 10
0.2211712747440102
 20
0.1642388852460034
 10
0.2222201468790277
 20
0.1648038755151996
 10
0.2229624837757318
 20
0.1649329783701076
 10
0.223669363768527
 20
0.1648263755137581
 10
0.224138108989155
 20
0.1644182069258752
 10
0.224100143143803
 20
0.1638453979323559
 10
0.2235884149819731
 20
0.1630065602012533
 10
0.2225420526684441
 20
0.1627786705058184
 10
0.2214272941494833
 20
0.1624164635064648
 10
0.2210244361463398
 20
0.1626218520897843
  0
LWPOLYLINE
  5
12BB
330
2
100
AcDbEntity
  8
Profilo
  6
Continuous
370
     0
100
AcDbPolyline
 90
       11
 70
   128
 43
0.0
 10
0.2200565162250485
 20
0.1638766782466498
 10
0.2211104071695034
 20
0.1651158663980899
 10
0.2231397535670232
 20
0.1661115231020053
 10
0.2244876297623031
 20
0.1661010985074266
 10
0.22573165377479
 20
0.1657206422153915
 10
0.2263346841319218
 20
0.165244011483643
 10
0.2260231274905391
 20
0.1641339283388322
 10
0.2254429996961043
 20
0.163160772190254
 10
0.223545428613598
 20
0.1617595527687113
 10
0.2223318392684095
 20
0.1617015157762026
 10
0.2208521868780706
 20
0.1621175057969092
  0
LWPOLYLINE
  5
12BC
330
2
100
AcDbEntity
  8
Profilo
  6
Continuous
370
     0
100
AcDbPolyline
 90
        8
 70
   128
 43
0.0
 10
0.2231143420163799
 20
0.1672242126738498
 10
0.2248346407139619
 20
0.1674468895152162
 10
0.2262788370804372
 20
0.1667951910747517
 10
0.227383555433398
 20
0.16580899848756
 10
0.2274114785191172
 20
0.1650334100462555
 10
0.2273355485419999
 20
0.1638877926159951
 10
0.2266211356110612
 20
0.1629830986112825
 10
0.2249946472166839
 20
0.161782053324048
  0
LWPOLYLINE
  5
12BD
330
2
100
AcDbEntity
  8
Profilo
  6
Continuous
370
     0
100
AcDbPolyline
 90
       11
 70
   128
 43
0.0
 10
0.2242645539655723
 20
0.1678221302446837
 10
0.2275379234955346
 20
0.1684373333650645
 10
0.2289516877883444
 20
0.168224126057421
 10
0.2298916872175476
 20
0.1677448861901382
 10
0.2306619463199255
 20
0.1670984033122421
 10
0.2307607780261978
 20
0.1667942305968962
 10
0.2306544142618265
 20
0.1660871037426795
 10
0.230107230076134
 20
0.165012557591819
 10
0.2292585320086915
 20
0.164176325730972
 10
0.2281716957419078
 20
0.1630385270250355
 10
0.226750400224542
 20
0.1622404380283938
  0
LWPOLYLINE
  5
12BE
330
2
100
AcDbEntity
  8
Profilo
  6
Continuous
370
     0
100
AcDbPolyline
 90
       12
 70
   128
 43
0.0
 10
0.2247737740194995
 20
0.1683238679588032
 10
0.2276442872599058
 20
0.1691444602192812
 10
0.2296331571105408
 20
0.169230210064416
 10
0.231079865012092
 20
0.168915612754491
 10
0.2319844101310191
 20
0.1682006650242288
 10
0.2324860972468028
 20
0.1676911058772862
 10
0.2326178725618173
 20
0.1672855431596588
 10
0.2323063159204346
 20
0.1661754600148485
 10
0.2312169680720726
 20
0.1647005661521505
 10
0.2302669284768686
 20
0.1638314064328871
 10
0.2289115210570327
 20
0.1628305347231819
 10
0.2277967608244844
 20
0.1624683271670501
  0
LWPOLYLINE
  5
12BF
330
2
100
AcDbEntity
  8
Profilo
  6
Continuous
370
     0
100
AcDbPolyline
 90
       48
 70
   128
 43
0.0
 10
0.2343560524655319
 20
0.1653842314163964
 10
0.2353719809918071
 20
0.1660506116878745
 10
0.2359191651774997
 20
0.1671251578387342
 10
0.2366335781084383
 20
0.1680298518434477
 10
0.2372770824188248
 20
0.1684631301222012
 10
0.2376444843981047
 20
0.1680220331191241
 10
0.2378776029544674
 20
0.1676493988166908
 10
0.2386908475916791
 20
0.1682499201060584
 10
0.2393368626035985
 20
0.1690202962500728
 10
0.2401475965392765
 20
0.1692837196741787
 10
0.2413586760629758
 20
0.169004656092926
 10
0.2418933085010884
 20
0.1683937075004797
 10
0.2420884612120999
 20
0.1674482642045271
 10
0.2420479846652133
 20
0.166538357345747
 10
0.2417059942365776
 20
0.1658667647769799
 10
0.2418048259428498
 20
0.165562592061634
 10
0.2422431373762239
 20
0.1655929140497948
 10
0.2426459927857354
 20
0.1653875276181972
 10
0.2424382900872355
 20
0.1646474707538422
 10
0.240844743588013
 20
0.1633450349075477
 10
0.2409435744142407
 20
0.1630408649007024
 10
0.2415845697831833
 20
0.163137039897194
 10
0.2420533150038113
 20
0.162728871309311
 10
0.2417797216141486
 20
0.1621915993097419
 10
0.2407283387775965
 20
0.1612895111752844
 10
0.2397833197054155
 20
0.1610945498950446
 10
0.2391727590037722
 20
0.1605598816140087
 10
0.2393045334387414
 20
0.1601543216048819
 10
0.2398416765783886
 20
0.1598804708776967
 10
0.2406144463823003
 20
0.1595710858650615
 10
0.2408121089148003
 20
0.1589627431428712
 10
0.2408400302869329
 20
0.1581871541447885
 10
0.239755705555226
 20
0.1573864565693907
 10
0.2387447992655596
 20
0.1573942752937142
 10
0.2384432827901777
 20
0.1576325917354496
 10
0.2384382622671546
 20
0.1569583932964266
 10
0.2379315529147612
 20
0.1567937534475684
 10
0.2372930699609399
 20
0.1570346768731162
 10
0.2366241523863235
 20
0.1577140876094286
 10
0.2359856677189156
 20
0.1579550104781978
 10
0.235309220633328
 20
0.1576231254670041
 10
0.2351369696514722
 20
0.1571187786173512
 10
0.2353016885752299
 20
0.1566118258974419
 10
0.2347265813038173
 20
0.1563128681878859
 10
0.23277065594197
 20
0.1561257256319691
 10
0.22933256748825
 20
0.1560174752314977
 10
0.2269408396344725
 20
0.1561371139696824
 10
0.2253598465964175
 20
0.156520173423473
  0
LWPOLYLINE
  5
12C0
330
2
100
AcDbEntity
  8
Profilo
  6
Continuous
370
     0
100
AcDbPolyline
 90
        8
 70
   128
 43
0.0
 10
0.2241333965681203
 20
0.1592603234546154
 10
0.22804273835037
 20
0.1592975052841871
 10
0.2309132515907764
 20
0.160118097544666
 10
0.2339889585882395
 20
0.1613416433872371
 10
0.2367656606453958
 20
0.1631406068020836
 10
0.238394660574849
 20
0.164678753219858
 10
0.2394890280661897
 20
0.1668278482300788
 10
0.2397321876685985
 20
0.1678036108056916
  0
LWPOLYLINE
  5
12C1
330
2
100
AcDbEntity
  8
Profilo
  6
Continuous
370
     0
100
AcDbPolyline
 90
        7
 70
   128
 43
0.0
 10
0.2195698897982887
 20
0.1664088354191612
 10
0.222490920631627
 20
0.1694877314164654
 10
0.2254044185268209
 20
0.1715553305527077
 10
0.2287182637236254
 20
0.1730804432403691
 10
0.2319916332535876
 20
0.1736956463607499
 10
0.234684874989115
 20
0.173337693332552
 10
0.2370715806062837
 20
0.172543855598566
  0
LWPOLYLINE
  5
12C2
330
2
100
AcDbEntity
  8
Profilo
  6
Continuous
370
     0
100
AcDbPolyline
 90
       11
 70
   128
 43
0.0
 10
0.2410173026718572
 20
0.1593656967249638
 10
0.2427426236060488
 20
0.1602625725621315
 10
0.2439587236527712
 20
0.1606577074199015
 10
0.245139371102804
 20
0.1608171349714703
 10
0.2462491099787871
 20
0.1605051408233012
 10
0.2473842612389565
 20
0.1590804603685659
 10
0.2475059937943391
 20
0.1573265002161147
 10
0.2470246968261311
 20
0.1560491740606907
 10
0.2463077740737032
 20
0.1548073794822168
 10
0.2440782553221941
 20
0.1540829649267305
 10
0.2420893837579725
 20
0.153997214524818
  0
LWPOLYLINE
  5
12C3
330
2
100
AcDbEntity
  8
Profilo
  6
Continuous
370
     0
100
AcDbPolyline
 90
        9
 70
   128
 43
0.0
 10
0.2452943553689164
 20
0.1544780997845004
 10
0.2470730118195168
 20
0.153486694900019
 10
0.2473365615695013
 20
0.1526755721732648
 10
0.2482006301415418
 20
0.1510507175842216
 10
0.2484237059382726
 20
0.1493296858469645
 10
0.2477042733643562
 20
0.1477507906947283
 10
0.2462829778469904
 20
0.1469527016980879
 10
0.2451657077929528
 20
0.1462533935681939
 10
0.2417731138155097
 20
0.147729250617248
  0
LWPOLYLINE
  5
12C4
330
2
100
AcDbEntity
  8
Profilo
  6
Continuous
370
     0
100
AcDbPolyline
 90
        9
 70
   128
 43
0.0
 10
0.2434833723470917
 20
0.1466035278720682
 10
0.2436101271390831
 20
0.1455237667154187
 10
0.2426625956517818
 20
0.1449917070131389
 10
0.2426550653072694
 20
0.1439804080003549
 10
0.2428122538865156
 20
0.1424621562676612
 10
0.2422650697008231
 20
0.1413876101168007
 10
0.2410819115492555
 20
0.140891084699971
 10
0.2392982354556783
 20
0.1412082884369293
 10
0.2382594052002473
 20
0.1419916983110575
  0
DIMENSION
  5
12C5
102
{ACAD_XDICTIONARY
360
12CF
102
}
102
{ACAD_REACTORS
330
12D6
102
}
330
2
100
AcDbEntity
  8
Sezione
  6
ACAD_ISO10W100
100
AcDbDimension
  2
*D27
 10
0.1745333261569147
 20
0.1226625307543829
 30
0.0
 11
0.2664282843840159
 21
0.1994291125252039
 31
0.0
 70
    35
  1
d 420 mm
 71
     5
 42
0.105
  3
Bovelacci
100
AcDbDiametricDimension
 15
0.2483895355443742
 25
0.1972967074760145
 35
0.0
 40
0.0
1001
ACAD
1000
DSTYLE
1002
{
1070
   288
1070
     1
1002
}
  0
ENDSEC
  0
SECTION
  2
OBJECTS
  0
DICTIONARY
  5
9
330
0
100
AcDbDictionary
281
     1
  3
ACAD_2007HEADERVARS_RT
350
208
  3
ACAD_COLOR
350
184
  3
ACAD_GROUP
350
17F
  3
ACAD_LAYOUT
350
164
  3
ACAD_MATERIAL
350
B
  3
ACAD_MLINESTYLE
350
180
  3
ACAD_PLOTSETTINGS
350
181
  3
ACAD_PLOTSTYLENAME
350
8
  3
ACAD_TABLESTYLE
350
185
  3
ACAD_VISUALSTYLE
350
17A
  3
ACDBHEADERROUNDTRIPXREC
350
12E6
  3
AcDbVariableDictionary
350
18B
  3
DWGPROPS
350
12E5
  0
DICTIONARY
  5
16E
330
16D
100
AcDbDictionary
280
     1
281
     1
  3
ACAD_LAYERSTATES
360
16F
  0
DICTIONARY
  5
3
330
2
100
AcDbDictionary
280
     1
281
     1
  3
ACAD_SORTENTS
360
18A
  0
DICTIONARY
  5
12E7
330
18
100
AcDbDictionary
280
     1
281
     1
  3
ACAD_MTEXT_RT
360
12E8
  0
DICTIONARY
  5
12CF
330
12C5
100
AcDbDictionary
280
     1
281
     1
  3
ACAD_DIMASSOC
360
12D6
  0
DICTIONARY
  5
208
102
{ACAD_REACTORS
330
9
102
}
330
9
100
AcDbDictionary
281
     1
  3
DIMFXL
350
209
  0
DICTIONARY
  5
184
102
{ACAD_REACTORS
330
9
102
}
330
9
100
AcDbDictionary
281
     1
  0
DICTIONARY
  5
17F
102
{ACAD_REACTORS
330
9
102
}
330
9
100
AcDbDictionary
281
     1
  0
DICTIONARY
  5
164
102
{ACAD_REACTORS
330
9
102
}
330
9
100
AcDbDictionary
281
     1
  3
Layout1
350
168
  3
Layout2
350
16C
  3
Model
350
163
  0
DICTIONARY
  5
B
102
{ACAD_REACTORS
330
9
102
}
330
9
100
AcDbDictionary
281
     1
  3
ByBlock
350
183
  3
ByLayer
350
182
  3
Global
350
A
  0
DICTIONARY
  5
180
102
{ACAD_REACTORS
330
9
102
}
330
9
100
AcDbDictionary
281
     1
  3
Standard
350
186
  0
DICTIONARY
  5
181
102
{ACAD_REACTORS
330
9
102
}
330
9
100
AcDbDictionary
281
     1
  0
ACDBDICTIONARYWDFLT
  5
8
102
{ACAD_REACTORS
330
9
102
}
330
9
100
AcDbDictionary
281
     1
  3
Normal
350
7
100
AcDbDictionaryWithDefault
340
7
  0
DICTIONARY
  5
185
102
{ACAD_REACTORS
330
9
102
}
330
9
100
AcDbDictionary
281
     1
  3
Standard
350
187
  0
DICTIONARY
  5
17A
102
{ACAD_REACTORS
330
9
102
}
330
9
100
AcDbDictionary
281
     1
  3
2dWireframe
350
179
  3
3D Hidden
350
1BD
  3
3dWireframe
350
189
  3
Basic
350
1BC
  3
Brighten
350
1C0
  3
ColorChange
350
1C4
  3
Conceptual
350
1BE
  3
Dim
350
1BF
  3
Facepattern
350
1C3
  3
Flat
350
1B8
  3
FlatWithEdges
350
1B9
  3
Gouraud
350
1BA
  3
GouraudWithEdges
350
1BB
  3
Linepattern
350
1C2
  3
Realistic
350
188
  3
Thicken
350
1C1
  0
DICTIONARY
  5
12E6
102
{ACAD_REACTORS
330
9
102
}
330
9
100
AcDbDictionary
281
     1
  0
DICTIONARY
  5
18B
102
{ACAD_REACTORS
330
9
102
}
330
9
100
AcDbDictionary
281
     1
  3
CTABLESTYLE
350
18C
  3
DIMASSOC
350
190
  3
HIDETEXT
350
18F
  3
INDEXCTL
350
18E
  3
PROJECTNAME
350
31D
  3
SORTENTS
350
18D
  0
XRECORD
  5
12E5
102
{ACAD_REACTORS
330
9
102
}
330
9
100
AcDbXrecord
280
     1
  1
DWGPROPS COOKIE
  2

  3

  4

  6

  7

  8
Mario
  9

300
=
301
=
302
=
303
=
304
=
305
=
306
=
307
=
308
=
309
=
 40
0.1546117361111111
 41
2454297.625402373
 42
2454306.872412106
  1

 90
        0
  0
DICTIONARY
  5
16F
102
{ACAD_REACTORS
330
16E
102
}
330
16E
100
AcDbDictionary
281
     1
  0
SORTENTSTABLE
  5
18A
102
{ACAD_REACTORS
330
3
102
}
330
3
100
AcDbSortentsTable
330
2
331
23F
  5
1066
331
1E
  5
23
331
24
  5
1E
331
16
  5
15
331
12
  5
1C
331
1D
  5
22
331
23
  5
2AC
331
15
  5
14
331
11
  5
18
331
D
  5
16
331
1C
  5
21
331
18
  5
1F
331
22
  5
23F
331
14
  5
13
331
10
  5
17
331
1F
  5
24
331
25
  5
3BB
331
17
  5
1D
331
21
  5
25
331
13
  5
12
  0
XRECORD
  5
12E8
102
{ACAD_REACTORS
330
12E7
102
}
330
12E7
100
AcDbXrecord
280
     1
 40
7955300.0
  1
{\fTimes New Roman|b0|i0|c238|p18;\H1.6x;\C4;Bovelacci\P\pt0.09;\H0.4375x;\T0.95;via del Commercio, 5  47100 Forli - Italy  \fTimes New Roman|b0|i0|c0|p18;\P\fTimes New Roman|b0|i0|c238|p18;tel.+39-0543721386  fax +39-0543721127\fTimes New Roman|b0|i
  1
0|c0|p18; \fTimes New Roman|b0|i0|c238|p18;www.bovelacci.it\fTimes New Roman|b0|i0|c0|p18; \fTimes New Roman|b0|i0|c238|p18;e-mail: bovelacci@bovelacci\fTimes New Roman|b0|i0|c0|p18;.it}
  0
DIMASSOC
  5
12D6
102
{ACAD_REACTORS
330
12CF
102
}
330
12CF
100
AcDbDimAssoc
330
12C5
 90
        2
 70
     0
 71
     0
  1
AcDbOsnapPointRef
 72
     3
331
1240
 73
     2
 91
        0
 40
0.0
 10
0.0
 20
0.0
 30
0.0
 75
     0
  0
XRECORD
  5
209
102
{ACAD_REACTORS
330
208
102
}
330
208
100
AcDbXrecord
280
     1
 40
0.18
  0
LAYOUT
  5
168
102
{ACAD_XDICTIONARY
360
12EB
102
}
102
{ACAD_REACTORS
330
164
102
}
330
164
100
AcDbPlotSettings
  1

  2
C:\Documents and Settings\All Users\Dati applicazioni\Autodesk\ADT 2006\enu\Plotters\Default Windows System Printer.pc3
  4

  6

 40
0.0
 41
0.0
 42
0.0
 43
0.0
 44
0.0
 45
0.0
 46
0.0
 47
0.0
 48
0.0
 49
0.0
140
0.0
141
0.0
142
1.0
143
1.0
 70
   688
 72
     0
 73
     0
 74
     5
  7

 75
    16
147
1.0
148
0.0
149
0.0
100
AcDbLayout
  1
Layout1
 70
     1
 71
     1
 10
0.0
 20
0.0
 11
420.0
 21
297.0
 12
0.0
 22
0.0
 32
0.0
 14
1.000000000000000E+20
 24
1.000000000000000E+20
 34
1.000000000000000E+20
 15
-1.000000000000000E+20
 25
-1.000000000000000E+20
 35
-1.000000000000000E+20
146
0.0
 13
0.0
 23
0.0
 33
0.0
 16
1.0
 26
0.0
 36
0.0
 17
0.0
 27
1.0
 37
0.0
 76
     0
330
165
  0
LAYOUT
  5
16C
102
{ACAD_XDICTIONARY
360
12ED
102
}
102
{ACAD_REACTORS
330
164
102
}
330
164
100
AcDbPlotSettings
  1

  2
C:\Documents and Settings\All Users\Dati applicazioni\Autodesk\ADT 2006\enu\Plotters\Default Windows System Printer.pc3
  4

  6

 40
0.0
 41
0.0
 42
0.0
 43
0.0
 44
0.0
 45
0.0
 46
0.0
 47
0.0
 48
0.0
 49
0.0
140
0.0
141
0.0
142
1.0
143
1.0
 70
   688
 72
     0
 73
     0
 74
     5
  7

 75
    16
147
1.0
148
0.0
149
0.0
100
AcDbLayout
  1
Layout2
 70
     1
 71
     2
 10
0.0
 20
0.0
 11
12.0
 21
9.0
 12
0.0
 22
0.0
 32
0.0
 14
0.0
 24
0.0
 34
0.0
 15
0.0
 25
0.0
 35
0.0
146
0.0
 13
0.0
 23
0.0
 33
0.0
 16
1.0
 26
0.0
 36
0.0
 17
0.0
 27
1.0
 37
0.0
 76
     0
330
169
  0
LAYOUT
  5
163
102
{ACAD_XDICTIONARY
360
12E9
102
}
102
{ACAD_REACTORS
330
164
102
}
330
164
100
AcDbPlotSettings
  1

  2
C:\Documents and Settings\All Users\Dati applicazioni\Autodesk\ADT 2006\enu\Plotters\Default Windows System Printer.pc3
  4

  6

 40
0.0
 41
0.0
 42
0.0
 43
0.0
 44
0.0
 45
0.0
 46
0.0
 47
0.0
 48
0.0
 49
0.0
140
0.0
141
0.0
142
1.0
143
1.0
 70
  1712
 72
     0
 73
     0
 74
     0
  7

 75
     0
147
1.0
148
0.0
149
0.0
100
AcDbLayout
  1
Model
 70
     1
 71
     0
 10
0.0
 20
0.0
 11
12.0
 21
9.0
 12
0.0
 22
0.0
 32
0.0
 14
0.0
 24
0.0
 34
0.0
 15
0.0
 25
0.0
 35
0.0
146
0.0
 13
0.0
 23
0.0
 33
0.0
 16
1.0
 26
0.0
 36
0.0
 17
0.0
 27
1.0
 37
0.0
 76
     0
330
2
  0
MATERIAL
  5
183
102
{ACAD_XDICTIONARY
360
1B0
102
}
102
{ACAD_REACTORS
330
B
102
}
330
B
100
AcDbMaterial
  1
ByBlock
  0
MATERIAL
  5
182
102
{ACAD_XDICTIONARY
360
1AE
102
}
102
{ACAD_REACTORS
330
B
102
}
330
B
100
AcDbMaterial
  1
ByLayer
  0
MATERIAL
  5
A
102
{ACAD_XDICTIONARY
360
193
102
}
102
{ACAD_REACTORS
330
B
102
}
330
B
100
AcDbMaterial
  1
Global
  0
MLINESTYLE
  5
186
102
{ACAD_REACTORS
330
180
102
}
330
180
100
AcDbMlineStyle
  2
STANDARD
 70
     0
  3

 62
   256
 51
90.0
 52
90.0
 71
     2
 49
0.5
 62
   256
  6
BYLAYER
 49
-0.5
 62
   256
  6
BYLAYER
  0
ACDBPLACEHOLDER
  5
7
102
{ACAD_REACTORS
330
8
102
}
330
8
  0
TABLESTYLE
  5
187
102
{ACAD_XDICTIONARY
360
21A
102
}
102
{ACAD_REACTORS
330
185
102
}
330
185
100
AcDbTableStyle
  3
Standard
 70
     0
 71
     0
 40
1.5
 41
1.5
280
     0
281
     0
  7
Standard
140
4.5
170
     2
 62
     0
 63
     7
283
     0
274
    -2
284
     1
 64
     0
275
    -2
285
     1
 65
     0
276
    -2
286
     1
 66
     0
277
    -2
287
     1
 67
     0
278
    -2
288
     1
 68
     0
279
    -2
289
     1
 69
     0
  7
Standard
140
6.0
170
     5
 62
     0
 63
     7
283
     0
274
    -2
284
     1
 64
     0
275
    -2
285
     1
 65
     0
276
    -2
286
     1
 66
     0
277
    -2
287
     1
 67
     0
278
    -2
288
     1
 68
     0
279
    -2
289
     1
 69
     0
  7
Standard
140
4.5
170
     5
 62
     0
 63
     7
283
     0
274
    -2
284
     1
 64
     0
275
    -2
285
     1
 65
     0
276
    -2
286
     1
 66
     0
277
    -2
287
     1
 67
     0
278
    -2
288
     1
 68
     0
279
    -2
289
     1
 69
     0
  0
VISUALSTYLE
  5
179
102
{ACAD_REACTORS
330
17A
102
}
330
17A
100
AcDbVisualStyle
  2
2dWireframe
 70
     4
 71
     0
 72
     2
 73
     0
 90
        0
 40
-0.6
 41
-30.0
 62
     5
 63
     7
 74
     1
 91
        4
 64
     7
 65
   257
 75
     1
175
     1
 42
1.0
 92
        0
 66
   257
 43
1.0
 76
     1
 77
     6
 78
     2
 67
     7
 79
     5
170
     0
171
     0
290
     0
174
     0
 93
        1
 44
0.0
173
     0
291
     0
 45
0.0
1001
ACAD
1000
AcDbSavedByObjectVersion
1070
     0
1000
AcDbSavedByObjectVersion
1070
     0
1000
AcDbSavedByObjectVersion
1070
     0
1001
ACAD
1000
AcRTDxfName
1000
VISUALSTYLE
  0
VISUALSTYLE
  5
1BD
102
{ACAD_REACTORS
330
17A
102
}
330
17A
100
AcDbVisualStyle
  2
3D Hidden
 70
     6
 71
     1
 72
     2
 73
     2
 90
        0
 40
-0.6
 41
-30.0
 62
     5
 63
     7
 74
     2
 91
        2
 64
     7
 65
   257
 75
     2
175
     1
 42
40.0
 92
        0
 66
   257
 43
1.0
 76
     1
 77
     6
 78
     2
 67
     7
 79
     3
170
     0
171
     0
290
     0
174
     0
 93
        1
 44
0.0
173
     0
291
     0
 45
0.0
1001
ACAD
1000
AcDbSavedByObjectVersion
1070
     0
1000
AcDbSavedByObjectVersion
1070
     0
1001
ACAD
1000
AcRTDxfName
1000
VISUALSTYLE
  0
VISUALSTYLE
  5
189
102
{ACAD_REACTORS
330
17A
102
}
330
17A
100
AcDbVisualStyle
  2
3dWireframe
 70
     5
 71
     0
 72
     2
 73
     0
 90
        0
 40
-0.6
 41
-30.0
 62
     5
 63
     7
 74
     1
 91
        4
 64
     7
 65
   257
 75
     1
175
     1
 42
1.0
 92
        0
 66
   257
 43
1.0
 76
     1
 77
     6
 78
     2
 67
     7
 79
     5
170
     0
171
     0
290
     0
174
     0
 93
        1
 44
0.0
173
     0
291
     0
 45
0.0
1001
ACAD
1000
AcDbSavedByObjectVersion
1070
     0
1000
AcDbSavedByObjectVersion
1070
     0
1000
AcDbSavedByObjectVersion
1070
     0
1001
ACAD
1000
AcRTDxfName
1000
VISUALSTYLE
  0
VISUALSTYLE
  5
1BC
102
{ACAD_REACTORS
330
17A
102
}
330
17A
100
AcDbVisualStyle
  2
Basic
 70
     7
 71
     1
 72
     0
 73
     1
 90
        0
 40
-0.6
 41
-30.0
 62
     5
 63
     7
 74
     0
 91
        4
 64
     7
 65
   257
 75
     1
175
     1
 42
1.0
 92
        8
 66
     7
 43
1.0
 76
     1
 77
     6
 78
     2
 67
     7
 79
     5
170
     0
171
     0
290
     0
174
     0
 93
        1
 44
0.0
173
     0
291
     1
 45
0.0
1001
ACAD
1000
AcDbSavedByObjectVersion
1070
     0
1000
AcDbSavedByObjectVersion
1070
     0
1001
ACAD
1000
AcRTDxfName
1000
VISUALSTYLE
  0
VISUALSTYLE
  5
1C0
102
{ACAD_REACTORS
330
17A
102
}
330
17A
100
AcDbVisualStyle
  2
Brighten
 70
    12
 71
     2
 72
     2
 73
     0
 90
        0
 40
-0.6
 41
-30.0
 62
     5
 63
     7
 74
     1
 91
        4
 64
     7
 65
   257
 75
     1
175
     1
 42
1.0
 92
        8
 66
     7
 43
1.0
 76
     1
 77
     6
 78
     2
 67
     7
 79
     5
170
     0
171
     0
290
     0
174
     0
 93
        1
 44
50.0
173
     0
291
     1
 45
0.0
1001
ACAD
1000
AcDbSavedByObjectVersion
1070
     0
1000
AcDbSavedByObjectVersion
1070
     0
1001
ACAD
1000
AcRTDxfName
1000
VISUALSTYLE
  0
VISUALSTYLE
  5
1C4
102
{ACAD_REACTORS
330
17A
102
}
330
17A
100
AcDbVisualStyle
  2
ColorChange
 70
    16
 71
     2
 72
     2
 73
     3
 90
        0
 40
-0.6
 41
-30.0
 62
     5
 63
     8
 74
     1
 91
        4
 64
     7
 65
   257
 75
     1
175
     1
 42
1.0
 92
        8
 66
     8
 43
1.0
 76
     1
 77
     6
 78
     2
 67
     7
 79
     5
170
     0
171
     0
290
     0
174
     0
 93
        1
 44
0.0
173
     0
291
     1
 45
0.0
1001
ACAD
1000
AcDbSavedByObjectVersion
1070
     0
1000
AcDbSavedByObjectVersion
1070
     0
1001
ACAD
1000
AcRTDxfName
1000
VISUALSTYLE
  0
VISUALSTYLE
  5
1BE
102
{ACAD_REACTORS
330
17A
102
}
330
17A
100
AcDbVisualStyle
  2
Conceptual
 70
     9
 71
     3
 72
     2
 73
     0
 90
        0
 40
-0.6
 41
-30.0
 62
     5
 63
     7
 74
     2
 91
        2
 64
     7
 65
   257
 75
     1
175
     1
 42
40.0
 92
        8
 66
     7
 43
1.0
 76
     1
 77
     6
 78
     2
 67
     7
 79
     3
170
     0
171
     0
290
     0
174
     0
 93
        1
 44
0.0
173
     0
291
     0
 45
0.0
1001
ACAD
1000
AcDbSavedByObjectVersion
1070
     0
1000
AcDbSavedByObjectVersion
1070
     0
1001
ACAD
1000
AcRTDxfName
1000
VISUALSTYLE
  0
VISUALSTYLE
  5
1BF
102
{ACAD_REACTORS
330
17A
102
}
330
17A
100
AcDbVisualStyle
  2
Dim
 70
    11
 71
     2
 72
     2
 73
     0
 90
        0
 40
-0.6
 41
-30.0
 62
     5
 63
     7
 74
     1
 91
        4
 64
     7
 65
   257
 75
     1
175
     1
 42
1.0
 92
        8
 66
     7
 43
1.0
 76
     1
 77
     6
 78
     2
 67
     7
 79
     5
170
     0
171
     0
290
     0
174
     0
 93
        1
 44
-50.0
173
     0
291
     1
 45
0.0
1001
ACAD
1000
AcDbSavedByObjectVersion
1070
     0
1000
AcDbSavedByObjectVersion
1070
     0
1001
ACAD
1000
AcRTDxfName
1000
VISUALSTYLE
  0
VISUALSTYLE
  5
1C3
102
{ACAD_REACTORS
330
17A
102
}
330
17A
100
AcDbVisualStyle
  2
Facepattern
 70
    15
 71
     2
 72
     2
 73
     0
 90
        0
 40
-0.6
 41
-30.0
 62
     5
 63
     7
 74
     1
 91
        4
 64
     7
 65
   257
 75
     1
175
     1
 42
1.0
 92
        8
 66
     7
 43
1.0
 76
     1
 77
     6
 78
     2
 67
     7
 79
     5
170
     0
171
     0
290
     0
174
     0
 93
        1
 44
0.0
173
     0
291
     1
 45
0.0
1001
ACAD
1000
AcDbSavedByObjectVersion
1070
     0
1000
AcDbSavedByObjectVersion
1070
     0
1001
ACAD
1000
AcRTDxfName
1000
VISUALSTYLE
  0
VISUALSTYLE
  5
1B8
102
{ACAD_REACTORS
330
17A
102
}
330
17A
100
AcDbVisualStyle
  2
Flat
 70
     0
 71
     2
 72
     1
 73
     1
 90
        2
 40
-0.6
 41
30.0
 62
     5
 63
     7
 74
     0
 91
        4
 64
     7
 65
   257
 75
     1
175
     1
 42
1.0
 92
        8
 66
     7
 43
1.0
 76
     1
 77
     6
 78
     2
 67
     7
 79
     5
170
     0
171
     0
290
     0
174
     0
 93
       13
 44
0.0
173
     0
291
     1
 45
0.0
1001
ACAD
1000
AcDbSavedByObjectVersion
1070
     0
1000
AcDbSavedByObjectVersion
1070
     0
1001
ACAD
1000
AcRTDxfName
1000
VISUALSTYLE
  0
VISUALSTYLE
  5
1B9
102
{ACAD_REACTORS
330
17A
102
}
330
17A
100
AcDbVisualStyle
  2
FlatWithEdges
 70
     1
 71
     2
 72
     1
 73
     1
 90
        2
 40
-0.6
 41
30.0
 62
     5
 63
     7
 74
     1
 91
        4
 64
     7
 65
   257
 75
     1
175
     1
 42
1.0
 92
        0
 66
   257
 43
1.0
 76
     1
 77
     6
 78
     2
 67
     7
 79
     5
170
     0
171
     0
290
     0
174
     0
 93
       13
 44
0.0
173
     0
291
     1
 45
0.0
1001
ACAD
1000
AcDbSavedByObjectVersion
1070
     0
1000
AcDbSavedByObjectVersion
1070
     0
1001
ACAD
1000
AcRTDxfName
1000
VISUALSTYLE
  0
VISUALSTYLE
  5
1BA
102
{ACAD_REACTORS
330
17A
102
}
330
17A
100
AcDbVisualStyle
  2
Gouraud
 70
     2
 71
     2
 72
     2
 73
     1
 90
        2
 40
-0.6
 41
30.0
 62
     5
 63
     7
 74
     0
 91
        4
 64
     7
 65
   257
 75
     1
175
     1
 42
1.0
 92
        0
 66
     7
 43
1.0
 76
     1
 77
     6
 78
     2
 67
     7
 79
     5
170
     0
171
     0
290
     0
174
     0
 93
       13
 44
0.0
173
     0
291
     1
 45
0.0
1001
ACAD
1000
AcDbSavedByObjectVersion
1070
     0
1000
AcDbSavedByObjectVersion
1070
     0
1001
ACAD
1000
AcRTDxfName
1000
VISUALSTYLE
  0
VISUALSTYLE
  5
1BB
102
{ACAD_REACTORS
330
17A
102
}
330
17A
100
AcDbVisualStyle
  2
GouraudWithEdges
 70
     3
 71
     2
 72
     2
 73
     1
 90
        2
 40
-0.6
 41
30.0
 62
     5
 63
     7
 74
     1
 91
        4
 64
     7
 65
   257
 75
     1
175
     1
 42
1.0
 92
        0
 66
   257
 43
1.0
 76
     1
 77
     6
 78
     2
 67
     7
 79
     5
170
     0
171
     0
290
     0
174
     0
 93
       13
 44
0.0
173
     0
291
     1
 45
0.0
1001
ACAD
1000
AcDbSavedByObjectVersion
1070
     0
1000
AcDbSavedByObjectVersion
1070
     0
1001
ACAD
1000
AcRTDxfName
1000
VISUALSTYLE
  0
VISUALSTYLE
  5
1C2
102
{ACAD_REACTORS
330
17A
102
}
330
17A
100
AcDbVisualStyle
  2
Linepattern
 70
    14
 71
     2
 72
     2
 73
     0
 90
        0
 40
-0.6
 41
-30.0
 62
     5
 63
     7
 74
     1
 91
        4
 64
     7
 65
   257
 75
     7
175
     7
 42
1.0
 92
        8
 66
     7
 43
1.0
 76
     1
 77
     6
 78
     2
 67
     7
 79
     5
170
     0
171
     0
290
     0
174
     0
 93
        1
 44
0.0
173
     0
291
     1
 45
0.0
1001
ACAD
1000
AcDbSavedByObjectVersion
1070
     0
1000
AcDbSavedByObjectVersion
1070
     0
1001
ACAD
1000
AcRTDxfName
1000
VISUALSTYLE
  0
VISUALSTYLE
  5
188
102
{ACAD_REACTORS
330
17A
102
}
330
17A
100
AcDbVisualStyle
  2
Realistic
 70
     8
 71
     2
 72
     2
 73
     0
 90
        0
 40
-0.6
 41
-30.0
 62
     5
 63
     7
 74
     1
 91
        0
 64
     7
 65
   257
 75
     1
175
     1
 42
1.0
 92
        8
 66
     8
 43
1.0
 76
     1
 77
     6
 78
     2
 67
     7
 79
     5
170
     0
171
     0
290
     0
174
     0
 93
       13
 44
0.0
173
     0
291
     0
 45
0.0
1001
ACAD
1000
AcDbSavedByObjectVersion
1070
     0
1000
AcDbSavedByObjectVersion
1070
     0
1000
AcDbSavedByObjectVersion
1070
     0
1001
ACAD
1000
AcRTDxfName
1000
VISUALSTYLE
  0
VISUALSTYLE
  5
1C1
102
{ACAD_REACTORS
330
17A
102
}
330
17A
100
AcDbVisualStyle
  2
Thicken
 70
    13
 71
     2
 72
     2
 73
     0
 90
        0
 40
-0.6
 41
-30.0
 62
     5
 63
     7
 74
     1
 91
        4
 64
     7
 65
   257
 75
     1
175
     1
 42
1.0
 92
       12
 66
     7
 43
1.0
 76
     1
 77
     6
 78
     2
 67
     7
 79
     5
170
     0
171
     0
290
     0
174
     0
 93
        1
 44
0.0
173
     0
291
     1
 45
0.0
1001
ACAD
1000
AcDbSavedByObjectVersion
1070
     0
1000
AcDbSavedByObjectVersion
1070
     0
1001
ACAD
1000
AcRTDxfName
1000
VISUALSTYLE
  0
DICTIONARYVAR
  5
18C
102
{ACAD_REACTORS
330
18B
102
}
330
18B
100
DictionaryVariables
280
     0
  1
STANDARD
  0
DICTIONARYVAR
  5
190
102
{ACAD_REACTORS
330
18B
102
}
330
18B
100
DictionaryVariables
280
     0
  1
2
  0
DICTIONARYVAR
  5
18F
102
{ACAD_REACTORS
330
18B
102
}
330
18B
100
DictionaryVariables
280
     0
  1
1
  0
DICTIONARYVAR
  5
18E
102
{ACAD_REACTORS
330
18B
102
}
330
18B
100
DictionaryVariables
280
     0
  1
0
  0
DICTIONARYVAR
  5
31D
102
{ACAD_REACTORS
330
18B
102
}
330
18B
100
DictionaryVariables
280
     0
  1

  0
DICTIONARYVAR
  5
18D
102
{ACAD_REACTORS
330
18B
102
}
330
18B
100
DictionaryVariables
280
     0
  1
127
  0
DICTIONARY
  5
12EB
330
168
100
AcDbDictionary
280
     1
281
     1
  3
ACAD_XREC_ROUNDTRIP
360
12EC
  0
DICTIONARY
  5
12ED
330
16C
100
AcDbDictionary
280
     1
281
     1
  3
ACAD_XREC_ROUNDTRIP
360
12EE
  0
DICTIONARY
  5
12E9
330
163
100
AcDbDictionary
280
     1
281
     1
  3
ACAD_XREC_ROUNDTRIP
360
12EA
  0
DICTIONARY
  5
1B0
330
183
100
AcDbDictionary
280
     1
281
     1
  3
ACAD_XREC_ROUNDTRIP
360
1B1
  0
DICTIONARY
  5
1AE
330
182
100
AcDbDictionary
280
     1
281
     1
  3
ACAD_XREC_ROUNDTRIP
360
1AF
  0
DICTIONARY
  5
193
330
A
100
AcDbDictionary
280
     1
281
     1
  3
ACAD_XREC_ROUNDTRIP
360
194
  0
DICTIONARY
  5
21A
330
187
100
AcDbDictionary
280
     1
281
     1
  3
ACAD_XREC_ROUNDTRIP
360
21B
  0
XRECORD
  5
12EC
102
{ACAD_REACTORS
330
12EB
102
}
330
12EB
100
AcDbXrecord
280
     1
102
SHADEPLOT
 70
     0
102
SHADEPLOTRESLEVEL
 70
     2
102
SHADEPLOTCUSTOMDPI
 70
   300
  0
XRECORD
  5
12EE
102
{ACAD_REACTORS
330
12ED
102
}
330
12ED
100
AcDbXrecord
280
     1
102
SHADEPLOT
 70
     0
102
SHADEPLOTRESLEVEL
 70
     2
102
SHADEPLOTCUSTOMDPI
 70
   300
  0
XRECORD
  5
12EA
102
{ACAD_REACTORS
330
12E9
102
}
330
12E9
100
AcDbXrecord
280
     1
102
SHADEPLOT
 70
     0
102
SHADEPLOTRESLEVEL
 70
     2
102
SHADEPLOTCUSTOMDPI
 70
   300
  0
XRECORD
  5
1B1
102
{ACAD_REACTORS
330
1B0
102
}
330
1B0
100
AcDbXrecord
280
     1
102
MATERIAL
148
0.0
149
0.0
149
0.0
 93
        0
 94
       63
282
     0
 72
     1
 77
     1
171
     1
175
     1
179
     1
273
     0
  0
XRECORD
  5
1AF
102
{ACAD_REACTORS
330
1AE
102
}
330
1AE
100
AcDbXrecord
280
     1
102
MATERIAL
148
0.0
149
0.0
149
0.0
 93
        0
 94
       63
282
     0
 72
     1
 77
     1
171
     1
175
     1
179
     1
273
     0
  0
XRECORD
  5
194
102
{ACAD_REACTORS
330
193
102
}
330
193
100
AcDbXrecord
280
     1
102
MATERIAL
148
0.0
149
0.0
149
0.0
 93
        0
 94
       63
282
     0
 72
     1
 77
     1
171
     1
175
     1
179
     1
273
     0
  0
XRECORD
  5
21B
102
{ACAD_REACTORS
330
21A
102
}
330
21A
100
AcDbXrecord
280
     1
102
ACAD_ROUNDTRIP_PRE2007_TABLESTYLE
 90
        4
 91
        0
  1

 92
        4
 93
        0
  2

 94
        4
 95
        0
  3

  0
ENDSEC
  0
EOF
