  0
SECTION
  2
HEADER
  9
$ACADVER
  1
AC1015
  9
$ACADMAINTVER
 70
    20
  9
$DWGCODEPAGE
  3
ANSI_1252
  9
$INSBASE
 10
0.0
 20
0.0
 30
0.0
  9
$EXTMIN
 10
0.0149999999999999
 20
-0.0265737183447023
 30
0.0
  9
$EXTMAX
 10
1.094458303957087
 20
0.4675256652932914
 30
0.0
  9
$LIMMIN
 10
0.0
 20
0.0
  9
$LIMMAX
 10
1.0
 20
0.5
  9
$ORTHOMODE
 70
     0
  9
$REGENMODE
 70
     1
  9
$FILLMODE
 70
     1
  9
$QTEXTMODE
 70
     0
  9
$MIRRTEXT
 70
     0
  9
$LTSCALE
 40
1.0
  9
$ATTMODE
 70
     1
  9
$TEXTSIZE
 40
0.008
  9
$TRACEWID
 40
1.0
  9
$TEXTSTYLE
  7
style1
  9
$CLAYER
  8
Sezione
  9
$CELTYPE
  6
ACAD_ISO10W100
  9
$CECOLOR
 62
   256
  9
$CELTSCALE
 40
1.0
  9
$DISPSILH
 70
     0
  9
$DIMSCALE
 40
0.001
  9
$DIMASZ
 40
1.5
  9
$DIMEXO
 40
0.0625
  9
$DIMDLI
 40
0.38
  9
$DIMRND
 40
0.0
  9
$DIMDLE
 40
0.0
  9
$DIMEXE
 40
0.18
  9
$DIMTP
 40
0.0
  9
$DIMTM
 40
0.0
  9
$DIMTXT
 40
3.0
  9
$DIMCEN
 40
0.0
  9
$DIMTSZ
 40
0.0
  9
$DIMTOL
 70
     0
  9
$DIMLIM
 70
     0
  9
$DIMTIH
 70
     1
  9
$DIMTOH
 70
     1
  9
$DIMSE1
 70
     0
  9
$DIMSE2
 70
     0
  9
$DIMTAD
 70
     0
  9
$DIMZIN
 70
     0
  9
$DIMBLK
  1
ArchTick
  9
$DIMASO
 70
     1
  9
$DIMSHO
 70
     1
  9
$DIMPOST
  1

  9
$DIMAPOST
  1

  9
$DIMALT
 70
     0
  9
$DIMALTD
 70
     2
  9
$DIMALTF
 40
25.4
  9
$DIMLFAC
 40
1.0
  9
$DIMTOFL
 70
     0
  9
$DIMTVP
 40
0.0
  9
$DIMTIX
 70
     0
  9
$DIMSOXD
 70
     0
  9
$DIMSAH
 70
     0
  9
$DIMBLK1
  1

  9
$DIMBLK2
  1

  9
$DIMSTYLE
  2
Bovelacci
  9
$DIMCLRD
 70
     5
  9
$DIMCLRE
 70
     5
  9
$DIMCLRT
 70
     4
  9
$DIMTFAC
 40
1.0
  9
$DIMGAP
 40
2.0
  9
$DIMJUST
 70
     0
  9
$DIMSD1
 70
     0
  9
$DIMSD2
 70
     0
  9
$DIMTOLJ
 70
     1
  9
$DIMTZIN
 70
     0
  9
$DIMALTZ
 70
     0
  9
$DIMALTTZ
 70
     0
  9
$DIMUPT
 70
     0
  9
$DIMDEC
 70
     2
  9
$DIMTDEC
 70
     2
  9
$DIMALTU
 70
     2
  9
$DIMALTTD
 70
     2
  9
$DIMTXSTY
  7
ROMANS
  9
$DIMAUNIT
 70
     0
  9
$DIMADEC
 70
     0
  9
$DIMALTRND
 40
0.0
  9
$DIMAZIN
 70
     0
  9
$DIMDSEP
 70
    46
  9
$DIMATFIT
 70
     3
  9
$DIMFRAC
 70
     0
  9
$DIMLDRBLK
  1

  9
$DIMLUNIT
 70
     2
  9
$DIMLWD
 70
    -2
  9
$DIMLWE
 70
    -2
  9
$DIMTMOVE
 70
     2
  9
$LUNITS
 70
     2
  9
$LUPREC
 70
     2
  9
$SKETCHINC
 40
1.0
  9
$FILLETRAD
 40
0.0
  9
$AUNITS
 70
     0
  9
$AUPREC
 70
     0
  9
$MENU
  1
.
  9
$ELEVATION
 40
0.0
  9
$PELEVATION
 40
0.0
  9
$THICKNESS
 40
0.0
  9
$LIMCHECK
 70
     0
  9
$CHAMFERA
 40
0.0
  9
$CHAMFERB
 40
0.0
  9
$CHAMFERC
 40
0.0
  9
$CHAMFERD
 40
0.0
  9
$SKPOLY
 70
     0
  9
$TDCREATE
 40
2454297.625402373
  9
$TDUCREATE
 40
2454297.542069039
  9
$TDUPDATE
 40
2454306.881819479
  9
$TDUUPDATE
 40
2454306.798486146
  9
$TDINDWG
 40
0.1640207407
  9
$TDUSRTIMER
 40
0.1640187384
  9
$USRTIMER
 70
     1
  9
$ANGBASE
 50
0.0
  9
$ANGDIR
 70
     0
  9
$PDMODE
 70
     0
  9
$PDSIZE
 40
0.0
  9
$PLINEWID
 40
0.0
  9
$SPLFRAME
 70
     0
  9
$SPLINETYPE
 70
     6
  9
$SPLINESEGS
 70
     8
  9
$HANDSEED
  5
1853
  9
$SURFTAB1
 70
     6
  9
$SURFTAB2
 70
     6
  9
$SURFTYPE
 70
     6
  9
$SURFU
 70
     6
  9
$SURFV
 70
     6
  9
$UCSBASE
  2

  9
$UCSNAME
  2

  9
$UCSORG
 10
0.0
 20
0.0
 30
0.0
  9
$UCSXDIR
 10
1.0
 20
0.0
 30
0.0
  9
$UCSYDIR
 10
0.0
 20
1.0
 30
0.0
  9
$UCSORTHOREF
  2

  9
$UCSORTHOVIEW
 70
     0
  9
$UCSORGTOP
 10
0.0
 20
0.0
 30
0.0
  9
$UCSORGBOTTOM
 10
0.0
 20
0.0
 30
0.0
  9
$UCSORGLEFT
 10
0.0
 20
0.0
 30
0.0
  9
$UCSORGRIGHT
 10
0.0
 20
0.0
 30
0.0
  9
$UCSORGFRONT
 10
0.0
 20
0.0
 30
0.0
  9
$UCSORGBACK
 10
0.0
 20
0.0
 30
0.0
  9
$PUCSBASE
  2

  9
$PUCSNAME
  2

  9
$PUCSORG
 10
0.0
 20
0.0
 30
0.0
  9
$PUCSXDIR
 10
1.0
 20
0.0
 30
0.0
  9
$PUCSYDIR
 10
0.0
 20
1.0
 30
0.0
  9
$PUCSORTHOREF
  2

  9
$PUCSORTHOVIEW
 70
     0
  9
$PUCSORGTOP
 10
0.0
 20
0.0
 30
0.0
  9
$PUCSORGBOTTOM
 10
0.0
 20
0.0
 30
0.0
  9
$PUCSORGLEFT
 10
0.0
 20
0.0
 30
0.0
  9
$PUCSORGRIGHT
 10
0.0
 20
0.0
 30
0.0
  9
$PUCSORGFRONT
 10
0.0
 20
0.0
 30
0.0
  9
$PUCSORGBACK
 10
0.0
 20
0.0
 30
0.0
  9
$USERI1
 70
     0
  9
$USERI2
 70
     0
  9
$USERI3
 70
     0
  9
$USERI4
 70
     0
  9
$USERI5
 70
     0
  9
$USERR1
 40
0.0
  9
$USERR2
 40
0.0
  9
$USERR3
 40
0.0
  9
$USERR4
 40
0.0
  9
$USERR5
 40
0.0
  9
$WORLDVIEW
 70
     1
  9
$SHADEDGE
 70
     3
  9
$SHADEDIF
 70
    70
  9
$TILEMODE
 70
     1
  9
$MAXACTVP
 70
    64
  9
$PINSBASE
 10
0.0
 20
0.0
 30
0.0
  9
$PLIMCHECK
 70
     0
  9
$PEXTMIN
 10
1.000000000000000E+20
 20
1.000000000000000E+20
 30
1.000000000000000E+20
  9
$PEXTMAX
 10
-1.000000000000000E+20
 20
-1.000000000000000E+20
 30
-1.000000000000000E+20
  9
$PLIMMIN
 10
0.0
 20
0.0
  9
$PLIMMAX
 10
420.0
 20
297.0
  9
$UNITMODE
 70
     0
  9
$VISRETAIN
 70
     1
  9
$PLINEGEN
 70
     0
  9
$PSLTSCALE
 70
     1
  9
$TREEDEPTH
 70
  3020
  9
$CMLSTYLE
  2
Standard
  9
$CMLJUST
 70
     0
  9
$CMLSCALE
 40
20.0
  9
$PROXYGRAPHICS
 70
     1
  9
$MEASUREMENT
 70
     1
  9
$CELWEIGHT
370
    -1
  9
$ENDCAPS
280
     0
  9
$JOINSTYLE
280
     0
  9
$LWDISPLAY
290
     0
  9
$INSUNITS
 70
     4
  9
$HYPERLINKBASE
  1

  9
$STYLESHEET
  1

  9
$XEDIT
290
     1
  9
$CEPSNTYPE
380
     0
  9
$PSTYLEMODE
290
     1
  9
$FINGERPRINTGUID
  2
{904A8C64-524F-4709-A9C6-320D2C273A6D}
  9
$VERSIONGUID
  2
{8D657FE6-58B3-491B-97C8-D8DF1CB44AA3}
  9
$EXTNAMES
290
     1
  9
$PSVPSCALE
 40
0.0
  9
$OLESTARTUP
290
     0
  0
ENDSEC
  0
SECTION
  2
CLASSES
  0
CLASS
  1
ACDBDICTIONARYWDFLT
  2
AcDbDictionaryWithDefault
  3
ObjectDBX Classes
 90
        0
280
     0
281
     0
  0
CLASS
  1
TABLESTYLE
  2
AcDbTableStyle
  3
ObjectDBX Classes
 90
     2047
280
     0
281
     0
  0
CLASS
  1
SORTENTSTABLE
  2
AcDbSortentsTable
  3
ObjectDBX Classes
 90
        0
280
     0
281
     0
  0
CLASS
  1
DICTIONARYVAR
  2
AcDbDictionaryVar
  3
ObjectDBX Classes
 90
        0
280
     0
281
     0
  0
CLASS
  1
ACDBPLACEHOLDER
  2
AcDbPlaceHolder
  3
ObjectDBX Classes
 90
        0
280
     0
281
     0
  0
CLASS
  1
LAYOUT
  2
AcDbLayout
  3
ObjectDBX Classes
 90
        0
280
     0
281
     0
  0
CLASS
  1
DIMASSOC
  2
AcDbDimAssoc
  3
"AcDbDimAssoc|Product Desc:     AcDim ARX App For Dimension|Company:          Autodesk, Inc.|WEB Address:      www.autodesk.com"
 90
        0
280
     0
281
     0
  0
CLASS
  1
MATERIAL
  2
AcDbMaterial
  3
ObjectDBX Classes
 90
        0
280
     0
281
     0
  0
CLASS
  1
VISUALSTYLE
  2
AcDbVisualStyle
  3
ObjectDBX Classes
 90
     4095
280
     0
281
     0
  0
ENDSEC
  0
SECTION
  2
TABLES
  0
TABLE
  2
VPORT
  5
177
330
0
100
AcDbSymbolTable
 70
    24
  0
VPORT
  5
1848
330
177
100
AcDbSymbolTableRecord
100
AcDbViewportTableRecord
  2
*Active
 70
     0
 10
0.0
 20
0.0
 11
1.0
 21
1.0
 12
0.2113439961405886
 22
0.1487922631561541
 13
0.0
 23
0.0
 14
10.0
 24
10.0
 15
10.0
 25
10.0
 16
0.0
 26
0.0
 36
1.0
 17
0.0
 27
0.0
 37
0.0
 40
0.2734165735988659
 41
1.546526867627784
 42
50.0
 43
0.0
 44
0.0
 50
0.0
 51
0.0
 71
     0
 72
  1000
 73
     1
 74
     3
 75
     0
 76
     0
 77
     0
 78
     0
281
     0
 65
     1
110
0.0
120
0.0
130
0.0
111
1.0
121
0.0
131
0.0
112
0.0
122
1.0
132
0.0
 79
     0
146
0.0
  0
ENDTAB
  0
TABLE
  2
LTYPE
  5
172
330
0
100
AcDbSymbolTable
 70
     3
  0
LTYPE
  5
173
330
172
100
AcDbSymbolTableRecord
100
AcDbLinetypeTableRecord
  2
ByBlock
 70
     0
  3

 72
    65
 73
     0
 40
0.0
  0
LTYPE
  5
174
330
172
100
AcDbSymbolTableRecord
100
AcDbLinetypeTableRecord
  2
ByLayer
 70
     0
  3

 72
    65
 73
     0
 40
0.0
  0
LTYPE
  5
C
330
172
100
AcDbSymbolTableRecord
100
AcDbLinetypeTableRecord
  2
Continuous
 70
     0
  3
Solid line
 72
    65
 73
     0
 40
0.0
  0
LTYPE
  5
14E
330
172
100
AcDbSymbolTableRecord
100
AcDbLinetypeTableRecord
  2
ACAD_ISO10W100
 70
     0
  3
ISO dash dot __ . __ . __ . __ . __ . __ . __ .
 72
    65
 73
     4
 40
18.0
 49
12.0
 74
     0
 49
-3.0
 74
     0
 49
0.0
 74
     0
 49
-3.0
 74
     0
  0
ENDTAB
  0
TABLE
  2
LAYER
  5
16D
102
{ACAD_XDICTIONARY
360
16E
102
}
330
0
100
AcDbSymbolTable
 70
     7
  0
LAYER
  5
6
330
16D
100
AcDbSymbolTableRecord
100
AcDbLayerTableRecord
  2
0
 70
     0
 62
     7
  6
Continuous
370
    -3
390
7
  0
LAYER
  5
15F
330
16D
100
AcDbSymbolTableRecord
100
AcDbLayerTableRecord
  2
Defpoints
 70
     0
 62
     7
  6
Continuous
290
     0
370
    -3
390
7
  0
LAYER
  5
28
330
16D
100
AcDbSymbolTableRecord
100
AcDbLayerTableRecord
  2
Profilo
 70
     0
 62
     1
  6
Continuous
370
    -3
390
7
1001
AcAecLayerStandard
1000

1000

  0
LAYER
  5
14D
330
16D
100
AcDbSymbolTableRecord
100
AcDbLayerTableRecord
  2
Sezione
 70
     0
 62
     2
  6
Continuous
370
    -3
390
7
1001
AcAecLayerStandard
1000

1000

  0
LAYER
  5
E
330
16D
100
AcDbSymbolTableRecord
100
AcDbLayerTableRecord
  2
Table
 70
     0
 62
     3
  6
Continuous
370
    -3
390
7
1001
AcAecLayerStandard
1000

1000

  0
LAYER
  5
19
330
16D
100
AcDbSymbolTableRecord
100
AcDbLayerTableRecord
  2
Text
 70
     0
 62
     4
  6
Continuous
370
    -3
390
7
1001
AcAecLayerStandard
1000

1000

  0
LAYER
  5
256
330
16D
100
AcDbSymbolTableRecord
100
AcDbLayerTableRecord
  2
Bovelacci
 70
     0
 62
     9
  6
Continuous
370
    -3
390
7
1001
AcAecLayerStandard
1000

1000

  0
ENDTAB
  0
TABLE
  2
STYLE
  5
170
330
0
100
AcDbSymbolTable
 70
     3
  0
STYLE
  5
1A
330
170
100
AcDbSymbolTableRecord
100
AcDbTextStyleTableRecord
  2
Standard
 70
     0
 40
0.0
 41
1.0
 50
0.0
 71
     0
 42
2.5
  3
txt
  4

  0
STYLE
  5
20
330
170
100
AcDbSymbolTableRecord
100
AcDbTextStyleTableRecord
  2
ROMANS
 70
     0
 40
0.0
 41
1.0
 50
0.0
 71
     0
 42
2.5
  3
romans
  4

  0
STYLE
  5
26
330
170
100
AcDbSymbolTableRecord
100
AcDbTextStyleTableRecord
  2
style1
 70
     0
 40
0.0
 41
1.0
 50
0.0
 71
     0
 42
0.008
  3
TIMES.TTF
  4

1001
ACAD
1000
Times New Roman
1071
       18
  0
ENDTAB
  0
TABLE
  2
VIEW
  5
175
330
0
100
AcDbSymbolTable
 70
     8
  0
ENDTAB
  0
TABLE
  2
UCS
  5
176
330
0
100
AcDbSymbolTable
 70
     0
  0
ENDTAB
  0
TABLE
  2
APPID
  5
17B
330
0
100
AcDbSymbolTable
 70
    10
  0
APPID
  5
1B
330
17B
100
AcDbSymbolTableRecord
100
AcDbRegAppTableRecord
  2
ACAD
 70
     0
  0
APPID
  5
157
330
17B
100
AcDbSymbolTableRecord
100
AcDbRegAppTableRecord
  2
ACAD_DSTYLE_DIMJOGGED_JOGANGLE_SYMBOL
 70
     0
  0
APPID
  5
F
330
17B
100
AcDbSymbolTableRecord
100
AcDbRegAppTableRecord
  2
AcAecLayerStandard
 70
     0
  0
APPID
  5
19C
330
17B
100
AcDbSymbolTableRecord
100
AcDbRegAppTableRecord
  2
ACAD_DSTYLE_DIMFLIPARROW_WHICH_SYMBOL
 70
     0
  0
APPID
  5
1A7
330
17B
100
AcDbSymbolTableRecord
100
AcDbRegAppTableRecord
  2
ACAD_DSTYLE_DIMEXT_LENGTH
 70
     0
  0
APPID
  5
1D2
330
17B
100
AcDbSymbolTableRecord
100
AcDbRegAppTableRecord
  2
ACAD_EXEMPT_FROM_CAD_STANDARDS
 70
     0
  0
APPID
  5
1D3
330
17B
100
AcDbSymbolTableRecord
100
AcDbRegAppTableRecord
  2
ACAD_DSTYLE_DIM_LINETYPE
 70
     0
  0
APPID
  5
1D4
330
17B
100
AcDbSymbolTableRecord
100
AcDbRegAppTableRecord
  2
ACAD_DSTYLE_DIM_EXT1_LINETYPE
 70
     0
  0
APPID
  5
1D5
330
17B
100
AcDbSymbolTableRecord
100
AcDbRegAppTableRecord
  2
ACAD_DSTYLE_DIM_EXT2_LINETYPE
 70
     0
  0
APPID
  5
25C
330
17B
100
AcDbSymbolTableRecord
100
AcDbRegAppTableRecord
  2
ACAD_PSEXT
 70
     0
  0
ENDTAB
  0
TABLE
  2
DIMSTYLE
  5
17C
330
0
100
AcDbSymbolTable
 70
     8
100
AcDbDimStyleTable
 71
     2
340
156
340
17D
  0
DIMSTYLE
105
17D
330
17C
100
AcDbSymbolTableRecord
100
AcDbDimStyleTableRecord
  2
ISO-25
 70
     0
 41
2.5
 42
0.625
 43
3.75
 44
1.25
 73
     0
 74
     0
 77
     1
 78
     8
140
2.5
141
2.5
143
0.03937007874016
147
0.625
171
     3
172
     1
271
     2
272
     2
274
     3
278
    44
283
     0
284
     8
340
1A
  0
DIMSTYLE
105
156
102
{ACAD_REACTORS
330
1829
102
}
330
17C
100
AcDbSymbolTableRecord
100
AcDbDimStyleTableRecord
  2
Bovelacci
 70
     0
 40
0.001
 41
1.5
140
3.0
141
0.0
147
2.0
176
     5
177
     5
178
     4
271
     2
272
     2
279
     2
340
20
342
152
1001
ACAD_DSTYLE_DIMJOGGED_JOGANGLE_SYMBOL
1070
   384
1040
0.7853981633974483
1001
ACAD_DSTYLE_DIMEXT_LENGTH
1070
   378
1040
0.18
  0
DIMSTYLE
105
257
330
17C
100
AcDbSymbolTableRecord
100
AcDbDimStyleTableRecord
  2
Dim 1-100
 70
     0
 40
0.1
 41
1.5
 42
0.0
 43
5.0
 44
1.25
 45
0.005
 46
1.25
 73
     0
 74
     0
 77
     1
 78
     9
140
2.0
141
2.5
147
1.0
172
     1
174
     1
179
     2
279
     2
289
     2
340
20
342
152
  0
DIMSTYLE
105
258
330
17C
100
AcDbSymbolTableRecord
100
AcDbDimStyleTableRecord
  2
Standard
 70
     0
 42
0.0
 73
     0
 74
     0
 77
     1
271
     2
272
     2
340
20
  0
DIMSTYLE
105
259
330
17C
100
AcDbSymbolTableRecord
100
AcDbDimStyleTableRecord
  2
Dim 1-50
 70
     0
 40
0.05
 41
1.5
 42
0.0
 43
5.0
 44
1.25
 45
0.005
 46
1.25
 73
     0
 74
     0
 77
     1
 78
     9
140
2.0
141
2.5
147
1.0
172
     1
174
     1
179
     2
279
     2
289
     2
340
20
342
152
  0
DIMSTYLE
105
25A
330
17C
100
AcDbSymbolTableRecord
100
AcDbDimStyleTableRecord
  2
Dim 1-200
 70
     0
 40
0.2
 41
1.5
 42
0.0
 43
5.0
 44
1.25
 45
0.005
 46
1.25
 73
     0
 74
     0
 77
     1
 78
     9
140
2.0
141
2.5
147
1.0
172
     1
174
     1
179
     2
271
     2
272
     2
279
     2
289
     2
340
20
342
152
  0
DIMSTYLE
105
25B
330
17C
100
AcDbSymbolTableRecord
100
AcDbDimStyleTableRecord
  2
AEC Scale - Italiano
 70
     0
 41
1.0
 42
10.0
 43
10.0
 44
10.0
 73
     0
 74
     0
 75
     1
 76
     1
 77
     1
140
10.0
141
1.0
147
10.0
173
     1
271
     0
272
     0
279
     2
340
1A
343
251
344
24B
  0
ENDTAB
  0
TABLE
  2
BLOCK_RECORD
  5
1
330
0
100
AcDbSymbolTable
 70
    34
  0
BLOCK_RECORD
  5
2
102
{ACAD_XDICTIONARY
360
3
102
}
330
1
100
AcDbSymbolTableRecord
100
AcDbBlockTableRecord
  2
*Model_Space
340
163
  0
BLOCK_RECORD
  5
165
330
1
100
AcDbSymbolTableRecord
100
AcDbBlockTableRecord
  2
*Paper_Space
340
168
  0
BLOCK_RECORD
  5
169
330
1
100
AcDbSymbolTableRecord
100
AcDbBlockTableRecord
  2
*Paper_Space0
340
16C
  0
BLOCK_RECORD
  5
152
330
1
100
AcDbSymbolTableRecord
100
AcDbBlockTableRecord
  2
_ArchTick
340
0
310
2800000020000000200000000100080000000000000400000000000000000000000000000000000000000000000080000080000000808000800000008000800080800000C0C0C000C0DCC000F0CAA6000020400000206000002080000020A0000020C0000020E00000400000004020000040400000406000004080000040A0
310
000040C0000040E00000600000006020000060400000606000006080000060A0000060C0000060E00000800000008020000080400000806000008080000080A0000080C0000080E00000A0000000A0200000A0400000A0600000A0800000A0A00000A0C00000A0E00000C0000000C0200000C0400000C0600000C0800000C0
310
A00000C0C00000C0E00000E0000000E0200000E0400000E0600000E0800000E0A00000E0C00000E0E00040000000400020004000400040006000400080004000A0004000C0004000E00040200000402020004020400040206000402080004020A0004020C0004020E000404000004040200040404000404060004040800040
310
40A0004040C0004040E00040600000406020004060400040606000406080004060A0004060C0004060E00040800000408020004080400040806000408080004080A0004080C0004080E00040A0000040A0200040A0400040A0600040A0800040A0A00040A0C00040A0E00040C0000040C0200040C0400040C0600040C08000
310
40C0A00040C0C00040C0E00040E0000040E0200040E0400040E0600040E0800040E0A00040E0C00040E0E00080000000800020008000400080006000800080008000A0008000C0008000E00080200000802020008020400080206000802080008020A0008020C0008020E00080400000804020008040400080406000804080
310
008040A0008040C0008040E00080600000806020008060400080606000806080008060A0008060C0008060E00080800000808020008080400080806000808080008080A0008080C0008080E00080A0000080A0200080A0400080A0600080A0800080A0A00080A0C00080A0E00080C0000080C0200080C0400080C0600080C0
310
800080C0A00080C0C00080C0E00080E0000080E0200080E0400080E0600080E0800080E0A00080E0C00080E0E000C0000000C0002000C0004000C0006000C0008000C000A000C000C000C000E000C0200000C0202000C0204000C0206000C0208000C020A000C020C000C020E000C0400000C0402000C0404000C0406000C0
310
408000C040A000C040C000C040E000C0600000C0602000C0604000C0606000C0608000C060A000C060C000C060E000C0800000C0802000C0804000C0806000C0808000C080A000C080C000C080E000C0A00000C0A02000C0A04000C0A06000C0A08000C0A0A000C0A0C000C0A0E000C0C00000C0C02000C0C04000C0C06000
310
C0C08000C0C0A000F0FBFF00A4A0A000808080000000FF0000FF000000FFFF00FF000000FF00FF00FFFF0000FFFFFF00000000FF000000000000000000000000000000000000000000000000000000000000FF00FF00000000000000000000000000000000000000000000000000000000FF000000FF000000000000000000
310
0000000000000000000000000000000000FF0000000000FF0000000000000000000000000000000000000000000000000000FF0000000000FF0000000000000000000000000000000000000000000000000000FF0000000000FF0000000000000000000000000000000000000000000000000000FF0000000000FF00000000
310
00000000000000000000000000000000000000000000FF0000000000FF0000000000000000000000000000000000000000000000000000FF0000000000FF0000000000000000000000000000000000000000000000000000FF0000000000FF0000000000000000000000000000000000000000000000000000FF0000000000
310
FF0000000000000000000000000000000000000000000000000000FF0000000000FF0000000000000000000000000000000000000000000000000000FF0000000000FF0000000000000000000000000000000000000000000000000000FF0000000000FF0000000000000000000000000000000000000000000000000000FF
310
0000000000FF0000000000000000000000000000000000000000000000000000FF0000000000FF0000000000000000000000000000000000000000000000000000FF0000000000FF0000000000000000000000000000000000000000000000000000FF0000000000FF00000000000000000000000000000000000000000000
310
00000000FF0000000000FF0000000000000000000000000000000000000000000000000000FF0000000000FF0000000000000000000000000000000000000000000000000000FF0000000000FF0000000000000000000000000000000000000000000000000000FF0000000000FF0000000000000000000000000000000000
310
000000000000000000FF0000000000FF0000000000000000000000000000000000000000000000000000FF0000000000FF0000000000000000000000000000000000000000000000000000FF0000000000FF0000000000000000000000000000000000000000000000000000FF0000000000FF000000000000000000000000
310
0000000000000000000000000000FF0000000000FF0000000000000000000000000000000000000000000000000000FF0000000000FF0000000000000000000000000000000000000000000000000000FF0000000000FF0000000000000000000000000000000000000000000000000000FF000000FF000000000000000000
310
00000000000000000000000000000000000000FF00FF000000000000000000000000000000000000000000000000000000000000FF000000
102
{BLKREFS
331
211
331
318
331
354
331
429
331
50A
331
5EC
331
6DD
331
847
331
9CD
331
A12
331
BBC
331
CB8
331
F31
331
11A1
331
12E0
331
1533
331
1534
331
153F
331
1540
331
1844
102
}
  0
BLOCK_RECORD
  5
24B
330
1
100
AcDbSymbolTableRecord
100
AcDbBlockTableRecord
  2
_Arrivo
340
0
310
2800000020000000200000000100080000000000000400000000000000000000000000000000000000000000000080000080000000808000800000008000800080800000C0C0C000C0DCC000F0CAA6000020400000206000002080000020A0000020C0000020E00000400000004020000040400000406000004080000040A0
310
000040C0000040E00000600000006020000060400000606000006080000060A0000060C0000060E00000800000008020000080400000806000008080000080A0000080C0000080E00000A0000000A0200000A0400000A0600000A0800000A0A00000A0C00000A0E00000C0000000C0200000C0400000C0600000C0800000C0
310
A00000C0C00000C0E00000E0000000E0200000E0400000E0600000E0800000E0A00000E0C00000E0E00040000000400020004000400040006000400080004000A0004000C0004000E00040200000402020004020400040206000402080004020A0004020C0004020E000404000004040200040404000404060004040800040
310
40A0004040C0004040E00040600000406020004060400040606000406080004060A0004060C0004060E00040800000408020004080400040806000408080004080A0004080C0004080E00040A0000040A0200040A0400040A0600040A0800040A0A00040A0C00040A0E00040C0000040C0200040C0400040C0600040C08000
310
40C0A00040C0C00040C0E00040E0000040E0200040E0400040E0600040E0800040E0A00040E0C00040E0E00080000000800020008000400080006000800080008000A0008000C0008000E00080200000802020008020400080206000802080008020A0008020C0008020E00080400000804020008040400080406000804080
310
008040A0008040C0008040E00080600000806020008060400080606000806080008060A0008060C0008060E00080800000808020008080400080806000808080008080A0008080C0008080E00080A0000080A0200080A0400080A0600080A0800080A0A00080A0C00080A0E00080C0000080C0200080C0400080C0600080C0
310
800080C0A00080C0C00080C0E00080E0000080E0200080E0400080E0600080E0800080E0A00080E0C00080E0E000C0000000C0002000C0004000C0006000C0008000C000A000C000C000C000E000C0200000C0202000C0204000C0206000C0208000C020A000C020C000C020E000C0400000C0402000C0404000C0406000C0
310
408000C040A000C040C000C040E000C0600000C0602000C0604000C0606000C0608000C060A000C060C000C060E000C0800000C0802000C0804000C0806000C0808000C080A000C080C000C080E000C0A00000C0A02000C0A04000C0A06000C0A08000C0A0A000C0A0C000C0A0E000C0C00000C0C02000C0C04000C0C06000
310
C0C08000C0C0A000F0FBFF00A4A0A000808080000000FF0000FF000000FFFF00FF000000FF00FF00FFFF0000FFFFFF00000000000000000000000000000000000000000000000000000000000000000000000000000000000000FF0000000000000000000000000000000000000000000000000000000000000000FF000000
310
00000000000000000000000000000000000000000000000000000000FF0000000000000000000000000000000000000000000000000000000000000000FF00000000000000000000000000000000000000000000000000000000000000FF0000000000000000000000000000000000000000000000000000000000000000FF
310
0000000000000000000000000000000000000000000000000000000000000000FF00000000000000000000000000000000000000000000000000000000000000FF0000000000000000000000000000000000000000000000000000000000000000FF0000000000000000000000000000000000000000000000000000000000
310
0000FF0000000000000000000000000000000000000000000000000000000000000000FF00000000000000000000000000000000000000000000000000000000000000FF0000000000000000000000000000000000000000000000000000000000000000FF0000FF0000000000000000000000000000000000000000000000
310
000000000000FFFF000000000000000000000000000000000000000000000000000000000000FFFF00000000000000000000000000000000000000000000000000000000FFFFFFFFFFFF00000000000000000000000000000000000000000000000000000000FFFF0000000000000000000000000000000000000000000000
310
000000000000FF0000FF000000000000000000000000000000000000000000000000000000FF00000000000000000000000000000000000000000000000000000000000000FF000000000000000000000000000000000000000000000000000000000000FF0000000000000000000000000000000000000000000000000000
310
0000000000FF000000000000000000000000000000000000000000000000000000000000FF00000000000000000000000000000000000000000000000000000000000000FF000000000000000000000000000000000000000000000000000000000000FF000000000000000000000000000000000000000000000000000000
310
000000FF00000000000000000000000000000000000000000000000000000000000000FF000000000000000000000000000000000000000000000000000000000000FF00000000000000000000000000000000000000000000000000000000000000FF00000000000000000000000000000000000000000000000000000000
310
0000FF0000000000000000000000000000000000000000000000000000000000000000000000000000000000000000000000000000000000
  0
BLOCK_RECORD
  5
251
330
1
100
AcDbSymbolTableRecord
100
AcDbBlockTableRecord
  2
_Partenza
340
0
310
2800000020000000200000000100080000000000000400000000000000000000000000000000000000000000000080000080000000808000800000008000800080800000C0C0C000C0DCC000F0CAA6000020400000206000002080000020A0000020C0000020E00000400000004020000040400000406000004080000040A0
310
000040C0000040E00000600000006020000060400000606000006080000060A0000060C0000060E00000800000008020000080400000806000008080000080A0000080C0000080E00000A0000000A0200000A0400000A0600000A0800000A0A00000A0C00000A0E00000C0000000C0200000C0400000C0600000C0800000C0
310
A00000C0C00000C0E00000E0000000E0200000E0400000E0600000E0800000E0A00000E0C00000E0E00040000000400020004000400040006000400080004000A0004000C0004000E00040200000402020004020400040206000402080004020A0004020C0004020E000404000004040200040404000404060004040800040
310
40A0004040C0004040E00040600000406020004060400040606000406080004060A0004060C0004060E00040800000408020004080400040806000408080004080A0004080C0004080E00040A0000040A0200040A0400040A0600040A0800040A0A00040A0C00040A0E00040C0000040C0200040C0400040C0600040C08000
310
40C0A00040C0C00040C0E00040E0000040E0200040E0400040E0600040E0800040E0A00040E0C00040E0E00080000000800020008000400080006000800080008000A0008000C0008000E00080200000802020008020400080206000802080008020A0008020C0008020E00080400000804020008040400080406000804080
310
008040A0008040C0008040E00080600000806020008060400080606000806080008060A0008060C0008060E00080800000808020008080400080806000808080008080A0008080C0008080E00080A0000080A0200080A0400080A0600080A0800080A0A00080A0C00080A0E00080C0000080C0200080C0400080C0600080C0
310
800080C0A00080C0C00080C0E00080E0000080E0200080E0400080E0600080E0800080E0A00080E0C00080E0E000C0000000C0002000C0004000C0006000C0008000C000A000C000C000C000E000C0200000C0202000C0204000C0206000C0208000C020A000C020C000C020E000C0400000C0402000C0404000C0406000C0
310
408000C040A000C040C000C040E000C0600000C0602000C0604000C0606000C0608000C060A000C060C000C060E000C0800000C0802000C0804000C0806000C0808000C080A000C080C000C080E000C0A00000C0A02000C0A04000C0A06000C0A08000C0A0A000C0A0C000C0A0E000C0C00000C0C02000C0C04000C0C06000
310
C0C08000C0C0A000F0FBFF00A4A0A000808080000000FF0000FF000000FFFF00FF000000FF00FF00FFFF0000FFFFFF0000000000000000000000000000000000000000000000000000000000000000000000000000000000000000000000000000000000000000000000000000000000000000000000000000000000000000
310
000000000000000000000000000000000000000000000000000000000000000000000000000000000000000000000000000000000000000000000000000000000000000000000000000000000000000000000000000000000000000000000000000000000000000000000000000000000000FFFFFFFFFFFFFFFFFFFFFFFFFF
310
FFFFFFFFFFFFFFFFFFFFFFFFFFFFFFFFFF0000000000000000000000000000000000000000000000000000000000000000000000000000000000000000000000000000000000000000000000000000000000000000000000000000000000000000000000000000000000000000000000000000000000000000000000000000
310
00000000000000000000000000000000000000000000000000000000000000000000000000000000000000000000000000000000000000000000000000000000000000000000000000000000000000000000000000000000000000000000000000000000000000000000000000000000000000000000000000000000000000
310
00000000000000000000000000000000000000000000000000000000000000000000000000000000000000000000000000000000000000000000000000000000000000000000000000000000000000000000000000000000000000000000000000000000000000000000000000000000000000000000000000000000000000
310
00000000000000000000000000000000000000000000000000000000000000000000000000000000000000000000000000000000000000000000000000000000000000000000000000000000000000000000000000000000000000000000000000000000000000000000000000000000000000000000000000000000000000
310
000000000000000000000000000000000000000000000000000000000000000000000000000000000000000000000000000000000000000000000000000000000000000000000000000000000000000000000000000000FFFFFFFFFFFFFFFFFFFFFFFFFFFFFFFFFFFFFFFFFFFFFFFFFFFFFFFFFFFF00000000000000000000
310
00000000000000000000000000000000000000000000000000000000000000000000000000000000000000000000000000000000000000000000000000000000000000000000000000000000000000000000000000000000000000000000000000000000000000000000000000000000000000000000000000000000000000
310
0000000000000000000000000000000000000000000000000000000000000000000000000000000000000000000000000000000000000000
  0
BLOCK_RECORD
  5
6C3
330
1
100
AcDbSymbolTableRecord
100
AcDbBlockTableRecord
  2
*D10
340
0
  0
BLOCK_RECORD
  5
82D
330
1
100
AcDbSymbolTableRecord
100
AcDbBlockTableRecord
  2
*D12
340
0
  0
BLOCK_RECORD
  5
9B3
330
1
100
AcDbSymbolTableRecord
100
AcDbBlockTableRecord
  2
*D15
340
0
  0
BLOCK_RECORD
  5
9F8
330
1
100
AcDbSymbolTableRecord
100
AcDbBlockTableRecord
  2
*D17
340
0
  0
BLOCK_RECORD
  5
BA2
330
1
100
AcDbSymbolTableRecord
100
AcDbBlockTableRecord
  2
*D19
340
0
  0
BLOCK_RECORD
  5
C9E
330
1
100
AcDbSymbolTableRecord
100
AcDbBlockTableRecord
  2
*D21
340
0
  0
BLOCK_RECORD
  5
F17
330
1
100
AcDbSymbolTableRecord
100
AcDbBlockTableRecord
  2
*D23
340
0
  0
BLOCK_RECORD
  5
1187
330
1
100
AcDbSymbolTableRecord
100
AcDbBlockTableRecord
  2
*D25
340
0
  0
BLOCK_RECORD
  5
12C6
330
1
100
AcDbSymbolTableRecord
100
AcDbBlockTableRecord
  2
*D27
340
0
  0
BLOCK_RECORD
  5
12F0
102
{ACAD_XDICTIONARY
360
1378
102
}
330
1
100
AcDbSymbolTableRecord
100
AcDbBlockTableRecord
  2
A$C06B82C3B
340
0
1001
ACAD
1000
DesignCenter Data
1002
{
1070
     1
1070
     4
1002
}
  0
BLOCK_RECORD
  5
1507
330
1
100
AcDbSymbolTableRecord
100
AcDbBlockTableRecord
  2
*D30
340
0
  0
BLOCK_RECORD
  5
1521
330
1
100
AcDbSymbolTableRecord
100
AcDbBlockTableRecord
  2
*D31
340
0
  0
BLOCK_RECORD
  5
182A
330
1
100
AcDbSymbolTableRecord
100
AcDbBlockTableRecord
  2
*D33
340
0
  0
ENDTAB
  0
ENDSEC
  0
SECTION
  2
BLOCKS
  0
BLOCK
  5
5
330
2
100
AcDbEntity
  8
0
100
AcDbBlockBegin
  2
*Model_Space
 70
     0
 10
0.0
 20
0.0
 30
0.0
  3
*Model_Space
  1

  0
ENDBLK
  5
162
330
2
100
AcDbEntity
  8
0
100
AcDbBlockEnd
  0
BLOCK
  5
166
330
165
100
AcDbEntity
 67
     1
  8
0
100
AcDbBlockBegin
  2
*Paper_Space
 70
     0
 10
0.0
 20
0.0
 30
0.0
  3
*Paper_Space
  1

  0
ENDBLK
  5
167
330
165
100
AcDbEntity
 67
     1
  8
0
100
AcDbBlockEnd
  0
BLOCK
  5
16A
330
169
100
AcDbEntity
 67
     1
  8
0
100
AcDbBlockBegin
  2
*Paper_Space0
 70
     0
 10
0.0
 20
0.0
 30
0.0
  3
*Paper_Space0
  1

  0
ENDBLK
  5
16B
330
169
100
AcDbEntity
 67
     1
  8
0
100
AcDbBlockEnd
  0
BLOCK
  5
153
330
152
100
AcDbEntity
  8
0
 62
     1
100
AcDbBlockBegin
  2
_ArchTick
 70
     0
 10
0.0
 20
0.0
 30
0.0
  3
_ArchTick
  1

  0
LWPOLYLINE
  5
154
330
152
100
AcDbEntity
  8
0
  6
ByBlock
 62
     0
100
AcDbPolyline
 90
        2
 70
     0
 43
0.15
 10
-0.5
 20
-0.5
 10
0.5
 20
0.5
  0
ENDBLK
  5
155
330
152
100
AcDbEntity
  8
0
 62
     1
100
AcDbBlockEnd
  0
BLOCK
  5
24C
330
24B
100
AcDbEntity
  8
0
100
AcDbBlockBegin
  2
_Arrivo
 70
     0
 10
0.0
 20
0.0
 30
0.0
  3
_Arrivo
  1

  0
LINE
  5
24D
330
24B
100
AcDbEntity
  8
0
  6
ByBlock
 62
     0
370
    -2
100
AcDbLine
 10
0.025
 20
-0.0433012701891858
 30
0.0
 11
-0.15
 21
0.2598076211353328
 31
0.0
  0
LINE
  5
24E
330
24B
100
AcDbEntity
  8
0
  6
ByBlock
 62
     0
370
    -2
100
AcDbLine
 10
0.025
 20
0.0433012701892585
 30
0.0
 11
-0.15
 21
-0.2598076211353328
 31
0.0
  0
LINE
  5
24F
330
24B
100
AcDbEntity
  8
0
  6
ByBlock
 62
     0
370
    -2
100
AcDbLine
 10
-0.05
 20
0.0
 30
0.0
 11
0.05
 21
0.0
 31
0.0
  0
ENDBLK
  5
250
330
24B
100
AcDbEntity
  8
0
100
AcDbBlockEnd
  0
BLOCK
  5
252
330
251
100
AcDbEntity
  8
0
100
AcDbBlockBegin
  2
_Partenza
 70
     0
 10
0.0
 20
0.0
 30
0.0
  3
_Partenza
  1

  0
LINE
  5
253
330
251
100
AcDbEntity
  8
0
  6
ByBlock
 62
     0
370
    -2
100
AcDbLine
 10
-0.05
 20
0.05
 30
0.0
 11
0.1
 21
0.05
 31
0.0
  0
LINE
  5
254
330
251
100
AcDbEntity
  8
0
  6
ByBlock
 62
     0
370
    -2
100
AcDbLine
 10
-0.05
 20
-0.05
 30
0.0
 11
0.1
 21
-0.05
 31
0.0
  0
ENDBLK
  5
255
330
251
100
AcDbEntity
  8
0
100
AcDbBlockEnd
  0
BLOCK
  5
6CA
330
6C3
100
AcDbEntity
  8
0
100
AcDbBlockBegin
  2
*D10
 70
     1
 10
0.0
 20
0.0
 30
0.0
  3
*D10
  1

  0
LINE
  5
6DA
330
6C3
100
AcDbEntity
  8
Sezione
  6
ACAD_ISO10W100
 62
     5
370
    -2
100
AcDbLine
 10
0.2580272919594555
 20
0.2091457005418985
 30
0.0
 11
0.2565272919594555
 21
0.2091457005418986
 31
0.0
  0
LINE
  5
6DB
330
6C3
100
AcDbEntity
  8
Sezione
  6
ACAD_ISO10W100
 62
     5
370
    -2
100
AcDbLine
 10
0.2565272919594555
 20
0.2091457005418986
 30
0.0
 11
0.2544161538279562
 21
0.2070142466273769
 31
0.0
  0
MTEXT
  5
6DC
330
6C3
100
AcDbEntity
  8
Sezione
  6
ACAD_ISO10W100
 62
     4
100
AcDbMText
 10
0.2724558633880269
 20
0.2091457005418985
 30
0.0
 40
0.003
 41
0.0
 71
     5
 72
     1
  1
\A1;d 250 mm
  7
ROMANS
 73
     1
 44
1.0
1001
ACAD
1000
MTEXTBEGIN
1070
    73
1070
     1
1070
    44
1040
1.0
1070
    74
1070
     0
1000
MTEXTEND
  0
INSERT
  5
6DD
330
6C3
100
AcDbEntity
  8
Sezione
  6
ACAD_ISO10W100
 62
     5
370
    -2
100
AcDbBlockReference
  2
_ArchTick
 10
0.2544161538279562
 20
0.2070142466273769
 30
0.0
 41
0.0015
 42
0.0015
 43
0.0015
 50
225.2743605124572
  0
POINT
  5
6DE
330
6C3
100
AcDbEntity
  8
Defpoints
  6
ACAD_ISO10W100
 62
     0
100
AcDbPoint
 10
0.2544161538279562
 20
0.2070142466273769
 30
0.0
  0
POINT
  5
6DF
330
6C3
100
AcDbEntity
  8
Defpoints
  6
ACAD_ISO10W100
 62
     0
100
AcDbPoint
 10
0.1664520650154866
 20
0.1182036668556404
 30
0.0
  0
ENDBLK
  5
6CB
330
6C3
100
AcDbEntity
  8
0
100
AcDbBlockEnd
  0
BLOCK
  5
834
330
82D
100
AcDbEntity
  8
0
100
AcDbBlockBegin
  2
*D12
 70
     1
 10
0.0
 20
0.0
 30
0.0
  3
*D12
  1

  0
LINE
  5
844
330
82D
100
AcDbEntity
  8
Sezione
  6
ACAD_ISO10W100
 62
     5
370
    -2
100
AcDbLine
 10
0.2668759768663114
 20
0.2106523346372896
 30
0.0
 11
0.2653759768663114
 21
0.2106523346372896
 31
0.0
  0
LINE
  5
845
330
82D
100
AcDbEntity
  8
Sezione
  6
ACAD_ISO10W100
 62
     5
370
    -2
100
AcDbLine
 10
0.2653759768663114
 20
0.2106523346372896
 30
0.0
 11
0.2631789214633089
 21
0.2086095552668882
 31
0.0
  0
MTEXT
  5
846
330
82D
100
AcDbEntity
  8
Sezione
  6
ACAD_ISO10W100
 62
     4
100
AcDbMText
 10
0.2813045482948828
 20
0.2106523346372896
 30
0.0
 40
0.003
 41
0.0
 71
     5
 72
     1
  1
\A1;d 290 mm
  7
ROMANS
 73
     1
 44
1.0
1001
ACAD
1000
MTEXTBEGIN
1070
    73
1070
     1
1070
    44
1040
1.0
1070
    74
1070
     0
1000
MTEXTEND
  0
INSERT
  5
847
330
82D
100
AcDbEntity
  8
Sezione
  6
ACAD_ISO10W100
 62
     5
370
    -2
100
AcDbBlockReference
  2
_ArchTick
 10
0.2631789214633089
 20
0.2086095552668882
 30
0.0
 41
0.0015
 42
0.0015
 43
0.0015
 50
222.916082132817
  0
POINT
  5
848
330
82D
100
AcDbEntity
  8
Defpoints
  6
ACAD_ISO10W100
 62
     0
100
AcDbPoint
 10
0.2631789214633089
 20
0.2086095552668882
 30
0.0
  0
POINT
  5
849
330
82D
100
AcDbEntity
  8
Defpoints
  6
ACAD_ISO10W100
 62
     0
100
AcDbPoint
 10
0.1569879103181878
 20
0.1098752190308209
 30
0.0
  0
ENDBLK
  5
835
330
82D
100
AcDbEntity
  8
0
100
AcDbBlockEnd
  0
BLOCK
  5
9BA
330
9B3
100
AcDbEntity
  8
0
100
AcDbBlockBegin
  2
*D15
 70
     1
 10
0.0
 20
0.0
 30
0.0
  3
*D15
  1

  0
LINE
  5
9CA
330
9B3
100
AcDbEntity
  8
Sezione
  6
ACAD_ISO10W100
 62
     5
370
    -2
100
AcDbLine
 10
0.2720801551691272
 20
0.2106523321067409
 30
0.0
 11
0.2705801551691272
 21
0.2106523321067409
 31
0.0
  0
LINE
  5
9CB
330
9B3
100
AcDbEntity
  8
Sezione
  6
ACAD_ISO10W100
 62
     5
370
    -2
100
AcDbLine
 10
0.2705801551691272
 20
0.2106523321067409
 30
0.0
 11
0.268259040554878
 21
0.2087516935436473
 31
0.0
  0
MTEXT
  5
9CC
330
9B3
100
AcDbEntity
  8
Sezione
  6
ACAD_ISO10W100
 62
     4
100
AcDbMText
 10
0.2865087265976987
 20
0.2106523321067409
 30
0.0
 40
0.003
 41
0.0
 71
     5
 72
     1
  1
\A1;d 310 mm
  7
ROMANS
 73
     1
 44
1.0
1001
ACAD
1000
MTEXTBEGIN
1070
    73
1070
     1
1070
    44
1040
1.0
1070
    74
1070
     0
1000
MTEXTEND
  0
INSERT
  5
9CD
330
9B3
100
AcDbEntity
  8
Sezione
  6
ACAD_ISO10W100
 62
     5
370
    -2
100
AcDbBlockReference
  2
_ArchTick
 10
0.268259040554878
 20
0.2087516935436473
 30
0.0
 41
0.0015
 42
0.0015
 43
0.0015
 50
219.3122411371381
  0
POINT
  5
9CE
330
9B3
100
AcDbEntity
  8
Defpoints
  6
ACAD_ISO10W100
 62
     0
100
AcDbPoint
 10
0.268259040554878
 20
0.2087516935436473
 30
0.0
  0
POINT
  5
9CF
330
9B3
100
AcDbEntity
  8
Defpoints
  6
ACAD_ISO10W100
 62
     0
100
AcDbPoint
 10
0.1483347854853323
 20
0.1105520344504785
 30
0.0
  0
ENDBLK
  5
9BB
330
9B3
100
AcDbEntity
  8
0
100
AcDbBlockEnd
  0
BLOCK
  5
9FF
330
9F8
100
AcDbEntity
  8
0
100
AcDbBlockBegin
  2
*D17
 70
     1
 10
0.0
 20
0.0
 30
0.0
  3
*D17
  1

  0
LINE
  5
A0F
330
9F8
100
AcDbEntity
  8
Sezione
  6
ACAD_ISO10W100
 62
     5
370
    -2
100
AcDbLine
 10
0.270541626019994
 20
0.2147084216870797
 30
0.0
 11
0.2690416260199941
 21
0.2147084216870796
 31
0.0
  0
LINE
  5
A10
330
9F8
100
AcDbEntity
  8
Sezione
  6
ACAD_ISO10W100
 62
     5
370
    -2
100
AcDbLine
 10
0.2690416260199941
 20
0.2147084216870796
 30
0.0
 11
0.266907749695741
 21
0.2125997320862155
 31
0.0
  0
MTEXT
  5
A11
330
9F8
100
AcDbEntity
  8
Sezione
  6
ACAD_ISO10W100
 62
     4
100
AcDbMText
 10
0.2849701974485655
 20
0.2147084216870797
 30
0.0
 40
0.003
 41
0.0
 71
     5
 72
     1
  1
\A1;d 320 mm
  7
ROMANS
 73
     1
 44
1.0
1001
ACAD
1000
MTEXTBEGIN
1070
    73
1070
     1
1070
    44
1040
1.0
1070
    74
1070
     0
1000
MTEXTEND
  0
INSERT
  5
A12
330
9F8
100
AcDbEntity
  8
Sezione
  6
ACAD_ISO10W100
 62
     5
370
    -2
100
AcDbBlockReference
  2
_ArchTick
 10
0.266907749695741
 20
0.2125997320862155
 30
0.0
 41
0.0015
 42
0.0015
 43
0.0015
 50
224.6598577317865
  0
POINT
  5
A13
330
9F8
100
AcDbEntity
  8
Defpoints
  6
ACAD_ISO10W100
 62
     0
100
AcDbPoint
 10
0.266907749695741
 20
0.2125997320862155
 30
0.0
  0
POINT
  5
A14
330
9F8
100
AcDbEntity
  8
Defpoints
  6
ACAD_ISO10W100
 62
     0
100
AcDbPoint
 10
0.1531010124022461
 20
0.1001362867067971
 30
0.0
  0
ENDBLK
  5
A00
330
9F8
100
AcDbEntity
  8
0
100
AcDbBlockEnd
  0
BLOCK
  5
BA9
330
BA2
100
AcDbEntity
  8
0
100
AcDbBlockBegin
  2
*D19
 70
     1
 10
0.0
 20
0.0
 30
0.0
  3
*D19
  1

  0
LINE
  5
BB9
330
BA2
100
AcDbEntity
  8
Sezione
  6
ACAD_ISO10W100
 62
     5
370
    -2
100
AcDbLine
 10
0.2721196718501769
 20
0.2115475428616256
 30
0.0
 11
0.2706196718501769
 21
0.2115475428616256
 31
0.0
  0
LINE
  5
BBA
330
BA2
100
AcDbEntity
  8
Sezione
  6
ACAD_ISO10W100
 62
     5
370
    -2
100
AcDbLine
 10
0.2706196718501769
 20
0.2115475428616256
 30
0.0
 11
0.26845501015967
 21
0.2094704680517903
 31
0.0
  0
MTEXT
  5
BBB
330
BA2
100
AcDbEntity
  8
Sezione
  6
ACAD_ISO10W100
 62
     4
100
AcDbMText
 10
0.2865482432787483
 20
0.2115475428616256
 30
0.0
 40
0.003
 41
0.0
 71
     5
 72
     1
  1
\A1;d 330 mm
  7
ROMANS
 73
     1
 44
1.0
1001
ACAD
1000
MTEXTBEGIN
1070
    73
1070
     1
1070
    44
1040
1.0
1070
    74
1070
     0
1000
MTEXTEND
  0
INSERT
  5
BBC
330
BA2
100
AcDbEntity
  8
Sezione
  6
ACAD_ISO10W100
 62
     5
370
    -2
100
AcDbBlockReference
  2
_ArchTick
 10
0.26845501015967
 20
0.2094704680517903
 30
0.0
 41
0.0015
 42
0.0015
 43
0.0015
 50
223.817077498188
  0
POINT
  5
BBD
330
BA2
100
AcDbEntity
  8
Defpoints
  6
ACAD_ISO10W100
 62
     0
100
AcDbPoint
 10
0.26845501015967
 20
0.2094704680517903
 30
0.0
  0
POINT
  5
BBE
330
BA2
100
AcDbEntity
  8
Defpoints
  6
ACAD_ISO10W100
 62
     0
100
AcDbPoint
 10
0.1493986171817919
 20
0.0952313535108543
 30
0.0
  0
ENDBLK
  5
BAA
330
BA2
100
AcDbEntity
  8
0
100
AcDbBlockEnd
  0
BLOCK
  5
CA5
330
C9E
100
AcDbEntity
  8
0
100
AcDbBlockBegin
  2
*D21
 70
     1
 10
0.0
 20
0.0
 30
0.0
  3
*D21
  1

  0
LINE
  5
CB5
330
C9E
100
AcDbEntity
  8
Sezione
  6
ACAD_ISO10W100
 62
     5
370
    -2
100
AcDbLine
 10
0.2517131923565132
 20
0.1920875998421381
 30
0.0
 11
0.2502131923565132
 21
0.1920875998421381
 31
0.0
  0
LINE
  5
CB6
330
C9E
100
AcDbEntity
  8
Sezione
  6
ACAD_ISO10W100
 62
     5
370
    -2
100
AcDbLine
 10
0.2502131923565132
 20
0.1920875998421381
 30
0.0
 11
0.2477847082184422
 21
0.1903262183414014
 31
0.0
  0
MTEXT
  5
CB7
330
C9E
100
AcDbEntity
  8
Sezione
  6
ACAD_ISO10W100
 62
     4
100
AcDbMText
 10
0.2661417637850846
 20
0.1920875998421381
 30
0.0
 40
0.003
 41
0.0
 71
     5
 72
     1
  1
\A1;d 380 mm
  7
ROMANS
 73
     1
 44
1.0
1001
ACAD
1000
MTEXTBEGIN
1070
    73
1070
     1
1070
    44
1040
1.0
1070
    74
1070
     0
1000
MTEXTEND
  0
INSERT
  5
CB8
330
C9E
100
AcDbEntity
  8
Sezione
  6
ACAD_ISO10W100
 62
     5
370
    -2
100
AcDbBlockReference
  2
_ArchTick
 10
0.2477847082184422
 20
0.1903262183414014
 30
0.0
 41
0.0015
 42
0.0015
 43
0.0015
 50
215.9534071794428
  0
POINT
  5
CB9
330
C9E
100
AcDbEntity
  8
Defpoints
  6
ACAD_ISO10W100
 62
     0
100
AcDbPoint
 10
0.2477847082184422
 20
0.1903262183414014
 30
0.0
  0
POINT
  5
CBA
330
C9E
100
AcDbEntity
  8
Defpoints
  6
ACAD_ISO10W100
 62
     0
100
AcDbPoint
 10
0.1708827105128607
 20
0.1345491374847382
 30
0.0
  0
ENDBLK
  5
CA6
330
C9E
100
AcDbEntity
  8
0
100
AcDbBlockEnd
  0
BLOCK
  5
F1E
330
F17
100
AcDbEntity
  8
0
100
AcDbBlockBegin
  2
*D23
 70
     1
 10
0.0
 20
0.0
 30
0.0
  3
*D23
  1

  0
LINE
  5
F2E
330
F17
100
AcDbEntity
  8
Sezione
  6
ACAD_ISO10W100
 62
     5
370
    -2
100
AcDbLine
 10
0.2503579376781857
 20
0.1980055183402467
 30
0.0
 11
0.2488579376781857
 21
0.1980055183402467
 31
0.0
  0
LINE
  5
F2F
330
F17
100
AcDbEntity
  8
Sezione
  6
ACAD_ISO10W100
 62
     5
370
    -2
100
AcDbLine
 10
0.2488579376781857
 20
0.1980055183402467
 30
0.0
 11
0.2466795059210188
 21
0.1959428901431722
 31
0.0
  0
MTEXT
  5
F30
330
F17
100
AcDbEntity
  8
Sezione
  6
ACAD_ISO10W100
 62
     4
100
AcDbMText
 10
0.2647865091067571
 20
0.1980055183402467
 30
0.0
 40
0.003
 41
0.0
 71
     5
 72
     1
  1
\A1;d 400 mm
  7
ROMANS
 73
     1
 44
1.0
1001
ACAD
1000
MTEXTBEGIN
1070
    73
1070
     1
1070
    44
1040
1.0
1070
    74
1070
     0
1000
MTEXTEND
  0
INSERT
  5
F31
330
F17
100
AcDbEntity
  8
Sezione
  6
ACAD_ISO10W100
 62
     5
370
    -2
100
AcDbBlockReference
  2
_ArchTick
 10
0.2466795059210188
 20
0.1959428901431722
 30
0.0
 41
0.0015
 42
0.0015
 43
0.0015
 50
223.4359082248928
  0
POINT
  5
F32
330
F17
100
AcDbEntity
  8
Defpoints
  6
ACAD_ISO10W100
 62
     0
100
AcDbPoint
 10
0.2466795059210188
 20
0.1959428901431722
 30
0.0
  0
POINT
  5
F33
330
F17
100
AcDbEntity
  8
Defpoints
  6
ACAD_ISO10W100
 62
     0
100
AcDbPoint
 10
0.1740651140154545
 20
0.127188616907357
 30
0.0
  0
ENDBLK
  5
F1F
330
F17
100
AcDbEntity
  8
0
100
AcDbBlockEnd
  0
BLOCK
  5
118E
330
1187
100
AcDbEntity
  8
0
100
AcDbBlockBegin
  2
*D25
 70
     1
 10
0.0
 20
0.0
 30
0.0
  3
*D25
  1

  0
LINE
  5
119E
330
1187
100
AcDbEntity
  8
Sezione
  6
ACAD_ISO10W100
 62
     5
370
    -2
100
AcDbLine
 10
0.2487233430377668
 20
0.2056018570955785
 30
0.0
 11
0.2472233430377668
 21
0.2056018570955785
 31
0.0
  0
LINE
  5
119F
330
1187
100
AcDbEntity
  8
Sezione
  6
ACAD_ISO10W100
 62
     5
370
    -2
100
AcDbLine
 10
0.2472233430377668
 20
0.2056018570955785
 30
0.0
 11
0.2451694762350893
 21
0.203415162979599
 31
0.0
  0
MTEXT
  5
11A0
330
1187
100
AcDbEntity
  8
Sezione
  6
ACAD_ISO10W100
 62
     4
100
AcDbMText
 10
0.2631519144663382
 20
0.2056018570955785
 30
0.0
 40
0.003
 41
0.0
 71
     5
 72
     1
  1
\A1;d 410 mm
  7
ROMANS
 73
     1
 44
1.0
1001
ACAD
1000
MTEXTBEGIN
1070
    73
1070
     1
1070
    44
1040
1.0
1070
    74
1070
     0
1000
MTEXTEND
  0
INSERT
  5
11A1
330
1187
100
AcDbEntity
  8
Sezione
  6
ACAD_ISO10W100
 62
     5
370
    -2
100
AcDbBlockReference
  2
_ArchTick
 10
0.2451694762350893
 20
0.203415162979599
 30
0.0
 41
0.0015
 42
0.0015
 43
0.0015
 50
226.7940921288566
  0
POINT
  5
11A2
330
1187
100
AcDbEntity
  8
Defpoints
  6
ACAD_ISO10W100
 62
     0
100
AcDbPoint
 10
0.2451694762350893
 20
0.203415162979599
 30
0.0
  0
POINT
  5
11A3
330
1187
100
AcDbEntity
  8
Defpoints
  6
ACAD_ISO10W100
 62
     0
100
AcDbPoint
 10
0.1750322086303928
 20
0.1287419903171205
 30
0.0
  0
ENDBLK
  5
118F
330
1187
100
AcDbEntity
  8
0
100
AcDbBlockEnd
  0
BLOCK
  5
12CD
330
12C6
100
AcDbEntity
  8
0
100
AcDbBlockBegin
  2
*D27
 70
     1
 10
0.0
 20
0.0
 30
0.0
  3
*D27
  1

  0
LINE
  5
12DD
330
12C6
100
AcDbEntity
  8
Sezione
  6
ACAD_ISO10W100
 62
     5
370
    -2
100
AcDbLine
 10
0.2519997129554445
 20
0.1994291125252039
 30
0.0
 11
0.2504997129554445
 21
0.199429112525204
 31
0.0
  0
LINE
  5
12DE
330
12C6
100
AcDbEntity
  8
Sezione
  6
ACAD_ISO10W100
 62
     5
370
    -2
100
AcDbLine
 10
0.2504997129554445
 20
0.199429112525204
 30
0.0
 11
0.2483895355443742
 21
0.1972967074760145
 31
0.0
  0
MTEXT
  5
12DF
330
12C6
100
AcDbEntity
  8
Sezione
  6
ACAD_ISO10W100
 62
     4
100
AcDbMText
 10
0.2664282843840159
 20
0.1994291125252039
 30
0.0
 40
0.003
 41
0.0
 71
     5
 72
     1
  1
\A1;d 420 mm
  7
ROMANS
 73
     1
 44
1.0
1001
ACAD
1000
MTEXTBEGIN
1070
    73
1070
     1
1070
    44
1040
1.0
1070
    74
1070
     0
1000
MTEXTEND
  0
INSERT
  5
12E0
330
12C6
100
AcDbEntity
  8
Sezione
  6
ACAD_ISO10W100
 62
     5
370
    -2
100
AcDbBlockReference
  2
_ArchTick
 10
0.2483895355443742
 20
0.1972967074760145
 30
0.0
 41
0.0015
 42
0.0015
 43
0.0015
 50
225.30017995227
  0
POINT
  5
12E1
330
12C6
100
AcDbEntity
  8
Defpoints
  6
ACAD_ISO10W100
 62
     0
100
AcDbPoint
 10
0.2483895355443742
 20
0.1972967074760145
 30
0.0
  0
POINT
  5
12E2
330
12C6
100
AcDbEntity
  8
Defpoints
  6
ACAD_ISO10W100
 62
     0
100
AcDbPoint
 10
0.1745333261569147
 20
0.1226625307543829
 30
0.0
  0
ENDBLK
  5
12CE
330
12C6
100
AcDbEntity
  8
0
100
AcDbBlockEnd
  0
BLOCK
  5
137A
330
12F0
100
AcDbEntity
  8
0
100
AcDbBlockBegin
  2
A$C06B82C3B
 70
     0
 10
0.0
 20
0.0
 30
0.0
  3
A$C06B82C3B
  1

  0
CIRCLE
  5
12F1
330
12F0
100
AcDbEntity
  8
0
  6
Continuous
370
     0
100
AcDbCircle
 10
0.2100000128891679
 20
0.2099999738693725
 30
0.0
 40
0.190353501069441
  0
CIRCLE
  5
12F2
330
12F0
100
AcDbEntity
  8
0
  6
Continuous
370
     0
100
AcDbCircle
 10
0.2100000128891679
 20
0.2099999738693725
 30
0.0
 40
0.1762215365181566
  0
CIRCLE
  5
12F3
330
12F0
100
AcDbEntity
  8
0
  6
Continuous
370
     0
100
AcDbCircle
 10
0.2100000128891679
 20
0.2099999738693725
 30
0.0
 40
0.21
  0
CIRCLE
  5
12F4
330
12F0
100
AcDbEntity
  8
0
  6
Continuous
370
     0
100
AcDbCircle
 10
0.2100000128891679
 20
0.2099999738693725
 30
0.0
 40
0.0142627512571157
  0
LWPOLYLINE
  5
12F5
330
12F0
100
AcDbEntity
  8
0
  6
Continuous
370
     0
100
AcDbPolyline
 90
        9
 70
   128
 43
0.0
 10
0.1775311812878222
 20
0.3976650651396838
 10
0.1764864628582323
 20
0.4056706834829508
 10
0.1761382233816988
 20
0.4103696324400321
 10
0.1803170857085234
 20
0.4112398089736118
 10
0.1837994576907427
 20
0.4117619192180122
 10
0.1895453862704066
 20
0.4121099855071914
 10
0.1904159735701895
 20
0.4081071763355571
 10
0.1911124525232495
 20
0.4014938375631835
 10
0.1912865722615144
 20
0.3997534917031107
  0
LWPOLYLINE
  5
12F6
330
12F0
100
AcDbEntity
  8
0
  6
Continuous
370
     0
100
AcDbPolyline
 90
        9
 70
   128
 43
0.0
 10
0.1528075761770253
 20
0.3916629494312022
 10
0.1507051347651398
 20
0.3994578902112717
 10
0.1497336938595133
 20
0.4040684969610541
 10
0.1537592870569284
 20
0.4054878971706746
 10
0.1571409970490407
 20
0.4064695036392223
 10
0.16278926481694
 20
0.4075803216289931
 10
0.1641856065386555
 20
0.4037292655001839
 10
0.165757342939834
 20
0.3972677658804766
 10
0.1661618744936568
 20
0.3955661561667387
  0
LWPOLYLINE
  5
12F7
330
12F0
100
AcDbEntity
  8
0
  6
Continuous
370
     0
100
AcDbPolyline
 90
        9
 70
   128
 43
0.0
 10
0.1291045714542669
 20
0.3824190536201452
 10
0.125981925176891
 20
0.3898642159341286
 10
0.1244046182281479
 20
0.3943042040899378
 10
0.1282051054901778
 20
0.3962474987452306
 10
0.1314258067972602
 20
0.3976710846472411
 10
0.1368756202812626
 20
0.3995248317642605
 10
0.1387727986738127
 20
0.3958942508661245
 10
0.1411917448497917
 20
0.3896998960128765
 10
0.1418194693440142
 20
0.3880673877111267
  0
LWPOLYLINE
  5
12F8
330
12F0
100
AcDbEntity
  8
0
  6
Continuous
370
     0
100
AcDbPolyline
 90
        9
 70
   128
 43
0.0
 10
0.1068451478003673
 20
0.3700983352462508
 10
0.1027580203542904
 20
0.377060859996277
 10
0.1006029944423012
 20
0.381250997864285
 10
0.1041105559837199
 20
0.3836835088260901
 10
0.107112775114647
 20
0.3855236702374185
 10
0.1122668822640236
 20
0.3880872663204648
 10
0.114631042134043
 20
0.3847419484551419
 10
0.1178540319330068
 20
0.3789252767774531
 10
0.1186937476091571
 20
0.3773910020370134
  0
LWPOLYLINE
  5
12F9
330
12F0
100
AcDbEntity
  8
0
  6
Continuous
370
     0
100
AcDbPolyline
 90
        9
 70
   128
 43
0.0
 10
0.0864265251577585
 20
0.3549206578207862
 10
0.0814478514290862
 20
0.3612762985877466
 10
0.0787535630423015
 20
0.3651418130584325
 10
0.0819056063443036
 20
0.3680201321110097
 10
0.0846357686275638
 20
0.3702440313076742
 10
0.0894021942781293
 20
0.3734717289239135
 10
0.0921911471367345
 20
0.3704713713679606
 10
0.0961606662293661
 20
0.3651361815097225
 10
0.0971973883413106
 20
0.3637275194996814
  0
LWPOLYLINE
  5
12FA
330
12F0
100
AcDbEntity
  8
0
  6
Continuous
370
     0
100
AcDbPolyline
 90
        9
 70
   128
 43
0.0
 10
0.0682130743312257
 20
0.337156867356974
 10
0.0624316988705971
 20
0.3427922075808123
 10
0.0592462276491048
 20
0.3462641184568724
 10
0.0619865044242971
 20
0.3495368819285396
 10
0.064395890049262
 20
0.3521048333766892
 10
0.0686895772223686
 20
0.3559390341856954
 10
0.0718535541397181
 20
0.353337178390781
 10
0.0764987663637768
 20
0.3485786769414041
 10
0.0777139945808614
 20
0.3473207652687016
  0
LWPOLYLINE
  5
12FB
330
12F0
100
AcDbEntity
  8
0
  6
Continuous
370
     0
100
AcDbPolyline
 90
        9
 70
   128
 43
0.0
 10
0.0525298147822575
 20
0.317123959116472
 10
0.0460489063717269
 20
0.3219384360173922
 10
0.0424290971249412
 20
0.3249547869669911
 10
0.0447087070693506
 20
0.3285635923160619
 10
0.0467543204924645
 20
0.3314297708612716
 10
0.0504986482387864
 20
0.3358020534587726
 10
0.0539811879718392
 20
0.3336451296031946
 10
0.0592191994051312
 20
0.3295482321337743
 10
0.0605912479510415
 20
0.3284635182620121
  0
LWPOLYLINE
  5
12FC
330
12F0
100
AcDbEntity
  8
0
  6
Continuous
370
     0
100
AcDbPolyline
 90
        9
 70
   128
 43
0.0
 10
0.0396566146490436
 20
0.2951794208214213
 10
0.0325918252527302
 20
0.2990871199450691
 10
0.0286022735624165
 20
0.3015940841140523
 10
0.0303805369825838
 20
0.3054745321235792
 10
0.0320258741838479
 20
0.3085877907418073
 10
0.0351540248860473
 20
0.313420131641271
 10
0.038892981430763
 20
0.3117466300823306
 10
0.0446303196351749
 20
0.3083844458252667
 10
0.0461347042711004
 20
0.3074922864991834
  0
LWPOLYLINE
  5
12FD
330
12F0
100
AcDbEntity
  8
0
  6
Continuous
370
     0
100
AcDbPolyline
 90
        9
 70
   128
 43
0.0
 10
0.0298231964929343
 20
0.2717148532775742
 10
0.022300597444989
 20
0.2746460416405103
 10
0.0180124969555706
 20
0.2765988821938929
 10
0.0192576806986295
 20
0.2806817261772174
 10
0.0204733805967159
 20
0.2839865086946673
 10
0.0229295323313998
 20
0.2891926746582598
 10
0.0268581839196642
 20
0.2880324590709211
 10
0.0329924659590155
 20
0.2854649862839338
 10
0.0346023409054901
 20
0.284781302107838
  0
LWPOLYLINE
  5
12FE
330
12F0
100
AcDbEntity
  8
0
  6
Continuous
370
     0
100
AcDbPolyline
 90
        9
 70
   128
 43
0.0
 10
0.0232050378938844
 20
0.2471489822486337
 10
0.0153588701525287
 20
0.2490513527250826
 10
0.0108487421188315
 20
0.2504152211769259
 10
0.0115386258513901
 20
0.2546276026864387
 10
0.0123029942528099
 20
0.2580649351807942
 10
0.0140433169340923
 20
0.2635520220535614
 10
0.0180915566852349
 20
0.2629257965124676
 10
0.0245133161512108
 20
0.2611988518082633
 10
0.026199953151675
 20
0.2607358431424771
  0
LWPOLYLINE
  5
12FF
330
12F0
100
AcDbEntity
  8
0
  6
Continuous
370
     0
100
AcDbPolyline
 90
        9
 70
   128
 43
0.0
 10
0.0199202400488829
 20
0.2219201862850895
 10
0.0118905186633356
 20
0.2227597910288317
 10
0.0072388464269686
 20
0.2235103491142993
 10
0.0073611191574763
 20
0.2277770981021714
 10
0.0076605158899987
 20
0.2312856412936401
 10
0.0086539534183991
 20
0.2369557318803448
 10
0.0127495403981612
 20
0.2368746713951122
 10
0.0193441808409602
 20
0.2360190721428505
 10
0.0210774818181818
 20
0.2357850013879812
  0
LWPOLYLINE
  5
1300
330
12F0
100
AcDbEntity
  8
0
  6
Continuous
370
     0
100
AcDbPolyline
 90
        9
 70
   128
 43
0.0
 10
0.0200274202532853
 20
0.1964786738485902
 10
0.0119574357919063
 20
0.1962405300930818
 10
0.0072472285541245
 20
0.1963643840853599
 10
0.0067997083228093
 20
0.2006093603148233
 10
0.0066287906446511
 20
0.2041265041670321
 10
0.0068576151039394
 20
0.2098784155668287
 10
0.0109274634656415
 20
0.2103439666637374
 10
0.0175773033703273
 20
0.2103749810523432
 10
0.0193263375273069
 20
0.2103740252065567
  0
LWPOLYLINE
  5
1301
330
12F0
100
AcDbEntity
  8
0
  6
Continuous
370
     0
100
AcDbPolyline
 90
        9
 70
   128
 43
0.0
 10
0.0235246658738148
 20
0.1712784493312895
 10
0.0155584274004923
 20
0.1699668067574897
 10
0.0108737389210418
 20
0.1694617464791505
 10
0.0098644117370306
 20
0.1736091982488226
 10
0.0092262296782088
 20
0.1770721792464087
 10
0.0086863576904932
 20
0.1828032684641005
 10
0.0126578408936986
 20
0.1838071233727962
 10
0.0192442137096371
 20
0.1847241979497713
 10
0.0209777694904076
 20
0.1849563740701594
  0
LWPOLYLINE
  5
1302
330
12F0
100
AcDbEntity
  8
0
  6
Continuous
370
     0
100
AcDbPolyline
 90
        9
 70
   128
 43
0.0
 10
0.0303495684795116
 20
0.1467692113367
 10
0.0226292337085319
 20
0.1444074762374114
 10
0.0180536623643093
 20
0.1432825145010863
 10
0.0165005396951159
 20
0.1472584304358832
 10
0.0154064816295865
 20
0.1506054516009047
 10
0.0141075472232721
 20
0.1562134472136325
 10
0.0179097940561377
 20
0.1577376921194879
 10
0.0243151658043921
 20
0.1595244616672797
 10
0.026002307864978
 20
0.1599856265654722
  0
LWPOLYLINE
  5
1303
330
12F0
100
AcDbEntity
  8
0
  6
Continuous
370
     0
100
AcDbPolyline
 90
        9
 70
   128
 43
0.0
 10
0.0403803375216967
 20
0.1233883277974694
 10
0.0330436760099459
 20
0.1200186453914895
 10
0.0286588729799853
 20
0.1182938571660177
 10
0.0265896703364348
 20
0.1220272869518908
 10
0.0250592597562971
 20
0.1251986206123643
 10
0.0230244424466406
 20
0.1305834478055612
 10
0.026589601724357
 20
0.1326008825221212
 10
0.0326996683943328
 20
0.1352254620958213
 10
0.0343102896446936
 20
0.1359073862732849
  0
LWPOLYLINE
  5
1304
330
12F0
100
AcDbEntity
  8
0
  6
Continuous
370
     0
100
AcDbPolyline
 90
        9
 70
   128
 43
0.0
 10
0.0534379736891814
 20
0.1015530311342623
 10
0.0466159083351414
 20
0.0972355334839552
 10
0.0425001205333935
 20
0.0949416976560773
 10
0.0399517628856785
 20
0.0983660181500525
 10
0.0380123100039924
 20
0.1013050717816775
 10
0.0352779211540905
 20
0.1063706381865117
 10
0.0385423725248834
 20
0.1088452615434665
 10
0.0442480998321102
 20
0.1122608154584021
 10
0.0457534586978738
 20
0.1131513299620365
  0
LWPOLYLINE
  5
1305
330
12F0
100
AcDbEntity
  8
0
  6
Continuous
370
     0
100
AcDbPolyline
 90
        9
 70
   128
 43
0.0
 10
0.0692894631552114
 20
0.081652972733318
 10
0.0631037338767477
 20
0.0764647056865364
 10
0.0593304076340395
 20
0.0736427558109441
 10
0.056348370484752
 20
0.0766968599326816
 10
0.0540344848841379
 20
0.0793511860537741
 10
0.0506493197277926
 20
0.0840070965177483
 10
0.0535548089796194
 20
0.086894748802667
 10
0.0587543780851227
 20
0.0910403264183107
 10
0.060127611401672
 20
0.0921235399957024
  0
LWPOLYLINE
  5
1306
330
12F0
100
AcDbEntity
  8
0
  6
Continuous
370
     0
100
AcDbPolyline
 90
        9
 70
   128
 43
0.0
 10
0.0876519357147423
 20
0.0640432696082431
 10
0.0822129269973645
 20
0.0580768179133493
 10
0.0788493974098898
 20
0.0547771117524256
 10
0.0754868952826087
 20
0.057406498941523
 10
0.0728398683064242
 20
0.0597287310395682
 10
0.06886433519605
 20
0.0638919007301499
 10
0.071359013804372
 20
0.0671410517195987
 10
0.0759596382742877
 20
0.0719426751051913
 10
0.077176240660556
 20
0.0731992577843865
  0
LWPOLYLINE
  5
1307
330
12F0
100
AcDbEntity
  8
0
  6
Continuous
370
     0
100
AcDbPolyline
 90
        9
 70
   128
 43
0.0
 10
0.1081977126099254
 20
0.0490381673284865
 10
0.1036024836930558
 20
0.0424000024573239
 10
0.1007087730259819
 20
0.0386814233456825
 10
0.0970258098508303
 20
0.0408391721254553
 10
0.0940928777581753
 20
0.0427878699136528
 10
0.0895979201763062
 20
0.0463840069690864
 10
0.0916372705422645
 20
0.0499366754866841
 10
0.0955568521239343
 20
0.0553086595591541
 10
0.0965951132815128
 20
0.0567161875924782
  0
LWPOLYLINE
  5
1308
330
12F0
100
AcDbEntity
  8
0
  6
Continuous
370
     0
100
AcDbPolyline
 90
        9
 70
   128
 43
0.0
 10
0.1305601539653373
 20
0.036905432299708
 10
0.1268907068178535
 20
0.0297140124616639
 10
0.1245184534065906
 20
0.0256429185316467
 10
0.1205807517486761
 20
0.0272905238240036
 10
0.117414252782229
 20
0.0288309127441533
 10
0.1124800833534003
 20
0.0317958440134926
 10
0.1140277132214002
 20
0.0355886326053785
 10
0.1171963068886441
 20
0.0414351141816898
 10
0.1180376990225795
 20
0.0429684701980388
  0
LWPOLYLINE
  5
1309
330
12F0
100
AcDbEntity
  8
0
  6
Continuous
370
     0
100
AcDbPolyline
 90
        9
 70
   128
 43
0.0
 10
0.1543402014852084
 20
0.0278615734659269
 10
0.1516620174783902
 20
0.0202452297183768
 10
0.1498535542412646
 20
0.015894269737613
 10
0.1457313824799584
 20
0.0170023299870774
 10
0.1423878228887893
 20
0.0181069217624099
 10
0.1371024919833523
 20
0.0203877379769111
 10
0.1381307838617331
 20
0.0243529642408102
 10
0.140491845985494
 20
0.0305696127187289
 10
0.1411213544332241
 20
0.0322014339436673
  0
LWPOLYLINE
  5
130A
330
12F0
100
AcDbEntity
  8
0
  6
Continuous
370
     0
100
AcDbPolyline
 90
        9
 70
   128
 43
0.0
 10
0.1791134996581895
 20
0.0220679787022835
 10
0.1774743710490867
 20
0.0141626248798392
 10
0.1762619700554033
 20
0.009609441832259
 10
0.172028888443446
 20
0.0101581836774311
 10
0.1685679341276653
 20
0.0108072668415461
 10
0.1630257586008419
 20
0.0123632667818274
 10
0.163516362596674
 20
0.0164301711611241
 10
0.165027759967419
 20
0.0229060503012839
 10
0.1654341511357806
 20
0.0246072168463929
  0
LWPOLYLINE
  5
130B
330
12F0
100
AcDbEntity
  8
0
  6
Continuous
370
     0
100
AcDbPolyline
 90
        9
 70
   128
 43
0.0
 10
0.2044379683914918
 20
0.0196280348445885
 10
0.2038671454689655
 20
0.0115747421734937
 10
0.203272442043179
 20
0.0069005877184462
 10
0.1990039900222164
 20
0.0068802188480994
 10
0.1954874017935886
 20
0.0070622104965565
 10
0.1897872818989512
 20
0.0078656273068223
 10
0.189731443172306
 20
0.0119616357965189
 10
0.1903662048681447
 20
0.0185811833822491
 10
0.1905422266971115
 20
0.0203213378902305
  0
LWPOLYLINE
  5
130C
330
12F0
100
AcDbEntity
  8
0
  6
Continuous
370
     0
100
AcDbPolyline
 90
        9
 70
   128
 43
0.0
 10
0.22986169194062
 20
0.0205852827487849
 10
0.2303693610532491
 20
0.0125277624275402
 10
0.2304029676920827
 20
0.007816046962013
 10
0.2261753158895523
 20
0.0072269308591188
 10
0.2226658473483205
 20
0.0069385833466384
 10
0.2169095018604246
 20
0.0069750800348771
 10
0.2163082168547028
 20
0.011027099266439
 10
0.2160550155381386
 20
0.0176721893142524
 10
0.215997526914002
 20
0.0194202786866882
  0
LWPOLYLINE
  5
130D
330
12F0
100
AcDbEntity
  8
0
  6
Continuous
370
     0
100
AcDbPolyline
 90
        9
 70
   128
 43
0.0
 10
0.2549309833565445
 20
0.0249226403033464
 10
0.2565080851369821
 20
0.0170046789729704
 10
0.2571694021291755
 20
0.0123394831710666
 10
0.2530579930916446
 20
0.011192132626439
 10
0.2496182707870709
 20
0.0104385915212131
 10
0.2439084218275198
 20
0.0097075168031573
 10
0.242772420487892
 20
0.013643238397405
 10
0.2416357745424165
 20
0.0201952891179715
 10
0.2413458013510379
 20
0.0219201186585956
  0
LWPOLYLINE
  5
130E
330
12F0
100
AcDbEntity
  8
0
  6
Continuous
370
     0
100
AcDbPolyline
 90
        9
 70
   128
 43
0.0
 10
0.279198480540046
 20
0.0325627072599577
 10
0.2818168715696601
 20
0.0249256011279701
 10
0.2830940976978127
 20
0.0203901755192941
 10
0.2791722996169597
 20
0.0187050650305824
 10
0.2758637054750572
 20
0.0174997772914871
 10
0.270302245433804
 20
0.0160141772127993
 10
0.2686517997310887
 20
0.0197633681246447
 10
0.2666519926305249
 20
0.0261054580176356
 10
0.2661347094503768
 20
0.0277762481024339
  0
LWPOLYLINE
  5
130F
330
12F0
100
AcDbEntity
  8
0
  6
Continuous
370
     0
100
AcDbPolyline
 90
        9
 70
   128
 43
0.0
 10
0.302231129428975
 20
0.0433691464427799
 10
0.3058440844578101
 20
0.0361491798490334
 10
0.3077144275914101
 20
0.0318244592110197
 10
0.3040522250468989
 20
0.0296316596148181
 10
0.3009338010085116
 20
0.0279961336301095
 10
0.2956199742717409
 20
0.0257825187593887
 10
0.2934845364486058
 20
0.0292782745881883
 10
0.2906572547980417
 20
0.0352972289092168
 10
0.2899218925597218
 20
0.0368841642495425
  0
LWPOLYLINE
  5
1310
330
12F0
100
AcDbEntity
  8
0
  6
Continuous
370
     0
100
AcDbPolyline
 90
        9
 70
   128
 43
0.0
 10
0.3236179118582534
 20
0.0571491166885867
 10
0.3281609576182305
 20
0.0504751301079924
 10
0.3305910414397495
 20
0.0464382891828805
 10
0.3272537865227427
 20
0.0437769310399289
 10
0.3243811809387118
 20
0.0417403528095512
 10
0.3194098128704325
 20
0.0388382251566082
 10
0.3168274898654175
 20
0.0420181640567811
 10
0.3132231865728876
 20
0.047606574423396
 10
0.3122828678329625
 20
0.0490813361205084
  0
LWPOLYLINE
  5
1311
330
12F0
100
AcDbEntity
  8
0
  6
Continuous
370
     0
100
AcDbPolyline
 90
        9
 70
   128
 43
0.0
 10
0.3429771801887753
 20
0.0736567141018902
 10
0.3483692459206757
 20
0.0676478049830855
 10
0.3513157055267477
 20
0.0639708812928177
 10
0.3483629516302997
 20
0.0608884566022283
 10
0.3457874262153311
 20
0.0584871689129507
 10
0.341247230996494
 20
0.0549483170145031
 10
0.3382641044248018
 20
0.0577556929010416
 10
0.3339470983679469
 20
0.0628138339978594
 10
0.3328186031366051
 20
0.0641501048943365
  0
LWPOLYLINE
  5
1312
330
12F0
100
AcDbEntity
  8
0
  6
Continuous
370
     0
100
AcDbPolyline
 90
        9
 70
   128
 43
0.0
 10
0.3599634678185417
 20
0.092597360215775
 10
0.3661083319816427
 20
0.0873607576843405
 10
0.3695185877307985
 20
0.0841093660192787
 10
0.3670030268181463
 20
0.080660880722677
 10
0.3647705418842797
 20
0.0779377346102006
 10
0.3607425394061252
 20
0.0738253093622152
 10
0.3574118432320965
 20
0.076210024545917
 10
0.3524591714862737
 20
0.0806476337252348
 10
0.351162637787656
 20
0.0818215680352702
  0
LWPOLYLINE
  5
1313
330
12F0
100
AcDbEntity
  8
0
  6
Continuous
370
     0
100
AcDbPolyline
 90
        9
 70
   128
 43
0.0
 10
0.3742736540423976
 20
0.1136330587516294
 10
0.3810616613901345
 20
0.109262210103795
 10
0.3848748571877358
 20
0.106494371625228
 10
0.3828413795029597
 20
0.1027413640244283
 10
0.3809917737967261
 20
0.0997449540956445
 10
0.3775478438589026
 20
0.0951323418240957
 10
0.3739290144346725
 20
0.0970518410060119
 10
0.3684290575445175
 20
0.1007897290268964
 10
0.3669876220531911
 20
0.101780377864916
  0
LWPOLYLINE
  5
1314
330
12F0
100
AcDbEntity
  8
0
  6
Continuous
370
     0
100
AcDbPolyline
 90
        9
 70
   128
 43
0.0
 10
0.3856523732481598
 20
0.1363884271707327
 10
0.3929623916285969
 20
0.1329613303041679
 10
0.397110480905301
 20
0.1307264371553174
 10
0.3955953739058593
 20
0.1267358797598667
 10
0.394161653684911
 20
0.1235196770209405
 10
0.3913632532987456
 20
0.1184891899010889
 10
0.3875208687211184
 20
0.119909219572845
 10
0.3815717735476305
 20
0.1228806837350102
 10
0.3800111587140868
 20
0.1236703689490319
  0
LWPOLYLINE
  5
1315
330
12F0
100
AcDbEntity
  8
0
  6
Continuous
370
     0
100
AcDbPolyline
 90
        9
 70
   128
 43
0.0
 10
0.3938965719220313
 20
0.1604573953845633
 10
0.4015981538839987
 20
0.1580352069240405
 10
0.4060071138883891
 20
0.1563731408260942
 10
0.4050374146945827
 20
0.1522162452272528
 10
0.4040451647302242
 20
0.1488376428922517
 10
0.4019422314169035
 20
0.1434790500859257
 10
0.3979448591296943
 20
0.1443742697843877
 10
0.3916527874171862
 20
0.1465262842394672
 10
0.390000842450096
 20
0.1471009138781376
  0
LWPOLYLINE
  5
1316
330
12F0
100
AcDbEntity
  8
0
  6
Continuous
370
     0
100
AcDbPolyline
 90
        9
 70
   128
 43
0.0
 10
0.3988591321433716
 20
0.1854104520851418
 10
0.4068148427743025
 20
0.1840363960411206
 10
0.411405995510652
 20
0.1829768166029719
 10
0.4109990084275666
 20
0.1787277627011789
 10
0.4104659354439164
 20
0.1752470520088138
 10
0.409095996098241
 20
0.1696559777315904
 10
0.405014969304613
 20
0.1700104122400301
 10
0.3984922032218527
 20
0.1713045742390893
 10
0.396778407118294
 20
0.171653894022894
  0
LWPOLYLINE
  5
1317
330
12F0
100
AcDbEntity
  8
0
  6
Continuous
370
     0
100
AcDbPolyline
 90
        9
 70
   128
 43
0.0
 10
0.4004514969074649
 20
0.2108023093844959
 10
0.4085193663626754
 20
0.2105009058196359
 10
0.4132107826016415
 20
0.2100627212614583
 10
0.4133737703234104
 20
0.205797333524254
 10
0.4133093870204974
 20
0.2022766278392893
 10
0.4126968882425394
 20
0.1965528449440992
 10
0.4086050329623098
 20
0.1963601693703172
 10
0.4019679714245683
 20
0.1967733845618227
 10
0.4002229069166106
 20
0.1968911608709458
  0
LWPOLYLINE
  5
1318
330
12F0
100
AcDbEntity
  8
0
  6
Continuous
370
     0
100
AcDbPolyline
 90
        9
 70
   128
 43
0.0
 10
0.3986452504273749
 20
0.2361798489875753
 10
0.4066813073853019
 20
0.2369564764556298
 10
0.4113892686929575
 20
0.2371475061912473
 10
0.4121193226998301
 20
0.2329419005638513
 10
0.412524777999213
 20
0.229444026962641
 10
0.4126806498441767
 20
0.2236896764908476
 10
0.4086509853317608
 20
0.2229533291350236
 10
0.4020180668594157
 20
0.2224782236840959
 10
0.4002728746645446
 20
0.2223623547975073
  0
LWPOLYLINE
  5
1319
330
12F0
100
AcDbEntity
  8
0
  6
Continuous
370
     0
100
AcDbPolyline
 90
        9
 70
   128
 43
0.0
 10
0.3934726252143221
 20
0.2610902080989579
 10
0.4013334660481788
 20
0.2629310076643616
 10
0.4059739587434521
 20
0.2637478427636139
 10
0.40725805120438
 20
0.25967706837808
 10
0.4081261097466396
 20
0.2562644464979051
 10
0.4090475706777604
 20
0.2505822149700005
 10
0.4051520063918411
 20
0.249315335968145
 10
0.3986415955721725
 20
0.2479603881428094
 10
0.3969274186864453
 20
0.2476129417435366
  0
LWPOLYLINE
  5
131A
330
12F0
100
AcDbEntity
  8
0
  6
Continuous
370
     0
100
AcDbPolyline
 90
        9
 70
   128
 43
0.0
 10
0.3850259268877849
 20
0.2850888607701627
 10
0.3925712747066612
 20
0.2879609833210619
 10
0.3970614890874699
 20
0.2893890473422544
 10
0.3988767053420652
 20
0.2855257472639288
 10
0.4001918766019515
 20
0.2822592754230868
 10
0.4018624831270828
 20
0.2767505623953035
 10
0.398170535504633
 20
0.2749757592332145
 10
0.3918988107729504
 20
0.2727651481095137
 10
0.3902462387235061
 20
0.2721923243867845
  0
LWPOLYLINE
  5
131B
330
12F0
100
AcDbEntity
  8
0
  6
Continuous
370
     0
100
AcDbPolyline
 90
        9
 70
   128
 43
0.0
 10
0.3734558869794995
 20
0.3077475504757334
 10
0.3805510948728141
 20
0.311599742917167
 10
0.3848109029571631
 20
0.3136135520240071
 10
0.3871248504283606
 20
0.3100266669343128
 10
0.3888636651435817
 20
0.3069646354001883
 10
0.3912536052497017
 20
0.3017277439870085
 10
0.3878311571835091
 20
0.2994766880691611
 10
0.3819100376162261
 20
0.2964498620549669
 10
0.3803485605904377
 20
0.2956618830616833
  0
LWPOLYLINE
  5
131C
330
12F0
100
AcDbEntity
  8
0
  6
Continuous
370
     0
100
AcDbPolyline
 90
        9
 70
   128
 43
0.0
 10
0.3589689731257301
 20
0.3286619323610828
 10
0.3654874269405397
 20
0.3334254522276705
 10
0.3694408123522414
 20
0.3359890699489405
 10
0.3722121985925994
 20
0.332742607897277
 10
0.3743436275733707
 20
0.3299396586951371
 10
0.3774102527226723
 20
0.3250680413478939
 10
0.374318377879554
 20
0.3223809028204698
 10
0.3688535259956254
 20
0.3185918756977148
 10
0.3674110085880073
 20
0.317602802937678
  0
LWPOLYLINE
  5
131D
330
12F0
100
AcDbEntity
  8
0
  6
Continuous
370
     0
100
AcDbPolyline
 90
        9
 70
   128
 43
0.0
 10
0.3418237046473997
 20
0.3474587887859925
 10
0.3476490824209542
 20
0.3530486309528662
 10
0.3512254969036803
 20
0.3561163094695967
 10
0.3544048664600865
 20
0.3532682036481862
 10
0.3568908743057477
 20
0.3507743554729465
 10
0.3605794604997889
 20
0.3463549463186126
 10
0.3578733334595725
 20
0.3432796772322924
 10
0.352962269670332
 20
0.3387960642797445
 10
0.3516644536382003
 20
0.3376235477797902
  0
LWPOLYLINE
  5
131E
330
12F0
100
AcDbEntity
  8
0
  6
Continuous
370
     0
100
AcDbPolyline
 90
        9
 70
   128
 43
0.0
 10
0.3223260392666809
 20
0.3638026894022541
 10
0.3273543869946067
 20
0.3701191030035211
 10
0.3304900093471872
 20
0.3736360995199064
 10
0.3340206262945813
 20
0.3712371744446034
 10
0.3368168501362376
 20
0.3690969300760311
 10
0.3410615744670018
 20
0.3652085935756641
 10
0.3387894861308247
 20
0.3618000721801504
 10
0.3345198484859359
 20
0.3567018835771663
 10
0.3333898933871282
 20
0.3553668469220134
  0
LWPOLYLINE
  5
131F
330
12F0
100
AcDbEntity
  8
0
  6
Continuous
370
     0
100
AcDbPolyline
 90
        9
 70
   128
 43
0.0
 10
0.300823913284205
 20
0.3774019769161789
 10
0.3049654999821705
 20
0.3843322454014846
 10
0.3076043749494417
 20
0.3882357990313689
 10
0.3114232353447583
 20
0.3863288635769777
 10
0.314479776501706
 20
0.3845804157265338
 10
0.3192048917629506
 20
0.381292539337096
 10
0.3174073876010048
 20
0.3776115907774393
 10
0.3138553678853881
 20
0.3719898038204192
 10
0.3129134377954123
 20
0.3705160707708064
  0
LWPOLYLINE
  5
1320
330
12F0
100
AcDbEntity
  8
0
  6
Continuous
370
     0
100
AcDbPolyline
 90
        9
 70
   128
 43
0.0
 10
0.2777010326475207
 20
0.3880139717199053
 10
0.2808819516027867
 20
0.39543442428395
 10
0.2829769883984348
 20
0.3996548760203335
 10
0.287015944587452
 20
0.39827395949521
 10
0.2902782590103357
 20
0.3969485092562052
 10
0.2953994454082896
 20
0.3943197652097616
 10
0.2941086019249219
 20
0.3904320761002129
 10
0.2913375860145564
 20
0.3843870117105847
 10
0.2906004896981784
 20
0.3828008810676948
  0
LWPOLYLINE
  5
1321
330
12F0
100
AcDbEntity
  8
0
  6
Continuous
370
     0
100
AcDbPolyline
 90
        9
 70
   128
 43
0.0
 10
0.2533700257093798
 20
0.3954493025147609
 10
0.2555335133478351
 20
0.4032275210057427
 10
0.2570473259906123
 20
0.4076895567874033
 10
0.2612343027044481
 20
0.4068593016796563
 10
0.2646441743151087
 20
0.4059805017430076
 10
0.2700700441571691
 20
0.4040578000393414
 10
0.2693088964849259
 20
0.4000327462841593
 10
0.2673683332243755
 20
0.3936722787791691
 10
0.2668492241828311
 20
0.3920020550819014
  0
LWPOLYLINE
  5
1322
330
12F0
100
AcDbEntity
  8
0
  6
Continuous
370
     0
100
AcDbPolyline
 90
        9
 70
   128
 43
0.0
 10
0.228265079865011
 20
0.399575285646561
 10
0.2293725286984873
 20
0.4075724675712423
 10
0.2302781031659222
 20
0.4121964622639495
 10
0.234538383705928
 20
0.4119316844956434
 10
0.2380349632646919
 20
0.4115152170670396
 10
0.2436686917749888
 20
0.4103328683636019
 10
0.243450822612111
 20
0.4062422771424056
 10
0.2423753413987342
 20
0.3996799092153597
 10
0.2420834831451621
 20
0.3979553976451608
  0
LWPOLYLINE
  5
1323
330
12F0
100
AcDbEntity
  8
0
  6
Continuous
370
     0
100
AcDbPolyline
 90
        9
 70
   128
 43
0.0
 10
0.2028341934677478
 20
0.400318292848576
 10
0.202865841045579
 20
0.4083917283060519
 10
0.2031470173398482
 20
0.413095166614971
 10
0.2074045768988597
 20
0.4134005911516531
 10
0.2109254678606618
 20
0.4134538881022252
 10
0.2166665210204677
 20
0.4130329914396374
 10
0.2169958182473266
 20
0.4089498594496775
 10
0.2168046110688522
 20
0.4023026967117005
 10
0.2167452118207045
 20
0.4005546712183942
  0
LWPOLYLINE
  5
1324
330
12F0
100
AcDbEntity
  8
0
  6
Continuous
370
     0
100
AcDbPolyline
 90
        7
 70
   128
 43
0.0
 10
0.2204147824743643
 20
0.218646497073113
 10
0.2158801622524784
 20
0.215980357585483
 10
0.2124125195356576
 20
0.2154471340122104
 10
0.2094783541798257
 20
0.2154471340122104
 10
0.2065442002155322
 20
0.2170468119391167
 10
0.2044102679884965
 20
0.2191797206463857
 10
0.2030765574987114
 20
0.2213126293536547
  0
LWPOLYLINE
  5
1325
330
12F0
100
AcDbEntity
  8
0
  6
Continuous
370
     0
100
AcDbPolyline
 90
        7
 70
   128
 43
0.0
 10
0.2013534896854274
 20
0.2204147434545689
 10
0.2040196291730574
 20
0.215880123232683
 10
0.2045528527463318
 20
0.212412480515864
 10
0.2045528527463318
 20
0.2094783151600285
 10
0.2029531748194237
 20
0.2065441611957386
 10
0.2008202661121565
 20
0.2044102289686993
 10
0.1986873574048857
 20
0.2030765184789143
  0
LWPOLYLINE
  5
1326
330
12F0
100
AcDbEntity
  8
0
  6
Continuous
370
     0
100
AcDbPolyline
 90
        7
 70
   128
 43
0.0
 10
0.1995852433039715
 20
0.2013534506656338
 10
0.2041198635258574
 20
0.204019590153262
 10
0.2075875062426782
 20
0.2045528137265364
 10
0.2105216715985136
 20
0.2045528137265364
 10
0.2134558255628036
 20
0.2029531357996283
 10
0.2155897577898429
 20
0.2008202270923593
 10
0.2169234682796244
 20
0.1986873183850903
  0
LWPOLYLINE
  5
1327
330
12F0
100
AcDbEntity
  8
0
  6
Continuous
370
     0
100
AcDbPolyline
 90
        7
 70
   128
 43
0.0
 10
0.2186465360929084
 20
0.1995852042841761
 10
0.2159803966052784
 20
0.204119824506062
 10
0.215447173032004
 20
0.2075874672228828
 10
0.215447173032004
 20
0.2105216325787165
 10
0.2170468509589121
 20
0.2134557865430082
 10
0.2191797596661828
 20
0.2155897187700457
 10
0.2213126683734501
 20
0.2169234292598307
  0
LWPOLYLINE
  5
1328
330
12F0
100
AcDbEntity
  8
0
  6
Continuous
370
     0
100
AcDbPolyline
 90
       15
 70
   128
 43
0.0
 10
0.1964080050497898
 20
0.2173134309328421
 10
0.1905396857296644
 20
0.2162469765792067
 10
0.1873387759975635
 20
0.2167802001524812
 10
0.1841378776570081
 20
0.2199795632133838
 10
0.1841378776570081
 20
0.2245119996216456
 10
0.186005076899324
 20
0.2306441139568154
 10
0.1908064301059298
 20
0.2351765431579888
 10
0.1950742945600048
 20
0.2375760636518951
 10
0.1998756477666106
 20
0.2386425180055287
 10
0.2036100348597003
 20
0.238109294432256
 10
0.2073444219527864
 20
0.235976385724987
 10
0.2086781324425715
 20
0.2327770226640844
 10
0.2086781324425715
 20
0.2301108831764544
 10
0.2073444219527864
 20
0.22691152011555
 10
0.2052104897257507
 20
0.2239787688412846
  0
LWPOLYLINE
  5
1329
330
12F0
100
AcDbEntity
  8
0
  6
Continuous
370
     0
100
AcDbPolyline
 90
       15
 70
   128
 43
0.0
 10
0.1988443404822675
 20
0.1993331887644398
 10
0.198045188446283
 20
0.1934225329163368
 10
0.1965489271875995
 20
0.190543062003492
 10
0.1925170201160355
 20
0.1884874843357025
 10
0.1882064169352659
 20
0.1898880842117787
 10
0.1829514259358937
 20
0.1935588237594228
 10
0.1801245293463118
 20
0.1995257796625651
 10
0.1791612923905958
 20
0.2043262525732459
 10
0.1796307337650766
 20
0.2092221633464195
 10
0.1812918485944195
 20
0.212609001379727
 10
0.1844743543944709
 20
0.2155015095209798
 10
0.1879292686884532
 20
0.2157812860161456
 10
0.1904649180215152
 20
0.2149574036050943
 10
0.1930955539016636
 20
0.2127003119959383
 10
0.195225344788728
 20
0.2097645518620599
  0
LWPOLYLINE
  5
132A
330
12F0
100
AcDbEntity
  8
0
  6
Continuous
370
     0
100
AcDbPolyline
 90
       15
 70
   128
 43
0.0
 10
0.216697436013721
 20
0.1960940810603642
 10
0.2220718522134319
 20
0.1935075492040674
 10
0.2243480216316165
 20
0.1911947147370405
 10
0.225057064362467
 20
0.1867249348109272
 10
0.2223929650847367
 20
0.1830581167307183
 10
0.2172780027942345
 20
0.1791946441998426
 10
0.2107295314125821
 20
0.1783499965561823
 10
0.2058663537806566
 20
0.1789173314831504
 10
0.2013551312992057
 20
0.1808767163932234
 10
0.1986473696298674
 20
0.1835031209854722
 10
0.1968798792906057
 20
0.1874236980367705
 10
0.1976814232627219
 20
0.1907959724809398
 10
0.1992485407341036
 20
0.1929529246358061
 10
0.2022080736098459
 20
0.1947573283665296
 10
0.2056582889940159
 20
0.1958756800952414
  0
LWPOLYLINE
  5
132B
330
12F0
100
AcDbEntity
  8
0
  6
Continuous
370
     0
100
AcDbPolyline
 90
       15
 70
   128
 43
0.0
 10
0.2252949204240835
 20
0.2120724445744262
 10
0.2294156443411737
 20
0.2163845358223533
 10
0.2323186556644501
 20
0.2178345964242218
 10
0.2367887752431557
 20
0.2171276981754424
 10
0.2394528745208859
 20
0.2134608800952353
 10
0.2415466449735497
 20
0.2074023832089064
 10
0.2403263636749173
 20
0.2009134063534645
 10
0.2382839915607739
 20
0.1964635657106566
 10
0.2350264613619437
 20
0.1927786214089515
 10
0.2316918577875135
 20
0.1910149906818627
 10
0.2274169828830139
 20
0.1905455324138252
 10
0.2244574500072751
 20
0.1923499361445486
 10
0.2228903325358935
 20
0.1945068882994149
 10
0.2220887885637737
 20
0.1978791627435843
 10
0.2220913480526363
 20
0.2015061022571842
  0
LWPOLYLINE
  5
132C
330
12F0
100
AcDbEntity
  8
0
  6
Continuous
370
     0
100
AcDbPolyline
 90
       15
 70
   128
 43
0.0
 10
0.2127553624759777
 20
0.225186724014792
 10
0.2099276937152865
 20
0.2304382748249001
 10
0.2094456839646099
 20
0.2336472960296287
 10
0.2114993270671768
 20
0.2376801888114084
 10
0.2158099302479499
 20
0.2390807886874846
 10
0.2222189138428412
 20
0.2391999042218771
 10
0.2280132099061021
 20
0.2360341436166617
 10
0.2316141321538119
 20
0.2327166559279181
 10
0.2341120902530029
 20
0.2284798501927394
 10
0.2347589535743388
 20
0.2247634618675462
 10
0.2338844259249662
 20
0.2205527436503019
 10
0.2312537900448213
 20
0.2182956520411458
 10
0.2287181407117593
 20
0.2174717696300945
 10
0.2252632264177734
 20
0.2177515461252604
 10
0.2218145928847086
 20
0.2188747662910923
  0
LWPOLYLINE
  5
132D
330
12F0
100
AcDbEntity
  8
0
  6
Continuous
370
     0
100
AcDbPolyline
 90
       18
 70
   128
 43
0.0
 10
0.22498831620792
 20
0.2423999114347648
 10
0.2335169823592658
 20
0.2504982489582836
 10
0.2467364126155509
 20
0.2662686896454875
 10
0.2591029694217681
 20
0.2837440389436914
 10
0.2693373710816935
 20
0.3012193954489835
 10
0.2799981923793382
 20
0.3174160632889365
 10
0.2855418299343313
 20
0.3259406207581197
 10
0.2893797205892028
 20
0.3310553610052995
 10
0.2919383181562978
 20
0.3323340424635503
 10
0.2940704846941351
 20
0.3314815881580504
 10
0.2940704846941351
 20
0.3293504523942978
 10
0.2936440536648774
 20
0.3272193094234588
 10
0.2898061630100059
 20
0.322530796329028
 10
0.2761603017244631
 20
0.3046292198780733
 10
0.2608087049303478
 20
0.2824653574854405
 10
0.2522800387789985
 20
0.2701047412273283
 10
0.2411927750605578
 20
0.2513507032637854
 10
0.2343698444177882
 20
0.2360064897293323
  0
LWPOLYLINE
  5
132E
330
12F0
100
AcDbEntity
  8
0
  6
Continuous
370
     0
100
AcDbPolyline
 90
       12
 70
   128
 43
0.0
 10
0.1669934114401492
 20
0.3297766795470487
 10
0.1721106065743392
 20
0.3412848342925709
 10
0.1814921347842038
 20
0.3523667690924324
 10
0.1908736629940683
 20
0.3583339636451122
 10
0.1994023291454212
 20
0.3621700152269529
 10
0.2049459553088688
 20
0.3634486966852055
 10
0.2083574263260246
 20
0.3634486966852055
 10
0.2156067879980554
 20
0.3613175609214529
 10
0.2283997872250758
 20
0.3540716777034341
 10
0.2347962754470423
 20
0.3493831718160915
 10
0.2433249415983916
 20
0.3374487827107302
 10
0.2463099701947478
 20
0.3323340424635503
  0
LWPOLYLINE
  5
132F
330
12F0
100
AcDbEntity
  8
0
  6
Continuous
370
     0
100
AcDbPolyline
 90
       39
 70
   128
 43
0.0
 10
0.1947115650404853
 20
0.2436785928930156
 10
0.1776542327377903
 20
0.2590228064274669
 10
0.166566980410888
 20
0.2760719357800099
 10
0.1631555093937322
 20
0.2858751819145304
 10
0.1644348138730542
 20
0.290989914954622
 10
0.166566980410888
 20
0.2935472850782119
 10
0.166566980410888
 20
0.2969571095073036
 10
0.1635819404229934
 20
0.2990882524781426
 10
0.1605969118266372
 20
0.3012193954489835
 10
0.1605969118266372
 20
0.3054816741835751
 10
0.1593176073473188
 20
0.307186582794575
 10
0.1571854522010234
 20
0.3123013230417566
 10
0.1588911763180576
 20
0.3157111474708465
 10
0.1623026473352169
 20
0.3165636017763482
 10
0.1657141069608272
 20
0.3161373746235973
 10
0.1682727045279257
 20
0.3140062388598448
 10
0.1695520090072442
 20
0.3178422904416873
 10
0.1691255779779865
 20
0.3221045691762789
 10
0.1712577445158203
 20
0.3246619392998688
 10
0.1755220775914949
 20
0.3250881664526179
 10
0.1768013706792715
 20
0.3233832578416163
 10
0.1785071061878511
 20
0.3276455365762078
 10
0.1806392727256884
 20
0.3302029066997978
 10
0.1844771633805599
 20
0.3331865039761386
 10
0.1857564678598784
 20
0.3319078153107995
 10
0.1895943699062954
 20
0.3344651854343894
 10
0.1955644270990042
 20
0.3348914125871402
 10
0.1998287601746788
 20
0.3336127311288894
 10
0.201534495683255
 20
0.3310553610052995
 10
0.201534495683255
 20
0.3267930822707079
 10
0.2023873577417738
 20
0.3250881664526179
 10
0.2019609267125162
 20
0.321678342023528
 10
0.2006816336247397
 20
0.3191209718999381
 10
0.2002551912039365
 20
0.3174160632889365
 10
0.2028137887710315
 20
0.3169898361361856
 10
0.2032402311918346
 20
0.3140062388598448
 10
0.2019609267125162
 20
0.3110226415835058
 10
0.1981230246660992
 20
0.307186582794575
 10
0.196417300549065
 20
0.3033505312127342
  0
LWPOLYLINE
  5
1330
330
12F0
100
AcDbEntity
  8
0
  6
Continuous
370
     0
100
AcDbPolyline
 90
       19
 70
   128
 43
0.0
 10
0.2062252597881908
 20
0.2423999114347648
 10
0.1972701626075839
 20
0.2543343005401244
 10
0.1930058295319057
 20
0.2632850923691468
 10
0.1891679388770342
 20
0.2743670199619199
 10
0.1878886343977157
 20
0.2841702660964405
 10
0.1895943699062954
 20
0.2935472850782119
 10
0.1925793985026516
 20
0.2999407067836444
 10
0.1976965936368415
 20
0.3042029927253242
 10
0.2036666622210923
 20
0.307186582794575
 10
0.2075045642675093
 20
0.3076128171544141
 10
0.2139010524894758
 20
0.306334128489075
 10
0.2177389545358927
 20
0.3016456226017343
 10
0.2228561496700827
 20
0.2935472850782119
 10
0.2258411896579808
 20
0.2816128959728505
 10
0.2258411896579808
 20
0.2730883385036691
 10
0.2241354541494012
 20
0.2620064037038077
 10
0.221150414161503
 20
0.2534818462346244
 10
0.2164596500565707
 20
0.2462359630166055
 10
0.2130481904309604
 20
0.2423999114347648
  0
LWPOLYLINE
  5
1331
330
12F0
100
AcDbEntity
  8
0
  6
Continuous
370
     0
100
AcDbPolyline
 90
       11
 70
   128
 43
0.0
 10
0.2087838573552858
 20
0.2492195602929463
 10
0.2057988287589296
 20
0.2522031575692853
 10
0.2049459553088688
 20
0.2568916706637161
 10
0.205372397729672
 20
0.2598752679400551
 10
0.2066516908174485
 20
0.2624326308565585
 10
0.2087838573552858
 20
0.2637113195218958
 10
0.2109160238931231
 20
0.2628588580093094
 10
0.2134746214602181
 20
0.2598752679400551
 10
0.2130481904309604
 20
0.255612981998377
 10
0.2130481904309604
 20
0.2509244761110345
 10
0.2117688859516384
 20
0.2496457874456954
  0
LWPOLYLINE
  5
1332
330
12F0
100
AcDbEntity
  8
0
  6
Continuous
370
     0
100
AcDbPolyline
 90
       11
 70
   128
 43
0.0
 10
0.2057988287589296
 20
0.2475146516819429
 10
0.2023873577417738
 20
0.2530556118747871
 10
0.2011080646539973
 20
0.2620064037038077
 10
0.2028137887710315
 20
0.2671211439509875
 10
0.2057988287589296
 20
0.2713834226855791
 10
0.2083574263260246
 20
0.2730883385036691
 10
0.2121953283724416
 20
0.2705309683800774
 10
0.2151803569687942
 20
0.2671211439509875
 10
0.2181653855651504
 20
0.2581703521219669
 10
0.2168860924773739
 20
0.2534818462346244
 10
0.2134746214602181
 20
0.2483671059874446
  0
LWPOLYLINE
  5
1333
330
12F0
100
AcDbEntity
  8
0
  6
Continuous
370
     0
100
AcDbPolyline
 90
        8
 70
   128
 43
0.0
 10
0.1968437315783227
 20
0.2632850923691468
 10
0.1981230246660992
 20
0.2701047412273283
 10
0.2023873577417738
 20
0.274793247114669
 10
0.2075045642675093
 20
0.2777768443910098
 10
0.2104895928638619
 20
0.2769243900855098
 10
0.2147539259395366
 20
0.2752194742674199
 10
0.2173125235066315
 20
0.2713834226855791
 10
0.2198711210737265
 20
0.2637113195218958
  0
LWPOLYLINE
  5
1334
330
12F0
100
AcDbEntity
  8
0
  6
Continuous
370
     0
100
AcDbPolyline
 90
       11
 70
   128
 43
0.0
 10
0.1959908581282619
 20
0.2683998254092383
 10
0.1976965936368415
 20
0.2816128959728505
 10
0.2002551912039365
 20
0.2867276362200322
 10
0.2032402311918346
 20
0.2897112334963712
 10
0.2066516908174485
 20
0.291842376467212
 10
0.2079309952967669
 20
0.291842376467212
 10
0.2104895928638619
 20
0.2905636878018729
 10
0.2139010524894758
 20
0.2871538633727812
 10
0.2160332190273131
 20
0.2828915846381896
 10
0.2190182590152112
 20
0.2773506172382589
 10
0.2202975521029877
 20
0.2709571955328283
  0
LWPOLYLINE
  5
1335
330
12F0
100
AcDbEntity
  8
0
  6
Continuous
370
     0
100
AcDbPolyline
 90
       12
 70
   128
 43
0.0
 10
0.1947115650404853
 20
0.2709571955328283
 10
0.1951379960697465
 20
0.2828915846381896
 10
0.1972701626075839
 20
0.2905636878018729
 10
0.2002551912039365
 20
0.2956784280490528
 10
0.2040930932503535
 20
0.2982357981726427
 10
0.2066516908174485
 20
0.2995144796308935
 10
0.2083574263260246
 20
0.2995144796308935
 10
0.2121953283724416
 20
0.2969571095073036
 10
0.2164596500565707
 20
0.290989914954622
 10
0.2185918165944081
 20
0.2863014090672813
 10
0.2207239831322454
 20
0.2799079873618506
 10
0.2207239831322454
 20
0.2752194742674199
  0
LWPOLYLINE
  5
1336
330
12F0
100
AcDbEntity
  8
0
  6
Continuous
370
     0
100
AcDbPolyline
 90
       48
 70
   128
 43
0.0
 10
0.2177389545358927
 20
0.3037767583654851
 10
0.2164596500565707
 20
0.3084652714599159
 10
0.2130481904309604
 20
0.3118750958890057
 10
0.2104895928638619
 20
0.3157111474708465
 10
0.2096367194138011
 20
0.3186947447471873
 10
0.2117688859516384
 20
0.3195471990526872
 10
0.2134746214602181
 20
0.3199734334125263
 10
0.2121953283724416
 20
0.3238094849943671
 10
0.2100631618346043
 20
0.3272193094234588
 10
0.2100631618346043
 20
0.3306291338525486
 10
0.2126217594016992
 20
0.3348914125871402
 10
0.2156067879980554
 20
0.3361701012524793
 10
0.2194446900444689
 20
0.3357438740997285
 10
0.2228561496700827
 20
0.3344651854343894
 10
0.22498831620792
 20
0.3323340424635503
 10
0.2262676206872385
 20
0.3323340424635503
 10
0.2266940517164961
 20
0.3340389582816403
 10
0.2279733448042727
 20
0.3353176397398911
 10
0.2305319537629131
 20
0.3336127311288894
 10
0.2335169823592658
 20
0.3259406207581197
 10
0.2347962754470423
 20
0.3259406207581197
 10
0.235222717867849
 20
0.3284979908817096
 10
0.2373548844056827
 20
0.3297766795470487
 10
0.2390606085227205
 20
0.3280717637289587
 10
0.2411927750605578
 20
0.3229570234817789
 10
0.2407663440312966
 20
0.3191209718999381
 10
0.2420456485106186
 20
0.3161373746235973
 10
0.2437513726276528
 20
0.3161373746235973
 10
0.2454571081362289
 20
0.3178422904416873
 10
0.2475892746740662
 20
0.3203996605652772
 10
0.2501478722411612
 20
0.3203996605652772
 10
0.2531329008375174
 20
0.3195471990526872
 10
0.254838636346097
 20
0.3144324660125956
 10
0.2535593432583205
 20
0.3105964144307549
 10
0.2522800387789985
 20
0.3097439529181667
 10
0.254838636346097
 20
0.308891498612665
 10
0.254838636346097
 20
0.3067603556418259
 10
0.2531329008375174
 20
0.3046292198780733
 10
0.2497214412119035
 20
0.3029243040599852
 10
0.2480157057033274
 20
0.3007931610891443
 10
0.2484421367325851
 20
0.2978095710198918
 10
0.2501478722411612
 20
0.2965308823545527
 10
0.2522800387789985
 20
0.2965308823545527
 10
0.2527064698082597
 20
0.2939735122309628
 10
0.251000745691222
 20
0.2863014090672813
 10
0.2471628436448086
 20
0.2730883385036691
 10
0.2437513726276528
 20
0.2641375466746467
 10
0.2403399130020389
 20
0.258596579274716
  0
LWPOLYLINE
  5
1337
330
12F0
100
AcDbEntity
  8
0
  6
Continuous
370
     0
100
AcDbPolyline
 90
        8
 70
   128
 43
0.0
 10
0.2283997872250758
 20
0.2573178978164652
 10
0.2330905513300117
 20
0.2722358769910791
 10
0.2335169823592658
 20
0.2841702660964405
 10
0.2326641203007504
 20
0.2973833366600544
 10
0.2292526492835947
 20
0.3101701800709158
 10
0.2254147472371777
 20
0.3182685175944364
 10
0.2185918165944081
 20
0.3250881664526179
 10
0.2151803569687942
 20
0.3272193094234588
  0
LWPOLYLINE
  5
1338
330
12F0
100
AcDbEntity
  8
0
  6
Continuous
370
     0
100
AcDbPolyline
 90
        7
 70
   128
 43
0.0
 10
0.1955644270990042
 20
0.2487933331401955
 10
0.1874622033684581
 20
0.2637113195218958
 10
0.1831978702927834
 20
0.2773506172382589
 10
0.1814921347842038
 20
0.291842376467212
 10
0.1831978702927834
 20
0.3050554470308242
 10
0.1878886343977157
 20
0.3148586931653465
 10
0.1938587029819665
 20
0.3229570234817789
  0
LWPOLYLINE
  5
1339
330
12F0
100
AcDbEntity
  8
0
  6
Continuous
370
     0
100
AcDbPolyline
 90
       11
 70
   128
 43
0.0
 10
0.2488685791533882
 20
0.321678342023528
 10
0.2475892746740662
 20
0.3293504523942978
 10
0.2475892746740662
 20
0.3344651854343894
 10
0.2484421367325851
 20
0.3391536985288184
 10
0.251000745691222
 20
0.3429897501106609
 10
0.2578236763339916
 20
0.3455471202342508
 10
0.2646466069767612
 20
0.3438422044161608
 10
0.2689109286608939
 20
0.340432379987071
 10
0.2727488307073074
 20
0.3361701012524793
 10
0.2727488307073074
 20
0.3267930822707079
 10
0.27061666416947
 20
0.3191209718999381
  0
LWPOLYLINE
  5
133A
330
12F0
100
AcDbEntity
  8
0
  6
Continuous
370
     0
100
AcDbPolyline
 90
        9
 70
   128
 43
0.0
 10
0.2727488307073074
 20
0.3319078153107995
 10
0.2787188992915617
 20
0.3374487827107302
 10
0.282130358917172
 20
0.3374487827107302
 10
0.2893797205892028
 20
0.338727464168981
 10
0.2962026512319724
 20
0.3374487827107302
 10
0.3013198577577079
 20
0.3327602768233877
 10
0.3025991508454844
 20
0.326366855117957
 10
0.3038784553248028
 20
0.3212521148707772
 10
0.2940704846941351
 20
0.3101701800709158
  0
LWPOLYLINE
  5
133B
330
12F0
100
AcDbEntity
  8
0
  6
Continuous
370
     0
100
AcDbPolyline
 90
        9
 70
   128
 43
0.0
 10
0.3004669843076471
 20
0.3152849203180974
 10
0.3047313173833217
 20
0.3144324660125956
 10
0.305584179441837
 20
0.3101701800709158
 10
0.309422081488254
 20
0.308891498612665
 10
0.3153921500725047
 20
0.3076128171544141
 10
0.3188036096981221
 20
0.3042029927253242
 10
0.3192300407273762
 20
0.2990882524781426
 10
0.3158185811017659
 20
0.292694830772712
 10
0.3115542480260913
 20
0.2897112334963712
  0
LWPOLYLINE
  5
133C
330
12F0
100
AcDbEntity
  8
0
  6
Continuous
370
     0
100
AcDbPolyline
 90
       18
 70
   128
 43
0.0
 10
0.1838174815823876
 20
0.2342668287332721
 10
0.1787510076896019
 20
0.24488059617277
 10
0.1678374559143378
 20
0.2623263556408446
 10
0.1550388873047694
 20
0.2794878299913179
 10
0.1415814396660089
 20
0.2946215065232671
 10
0.1294718681295208
 20
0.3097655957022418
 10
0.1230776104150699
 20
0.3176721414503998
 10
0.1193991768087414
 20
0.3229027340247352
 10
0.1189737286056029
 20
0.3257312392144893
 10
0.1204433365227224
 20
0.3274956272267993
 10
0.1224701670779495
 20
0.3268370700584793
 10
0.1243652300525539
 20
0.3257729506539206
 10
0.1276382975478362
 20
0.320674069513247
 10
0.1404469054433583
 20
0.3021641928677266
 10
0.1567820868979659
 20
0.2807149465608347
 10
0.1659022287555522
 20
0.2687840625575841
 10
0.1803122258575094
 20
0.2524441317063903
 10
0.192797038606816
 20
0.2412135163108893
  0
LWPOLYLINE
  5
133D
330
12F0
100
AcDbEntity
  8
0
  6
Continuous
370
     0
100
AcDbPolyline
 90
       12
 70
   128
 43
0.0
 10
0.0827958257359924
 20
0.2061113029022223
 10
0.0734322204347251
 20
0.2145342600700122
 10
0.0657917257802154
 20
0.2268811297905238
 10
0.0630156381669451
 20
0.2376474578528409
 10
0.0620028390933101
 20
0.246944106501477
 10
0.0624998154551406
 20
0.252611542589122
 10
0.0635540179752603
 20
0.2558560443301392
 10
0.0678210244855109
 20
0.2620920398189845
 10
0.0786655231064977
 20
0.2720198040431789
 10
0.0851011807472517
 20
0.2766543978506686
 10
0.0990869620540238
 20
0.281077712318174
 10
0.1048737936602286
 20
0.2823361015578722
  0
LWPOLYLINE
  5
133E
330
12F0
100
AcDbEntity
  8
0
  6
Continuous
370
     0
100
AcDbPolyline
 90
       39
 70
   128
 43
0.0
 10
0.1732453526040522
 20
0.2058670615442288
 10
0.1533811327744558
 20
0.1943861972546017
 10
0.133740297816626
 20
0.1891100643905261
 10
0.1233626541794237
 20
0.1888949323051161
 10
0.1188935808176232
 20
0.1916921625975796
 10
0.1171202529920343
 20
0.1945102443063095
 10
0.1138773172493259
 20
0.1955639380027332
 10
0.1109280517546018
 20
0.1933835556662764
 10
0.1079787897800592
 20
0.1912031841638182
 10
0.1039251218152621
 20
0.1925203007275691
 10
0.1019083305459887
 20
0.1918304556008418
 10
0.0963850513299036
 20
0.1913831972133994
 10
0.0936692133270718
 20
0.1940591309463304
 10
0.0939126836251027
 20
0.1975670555546784
 10
0.0953722487360871
 20
0.2006798350280299
 10
0.0981897294213105
 20
0.2024546487484748
 10
0.0949367543926449
 20
0.2048567447399438
 10
0.0907513119928751
 20
0.2057683012945706
 10
0.0889779841672862
 20
0.2085863830033005
 10
0.0898903694463016
 20
0.2127737161962386
 10
0.09190715719539
 20
0.2134635504889637
 10
0.0883805904906509
 20
0.2164029179232241
 10
0.086607262665062
 20
0.2192209996319576
 10
0.0849556664683036
 20
0.2237930328108621
 10
0.0865670984808773
 20
0.2246145871441403
 10
0.08532087191535
 20
0.2290549197233833
 10
0.0867603549342419
 20
0.234864492952827
 10
0.0892942046574347
 20
0.2385249804111069
 10
0.0922535094381125
 20
0.2393569604525201
 10
0.0963071774029132
 20
0.2380398438887674
 10
0.0981921975713824
 20
0.2383241159452556
 10
0.1013033588791181
 20
0.2368648622397043
 10
0.1033402390948304
 20
0.2348579113832265
 10
0.1048299255838607
 20
0.2339254948054439
 10
0.1060259418249032
 20
0.2362271542605416
 10
0.1089952894117196
 20
0.2357107428409115
 10
0.111437532218293
 20
0.233572069716768
 10
0.1138998639713051
 20
0.2287366006094213
 10
0.1170210680851795
 20
0.2259289554428268
  0
LWPOLYLINE
  5
133F
330
12F0
100
AcDbEntity
  8
0
  6
Continuous
370
     0
100
AcDbPolyline
 90
       19
 70
   128
 43
0.0
 10
0.1780193782822756
 20
0.2164221016596759
 10
0.1639018225405308
 20
0.2115932271830427
 10
0.1540713622554825
 20
0.2103035522120482
 10
0.1423458493703542
 20
0.2100780052525035
 10
0.1326270814281827
 20
0.2118906840467289
 10
0.1242361076822078
 20
0.2164105931391837
 10
0.1190780268728026
 20
0.2212251999962582
 10
0.1166056523136518
 20
0.2274090605646464
 10
0.1156129421864555
 20
0.2340089132300775
 10
0.1163935461761482
 20
0.2377906886409988
 10
0.1195862749285403
 20
0.2434789739178047
 10
0.1252312859594724
 20
0.2456802076705333
 10
0.1345145628923738
 20
0.248044425527107
 10
0.1467872695041769
 20
0.2471954382079584
 10
0.1548946054337783
 20
0.2445612050804549
 10
0.1649070504782841
 20
0.2395144480262345
 10
0.1720919583227314
 20
0.2340412731668397
 10
0.1775336769485172
 20
0.2273409903448158
 10
0.1801277798023299
 20
0.2229110943077117
  0
LWPOLYLINE
  5
1340
330
12F0
100
AcDbEntity
  8
0
  6
Continuous
370
     0
100
AcDbPolyline
 90
       11
 70
   128
 43
0.0
 10
0.1723241569268552
 20
0.2209628599412863
 10
0.1685641627302239
 20
0.2190459113061553
 10
0.1638415694099109
 20
0.2196836106784285
 10
0.1611357777333957
 20
0.2210111637843148
 10
0.1590989043720334
 20
0.2230181124136798
 10
0.1585416748795793
 20
0.2254410598214207
 10
0.1600112896510488
 20
0.2272054456066179
 10
0.163639502558361
 20
0.2287168364597338
 10
0.1675614029425389
 20
0.2269941576597425
 10
0.1720204370183857
 20
0.225545329662328
 10
0.1728412153807781
 20
0.223933502272839
  0
LWPOLYLINE
  5
1341
330
12F0
100
AcDbEntity
  8
0
  6
Continuous
370
     0
100
AcDbPolyline
 90
       11
 70
   128
 43
0.0
 10
0.1730231968060671
 20
0.217597083308739
 10
0.1666992279880119
 20
0.2160648324324654
 10
0.1577911957881106
 20
0.2176140991933639
 10
0.1534538864867514
 20
0.2208168808880622
 10
0.1503226466071012
 20
0.2249729391837061
 10
0.1494918254385737
 20
0.2279331580342365
 10
0.1531100059142822
 20
0.2307929489552869
 10
0.1572753662219597
 20
0.2325781861567542
 10
0.1667104996819191
 20
0.2326511702663652
 10
0.1707742104528549
 20
0.2299856622415675
 10
0.1745844149739746
 20
0.2251606188423576
  0
LWPOLYLINE
  5
1342
330
12F0
100
AcDbEntity
  8
0
  6
Continuous
370
     0
100
AcDbPolyline
 90
        8
 70
   128
 43
0.0
 10
0.1552573392105714
 20
0.2139536139621931
 10
0.149166791030062
 20
0.2172776813824235
 10
0.1460255083442767
 20
0.2227821311391125
 10
0.1447692424927886
 20
0.2285708660133991
 10
0.14650239927985
 20
0.2311463740439628
 10
0.1494416219684353
 20
0.2346751478414681
 10
0.1538805739521898
 20
0.2359231136001423
 10
0.1619678277896952
 20
0.2359856742287292
  0
LWPOLYLINE
  5
1343
330
12F0
100
AcDbEntity
  8
0
  6
Continuous
370
     0
100
AcDbPolyline
 90
       11
 70
   128
 43
0.0
 10
0.1501293866335586
 20
0.214723022541019
 10
0.1380901110338293
 20
0.2204283367635593
 10
0.1340163541225898
 20
0.2244422493105151
 10
0.1321012125760745
 20
0.2282031733051681
 10
0.1311285741664392
 20
0.2321062236076159
 10
0.1315239009915281
 20
0.2333229144689994
 10
0.1335306563090093
 20
0.2353611488296572
 10
0.1378277910516594
 20
0.2375519460402522
 10
0.1425403347114873
 20
0.2382626403561367
 10
0.1487325359489197
 20
0.2393893289961717
 10
0.1552083646282014
 20
0.2386303330643695
  0
LWPOLYLINE
  5
1344
330
12F0
100
AcDbEntity
  8
0
  6
Continuous
370
     0
100
AcDbPolyline
 90
       12
 70
   128
 43
0.0
 10
0.1473018598080315
 20
0.2142966133427322
 10
0.1360833557163445
 20
0.2183901024029016
 10
0.1294456277038662
 20
0.2227887235427133
 10
0.1255036452275995
 20
0.227208196098795
 10
0.1242574186620686
 20
0.2316485286780381
 10
0.1238319704589301
 20
0.2344770338677922
 10
0.1243590717189881
 20
0.2360992847383016
 10
0.1279772521946966
 20
0.2389590756593502
 10
0.1349701393279048
 20
0.2411707220591026
 10
0.1400880490987788
 20
0.2417497049413235
 10
0.1468274301681802
 20
0.2418018398617772
 10
0.1512864710983734
 20
0.2403530096372481
  0
LWPOLYLINE
  5
1345
330
12F0
100
AcDbEntity
  8
0
  6
Continuous
370
     0
100
AcDbPolyline
 90
       48
 70
   128
 43
0.0
 10
0.1232044554042488
 20
0.2463387648388533
 10
0.1183500876489667
 20
0.2465709042019988
 10
0.1140529529063201
 20
0.2443801069914055
 10
0.1096140009225621
 20
0.2431321412327296
 10
0.1065128789007801
 20
0.2432429926432338
 10
0.1063610223737186
 20
0.2455342263901983
 10
0.1064827506683841
 20
0.2472881909214841
 10
0.1024391255097221
 20
0.24725691602419
 10
0.0985373140719829
 20
0.2462827988409799
 10
0.0952943783292746
 20
0.2473364925374035
 10
0.0920313604944738
 20
0.2510869799899176
 10
0.091737679871958
 20
0.2543210474159121
 10
0.093329022938093
 20
0.2578393977323952
 10
0.095599327125516
 20
0.2606887521113066
 10
0.0982850402301168
 20
0.2620580035955111
 10
0.0986803670552092
 20
0.2632746944568947
 10
0.0971906701916474
 20
0.2642071024277879
 10
0.0963698951634235
 20
0.265818916756162
 10
0.0987820132577824
 20
0.2677254527442692
 10
0.1070010483846069
 20
0.2681935711548711
 10
0.1073963716895179
 20
0.2694102511822542
 10
0.1050959461240488
 20
0.2706060928544787
 10
0.1045387166315947
 20
0.2730290402622177
 10
0.1066872856700023
 20
0.2741244323369596
 10
0.1122105684062688
 20
0.2745717015584042
 10
0.1157270958250542
 20
0.2729807364191892
 10
0.1189599922818089
 20
0.273275445017811
 10
0.1194870900216855
 20
0.2748976850543183
 10
0.1183927199832162
 20
0.2770467838865969
 10
0.1166193921576272
 20
0.2798648655953286
 10
0.1174100422876272
 20
0.2822982364840918
 10
0.1191432059290349
 20
0.2848737422875409
 10
0.1245347073759823
 20
0.2849154537269722
 10
0.1277876859248294
 20
0.2825133685695036
 10
0.1282030981761757
 20
0.28103325261368
 10
0.1298044805282643
 20
0.2832032006351177
 10
0.1318313179378414
 20
0.282544641239685
 10
0.1333310472330069
 20
0.2802638332008538
 10
0.1338983195315961
 20
0.2764924943320697
 10
0.1353980556811116
 20
0.2742116840661293
 10
0.1383673928933966
 20
0.2736952640396062
 10
0.1401105993409395
 20
0.2749223783820121
 10
0.1407694750359667
 20
0.2769501892616493
 10
0.1433334529915555
 20
0.2765654784416807
 10
0.150102958959188
 20
0.2725724281449953
 10
0.1614833588638902
 20
0.2648393030428178
 10
0.1689418652387608
 20
0.2588288545135207
 10
0.1731574393911046
 20
0.2538721105146457
  0
LWPOLYLINE
  5
1346
330
12F0
100
AcDbEntity
  8
0
  6
Continuous
370
     0
100
AcDbPolyline
 90
        8
 70
   128
 43
0.0
 10
0.1706838359441853
 20
0.2421212417880927
 10
0.157945520465244
 20
0.2511923326431784
 10
0.146727016373557
 20
0.2552858217033442
 10
0.1338970906438241
 20
0.2585577650371231
 10
0.1206818773749596
 20
0.2592646152144731
 10
0.1117939237469691
 20
0.258117077385279
 10
0.1031996507414945
 20
0.2537354721300904
 10
0.1001186143319828
 20
0.2511495406185045
  0
LWPOLYLINE
  5
1347
330
12F0
100
AcDbEntity
  8
0
  6
Continuous
370
     0
100
AcDbPolyline
 90
        7
 70
   128
 43
0.0
 10
0.1686444944327547
 20
0.2082587232206769
 10
0.1519529214494674
 20
0.2051629618590596
 10
0.1376634270885723
 20
0.2053221148854813
 10
0.1233538437812384
 20
0.208178063895108
 10
0.1113145681815055
 20
0.2138833781176483
 10
0.1034406528894536
 20
0.2213739295416559
 10
0.097583535721018
 20
0.229554323865278
  0
LWPOLYLINE
  5
1348
330
12F0
100
AcDbEntity
  8
0
  6
Continuous
370
     0
100
AcDbPolyline
 90
       11
 70
   128
 43
0.0
 10
0.1157986206495813
 20
0.2814766907577049
 10
0.1081066832626369
 20
0.2826308123836085
 10
0.1032422830757476
 20
0.2842113518146885
 10
0.0990467910154926
 20
0.2864713020574694
 10
0.0961891428119195
 20
0.2900900889103219
 10
0.0958653408113577
 20
0.2973693523874541
 10
0.099595213629943
 20
0.3033314970737226
 10
0.1041558972425314
 20
0.3063334143025695
 10
0.1093955421624173
 20
0.3086663594889654
 10
0.1183136171684537
 20
0.30576870126702
 10
0.124951352035282
 20
0.3013700779000956
  0
LWPOLYLINE
  5
1349
330
12F0
100
AcDbEntity
  8
0
  6
Continuous
370
     0
100
AcDbPolyline
 90
        9
 70
   128
 43
0.0
 10
0.1134492169815644
 20
0.3073492406981
 10
0.110024296479402
 20
0.3147393664197384
 10
0.1110784954793402
 20
0.3179838573267552
 10
0.1121025731012288
 20
0.3252735442849115
 10
0.1154270729544251
 20
0.3313674026319546
 10
0.1214674108104461
 20
0.3347853272460685
 10
0.1279432394897313
 20
0.3340263313142646
 10
0.133202973356056
 20
0.3336624805174555
 10
0.140711690055415
 20
0.320910039953814
  0
LWPOLYLINE
  5
134A
330
12F0
100
AcDbEntity
  8
0
  6
Continuous
370
     0
100
AcDbPolyline
 90
        9
 70
   128
 43
0.0
 10
0.1378239100992644
 20
0.3285740142509183
 10
0.1399523937114146
 20
0.3323662131428602
 10
0.1442696174005
 20
0.3318602143702502
 10
0.1466716926887237
 20
0.3351151418194042
 10
0.1497326436719781
 20
0.3403978801481955
 10
0.1540297784146283
 20
0.3425886773587905
 10
0.1590259598908332
 20
0.3414136957097238
 10
0.1640522662652692
 20
0.3361935288435234
 10
0.1655720845068735
 20
0.331215924821489
  0
LWPOLYLINE
  5
134B
330
12F0
100
AcDbEntity
  8
0
  6
Continuous
370
     0
100
AcDbPolyline
 90
       18
 70
   128
 43
0.0
 10
0.1788300153113162
 20
0.1925977774099312
 10
0.167170096091116
 20
0.1910591089127073
 10
0.1472057198997376
 20
0.1860707405363317
 10
0.1269292126854573
 20
0.1792017656837785
 10
0.1083776509829555
 20
0.1710795356499783
 10
0.0902327028865635
 20
0.1642424296512903
 10
0.0807371967312136
 20
0.1606043861880763
 10
0.0746259090822718
 20
0.1587223299331377
 10
0.071804370065184
 20
0.1591917608195103
 10
0.0705804711702633
 20
0.1611346668859603
 10
0.0718331213428307
 20
0.1628587919361557
 10
0.0734307657012145
 20
0.1643322729468916
 10
0.0792915233156464
 20
0.1658695041917877
 10
0.1008535396291883
 20
0.1723313477482442
 10
0.1263008337746498
 20
0.1812388468901495
 10
0.1404660575762051
 20
0.186225771318421
 10
0.1604591892814468
 20
0.1948811766421023
 10
0.1749981585464652
 20
0.2032844881475579
  0
LWPOLYLINE
  5
134C
330
12F0
100
AcDbEntity
  8
0
  6
Continuous
370
     0
100
AcDbPolyline
 90
       12
 70
   128
 43
0.0
 10
0.1743901031662211
 20
0.0878199373629336
 10
0.1634858816986089
 20
0.0815174564328895
 10
0.1493822681013945
 20
0.0780663067749714
 10
0.1382850233907824
 20
0.0787530688988358
 10
0.1291304129881503
 20
0.0806626621633164
 10
0.1238939351079189
 20
0.0828866488362969
 10
0.1211339970792195
 20
0.0848918611888045
 10
0.1165217904607445
 20
0.0908770541183532
 10
0.1104310599724449
 20
0.1042586330592208
 10
0.1080120269124194
 20
0.1118114754436412
 10
0.10812704896788
 20
0.12647962323285
 10
0.1087184789913351
 20
0.1323720908012404
  0
LWPOLYLINE
  5
134D
330
12F0
100
AcDbEntity
  8
0
  6
Continuous
370
     0
100
AcDbPolyline
 90
       39
 70
   128
 43
0.0
 10
0.2025728314366937
 20
0.1737670745562685
 10
0.2073534007246991
 20
0.1513272966706011
 10
0.2063019494802347
 20
0.1310173378789016
 10
0.2032996840064633
 20
0.1210811328035248
 10
0.1992583402913368
 20
0.1176951831585366
 10
0.196030196884088
 20
0.1168794833140154
 10
0.1940259523717635
 20
0.1141208774030459
 10
0.1951882460420719
 20
0.1106421840398059
 10
0.196350530496435
 20
0.1071634973723459
 10
0.19384522591508
 20
0.1037152414412983
 10
0.1938780848417778
 20
0.1015839850950044
 10
0.1925966657031743
 20
0.0961928239626317
 10
0.1892124613924508
 20
0.0944368175321344
 10
0.1859514632947281
 20
0.0957523798645656
 10
0.1834420645164982
 20
0.0981024105313306
 10
0.1826247657755146
 20
0.1013304414980176
 10
0.1793350121639285
 20
0.0989789668831432
 10
0.1771746975321733
 20
0.0952800610819793
 10
0.1739465541249281
 20
0.0944643612374581
 10
0.1702461061625193
 20
0.0966260483201645
 10
0.170213256451774
 20
0.0987572979706766
 10
0.1663279828560711
 20
0.0963116482158828
 10
0.1630998394488223
 20
0.0954959483713633
 10
0.1582412062086682
 20
0.0953380229972787
 10
0.1579578214836772
 20
0.0971244601641867
 10
0.1533497090620805
 20
0.0973113664959229
 10
0.1482693013012763
 20
0.1004756530591013
 10
0.1455709734769215
 20
0.1040166401819622
 10
0.1456941889058711
 20
0.1070882022491055
 10
0.1481994934872261
 20
0.1105364581801531
 10
0.1485116379622972
 20
0.112417063791204
 10
0.150860872424225
 20
0.1149250198320537
 10
0.1533990267163219
 20
0.1162420261125909
 10
0.1547461460199244
 20
0.1173706695868475
 10
0.1529267271408905
 20
0.1192194005133782
 10
0.1543354424531529
 20
0.1218838379802083
 10
0.1571241359957156
 20
0.1235456625750011
 10
0.1624838427570729
 20
0.1243932371040408
 10
0.1661185771023063
 20
0.1264940685445754
  0
LWPOLYLINE
  5
134E
330
12F0
100
AcDbEntity
  8
0
  6
Continuous
370
     0
100
AcDbPolyline
 90
       19
 70
   128
 43
0.0
 10
0.1940096468212964
 20
0.1815691295584827
 10
0.1942396147154355
 20
0.1666503318991559
 10
0.1924283892098941
 20
0.1569024771036211
 10
0.1890195143662296
 20
0.145681153823789
 10
0.1842922899285177
 20
0.1369982047947857
 10
0.1774006474462126
 20
0.1304146432582111
 10
0.1712277495929299
 20
0.1269968122329192
 10
0.1645825429482634
 20
0.1265563623041945
 10
0.1579989457644259
 20
0.1276517055029202
 10
0.1546434835153967
 20
0.1295627368848499
 10
0.1502202101792633
 20
0.1343569791889596
 10
0.1498711168168327
 20
0.1404059223526719
 10
0.1504913023541547
 20
0.1499654268683645
 10
0.1550912121863064
 20
0.1613751129544756
 10
0.1601018213490128
 20
0.1682716248165707
 10
0.167995588205585
 20
0.1762344922239584
 10
0.175421145447391
 20
0.181376441603664
 10
0.1834750766202688
 20
0.1844813223034354
 10
0.1884897799798537
 20
0.185579547567718
  0
LWPOLYLINE
  5
134F
330
12F0
100
AcDbEntity
  8
0
  6
Continuous
370
     0
100
AcDbPolyline
 90
       11
 70
   128
 43
0.0
 10
0.1879312088830964
 20
0.1775558236530336
 10
0.188592433268429
 20
0.1733874869654954
 10
0.1865265835314957
 20
0.1690930937577359
 10
0.1844278698881325
 20
0.1669299694227035
 10
0.1818897198322524
 20
0.1656129689728231
 10
0.1794131665285476
 20
0.1658317441584227
 10
0.1781892718698436
 20
0.1677746560555295
 10
0.1778730331978906
 20
0.1716923370422929
 10
0.180723331965062
 20
0.1748899489338793
 10
0.183479166580927
 20
0.1786830298749659
 10
0.1852657399854393
 20
0.1789655544296042
  0
LWPOLYLINE
  5
1350
330
12F0
100
AcDbEntity
  8
0
  6
Continuous
370
     0
100
AcDbPolyline
 90
       11
 70
   128
 43
0.0
 10
0.1913482678842975
 20
0.1771805679065821
 10
0.1908513112280978
 20
0.1706926245929096
 10
0.1866251376434604
 20
0.1626993322797645
 10
0.1822388089584628
 20
0.1595640199784558
 10
0.1773185562980117
 20
0.1578703265297978
 10
0.1742464830101937
 20
0.1579949265754745
 10
0.1726447394751957
 20
0.1623197446889914
 10
0.1722340451243766
 20
0.1668329063865687
 10
0.1750802496946697
 20
0.1758288048759677
 10
0.1788710541593339
 20
0.1788699362067003
 10
0.1846373610746283
 20
0.1810026356359753
  0
LWPOLYLINE
  5
1351
330
12F0
100
AcDbEntity
  8
0
  6
Continuous
370
     0
100
AcDbPolyline
 90
        8
 70
   128
 43
0.0
 10
0.189323461231595
 20
0.1591583393262468
 10
0.1842800023581468
 20
0.1543930771146637
 10
0.178074249814383
 20
0.1531065082663207
 10
0.1721806282935247
 20
0.1537005458941518
 10
0.1702667494994081
 20
0.1561447517008396
 10
0.1678189559457834
 20
0.1600305696643964
 10
0.1680037815790776
 20
0.1646379065018948
 10
0.1704433817592097
 20
0.1723486742604016
  0
LWPOLYLINE
  5
1352
330
12F0
100
AcDbEntity
  8
0
  6
Continuous
370
     0
100
AcDbPolyline
 90
       11
 70
   128
 43
0.0
 10
0.1870070856963686
 20
0.1545191269391033
 10
0.177860668667229
 20
0.1448321344815202
 10
0.1727843508670794
 20
0.1421981286162292
 10
0.1686156883101688
 20
0.1415389101976885
 10
0.1646031050886378
 20
0.1418199849735621
 10
0.1635681260238897
 20
0.1425719412796979
 10
0.162249771450103
 20
0.1451103280569619
 10
0.1614940871496806
 20
0.149874139624659
 10
0.1622744327670879
 20
0.1545756516020784
 10
0.163116383609104
 20
0.1608129508762878
 10
0.1658393727504439
 20
0.1667372872985417
  0
LWPOLYLINE
  5
1353
330
12F0
100
AcDbEntity
  8
0
  6
Continuous
370
     0
100
AcDbPolyline
 90
       12
 70
   128
 43
0.0
 10
0.1865388711018667
 20
0.1516982214378579
 10
0.1791790232410122
 20
0.1422937477042563
 10
0.172944515183385
 20
0.1373401419086111
 10
0.1675232074336428
 20
0.1349567859134381
 10
0.1629150950120461
 20
0.1351436922451725
 10
0.1600935559949583
 20
0.1356131231315451
 10
0.1587135869806104
 20
0.1366157293077989
 10
0.1571118434456124
 20
0.1409405474213159
 10
0.1571693636892952
 20
0.1482746146201403
 10
0.158200239341216
 20
0.1533209516075988
 10
0.1602332393674039
 20
0.1597465944658704
 10
0.1629890782194891
 20
0.1635396812376139
  0
LWPOLYLINE
  5
1354
330
12F0
100
AcDbEntity
  8
0
  6
Continuous
370
     0
100
AcDbPolyline
 90
       48
 70
   128
 43
0.0
 10
0.1486184666442689
 20
0.1386817973024765
 10
0.1468976068569318
 20
0.1341367542245972
 10
0.1476532911573507
 20
0.1293729426569036
 10
0.1474684655240601
 20
0.1247656058194035
 10
0.1464047401613975
 20
0.1218505184824554
 10
0.1441787211284229
 20
0.1224141245087491
 10
0.1425482178433412
 20
0.123071899844307
 10
0.1413284131452989
 20
0.1192165193129444
 10
0.1410491275969185
 20
0.1152046573556031
 10
0.139044883084594
 20
0.1124460514446354
 10
0.1344696295896952
 20
0.1105017014300777
 10
0.1313030963867874
 20
0.1112217763559115
 10
0.1284486984430053
 20
0.113822463588578
 10
0.1264403639700191
 20
0.116862150106078
 10
0.1259680594148591
 20
0.119839537033302
 10
0.1249330803501074
 20
0.1205914933394378
 10
0.123585966026237
 20
0.1194628373387409
 10
0.1217994060739009
 20
0.1191803119189796
 10
0.120731568082455
 20
0.1220635245714074
 10
0.1228261825492076
 20
0.1300249480306892
 10
0.1217912127004083
 20
0.1307768976410432
 10
0.1199430290915586
 20
0.1289585983160535
 10
0.1174664757878503
 20
0.1291773735016494
 10
0.1170886403637254
 20
0.1315592788529365
 10
0.1183700502863764
 20
0.1369504466810909
 10
0.1209698147828177
 20
0.1398032277319814
 10
0.1216885501958806
 20
0.1429689649390475
 10
0.1203085903974852
 20
0.1439715644195196
 10
0.1179264970088631
 20
0.1435948647249603
 10
0.1146983536016144
 20
0.1427791648804408
 10
0.112628404688067
 20
0.1442830707969307
 10
0.1107145301301706
 20
0.1467272824342735
 10
0.1123409257661975
 20
0.1518677945616549
 10
0.1156306701618348
 20
0.1542192758723093
 10
0.1171667135318337
 20
0.1541569754169067
 10
0.1155978246873097
 20
0.1563505313534765
 10
0.1168504790960973
 20
0.1580746622343287
 10
0.1194830982830126
 20
0.1587961811082685
 10
0.1232451514700301
 20
0.1581702813223557
 10
0.1258777748931656
 20
0.1588918060269541
 10
0.1272864951851602
 20
0.1615562309673457
 10
0.126658120510573
 20
0.1635933180043718
 10
0.1249331615466218
 20
0.1648465740507454
 10
0.1260913560403231
 20
0.1671661798117547
 10
0.1319808649323981
 20
0.1723704421732979
 10
0.1428522409254888
 20
0.1808041785845091
 10
0.1508733223876213
 20
0.1860403089347926
 10
0.1568901501214803
 20
0.1885178400698866
  0
LWPOLYLINE
  5
1355
330
12F0
100
AcDbEntity
  8
0
  6
Continuous
370
     0
100
AcDbPolyline
 90
        8
 70
   128
 43
0.0
 10
0.1673015048935546
 20
0.1825340852577905
 10
0.1547380288632176
 20
0.173222348546659
 10
0.1473781810023666
 20
0.1638178748130556
 10
0.1403017128867745
 20
0.1526269764389791
 10
0.1355457329351921
 20
0.1402769904626737
 10
0.1338905775490779
 20
0.1314694355573369
 10
0.135401955365868
 20
0.1219418057261627
 10
0.1369092297698273
 20
0.1182124691885828
  0
LWPOLYLINE
  5
1356
330
12F0
100
AcDbEntity
  8
0
  6
Continuous
370
     0
100
AcDbPolyline
 90
        7
 70
   128
 43
0.0
 10
0.1988764826508955
 20
0.1701304625147237
 10
0.1966627469520716
 20
0.1532991903904843
 10
0.1920956868306618
 20
0.1397582546538611
 10
0.1849576134904609
 20
0.1270315689829963
 10
0.1758111964613213
 20
0.1173445765254115
 10
0.1662540850813627
 20
0.1121707457654057
 10
0.156664119010923
 20
0.1091281771823489
  0
LWPOLYLINE
  5
1357
330
12F0
100
AcDbEntity
  8
0
  6
Continuous
370
     0
100
AcDbPolyline
 90
       11
 70
   128
 43
0.0
 10
0.1129117844333258
 20
0.1424966461564611
 10
0.1094372101681777
 20
0.1355378221776515
 10
0.1064308455177958
 20
0.1313999162265258
 10
0.1029850267665147
 20
0.1281081291950183
 10
0.0986602940901733
 20
0.1265086108862814
 10
0.091637242805433
 20
0.1284500730046254
 10
0.0871195003382645
 20
0.133839796884672
 10
0.0856738361386462
 20
0.1391049081926052
 10
0.0850742127417021
 20
0.1448090263462784
 10
0.0905858862096558
 20
0.1523951940591086
 10
0.0968203985034996
 20
0.1573488056854088
  0
LWPOLYLINE
  5
1358
330
12F0
100
AcDbEntity
  8
0
  6
Continuous
370
     0
100
AcDbPolyline
 90
        9
 70
   128
 43
0.0
 10
0.0875795215592738
 20
0.1482572881079811
 10
0.0794927356959185
 20
0.1472836695851604
 10
0.0767328068831752
 20
0.1492888752418864
 10
0.0701163599885923
 20
0.1525154680911207
 10
0.0653480832506901
 20
0.1575603611304732
 10
0.0639640108235078
 20
0.164361260600323
 10
0.0666869999648512
 20
0.1702855970225751
 10
0.0686583897867017
 20
0.1751754651104935
 10
0.0831070025494647
 20
0.1783759582025119
  0
LWPOLYLINE
  5
1359
330
12F0
100
AcDbEntity
  8
0
  6
Continuous
370
     0
100
AcDbPolyline
 90
        9
 70
   128
 43
0.0
 10
0.0749257567710231
 20
0.1779978145598466
 10
0.0719768989121547
 20
0.1811939766726684
 10
0.0737922278305305
 20
0.1851435381746071
 10
0.0714388899557719
 20
0.1884338754273518
 10
0.0673605931170691
 20
0.1929774687264682
 10
0.0666049088166467
 20
0.1977412802941636
 10
0.0692662877536492
 20
0.2021298419460624
 10
0.0757841755565316
 20
0.2052970231012363
 10
0.0809878079622416
 20
0.2052042919094212
  0
LWPOLYLINE
  5
135A
330
12F0
100
AcDbEntity
  8
0
  6
Continuous
370
     0
100
AcDbPolyline
 90
       18
 70
   128
 43
0.0
 10
0.2169184262635859
 20
0.1749779701146341
 10
0.2147786737722086
 20
0.1634132532464356
 10
0.2133535624970122
 20
0.1428845125733548
 10
0.2136205604750216
 20
0.1214777782961356
 10
0.2156125124372465
 20
0.1013242875388513
 10
0.2165078893260599
 20
0.0819546344680031
 10
0.2170336014961229
 20
0.0717996542070285
 10
0.2169350516203785
 20
0.065405886898402
 10
0.2156166928103715
 20
0.0628675059517949
 10
0.2133906737773969
 20
0.0623038999255012
 10
0.2121380236048296
 20
0.0640280249756966
 10
0.2112303591456417
 20
0.0660028057266651
 10
0.2115794390559031
 20
0.0720517480252543
 10
0.2120968901081284
 20
0.0945552636186484
 10
0.2114890013571333
 20
0.121509647149999
 10
0.2111234492671592
 20
0.1365226199492486
 10
0.2090698871005898
 20
0.1582118854768843
 10
0.2055706515184567
 20
0.1746360330008087
  0
LWPOLYLINE
  5
135B
330
12F0
100
AcDbEntity
  8
0
  6
Continuous
370
     0
100
AcDbPolyline
 90
       12
 70
   128
 43
0.0
 10
0.3151960654972505
 20
0.1383772295288405
 10
0.3178204913106732
 20
0.1260591249328353
 10
0.316744473397911
 20
0.1115793274234686
 10
0.3126620865985465
 20
0.1012374416958845
 10
0.308017025289594
 20
0.0931209865893869
 10
0.3042837276164398
 20
0.0888280498561702
 10
0.3015237895877441
 20
0.0868228375036626
 10
0.2944062826241343
 20
0.0842858946745046
 10
0.2797975055450621
 20
0.0826284010589067
 10
0.2718668032533067
 20
0.0826617205566578
 10
0.2579521094862649
 20
0.0873038199748919
 10
0.2525308017365191
 20
0.0896871759700649
  0
LWPOLYLINE
  5
135C
330
12F0
100
AcDbEntity
  8
0
  6
Continuous
370
     0
100
AcDbPolyline
 90
       39
 70
   128
 43
0.0
 10
0.2421644225960406
 20
0.1917397229080641
 10
0.2649831967312011
 20
0.1893520417643515
 10
0.2839741990824365
 20
0.1820759297850465
 10
0.2924963406135994
 20
0.1761501494146848
 10
0.2944677261992261
 20
0.1712602871574233
 10
0.2942459516785796
 20
0.167938075220162
 10
0.2962501961909076
 20
0.1651794693091908
 10
0.2999177986787913
 20
0.1652099009107281
 10
0.3035853919507225
 20
0.1652403258164856
 10
0.306090696532074
 20
0.161792069885438
 10
0.3081277957348796
 20
0.1611647261514175
 10
0.3128591143694734
 20
0.1582800637202268
 10
0.313483399083406
 20
0.1545188583287835
 10
0.3112245211237336
 20
0.1518239959561977
 10
0.3082140622764733
 20
0.1501636153095109
 10
0.3048914631903585
 20
0.1503838344432164
 10
0.3061112586724519
 20
0.1465284472160721
 10
0.3089615532034031
 20
0.1433308411551426
 10
0.3087397786827566
 20
0.1400086292178795
 10
0.3055403907893712
 20
0.1371572921150967
 10
0.3035033008025216
 20
0.1377846425448972
 10
0.3046286363695252
 20
0.1333337804375975
 10
0.3044068618488787
 20
0.1300115685003326
 10
0.3030556575643466
 20
0.1253419320725583
 10
0.3012690841598378
 20
0.1256244566271949
 10
0.2996673406248398
 20
0.1212996385136797
 10
0.295087992933059
 20
0.1174457019304231
 10
0.2908864849016268
 20
0.1159736648677967
 10
0.2880033314439778
 20
0.1170400145824341
 10
0.2854980268626264
 20
0.1204882705134817
 10
0.2838059225891527
 20
0.121366276644057
 10
0.282146668026428
 20
0.1243755324251445
 10
0.2816784534319261
 20
0.1271964379263899
 10
0.2810213324594208
 20
0.1288263945324459
 10
0.2787008535113635
 20
0.1276673136259951
 10
0.2766021398679967
 20
0.1298304379610257
 10
0.2758834044549339
 20
0.1329961751680919
 10
0.2767335536501712
 20
0.1383554741423829
 10
0.2758587389017286
 20
0.1424615045438635
  0
LWPOLYLINE
  5
135D
330
12F0
100
AcDbEntity
  8
0
  6
Continuous
370
     0
100
AcDbPolyline
 90
       19
 70
   128
 43
0.0
 10
0.2320980577735625
 20
0.1860066179660826
 10
0.2463577414902041
 20
0.1816151684179701
 10
0.2550688028515395
 20
0.1768803378079244
 10
0.2646875152198902
 20
0.1701707255817837
 10
0.2714846977871055
 20
0.1629916891650502
 10
0.2756164022407042
 20
0.1544029152759662
 10
0.2769594223676997
 20
0.1474759726774586
 10
0.2753248333581801
 20
0.1410198990827744
 10
0.2722486566575277
 20
0.1350970057435034
 10
0.2693942629499624
 20
0.1324963126801819
 10
0.2634678009343112
 20
0.1297710320976186
 10
0.2576070383401507
 20
0.1313082508160796
 10
0.2487070571486463
 20
0.1348521316658129
 10
0.2392772511582954
 20
0.1427526927871429
 10
0.234266641995589
 20
0.1496492046492381
 10
0.2291328131677126
 20
0.1596172844091334
 10
0.2265371520841057
 20
0.1682683587536182
 10
0.2260730366662145
 20
0.1768875633791147
 10
0.2265781909321198
 20
0.1819961999568491
  0
LWPOLYLINE
  5
135E
330
12F0
100
AcDbEntity
  8
0
  6
Continuous
370
     0
100
AcDbPolyline
 90
       11
 70
   128
 43
0.0
 10
0.2340365978846677
 20
0.1789855002276557
 10
0.2382052512256294
 20
0.1783262751133349
 10
0.241651079192863
 20
0.1750344947776092
 10
0.2430597945051254
 20
0.1723700573107791
 10
0.243528004863407
 20
0.1695491576401906
 10
0.24255464023922
 20
0.1672614207330447
 10
0.2403286169700252
 20
0.1666978205374061
 10
0.236504957814887
 20
0.1676076896911897
 10
0.2343446389469115
 20
0.1713066013230104
 10
0.2315888043310466
 20
0.1750996822640971
 10
0.2318721890560376
 20
0.1768861194310087
  0
LWPOLYLINE
  5
135F
330
12F0
100
AcDbEntity
  8
0
  6
Continuous
370
     0
100
AcDbPolyline
 90
       11
 70
   128
 43
0.0
 10
0.2354494166097609
 20
0.1821193560544216
 10
0.2414662493233521
 20
0.1796418374457626
 10
0.247762362605588
 20
0.1731524443533274
 10
0.2493887716937912
 20
0.1680119330910727
 10
0.2494791281960467
 20
0.1628091146776356
 10
0.2484113036567734
 20
0.1599259028903326
 10
0.2438031912351768
 20
0.1597389965585982
 10
0.2393840078597051
 20
0.160743046682958
 10
0.2317079255631178
 20
0.1662298335991412
 10
0.2299870607960521
 20
0.1707748641505819
 10
0.2297406299381492
 20
0.1769179882848721
  0
LWPOLYLINE
  5
1360
330
12F0
100
AcDbEntity
  8
0
  6
Continuous
370
     0
100
AcDbPolyline
 90
        8
 70
   128
 43
0.0
 10
0.251963874873244
 20
0.1746244755852988
 10
0.2549373940490973
 20
0.1683553141530058
 10
0.254243310737067
 20
0.1620557211191737
 10
0.2518571181718343
 20
0.1566341216894819
 10
0.2489411192396638
 20
0.1555692159229522
 10
0.2444890769374943
 20
0.1544420097010199
 10
0.240164353477109
 20
0.1560415347055386
 10
0.2335848554698821
 20
0.1607444906310657
  0
LWPOLYLINE
  5
1361
330
12F0
100
AcDbEntity
  8
0
  6
Continuous
370
     0
100
AcDbPolyline
 90
       11
 70
   128
 43
0.0
 10
0.2556602286387743
 20
0.1709878760701908
 10
0.2620467076392146
 20
0.1592956712600983
 10
0.2629831276122658
 20
0.1536538535618259
 10
0.2623218940109808
 20
0.1494855101785059
 10
0.2608146196070251
 20
0.1457561736409278
 10
0.2597796405422734
 20
0.145004217334792
 10
0.2569580972889689
 20
0.1445347922790745
 10
0.2521939239638975
 20
0.145288192533318
 10
0.2479636604185948
 20
0.147483192417992
 10
0.2422918134183867
 20
0.1502113667274258
 10
0.2374988845794483
 20
0.1546318039289698
  0
LWPOLYLINE
  5
1362
330
12F0
100
AcDbEntity
  8
0
  6
Continuous
370
     0
100
AcDbPolyline
 90
       12
 70
   128
 43
0.0
 10
0.2581983829308712
 20
0.1696708697896536
 10
0.2648682508925226
 20
0.1597650963158141
 10
0.2676528410222545
 20
0.1523049784274253
 10
0.268244271045706
 20
0.1464125108590348
 10
0.266642527510708
 20
0.1420876927455179
 10
0.2653241687007011
 20
0.1395493117989108
 10
0.2639441996863532
 20
0.138546705622657
 10
0.2593360872647601
 20
0.1383597992909226
 10
0.2523787495971881
 20
0.1406808556958196
 10
0.2478979560173755
 20
0.1432206805905345
 10
0.2424150380632888
 20
0.1471398113560607
 10
0.2396591992112
 20
0.1509328981278042
  0
LWPOLYLINE
  5
1363
330
12F0
100
AcDbEntity
  8
0
  6
Continuous
370
     0
100
AcDbPolyline
 90
       48
 70
   128
 43
0.0
 10
0.2588596885127181
 20
0.1295841257658842
 10
0.2626505064295514
 20
0.1265429953002765
 10
0.2674146797546228
 20
0.1257895950460348
 10
0.2717394032150118
 20
0.1241900700415161
 10
0.2741831068079747
 20
0.1222775955766035
 10
0.2729592079130505
 20
0.1203346895101535
 10
0.2718297731694363
 20
0.1189872524932038
 10
0.2751195175650736
 20
0.1166357711825511
 10
0.2788487210413457
 20
0.1151304213179518
 10
0.2808529655536738
 20
0.1123718154069841
 10
0.2812883212214778
 20
0.1074196535594467
 10
0.2796249766980914
 20
0.104630616912063
 10
0.2762695186852824
 20
0.1027195796994764
 10
0.2727579955327783
 20
0.1017488549035246
 10
0.2697803821600431
 20
0.102219729738005
 10
0.2687454030952949
 20
0.1014677734318674
 10
0.2694025375199693
 20
0.099837817690938
 10
0.2691191577747105
 20
0.098051393050465
 10
0.2660470795071603
 20
0.0979267804783514
 10
0.259122587314117
 20
0.1023790923644156
 10
0.2580876174653177
 20
0.1016271427540598
 10
0.2592458027430631
 20
0.0993075302972688
 10
0.2582724381188797
 20
0.0970197933901247
 10
0.2558903539462065
 20
0.0973964997804639
 10
0.2511590260956602
 20
0.1002811555158747
 10
0.249249241498422
 20
0.1036352363070012
 10
0.2464605479558557
 20
0.105297060901794
 10
0.2450805881574602
 20
0.1042944614213219
 10
0.2447027435173865
 20
0.101912549374255
 10
0.2444809689967364
 20
0.0985903374369919
 10
0.2424110200831926
 20
0.097086431520502
 10
0.2394950169147982
 20
0.0960215315846292
 10
0.2351086832500684
 20
0.0991568313594993
 10
0.2338888785520297
 20
0.1030122118908618
 10
0.2344227933115306
 20
0.1044538240477344
 10
0.2318517843289562
 20
0.1036395681513209
 10
0.2305991299201722
 20
0.1053636990321731
 10
0.2307264487619562
 20
0.1080904302586241
 10
0.2324842532004254
 20
0.1114749417861613
 10
0.2326115678059892
 20
0.1142016788432673
 10
0.2305128676147952
 20
0.1163648040434246
 10
0.2283813042606901
 20
0.1163966787279431
 10
0.2266563452967425
 20
0.1151434226815712
 10
0.2248081709038416
 20
0.1169617287023445
 10
0.2216785816085611
 20
0.1241711900248336
 10
0.217017061572065
 20
0.1371166508812979
 10
0.2145158561673241
 20
0.1463632059365966
 10
0.2140188860589553
 20
0.1528511483851442
  0
LWPOLYLINE
  5
1364
330
12F0
100
AcDbEntity
  8
0
  6
Continuous
370
     0
100
AcDbPolyline
 90
        8
 70
   128
 43
0.0
 10
0.2229270606239524
 20
0.1609038532574764
 10
0.2279007208993029
 20
0.1460777926206198
 10
0.2345705888609544
 20
0.1361720191467821
 10
0.2430270167749455
 20
0.1259837202531795
 10
0.2533028727839195
 20
0.1176441589818875
 10
0.2611678841266283
 20
0.1133483285218019
 10
0.27069623999272
 20
0.1118415347090984
 10
0.2747088232142545
 20
0.1121226094849721
  0
LWPOLYLINE
  5
1365
330
12F0
100
AcDbEntity
  8
0
  6
Continuous
370
     0
100
AcDbPolyline
 90
        7
 70
   128
 43
0.0
 10
0.2444808115834398
 20
0.1871005113860455
 10
0.259804220662744
 20
0.1797939745009849
 10
0.2712711166399444
 20
0.1712660629498525
 10
0.2811691280088446
 20
0.1605445896314936
 10
0.2875556070092884
 20
0.1488523848214029
 10
0.2895229026342605
 20
0.1381642301356702
 10
0.2894530948202068
 20
0.1281034250146166
  0
LWPOLYLINE
  5
1366
330
12F0
100
AcDbEntity
  8
0
  6
Continuous
370
     0
100
AcDbPolyline
 90
       11
 70
   128
 43
0.0
 10
0.2441975800355287
 20
0.0968039061007389
 10
0.2497421124301766
 20
0.0913489947342026
 10
0.252748477080555
 20
0.0872110887830769
 10
0.2548143360334443
 20
0.0829167022710973
 10
0.254999152450786
 20
0.0783093587378172
 10
0.2509824700526408
 20
0.0722299848376924
 10
0.2444604788369276
 20
0.0695988726992702
 10
0.2390063256126567
 20
0.0698509732132759
 10
0.2333960930530061
 20
0.0710433669216979
 10
0.227884419585056
 20
0.0786295346345263
 10
0.2250998252191039
 20
0.0860896583535719
  0
LWPOLYLINE
  5
1367
330
12F0
100
AcDbEntity
  8
0
  6
Continuous
370
     0
100
AcDbPolyline
 90
        9
 70
   128
 43
0.0
 10
0.2308907842354344
 20
0.0744916286834005
 10
0.2293177962143034
 20
0.0664997736225814
 10
0.2265578674015565
 20
0.0644945679658555
 10
0.221444600714058
 20
0.0591990250563849
 10
0.2151731437690749
 20
0.0562230820772687
 10
0.2082774021101592
 20
0.0570083444895921
 10
0.2034844732712244
 20
0.0614287816911379
 10
0.1994431253198776
 20
0.0648147371667846
 10
0.200864142398192
 20
0.0795451912420511
  0
LWPOLYLINE
  5
1368
330
12F0
100
AcDbEntity
  8
0
  6
Continuous
370
     0
100
AcDbPolyline
 90
        9
 70
   128
 43
0.0
 10
0.1986956343929478
 20
0.0716475113211512
 10
0.1947446563960255
 20
0.0698306492484875
 10
0.1915493676792579
 20
0.0727776112699541
 10
0.1876928495974184
 20
0.0715562240774457
 10
0.1821113725516348
 20
0.0690815808385654
 10
0.1773471992265634
 20
0.0698349810928054
 10
0.1739958403903649
 20
0.0737222430044717
 10
0.1729978102129727
 20
0.0808998354730957
 10
0.1746940136630535
 20
0.0858201284667715
  0
LWPOLYLINE
  5
1369
330
12F0
100
AcDbEntity
  8
0
  6
Continuous
370
     0
100
AcDbPolyline
 90
       18
 70
   128
 43
0.0
 10
0.2454458250806297
 20
0.2057573816542586
 10
0.2557833045336473
 20
0.2001486620566659
 10
0.2748669135192046
 20
0.1924495709508473
 10
0.2953084345588195
 20
0.1860884564319409
 10
0.3150910902779351
 20
0.1817551441857841
 10
0.3337894117243571
 20
0.1766211462363927
 10
0.3436098258691054
 20
0.1739830667432418
 10
0.3496602063452485
 20
0.1719135574852899
 10
0.3516669548083833
 20
0.1698753208975176
 10
0.3515150982813253
 20
0.1675840871505531
 10
0.3494882677260982
 20
0.1669255299822349
 10
0.3473296558815555
 20
0.1666725305959282
 10
0.3416846415164549
 20
0.1688737512875455
 10
0.3204424275407014
 20
0.1763198452341701
 10
0.2946194374857427
 20
0.1840710712604405
 10
0.2802282900679245
 20
0.1883626742942823
 10
0.2589659871457357
 20
0.1931119722577019
 10
0.2422643713563133
 20
0.1948593421582742
  0
LWPOLYLINE
  5
136A
330
12F0
100
AcDbEntity
  8
0
  6
Continuous
370
     0
100
AcDbPolyline
 90
       12
 70
   128
 43
0.0
 10
0.3106246586062298
 20
0.2879147200058192
 10
0.3231508644274896
 20
0.2866041936185564
 10
0.3365894623821148
 20
0.28110633626547
 10
0.3451636532954971
 20
0.2740279372541909
 10
0.3514474579293676
 20
0.2671020988657311
 10
0.3543766309574714
 20
0.2622249313800697
 10
0.3554308334775911
 20
0.2589804296390508
 10
0.3556441788773945
 20
0.2514273198135672
 10
0.3527061885967555
 20
0.2370213534821239
 10
0.3502237780858195
 20
0.2294891036798035
 10
0.3415090023392793
 20
0.2176899311102183
 10
0.3375670198630125
 20
0.2132704585541347
  0
LWPOLYLINE
  5
136B
330
12F0
100
AcDbEntity
  8
0
  6
Continuous
370
     0
100
AcDbPolyline
 90
       39
 70
   128
 43
0.0
 10
0.2373058927685676
 20
0.2349474174452872
 10
0.2466281014776968
 20
0.2559115272298396
 10
0.2594166376556579
 20
0.2717246015123802
 10
0.2676858762526209
 20
0.2779984729090064
 10
0.2729456032645991
 20
0.2783623214787028
 10
0.276036682480246
 20
0.2771247814281637
 10
0.279279618222958
 20
0.2781784751245873
 10
0.280384027547381
 20
0.2816759762519094
 10
0.2814884403919855
 20
0.285173466545233
 10
0.2855421083567862
 20
0.2864905831089839
 10
0.2867682459758782
 20
0.2882341197050238
 10
0.2909737808422648
 20
0.2918424614088497
 10
0.2947438143248533
 20
0.2912739150687678
 10
0.2966087490670617
 20
0.2882928361950743
 10
0.2972575819559573
 20
0.2849166338543938
 10
0.2960214015307301
 20
0.2818247057973107
 10
0.3000650302095735
 20
0.2817934200660179
 10
0.3039869237394051
 20
0.2835160966388948
 10
0.3070780029550519
 20
0.2822785565883556
 10
0.308801120456156
 20
0.2783546462627466
 10
0.3075749793168825
 20
0.2766111205007089
 10
0.3121557485417412
 20
0.2763059861939521
 10
0.3152468277573916
 20
0.2750684461434112
 10
0.3192703708239612
 20
0.2723403774900266
 10
0.3184495924615689
 20
0.2707285501005394
 10
0.3220677729372774
 20
0.267868759179489
 10
0.3243179881782581
 20
0.2623226088173727
 10
0.3244196412351812
 20
0.2578718527571091
 10
0.3225145389746231
 20
0.2554593310575051
 10
0.3184608710098224
 20
0.2541422144937524
 10
0.3171029485812333
 20
0.2528042465137279
 10
0.3137282384035558
 20
0.2521561128264338
 10
0.3109007115780287
 20
0.2525825220247189
 10
0.3091474691786971
 20
0.2524612471331906
 10
0.3095327531976508
 20
0.2498961648107638
 10
0.3068269615211356
 20
0.248568611704874
 10
0.3035940650643845
 20
0.2488633203034975
 10
0.2987597794011911
 20
0.2513279746964425
 10
0.29458437980756
 20
0.2517648096028626
  0
LWPOLYLINE
  5
136C
330
12F0
100
AcDbEntity
  8
0
  6
Continuous
370
     0
100
AcDbPolyline
 90
       19
 70
   128
 43
0.0
 10
0.2396477217805177
 20
0.2236021087278566
 10
0.2482307230920853
 20
0.2358068413065695
 10
0.2554256805970212
 20
0.2426284098541238
 10
0.2647792466123313
 20
0.2497029647268665
 10
0.2737073609043215
 20
0.2539490252438572
 10
0.2831525371704195
 20
0.2552244325952895
 10
0.2901554671097593
 20
0.2543611776565839
 10
0.2957904421889062
 20
0.250811554669923
 10
0.3004728576163416
 20
0.2460556620757881
 10
0.3020642075368229
 20
0.2425373139864177
 10
0.3028247259142454
 20
0.2360587556534064
 10
0.2995516687934909
 20
0.2309598659058434
 10
0.2934309923805856
 20
0.2235906002073662
 10
0.2830031419390799
 20
0.2170637294244351
 10
0.2748958060094786
 20
0.2144294962969315
 10
0.2638291584448567
 20
0.2126272409837284
 10
0.2547993944301083
 20
0.2128319495881179
 10
0.2464586241542683
 20
0.2150540303028929
 10
0.2417561233005756
 20
0.2171131160798207
  0
LWPOLYLINE
  5
136D
330
12F0
100
AcDbEntity
  8
0
  6
Continuous
370
     0
100
AcDbPolyline
 90
       11
 70
   128
 43
0.0
 10
0.2469242433959344
 20
0.2232761252319424
 10
0.2488393884626312
 20
0.2270370383925915
 10
0.2530348770027011
 20
0.2292969994693763
 10
0.2560042245895175
 20
0.2298134108890082
 10
0.2588317445606982
 20
0.2293869994636104
 10
0.2607067254432103
 20
0.2277543251120786
 10
0.2605548620618023
 20
0.2254630891380014
 10
0.2585079494144828
 20
0.222107738213591
 10
0.2543225001603666
 20
0.2211961794318515
 10
0.2498634660845234
 20
0.219747351434437
 10
0.2482520340719496
 20
0.2205689057677151
  0
LWPOLYLINE
  5
136E
330
12F0
100
AcDbEntity
  8
0
  6
Continuous
370
     0
100
AcDbPolyline
 90
       11
 70
   128
 43
0.0
 10
0.2443803543867844
 20
0.2255882103951769
 10
0.2485959181646038
 20
0.2305449630009377
 10
0.2567133037546831
 20
0.234527589816599
 10
0.2621048085358026
 20
0.2344858914382843
 10
0.2670809045857503
 20
0.232964066270144
 10
0.2694930260142776
 20
0.2310575433431499
 10
0.2682467994487467
 20
0.2266172107639068
 10
0.2659262882710074
 20
0.2227245861695941
 10
0.2583360039409825
 20
0.2171197084834233
 10
0.2534816465602283
 20
0.2168875605133884
 10
0.2475630369988728
 20
0.2185515205962147
  0
LWPOLYLINE
  5
136F
330
12F0
100
AcDbEntity
  8
0
  6
Continuous
370
     0
100
AcDbPolyline
 90
        8
 70
   128
 43
0.0
 10
0.25661165755211
 20
0.2389783481039771
 10
0.2634928523424378
 20
0.2398690554694429
 10
0.269269637808339
 20
0.2372622617075848
 10
0.2736885112201826
 20
0.2333174913588181
 10
0.2738002035630593
 20
0.2302151375935999
 10
0.2734964836545899
 20
0.2256326678725582
 10
0.2706388319308353
 20
0.2220138918537078
 10
0.2641328783533261
 20
0.2172097107047701
  0
LWPOLYLINE
  5
1370
330
12F0
100
AcDbEntity
  8
0
  6
Continuous
370
     0
100
AcDbPolyline
 90
       11
 70
   128
 43
0.0
 10
0.2612125053488796
 20
0.2413700183873129
 10
0.2743059834687287
 20
0.2438308308688359
 10
0.279961040639968
 20
0.2429780016382619
 10
0.2837210383567807
 20
0.2410610421691306
 10
0.2868020747662925
 20
0.2384751106575464
 10
0.2871974015913814
 20
0.2372584197961629
 10
0.2867719465338965
 20
0.2344299123792961
 10
0.2845832097911263
 20
0.2301317277758539
 10
0.2811884175213564
 20
0.2267868003324658
 10
0.2768410724542214
 20
0.22223560550872
 10
0.2711558903847582
 20
0.2190432495221532
  0
LWPOLYLINE
  5
1371
330
12F0
100
AcDbEntity
  8
0
  6
Continuous
370
     0
100
AcDbPolyline
 90
       12
 70
   128
 43
0.0
 10
0.2632493855645883
 20
0.2433769692437906
 10
0.2747314385262136
 20
0.2466593382857027
 10
0.2826869179287534
 20
0.2470023376662418
 10
0.2884737495349583
 20
0.2457439484265418
 10
0.2920919300106668
 20
0.2428841575054932
 10
0.2940986784738016
 20
0.2408459209177227
 10
0.2946257797338596
 20
0.2392236700472132
 10
0.2933795531683288
 20
0.234783337467972
 10
0.2890221617748807
 20
0.2288837620171797
 10
0.2852220033940647
 20
0.2254071231401262
 10
0.2798003737147212
 20
0.2214036363013054
 10
0.275341332784528
 20
0.2199548060767782
  0
LWPOLYLINE
  5
1372
330
12F0
100
AcDbEntity
  8
0
  6
Continuous
370
     0
100
AcDbPolyline
 90
       48
 70
   128
 43
0.0
 10
0.3015784993487181
 20
0.2316184230741633
 10
0.3056422134538188
 20
0.2342839441600759
 10
0.307830950196589
 20
0.2385821287635146
 10
0.3106886019203436
 20
0.2422009047823685
 10
0.3132626191618897
 20
0.2439340178973825
 10
0.3147322270790091
 20
0.2421696298850744
 10
0.3156647013044598
 20
0.2406790926753413
 10
0.3189176798533069
 20
0.2430811778328117
 10
0.3215017399009845
 20
0.2461626824088689
 10
0.3247446756436964
 20
0.2472163761052926
 10
0.3295889937384935
 20
0.2461001217802821
 10
0.3317275234909438
 20
0.2436563274104966
 10
0.33250813433499
 20
0.2398745542266862
 10
0.3323462281474434
 20
0.2362349267915658
 10
0.3309782664329006
 20
0.2335485565164976
 10
0.3313735932579895
 20
0.2323318656551141
 10
0.3331268389914861
 20
0.2324531536077572
 10
0.3347382606295319
 20
0.2316316078813667
 10
0.3339074498355323
 20
0.2286713804239468
 10
0.3275332638386423
 20
0.2234616370387687
 10
0.3279285871435533
 20
0.2222449570113873
 10
0.3304925686193236
 20
0.2226296569973538
 10
0.3323675495018356
 20
0.220996982645822
 10
0.3312731759431848
 20
0.2188478946475456
 10
0.3270676445969762
 20
0.2152395421097157
 10
0.3232875683082525
 20
0.2144596969887562
 10
0.3208453255016792
 20
0.2123210238646127
 10
0.3213724232415558
 20
0.2106987838281053
 10
0.3235209958001448
 20
0.2096033809193649
 10
0.3266120750157917
 20
0.208365840868824
 10
0.3274027251457916
 20
0.2059324699800626
 10
0.327514410634322
 20
0.2028301139877317
 10
0.3231771117074942
 20
0.1996273236861405
 10
0.3191334865488286
 20
0.1996585985834347
 10
0.317927420647301
 20
0.2006118643503765
 10
0.3179073385552087
 20
0.1979150705942842
 10
0.3158805011456351
 20
0.1972565111988515
 10
0.3133265693303499
 20
0.1982202049010428
 10
0.3106508990318843
 20
0.2009378478462924
 10
0.3080969603622528
 20
0.2019015393213692
 10
0.3053911720199025
 20
0.2005739992765942
 10
0.3047021680924793
 20
0.1985566118779829
 10
0.3053610437875101
 20
0.1965288009983456
 10
0.3030606147018595
 20
0.1953329701601216
 10
0.2952369132544703
 20
0.1945843999364544
 10
0.2814845594395905
 20
0.1941513983345686
 10
0.2719176480244805
 20
0.1946299532873077
 10
0.2655936758722603
 20
0.19616219110247
  0
LWPOLYLINE
  5
1373
330
12F0
100
AcDbEntity
  8
0
  6
Continuous
370
     0
100
AcDbPolyline
 90
        8
 70
   128
 43
0.0
 10
0.2606878757590714
 20
0.2071227912270394
 10
0.2763252428880705
 20
0.2072715185453262
 10
0.2878072958496958
 20
0.2105538875872419
 10
0.3001101238395485
 20
0.2154480709575264
 10
0.3112169320681737
 20
0.2226439246169125
 10
0.3177329317859865
 20
0.2287965102880101
 10
0.3221104017513489
 20
0.2373928903288931
 10
0.3230830401609843
 20
0.2412959406313444
  0
LWPOLYLINE
  5
1374
330
12F0
100
AcDbEntity
  8
0
  6
Continuous
370
     0
100
AcDbPolyline
 90
        7
 70
   128
 43
0.0
 10
0.2424338486797453
 20
0.2357168390852227
 10
0.2541179720130984
 20
0.2480324230744397
 10
0.265771963593874
 20
0.2563028196194086
 10
0.2790273443810918
 20
0.2624032703700543
 10
0.2921208225009408
 20
0.2648640828515774
 10
0.3028937894430506
 20
0.2634322707387859
 10
0.3124406119117253
 20
0.2602569198028419
  0
LWPOLYLINE
  5
1375
330
12F0
100
AcDbEntity
  8
0
  6
Continuous
370
     0
100
AcDbPolyline
 90
       11
 70
   128
 43
0.0
 10
0.328223500174019
 20
0.2075442843084332
 10
0.3351247839107856
 20
0.2111317876571039
 10
0.339989184097675
 20
0.2127123270881839
 10
0.3447117738978065
 20
0.2133500372944592
 10
0.3491507294017389
 20
0.2121020607017829
 10
0.3536913344424164
 20
0.2064033388828417
 10
0.3541782646639468
 20
0.1993874982730368
 10
0.3522530767911149
 20
0.1942781936513409
 10
0.3493853857814031
 20
0.1893110153374451
 10
0.3404673107753666
 20
0.1864133571154997
 10
0.3325118245184804
 20
0.1860703555078497
  0
LWPOLYLINE
  5
1376
330
12F0
100
AcDbEntity
  8
0
  6
Continuous
370
     0
100
AcDbPolyline
 90
        9
 70
   128
 43
0.0
 10
0.345331710962256
 20
0.1879938965465797
 10
0.3524463367646575
 20
0.1840282770086538
 10
0.3535005357645957
 20
0.180783786101637
 10
0.3569568100527576
 20
0.1742843677454644
 10
0.3578491132396806
 20
0.1674002407964359
 10
0.3549713829440151
 20
0.1610846601874911
 10
0.3492862008745518
 20
0.1578923042009297
 10
0.3448171206584014
 20
0.1550950716813535
 10
0.3312467447486291
 20
0.1609984998775697
  0
LWPOLYLINE
  5
1377
330
12F0
100
AcDbEntity
  8
0
  6
Continuous
370
     0
100
AcDbPolyline
 90
        9
 70
   128
 43
0.0
 10
0.3380877788749572
 20
0.1564956088968507
 10
0.3385947980429229
 20
0.1521765642702526
 10
0.3348046720937176
 20
0.1500483254611335
 10
0.3347745507156681
 20
0.1460031294099977
 10
0.3354033050326528
 20
0.1399301224792228
 10
0.3332145682898826
 20
0.1356319378757806
 10
0.3284819356836124
 20
0.133645836208462
 10
0.3213472313093035
 20
0.1349146511562953
 10
0.3171919102875797
 20
0.138048290652808
  0
ENDBLK
  5
137B
330
12F0
100
AcDbEntity
  8
0
100
AcDbBlockEnd
  0
BLOCK
  5
1512
330
1507
100
AcDbEntity
  8
0
100
AcDbBlockBegin
  2
*D30
 70
     1
 10
0.0
 20
0.0
 30
0.0
  3
*D30
  1

  0
LINE
  5
153B
330
1507
100
AcDbEntity
  8
Sezione
  6
ACAD_ISO10W100
 62
     5
370
    -2
100
AcDbLine
 10
0.2083322835768352
 20
0.2131304394322044
 30
0.0
 11
0.2643770579637239
 21
0.2131304394322044
 31
0.0
  0
LINE
  5
153C
330
1507
100
AcDbEntity
  8
Sezione
  6
ACAD_ISO10W100
 62
     5
370
    -2
100
AcDbLine
 10
0.2083373947075343
 20
0.1056304395537091
 30
0.0
 11
0.2643770579637238
 21
0.1056304395537091
 31
0.0
  0
LINE
  5
153D
330
1507
100
AcDbEntity
  8
Sezione
  6
ACAD_ISO10W100
 62
     5
370
    -2
100
AcDbLine
 10
0.2641970579637238
 20
0.2131304394322044
 30
0.0
 11
0.2641970579637238
 21
0.1628804394929568
 31
0.0
  0
LINE
  5
153E
330
1507
100
AcDbEntity
  8
Sezione
  6
ACAD_ISO10W100
 62
     5
370
    -2
100
AcDbLine
 10
0.2641970579637238
 20
0.1056304395537091
 30
0.0
 11
0.2641970579637238
 21
0.1558804394929568
 31
0.0
  0
INSERT
  5
153F
330
1507
100
AcDbEntity
  8
Sezione
  6
ACAD_ISO10W100
 62
     5
370
    -2
100
AcDbBlockReference
  2
_ArchTick
 10
0.2641970579637238
 20
0.2131304394322044
 30
0.0
 41
0.0015
 42
0.0015
 43
0.0015
 50
90.0
  0
INSERT
  5
1540
330
1507
100
AcDbEntity
  8
Sezione
  6
ACAD_ISO10W100
 62
     5
370
    -2
100
AcDbBlockReference
  2
_ArchTick
 10
0.2641970579637238
 20
0.1056304395537091
 30
0.0
 41
0.0015
 42
0.0015
 43
0.0015
 50
270.0
  0
MTEXT
  5
1541
330
1507
100
AcDbEntity
  8
Sezione
  6
ACAD_ISO10W100
 62
     4
100
AcDbMText
 10
0.2641970579637238
 20
0.1593804394929568
 30
0.0
 40
0.003
 41
0.0
 71
     5
 72
     1
  1
\A1;430 mm
  7
ROMANS
 73
     1
 44
1.0
1001
ACAD
1000
MTEXTBEGIN
1070
    73
1070
     1
1070
    44
1040
1.0
1070
    74
1070
     0
1000
MTEXTEND
  0
POINT
  5
1542
330
1507
100
AcDbEntity
  8
Defpoints
  6
ACAD_ISO10W100
 62
     0
100
AcDbPoint
 10
0.2082697835768352
 20
0.2131304394322044
 30
0.0
  0
POINT
  5
1543
330
1507
100
AcDbEntity
  8
Defpoints
  6
ACAD_ISO10W100
 62
     0
100
AcDbPoint
 10
0.2082748947075343
 20
0.1056304395537091
 30
0.0
  0
POINT
  5
1544
330
1507
100
AcDbEntity
  8
Defpoints
  6
ACAD_ISO10W100
 62
     0
100
AcDbPoint
 10
0.2641970579637238
 20
0.1056304395537091
 30
0.0
  0
ENDBLK
  5
1513
330
1507
100
AcDbEntity
  8
0
100
AcDbBlockEnd
  0
BLOCK
  5
152C
330
1521
100
AcDbEntity
  8
0
100
AcDbBlockBegin
  2
*D31
 70
     1
 10
0.0
 20
0.0
 30
0.0
  3
*D31
  1

  0
LINE
  5
152F
330
1521
100
AcDbEntity
  8
Sezione
  6
ACAD_ISO10W100
 62
     5
370
    -2
100
AcDbLine
 10
0.1719918684902775
 20
0.1590099531845926
 30
0.0
 11
0.1719918684902775
 21
0.084945782242584
 31
0.0
  0
LINE
  5
1530
330
1521
100
AcDbEntity
  8
Sezione
  6
ACAD_ISO10W100
 62
     5
370
    -2
100
AcDbLine
 10
0.244503588355941
 20
0.1590095376092292
 30
0.0
 11
0.244503588355941
 21
0.084945782242584
 31
0.0
  0
LINE
  5
1531
330
1521
100
AcDbEntity
  8
Sezione
  6
ACAD_ISO10W100
 62
     5
370
    -2
100
AcDbLine
 10
0.1719918684902775
 20
0.085125782242584
 30
0.0
 11
0.1966762998516807
 21
0.085125782242584
 31
0.0
  0
LINE
  5
1532
330
1521
100
AcDbEntity
  8
Sezione
  6
ACAD_ISO10W100
 62
     5
370
    -2
100
AcDbLine
 10
0.244503588355941
 20
0.085125782242584
 30
0.0
 11
0.2198191569945378
 21
0.085125782242584
 31
0.0
  0
INSERT
  5
1533
330
1521
100
AcDbEntity
  8
Sezione
  6
ACAD_ISO10W100
 62
     5
370
    -2
100
AcDbBlockReference
  2
_ArchTick
 10
0.1719918684902775
 20
0.085125782242584
 30
0.0
 41
0.0015
 42
0.0015
 43
0.0015
 50
180.0
  0
INSERT
  5
1534
330
1521
100
AcDbEntity
  8
Sezione
  6
ACAD_ISO10W100
 62
     5
370
    -2
100
AcDbBlockReference
  2
_ArchTick
 10
0.244503588355941
 20
0.085125782242584
 30
0.0
 41
0.0015
 42
0.0015
 43
0.0015
  0
MTEXT
  5
1535
330
1521
100
AcDbEntity
  8
Sezione
  6
ACAD_ISO10W100
 62
     4
100
AcDbMText
 10
0.2082477284231092
 20
0.085125782242584
 30
0.0
 40
0.003
 41
0.0
 71
     5
 72
     1
  1
\A1;300 mm
  7
ROMANS
 73
     1
 44
1.0
1001
ACAD
1000
MTEXTBEGIN
1070
    73
1070
     1
1070
    44
1040
1.0
1070
    74
1070
     0
1000
MTEXTEND
  0
POINT
  5
1536
330
1521
100
AcDbEntity
  8
Defpoints
  6
ACAD_ISO10W100
 62
     0
100
AcDbPoint
 10
0.1719918684902775
 20
0.1590724531845926
 30
0.0
  0
POINT
  5
1537
330
1521
100
AcDbEntity
  8
Defpoints
  6
ACAD_ISO10W100
 62
     0
100
AcDbPoint
 10
0.244503588355941
 20
0.1590720376092292
 30
0.0
  0
POINT
  5
1538
330
1521
100
AcDbEntity
  8
Defpoints
  6
ACAD_ISO10W100
 62
     0
100
AcDbPoint
 10
0.244503588355941
 20
0.085125782242584
 30
0.0
  0
ENDBLK
  5
152D
330
1521
100
AcDbEntity
  8
0
100
AcDbBlockEnd
  0
BLOCK
  5
1831
330
182A
100
AcDbEntity
  8
0
100
AcDbBlockBegin
  2
*D33
 70
     1
 10
0.0
 20
0.0
 30
0.0
  3
*D33
  1

  0
LINE
  5
1841
330
182A
100
AcDbEntity
  8
Sezione
  6
ACAD_ISO10W100
 62
     5
370
    -2
100
AcDbLine
 10
0.2550193233489398
 20
0.1980484165756285
 30
0.0
 11
0.2535193233489398
 21
0.1980484165756285
 31
0.0
  0
LINE
  5
1842
330
182A
100
AcDbEntity
  8
Sezione
  6
ACAD_ISO10W100
 62
     5
370
    -2
100
AcDbLine
 10
0.2535193233489398
 20
0.1980484165756285
 30
0.0
 11
0.2512265566535961
 21
0.1961136760553718
 31
0.0
  0
MTEXT
  5
1843
330
182A
100
AcDbEntity
  8
Sezione
  6
ACAD_ISO10W100
 62
     4
100
AcDbMText
 10
0.2694478947775112
 20
0.1980484165756285
 30
0.0
 40
0.003
 41
0.0
 71
     5
 72
     1
  1
\A1;d 440 mm
  7
ROMANS
 73
     1
 44
1.0
1001
ACAD
1000
MTEXTBEGIN
1070
    73
1070
     1
1070
    44
1040
1.0
1070
    74
1070
     0
1000
MTEXTEND
  0
INSERT
  5
1844
330
182A
100
AcDbEntity
  8
Sezione
  6
ACAD_ISO10W100
 62
     5
370
    -2
100
AcDbBlockReference
  2
_ArchTick
 10
0.2512265566535961
 20
0.1961136760553718
 30
0.0
 41
0.0015
 42
0.0015
 43
0.0015
 50
220.1591908129549
  0
POINT
  5
1845
330
182A
100
AcDbEntity
  8
Defpoints
  6
ACAD_ISO10W100
 62
     0
100
AcDbPoint
 10
0.2512265566535961
 20
0.1961136760553718
 30
0.0
  0
POINT
  5
1846
330
182A
100
AcDbEntity
  8
Defpoints
  6
ACAD_ISO10W100
 62
     0
100
AcDbPoint
 10
0.1671584444909983
 20
0.1251731903126249
 30
0.0
  0
ENDBLK
  5
1832
330
182A
100
AcDbEntity
  8
0
100
AcDbBlockEnd
  0
ENDSEC
  0
SECTION
  2
ENTITIES
  0
LINE
  5
D
330
2
100
AcDbEntity
  8
Table
100
AcDbLine
 10
0.02
 20
0.02
 30
0.0
 11
0.4
 21
0.02
 31
0.0
  0
LINE
  5
10
330
2
100
AcDbEntity
  8
Table
100
AcDbLine
 10
0.4
 20
0.02
 30
0.0
 11
0.4
 21
0.2769999999999999
 31
0.0
  0
LINE
  5
11
330
2
100
AcDbEntity
  8
Table
100
AcDbLine
 10
0.4
 20
0.2769999999999999
 30
0.0
 11
0.02
 21
0.277
 31
0.0
  0
LINE
  5
12
330
2
100
AcDbEntity
  8
Table
100
AcDbLine
 10
0.02
 20
0.277
 30
0.0
 11
0.02
 21
0.02
 31
0.0
  0
LINE
  5
13
330
2
100
AcDbEntity
  8
Table
 62
     2
100
AcDbLine
 10
0.015
 20
0.015
 30
0.0
 11
0.4050000000000001
 21
0.015
 31
0.0
  0
LINE
  5
14
330
2
100
AcDbEntity
  8
Table
 62
     2
100
AcDbLine
 10
0.4050000000000001
 20
0.015
 30
0.0
 11
0.4050000000000001
 21
0.2819999999999998
 31
0.0
  0
LINE
  5
15
330
2
100
AcDbEntity
  8
Table
 62
     2
100
AcDbLine
 10
0.4050000000000001
 20
0.2819999999999998
 30
0.0
 11
0.0149999999999999
 21
0.282
 31
0.0
  0
LINE
  5
16
330
2
100
AcDbEntity
  8
Table
 62
     2
100
AcDbLine
 10
0.0149999999999999
 20
0.282
 30
0.0
 11
0.015
 21
0.015
 31
0.0
  0
LINE
  5
17
330
2
100
AcDbEntity
  8
Table
100
AcDbLine
 10
0.21
 20
0.2769999999999999
 30
0.0
 11
0.21
 21
0.2532994226089223
 31
0.0
  0
MTEXT
  5
18
102
{ACAD_XDICTIONARY
360
184B
102
}
330
2
100
AcDbEntity
  8
Text
100
AcDbMText
 10
0.305
 20
0.0471738284815141
 30
0.0
 40
0.005
 41
0.1900000000000001
 71
     2
 72
     5
  3
{\fTimes New Roman|b0|i0|c238|p18;\H1.6x;\C4;Bovelacci\P\H0.4375x;\T0.95;via del Commercio, 5  47100 Forli - Italy  \fTimes New Roman|b0|i0|c0|p18;\P\fTimes New Roman|b0|i0|c238|p18;tel.+39-0543721386  fax +39-0543721127\fTimes New Roman|b0|i0|c0|p18
  1
; \fTimes New Roman|b0|i0|c238|p18;www.bovelacci.it\fTimes New Roman|b0|i0|c0|p18; \fTimes New Roman|b0|i0|c238|p18;e-mail: bovelacci@bovelacci\fTimes New Roman|b0|i0|c0|p18;.it}
 73
     1
 44
1.0
1001
ACAD
1000
ACAD_MTEXT_DEFINED_HEIGHT_BEGIN
1070
    46
1040
0.0271738284815141
1000
ACAD_MTEXT_DEFINED_HEIGHT_END
1000
MTEXTBEGIN
1070
    73
1070
     1
1070
    44
1040
1.0
1070
    74
1070
     0
1000
MTEXTEND
  0
MTEXT
  5
1C
330
2
100
AcDbEntity
  8
Text
100
AcDbMText
 10
0.0219676065851835
 20
0.0500313976452307
 30
0.0
 40
0.002
 41
0.1863544980601608
 71
     1
 72
     5
  3
{\fArial|b0|i0|c0|p34;\H1.25x;Le caratteristiche tecniche indicate vengono fornite a titolo indicativo e potranno essere modificate senza preavviso. Non devono quindi essere considerate a scopo di specifica.\P\fArial|b0|i1|c0|p34;The given values are
  3
 indicative and can be changed without notice. They cannot be considered like a state.\PThis lealfet and designs embodied within are protected by copyright law and international treaties. Unauthorized repro- duction of the leaflet or any portion of i
  1
t or reproduction of any of the designs embodied therein may result in severe civil penalties and will be prosecuted to the maximum.\PAll right reserved, Bovelacci Forlì Italy.}
 73
     1
 44
1.0
1001
ACAD
1000
MTEXTBEGIN
1070
    73
1070
     1
1070
    44
1040
1.0
1070
    74
1070
     0
1000
MTEXTEND
  0
LINE
  5
1D
330
2
100
AcDbEntity
  8
Table
100
AcDbLine
 10
0.02
 20
0.0528099428524846
 30
0.0
 11
0.4
 21
0.0528099428524846
 31
0.0
  0
MTEXT
  5
1E
330
2
100
AcDbEntity
  8
Text
100
AcDbMText
 10
0.1133313047219695
 20
0.2610796890771976
 30
0.0
 40
0.003
 41
0.1103605678262056
 71
     2
 72
     5
  1
{\fTimes New Roman|b0|i0|c0|p18;Rosoni\fTimes New Roman|b0|i1|c0|p18;   Ceiling centres}
 73
     1
 44
1.0
1001
ACAD
1000
ACAD_MTEXT_DEFINED_HEIGHT_BEGIN
1070
    46
1040
0.0141952763113409
1000
ACAD_MTEXT_DEFINED_HEIGHT_END
1000
MTEXTBEGIN
1070
    73
1070
     1
1070
    44
1040
1.0
1070
    74
1070
     0
1000
MTEXTEND
  0
TEXT
  5
1F
330
2
100
AcDbEntity
  8
Text
100
AcDbText
 10
0.2180556919891047
 20
0.269976982173197
 30
0.0
 40
0.003
  1
Rosone - Ceiling centre : D 440 mm
  7
ROMANS
100
AcDbText
  0
TEXT
  5
21
330
2
100
AcDbEntity
  8
Text
100
AcDbText
 10
0.2184542410678115
 20
0.2576348370183962
 30
0.0
 40
0.003
  1
File : E - R44
  7
ROMANS
100
AcDbText
  0
LINE
  5
22
330
2
100
AcDbEntity
  8
Table
100
AcDbLine
 10
0.4
 20
0.2654452889427402
 30
0.0
 11
0.02
 21
0.2654452889427403
 31
0.0
  0
LINE
  5
23
330
2
100
AcDbEntity
  8
Table
100
AcDbLine
 10
0.4
 20
0.2532994226089223
 30
0.0
 11
0.02
 21
0.2532994226089225
 31
0.0
  0
LINE
  5
24
330
2
100
AcDbEntity
  8
Table
100
AcDbLine
 10
0.21
 20
0.0528099428524846
 30
0.0
 11
0.21
 21
0.02
 31
0.0
  0
TEXT
  5
25
330
2
100
AcDbEntity
  8
Text
100
AcDbText
 10
0.0947789320547719
 20
0.2687784133392506
 30
0.0
 40
0.005
  1
EUROSTYL
  7
style1
 72
     1
 11
0.1140561490699125
 21
0.2687784133392506
 31
0.0
100
AcDbText
  0
TEXT
  5
23F
330
2
100
AcDbEntity
  8
Text
  6
ACAD_ISO10W100
100
AcDbText
 10
0.2930720194824863
 20
0.0783648826929713
 30
0.0
 40
0.005
  1
scala 1 : 4
  7
style1
100
AcDbText
  0
CIRCLE
  5
16C0
330
2
100
AcDbEntity
  8
Profilo
  6
Continuous
370
     0
100
AcDbCircle
 10
0.2091925005722972
 20
0.1606434331839983
 30
0.0
 40
0.041163085125446
  0
CIRCLE
  5
16C1
330
2
100
AcDbEntity
  8
Profilo
  6
Continuous
370
     0
100
AcDbCircle
 10
0.2091925005722972
 20
0.1606434331839983
 30
0.0
 40
0.0091060581076228
  0
LWPOLYLINE
  5
16C2
330
2
100
AcDbEntity
  8
Profilo
  6
Continuous
370
     0
100
AcDbPolyline
 90
        8
 70
   128
 43
0.0
 10
0.2013320688288047
 20
0.1712429699775577
 10
0.1942575318727666
 20
0.1783141063148577
 10
0.1900281887412625
 20
0.1826951352532597
 10
0.1865678168398501
 20
0.1861538430376663
 10
0.1838764161685278
 20
0.1891513902450754
 10
0.1823384737083478
 20
0.1910728938015402
 10
0.1818770915166956
 20
0.191226614570027
 10
0.1816464004208695
 20
0.1911497533215527
  0
LWPOLYLINE
  5
16C3
330
2
100
AcDbEntity
  8
Profilo
  6
Continuous
370
     0
100
AcDbPolyline
 90
       10
 70
   128
 43
0.0
 10
0.2070681493790802
 20
0.1719660426738336
 10
0.2044949983844591
 20
0.1726090218976843
 10
0.2029056995621357
 20
0.1735924009720346
 10
0.2000676663411305
 20
0.1760886699992914
 10
0.1966583229604177
 20
0.180527949835751
 10
0.1952203858006003
 20
0.1830998632742298
 10
0.1942743747269322
 20
0.1852557307225244
 10
0.19389596920466
 20
0.1868820890207254
 10
0.1937824486407829
 20
0.1886219122072981
 10
0.19389596920466
 20
0.1899835133377594
  0
LWPOLYLINE
  5
16C4
330
2
100
AcDbEntity
  8
Profilo
  6
Continuous
370
     0
100
AcDbPolyline
 90
        3
 70
   128
 43
0.0
 10
0.2036588059983666
 20
0.1721314080908531
 10
0.1991936328564092
 20
0.1756488783980714
 10
0.19525822689923
 20
0.1796958595838449
  0
LWPOLYLINE
  5
16C5
330
2
100
AcDbEntity
  8
Profilo
  6
Continuous
370
     0
100
AcDbPolyline
 90
        5
 70
   128
 43
0.0
 10
0.1936689280769057
 20
0.1821164841998792
 10
0.1914741826045567
 20
0.1848396864608024
 10
0.1902632865724936
 20
0.1874115998992811
 10
0.1902632865724936
 20
0.1887353788241315
 10
0.1906795331933955
 20
0.1905130242163151
  0
LWPOLYLINE
  5
16C6
330
2
100
AcDbEntity
  8
Profilo
  6
Continuous
370
     0
100
AcDbPolyline
 90
        6
 70
   128
 43
0.0
 10
0.1910579359836557
 20
0.1822677730223237
 10
0.1891280727376889
 20
0.1852179085169132
 10
0.1883334233265277
 20
0.1868820890207254
 10
0.187879338339008
 20
0.1893027136367598
 10
0.1879928589028852
 20
0.1909668924121102
 10
0.1888631905113067
 20
0.1924797823650162
  0
LWPOLYLINE
  5
16C7
330
2
100
AcDbEntity
  8
Profilo
  6
Continuous
370
     0
100
AcDbPolyline
 90
        6
 70
   128
 43
0.0
 10
0.1901876071072461
 20
0.1839697740032851
 10
0.1894307960627017
 20
0.1858987099463751
 10
0.1890902343710721
 20
0.1878654663666141
 10
0.1890902343710721
 20
0.1893027136367598
 10
0.1893929576960849
 20
0.1905130242163151
 10
0.1898092015849748
 20
0.1910047146177212
  0
LWPOLYLINE
  5
16C8
330
2
100
AcDbEntity
  8
Profilo
  6
Continuous
370
     0
100
AcDbPolyline
 90
        4
 70
   128
 43
0.0
 10
0.1860251572903015
 20
0.1870333778431701
 10
0.1853440284430165
 20
0.1886597344129091
 10
0.1852305078791394
 20
0.1897187578984818
 10
0.185003464019374
 20
0.1908156035896658
  0
LWPOLYLINE
  5
16C9
330
2
100
AcDbEntity
  8
Profilo
  6
Continuous
370
     0
100
AcDbPolyline
 90
       73
 70
   128
 43
0.0
 10
0.1833006446331744
 20
0.1901726243658151
 10
0.1832628035345447
 20
0.1914207588794434
 10
0.1837168885220635
 20
0.1923663157481827
 10
0.1843980173693485
 20
0.1929336488323492
 10
0.1853440284430165
 20
0.1930849393832557
 10
0.1862521984180549
 20
0.1927823600099048
 10
0.1864035600805618
 20
0.1920259158976829
 10
0.1864792422778212
 20
0.1912694700569988
 10
0.1870846889278468
 20
0.1929336488323492
 10
0.1877658177751318
 20
0.1935766280561999
 10
0.1885604671862939
 20
0.1941061389347551
 10
0.1894307960627017
 20
0.1944087183081062
 10
0.1904903304322589
 20
0.1943330738968838
 10
0.1912092976461617
 20
0.1938792057010887
 10
0.1920039470573238
 20
0.1931227615888669
 10
0.1924201936782248
 20
0.1923284935425717
 10
0.1931013197934979
 20
0.1924041379537939
 10
0.1931770019907581
 20
0.1931605837944779
 10
0.1931391608921276
 20
0.1944087183081062
 10
0.1935175664143998
 20
0.1955433844764391
 10
0.1943878952908085
 20
0.1967915189900673
 10
0.1956744707881199
 20
0.1975857870363622
 10
0.1974908134702087
 20
0.1978883646812512
 10
0.1988530684327667
 20
0.1979261868868622
 10
0.1998369206050645
 20
0.1976614314475846
 10
0.2007450933121149
 20
0.1973588538026956
 10
0.2005180494523495
 20
0.1965267635507895
 10
0.2002153261273367
 20
0.1953920956539945
 10
0.1998369206050645
 20
0.1942196055515886
 10
0.2001396439300773
 20
0.1937279168786445
 10
0.2002531672259664
 20
0.1932362282056999
 10
0.1999882822675714
 20
0.1927445378042938
 10
0.1998747617036942
 20
0.1921772047201276
 10
0.2003666877898427
 20
0.1914964032906654
 10
0.200858613875992
 20
0.1905886703559991
 10
0.2011991782996345
 20
0.1898322245153152
 10
0.2011991782996345
 20
0.1890001342634091
 10
0.2015775810898948
 20
0.1888110232353537
 10
0.2022208688385501
 20
0.1893405358423708
 10
0.203053359348341
 20
0.1897187578984818
 10
0.2038101676608734
 20
0.1897187578984818
 10
0.2046048170720347
 20
0.1894918246648154
 10
0.2053994664831968
 20
0.1891136008802423
 10
0.2054751486804562
 20
0.1885462677960759
 10
0.2049453814956772
 20
0.1881680457399648
 10
0.2040372115206388
 20
0.1871090222543921
 10
0.2026749565580808
 20
0.1860121765632083
 10
0.2025235921635629
 20
0.1855961323014861
 10
0.2028263182205876
 20
0.1849909752832466
 10
0.2030912004469707
 20
0.1845371088159133
 10
0.2030155182497113
 20
0.1839319517976738
 10
0.2027884771219579
 20
0.1834402631247296
 10
0.2029776798830936
 20
0.1830242188630076
 10
0.2033939237719835
 20
0.1827972839008789
 10
0.2035831265331192
 20
0.1824947062559903
 10
0.2036209676317489
 20
0.1819273731718236
 10
0.2038101676608734
 20
0.1812843939479729
 10
0.2043020937470219
 20
0.1808683496862509
 10
0.2045669787054178
 20
0.180490125901678
 10
0.2046048170720347
 20
0.180074081639956
 10
0.2049075431290603
 20
0.1798471484062893
 10
0.2055129897790859
 20
0.1796580373782339
 10
0.2058535542027284
 20
0.1791285247712164
 10
0.2058913925693462
 20
0.178523369481439
 10
0.2056643514415919
 20
0.1778803902575883
 10
0.20524810482069
 20
0.1773887015846438
 10
0.2049075431290603
 20
0.1767457240892551
 10
0.2048697020304306
 20
0.1756867006036826
 10
0.2050210636929366
 20
0.1750058991742207
 10
0.2055508308777156
 20
0.1740603423054814
 10
0.2061184364291115
 20
0.1736821202493701
 10
0.2068374036430143
 20
0.1736442980437591
 10
0.2071779680666568
 20
0.1736064758381481
  0
LWPOLYLINE
  5
16CA
330
2
100
AcDbEntity
  8
Profilo
  6
Continuous
370
     0
100
AcDbPolyline
 90
        6
 70
   128
 43
0.0
 10
0.2043399348456525
 20
0.1733038981932595
 10
0.2035452854344895
 20
0.1742872772676098
 10
0.2031290415456004
 20
0.1756867006036826
 10
0.2032425621094767
 20
0.1768970129116996
 10
0.2035452854344895
 20
0.1776912792295329
 10
0.2042264142817745
 20
0.1785990138926612
  0
LWPOLYLINE
  5
16CB
330
2
100
AcDbEntity
  8
Profilo
  6
Continuous
370
     0
100
AcDbPolyline
 90
        6
 70
   128
 43
0.0
 10
0.2022965510358086
 20
0.1746276771181099
 10
0.2019181455135373
 20
0.1761027448654044
 10
0.2018424660482898
 20
0.1775399904070882
 10
0.2021451893733026
 20
0.1788259471263276
 10
0.2026749565580808
 20
0.1796958595838449
 10
0.2032047210108478
 20
0.1803010148736226
  0
LWPOLYLINE
  5
16CC
330
2
100
AcDbEntity
  8
Profilo
  6
Continuous
370
     0
100
AcDbPolyline
 90
        7
 70
   128
 43
0.0
 10
0.2011613372010048
 20
0.1756867006036826
 10
0.2007829316787326
 20
0.1773130571734218
 10
0.2007829316787326
 20
0.1786368360982722
 10
0.2011613372010048
 20
0.1799606150231225
 10
0.2015019016246473
 20
0.1808305274806399
 10
0.2020316688094255
 20
0.181624793798473
 10
0.2021830304719323
 20
0.1817382604153062
  0
LWPOLYLINE
  5
16CD
330
2
100
AcDbEntity
  8
Profilo
  6
Continuous
370
     0
100
AcDbPolyline
 90
        6
 70
   128
 43
0.0
 10
0.1999126028023239
 20
0.1786368360982722
 10
0.2000639644648299
 20
0.1795823929670117
 10
0.2003666877898427
 20
0.1803766592848446
 10
0.2009342933412395
 20
0.1811331051255287
 10
0.2015775810898948
 20
0.1815113271816395
 10
0.2020695071760432
 20
0.1817004382096952
  0
LWPOLYLINE
  5
16CE
330
2
100
AcDbEntity
  8
Profilo
  6
Continuous
370
     0
100
AcDbPolyline
 90
        5
 70
   128
 43
0.0
 10
0.1993071561522983
 20
0.1791663469768276
 10
0.1992314739550389
 20
0.1809061718918621
 10
0.1996855589425586
 20
0.1822677730223237
 10
0.2005558905509792
 20
0.1833646187135074
 10
0.2010478166371277
 20
0.1838184851808406
  0
LWPOLYLINE
  5
16CF
330
2
100
AcDbEntity
  8
Profilo
  6
Continuous
370
     0
100
AcDbPolyline
 90
        6
 70
   128
 43
0.0
 10
0.1989287506300252
 20
0.1834024409191186
 10
0.1994206767161746
 20
0.1848018642551914
 10
0.2002153261273367
 20
0.1858608877407637
 10
0.2011991782996345
 20
0.1868064446095035
 10
0.2024479126983154
 20
0.1878276441610029
 10
0.2042264142817745
 20
0.1886975566185201
  0
LWPOLYLINE
  5
16D0
330
2
100
AcDbEntity
  8
Profilo
  6
Continuous
370
     0
100
AcDbPolyline
 90
        8
 70
   128
 43
0.0
 10
0.1982097806841114
 20
0.1787124805094942
 10
0.1975664956674681
 20
0.1801875482567892
 10
0.1975664956674681
 20
0.1815113271816395
 10
0.1977935367952215
 20
0.1832889743022854
 10
0.1981719423174937
 20
0.1850287974888578
 10
0.199080112292533
 20
0.186655154058597
 10
0.2002910055925833
 20
0.1880167551890584
 10
0.2011991782996345
 20
0.1888866676465757
  0
LWPOLYLINE
  5
16D1
330
2
100
AcDbEntity
  8
Profilo
  6
Continuous
370
     0
100
AcDbPolyline
 90
        6
 70
   128
 43
0.0
 10
0.1971502490465662
 20
0.1807927052750287
 10
0.1968853668201831
 20
0.1833267965078964
 10
0.1971124079479365
 20
0.1853313751337466
 10
0.1976421751327155
 20
0.1868064446095035
 10
0.1983989834452471
 20
0.1879032885722254
 10
0.1995720383786805
 20
0.1887732010297425
  0
LWPOLYLINE
  5
16D2
330
2
100
AcDbEntity
  8
Profilo
  6
Continuous
370
     0
100
AcDbPolyline
 90
       15
 70
   128
 43
0.0
 10
0.1960907174090209
 20
0.182003017583046
 10
0.1954474296603656
 20
0.1855961323014861
 10
0.1955609502242428
 20
0.1879411107778364
 10
0.1958258324506259
 20
0.1893783580479822
 10
0.1963934407340337
 20
0.1905886703559991
 10
0.1969232079188128
 20
0.1915342254962764
 10
0.1976800162313443
 20
0.1920259158976829
 10
0.1983233039799996
 20
0.1919502714864609
 10
0.1988530684327667
 20
0.1916098699074988
 10
0.1988909095313964
 20
0.1909668924121102
 10
0.1985503451077539
 20
0.1902482687770375
 10
0.1979827395563571
 20
0.1895674690760376
 10
0.1972259312438256
 20
0.1886219122072981
 10
0.197036728482689
 20
0.1876385331329478
 10
0.1967340051576762
 20
0.186276932002486
  0
LWPOLYLINE
  5
16D3
330
2
100
AcDbEntity
  8
Profilo
  6
Continuous
370
     0
100
AcDbPolyline
 90
        8
 70
   128
 43
0.0
 10
0.214363935316074
 20
0.1727839780697518
 10
0.2195941042981859
 20
0.1813101363289906
 10
0.2226849831133473
 20
0.1865567758280506
 10
0.2252432185384148
 20
0.1907271792550502
 10
0.2271612508083232
 20
0.1942697883282942
 10
0.2282086106922376
 20
0.1964970018793259
 10
0.228621414523638
 20
0.1967540944661876
 10
0.2288636700303117
 20
0.1967331587861909
  0
LWPOLYLINE
  5
16D4
330
2
100
AcDbEntity
  8
Profilo
  6
Continuous
370
     0
100
AcDbPolyline
 90
       10
 70
   128
 43
0.0
 10
0.2086174090954502
 20
0.1721492414322132
 10
0.2109696256840561
 20
0.1733746415479751
 10
0.212285730968957
 20
0.1747015824018065
 10
0.2144632683262424
 20
0.1777909387550931
 10
0.2167431768008807
 20
0.1829029682054468
 10
0.2175415898134307
 20
0.1857393283151651
 10
0.2179586814833465
 20
0.1880563816043681
 10
0.2179473234139344
 20
0.1897261429788384
 10
0.2176519217181463
 20
0.1914444588628026
 10
0.2172239561367899
 20
0.1927420296770825
  0
LWPOLYLINE
  5
16D5
330
2
100
AcDbEntity
  8
Profilo
  6
Continuous
370
     0
100
AcDbPolyline
 90
        3
 70
   128
 43
0.0
 10
0.2118941530625298
 20
0.1731052314860131
 10
0.2154157715994165
 20
0.1775671337070932
 10
0.2182987323953096
 20
0.1824203814665992
  0
LWPOLYLINE
  5
16D6
330
2
100
AcDbEntity
  8
Profilo
  6
Continuous
370
     0
100
AcDbPolyline
 90
        5
 70
   128
 43
0.0
 10
0.2192796186686206
 20
0.1851449284743092
 10
0.2207786809691106
 20
0.1883049206359359
 10
0.2213563146728168
 20
0.1910883263267824
 10
0.22104756028821
 20
0.1923755952854171
 10
0.220228180901687
 20
0.1940071288617509
  0
LWPOLYLINE
  5
16D7
330
2
100
AcDbEntity
  8
Profilo
  6
Continuous
370
     0
100
AcDbPolyline
 90
        6
 70
   128
 43
0.0
 10
0.2217833131476548
 20
0.1859010250121049
 10
0.2229718694483083
 20
0.1892199111964663
 10
0.2233564536738903
 20
0.1910235351620872
 10
0.2232334354329932
 20
0.1934833081638188
 10
0.2227348975130159
 20
0.195075111498749
 10
0.2215357076484352
 20
0.1963432821445639
  0
LWPOLYLINE
  5
16D8
330
2
100
AcDbEntity
  8
Profilo
  6
Continuous
370
     0
100
AcDbPolyline
 90
        6
 70
   128
 43
0.0
 10
0.2222326684514453
 20
0.1877590776225713
 10
0.2225187071003694
 20
0.1898113297320867
 10
0.2223911554594595
 20
0.1918032744254099
 10
0.2220559360447281
 20
0.193200882260079
 10
0.2214792725073451
 20
0.1943072060260458
 10
0.2209598282166221
 20
0.1946882520268236
  0
LWPOLYLINE
  5
16D9
330
2
100
AcDbEntity
  8
Profilo
  6
Continuous
370
     0
100
AcDbPolyline
 90
        4
 70
   128
 43
0.0
 10
0.2255657713133621
 20
0.1917090247460431
 10
0.2258487878299915
 20
0.1934493907563557
 10
0.2257121738960999
 20
0.1945056834688574
 10
0.2256771307309657
 20
0.1956252330930828
  0
LWPOLYLINE
  5
16DA
330
2
100
AcDbEntity
  8
Profilo
  6
Continuous
370
     0
100
AcDbPolyline
 90
       73
 70
   128
 43
0.0
 10
0.2274829527966569
 20
0.1953971479962748
 10
0.2272286389337328
 20
0.1966196847736279
 10
0.2265665386980515
 20
0.1974332536064998
 10
0.2257718723232802
 20
0.1978260750516902
 10
0.2248166657650987
 20
0.1977525480940254
 10
0.2240041159581594
 20
0.1972464949426846
 10
0.2240333597132613
 20
0.196475610482743
 10
0.2241361960888977
 20
0.1957223756025654
 10
0.2231592994575413
 20
0.1971994435136646
 10
0.222346989594973
 20
0.1976658247698084
 10
0.2214507551081075
 20
0.1979953899404818
 10
0.2205338572546731
 20
0.1980866311409037
 10
0.2195211880425134
 20
0.1977659502653177
 10
0.2189279089333631
 20
0.1971569099608494
 10
0.2183316068856351
 20
0.1962359869187604
 10
0.2181120931836711
 20
0.1953665407079874
 10
0.2174321095158209
 20
0.1952812349443285
 10
0.2171820833920712
 20
0.1959991660289826
 10
0.216927769529148
 20
0.1972217028063354
 10
0.2162951542023634
 20
0.1982368165443782
 10
0.2151577177907384
 20
0.1992475343718312
 10
0.2137213733930592
 20
0.1997198192550331
 10
0.2118845533003721
 20
0.1995904132386765
 10
0.2105510479349935
 20
0.1993094638789079
 10
0.2096560813085277
 20
0.1988225395756775
 10
0.2088435284417844
 20
0.1983164874679209
 10
0.2092583847416405
 20
0.1975603014114209
 10
0.2098174055975095
 20
0.1965275340948258
 10
0.2104588428697625
 20
0.1954756396109114
 10
0.2102791487371212
 20
0.1949269054482219
 10
0.2102834364762947
 20
0.1944222997555229
 10
0.2106556963322301
 20
0.1940059512336349
 10
0.2108984091215653
 20
0.1934807424668521
 10
0.2105788385752252
 20
0.1927039821907679
 10
0.2103121968797081
 20
0.1917065492049872
 10
0.2101574565094726
 20
0.1908915339570574
 10
0.2103515308438206
 20
0.190082392844479
 10
0.2100276721551646
 20
0.1898102399418842
 10
0.2092786243566076
 20
0.1901751099516651
 10
0.208380878602024
 20
0.1903487329131326
 10
0.2076449431447722
 20
0.1901722171215494
 10
0.2069251395044587
 20
0.1897662009905978
 10
0.2062406224365967
 20
0.1892130669185301
 10
0.2062993506974537
 20
0.1886437290445499
 10
0.2069027222691364
 20
0.1883994997664491
 10
0.2080328484061527
 20
0.1875815032132832
 10
0.2096133573598458
 20
0.186832637069986
 10
0.2098575840735624
 20
0.1864633711496155
 10
0.2097043523143816
 20
0.1858042974736846
 10
0.2095526340764406
 20
0.1853011683249572
 10
0.2097673740308794
 20
0.1847303535006279
 10
0.2101028333899828
 20
0.1843051800734434
 10
0.2100158858271071
 20
0.1838564812503522
 10
0.2096640516468922
 20
0.1835387216530049
 10
0.2095506394570341
 20
0.1832003600251573
 10
0.2096461651549193
 20
0.1826398481000577
 10
0.2096121499058139
 20
0.1819704738428947
 10
0.209230828160039
 20
0.1814511687031701
 10
0.2090614645839208
 20
0.1810215953666079
 10
0.2091217067691593
 20
0.1806082003390399
 10
0.2088802591835615
 20
0.1803169189947125
 10
0.2083356185293983
 20
0.1799918110360394
 10
0.2081279489051973
 20
0.179397470178597
 10
0.2082322988020726
 20
0.1788001798256229
 10
0.2086030447336276
 20
0.1782278884573225
 10
0.2091224912778715
 20
0.1778468447745418
 10
0.209603626460706
 20
0.1773010322964681
 10
0.2098874274860485
 20
0.1762800427422833
 10
0.2098990285596365
 20
0.175582714731713
 10
0.2096044113725597
 20
0.1745396750511794
 10
0.2091406758670633
 20
0.1740394977159811
 10
0.2084503593891673
 20
0.1738350288081973
 10
0.208128009311566
 20
0.1737188174776021
  0
LWPOLYLINE
  5
16DB
330
2
100
AcDbEntity
  8
Profilo
  6
Continuous
370
     0
100
AcDbPolyline
 90
        6
 70
   128
 43
0.0
 10
0.2109583416073759
 20
0.1740865196532944
 10
0.2115017139979969
 20
0.1752281187666618
 10
0.2115800803660575
 20
0.1766860293815282
 10
0.2111874009540111
 20
0.1778364839354831
 10
0.2107077743822314
 20
0.1785382379855562
 10
0.2098337137233708
 20
0.1792620726972687
  0
LWPOLYLINE
  5
16DC
330
2
100
AcDbEntity
  8
Profilo
  6
Continuous
370
     0
100
AcDbPolyline
 90
        6
 70
   128
 43
0.0
 10
0.212636614285679
 20
0.1758503815678074
 10
0.2126605427887185
 20
0.1773730250011616
 10
0.2123989159945223
 20
0.1787882824155951
 10
0.2118046089693433
 20
0.1799681659925152
 10
0.2110865569442595
 20
0.1806905247974631
 10
0.2104302587752738
 20
0.1811554291032582
  0
LWPOLYLINE
  5
16DD
330
2
100
AcDbEntity
  8
Profilo
  6
Continuous
370
     0
100
AcDbPolyline
 90
        7
 70
   128
 43
0.0
 10
0.2134935152115736
 20
0.1771449710768516
 10
0.2134821575453021
 20
0.1788147307705308
 10
0.2131734031606953
 20
0.1801019997291655
 10
0.2124966797191323
 20
0.181301010473405
 10
0.2119626122225275
 20
0.1820674983855506
 10
0.2112622036852407
 20
0.1827162973795451
 10
0.2110885519668075
 20
0.1827913314164722
  0
LWPOLYLINE
  5
16DE
330
2
100
AcDbEntity
  8
Profilo
  6
Continuous
370
     0
100
AcDbPolyline
 90
        6
 70
   128
 43
0.0
 10
0.214019728272369
 20
0.1803049927301845
 10
0.2136520022195878
 20
0.1811891678796902
 10
0.2131723756478081
 20
0.1818909219297631
 10
0.2124439934693418
 20
0.182494118227793
 10
0.2117302322432373
 20
0.1827118702964579
 10
0.2112077658202196
 20
0.1827810301980335
  0
LWPOLYLINE
  5
16DF
330
2
100
AcDbEntity
  8
Profilo
  6
Continuous
370
     0
100
AcDbPolyline
 90
        5
 70
   128
 43
0.0
 10
0.2144849750455835
 20
0.1809611122745889
 10
0.2141527781662882
 20
0.1826706045276696
 10
0.2133936409650028
 20
0.1838887430764355
 10
0.2122914880660254
 20
0.1847523440063568
 10
0.2117072708467154
 20
0.185078957363501
  0
LWPOLYLINE
  5
16E0
330
2
100
AcDbEntity
  8
Profilo
  6
Continuous
370
     0
100
AcDbPolyline
 90
        6
 70
   128
 43
0.0
 10
0.2138649297492856
 20
0.1851686325012471
 10
0.2130601735686444
 20
0.1864147241662135
 10
0.2120404370860509
 20
0.187259197928815
 10
0.2108631807019616
 20
0.1879492053889755
 10
0.2094107048904874
 20
0.188650988930755
 10
0.2074783586967737
 20
0.1890820965202888
  0
LWPOLYLINE
  5
16E1
330
2
100
AcDbEntity
  8
Profilo
  6
Continuous
370
     0
100
AcDbPolyline
 90
        8
 70
   128
 43
0.0
 10
0.2156579432873569
 20
0.1807757121879177
 10
0.2159394458796067
 20
0.182360135351818
 10
0.215630691494999
 20
0.1836474043104528
 10
0.214995298890476
 20
0.1853230693119816
 10
0.2142215384833088
 20
0.1869266497721151
 10
0.2129590892113793
 20
0.1882963323014994
 10
0.211464016552843
 20
0.189337955058682
 10
0.2103779954708029
 20
0.189972055649235
  0
LWPOLYLINE
  5
16E2
330
2
100
AcDbEntity
  8
Profilo
  6
Continuous
370
     0
100
AcDbPolyline
 90
        6
 70
   128
 43
0.0
 10
0.2162030672932085
 20
0.1830456862371848
 10
0.2158695998968501
 20
0.1855716673269629
 10
0.2151812784415021
 20
0.1874680050381883
 10
0.2143220813360367
 20
0.1887788305652269
 10
0.2133303211512851
 20
0.1896689076610001
 10
0.2119867233233732
 20
0.1902412278838006
  0
LWPOLYLINE
  5
16E3
330
2
100
AcDbEntity
  8
Profilo
  6
Continuous
370
     0
100
AcDbPolyline
 90
       15
 70
   128
 43
0.0
 10
0.2169510871757367
 20
0.1844697401087925
 10
0.216738585248021
 20
0.188113794916031
 10
0.2160812595661463
 20
0.1903676214224235
 10
0.2154884634055438
 20
0.1917034488893403
 10
0.2146542200624841
 20
0.1927479933311387
 10
0.2139185253558873
 20
0.193543908585458
 10
0.2130679094452361
 20
0.193845522320722
 10
0.2124600067270617
 20
0.1936219256084122
 10
0.2120242475194072
 20
0.193167351606385
 10
0.2121374163019478
 20
0.1925332815511229
 10
0.2126361976292417
 20
0.1919139098993026
 10
0.213346936319911
 20
0.191384273412226
 10
0.214303410738494
 20
0.190641310895987
 10
0.2147167557706311
 20
0.1897291826302814
 10
0.2153287058804656
 20
0.1884757409231985
  0
LWPOLYLINE
  5
16E4
330
2
100
AcDbEntity
  8
Profilo
  6
Continuous
370
     0
100
AcDbPolyline
 90
       17
 70
   128
 43
0.0
 10
0.2022208688385501
 20
0.1893405358423708
 10
0.2016890034685321
 20
0.1917324057644765
 10
0.2012655416038589
 20
0.1946952126140309
 10
0.2011445517190911
 20
0.1972952256593379
 10
0.2014470236989974
 20
0.1991696545530748
 10
0.2023544423707282
 20
0.2003789626246666
 10
0.2032618610424581
 20
0.2011045467762367
 10
0.2041692769821761
 20
0.2014068755225966
 10
0.2056211474033471
 20
0.2013464087362473
 10
0.2070730150925062
 20
0.2010440817183499
 10
0.2079199388218527
 20
0.20056035952679
 10
0.2085248827816652
 20
0.1997138418025215
 10
0.2087668598191872
 20
0.1986254655751663
 10
0.2090693345311054
 20
0.1965091747214185
 10
0.2093113115686274
 20
0.1940300917918856
 10
0.2093113115686274
 20
0.1915510088623531
 10
0.2093718065110117
 20
0.1901603038886379
  0
LWPOLYLINE
  5
16E5
330
2
100
AcDbEntity
  8
Profilo
  6
Continuous
370
     0
100
AcDbPolyline
 90
        5
 70
   128
 43
0.0
 10
0.2074964769571794
 20
0.17359277604829
 10
0.2070730150925062
 20
0.1778858228136724
 10
0.2064680684006817
 20
0.1831463139621736
 10
0.2058026294984865
 20
0.189313787892831
 10
0.2047742236740007
 20
0.1980208098109082
  0
LWPOLYLINE
  5
16E6
330
2
100
AcDbEntity
  8
Profilo
  6
Continuous
370
     0
100
AcDbPolyline
 90
        3
 70
   128
 43
0.0
 10
0.2023544423707282
 20
0.1997138418025215
 10
0.2047742236740007
 20
0.1978998796951337
 10
0.2065890582854495
 20
0.2003184975667793
  0
LWPOLYLINE
  5
16E7
330
2
100
AcDbEntity
  8
Profilo
  6
Continuous
370
     0
100
AcDbPolyline
 90
        3
 70
   128
 43
0.0
 10
0.2016285085261487
 20
0.1974766225614615
 10
0.2052581777490454
 20
0.1945742807697945
 10
0.2078594438794692
 20
0.1975975526772358
  0
LWPOLYLINE
  5
16E8
330
2
100
AcDbEntity
  8
Profilo
  6
Continuous
370
     0
100
AcDbPolyline
 90
        3
 70
   128
 43
0.0
 10
0.2022334524859604
 20
0.1935463678718643
 10
0.2055606524609637
 20
0.1910672866707936
 10
0.208222410801759
 20
0.1942719537518966
  0
LWPOLYLINE
  5
16E9
330
2
100
AcDbEntity
  8
Profilo
  6
Continuous
370
     0
100
AcDbPolyline
 90
        3
 70
   128
 43
0.0
 10
0.2040482898294211
 20
0.1865928447317497
 10
0.2060446065360084
 20
0.1855044667759322
 10
0.2078594438794692
 20
0.1871974987675455
  0
LWPOLYLINE
  5
16EA
330
2
100
AcDbEntity
  8
Profilo
  6
Continuous
370
     0
100
AcDbPolyline
 90
        3
 70
   128
 43
0.0
 10
0.204290266866944
 20
0.1845370189358892
 10
0.2065285633430651
 20
0.182904452002163
 10
0.208222410801759
 20
0.184476553878002
  0
LWPOLYLINE
  5
16EB
330
2
100
AcDbEntity
  8
Profilo
  6
Continuous
370
     0
100
AcDbPolyline
 90
        6
 70
   128
 43
0.0
 10
0.2056816396137187
 20
0.1796393198631727
 10
0.2062865863055432
 20
0.1806672310326412
 10
0.2061655964207762
 20
0.1815742138147971
 10
0.2056211474033471
 20
0.1820579360063563
 10
0.2049557057691391
 20
0.1824811948684908
 10
0.2039877948870377
 20
0.1824811948684908
  0
LWPOLYLINE
  5
16EC
330
2
100
AcDbEntity
  8
Profilo
  6
Continuous
370
     0
100
AcDbPolyline
 90
        7
 70
   128
 43
0.0
 10
0.208222410801759
 20
0.1802439738989687
 10
0.2076174641099344
 20
0.1806672310326412
 10
0.2073754870724116
 20
0.1814532819705605
 10
0.2076174641099344
 20
0.1823602647527163
 10
0.2084038928968974
 20
0.1827230568285017
 10
0.2091298267414769
 20
0.1826625917706144
 10
0.2093718065110117
 20
0.1823602647527163
  0
LWPOLYLINE
  5
16ED
330
2
100
AcDbEntity
  8
Profilo
  6
Continuous
370
     0
100
AcDbPolyline
 90
        8
 70
   128
 43
0.0
 10
0.1966827350432085
 20
0.1564431553551688
 10
0.1877715326052591
 20
0.1518999721811252
 10
0.1822979875826363
 20
0.1492314402310757
 10
0.1779392472819214
 20
0.1470092304693911
 10
0.174256721931302
 20
0.1453758493514994
 10
0.1719540130962756
 20
0.1445069564067574
 10
0.1716652410195936
 20
0.1441156581967347
 10
0.1716670529417446
 20
0.1438725064948108
  0
LWPOLYLINE
  5
16EE
330
2
100
AcDbEntity
  8
Profilo
  6
Continuous
370
     0
100
AcDbPolyline
 90
       10
 70
   128
 43
0.0
 10
0.1977675984147993
 20
0.1621219338918198
 10
0.1963609414476828
 20
0.1598734133781736
 10
0.1949345720257955
 20
0.1586657812227497
 10
0.1916834786051069
 20
0.1567380407864054
 10
0.1864079275446837
 20
0.1548673754601422
 10
0.183517545490445
 20
0.1542945809148266
 10
0.1811748602068448
 20
0.1540610705978698
 10
0.1795111678123629
 20
0.1542037579131974
 10
0.1778214178501223
 20
0.1546334283730475
 10
0.1765615380058509
 20
0.1551621507339287
  0
LWPOLYLINE
  5
16EF
330
2
100
AcDbEntity
  8
Profilo
  6
Continuous
370
     0
100
AcDbPolyline
 90
        3
 70
   128
 43
0.0
 10
0.1965567815130731
 20
0.1589305563774457
 10
0.1918316540728266
 20
0.1557708824665402
 10
0.1867666389242402
 20
0.153278674949018
  0
LWPOLYLINE
  5
16F0
330
2
100
AcDbEntity
  8
Profilo
  6
Continuous
370
     0
100
AcDbPolyline
 90
        5
 70
   128
 43
0.0
 10
0.183973367764418
 20
0.1525151760910635
 10
0.180705234859694
 20
0.1512693648857222
 10
0.1778850123723537
 20
0.1509124992844237
 10
0.1766260237997397
 20
0.1513215694689978
 10
0.1750640098455518
 20
0.1522667661663493
  0
LWPOLYLINE
  5
16F1
330
2
100
AcDbEntity
  8
Profilo
  6
Continuous
370
     0
100
AcDbPolyline
 90
        6
 70
   128
 43
0.0
 10
0.183022642614997
 20
0.1500787258639766
 10
0.1796205364890904
 20
0.149154958851879
 10
0.1777922466040298
 20
0.148913462408609
 10
0.1753497758114122
 20
0.1492296160656341
 10
0.173802127526284
 20
0.1498518400609037
 10
0.1726322309358785
 20
0.1511470833144974
  0
LWPOLYLINE
  5
16F2
330
2
100
AcDbEntity
  8
Profilo
  6
Continuous
370
     0
100
AcDbPolyline
 90
        6
 70
   128
 43
0.0
 10
0.1811349970778071
 20
0.1497769411423078
 10
0.17906660250532
 20
0.1496532450542656
 10
0.17709086664554
 20
0.1499371127958899
 10
0.1757239632637404
 20
0.1503812466274839
 10
0.1746664361523358
 20
0.1510431601559261
 10
0.1743274372275509
 20
0.1515909723088284
  0
LWPOLYLINE
  5
16F3
330
2
100
AcDbEntity
  8
Profilo
  6
Continuous
370
     0
100
AcDbPolyline
 90
        4
 70
   128
 43
0.0
 10
0.1769350689508684
 20
0.1467649217707077
 10
0.1751778315482291
 20
0.1466197015610238
 10
0.1741355605779162
 20
0.146838993343499
 10
0.1730222379248092
 20
0.146962005759967
  0
LWPOLYLINE
  5
16F4
330
2
100
AcDbEntity
  8
Profilo
  6
Continuous
370
     0
100
AcDbPolyline
 90
       73
 70
   128
 43
0.0
 10
0.1731075473768087
 20
0.145143836779448
 10
0.1719088073718469
 20
0.1454935425319892
 10
0.1711498493283381
 20
0.1462175961599097
 10
0.1708207638909025
 20
0.1470407037530355
 10
0.1709692115252386
 20
0.1479871651004534
 10
0.1715376215660287
 20
0.1487573839046044
 10
0.1723038159941819
 20
0.1486675833140769
 10
0.1730466258253136
 20
0.1485058067408524
 10
0.1716509910607815
 20
0.1495958802458899
 10
0.1712499618692664
 20
0.1504423637817369
 10
0.1709919272703866
 20
0.1513617481425724
 10
0.1709731035991702
 20
0.1522829822603133
 10
0.1713724598357018
 20
0.1532672839181219
 10
0.1720262872283458
 20
0.1538108093861996
 10
0.1729912685031065
 20
0.1543328118008838
 10
0.1738752895839308
 20
0.1544832435376839
 10
0.1740138270186478
 20
0.1551544083766303
 10
0.1733177913577659
 20
0.1554601410435969
 10
0.172119051352805
 20
0.1558098467961384
 10
0.1711568534367398
 20
0.1565203629628542
 10
0.1702387533878458
 20
0.1577337896880599
 10
0.1698809332799476
 20
0.1592028380228772
 10
0.1701544455954647
 20
0.1610237842008921
 10
0.1705394344744597
 20
0.1623310533641864
 10
0.1710952589014019
 20
0.1631849384536315
 10
0.1716636681425649
 20
0.1639551603902047
 10
0.1723848725876502
 20
0.1634820988191967
 10
0.1733704592327054
 20
0.1628435601652274
 10
0.1743686298477423
 20
0.1621213557600889
 10
0.174929800216157
 20
0.1622573225950954
 10
0.175432504560237
 20
0.1622133495095204
 10
0.1758182759667957
 20
0.1618094882537644
 10
0.1763227620099528
 20
0.1615262082172775
 10
0.1771222561663421
 20
0.161783678515546
 10
0.1781375750095089
 20
0.1619710231221478
 10
0.1789622379500999
 20
0.1620611645163759
 10
0.1797536028063211
 20
0.1618040344876832
 10
0.1800503909747659
 20
0.1621054784056515
 10
0.1797455814060092
 20
0.1628809098051671
 10
0.17964312457012
 20
0.163789532372244
 10
0.1798769912001763
 20
0.1645092998494639
 10
0.1803383777034382
 20
0.1651949301243278
 10
0.1809436500709935
 20
0.1658338090478735
 10
0.1815066029827239
 20
0.1657304715302656
 10
0.1817026064706368
 20
0.1651097559540773
 10
0.1824291577014323
 20
0.1639187787269287
 10
0.1830513600093004
 20
0.1622842533091502
 10
0.1834002674452293
 20
0.1620117324681241
 10
0.184069353467069
 20
0.1621126382544087
 10
0.184582859237814
 20
0.162224303770278
 10
0.1851350106782679
 20
0.1619653219205059
 10
0.1855324748277622
 20
0.1615974528206072
 10
0.1859866233025134
 20
0.1616488305922026
 10
0.1863310777124925
 20
0.1619745752951833
 10
0.1866773130219235
 20
0.1620610161796745
 10
0.187228572391092
 20
0.1619216896386313
 10
0.187898547996113
 20
0.1619029380520132
 10
0.1884462431228879
 20
0.1622422228144964
 10
0.188887809271522
 20
0.1623772658031368
 10
0.1892951835760241
 20
0.1622846874809902
 10
0.1896045574029275
 20
0.1625024708443847
 10
0.1899715059825082
 20
0.1630198463046677
 10
0.1905803425924572
 20
0.1631801139246871
 10
0.1911675721724952
 20
0.1630290970810477
 10
0.1917089221862831
 20
0.1626144766298305
 10
0.1920479186229658
 20
0.1620666624127547
 10
0.1925541872094394
 20
0.1615440780236534
 10
0.1935496848537399
 20
0.1611808327457338
 10
0.1942439388155437
 20
0.161114407029679
 10
0.1953069239002447
 20
0.161326052421294
 10
0.1958420342127987
 20
0.1617490003366484
 10
0.1961001783554002
 20
0.1624210910861346
 10
0.1962413896050927
 20
0.1627332993961597
  0
LWPOLYLINE
  5
16F5
330
2
100
AcDbEntity
  8
Profilo
  6
Continuous
370
     0
100
AcDbPolyline
 90
        6
 70
   128
 43
0.0
 10
0.1956521575500583
 20
0.1599406677734727
 10
0.1944713483007891
 20
0.1594887921187036
 10
0.1930117911824904
 20
0.1595253662489788
 10
0.191895795558648
 20
0.1600073377926654
 10
0.1912339500534212
 20
0.1605406865738235
 10
0.1905811234761563
 20
0.1614689840397605
  0
LWPOLYLINE
  5
16F6
330
2
100
AcDbEntity
  8
Profilo
  6
Continuous
370
     0
100
AcDbPolyline
 90
        6
 70
   128
 43
0.0
 10
0.1937617286541728
 20
0.1584063644704035
 10
0.1922419221239844
 20
0.1585023004344133
 10
0.1908516341451625
 20
0.1588744582833099
 10
0.1897221632796793
 20
0.1595597477544735
 10
0.1890585344315099
 20
0.1603324040206679
 10
0.1886467037687174
 20
0.1610232432243503
  0
LWPOLYLINE
  5
16F7
330
2
100
AcDbEntity
  8
Profilo
  6
Continuous
370
     0
100
AcDbPolyline
 90
        7
 70
   128
 43
0.0
 10
0.192403737100105
 20
0.1576539682099085
 10
0.1907400463494877
 20
0.1577966549911127
 10
0.1894810577768746
 20
0.1582057251756868
 10
0.1883390029414089
 20
0.1589746803980196
 10
0.1876169072246654
 20
0.1595673941453346
 10
0.1870252221305755
 20
0.1603166744688078
 10
0.1869640822912659
 20
0.1604956910771473
  0
LWPOLYLINE
  5
16F8
330
2
100
AcDbEntity
  8
Profilo
  6
Continuous
370
     0
100
AcDbPolyline
 90
        6
 70
   128
 43
0.0
 10
0.1892121113633687
 20
0.1573779932264581
 10
0.1883596066678379
 20
0.1578141398634905
 10
0.187697761162612
 20
0.1583474886446483
 10
0.1871537381780879
 20
0.1591210682230848
 10
0.1869928144736246
 20
0.1598497482712819
 10
0.1869649727186857
 20
0.1603760363025424
  0
LWPOLYLINE
  5
16F9
330
2
100
AcDbEntity
  8
Profilo
  6
Continuous
370
     0
100
AcDbPolyline
 90
        5
 70
   128
 43
0.0
 10
0.188521423287824
 20
0.1569658071048623
 10
0.1868433643800431
 20
0.157431464523974
 10
0.1856887247303573
 20
0.1582840828991787
 10
0.1849145097461306
 20
0.1594507614054876
 10
0.1846348706054419
 20
0.1600588633668381
  0
LWPOLYLINE
  5
16FA
330
2
100
AcDbEntity
  8
Profilo
  6
Continuous
370
     0
100
AcDbPolyline
 90
        6
 70
   128
 43
0.0
 10
0.1843757248032229
 20
0.1579149470850396
 10
0.183196807640992
 20
0.1588152421879785
 10
0.1824351766267469
 20
0.159898254943118
 10
0.1818399256463978
 20
0.1611261471042418
 10
0.1812545873091595
 20
0.1626293321072907
 10
0.1809768386116426
 20
0.1645896053604725
  0
LWPOLYLINE
  5
16FB
330
2
100
AcDbEntity
  8
Profilo
  6
Continuous
370
     0
100
AcDbPolyline
 90
        8
 70
   128
 43
0.0
 10
0.1886139682802295
 20
0.1557818885634379
 10
0.1870123094848184
 20
0.1556259091582928
 10
0.1857533209122053
 20
0.156034979342867
 10
0.1841328376013402
 20
0.1568002314571655
 10
0.1825951011596958
 20
0.1576977514267825
 10
0.1813289841022945
 20
0.1590640442184097
 10
0.180408211082665
 20
0.1606364300708343
 10
0.179861515971643
 20
0.1617689713747874
  0
LWPOLYLINE
  5
16FC
330
2
100
AcDbEntity
  8
Profilo
  6
Continuous
370
     0
100
AcDbPolyline
 90
        6
 70
   128
 43
0.0
 10
0.18630814367953
 20
0.1554170388999998
 10
0.1838162265901646
 20
0.1559481981887996
 10
0.1819799185925221
 20
0.1567835759947653
 10
0.1807407512187744
 20
0.1577432360638611
 10
0.1799314572507251
 20
0.1588019469657396
 10
0.1794666152491633
 20
0.1601864062371452
  0
LWPOLYLINE
  5
16FD
330
2
100
AcDbEntity
  8
Profilo
  6
Continuous
370
     0
100
AcDbPolyline
 90
       15
 70
   128
 43
0.0
 10
0.1848296549901587
 20
0.15478337150357
 10
0.1812136129767827
 20
0.1552819020090952
 10
0.1790184856997268
 20
0.1561145046817398
 10
0.1777334354273874
 20
0.1568105564807862
 10
0.1767577606258168
 20
0.1577243911091029
 10
0.1760221913112989
 20
0.1585204222497702
 10
0.1757884325810979
 20
0.1593921304169958
 10
0.1760591615379194
 20
0.1599805580136102
 10
0.1765466088966692
 20
0.1603792040757042
 10
0.1771698103760517
 20
0.160216502126064
 10
0.1777480218723664
 20
0.1596705391959434
 10
0.1782201011028111
 20
0.1589203355602282
 10
0.178885512494297
 20
0.1579083749414198
 10
0.1797622947023729
 20
0.1574245515766532
 10
0.1809637076780701
 20
0.1567158866968925
  0
LWPOLYLINE
  5
16FE
330
2
100
AcDbEntity
  8
Profilo
  6
Continuous
370
     0
100
AcDbPolyline
 90
        8
 70
   128
 43
0.0
 10
0.1992442174684559
 20
0.1693133945863314
 10
0.1927515701959681
 20
0.1769223086769294
 10
0.1887168535931742
 20
0.1814832098837358
 10
0.185541102460304
 20
0.1852049618873057
 10
0.182764585583671
 20
0.1881238453841256
 10
0.1809700316261375
 20
0.1898081906639999
 10
0.1808530854453574
 20
0.1902802364162726
 10
0.1809478575287837
 20
0.1905041656135951
  0
LWPOLYLINE
  5
16FF
330
2
100
AcDbEntity
  8
Profilo
  6
Continuous
370
     0
100
AcDbPolyline
 90
       10
 70
   128
 43
0.0
 10
0.1980721136229242
 20
0.1636519789701947
 10
0.1976335637580897
 20
0.1662677393452059
 10
0.1967782669117364
 20
0.1679294771269051
 10
0.1945130104700725
 20
0.1709551018348729
 10
0.1903557120141039
 20
0.1747031276221393
 10
0.1879048964386047
 20
0.1763389469964898
 10
0.1858301362235215
 20
0.1774516335902918
 10
0.1842385889512021
 20
0.1779568160656273
 10
0.1825130892885385
 20
0.1782068611677725
 10
0.1811467774726161
 20
0.178200813145891
  0
LWPOLYLINE
  5
1700
330
2
100
AcDbEntity
  8
Profilo
  6
Continuous
370
     0
100
AcDbPolyline
 90
        3
 70
   128
 43
0.0
 10
0.1981754826247881
 20
0.1670637648453945
 10
0.1950202014179618
 20
0.1717918267163592
 10
0.1912953723911359
 20
0.1760334214031161
  0
LWPOLYLINE
  5
1701
330
2
100
AcDbEntity
  8
Profilo
  6
Continuous
370
     0
100
AcDbPolyline
 90
        5
 70
   128
 43
0.0
 10
0.1890072847335027
 20
0.1778082310124487
 10
0.1864651893232247
 20
0.180210415261697
 10
0.1839965118344207
 20
0.1816198972203498
 10
0.1826768359511561
 20
0.181724042335484
 10
0.1808719531565535
 20
0.1814489378325939
  0
LWPOLYLINE
  5
1702
330
2
100
AcDbEntity
  8
Profilo
  6
Continuous
370
     0
100
AcDbPolyline
 90
        6
 70
   128
 43
0.0
 10
0.1890618783370286
 20
0.1804230326411136
 10
0.1862727141002232
 20
0.1825790090891972
 10
0.1846762088362466
 20
0.1835021208798409
 10
0.1822988109672874
 20
0.1841452352400517
 10
0.1806308593433288
 20
0.1841629917848335
 10
0.1790541873392142
 20
0.1834143807311728
  0
LWPOLYLINE
  5
1703
330
2
100
AcDbEntity
  8
Profilo
  6
Continuous
370
     0
100
AcDbPolyline
 90
        6
 70
   128
 43
0.0
 10
0.1874336237196088
 20
0.181424564763992
 10
0.1855702067813398
 20
0.1823307844635458
 10
0.1836363391759539
 20
0.1828250204063861
 10
0.1822035466415697
 20
0.1829380923700017
 10
0.1809731713817273
 20
0.1827315256000284
 10
0.180450257986215
 20
0.1823552544123632
  0
LWPOLYLINE
  5
1704
330
2
100
AcDbEntity
  8
Profilo
  6
Continuous
370
     0
100
AcDbPolyline
 90
       73
 70
   128
 43
0.0
 10
0.1817918142067487
 20
0.1887781754526139
 10
0.1805505253326878
 20
0.1889140932365469
 10
0.1795721751679249
 20
0.1885358050884125
 10
0.1789530143580738
 20
0.1879014209567245
 10
0.1787277675906678
 20
0.1869702444556947
 10
0.178957961038722
 20
0.1860410846431699
 10
0.1797001525449655
 20
0.1858306807081984
 10
0.1804482996737713
 20
0.1856957215346286
 10
0.1787416469510727
 20
0.1852230767140064
 10
0.1780470744661073
 20
0.1845946438599666
 10
0.1774566876756083
 20
0.1838441154495969
 10
0.1770865751185751
 20
0.1830002888528279
 10
0.1770786287587152
 20
0.1819380873594254
 10
0.1774745271818308
 20
0.1811856415923461
 10
0.1781661095754874
 20
0.1803339437736573
 10
0.1789251685954056
 20
0.1798565001821644
 10
0.1787961726885481
 20
0.1791834363531926
 10
0.1780361173309606
 20
0.1791675002849045
 10
0.1767948284569005
 20
0.1793034180688373
 10
0.1756339090346755
 20
0.1790154525362697
 10
0.1743211720775282
 20
0.1782460152103229
 10
0.1734281476331532
 20
0.177025914566362
 10
0.1729836114440069
 20
0.175239006189722
 10
0.1728387343433715
 20
0.173883949095736
 10
0.1730252669779251
 20
0.1728823173690974
 10
0.1732554584879402
 20
0.1719531549690108
 10
0.1741028318113846
 20
0.1721140324139465
 10
0.1752577988423232
 20
0.1723265501896032
 10
0.1764564249636562
 20
0.1726115400153554
 10
0.1769227736240202
 20
0.1722710725579011
 10
0.1774040071404936
 20
0.1721192187056804
 10
0.1779150127370928
 20
0.1723446000985762
 10
0.1784895183338131
 20
0.1724131352439313
 10
0.1791295085262616
 20
0.1718691734675528
 10
0.1799957268516321
 20
0.1713073584021587
 10
0.1807230350099376
 20
0.1709083380024272
 10
0.1815525462051433
 20
0.1708428753081208
 10
0.1817113011580131
 20
0.1704507675199451
 10
0.1811328206582576
 20
0.1698511317638709
 10
0.1806902767145813
 20
0.1690509772597051
 10
0.1806307366453419
 20
0.168296514668139
 10
0.1807944493749343
 20
0.1674864748411111
 10
0.1811089837316499
 20
0.1666645325947689
 10
0.181668604257327
 20
0.166544451411347
 10
0.1820873321733076
 20
0.1670428208788859
 10
0.1832145213076286
 20
0.1678648598694616
 10
0.1844151394594968
 20
0.1691366008441435
 10
0.1848418024243301
 20
0.1692547648068392
 10
0.1854212675208773
 20
0.1689053677773593
 10
0.1858528882624322
 20
0.1686055997012024
 10
0.1864621237160016
 20
0.168633438052822
 10
0.1869701503173662
 20
0.1688210930476921
 10
0.1873700199823727
 20
0.1685997454397523
 10
0.1875635045771569
 20
0.1681669381342974
 10
0.1878502593141507
 20
0.1679545172388563
 10
0.188412856897024
 20
0.1678721598658983
 10
0.1890389583560976
 20
0.1676329614205227
 10
0.1894150119934084
 20
0.1671098287759567
 10
0.1897712242911238
 20
0.1668160089819388
 10
0.1901830021849138
 20
0.1667455566158569
 10
0.1903854157983105
 20
0.1664259154306886
 10
0.1905263086229425
 20
0.1658074675032712
 10
0.1910273869252199
 20
0.165426300528537
 10
0.1916276896990316
 20
0.1653409703082904
 10
0.1922865379275196
 20
0.1655167228838463
 10
0.1928094498148614
 20
0.1658929969310379
 10
0.1934772272768965
 20
0.1661819183504249
 10
0.1945359453853248
 20
0.1661363260415858
 10
0.1952027286626645
 20
0.1659318731122976
 10
0.1961036766299493
 20
0.1653293585296238
 10
0.1964360713917994
 20
0.1647337565585063
 10
0.19641721335576
 20
0.1640140422065714
 10
0.1964281252468725
 20
0.1636715577886476
  0
LWPOLYLINE
  5
1705
330
2
100
AcDbEntity
  8
Profilo
  6
Continuous
370
     0
100
AcDbPolyline
 90
        6
 70
   128
 43
0.0
 10
0.1969530404757584
 20
0.1664769899830154
 10
0.1960352265029694
 20
0.1673465413626847
 10
0.1946728876520431
 20
0.1678715913639599
 10
0.1934573957401389
 20
0.1678536410587468
 10
0.1926417752163472
 20
0.1676143430096113
 10
0.1916832678993492
 20
0.1670067391514018
  0
LWPOLYLINE
  5
1706
330
2
100
AcDbEntity
  8
Profilo
  6
Continuous
370
     0
100
AcDbPolyline
 90
        6
 70
   128
 43
0.0
 10
0.1957941228869062
 20
0.1686181854571509
 10
0.1943533972417102
 20
0.1691114655131716
 10
0.1929265603298873
 20
0.1692999822381895
 10
0.1916207733949315
 20
0.1690993667458644
 10
0.190711879067786
 20
0.1686396798351353
 10
0.1900669215107129
 20
0.1681591665161375
  0
LWPOLYLINE
  5
1707
330
2
100
AcDbEntity
  8
Profilo
  6
Continuous
370
     0
100
AcDbPolyline
 90
        7
 70
   128
 43
0.0
 10
0.1948276920469993
 20
0.1698331968255762
 10
0.1932361464977852
 20
0.1703383791649287
 10
0.1919164706145198
 20
0.1704425242800631
 10
0.1905670245891677
 20
0.1701694367376425
 10
0.1896730153330663
 20
0.169898366155691
 10
0.188839532681035
 20
0.1694327279673133
 10
0.1887145097391736
 20
0.169290762161499
  0
LWPOLYLINE
  5
1708
330
2
100
AcDbEntity
  8
Profilo
  6
Continuous
370
     0
100
AcDbPolyline
 90
        6
 70
   128
 43
0.0
 10
0.1919849416404116
 20
0.1713101555794783
 10
0.1910304075033444
 20
0.1712336524679703
 10
0.1902147869795518
 20
0.170994354418835
 10
0.1894160307381591
 20
0.1704880197086869
 10
0.188988371865527
 20
0.1698764815332987
 10
0.1887611458867644
 20
0.1694009580220588
  0
LWPOLYLINE
  5
1709
330
2
100
AcDbEntity
  8
Profilo
  6
Continuous
370
     0
100
AcDbPolyline
 90
        5
 70
   128
 43
0.0
 10
0.1915047040317388
 20
0.1719553836443919
 10
0.1897762258037092
 20
0.1721677077955992
 10
0.1883831209028956
 20
0.1718221509266267
 10
0.1872212036348317
 20
0.1710408085938047
 10
0.1867300428240375
 20
0.1705861140783953
  0
LWPOLYLINE
  5
170A
330
2
100
AcDbEntity
  8
Profilo
  6
Continuous
370
     0
100
AcDbPolyline
 90
        6
 70
   128
 43
0.0
 10
0.1873115099688931
 20
0.172665880779163
 10
0.1858777230348796
 20
0.172285575670559
 10
0.1847594648572119
 20
0.1715767053878325
 10
0.1837394365365137
 20
0.1706702920638297
 10
0.1826231610164113
 20
0.1695057685193479
 10
0.1816160255212873
 20
0.1678012176516486
  0
LWPOLYLINE
  5
170B
330
2
100
AcDbEntity
  8
Profilo
  6
Continuous
370
     0
100
AcDbPolyline
 90
        8
 70
   128
 43
0.0
 10
0.1920434971128593
 20
0.173013650956598
 10
0.1906236102232279
 20
0.1737709895152371
 10
0.1893039343399625
 20
0.1738751346303713
 10
0.1875139351082335
 20
0.1737886493157852
 10
0.1857497343468308
 20
0.1735482930525267
 10
0.1840569705724411
 20
0.1727708876244445
 10
0.182604325602389
 20
0.1716708681639059
 10
0.1816656611331568
 20
0.1708339485956221
  0
LWPOLYLINE
  5
170C
330
2
100
AcDbEntity
  8
Profilo
  6
Continuous
370
     0
100
AcDbPolyline
 90
        6
 70
   128
 43
0.0
 10
0.1900530760833323
 20
0.1742335552525656
 10
0.1875476782153162
 20
0.1746969799964979
 10
0.1855314508506636
 20
0.1746283479709265
 10
0.1840192751843403
 20
0.1742162703295065
 10
0.1828662908109679
 20
0.1735480992920948
 10
0.1819067873712363
 20
0.1724471184976488
  0
LWPOLYLINE
  5
170D
330
2
100
AcDbEntity
  8
Profilo
  6
Continuous
370
     0
100
AcDbPolyline
 90
       15
 70
   128
 43
0.0
 10
0.1889298712250165
 20
0.1753850212833941
 10
0.1853985024478533
 20
0.1763089948041852
 10
0.1830518612558123
 20
0.1763803116239588
 10
0.1815982297509286
 20
0.1762293223614124
 10
0.1803470135825469
 20
0.1757586917777154
 10
0.1793627110264975
 20
0.1753049558726696
 10
0.1788130045460932
 20
0.1745891758379139
 10
0.1788378053855153
 20
0.1739419308125307
 10
0.1791354739516606
 20
0.1733870280867278
 10
0.179773481486543
 20
0.1732987195721038
 10
0.1805166708386263
 20
0.173581692437387
 10
0.1812400154049047
 20
0.1740939784251834
 10
0.1822421815973643
 20
0.1747740516099443
 10
0.1832373977676314
 20
0.1748853029610837
 10
0.1846185946545971
 20
0.1750799673117429
  0
LWPOLYLINE
  5
170E
330
2
100
AcDbEntity
  8
Profilo
  6
Continuous
370
     0
100
AcDbPolyline
 90
       17
 70
   128
 43
0.0
 10
0.1797455814060092
 20
0.1628809098051671
 10
0.1773064224924052
 20
0.163114204233485
 10
0.1743577688189593
 20
0.1636270257352477
 10
0.1718476215392268
 20
0.1643154057335303
 10
0.1701584027076199
 20
0.1651823040639286
 10
0.1692886901765025
 20
0.1664190072502427
 10
0.1688790264316085
 20
0.167506231524684
 10
0.1688719016536595
 20
0.1684626600876562
 10
0.169378061618608
 20
0.16982478564795
 10
0.1701142434885661
 20
0.1711121696881337
 10
0.1708360044562331
 20
0.1717681636419854
 10
0.1718280286182843
 20
0.1720819111741196
 10
0.1729379109383347
 20
0.171975718261923
 10
0.1750440929715182
 20
0.1716094189688588
 10
0.1774766159629291
 20
0.1710734740514976
 10
0.1798343639374975
 20
0.1703073952958072
 10
0.1811756969302633
 20
0.1699351779339242
  0
LWPOLYLINE
  5
170F
330
2
100
AcDbEntity
  8
Profilo
  6
Continuous
370
     0
100
AcDbPolyline
 90
        5
 70
   128
 43
0.0
 10
0.1963528435395396
 20
0.1630319858841038
 10
0.1921390565259093
 20
0.1639558741264533
 10
0.1869490933317497
 20
0.1650061167968284
 10
0.1808778451314215
 20
0.1662791010496369
 10
0.1722791803218291
 20
0.1679916467319451
  0
LWPOLYLINE
  5
1710
330
2
100
AcDbEntity
  8
Profilo
  6
Continuous
370
     0
100
AcDbPolyline
 90
        3
 70
   128
 43
0.0
 10
0.1699212576685269
 20
0.1662134736128873
 10
0.1723941916964522
 20
0.1679542772710389
 10
0.1706547641461134
 20
0.1704276815794923
  0
LWPOLYLINE
  5
1711
330
2
100
AcDbEntity
  8
Profilo
  6
Continuous
370
     0
100
AcDbPolyline
 90
        3
 70
   128
 43
0.0
 10
0.1718246537113508
 20
0.1648317307339704
 10
0.1757065742586663
 20
0.167386878363293
 10
0.173635107251755
 20
0.1707950718652658
  0
LWPOLYLINE
  5
1712
330
2
100
AcDbEntity
  8
Profilo
  6
Continuous
370
     0
100
AcDbPolyline
 90
        3
 70
   128
 43
0.0
 10
0.1757494860088178
 20
0.1641925511376359
 10
0.1791353936754811
 20
0.1665908281333133
 10
0.1769101027276667
 20
0.1701126073375045
  0
LWPOLYLINE
  5
1713
330
2
100
AcDbEntity
  8
Profilo
  6
Continuous
370
     0
100
AcDbPolyline
 90
        3
 70
   128
 43
0.0
 10
0.1829234950835889
 20
0.1637698071980749
 10
0.1845754998191511
 20
0.165332089925813
 10
0.1835261462923867
 20
0.1675812784647559
  0
LWPOLYLINE
  5
1714
330
2
100
AcDbEntity
  8
Profilo
  6
Continuous
370
     0
100
AcDbPolyline
 90
        3
 70
   128
 43
0.0
 10
0.1849534766199525
 20
0.1633646559280095
 10
0.1871978116901323
 20
0.1649889114500493
 10
0.186226081607451
 20
0.1670856623097727
  0
LWPOLYLINE
  5
1715
330
2
100
AcDbEntity
  8
Profilo
  6
Continuous
370
     0
100
AcDbPolyline
 90
        6
 70
   128
 43
0.0
 10
0.1900414230621763
 20
0.1631744577986216
 10
0.1892507602547448
 20
0.1640674383119658
 10
0.1883507804390678
 20
0.1642326431869436
 10
0.1877224892977525
 20
0.1638643197788758
 10
0.1871143134251047
 20
0.1633622413578675
 10
0.186815212513495
 20
0.1624417034062515
  0
LWPOLYLINE
  5
1716
330
2
100
AcDbEntity
  8
Profilo
  6
Continuous
370
     0
100
AcDbPolyline
 90
        7
 70
   128
 43
0.0
 10
0.190251504377251
 20
0.1657777231662003
 10
0.1896620241137388
 20
0.1653331783202248
 10
0.188839670230247
 20
0.1653459475801566
 10
0.1880518533619533
 20
0.1658563545117779
 10
0.187949837454255
 20
0.1667164016510632
 10
0.1882316690363339
 20
0.1673881210338968
 10
0.1885939749778389
 20
0.1675248332841348
  0
LWPOLYLINE
  5
1717
330
2
100
AcDbEntity
  8
Profilo
  6
Continuous
370
     0
100
AcDbPolyline
 90
        8
 70
   128
 43
0.0
 10
0.2093214720275212
 20
0.1474479819300294
 10
0.2108885829962759
 20
0.137569003974054
 10
0.2117350892648462
 20
0.1315387315904561
 10
0.2125016115122831
 20
0.1267066226431968
 10
0.2129170863524896
 20
0.1226995903883483
 10
0.2130318764864283
 20
0.1202410814594479
 10
0.2133147877196899
 20
0.1198455250974302
 10
0.2135465986449896
 20
0.1197721103296931
  0
LWPOLYLINE
  5
1718
330
2
100
AcDbEntity
  8
Profilo
  6
Continuous
370
     0
100
AcDbPolyline
 90
       10
 70
   128
 43
0.0
 10
0.2042558739140388
 20
0.1502345873839874
 10
0.2059596630924707
 20
0.1482019460583019
 10
0.2066674171315546
 20
0.1464722092659922
 10
0.2074961641179716
 20
0.1427845311275873
 10
0.2076450376339576
 20
0.1371891165379211
 10
0.2072966204437829
 20
0.1342631966018666
 10
0.2067947723872425
 20
0.1319630118409689
 10
0.2061449594628995
 20
0.130424839153404
 10
0.2052141571176227
 20
0.1289505669149806
 10
0.2043219879882461
 20
0.1279157341741557
  0
LWPOLYLINE
  5
1719
330
2
100
AcDbEntity
  8
Profilo
  6
Continuous
370
     0
100
AcDbPolyline
 90
        3
 70
   128
 43
0.0
 10
0.2069168912953323
 20
0.1480968421921522
 10
0.2084617750780433
 20
0.1426265860146285
 10
0.209266829519863
 20
0.1370393358760082
  0
LWPOLYLINE
  5
171A
330
2
100
AcDbEntity
  8
Profilo
  6
Continuous
370
     0
100
AcDbPolyline
 90
        5
 70
   128
 43
0.0
 10
0.2091297918256219
 20
0.1341468430153863
 10
0.2093047200830993
 20
0.1306536870859967
 10
0.2087726227621491
 20
0.1278612185764998
 10
0.2079945250328272
 20
0.1267902589295005
 10
0.2066129006973352
 20
0.1255967772223341
  0
LWPOLYLINE
  5
171B
330
2
100
AcDbEntity
  8
Profilo
  6
Continuous
370
     0
100
AcDbPolyline
 90
        6
 70
   128
 43
0.0
 10
0.2111532034625707
 20
0.1324897451407048
 10
0.2109804494893925
 20
0.1289686902349529
 10
0.2106451536102991
 20
0.1271552567210374
 10
0.2095897086314515
 20
0.1249300258107122
 10
0.2085196888247349
 20
0.1236504026130543
 10
0.2069263213601209
 20
0.1229380170145682
  0
LWPOLYLINE
  5
171C
330
2
100
AcDbEntity
  8
Profilo
  6
Continuous
370
     0
100
AcDbPolyline
 90
        6
 70
   128
 43
0.0
 10
0.2108569032382848
 20
0.1306012309444664
 10
0.2103353761348865
 20
0.1285958466146908
 10
0.20945486591238
 20
0.1268045301070853
 10
0.2086100731630909
 20
0.1256417726404184
 10
0.2076537621392056
 20
0.1248405471190539
 10
0.2070280053926492
 20
0.1246874232475916
  0
LWPOLYLINE
  5
171D
330
2
100
AcDbEntity
  8
Profilo
  6
Continuous
370
     0
100
AcDbPolyline
 90
        4
 70
   128
 43
0.0
 10
0.2124236547224747
 20
0.1256760967581594
 10
0.2120187511286256
 20
0.1239599891629823
 10
0.2114881128073627
 20
0.1230364954524328
 10
0.2110270854270624
 20
0.1220156756156645
  0
LWPOLYLINE
  5
171E
330
2
100
AcDbEntity
  8
Profilo
  6
Continuous
370
     0
100
AcDbPolyline
 90
       73
 70
   128
 43
0.0
 10
0.2127826289541597
 20
0.1215349646122636
 10
0.2120796079860492
 20
0.1205029601397674
 10
0.2111564611316066
 20
0.1200048930227604
 10
0.210271946298783
 20
0.1199462684075436
 10
0.2094176809086843
 20
0.1203799231383795
 10
0.2088608076584011
 20
0.1211585239114701
 10
0.209182980194484
 20
0.1218594682065361
 10
0.2095663797200418
 20
0.1225159306263841
 10
0.2080983833496539
 20
0.1215254543273825
 10
0.2071694048315313
 20
0.1214056306996023
 10
0.2062152812679887
 20
0.1214443306047686
 10
0.2053333187229755
 20
0.1217111052277775
 10
0.2045206000812145
 20
0.1223950815187085
 10
0.2042057204187415
 20
0.1231848669275268
 10
0.2040074622338892
 20
0.1242639262742331
 10
0.204137570687708
 20
0.1251511662468574
 10
0.2035420654158049
 20
0.1254903245181576
 10
0.2030362095227378
 20
0.1249228318571305
 10
0.2023331885546273
 20
0.1238908273846342
 10
0.2013601120163226
 20
0.123195284356888
 10
0.1999223661046248
 20
0.1226970888022942
 10
0.198414645618775
 20
0.1228107425580327
 10
0.1967673428440166
 20
0.1236335715428412
 10
0.1956430240939682
 20
0.1244036861125908
 10
0.1950026903092983
 20
0.1251961715596321
 10
0.1944458138328064
 20
0.1259747725402041
 10
0.1951185865524723
 20
0.1265144946624559
 10
0.196030435922987
 20
0.1272545239679672
 10
0.1970257448119232
 20
0.1279806672011727
 10
0.1970698438480696
 20
0.1285563879994938
 10
0.1972670089231148
 20
0.1290208998109625
 10
0.1977703137226507
 20
0.1292629902295723
 10
0.1981956238080489
 20
0.1296552466228555
 10
0.1981978122843557
 20
0.1304951734477409
 10
0.1983333877527018
 20
0.1315186917168962
 10
0.1985024930556074
 20
0.1323308480030063
 10
0.1989915834342541
 20
0.1330040231576521
 10
0.1987966058195516
 20
0.1333794367727139
 10
0.1979649353973087
 20
0.1333291671265413
 10
0.1970691230805572
 20
0.1335125046998289
 10
0.1964568522942347
 20
0.1339573454647476
 10
0.1959473554240389
 20
0.134608021511996
 10
0.1955267849084778
 20
0.1353810941860163
 10
0.1957990267447345
 20
0.1358845611719879
 10
0.1964499307469554
 20
0.135879159904668
 10
0.1978071340771938
 20
0.1362021189840359
 10
0.1995539312138934
 20
0.1362887724115569
 10
0.1999209322627431
 20
0.1365363895308822
 10
0.2000317241086122
 20
0.1372039097547073
 10
0.2000842059019696
 20
0.1377267893062188
 10
0.2005011364563662
 20
0.1381718867388302
 10
0.2009738239378169
 20
0.1384362198046261
 10
0.2010653003700158
 20
0.1388840172754604
 10
0.2008619410140682
 20
0.1393122735356862
 10
0.2008867234422658
 20
0.139668274585208
 10
0.201189579370399
 20
0.1401494991314751
 10
0.2014144470368118
 20
0.1407808892374527
 10
0.2012610151544818
 20
0.1414066230142543
 10
0.2012690330842242
 20
0.1418683079557492
 10
0.2014829658839323
 20
0.1422271356677633
 10
0.2013714433671625
 20
0.142588666422192
 10
0.2009927834114418
 20
0.1430975330696476
 10
0.201028500706343
 20
0.1437260965131331
 10
0.2013535901793881
 20
0.1442379182606677
 10
0.2019152040154726
 20
0.1446246479532351
 10
0.2025409619563092
 20
0.1447777688205065
 10
0.2031944148418168
 20
0.1450977714014405
 10
0.2038475073203454
 20
0.1459322969590056
 10
0.2041252182030577
 20
0.1465720450382189
 10
0.2042524119301587
 20
0.1476484059525385
 10
0.2040155227396516
 20
0.1482880241958095
 10
0.2034560973798731
 20
0.1487412213281274
 10
0.2032028063081341
 20
0.1489719988809042
  0
LWPOLYLINE
  5
171F
330
2
100
AcDbEntity
  8
Profilo
  6
Continuous
370
     0
100
AcDbPolyline
 90
        6
 70
   128
 43
0.0
 10
0.2056766740918663
 20
0.1475486352649145
 10
0.205741543252751
 20
0.1462859816772282
 10
0.2052557312340095
 20
0.1449091623967744
 10
0.2044524874433016
 20
0.1439967248843661
 10
0.2037407211007576
 20
0.1435320862411469
 10
0.2026561232399633
 20
0.143198070963638
  0
LWPOLYLINE
  5
1720
330
2
100
AcDbEntity
  8
Profilo
  6
Continuous
370
     0
100
AcDbPolyline
 90
        6
 70
   128
 43
0.0
 10
0.2065517085907373
 20
0.145276604749716
 10
0.2059908220210289
 20
0.1438608286889229
 10
0.2052072562612146
 20
0.1426535893470373
 10
0.2042064815520304
 20
0.1417911648131094
 10
0.2032665691831674
 20
0.141398780189721
 10
0.2024822793831857
 20
0.1412205870085799
  0
LWPOLYLINE
  5
1721
330
2
100
AcDbEntity
  8
Profilo
  6
Continuous
370
     0
100
AcDbPolyline
 90
        7
 70
   128
 43
0.0
 10
0.2068476374886927
 20
0.1437525748021491
 10
0.2061978255803147
 20
0.1422144035129393
 10
0.2054197278509919
 20
0.14114344386594
 10
0.2043354936233861
 20
0.1402949054043181
 10
0.2035486495036656
 20
0.1397913101882406
 10
0.2026532008201025
 20
0.1394601245774156
 10
0.2024640526588355
 20
0.139457296309087
  0
LWPOLYLINE
  5
1722
330
2
100
AcDbEntity
  8
Profilo
  6
Continuous
370
     0
100
AcDbPolyline
 90
        6
 70
   128
 43
0.0
 10
0.2061238387027018
 20
0.1406318773877424
 10
0.2054456001627889
 20
0.1399558739647679
 10
0.2047338338202449
 20
0.1394912353215489
 10
0.203830003573751
 20
0.1392128879533414
 10
0.2030872595061428
 20
0.1392850149339404
 10
0.2025781262691346
 20
0.139421167797076
  0
LWPOLYLINE
  5
1723
330
2
100
AcDbEntity
  8
Profilo
  6
Continuous
370
     0
100
AcDbPolyline
 90
        5
 70
   128
 43
0.0
 10
0.2063024166464169
 20
0.1398476214763498
 10
0.2053410014035428
 20
0.13839558867344
 10
0.2041733098677589
 20
0.1375609346782878
 10
0.2028244870844862
 20
0.1371851359579468
 10
0.2021597345048072
 20
0.1371070971713535
  0
LWPOLYLINE
  5
1724
330
2
100
AcDbEntity
  8
Profilo
  6
Continuous
370
     0
100
AcDbPolyline
 90
        6
 70
   128
 43
0.0
 10
0.2041186395980965
 20
0.13619812830189
 10
0.2028981026357677
 20
0.1353551179393384
 10
0.2016327393709174
 20
0.1349654331466918
 10
0.2002810018609269
 20
0.1347787553680462
 10
0.1986705084749136
 20
0.1346865752398101
 10
0.1967203487560578
 20
0.1350281782799965
  0
LWPOLYLINE
  5
1725
330
2
100
AcDbEntity
  8
Profilo
  6
Continuous
370
     0
100
AcDbPolyline
 90
        8
 70
   128
 43
0.0
 10
0.2074569880653989
 20
0.1395697860451717
 10
0.2071103935080973
 20
0.1379983177239521
 10
0.2063322957787745
 20
0.1369273580769528
 10
0.2051037408867042
 20
0.1356226627729062
 10
0.2037749619777571
 20
0.1344375374331388
 10
0.2020842886275078
 20
0.1336555962472092
 10
0.2003043263054023
 20
0.1332657830169757
 10
0.1990582774382563
 20
0.1330958195789644
  0
LWPOLYLINE
  5
1726
330
2
100
AcDbEntity
  8
Profilo
  6
Continuous
370
     0
100
AcDbPolyline
 90
        6
 70
   128
 43
0.0
 10
0.2070914417276155
 20
0.1372640717868485
 10
0.2058162344956242
 20
0.1350582550478994
 10
0.2044542926115138
 20
0.1335699682995834
 10
0.2031586778720094
 20
0.1326880013641738
 10
0.2019016983803326
 20
0.1322454767230727
 10
0.2004413552905353
 20
0.1322312071513241
  0
LWPOLYLINE
  5
1727
330
2
100
AcDbEntity
  8
Profilo
  6
Continuous
370
     0
100
AcDbPolyline
 90
       15
 70
   128
 43
0.0
 10
0.2072372171031471
 20
0.1356621314902751
 10
0.2056456679827887
 20
0.1323771255686781
 10
0.2041754841520591
 20
0.1305467238431464
 10
0.2031163971801178
 20
0.1295396602427417
 10
0.2019457887073726
 20
0.1288941287951211
 10
0.2009614146851399
 20
0.1284405479558794
 10
0.2000601355321763
 20
0.1284876028300892
 10
0.1995841674805758
 20
0.1289269154959374
 10
0.1993556620632431
 20
0.1295136938907546
 10
0.1997029806607111
 20
0.1300561160512299
 10
0.2004008994417621
 20
0.1304373160388907
 10
0.2012602660029561
 20
0.1306544643945349
 10
0.2024283211719275
 20
0.1309745952055745
 10
0.2031594051383854
 20
0.1316589549959477
 10
0.2042046425169044
 20
0.1325825771440841
  0
LWPOLYLINE
  5
1728
330
2
100
AcDbEntity
  8
Profilo
  6
Continuous
370
     0
100
AcDbPolyline
 90
        8
 70
   128
 43
0.0
 10
0.1978726887406408
 20
0.1538612191260362
 10
0.1886298430671669
 20
0.1500376283922651
 10
0.1830453722565055
 20
0.1476097808583416
 10
0.1785244146915135
 20
0.1457395466672462
 10
0.174890400621508
 20
0.1440009068042383
 10
0.1727339453971917
 20
0.1428146758849593
 10
0.1722488648512144
 20
0.1428493236172472
 10
0.1720651817132834
 20
0.1430086551522625
  0
LWPOLYLINE
  5
1729
330
2
100
AcDbEntity
  8
Profilo
  6
Continuous
370
     0
100
AcDbPolyline
 90
       10
 70
   128
 43
0.0
 10
0.2028948149463812
 20
0.1509970084883629
 10
0.2002715596355458
 20
0.1513882371907831
 10
0.1984268518291285
 20
0.1510883067664315
 10
0.1948493089976599
 20
0.1498688893198707
 10
0.1900000487758557
 20
0.1470732671967585
 10
0.1876869484374897
 20
0.1452478990598445
 10
0.1859875844361456
 20
0.1436185239044376
 10
0.1850153121965619
 20
0.1422609824702454
 10
0.1842442964532482
 20
0.1406972029581275
 10
0.1838278348931341
 20
0.13939589426076
  0
LWPOLYLINE
  5
172A
330
2
100
AcDbEntity
  8
Profilo
  6
Continuous
370
     0
100
AcDbPolyline
 90
        3
 70
   128
 43
0.0
 10
0.1996819565358363
 20
0.1521496180677735
 10
0.1942102669690673
 20
0.1506098187838618
 10
0.1890252352323145
 20
0.1483780207072725
  0
LWPOLYLINE
  5
172B
330
2
100
AcDbEntity
  8
Profilo
  6
Continuous
370
     0
100
AcDbPolyline
 90
        5
 70
   128
 43
0.0
 10
0.1866302330173468
 20
0.14675036636169
 10
0.1835600693506594
 20
0.1450750057133385
 10
0.181456709051611
 20
0.143162707779469
 10
0.1809498588862262
 20
0.1419398040417497
 10
0.1806537593599753
 20
0.1401382465321717
  0
LWPOLYLINE
  5
172C
330
2
100
AcDbEntity
  8
Profilo
  6
Continuous
370
     0
100
AcDbPolyline
 90
        6
 70
   128
 43
0.0
 10
0.1841602792408601
 20
0.1476103061042477
 10
0.1812479246416547
 20
0.1456238866437465
 10
0.179876645899717
 20
0.1443907771401591
 10
0.1785303514528165
 20
0.142328470671691
 10
0.1779980385775959
 20
0.1407476414849587
 10
0.178222791554524
 20
0.1390168037636275
  0
LWPOLYLINE
  5
172D
330
2
100
AcDbEntity
  8
Profilo
  6
Continuous
370
     0
100
AcDbPolyline
 90
        6
 70
   128
 43
0.0
 10
0.1827046072411651
 20
0.1463712343865453
 10
0.1812669135891784
 20
0.1448790568526288
 10
0.1801992693202168
 20
0.1431925667704426
 10
0.1796489742498721
 20
0.1418648412524628
 10
0.179465224057755
 20
0.1406308522017061
 10
0.1796614900968789
 20
0.1400172578179639
  0
LWPOLYLINE
  5
172E
330
2
100
AcDbEntity
  8
Profilo
  6
Continuous
370
     0
100
AcDbPolyline
 90
       73
 70
   128
 43
0.0
 10
0.1739674928589538
 20
0.1432779453584445
 10
0.1734546480078505
 20
0.1421394103912377
 10
0.1735120945888093
 20
0.1410920466252774
 10
0.173924098538591
 20
0.14030715422478
 10
0.1747400949386595
 20
0.1398051824552833
 10
0.1756949121204832
 20
0.1397369832615032
 10
0.1761243679424016
 20
0.1403778309382659
 10
0.1764839119209531
 20
0.1410476564620837
 10
0.1764060391626891
 20
0.1392784779872334
 10
0.1767890796218978
 20
0.1384237038676459
 10
0.1773204350057265
 20
0.1376302866298416
 10
0.1780085907192515
 20
0.1370175319120055
 10
0.1790163488109302
 20
0.1366817361617676
 10
0.1798543066016585
 20
0.1368257394074899
 10
0.1808780300746875
 20
0.1372202842494852
 10
0.1815666680504284
 20
0.1377946540930046
 10
0.182166927863431
 20
0.137463983533761
 10
0.1819472139428608
 20
0.1367362034172577
 10
0.1814343690917575
 20
0.1355976684500508
 10
0.1813494967574067
 20
0.1344045822252931
 10
0.1816756171112264
 20
0.1329183259781921
 10
0.1825600420494977
 20
0.1316919774273266
 10
0.1841221236680619
 20
0.1307170133321376
 10
0.1853660900610574
 20
0.1301604913511263
 10
0.1863763401956877
 20
0.1300283732030838
 10
0.1873311592395419
 20
0.1299601713665186
 10
0.1874400084547352
 20
0.130815785152012
 10
0.1875947964798712
 20
0.1319798956771763
 10
0.1876941508904055
 20
0.1332079235598536
 10
0.18816206434576
 20
0.1335462372617733
 10
0.1884551952762923
 20
0.133956992112477
 10
0.1883987542474967
 20
0.1345126339956064
 10
0.1885111054436619
 20
0.1350801998116424
 10
0.1892262116814018
 20
0.1355207732213441
 10
0.1900282057436762
 20
0.1361709854013198
 10
0.1906324472760392
 20
0.1367393924800109
 10
0.1909510390543767
 20
0.1375080754225126
 10
0.1913730136997893
 20
0.1375378923847612
 10
0.191764540887668
 20
0.1368024270968568
 10
0.1923887794435446
 20
0.1361342814555635
 10
0.1930879171143127
 20
0.1358445137223187
 10
0.1939089007859058
 20
0.1357498977079259
 10
0.1947878107768481
 20
0.1357950435349646
 10
0.195074947021661
 20
0.1362901671561807
 10
0.1947303635340933
 20
0.1368424057041759
 10
0.1942968785938372
 20
0.1381684502935951
 10
0.1934583924655087
 20
0.1397032955841317
 10
0.1934778579657994
 20
0.1401455908496936
 10
0.193989218849941
 20
0.1405887252858375
 10
0.1944076933764123
 20
0.1409065875747579
 10
0.1945694816394301
 20
0.1414946074465788
 10
0.1945479999871598
 20
0.1420357580387517
 10
0.1948820805940796
 20
0.1423476565168078
 10
0.1953534948301705
 20
0.1423979264888047
 10
0.1956441311939256
 20
0.1426050047833489
 10
0.1958963099242448
 20
0.1431146170527362
 10
0.1963172771554635
 20
0.1436361585406012
 10
0.1969310128306905
 20
0.1438321499253592
 10
0.1973205277140071
 20
0.1440801326426511
 10
0.1975147782629465
 20
0.1444499857133923
 10
0.1978813243414095
 20
0.1445437179410816
 10
0.1985130415499654
 20
0.1444866040603385
 10
0.199030394595999
 20
0.1448453707720065
 10
0.1992970522168802
 20
0.1453899241486005
 10
0.1993334968839582
 20
0.1460708365822048
 10
0.1991372276592136
 20
0.1466844304152344
 10
0.1990688016448381
 20
0.1474088061505674
 10
0.1994393243950094
 20
0.1484016181082637
 10
0.1998398180499476
 20
0.1489725872594343
 10
0.2006912517029002
 20
0.1496432524491582
 10
0.2013604184689024
 20
0.1497753275224394
 10
0.2020390800395653
 20
0.1495349884985364
 10
0.2023681740367555
 20
0.1494395328182376
  0
LWPOLYLINE
  5
172F
330
2
100
AcDbEntity
  8
Profilo
  6
Continuous
370
     0
100
AcDbPolyline
 90
        6
 70
   128
 43
0.0
 10
0.1998622571936099
 20
0.1508056830917976
 10
0.1987516445724555
 20
0.1502014962860303
 10
0.1978313064903281
 20
0.149068084417745
 10
0.1974727705877672
 20
0.14790653596506
 10
0.1974483159539213
 20
0.1470568875871798
 10
0.1977299865124129
 20
0.1459575330393983
  0
LWPOLYLINE
  5
1730
330
2
100
AcDbEntity
  8
Profilo
  6
Continuous
370
     0
100
AcDbPolyline
 90
        6
 70
   128
 43
0.0
 10
0.1974677340552366
 20
0.1503651527568579
 10
0.1965533881350021
 20
0.1491473731640971
 10
0.1959331812212888
 20
0.1478486254931723
 10
0.1957204675385995
 20
0.1465447547233256
 10
0.1958767919773256
 20
0.1455382937833636
 10
0.1961344844547383
 20
0.1447764159143809
  0
LWPOLYLINE
  5
1731
330
2
100
AcDbEntity
  8
Profilo
  6
Continuous
370
     0
100
AcDbPolyline
 90
        7
 70
   128
 43
0.0
 10
0.1960135460225034
 20
0.1498214815702183
 10
0.1950412744447156
 20
0.1484639417327749
 10
0.1945344242793316
 20
0.1472410379950555
 10
0.1943771442112441
 20
0.1458732498676958
 10
0.1943586836013207
 20
0.1449392311225541
 10
0.194543971530619
 20
0.1440026519016821
 10
0.1946403548216082
 20
0.1438398781715218
  0
LWPOLYLINE
  5
1732
330
2
100
AcDbEntity
  8
Profilo
  6
Continuous
370
     0
100
AcDbPolyline
 90
        6
 70
   128
 43
0.0
 10
0.1937304165889033
 20
0.1475742706267782
 10
0.1935082081015551
 20
0.1466428139541156
 10
0.1934837534677092
 20
0.1457931655762357
 10
0.1937184771402691
 20
0.1448770372176502
 10
0.1941679306474961
 20
0.1442813337711772
 10
0.194549963692511
 20
0.143918284177206
  0
LWPOLYLINE
  5
1733
330
2
100
AcDbEntity
  8
Profilo
  6
Continuous
370
     0
100
AcDbPolyline
 90
        5
 70
   128
 43
0.0
 10
0.1929683666508532
 20
0.1473169239569858
 10
0.1922323052364128
 20
0.1457386552459836
 10
0.1921304562591013
 20
0.1443069508071471
 10
0.1925145047942989
 20
0.1429604537586924
 10
0.1927951679385966
 20
0.142352823736527
  0
LWPOLYLINE
  5
1734
330
2
100
AcDbEntity
  8
Profilo
  6
Continuous
370
     0
100
AcDbPolyline
 90
        6
 70
   128
 43
0.0
 10
0.1909968754948883
 20
0.1435485151085256
 10
0.1909155026176838
 20
0.1420673819603468
 10
0.1912441175382806
 20
0.1407848022694056
 10
0.1917909617506908
 20
0.1395346005671554
 10
0.1925535413499331
 20
0.1381131018941868
 10
0.193863443576384
 20
0.1366285239328615
  0
LWPOLYLINE
  5
1735
330
2
100
AcDbEntity
  8
Profilo
  6
Continuous
370
     0
100
AcDbPolyline
 90
        8
 70
   128
 43
0.0
 10
0.1921283908461149
 20
0.1481563692117835
 10
0.1909693498958935
 20
0.1470400070181128
 10
0.1904624997305095
 20
0.1458171032803934
 10
0.1899916119699876
 20
0.1440879874149226
 10
0.1896750363436297
 20
0.1423358586146866
 10
0.1898913000680622
 20
0.1404857131077086
 10
0.1904885887615188
 20
0.1387642409356269
 10
0.1909944832975414
 20
0.1376128956060245
  0
LWPOLYLINE
  5
1736
330
2
100
AcDbEntity
  8
Profilo
  6
Continuous
370
     0
100
AcDbPolyline
 90
        6
 70
   128
 43
0.0
 10
0.1903531189920935
 20
0.1466403374804464
 10
0.1891381653506769
 20
0.1444007686336461
 10
0.1885803897656215
 20
0.1424620139979009
 10
0.1885050109123396
 20
0.1408965104824607
 10
0.1887841875658491
 20
0.139593480975269
 10
0.1895347796556841
 20
0.13834071720054
  0
LWPOLYLINE
  5
1737
330
2
100
AcDbEntity
  8
Profilo
  6
Continuous
370
     0
100
AcDbPolyline
 90
       15
 70
   128
 43
0.0
 10
0.1889109203307981
 20
0.1459279287527817
 10
0.1869409163274165
 20
0.142854920986097
 10
0.1861479379932085
 20
0.1406451706982941
 10
0.1858423404766762
 20
0.1392160267351874
 10
0.185903289700402
 20
0.1378806165965192
 10
0.1860306519721471
 20
0.136804277130965
 10
0.1865415305940727
 20
0.1360602870057534
 10
0.1871647610739586
 20
0.1358838642933273
 10
0.1877844895728744
 20
0.1359954895503583
 10
0.1880656311319697
 20
0.1365749819420867
 10
0.1880261660843398
 20
0.1373692404425459
 10
0.1877624789212078
 20
0.1382154870820411
 10
0.187425377271941
 20
0.1393787579412997
 10
0.187627109659183
 20
0.1403596433233039
 10
0.1878687861706485
 20
0.1417333942154919
  0
LWPOLYLINE
  5
1738
330
2
100
AcDbEntity
  8
Profilo
  6
Continuous
370
     0
100
AcDbPolyline
 90
       17
 70
   128
 43
0.0
 10
0.1979649353973087
 20
0.1333291671265413
 10
0.196989317654757
 20
0.1310814810905221
 10
0.1955904113281876
 20
0.128435615359219
 10
0.1941600448773126
 20
0.1262610445500261
 10
0.1928135782450369
 20
0.1249223882892658
 10
0.191368647668634
 20
0.1244774048208115
 10
0.1902080428786013
 20
0.1244237622242399
 10
0.1892962235839475
 20
0.124712538837608
 10
0.18815717722486
 20
0.1256148455171637
 10
0.1871602949532365
 20
0.1267128196284692
 10
0.1867594440336608
 20
0.1276019683799237
 10
0.1867676047236575
 20
0.1286423927429376
 10
0.1872115726834389
 20
0.1296651381411911
 10
0.1882107900545229
 20
0.1315550435817701
 10
0.1894721949041083
 20
0.1337028943362759
 10
0.190929363289297
 20
0.1357085145567325
 10
0.191697857726675
 20
0.1368691765496013
  0
LWPOLYLINE
  5
1739
330
2
100
AcDbEntity
  8
Profilo
  6
Continuous
370
     0
100
AcDbPolyline
 90
        5
 70
   128
 43
0.0
 10
0.2029531797372801
 20
0.1491702970722921
 10
0.2007723780061763
 20
0.1454482446424883
 10
0.1981697510436495
 20
0.140836839160714
 10
0.1950829522039052
 20
0.1354561127654357
 10
0.1907970909181946
 20
0.1278075022863119
  0
LWPOLYLINE
  5
173A
330
2
100
AcDbEntity
  8
Profilo
  6
Continuous
370
     0
100
AcDbPolyline
 90
        3
 70
   128
 43
0.0
 10
0.1917595958788833
 20
0.1250154988692396
 10
0.1908681718568053
 20
0.1279053368051051
 10
0.1879783118982789
 20
0.1270153668640042
  0
LWPOLYLINE
  5
173B
330
2
100
AcDbEntity
  8
Profilo
  6
Continuous
370
     0
100
AcDbPolyline
 90
        3
 70
   128
 43
0.0
 10
0.1936618931719804
 20
0.1263987540474156
 10
0.1924313827889508
 20
0.1308802639202777
 10
0.1885498796416822
 20
0.1299633714372921
  0
LWPOLYLINE
  5
173C
330
2
100
AcDbEntity
  8
Profilo
  6
Continuous
370
     0
100
AcDbPolyline
 90
        3
 70
   128
 43
0.0
 10
0.1954826289721465
 20
0.1299339740215628
 10
0.1942480350179103
 20
0.133895271920399
 10
0.1902109712365076
 20
0.1328671840883588
  0
LWPOLYLINE
  5
173D
330
2
100
AcDbEntity
  8
Profilo
  6
Continuous
370
     0
100
AcDbPolyline
 90
        3
 70
   128
 43
0.0
 10
0.1981015730724946
 20
0.1366262270384906
 10
0.19712625144206
 20
0.1386801488200871
 10
0.1946628779528447
 20
0.1383771917926473
  0
LWPOLYLINE
  5
173E
330
2
100
AcDbEntity
  8
Profilo
  6
Continuous
370
     0
100
AcDbPolyline
 90
        3
 70
   128
 43
0.0
 10
0.1991141936209795
 20
0.1384316555788654
 10
0.1982629725003724
 20
0.1410680676316269
 10
0.1959685628226904
 20
0.1407918290530377
  0
LWPOLYLINE
  5
173F
330
2
100
AcDbEntity
  8
Profilo
  6
Continuous
370
     0
100
AcDbPolyline
 90
        6
 70
   128
 43
0.0
 10
0.2008673447084375
 20
0.1432118057430234
 10
0.1997737415279799
 20
0.1427357868820933
 10
0.1993385132974703
 20
0.1419309063277809
 10
0.1994946570347356
 20
0.1412195477511833
 10
0.1997842253085098
 20
0.1404859873598478
 10
0.2005672816611703
 20
0.1399170636178151
  0
LWPOLYLINE
  5
1740
330
2
100
AcDbEntity
  8
Profilo
  6
Continuous
370
     0
100
AcDbPolyline
 90
        7
 70
   128
 43
0.0
 10
0.1984564109135149
 20
0.1442160581861269
 10
0.1986970387667917
 20
0.1435180572281178
 10
0.198430773153536
 20
0.1427398981268475
 10
0.1977018985144969
 20
0.1421483641765271
 10
0.1968524204291837
 20
0.1423171104647474
 10
0.1963006680814319
 20
0.142792720932128
 10
0.196282605698074
 20
0.1431795407673515
  0
LWPOLYLINE
  5
1741
330
2
100
AcDbEntity
  8
Profilo
  6
Continuous
370
     0
100
AcDbPolyline
 90
        8
 70
   128
 43
0.0
 10
0.2217819748442933
 20
0.1566884736409826
 10
0.2316617051250764
 20
0.1551261126641223
 10
0.2376584197933651
 20
0.1540677313196888
 10
0.2424908968961281
 20
0.1533035335146247
 10
0.246430199819466
 20
0.152460432505003
 10
0.2488038528588401
 20
0.1518098833700392
 10
0.2492674736934761
 20
0.1519567143038685
 10
0.2494089288021248
 20
0.152154493184055
  0
LWPOLYLINE
  5
1742
330
2
100
AcDbEntity
  8
Profilo
  6
Continuous
370
     0
100
AcDbPolyline
 90
       10
 70
   128
 43
0.0
 10
0.2175663996652233
 20
0.1527319119881134
 10
0.220026056254274
 20
0.1537241910755485
 10
0.2218898417279904
 20
0.1538627871017337
 10
0.2256531289543595
 20
0.153511417108974
 10
0.2310206889076865
 20
0.1519239260376761
 10
0.2336957372961326
 20
0.1506884026141493
 10
0.235728263423602
 20
0.1495003205684666
 10
0.236990349344512
 20
0.1484069902516572
 10
0.2381048318205625
 20
0.147066169439791
 10
0.2388133208191654
 20
0.1458978852724089
  0
LWPOLYLINE
  5
1743
330
2
100
AcDbEntity
  8
Profilo
  6
Continuous
370
     0
100
AcDbPolyline
 90
        3
 70
   128
 43
0.0
 10
0.2204218157532427
 20
0.154602090314647
 10
0.2261017338798732
 20
0.1543809599806736
 10
0.2316643000362983
 20
0.1534200570088806
  0
LWPOLYLINE
  5
1744
330
2
100
AcDbEntity
  8
Profilo
  6
Continuous
370
     0
100
AcDbPolyline
 90
        5
 70
   128
 43
0.0
 10
0.2343728772433389
 20
0.1523958969667545
 10
0.2377491217567771
 20
0.1514828190797299
 10
0.2402404900144486
 20
0.1501138442296455
 10
0.2410185877437714
 20
0.1490428845826461
 10
0.2417267108989423
 20
0.1473600756253148
  0
LWPOLYLINE
  5
1745
330
2
100
AcDbEntity
  8
Profilo
  6
Continuous
370
     0
100
AcDbPolyline
 90
        6
 70
   128
 43
0.0
 10
0.2365741395576277
 20
0.153808204384603
 10
0.2398694778564181
 20
0.1525558397886915
 10
0.2414905434919108
 20
0.1516765726840235
 10
0.2432807134143458
 20
0.1499851506916008
 10
0.2441670530902877
 20
0.1485720760673854
 10
0.2443521944309923
 20
0.1468365543008314
  0
LWPOLYLINE
  5
1746
330
2
100
AcDbEntity
  8
Profilo
  6
Continuous
370
     0
100
AcDbPolyline
 90
        6
 70
   128
 43
0.0
 10
0.2382786614853343
 20
0.1529428231447598
 10
0.2400247345818665
 20
0.1518271235564945
 10
0.2414562851966959
 20
0.1504361613285612
 10
0.2423010779459851
 20
0.1492734038618944
 10
0.2427675723408127
 20
0.148116305728595
 10
0.2427198323275359
 20
0.1474738578186399
  0
LWPOLYLINE
  5
1747
330
2
100
AcDbEntity
  8
Profilo
  6
Continuous
370
     0
100
AcDbPolyline
 90
        4
 70
   128
 43
0.0
 10
0.2434468952814264
 20
0.1529109421900683
 10
0.2449538885009002
 20
0.1519955495775809
 10
0.2456682069529386
 20
0.1512055072935894
 10
0.2464965990152761
 20
0.1504515935216084
  0
LWPOLYLINE
  5
1748
330
2
100
AcDbEntity
  8
Profilo
  6
Continuous
370
     0
100
AcDbPolyline
 90
       73
 70
   128
 43
0.0
 10
0.2474962751317529
 20
0.1519726667632597
 10
0.2482605242836184
 20
0.1509851471701735
 10
0.2484489461944737
 20
0.1499532711352642
 10
0.2482313714016717
 20
0.1490939315373572
 10
0.2475549587208414
 20
0.1484154835529781
 10
0.2466423820839507
 20
0.1481264664902639
 10
0.246075301233339
 20
0.1486494744793625
 10
0.2455694453402719
 20
0.14921696714039
 10
0.2460578084525427
 20
0.1475147456175183
 10
0.2458846973450397
 20
0.1465942070070481
 10
0.2455530511521831
 20
0.1456987405029666
 10
0.2450267919937774
 20
0.1449423821695812
 10
0.2441251480133468
 20
0.1443808011070671
 10
0.2432767142869281
 20
0.1443253898654577
 10
0.2421892027153802
 20
0.1444702828029163
 10
0.2413855930812403
 20
0.1448681955253757
 10
0.2408790131480067
 20
0.1444066420256584
 10
0.2412624126735645
 20
0.1437501796058107
 10
0.2420266618254292
 20
0.1427626600127245
 10
0.2423874653671678
 20
0.1416222746142237
 10
0.2424169895754451
 20
0.1401009461032348
 10
0.241842987177554
 20
0.1387021396524131
 10
0.2405513857574739
 20
0.1373897297539386
 10
0.2394715296767602
 20
0.1365584175699808
 10
0.2385199572067469
 20
0.136194315422397
 10
0.2376073793755768
 20
0.1359052953554913
 10
0.2373019713379492
 20
0.1367119235425311
 10
0.2368799385964921
 20
0.1378078254599773
 10
0.2364969027041228
 20
0.1389788110639376
 10
0.2359629870389179
 20
0.1391986592503236
 10
0.2355821374126101
 20
0.1395297164235625
 10
0.2355074254788656
 20
0.1400831977863697
 10
0.2352657955242421
 20
0.1406089056062101
 10
0.2344676539205945
 20
0.1408705386337836
 10
0.2335361253249069
 20
0.1413157631056261
 10
0.2328159752091885
 20
0.141727561900391
 10
0.2323268848305418
 20
0.1424007370550369
 10
0.2319095938691653
 20
0.1423313115110163
 10
0.2317004028495377
 20
0.1415248117615635
 10
0.231249217226134
 20
0.1407294980461933
 10
0.2306369464398115
 20
0.1402846572812748
 10
0.2298606735536071
 20
0.1400011669192755
 10
0.2289954743127689
 20
0.1398400731840481
 10
0.2286007761090047
 20
0.1402545704111999
 10
0.2288070534178788
 20
0.1408719478206024
 10
0.2289192999748151
 20
0.1422625247357756
 10
0.2293766776688768
 20
0.1439506049170038
 10
0.2292545893550448
 20
0.1443761615539694
 10
0.2286539764596291
 20
0.1446878059541867
 10
0.2281729062209692
 20
0.1448992977731738
 10
0.2278784320340801
 20
0.1454333649646049
 10
0.2277731048141796
 20
0.145964600883516
 10
0.2273754918836968
 20
0.1461899771689723
 10
0.2269053544798112
 20
0.1461289093907061
 10
0.2265744355533306
 20
0.1462624892548503
 10
0.2262103514414422
 20
0.1466992289217071
 10
0.2256793516972353
 20
0.1471082010539797
 10
0.2250368304522228
 20
0.1471556410334689
 10
0.224600219656689
 20
0.1473059350307662
 10
0.2243250630937146
 20
0.1476202810750429
 10
0.223946764560937
 20
0.1476259360058636
 10
0.2233457912585424
 20
0.1474230574294495
 10
0.2227590291508283
 20
0.1476512633815898
 10
0.222372715914517
 20
0.148118603461387
 10
0.2221784623399818
 20
0.1487722360070696
 10
0.2222262055794664
 20
0.1494146841245059
 10
0.2221237930862836
 20
0.1501350409851121
 10
0.2215319287915101
 20
0.1510140514220877
 10
0.221009309594268
 20
0.1514758631953335
 10
0.2200249345560712
 20
0.1519294454329301
 10
0.2193434186722163
 20
0.1519018033317416
 10
0.218739530643103
 20
0.1515098038136318
 10
0.2184417769020293
 20
0.1513402238750634
  0
LWPOLYLINE
  5
1749
330
2
100
AcDbEntity
  8
Profilo
  6
Continuous
370
     0
100
AcDbPolyline
 90
        6
 70
   128
 43
0.0
 10
0.2205599433310841
 20
0.1532531684047187
 10
0.2217808439266005
 20
0.1529246812262806
 10
0.2229401527051742
 20
0.152037185984319
 10
0.2235597163651075
 20
0.1509912970453535
 10
0.223781666078593
 20
0.1501707857901993
 10
0.2237641743137617
 20
0.1490360555300001
  0
LWPOLYLINE
  5
174A
330
2
100
AcDbEntity
  8
Profilo
  6
Continuous
370
     0
100
AcDbPolyline
 90
        6
 70
   128
 43
0.0
 10
0.2229911732885998
 20
0.1533832796259185
 10
0.2241643328548752
 20
0.1524123459358802
 10
0.2250703505617109
 20
0.1512940731411421
 10
0.2255813086418366
 20
0.1500757759952793
 10
0.2256640396996028
 20
0.1490606126951679
 10
0.2255911526089767
 20
0.148259644048977
  0
LWPOLYLINE
  5
174B
330
2
100
AcDbEntity
  8
Profilo
  6
Continuous
370
     0
100
AcDbPolyline
 90
        7
 70
   128
 43
0.0
 10
0.2245320589598574
 20
0.1531937735789441
 10
0.2257941438648023
 20
0.1521004446604892
 10
0.2265722415941251
 20
0.1510294850134899
 10
0.227044202825164
 20
0.1497361041811132
 10
0.2272800021320718
 20
0.1488321514736905
 10
0.227318269504539
 20
0.1478781871861425
 10
0.2272625093512763
 20
0.1476974226118466
  0
LWPOLYLINE
  5
174C
330
2
100
AcDbEntity
  8
Profilo
  6
Continuous
370
     0
100
AcDbPolyline
 90
        6
 70
   128
 43
0.0
 10
0.227276352445835
 20
0.1515410514916875
 10
0.2277096826712199
 20
0.1506871117627455
 10
0.2279316323847054
 20
0.1498666005075917
 10
0.2279170575568363
 20
0.1489209927949238
 10
0.2276189401825741
 20
0.1482368896722428
 10
0.2273321202922407
 20
0.1477947487380657
  0
LWPOLYLINE
  5
174D
330
2
100
AcDbEntity
  8
Profilo
  6
Continuous
370
     0
100
AcDbPolyline
 90
        5
 70
   128
 43
0.0
 10
0.228077407760237
 20
0.1514685408041647
 10
0.2291612793706195
 20
0.1501054777600748
 10
0.229594245962816
 20
0.1487370148470199
 10
0.2295348426221802
 20
0.1473380799586117
 10
0.2294036420745176
 20
0.146681747374706
  0
LWPOLYLINE
  5
174E
330
2
100
AcDbEntity
  8
Profilo
  6
Continuous
370
     0
100
AcDbPolyline
 90
        6
 70
   128
 43
0.0
 10
0.2308734578051244
 20
0.1482638900004602
 10
0.2312980416401107
 20
0.1468425858405962
 10
0.2312776351485617
 20
0.1455187346387021
 10
0.231037466403869
 20
0.1441754692654311
 10
0.2306274650898947
 20
0.142615313810045
 10
0.2296999487976672
 20
0.1408661628463586
  0
LWPOLYLINE
  5
174F
330
2
100
AcDbEntity
  8
Profilo
  6
Continuous
370
     0
100
AcDbPolyline
 90
        8
 70
   128
 43
0.0
 10
0.2286984271472017
 20
0.1524807476058421
 10
0.2300858787258848
 20
0.1516655061762295
 10
0.2308639764552067
 20
0.1505945465292302
 10
0.2317251710857278
 20
0.1490229483720686
 10
0.2324416769981088
 20
0.1473929806615464
 10
0.2326629004611824
 20
0.1455434216398115
 10
0.2324835962670564
 20
0.1437301179618382
 10
0.2322601908265396
 20
0.1424925334763494
  0
LWPOLYLINE
  5
1750
330
2
100
AcDbEntity
  8
Profilo
  6
Continuous
370
     0
100
AcDbPolyline
 90
        6
 70
   128
 43
0.0
 10
0.2307783316866878
 20
0.1514205874892911
 10
0.2324821273639834
 20
0.1495261584828671
 10
0.2334767089865437
 20
0.1477709688814361
 10
0.2339151424149524
 20
0.1462662232693035
 10
0.2339475803339832
 20
0.1449340170983655
 10
0.2335098806708142
 20
0.1435407387466143
  0
LWPOLYLINE
  5
1751
330
2
100
AcDbEntity
  8
Profilo
  6
Continuous
370
     0
100
AcDbPolyline
 90
       15
 70
   128
 43
0.0
 10
0.2323469145128598
 20
0.1510642013344903
 10
0.2349793250750896
 20
0.1485354255161735
 10
0.2362658287750436
 20
0.1465715723640839
 10
0.2368963273016815
 20
0.1452531210311545
 10
0.2371485262795767
 20
0.1439403260274015
 10
0.2372757189907135
 20
0.1428639665114368
 10
0.2369524565710313
 20
0.1420213398558094
 10
0.2363875631807613
 20
0.1417044224183777
 10
0.2357588917074862
 20
0.1416684253481448
 10
0.235350344926263
 20
0.14216636262921
 10
0.2352034709580248
 20
0.1429479201082158
 10
0.2352625094711938
 20
0.1438323288083201
 10
0.2353189958748674
 20
0.1450421411491971
 10
0.2348940484066926
 20
0.1459489221249481
 10
0.2343386276572321
 20
0.1472284168850193
  0
LWPOLYLINE
  5
1752
330
2
100
AcDbEntity
  8
Profilo
  6
Continuous
370
     0
100
AcDbPolyline
 90
        8
 70
   128
 43
0.0
 10
0.2121447552179223
 20
0.1477818329748675
 10
0.2129250097114328
 20
0.1378098098517297
 10
0.2135083335440564
 20
0.131748416349456
 10
0.213889979240065
 20
0.1268707960488669
 10
0.2144205519058397
 20
0.1228773740225126
 10
0.2148823432395286
 20
0.1204598977160178
 10
0.2146994931556136
 20
0.1200092654399323
 10
0.2144911986497853
 20
0.1198838085467291
  0
LWPOLYLINE
  5
1753
330
2
100
AcDbEntity
  8
Profilo
  6
Continuous
370
     0
100
AcDbPolyline
 90
       10
 70
   128
 43
0.0
 10
0.2164207037543928
 20
0.1516730690659831
 10
0.215237992675962
 20
0.149299101326442
 10
0.2149531973986374
 20
0.1474519963482335
 10
0.2150074107742457
 20
0.1436727302118161
 10
0.2161677015928456
 20
0.1381969149327655
 10
0.2171889425398463
 20
0.1354329560078209
 10
0.2182134380428415
 20
0.1333132601875528
 10
0.2192040880247799
 20
0.1319690709647503
 10
0.2204530737522141
 20
0.1307525569732055
 10
0.221561998168978
 20
0.1299543519902579
  0
LWPOLYLINE
  5
1754
330
2
100
AcDbEntity
  8
Profilo
  6
Continuous
370
     0
100
AcDbPolyline
 90
        3
 70
   128
 43
0.0
 10
0.2143316790537719
 20
0.1489736350866175
 10
0.2141052701324462
 20
0.1432939249223428
 10
0.2146255733132119
 20
0.1376730031682269
  0
LWPOLYLINE
  5
1755
330
2
100
AcDbEntity
  8
Profilo
  6
Continuous
370
     0
100
AcDbPolyline
 90
        5
 70
   128
 43
0.0
 10
0.2154334681988637
 20
0.1348922478513879
 10
0.2160780981121038
 20
0.1314546337780442
 10
0.2172468274455088
 20
0.1288632866996442
 10
0.2182532526993626
 20
0.1280033455096299
 10
0.2198751359226891
 20
0.1271650262389132
  0
LWPOLYLINE
  5
1756
330
2
100
AcDbEntity
  8
Profilo
  6
Continuous
370
     0
100
AcDbPolyline
 90
        6
 70
   128
 43
0.0
 10
0.2138523592108275
 20
0.1328089182119005
 10
0.2148415893180324
 20
0.1294252670213127
 10
0.215590597711441
 20
0.1277400516456018
 10
0.2171359398533506
 20
0.1258223617926588
 10
0.218474904027774
 20
0.1248275990800687
 10
0.220190481010702
 20
0.1245064935929361
  0
LWPOLYLINE
  5
1757
330
2
100
AcDbEntity
  8
Profilo
  6
Continuous
370
     0
100
AcDbPolyline
 90
        6
 70
   128
 43
0.0
 10
0.2145809590559642
 20
0.1310415976529831
 10
0.215555832451896
 20
0.1292131615202201
 10
0.2168298596111704
 20
0.1276766173848991
 10
0.2179225510882388
 20
0.1267429659234414
 10
0.2190393624839144
 20
0.1261868855183019
 10
0.2196835749624419
 20
0.1261839345215086
  0
LWPOLYLINE
  5
1758
330
2
100
AcDbEntity
  8
Profilo
  6
Continuous
370
     0
100
AcDbPolyline
 90
       73
 70
   128
 43
0.0
 10
0.2148229349170228
 20
0.121776229207968
 10
0.2157472682421462
 20
0.1209366581169209
 10
0.2167611223464787
 20
0.1206676398591067
 10
0.2176349156007946
 20
0.120816933809776
 10
0.2183644758781407
 20
0.1214378746958638
 10
0.2187243919014961
 20
0.1223248850886274
 10
0.2182476186898645
 20
0.1229313546694493
 10
0.2177216819602545
 20
0.1234802887832707
 10
0.2193802066715476
 20
0.1228595211742707
 10
0.2203115111793705
 20
0.1229596745697017
 10
0.2212302936571806
 20
0.1232198441598484
 10
0.2220257098347247
 20
0.1236849675142275
 10
0.22265648494768
 20
0.1245396358207054
 10
0.2227784729203721
 20
0.1253810804881315
 10
0.2227195864281288
 20
0.1264766204292591
 10
0.2223861290831621
 20
0.1273090441061602
 10
0.2228861059565359
 20
0.1277777422904402
 10
0.2235103706434085
 20
0.1273438855103934
 10
0.2244347039685319
 20
0.1265043144193463
 10
0.2255431694034238
 20
0.1260549121135044
 10
0.227057459823655
 20
0.1259057925627507
 10
0.2284970889403795
 20
0.1263679681202228
 10
0.2299070446630003
 20
0.1275523155482252
 10
0.2308207352753691
 20
0.1285634231424597
 10
0.2312585715611561
 20
0.1294834013630772
 10
0.2316184906733492
 20
0.1303704127100715
 10
0.2308383898645427
 20
0.1307383336658137
 10
0.2297790870941903
 20
0.13124527576137
 10
0.2286418653754989
 20
0.1317192489062451
 10
0.2284647031343372
 20
0.1322688057303454
 10
0.2281646344960873
 20
0.1326745200413451
 10
0.2276187464253327
 20
0.1327925442177962
 10
0.2271136776865186
 20
0.1330747840376041
 10
0.226915647454561
 20
0.1338910351557174
 10
0.226545088718451
 20
0.1348547034482355
 10
0.2261912223645606
 20
0.1356050187420441
 10
0.2255586117169042
 20
0.1361455536213891
 10
0.2256606514372894
 20
0.1365560893056756
 10
0.2264811090466736
 20
0.1367011825162792
 10
0.2273094536349696
 20
0.1370884003046906
 10
0.2278010845475595
 20
0.1376637765882682
 10
0.2281447676312203
 20
0.1384153405025215
 10
0.2283734295219588
 20
0.1392651844044237
 10
0.2279912689549777
 20
0.1396912688143901
 10
0.2273595767317182
 20
0.1395342015394101
 10
0.2259644791707078
 20
0.1395317031756935
 10
0.2242456480924373
 20
0.1392085487580359
 10
0.2238310154683925
 20
0.1393637383025206
 10
0.2235675887787609
 20
0.139987007475123
 10
0.2233945995179916
 20
0.1404832252495745
 10
0.2228853547099483
 20
0.1408188031648005
 10
0.2223640517173466
 20
0.1409655976289255
 10
0.2221706552223974
 20
0.1413797090973432
 10
0.2222685206482984
 20
0.1418435849541058
 10
0.2221613890624727
 20
0.1421839872739075
 10
0.2217546465061764
 20
0.142581302350431
 10
0.2213887171041451
 20
0.1431428311618501
 10
0.2213919729742333
 20
0.1437870931436989
 10
0.221276494113531
 20
0.1442341746856255
 10
0.2209847696613201
 20
0.1445332088202693
 10
0.2210088939828552
 20
0.1449107797079907
 10
0.2212584238643895
 20
0.1454939293158794
 10
0.2210770873287444
 20
0.1460968263124565
 10
0.2206415880279957
 20
0.1465187090281268
 10
0.2200052638424719
 20
0.1467637834799007
 10
0.2193610509032915
 20
0.1467667312768088
 10
0.2186509838386579
 20
0.1469254986824831
 10
0.21782126138344
 20
0.1475846825256162
 10
0.2174019967971308
 20
0.1481420137968554
 10
0.2170272637665374
 20
0.14915902226185
 10
0.2171084368102187
 20
0.1498362511173219
 10
0.2175467307637851
 20
0.1504074277836616
 10
0.2177392101484292
 20
0.1506909173467417
  0
LWPOLYLINE
  5
1759
330
2
100
AcDbEntity
  8
Profilo
  6
Continuous
370
     0
100
AcDbPolyline
 90
        6
 70
   128
 43
0.0
 10
0.2156655531374989
 20
0.1487298124551739
 10
0.2158969707620804
 20
0.1474868530939861
 10
0.216690509397111
 20
0.146261316034858
 10
0.2176844139350447
 20
0.1455613899167321
 10
0.2184849206639381
 20
0.1452755763898512
 10
0.2196175099597131
 20
0.145203741771845
  0
LWPOLYLINE
  5
175A
330
2
100
AcDbEntity
  8
Profilo
  6
Continuous
370
     0
100
AcDbPolyline
 90
        6
 70
   128
 43
0.0
 10
0.215344574039988
 20
0.1463163542609702
 10
0.216220202829005
 20
0.1450704450258171
 10
0.2172637307880949
 20
0.1440792580973582
 10
0.2184380534372767
 20
0.1434740371369805
 10
0.2194435615808263
 20
0.143311696978464
 10
0.2202477818475872
 20
0.1433213438791541
  0
LWPOLYLINE
  5
175B
330
2
100
AcDbEntity
  8
Profilo
  6
Continuous
370
     0
100
AcDbPolyline
 90
        7
 70
   128
 43
0.0
 10
0.2154122672496328
 20
0.1447653356204974
 10
0.2164029159174792
 20
0.1434211475205231
 10
0.2174093411713329
 20
0.1425612063305088
 10
0.2186615827688545
 20
0.1419889543208126
 10
0.2195441827405702
 20
0.141682769572137
 10
0.2204921796306127
 20
0.1415695699688588
 10
0.2206767707222532
 20
0.1416109360769584
  0
LWPOLYLINE
  5
175C
330
2
100
AcDbEntity
  8
Profilo
  6
Continuous
370
     0
100
AcDbPolyline
 90
        6
 70
   128
 43
0.0
 10
0.2168439660655403
 20
0.1418995241236589
 10
0.2176611678048381
 20
0.1414003553524135
 10
0.2184616745337307
 20
0.1411145418255326
 10
0.2194054979827298
 20
0.1410546780720174
 10
0.2201109343991918
 20
0.1412980512702699
 10
0.2205742697845991
 20
0.1415491977928336
  0
LWPOLYLINE
  5
175D
330
2
100
AcDbEntity
  8
Profilo
  6
Continuous
370
     0
100
AcDbPolyline
 90
        5
 70
   128
 43
0.0
 10
0.216853230911374
 20
0.141095247069922
 10
0.2181267981674715
 20
0.1399074992119349
 10
0.2194569569385871
 20
0.1393682140758621
 10
0.2208562292547329
 20
0.1393173754669879
 10
0.2215208494280922
 20
0.1393965339761143
  0
LWPOLYLINE
  5
175E
330
2
100
AcDbEntity
  8
Profilo
  6
Continuous
370
     0
100
AcDbPolyline
 90
        6
 70
   128
 43
0.0
 10
0.2198279764313131
 20
0.1380557451832967
 10
0.2212114721614524
 20
0.1375206596644618
 10
0.2225328255292593
 20
0.1374368521049063
 10
0.2238908221597775
 20
0.1375705982841258
 10
0.2254783977913393
 20
0.1378565873337498
 10
0.2272950973843484
 20
0.1386436185624011
  0
LWPOLYLINE
  5
175F
330
2
100
AcDbEntity
  8
Profilo
  6
Continuous
370
     0
100
AcDbPolyline
 90
        8
 70
   128
 43
0.0
 10
0.2157953042331977
 20
0.1405557854568757
 10
0.2164988644212391
 20
0.1391084971187928
 10
0.2175052896750929
 20
0.1382485559287785
 10
0.2190042642659336
 20
0.137266388868017
 10
0.2205728105302374
 20
0.1364238699800622
 10
0.2223992326368593
 20
0.136057822600699
 10
0.2242210223205641
 20
0.136093913748204
 10
0.2254723468077815
 20
0.1362192627700052
  0
LWPOLYLINE
  5
1760
330
2
100
AcDbEntity
  8
Profilo
  6
Continuous
370
     0
100
AcDbPolyline
 90
        6
 70
   128
 43
0.0
 10
0.216688546917668
 20
0.1383989220229185
 10
0.2184430621405333
 20
0.1365513676115182
 10
0.2201145652355265
 20
0.1354217833763525
 10
0.2215801542084881
 20
0.1348663266357231
 10
0.2229056792425954
 20
0.1347291811493463
 10
0.2243290741055324
 20
0.1350559113511349
  0
LWPOLYLINE
  5
1761
330
2
100
AcDbEntity
  8
Profilo
  6
Continuous
370
     0
100
AcDbPolyline
 90
       15
 70
   128
 43
0.0
 10
0.2169204239847735
 20
0.1368071631845109
 10
0.2192342633298736
 20
0.1339839664162163
 10
0.2210908169590322
 20
0.1325469488119306
 10
0.222355578811821
 20
0.1318146785304604
 10
0.2236444636720538
 20
0.1314599802595391
 10
0.2247074804409257
 20
0.1312485017914398
 10
0.225572927273805
 20
0.1315044706415203
 10
0.2259333040537781
 20
0.1320426804342365
 10
0.226018648763759
 20
0.1326665713628876
 10
0.2255543962680475
 20
0.1331130258718218
 10
0.2247868161751612
 20
0.133320931755676
 10
0.2239005039796709
 20
0.1333316549539529
 10
0.2226899975103009
 20
0.1333705226983364
 10
0.2218194588119804
 20
0.1338654918523432
 10
0.2205876262233835
 20
0.1345198522451318
  0
LWPOLYLINE
  5
1762
330
2
100
AcDbEntity
  8
Profilo
  6
Continuous
370
     0
100
AcDbPolyline
 90
       17
 70
   128
 43
0.0
 10
0.2317004028495377
 20
0.1415248117615635
 10
0.233536596838217
 20
0.1399023709669471
 10
0.2356206788547661
 20
0.1377543145135704
 10
0.2372468110514907
 20
0.1357219758442634
 10
0.2381038677396337
 20
0.1340277424454623
 10
0.23808056406315
 20
0.1325160243512116
 10
0.2377729346002972
 20
0.1313956471288444
 10
0.2372165240625534
 20
0.1306176923280897
 10
0.2360063947329261
 20
0.1298132229640376
 10
0.2346541057363227
 20
0.1292044242434081
 10
0.2336846052759371
 20
0.1290979544390096
 10
0.2326976246976748
 20
0.1294272245259416
 10
0.2318621296666858
 20
0.1301655088560965
 10
0.230373497930981
 20
0.1316998339469617
 10
0.2287205660101872
 20
0.1335632236333697
 10
0.2272633976249985
 20
0.1355688438538265
 10
0.2263970203146961
 20
0.1366583897767524
  0
LWPOLYLINE
  5
1763
330
2
100
AcDbEntity
  8
Profilo
  6
Continuous
370
     0
100
AcDbPolyline
 90
        5
 70
   128
 43
0.0
 10
0.2181760452622985
 20
0.1511640924093045
 10
0.2210420226833829
 20
0.1479398492574271
 10
0.2246234739546642
 20
0.144039601263408
 10
0.2287869755555967
 20
0.139441145214154
 10
0.2347368324195527
 20
0.1330014982890384
  0
LWPOLYLINE
  5
1764
330
2
100
AcDbEntity
  8
Profilo
  6
Continuous
370
     0
100
AcDbPolyline
 90
        3
 70
   128
 43
0.0
 10
0.2376896158529007
 20
0.1330541183996396
 10
0.2346657514809429
 20
0.1330993328078318
 10
0.2346191473541852
 20
0.1300758968268123
  0
LWPOLYLINE
  5
1765
330
2
100
AcDbEntity
  8
Profilo
  6
Continuous
370
     0
100
AcDbPolyline
 90
        3
 70
   128
 43
0.0
 10
0.2369619041939179
 20
0.1352907599937836
 10
0.2323194864063804
 20
0.1355053377868081
 10
0.2319920525408401
 20
0.131530473566321
  0
LWPOLYLINE
  5
1766
330
2
100
AcDbEntity
  8
Profilo
  6
Continuous
370
     0
100
AcDbPolyline
 90
        3
 70
   128
 43
0.0
 10
0.2341623485054862
 20
0.1381148256918487
 10
0.2300134198128001
 20
0.1381647654372156
 10
0.2297436681289575
 20
0.1340075930094033
  0
LWPOLYLINE
  5
1767
330
2
100
AcDbEntity
  8
Profilo
  6
Continuous
370
     0
100
AcDbPolyline
 90
        3
 70
   128
 43
0.0
 10
0.228606935899367
 20
0.1426736094571852
 10
0.2263521492462335
 20
0.1423807202007072
 10
0.2258790542296776
 20
0.1399442939216759
  0
LWPOLYLINE
  5
1768
330
2
100
AcDbEntity
  8
Profilo
  6
Continuous
370
     0
100
AcDbPolyline
 90
        3
 70
   128
 43
0.0
 10
0.2272027882796737
 20
0.1441945769294612
 10
0.224432369625017
 20
0.144199713664378
 10
0.2239860765427739
 20
0.1419322379740822
  0
LWPOLYLINE
  5
1769
330
2
100
AcDbEntity
  8
Profilo
  6
Continuous
370
     0
100
AcDbPolyline
 90
        6
 70
   128
 43
0.0
 10
0.2231983487969131
 20
0.1473390703316273
 10
0.2233131276686162
 20
0.146151893982942
 10
0.2239441216449753
 20
0.1454892455685155
 10
0.2246689149230505
 20
0.1454179251980572
 10
0.2254560538309542
 20
0.1454666383644194
 10
0.2262391101836147
 20
0.1460355621064524
  0
LWPOLYLINE
  5
176A
330
2
100
AcDbEntity
  8
Profilo
  6
Continuous
370
     0
100
AcDbPolyline
 90
        7
 70
   128
 43
0.0
 10
0.2214982284519502
 20
0.1453564671071714
 10
0.2222364249074271
 20
0.1453696236369175
 10
0.2228942175918913
 20
0.1448759256037455
 10
0.223231565159721
 20
0.1439999305853268
 10
0.2228085747379982
 20
0.1432441743876369
 10
0.2221857414516357
 20
0.1428663984390497
 10
0.221812272343298
 20
0.1429687539945026
  0
LWPOLYLINE
  5
176B
330
2
100
AcDbEntity
  8
Profilo
  6
Continuous
370
     0
100
AcDbPolyline
 90
        8
 70
   128
 43
0.0
 10
0.2168442521176592
 20
0.1713945850162526
 10
0.2213831502621097
 20
0.1803079707858319
 10
0.2242428174793778
 20
0.185684127525511
 10
0.2264629303313042
 20
0.1900439362551125
 10
0.2284820785897024
 20
0.1935299034300653
 10
0.2298342867115961
 20
0.1955863508822064
 10
0.2298379089120326
 20
0.1960726537519306
 10
0.2296935220517593
 20
0.1962683025898799
  0
LWPOLYLINE
  5
176C
330
2
100
AcDbEntity
  8
Profilo
  6
Continuous
370
     0
100
AcDbPolyline
 90
       10
 70
   128
 43
0.0
 10
0.2193044814883462
 20
0.166162689982237
 10
0.2191208436826004
 20
0.168808593510283
 10
0.2195649724140116
 20
0.1706239873574808
 10
0.2210620648429193
 20
0.1740945068977335
 10
0.2242305258147414
 20
0.1787087980485007
 10
0.226232213830527
 20
0.1808711225149189
 10
0.2279902321168663
 20
0.1824370321901614
 10
0.2294200570370535
 20
0.1832994895810072
 10
0.2310396474323957
 20
0.1839450889848741
 10
0.2323696868435645
 20
0.1842578824017385
  0
LWPOLYLINE
  5
176D
330
2
100
AcDbEntity
  8
Profilo
  6
Continuous
370
     0
100
AcDbPolyline
 90
        3
 70
   128
 43
0.0
 10
0.2184082083014722
 20
0.1694562689448931
 10
0.2203737069743354
 20
0.1747898590600778
 10
0.2230065074818563
 20
0.1797832385022395
  0
LWPOLYLINE
  5
176E
330
2
100
AcDbEntity
  8
Profilo
  6
Continuous
370
     0
100
AcDbPolyline
 90
        5
 70
   128
 43
0.0
 10
0.2248175379512016
 20
0.1820427656469079
 10
0.2267292435573589
 20
0.1849716084077402
 10
0.2288010911400429
 20
0.1869180039301412
 10
0.230060079712656
 20
0.1873270741147155
 10
0.231879348226264
 20
0.1874805226896783
  0
LWPOLYLINE
  5
176F
330
2
100
AcDbEntity
  8
Profilo
  6
Continuous
370
     0
100
AcDbPolyline
 90
        6
 70
   128
 43
0.0
 10
0.2241545812426375
 20
0.1845727175083833
 10
0.226363966288897
 20
0.1873197685275547
 10
0.2277011358287204
 20
0.1885897850855958
 10
0.2298629666652703
 20
0.1897696597152845
 10
0.231480774517296
 20
0.1901759547665376
 10
0.2331885656231885
 20
0.1898157289250779
  0
LWPOLYLINE
  5
1770
330
2
100
AcDbEntity
  8
Profilo
  6
Continuous
370
     0
100
AcDbPolyline
 90
        6
 70
   128
 43
0.0
 10
0.2255043339528155
 20
0.1859263966851721
 10
0.2271049935767131
 20
0.1872422407481653
 10
0.2288702507357998
 20
0.1881738953218408
 10
0.2302371541175985
 20
0.1886180291534347
 10
0.2314817745330489
 20
0.1887041287001012
 10
0.2320780263287769
 20
0.18846019792721
  0
LWPOLYLINE
  5
1771
330
2
100
AcDbEntity
  8
Profilo
  6
Continuous
370
     0
100
AcDbPolyline
 90
        4
 70
   128
 43
0.0
 10
0.2271317266164159
 20
0.1908318273578857
 10
0.2284680032407165
 20
0.1919821912054951
 10
0.2294401146441309
 20
0.1924174119319881
 10
0.2304131164749652
 20
0.1929722874330857
  0
LWPOLYLINE
  5
1772
330
2
100
AcDbEntity
  8
Profilo
  6
Continuous
370
     0
100
AcDbPolyline
 90
       73
 70
   128
 43
0.0
 10
0.2292754067655931
 20
0.1943930733992052
 10
0.2304507596854295
 20
0.1948147571986178
 10
0.2314903576850051
 20
0.1946750898538743
 10
0.2322404039007821
 20
0.1942026133897057
 10
0.2326766232637061
 20
0.1933496547449247
 10
0.2326694931350524
 20
0.1923924316037482
 10
0.2319968453589212
 20
0.1920147240223327
 10
0.2313008096980393
 20
0.191708991355366
 10
0.2330706310706621
 20
0.1916474368968513
 10
0.2338926210405177
 20
0.1911983363754042
 10
0.2346417759846355
 20
0.1906062077349286
 10
0.2351984924828629
 20
0.1898719779542131
 10
0.2354539644989666
 20
0.1888409254792101
 10
0.2352444832813108
 20
0.1880168940397182
 10
0.234770622351788
 20
0.1870273834530913
 10
0.2341438558303839
 20
0.186386067067503
 10
0.2344262774855297
 20
0.1857616530457511
 10
0.2351690873166614
 20
0.1859234296189753
 10
0.2363444402364978
 20
0.186345113418388
 10
0.2375405056268578
 20
0.1863358595095865
 10
0.2389964985027628
 20
0.1858938223363347
 10
0.2401494659970922
 20
0.1849156586503058
 10
0.240998515194323
 20
0.1832817157410682
 10
0.2414554461835321
 20
0.1819978219863709
 10
0.2415076758389754
 20
0.1809803090367461
 10
0.2415005481984247
 20
0.1800230838313954
 10
0.2406390229310675
 20
0.1799818853450179
 10
0.2394663429819666
 20
0.1799191606728248
 10
0.238234304892635
 20
0.1799167263432035
 10
0.2378602278282651
 20
0.1794768791964341
 10
0.2374276847395604
 20
0.1792169719702463
 10
0.2368782054256044
 20
0.1793169518459909
 10
0.2363035598155498
 20
0.1792496007535207
 10
0.2358080927003527
 20
0.1785713720322553
 10
0.2350968008983791
 20
0.1778230176193221
 10
0.2344826183469575
 20
0.1772653669849029
 10
0.2336912534907363
 20
0.1770082369562103
 10
0.2336283311081102
 20
0.176589915995256
 10
0.2343307143700821
 20
0.1761417413843487
 10
0.2349476786363347
 20
0.1754668729032434
 10
0.235181545266391
 20
0.1747471054260232
 10
0.2352112791083671
 20
0.1739212226995765
 10
0.2350971270860507
 20
0.1730485886218112
 10
0.2345809483445693
 20
0.1728012950104618
 10
0.2340575307303396
 20
0.1731882565006788
 10
0.2327696995874078
 20
0.1737247212188588
 10
0.2313055774113355
 20
0.1746813587190721
 10
0.2308631216349077
 20
0.1746967500655296
 10
0.2303811306055898
 20
0.1742218366734423
 10
0.2300313310537652
 20
0.1738296662544072
 10
0.2294324054430623
 20
0.1737146404983765
 10
0.2288946221597721
 20
0.1737786292865124
 10
0.2285574074221675
 20
0.1734701220203485
 10
0.2284702058831316
 20
0.1730041237975366
 10
0.2282409043108489
 20
0.1727306796442685
 10
0.2277130320268048
 20
0.1725193750563543
 10
0.2271599884704543
 20
0.1721407436285727
 10
0.2269163203848725
 20
0.1715443293715209
 10
0.2266384621436357
 20
0.1711755312286607
 10
0.2262544732357821
 20
0.1710109800562389
 10
0.2261321944014005
 20
0.1706529442412614
 10
0.2261394324299095
 20
0.1700186917379927
 10
0.2257410762091307
 20
0.1695311673293649
 10
0.2251772320257412
 20
0.1693081776354501
 10
0.2244955628781584
 20
0.1693254150722676
 10
0.2238993118820556
 20
0.1695693489775802
 10
0.2231825645948886
 20
0.1696945514205301
 10
0.2221636798654627
 20
0.1694032841894817
 10
0.2215629725556809
 20
0.1690489514825393
 10
0.2208274015972975
 20
0.1682529198077476
 10
0.2206430908077097
 20
0.1675962178064216
 10
0.2208292928400972
 20
0.1669007516483383
 10
0.2208985619795749
 20
0.1665651679297162
  0
LWPOLYLINE
  5
1773
330
2
100
AcDbEntity
  8
Profilo
  6
Continuous
370
     0
100
AcDbPolyline
 90
        6
 70
   128
 43
0.0
 10
0.2197337930428276
 20
0.169170796283626
 10
0.2204234819468569
 20
0.170230433630169
 10
0.2216257861942132
 20
0.1710587506862367
 10
0.2228119413849541
 20
0.1713247932859068
 10
0.2236608801942257
 20
0.1712823280852889
 10
0.2247346675498312
 20
0.1709150414939315
  0
LWPOLYLINE
  5
1774
330
2
100
AcDbEntity
  8
Profilo
  6
Continuous
370
     0
100
AcDbPolyline
 90
        6
 70
   128
 43
0.0
 10
0.2203613412921683
 20
0.1715232399558435
 10
0.221647280348062
 20
0.1723389459953706
 10
0.2229907958451101
 20
0.1728550547414138
 10
0.224307360014639
 20
0.1729645302308016
 10
0.2252984029891261
 20
0.1727295094305896
 10
0.2260376460897602
 20
0.1724126767644616
  0
LWPOLYLINE
  5
1775
330
2
100
AcDbEntity
  8
Profilo
  6
Continuous
370
     0
100
AcDbPolyline
 90
        7
 70
   128
 43
0.0
 10
0.2210177321118278
 20
0.1729301487253068
 10
0.2224475553881504
 20
0.1737926055820282
 10
0.2237065439607635
 20
0.1742016757666023
 10
0.225082466270524
 20
0.1742508609134179
 10
0.2260150423764369
 20
0.1741957826320857
 10
0.2269341415968453
 20
0.1739373858891524
 10
0.2270888280881778
 20
0.1738284955066043
  0
LWPOLYLINE
  5
1776
330
2
100
AcDbEntity
  8
Profilo
  6
Continuous
370
     0
100
AcDbPolyline
 90
        6
 70
   128
 43
0.0
 10
0.2234375975472576
 20
0.1750294077158312
 10
0.2243836488948112
 20
0.1751776473619757
 10
0.2252325877040828
 20
0.1751351821613578
 10
0.2261274102115731
 20
0.1748291118231124
 10
0.2266859076092516
 20
0.1743341858608867
 10
0.2270177764053836
 20
0.173924774872612
  0
LWPOLYLINE
  5
1777
330
2
100
AcDbEntity
  8
Profilo
  6
Continuous
370
     0
100
AcDbPolyline
 90
        5
 70
   128
 43
0.0
 10
0.2237540990147115
 20
0.1757688495577871
 10
0.2253853837522435
 20
0.1763784630706404
 10
0.2268206633579979
 20
0.1763673604731812
 10
0.2281327728577116
 20
0.1758785698844378
 10
0.2287164390395935
 20
0.175550972826253
  0
LWPOLYLINE
  5
1778
330
2
100
AcDbEntity
  8
Profilo
  6
Continuous
370
     0
100
AcDbPolyline
 90
        6
 70
   128
 43
0.0
 10
0.2276659300250188
 20
0.1774377596134828
 10
0.2291488742284429
 20
0.1774023556968867
 10
0.2304016255879251
 20
0.1769738554507154
 10
0.2316049306506605
 20
0.1763303495727688
 10
0.2329620292892045
 20
0.1754583006018429
 10
0.234338952414344
 20
0.1740356628146435
  0
LWPOLYLINE
  5
1779
330
2
100
AcDbEntity
  8
Profilo
  6
Continuous
370
     0
100
AcDbPolyline
 90
        8
 70
   128
 43
0.0
 10
0.2229833386845463
 20
0.1766722631960456
 10
0.2241874254752192
 20
0.1777398846047276
 10
0.2254464140478323
 20
0.1781489547893018
 10
0.2272072164924932
 20
0.1784823490155658
 10
0.2289788204084315
 20
0.1786600989096656
 10
0.2308062173779701
 20
0.1782989497559639
 10
0.2324753636137808
 20
0.1775680796812848
 10
0.2335833403254153
 20
0.1769731738433145
  0
LWPOLYLINE
  5
177A
330
2
100
AcDbEntity
  8
Profilo
  6
Continuous
370
     0
100
AcDbPolyline
 90
        6
 70
   128
 43
0.0
 10
0.2246343367210875
 20
0.1783227624688231
 10
0.2269625475915324
 20
0.1793577576925287
 10
0.2289391747229708
 20
0.17976127761046
 10
0.230505756223037
 20
0.1797132606131493
 10
0.231782783451199
 20
0.1793324365605882
 10
0.2329726132722936
 20
0.1784856127551653
  0
LWPOLYLINE
  5
177B
330
2
100
AcDbEntity
  8
Profilo
  6
Continuous
370
     0
100
AcDbPolyline
 90
       15
 70
   128
 43
0.0
 10
0.2254579988463004
 20
0.1797044440086102
 10
0.2286764671664612
 20
0.1814265805245583
 10
0.2309417540104146
 20
0.1820432542531851
 10
0.2323905105016744
 20
0.1822354701173268
 10
0.2337169865146871
 20
0.182069649632367
 10
0.2347799699555235
 20
0.1818580037066282
 10
0.2354814619458372
 20
0.1812901769194139
 10
0.2356083066822308
 20
0.1806549985056052
 10
0.2354482717613227
 20
0.1800459726978887
 10
0.2348484573670646
 20
0.1798112927013773
 10
0.2340597654815797
 20
0.1799131217999039
 10
0.2332368867281689
 20
0.1802425680808704
 10
0.2321037420765704
 20
0.1806701424165018
 10
0.231110026131347
 20
0.1805462040894945
 10
0.229721519851604
 20
0.1804133531915095
  0
LWPOLYLINE
  5
177C
330
2
100
AcDbEntity
  8
Profilo
  6
Continuous
370
     0
100
AcDbPolyline
 90
        8
 70
   128
 43
0.0
 10
0.2223369061183948
 20
0.1594767411630045
 10
0.2320619755887332
 20
0.1571372826700768
 10
0.2380069603544044
 20
0.1558189830004073
 10
0.2427637879311897
 20
0.1546746820615221
 10
0.2467257139421459
 20
0.1539452513808206
 10
0.2491675719063915
 20
0.1536373997756886
 10
0.2495396448856635
 20
0.1533242459803517
 10
0.2495945949393228
 20
0.1530873778212138
  0
LWPOLYLINE
  5
177D
330
2
100
AcDbEntity
  8
Profilo
  6
Continuous
370
     0
100
AcDbPolyline
 90
       10
 70
   128
 43
0.0
 10
0.2199574614423385
 20
0.1647458679632376
 10
0.2218497611078334
 20
0.1628874465095853
 10
0.2235184557530285
 20
0.1620458032766148
 10
0.2271295042932673
 20
0.1609295057983382
 10
0.2326958636778018
 20
0.1603408879628811
 10
0.2356401256321172
 20
0.1604580355406708
 10
0.2379726626756327
 20
0.160777366633341
 10
0.2395571902750087
 20
0.1613041534405297
 10
0.2411001216493407
 20
0.1621160859580835
 10
0.2422019361899697
 20
0.1629240768459998
  0
LWPOLYLINE
  5
177E
330
2
100
AcDbEntity
  8
Profilo
  6
Continuous
370
     0
100
AcDbPolyline
 90
        3
 70
   128
 43
0.0
 10
0.2218792315845617
 20
0.1619249164341929
 10
0.227210992742596
 20
0.1599544617903343
 10
0.2327175895295159
 20
0.1587123391747767
  0
LWPOLYLINE
  5
177F
330
2
100
AcDbEntity
  8
Profilo
  6
Continuous
370
     0
100
AcDbPolyline
 90
        5
 70
   128
 43
0.0
 10
0.2356118982431532
 20
0.1586213922201556
 10
0.2390804651063885
 20
0.1581721905309756
 10
0.2419061398571305
 20
0.1584829478937462
 10
0.2430349950365329
 20
0.1591743787477107
 10
0.2443334735205829
 20
0.1604578264545617
  0
LWPOLYLINE
  5
1780
330
2
100
AcDbEntity
  8
Profilo
  6
Continuous
370
     0
100
AcDbPolyline
 90
        6
 70
   128
 43
0.0
 10
0.2371046729251169
 20
0.1564738839506246
 10
0.2406284053532692
 20
0.1563690919692684
 10
0.2424625967401921
 20
0.1565606810923024
 10
0.2447639651550402
 20
0.1574377900517712
 10
0.2461238033997732
 20
0.1584038220713815
 10
0.2469593353086115
 20
0.1599362056876907
  0
LWPOLYLINE
  5
1781
330
2
100
AcDbEntity
  8
Profilo
  6
Continuous
370
     0
100
AcDbPolyline
 90
        6
 70
   128
 43
0.0
 10
0.2390106443933035
 20
0.1566206914938994
 10
0.2410508429387042
 20
0.15698283335151
 10
0.2429058792946872
 20
0.1577196869328534
 10
0.2441314948370783
 20
0.1584703841140065
 10
0.2450054724307451
 20
0.1593606965739092
 10
0.2452073515993289
 20
0.1599724671413323
  0
LWPOLYLINE
  5
1782
330
2
100
AcDbEntity
  8
Profilo
  6
Continuous
370
     0
100
AcDbPolyline
 90
       73
 70
   128
 43
0.0
 10
0.2478973080821065
 20
0.1539876679046901
 10
0.2489814223450697
 20
0.1546073194016582
 10
0.2495505720602225
 20
0.155488420740695
 10
0.2496786020407482
 20
0.1563655818770206
 10
0.2493134986889212
 20
0.157251316219124
 10
0.2485811218426273
 20
0.1578677179840064
 10
0.2478570039709949
 20
0.1576016891213348
 10
0.2471724132176121
 20
0.1572711235374427
 10
0.2482753106186371
 20
0.1586566465308161
 10
0.2484678479991382
 20
0.1595733188528687
 10
0.2485043314148649
 20
0.1605275297402227
 10
0.2483077699342635
 20
0.1614277465000267
 10
0.2476898523016491
 20
0.162291756312775
 10
0.2469272872242625
 20
0.1626677944711745
 10
0.245867169897549
 20
0.1629503305488291
 10
0.2449724439488206
 20
0.1628904268306748
 10
0.2446811868371519
 20
0.1635107687982689
 10
0.2452867175521867
 20
0.1639704106784534
 10
0.2463708318151498
 20
0.1645900621754213
 10
0.2471407734636175
 20
0.1655054025005462
 10
0.2477505360583398
 20
0.1668994977968943
 10
0.2477558508453983
 20
0.1684114865510471
 10
0.2470651697860458
 20
0.17011841761123
 10
0.2463858952466964
 20
0.1712998384517612
 10
0.2456462428181902
 20
0.1720005344090552
 10
0.2449138660188712
 20
0.1726169394064698
 10
0.2443228879891848
 20
0.1719887132767983
 10
0.2435134148475937
 20
0.1711379101970158
 10
0.2427112187621638
 20
0.1702028138276259
 10
0.2421338130202484
 20
0.17020414492175
 10
0.2416552294723191
 20
0.170044135304966
 10
0.2413742931193354
 20
0.1695614363743776
 10
0.240949792275928
 20
0.1691683043599614
 10
0.2401122966240381
 20
0.1692322018846091
 10
0.2390812846680204
 20
0.1691775694632902
 10
0.2382583417014779
 20
0.1690728827384516
 10
0.237548775041243
 20
0.16863826872349
 10
0.2371898644112313
 20
0.168862176767725
 10
0.2373054079122809
 20
0.1696873145913191
 10
0.2371931144663684
 20
0.1705947739868996
 10
0.2367978214095006
 20
0.171240143819716
 10
0.2361892455649688
 20
0.1717992518778351
 10
0.2354516563944342
 20
0.1722793384673038
 10
0.2349283319300675
 20
0.1720475494935236
 10
0.2348825081532322
 20
0.1713982380310703
 10
0.2344537753831615
 20
0.1700706493679578
 10
0.2342299654841993
 20
0.1683360836636942
 10
0.2339542429294035
 20
0.1679897008113225
 10
0.2332800753975261
 20
0.1679317679079868
 10
0.2327546876282103
 20
0.1679205850694991
 10
0.2322781687652275
 20
0.167539963755162
 10
0.2319774674496324
 20
0.1670895371311787
 10
0.2315238612355301
 20
0.1670335736157358
 10
0.231112931158969
 20
0.1672699946897787
 10
0.2307560838339047
 20
0.1672732965987211
 10
0.2302525243791242
 20
0.1670092385508681
 10
0.2296054003399677
 20
0.1668347409541226
 10
0.2289936769031176
 20
0.1670369253718065
 10
0.2285327921589051
 20
0.1670652542431681
 10
0.228158245983149
 20
0.166880214431433
 10
0.2278066095553504
 20
0.167019833845518
 10
0.2273291102947912
 20
0.1674373540044625
 10
0.2266996851063263
 20
0.1674511981283944
 10
0.2261638741155068
 20
0.1671673826093507
 10
0.2257341594739106
 20
0.166637934516717
 10
0.2255322832062498
 20
0.1660261625223685
 10
0.2251618636403903
 20
0.1653999104400479
 10
0.224278544211665
 20
0.1648144965022424
 10
0.2236189307921093
 20
0.164587977019691
 10
0.2225358993895412
 20
0.1645458576281802
 10
0.221916900323504
 20
0.1648323330057426
 10
0.2215091193132102
 20
0.1654256786230246
 10
0.2212989841178627
 20
0.1656963404887626
  0
LWPOLYLINE
  5
1783
330
2
100
AcDbEntity
  8
Profilo
  6
Continuous
370
     0
100
AcDbPolyline
 90
        6
 70
   128
 43
0.0
 10
0.2225233104472446
 20
0.16311816073671
 10
0.2237769470259856
 20
0.1629541564106287
 10
0.2251877189559481
 20
0.1633301447219
 10
0.226160521644525
 20
0.1640591150439694
 10
0.2266797166450498
 20
0.1647321209477925
 10
0.2270980247666419
 20
0.1657870792600775
  0
LWPOLYLINE
  5
1784
330
2
100
AcDbEntity
  8
Profilo
  6
Continuous
370
     0
100
AcDbPolyline
 90
        6
 70
   128
 43
0.0
 10
0.2247194575936779
 20
0.1620670918772049
 10
0.2261749718670529
 20
0.162514857215744
 10
0.2274401145276945
 20
0.1632010176756764
 10
0.2283785995213368
 20
0.1641308413213058
 10
0.2288437132912895
 20
0.1650369705255654
 10
0.2290830562731756
 20
0.1658048105070609
  0
LWPOLYLINE
  5
1785
330
2
100
AcDbEntity
  8
Profilo
  6
Continuous
370
     0
100
AcDbPolyline
 90
        7
 70
   128
 43
0.0
 10
0.2262154823307787
 20
0.1616521808268478
 10
0.2278000084562048
 20
0.1621789667312339
 10
0.2289288636356082
 20
0.1628703975851984
 10
0.2298600715730901
 20
0.1638845145204353
 10
0.2304240089640031
 20
0.1646293006840587
 10
0.2308246153339803
 20
0.1654959187025917
 10
0.2308423156116452
 20
0.16568425809354
  0
LWPOLYLINE
  5
1786
330
2
100
AcDbEntity
  8
Profilo
  6
Continuous
370
     0
100
AcDbPolyline
 90
        6
 70
   128
 43
0.0
 10
0.2293834502942627
 20
0.1621282228598913
 10
0.2301107172321624
 20
0.1627511762658018
 10
0.2306299122326871
 20
0.1634241821696249
 10
0.2309785035309879
 20
0.1643033126938438
 10
0.2309650337060356
 20
0.1650494290487876
 10
0.2308693576773928
 20
0.1655676957298593
  0
LWPOLYLINE
  5
1787
330
2
100
AcDbEntity
  8
Profilo
  6
Continuous
370
     0
100
AcDbPolyline
 90
        5
 70
   128
 43
0.0
 10
0.2301512262219383
 20
0.1618884989741027
 10
0.2316743954876061
 20
0.1627326991388041
 10
0.2325983277959009
 20
0.1638311070339202
 10
0.233079077111598
 20
0.1651461840941497
 10
0.2332091718240452
 20
0.1658027367654538
  0
LWPOLYLINE
  5
1788
330
2
100
AcDbEntity
  8
Profilo
  6
Continuous
370
     0
100
AcDbPolyline
 90
        6
 70
   128
 43
0.0
 10
0.2339612112171068
 20
0.1637783923477589
 10
0.2348976314788276
 20
0.1649288244584102
 10
0.235385657850685
 20
0.166159608229032
 10
0.2356781017125433
 20
0.167492469615905
 10
0.2358966978133168
 20
0.1690907192419517
 10
0.2357095776826945
 20
0.1710617092527911
  0
LWPOLYLINE
  5
1789
330
2
100
AcDbEntity
  8
Profilo
  6
Continuous
370
     0
100
AcDbPolyline
 90
        8
 70
   128
 43
0.0
 10
0.2303373673819582
 20
0.1607156481068166
 10
0.2319312324415206
 20
0.1609375369160306
 10
0.233060087620923
 20
0.1616289677699954
 10
0.2344573926268572
 20
0.1627510710092848
 10
0.2357433831574811
 20
0.163982494500601
 10
0.2366559103727459
 20
0.1656064102856398
 10
0.237184549624172
 20
0.1673501880135724
 10
0.2374520161522042
 20
0.1685790032991046
  0
LWPOLYLINE
  5
178A
330
2
100
AcDbEntity
  8
Profilo
  6
Continuous
370
     0
100
AcDbPolyline
 90
        6
 70
   128
 43
0.0
 10
0.2326646935751846
 20
0.1608986649268764
 10
0.2349639972581112
 20
0.1619963823513664
 10
0.2365548185681732
 20
0.1632370155366232
 10
0.2375359812202831
 20
0.1644592279070742
 10
0.2380760240907902
 20
0.1656774968422814
 10
0.2382051384056618
 20
0.167132190986867
  0
LWPOLYLINE
  5
178B
330
2
100
AcDbEntity
  8
Profilo
  6
Continuous
370
     0
100
AcDbPolyline
 90
       15
 70
   128
 43
0.0
 10
0.2342502001451638
 20
0.1606273125905122
 10
0.2376502355083234
 20
0.1619554887974619
 10
0.2395906270872885
 20
0.1632771133633843
 10
0.240677890416519
 20
0.1642536894035909
 10
0.2414135158440018
 20
0.165369883955079
 10
0.2419431340660303
 20
0.166315522539459
 10
0.2419671310022808
 20
0.1672177101140815
 10
0.2415666256211741
 20
0.1677267647714844
 10
0.2409996430537866
 20
0.1680007253136326
 10
0.2404315776729797
 20
0.167697156982856
 10
0.2399966521341179
 20
0.1670313913850798
 10
0.2397125682357934
 20
0.166191772046588
 10
0.2393015357433876
 20
0.1650525227744242
 10
0.2385617808520619
 20
0.164377545152979
 10
0.2375587899323941
 20
0.1634082112244262
  0
LWPOLYLINE
  5
178C
330
2
100
AcDbEntity
  8
Profilo
  6
Continuous
370
     0
100
AcDbPolyline
 90
       17
 70
   128
 43
0.0
 10
0.2343307143700821
 20
0.1761417413843487
 10
0.2364411624075764
 20
0.1773867038645607
 10
0.239128102255715
 20
0.1787049976979234
 10
0.2415634736743657
 20
0.1796235141328337
 10
0.2434396304701991
 20
0.1799150765682598
 10
0.2448701585824731
 20
0.1794257668730588
 10
0.2458406379085218
 20
0.1787869782659861
 10
0.2464085765791504
 20
0.1780173991440406
 10
0.2467997218817457
 20
0.1766179030545927
 10
0.2469608435908563
 20
0.1751436706416307
 10
0.246762510273804
 20
0.1741887199322825
 10
0.2461443620402059
 20
0.173351795674471
 10
0.2451840297538421
 20
0.1727853350856148
 10
0.2432647873733602
 20
0.1718436947009825
 10
0.240981814415635
 20
0.1708474821069628
 10
0.2386240664410675
 20
0.1700814033512723
 10
0.2373201213788416
 20
0.1695941177710756
  0
LWPOLYLINE
  5
178D
330
2
100
AcDbEntity
  8
Profilo
  6
Continuous
370
     0
100
AcDbPolyline
 90
        5
 70
   128
 43
0.0
 10
0.2209839573651893
 20
0.1662580145060009
 10
0.2249360305535122
 20
0.1679873750799503
 10
0.2297521161307428
 20
0.1701882947368671
 10
0.2354121004720788
 20
0.1727270189979337
 10
0.2433751755279108
 20
0.1763957088017878
  0
LWPOLYLINE
  5
178E
330
2
100
AcDbEntity
  8
Profilo
  6
Continuous
370
     0
100
AcDbPolyline
 90
        3
 70
   128
 43
0.0
 10
0.2442375910904486
 20
0.1792202332357033
 10
0.2432601641532868
 20
0.1763583393408816
 10
0.2461212211774608
 20
0.1753797230829031
  0
LWPOLYLINE
  5
178F
330
2
100
AcDbEntity
  8
Profilo
  6
Continuous
370
     0
100
AcDbPolyline
 90
        3
 70
   128
 43
0.0
 10
0.2418855432580909
 20
0.1792192985833598
 10
0.2402468816584449
 20
0.1748704050798178
 10
0.2439260195477413
 20
0.1733306963738765
  0
LWPOLYLINE
  5
1790
330
2
100
AcDbEntity
  8
Profilo
  6
Continuous
370
     0
100
AcDbPolyline
 90
        3
 70
   128
 43
0.0
 10
0.238334586889076
 20
0.1774294471970796
 10
0.2370050018943326
 20
0.1734990137582697
 10
0.240875349966597
 20
0.1719578277328282
  0
LWPOLYLINE
  5
1791
330
2
100
AcDbEntity
  8
Profilo
  6
Continuous
370
     0
100
AcDbPolyline
 90
        3
 70
   128
 43
0.0
 10
0.2322822089766161
 20
0.1735546774944909
 10
0.231863995818034
 20
0.1713197401974515
 10
0.2340349805071096
 20
0.1701169029733667
  0
LWPOLYLINE
  5
1792
330
2
100
AcDbEntity
  8
Profilo
  6
Continuous
370
     0
100
AcDbPolyline
 90
        3
 70
   128
 43
0.0
 10
0.2304017774739382
 20
0.172689258547766
 10
0.229540785702901
 20
0.1700560211717741
 10
0.2315593710868127
 20
0.1689308827050964
  0
LWPOLYLINE
  5
1793
330
2
100
AcDbEntity
  8
Profilo
  6
Continuous
370
     0
100
AcDbPolyline
 90
        6
 70
   128
 43
0.0
 10
0.2261737466802423
 20
0.1698525121835464
 10
0.2273382871046028
 20
0.1695948157103491
 10
0.228163491059199
 20
0.1699901570219544
 10
0.2284552942026021
 20
0.1706574371855185
 10
0.2286522045277799
 20
0.1714211039693656
 10
0.2283531036161692
 20
0.1723416419209816
  0
LWPOLYLINE
  5
1794
330
2
100
AcDbEntity
  8
Profilo
  6
Continuous
370
     0
100
AcDbPolyline
 90
        7
 70
   128
 43
0.0
 10
0.2275339483170127
 20
0.167622943561524
 10
0.2277495509635958
 20
0.1683290757020899
 10
0.228422354813401
 20
0.1688021126386812
 10
0.2293597217153804
 20
0.1688522518936431
 10
0.2299477773431535
 20
0.1682164225880423
 10
0.2301145975506094
 20
0.1675073337443025
 10
0.2299018433312661
 20
0.1671837731212862
  0
CIRCLE
  5
1795
330
2
100
AcDbEntity
  8
Profilo
  6
Continuous
370
     0
100
AcDbCircle
 10
0.2091925005722972
 20
0.1606434331839983
 30
0.0
 40
0.0445271625243995
  0
CIRCLE
  5
1796
330
2
100
AcDbEntity
  8
Profilo
  6
Continuous
370
     0
100
AcDbCircle
 10
0.2091925005722972
 20
0.1606434331839983
 30
0.0
 40
0.0498028249654778
  0
CIRCLE
  5
1797
330
2
100
AcDbEntity
  8
Profilo
  6
Continuous
370
     0
100
AcDbCircle
 10
0.2091925005722972
 20
0.1606434331839983
 30
0.0
 40
0.0506033173133805
  0
CIRCLE
  5
1798
102
{ACAD_REACTORS
330
183A
102
}
330
2
100
AcDbEntity
  8
Profilo
  6
Continuous
370
     0
100
AcDbCircle
 10
0.2091925005722972
 20
0.1606434331839983
 30
0.0
 40
0.055
  0
LWPOLYLINE
  5
1799
330
2
100
AcDbEntity
  8
Profilo
  6
Continuous
370
     0
100
AcDbPolyline
 90
        2
 70
   128
 43
0.0
 10
0.2137461375209551
 20
0.2070629131018933
 10
0.2096506493188688
 20
0.2072334760041645
  0
LWPOLYLINE
  5
179A
330
2
100
AcDbEntity
  8
Profilo
  6
Continuous
370
     0
100
AcDbPolyline
 90
        2
 70
   128
 43
0.0
 10
0.2129782317755566
 20
0.2085127003638914
 10
0.2086420096014212
 20
0.208696233645054
  0
LWPOLYLINE
  5
179B
330
2
100
AcDbEntity
  8
Profilo
  6
Continuous
370
     0
100
AcDbPolyline
 90
       13
 70
   128
 43
0.0
 10
0.2117837141556134
 20
0.2101330522566223
 10
0.2129429095920186
 20
0.2086477589281013
 10
0.2133974562895702
 20
0.2080901726411855
 10
0.213790019098183
 20
0.2072434682430202
 10
0.2138933274010908
 20
0.2068304418759601
 10
0.2142239063207629
 20
0.2058185276223559
 10
0.2139759707650031
 20
0.2054674562474321
 10
0.213252829036719
 20
0.2054468045833866
 10
0.2119098456870212
 20
0.2059424358781661
 10
0.2103809134025161
 20
0.2067478369482405
 10
0.209616447260264
 20
0.2072021666433912
 10
0.2086027260004402
 20
0.2087151516617076
 10
0.2077349542872913
 20
0.210202045546046
  0
LWPOLYLINE
  5
179C
330
2
100
AcDbEntity
  8
Profilo
  6
Continuous
370
     0
100
AcDbPolyline
 90
        2
 70
   128
 43
0.0
 10
0.2060436365700671
 20
0.207179315906941
 10
0.2019759317579703
 20
0.2066734573509155
  0
LWPOLYLINE
  5
179D
330
2
100
AcDbEntity
  8
Profilo
  6
Continuous
370
     0
100
AcDbPolyline
 90
        2
 70
   128
 43
0.0
 10
0.2050475769177629
 20
0.2084829368288041
 10
0.200740286577024
 20
0.2079502482431115
  0
LWPOLYLINE
  5
179E
330
2
100
AcDbEntity
  8
Profilo
  6
Continuous
370
     0
100
AcDbPolyline
 90
       13
 70
   128
 43
0.0
 10
0.2036026498053243
 20
0.2098845780954517
 10
0.2049905065737292
 20
0.2086103395299066
 10
0.2055306295332251
 20
0.2081351739206318
 10
0.2060572012603012
 20
0.2073646311815038
 10
0.2062270824782706
 20
0.2069742419435405
 10
0.2067197083443277
 20
0.2060305403832625
 10
0.2065329387555028
 20
0.2056434483130889
 10
0.2058230588900294
 20
0.2055040530943417
 10
0.2044168138528795
 20
0.2057718768300705
 10
0.2027761695527799
 20
0.2063146392963759
 10
0.2019473495222748
 20
0.2066369455351917
 10
0.200698424949957
 20
0.2079624423744675
 10
0.1995977538222364
 20
0.2092862264346622
  0
LWPOLYLINE
  5
179F
330
2
100
AcDbEntity
  8
Profilo
  6
Continuous
370
     0
100
AcDbPolyline
 90
        2
 70
   128
 43
0.0
 10
0.198427028420685
 20
0.2060263411412997
 10
0.1944980633821363
 20
0.2048578596297108
  0
LWPOLYLINE
  5
17A0
330
2
100
AcDbEntity
  8
Profilo
  6
Continuous
370
     0
100
AcDbPolyline
 90
        2
 70
   128
 43
0.0
 10
0.1972299847722549
 20
0.2071482363425652
 10
0.1930691179171395
 20
0.2059138562460196
  0
LWPOLYLINE
  5
17A1
330
2
100
AcDbEntity
  8
Profilo
  6
Continuous
370
     0
100
AcDbPolyline
 90
       13
 70
   128
 43
0.0
 10
0.1955740620123034
 20
0.2082929338631814
 10
0.1971527229979397
 20
0.2072645079669881
 10
0.1977636890730405
 20
0.2068847243145115
 10
0.1984099062145343
 20
0.206211361631689
 10
0.1986417264307869
 20
0.2058542583235652
 10
0.1992829616937817
 20
0.2050045111751315
 10
0.1991624526594045
 20
0.2045919572723087
 10
0.198485198328953
 20
0.2043376208370509
 10
0.1970540503031568
 20
0.2043703314803826
 10
0.1953464464871288
 20
0.2046356501977142
 10
0.1944758806182305
 20
0.2048171413061901
 10
0.1930258201400488
 20
0.2059189938679622
 10
0.191722273036885
 20
0.2070435587256985
  0
LWPOLYLINE
  5
17A2
330
2
100
AcDbEntity
  8
Profilo
  6
Continuous
370
     0
100
AcDbPolyline
 90
        2
 70
   128
 43
0.0
 10
0.1911040742881065
 20
0.2036354389509944
 10
0.187421020947311
 20
0.2018362076134745
  0
LWPOLYLINE
  5
17A3
330
2
100
AcDbEntity
  8
Profilo
  6
Continuous
370
     0
100
AcDbPolyline
 90
        2
 70
   128
 43
0.0
 10
0.1897386988738221
 20
0.2045450060551346
 10
0.1858377531055657
 20
0.2026426051189809
  0
LWPOLYLINE
  5
17A4
330
2
100
AcDbEntity
  8
Profilo
  6
Continuous
370
     0
100
AcDbPolyline
 90
       13
 70
   128
 43
0.0
 10
0.1879169497225801
 20
0.2054015354653607
 10
0.1896433531690214
 20
0.2046469750160615
 10
0.1903084967978676
 20
0.2043729328284001
 10
0.1910567322347223
 20
0.2038151177805452
 10
0.1913441679980687
 20
0.2035010412496077
 10
0.1921165214316032
 20
0.202768427400102
 10
0.1920655601239858
 20
0.2023416650596514
 10
0.1914394050612218
 20
0.2019793250428312
 10
0.1900223920341979
 20
0.2017760303326859
 10
0.1882944076829522
 20
0.2017566680980694
 10
0.1874058427431686
 20
0.2017923934718779
 10
0.1857942002289423
 20
0.2026405460905765
 10
0.1843233345172148
 20
0.2035352165480573
  0
LWPOLYLINE
  5
17A5
330
2
100
AcDbEntity
  8
Profilo
  6
Continuous
370
     0
100
AcDbPolyline
 90
        2
 70
   128
 43
0.0
 10
0.1842745252715536
 20
0.2000718269151602
 10
0.1809378477226442
 20
0.1976909240923508
  0
LWPOLYLINE
  5
17A6
330
2
100
AcDbEntity
  8
Profilo
  6
Continuous
370
     0
100
AcDbPolyline
 90
        2
 70
   128
 43
0.0
 10
0.1827780619734467
 20
0.2007442553026386
 10
0.1792434449236016
 20
0.1982257260652263
  0
LWPOLYLINE
  5
17A7
330
2
100
AcDbEntity
  8
Profilo
  6
Continuous
370
     0
100
AcDbPolyline
 90
       13
 70
   128
 43
0.0
 10
0.1808401789988156
 20
0.201289252712969
 10
0.1826672331204406
 20
0.2008291401526283
 10
0.183368410918737
 20
0.2006683145862871
 10
0.1841982547387388
 20
0.20024126291379
 10
0.184533465550845
 20
0.1999787803490662
 10
0.1854158693666266
 20
0.1993832835945215
 10
0.1854358458773957
 20
0.198953953780604
 10
0.1848778699601663
 20
0.1984934938733305
 10
0.1835136443534155
 20
0.1980597391594512
 10
0.1818124143755346
 20
0.197756224124173
 10
0.1809300881001068
 20
0.1976452092682461
 10
0.1792008249563848
 20
0.1982165265514018
 10
0.1776027620184504
 20
0.1988568983307788
  0
LWPOLYLINE
  5
17A8
330
2
100
AcDbEntity
  8
Profilo
  6
Continuous
370
     0
100
AcDbPolyline
 90
        2
 70
   128
 43
0.0
 10
0.1781246736648905
 20
0.1954327110804914
 10
0.1752253877733318
 20
0.1925350815948483
  0
LWPOLYLINE
  5
17A9
330
2
100
AcDbEntity
  8
Profilo
  6
Continuous
370
     0
100
AcDbPolyline
 90
        2
 70
   128
 43
0.0
 10
0.1765379421007456
 20
0.1958496586577876
 10
0.1734660689083736
 20
0.1927837000313972
  0
LWPOLYLINE
  5
17AA
330
2
100
AcDbEntity
  8
Profilo
  6
Continuous
370
     0
100
AcDbPolyline
 90
       13
 70
   128
 43
0.0
 10
0.1745367856985895
 20
0.1960682579595709
 10
0.1764146532217348
 20
0.1959151439594111
 10
0.1771327388869777
 20
0.1958719219165987
 10
0.1780215551139594
 20
0.1955872824758442
 10
0.1783953972976988
 20
0.1953835537174591
 10
0.1793637818198892
 20
0.194941417656995
 10
0.1794541512419059
 20
0.1945212313677551
 10
0.1789795745986984
 20
0.1939752117159692
 10
0.1777053489305018
 20
0.1933228286962363
 10
0.1760772784450069
 20
0.1927434399592547
 10
0.1752252583946765
 20
0.1924887130694672
 10
0.1734255444121668
 20
0.1927676109709089
 10
0.171743875239132
 20
0.1931362163993653
  0
LWPOLYLINE
  5
17AB
330
2
100
AcDbEntity
  8
Profilo
  6
Continuous
370
     0
100
AcDbPolyline
 90
        2
 70
   128
 43
0.0
 10
0.1728222713884815
 20
0.1898446344336855
 10
0.1704394621155219
 20
0.1865093180640207
  0
LWPOLYLINE
  5
17AC
330
2
100
AcDbEntity
  8
Profilo
  6
Continuous
370
     0
100
AcDbPolyline
 90
        2
 70
   128
 43
0.0
 10
0.1711885534590678
 20
0.1899947279577918
 10
0.1686632168170803
 20
0.1864649713013937
  0
LWPOLYLINE
  5
17AD
330
2
100
AcDbEntity
  8
Profilo
  6
Continuous
370
     0
100
AcDbPolyline
 90
       13
 70
   128
 43
0.0
 10
0.1691787099594117
 20
0.1898809663319212
 10
0.1710561675532816
 20
0.1900390274427279
 10
0.1717715735804335
 20
0.1901145879081008
 10
0.1726951176246931
 20
0.1899801249210333
 10
0.1730973937398286
 20
0.1898407071584342
 10
0.174125343963051
 20
0.1895639921112175
 10
0.1742836412540578
 20
0.1891644109332817
 10
0.1739054090985705
 20
0.1885477255297172
 10
0.1727559409234978
 20
0.1876945095122737
 10
0.1712454394491703
 20
0.1868550512879794
 10
0.1704469665098589
 20
0.1864635606498619
 10
0.168625893194501
 20
0.1864424315618705
 10
0.166906489337622
 20
0.1865292160442005
  0
LWPOLYLINE
  5
17AE
330
2
100
AcDbEntity
  8
Profilo
  6
Continuous
370
     0
100
AcDbPolyline
 90
        2
 70
   128
 43
0.0
 10
0.1685119541540958
 20
0.1834600251386382
 10
0.1667106183251805
 20
0.1797780006209952
  0
LWPOLYLINE
  5
17AF
330
2
100
AcDbEntity
  8
Profilo
  6
Continuous
370
     0
100
AcDbPolyline
 90
        2
 70
   128
 43
0.0
 10
0.166875813425742
 20
0.183339170449482
 10
0.1649658979346711
 20
0.1794418983232737
  0
LWPOLYLINE
  5
17B0
330
2
100
AcDbEntity
  8
Profilo
  6
Continuous
370
     0
100
AcDbPolyline
 90
       13
 70
   128
 43
0.0
 10
0.1649121061199859
 20
0.1828961510165568
 10
0.1667379416355867
 20
0.183361075743262
 10
0.1674311536131503
 20
0.1835533576242962
 10
0.1683642336006601
 20
0.183572738890684
 10
0.1687839706034255
 20
0.1835014350769997
 10
0.1698434467252579
 20
0.1833976891081763
 10
0.1700653539478072
 20
0.1830296125744482
 10
0.1697937834672638
 20
0.1823590829893356
 10
0.1688004272806909
 20
0.1813283074829688
 10
0.1674486973601672
 20
0.1802516780034165
 10
0.1667255517921955
 20
0.1797341024610366
 10
0.1649327932768489
 20
0.1794135227300533
 10
0.1632225555911901
 20
0.1792161190118093
  0
LWPOLYLINE
  5
17B1
330
2
100
AcDbEntity
  8
Profilo
  6
Continuous
370
     0
100
AcDbPolyline
 90
        2
 70
   128
 43
0.0
 10
0.1653112961797278
 20
0.1764530386934848
 10
0.1641405695405389
 20
0.1725247420583833
  0
LWPOLYLINE
  5
17B2
330
2
100
AcDbEntity
  8
Profilo
  6
Continuous
370
     0
100
AcDbPolyline
 90
        2
 70
   128
 43
0.0
 10
0.1637173623064045
 20
0.1760645323919412
 10
0.1624749654820681
 20
0.1719060522200959
  0
LWPOLYLINE
  5
17B3
330
2
100
AcDbEntity
  8
Profilo
  6
Continuous
370
     0
100
AcDbPolyline
 90
       13
 70
   128
 43
0.0
 10
0.1618533560108455
 20
0.1753043395672262
 10
0.1635777654149093
 20
0.1760634459752535
 10
0.1642298743272068
 20
0.1763672043234761
 10
0.1651470382682652
 20
0.1765399011728952
 10
0.1655727868273988
 20
0.176538656290288
 10
0.1666348891010845
 20
0.1766107093194416
 10
0.1669143532046142
 20
0.1762841775982575
 10
0.1667568521337923
 20
0.1755780941307381
 10
0.1659467041030025
 20
0.1743978760042308
 10
0.164790617404817
 20
0.1731134429150589
 10
0.1641625247341807
 20
0.1724839005799945
 10
0.1624469827977695
 20
0.1718726147853913
 10
0.1607925621091395
 20
0.171396407525414
  0
LWPOLYLINE
  5
17B4
330
2
100
AcDbEntity
  8
Profilo
  6
Continuous
370
     0
100
AcDbPolyline
 90
        2
 70
   128
 43
0.0
 10
0.163307603071428
 20
0.1690148074225981
 10
0.1627994199928242
 20
0.1649473923619387
  0
LWPOLYLINE
  5
17B5
330
2
100
AcDbEntity
  8
Profilo
  6
Continuous
370
     0
100
AcDbPolyline
 90
        2
 70
   128
 43
0.0
 10
0.1617993544141223
 20
0.1683692469478133
 10
0.1612583656032021
 20
0.1640629912290696
  0
LWPOLYLINE
  5
17B6
330
2
100
AcDbEntity
  8
Profilo
  6
Continuous
370
     0
100
AcDbPolyline
 90
       13
 70
   128
 43
0.0
 10
0.1600858943614023
 20
0.1673126168098917
 10
0.161661840260586
 20
0.1683451984552728
 10
0.1622550582764095
 20
0.1687521475347833
 10
0.1631312883295735
 20
0.1690734492473687
 10
0.1635514351342246
 20
0.1691422972529906
 10
0.1645871921784323
 20
0.1693881838613143
 10
0.1649165901107059
 20
0.1691121038868235
 10
0.1648774546682432
 20
0.1683897266532692
 10
0.1642726135196186
 20
0.1670922591805135
 10
0.1633437050752056
 20
0.1656350584681276
 10
0.1628277980326427
 20
0.1649107216141843
 10
0.1612362681871104
 20
0.1640254040389351
 10
0.1596827927791402
 20
0.1632833829298967
  0
LWPOLYLINE
  5
17B7
330
2
100
AcDbEntity
  8
Profilo
  6
Continuous
370
     0
100
AcDbPolyline
 90
        2
 70
   128
 43
0.0
 10
0.1625555303539503
 20
0.1613482268850264
 10
0.162723752745582
 20
0.1572526418787044
  0
LWPOLYLINE
  5
17B8
330
2
100
AcDbEntity
  8
Profilo
  6
Continuous
370
     0
100
AcDbPolyline
 90
        2
 70
   128
 43
0.0
 10
0.1611741080043236
 20
0.1604632214439017
 10
0.1613492839713286
 20
0.1561266536086965
  0
LWPOLYLINE
  5
17B9
330
2
100
AcDbEntity
  8
Profilo
  6
Continuous
370
     0
100
AcDbPolyline
 90
       13
 70
   128
 43
0.0
 10
0.1596579329180239
 20
0.1591389761085069
 10
0.1610424276163815
 20
0.1604168668556956
 10
0.1615605732946648
 20
0.1609159061564416
 10
0.1623719681882445
 20
0.1613770484590451
 10
0.1627750527288239
 20
0.1615141113587764
 10
0.1637562117914042
 20
0.1619271244005735
 10
0.1641265584355063
 20
0.1617090269147932
 10
0.1642068561342542
 20
0.1609900604830388
 10
0.1638238203576261
 20
0.1596107351944458
 10
0.1631474283678651
 20
0.1580205154956411
 10
0.1627577795526278
 20
0.1572211421439895
 10
0.1613336745833509
 20
0.1560859419436962
 10
0.159923519215563
 20
0.155098347387147
  0
LWPOLYLINE
  5
17BA
330
2
100
AcDbEntity
  8
Profilo
  6
Continuous
370
     0
100
AcDbPolyline
 90
        2
 70
   128
 43
0.0
 10
0.1630755926105216
 20
0.1536624214125508
 10
0.1639156318040689
 20
0.1496503833431448
  0
LWPOLYLINE
  5
17BB
330
2
100
AcDbEntity
  8
Profilo
  6
Continuous
370
     0
100
AcDbPolyline
 90
        2
 70
   128
 43
0.0
 10
0.161858678169172
 20
0.152562111646483
 10
0.1627452405703726
 20
0.1483135219607721
  0
LWPOLYLINE
  5
17BC
330
2
100
AcDbEntity
  8
Profilo
  6
Continuous
370
     0
100
AcDbPolyline
 90
       13
 70
   128
 43
0.0
 10
0.1605811453532739
 20
0.151006373074315
 10
0.1617364234445429
 20
0.1524947153949401
 10
0.1621653631218862
 20
0.1530722324256957
 10
0.1628897901183333
 20
0.1536606365584108
 10
0.1632648172993365
 20
0.1538621756336429
 10
0.1641646149187546
 20
0.154431049189778
 10
0.1645658081836538
 20
0.1542768833235826
 10
0.1647633487117117
 20
0.1535809392236802
 10
0.1646125665245668
 20
0.1521573805174905
 10
0.1642071411997161
 20
0.1504775188802567
 10
0.1639543792157463
 20
0.1496249138521191
 10
0.1627365449939209
 20
0.1482707963289997
 10
0.1615081750287493
 20
0.1470645673299753
  0
LWPOLYLINE
  5
17BD
330
2
100
AcDbEntity
  8
Profilo
  6
Continuous
370
     0
100
AcDbPolyline
 90
        2
 70
   128
 43
0.0
 10
0.1648536038984831
 20
0.1461670397430606
 10
0.1663425458145644
 20
0.142347986550502
  0
LWPOLYLINE
  5
17BE
330
2
100
AcDbEntity
  8
Profilo
  6
Continuous
370
     0
100
AcDbPolyline
 90
        2
 70
   128
 43
0.0
 10
0.1638343916191118
 20
0.1448814392341748
 10
0.1654081573432986
 20
0.1408367181493373
  0
LWPOLYLINE
  5
17BF
330
2
100
AcDbEntity
  8
Profilo
  6
Continuous
370
     0
100
AcDbPolyline
 90
       13
 70
   128
 43
0.0
 10
0.1628303488385523
 20
0.143136643917974
 10
0.1637248973479881
 20
0.1447948397133481
 10
0.1640529306681566
 20
0.1454350813149889
 10
0.1646706292874489
 20
0.1461346971469299
 10
0.1650073693450018
 20
0.146395214937064
 10
0.165801261387795
 20
0.1471044316198682
 10
0.1662223577670598
 20
0.1470184026162071
 10
0.1665317527337713
 20
0.1463644643890114
 10
0.1666173370811155
 20
0.1449355032357893
 10
0.1664939373671714
 20
0.1432118219065177
 10
0.1663849569024904
 20
0.1423292420444862
 10
0.1654066127710321
 20
0.1407931439946504
 10
0.1643935349390038
 20
0.1394011833358399
  0
LWPOLYLINE
  5
17C0
330
2
100
AcDbEntity
  8
Profilo
  6
Continuous
370
     0
100
AcDbPolyline
 90
        2
 70
   128
 43
0.0
 10
0.1678410647048292
 20
0.1390665363494981
 10
0.1699382948893557
 20
0.1355446418493507
  0
LWPOLYLINE
  5
17C1
330
2
100
AcDbEntity
  8
Profilo
  6
Continuous
370
     0
100
AcDbPolyline
 90
        2
 70
   128
 43
0.0
 10
0.1670473560415298
 20
0.1376307129283663
 10
0.1692653968622473
 20
0.1339001898917957
  0
LWPOLYLINE
  5
17C2
330
2
100
AcDbEntity
  8
Profilo
  6
Continuous
370
     0
100
AcDbPolyline
 90
       13
 70
   128
 43
0.0
 10
0.1663441909660186
 20
0.1357444543360169
 10
0.1669536089421975
 20
0.1375272723474357
 10
0.1671717880113359
 20
0.1382127743980546
 10
0.1676659090453585
 20
0.1390045182330883
 10
0.1679551765885057
 20
0.1393169084919283
 10
0.168621507749271
 20
0.1401471227190849
 10
0.1690510208313904
 20
0.1401315772249172
 10
0.1694638307485965
 20
0.1395374826005764
 10
0.1697834471125352
 20
0.1381420973355576
 10
0.1699454390320163
 20
0.1364216138476093
 10
0.1699832127896084
 20
0.1355331336296059
 10
0.1692710454260711
 20
0.1338569558035447
 10
0.1685008938495462
 20
0.1323172325431499
  0
LWPOLYLINE
  5
17C3
330
2
100
AcDbEntity
  8
Profilo
  6
Continuous
370
     0
100
AcDbPolyline
 90
        2
 70
   128
 43
0.0
 10
0.1719564848864916
 20
0.1325545944548085
 10
0.1746047963670998
 20
0.1294259267481428
  0
LWPOLYLINE
  5
17C4
330
2
100
AcDbEntity
  8
Profilo
  6
Continuous
370
     0
100
AcDbPolyline
 90
        2
 70
   128
 43
0.0
 10
0.1714099301425538
 20
0.1310077136414467
 10
0.1742117436882147
 20
0.1276931475968333
  0
LWPOLYLINE
  5
17C5
330
2
100
AcDbEntity
  8
Profilo
  6
Continuous
370
     0
100
AcDbPolyline
 90
       13
 70
   128
 43
0.0
 10
0.1710268232823369
 20
0.1290314439902389
 10
0.1713344873915039
 20
0.1308902535898109
 10
0.1714368608533556
 20
0.131602317380437
 10
0.1717939259683785
 20
0.1324645925106662
 10
0.1720278305326079
 20
0.1328203340462917
 10
0.1725484250342735
 20
0.1337488997378908
 10
0.1729746388220246
 20
0.1338042617937731
 10
0.1734796033112991
 20
0.1332862161249502
 10
0.1740245333906021
 20
0.1319624692206669
 10
0.1744674982262255
 20
0.130292113878627
 10
0.1746509958364539
 20
0.129421968728904
 10
0.1742244313100318
 20
0.1276514328882428
 10
0.1737182137163842
 20
0.1260059466630479
  0
LWPOLYLINE
  5
17C6
330
2
100
AcDbEntity
  8
Profilo
  6
Continuous
370
     0
100
AcDbPolyline
 90
        2
 70
   128
 43
0.0
 10
0.1770876065090139
 20
0.1268088428585137
 10
0.1802147602521469
 20
0.1241587438445393
  0
LWPOLYLINE
  5
17C7
330
2
100
AcDbEntity
  8
Profilo
  6
Continuous
370
     0
100
AcDbPolyline
 90
        2
 70
   128
 43
0.0
 10
0.1768031142730919
 20
0.1251930995290928
 10
0.1801122743739523
 20
0.1223849031977047
  0
LWPOLYLINE
  5
17C8
330
2
100
AcDbEntity
  8
Profilo
  6
Continuous
370
     0
100
AcDbPolyline
 90
       13
 70
   128
 43
0.0
 10
0.1767505157846303
 20
0.1231807263033613
 10
0.1767480337519069
 20
0.1250648240107648
 10
0.1767318091253003
 20
0.1257840262974019
 10
0.1769420785157854
 20
0.1266933121050573
 10
0.1771142397943279
 20
0.1270827012157256
 10
0.1774748971759781
 20
0.1280842895202903
 10
0.1778861856682878
 20
0.1282090489936563
 10
0.1784695306147066
 20
0.1277811832157525
 10
0.1792249101373367
 20
0.1265651830370027
 10
0.1799367649631112
 20
0.1249905187803109
 10
0.1802609810895097
 20
0.1241624439902536
 10
0.1801316549685143
 20
0.1223458457372828
 10
0.1799031796540866
 20
0.1206394811220492
  0
LWPOLYLINE
  5
17C9
330
2
100
AcDbEntity
  8
Profilo
  6
Continuous
370
     0
100
AcDbPolyline
 90
        2
 70
   128
 43
0.0
 10
0.1830944659503704
 20
0.1219860106861035
 10
0.1866151613537967
 20
0.1198867681576294
  0
LWPOLYLINE
  5
17CA
330
2
100
AcDbEntity
  8
Profilo
  6
Continuous
370
     0
100
AcDbPolyline
 90
        2
 70
   128
 43
0.0
 10
0.1830797964290429
 20
0.1203454781067221
 10
0.1868060378238887
 20
0.1181202517640578
  0
LWPOLYLINE
  5
17CB
330
2
100
AcDbEntity
  8
Profilo
  6
Continuous
370
     0
100
AcDbPolyline
 90
       13
 70
   128
 43
0.0
 10
0.1833591410619881
 20
0.118351893602199
 10
0.1830465805907568
 20
0.1202098861434526
 10
0.1829122004412129
 20
0.1209166089625413
 10
0.1829699385063179
 20
0.1218481025011213
 10
0.1830756603882868
 20
0.1222605176669549
 10
0.1832665428567122
 20
0.1233078078664826
 10
0.1836516871756597
 20
0.1234985616441226
 10
0.1842975004497518
 20
0.1231725468201963
 10
0.1852427246314603
 20
0.1220974626819806
 10
0.1862040519034034
 20
0.1206614422467158
 10
0.1866601427752146
 20
0.1198980255379669
 10
0.1868315827390976
 20
0.11808491693751
 10
0.1868870819148771
 20
0.1163642191107803
  0
LWPOLYLINE
  5
17CC
330
2
100
AcDbEntity
  8
Profilo
  6
Continuous
370
     0
100
AcDbPolyline
 90
        2
 70
   128
 43
0.0
 10
0.1898132117437141
 20
0.1182176522270566
 10
0.1936314134145958
 20
0.1167265280479426
  0
LWPOLYLINE
  5
17CD
330
2
100
AcDbEntity
  8
Profilo
  6
Continuous
370
     0
100
AcDbPolyline
 90
        2
 70
   128
 43
0.0
 10
0.1900687650832831
 20
0.1165970798499309
 10
0.1941104456204492
 20
0.1150155218698861
  0
LWPOLYLINE
  5
17CE
330
2
100
AcDbEntity
  8
Profilo
  6
Continuous
370
     0
100
AcDbPolyline
 90
       13
 70
   128
 43
0.0
 10
0.1906724330442451
 20
0.1146766638550127
 10
0.1900583199693777
 20
0.1164578700370158
 10
0.189809449837071
 20
0.1171328358323407
 10
0.1897130816328927
 20
0.1180611283863351
 10
0.1897494803009438
 20
0.1184853199966962
 10
0.1897653810800008
 20
0.1195497447446254
 10
0.1901138754925604
 20
0.1198012895607436
 10
0.1908045409917189
 20
0.1195860185253339
 10
0.1919138265808424
 20
0.1186811759204076
 10
0.1930984037969709
 20
0.1174229702006182
 10
0.1936739284441504
 20
0.1167450355909139
 10
0.1941414580576079
 20
0.1149848735191694
 10
0.1944794178507552
 20
0.1132967786321326
  0
LWPOLYLINE
  5
17CF
330
2
100
AcDbEntity
  8
Profilo
  6
Continuous
370
     0
100
AcDbPolyline
 90
        2
 70
   128
 43
0.0
 10
0.1970605740182663
 20
0.1156065584767583
 10
0.2010721313683303
 20
0.1147642266275399
  0
LWPOLYLINE
  5
17D0
330
2
100
AcDbEntity
  8
Profilo
  6
Continuous
370
     0
100
AcDbPolyline
 90
        2
 70
   128
 43
0.0
 10
0.1975793793898051
 20
0.1140501512918193
 10
0.2018262525601129
 20
0.1131554024532759
  0
LWPOLYLINE
  5
17D1
330
2
100
AcDbEntity
  8
Profilo
  6
Continuous
370
     0
100
AcDbPolyline
 90
       13
 70
   128
 43
0.0
 10
0.1984909041904546
 20
0.1122552877486964
 10
0.1975919899157592
 20
0.1139111209100621
 10
0.1972354183291447
 20
0.1145359183742309
 10
0.1969875725290793
 20
0.1154356885426451
 10
0.1969536551224324
 20
0.115860085756188
 10
0.1967941404803177
 20
0.1169126103201437
 10
0.1970964789673726
 20
0.1172180846878845
 10
0.1978131571372099
 20
0.1171194294736682
 10
0.199056245714571
 20
0.1164095101495448
 10
0.2004317606963895
 20
0.1153634397173691
 10
0.2011110203068434
 20
0.1147894794956181
 10
0.2018618865807795
 20
0.1131302765855033
 10
0.2024730883291328
 20
0.1115208314661429
  0
LWPOLYLINE
  5
17D2
330
2
100
AcDbEntity
  8
Profilo
  6
Continuous
370
     0
100
AcDbPolyline
 90
        2
 70
   128
 43
0.0
 10
0.2046388636236402
 20
0.1142239532661031
 10
0.2087343518257265
 20
0.1140533903638321
  0
LWPOLYLINE
  5
17D3
330
2
100
AcDbEntity
  8
Profilo
  6
Continuous
370
     0
100
AcDbPolyline
 90
        2
 70
   128
 43
0.0
 10
0.2054067693690387
 20
0.1127741660041053
 10
0.2097429915431732
 20
0.1125906327229424
  0
LWPOLYLINE
  5
17D4
330
2
100
AcDbEntity
  8
Profilo
  6
Continuous
370
     0
100
AcDbPolyline
 90
       13
 70
   128
 43
0.0
 10
0.2066012869889811
 20
0.1111538141113744
 10
0.2054420915525767
 20
0.1126391074398954
 10
0.2049875448550242
 20
0.1131966937268112
 10
0.2045949820464115
 20
0.1140433981249764
 10
0.2044916737435036
 20
0.1144564244920365
 10
0.2041610948238315
 20
0.1154683387456408
 10
0.2044090303795922
 20
0.1158194101205645
 10
0.2051321721078763
 20
0.11584006178461
 10
0.2064751554575732
 20
0.1153444304898303
 10
0.2080040877420792
 20
0.1145390294197559
 10
0.2087685538843313
 20
0.1140846997246052
 10
0.2097822751441551
 20
0.112571714706289
 10
0.2106500468573031
 20
0.1110848208219504
  0
LWPOLYLINE
  5
17D5
330
2
100
AcDbEntity
  8
Profilo
  6
Continuous
370
     0
100
AcDbPolyline
 90
        2
 70
   128
 43
0.0
 10
0.2123413645745282
 20
0.1141075504610554
 10
0.2164090693866241
 20
0.1146134090170809
  0
LWPOLYLINE
  5
17D6
330
2
100
AcDbEntity
  8
Profilo
  6
Continuous
370
     0
100
AcDbPolyline
 90
        2
 70
   128
 43
0.0
 10
0.2133374242268324
 20
0.1128039295391925
 10
0.2176447145675713
 20
0.1133366181248849
  0
LWPOLYLINE
  5
17D7
330
2
100
AcDbEntity
  8
Profilo
  6
Continuous
370
     0
100
AcDbPolyline
 90
       13
 70
   128
 43
0.0
 10
0.214782351339271
 20
0.1114022882725449
 10
0.2133944945708661
 20
0.11267652683809
 10
0.2128543716113702
 20
0.1131516924473646
 10
0.2123277998842941
 20
0.1139222351864926
 10
0.2121579186663247
 20
0.1143126244244561
 10
0.2116652928002676
 20
0.1152563259847341
 10
0.2118520623890925
 20
0.1156434180549075
 10
0.2125619422545659
 20
0.1157828132736549
 10
0.2139681872917158
 20
0.1155149895379262
 10
0.2156088315918154
 20
0.1149722270716207
 10
0.2164376516223205
 20
0.1146499208328047
 10
0.2176865761946383
 20
0.1133244239935291
 10
0.2187872473223589
 20
0.1120006399333342
  0
LWPOLYLINE
  5
17D8
330
2
100
AcDbEntity
  8
Profilo
  6
Continuous
370
     0
100
AcDbPolyline
 90
        2
 70
   128
 43
0.0
 10
0.2199579727239103
 20
0.1152605252266969
 10
0.2238869377624582
 20
0.1164290067382858
  0
LWPOLYLINE
  5
17D9
330
2
100
AcDbEntity
  8
Profilo
  6
Continuous
370
     0
100
AcDbPolyline
 90
        2
 70
   128
 43
0.0
 10
0.2211550163723395
 20
0.1141386300254312
 10
0.2253158832274558
 20
0.115373010121977
  0
LWPOLYLINE
  5
17DA
330
2
100
AcDbEntity
  8
Profilo
  6
Continuous
370
     0
100
AcDbPolyline
 90
       13
 70
   128
 43
0.0
 10
0.222810939132291
 20
0.1129939325048153
 10
0.2212322781466556
 20
0.1140223584010083
 10
0.2206213120715548
 20
0.1144021420534851
 10
0.2199750949300609
 20
0.1150755047363074
 10
0.2197432747138075
 20
0.1154326080444314
 10
0.2191020394508127
 20
0.1162823551928649
 10
0.2192225484851908
 20
0.1166949090956877
 10
0.2198998028156414
 20
0.1169492455309455
 10
0.2213309508414385
 20
0.116916534887614
 10
0.2230385546574665
 20
0.1166512161702822
 10
0.2239091205263648
 20
0.1164697250618063
 10
0.2253591810045457
 20
0.1153678725000344
 10
0.2266627281077103
 20
0.1142433076422979
  0
LWPOLYLINE
  5
17DB
330
2
100
AcDbEntity
  8
Profilo
  6
Continuous
370
     0
100
AcDbPolyline
 90
        2
 70
   128
 43
0.0
 10
0.2272809268564888
 20
0.1176514274170022
 10
0.2309639801972843
 20
0.1194506587545219
  0
LWPOLYLINE
  5
17DC
330
2
100
AcDbEntity
  8
Profilo
  6
Continuous
370
     0
100
AcDbPolyline
 90
        2
 70
   128
 43
0.0
 10
0.2286463022707732
 20
0.1167418603128618
 10
0.2325472480390296
 20
0.1186442612490155
  0
LWPOLYLINE
  5
17DD
330
2
100
AcDbEntity
  8
Profilo
  6
Continuous
370
     0
100
AcDbPolyline
 90
       13
 70
   128
 43
0.0
 10
0.2304680514220143
 20
0.115885330902636
 10
0.2287416479755739
 20
0.1166398913519351
 10
0.2280765043467277
 20
0.1169139335395963
 10
0.227328268909873
 20
0.1174717485874512
 10
0.2270408331465266
 20
0.117785825118389
 10
0.2262684797129921
 20
0.1185184389678944
 10
0.2263194410206095
 20
0.1189452013083452
 10
0.2269455960833735
 20
0.1193075413251652
 10
0.2283626091103974
 20
0.1195108360353105
 10
0.2300905934616431
 20
0.1195301982699271
 10
0.2309791584014267
 20
0.1194944728961187
 10
0.232590800915653
 20
0.1186463202774202
 10
0.2340616666273805
 20
0.1177516498199393
  0
LWPOLYLINE
  5
17DE
330
2
100
AcDbEntity
  8
Profilo
  6
Continuous
370
     0
100
AcDbPolyline
 90
        2
 70
   128
 43
0.0
 10
0.2341104758730417
 20
0.1212150394528362
 10
0.2374471534219511
 20
0.1235959422756456
  0
LWPOLYLINE
  5
17DF
330
2
100
AcDbEntity
  8
Profilo
  6
Continuous
370
     0
100
AcDbPolyline
 90
        2
 70
   128
 43
0.0
 10
0.2356069391711486
 20
0.1205426110653578
 10
0.2391415562209929
 20
0.1230611403027704
  0
LWPOLYLINE
  5
17E0
330
2
100
AcDbEntity
  8
Profilo
  6
Continuous
370
     0
100
AcDbPolyline
 90
       13
 70
   128
 43
0.0
 10
0.2375448221457796
 20
0.1199976136550274
 10
0.2357177680241547
 20
0.1204577262153679
 10
0.2350165902258583
 20
0.1206185517817093
 10
0.2341867464058565
 20
0.1210456034542064
 10
0.2338515355937503
 20
0.1213080860189302
 10
0.2329691317779687
 20
0.1219035827734749
 10
0.2329491552671996
 20
0.1223329125873924
 10
0.2335071311844281
 20
0.1227933724946659
 10
0.2348713567911798
 20
0.1232271272085454
 10
0.2365725867690607
 20
0.1235306422438234
 10
0.2374549130444876
 20
0.1236416570997505
 10
0.2391841761882096
 20
0.1230703398165946
 10
0.2407822391261449
 20
0.1224299680372176
  0
LWPOLYLINE
  5
17E1
330
2
100
AcDbEntity
  8
Profilo
  6
Continuous
370
     0
100
AcDbPolyline
 90
        2
 70
   128
 43
0.0
 10
0.2402603274797048
 20
0.125854155287505
 10
0.2431596133712626
 20
0.1287517847731481
  0
LWPOLYLINE
  5
17E2
330
2
100
AcDbEntity
  8
Profilo
  6
Continuous
370
     0
100
AcDbPolyline
 90
        2
 70
   128
 43
0.0
 10
0.2418470590438497
 20
0.1254372077102088
 10
0.2449189322362217
 20
0.1285031663365994
  0
LWPOLYLINE
  5
17E3
330
2
100
AcDbEntity
  8
Profilo
  6
Continuous
370
     0
100
AcDbPolyline
 90
       13
 70
   128
 43
0.0
 10
0.2438482154460058
 20
0.1252186084084255
 10
0.2419703479228596
 20
0.1253717224085855
 10
0.2412522622576168
 20
0.1254149444513979
 10
0.2403634460306359
 20
0.1256995838921524
 10
0.2399896038468956
 20
0.1259033126505376
 10
0.2390212193247061
 20
0.1263454487110016
 10
0.2389308499026894
 20
0.1267656350002415
 10
0.239405426545896
 20
0.1273116546520274
 10
0.2406796522140935
 20
0.1279640376717601
 10
0.2423077226995884
 20
0.1285434264087419
 10
0.2431597427499188
 20
0.1287981532985292
 10
0.2449594567324285
 20
0.1285192553970875
 10
0.2466411259054633
 20
0.1281506499686313
  0
LWPOLYLINE
  5
17E4
330
2
100
AcDbEntity
  8
Profilo
  6
Continuous
370
     0
100
AcDbPolyline
 90
        2
 70
   128
 43
0.0
 10
0.2455627297561138
 20
0.1314422319343111
 10
0.2479455390290735
 20
0.1347775483039759
  0
LWPOLYLINE
  5
17E5
330
2
100
AcDbEntity
  8
Profilo
  6
Continuous
370
     0
100
AcDbPolyline
 90
        2
 70
   128
 43
0.0
 10
0.2471964476855275
 20
0.1312921384102046
 10
0.249721784327515
 20
0.1348218950666029
  0
LWPOLYLINE
  5
17E6
330
2
100
AcDbEntity
  8
Profilo
  6
Continuous
370
     0
100
AcDbPolyline
 90
       13
 70
   128
 43
0.0
 10
0.2492062911851836
 20
0.1314059000360752
 10
0.2473288335913137
 20
0.1312478389252687
 10
0.2466134275641618
 20
0.1311722784598956
 10
0.2456898835199022
 20
0.1313067414469631
 10
0.2452876074047667
 20
0.1314461592095621
 10
0.2442596571815443
 20
0.1317228742567789
 10
0.2441013598905366
 20
0.1321224554347147
 10
0.2444795920460239
 20
0.1327391408382792
 10
0.2456290602210975
 20
0.1335923568557229
 10
0.2471395616954251
 20
0.1344318150800172
 10
0.2479380346347364
 20
0.1348233057181345
 10
0.2497591079500943
 20
0.134844434806126
 10
0.2514785118069733
 20
0.1347576503237959
  0
LWPOLYLINE
  5
17E7
330
2
100
AcDbEntity
  8
Profilo
  6
Continuous
370
     0
100
AcDbPolyline
 90
        2
 70
   128
 43
0.0
 10
0.2498730469904995
 20
0.1378268412293582
 10
0.2516743828194148
 20
0.1415088657470014
  0
LWPOLYLINE
  5
17E8
330
2
100
AcDbEntity
  8
Profilo
  6
Continuous
370
     0
100
AcDbPolyline
 90
        2
 70
   128
 43
0.0
 10
0.2515091877188533
 20
0.1379476959185144
 10
0.2534191032099242
 20
0.1418449680447227
  0
LWPOLYLINE
  5
17E9
330
2
100
AcDbEntity
  8
Profilo
  6
Continuous
370
     0
100
AcDbPolyline
 90
       13
 70
   128
 43
0.0
 10
0.2534728950246095
 20
0.1383907153514399
 10
0.2516470595090086
 20
0.1379257906247346
 10
0.250953847531445
 20
0.1377335087437004
 10
0.2500207675439343
 20
0.1377141274773126
 10
0.2496010305411689
 20
0.1377854312909967
 10
0.2485415544193374
 20
0.1378891772598203
 10
0.2483196471967872
 20
0.1382572537935485
 10
0.2485912176773315
 20
0.1389277833786611
 10
0.2495845738639044
 20
0.1399585588850278
 10
0.2509363037844281
 20
0.1410351883645802
 10
0.2516594493523989
 20
0.1415527639069598
 10
0.2534522078677464
 20
0.1418733436379433
 10
0.2551624455534052
 20
0.1420707473561873
  0
LWPOLYLINE
  5
17EA
330
2
100
AcDbEntity
  8
Profilo
  6
Continuous
370
     0
100
AcDbPolyline
 90
        2
 70
   128
 43
0.0
 10
0.2530737049648666
 20
0.1448338276745118
 10
0.2542444316040564
 20
0.1487621243096131
  0
LWPOLYLINE
  5
17EB
330
2
100
AcDbEntity
  8
Profilo
  6
Continuous
370
     0
100
AcDbPolyline
 90
        2
 70
   128
 43
0.0
 10
0.2546676388381908
 20
0.1452223339760552
 10
0.2559100356625263
 20
0.1493808141479007
  0
LWPOLYLINE
  5
17EC
330
2
100
AcDbEntity
  8
Profilo
  6
Continuous
370
     0
100
AcDbPolyline
 90
       13
 70
   128
 43
0.0
 10
0.2565316451337489
 20
0.1459825268007704
 10
0.254807235729686
 20
0.1452234203927432
 10
0.2541551268173885
 20
0.1449196620445206
 10
0.2532379628763293
 20
0.1447469651951012
 10
0.2528122143171965
 20
0.1447482100777084
 10
0.2517501120435108
 20
0.1446761570485551
 10
0.2514706479399811
 20
0.1450026887697391
 10
0.251628149010803
 20
0.1457087722372583
 10
0.2524382970415928
 20
0.1468889903637658
 10
0.2535943837397774
 20
0.1481734234529375
 10
0.2542224764104146
 20
0.1488029657880019
 10
0.2559380183468249
 20
0.1494142515826053
 10
0.2575924390354558
 20
0.1498904588425827
  0
LWPOLYLINE
  5
17ED
330
2
100
AcDbEntity
  8
Profilo
  6
Continuous
370
     0
100
AcDbPolyline
 90
        2
 70
   128
 43
0.0
 10
0.2550773980731673
 20
0.1522720589453983
 10
0.2555855811517711
 20
0.1563394740060577
  0
LWPOLYLINE
  5
17EE
330
2
100
AcDbEntity
  8
Profilo
  6
Continuous
370
     0
100
AcDbPolyline
 90
        2
 70
   128
 43
0.0
 10
0.256585646730473
 20
0.1529176194201833
 10
0.2571266355413924
 20
0.1572238751389268
  0
LWPOLYLINE
  5
17EF
330
2
100
AcDbEntity
  8
Profilo
  6
Continuous
370
     0
100
AcDbPolyline
 90
       13
 70
   128
 43
0.0
 10
0.2582991067831921
 20
0.1539742495581049
 10
0.2567231608840093
 20
0.1529416679127236
 10
0.2561299428681849
 20
0.1525347188332133
 10
0.255253712815021
 20
0.152213417120628
 10
0.2548335660103707
 20
0.1521445691150058
 10
0.2537978089661621
 20
0.1518986825066821
 10
0.2534684110338885
 20
0.1521747624811731
 10
0.2535075464763521
 20
0.1528971397147272
 10
0.2541123876249758
 20
0.1541946071874831
 10
0.2550412960693897
 20
0.155651807899869
 10
0.2555572031119517
 20
0.1563761447538121
 10
0.2571487329574849
 20
0.1572614623290616
 10
0.2587022083654542
 20
0.1580034834380997
  0
LWPOLYLINE
  5
17F0
330
2
100
AcDbEntity
  8
Profilo
  6
Continuous
370
     0
100
AcDbPolyline
 90
        2
 70
   128
 43
0.0
 10
0.255829470790645
 20
0.15993863948297
 10
0.2556612483990124
 20
0.1640342244892923
  0
LWPOLYLINE
  5
17F1
330
2
100
AcDbEntity
  8
Profilo
  6
Continuous
370
     0
100
AcDbPolyline
 90
        2
 70
   128
 43
0.0
 10
0.2572108931402717
 20
0.1608236449240947
 10
0.2570357171732658
 20
0.1651602127592999
  0
LWPOLYLINE
  5
17F2
330
2
100
AcDbEntity
  8
Profilo
  6
Continuous
370
     0
100
AcDbPolyline
 90
       13
 70
   128
 43
0.0
 10
0.2587270682265705
 20
0.1621478902594893
 10
0.2573425735282138
 20
0.1608699995123008
 10
0.2568244278499305
 20
0.1603709602115548
 10
0.2560130329563508
 20
0.1599098179089513
 10
0.2556099484157714
 20
0.1597727550092201
 10
0.2546287893531902
 20
0.1593597419674229
 10
0.254258442709089
 20
0.1595778394532032
 10
0.2541781450103411
 20
0.1602968058849576
 10
0.2545611807869692
 20
0.1616761311735506
 10
0.2552375727767302
 20
0.1632663508723553
 10
0.2556272215919666
 20
0.1640657242240069
 10
0.2570513265612444
 20
0.1652009244243002
 10
0.2584614819290314
 20
0.1661885189808496
  0
LWPOLYLINE
  5
17F3
330
2
100
AcDbEntity
  8
Profilo
  6
Continuous
370
     0
100
AcDbPolyline
 90
        2
 70
   128
 43
0.0
 10
0.2553094085340737
 20
0.1676244449554456
 10
0.2544693693405264
 20
0.1716364830248516
  0
LWPOLYLINE
  5
17F4
330
2
100
AcDbEntity
  8
Profilo
  6
Continuous
370
     0
100
AcDbPolyline
 90
        2
 70
   128
 43
0.0
 10
0.2565263229754224
 20
0.1687247547215134
 10
0.2556397605742227
 20
0.1729733444072246
  0
LWPOLYLINE
  5
17F5
330
2
100
AcDbEntity
  8
Profilo
  6
Continuous
370
     0
100
AcDbPolyline
 90
       13
 70
   128
 43
0.0
 10
0.2578038557913214
 20
0.1702804932936817
 10
0.2566485777000524
 20
0.1687921509730565
 10
0.2562196380227091
 20
0.1682146339423007
 10
0.2554952110262612
 20
0.1676262298095859
 10
0.2551201838452579
 20
0.1674246907343537
 10
0.2542203862258407
 20
0.1668558171782186
 10
0.2538191929609406
 20
0.1670099830444141
 10
0.2536216524328836
 20
0.1677059271443164
 10
0.2537724346200276
 20
0.1691294858505059
 10
0.2541778599448792
 20
0.1708093474877397
 10
0.2544306219288481
 20
0.1716619525158776
 10
0.2556484561506735
 20
0.1730160700389969
 10
0.2568768261158461
 20
0.1742222990380211
  0
LWPOLYLINE
  5
17F6
330
2
100
AcDbEntity
  8
Profilo
  6
Continuous
370
     0
100
AcDbPolyline
 90
        2
 70
   128
 43
0.0
 10
0.2535313972461122
 20
0.1751198266249359
 10
0.2520424553300309
 20
0.1789388798174947
  0
LWPOLYLINE
  5
17F7
330
2
100
AcDbEntity
  8
Profilo
  6
Continuous
370
     0
100
AcDbPolyline
 90
        2
 70
   128
 43
0.0
 10
0.2545506095254826
 20
0.1764054271338216
 10
0.2529768438012967
 20
0.1804501482186591
  0
LWPOLYLINE
  5
17F8
330
2
100
AcDbEntity
  8
Profilo
  6
Continuous
370
     0
100
AcDbPolyline
 90
       13
 70
   128
 43
0.0
 10
0.255554652306043
 20
0.1781502224500224
 10
0.2546601037966063
 20
0.1764920266546484
 10
0.2543320704764387
 20
0.1758517850530075
 10
0.2537143718571455
 20
0.1751521692210667
 10
0.2533776317995935
 20
0.1748916514309327
 10
0.2525837397568003
 20
0.1741824347481284
 10
0.2521626433775355
 20
0.1742684637517895
 10
0.2518532484108231
 20
0.174922401978985
 10
0.2517676640634798
 20
0.1763513631322073
 10
0.251891063777423
 20
0.1780750444614787
 10
0.2520000442421049
 20
0.1789576243235103
 10
0.2529783883735632
 20
0.180493722373346
 10
0.2539914662055915
 20
0.1818856830321564
  0
LWPOLYLINE
  5
17F9
330
2
100
AcDbEntity
  8
Profilo
  6
Continuous
370
     0
100
AcDbPolyline
 90
        2
 70
   128
 43
0.0
 10
0.2505439364397661
 20
0.1822203300184984
 10
0.2484467062552396
 20
0.1857422245186457
  0
LWPOLYLINE
  5
17FA
330
2
100
AcDbEntity
  8
Profilo
  6
Continuous
370
     0
100
AcDbPolyline
 90
        2
 70
   128
 43
0.0
 10
0.2513376451030655
 20
0.1836561534396301
 10
0.249119604282348
 20
0.1873866764762007
  0
LWPOLYLINE
  5
17FB
330
2
100
AcDbEntity
  8
Profilo
  6
Continuous
370
     0
100
AcDbPolyline
 90
       13
 70
   128
 43
0.0
 10
0.2520408101785767
 20
0.1855424120319795
 10
0.2514313922023978
 20
0.1837595940205607
 10
0.2512132131332594
 20
0.1830740919699421
 10
0.2507190920992359
 20
0.1822823481349081
 10
0.2504298245560887
 20
0.1819699578760681
 10
0.2497634933953243
 20
0.1811397436489115
 10
0.2493339803132049
 20
0.1811552891430794
 10
0.2489211703959988
 20
0.18174938376742
 10
0.2486015540320601
 20
0.1831447690324386
 10
0.248439562112579
 20
0.1848652525203871
 10
0.2484017883549869
 20
0.1857537327383905
 10
0.2491139557185242
 20
0.1874299105644517
 10
0.2498841072950491
 20
0.1889696338248466
  0
LWPOLYLINE
  5
17FC
330
2
100
AcDbEntity
  8
Profilo
  6
Continuous
370
     0
100
AcDbPolyline
 90
        2
 70
   128
 43
0.0
 10
0.2464285162581037
 20
0.1887322719131879
 10
0.2437802047774946
 20
0.1918609396198536
  0
LWPOLYLINE
  5
17FD
330
2
100
AcDbEntity
  8
Profilo
  6
Continuous
370
     0
100
AcDbPolyline
 90
        2
 70
   128
 43
0.0
 10
0.2469750710020415
 20
0.1902791527265497
 10
0.2441732574563806
 20
0.1935937187711632
  0
LWPOLYLINE
  5
17FE
330
2
100
AcDbEntity
  8
Profilo
  6
Continuous
370
     0
100
AcDbPolyline
 90
       13
 70
   128
 43
0.0
 10
0.2473581778622584
 20
0.1922554223777575
 10
0.2470505137530914
 20
0.1903966127781855
 10
0.2469481402912397
 20
0.1896845489875594
 10
0.2465910751762168
 20
0.1888222738573302
 10
0.2463571706119874
 20
0.1884665323217047
 10
0.2458365761103218
 20
0.1875379666301056
 10
0.2454103623225698
 20
0.1874826045742233
 10
0.2449053978332962
 20
0.1880006502430462
 10
0.2443604677539932
 20
0.1893243971473295
 10
0.2439175029183698
 20
0.1909947524893694
 10
0.2437340053081414
 20
0.1918648976390924
 10
0.2441605698345635
 20
0.1936354334797539
 10
0.2446667874282111
 20
0.1952809197049485
  0
LWPOLYLINE
  5
17FF
330
2
100
AcDbEntity
  8
Profilo
  6
Continuous
370
     0
100
AcDbPolyline
 90
        2
 70
   128
 43
0.0
 10
0.2412973946355814
 20
0.1944780235094827
 10
0.2381702408924484
 20
0.1971281225234571
  0
LWPOLYLINE
  5
1800
330
2
100
AcDbEntity
  8
Profilo
  6
Continuous
370
     0
100
AcDbPolyline
 90
        2
 70
   128
 43
0.0
 10
0.2415818868715034
 20
0.1960937668389036
 10
0.238272726770643
 20
0.1989019631702917
  0
LWPOLYLINE
  5
1801
330
2
100
AcDbEntity
  8
Profilo
  6
Continuous
370
     0
100
AcDbPolyline
 90
       13
 70
   128
 43
0.0
 10
0.241634485359965
 20
0.1981061400646351
 10
0.2416369673926884
 20
0.1962220423572316
 10
0.241653192019295
 20
0.1955028400705945
 10
0.2414429226288099
 20
0.1945935542629391
 10
0.2412707613502674
 20
0.1942041651522708
 10
0.2409101039686172
 20
0.1932025768477061
 10
0.2404988154763075
 20
0.1930778173743401
 10
0.2399154705298887
 20
0.1935056831522441
 10
0.2391600910072578
 20
0.1947216833309937
 10
0.2384482361814841
 20
0.1962963475876856
 10
0.2381240200550847
 20
0.1971244223777431
 10
0.238253346176081
 20
0.1989410206307136
 10
0.2384818214905087
 20
0.2006473852459472
  0
LWPOLYLINE
  5
1802
330
2
100
AcDbEntity
  8
Profilo
  6
Continuous
370
     0
100
AcDbPolyline
 90
        2
 70
   128
 43
0.0
 10
0.2352905351942249
 20
0.1993008556818929
 10
0.2317698397907986
 20
0.201400098210367
  0
LWPOLYLINE
  5
1803
330
2
100
AcDbEntity
  8
Profilo
  6
Continuous
370
     0
100
AcDbPolyline
 90
        2
 70
   128
 43
0.0
 10
0.2353052047155524
 20
0.2009413882612743
 10
0.2315789633207066
 20
0.2031666146039386
  0
LWPOLYLINE
  5
1804
330
2
100
AcDbEntity
  8
Profilo
  6
Continuous
370
     0
100
AcDbPolyline
 90
       13
 70
   128
 43
0.0
 10
0.2350258600826072
 20
0.2029349727657974
 10
0.2353384205538385
 20
0.2010769802245438
 10
0.2354728007033824
 20
0.2003702574054551
 10
0.2354150626382774
 20
0.1994387638668751
 10
0.2353093407563085
 20
0.1990263487010415
 10
0.2351184582878822
 20
0.1979790585015138
 10
0.2347333139689356
 20
0.1977883047238738
 10
0.2340875006948435
 20
0.1981143195478003
 10
0.233142276513135
 20
0.199189403686016
 10
0.2321809492411919
 20
0.2006254241212806
 10
0.2317248583693807
 20
0.2013888408300295
 10
0.2315534184054977
 20
0.2032019494304866
 10
0.2314979192297182
 20
0.2049226472572161
  0
LWPOLYLINE
  5
1805
330
2
100
AcDbEntity
  8
Profilo
  6
Continuous
370
     0
100
AcDbPolyline
 90
        2
 70
   128
 43
0.0
 10
0.2285717894008812
 20
0.2030692141409398
 10
0.2247535877299995
 20
0.2045603383200538
  0
LWPOLYLINE
  5
1806
330
2
100
AcDbEntity
  8
Profilo
  6
Continuous
370
     0
100
AcDbPolyline
 90
        2
 70
   128
 43
0.0
 10
0.2283162360613122
 20
0.2046897865180657
 10
0.2242745555241461
 20
0.2062713444981103
  0
LWPOLYLINE
  5
1807
330
2
100
AcDbEntity
  8
Profilo
  6
Continuous
370
     0
100
AcDbPolyline
 90
       13
 70
   128
 43
0.0
 10
0.2277125681003502
 20
0.2066102025129837
 10
0.2283266811752176
 20
0.2048289963309806
 10
0.2285755513075243
 20
0.2041540305356559
 10
0.2286719195117026
 20
0.2032257379816613
 10
0.2286355208436515
 20
0.2028015463713002
 10
0.2286196200645945
 20
0.201737121623371
 10
0.2282711256520349
 20
0.2014855768072528
 10
0.2275804601528764
 20
0.2017008478426625
 10
0.2264711745637529
 20
0.2026056904475888
 10
0.2252865973476243
 20
0.2038638961673782
 10
0.2247110727004449
 20
0.2045418307770825
 10
0.2242435430869873
 20
0.2063019928488272
 10
0.2239055832938401
 20
0.2079900877358638
  0
LWPOLYLINE
  5
1808
330
2
100
AcDbEntity
  8
Profilo
  6
Continuous
370
     0
100
AcDbPolyline
 90
        2
 70
   128
 43
0.0
 10
0.221324427126329
 20
0.2056803078912381
 10
0.217312869776265
 20
0.2065226397404565
  0
LWPOLYLINE
  5
1809
330
2
100
AcDbEntity
  8
Profilo
  6
Continuous
370
     0
100
AcDbPolyline
 90
        2
 70
   128
 43
0.0
 10
0.2208056217547902
 20
0.2072367150761774
 10
0.2165587485844824
 20
0.2081314639147207
  0
LWPOLYLINE
  5
180A
330
2
100
AcDbEntity
  8
Profilo
  6
Continuous
370
     0
100
AcDbPolyline
 90
       13
 70
   128
 43
0.0
 10
0.2198940969541407
 20
0.2090315786193
 10
0.2207930112288361
 20
0.2073757454579344
 10
0.2211495828154506
 20
0.2067509479937655
 10
0.221397428615516
 20
0.2058511778253513
 10
0.2214313460221629
 20
0.2054267806118084
 10
0.2215908606642776
 20
0.2043742560478527
 10
0.2212885221772227
 20
0.2040687816801119
 10
0.2205718440073854
 20
0.2041674368943285
 10
0.2193287554300243
 20
0.2048773562184516
 10
0.2179532404482058
 20
0.2059234266506273
 10
0.217273980837752
 20
0.2064973868723785
 10
0.2165231145638158
 20
0.2081565897824931
 10
0.2159119128154625
 20
0.2097660349018537
  0
LWPOLYLINE
  5
180B
330
2
100
AcDbEntity
  8
Profilo
  6
Continuous
370
     0
100
AcDbPolyline
 90
       17
 70
   129
 43
0.0
 10
0.2068017071738284
 20
0.1697995106149632
 10
0.2044501442109476
 20
0.1691115792797273
 10
0.2023280019582998
 20
0.1675064050118693
 10
0.2012382542677011
 20
0.1664171801096692
 10
0.2003205714267739
 20
0.1647546796709265
 10
0.1999764389954199
 20
0.1638374384667662
 10
0.1991734651436028
 20
0.1642387303052688
 10
0.1982557823026747
 20
0.1654426110061622
 10
0.1982557823026747
 20
0.1668758015759804
 10
0.1988866913048222
 20
0.1685383020147229
 10
0.1999190831348594
 20
0.1699141664136565
 10
0.2010661866860186
 20
0.1708314076178168
 10
0.2026147785290924
 20
0.1716913226510923
 10
0.2041060145116065
 20
0.1719206325200171
 10
0.2055972477621069
 20
0.1719206325200171
 10
0.2065149306030349
 20
0.1712327011847814
 10
0.2072031954657429
 20
0.1703154582521589
  0
LWPOLYLINE
  5
180C
330
2
100
AcDbEntity
  8
Profilo
  6
Continuous
370
     0
100
AcDbPolyline
 90
       19
 70
   128
 43
0.0
 10
0.203819237940813
 20
0.1663598539387845
 10
0.2035324613700205
 20
0.1669904573746737
 10
0.2037045262196919
 20
0.1674490771125228
 10
0.2042780793612771
 20
0.1675637329112163
 10
0.2045075000715091
 20
0.1668184736766336
 10
0.2041060145116065
 20
0.1657292487744335
 10
0.2045648559320705
 20
0.1647546796709265
 10
0.2057693153437903
 20
0.1642387303052688
 10
0.207547325165085
 20
0.1644680419026552
 10
0.2093826908469403
 20
0.16469735177158
 10
0.2108739268294526
 20
0.1650413174391976
 10
0.2115048330995881
 20
0.165671920875087
 10
0.2116769006812706
 20
0.1664171801096692
 10
0.2115048330995881
 20
0.1671051114449047
 10
0.2113327682499166
 20
0.1677357166092561
 10
0.2115048330995881
 20
0.1682516642464518
 10
0.2118489655309412
 20
0.1684809758438384
 10
0.2122504510908438
 20
0.1684236479444918
 10
0.2124798718010767
 20
0.1679076985788339
  0
LWPOLYLINE
  5
180D
330
2
100
AcDbEntity
  8
Profilo
  6
Continuous
370
     0
100
AcDbPolyline
 90
        4
 70
   128
 43
0.0
 10
0.2059413801934617
 20
0.1685956299140698
 10
0.2059987360540223
 20
0.1675064050118693
 10
0.2056546036226683
 20
0.1664171801096692
 10
0.2053104711913143
 20
0.165614594704202
  0
LWPOLYLINE
  5
180E
330
2
100
AcDbEntity
  8
Profilo
  6
Continuous
370
     0
100
AcDbPolyline
 90
        6
 70
   128
 43
0.0
 10
0.2063428657533644
 20
0.1648120075702733
 10
0.2068590630343889
 20
0.165671920875087
 10
0.2074326161759741
 20
0.1664171801096692
 10
0.207547325165085
 20
0.1674490771125228
 10
0.2074899693045236
 20
0.1682516642464518
 10
0.2071458396051815
 20
0.1687102857127631
  0
LWPOLYLINE
  5
180F
330
2
100
AcDbEntity
  8
Profilo
  6
Continuous
370
     0
100
AcDbPolyline
 90
        5
 70
   128
 43
0.0
 10
0.2090959170081588
 20
0.168996923481034
 10
0.2089812052870368
 20
0.1679076985788339
 10
0.2092106259972688
 20
0.1669904573746737
 10
0.2096694674177328
 20
0.1664745080090157
 10
0.2100709529776354
 20
0.1661878702407447
  0
LWPOLYLINE
  5
1810
330
2
100
AcDbEntity
  8
Profilo
  6
Continuous
370
     0
100
AcDbPolyline
 90
        3
 70
   128
 43
0.0
 10
0.2103003736878675
 20
0.1688822676823409
 10
0.210357729548428
 20
0.1679076985788339
 10
0.210357729548428
 20
0.1675064050118693
  0
LWPOLYLINE
  5
1811
330
2
100
AcDbEntity
  8
Profilo
  6
Continuous
370
     0
100
AcDbPolyline
 90
       17
 70
   129
 43
0.0
 10
0.1997457576777091
 20
0.1611990370712495
 10
0.1996733463379758
 20
0.1587499853183731
 10
0.2005441797646625
 20
0.1562356819727855
 10
0.2012433436496348
 20
0.1548626813250482
 10
0.2025408959319517
 20
0.1534761721905646
 10
0.2033069013865791
 20
0.1528654396792304
 10
0.2026771176023843
 20
0.1522257721628459
 10
0.2012485794236651
 20
0.1517250235128653
 10
0.1998855341931467
 20
0.1521679037551171
 10
0.1984993639211048
 20
0.1532816747615258
 10
0.1975098657392955
 20
0.1546887032200788
 10
0.1969919920066809
 20
0.1560631066473002
 10
0.1966527054076836
 20
0.1578016333697383
 10
0.1968954360238122
 20
0.1592907437147173
 10
0.1973562524407946
 20
0.1607089908149222
 10
0.1982940936132271
 20
0.1613691765871279
 10
0.1993791290205316
 20
0.1617403117155924
  0
LWPOLYLINE
  5
1812
330
2
100
AcDbEntity
  8
Profilo
  6
Continuous
370
     0
100
AcDbPolyline
 90
       19
 70
   128
 43
0.0
 10
0.2020954318952048
 20
0.1572996279047867
 10
0.2014070735543409
 20
0.1572217543568144
 10
0.2010240712268407
 20
0.1575271190462704
 10
0.2010922647502893
 20
0.1581080310893173
 10
0.2018719432999916
 20
0.1580959253820553
 10
0.2027837918799342
 20
0.1573775009186351
 10
0.2038524519730505
 20
0.157512726626337
 10
0.2047153474065944
 20
0.1584987984762411
 10
0.2050466943685834
 20
0.1602606474834198
 10
0.205395766910077
 20
0.1620770446214081
 10
0.205529453381728
 20
0.1636015855566864
 10
0.2051246746341562
 20
0.1643964802544706
 10
0.2044690627896983
 20
0.1647904240179738
 10
0.2037616294036386
 20
0.1648393604967224
 10
0.2031087172901902
 20
0.1648705848127425
 10
0.2026711928904508
 20
0.1651936647973486
 10
0.2025594473710983
 20
0.1655918153692557
 10
0.2027380353043426
 20
0.1659559355320495
 10
0.2032996272089536
 20
0.1660146904712638
  0
LWPOLYLINE
  5
1813
330
2
100
AcDbEntity
  8
Profilo
  6
Continuous
370
     0
100
AcDbPolyline
 90
        4
 70
   128
 43
0.0
 10
0.2006248606054832
 20
0.1600087978946512
 10
0.2016784989820719
 20
0.159726757554109
 10
0.2026080706534161
 20
0.1590628791573254
 10
0.2032650319635652
 20
0.1584875772362908
  0
LWPOLYLINE
  5
1814
330
2
100
AcDbEntity
  8
Profilo
  6
Continuous
370
     0
100
AcDbPolyline
 90
        6
 70
   128
 43
0.0
 10
0.2043473651517571
 20
0.1592214297480652
 10
0.2036890527320514
 20
0.1599780903607539
 10
0.2031575067485996
 20
0.1607538695822017
 10
0.2022115614069335
 20
0.161181838024099
 10
0.2014305317476754
 20
0.1613753024230151
 10
0.2008880148882612
 20
0.1611897374570808
  0
LWPOLYLINE
  5
1815
330
2
100
AcDbEntity
  8
Profilo
  6
Continuous
370
     0
100
AcDbPolyline
 90
        5
 70
   128
 43
0.0
 10
0.2012180132287975
 20
0.1631329472200877
 10
0.2022184797984652
 20
0.1626872608847425
 10
0.2031617229210187
 20
0.1626220098261555
 10
0.2037942097239531
 20
0.1628989568268087
 10
0.2041908843022897
 20
0.163192216343127
  0
LWPOLYLINE
  5
1816
330
2
100
AcDbEntity
  8
Profilo
  6
Continuous
370
     0
100
AcDbPolyline
 90
        3
 70
   128
 43
0.0
 10
0.2016992549562939
 20
0.1642430230036196
 10
0.2026438491884042
 20
0.1639964132533775
 10
0.2030255020502132
 20
0.1638724067214523
  0
LWPOLYLINE
  5
1817
330
2
100
AcDbEntity
  8
Profilo
  6
Continuous
370
     0
100
AcDbPolyline
 90
       17
 70
   129
 43
0.0
 10
0.2057448857789295
 20
0.1518307378396362
 10
0.2080516960726841
 20
0.1510050719513869
 10
0.2107120429815632
 20
0.151056321293644
 10
0.2122338977167812
 20
0.1512969851289669
 10
0.2139535119703604
 20
0.1521025757968868
 10
0.2147710618082419
 20
0.1526423635510079
 10
0.2151848078758638
 20
0.1518457354458804
 10
0.2152196055681159
 20
0.1503323750594785
 10
0.214377197287452
 20
0.1491728995323176
 10
0.2128895879429891
 20
0.1481987474312196
 10
0.211245652604787
 20
0.1476924744428103
 10
0.2097784854849909
 20
0.1476246612709273
 10
0.2080202029918094
 20
0.1478392148424683
 10
0.2066789827801738
 20
0.1485302257797396
 10
0.2054725497379417
 20
0.1494067506921122
 10
0.2051344846176262
 20
0.1505026992734604
 10
0.205116808515629
 20
0.1516493163298929
  0
LWPOLYLINE
  5
1818
330
2
100
AcDbEntity
  8
Profilo
  6
Continuous
370
     0
100
AcDbPolyline
 90
       19
 70
   128
 43
0.0
 10
0.2101795335408463
 20
0.1528604271148981
 10
0.2100408812605456
 20
0.1521816951795374
 10
0.2096321079547092
 20
0.1519118011987361
 10
0.2091007007284276
 20
0.1521561687871198
 10
0.2093531478622106
 20
0.1528939462831567
 10
0.2103181868371111
 20
0.1535391604486136
 10
0.2105198136766138
 20
0.1545973036356332
 10
0.2098486529715604
 20
0.1557226789198811
 10
0.2082754268348443
 20
0.1565822498919764
 10
0.2066557998481722
 20
0.1574755351913966
 10
0.2052471866489753
 20
0.1580737876390212
 10
0.2043661133549177
 20
0.1579344561438398
 10
0.2037888553699334
 20
0.1574326675447584
 10
0.2035237050742538
 20
0.1567749806166792
 10
0.2032922480461474
 20
0.156163673140904
 10
0.2028497782465299
 20
0.1558473999152796
 10
0.2024365832861257
 20
0.1558641589039718
 10
0.202145471138949
 20
0.1561465254399139
 10
0.2022631333135729
 20
0.1566987873550132
  0
LWPOLYLINE
  5
1819
330
2
100
AcDbEntity
  8
Profilo
  6
Continuous
370
     0
100
AcDbPolyline
 90
        4
 70
   128
 43
0.0
 10
0.2071485282482701
 20
0.1522990102746502
 10
0.2077423567162926
 20
0.1532139246601969
 10
0.2086609960355163
 20
0.1538928501487879
 10
0.2094111528858358
 20
0.1543398794132627
  0
LWPOLYLINE
  5
181A
330
2
100
AcDbEntity
  8
Profilo
  6
Continuous
370
     0
100
AcDbPolyline
 90
        6
 70
   128
 43
0.0
 10
0.2090476770212408
 20
0.1555960123421975
 10
0.2081246202896221
 20
0.1552037410139737
 10
0.20722255366368
 20
0.154937939706012
 10
0.2065232183019194
 20
0.1541705417463632
 10
0.206097871286838
 20
0.1534875221865777
 10
0.2061067071275922
 20
0.1529142152641976
  0
LWPOLYLINE
  5
181B
330
2
100
AcDbEntity
  8
Profilo
  6
Continuous
370
     0
100
AcDbPolyline
 90
        5
 70
   128
 43
0.0
 10
0.2043605799152965
 20
0.1538285471767358
 10
0.2050936139810817
 20
0.154642322775371
 10
0.2054471495802428
 20
0.1555192366075226
 10
0.2053792065014282
 20
0.1562063486326666
 10
0.2052228793134105
 20
0.1566742307495468
  0
LWPOLYLINE
  5
181C
330
2
100
AcDbEntity
  8
Profilo
  6
Continuous
370
     0
100
AcDbPolyline
 90
        3
 70
   128
 43
0.0
 10
0.2034535469799863
 20
0.1546292675397396
 10
0.2039799824604467
 20
0.1554514234356399
 10
0.204215856900948
 20
0.1557760767510476
  0
LWPOLYLINE
  5
181D
330
2
100
AcDbEntity
  8
Profilo
  6
Continuous
370
     0
100
AcDbPolyline
 90
       17
 70
   129
 43
0.0
 10
0.2165085003444682
 20
0.1546412840414333
 10
0.2180065988513391
 20
0.1565800462120204
 10
0.2187799502362067
 20
0.1591260233930241
 10
0.2190213443035383
 20
0.1606477624708538
 10
0.2187865720774722
 20
0.1625321540191313
 10
0.2185258402101526
 20
0.1634764937092235
 10
0.2194113331268488
 20
0.1636238179802458
 10
0.2208613774621106
 20
0.1631892584742021
 10
0.2217037857427737
 20
0.1620297829470414
 10
0.222170562877956
 20
0.1603139528319422
 10
0.222144053145449
 20
0.1585940304589661
 10
0.221755167730854
 20
0.1571777161866361
 10
0.22100777598724
 20
0.1555717908638181
 10
0.2199361256939225
 20
0.1545097487646707
 10
0.2187296926516904
 20
0.1536332238522979
 10
0.217582915744492
 20
0.1536503715532875
 10
0.2164869559053653
 20
0.1539878847377789
  0
LWPOLYLINE
  5
181E
330
2
100
AcDbEntity
  8
Profilo
  6
Continuous
370
     0
100
AcDbPolyline
 90
       19
 70
   128
 43
0.0
 10
0.2168995891719696
 20
0.1591770761778593
 10
0.2175022556909907
 20
0.1588354703205286
 10
0.2176326222217906
 20
0.1583633019775783
 10
0.2172360009706322
 20
0.1579334174099016
 10
0.2166123433299703
 20
0.1584014946858492
 10
0.2162969216369852
 20
0.1595186834335447
 10
0.2153528737837247
 20
0.160037426180385
 10
0.2140751782225454
 20
0.1597468745062451
 10
0.2127715240360759
 20
0.1585162695755642
 10
0.2114214669677219
 20
0.157251953114268
 10
0.2104172096619656
 20
0.1560971525254746
 10
0.2102774551672297
 20
0.1552161462279649
 10
0.2105763019566895
 20
0.1545120800550623
 10
0.2111198634478937
 20
0.1540566707008042
 10
0.2116297272510366
 20
0.153647637587178
 10
0.2117937902756175
 20
0.1531290899994047
 10
0.2116501672654598
 20
0.1527412970521262
 10
0.2112916621307219
 20
0.1525516890058303
 10
0.210802789449219
 20
0.1528342507008396
  0
LWPOLYLINE
  5
181F
330
2
100
AcDbEntity
  8
Profilo
  6
Continuous
370
     0
100
AcDbPolyline
 90
        4
 70
   128
 43
0.0
 10
0.2164968961707991
 20
0.156120931498865
 10
0.2158102639709352
 20
0.1569684200264714
 10
0.2154484426222734
 20
0.1580518974510328
 10
0.215255103742515
 20
0.1589034786514787
  0
LWPOLYLINE
  5
1820
330
2
100
AcDbEntity
  8
Profilo
  6
Continuous
370
     0
100
AcDbPolyline
 90
        6
 70
   128
 43
0.0
 10
0.2139481301159138
 20
0.158945958984174
 10
0.2140359621019341
 20
0.1579468613578308
 10
0.2140100002504361
 20
0.1570068078938087
 10
0.2145237325690008
 20
0.1561045614299512
 10
0.2150418833159247
 20
0.1554889677281064
 10
0.2155898610252445
 20
0.1553202095300243
  0
LWPOLYLINE
  5
1821
330
2
100
AcDbEntity
  8
Profilo
  6
Continuous
370
     0
100
AcDbPolyline
 90
        5
 70
   128
 43
0.0
 10
0.2141806967188282
 20
0.1539420879659645
 10
0.2136332701167278
 20
0.1548907152804817
 10
0.2129085240106878
 20
0.1554979288925433
 10
0.2122340460757464
 20
0.1556456404775079
 10
0.2117407559818485
 20
0.1556415480121498
  0
LWPOLYLINE
  5
1822
330
2
100
AcDbEntity
  8
Profilo
  6
Continuous
370
     0
100
AcDbPolyline
 90
        3
 70
   128
 43
0.0
 10
0.2131388778083947
 20
0.1533268845822533
 10
0.2125196385960928
 20
0.1540816146202129
 10
0.2122837641555906
 20
0.1544062679356206
  0
LWPOLYLINE
  5
1823
330
2
100
AcDbEntity
  8
Profilo
  6
Continuous
370
     0
100
AcDbPolyline
 90
       17
 70
   129
 43
0.0
 10
0.2171616518865536
 20
0.1657465963527092
 10
0.2157807173885411
 20
0.1677704831584839
 10
0.2135983279207556
 20
0.1692927342486683
 10
0.2122256629238315
 20
0.1699925568854532
 10
0.2103609514549287
 20
0.1703515842424821
 10
0.2093822604610942
 20
0.1703954305137634
 10
0.2095157791127873
 20
0.1712831100257504
 10
0.2103771581049214
 20
0.1725278978672833
 10
0.2117402033354399
 20
0.1729707781095349
 10
0.2135162968146167
 20
0.1728844888805807
 10
0.2151438482370969
 20
0.1723277913844796
 10
0.2163706709529434
 20
0.1715202741973112
 10
0.2176670399456606
 20
0.1703132041928745
 10
0.2183459438519728
 20
0.1689658151408466
 10
0.2188067602689543
 20
0.1675475680406417
 10
0.2184360782831076
 20
0.1664622173213341
 10
0.2177764139542191
 20
0.1655241948845683
  0
LWPOLYLINE
  5
1824
330
2
100
AcDbEntity
  8
Profilo
  6
Continuous
370
     0
100
AcDbPolyline
 90
       19
 70
   128
 43
0.0
 10
0.2129687103126532
 20
0.167520180783663
 10
0.2134798309855901
 20
0.1679877886884373
 10
0.2139691752384563
 20
0.1679658665848835
 10
0.2142554570508617
 20
0.1674558157224366
 10
0.2136175682978063
 20
0.1670073258922968
 10
0.2124575879958517
 20
0.1670525723447644
 10
0.2116725074960275
 20
0.1663150298067098
 10
0.2115540089169974
 20
0.1650100837123551
 10
0.2123215324568992
 20
0.1633899570663759
 10
0.2131067782885765
 20
0.1617152812213387
 10
0.2138947263393662
 20
0.1604033227596113
 10
0.2146894266055961
 20
0.1599981624186291
 10
0.2154513820638959
 20
0.1600648141925274
 10
0.2160524718361136
 20
0.1604410426608807
 10
0.216599042024197
 20
0.1607995537699107
 10
0.2171429083493015
 20
0.1607953469615069
 10
0.2174673394078619
 20
0.1605389187507993
 10
0.2175368831966296
 20
0.1601393679977057
 10
0.2171170810886656
 20
0.1597617388140409
  0
LWPOLYLINE
  5
1825
330
2
100
AcDbEntity
  8
Profilo
  6
Continuous
370
     0
100
AcDbPolyline
 90
        4
 70
   128
 43
0.0
 10
0.2157508376434736
 20
0.1661927963377552
 10
0.2147326471381659
 20
0.165801658667345
 10
0.2135903899276137
 20
0.165792359053176
 10
0.2127207430782567
 20
0.1658716359147572
  0
LWPOLYLINE
  5
1826
330
2
100
AcDbEntity
  8
Profilo
  6
Continuous
370
     0
100
AcDbPolyline
 90
        6
 70
   128
 43
0.0
 10
0.2122764648192126
 20
0.1646417572752814
 10
0.2132538047034913
 20
0.1644165523123457
 10
0.2141398260227971
 20
0.1641013686282997
 10
0.215156665418549
 20
0.1643111476070551
 10
0.2159022472065262
 20
0.1646137093358404
 10
0.2162320802152084
 20
0.1650827179559255
  0
LWPOLYLINE
  5
1827
330
2
100
AcDbEntity
  8
Profilo
  6
Continuous
370
     0
100
AcDbPolyline
 90
        5
 70
   128
 43
0.0
 10
0.2171072959904059
 20
0.1633166600761693
 10
0.2160359336781763
 20
0.163089168400562
 10
0.2152344803522688
 20
0.162587533219096
 10
0.2148855731426282
 20
0.1619917119739924
 10
0.2147370302863036
 20
0.1615213005744231
  0
LWPOLYLINE
  5
1828
330
2
100
AcDbEntity
  8
Profilo
  6
Continuous
370
     0
100
AcDbPolyline
 90
        3
 70
   128
 43
0.0
 10
0.2173704494289455
 20
0.1621357231120379
 10
0.2164613030681162
 20
0.1617800160319269
 10
0.2160796502063071
 20
0.1616560095000017
  0
DIMENSION
  5
1829
102
{ACAD_XDICTIONARY
360
1833
102
}
102
{ACAD_REACTORS
330
183A
102
}
330
2
100
AcDbEntity
  8
Sezione
  6
ACAD_ISO10W100
100
AcDbDimension
  2
*D33
 10
0.1671584444909983
 20
0.1251731903126249
 30
0.0
 11
0.2694478947775112
 21
0.1980484165756285
 31
0.0
 70
    35
  1
d 440 mm
 71
     5
 42
0.11
  3
Bovelacci
100
AcDbDiametricDimension
 15
0.2512265566535961
 25
0.1961136760553718
 35
0.0
 40
0.0
1001
ACAD
1000
DSTYLE
1002
{
1070
   288
1070
     1
1002
}
  0
ENDSEC
  0
SECTION
  2
OBJECTS
  0
DICTIONARY
  5
9
330
0
100
AcDbDictionary
281
     1
  3
ACAD_2007HEADERVARS_RT
350
208
  3
ACAD_COLOR
350
184
  3
ACAD_GROUP
350
17F
  3
ACAD_LAYOUT
350
164
  3
ACAD_MATERIAL
350
B
  3
ACAD_MLINESTYLE
350
180
  3
ACAD_PLOTSETTINGS
350
181
  3
ACAD_PLOTSTYLENAME
350
8
  3
ACAD_TABLESTYLE
350
185
  3
ACAD_VISUALSTYLE
350
17A
  3
ACDBHEADERROUNDTRIPXREC
350
184A
  3
AcDbVariableDictionary
350
18B
  3
DWGPROPS
350
1849
  0
DICTIONARY
  5
16E
330
16D
100
AcDbDictionary
280
     1
281
     1
  3
ACAD_LAYERSTATES
360
16F
  0
DICTIONARY
  5
3
330
2
100
AcDbDictionary
280
     1
281
     1
  3
ACAD_SORTENTS
360
18A
  0
DICTIONARY
  5
1378
330
12F0
100
AcDbDictionary
280
     1
281
     1
  3
ACAD_SORTENTS
360
1379
  0
DICTIONARY
  5
184B
330
18
100
AcDbDictionary
280
     1
281
     1
  3
ACAD_MTEXT_RT
360
184C
  0
DICTIONARY
  5
1833
330
1829
100
AcDbDictionary
280
     1
281
     1
  3
ACAD_DIMASSOC
360
183A
  0
DICTIONARY
  5
208
102
{ACAD_REACTORS
330
9
102
}
330
9
100
AcDbDictionary
281
     1
  3
DIMFXL
350
209
  0
DICTIONARY
  5
184
102
{ACAD_REACTORS
330
9
102
}
330
9
100
AcDbDictionary
281
     1
  0
DICTIONARY
  5
17F
102
{ACAD_REACTORS
330
9
102
}
330
9
100
AcDbDictionary
281
     1
  0
DICTIONARY
  5
164
102
{ACAD_REACTORS
330
9
102
}
330
9
100
AcDbDictionary
281
     1
  3
Layout1
350
168
  3
Layout2
350
16C
  3
Model
350
163
  0
DICTIONARY
  5
B
102
{ACAD_REACTORS
330
9
102
}
330
9
100
AcDbDictionary
281
     1
  3
ByBlock
350
183
  3
ByLayer
350
182
  3
Global
350
A
  0
DICTIONARY
  5
180
102
{ACAD_REACTORS
330
9
102
}
330
9
100
AcDbDictionary
281
     1
  3
Standard
350
186
  0
DICTIONARY
  5
181
102
{ACAD_REACTORS
330
9
102
}
330
9
100
AcDbDictionary
281
     1
  0
ACDBDICTIONARYWDFLT
  5
8
102
{ACAD_REACTORS
330
9
102
}
330
9
100
AcDbDictionary
281
     1
  3
Normal
350
7
100
AcDbDictionaryWithDefault
340
7
  0
DICTIONARY
  5
185
102
{ACAD_REACTORS
330
9
102
}
330
9
100
AcDbDictionary
281
     1
  3
Standard
350
187
  0
DICTIONARY
  5
17A
102
{ACAD_REACTORS
330
9
102
}
330
9
100
AcDbDictionary
281
     1
  3
2dWireframe
350
179
  3
3D Hidden
350
1BD
  3
3dWireframe
350
189
  3
Basic
350
1BC
  3
Brighten
350
1C0
  3
ColorChange
350
1C4
  3
Conceptual
350
1BE
  3
Dim
350
1BF
  3
Facepattern
350
1C3
  3
Flat
350
1B8
  3
FlatWithEdges
350
1B9
  3
Gouraud
350
1BA
  3
GouraudWithEdges
350
1BB
  3
Linepattern
350
1C2
  3
Realistic
350
188
  3
Thicken
350
1C1
  0
DICTIONARY
  5
184A
102
{ACAD_REACTORS
330
9
102
}
330
9
100
AcDbDictionary
281
     1
  0
DICTIONARY
  5
18B
102
{ACAD_REACTORS
330
9
102
}
330
9
100
AcDbDictionary
281
     1
  3
CTABLESTYLE
350
18C
  3
DIMASSOC
350
190
  3
HIDETEXT
350
18F
  3
INDEXCTL
350
18E
  3
PROJECTNAME
350
31D
  3
SORTENTS
350
18D
  0
XRECORD
  5
1849
102
{ACAD_REACTORS
330
9
102
}
330
9
100
AcDbXrecord
280
     1
  1
DWGPROPS COOKIE
  2

  3

  4

  6

  7

  8
Mario
  9

300
=
301
=
302
=
303
=
304
=
305
=
306
=
307
=
308
=
309
=
 40
0.1640192939814815
 41
2454297.625402373
 42
2454306.881819479
  1

 90
        0
  0
DICTIONARY
  5
16F
102
{ACAD_REACTORS
330
16E
102
}
330
16E
100
AcDbDictionary
281
     1
  0
SORTENTSTABLE
  5
18A
102
{ACAD_REACTORS
330
3
102
}
330
3
100
AcDbSortentsTable
330
2
331
23F
  5
1066
331
1E
  5
23
331
24
  5
1E
331
16
  5
15
331
12
  5
1C
331
1D
  5
22
331
23
  5
2AC
331
15
  5
14
331
11
  5
18
331
D
  5
16
331
1C
  5
21
331
18
  5
1F
331
22
  5
23F
331
14
  5
13
331
10
  5
17
331
1F
  5
24
331
25
  5
3BB
331
17
  5
1D
331
21
  5
25
331
13
  5
12
  0
SORTENTSTABLE
  5
1379
102
{ACAD_REACTORS
330
1378
102
}
330
1378
100
AcDbSortentsTable
330
12F0
  0
XRECORD
  5
184C
102
{ACAD_REACTORS
330
184B
102
}
330
184B
100
AcDbXrecord
280
     1
 40
7955300.0
  1
{\fTimes New Roman|b0|i0|c238|p18;\H1.6x;\C4;Bovelacci\P\pt0.09;\H0.4375x;\T0.95;via del Commercio, 5  47100 Forli - Italy  \fTimes New Roman|b0|i0|c0|p18;\P\fTimes New Roman|b0|i0|c238|p18;tel.+39-0543721386  fax +39-0543721127\fTimes New Roman|b0|i
  1
0|c0|p18; \fTimes New Roman|b0|i0|c238|p18;www.bovelacci.it\fTimes New Roman|b0|i0|c0|p18; \fTimes New Roman|b0|i0|c238|p18;e-mail: bovelacci@bovelacci\fTimes New Roman|b0|i0|c0|p18;.it}
  0
DIMASSOC
  5
183A
102
{ACAD_REACTORS
330
1833
102
}
330
1833
100
AcDbDimAssoc
330
1829
 90
        2
 70
     0
 71
     0
  1
AcDbOsnapPointRef
 72
     3
331
1798
 73
     2
 91
        0
 40
0.0
 10
0.0
 20
0.0
 30
0.0
 75
     0
  0
XRECORD
  5
209
102
{ACAD_REACTORS
330
208
102
}
330
208
100
AcDbXrecord
280
     1
 40
0.18
  0
LAYOUT
  5
168
102
{ACAD_XDICTIONARY
360
184F
102
}
102
{ACAD_REACTORS
330
164
102
}
330
164
100
AcDbPlotSettings
  1

  2
C:\Documents and Settings\All Users\Dati applicazioni\Autodesk\ADT 2006\enu\Plotters\Default Windows System Printer.pc3
  4

  6

 40
0.0
 41
0.0
 42
0.0
 43
0.0
 44
0.0
 45
0.0
 46
0.0
 47
0.0
 48
0.0
 49
0.0
140
0.0
141
0.0
142
1.0
143
1.0
 70
   688
 72
     0
 73
     0
 74
     5
  7

 75
    16
147
1.0
148
0.0
149
0.0
100
AcDbLayout
  1
Layout1
 70
     1
 71
     1
 10
0.0
 20
0.0
 11
420.0
 21
297.0
 12
0.0
 22
0.0
 32
0.0
 14
1.000000000000000E+20
 24
1.000000000000000E+20
 34
1.000000000000000E+20
 15
-1.000000000000000E+20
 25
-1.000000000000000E+20
 35
-1.000000000000000E+20
146
0.0
 13
0.0
 23
0.0
 33
0.0
 16
1.0
 26
0.0
 36
0.0
 17
0.0
 27
1.0
 37
0.0
 76
     0
330
165
  0
LAYOUT
  5
16C
102
{ACAD_XDICTIONARY
360
1851
102
}
102
{ACAD_REACTORS
330
164
102
}
330
164
100
AcDbPlotSettings
  1

  2
C:\Documents and Settings\All Users\Dati applicazioni\Autodesk\ADT 2006\enu\Plotters\Default Windows System Printer.pc3
  4

  6

 40
0.0
 41
0.0
 42
0.0
 43
0.0
 44
0.0
 45
0.0
 46
0.0
 47
0.0
 48
0.0
 49
0.0
140
0.0
141
0.0
142
1.0
143
1.0
 70
   688
 72
     0
 73
     0
 74
     5
  7

 75
    16
147
1.0
148
0.0
149
0.0
100
AcDbLayout
  1
Layout2
 70
     1
 71
     2
 10
0.0
 20
0.0
 11
12.0
 21
9.0
 12
0.0
 22
0.0
 32
0.0
 14
0.0
 24
0.0
 34
0.0
 15
0.0
 25
0.0
 35
0.0
146
0.0
 13
0.0
 23
0.0
 33
0.0
 16
1.0
 26
0.0
 36
0.0
 17
0.0
 27
1.0
 37
0.0
 76
     0
330
169
  0
LAYOUT
  5
163
102
{ACAD_XDICTIONARY
360
184D
102
}
102
{ACAD_REACTORS
330
164
102
}
330
164
100
AcDbPlotSettings
  1

  2
C:\Documents and Settings\All Users\Dati applicazioni\Autodesk\ADT 2006\enu\Plotters\Default Windows System Printer.pc3
  4

  6

 40
0.0
 41
0.0
 42
0.0
 43
0.0
 44
0.0
 45
0.0
 46
0.0
 47
0.0
 48
0.0
 49
0.0
140
0.0
141
0.0
142
1.0
143
1.0
 70
  1712
 72
     0
 73
     0
 74
     0
  7

 75
     0
147
1.0
148
0.0
149
0.0
100
AcDbLayout
  1
Model
 70
     1
 71
     0
 10
0.0
 20
0.0
 11
12.0
 21
9.0
 12
0.0
 22
0.0
 32
0.0
 14
0.0
 24
0.0
 34
0.0
 15
0.0
 25
0.0
 35
0.0
146
0.0
 13
0.0
 23
0.0
 33
0.0
 16
1.0
 26
0.0
 36
0.0
 17
0.0
 27
1.0
 37
0.0
 76
     0
330
2
  0
MATERIAL
  5
183
102
{ACAD_XDICTIONARY
360
1B0
102
}
102
{ACAD_REACTORS
330
B
102
}
330
B
100
AcDbMaterial
  1
ByBlock
  0
MATERIAL
  5
182
102
{ACAD_XDICTIONARY
360
1AE
102
}
102
{ACAD_REACTORS
330
B
102
}
330
B
100
AcDbMaterial
  1
ByLayer
  0
MATERIAL
  5
A
102
{ACAD_XDICTIONARY
360
193
102
}
102
{ACAD_REACTORS
330
B
102
}
330
B
100
AcDbMaterial
  1
Global
  0
MLINESTYLE
  5
186
102
{ACAD_REACTORS
330
180
102
}
330
180
100
AcDbMlineStyle
  2
STANDARD
 70
     0
  3

 62
   256
 51
90.0
 52
90.0
 71
     2
 49
0.5
 62
   256
  6
BYLAYER
 49
-0.5
 62
   256
  6
BYLAYER
  0
ACDBPLACEHOLDER
  5
7
102
{ACAD_REACTORS
330
8
102
}
330
8
  0
TABLESTYLE
  5
187
102
{ACAD_XDICTIONARY
360
21A
102
}
102
{ACAD_REACTORS
330
185
102
}
330
185
100
AcDbTableStyle
  3
Standard
 70
     0
 71
     0
 40
1.5
 41
1.5
280
     0
281
     0
  7
Standard
140
4.5
170
     2
 62
     0
 63
     7
283
     0
274
    -2
284
     1
 64
     0
275
    -2
285
     1
 65
     0
276
    -2
286
     1
 66
     0
277
    -2
287
     1
 67
     0
278
    -2
288
     1
 68
     0
279
    -2
289
     1
 69
     0
  7
Standard
140
6.0
170
     5
 62
     0
 63
     7
283
     0
274
    -2
284
     1
 64
     0
275
    -2
285
     1
 65
     0
276
    -2
286
     1
 66
     0
277
    -2
287
     1
 67
     0
278
    -2
288
     1
 68
     0
279
    -2
289
     1
 69
     0
  7
Standard
140
4.5
170
     5
 62
     0
 63
     7
283
     0
274
    -2
284
     1
 64
     0
275
    -2
285
     1
 65
     0
276
    -2
286
     1
 66
     0
277
    -2
287
     1
 67
     0
278
    -2
288
     1
 68
     0
279
    -2
289
     1
 69
     0
  0
VISUALSTYLE
  5
179
102
{ACAD_REACTORS
330
17A
102
}
330
17A
100
AcDbVisualStyle
  2
2dWireframe
 70
     4
 71
     0
 72
     2
 73
     0
 90
        0
 40
-0.6
 41
-30.0
 62
     5
 63
     7
 74
     1
 91
        4
 64
     7
 65
   257
 75
     1
175
     1
 42
1.0
 92
        0
 66
   257
 43
1.0
 76
     1
 77
     6
 78
     2
 67
     7
 79
     5
170
     0
171
     0
290
     0
174
     0
 93
        1
 44
0.0
173
     0
291
     0
 45
0.0
1001
ACAD
1000
AcDbSavedByObjectVersion
1070
     0
1000
AcDbSavedByObjectVersion
1070
     0
1000
AcDbSavedByObjectVersion
1070
     0
1001
ACAD
1000
AcRTDxfName
1000
VISUALSTYLE
  0
VISUALSTYLE
  5
1BD
102
{ACAD_REACTORS
330
17A
102
}
330
17A
100
AcDbVisualStyle
  2
3D Hidden
 70
     6
 71
     1
 72
     2
 73
     2
 90
        0
 40
-0.6
 41
-30.0
 62
     5
 63
     7
 74
     2
 91
        2
 64
     7
 65
   257
 75
     2
175
     1
 42
40.0
 92
        0
 66
   257
 43
1.0
 76
     1
 77
     6
 78
     2
 67
     7
 79
     3
170
     0
171
     0
290
     0
174
     0
 93
        1
 44
0.0
173
     0
291
     0
 45
0.0
1001
ACAD
1000
AcDbSavedByObjectVersion
1070
     0
1000
AcDbSavedByObjectVersion
1070
     0
1001
ACAD
1000
AcRTDxfName
1000
VISUALSTYLE
  0
VISUALSTYLE
  5
189
102
{ACAD_REACTORS
330
17A
102
}
330
17A
100
AcDbVisualStyle
  2
3dWireframe
 70
     5
 71
     0
 72
     2
 73
     0
 90
        0
 40
-0.6
 41
-30.0
 62
     5
 63
     7
 74
     1
 91
        4
 64
     7
 65
   257
 75
     1
175
     1
 42
1.0
 92
        0
 66
   257
 43
1.0
 76
     1
 77
     6
 78
     2
 67
     7
 79
     5
170
     0
171
     0
290
     0
174
     0
 93
        1
 44
0.0
173
     0
291
     0
 45
0.0
1001
ACAD
1000
AcDbSavedByObjectVersion
1070
     0
1000
AcDbSavedByObjectVersion
1070
     0
1000
AcDbSavedByObjectVersion
1070
     0
1001
ACAD
1000
AcRTDxfName
1000
VISUALSTYLE
  0
VISUALSTYLE
  5
1BC
102
{ACAD_REACTORS
330
17A
102
}
330
17A
100
AcDbVisualStyle
  2
Basic
 70
     7
 71
     1
 72
     0
 73
     1
 90
        0
 40
-0.6
 41
-30.0
 62
     5
 63
     7
 74
     0
 91
        4
 64
     7
 65
   257
 75
     1
175
     1
 42
1.0
 92
        8
 66
     7
 43
1.0
 76
     1
 77
     6
 78
     2
 67
     7
 79
     5
170
     0
171
     0
290
     0
174
     0
 93
        1
 44
0.0
173
     0
291
     1
 45
0.0
1001
ACAD
1000
AcDbSavedByObjectVersion
1070
     0
1000
AcDbSavedByObjectVersion
1070
     0
1001
ACAD
1000
AcRTDxfName
1000
VISUALSTYLE
  0
VISUALSTYLE
  5
1C0
102
{ACAD_REACTORS
330
17A
102
}
330
17A
100
AcDbVisualStyle
  2
Brighten
 70
    12
 71
     2
 72
     2
 73
     0
 90
        0
 40
-0.6
 41
-30.0
 62
     5
 63
     7
 74
     1
 91
        4
 64
     7
 65
   257
 75
     1
175
     1
 42
1.0
 92
        8
 66
     7
 43
1.0
 76
     1
 77
     6
 78
     2
 67
     7
 79
     5
170
     0
171
     0
290
     0
174
     0
 93
        1
 44
50.0
173
     0
291
     1
 45
0.0
1001
ACAD
1000
AcDbSavedByObjectVersion
1070
     0
1000
AcDbSavedByObjectVersion
1070
     0
1001
ACAD
1000
AcRTDxfName
1000
VISUALSTYLE
  0
VISUALSTYLE
  5
1C4
102
{ACAD_REACTORS
330
17A
102
}
330
17A
100
AcDbVisualStyle
  2
ColorChange
 70
    16
 71
     2
 72
     2
 73
     3
 90
        0
 40
-0.6
 41
-30.0
 62
     5
 63
     8
 74
     1
 91
        4
 64
     7
 65
   257
 75
     1
175
     1
 42
1.0
 92
        8
 66
     8
 43
1.0
 76
     1
 77
     6
 78
     2
 67
     7
 79
     5
170
     0
171
     0
290
     0
174
     0
 93
        1
 44
0.0
173
     0
291
     1
 45
0.0
1001
ACAD
1000
AcDbSavedByObjectVersion
1070
     0
1000
AcDbSavedByObjectVersion
1070
     0
1001
ACAD
1000
AcRTDxfName
1000
VISUALSTYLE
  0
VISUALSTYLE
  5
1BE
102
{ACAD_REACTORS
330
17A
102
}
330
17A
100
AcDbVisualStyle
  2
Conceptual
 70
     9
 71
     3
 72
     2
 73
     0
 90
        0
 40
-0.6
 41
-30.0
 62
     5
 63
     7
 74
     2
 91
        2
 64
     7
 65
   257
 75
     1
175
     1
 42
40.0
 92
        8
 66
     7
 43
1.0
 76
     1
 77
     6
 78
     2
 67
     7
 79
     3
170
     0
171
     0
290
     0
174
     0
 93
        1
 44
0.0
173
     0
291
     0
 45
0.0
1001
ACAD
1000
AcDbSavedByObjectVersion
1070
     0
1000
AcDbSavedByObjectVersion
1070
     0
1001
ACAD
1000
AcRTDxfName
1000
VISUALSTYLE
  0
VISUALSTYLE
  5
1BF
102
{ACAD_REACTORS
330
17A
102
}
330
17A
100
AcDbVisualStyle
  2
Dim
 70
    11
 71
     2
 72
     2
 73
     0
 90
        0
 40
-0.6
 41
-30.0
 62
     5
 63
     7
 74
     1
 91
        4
 64
     7
 65
   257
 75
     1
175
     1
 42
1.0
 92
        8
 66
     7
 43
1.0
 76
     1
 77
     6
 78
     2
 67
     7
 79
     5
170
     0
171
     0
290
     0
174
     0
 93
        1
 44
-50.0
173
     0
291
     1
 45
0.0
1001
ACAD
1000
AcDbSavedByObjectVersion
1070
     0
1000
AcDbSavedByObjectVersion
1070
     0
1001
ACAD
1000
AcRTDxfName
1000
VISUALSTYLE
  0
VISUALSTYLE
  5
1C3
102
{ACAD_REACTORS
330
17A
102
}
330
17A
100
AcDbVisualStyle
  2
Facepattern
 70
    15
 71
     2
 72
     2
 73
     0
 90
        0
 40
-0.6
 41
-30.0
 62
     5
 63
     7
 74
     1
 91
        4
 64
     7
 65
   257
 75
     1
175
     1
 42
1.0
 92
        8
 66
     7
 43
1.0
 76
     1
 77
     6
 78
     2
 67
     7
 79
     5
170
     0
171
     0
290
     0
174
     0
 93
        1
 44
0.0
173
     0
291
     1
 45
0.0
1001
ACAD
1000
AcDbSavedByObjectVersion
1070
     0
1000
AcDbSavedByObjectVersion
1070
     0
1001
ACAD
1000
AcRTDxfName
1000
VISUALSTYLE
  0
VISUALSTYLE
  5
1B8
102
{ACAD_REACTORS
330
17A
102
}
330
17A
100
AcDbVisualStyle
  2
Flat
 70
     0
 71
     2
 72
     1
 73
     1
 90
        2
 40
-0.6
 41
30.0
 62
     5
 63
     7
 74
     0
 91
        4
 64
     7
 65
   257
 75
     1
175
     1
 42
1.0
 92
        8
 66
     7
 43
1.0
 76
     1
 77
     6
 78
     2
 67
     7
 79
     5
170
     0
171
     0
290
     0
174
     0
 93
       13
 44
0.0
173
     0
291
     1
 45
0.0
1001
ACAD
1000
AcDbSavedByObjectVersion
1070
     0
1000
AcDbSavedByObjectVersion
1070
     0
1001
ACAD
1000
AcRTDxfName
1000
VISUALSTYLE
  0
VISUALSTYLE
  5
1B9
102
{ACAD_REACTORS
330
17A
102
}
330
17A
100
AcDbVisualStyle
  2
FlatWithEdges
 70
     1
 71
     2
 72
     1
 73
     1
 90
        2
 40
-0.6
 41
30.0
 62
     5
 63
     7
 74
     1
 91
        4
 64
     7
 65
   257
 75
     1
175
     1
 42
1.0
 92
        0
 66
   257
 43
1.0
 76
     1
 77
     6
 78
     2
 67
     7
 79
     5
170
     0
171
     0
290
     0
174
     0
 93
       13
 44
0.0
173
     0
291
     1
 45
0.0
1001
ACAD
1000
AcDbSavedByObjectVersion
1070
     0
1000
AcDbSavedByObjectVersion
1070
     0
1001
ACAD
1000
AcRTDxfName
1000
VISUALSTYLE
  0
VISUALSTYLE
  5
1BA
102
{ACAD_REACTORS
330
17A
102
}
330
17A
100
AcDbVisualStyle
  2
Gouraud
 70
     2
 71
     2
 72
     2
 73
     1
 90
        2
 40
-0.6
 41
30.0
 62
     5
 63
     7
 74
     0
 91
        4
 64
     7
 65
   257
 75
     1
175
     1
 42
1.0
 92
        0
 66
     7
 43
1.0
 76
     1
 77
     6
 78
     2
 67
     7
 79
     5
170
     0
171
     0
290
     0
174
     0
 93
       13
 44
0.0
173
     0
291
     1
 45
0.0
1001
ACAD
1000
AcDbSavedByObjectVersion
1070
     0
1000
AcDbSavedByObjectVersion
1070
     0
1001
ACAD
1000
AcRTDxfName
1000
VISUALSTYLE
  0
VISUALSTYLE
  5
1BB
102
{ACAD_REACTORS
330
17A
102
}
330
17A
100
AcDbVisualStyle
  2
GouraudWithEdges
 70
     3
 71
     2
 72
     2
 73
     1
 90
        2
 40
-0.6
 41
30.0
 62
     5
 63
     7
 74
     1
 91
        4
 64
     7
 65
   257
 75
     1
175
     1
 42
1.0
 92
        0
 66
   257
 43
1.0
 76
     1
 77
     6
 78
     2
 67
     7
 79
     5
170
     0
171
     0
290
     0
174
     0
 93
       13
 44
0.0
173
     0
291
     1
 45
0.0
1001
ACAD
1000
AcDbSavedByObjectVersion
1070
     0
1000
AcDbSavedByObjectVersion
1070
     0
1001
ACAD
1000
AcRTDxfName
1000
VISUALSTYLE
  0
VISUALSTYLE
  5
1C2
102
{ACAD_REACTORS
330
17A
102
}
330
17A
100
AcDbVisualStyle
  2
Linepattern
 70
    14
 71
     2
 72
     2
 73
     0
 90
        0
 40
-0.6
 41
-30.0
 62
     5
 63
     7
 74
     1
 91
        4
 64
     7
 65
   257
 75
     7
175
     7
 42
1.0
 92
        8
 66
     7
 43
1.0
 76
     1
 77
     6
 78
     2
 67
     7
 79
     5
170
     0
171
     0
290
     0
174
     0
 93
        1
 44
0.0
173
     0
291
     1
 45
0.0
1001
ACAD
1000
AcDbSavedByObjectVersion
1070
     0
1000
AcDbSavedByObjectVersion
1070
     0
1001
ACAD
1000
AcRTDxfName
1000
VISUALSTYLE
  0
VISUALSTYLE
  5
188
102
{ACAD_REACTORS
330
17A
102
}
330
17A
100
AcDbVisualStyle
  2
Realistic
 70
     8
 71
     2
 72
     2
 73
     0
 90
        0
 40
-0.6
 41
-30.0
 62
     5
 63
     7
 74
     1
 91
        0
 64
     7
 65
   257
 75
     1
175
     1
 42
1.0
 92
        8
 66
     8
 43
1.0
 76
     1
 77
     6
 78
     2
 67
     7
 79
     5
170
     0
171
     0
290
     0
174
     0
 93
       13
 44
0.0
173
     0
291
     0
 45
0.0
1001
ACAD
1000
AcDbSavedByObjectVersion
1070
     0
1000
AcDbSavedByObjectVersion
1070
     0
1000
AcDbSavedByObjectVersion
1070
     0
1001
ACAD
1000
AcRTDxfName
1000
VISUALSTYLE
  0
VISUALSTYLE
  5
1C1
102
{ACAD_REACTORS
330
17A
102
}
330
17A
100
AcDbVisualStyle
  2
Thicken
 70
    13
 71
     2
 72
     2
 73
     0
 90
        0
 40
-0.6
 41
-30.0
 62
     5
 63
     7
 74
     1
 91
        4
 64
     7
 65
   257
 75
     1
175
     1
 42
1.0
 92
       12
 66
     7
 43
1.0
 76
     1
 77
     6
 78
     2
 67
     7
 79
     5
170
     0
171
     0
290
     0
174
     0
 93
        1
 44
0.0
173
     0
291
     1
 45
0.0
1001
ACAD
1000
AcDbSavedByObjectVersion
1070
     0
1000
AcDbSavedByObjectVersion
1070
     0
1001
ACAD
1000
AcRTDxfName
1000
VISUALSTYLE
  0
DICTIONARYVAR
  5
18C
102
{ACAD_REACTORS
330
18B
102
}
330
18B
100
DictionaryVariables
280
     0
  1
STANDARD
  0
DICTIONARYVAR
  5
190
102
{ACAD_REACTORS
330
18B
102
}
330
18B
100
DictionaryVariables
280
     0
  1
2
  0
DICTIONARYVAR
  5
18F
102
{ACAD_REACTORS
330
18B
102
}
330
18B
100
DictionaryVariables
280
     0
  1
1
  0
DICTIONARYVAR
  5
18E
102
{ACAD_REACTORS
330
18B
102
}
330
18B
100
DictionaryVariables
280
     0
  1
0
  0
DICTIONARYVAR
  5
31D
102
{ACAD_REACTORS
330
18B
102
}
330
18B
100
DictionaryVariables
280
     0
  1

  0
DICTIONARYVAR
  5
18D
102
{ACAD_REACTORS
330
18B
102
}
330
18B
100
DictionaryVariables
280
     0
  1
127
  0
DICTIONARY
  5
184F
330
168
100
AcDbDictionary
280
     1
281
     1
  3
ACAD_XREC_ROUNDTRIP
360
1850
  0
DICTIONARY
  5
1851
330
16C
100
AcDbDictionary
280
     1
281
     1
  3
ACAD_XREC_ROUNDTRIP
360
1852
  0
DICTIONARY
  5
184D
330
163
100
AcDbDictionary
280
     1
281
     1
  3
ACAD_XREC_ROUNDTRIP
360
184E
  0
DICTIONARY
  5
1B0
330
183
100
AcDbDictionary
280
     1
281
     1
  3
ACAD_XREC_ROUNDTRIP
360
1B1
  0
DICTIONARY
  5
1AE
330
182
100
AcDbDictionary
280
     1
281
     1
  3
ACAD_XREC_ROUNDTRIP
360
1AF
  0
DICTIONARY
  5
193
330
A
100
AcDbDictionary
280
     1
281
     1
  3
ACAD_XREC_ROUNDTRIP
360
194
  0
DICTIONARY
  5
21A
330
187
100
AcDbDictionary
280
     1
281
     1
  3
ACAD_XREC_ROUNDTRIP
360
21B
  0
XRECORD
  5
1850
102
{ACAD_REACTORS
330
184F
102
}
330
184F
100
AcDbXrecord
280
     1
102
SHADEPLOT
 70
     0
102
SHADEPLOTRESLEVEL
 70
     2
102
SHADEPLOTCUSTOMDPI
 70
   300
  0
XRECORD
  5
1852
102
{ACAD_REACTORS
330
1851
102
}
330
1851
100
AcDbXrecord
280
     1
102
SHADEPLOT
 70
     0
102
SHADEPLOTRESLEVEL
 70
     2
102
SHADEPLOTCUSTOMDPI
 70
   300
  0
XRECORD
  5
184E
102
{ACAD_REACTORS
330
184D
102
}
330
184D
100
AcDbXrecord
280
     1
102
SHADEPLOT
 70
     0
102
SHADEPLOTRESLEVEL
 70
     2
102
SHADEPLOTCUSTOMDPI
 70
   300
  0
XRECORD
  5
1B1
102
{ACAD_REACTORS
330
1B0
102
}
330
1B0
100
AcDbXrecord
280
     1
102
MATERIAL
148
0.0
149
0.0
149
0.0
 93
        0
 94
       63
282
     0
 72
     1
 77
     1
171
     1
175
     1
179
     1
273
     0
  0
XRECORD
  5
1AF
102
{ACAD_REACTORS
330
1AE
102
}
330
1AE
100
AcDbXrecord
280
     1
102
MATERIAL
148
0.0
149
0.0
149
0.0
 93
        0
 94
       63
282
     0
 72
     1
 77
     1
171
     1
175
     1
179
     1
273
     0
  0
XRECORD
  5
194
102
{ACAD_REACTORS
330
193
102
}
330
193
100
AcDbXrecord
280
     1
102
MATERIAL
148
0.0
149
0.0
149
0.0
 93
        0
 94
       63
282
     0
 72
     1
 77
     1
171
     1
175
     1
179
     1
273
     0
  0
XRECORD
  5
21B
102
{ACAD_REACTORS
330
21A
102
}
330
21A
100
AcDbXrecord
280
     1
102
ACAD_ROUNDTRIP_PRE2007_TABLESTYLE
 90
        4
 91
        0
  1

 92
        4
 93
        0
  2

 94
        4
 95
        0
  3

  0
ENDSEC
  0
EOF
