  0
SECTION
  2
HEADER
  9
$ACADVER
  1
AC1015
  9
$ACADMAINTVER
 70
    20
  9
$DWGCODEPAGE
  3
ANSI_1252
  9
$INSBASE
 10
0.0
 20
0.0
 30
0.0
  9
$EXTMIN
 10
0.0125323601182572
 20
0.012541664517272
 30
-0.0015258207003583
  9
$EXTMAX
 10
0.8619406256027417
 20
0.8625805561048167
 30
0.0000000349246037
  9
$LIMMIN
 10
0.0
 20
0.0
  9
$LIMMAX
 10
1.0
 20
0.5
  9
$ORTHOMODE
 70
     0
  9
$REGENMODE
 70
     1
  9
$FILLMODE
 70
     1
  9
$QTEXTMODE
 70
     0
  9
$MIRRTEXT
 70
     0
  9
$LTSCALE
 40
1.0
  9
$ATTMODE
 70
     1
  9
$TEXTSIZE
 40
0.008
  9
$TRACEWID
 40
1.0
  9
$TEXTSTYLE
  7
style1
  9
$CLAYER
  8
Text
  9
$CELTYPE
  6
ACAD_ISO10W100
  9
$CECOLOR
 62
   256
  9
$CELTSCALE
 40
1.0
  9
$DISPSILH
 70
     0
  9
$DIMSCALE
 40
0.001
  9
$DIMASZ
 40
1.5
  9
$DIMEXO
 40
0.0625
  9
$DIMDLI
 40
0.38
  9
$DIMRND
 40
0.0
  9
$DIMDLE
 40
0.0
  9
$DIMEXE
 40
0.18
  9
$DIMTP
 40
0.0
  9
$DIMTM
 40
0.0
  9
$DIMTXT
 40
3.0
  9
$DIMCEN
 40
0.0
  9
$DIMTSZ
 40
0.0
  9
$DIMTOL
 70
     0
  9
$DIMLIM
 70
     0
  9
$DIMTIH
 70
     1
  9
$DIMTOH
 70
     1
  9
$DIMSE1
 70
     0
  9
$DIMSE2
 70
     0
  9
$DIMTAD
 70
     0
  9
$DIMZIN
 70
     0
  9
$DIMBLK
  1
ArchTick
  9
$DIMASO
 70
     1
  9
$DIMSHO
 70
     1
  9
$DIMPOST
  1

  9
$DIMAPOST
  1

  9
$DIMALT
 70
     0
  9
$DIMALTD
 70
     2
  9
$DIMALTF
 40
25.4
  9
$DIMLFAC
 40
1.0
  9
$DIMTOFL
 70
     0
  9
$DIMTVP
 40
0.0
  9
$DIMTIX
 70
     0
  9
$DIMSOXD
 70
     0
  9
$DIMSAH
 70
     0
  9
$DIMBLK1
  1

  9
$DIMBLK2
  1

  9
$DIMSTYLE
  2
Bovelacci
  9
$DIMCLRD
 70
     5
  9
$DIMCLRE
 70
     5
  9
$DIMCLRT
 70
     4
  9
$DIMTFAC
 40
1.0
  9
$DIMGAP
 40
2.0
  9
$DIMJUST
 70
     0
  9
$DIMSD1
 70
     0
  9
$DIMSD2
 70
     0
  9
$DIMTOLJ
 70
     1
  9
$DIMTZIN
 70
     0
  9
$DIMALTZ
 70
     0
  9
$DIMALTTZ
 70
     0
  9
$DIMUPT
 70
     0
  9
$DIMDEC
 70
     2
  9
$DIMTDEC
 70
     2
  9
$DIMALTU
 70
     2
  9
$DIMALTTD
 70
     2
  9
$DIMTXSTY
  7
ROMANS
  9
$DIMAUNIT
 70
     0
  9
$DIMADEC
 70
     0
  9
$DIMALTRND
 40
0.0
  9
$DIMAZIN
 70
     0
  9
$DIMDSEP
 70
    46
  9
$DIMATFIT
 70
     3
  9
$DIMFRAC
 70
     0
  9
$DIMLDRBLK
  1

  9
$DIMLUNIT
 70
     2
  9
$DIMLWD
 70
    -2
  9
$DIMLWE
 70
    -2
  9
$DIMTMOVE
 70
     2
  9
$LUNITS
 70
     2
  9
$LUPREC
 70
     2
  9
$SKETCHINC
 40
1.0
  9
$FILLETRAD
 40
0.0
  9
$AUNITS
 70
     0
  9
$AUPREC
 70
     0
  9
$MENU
  1
.
  9
$ELEVATION
 40
0.0
  9
$PELEVATION
 40
0.0
  9
$THICKNESS
 40
0.0
  9
$LIMCHECK
 70
     0
  9
$CHAMFERA
 40
0.0
  9
$CHAMFERB
 40
0.0
  9
$CHAMFERC
 40
0.0
  9
$CHAMFERD
 40
0.0
  9
$SKPOLY
 70
     0
  9
$TDCREATE
 40
2454297.625402373
  9
$TDUCREATE
 40
2454297.542069039
  9
$TDUPDATE
 40
2454318.615603658
  9
$TDUUPDATE
 40
2454318.532270324
  9
$TDINDWG
 40
0.1147377778
  9
$TDUSRTIMER
 40
0.1147357755
  9
$USRTIMER
 70
     1
  9
$ANGBASE
 50
0.0
  9
$ANGDIR
 70
     0
  9
$PDMODE
 70
     0
  9
$PDSIZE
 40
0.0
  9
$PLINEWID
 40
0.0
  9
$SPLFRAME
 70
     0
  9
$SPLINETYPE
 70
     6
  9
$SPLINESEGS
 70
     8
  9
$HANDSEED
  5
8F7
  9
$SURFTAB1
 70
     6
  9
$SURFTAB2
 70
     6
  9
$SURFTYPE
 70
     6
  9
$SURFU
 70
     6
  9
$SURFV
 70
     6
  9
$UCSBASE
  2

  9
$UCSNAME
  2

  9
$UCSORG
 10
0.0
 20
0.0
 30
0.0
  9
$UCSXDIR
 10
1.0
 20
0.0
 30
0.0
  9
$UCSYDIR
 10
0.0
 20
1.0
 30
0.0
  9
$UCSORTHOREF
  2

  9
$UCSORTHOVIEW
 70
     0
  9
$UCSORGTOP
 10
0.0
 20
0.0
 30
0.0
  9
$UCSORGBOTTOM
 10
0.0
 20
0.0
 30
0.0
  9
$UCSORGLEFT
 10
0.0
 20
0.0
 30
0.0
  9
$UCSORGRIGHT
 10
0.0
 20
0.0
 30
0.0
  9
$UCSORGFRONT
 10
0.0
 20
0.0
 30
0.0
  9
$UCSORGBACK
 10
0.0
 20
0.0
 30
0.0
  9
$PUCSBASE
  2

  9
$PUCSNAME
  2

  9
$PUCSORG
 10
0.0
 20
0.0
 30
0.0
  9
$PUCSXDIR
 10
1.0
 20
0.0
 30
0.0
  9
$PUCSYDIR
 10
0.0
 20
1.0
 30
0.0
  9
$PUCSORTHOREF
  2

  9
$PUCSORTHOVIEW
 70
     0
  9
$PUCSORGTOP
 10
0.0
 20
0.0
 30
0.0
  9
$PUCSORGBOTTOM
 10
0.0
 20
0.0
 30
0.0
  9
$PUCSORGLEFT
 10
0.0
 20
0.0
 30
0.0
  9
$PUCSORGRIGHT
 10
0.0
 20
0.0
 30
0.0
  9
$PUCSORGFRONT
 10
0.0
 20
0.0
 30
0.0
  9
$PUCSORGBACK
 10
0.0
 20
0.0
 30
0.0
  9
$USERI1
 70
     0
  9
$USERI2
 70
     0
  9
$USERI3
 70
     0
  9
$USERI4
 70
     0
  9
$USERI5
 70
     0
  9
$USERR1
 40
0.0
  9
$USERR2
 40
0.0
  9
$USERR3
 40
0.0
  9
$USERR4
 40
0.0
  9
$USERR5
 40
0.0
  9
$WORLDVIEW
 70
     1
  9
$SHADEDGE
 70
     3
  9
$SHADEDIF
 70
    70
  9
$TILEMODE
 70
     1
  9
$MAXACTVP
 70
    64
  9
$PINSBASE
 10
0.0
 20
0.0
 30
0.0
  9
$PLIMCHECK
 70
     0
  9
$PEXTMIN
 10
1.000000000000000E+20
 20
1.000000000000000E+20
 30
1.000000000000000E+20
  9
$PEXTMAX
 10
-1.000000000000000E+20
 20
-1.000000000000000E+20
 30
-1.000000000000000E+20
  9
$PLIMMIN
 10
0.0
 20
0.0
  9
$PLIMMAX
 10
420.0
 20
297.0
  9
$UNITMODE
 70
     0
  9
$VISRETAIN
 70
     1
  9
$PLINEGEN
 70
     0
  9
$PSLTSCALE
 70
     1
  9
$TREEDEPTH
 70
  3020
  9
$CMLSTYLE
  2
Standard
  9
$CMLJUST
 70
     0
  9
$CMLSCALE
 40
20.0
  9
$PROXYGRAPHICS
 70
     1
  9
$MEASUREMENT
 70
     1
  9
$CELWEIGHT
370
    -1
  9
$ENDCAPS
280
     0
  9
$JOINSTYLE
280
     0
  9
$LWDISPLAY
290
     0
  9
$INSUNITS
 70
     4
  9
$HYPERLINKBASE
  1

  9
$STYLESHEET
  1

  9
$XEDIT
290
     1
  9
$CEPSNTYPE
380
     0
  9
$PSTYLEMODE
290
     1
  9
$FINGERPRINTGUID
  2
{904A8C64-524F-4709-A9C6-320D2C273A6D}
  9
$VERSIONGUID
  2
{3010B9E7-C32F-4339-B047-7C43204CAE97}
  9
$EXTNAMES
290
     1
  9
$PSVPSCALE
 40
0.0
  9
$OLESTARTUP
290
     0
  0
ENDSEC
  0
SECTION
  2
CLASSES
  0
CLASS
  1
ACDBDICTIONARYWDFLT
  2
AcDbDictionaryWithDefault
  3
ObjectDBX Classes
 90
        0
280
     0
281
     0
  0
CLASS
  1
TABLESTYLE
  2
AcDbTableStyle
  3
ObjectDBX Classes
 90
     2047
280
     0
281
     0
  0
CLASS
  1
SORTENTSTABLE
  2
AcDbSortentsTable
  3
ObjectDBX Classes
 90
        0
280
     0
281
     0
  0
CLASS
  1
DICTIONARYVAR
  2
AcDbDictionaryVar
  3
ObjectDBX Classes
 90
        0
280
     0
281
     0
  0
CLASS
  1
ACDBPLACEHOLDER
  2
AcDbPlaceHolder
  3
ObjectDBX Classes
 90
        0
280
     0
281
     0
  0
CLASS
  1
LAYOUT
  2
AcDbLayout
  3
ObjectDBX Classes
 90
        0
280
     0
281
     0
  0
CLASS
  1
DIMASSOC
  2
AcDbDimAssoc
  3
"AcDbDimAssoc|Product Desc:     AcDim ARX App For Dimension|Company:          Autodesk, Inc.|WEB Address:      www.autodesk.com"
 90
        0
280
     0
281
     0
  0
CLASS
  1
MATERIAL
  2
AcDbMaterial
  3
ObjectDBX Classes
 90
        0
280
     0
281
     0
  0
CLASS
  1
VISUALSTYLE
  2
AcDbVisualStyle
  3
ObjectDBX Classes
 90
     4095
280
     0
281
     0
  0
ENDSEC
  0
SECTION
  2
TABLES
  0
TABLE
  2
VPORT
  5
177
330
0
100
AcDbSymbolTable
 70
     4
  0
VPORT
  5
8EC
330
177
100
AcDbSymbolTableRecord
100
AcDbViewportTableRecord
  2
*Active
 70
     0
 10
0.0
 20
0.0
 11
1.0
 21
1.0
 12
0.2129264425635994
 22
0.1503050330155428
 13
0.0
 23
0.0
 14
10.0
 24
10.0
 15
10.0
 25
10.0
 16
0.0
 26
0.0
 36
1.0
 17
0.0
 27
0.0
 37
0.0
 40
0.2880004833928942
 41
1.546526867627784
 42
50.0
 43
0.0
 44
0.0
 50
0.0
 51
0.0
 71
     0
 72
  1000
 73
     1
 74
     3
 75
     0
 76
     0
 77
     0
 78
     0
281
     0
 65
     1
110
0.0
120
0.0
130
0.0
111
1.0
121
0.0
131
0.0
112
0.0
122
1.0
132
0.0
 79
     0
146
0.0
  0
ENDTAB
  0
TABLE
  2
LTYPE
  5
172
330
0
100
AcDbSymbolTable
 70
     2
  0
LTYPE
  5
173
330
172
100
AcDbSymbolTableRecord
100
AcDbLinetypeTableRecord
  2
ByBlock
 70
     0
  3

 72
    65
 73
     0
 40
0.0
  0
LTYPE
  5
174
330
172
100
AcDbSymbolTableRecord
100
AcDbLinetypeTableRecord
  2
ByLayer
 70
     0
  3

 72
    65
 73
     0
 40
0.0
  0
LTYPE
  5
C
330
172
100
AcDbSymbolTableRecord
100
AcDbLinetypeTableRecord
  2
Continuous
 70
     0
  3
Solid line
 72
    65
 73
     0
 40
0.0
  0
LTYPE
  5
14E
330
172
100
AcDbSymbolTableRecord
100
AcDbLinetypeTableRecord
  2
ACAD_ISO10W100
 70
     0
  3
ISO dash dot __ . __ . __ . __ . __ . __ . __ .
 72
    65
 73
     4
 40
18.0
 49
12.0
 74
     0
 49
-3.0
 74
     0
 49
0.0
 74
     0
 49
-3.0
 74
     0
  0
ENDTAB
  0
TABLE
  2
LAYER
  5
16D
102
{ACAD_XDICTIONARY
360
16E
102
}
330
0
100
AcDbSymbolTable
 70
     7
  0
LAYER
  5
6
330
16D
100
AcDbSymbolTableRecord
100
AcDbLayerTableRecord
  2
0
 70
     0
 62
     7
  6
Continuous
370
    -3
390
7
  0
LAYER
  5
15F
330
16D
100
AcDbSymbolTableRecord
100
AcDbLayerTableRecord
  2
Defpoints
 70
     0
 62
     7
  6
Continuous
290
     0
370
    -3
390
7
  0
LAYER
  5
28
330
16D
100
AcDbSymbolTableRecord
100
AcDbLayerTableRecord
  2
Profilo
 70
     0
 62
     1
  6
Continuous
370
    -3
390
7
1001
AcAecLayerStandard
1000

1000

  0
LAYER
  5
14D
330
16D
100
AcDbSymbolTableRecord
100
AcDbLayerTableRecord
  2
Sezione
 70
     0
 62
     2
  6
Continuous
370
    -3
390
7
1001
AcAecLayerStandard
1000

1000

  0
LAYER
  5
E
330
16D
100
AcDbSymbolTableRecord
100
AcDbLayerTableRecord
  2
Table
 70
     0
 62
     3
  6
Continuous
370
    -3
390
7
1001
AcAecLayerStandard
1000

1000

  0
LAYER
  5
19
330
16D
100
AcDbSymbolTableRecord
100
AcDbLayerTableRecord
  2
Text
 70
     0
 62
     4
  6
Continuous
370
    -3
390
7
1001
AcAecLayerStandard
1000

1000

  0
LAYER
  5
256
330
16D
100
AcDbSymbolTableRecord
100
AcDbLayerTableRecord
  2
Bovelacci
 70
     0
 62
     9
  6
Continuous
370
    -3
390
7
1001
AcAecLayerStandard
1000

1000

  0
ENDTAB
  0
TABLE
  2
STYLE
  5
170
330
0
100
AcDbSymbolTable
 70
     3
  0
STYLE
  5
1A
330
170
100
AcDbSymbolTableRecord
100
AcDbTextStyleTableRecord
  2
Standard
 70
     0
 40
0.0
 41
1.0
 50
0.0
 71
     0
 42
2.5
  3
txt
  4

  0
STYLE
  5
20
330
170
100
AcDbSymbolTableRecord
100
AcDbTextStyleTableRecord
  2
ROMANS
 70
     0
 40
0.0
 41
1.0
 50
0.0
 71
     0
 42
2.5
  3
romans
  4

  0
STYLE
  5
26
330
170
100
AcDbSymbolTableRecord
100
AcDbTextStyleTableRecord
  2
style1
 70
     0
 40
0.0
 41
1.0
 50
0.0
 71
     0
 42
0.008
  3
TIMES.TTF
  4

1001
ACAD
1000
Times New Roman
1071
       18
  0
ENDTAB
  0
TABLE
  2
VIEW
  5
175
330
0
100
AcDbSymbolTable
 70
     2
  0
ENDTAB
  0
TABLE
  2
UCS
  5
176
330
0
100
AcDbSymbolTable
 70
     0
  0
ENDTAB
  0
TABLE
  2
APPID
  5
17B
330
0
100
AcDbSymbolTable
 70
    10
  0
APPID
  5
1B
330
17B
100
AcDbSymbolTableRecord
100
AcDbRegAppTableRecord
  2
ACAD
 70
     0
  0
APPID
  5
157
330
17B
100
AcDbSymbolTableRecord
100
AcDbRegAppTableRecord
  2
ACAD_DSTYLE_DIMJOGGED_JOGANGLE_SYMBOL
 70
     0
  0
APPID
  5
F
330
17B
100
AcDbSymbolTableRecord
100
AcDbRegAppTableRecord
  2
AcAecLayerStandard
 70
     0
  0
APPID
  5
19C
330
17B
100
AcDbSymbolTableRecord
100
AcDbRegAppTableRecord
  2
ACAD_DSTYLE_DIMFLIPARROW_WHICH_SYMBOL
 70
     0
  0
APPID
  5
1A7
330
17B
100
AcDbSymbolTableRecord
100
AcDbRegAppTableRecord
  2
ACAD_DSTYLE_DIMEXT_LENGTH
 70
     0
  0
APPID
  5
1D2
330
17B
100
AcDbSymbolTableRecord
100
AcDbRegAppTableRecord
  2
ACAD_EXEMPT_FROM_CAD_STANDARDS
 70
     0
  0
APPID
  5
1D3
330
17B
100
AcDbSymbolTableRecord
100
AcDbRegAppTableRecord
  2
ACAD_DSTYLE_DIM_LINETYPE
 70
     0
  0
APPID
  5
1D4
330
17B
100
AcDbSymbolTableRecord
100
AcDbRegAppTableRecord
  2
ACAD_DSTYLE_DIM_EXT1_LINETYPE
 70
     0
  0
APPID
  5
1D5
330
17B
100
AcDbSymbolTableRecord
100
AcDbRegAppTableRecord
  2
ACAD_DSTYLE_DIM_EXT2_LINETYPE
 70
     0
  0
APPID
  5
25C
330
17B
100
AcDbSymbolTableRecord
100
AcDbRegAppTableRecord
  2
ACAD_PSEXT
 70
     0
  0
ENDTAB
  0
TABLE
  2
DIMSTYLE
  5
17C
330
0
100
AcDbSymbolTable
 70
     7
100
AcDbDimStyleTable
 71
     2
340
156
340
17D
  0
DIMSTYLE
105
17D
330
17C
100
AcDbSymbolTableRecord
100
AcDbDimStyleTableRecord
  2
ISO-25
 70
     0
 41
2.5
 42
0.625
 43
3.75
 44
1.25
 73
     0
 74
     0
 77
     1
 78
     8
140
2.5
141
2.5
143
0.03937007874016
147
0.625
171
     3
172
     1
271
     2
272
     2
274
     3
278
    44
283
     0
284
     8
340
1A
  0
DIMSTYLE
105
156
102
{ACAD_REACTORS
330
8CD
102
}
330
17C
100
AcDbSymbolTableRecord
100
AcDbDimStyleTableRecord
  2
Bovelacci
 70
     0
 40
0.001
 41
1.5
140
3.0
141
0.0
147
2.0
176
     5
177
     5
178
     4
271
     2
272
     2
279
     2
340
20
342
152
1001
ACAD_DSTYLE_DIMJOGGED_JOGANGLE_SYMBOL
1070
   384
1040
0.7853981633974483
1001
ACAD_DSTYLE_DIMEXT_LENGTH
1070
   378
1040
0.18
  0
DIMSTYLE
105
257
330
17C
100
AcDbSymbolTableRecord
100
AcDbDimStyleTableRecord
  2
Dim 1-100
 70
     0
 40
0.1
 41
1.5
 42
0.0
 43
5.0
 44
1.25
 45
0.005
 46
1.25
 73
     0
 74
     0
 77
     1
 78
     9
140
2.0
141
2.5
147
1.0
172
     1
174
     1
179
     2
279
     2
289
     2
340
20
342
152
  0
DIMSTYLE
105
258
330
17C
100
AcDbSymbolTableRecord
100
AcDbDimStyleTableRecord
  2
Standard
 70
     0
 42
0.0
 73
     0
 74
     0
 77
     1
271
     2
272
     2
340
20
  0
DIMSTYLE
105
259
330
17C
100
AcDbSymbolTableRecord
100
AcDbDimStyleTableRecord
  2
Dim 1-50
 70
     0
 40
0.05
 41
1.5
 42
0.0
 43
5.0
 44
1.25
 45
0.005
 46
1.25
 73
     0
 74
     0
 77
     1
 78
     9
140
2.0
141
2.5
147
1.0
172
     1
174
     1
179
     2
279
     2
289
     2
340
20
342
152
  0
DIMSTYLE
105
25A
330
17C
100
AcDbSymbolTableRecord
100
AcDbDimStyleTableRecord
  2
Dim 1-200
 70
     0
 40
0.2
 41
1.5
 42
0.0
 43
5.0
 44
1.25
 45
0.005
 46
1.25
 73
     0
 74
     0
 77
     1
 78
     9
140
2.0
141
2.5
147
1.0
172
     1
174
     1
179
     2
271
     2
272
     2
279
     2
289
     2
340
20
342
152
  0
DIMSTYLE
105
25B
330
17C
100
AcDbSymbolTableRecord
100
AcDbDimStyleTableRecord
  2
AEC Scale - Italiano
 70
     0
 41
1.0
 42
10.0
 43
10.0
 44
10.0
 73
     0
 74
     0
 75
     1
 76
     1
 77
     1
140
10.0
141
1.0
147
10.0
173
     1
271
     0
272
     0
279
     2
340
1A
343
251
344
24B
  0
ENDTAB
  0
TABLE
  2
BLOCK_RECORD
  5
1
330
0
100
AcDbSymbolTable
 70
    13
  0
BLOCK_RECORD
  5
2
102
{ACAD_XDICTIONARY
360
3
102
}
330
1
100
AcDbSymbolTableRecord
100
AcDbBlockTableRecord
  2
*Model_Space
340
163
  0
BLOCK_RECORD
  5
165
330
1
100
AcDbSymbolTableRecord
100
AcDbBlockTableRecord
  2
*Paper_Space
340
168
  0
BLOCK_RECORD
  5
169
330
1
100
AcDbSymbolTableRecord
100
AcDbBlockTableRecord
  2
*Paper_Space0
340
16C
  0
BLOCK_RECORD
  5
152
330
1
100
AcDbSymbolTableRecord
100
AcDbBlockTableRecord
  2
_ArchTick
340
0
310
2800000020000000200000000100080000000000000400000000000000000000000000000000000000000000000080000080000000808000800000008000800080800000C0C0C000C0DCC000F0CAA6000020400000206000002080000020A0000020C0000020E00000400000004020000040400000406000004080000040A0
310
000040C0000040E00000600000006020000060400000606000006080000060A0000060C0000060E00000800000008020000080400000806000008080000080A0000080C0000080E00000A0000000A0200000A0400000A0600000A0800000A0A00000A0C00000A0E00000C0000000C0200000C0400000C0600000C0800000C0
310
A00000C0C00000C0E00000E0000000E0200000E0400000E0600000E0800000E0A00000E0C00000E0E00040000000400020004000400040006000400080004000A0004000C0004000E00040200000402020004020400040206000402080004020A0004020C0004020E000404000004040200040404000404060004040800040
310
40A0004040C0004040E00040600000406020004060400040606000406080004060A0004060C0004060E00040800000408020004080400040806000408080004080A0004080C0004080E00040A0000040A0200040A0400040A0600040A0800040A0A00040A0C00040A0E00040C0000040C0200040C0400040C0600040C08000
310
40C0A00040C0C00040C0E00040E0000040E0200040E0400040E0600040E0800040E0A00040E0C00040E0E00080000000800020008000400080006000800080008000A0008000C0008000E00080200000802020008020400080206000802080008020A0008020C0008020E00080400000804020008040400080406000804080
310
008040A0008040C0008040E00080600000806020008060400080606000806080008060A0008060C0008060E00080800000808020008080400080806000808080008080A0008080C0008080E00080A0000080A0200080A0400080A0600080A0800080A0A00080A0C00080A0E00080C0000080C0200080C0400080C0600080C0
310
800080C0A00080C0C00080C0E00080E0000080E0200080E0400080E0600080E0800080E0A00080E0C00080E0E000C0000000C0002000C0004000C0006000C0008000C000A000C000C000C000E000C0200000C0202000C0204000C0206000C0208000C020A000C020C000C020E000C0400000C0402000C0404000C0406000C0
310
408000C040A000C040C000C040E000C0600000C0602000C0604000C0606000C0608000C060A000C060C000C060E000C0800000C0802000C0804000C0806000C0808000C080A000C080C000C080E000C0A00000C0A02000C0A04000C0A06000C0A08000C0A0A000C0A0C000C0A0E000C0C00000C0C02000C0C04000C0C06000
310
C0C08000C0C0A000F0FBFF00A4A0A000808080000000FF0000FF000000FFFF00FF000000FF00FF00FFFF0000FFFFFF00000000FF000000000000000000000000000000000000000000000000000000000000FF00FF00000000000000000000000000000000000000000000000000000000FF000000FF000000000000000000
310
0000000000000000000000000000000000FF0000000000FF0000000000000000000000000000000000000000000000000000FF0000000000FF0000000000000000000000000000000000000000000000000000FF0000000000FF0000000000000000000000000000000000000000000000000000FF0000000000FF00000000
310
00000000000000000000000000000000000000000000FF0000000000FF0000000000000000000000000000000000000000000000000000FF0000000000FF0000000000000000000000000000000000000000000000000000FF0000000000FF0000000000000000000000000000000000000000000000000000FF0000000000
310
FF0000000000000000000000000000000000000000000000000000FF0000000000FF0000000000000000000000000000000000000000000000000000FF0000000000FF0000000000000000000000000000000000000000000000000000FF0000000000FF0000000000000000000000000000000000000000000000000000FF
310
0000000000FF0000000000000000000000000000000000000000000000000000FF0000000000FF0000000000000000000000000000000000000000000000000000FF0000000000FF0000000000000000000000000000000000000000000000000000FF0000000000FF00000000000000000000000000000000000000000000
310
00000000FF0000000000FF0000000000000000000000000000000000000000000000000000FF0000000000FF0000000000000000000000000000000000000000000000000000FF0000000000FF0000000000000000000000000000000000000000000000000000FF0000000000FF0000000000000000000000000000000000
310
000000000000000000FF0000000000FF0000000000000000000000000000000000000000000000000000FF0000000000FF0000000000000000000000000000000000000000000000000000FF0000000000FF0000000000000000000000000000000000000000000000000000FF0000000000FF000000000000000000000000
310
0000000000000000000000000000FF0000000000FF0000000000000000000000000000000000000000000000000000FF0000000000FF0000000000000000000000000000000000000000000000000000FF0000000000FF0000000000000000000000000000000000000000000000000000FF000000FF000000000000000000
310
00000000000000000000000000000000000000FF00FF000000000000000000000000000000000000000000000000000000000000FF000000
102
{BLKREFS
331
211
331
318
331
354
331
429
331
50A
331
5EC
331
6DD
331
8E8
102
}
  0
BLOCK_RECORD
  5
24B
330
1
100
AcDbSymbolTableRecord
100
AcDbBlockTableRecord
  2
_Arrivo
340
0
310
2800000020000000200000000100080000000000000400000000000000000000000000000000000000000000000080000080000000808000800000008000800080800000C0C0C000C0DCC000F0CAA6000020400000206000002080000020A0000020C0000020E00000400000004020000040400000406000004080000040A0
310
000040C0000040E00000600000006020000060400000606000006080000060A0000060C0000060E00000800000008020000080400000806000008080000080A0000080C0000080E00000A0000000A0200000A0400000A0600000A0800000A0A00000A0C00000A0E00000C0000000C0200000C0400000C0600000C0800000C0
310
A00000C0C00000C0E00000E0000000E0200000E0400000E0600000E0800000E0A00000E0C00000E0E00040000000400020004000400040006000400080004000A0004000C0004000E00040200000402020004020400040206000402080004020A0004020C0004020E000404000004040200040404000404060004040800040
310
40A0004040C0004040E00040600000406020004060400040606000406080004060A0004060C0004060E00040800000408020004080400040806000408080004080A0004080C0004080E00040A0000040A0200040A0400040A0600040A0800040A0A00040A0C00040A0E00040C0000040C0200040C0400040C0600040C08000
310
40C0A00040C0C00040C0E00040E0000040E0200040E0400040E0600040E0800040E0A00040E0C00040E0E00080000000800020008000400080006000800080008000A0008000C0008000E00080200000802020008020400080206000802080008020A0008020C0008020E00080400000804020008040400080406000804080
310
008040A0008040C0008040E00080600000806020008060400080606000806080008060A0008060C0008060E00080800000808020008080400080806000808080008080A0008080C0008080E00080A0000080A0200080A0400080A0600080A0800080A0A00080A0C00080A0E00080C0000080C0200080C0400080C0600080C0
310
800080C0A00080C0C00080C0E00080E0000080E0200080E0400080E0600080E0800080E0A00080E0C00080E0E000C0000000C0002000C0004000C0006000C0008000C000A000C000C000C000E000C0200000C0202000C0204000C0206000C0208000C020A000C020C000C020E000C0400000C0402000C0404000C0406000C0
310
408000C040A000C040C000C040E000C0600000C0602000C0604000C0606000C0608000C060A000C060C000C060E000C0800000C0802000C0804000C0806000C0808000C080A000C080C000C080E000C0A00000C0A02000C0A04000C0A06000C0A08000C0A0A000C0A0C000C0A0E000C0C00000C0C02000C0C04000C0C06000
310
C0C08000C0C0A000F0FBFF00A4A0A000808080000000FF0000FF000000FFFF00FF000000FF00FF00FFFF0000FFFFFF00000000000000000000000000000000000000000000000000000000000000000000000000000000000000FF0000000000000000000000000000000000000000000000000000000000000000FF000000
310
00000000000000000000000000000000000000000000000000000000FF0000000000000000000000000000000000000000000000000000000000000000FF00000000000000000000000000000000000000000000000000000000000000FF0000000000000000000000000000000000000000000000000000000000000000FF
310
0000000000000000000000000000000000000000000000000000000000000000FF00000000000000000000000000000000000000000000000000000000000000FF0000000000000000000000000000000000000000000000000000000000000000FF0000000000000000000000000000000000000000000000000000000000
310
0000FF0000000000000000000000000000000000000000000000000000000000000000FF00000000000000000000000000000000000000000000000000000000000000FF0000000000000000000000000000000000000000000000000000000000000000FF0000FF0000000000000000000000000000000000000000000000
310
000000000000FFFF000000000000000000000000000000000000000000000000000000000000FFFF00000000000000000000000000000000000000000000000000000000FFFFFFFFFFFF00000000000000000000000000000000000000000000000000000000FFFF0000000000000000000000000000000000000000000000
310
000000000000FF0000FF000000000000000000000000000000000000000000000000000000FF00000000000000000000000000000000000000000000000000000000000000FF000000000000000000000000000000000000000000000000000000000000FF0000000000000000000000000000000000000000000000000000
310
0000000000FF000000000000000000000000000000000000000000000000000000000000FF00000000000000000000000000000000000000000000000000000000000000FF000000000000000000000000000000000000000000000000000000000000FF000000000000000000000000000000000000000000000000000000
310
000000FF00000000000000000000000000000000000000000000000000000000000000FF000000000000000000000000000000000000000000000000000000000000FF00000000000000000000000000000000000000000000000000000000000000FF00000000000000000000000000000000000000000000000000000000
310
0000FF0000000000000000000000000000000000000000000000000000000000000000000000000000000000000000000000000000000000
  0
BLOCK_RECORD
  5
251
330
1
100
AcDbSymbolTableRecord
100
AcDbBlockTableRecord
  2
_Partenza
340
0
310
2800000020000000200000000100080000000000000400000000000000000000000000000000000000000000000080000080000000808000800000008000800080800000C0C0C000C0DCC000F0CAA6000020400000206000002080000020A0000020C0000020E00000400000004020000040400000406000004080000040A0
310
000040C0000040E00000600000006020000060400000606000006080000060A0000060C0000060E00000800000008020000080400000806000008080000080A0000080C0000080E00000A0000000A0200000A0400000A0600000A0800000A0A00000A0C00000A0E00000C0000000C0200000C0400000C0600000C0800000C0
310
A00000C0C00000C0E00000E0000000E0200000E0400000E0600000E0800000E0A00000E0C00000E0E00040000000400020004000400040006000400080004000A0004000C0004000E00040200000402020004020400040206000402080004020A0004020C0004020E000404000004040200040404000404060004040800040
310
40A0004040C0004040E00040600000406020004060400040606000406080004060A0004060C0004060E00040800000408020004080400040806000408080004080A0004080C0004080E00040A0000040A0200040A0400040A0600040A0800040A0A00040A0C00040A0E00040C0000040C0200040C0400040C0600040C08000
310
40C0A00040C0C00040C0E00040E0000040E0200040E0400040E0600040E0800040E0A00040E0C00040E0E00080000000800020008000400080006000800080008000A0008000C0008000E00080200000802020008020400080206000802080008020A0008020C0008020E00080400000804020008040400080406000804080
310
008040A0008040C0008040E00080600000806020008060400080606000806080008060A0008060C0008060E00080800000808020008080400080806000808080008080A0008080C0008080E00080A0000080A0200080A0400080A0600080A0800080A0A00080A0C00080A0E00080C0000080C0200080C0400080C0600080C0
310
800080C0A00080C0C00080C0E00080E0000080E0200080E0400080E0600080E0800080E0A00080E0C00080E0E000C0000000C0002000C0004000C0006000C0008000C000A000C000C000C000E000C0200000C0202000C0204000C0206000C0208000C020A000C020C000C020E000C0400000C0402000C0404000C0406000C0
310
408000C040A000C040C000C040E000C0600000C0602000C0604000C0606000C0608000C060A000C060C000C060E000C0800000C0802000C0804000C0806000C0808000C080A000C080C000C080E000C0A00000C0A02000C0A04000C0A06000C0A08000C0A0A000C0A0C000C0A0E000C0C00000C0C02000C0C04000C0C06000
310
C0C08000C0C0A000F0FBFF00A4A0A000808080000000FF0000FF000000FFFF00FF000000FF00FF00FFFF0000FFFFFF0000000000000000000000000000000000000000000000000000000000000000000000000000000000000000000000000000000000000000000000000000000000000000000000000000000000000000
310
000000000000000000000000000000000000000000000000000000000000000000000000000000000000000000000000000000000000000000000000000000000000000000000000000000000000000000000000000000000000000000000000000000000000000000000000000000000000FFFFFFFFFFFFFFFFFFFFFFFFFF
310
FFFFFFFFFFFFFFFFFFFFFFFFFFFFFFFFFF0000000000000000000000000000000000000000000000000000000000000000000000000000000000000000000000000000000000000000000000000000000000000000000000000000000000000000000000000000000000000000000000000000000000000000000000000000
310
00000000000000000000000000000000000000000000000000000000000000000000000000000000000000000000000000000000000000000000000000000000000000000000000000000000000000000000000000000000000000000000000000000000000000000000000000000000000000000000000000000000000000
310
00000000000000000000000000000000000000000000000000000000000000000000000000000000000000000000000000000000000000000000000000000000000000000000000000000000000000000000000000000000000000000000000000000000000000000000000000000000000000000000000000000000000000
310
00000000000000000000000000000000000000000000000000000000000000000000000000000000000000000000000000000000000000000000000000000000000000000000000000000000000000000000000000000000000000000000000000000000000000000000000000000000000000000000000000000000000000
310
000000000000000000000000000000000000000000000000000000000000000000000000000000000000000000000000000000000000000000000000000000000000000000000000000000000000000000000000000000FFFFFFFFFFFFFFFFFFFFFFFFFFFFFFFFFFFFFFFFFFFFFFFFFFFFFFFFFFFF00000000000000000000
310
00000000000000000000000000000000000000000000000000000000000000000000000000000000000000000000000000000000000000000000000000000000000000000000000000000000000000000000000000000000000000000000000000000000000000000000000000000000000000000000000000000000000000
310
0000000000000000000000000000000000000000000000000000000000000000000000000000000000000000000000000000000000000000
  0
BLOCK_RECORD
  5
6C3
330
1
100
AcDbSymbolTableRecord
100
AcDbBlockTableRecord
  2
*D10
340
0
  0
BLOCK_RECORD
  5
8CE
330
1
100
AcDbSymbolTableRecord
100
AcDbBlockTableRecord
  2
*D12
340
0
  0
ENDTAB
  0
ENDSEC
  0
SECTION
  2
BLOCKS
  0
BLOCK
  5
5
330
2
100
AcDbEntity
  8
0
100
AcDbBlockBegin
  2
*Model_Space
 70
     0
 10
0.0
 20
0.0
 30
0.0
  3
*Model_Space
  1

  0
ENDBLK
  5
162
330
2
100
AcDbEntity
  8
0
100
AcDbBlockEnd
  0
BLOCK
  5
166
330
165
100
AcDbEntity
 67
     1
  8
0
100
AcDbBlockBegin
  2
*Paper_Space
 70
     0
 10
0.0
 20
0.0
 30
0.0
  3
*Paper_Space
  1

  0
ENDBLK
  5
167
330
165
100
AcDbEntity
 67
     1
  8
0
100
AcDbBlockEnd
  0
BLOCK
  5
16A
330
169
100
AcDbEntity
 67
     1
  8
0
100
AcDbBlockBegin
  2
*Paper_Space0
 70
     0
 10
0.0
 20
0.0
 30
0.0
  3
*Paper_Space0
  1

  0
ENDBLK
  5
16B
330
169
100
AcDbEntity
 67
     1
  8
0
100
AcDbBlockEnd
  0
BLOCK
  5
153
330
152
100
AcDbEntity
  8
0
 62
     1
100
AcDbBlockBegin
  2
_ArchTick
 70
     0
 10
0.0
 20
0.0
 30
0.0
  3
_ArchTick
  1

  0
LWPOLYLINE
  5
154
330
152
100
AcDbEntity
  8
0
  6
ByBlock
 62
     0
100
AcDbPolyline
 90
        2
 70
     0
 43
0.15
 10
-0.5
 20
-0.5
 10
0.5
 20
0.5
  0
ENDBLK
  5
155
330
152
100
AcDbEntity
  8
0
 62
     1
100
AcDbBlockEnd
  0
BLOCK
  5
24C
330
24B
100
AcDbEntity
  8
0
100
AcDbBlockBegin
  2
_Arrivo
 70
     0
 10
0.0
 20
0.0
 30
0.0
  3
_Arrivo
  1

  0
LINE
  5
24D
330
24B
100
AcDbEntity
  8
0
  6
ByBlock
 62
     0
370
    -2
100
AcDbLine
 10
0.025
 20
-0.0433012701891858
 30
0.0
 11
-0.15
 21
0.2598076211353328
 31
0.0
  0
LINE
  5
24E
330
24B
100
AcDbEntity
  8
0
  6
ByBlock
 62
     0
370
    -2
100
AcDbLine
 10
0.025
 20
0.0433012701892585
 30
0.0
 11
-0.15
 21
-0.2598076211353328
 31
0.0
  0
LINE
  5
24F
330
24B
100
AcDbEntity
  8
0
  6
ByBlock
 62
     0
370
    -2
100
AcDbLine
 10
-0.05
 20
0.0
 30
0.0
 11
0.05
 21
0.0
 31
0.0
  0
ENDBLK
  5
250
330
24B
100
AcDbEntity
  8
0
100
AcDbBlockEnd
  0
BLOCK
  5
252
330
251
100
AcDbEntity
  8
0
100
AcDbBlockBegin
  2
_Partenza
 70
     0
 10
0.0
 20
0.0
 30
0.0
  3
_Partenza
  1

  0
LINE
  5
253
330
251
100
AcDbEntity
  8
0
  6
ByBlock
 62
     0
370
    -2
100
AcDbLine
 10
-0.05
 20
0.05
 30
0.0
 11
0.1
 21
0.05
 31
0.0
  0
LINE
  5
254
330
251
100
AcDbEntity
  8
0
  6
ByBlock
 62
     0
370
    -2
100
AcDbLine
 10
-0.05
 20
-0.05
 30
0.0
 11
0.1
 21
-0.05
 31
0.0
  0
ENDBLK
  5
255
330
251
100
AcDbEntity
  8
0
100
AcDbBlockEnd
  0
BLOCK
  5
6CA
330
6C3
100
AcDbEntity
  8
0
100
AcDbBlockBegin
  2
*D10
 70
     1
 10
0.0
 20
0.0
 30
0.0
  3
*D10
  1

  0
LINE
  5
6DA
330
6C3
100
AcDbEntity
  8
Sezione
  6
ACAD_ISO10W100
 62
     5
370
    -2
100
AcDbLine
 10
0.2580272919594555
 20
0.2091457005418985
 30
0.0
 11
0.2565272919594555
 21
0.2091457005418986
 31
0.0
  0
LINE
  5
6DB
330
6C3
100
AcDbEntity
  8
Sezione
  6
ACAD_ISO10W100
 62
     5
370
    -2
100
AcDbLine
 10
0.2565272919594555
 20
0.2091457005418986
 30
0.0
 11
0.2544161538279562
 21
0.2070142466273769
 31
0.0
  0
MTEXT
  5
6DC
330
6C3
100
AcDbEntity
  8
Sezione
  6
ACAD_ISO10W100
 62
     4
100
AcDbMText
 10
0.2724558633880269
 20
0.2091457005418985
 30
0.0
 40
0.003
 41
0.0
 71
     5
 72
     1
  1
\A1;d 250 mm
  7
ROMANS
 73
     1
 44
1.0
1001
ACAD
1000
MTEXTBEGIN
1070
    73
1070
     1
1070
    44
1040
1.0
1070
    74
1070
     0
1000
MTEXTEND
  0
INSERT
  5
6DD
330
6C3
100
AcDbEntity
  8
Sezione
  6
ACAD_ISO10W100
 62
     5
370
    -2
100
AcDbBlockReference
  2
_ArchTick
 10
0.2544161538279562
 20
0.2070142466273769
 30
0.0
 41
0.0015
 42
0.0015
 43
0.0015
 50
225.2743605124572
  0
POINT
  5
6DE
330
6C3
100
AcDbEntity
  8
Defpoints
  6
ACAD_ISO10W100
 62
     0
100
AcDbPoint
 10
0.2544161538279562
 20
0.2070142466273769
 30
0.0
  0
POINT
  5
6DF
330
6C3
100
AcDbEntity
  8
Defpoints
  6
ACAD_ISO10W100
 62
     0
100
AcDbPoint
 10
0.1664520650154866
 20
0.1182036668556404
 30
0.0
  0
ENDBLK
  5
6CB
330
6C3
100
AcDbEntity
  8
0
100
AcDbBlockEnd
  0
BLOCK
  5
8D5
330
8CE
100
AcDbEntity
  8
0
100
AcDbBlockBegin
  2
*D12
 70
     1
 10
0.0
 20
0.0
 30
0.0
  3
*D12
  1

  0
LINE
  5
8E5
330
8CE
100
AcDbEntity
  8
Text
  6
ACAD_ISO10W100
 62
     5
370
    -2
100
AcDbLine
 10
0.2644746721240412
 20
0.2052503637905256
 30
0.0
 11
0.2629746721240411
 21
0.2052503637905255
 31
0.0
  0
LINE
  5
8E6
330
8CE
100
AcDbEntity
  8
Text
  6
ACAD_ISO10W100
 62
     5
370
    -2
100
AcDbLine
 10
0.2629746721240411
 20
0.2052503637905255
 30
0.0
 11
0.260613466468051
 21
0.2033997671704811
 31
0.0
  0
MTEXT
  5
8E7
330
8CE
100
AcDbEntity
  8
Text
  6
ACAD_ISO10W100
 62
     4
100
AcDbMText
 10
0.2789032435526126
 20
0.2052503637905255
 30
0.0
 40
0.003
 41
0.0
 71
     5
 72
     1
  1
\A1;d 520 mm
  7
ROMANS
 73
     1
 44
1.0
1001
ACAD
1000
MTEXTBEGIN
1070
    73
1070
     1
1070
    44
1040
1.0
1070
    74
1070
     0
1000
MTEXTEND
  0
INSERT
  5
8E8
330
8CE
100
AcDbEntity
  8
Text
  6
ACAD_ISO10W100
 62
     5
370
    -2
100
AcDbBlockReference
  2
_ArchTick
 10
0.260613466468051
 20
0.2033997671704811
 30
0.0
 41
0.0015
 42
0.0015
 43
0.0015
 50
218.0875991593132
  0
POINT
  5
8E9
330
8CE
100
AcDbEntity
  8
Defpoints
  6
ACAD_ISO10W100
 62
     0
100
AcDbPoint
 10
0.260613466468051
 20
0.2033997671704811
 30
0.0
  0
POINT
  5
8EA
330
8CE
100
AcDbEntity
  8
Defpoints
  6
ACAD_ISO10W100
 62
     0
100
AcDbPoint
 10
0.1582945547084763
 20
0.1232072469685548
 30
0.0
  0
ENDBLK
  5
8D6
330
8CE
100
AcDbEntity
  8
0
100
AcDbBlockEnd
  0
ENDSEC
  0
SECTION
  2
ENTITIES
  0
LINE
  5
D
330
2
100
AcDbEntity
  8
Table
100
AcDbLine
 10
0.02
 20
0.02
 30
0.0
 11
0.4
 21
0.02
 31
0.0
  0
LINE
  5
10
330
2
100
AcDbEntity
  8
Table
100
AcDbLine
 10
0.4
 20
0.02
 30
0.0
 11
0.4
 21
0.2769999999999999
 31
0.0
  0
LINE
  5
11
330
2
100
AcDbEntity
  8
Table
100
AcDbLine
 10
0.4
 20
0.2769999999999999
 30
0.0
 11
0.02
 21
0.277
 31
0.0
  0
LINE
  5
12
330
2
100
AcDbEntity
  8
Table
100
AcDbLine
 10
0.02
 20
0.277
 30
0.0
 11
0.02
 21
0.02
 31
0.0
  0
LINE
  5
13
330
2
100
AcDbEntity
  8
Table
 62
     2
100
AcDbLine
 10
0.015
 20
0.015
 30
0.0
 11
0.4050000000000001
 21
0.015
 31
0.0
  0
LINE
  5
14
330
2
100
AcDbEntity
  8
Table
 62
     2
100
AcDbLine
 10
0.4050000000000001
 20
0.015
 30
0.0
 11
0.4050000000000001
 21
0.2819999999999998
 31
0.0
  0
LINE
  5
15
330
2
100
AcDbEntity
  8
Table
 62
     2
100
AcDbLine
 10
0.4050000000000001
 20
0.2819999999999998
 30
0.0
 11
0.0149999999999999
 21
0.282
 31
0.0
  0
LINE
  5
16
330
2
100
AcDbEntity
  8
Table
 62
     2
100
AcDbLine
 10
0.0149999999999999
 20
0.282
 30
0.0
 11
0.015
 21
0.015
 31
0.0
  0
LINE
  5
17
330
2
100
AcDbEntity
  8
Table
100
AcDbLine
 10
0.21
 20
0.2769999999999999
 30
0.0
 11
0.21
 21
0.2532994226089223
 31
0.0
  0
MTEXT
  5
18
102
{ACAD_XDICTIONARY
360
8EF
102
}
330
2
100
AcDbEntity
  8
Text
100
AcDbMText
 10
0.305
 20
0.0471738284815141
 30
0.0
 40
0.005
 41
0.1900000000000001
 71
     2
 72
     5
  3
{\fTimes New Roman|b0|i0|c238|p18;\H1.6x;\C4;Bovelacci\P\H0.4375x;\T0.95;via del Commercio, 5  47100 Forli - Italy  \fTimes New Roman|b0|i0|c0|p18;\P\fTimes New Roman|b0|i0|c238|p18;tel.+39-0543721386  fax +39-0543721127\fTimes New Roman|b0|i0|c0|p18
  1
; \fTimes New Roman|b0|i0|c238|p18;www.bovelacci.it\fTimes New Roman|b0|i0|c0|p18; \fTimes New Roman|b0|i0|c238|p18;e-mail: bovelacci@bovelacci\fTimes New Roman|b0|i0|c0|p18;.it}
 73
     1
 44
1.0
1001
ACAD
1000
ACAD_MTEXT_DEFINED_HEIGHT_BEGIN
1070
    46
1040
0.0271738284815141
1000
ACAD_MTEXT_DEFINED_HEIGHT_END
1000
MTEXTBEGIN
1070
    73
1070
     1
1070
    44
1040
1.0
1070
    74
1070
     0
1000
MTEXTEND
  0
MTEXT
  5
1C
330
2
100
AcDbEntity
  8
Text
100
AcDbMText
 10
0.0219676065851835
 20
0.0500313976452307
 30
0.0
 40
0.002
 41
0.1863544980601608
 71
     1
 72
     5
  3
{\fArial|b0|i0|c0|p34;\H1.25x;Le caratteristiche tecniche indicate vengono fornite a titolo indicativo e potranno essere modificate senza preavviso. Non devono quindi essere considerate a scopo di specifica.\P\fArial|b0|i1|c0|p34;The given values are
  3
 indicative and can be changed without notice. They cannot be considered like a state.\PThis lealfet and designs embodied within are protected by copyright law and international treaties. Unauthorized repro- duction of the leaflet or any portion of i
  1
t or reproduction of any of the designs embodied therein may result in severe civil penalties and will be prosecuted to the maximum.\PAll right reserved, Bovelacci Forlì Italy.}
 73
     1
 44
1.0
1001
ACAD
1000
MTEXTBEGIN
1070
    73
1070
     1
1070
    44
1040
1.0
1070
    74
1070
     0
1000
MTEXTEND
  0
LINE
  5
1D
330
2
100
AcDbEntity
  8
Table
100
AcDbLine
 10
0.02
 20
0.0528099428524846
 30
0.0
 11
0.4
 21
0.0528099428524846
 31
0.0
  0
MTEXT
  5
1E
330
2
100
AcDbEntity
  8
Text
100
AcDbMText
 10
0.1133313047219695
 20
0.2610796890771976
 30
0.0
 40
0.003
 41
0.1103605678262056
 71
     2
 72
     5
  1
{\fTimes New Roman|b0|i0|c0|p18;Il rosone componibile\fTimes New Roman|b0|i1|c0|p18;  Composing ceiling centre}
 73
     1
 44
1.0
1001
ACAD
1000
ACAD_MTEXT_DEFINED_HEIGHT_BEGIN
1070
    46
1040
0.0141952763113409
1000
ACAD_MTEXT_DEFINED_HEIGHT_END
1000
MTEXTBEGIN
1070
    73
1070
     1
1070
    44
1040
1.0
1070
    74
1070
     0
1000
MTEXTEND
  0
TEXT
  5
1F
330
2
100
AcDbEntity
  8
Text
100
AcDbText
 10
0.2180556919891047
 20
0.269976982173197
 30
0.0
 40
0.003
  1
Rosone - Ceiling centre : D 520 mm
  7
ROMANS
100
AcDbText
  0
TEXT
  5
21
330
2
100
AcDbEntity
  8
Text
100
AcDbText
 10
0.2184542410678115
 20
0.2576348370183962
 30
0.0
 40
0.003
  1
File : E - R52
  7
ROMANS
100
AcDbText
  0
LINE
  5
22
330
2
100
AcDbEntity
  8
Table
100
AcDbLine
 10
0.4
 20
0.2654452889427402
 30
0.0
 11
0.02
 21
0.2654452889427403
 31
0.0
  0
LINE
  5
23
330
2
100
AcDbEntity
  8
Table
100
AcDbLine
 10
0.4
 20
0.2532994226089223
 30
0.0
 11
0.02
 21
0.2532994226089225
 31
0.0
  0
LINE
  5
24
330
2
100
AcDbEntity
  8
Table
100
AcDbLine
 10
0.21
 20
0.0528099428524846
 30
0.0
 11
0.21
 21
0.02
 31
0.0
  0
TEXT
  5
25
330
2
100
AcDbEntity
  8
Text
100
AcDbText
 10
0.0947789320547719
 20
0.2687784133392506
 30
0.0
 40
0.005
  1
EUROSTYL
  7
style1
 72
     1
 11
0.1140561490699125
 21
0.2687784133392506
 31
0.0
100
AcDbText
  0
TEXT
  5
23F
330
2
100
AcDbEntity
  8
Text
  6
ACAD_ISO10W100
100
AcDbText
 10
0.2727191750033584
 20
0.0899414580955704
 30
0.0
 40
0.005
  1
scala 1 : 4
  7
style1
100
AcDbText
  0
CIRCLE
  5
7DD
330
2
100
AcDbEntity
  8
Profilo
  6
Continuous
370
     0
100
AcDbCircle
 10
0.2094540105882636
 20
0.1633035070695179
 30
0.0
 40
0.0052817789153159
  0
CIRCLE
  5
7DE
330
2
100
AcDbEntity
  8
Profilo
  6
Continuous
370
     0
100
AcDbCircle
 10
0.2094540105882636
 20
0.1633035070695179
 30
0.0
 40
0.0087199904247771
  0
CIRCLE
  5
7DF
330
2
100
AcDbEntity
  8
Profilo
  6
Continuous
370
     0
100
AcDbCircle
 10
0.2094540105882636
 20
0.1633035070695179
 30
0.0
 40
0.0020108279121399
  0
CIRCLE
  5
7E0
330
2
100
AcDbEntity
  8
Profilo
  6
Continuous
370
     0
100
AcDbCircle
 10
0.2094540105882636
 20
0.1633035070695179
 30
0.0
 40
0.0114815227659591
  0
CIRCLE
  5
7E1
330
2
100
AcDbEntity
  8
Profilo
  6
Continuous
370
     0
100
AcDbCircle
 10
0.2094540105882636
 20
0.1633035070695179
 30
0.0
 40
0.0157691384550506
  0
CIRCLE
  5
7E2
330
2
100
AcDbEntity
  8
Profilo
  6
Continuous
370
     0
100
AcDbCircle
 10
0.2089424752298346
 20
0.1769143719093114
 30
0.0
 40
0.0012853187363215
  0
CIRCLE
  5
7E3
330
2
100
AcDbEntity
  8
Profilo
  6
Continuous
370
     0
100
AcDbCircle
 10
0.203772761066106
 20
0.175682550408041
 30
0.0
 40
0.0012853187363215
  0
CIRCLE
  5
7E4
330
2
100
AcDbEntity
  8
Profilo
  6
Continuous
370
     0
100
AcDbCircle
 10
0.1994679656414702
 20
0.1725661317747873
 30
0.0
 40
0.0012853187363215
  0
CIRCLE
  5
7E5
330
2
100
AcDbEntity
  8
Profilo
  6
Continuous
370
     0
100
AcDbCircle
 10
0.1966834550362613
 20
0.1680395624960589
 30
0.0
 40
0.0012853187363215
  0
CIRCLE
  5
7E6
330
2
100
AcDbEntity
  8
Profilo
  6
Continuous
370
     0
100
AcDbCircle
 10
0.1958431457484702
 20
0.1627919717110888
 30
0.0
 40
0.0012853187363215
  0
CIRCLE
  5
7E7
330
2
100
AcDbEntity
  8
Profilo
  6
Continuous
370
     0
100
AcDbCircle
 10
0.1970749672497405
 20
0.1576222575473594
 30
0.0
 40
0.0012853187363215
  0
CIRCLE
  5
7E8
330
2
100
AcDbEntity
  8
Profilo
  6
Continuous
370
     0
100
AcDbCircle
 10
0.2001913858829942
 20
0.1533174621227245
 30
0.0
 40
0.0012853187363215
  0
CIRCLE
  5
7E9
330
2
100
AcDbEntity
  8
Profilo
  6
Continuous
370
     0
100
AcDbCircle
 10
0.2047179551617226
 20
0.1505329515175147
 30
0.0
 40
0.0012853187363215
  0
CIRCLE
  5
7EA
330
2
100
AcDbEntity
  8
Profilo
  6
Continuous
370
     0
100
AcDbCircle
 10
0.2099655459466927
 20
0.1496926422297236
 30
0.0
 40
0.0012853187363215
  0
CIRCLE
  5
7EB
330
2
100
AcDbEntity
  8
Profilo
  6
Continuous
370
     0
100
AcDbCircle
 10
0.2151352601104222
 20
0.1509244637309948
 30
0.0
 40
0.0012853187363215
  0
CIRCLE
  5
7EC
330
2
100
AcDbEntity
  8
Profilo
  6
Continuous
370
     0
100
AcDbCircle
 10
0.2194400555350571
 20
0.1540408823642476
 30
0.0
 40
0.0012853187363215
  0
CIRCLE
  5
7ED
330
2
100
AcDbEntity
  8
Profilo
  6
Continuous
370
     0
100
AcDbCircle
 10
0.2222245661402669
 20
0.1585674516429769
 30
0.0
 40
0.0012853187363215
  0
CIRCLE
  5
7EE
330
2
100
AcDbEntity
  8
Profilo
  6
Continuous
370
     0
100
AcDbCircle
 10
0.223064875428058
 20
0.163815042427947
 30
0.0
 40
0.0012853187363215
  0
CIRCLE
  5
7EF
330
2
100
AcDbEntity
  8
Profilo
  6
Continuous
370
     0
100
AcDbCircle
 10
0.2218330539267868
 20
0.1689847565916756
 30
0.0
 40
0.0012853187363215
  0
CIRCLE
  5
7F0
330
2
100
AcDbEntity
  8
Profilo
  6
Continuous
370
     0
100
AcDbCircle
 10
0.2187166352935339
 20
0.1732895520163113
 30
0.0
 40
0.0012853187363215
  0
CIRCLE
  5
7F1
330
2
100
AcDbEntity
  8
Profilo
  6
Continuous
370
     0
100
AcDbCircle
 10
0.2141900660148046
 20
0.1760740626215202
 30
0.0
 40
0.0012853187363215
  0
CIRCLE
  5
7F2
330
2
100
AcDbEntity
  8
Profilo
  6
Continuous
370
     0
100
AcDbCircle
 10
0.2094540105882636
 20
0.1633035070695179
 30
0.0
 40
0.0464848936581572
  0
CIRCLE
  5
7F3
330
2
100
AcDbEntity
  8
Profilo
  6
Continuous
370
     0
100
AcDbCircle
 10
0.2094540105882636
 20
0.1633035070695179
 30
0.0
 40
0.0487976817785128
  0
CIRCLE
  5
7F4
330
2
100
AcDbEntity
  8
Profilo
  6
Continuous
370
     0
100
AcDbCircle
 10
0.2094540105882636
 20
0.1633035070695179
 30
0.0
 40
0.0509146155994903
  0
CIRCLE
  5
7F5
102
{ACAD_REACTORS
330
8DE
102
}
330
2
100
AcDbEntity
  8
Profilo
  6
Continuous
370
     0
100
AcDbCircle
 10
0.2094540105882636
 20
0.1633035070695179
 30
0.0
 40
0.065
  0
CIRCLE
  5
7F6
330
2
100
AcDbEntity
  8
Profilo
  6
Continuous
370
     0
100
AcDbCircle
 10
0.2309837581983745
 20
0.2224065419010177
 30
0.0
 40
0.0012853187363215
  0
CIRCLE
  5
7F7
330
2
100
AcDbEntity
  8
Profilo
  6
Continuous
370
     0
100
AcDbCircle
 10
0.206727151512867
 20
0.2261466689730334
 30
0.0
 40
0.0012853187363215
  0
CIRCLE
  5
7F8
330
2
100
AcDbEntity
  8
Profilo
  6
Continuous
370
     0
100
AcDbCircle
 10
0.1828856844025495
 20
0.22031949431992
 30
0.0
 40
0.0012853187363215
  0
CIRCLE
  5
7F9
330
2
100
AcDbEntity
  8
Profilo
  6
Continuous
370
     0
100
AcDbCircle
 10
0.16308900411153
 20
0.2058121524591447
 30
0.0
 40
0.0012853187363215
  0
CIRCLE
  5
7FA
330
2
100
AcDbEntity
  8
Profilo
  6
Continuous
370
     0
100
AcDbCircle
 10
0.1503509757567638
 20
0.1848332546796278
 30
0.0
 40
0.0012853187363215
  0
CIRCLE
  5
7FB
330
2
100
AcDbEntity
  8
Profilo
  6
Continuous
370
     0
100
AcDbCircle
 10
0.1466108486847482
 20
0.1605766479941204
 30
0.0
 40
0.0012853187363215
  0
CIRCLE
  5
7FC
330
2
100
AcDbEntity
  8
Profilo
  6
Continuous
370
     0
100
AcDbCircle
 10
0.1524380233378615
 20
0.1367351808838029
 30
0.0
 40
0.0012853187363215
  0
CIRCLE
  5
7FD
330
2
100
AcDbEntity
  8
Profilo
  6
Continuous
370
     0
100
AcDbCircle
 10
0.1669453651986368
 20
0.1169385005927843
 30
0.0
 40
0.0012853187363215
  0
CIRCLE
  5
7FE
330
2
100
AcDbEntity
  8
Profilo
  6
Continuous
370
     0
100
AcDbCircle
 10
0.1879242629781528
 20
0.1042004722380172
 30
0.0
 40
0.0012853187363215
  0
CIRCLE
  5
7FF
330
2
100
AcDbEntity
  8
Profilo
  6
Continuous
370
     0
100
AcDbCircle
 10
0.2121808696636611
 20
0.1004603451660015
 30
0.0
 40
0.0012853187363215
  0
CIRCLE
  5
800
330
2
100
AcDbEntity
  8
Profilo
  6
Continuous
370
     0
100
AcDbCircle
 10
0.2360223367739787
 20
0.1062875198191149
 30
0.0
 40
0.0012853187363215
  0
CIRCLE
  5
801
330
2
100
AcDbEntity
  8
Profilo
  6
Continuous
370
     0
100
AcDbCircle
 10
0.2558190170649972
 20
0.1207948616798911
 30
0.0
 40
0.0012853187363215
  0
CIRCLE
  5
802
330
2
100
AcDbEntity
  8
Profilo
  6
Continuous
370
     0
100
AcDbCircle
 10
0.2685570454197643
 20
0.1417737594594071
 30
0.0
 40
0.0012853187363215
  0
CIRCLE
  5
803
330
2
100
AcDbEntity
  8
Profilo
  6
Continuous
370
     0
100
AcDbCircle
 10
0.27229717249178
 20
0.1660303661449145
 30
0.0
 40
0.0012853187363215
  0
CIRCLE
  5
804
330
2
100
AcDbEntity
  8
Profilo
  6
Continuous
370
     0
100
AcDbCircle
 10
0.2664699978386666
 20
0.189871833255232
 30
0.0
 40
0.0012853187363215
  0
CIRCLE
  5
805
330
2
100
AcDbEntity
  8
Profilo
  6
Continuous
370
     0
100
AcDbCircle
 10
0.2519626559778905
 20
0.2096685135462515
 30
0.0
 40
0.0012853187363215
  0
LWPOLYLINE
  5
806
330
2
100
AcDbEntity
  8
Profilo
  6
Continuous
370
     0
100
AcDbPolyline
 90
       35
 70
   128
 43
0.0
 10
0.2019925952783064
 20
0.1794787752492573
 10
0.1927007689748725
 20
0.2004394712939144
 10
0.1915428242683266
 20
0.2016093130393726
 10
0.1900317192680152
 20
0.2023944746602551
 10
0.1883735742489483
 20
0.2024107732941527
 10
0.1869320710942182
 20
0.2021622599159762
 10
0.1849260987597914
 20
0.2012317666646863
 10
0.183599167440752
 20
0.1999849786735579
 10
0.1828775707063803
 20
0.1985506466012294
 10
0.1826678026086092
 20
0.1969378994555084
 10
0.1828527446854089
 20
0.1952229245771857
 10
0.183166829239104
 20
0.1937076802690463
 10
0.1836956574564672
 20
0.1919243695990511
 10
0.1845180453086161
 20
0.1909080814586526
 10
0.1851453608220224
 20
0.1906057832966619
 10
0.1860951406591704
 20
0.190878478391487
 10
0.1866936449473817
 20
0.1913364760344152
 10
0.1869193346610585
 20
0.1920602284085548
 10
0.1866670745593035
 20
0.1927960980216321
 10
0.1861611283569946
 20
0.1936369749758748
 10
0.1857503832771483
 20
0.1945722859017467
 10
0.1854383481687645
 20
0.1960162313131448
 10
0.1857134587098006
 20
0.1971281106723142
 10
0.1863845256957672
 20
0.1982989567787818
 10
0.1874949763378799
 20
0.1989164876535527
 10
0.1889225331514064
 20
0.1994027557794622
 10
0.1899256637135798
 20
0.1990973344995739
 10
0.1910209127185736
 20
0.198435757761306
 10
0.1917225152271511
 20
0.1974637265365642
 10
0.1966585632910052
 20
0.1873231129814483
 10
0.2001199089564132
 20
0.1806158804362745
 10
0.2010560951379112
 20
0.1784825869141704
 10
0.2015868999812573
 20
0.1777391561079362
 10
0.2022841685167984
 20
0.1776778693667653
 10
0.2028201694629175
 20
0.1778866508344681
  0
LWPOLYLINE
  5
807
330
2
100
AcDbEntity
  8
Profilo
  6
Continuous
370
     0
100
AcDbPolyline
 90
       15
 70
   128
 43
0.0
 10
0.1998209147417293
 20
0.2025997743758303
 10
0.2008767239470552
 20
0.2016502244295211
 10
0.2015197619006477
 20
0.2007108503983908
 10
0.2015692263586164
 20
0.1999197988715391
 10
0.2017176197325226
 20
0.1990793069672518
 10
0.2022617287701776
 20
0.1986343408263904
 10
0.2031520911821563
 20
0.1986343408263904
 10
0.2041413803415288
 20
0.1988815440855385
 10
0.2047175361025451
 20
0.1996413914847297
 10
0.204636024921216
 20
0.2006119696435205
 10
0.2041908447994984
 20
0.2014524615478077
 10
0.2036467357618426
 20
0.2020951905703816
 10
0.2031520911821563
 20
0.2029356824746697
 10
0.2025585155179899
 20
0.2036772922521139
 10
0.2015630546862193
 20
0.2044125155006169
  0
LWPOLYLINE
  5
808
330
2
100
AcDbEntity
  8
Profilo
  6
Continuous
370
     0
100
AcDbPolyline
 90
       18
 70
   128
 43
0.0
 10
0.1985909737297202
 20
0.2062772776818802
 10
0.1969831099464496
 20
0.2066126699193047
 10
0.1954850958599286
 20
0.2063965322186609
 10
0.1943474111581071
 20
0.2059515647058276
 10
0.193480304197565
 20
0.2050956957410932
 10
0.1929624063349848
 20
0.2040728180155407
 10
0.1926732138235518
 20
0.2029099195873494
 10
0.1927446976636426
 20
0.2016714749014401
 10
0.1930709180409158
 20
0.2003741671354593
 10
0.2021188543373293
 20
0.1795229541146632
 10
0.2024101091328276
 20
0.1795165977691022
 10
0.2026776595885602
 20
0.179285161210406
 10
0.2027107320325969
 20
0.178893209433638
 10
0.2024556051577369
 20
0.178609871180015
 10
0.2020303929767895
 20
0.1785673702361752
 10
0.2017610925071338
 20
0.1788176522001459
 10
0.2017705408474839
 20
0.179209603976914
 10
0.2019925952783064
 20
0.1794787752492573
  0
LWPOLYLINE
  5
809
330
2
100
AcDbEntity
  8
Profilo
  6
Continuous
370
     0
100
AcDbPolyline
 90
       10
 70
   128
 43
0.0
 10
0.1971226426550663
 20
0.2031678598981621
 10
0.1957138402448439
 20
0.2027036148089243
 10
0.1950718648771525
 20
0.2013619498211963
 10
0.1953419525277917
 20
0.1996760488655269
 10
0.195835909679456
 20
0.1980851706798967
 10
0.1969335934434575
 20
0.1953422792907
 10
0.2037471284440722
 20
0.1797352050190684
 10
0.2039199461139054
 20
0.1789387040200445
 10
0.2035359058838129
 20
0.1783245353353839
 10
0.2028201694629175
 20
0.1778866508344681
  0
LWPOLYLINE
  5
80A
330
2
100
AcDbEntity
  8
Profilo
  6
Continuous
370
     0
100
AcDbPolyline
 90
       35
 70
   128
 43
0.0
 10
0.1963705545533791
 20
0.1753921462525438
 10
0.1797647153048558
 20
0.1912014763326555
 10
0.1782472348362232
 20
0.1918391429227713
 10
0.1765506875109191
 20
0.191986262825834
 10
0.1750125240487046
 20
0.1913667761728446
 10
0.1737758507405482
 20
0.1905855403741752
 10
0.1722786583091835
 20
0.1889582243260008
 10
0.1715298587303513
 20
0.1872985477879334
 10
0.1714120853973284
 20
0.1856972546283924
 10
0.171835456558485
 20
0.1841269957736884
 10
0.1726626132307967
 20
0.1826133398535736
 10
0.1735326484141444
 20
0.1813336316055904
 10
0.174703665428547
 20
0.1798884411748247
 10
0.1758523693667735
 20
0.1792642275687717
 10
0.1765476178282652
 20
0.1792250037380398
 10
0.1773207440853204
 20
0.1798404061628362
 10
0.1776984218373094
 20
0.1804925784863736
 10
0.1776299639017553
 20
0.1812476062057264
 10
0.1771153008475688
 20
0.1818309253182582
 10
0.1763260778276576
 20
0.1824141770963514
 10
0.1755886708598666
 20
0.183121106380316
 10
0.1747478140236245
 20
0.1843357273256751
 10
0.174576485212123
 20
0.185468250154357
 10
0.1747484068586074
 20
0.1868067771253798
 10
0.1755380106439697
 20
0.1878022523244702
 10
0.176670814410012
 20
0.1887978078346064
 10
0.1777144658685446
 20
0.1888995168119676
 10
0.1789795184642351
 20
0.188707433252822
 10
0.1799996949073188
 20
0.1880778851554599
 10
0.1884406534865652
 20
0.1805981236601761
 10
0.1942052666738396
 20
0.1757260484317369
 10
0.1958865660128275
 20
0.1741134051510942
 10
0.1966614643960085
 20
0.1736296948647444
 10
0.1973291099451284
 20
0.1738399064154228
 10
0.1977444130399801
 20
0.1742379140220134
  0
LWPOLYLINE
  5
80B
330
2
100
AcDbEntity
  8
Profilo
  6
Continuous
370
     0
100
AcDbPolyline
 90
       15
 70
   128
 43
0.0
 10
0.1855161600490147
 20
0.1959220979550586
 10
0.1868549775967088
 20
0.1954488688851832
 10
0.1878085500791684
 20
0.1948270804156715
 10
0.1881569715929459
 20
0.194115173329406
 10
0.188615711520665
 20
0.1933954477474602
 10
0.1892886838940804
 20
0.1931925741513689
 10
0.1901112715030244
 20
0.1935333010952336
 10
0.1909306549174019
 20
0.1941402716978411
 10
0.191172172421747
 20
0.1950627644219889
 10
0.1907254417284614
 20
0.1959282687389505
 10
0.1899925065989176
 20
0.1965344189495628
 10
0.1892438536471346
 20
0.1969200016243597
 10
0.188465219317286
 20
0.1975072226064167
 10
0.1876330251350584
 20
0.1979652291283766
 10
0.1864319814908768
 20
0.1982635404716086
  0
LWPOLYLINE
  5
80C
330
2
100
AcDbEntity
  8
Profilo
  6
Continuous
370
     0
100
AcDbPolyline
 90
       18
 70
   128
 43
0.0
 10
0.182972523134131
 20
0.1988489899421788
 10
0.1813587016410949
 20
0.1985435491343406
 10
0.1800574294042905
 20
0.1977705987641505
 10
0.1791766274889284
 20
0.1969241292997692
 10
0.1787030519886645
 20
0.1958015820128516
 10
0.1786160151123992
 20
0.1946583752862851
 10
0.1787938580321233
 20
0.1934733280472001
 10
0.1793338327520866
 20
0.1923565100310265
 10
0.180131679270457
 20
0.1912827930723511
 10
0.1964702961939535
 20
0.1754812794521365
 10
0.1967418130063958
 20
0.1755868653394055
 10
0.1970775643330187
 20
0.1754754329664809
 10
0.1972581127384094
 20
0.175125973018595
 10
0.1971308350959493
 20
0.1747665697771348
 10
0.1967542546720651
 20
0.174564582368121
 10
0.1964096747190229
 20
0.1746927559239246
 10
0.1962684103960335
 20
0.1750584878715271
 10
0.1963705545533791
 20
0.1753921462525438
  0
LWPOLYLINE
  5
80D
330
2
100
AcDbEntity
  8
Profilo
  6
Continuous
370
     0
100
AcDbPolyline
 90
       10
 70
   128
 43
0.0
 10
0.1828058847774381
 20
0.1954143565182784
 10
0.1816819799694889
 20
0.1944463246403938
 10
0.1816023050294904
 20
0.1929611144815437
 10
0.1824969998462436
 20
0.1915069031639449
 10
0.1835621594731558
 20
0.1902261525877629
 10
0.1856259461273089
 20
0.1881121167638424
 10
0.1978934004098711
 20
0.1763004872424725
 10
0.1983578708540747
 20
0.1756307507309156
 10
0.1982380961261274
 20
0.1749163670202298
 10
0.1977444130399801
 20
0.1742379140220134
  0
LWPOLYLINE
  5
80E
330
2
100
AcDbEntity
  8
Profilo
  6
Continuous
370
     0
100
AcDbPolyline
 90
       35
 70
   128
 43
0.0
 10
0.1927403514079398
 20
0.169465131524003
 10
0.1713485877076062
 20
0.1777162684468045
 10
0.1697025941222403
 20
0.1777246809236947
 10
0.1680788884229818
 20
0.1772113614373429
 10
0.1668948779612558
 20
0.1760504007247237
 10
0.1660513068003686
 20
0.1748553785739881
 10
0.1652908282476577
 20
0.1727789838456069
 10
0.1652341583570251
 20
0.1709590894685169
 10
0.1657381383476855
 20
0.1694346175895429
 10
0.1667301943463535
 20
0.1681459047020537
 10
0.1680736385090116
 20
0.1670640081326589
 10
0.1693671693522356
 20
0.1662146599250036
 10
0.1710020984385316
 20
0.1653276068758673
 10
0.1723022387012669
 20
0.1651904986671724
 10
0.1729595748350245
 20
0.1654203206403615
 10
0.1734383460477584
 20
0.1662847409545902
 10
0.1735376992494402
 20
0.1670318006344358
 10
0.1731855157647715
 20
0.167703157573075
 10
0.1724868025427204
 20
0.1680451211379772
 10
0.1715344547556645
 20
0.1682819529438975
 10
0.170582649426164
 20
0.1686528770108007
 10
0.1693409836929955
 20
0.1694532584617576
 10
0.1687492987874073
 20
0.1704340084256293
 10
0.1683959015822056
 20
0.1717364376636468
 10
0.1687444484922738
 20
0.1729583051119992
 10
0.1694100401063423
 20
0.1743115837046787
 10
0.1703353259873976
 20
0.1748049386694799
 10
0.1715775893838218
 20
0.1751115912700936
 10
0.1727610271458735
 20
0.1749203692910672
 10
0.1834218368143023
 20
0.171240185739066
 10
0.1906121074220301
 20
0.1689449971154184
 10
0.1927825573351622
 20
0.1680985143970677
 10
0.1936835780038102
 20
0.1679481651368544
 10
0.1942199575838783
 20
0.1683978721763646
 10
0.1944513366960025
 20
0.1689245128716861
  0
LWPOLYLINE
  5
80F
330
2
100
AcDbEntity
  8
Profilo
  6
Continuous
370
     0
100
AcDbPolyline
 90
       15
 70
   128
 43
0.0
 10
0.174855726103746
 20
0.1842785367602264
 10
0.1762737291585825
 20
0.1843536734028408
 10
0.1773926634036105
 20
0.1841441321529036
 10
0.1779869979561726
 20
0.1836197509076554
 10
0.1786862454421989
 20
0.1831303633435741
 10
0.1793856272080312
 20
0.1832004679582031
 10
0.180015208507255
 20
0.1838300492574269
 10
0.1805399424795269
 20
0.1847043814314491
 10
0.1804100528765255
 20
0.185649078325719
 10
0.1796661133697128
 20
0.1862777436144105
 10
0.1787570059617431
 20
0.1865572712565484
 10
0.1779177847211839
 20
0.1866270061166446
 10
0.1769737006595564
 20
0.1868715571051256
 10
0.1760295819796518
 20
0.1869762330304718
 10
0.1748058035303988
 20
0.1867922172706233
  0
LWPOLYLINE
  5
810
330
2
100
AcDbEntity
  8
Profilo
  6
Continuous
370
     0
100
AcDbPolyline
 90
       18
 70
   128
 43
0.0
 10
0.1713856389481521
 20
0.1860092246557192
 10
0.1700115494383363
 20
0.1851094513967846
 10
0.1691051259532399
 20
0.183897363044097
 10
0.1686153009314619
 20
0.1827782589308544
 10
0.1686073544684188
 20
0.1815599309702698
 10
0.1689644291538901
 20
0.1804704381036144
 10
0.1695822325323926
 20
0.1794436547533067
 10
0.1705084918759967
 20
0.1786184888258502
 10
0.1716564996355387
 20
0.1779318263481695
 10
0.1927983908694468
 20
0.1695856493361383
 10
0.1930088337254467
 20
0.1697871029620375
 10
0.1933616708270733
 20
0.1698126393435269
 10
0.1936622083357724
 20
0.1695588733337257
 10
0.1936821567930025
 20
0.169178120989943
 10
0.1934115390820068
 20
0.168847397867756
 10
0.193044138819805
 20
0.1688339497534184
 10
0.1927736680460867
 20
0.1691177824982004
 10
0.1927403514079398
 20
0.169465131524003
  0
LWPOLYLINE
  5
811
330
2
100
AcDbEntity
  8
Profilo
  6
Continuous
370
     0
100
AcDbPolyline
 90
       10
 70
   128
 43
0.0
 10
0.1725460624886459
 20
0.1827722673953955
 10
0.1718781596017589
 20
0.1814478228070415
 10
0.1723729148768118
 20
0.1800451772602898
 10
0.1737560076842568
 20
0.1790440460714082
 10
0.175230208888915
 20
0.1782684057698658
 10
0.1779459056233978
 20
0.1771050683016302
 10
0.1937996704781373
 20
0.1708870970524634
 10
0.194485082282017
 20
0.1704460863410802
 10
0.1946478076727853
 20
0.1697402460484172
 10
0.1944513366960025
 20
0.1689245128716861
  0
LWPOLYLINE
  5
812
330
2
100
AcDbEntity
  8
Profilo
  6
Continuous
370
     0
100
AcDbPolyline
 90
       35
 70
   128
 43
0.0
 10
0.191654651363006
 20
0.1626000653275303
 10
0.1687336653174176
 20
0.1620368482932681
 10
0.1672097462177229
 20
0.1614147259335867
 10
0.1659060766182927
 20
0.1603191152963648
 10
0.165256474016771
 20
0.1587934262684758
 10
0.1649344310654062
 20
0.1573665490552214
 10
0.1650264423572443
 20
0.1551571879214642
 10
0.1656705296319467
 20
0.1534541381268788
 10
0.1667195365613026
 20
0.1522385745526753
 10
0.1681292458646935
 20
0.1514276024873098
 10
0.1697844503222861
 20
0.1509421742139088
 10
0.171304548480391
 20
0.1506524916118357
 10
0.1731544865058607
 20
0.1504586217299035
 10
0.174408128523905
 20
0.150829492400451
 10
0.1749274788623305
 20
0.1512933718654859
 10
0.1750390064536749
 20
0.152275209912295
 10
0.1748449094807336
 20
0.1530034238843045
 10
0.1742626171899397
 20
0.1534889020341872
 10
0.173486226554231
 20
0.1535374491986126
 10
0.1725157403175546
 20
0.1533918055367938
 10
0.1714944403596244
 20
0.1533702545598849
 10
0.1700409980816762
 20
0.153634545696006
 10
0.1691190357452417
 20
0.1543142125035901
 10
0.168294121209291
 20
0.1553822609636635
 10
0.1681485481365925
 20
0.1566445024185237
 10
0.1682455973090491
 20
0.1581494796955107
 10
0.1689116512249731
 20
0.1589593718266347
 10
0.1699420020811706
 20
0.159718075508378
 10
0.1711085334908091
 20
0.1599942914605616
 10
0.1823661826168825
 20
0.1606739604366885
 10
0.1898874571250024
 20
0.1613050800798472
 10
0.1922166262881824
 20
0.1613536272442726
 10
0.1931065970132675
 20
0.161559528322142
 10
0.1934300516955103
 20
0.1621802670303234
 10
0.193442281452544
 20
0.1627553645425239
  0
LWPOLYLINE
  5
813
330
2
100
AcDbEntity
  8
Profilo
  6
Continuous
370
     0
100
AcDbPolyline
 90
       15
 70
   128
 43
0.0
 10
0.1694625673370149
 20
0.1694417174341005
 10
0.1707438777881247
 20
0.1700537809164828
 10
0.17185782620008
 20
0.1702883876419277
 10
0.1726075917434562
 20
0.1700313645287581
 10
0.1734408926967346
 20
0.1698468198028618
 10
0.1740602093210484
 20
0.1701792298361351
 10
0.174400936264913
 20
0.1710018174450791
 10
0.1745511348045259
 20
0.1720104020428623
 10
0.1740696126087844
 20
0.1728334815687997
 10
0.1731417223345275
 20
0.1731295992378836
 10
0.1721948460099156
 20
0.1730399487619554
 10
0.1713928203068971
 20
0.1727832193070498
 10
0.1704270147537299
 20
0.1726478696308176
 10
0.1695147050867058
 20
0.1723832789988062
 10
0.1684545010077008
 20
0.1717449508672084
  0
LWPOLYLINE
  5
814
330
2
100
AcDbEntity
  8
Profilo
  6
Continuous
370
     0
100
AcDbPolyline
 90
       18
 70
   128
 43
0.0
 10
0.1655943192537315
 20
0.1697127196946031
 10
0.1646691543988537
 20
0.1683555963067791
 10
0.1642955744243215
 20
0.1668888994356825
 10
0.1642712977154179
 20
0.165667534130117
 10
0.1647301900665603
 20
0.1645389048836936
 10
0.1654770149297935
 20
0.1636689912896205
 10
0.1664407238030998
 20
0.1629567902853601
 10
0.1676122531818427
 20
0.162548900478928
 10
0.1689356484078823
 20
0.1623538306198586
 10
0.1916621526635609
 20
0.162733620007808
 10
0.191779483545961
 20
0.1630002718839769
 10
0.1920956901723461
 20
0.1631588893372857
 10
0.1924704626730342
 20
0.1630394508401665
 10
0.1926346002581738
 20
0.1626953154868733
 10
0.1925111443534106
 20
0.1622862062488544
 10
0.1921768571414768
 20
0.1621331838178754
 10
0.1918183566405043
 20
0.1622919063973951
 10
0.191654651363006
 20
0.1626000653275303
  0
LWPOLYLINE
  5
815
330
2
100
AcDbEntity
  8
Profilo
  6
Continuous
370
     0
100
AcDbPolyline
 90
       10
 70
   128
 43
0.0
 10
0.1679051407266376
 20
0.1671662359976489
 10
0.1677949219207857
 20
0.1656870133812838
 10
0.1687887854052326
 20
0.1645804725161097
 10
0.1704497128612026
 20
0.1641848346041757
 10
0.1721085218738656
 20
0.164032388781985
 10
0.1750626884787048
 20
0.1639968572532933
 10
0.1920891719212241
 20
0.1643191740329657
 10
0.1928911773509121
 20
0.1641740290047924
 10
0.1933116293947607
 20
0.1635841899162518
 10
0.193442281452544
 20
0.1627553645425239
  0
LWPOLYLINE
  5
816
330
2
100
AcDbEntity
  8
Profilo
  6
Continuous
370
     0
100
AcDbPolyline
 90
       35
 70
   128
 43
0.0
 10
0.1932787424085243
 20
0.1558420917595606
 10
0.1723180463638672
 20
0.1465502654561268
 10
0.171148204618409
 20
0.1453923207495809
 10
0.1703630429975265
 20
0.1438812157492695
 10
0.1703467443636288
 20
0.1422230707302026
 10
0.1705952577418053
 20
0.1407815675754724
 10
0.1715257509930952
 20
0.1387755952410457
 10
0.1727725389842236
 20
0.1374486639220063
 10
0.1742068710565521
 20
0.1367270671876346
 10
0.1758196182022731
 20
0.1365172990898635
 10
0.1775345930805958
 20
0.1367022411666632
 10
0.1790498373887353
 20
0.1370163257203583
 10
0.1808331480587304
 20
0.1375451539377206
 10
0.181849436199129
 20
0.1383675417898704
 10
0.1821517343611196
 20
0.1389948573032766
 10
0.1818790392662945
 20
0.1399446371404238
 10
0.1814210416233663
 20
0.140543141428636
 10
0.1806972892492267
 20
0.1407688311423128
 10
0.1799614196361494
 20
0.1405165710405578
 10
0.1791205426819067
 20
0.1400106248382489
 10
0.1781852317560348
 20
0.1395998797584026
 10
0.1767412863446367
 20
0.1392878446500187
 10
0.1756294069854674
 20
0.1395629551910549
 10
0.1744585608789997
 20
0.1402340221770215
 10
0.1738410300042288
 20
0.1413444728191333
 10
0.1733547618783193
 20
0.1427720296326607
 10
0.1736601831582076
 20
0.143775160194834
 10
0.1743217598964755
 20
0.1448704091998278
 10
0.1752937911212173
 20
0.1455720117084054
 10
0.1854344046763332
 20
0.1505080597722594
 10
0.192141637221507
 20
0.1539694054376666
 10
0.1942749307436111
 20
0.1549055916191655
 10
0.1950183615498453
 20
0.1554363964625116
 10
0.1950796482910162
 20
0.1561336649980527
 10
0.1948708668233134
 20
0.1566696659441717
  0
LWPOLYLINE
  5
817
330
2
100
AcDbEntity
  8
Profilo
  6
Continuous
370
     0
100
AcDbPolyline
 90
       15
 70
   128
 43
0.0
 10
0.1701577432819512
 20
0.1536704112229827
 10
0.1711072932282605
 20
0.1547262204283095
 10
0.1720466672593908
 20
0.155369258381902
 10
0.1728377187862424
 20
0.1554187228398707
 10
0.1736782106905297
 20
0.1555671162137759
 10
0.1741231768313911
 20
0.1561112252514318
 10
0.1741231768313911
 20
0.1570015876634097
 10
0.173875973572243
 20
0.1579908768227831
 10
0.1731161261730518
 20
0.1585670325837993
 10
0.1721455480142611
 20
0.1584855214024694
 10
0.1713050561099738
 20
0.1580403412807518
 10
0.1706623270873999
 20
0.1574962322430968
 10
0.1698218351831118
 20
0.1570015876634097
 10
0.1690802254056676
 20
0.1564080119992433
 10
0.1683450021571646
 20
0.1554125511674727
  0
LWPOLYLINE
  5
818
330
2
100
AcDbEntity
  8
Profilo
  6
Continuous
370
     0
100
AcDbPolyline
 90
       18
 70
   128
 43
0.0
 10
0.1664802399759013
 20
0.1524404702109745
 10
0.1661448477384768
 20
0.1508326064277039
 10
0.1663609854391206
 20
0.1493345923411828
 10
0.1668059529519539
 20
0.1481969076393614
 10
0.1676618219166883
 20
0.1473298006788184
 10
0.1686846996422409
 20
0.1468119028162391
 10
0.1698475980704321
 20
0.1465227103048052
 10
0.1710860427563414
 20
0.1465941941448969
 10
0.1723833505223222
 20
0.1469204145221701
 10
0.1932345635431183
 20
0.1559683508185836
 10
0.1932409198886793
 20
0.156259605614081
 10
0.1934723564473755
 20
0.1565271560698145
 10
0.1938643082241436
 20
0.1565602285138512
 10
0.1941476464777665
 20
0.1563051016389911
 10
0.1941901474216063
 20
0.1558798894580438
 10
0.1939398654576356
 20
0.1556105889883881
 10
0.1935479136808675
 20
0.1556200373287373
 10
0.1932787424085243
 20
0.1558420917595606
  0
LWPOLYLINE
  5
819
330
2
100
AcDbEntity
  8
Profilo
  6
Continuous
370
     0
100
AcDbPolyline
 90
       10
 70
   128
 43
0.0
 10
0.1695896577596194
 20
0.1509721391363197
 10
0.1700539028488572
 20
0.1495633367260973
 10
0.1713955678365853
 20
0.1489213613584059
 10
0.1730814687922546
 20
0.149191449009046
 10
0.1746723469778848
 20
0.1496854061607102
 10
0.1774152383670815
 20
0.1507830899247118
 10
0.1930223126387132
 20
0.1575966249253264
 10
0.193818813637737
 20
0.1577694425951597
 10
0.1944329823223976
 20
0.1573854023650663
 10
0.1948708668233134
 20
0.1566696659441717
  0
LWPOLYLINE
  5
81A
330
2
100
AcDbEntity
  8
Profilo
  6
Continuous
370
     0
100
AcDbPolyline
 90
       35
 70
   128
 43
0.0
 10
0.1973653714052377
 20
0.1502200510346334
 10
0.181556041325126
 20
0.1336142117861101
 10
0.1809183747350103
 20
0.1320967313174766
 10
0.1807712548319467
 20
0.1304001839921733
 10
0.1813907414849369
 20
0.1288620205299589
 10
0.1821719772836063
 20
0.1276253472218025
 10
0.1837992933317807
 20
0.1261281547904369
 10
0.1854589698698481
 20
0.1253793552116056
 10
0.1870602630293891
 20
0.1252615818785818
 10
0.1886305218840922
 20
0.1256849530397392
 10
0.1901441778042079
 20
0.126512109712051
 10
0.1914238860521911
 20
0.1273821448953987
 10
0.1928690764829568
 20
0.1285531619098013
 10
0.1934932900890098
 20
0.1297018658480278
 10
0.1935325139197417
 20
0.1303971143095195
 10
0.1929171114949453
 20
0.1311702405665747
 10
0.192264939171408
 20
0.1315479183185628
 10
0.1915099114520551
 20
0.1314794603830096
 10
0.1909265923395233
 20
0.130964797328823
 10
0.1903433405614301
 20
0.1301755743089119
 10
0.1896364112774655
 20
0.12943816734112
 10
0.1884217903321064
 20
0.1285973105048788
 10
0.1872892675034245
 20
0.1284259816933773
 10
0.1859507405324017
 20
0.1285979033398608
 10
0.1849552653333113
 20
0.1293875071252239
 10
0.1839597098231742
 20
0.1305203108912654
 10
0.1838580008458139
 20
0.1315639623497988
 10
0.1840500844049595
 20
0.1328290149454894
 10
0.1846796325023217
 20
0.1338491913885731
 10
0.1921593939976054
 20
0.1422901499678195
 10
0.1970314692260446
 20
0.1480547631550939
 10
0.1986441125066873
 20
0.1497360624940818
 10
0.1991278227930371
 20
0.1505109608772628
 10
0.1989176112423587
 20
0.1511786064263827
 10
0.1985196036357681
 20
0.1515939095212335
  0
LWPOLYLINE
  5
81B
330
2
100
AcDbEntity
  8
Profilo
  6
Continuous
370
     0
100
AcDbPolyline
 90
       15
 70
   128
 43
0.0
 10
0.1768354197027229
 20
0.139365656530269
 10
0.1773086487725983
 20
0.140704474077963
 10
0.17793043724211
 20
0.1416580465604227
 10
0.1786423443283756
 20
0.1420064680741992
 10
0.1793620699103213
 20
0.1424652080019193
 10
0.1795649435064126
 20
0.1431381803753347
 10
0.1792242165625479
 20
0.1439607679842787
 10
0.1786172459599404
 20
0.1447801513986562
 10
0.1776947532357926
 20
0.1450216689030013
 10
0.176829248918831
 20
0.1445749382097157
 10
0.1762230987082187
 20
0.1438420030801719
 10
0.1758375160334218
 20
0.143093350128388
 10
0.1752502950513648
 20
0.1423147157985403
 10
0.1747922885294049
 20
0.1414825216163118
 10
0.1744939771861729
 20
0.1402814779721311
  0
LWPOLYLINE
  5
81C
330
2
100
AcDbEntity
  8
Profilo
  6
Continuous
370
     0
100
AcDbPolyline
 90
       18
 70
   128
 43
0.0
 10
0.1739085277156027
 20
0.1368220196153853
 10
0.1742139685234409
 20
0.1352081981223492
 10
0.174986918893631
 20
0.1339069258855439
 10
0.1758333883580123
 20
0.1330261239701818
 10
0.1769559356449299
 20
0.1325525484699188
 10
0.1780991423714964
 20
0.1324655115936535
 10
0.1792841896105815
 20
0.1326433545133776
 10
0.180401007626755
 20
0.1331833292333409
 10
0.1814747245854304
 20
0.1339811757517104
 10
0.197276238205645
 20
0.1503197926752069
 10
0.197170652318376
 20
0.1505913094876501
 10
0.1972820846913006
 20
0.1509270608142721
 10
0.1976315446391865
 20
0.1511076092196628
 10
0.1979909478806467
 20
0.1509803315772036
 10
0.1981929352896605
 20
0.1506037511533185
 10
0.1980647617338569
 20
0.1502591712002772
 10
0.1976990297862544
 20
0.1501179068772878
 10
0.1973653714052377
 20
0.1502200510346334
  0
LWPOLYLINE
  5
81D
330
2
100
AcDbEntity
  8
Profilo
  6
Continuous
370
     0
100
AcDbPolyline
 90
       10
 70
   128
 43
0.0
 10
0.1773431611395031
 20
0.1366553812586915
 10
0.1783111930173877
 20
0.1355314764507431
 10
0.1797964031762378
 20
0.1354518015107446
 10
0.1812506144938366
 20
0.136346496327497
 10
0.1825313650700186
 20
0.1374116559544092
 10
0.1846454008939391
 20
0.1394754426085623
 10
0.196457030415309
 20
0.1517428968911245
 10
0.1971267669268659
 20
0.152207367335329
 10
0.1978411506375517
 20
0.1520875926073817
 10
0.1985196036357681
 20
0.1515939095212335
  0
LWPOLYLINE
  5
81E
330
2
100
AcDbEntity
  8
Profilo
  6
Continuous
370
     0
100
AcDbPolyline
 90
       35
 70
   128
 43
0.0
 10
0.2032923861337785
 20
0.1465898478891932
 10
0.195041249210977
 20
0.1251980841888596
 10
0.1950328367340868
 20
0.1235520906034946
 10
0.1955461562204386
 20
0.1219283849042361
 10
0.1967071169330579
 20
0.1207443744425092
 10
0.1979021390837934
 20
0.1199008032816229
 10
0.1999785338121747
 20
0.119140324728912
 10
0.2017984281892646
 20
0.1190836548382794
 10
0.2033229000682386
 20
0.1195876348289397
 10
0.2046116129557278
 20
0.1205796908276069
 10
0.2056935095251227
 20
0.1219231349902659
 10
0.2065428577327779
 20
0.123216665833489
 10
0.2074299107819142
 20
0.124851594919785
 10
0.2075670189906091
 20
0.1261517351825212
 10
0.20733719701742
 20
0.1268090713162779
 10
0.2064727767031913
 20
0.1272878425290118
 10
0.2057257170233457
 20
0.1273871957306945
 10
0.2050543600847066
 20
0.1270350122460249
 10
0.2047123965198043
 20
0.1263362990239747
 10
0.2044755647138841
 20
0.1253839512369179
 10
0.2041046406469809
 20
0.1244321459074174
 10
0.2033042591960239
 20
0.1231904801742489
 10
0.2023235092321522
 20
0.1225987952686616
 10
0.2010210799941348
 20
0.1222453980634599
 10
0.1997992125457815
 20
0.1225939449735272
 10
0.1984459339531028
 20
0.1232595365875957
 10
0.1979525789883016
 20
0.1241848224686519
 10
0.197645926387688
 20
0.1254270858650752
 10
0.1978371483667143
 20
0.1266105236271278
 10
0.2015173319187156
 20
0.1372713332955566
 10
0.2038125205423631
 20
0.1444616039032844
 10
0.2046590032607138
 20
0.1466320538164165
 10
0.2048093525209271
 20
0.1475330744850645
 10
0.2043596454814169
 20
0.1480694540651317
 10
0.2038330047860954
 20
0.1483008331772559
  0
LWPOLYLINE
  5
81F
330
2
100
AcDbEntity
  8
Profilo
  6
Continuous
370
     0
100
AcDbPolyline
 90
       15
 70
   128
 43
0.0
 10
0.1884789808975551
 20
0.1287052225850003
 10
0.1884038442549407
 20
0.1301232256398359
 10
0.1886133855048779
 20
0.1312421598848648
 10
0.1891377667501262
 20
0.1318364944374268
 10
0.1896271543142074
 20
0.1325357419234532
 10
0.1895570496995784
 20
0.1332351236892855
 10
0.1889274684003546
 20
0.1338647049885084
 10
0.1880531362263324
 20
0.1343894389607811
 10
0.1871084393320625
 20
0.1342595493577798
 10
0.186479774043371
 20
0.1335156098509662
 10
0.1862002464012331
 20
0.1326065024429965
 10
0.1861305115411369
 20
0.1317672812024382
 10
0.1858859605526559
 20
0.1308231971408107
 10
0.1857812846273097
 20
0.1298790784609052
 10
0.1859653003871582
 20
0.128655300011653
  0
LWPOLYLINE
  5
820
330
2
100
AcDbEntity
  8
Profilo
  6
Continuous
370
     0
100
AcDbPolyline
 90
       18
 70
   128
 43
0.0
 10
0.1867482930020623
 20
0.1252351354294054
 10
0.1876480662609969
 20
0.1238610459195906
 10
0.1888601546136845
 20
0.1229546224344942
 10
0.1899792587269271
 20
0.1224647974127153
 10
0.1911975866875117
 20
0.1224568509496731
 10
0.1922870795541671
 20
0.1228139256351435
 10
0.1933138629044748
 20
0.123431729013646
 10
0.1941390288319313
 20
0.124357988357251
 10
0.194825691309612
 20
0.1255059961167921
 10
0.2031718683216432
 20
0.1466478873507002
 10
0.2029704146957441
 20
0.1468583302067001
 10
0.2029448783142547
 20
0.1472111673083276
 10
0.2031986443240568
 20
0.1475117048170267
 10
0.2035793966678394
 20
0.1475316532742568
 10
0.2039101197900255
 20
0.1472610355632611
 10
0.2039235679043632
 20
0.1468936353010592
 10
0.2036397351595811
 20
0.1466231645273401
 10
0.2032923861337785
 20
0.1465898478891932
  0
LWPOLYLINE
  5
821
330
2
100
AcDbEntity
  8
Profilo
  6
Continuous
370
     0
100
AcDbPolyline
 90
       10
 70
   128
 43
0.0
 10
0.189985250262386
 20
0.1263955589698993
 10
0.19130969485074
 20
0.1257276560830123
 10
0.1927123403974917
 20
0.1262224113580661
 10
0.1937134715863733
 20
0.1276055041655102
 10
0.1944891118879157
 20
0.1290797053701693
 10
0.1956524493561513
 20
0.1317954021046521
 10
0.2018704206053181
 20
0.1476491669593916
 10
0.2023114313167014
 20
0.1483345787632704
 10
0.2030172716093643
 20
0.1484973041540396
 10
0.2038330047860954
 20
0.1483008331772559
  0
LWPOLYLINE
  5
822
330
2
100
AcDbEntity
  8
Profilo
  6
Continuous
370
     0
100
AcDbPolyline
 90
       35
 70
   128
 43
0.0
 10
0.2101574523302512
 20
0.1455041478442594
 10
0.2107206693645134
 20
0.1225831617986719
 10
0.2113427917241948
 20
0.1210592426989763
 10
0.2124384023614168
 20
0.1197555730995461
 10
0.2139640913893057
 20
0.1191059704980244
 10
0.2153909686025601
 20
0.1187839275466596
 10
0.2176003297363174
 20
0.1188759388384986
 10
0.2193033795309027
 20
0.1195200261132001
 10
0.2205189431051062
 20
0.1205690330425559
 10
0.2213299151704717
 20
0.1219787423459477
 10
0.2218153434438728
 20
0.1236339468035403
 10
0.2221050260459458
 20
0.1251540449616453
 10
0.222298895927878
 20
0.1270039829871141
 10
0.2219280252573306
 20
0.1282576250051592
 10
0.2214641457922957
 20
0.1287769753435839
 10
0.2204823077454865
 20
0.1288885029349291
 10
0.219754093773477
 20
0.1286944059619879
 10
0.2192686156235943
 20
0.1281121136711931
 10
0.219220068459169
 20
0.1273357230354852
 10
0.2193657121209878
 20
0.1263652367988088
 10
0.2193872630978966
 20
0.1253439368408786
 10
0.2191229719617755
 20
0.1238904945629304
 10
0.2184433051541914
 20
0.1229685322264951
 10
0.2173752566941181
 20
0.1221436176905453
 10
0.2161130152392578
 20
0.1219980446178459
 10
0.2146080379622708
 20
0.1220950937903025
 10
0.2137981458311469
 20
0.1227611477062274
 10
0.2130394421494035
 20
0.1237914985624249
 10
0.2127632261972199
 20
0.1249580299720634
 10
0.2120835572210931
 20
0.1362156790981359
 10
0.2114524375779343
 20
0.1437369536062567
 10
0.2114038904135089
 20
0.1460661227694358
 10
0.2111979893356395
 20
0.1469560934945218
 10
0.2105772506274581
 20
0.1472795481767646
 10
0.2100021531152576
 20
0.1472917779337983
  0
LWPOLYLINE
  5
823
330
2
100
AcDbEntity
  8
Profilo
  6
Continuous
370
     0
100
AcDbPolyline
 90
       15
 70
   128
 43
0.0
 10
0.203315800223681
 20
0.1233120638182692
 10
0.2027037367412987
 20
0.124593374269379
 10
0.2024691300158539
 20
0.1257073226813343
 10
0.2027261531290234
 20
0.1264570882247105
 10
0.2029106978549198
 20
0.1272903891779888
 10
0.2025782878216464
 20
0.1279097058023018
 10
0.2017557002127024
 20
0.1282504327461673
 10
0.2007471156149192
 20
0.1284006312857802
 10
0.1999240360889818
 20
0.1279191090900378
 10
0.1996279184198979
 20
0.1269912188157818
 10
0.1997175688958261
 20
0.1260443424911699
 10
0.1999742983507318
 20
0.1252423167881513
 10
0.200109648026964
 20
0.1242765112349833
 10
0.2003742386589753
 20
0.1233642015679601
 10
0.2010125667905731
 20
0.122303997488955
  0
LWPOLYLINE
  5
824
330
2
100
AcDbEntity
  8
Profilo
  6
Continuous
370
     0
100
AcDbPolyline
 90
       18
 70
   128
 43
0.0
 10
0.2030447979631784
 20
0.1194438157349849
 10
0.2044019213510024
 20
0.1185186508801079
 10
0.205868618222099
 20
0.1181450709055758
 10
0.2070899835276645
 20
0.1181207941966722
 10
0.2082186127740879
 20
0.1185796865478146
 10
0.209088526368161
 20
0.1193265114110478
 10
0.2098007273724214
 20
0.1202902202843532
 10
0.2102086171788535
 20
0.121461749663097
 10
0.2104036870379229
 20
0.1227851448891366
 10
0.2100238976499735
 20
0.1455116491448152
 10
0.2097572457738046
 20
0.1456289800272144
 10
0.2095986283204958
 20
0.1459451866536003
 10
0.2097180668176151
 20
0.1463199591542876
 10
0.2100622021709082
 20
0.1464840967394272
 10
0.2104713114089272
 20
0.1463606408346649
 10
0.2106243338399061
 20
0.1460263536227302
 10
0.2104656112603864
 20
0.1456678531217586
 10
0.2101574523302512
 20
0.1455041478442594
  0
LWPOLYLINE
  5
825
330
2
100
AcDbEntity
  8
Profilo
  6
Continuous
370
     0
100
AcDbPolyline
 90
       10
 70
   128
 43
0.0
 10
0.2055912816601326
 20
0.1217546372078919
 10
0.2070705042764978
 20
0.12164441840204
 10
0.2081770451416718
 20
0.122638281886486
 10
0.2085726830536059
 20
0.1242992093424569
 10
0.2087251288757965
 20
0.125958018355119
 10
0.2087606604044883
 20
0.128912184959959
 10
0.2084383436248158
 20
0.1459386684024784
 10
0.2085834886529891
 20
0.1467406738321664
 10
0.2091733277415297
 20
0.147161125876015
 10
0.2100021531152576
 20
0.1472917779337983
  0
LWPOLYLINE
  5
826
330
2
100
AcDbEntity
  8
Profilo
  6
Continuous
370
     0
100
AcDbPolyline
 90
       35
 70
   128
 43
0.0
 10
0.2169154258982209
 20
0.1471282388897785
 10
0.2262072522016547
 20
0.1261675428451205
 10
0.2273651969082007
 20
0.1249977010996632
 10
0.228876301908512
 20
0.1242125394787807
 10
0.230534446927579
 20
0.1241962408448831
 10
0.2319759500823091
 20
0.1244447542230596
 10
0.2339819224167359
 20
0.1253752474743486
 10
0.2353088537357753
 20
0.126622035465477
 10
0.2360304504701469
 20
0.1280563675378064
 10
0.236240218567918
 20
0.1296691146835265
 10
0.2360552764911183
 20
0.1313840895618501
 10
0.2357411919374233
 20
0.1328993338699886
 10
0.2352123637200609
 20
0.1346826445399838
 10
0.2343899758679111
 20
0.1356989326803832
 10
0.2337626603545049
 20
0.1360012308423739
 10
0.2328128805173577
 20
0.1357285357475479
 10
0.2322143762291455
 20
0.1352705381046206
 10
0.2319886865154688
 20
0.1345467857304809
 10
0.2322409466172237
 20
0.1338109161174028
 10
0.2327468928195326
 20
0.1329700391631601
 10
0.2331576378993789
 20
0.1320347282372882
 10
0.2334696730077628
 20
0.130590782825891
 10
0.2331945624667266
 20
0.1294789034667216
 10
0.23252349548076
 20
0.1283080573602531
 10
0.2314130448386482
 20
0.1276905264854822
 10
0.2299854880251209
 20
0.1272042583595736
 10
0.2289823574629475
 20
0.127509679639461
 10
0.2278871084579537
 20
0.1281712563777297
 10
0.2271855059493761
 20
0.1291432876024707
 10
0.2222494578855221
 20
0.1392839011575866
 10
0.218788112220115
 20
0.1459911337027613
 10
0.217851926038616
 20
0.1481244272248654
 10
0.2173211211952699
 20
0.1488678580310987
 10
0.2166238526597288
 20
0.1489291447722696
 10
0.2160878517136098
 20
0.1487203633045668
  0
LWPOLYLINE
  5
827
330
2
100
AcDbEntity
  8
Profilo
  6
Continuous
370
     0
100
AcDbPolyline
 90
       15
 70
   128
 43
0.0
 10
0.2190871064347988
 20
0.1240072397632046
 10
0.218031297229472
 20
0.1249567897095147
 10
0.2173882592758796
 20
0.1258961637406442
 10
0.2173387948179108
 20
0.1266872152674967
 10
0.2171904014440056
 20
0.127527707171784
 10
0.2166462924063497
 20
0.1279726733126454
 10
0.2157559299943719
 20
0.1279726733126454
 10
0.2147666408349984
 20
0.1277254700534973
 10
0.2141904850739822
 20
0.1269656226543052
 10
0.2142719962553121
 20
0.1259950444955153
 10
0.2147171763770297
 20
0.1251545525912281
 10
0.2152612854146847
 20
0.1245118235686533
 10
0.2157559299943719
 20
0.1236713316643661
 10
0.2163495056585383
 20
0.122929721886921
 10
0.217344966490308
 20
0.122194498638418
  0
LWPOLYLINE
  5
828
330
2
100
AcDbEntity
  8
Profilo
  6
Continuous
370
     0
100
AcDbPolyline
 90
       18
 70
   128
 43
0.0
 10
0.220317047446807
 20
0.1203297364571547
 10
0.2219249112300776
 20
0.1199943442197311
 10
0.2234229253165987
 20
0.120210481920374
 10
0.2245606100184201
 20
0.1206554494332073
 10
0.2254277169789631
 20
0.1215113183979426
 10
0.2259456148415424
 20
0.1225341961234951
 10
0.2262348073529763
 20
0.1236970945516864
 10
0.2261633235128846
 20
0.1249355392375948
 10
0.2258371031356114
 20
0.1262328470035765
 10
0.2167891668391979
 20
0.1470840600243717
 10
0.2164979120436996
 20
0.1470904163699336
 10
0.216230361587967
 20
0.1473218529286298
 10
0.2161972891439303
 20
0.1477138047053978
 10
0.2164524160187904
 20
0.1479971429590208
 10
0.2168776281997378
 20
0.1480396439028597
 10
0.2171469286693934
 20
0.147789361938889
 10
0.2171374803290442
 20
0.1473974101621218
 10
0.2169154258982209
 20
0.1471282388897785
  0
LWPOLYLINE
  5
829
330
2
100
AcDbEntity
  8
Profilo
  6
Continuous
370
     0
100
AcDbPolyline
 90
       10
 70
   128
 43
0.0
 10
0.2217853785214618
 20
0.1234391542408728
 10
0.2231941809316842
 20
0.1239033993301115
 10
0.2238361562993747
 20
0.1252450643178387
 10
0.2235660686487355
 20
0.1269309652735089
 10
0.2230721114970713
 20
0.1285218434591391
 10
0.2219744277330697
 20
0.1312647348483358
 10
0.2151608927324551
 20
0.1468718091199674
 10
0.2149880750626218
 20
0.1476683101189904
 10
0.2153721152927153
 20
0.148282478803651
 10
0.2160878517136098
 20
0.1487203633045668
  0
LWPOLYLINE
  5
82A
330
2
100
AcDbEntity
  8
Profilo
  6
Continuous
370
     0
100
AcDbPolyline
 90
       35
 70
   128
 43
0.0
 10
0.2225374666231481
 20
0.1512148678864911
 10
0.2391433058716714
 20
0.1354055378063803
 10
0.240660786340305
 20
0.1347678712162645
 10
0.2423573336656082
 20
0.1346207513132009
 10
0.2438954971278227
 20
0.1352402379661903
 10
0.245132170435979
 20
0.1360214737648606
 10
0.2466293628673446
 20
0.137648789813035
 10
0.2473781624461759
 20
0.1393084663511015
 10
0.2474959357791997
 20
0.1409097595106434
 10
0.2470725646180423
 20
0.1424800183653465
 10
0.2462454079457306
 20
0.1439936742854622
 10
0.2453753727623829
 20
0.1452733825334445
 10
0.2442043557479803
 20
0.1467185729642111
 10
0.2430556518097537
 20
0.1473427865702632
 10
0.242360403348262
 20
0.147382010400996
 10
0.2415872770912069
 20
0.1467666079761996
 10
0.2412095993392187
 20
0.1461144356526622
 10
0.2412780572747719
 20
0.1453594079333094
 10
0.2417927203289585
 20
0.1447760888207776
 10
0.2425819433488696
 20
0.1441928370426844
 10
0.2433193503166615
 20
0.1434859077587198
 10
0.2441602071529028
 20
0.1422712868133606
 10
0.2443315359644043
 20
0.1411387639846788
 10
0.2441596143179208
 20
0.1398002370136551
 10
0.2433700105325576
 20
0.1388047618145656
 10
0.2422372067665162
 20
0.1378092063044285
 10
0.2411935553079827
 20
0.1377074973270673
 10
0.2399285027122922
 20
0.1378995808862138
 10
0.2389083262692084
 20
0.1385291289835759
 10
0.230467367689962
 20
0.1460088904788597
 10
0.2247027545026876
 20
0.1508809657072989
 10
0.2230214551636997
 20
0.1524936089879416
 10
0.2222465567805187
 20
0.1529773192742914
 10
0.2215789112313988
 20
0.1527671077236121
 10
0.221163608136548
 20
0.1523691001170224
  0
LWPOLYLINE
  5
82B
330
2
100
AcDbEntity
  8
Profilo
  6
Continuous
370
     0
100
AcDbPolyline
 90
       15
 70
   128
 43
0.0
 10
0.2333918611275125
 20
0.1306849161839763
 10
0.2320530435798185
 20
0.1311581452538526
 10
0.2310994710973588
 20
0.1317799337233643
 10
0.2307510495835823
 20
0.1324918408096289
 10
0.2302923096558622
 20
0.1332115663915747
 10
0.2296193372824469
 20
0.1334144399876669
 10
0.2287967496735028
 20
0.1330737130438022
 10
0.2279773662591253
 20
0.1324667424411947
 10
0.2277358487547803
 20
0.1315442497170469
 10
0.2281825794480659
 20
0.1306787454000853
 10
0.2289155145776096
 20
0.1300725951894721
 10
0.2296641675293936
 20
0.1296870125146761
 10
0.2304428018592413
 20
0.1290997915326182
 10
0.2312749960414697
 20
0.1286417850106583
 10
0.2324760396856504
 20
0.1283434736674271
  0
LWPOLYLINE
  5
82C
330
2
100
AcDbEntity
  8
Profilo
  6
Continuous
370
     0
100
AcDbPolyline
 90
       18
 70
   128
 43
0.0
 10
0.2359354980423962
 20
0.127758024196857
 10
0.2375493195354323
 20
0.1280634650046943
 10
0.2388505917722377
 20
0.1288364153748844
 10
0.2397313936875998
 20
0.1296828848392666
 10
0.2402049691878627
 20
0.1308054321261842
 10
0.240292006064128
 20
0.1319486388527506
 10
0.2401141631444039
 20
0.1331336860918357
 10
0.2395741884244407
 20
0.1342505041080093
 10
0.2387763419060711
 20
0.1353242210666847
 10
0.2224377249825746
 20
0.1511257346868984
 10
0.2221662081701314
 20
0.1510201487996303
 10
0.2218304568435085
 20
0.151131581172554
 10
0.2216499084381187
 20
0.1514810411204408
 10
0.2217771860805779
 20
0.1518404443619001
 10
0.2221537665044631
 20
0.1520424317709148
 10
0.2224983464575043
 20
0.1519142582151103
 10
0.2226396107804947
 20
0.1515485262675087
 10
0.2225374666231481
 20
0.1512148678864911
  0
LWPOLYLINE
  5
82D
330
2
100
AcDbEntity
  8
Profilo
  6
Continuous
370
     0
100
AcDbPolyline
 90
       10
 70
   128
 43
0.0
 10
0.2361021363990901
 20
0.1311926576207574
 10
0.2372260412070384
 20
0.132160689498642
 10
0.2373057161470369
 20
0.1336458996574921
 10
0.2364110213302846
 20
0.1351001109750909
 10
0.2353458617033723
 20
0.1363808615512729
 10
0.2332820750492193
 20
0.1384948973751934
 10
0.221014620766657
 20
0.1503065268965624
 10
0.2205501503224534
 20
0.1509762634081202
 10
0.2206699250503998
 20
0.1516906471188051
 10
0.221163608136548
 20
0.1523691001170224
  0
LWPOLYLINE
  5
82E
330
2
100
AcDbEntity
  8
Profilo
  6
Continuous
370
     0
100
AcDbPolyline
 90
       35
 70
   128
 43
0.0
 10
0.2261676697685884
 20
0.1571418826150328
 10
0.2475594334689219
 20
0.1488907456922313
 10
0.2492054270542869
 20
0.1488823332153402
 10
0.2508291327535455
 20
0.149395652701692
 10
0.2520131432152715
 20
0.1505566134143121
 10
0.2528567143761586
 20
0.1517516355650477
 10
0.2536171929288695
 20
0.1538280302934289
 10
0.2536738628195021
 20
0.1556479246705189
 10
0.2531698828288418
 20
0.157172396549492
 10
0.2521778268301738
 20
0.1584611094369812
 10
0.2508343826675157
 20
0.159543006006376
 10
0.2495408518242916
 20
0.1603923542140322
 10
0.2479059227379965
 20
0.1612794072631676
 10
0.2466057824752603
 20
0.1614165154718634
 10
0.2459484463415036
 20
0.1611866934986734
 10
0.2454696751287697
 20
0.1603222731844447
 10
0.2453703219270871
 20
0.1595752135046
 10
0.2457225054117567
 20
0.1589038565659608
 10
0.2464212186338068
 20
0.1585618930010577
 10
0.2473735664208636
 20
0.1583250611951383
 10
0.2483253717503642
 20
0.1579541371282342
 10
0.2495670374835326
 20
0.1571537556772782
 10
0.25015872238912
 20
0.1561730057134056
 10
0.2505121195943216
 20
0.154870576475389
 10
0.2501635726842544
 20
0.1536487090270358
 10
0.2494979810701849
 20
0.1522954304343562
 10
0.2485726951891296
 20
0.1518020754695559
 10
0.2473304317927063
 20
0.1514954228689413
 10
0.2461469940306538
 20
0.1516866448479686
 10
0.2354861843622249
 20
0.1553668283999698
 10
0.2282959137544971
 20
0.1576620170236165
 10
0.226125463841365
 20
0.1585084997419672
 10
0.2252244431727171
 20
0.1586588490021814
 10
0.2246880635926498
 20
0.1582091419626712
 10
0.2244566844805256
 20
0.1576825012673497
  0
LWPOLYLINE
  5
82F
330
2
100
AcDbEntity
  8
Profilo
  6
Continuous
370
     0
100
AcDbPolyline
 90
       15
 70
   128
 43
0.0
 10
0.2440522950727813
 20
0.1423284773788094
 10
0.2426342920179456
 20
0.142253340736195
 10
0.2415153577729168
 20
0.1424628819861322
 10
0.2409210232203547
 20
0.1429872632313796
 10
0.2402217757343283
 20
0.1434766507954617
 10
0.2395223939684961
 20
0.1434065461808318
 10
0.2388928126692731
 20
0.1427769648816088
 10
0.2383680786970004
 20
0.1419026327075858
 10
0.2384979683000017
 20
0.1409579358133168
 10
0.2392419078068144
 20
0.1403292705246253
 10
0.240151015214785
 20
0.1400497428824874
 10
0.2409902364553433
 20
0.1399800080223903
 10
0.2419343205169708
 20
0.1397354570339102
 10
0.2428784391968763
 20
0.139630781108564
 10
0.2441022176461285
 20
0.1398147968684125
  0
LWPOLYLINE
  5
830
330
2
100
AcDbEntity
  8
Profilo
  6
Continuous
370
     0
100
AcDbPolyline
 90
       18
 70
   128
 43
0.0
 10
0.2475223822283761
 20
0.1405977894833166
 10
0.248896471738191
 20
0.1414975627422512
 10
0.2498028952232874
 20
0.1427096510949388
 10
0.2502927202450662
 20
0.1438287552081805
 10
0.2503006667081085
 20
0.1450470831687651
 10
0.249943592022638
 20
0.1461365760354205
 10
0.2493257886441356
 20
0.1471633593857291
 10
0.2483995293005305
 20
0.1479885253131856
 10
0.2472515215409894
 20
0.1486751877908654
 10
0.2261096303070813
 20
0.1570213648028975
 10
0.2258991874510814
 20
0.1568199111769974
 10
0.2255463503494539
 20
0.1567943747955081
 10
0.2252458128407548
 20
0.1570481408053101
 10
0.2252258643835248
 20
0.1574288931490928
 10
0.2254964820945204
 20
0.1577596162712798
 10
0.2258638823567223
 20
0.1577730643856174
 10
0.2261343531304405
 20
0.1574892316408354
 10
0.2261676697685884
 20
0.1571418826150328
  0
LWPOLYLINE
  5
831
330
2
100
AcDbEntity
  8
Profilo
  6
Continuous
370
     0
100
AcDbPolyline
 90
       10
 70
   128
 43
0.0
 10
0.2463619586878822
 20
0.1438347467436403
 10
0.2470298615747692
 20
0.1451591913319934
 10
0.2465351062997154
 20
0.1465618368787451
 10
0.2451520134922704
 20
0.1475629680676267
 10
0.2436778122876122
 20
0.14833860836917
 10
0.2409621155531294
 20
0.1495019458374056
 10
0.22510835069839
 20
0.1557199170865715
 10
0.2244229388945111
 20
0.1561609277979548
 10
0.2242602135037419
 20
0.1568667680906177
 10
0.2244566844805256
 20
0.1576825012673497
  0
LWPOLYLINE
  5
832
330
2
100
AcDbEntity
  8
Profilo
  6
Continuous
370
     0
100
AcDbPolyline
 90
       35
 70
   128
 43
0.0
 10
0.2272533698135222
 20
0.1640069488115046
 10
0.2501743558591096
 20
0.1645701658457668
 10
0.2516982749588053
 20
0.1651922882054482
 10
0.2530019445582354
 20
0.166287898842671
 10
0.2536515471597571
 20
0.16781358787056
 10
0.253973590111122
 20
0.1692404650838144
 10
0.253881578819283
 20
0.1714498262175716
 10
0.2532374915445814
 20
0.1731528760121561
 10
0.2521884846152256
 20
0.1743684395863596
 10
0.2507787753118338
 20
0.175179411651726
 10
0.2491235708542412
 20
0.175664839925127
 10
0.2476034726961362
 20
0.1759545225272001
 10
0.2457535346706674
 20
0.1761483924091314
 10
0.2444998926526223
 20
0.1757775217385848
 10
0.2439805423141976
 20
0.1753136422735499
 10
0.2438690147228524
 20
0.1743318042267408
 10
0.2440631116957936
 20
0.1736035902547304
 10
0.2446454039865884
 20
0.1731181121048486
 10
0.2454217946222963
 20
0.1730695649404232
 10
0.2463922808589727
 20
0.173215208602242
 10
0.2474135808169029
 20
0.1732367595791509
 10
0.2488670230948511
 20
0.1729724684430298
 10
0.2497889854312865
 20
0.1722928016354457
 10
0.2506138999672363
 20
0.1712247531753723
 10
0.2507594730399356
 20
0.1699625117205121
 10
0.2506624238674791
 20
0.1684575344435251
 10
0.2499963699515542
 20
0.1676476423124011
 10
0.2489660190953566
 20
0.1668889386306578
 10
0.2477994876857181
 20
0.1666127226784742
 10
0.2365418385596456
 20
0.1659330537023473
 10
0.2290205640515248
 20
0.1653019340591886
 10
0.2266913948883458
 20
0.1652533868947632
 10
0.2258014241632598
 20
0.1650474858168929
 10
0.2254779694810169
 20
0.1644267471087124
 10
0.2254657397239832
 20
0.1638516495965119
  0
LWPOLYLINE
  5
833
330
2
100
AcDbEntity
  8
Profilo
  6
Continuous
370
     0
100
AcDbPolyline
 90
       15
 70
   128
 43
0.0
 10
0.2494454538395123
 20
0.1571652967049344
 10
0.2481641433884025
 20
0.156553233222553
 10
0.2470501949764472
 20
0.1563186264971081
 10
0.2463004294330711
 20
0.1565756496102777
 10
0.2454671284797927
 20
0.1567601943361732
 10
0.2448478118554798
 20
0.1564277843029007
 10
0.2445070849116142
 20
0.1556051966939558
 10
0.2443568863720014
 20
0.1545966120961735
 10
0.2448384085677437
 20
0.1537735325702352
 10
0.2457662988419997
 20
0.1534774149011522
 10
0.2467131751666116
 20
0.1535670653770804
 10
0.2475152008696302
 20
0.1538237948319852
 10
0.2484810064227982
 20
0.1539591445082173
 10
0.2493933160898214
 20
0.1542237351402296
 10
0.2504535201688265
 20
0.1548620632718274
  0
LWPOLYLINE
  5
834
330
2
100
AcDbEntity
  8
Profilo
  6
Continuous
370
     0
100
AcDbPolyline
 90
       18
 70
   128
 43
0.0
 10
0.2533137019227967
 20
0.1568942944444327
 10
0.2542388667776736
 20
0.1582514178322567
 10
0.2546124467522057
 20
0.1597181147033524
 10
0.2546367234611093
 20
0.1609394800089188
 10
0.2541778311099669
 20
0.1620681092553413
 10
0.2534310062467338
 20
0.1629380228494144
 10
0.2524672973734283
 20
0.1636502238536757
 10
0.2512957679946846
 20
0.1640581136601078
 10
0.2499723727686449
 20
0.1642531835191763
 10
0.2272458685129663
 20
0.1638733941312278
 10
0.2271285376305672
 20
0.163606742255058
 10
0.2268123310041812
 20
0.1634481248017492
 10
0.2264375585034939
 20
0.1635675632988693
 10
0.2262734209183543
 20
0.1639116986521625
 10
0.2263968768231166
 20
0.1643208078901814
 10
0.2267311640350513
 20
0.1644738303211604
 10
0.227089664536023
 20
0.1643151077416407
 10
0.2272533698135222
 20
0.1640069488115046
  0
LWPOLYLINE
  5
835
330
2
100
AcDbEntity
  8
Profilo
  6
Continuous
370
     0
100
AcDbPolyline
 90
       10
 70
   128
 43
0.0
 10
0.2510028804498896
 20
0.159440778141386
 10
0.2511130992557415
 20
0.160920000757752
 10
0.2501192357712956
 20
0.1620265416229261
 10
0.2484583083153247
 20
0.1624221795348593
 10
0.2467994993026625
 20
0.1625746253570508
 10
0.2438453326978225
 20
0.1626101568857425
 10
0.2268188492553032
 20
0.1622878401060701
 10
0.2260168438256151
 20
0.1624329851342434
 10
0.2255963917817665
 20
0.163022824222784
 10
0.2254657397239832
 20
0.1638516495965119
  0
LWPOLYLINE
  5
836
330
2
100
AcDbEntity
  8
Profilo
  6
Continuous
370
     0
100
AcDbPolyline
 90
       35
 70
   128
 43
0.0
 10
0.225629278768003
 20
0.1707649223794752
 10
0.246589974812661
 20
0.180056748682909
 10
0.2477598165581183
 20
0.1812146933894549
 10
0.2485449781790008
 20
0.1827257983897663
 10
0.2485612768128984
 20
0.1843839434088332
 10
0.248312763434722
 20
0.1858254465635634
 10
0.2473822701834321
 20
0.1878314188979901
 10
0.2461354821923036
 20
0.1891583502170295
 10
0.2447011501199752
 20
0.1898799469514012
 10
0.243088402974255
 20
0.1900897150491723
 10
0.2413734280959314
 20
0.1899047729723726
 10
0.2398581837877929
 20
0.1895906884186775
 10
0.2380748731177968
 20
0.1890618602013143
 10
0.2370585849773983
 20
0.1882394723491654
 10
0.2367562868154076
 20
0.1876121568357591
 10
0.2370289819102336
 20
0.1866623769986111
 10
0.2374869795531609
 20
0.1860638727103998
 10
0.2382107319273006
 20
0.185838182996723
 10
0.2389466015403787
 20
0.186090443098478
 10
0.2397874784946206
 20
0.1865963893007869
 10
0.2407227894204924
 20
0.1870071343806332
 10
0.2421667348318905
 20
0.187319169489017
 10
0.2432786141910599
 20
0.1870440589479809
 10
0.2444494602975284
 20
0.1863729919620143
 10
0.2450669911722985
 20
0.1852625413199016
 10
0.2455532592982079
 20
0.1838349845063751
 10
0.2452478380183205
 20
0.1828318539442017
 10
0.2445862612800518
 20
0.1817366049392079
 10
0.2436142300553108
 20
0.1810350024306304
 10
0.233473616500194
 20
0.1760989543667764
 10
0.2267663839550202
 20
0.1726376087013683
 10
0.2246330904329161
 20
0.1717014225198703
 10
0.2238896596266828
 20
0.1711706176765242
 10
0.2238283728855119
 20
0.1704733491409831
 10
0.2240371543532147
 20
0.1699373481948641
  0
LWPOLYLINE
  5
837
330
2
100
AcDbEntity
  8
Profilo
  6
Continuous
370
     0
100
AcDbPolyline
 90
       15
 70
   128
 43
0.0
 10
0.2487502778945769
 20
0.1729366029160522
 10
0.2478007279482668
 20
0.1718807937107263
 10
0.2468613539171365
 20
0.1712377557571338
 10
0.2460703023902848
 20
0.1711882912991651
 10
0.2452298104859976
 20
0.171039897925259
 10
0.2447848443451361
 20
0.170495788887604
 10
0.2447848443451361
 20
0.1696054264756253
 10
0.2450320476042842
 20
0.1686161373162527
 10
0.2457918950034754
 20
0.1680399815552365
 10
0.2467624731622662
 20
0.1681214927365655
 10
0.2476029650665534
 20
0.1685666728582831
 10
0.2482456940891282
 20
0.169110781895939
 10
0.2490861859934155
 20
0.1696054264756253
 10
0.2498277957708606
 20
0.1701990021397917
 10
0.2505630190193626
 20
0.1711944629715623
  0
LWPOLYLINE
  5
838
330
2
100
AcDbEntity
  8
Profilo
  6
Continuous
370
     0
100
AcDbPolyline
 90
       18
 70
   128
 43
0.0
 10
0.2524277812006268
 20
0.1741665439280613
 10
0.2527631734380504
 20
0.1757744077113319
 10
0.2525470357374067
 20
0.177272421797853
 10
0.2521020682245734
 20
0.1784101064996744
 10
0.2512461992598389
 20
0.1792772134602165
 10
0.2502233215342864
 20
0.1797951113227967
 10
0.2490604231060951
 20
0.1800843038342297
 10
0.2478219784201858
 20
0.1800128199941389
 10
0.246524670654205
 20
0.1796865996168657
 10
0.2256734576334098
 20
0.1706386633204522
 10
0.2256671012878479
 20
0.1703474085249539
 10
0.2254356647291518
 20
0.1700798580692213
 10
0.2250437129523837
 20
0.1700467856251846
 10
0.2247603746987608
 20
0.1703019125000447
 10
0.2247178737549218
 20
0.170727124680992
 10
0.2249681557188925
 20
0.1709964251506468
 10
0.2253601074956597
 20
0.1709869768102976
 10
0.225629278768003
 20
0.1707649223794752
  0
LWPOLYLINE
  5
839
330
2
100
AcDbEntity
  8
Profilo
  6
Continuous
370
     0
100
AcDbPolyline
 90
       10
 70
   128
 43
0.0
 10
0.2493183634169087
 20
0.1756348750027152
 10
0.24885411832767
 20
0.1770436774129376
 10
0.2475124533399429
 20
0.177685652780629
 10
0.2458265523842726
 20
0.1774155651299898
 10
0.2442356741986424
 20
0.1769216079783256
 10
0.2414927828094457
 20
0.175823924214324
 10
0.2258857085378141
 20
0.1690103892137094
 10
0.2250892075387902
 20
0.1688375715438761
 10
0.2244750388541306
 20
0.1692216117739687
 10
0.2240371543532147
 20
0.1699373481948641
  0
LWPOLYLINE
  5
83A
330
2
100
AcDbEntity
  8
Profilo
  6
Continuous
370
     0
100
AcDbPolyline
 90
       35
 70
   128
 43
0.0
 10
0.2215426497712905
 20
0.1763869631044015
 10
0.2373519798514012
 20
0.1929928023529257
 10
0.237989646441517
 20
0.1945102828215583
 10
0.2381367663445806
 20
0.1962068301468625
 10
0.2375172796915912
 20
0.1977449936090769
 10
0.2367360438929209
 20
0.1989816669172333
 10
0.2351087278447466
 20
0.200478859348598
 10
0.23344905130668
 20
0.2012276589274302
 10
0.2318477581471381
 20
0.2013454322604531
 10
0.230277499292435
 20
0.2009220610992966
 10
0.2287638433723194
 20
0.2000949044269848
 10
0.2274841351243371
 20
0.1992248692436371
 10
0.2260389446935704
 20
0.1980538522292336
 10
0.2254147310875183
 20
0.196905148291008
 10
0.2253755072567856
 20
0.1962098998295163
 10
0.225990909681582
 20
0.1954367735724611
 10
0.2266430820051193
 20
0.1950590958204721
 10
0.2273981097244722
 20
0.1951275537560262
 10
0.2279814288370039
 20
0.1956422168102128
 10
0.2285646806150972
 20
0.1964314398301239
 10
0.2292716098990617
 20
0.1971688467979149
 10
0.2304862308444209
 20
0.198009703634157
 10
0.2316187536731027
 20
0.1981810324456585
 10
0.2329572806441265
 20
0.1980091107991741
 10
0.2339527558432159
 20
0.1972195070138118
 10
0.234948311353353
 20
0.1960867032477695
 10
0.2350500203307142
 20
0.1950430517892361
 10
0.2348579367715677
 20
0.1937779991935464
 10
0.2342283886742056
 20
0.1927578227504627
 10
0.2267486271789219
 20
0.1843168641712163
 10
0.2218765519504826
 20
0.1785522509839419
 10
0.2202639086698399
 20
0.176870951644954
 10
0.2197801983834902
 20
0.176096053261773
 10
0.2199904099341694
 20
0.1754284077126531
 10
0.2203884175407591
 20
0.1750131046178014
  0
LWPOLYLINE
  5
83B
330
2
100
AcDbEntity
  8
Profilo
  6
Continuous
370
     0
100
AcDbPolyline
 90
       15
 70
   128
 43
0.0
 10
0.2420726014738053
 20
0.1872413576087668
 10
0.2415993724039289
 20
0.1859025400610727
 10
0.2409775839344173
 20
0.1849489675786131
 10
0.2402656768481526
 20
0.1846005460648357
 10
0.2395459512662068
 20
0.1841418061371165
 10
0.2393430776701146
 20
0.1834688337637011
 10
0.2396838046139793
 20
0.1826462461547571
 10
0.2402907752165877
 20
0.1818268627403796
 10
0.2412132679407346
 20
0.1815853452360345
 10
0.2420787722576962
 20
0.1820320759293201
 10
0.2426849224683094
 20
0.1827650110588639
 10
0.2430705051431055
 20
0.1835136640106469
 10
0.2436577261251633
 20
0.1842922983404955
 10
0.2441157326471233
 20
0.1851244925227231
 10
0.2444140439903544
 20
0.1863255361669047
  0
LWPOLYLINE
  5
83C
330
2
100
AcDbEntity
  8
Profilo
  6
Continuous
370
     0
100
AcDbPolyline
 90
       18
 70
   128
 43
0.0
 10
0.2449994934609245
 20
0.1897849945236505
 10
0.2446940526530872
 20
0.1913988160166866
 10
0.2439211022828971
 20
0.192700088253491
 10
0.2430746328185158
 20
0.1935808901688531
 10
0.2419520855315973
 20
0.194054465669117
 10
0.2408088788050309
 20
0.1941415025453814
 10
0.2396238315659458
 20
0.1939636596256582
 10
0.2385070135497722
 20
0.1934236849056949
 10
0.2374332965910968
 20
0.1926258383873245
 10
0.2216317829708831
 20
0.176287221463828
 10
0.2217373688581512
 20
0.1760157046513848
 10
0.2216259364852275
 20
0.1756799533247628
 10
0.2212764765373407
 20
0.1754994049193721
 10
0.2209170732958814
 20
0.1756266825618322
 10
0.2207150858868667
 20
0.1760032629857164
 10
0.2208432594426712
 20
0.1763478429387586
 10
0.2212089913902728
 20
0.176489107261748
 10
0.2215426497712905
 20
0.1763869631044015
  0
LWPOLYLINE
  5
83D
330
2
100
AcDbEntity
  8
Profilo
  6
Continuous
370
     0
100
AcDbPolyline
 90
       10
 70
   128
 43
0.0
 10
0.2415648600370241
 20
0.1899516328803434
 10
0.2405968281591395
 20
0.1910755376882926
 10
0.2391116180002895
 20
0.1911552126282911
 10
0.2376574066826906
 20
0.190260517811538
 10
0.2363766561065086
 20
0.1891953581846257
 10
0.2342626202825881
 20
0.1871315715304726
 10
0.2224509907612191
 20
0.1748641172479104
 10
0.2217812542496613
 20
0.1743996468037068
 10
0.2210668705389764
 20
0.1745194215316541
 10
0.2203884175407591
 20
0.1750131046178014
  0
LWPOLYLINE
  5
83E
330
2
100
AcDbEntity
  8
Profilo
  6
Continuous
370
     0
100
AcDbPolyline
 90
       35
 70
   128
 43
0.0
 10
0.2156156350427487
 20
0.1800171662498418
 10
0.2238667719655503
 20
0.2014089299501753
 10
0.2238751844424414
 20
0.2030549235355412
 10
0.2233618649560896
 20
0.2046786292347997
 10
0.2222009042434694
 20
0.2058626396965257
 10
0.2210058820927339
 20
0.2067062108574129
 10
0.2189294873643526
 20
0.2074666894101238
 10
0.2171095929872626
 20
0.2075233593007564
 10
0.2155851211082895
 20
0.2070193793100961
 10
0.2142964082208003
 20
0.206027323311428
 10
0.2132145116514055
 20
0.2046838791487699
 10
0.2123651634437493
 20
0.2033903483055459
 10
0.2114781103946139
 20
0.2017554192192499
 10
0.2113410021859181
 20
0.2004552789565146
 10
0.2115708241591072
 20
0.199797942822757
 10
0.2124352444733359
 20
0.199319171610024
 10
0.2131823041531815
 20
0.1992198184083413
 10
0.2138536610918207
 20
0.19957200189301
 10
0.2141956246567229
 20
0.2002707151150611
 10
0.2144324564626432
 20
0.201223062902117
 10
0.2148033805295473
 20
0.2021748682316176
 10
0.2156037619805033
 20
0.2034165339647869
 10
0.2165845119443759
 20
0.2040082188703742
 10
0.2178869411823925
 20
0.2043616160755759
 10
0.2191088086307458
 20
0.2040130691655078
 10
0.2204620872234253
 20
0.2033474775514392
 10
0.2209554421882256
 20
0.2024221916703839
 10
0.2212620947888402
 20
0.2011799282739597
 10
0.221070872809813
 20
0.199996490511908
 10
0.2173906892578117
 20
0.1893356808434792
 10
0.215095500634165
 20
0.1821454102357514
 10
0.2142490179158143
 20
0.1799749603226193
 10
0.2140986686556001
 20
0.1790739396539713
 10
0.2145483756951103
 20
0.1785375600739032
 10
0.2150750163904318
 20
0.178306180961779
  0
LWPOLYLINE
  5
83F
330
2
100
AcDbEntity
  8
Profilo
  6
Continuous
370
     0
100
AcDbPolyline
 90
       15
 70
   128
 43
0.0
 10
0.2304290402789721
 20
0.1979017915540355
 10
0.2305041769215865
 20
0.196483788499199
 10
0.2302946356716493
 20
0.195364854254171
 10
0.229770254426402
 20
0.194770519701609
 10
0.2292808668623198
 20
0.1940712722155826
 10
0.2293509714769497
 20
0.1933718904497503
 10
0.2299805527761727
 20
0.1927423091505265
 10
0.2308548849501948
 20
0.1922175751782546
 10
0.2317995818444647
 20
0.192347464781256
 10
0.2324282471331562
 20
0.1930914042880687
 10
0.2327077747752941
 20
0.1940005116960384
 10
0.2327775096353912
 20
0.1948397329365976
 10
0.2330220606238713
 20
0.1957838169982251
 10
0.2331267365492176
 20
0.1967279356781297
 10
0.2329427207893691
 20
0.1979517141273828
  0
LWPOLYLINE
  5
840
330
2
100
AcDbEntity
  8
Profilo
  6
Continuous
370
     0
100
AcDbPolyline
 90
       18
 70
   128
 43
0.0
 10
0.2321597281744649
 20
0.2013718787096295
 10
0.2312599549155303
 20
0.2027459682194452
 10
0.2300478665628427
 20
0.2036523917045416
 10
0.228928762449601
 20
0.2041422167263196
 10
0.2277104344890164
 20
0.2041501631893618
 10
0.226620941622361
 20
0.2037930885038914
 10
0.2255941582720524
 20
0.203175285125389
 10
0.2247689923445959
 20
0.2022490257817848
 10
0.2240823298669161
 20
0.2011010180222428
 10
0.215736152854884
 20
0.1799591267883347
 10
0.2159376064807841
 20
0.1797486839323348
 10
0.2159631428622726
 20
0.1793958468307082
 10
0.2157093768524714
 20
0.1790953093220091
 10
0.2153286245086887
 20
0.179075360864779
 10
0.2149979013865018
 20
0.1793459785757747
 10
0.2149844532721641
 20
0.1797133788379766
 10
0.2152682860169461
 20
0.1799838496116948
 10
0.2156156350427487
 20
0.1800171662498418
  0
LWPOLYLINE
  5
841
330
2
100
AcDbEntity
  8
Profilo
  6
Continuous
370
     0
100
AcDbPolyline
 90
       10
 70
   128
 43
0.0
 10
0.2289227709141413
 20
0.2002114551691356
 10
0.2275983263257881
 20
0.2008793580560235
 10
0.2261956807790355
 20
0.2003846027809697
 10
0.2251945495901548
 20
0.1990015099735247
 10
0.2244189092886115
 20
0.1975273087688665
 10
0.2232555718203759
 20
0.1948116120343837
 10
0.21703760057121
 20
0.1789578471796442
 10
0.2165965898598259
 20
0.1782724353757645
 10
0.2158907495671638
 20
0.1781097099849962
 10
0.2150750163904318
 20
0.178306180961779
  0
LWPOLYLINE
  5
842
330
2
100
AcDbEntity
  8
Profilo
  6
Continuous
370
     0
100
AcDbPolyline
 90
       35
 70
   128
 43
0.0
 10
0.208750568846277
 20
0.1811028662947756
 10
0.2081873518120147
 20
0.2040238523403639
 10
0.2075652294523333
 20
0.2055477714400586
 10
0.2064696188151105
 20
0.2068514410394888
 10
0.2049439297872215
 20
0.2075010436410105
 10
0.2035170525739671
 20
0.2078230865923754
 10
0.2013076914402099
 20
0.2077310753005372
 10
0.1996046416456254
 20
0.2070869880258348
 10
0.1983890780714219
 20
0.206037981096479
 10
0.1975781060060555
 20
0.2046282717930881
 10
0.1970926777326545
 20
0.2029730673354955
 10
0.1968029951305814
 20
0.2014529691773905
 10
0.1966091252486501
 20
0.1996030311519208
 10
0.1969799959191967
 20
0.1983493891338765
 10
0.1974438753842316
 20
0.197830038795451
 10
0.1984257134310407
 20
0.1977185112041066
 10
0.1991539274030511
 20
0.1979126081770479
 10
0.1996394055529329
 20
0.1984949004678418
 10
0.1996879527173583
 20
0.1992712911035506
 10
0.1995423090555395
 20
0.200241777340227
 10
0.1995207580786307
 20
0.2012630772981572
 10
0.1997850492147517
 20
0.2027165195761054
 10
0.2004647160223358
 20
0.2036384819125399
 10
0.2015327644824092
 20
0.2044633964484905
 10
0.2027950059372694
 20
0.204608969521189
 10
0.2042999832142565
 20
0.2045119203487324
 10
0.2051098753453804
 20
0.2038458664328075
 10
0.2058685790271237
 20
0.2028155155766109
 10
0.2061447949793074
 20
0.2016489841669724
 10
0.2068244639554342
 20
0.190391335040899
 10
0.2074555835985929
 20
0.1828700605327791
 10
0.2075041307630183
 20
0.1805408913695992
 10
0.2077100318408886
 20
0.179650920644514
 10
0.2083307705490691
 20
0.1793274659622712
 10
0.2089058680612696
 20
0.1793152362052375
  0
LWPOLYLINE
  5
843
330
2
100
AcDbEntity
  8
Profilo
  6
Continuous
370
     0
100
AcDbPolyline
 90
       15
 70
   128
 43
0.0
 10
0.2155922209528471
 20
0.2032949503207666
 10
0.2162042844352285
 20
0.2020136398696568
 10
0.2164388911606734
 20
0.2008996914577015
 10
0.2161818680475038
 20
0.2001499259143253
 10
0.2159973233216084
 20
0.1993166249610461
 10
0.2163297333548808
 20
0.1986973083367331
 10
0.2171523209638257
 20
0.1983565813928685
 10
0.218160905561608
 20
0.1982063828532547
 10
0.2189839850875463
 20
0.1986879050489971
 10
0.2192801027566293
 20
0.199615795323254
 10
0.2191904522807011
 20
0.2005626716478659
 10
0.2189337228257964
 20
0.2013646973508845
 10
0.2187983731495642
 20
0.2023305029040516
 10
0.2185337825175519
 20
0.2032428125710757
 10
0.2178954543859541
 20
0.2043030166500808
  0
LWPOLYLINE
  5
844
330
2
100
AcDbEntity
  8
Profilo
  6
Continuous
370
     0
100
AcDbPolyline
 90
       18
 70
   128
 43
0.0
 10
0.2158632232133488
 20
0.2071631984040501
 10
0.2145060998255257
 20
0.2080883632589279
 10
0.2130394029544291
 20
0.20846194323346
 10
0.2118180376488628
 20
0.2084862199423627
 10
0.2106894084024402
 20
0.2080273275912212
 10
0.2098194948083671
 20
0.207280502727988
 10
0.2091072938041059
 20
0.2063167938546817
 10
0.2086994039976737
 20
0.2051452644759388
 10
0.2085043341386052
 20
0.2038218692498983
 10
0.2088841235265537
 20
0.1810953649942206
 10
0.2091507754027235
 20
0.1809780341118205
 10
0.2093093928560323
 20
0.1806618274854355
 10
0.2091899543589122
 20
0.1802870549847473
 10
0.208845819005619
 20
0.1801229173996077
 10
0.2084367097676001
 20
0.1802463733043709
 10
0.2082836873366212
 20
0.1805806605163047
 10
0.2084424099161417
 20
0.1809391610172772
 10
0.208750568846277
 20
0.1811028662947756
  0
LWPOLYLINE
  5
845
330
2
100
AcDbEntity
  8
Profilo
  6
Continuous
370
     0
100
AcDbPolyline
 90
       10
 70
   128
 43
0.0
 10
0.2133167395163955
 20
0.2048523769311439
 10
0.2118375169000295
 20
0.2049625957369958
 10
0.2107309760348555
 20
0.203968732252549
 10
0.2103353381229223
 20
0.2023078047965781
 10
0.2101828923007307
 20
0.2006489957839159
 10
0.210147360772039
 20
0.1976948291790768
 10
0.2104696775517114
 20
0.1806683457365574
 10
0.2103245325235381
 20
0.1798663403068694
 10
0.2097346934349975
 20
0.1794458882630208
 10
0.2089058680612696
 20
0.1793152362052375
  0
LWPOLYLINE
  5
846
330
2
100
AcDbEntity
  8
Profilo
  6
Continuous
370
     0
100
AcDbPolyline
 90
       66
 70
   128
 43
0.0
 10
0.2140789786106438
 20
0.2164086188688898
 10
0.2152655964774839
 20
0.2156969907921908
 10
0.2162742203631716
 20
0.2158748971253797
 10
0.2175795008841126
 20
0.2170016427234627
 10
0.2187661187509526
 20
0.2187807129152084
 10
0.220071397103351
 20
0.2200260627354167
 10
0.221258014970191
 20
0.2211528083334997
 10
0.2228006186307914
 20
0.2217458308161007
 10
0.2251738543644706
 20
0.2220423427433875
 10
0.2276064214252011
 20
0.2212714125556259
 10
0.2287930392920412
 20
0.2196702486970681
 10
0.229623671365121
 20
0.2176539686890981
 10
0.2303356429526415
 20
0.2157562929032535
 10
0.2306322952508086
 20
0.2155783851980928
 10
0.2310476123716203
 20
0.2155783851980928
 10
0.2306916265778591
 20
0.2162307111637292
 10
0.2308696205590106
 20
0.2168830371293646
 10
0.2315222586509389
 20
0.2165272230910151
 10
0.2319969070988002
 20
0.2158155950143161
 10
0.2317002526320904
 20
0.2147481528992685
 10
0.2308696205590106
 20
0.2146888507882059
 10
0.2299203258318307
 20
0.2148667571213947
 10
0.2303356429526415
 20
0.2138586171174097
 10
0.2307509579049096
 20
0.2128504771134247
 10
0.2317595839591409
 20
0.2114865230710903
 10
0.2326495473592711
 20
0.2110714055497063
 10
0.2332428562926907
 20
0.2112493132548669
 10
0.2336581712449588
 20
0.2119609413315651
 10
0.2342514801783793
 20
0.2118423371094398
 10
0.2345481346450891
 20
0.2111900111438034
 10
0.2343701428324802
 20
0.2101225676567839
 10
0.2336581712449588
 20
0.2092923353579597
 10
0.2328868704989304
 20
0.209233033246897
 10
0.2318189131176487
 20
0.209529545174183
 10
0.2306322952508086
 20
0.2105969872892315
 10
0.2298016631777298
 20
0.2116644294042791
 10
0.2293863482254608
 20
0.2127318715193267
 10
0.2292083542443093
 20
0.2139179192284724
 10
0.2290303624317005
 20
0.2149260592324573
 10
0.2286150453108897
 20
0.2142144311557592
 10
0.2282590616856721
 20
0.2133248953738995
 10
0.22778441323781
 20
0.2128504771134247
 10
0.2270724438188321
 20
0.2126132672972005
 10
0.2263604722313106
 20
0.2124353609640126
 10
0.2253518461770794
 20
0.2124353609640126
 10
0.2243432222913917
 20
0.2127318715193267
 10
0.2233345962371604
 20
0.2136214073011855
 10
0.2229192812848924
 20
0.2147481528992685
 10
0.2229192812848924
 20
0.2158748971253797
 10
0.2231566044245516
 20
0.2167644329072385
 10
0.2236312507038702
 20
0.2172388511677141
 10
0.2244025536184422
 20
0.2171795490566506
 10
0.2245212141040005
 20
0.2165865252020778
 10
0.2241652304787829
 20
0.2157562929032535
 10
0.2242245596372907
 20
0.2153411767538413
 10
0.2244618849454927
 20
0.2142737332668219
 10
0.2249365312248113
 20
0.2136214073011855
 10
0.22564850064379
 20
0.2135028030790602
 10
0.2265977953709699
 20
0.2136214073011855
 10
0.2270724438188321
 20
0.2140365248225704
 10
0.2276064214252011
 20
0.2145702451941078
 10
0.2280217363774692
 20
0.2153411767538413
 10
0.2282590616856721
 20
0.2164679209799525
 10
0.2284370534982809
 20
0.2175353630950001
 10
0.2279624072189614
 20
0.2186028065820196
 10
0.2276064214252011
 20
0.2194330388808447
  0
LWPOLYLINE
  5
847
330
2
100
AcDbEntity
  8
Profilo
  6
Continuous
370
     0
100
AcDbPolyline
 90
        8
 70
   128
 43
0.0
 10
0.2261824804187018
 20
0.2198481550302569
 10
0.2270131124917816
 20
0.2190179227314317
 10
0.2273097669584914
 20
0.2180097827274467
 10
0.2273097669584914
 20
0.2167644329072385
 10
0.2268944498376806
 20
0.2158155950143161
 10
0.2266571266980213
 20
0.2152225711597442
 10
0.2266571266980213
 20
0.2145109430830452
 10
0.2266571266980213
 20
0.2140365248225704
  0
LWPOLYLINE
  5
848
330
2
100
AcDbEntity
  8
Profilo
  6
Continuous
370
     0
100
AcDbPolyline
 90
       14
 70
   128
 43
0.0
 10
0.2261231490916513
 20
0.2139179192284724
 10
0.2261231490916513
 20
0.2146295473051714
 10
0.225885825951992
 20
0.2149853613435209
 10
0.2255891714852822
 20
0.215400478864904
 10
0.2260638177646008
 20
0.2155783851980928
 10
0.2264791348854116
 20
0.2164086188688898
 10
0.2264791348854116
 20
0.2170609448345253
 10
0.2261231490916513
 20
0.2174760609839375
 10
0.2261824804187018
 20
0.2181876890606365
 10
0.2261824804187018
 20
0.2188400150262719
 10
0.2260044864375503
 20
0.2194923409919074
 10
0.22564850064379
 20
0.2199074585132914
 10
0.2251738543644706
 20
0.2202632725516409
 10
0.2249365312248113
 20
0.2203225746627035
  0
LWPOLYLINE
  5
849
330
2
100
AcDbEntity
  8
Profilo
  6
Continuous
370
     0
100
AcDbPolyline
 90
       61
 70
   128
 43
0.0
 10
0.2244618849454927
 20
0.2155783851980928
 10
0.2250551917103696
 20
0.216112106941603
 10
0.2250551917103696
 20
0.2167644329072385
 10
0.224699208085152
 20
0.217120246945588
 10
0.224580545431051
 20
0.2175946665780346
 10
0.2245212141040005
 20
0.2182469925436701
 10
0.2242838909643412
 20
0.2188993185093064
 10
0.2241058991517315
 20
0.2191365269535579
 10
0.2233345962371604
 20
0.2191958290646214
 10
0.2238685760120731
 20
0.2188400150262719
 10
0.2239872364976314
 20
0.2182469925436701
 10
0.2235719215453624
 20
0.2177725729112234
 10
0.2233345962371604
 20
0.2180097827274467
 10
0.2229786126119428
 20
0.2181876890606365
 10
0.2225632954911321
 20
0.2184248988768598
 10
0.2220886492118126
 20
0.2187214108041457
 10
0.2217919947451028
 20
0.2187214108041457
 10
0.221376677624292
 20
0.2187214108041457
 10
0.2214360089513425
 20
0.2183062946547336
 10
0.2220886492118126
 20
0.2183062946547336
 10
0.2228006186307914
 20
0.2175353630950001
 10
0.2227412873037409
 20
0.2168830371293646
 10
0.2226226268181826
 20
0.2163493167578263
 10
0.2221479783703204
 20
0.2159341992364423
 10
0.2217919947451028
 20
0.2159935027194777
 10
0.2211393544846318
 20
0.2166458286851132
 10
0.2209020313449734
 20
0.2173574567618113
 10
0.2206647060367706
 20
0.2172981546507486
 10
0.2202493910845025
 20
0.2171795490566506
 10
0.219537419496981
 20
0.2167051307961758
 10
0.2199527366177927
 20
0.2165272230910151
 10
0.2203680515700608
 20
0.2159341992364423
 10
0.2204273828971113
 20
0.2155190830870302
 10
0.2204273828971113
 20
0.2148667571213947
 10
0.2203680515700608
 20
0.2143330353778845
 10
0.2199527366177927
 20
0.214095826933633
 10
0.2194780903384741
 20
0.213977221339535
 10
0.2188254500780031
 20
0.213977221339535
 10
0.2183508016301419
 20
0.213977221339535
 10
0.2180541471634321
 20
0.214392338860919
 10
0.2187661187509526
 20
0.2146295473051714
 10
0.2189441105635614
 20
0.2152225711597442
 10
0.2189441105635614
 20
0.2155190830870302
 10
0.2183508016301419
 20
0.2155783851980928
 10
0.2178761553508224
 20
0.2155190830870302
 10
0.2173421777444533
 20
0.215103966937618
 10
0.2171641837633018
 20
0.2148074550103312
 10
0.2169268606236425
 20
0.2146888507882059
 10
0.216452214344323
 20
0.2145702451941078
 10
0.2157402427568025
 20
0.2145109430830452
 10
0.2152655964774839
 20
0.2145109430830452
 10
0.2146129562170129
 20
0.2148074550103312
 10
0.2141976390962021
 20
0.215103966937618
 10
0.2137229928168836
 20
0.2155190830870302
 10
0.2132483465375641
 20
0.2158155950143161
 10
0.2130703525564126
 20
0.2158155950143161
 10
0.2127736980897028
 20
0.2153411767538413
 10
0.2125363749500435
 20
0.215103966937618
 10
0.212477043622993
 20
0.2149260592324573
 10
0.2128579351291497
 20
0.2148113212269926
 10
0.2134013003566748
 20
0.214726692515657
  0
LWPOLYLINE
  5
84A
330
2
100
AcDbEntity
  8
Profilo
  6
Continuous
370
     0
100
AcDbPolyline
 90
       66
 70
   128
 43
0.0
 10
0.1888700403849901
 20
0.2124750781152205
 10
0.1902514483824502
 20
0.2123964115657646
 10
0.1910618632841645
 20
0.2130226706920446
 10
0.1916940069981718
 20
0.2146269484753445
 10
0.191917929795717
 20
0.2167536857157675
 10
0.192494953459251
 20
0.2184629813144436
 10
0.1930220266111648
 20
0.220012113812726
 10
0.1941123430284302
 20
0.2212540928096534
 10
0.1960759429457148
 20
0.2226195387205108
 10
0.1985881432297249
 20
0.2230673842210713
 10
0.200382939117377
 20
0.2222010728535348
 10
0.2020554393326188
 20
0.2208017595428764
 10
0.2035677527755908
 20
0.2194523207781218
 10
0.2039131031736003
 20
0.2194326525255761
 10
0.2042808482207796
 20
0.219625660015363
 10
0.2036624874626902
 20
0.2200378311250466
 10
0.2035169423138745
 20
0.2206981550095337
 10
0.2042601796735024
 20
0.2206863933695429
 10
0.2050111700588468
 20
0.2202768581333023
 10
0.2052445606594393
 20
0.2191938228757264
 10
0.2045366315503925
 20
0.2187552994923489
 10
0.2036133956186044
 20
0.2184716684702534
 10
0.2044496466862995
 20
0.21777201231881
 10
0.2052858958338453
 20
0.217072355159595
 10
0.2068128509002705
 20
0.2163333657334245
 10
0.2077937890868347
 20
0.2163793840370713
 10
0.2082364602239322
 20
0.2168126378961572
 10
0.2082734932938433
 20
0.2176357597467087
 10
0.2088539603943378
 20
0.2178064653331004
 10
0.20941978587138
 20
0.217366721580909
 10
0.2097582476716537
 20
0.2163388303935294
 10
0.2095136563268323
 20
0.2152728265072854
 10
0.2088582624988318
 20
0.2148618757664167
 10
0.2077748372370385
 20
0.2146281194972737
 10
0.206228074211019
 20
0.2150218437309981
 10
0.2049965209511315
 20
0.2155810028119998
 10
0.2041327127384234
 20
0.2163331693827901
 10
0.2034239230416936
 20
0.2173006445460395
 10
0.2027978130981856
 20
0.218110591267517
 10
0.2027607781081251
 20
0.2172874684091921
 10
0.2028589581523352
 20
0.2163343897516041
 10
0.202659150982992
 20
0.2156937331118911
 10
0.2021389702691119
 20
0.2151528255639858
 10
0.201591227932334
 20
0.2146644276347045
 10
0.200698133914984
 20
0.2141956957353761
 10
0.1996672464919742
 20
0.2139895119016932
 10
0.1983607645844323
 20
0.2143084248204463
 10
0.1974693966689749
 20
0.2151131020176313
 10
0.1969457725181352
 20
0.2161107844820105
 10
0.1967425238319809
 20
0.2170087188623544
 10
0.1969423290811747
 20
0.2176493744942958
 10
0.1976528429596476
 20
0.2179553074197873
 10
0.1980335035283867
 20
0.2174853551516449
 10
0.1981041238698466
 20
0.2165847871204525
 10
0.1983495713244663
 20
0.2162447916593448
 10
0.1990557781719184
 20
0.2154099079617531
 10
0.199779207571952
 20
0.2150528811293153
 10
0.2004647433143916
 20
0.215278730992952
 10
0.2012501839203704
 20
0.2158249090729205
 10
0.2014775495172874
 20
0.2164130575158802
 10
0.201702330982366
 20
0.2171337952019048
 10
0.2017118043495278
 20
0.2180094276788518
 10
0.2013983213228752
 20
0.2191174007132659
 10
0.2010598601601883
 20
0.2201452906858243
 10
0.2001435160288461
 20
0.2208698858289262
 10
0.1994424780752713
 20
0.2214395851733339
  0
LWPOLYLINE
  5
84B
330
2
100
AcDbEntity
  8
Profilo
  6
Continuous
370
     0
100
AcDbPolyline
 90
        8
 70
   128
 43
0.0
 10
0.1979887268371705
 20
0.2211454138878333
 10
0.1991100431988224
 20
0.2207962936679495
 10
0.199841223704424
 20
0.2200414922314895
 10
0.2004199666231754
 20
0.2189387897291395
 10
0.2004931685313505
 20
0.2179056280096967
 10
0.2005586212541068
 20
0.2172702419020469
 10
0.2008893313112248
 20
0.2166401265335107
 10
0.2011098044701089
 20
0.2162200500260933
  0
LWPOLYLINE
  5
84C
330
2
100
AcDbEntity
  8
Profilo
  6
Continuous
370
     0
100
AcDbPolyline
 90
       14
 70
   128
 43
0.0
 10
0.2006921095488963
 20
0.2158668782210906
 10
0.2003613994917774
 20
0.2164969935896268
 10
0.1999859052591795
 20
0.2167017617116338
 10
0.1995303160427859
 20
0.2169314678175267
 10
0.1998679172553768
 20
0.2173095751767748
 10
0.1998498334775256
 20
0.2182377180730688
 10
0.1995466824855683
 20
0.2188153240300306
 10
0.1990385586257153
 20
0.2190174562785954
 10
0.1987603838496428
 20
0.2196751442896403
 10
0.1984572328576863
 20
0.220252750246603
 10
0.1979964760225892
 20
0.2207476382760394
 10
0.1974883515251484
 20
0.2209497717394244
 10
0.1969027180885119
 20
0.221044250299169
 10
0.1966650198193118
 20
0.2209864701484809
  0
LWPOLYLINE
  5
84D
330
2
100
AcDbEntity
  8
Profilo
  6
Continuous
370
     0
100
AcDbPolyline
 90
       61
 70
   128
 43
0.0
 10
0.1984494761880056
 20
0.2165651198756775
 10
0.1987267903763943
 20
0.2173134304112594
 10
0.198423639384437
 20
0.2178910363682212
 10
0.1979430765098948
 20
0.2180406602129832
 10
0.1976175321513303
 20
0.2184055926502042
 10
0.1972618458783266
 20
0.2189556259646581
 10
0.1967485556823316
 20
0.2194229423593583
 10
0.1964807154986916
 20
0.2195502630859032
 10
0.1957702016202187
 20
0.2192443301604117
 10
0.196408372258051
 20
0.2191774252509475
 10
0.1967890321892032
 20
0.2187074741976263
 10
0.1966417628586443
 20
0.2180943899933725
 10
0.1963213848362208
 20
0.2181941382844572
 10
0.1959234997947519
 20
0.218186232679674
 10
0.1954455178493379
 20
0.2182032640510068
 10
0.1948874434778638
 20
0.218245233199176
 10
0.194624768992778
 20
0.2181073709944057
 10
0.1942570239455996
 20
0.2179143635046179
 10
0.1945024733203677
 20
0.2175743690512837
 10
0.1950803575715847
 20
0.217877666103333
 10
0.1960690449435685
 20
0.2175259087951868
 10
0.1963196606544777
 20
0.2169207301957163
 10
0.1964626242365792
 20
0.2163929999994787
 10
0.1962352586396614
 20
0.215804851556519
 10
0.1958924910909294
 20
0.215691928343408
 10
0.1950114558477551
 20
0.2159662372483204
 10
0.1944706065865977
 20
0.2164860630545959
 10
0.1942880245275722
 20
0.2163232630729865
 10
0.1939754001684539
 20
0.2160252365530013
 10
0.193565453795073
 20
0.2152742903510267
 10
0.1940158766753255
 20
0.2153097683912692
 10
0.1946592117291494
 20
0.2149776783278972
 10
0.1949046611039176
 20
0.2146376838745621
 10
0.1952078120958749
 20
0.2140600779176003
 10
0.1954033096764602
 20
0.2135599181412786
 10
0.195145802810079
 20
0.2131568740129648
 10
0.1947806431699135
 20
0.2128312748504708
 10
0.1942027589186956
 20
0.2125279777984215
 10
0.19378247859047
 20
0.2123073976661258
 10
0.1933268893740765
 20
0.2125371037720196
 10
0.193847072645692
 20
0.2130780111128754
 10
0.1937290846418893
 20
0.2136858245780164
 10
0.1935912886784914
 20
0.2139483728507105
 10
0.1930383806431592
 20
0.2137251578527444
 10
0.1926456613002445
 20
0.2134520693166459
 10
0.192365761704842
 20
0.2128363504537702
 10
0.1923459518250983
 20
0.2124910842535508
 10
0.1921909307513845
 20
0.2122757758681404
 10
0.191825771111219
 20
0.2119501767056464
 10
0.1912229106441163
 20
0.2115667975995139
 10
0.1908026322360401
 20
0.2113462184749899
 10
0.1900869520214252
 20
0.2113054696956338
 10
0.1895814110108489
 20
0.211375010478541
 10
0.18896821850905
 20
0.21152199844986
 10
0.1884101441375767
 20
0.2115639675980301
 10
0.1882525382944351
 20
0.2114812496705039
 10
0.1882103369682335
 20
0.2109233109583162
 10
0.1881104346624305
 20
0.2106029825349349
 10
0.1881405772144573
 20
0.2104178804428818
 10
0.1886659261846271
 20
0.2106936048524233
 10
0.1889087927101185
 20
0.2104862018647458
  0
LWPOLYLINE
  5
84E
330
2
100
AcDbEntity
  8
Profilo
  6
Continuous
370
     0
100
AcDbPolyline
 90
       66
 70
   128
 43
0.0
 10
0.168376641669175
 20
0.1972769230166502
 10
0.1696363758728081
 20
0.1978492395528839
 10
0.1700629255031236
 20
0.1987803830536654
 10
0.1698771159034766
 20
0.2004946723156706
 10
0.1690870456173696
 20
0.2024818667329518
 10
0.1688036254246139
 20
0.2042635290876849
 10
0.1685504077544175
 20
0.2058801608998797
 10
0.1689386585768906
 20
0.2074865739904075
 10
0.1700427856006748
 20
0.2096081466820649
 10
0.1720591042981931
 20
0.2111721718638915
 10
0.1740509120984317
 20
0.2112391744814959
 10
0.176182130812335
 20
0.2107773936840678
 10
0.1781483333263267
 20
0.2102853320989082
 10
0.1784632662099179
 20
0.2104284090586068
 10
0.1786991932249649
 20
0.2107702083482632
 10
0.1779601165001701
 20
0.210847801167966
 10
0.1775243748609716
 20
0.2113648507271355
 10
0.1781879447661891
 20
0.2116998359354811
 10
0.1790432342421502
 20
0.2116862131268862
 10
0.1797532029361113
 20
0.210835695052304
 10
0.1793301548185093
 20
0.2101184108189642
 10
0.1786444799078861
 20
0.2094382188906216
 10
0.179710089880774
 20
0.2092073293842445
 10
0.1807756986217894
 20
0.2089764380931927
 10
0.1824711756964943
 20
0.2090317068549332
 10
0.1833183675525376
 20
0.2095283187448276
 10
0.1835089902705693
 20
0.2101176655199959
 10
0.1831592576281036
 20
0.2108637138481342
 10
0.1835939048783359
 20
0.2112846226504264
 10
0.184299277567856
 20
0.2111582011058184
 10
0.1850766554614767
 20
0.2104053397016763
 10
0.185355477288808
 20
0.2093477728716122
 10
0.1849661332064798
 20
0.2086793173631776
 10
0.1841154397349607
 20
0.2079688436417975
 10
0.1825628763185083
 20
0.2075986525171416
 10
0.1812125358818273
 20
0.2075214319572387
 10
0.1800981224601941
 20
0.2077860106869922
 10
0.1790209122255639
 20
0.2083132764037847
 10
0.1780901183937722
 20
0.20873948080978
 10
0.1784398498043656
 20
0.2079934306969662
 10
0.1789697016530711
 20
0.2071951479982594
 10
0.1790905091768069
 20
0.2065350196947167
 10
0.1788812843007177
 20
0.2058143298157127
 10
0.1786232523830273
 20
0.2051273263701034
 10
0.1780502874789844
 20
0.2042972434007515
 10
0.1772333004037234
 20
0.2036355994095826
 10
0.1759282619030751
 20
0.2033108303588609
 10
0.1747650426717122
 20
0.2036090973066855
 10
0.173837750352634
 20
0.2042491609801216
 10
0.1732404916652532
 20
0.2049497880136943
 10
0.1731196829096442
 20
0.2056099145325616
 10
0.173606637585082
 20
0.2062109969482693
 10
0.1741620934881611
 20
0.2059717766676492
 10
0.1746431395271379
 20
0.2052071821870136
 10
0.1750184762239773
 20
0.205020196276962
 10
0.1760317811326448
 20
0.2046091341624772
 10
0.1768382646961148
 20
0.2046291970079084
 10
0.1773403187850233
 20
0.2051477614753336
 10
0.177781970292556
 20
0.2059963905971847
 10
0.1777099663203279
 20
0.2066228322413943
 10
0.1775740569193758
 20
0.2073654749238685
 10
0.1771755184671804
 20
0.2081452114700761
 10
0.1763830422891992
 20
0.2089805900431321
 10
0.1756056655246896
 20
0.2097334506679047
 10
0.1744575469386707
 20
0.2099492014521225
 10
0.1735720561720218
 20
0.2101278565879303
  0
LWPOLYLINE
  5
84F
330
2
100
AcDbEntity
  8
Profilo
  6
Continuous
370
     0
100
AcDbPolyline
 90
        8
 70
   128
 43
0.0
 10
0.1724215315913664
 20
0.209191788963877
 10
0.1735766521764637
 20
0.2094037600579552
 10
0.1745748540788039
 20
0.2090752131017695
 10
0.1755997568882286
 20
0.2083677737715606
 10
0.1761447081504057
 20
0.2074869731245723
 10
0.176497942305585
 20
0.2069547840638766
 10
0.1770836007312244
 20
0.20655053324072
 10
0.1774740393052809
 20
0.2062810329517379
  0
LWPOLYLINE
  5
850
330
2
100
AcDbEntity
  8
Profilo
  6
Continuous
370
     0
100
AcDbPolyline
 90
       14
 70
   128
 43
0.0
 10
0.1772683159419062
 20
0.2057742023401756
 10
0.1766826575162659
 20
0.2061784531633322
 10
0.176255013394222
 20
0.2061852654599674
 10
0.1757448594271747
 20
0.2061769372497686
 10
0.175868075203768
 20
0.2066686257957588
 10
0.1754207333028281
 20
0.2074820515653446
 10
0.1748838795578065
 20
0.2078526149497994
 10
0.1743400226845955
 20
0.2077954572353269
 10
0.1737880682942299
 20
0.2082485367833886
 10
0.1732512145492082
 20
0.2086191001678435
 10
0.1726132486983642
 20
0.2088431773775845
 10
0.1720693906960422
 20
0.2087860204424805
 10
0.1715069316647746
 20
0.2085975196241732
 10
0.1713233120749322
 20
0.2084358939479314
  0
LWPOLYLINE
  5
851
330
2
100
AcDbEntity
  8
Profilo
  6
Continuous
370
     0
100
AcDbPolyline
 90
       61
 70
   128
 43
0.0
 10
0.1749580736426015
 20
0.2053502609313877
 10
0.1748558659159398
 20
0.2061417313334584
 10
0.1743190121709182
 20
0.2065122947179141
 10
0.1738239612101982
 20
0.2064214513494154
 10
0.173366113436483
 20
0.2065932949679565
 10
0.1727955556561875
 20
0.2069150296275071
 10
0.1721238870019413
 20
0.2070902798970193
 10
0.1718275574055186
 20
0.2070785452617869
 10
0.1713406027300817
 20
0.2064774628460793
 10
0.1719367670284964
 20
0.2067147941739673
 10
0.1724922218024654
 20
0.2064755746727167
 10
0.1726467357224584
 20
0.2058642760993852
 10
0.1723166997297776
 20
0.2058037117339415
 10
0.1719680639400227
 20
0.2056118052699691
 10
0.1715369170733929
 20
0.2054047565144881
 10
0.171023262722743
 20
0.2051825682574782
 10
0.1708547437782446
 20
0.2049384264176313
 10
0.1706188167631986
 20
0.204596627127974
 10
0.1709941546919111
 20
0.2044096430025988
 10
0.1713648966161818
 20
0.2049467554071986
 10
0.1724038055792221
 20
0.2050947557108005
 10
0.1729069552889699
 20
0.2046753636014413
 10
0.173278791704969
 20
0.2042745202086245
 10
0.1733507956771971
 20
0.2036480785644139
 10
0.1730997681195676
 20
0.2033887980024076
 10
0.1721921724502753
 20
0.2032222489822626
 10
0.1714716991154113
 20
0.2034311866904765
 10
0.1713856876549329
 20
0.2032021843521568
 10
0.1712473723621066
 20
0.202793011190403
 10
0.1712333649766178
 20
0.2019375697719177
 10
0.1716157071626299
 20
0.2021783059661004
 10
0.1723396820102074
 20
0.2021832275253281
 10
0.1727150199389191
 20
0.2019962433999529
 10
0.1732518736839408
 20
0.2016256800154981
 10
0.1736574140324523
 20
0.2012736627835414
 10
0.1736167069717513
 20
0.2007971155237538
 10
0.1734446876436504
 20
0.2003391136370967
 10
0.1730739457193788
 20
0.1998020012324968
 10
0.172804314669059
 20
0.1994113732179352
 10
0.1722941607020116
 20
0.1994030450077364
 10
0.1725033879390834
 20
0.2001237358920465
 10
0.1721164497486303
 20
0.2006070962278388
 10
0.1718724252164279
 20
0.2007755342007149
 10
0.1714865826468133
 20
0.2003209379597219
 10
0.1712657575089835
 20
0.1998966242911342
 10
0.1713040575486993
 20
0.1992213564860634
 10
0.1714469699750785
 20
0.1989064323384726
 10
0.1714097644270911
 20
0.1986437443461275
 10
0.1712377450989901
 20
0.1981857424594686
 10
0.1708821038200625
 20
0.1975661138912628
 10
0.170612474001615
 20
0.1971754876613776
 10
0.1699977075451429
 20
0.1968068132296539
 10
0.1695177559978944
 20
0.1966334519128736
 10
0.1689064922860073
 20
0.196478638533268
 10
0.1683928379353583
 20
0.1962564502762589
 10
0.1682917258295351
 20
0.1961099641015442
 10
0.1685136454590932
 20
0.1955963219727152
 10
0.1685740504014532
 20
0.1952662583235973
 10
0.1686867615371437
 20
0.1951163665032194
 10
0.1690237994261405
 20
0.1956046501829149
 10
0.1693352320288906
 20
0.1955338696598474
  0
LWPOLYLINE
  5
852
330
2
100
AcDbEntity
  8
Profilo
  6
Continuous
370
     0
100
AcDbPolyline
 90
       66
 70
   128
 43
0.0
 10
0.1572935731367631
 20
0.1742958677486381
 10
0.1581430436219593
 20
0.1753880565492718
 10
0.1580880106010518
 20
0.1764107706700209
 10
0.1571268144277802
 20
0.1778423484002314
 10
0.1555037466391909
 20
0.1792347577016606
 10
0.1544248107407204
 20
0.1806806294383394
 10
0.1534493113650539
 20
0.1819944096987997
 10
0.1530465530082345
 20
0.1835972470032629
 10
0.1530382649435422
 20
0.1859889197397848
 10
0.1540967877402428
 20
0.1883108252822687
 10
0.1558293082899178
 20
0.1892957923927891
 10
0.1579310089790988
 20
0.1898773325242198
 10
0.1599006672634635
 20
0.1903553734978311
 10
0.1601130353043585
 20
0.1906284184625715
 10
0.1601630962513543
 20
0.1910407074539648
 10
0.1594726171306648
 20
0.1907659464037881
 10
0.158846502159367
 20
0.1910212718147557
 10
0.1592783887417744
 20
0.1916262627972154
 10
0.160042040796764
 20
0.192011673237543
 10
0.1610659423123577
 20
0.1915885157869868
 10
0.1610246904116606
 20
0.1907567918773303
 10
0.1607336563809474
 20
0.1898358628163228
 10
0.1617845068562325
 20
0.1901266339584042
 10
0.1628353570701284
 20
0.1904174029477534
 10
0.1643109427880116
 20
0.1912542684901517
 10
0.1648303068690833
 20
0.1920877061671389
 10
0.1647252118006
 20
0.1926981336145985
 10
0.1640688329794111
 20
0.1931961977392031
 10
0.1642580879324207
 20
0.1937708846232908
 10
0.1649414154519126
 20
0.1939867469385925
 10
0.1659796215318705
 20
0.1936813867924139
 10
0.1667179818108808
 20
0.1928745328342352
 10
0.1666838815113802
 20
0.1921017076594538
 10
0.1662608034524933
 20
0.1910772774532683
 10
0.1650581132138988
 20
0.1900279772956059
 10
0.1638983323211027
 20
0.1893320673944627
 10
0.1627886123753015
 20
0.1890484464847128
 10
0.1615897574857357
 20
0.1890147125335719
 10
0.1605675134152422
 20
0.1889595363309908
 10
0.1612238919750419
 20
0.1884614700536558
 10
0.1620640329551124
 20
0.1880008602597547
 10
0.162477779624127
 20
0.1874724877313154
 10
0.162627441483508
 20
0.1867371168872376
 10
0.1627182319876272
 20
0.1860088921354004
 10
0.1625966555514307
 20
0.1850076201007189
 10
0.1621807307170995
 20
0.1840420906167672
 10
0.1611761042164241
 20
0.1831480402721999
 10
0.1600075131767493
 20
0.1828715676074219
 10
0.1588889841846504
 20
0.1830073816159343
 10
0.1580345402635732
 20
0.1833501960928174
 10
0.1576207933331704
 20
0.1838785664685245
 10
0.1577726333578688
 20
0.1846370976368377
 10
0.1583756363418622
 20
0.1846834118271134
 10
0.1591569062280582
 20
0.1842299502781861
 10
0.1595761470531709
 20
0.1842388101377583
 10
0.1606644140801245
 20
0.184345738982973
 10
0.1613691961418207
 20
0.1847382953501686
 10
0.1615727540358369
 20
0.185430777551276
 10
0.1615694394070255
 20
0.1863874470102811
 10
0.161214561107947
 20
0.1869086716244936
 10
0.1607490960468372
 20
0.187503088814676
 10
0.1600338461317747
 20
0.1880083011842535
 10
0.1589439235444665
 20
0.1883797101322662
 10
0.157905718826477
 20
0.1886850701130722
 10
0.15678884591751
 20
0.1883425506338199
 10
0.1559217576011056
 20
0.188089233822442
  0
LWPOLYLINE
  5
853
330
2
100
AcDbEntity
  8
Profilo
  6
Continuous
370
     0
100
AcDbPolyline
 90
        8
 70
   128
 43
0.0
 10
0.1553380309939998
 20
0.1867257116716683
 10
0.1562623315972091
 20
0.1874502140565841
 10
0.1572988788700984
 20
0.1876231877289145
 10
0.1585351486879754
 20
0.18747307739583
 10
0.1594270075373636
 20
0.1869464186347232
 10
0.1599871014369478
 20
0.186639344721212
 10
0.1606935409437433
 20
0.1865535674352703
 10
0.1611645001609512
 20
0.1864963826331003
  0
LWPOLYLINE
  5
854
330
2
100
AcDbEntity
  8
Profilo
  6
Continuous
370
     0
100
AcDbPolyline
 90
       14
 70
   128
 43
0.0
 10
0.1612178770987276
 20
0.1859520020001151
 10
0.1605114375919312
 20
0.1860377792860568
 10
0.1601296116951314
 20
0.1858450751422591
 10
0.1596817631032596
 20
0.1856006205085592
 10
0.1595623661943497
 20
0.1860932503208952
 10
0.1587882468087711
 20
0.1866056129228033
 10
0.15814067703388
 20
0.1866842421291448
 10
0.1576856782027782
 20
0.1863808885951972
 10
0.1569863902971802
 20
0.186525564616014
 10
0.1563388205222891
 20
0.1866041938223555
 10
0.1556697959438047
 20
0.1865061268240726
 10
0.1552147957507355
 20
0.1862027734554967
 10
0.1548043637105332
 20
0.1857744765249309
 10
0.1547168878352254
 20
0.1855460318177613
  0
LWPOLYLINE
  5
855
330
2
100
AcDbEntity
  8
Profilo
  6
Continuous
370
     0
100
AcDbPolyline
 90
       61
 70
   128
 43
0.0
 10
0.1593692745303423
 20
0.1845029973956578
 10
0.1589109594470717
 20
0.1851563113333565
 10
0.1582633896721814
 20
0.185234940539698
 10
0.1578672608343741
 20
0.1849244410788824
 10
0.1573819970528021
 20
0.1848638285766748
 10
0.1567272756767126
 20
0.1848835590481421
 10
0.156051099758419
 20
0.1847265954677155
 10
0.1557941662885955
 20
0.1845784937342198
 10
0.1556423262638962
 20
0.1838199625659067
 10
0.156059910166686
 20
0.1843071603840807
 10
0.1566629117887102
 20
0.1843534747397291
 10
0.1570838116822806
 20
0.1838840029335236
 10
0.1568197249879004
 20
0.183677000477795
 10
0.1566002067077772
 20
0.183345056612807
 10
0.1563146654711929
 20
0.1829613601051845
 10
0.155963103162895
 20
0.1825259150950185
 10
0.155927345418295
 20
0.1822314235733744
 10
0.1558772844712992
 20
0.1818191345819802
 10
0.1562965255578002
 20
0.1818279965942846
 10
0.1563751926481984
 20
0.1824758783724478
 10
0.157226321679075
 20
0.1830897312018393
 10
0.1578667398527678
 20
0.1829522032606228
 10
0.1583822658608742
 20
0.1827700750618337
 10
0.1587371441599519
 20
0.1822488504476212
 10
0.1586353639816691
 20
0.1819026105888071
 10
0.1579091271163797
 20
0.1813333580169862
 10
0.1571740814661817
 20
0.181183542516159
 10
0.1572043447932954
 20
0.1809407994970593
 10
0.1572720249334667
 20
0.1805142163338242
 10
0.1576571654590788
 20
0.1797502510186169
 10
0.1578838369637578
 20
0.1801410956058387
 10
0.1585225976923512
 20
0.1804819013177585
 10
0.1589418387788513
 20
0.180490763330063
 10
0.1595894085537433
 20
0.1804121341237206
 10
0.1601120872636264
 20
0.1802889023417027
 10
0.160297505505639
 20
0.1798480231846424
 10
0.1603580340446129
 20
0.1793625412865323
 10
0.1602793669542146
 20
0.1787146595083699
 10
0.1602221544060214
 20
0.1782434717821006
 10
0.1597743058141496
 20
0.1779990171484007
 10
0.1596246455781261
 20
0.1787343899798373
 10
0.1590574000773444
 20
0.1789825651584724
 10
0.1587630500558514
 20
0.1790183057218444
 10
0.1586326648347462
 20
0.1784364707581565
 10
0.1586343222798465
 20
0.1779581371050192
 10
0.1589820478771466
 20
0.1773780160740364
 10
0.1592549430950463
 20
0.1771655793060392
 10
0.1593440764154534
 20
0.1769156903600715
 10
0.1594046049544282
 20
0.1764302084619613
 10
0.1593776559947368
 20
0.1757162798693246
 10
0.1593204437079319
 20
0.1752450942957866
 10
0.1589474265960407
 20
0.1746329530809954
 10
0.158603015627552
 20
0.1742564046529722
 10
0.1581337138554444
 20
0.1738352558020058
 10
0.1577821515471465
 20
0.1733998107918397
 10
0.1577606967435532
 20
0.1732231145872136
 10
0.1581958982161611
 20
0.1728714382633996
 10
0.1584027723623471
 20
0.1726072529928597
 10
0.158572231318832
 20
0.1725269098538131
 10
0.1586437468080328
 20
0.1731158928971004
 10
0.1589524000319216
 20
0.1731979498034795
  0
LWPOLYLINE
  5
856
330
2
100
AcDbEntity
  8
Profilo
  6
Continuous
370
     0
100
AcDbPolyline
 90
       66
 70
   128
 43
0.0
 10
0.1581598322230748
 20
0.1487965951213459
 10
0.1584044355389054
 20
0.1501584488944561
 10
0.1578804272686449
 20
0.1510384421551505
 10
0.1563640429813757
 20
0.1518593511479578
 10
0.1542798029605823
 20
0.1523379911429288
 10
0.1526525225681512
 20
0.1531168404713235
 10
0.1511782166379358
 20
0.1538267979551451
 10
0.1500767161876082
 20
0.1550588687633763
 10
0.1489579117301778
 20
0.1571727381436059
 10
0.1488161438099178
 20
0.1597206034689593
 10
0.149892477530237
 20
0.1613978909775158
 10
0.1514831858950423
 20
0.1628895282020126
 10
0.1530050749737875
 20
0.164228158308358
 10
0.1530662272131291
 20
0.1645686199672669
 10
0.1529189537324171
 20
0.1649569482210911
 10
0.1524352526612072
 20
0.1643927777464
 10
0.1517621997522323
 20
0.1643278870345179
 10
0.1518634630005966
 20
0.1650642876479429
 10
0.1523605341518213
 20
0.1657604384500129
 10
0.1534638049911763
 20
0.1658615818958049
 10
0.1538137996206936
 20
0.165105956234175
 10
0.1539840788589872
 20
0.164155263789981
 10
0.1547794326569027
 20
0.1649010834160407
 10
0.1555747872237934
 20
0.1656469010144779
 10
0.1564924426796237
 20
0.1670736475270926
 10
0.1565649989337654
 20
0.1680529804633899
 10
0.1561882620924253
 20
0.1685446470113749
 10
0.1553756055702244
 20
0.1686806264438223
 10
0.155276112197047
 20
0.1692774375702895
 10
0.1557808524467834
 20
0.1697861322904881
 10
0.1568420462119002
 20
0.1699982277317726
 10
0.1578707955008731
 20
0.1696269271636535
 10
0.158199750951864
 20
0.1689267772565159
 10
0.158301210390257
 20
0.1678230751800402
 10
0.1577239151691936
 20
0.1663350480100529
 10
0.1570203856459464
 20
0.1651798733393974
 10
0.1561695826419855
 20
0.1644130269225652
 10
0.1551237263049154
 20
0.1638260213451597
 10
0.1542442157928932
 20
0.1633021047370686
 10
0.1550568730840691
 20
0.1631661232769996
 10
0.1560148370217673
 20
0.1631487065407375
 10
0.1566267384603766
 20
0.1628731335660882
 10
0.1571010013268648
 20
0.1622915463551351
 10
0.1575198152424431
 20
0.1616889278116567
 10
0.1578774789704722
 20
0.1607458460681554
 10
0.1579578997441784
 20
0.1596976222603024
 10
0.1574838330677188
 20
0.158439106781354
 10
0.1565775803438729
 20
0.157651231059619
 10
0.1555240561911075
 20
0.1572516820505934
 10
0.1546081698414881
 20
0.1571581493054941
 10
0.1539962691718539
 20
0.15743372025252
 10
0.1537782098260259
 20
0.1581759298240701
 10
0.1542906191742741
 20
0.1584971684623966
 10
0.1551931333920855
 20
0.1584587224212317
 10
0.1555602353248364
 20
0.1586613983633729
 10
0.1564741556092413
 20
0.1592618220584816
 10
0.1569157790923734
 20
0.159936942014534
 10
0.1567742081311172
 20
0.1606447026223634
 10
0.1563266867074766
 20
0.161490250974583
 10
0.1557702324231203
 20
0.1617868522811188
 10
0.1550818441378903
 20
0.1620968701642438
 10
0.1542137378958044
 20
0.1622118202917875
 10
0.1530760570289313
 20
0.1620341743007314
 10
0.152014864546631
 20
0.1618220793459546
 10
0.1511850994383819
 20
0.1609997566881223
 10
0.1505350530559637
 20
0.160372499758247
  0
LWPOLYLINE
  5
857
330
2
100
AcDbEntity
  8
Profilo
  6
Continuous
370
     0
100
AcDbPolyline
 90
        8
 70
   128
 43
0.0
 10
0.1506518491534274
 20
0.1588938895732728
 10
0.1511335836455823
 20
0.1599649484838412
 10
0.1519710158005507
 20
0.1605998166009162
 10
0.1531354381102705
 20
0.1610414237332396
 10
0.1541698904325406
 20
0.1609895580332576
 10
0.1548085333139975
 20
0.1609779461998748
 10
0.1554739171244615
 20
0.1612302929936291
 10
0.1559175059038322
 20
0.1613985240272955
  0
LWPOLYLINE
  5
858
330
2
100
AcDbEntity
  8
Profilo
  6
Continuous
370
     0
100
AcDbPolyline
 90
       14
 70
   128
 43
0.0
 10
0.1562177551295765
 20
0.1609413044154078
 10
0.1555523713191125
 20
0.1606889576216535
 10
0.1553038353590121
 20
0.1603408832344302
 10
0.1550208888575533
 20
0.1599163037878108
 10
0.1546862316560817
 20
0.1602970193133197
 10
0.1537626762079514
 20
0.1603909426500918
 10
0.1531527408345568
 20
0.1601596246747325
 10
0.15289083479444
 20
0.1596795699601294
 10
0.1522044118054486
 20
0.1594826989208675
 10
0.151594476432054
 20
0.1592513809455092
 10
0.1510476585942397
 20
0.1588536357066728
 10
0.1507857512713073
 20
0.158373580505561
 10
0.1506213712563387
 20
0.1578036051279916
 10
0.1506500787644009
 20
0.1575606753192495
  0
LWPOLYLINE
  5
859
330
2
100
AcDbEntity
  8
Profilo
  6
Continuous
370
     0
100
AcDbPolyline
 90
       61
 70
   128
 43
0.0
 10
0.1552542848624521
 20
0.1587991861077631
 10
0.1545448568848542
 20
0.1591646772312485
 10
0.1539349215114596
 20
0.1589333592558892
 10
0.1537284631394371
 20
0.1584743353873037
 10
0.1533269514343036
 20
0.1581951523581448
 10
0.1527380552394364
 20
0.1579083586282932
 10
0.1522122758111726
 20
0.1574551396625878
 10
0.1520535988295002
 20
0.1572045991531539
 10
0.1522716581753274
 20
0.1564623895816037
 10
0.1524149982427945
 20
0.1570878427412889
 10
0.1529274063082262
 20
0.1574090808931077
 10
0.1535182690821486
 20
0.157188986187081
 10
0.1533806307651631
 20
0.1568829674090244
 10
0.1533405189871644
 20
0.1564870304821309
 10
0.1532659974367823
 20
0.1560145864682205
 10
0.153157065858883
 20
0.1554656399090444
 10
0.1532622609825411
 20
0.1551882631642059
 10
0.1534095344632531
 20
0.1547999349103826
 10
0.153776635627028
 20
0.1550026128801463
 10
0.1535452062011844
 20
0.1556128421243166
 10
0.1540135718961393
 20
0.1565519211940138
 10
0.1546445464480612
 20
0.1567277634148807
 10
0.1551856612525793
 20
0.1568060737855799
 10
0.1557421155369356
 20
0.1565094724790441
 10
0.1558128993502592
 20
0.1561555927024321
 10
0.1554343934027083
 20
0.1553140454829025
 10
0.154853165537375
 20
0.1548397976988021
 10
0.1549927706885521
 20
0.1546389234992276
 10
0.1552509415572434
 20
0.1542926553963237
 10
0.1559469989409843
 20
0.1537951814313283
 10
0.1559660720542961
 20
0.1542465966268445
 10
0.1563732862788854
 20
0.1548452120100094
 10
0.1567403874426603
 20
0.1550478899797731
 10
0.1573503228160549
 20
0.1552792079551324
 10
0.157870400493838
 20
0.15541299253921
 10
0.1582394669538516
 20
0.1551087815865886
 10
0.1585186770010694
 20
0.1547070377291924
 10
0.158750106426913
 20
0.154096808485022
 10
0.1589184190861514
 20
0.1536530044767064
 10
0.1586354725846926
 20
0.1532284250300879
 10
0.1581612102320449
 20
0.1538100147551713
 10
0.1575436065291145
 20
0.1537661508340609
 10
0.1572663630609519
 20
0.1536610062555788
 10
0.1574213048711996
 20
0.1530852239475058
 10
0.1576450651985315
 20
0.1526624507852068
 10
0.1582225566096227
 20
0.1523103752652934
 10
0.1585629176133665
 20
0.1522490925802984
 10
0.1587579704326361
 20
0.1520692492267415
 10
0.1590371804798538
 20
0.1516675053693461
 10
0.1593450975212933
 20
0.1510228291890785
 10
0.1595134094115567
 20
0.1505790272083844
 10
0.1594675953692377
 20
0.149863653385732
 10
0.1593376253817871
 20
0.1493701805534267
 10
0.1591177969297481
 20
0.1487791763574613
 10
0.1590088653518489
 20
0.148230229798286
 10
0.1590719828874292
 20
0.1480638025348089
 10
0.159620766790459
 20
0.1479546568236367
 10
0.159926717766683
 20
0.1478168715933776
 10
0.1601141035392342
 20
0.1478244827805772
 10
0.1599037132919179
 20
0.1483792362702552
 10
0.1601388784030266
 20
0.148595332357722
  0
LWPOLYLINE
  5
85A
330
2
100
AcDbEntity
  8
Profilo
  6
Continuous
370
     0
100
AcDbPolyline
 90
       66
 70
   128
 43
0.0
 10
0.1707769694109906
 20
0.1266206811941393
 10
0.1703606698855884
 20
0.1279402156524236
 10
0.1694877303457067
 20
0.1284758922021068
 10
0.167763543310242
 20
0.1284980721002835
 10
0.1656956053281933
 20
0.1279532921341859
 10
0.1638927707688511
 20
0.1278866940593133
 10
0.1622574040053886
 20
0.1278301860628686
 10
0.1607095019402021
 20
0.1284092378007635
 10
0.158736485708177
 20
0.1297610418245787
 10
0.1574269043929997
 20
0.1319511816918686
 10
0.1576004761998639
 20
0.1339365432437569
 10
0.1583157801240311
 20
0.1359965614493657
 10
0.159041253549967
 20
0.1378891166633229
 10
0.1589371807466868
 20
0.1382189993533522
 10
0.1586263114178603
 20
0.1384944055465169
 10
0.1584601984823148
 20
0.1377700703040734
 10
0.1578943959459416
 20
0.1373998291494161
 10
0.1576418376704174
 20
0.1380989388878593
 10
0.1577584549074888
 20
0.1389463502924437
 10
0.1586883490171633
 20
0.1395486238900636
 10
0.1593494106251665
 20
0.1390422012092634
 10
0.1599419942110609
 20
0.1382795375637622
 10
0.1602996453615555
 20
0.1393095473855714
 10
0.1606572981352281
 20
0.140339555769371
 10
0.160806799523022
 20
0.1420293328203215
 10
0.1604159261868077
 20
0.142930207642463
 10
0.1598538534427893
 20
0.1431904784100553
 10
0.1590710890352414
 20
0.1429332219011012
 10
0.1587056400686455
 20
0.1434154350332282
 10
0.1589161631401916
 20
0.1441004263283618
 10
0.1597572378876508
 20
0.1447813888475391
 10
0.1608407021222558
 20
0.144930702154979
 10
0.1614573535942583
 20
0.1444636234214895
 10
0.1620601073953143
 20
0.1435334943193913
 10
0.1622404585697668
 20
0.141947629229052
 10
0.1621543505513934
 20
0.1405978263845684
 10
0.1617573732041944
 20
0.1395234297332486
 10
0.1611041085025064
 20
0.1385176284331777
 10
0.1605688168080093
 20
0.1376449944006106
 10
0.1613515828387353
 20
0.1379022494715549
 10
0.1622079117406505
 20
0.1383320157573147
 10
0.162877788703482
 20
0.1383723727839339
 10
0.1635680046698509
 20
0.1380778038272492
 10
0.1642188967760854
 20
0.1377388441380996
 10
0.1649738642185623
 20
0.1370700013478476
 10
0.1655322071702256
 20
0.1361792186580057
 10
0.1656973032804361
 20
0.1348445487741481
 10
0.1652610004499229
 20
0.1337257628283739
 10
0.1645138308235472
 20
0.1328823826646897
 10
0.1637463205704561
 20
0.132373929922319
 10
0.1630764452308018
 20
0.1323335714576901
 10
0.1625384412826767
 20
0.1328894281642299
 10
0.1628428701886975
 20
0.133411999349911
 10
0.1636598736072994
 20
0.1337973763412155
 10
0.1638907380189538
 20
0.1341474377500909
 10
0.1644209434375856
 20
0.1351038064624328
 10
0.1644982377243078
 20
0.1359068281614881
 10
0.1640439701088878
 20
0.1364677277502269
 10
0.163254763655357
 20
0.1370084500581292
 10
0.1626242103562676
 20
0.1370124802720953
 10
0.1618706003070853
 20
0.1369670774872578
 10
0.161048510416224
 20
0.1366654316838485
 10
0.1601237002458458
 20
0.1359794273094073
 10
0.1592826264081726
 20
0.1352984658171659
 10
0.1589300582871882
 20
0.1341847241916003
 10
0.15864597163106
 20
0.1333272241465968
  0
LWPOLYLINE
  5
85B
330
2
100
AcDbEntity
  8
Profilo
  6
Continuous
370
     0
100
AcDbPolyline
 90
        8
 70
   128
 43
0.0
 10
0.1594365338547101
 20
0.1320722577016147
 10
0.1593653426691883
 20
0.1332445064490839
 10
0.1598118140916842
 20
0.1341958283762716
 10
0.1606376337749005
 20
0.1351279861019305
 10
0.1615776990095208
 20
0.1355627952698901
 10
0.1621485854851903
 20
0.1358493056477261
 10
0.1626204821870889
 20
0.136381966911836
 10
0.1629350796850932
 20
0.1367370740789298
  0
LWPOLYLINE
  5
85C
330
2
100
AcDbEntity
  8
Profilo
  6
Continuous
370
     0
100
AcDbPolyline
 90
       14
 70
   128
 43
0.0
 10
0.1634134177195845
 20
0.1364717589911288
 10
0.162941521017685
 20
0.1359390977270189
 10
0.1628832115875598
 20
0.1355153927437316
 10
0.1628299868101228
 20
0.1350079545186782
 10
0.1623567352478918
 20
0.1351895384185848
 10
0.1614953191603252
 20
0.1348435057856649
 10
0.1610627470319539
 20
0.1343552327890753
 10
0.1610539333003027
 20
0.1338084516436471
 10
0.1605376264624025
 20
0.1333151343268479
 10
0.1601050543340312
 20
0.1328268613302583
 10
0.1598057126136609
 20
0.1322205564917374
 10
0.1597968979722246
 20
0.1316737743193723
 10
0.1599162274629249
 20
0.1310926949848516
 10
0.1600545418102222
 20
0.1308909323660989
  0
LWPOLYLINE
  5
85D
330
2
100
AcDbEntity
  8
Profilo
  6
Continuous
370
     0
100
AcDbPolyline
 90
       61
 70
   128
 43
0.0
 10
0.1635557991808421
 20
0.1341272604692545
 10
0.162757779709052
 20
0.1341211991667821
 10
0.1623252075806798
 20
0.1336329261701925
 10
0.1623557167993788
 20
0.1331305347302933
 10
0.1621299386635897
 20
0.1326967386416422
 10
0.161741776671219
 20
0.1321691216977419
 10
0.1614868434636714
 20
0.1315234743499198
 10
0.1614627739543861
 20
0.1312278908759179
 10
0.1620007779025112
 20
0.1306720341693781
 10
0.1618370366526332
 20
0.1312924588892201
 10
0.1621414646488688
 20
0.1318150290479654
 10
0.1627669307623076
 20
0.13189473248684
 10
0.1627872721024151
 20
0.1315598026005817
 10
0.1629357559514819
 20
0.1311905769901775
 10
0.1630893260764132
 20
0.1307376166999976
 10
0.1632479801406408
 20
0.1302009256329972
 10
0.163470029197466
 20
0.1300042073344532
 10
0.1637808985262925
 20
0.1297288011412885
 10
0.1640117613147689
 20
0.1300788639881736
 10
0.1635232530651178
 20
0.1305116445325716
 10
0.1635015584878552
 20
0.1315608181448349
 10
0.1639785407522272
 20
0.1320097471941137
 10
0.1644212814725829
 20
0.1323305561721169
 10
0.1650518347716723
 20
0.1323265259581507
 10
0.1652789668580077
 20
0.1320460758558504
 10
0.1653349029792874
 20
0.1311250223148628
 10
0.1650406451982134
 20
0.1304349866995205
 10
0.1652576103157424
 20
0.1303219991777977
 10
0.1656471280782323
 20
0.1301353719846174
 10
0.1664946439618884
 20
0.1300183546600033
 10
0.1663017492634289
 20
0.1304269266826639
 10
0.1663841291126245
 20
0.1311462161668881
 10
0.1666149919011008
 20
0.1314962790137732
 10
0.1670475640294731
 20
0.1319845520103628
 10
0.1674458971467905
 20
0.132344704524602
 10
0.167914063146549
 20
0.1322468528395264
 10
0.1683479910450387
 20
0.1320208816990354
 10
0.1688364992946898
 20
0.1315881011546374
 10
0.169191778759517
 20
0.131273351014161
 10
0.16913855398208
 20
0.1307659127891076
 10
0.1684483373023191
 20
0.131060484210737
 10
0.1679218609626503
 20
0.1307346298855894
 10
0.1677252371852278
 20
0.1305126875210547
 10
0.1681300107253509
 20
0.1300748626564481
 10
0.1685246131405282
 20
0.1298045022215009
 10
0.1691995740426551
 20
0.1297611284712996
 10
0.1695294282280795
 20
0.129865038993902
 10
0.1697857162959586
 20
0.1297964411777084
 10
0.1702196441944492
 20
0.1295704700372182
 10
0.1707918871536282
 20
0.1291427338130289
 10
0.1711471649952774
 20
0.1288279851105623
 10
0.1714390494675069
 20
0.1281732622016296
 10
0.1715532950189109
 20
0.1276759136439294
 10
0.1716332999360839
 20
0.1270504460418893
 10
0.1717919540003105
 20
0.1265137549748889
 10
0.1719251844083125
 20
0.1263957231329567
 10
0.172461830963142
 20
0.1265541120015072
 10
0.1727967690878618
 20
0.1265742917472892
 10
0.1729591538542303
 20
0.1266681136294734
 10
0.1725150557405799
 20
0.1270615502265606
 10
0.1726228592460002
 20
0.1273621804857168
  0
LWPOLYLINE
  5
85E
330
2
100
AcDbEntity
  8
Profilo
  6
Continuous
370
     0
100
AcDbPolyline
 90
       66
 70
   128
 43
0.0
 10
0.192254550623745
 20
0.1128483605990072
 10
0.1912727174614259
 20
0.1138232863001862
 10
0.1902508265804483
 20
0.113891929096928
 10
0.1887138272679074
 20
0.1131102987530994
 10
0.1871359309949358
 20
0.1116669013508549
 10
0.1855705499397171
 20
0.1107701126890745
 10
0.1841487651602094
 20
0.1099600845133537
 10
0.1825090671890574
 20
0.1097534634060917
 10
0.1801338334237696
 20
0.1100335200626405
 10
0.1779564480108169
 20
0.1113641998223169
 10
0.1771874946950414
 20
0.1132028130122
 10
0.1768635266698899
 20
0.1153592868539262
 10
0.1766263872240383
 20
0.1173722055837407
 10
0.1763809312031546
 20
0.1176159371561214
 10
0.1759776824430661
 20
0.1177153290487789
 10
0.1761672121148399
 20
0.1169967655134387
 10
0.175838278493492
 20
0.1164059917026492
 10
0.1752897567513445
 20
0.1169076529502186
 10
0.1749992044706401
 20
0.1177121932169429
 10
0.1755426943165457
 20
0.11867762334336
 10
0.176363381655297
 20
0.1185364189765048
 10
0.1772425158306703
 20
0.1181365011797872
 10
0.1770805307653305
 20
0.1192147383601334
 10
0.1769185478055188
 20
0.1202929750215134
 10
0.1762656461590195
 20
0.1218586750524491
 10
0.1755008876032429
 20
0.1224747121954008
 10
0.17488224304849
 20
0.1224439622863471
 10
0.1743086926480295
 20
0.1218524042019169
 10
0.173761008042125
 20
0.1221095501224303
 10
0.1736290856368683
 20
0.1228139147418243
 10
0.1740573612780754
 20
0.1238077440322387
 10
0.1749473318593253
 20
0.124443465335923
 10
0.1757104119315587
 20
0.1243164598850148
 10
0.1766763764634263
 20
0.1237729851253144
 10
0.1775730577527943
 20
0.1224525846950746
 10
0.1781240975485918
 20
0.1212173772415452
 10
0.1782718885843
 20
0.1200815616806725
 10
0.1781608705884592
 20
0.1188873816145621
 10
0.1780924265877326
 20
0.1178659400980013
 10
0.1786659790937213
 20
0.1184574976634654
 10
0.179224498328308
 20
0.1192359926944251
 10
0.1797988900760687
 20
0.1195830344138677
 10
0.1805469389824283
 20
0.1196429659094873
 10
0.1812807977418798
 20
0.1196453166545437
 10
0.1822601149560778
 20
0.1194039366403583
 10
0.183168470444234
 20
0.1188746626476753
 10
0.1839349078118895
 20
0.117769595144785
 10
0.1840685065951604
 20
0.1165761993523153
 10
0.1837988590522066
 20
0.1154821962656412
 10
0.1833555522451249
 20
0.1146753039217554
 10
0.1827811626028932
 20
0.1143282616833465
 10
0.1820464642733359
 20
0.1145704254522064
 10
0.1820731717435269
 20
0.1151746144242685
 10
0.1826174987256754
 20
0.1158955292236303
 10
0.182659237361741
 20
0.1163127812491638
 10
0.1826842642428596
 20
0.1174060024322348
 10
0.1823795221435809
 20
0.1181529632805001
 10
0.1817166251101723
 20
0.1184385065139404
 10
0.1807665313142852
 20
0.1185505298131959
 10
0.1802063311622923
 20
0.11826106566114
 10
0.1795601423294411
 20
0.1178706434391854
 10
0.1789723996765433
 20
0.1172215051231573
 10
0.1784723230675222
 20
0.1161842977002676
 10
0.1780440477546499
 20
0.1151904697419583
 10
0.1782494457285404
 20
0.1140404539330344
 10
0.1783963996280065
 20
0.1131491536992168
  0
LWPOLYLINE
  5
85F
330
2
100
AcDbEntity
  8
Profilo
  6
Continuous
370
     0
100
AcDbPolyline
 90
        8
 70
   128
 43
0.0
 10
0.1796796196997112
 20
0.1124053286827875
 10
0.1790718118791688
 20
0.1134102192062416
 10
0.179025041346863
 20
0.1144600585546955
 10
0.1793230730663566
 20
0.1156692207724594
 10
0.1799533935970903
 20
0.1164910952679996
 10
0.1803257404553236
 20
0.1170100917823165
 10
0.1804960442012247
 20
0.117701041240438
 10
0.1806095799223808
 20
0.1181616737684834
  0
LWPOLYLINE
  5
860
330
2
100
AcDbEntity
  8
Profilo
  6
Continuous
370
     0
100
AcDbPolyline
 90
       14
 70
   128
 43
0.0
 10
0.1811564252865132
 20
0.1181490436939905
 10
0.180986121540613
 20
0.1174580942358698
 10
0.1811313966282002
 20
0.1170558243619908
 10
0.1813200867298681
 20
0.1165817753405678
 10
0.180816657036484
 20
0.1165226289317269
 10
0.1802147203539546
 20
0.1158159122351723
 10
0.1800586085321569
 20
0.1151825416765444
 10
0.1803049062286748
 20
0.1146942950712804
 10
0.1800769952162575
 20
0.1140175445291049
 10
0.1799208833944599
 20
0.1133841739704762
 10
0.1799375933722116
 20
0.1127082066640099
 10
0.1801838907403956
 20
0.1122199587266408
 10
0.1805595927885219
 20
0.1117608937079435
 10
0.1807758278249576
 20
0.1116465196636325
  0
LWPOLYLINE
  5
861
330
2
100
AcDbEntity
  8
Profilo
  6
Continuous
370
     0
100
AcDbPolyline
 90
       61
 70
   128
 43
0.0
 10
0.1823720405992626
 20
0.1161392613149781
 10
0.1816682462770895
 20
0.1157630361578974
 10
0.181512134455291
 20
0.1151296655992695
 10
0.1817726219703832
 20
0.1146989984124636
 10
0.1817743004539265
 20
0.1142099667204208
 10
0.1816757958986459
 20
0.1135623972458468
 10
0.1817501110373856
 20
0.1128722315423989
 10
0.1818661630349965
 20
0.1125993197155566
 10
0.1826008613645538
 20
0.1123571559466958
 10
0.1821675499443822
 20
0.1128304204003063
 10
0.1821942570862385
 20
0.1134346080402633
 10
0.1827110397902887
 20
0.1137958505267234
 10
0.1828847008316101
 20
0.1135087379328636
 10
0.1831877644473456
 20
0.1132508087766411
 10
0.1835342451826882
 20
0.1129210999539092
 10
0.1839241391549171
 20
0.1125196138347038
 10
0.1842121733819724
 20
0.1124486197739394
 10
0.1846154221420608
 20
0.1123492278812828
 10
0.1846571586725965
 20
0.1127664804257824
 10
0.1840234829519707
 20
0.1129226674632573
 10
0.1835166980686935
 20
0.1138415825874315
 10
0.1837304171570082
 20
0.1144607542301133
 10
0.1839733572297719
 20
0.1149505683447263
 10
0.1845335573817639
 20
0.1152400324967804
 10
0.1848650045173699
 20
0.1150972598074391
 10
0.1853425684161989
 20
0.1143077022113346
 10
0.185402691630836
 20
0.1135599576083957
 10
0.1856473126210059
 20
0.1135607408441039
 10
0.1860789434521051
 20
0.1135765086015024
 10
0.186883762160404
 20
0.1138667551761268
 10
0.186523089500958
 20
0.1141388850993668
 10
0.1862617627440937
 20
0.1148140681321932
 10
0.1863034992746302
 20
0.1152313206766928
 10
0.1864596110964287
 20
0.1158646912353216
 10
0.1866449463365374
 20
0.1163687050790187
 10
0.1871049606875079
 20
0.1164996293032985
 10
0.1875941987851242
 20
0.1165011981447517
 10
0.1882278745057508
 20
0.1163450111072759
 10
0.1886887305323554
 20
0.1162314202986732
 10
0.1888774206340233
 20
0.1157573712772502
 10
0.1881293699504693
 20
0.1156974416327019
 10
0.1878146303587522
 20
0.115164246202438
 10
0.1877436704099047
 20
0.11487635037287
 10
0.1883055469399117
 20
0.1146767833518485
 10
0.1887805927850907
 20
0.1146207719617038
 10
0.1893983977697369
 20
0.1148960363846738
 10
0.1896421795181355
 20
0.1151413354664035
 10
0.1899009903268789
 20
0.1151996981205707
 10
0.1903902284244951
 20
0.1152012669620239
 10
0.1910957033357405
 20
0.1150884599080948
 10
0.191556557256817
 20
0.1149748696184583
 10
0.1921192730285961
 20
0.1145307867514154
 10
0.192451561839837
 20
0.1141434990291898
 10
0.1928130719638599
 20
0.1136268551109998
 10
0.1932029659360888
 20
0.1132253689917952
 10
0.193375787735639
 20
0.1131827722439569
 10
0.1937773576838495
 20
0.1135724107112379
 10
0.1940645526691327
 20
0.1137459324964949
 10
0.1941647360362921
 20
0.1139044716111313
 10
0.1935886675821825
 20
0.1140464597326609
 10
0.1935444129979968
 20
0.1143627533941212
  0
LWPOLYLINE
  5
862
330
2
100
AcDbEntity
  8
Profilo
  6
Continuous
370
     0
100
AcDbPolyline
 90
       66
 70
   128
 43
0.0
 10
0.2176723208384086
 20
0.1106347060098374
 10
0.2163498801842882
 20
0.1110416792249005
 10
0.2154131408479261
 20
0.110627563031203
 10
0.2144154372779612
 20
0.1092211845374731
 10
0.2136890597344934
 20
0.1072098346491117
 10
0.2127197421182627
 20
0.1056882988753633
 10
0.2118372530813319
 20
0.1043103182135256
 10
0.2104813942489008
 20
0.1033653586667258
 10
0.2082480803813089
 20
0.1025095103510409
 10
0.2057017036283497
 20
0.1026758873065923
 10
0.2041663831276859
 20
0.1039465480103585
 10
0.2028773603235408
 20
0.1057054553193897
 10
0.2017319337951058
 20
0.1073776021423614
 10
0.2014013255729372
 20
0.1074793466311457
 10
0.2009980768128488
 20
0.107379954738489
 10
0.2014998301282187
 20
0.1068317771565708
 10
0.2014831201504661
 20
0.1061558098501036
 10
0.2007642946624184
 20
0.1063450980606557
 10
0.2001331348899127
 20
0.1069224567101736
 10
0.2001657134981158
 20
0.1080298749581194
 10
0.2009580169886611
 20
0.1082862371239601
 10
0.2019223027086507
 20
0.108340681523722
 10
0.2012777902538136
 20
0.109220134918754
 10
0.2006332799045056
 20
0.1100995888327532
 10
0.1993275471226088
 20
0.1111825288353163
 10
0.1983641003160565
 20
0.1113726016136809
 10
0.1978306079625893
 20
0.1110578754615688
 10
0.1975976650539302
 20
0.1102675346297568
 10
0.1969932127516145
 20
0.1102407043072127
 10
0.1965490667027616
 20
0.1108030808050771
 10
0.1964664304495978
 20
0.1118821025532357
 10
0.1969590258426352
 20
0.1128585957637638
 10
0.1976937220666635
 20
0.1131007590136575
 10
0.1988016064962261
 20
0.1130684421142218
 10
0.2002091990232975
 20
0.112315994170098
 10
0.2012711500567965
 20
0.1114783532492645
 10
0.2019298523302071
 20
0.1105413204357735
 10
0.2023865139251484
 20
0.1094323338653398
 10
0.2028005973139182
 20
0.1084960848065233
 10
0.2030335423281064
 20
0.1092864261573005
 10
0.2031663018696053
 20
0.1102353061037498
 10
0.2035136221750546
 20
0.1108095294403988
 10
0.2041481350319252
 20
0.1112102318049288
 10
0.2047968422467603
 20
0.1115533544568281
 10
0.2057761594609584
 20
0.1117947344710144
 10
0.2068264341901411
 20
0.1117482194687707
 10
0.2080186312508827
 20
0.1111259119942529
 10
0.2086915257767306
 20
0.1101312989491641
 10
0.2089611733196843
 20
0.1090372958624899
 10
0.2089436262056896
 20
0.1081168132289676
 10
0.2085963080057684
 20
0.1075425904112848
 10
0.207833225828006
 20
0.1074155844414104
 10
0.2075760935028059
 20
0.1079629787876204
 10
0.2077230452967429
 20
0.1088542785024709
 10
0.2075660963387014
 20
0.1092431337340445
 10
0.2070802113254491
 20
0.1102227635895456
 10
0.206463245582575
 20
0.1107425438585379
 10
0.2057435808527543
 20
0.1106873162230677
 10
0.2048502547532784
 20
0.1103449773258429
 10
0.2044887428520612
 20
0.1098283315565816
 10
0.2040980093097255
 20
0.1091823309234607
 10
0.2038792586535045
 20
0.1083344098600509
 10
0.203918477130391
 20
0.1071836111095923
 10
0.2040011130552211
 20
0.1061045906935378
 10
0.2047174229234825
 20
0.1051817554638879
 10
0.205261752011161
 20
0.1044608411834922
  0
LWPOLYLINE
  5
863
330
2
100
AcDbEntity
  8
Profilo
  6
Continuous
370
     0
100
AcDbPolyline
 90
        8
 70
   128
 43
0.0
 10
0.2067436596769721
 20
0.1043985589428162
 10
0.2057384766682171
 20
0.1050058829335754
 10
0.2052091787464141
 20
0.1059137341604996
 10
0.2049111470269205
 20
0.1071228963782644
 10
0.2050873240163629
 20
0.1081435546591178
 10
0.2051758310792051
 20
0.1087761414630712
 10
0.2050055273333049
 20
0.1094670909211928
 10
0.2048919916121488
 20
0.1099277234492382
  0
LWPOLYLINE
  5
864
330
2
100
AcDbEntity
  8
Profilo
  6
Continuous
370
     0
100
AcDbPolyline
 90
       14
 70
   128
 43
0.0
 10
0.2053820686232024
 20
0.1101706717859114
 10
0.2055523723691035
 20
0.1094797223277908
 10
0.2058679512025918
 20
0.1091910427435483
 10
0.2062553295550344
 20
0.1088589818436549
 10
0.2058370514062657
 20
0.1085726548555401
 10
0.2056324905686182
 20
0.1076671543736722
 10
0.2057886023904158
 20
0.1070337838150435
 10
0.2062335876810408
 20
0.1067159231632004
 10
0.2063462841604249
 20
0.1060107747891337
 10
0.2065023959822234
 20
0.1053774042305049
 10
0.2068313296035713
 20
0.1047866304197154
 10
0.207276315222531
 20
0.1044687684357681
 10
0.2078223210165575
 20
0.1042368839963439
 10
0.2080669399011983
 20
0.1042361002416703
  0
LWPOLYLINE
  5
865
330
2
100
AcDbEntity
  8
Profilo
  6
Continuous
370
     0
100
AcDbPolyline
 90
       61
 70
   128
 43
0.0
 10
0.2073924349690452
 20
0.108956022472289
 10
0.2069440965940572
 20
0.1082958221100831
 10
0.2071002084158549
 20
0.1076624515514544
 10
0.2075309996768482
 20
0.1074021692801379
 10
0.2077597502593722
 20
0.1069699332518796
 10
0.2079734693476869
 20
0.1063507616091979
 10
0.2083600081300228
 20
0.1057741861953874
 10
0.2085895955204551
 20
0.1055864668262894
 10
0.2093526776982184
 20
0.1057134727961637
 10
0.2087490625321458
 20
0.1059311578006756
 10
0.2084919305352795
 20
0.1064785508147805
 10
0.2087816411403498
 20
0.1070385760486223
 10
0.2090688382311612
 20
0.1068650547823315
 10
0.209457053391513
 20
0.1067775105415976
 10
0.2099170701763455
 20
0.1066465855041789
 10
0.2104488840462704
 20
0.1064722799642483
 10
0.2107369182733247
 20
0.1065432740250127
 10
0.2111401670334132
 20
0.1066426659176702
 10
0.2109832159698435
 20
0.1070315206302768
 10
0.2103495402492168
 20
0.1068753335928019
 10
0.2094737633692647
 20
0.1074534778480647
 10
0.2093752588139832
 20
0.1081010473226396
 10
0.2093627435962295
 20
0.1086476560631038
 10
0.2097242554974468
 20
0.1091643018323651
 10
0.2100840871379273
 20
0.1091919140585116
 10
0.2108738746803516
 20
0.1087147305373586
 10
0.2112746053867909
 20
0.1080805762240562
 10
0.2114908425287547
 20
0.1081949507873334
 10
0.2118657050067751
 20
0.1084095012921145
 10
0.2124434522727627
 20
0.1090405197735818
 10
0.2119976274120319
 20
0.1091138659115076
 10
0.2114524608597765
 20
0.1095902661969523
 10
0.2112955097962068
 20
0.1099791209095597
 10
0.2111393979744092
 20
0.1106124914681885
 10
0.2110692772673328
 20
0.1111449031437779
 10
0.2114157562254819
 20
0.1114746101154385
 10
0.2118482259700185
 20
0.1117033595361656
 10
0.2124819016906452
 20
0.1118595465736405
 10
0.2129427577172498
 20
0.1119731373822441
 10
0.2133301360696924
 20
0.1116410764823508
 10
0.2126956207789599
 20
0.1112403749309587
 10
0.2126647209826338
 20
0.1106219870429506
 10
0.2127356809314813
 20
0.1103340912133826
 10
0.2133259413096944
 20
0.1104185004354186
 10
0.2137726033066682
 20
0.1105896696245479
 10
0.2141917206972081
 20
0.1111205124586849
 10
0.2142935825479109
 20
0.1114510050360913
 10
0.214495625660243
 20
0.1116229579798942
 10
0.2149280954047796
 20
0.1118517074006213
 10
0.2156051864678208
 20
0.1120796722535351
 10
0.2160660403888972
 20
0.1121932625431725
 10
0.2167706760583714
 20
0.1120615537510803
 10
0.2172448847673074
 20
0.1118730498141689
 10
0.2178050824854374
 20
0.1115835864752519
 10
0.2183368963553613
 20
0.1114092809353213
 10
0.2185097181549116
 20
0.1114518776831597
 10
0.2186842166608107
 20
0.1119835042719703
 10
0.2188578755966031
 20
0.1122706163468639
 10
0.2188729067624777
 20
0.1124575532933925
 10
0.2182968383083681
 20
0.1123155651718637
 10
0.2181106638264874
 20
0.1125750631695395
  0
LWPOLYLINE
  5
866
330
2
100
AcDbEntity
  8
Profilo
  6
Continuous
370
     0
100
AcDbPolyline
 90
       66
 70
   128
 43
0.0
 10
0.2412073752161392
 20
0.1204868390155811
 10
0.239847282286938
 20
0.1202326270855156
 10
0.23921029018822
 20
0.1194306209307134
 10
0.2389804442250796
 20
0.1177216786512973
 10
0.2392719897525257
 20
0.115603152296849
 10
0.239120794559617
 20
0.1138054349204038
 10
0.2389797688684769
 20
0.1121751805356093
 10
0.2382183600934082
 20
0.1107083613934465
 10
0.2366385914162272
 20
0.108912672640562
 10
0.2343065675501972
 20
0.1078766318365307
 10
0.2323566032887303
 20
0.1082882470000692
 10
0.2303978252956114
 20
0.1092466433090369
 10
0.2286065150983711
 20
0.1101949495395766
 10
0.2282664930343561
 20
0.1101313985085373
 10
0.2279556237055296
 20
0.1098559923153726
 10
0.2286546550267277
 20
0.1096037815646378
 10
0.2289539967470979
 20
0.1089974767261159
 10
0.2282295417696742
 20
0.1088310282517826
 10
0.2274023656029476
 20
0.1090489393754161
 10
0.2269165696069244
 20
0.1100446495701233
 10
0.227498982067873
 20
0.1106398487859632
 10
0.2283275130949312
 20
0.1111361828263462
 10
0.2273481232867835
 20
0.1116153802618252
 10
0.2263687351018131
 20
0.1120945791353138
 10
0.2247092988290644
 20
0.1124466706057596
 10
0.2237678778243257
 20
0.1121672356366385
 10
0.2234417543410432
 20
0.1116406332100563
 10
0.2236027833372933
 20
0.1108325671907915
 10
0.2230800360765874
 20
0.1105279071287439
 10
0.22242541489139
 20
0.1108194618267895
 10
0.2218507977135804
 20
0.111736485153811
 10
0.221833170250278
 20
0.1128300474446684
 10
0.222371172575226
 20
0.1133859027131985
 10
0.223367173931126
 20
0.1138721470862265
 10
0.2249632152112762
 20
0.1138600283842379
 10
0.2262927972986004
 20
0.1136118474363945
 10
0.2273115100570981
 20
0.1130882602953855
 10
0.2282312355747891
 20
0.1123185226791792
 10
0.229032984838935
 20
0.1116819494544572
 10
0.228871957465862
 20
0.1124900169117318
 10
0.2285485437032433
 20
0.1133919048131808
 10
0.2285892256700661
 20
0.1140617621207509
 10
0.2289648432286464
 20
0.1147114392714652
 10
0.2293797878937163
 20
0.115316728565733
 10
0.2301347553361932
 20
0.1159855713559859
 10
0.2310863440231303
 20
0.1164324713706293
 10
0.2324311827978738
 20
0.1164354870672772
 10
0.2334892210396848
 20
0.115867510631813
 10
0.2342363906660605
 20
0.1150241304681296
 10
0.2346486230775024
 20
0.1142009290232924
 10
0.2346079427338576
 20
0.113531073153732
 10
0.2339912896386771
 20
0.1130639929822319
 10
0.2335092234350098
 20
0.1134291912546903
 10
0.2332251351557044
 20
0.1142866898616841
 10
0.2329054537184039
 20
0.1145580662519574
 10
0.2320199672117678
 20
0.1151996833858142
 10
0.2312321172417455
 20
0.1153732076799372
 10
0.2306205513322173
 20
0.1149898611612778
 10
0.2299886431727947
 20
0.114271585783297
 10
0.2299086375422306
 20
0.1136461157163104
 10
0.2298628716361115
 20
0.1128925276319199
 10
0.230063226115675
 20
0.1120400723181998
 10
0.230632755198048
 20
0.1110393163652734
 10
0.2312073714660725
 20
0.1101222940651869
 10
0.2322704952703569
 20
0.1096380498445537
 10
0.2330875003121369
 20
0.1092526742912589
  0
LWPOLYLINE
  5
867
330
2
100
AcDbEntity
  8
Profilo
  6
Continuous
370
     0
100
AcDbPolyline
 90
        8
 70
   128
 43
0.0
 10
0.2344286083847402
 20
0.1098862029370924
 10
0.2332563255013103
 20
0.1099568297879214
 10
0.232365755965164
 20
0.110514715118021
 10
0.2315399362819477
 20
0.1114468728436808
 10
0.2312216097049795
 20
0.1124324943979698
 10
0.23100600107096
 20
0.1130337534782724
 10
0.2305341043690605
 20
0.1135664147423814
 10
0.2302195068710571
 20
0.1139215219094751
  0
LWPOLYLINE
  5
868
330
2
100
AcDbEntity
  8
Profilo
  6
Continuous
370
     0
100
AcDbPolyline
 90
       14
 70
   128
 43
0.0
 10
0.2305405447918662
 20
0.1143643921212281
 10
0.2310124414937658
 20
0.1138317308571182
 10
0.2314260287655401
 20
0.1137227745762965
 10
0.2319233516566284
 20
0.1136087729483304
 10
0.2316860475355602
 20
0.1131608594433056
 10
0.2319257249654738
 20
0.1122640144240554
 10
0.2323582970938451
 20
0.1117757414274658
 10
0.232900029211148
 20
0.1117010847737454
 10
0.2333275157770469
 20
0.1111290795623256
 10
0.2337600879054182
 20
0.1106408065657369
 10
0.2343258904417915
 20
0.1102705654110796
 10
0.2348676234688805
 20
0.1101959077304233
 10
0.2354588496614793
 20
0.110244325800835
 10
0.2356758131558321
 20
0.110357311884548
  0
LWPOLYLINE
  5
869
330
2
100
AcDbEntity
  8
Profilo
  6
Continuous
370
     0
100
AcDbPolyline
 90
       61
 70
   128
 43
0.0
 10
0.2328851114685113
 20
0.114223137392635
 10
0.2327949379593548
 20
0.1134302057720076
 10
0.233227510087727
 20
0.1129419327754189
 10
0.2337299160083246
 20
0.1129116629512081
 10
0.2341333346881154
 20
0.1126352426518
 10
0.2346103169524882
 20
0.1121863136025212
 10
0.235220528001685
 20
0.1118554149571649
 10
0.235511055080619
 20
0.1117958922910081
 10
0.2361277081757986
 20
0.1122629724625073
 10
0.2354920702240211
 20
0.112175209006776
 10
0.235010004930138
 20
0.1125404062522977
 10
0.235006274227997
 20
0.1131709192014831
 10
0.2353412139758948
 20
0.1131507408937109
 10
0.2357256452661254
 20
0.113253636898996
 10
0.2361938137988471
 20
0.1133514889951463
 10
0.2367457154179187
 20
0.1134442953330774
 10
0.2369677644747439
 20
0.1136410136316215
 10
0.2372786338035704
 20
0.1139164198247871
 10
0.2369589507430927
 20
0.1141877947770498
 10
0.2364704424934416
 20
0.1137550142326518
 10
0.2354263035457551
 20
0.1138599417375179
 10
0.2350381415533835
 20
0.1143875586814174
 10
0.2347730381306761
 20
0.1148657405726432
 10
0.2348530437612402
 20
0.1154912106396297
 10
0.2351588268142022
 20
0.1156828821530187
 10
0.2360799071922255
 20
0.1156273897008271
 10
0.2367294428149487
 20
0.1152521027879514
 10
0.236867758785424
 20
0.1154538668447138
 10
0.2370999764342327
 20
0.1158180491618443
 10
0.237318297321881
 20
0.1166452808206477
 10
0.2368894533626866
 20
0.116503040456978
 10
0.2361853381021932
 20
0.1166715204308915
 10
0.2358656550417155
 20
0.1169428953831559
 10
0.2354330829133433
 20
0.1174311683797446
 10
0.2351235700680272
 20
0.1178700087886053
 10
0.2352771394795665
 20
0.1183229666138406
 10
0.2355537672643759
 20
0.118726492878281
 10
0.236042275514027
 20
0.1191592734226798
 10
0.2363975549788542
 20
0.1194740235631553
 10
0.2368948778699424
 20
0.1193600219351891
 10
0.2365192577783999
 20
0.118710344373401
 10
0.23677927654842
 20
0.1181484292404091
 10
0.2369759003258425
 20
0.1179264868758745
 10
0.2374593230130202
 20
0.1182755352054414
 10
0.2377752762811429
 20
0.1186346721754274
 10
0.2378996913343156
 20
0.1192994837247792
 10
0.2378362979648951
 20
0.1196394579312461
 10
0.2379352877386651
 20
0.1198856088175182
 10
0.2382119155234745
 20
0.1202891350819604
 10
0.2387055093355999
 20
0.1208056478411885
 10
0.239060787177249
 20
0.1211203965436542
 10
0.2397459192043225
 20
0.1213312347235176
 10
0.2402534123105715
 20
0.1213846985521485
 10
0.2408839630766977
 20
0.1213887283550399
 10
0.2414358646957693
 20
0.121481534692971
 10
0.2415690951037712
 20
0.1215995665349032
 10
0.241476546662593
 20
0.122151392000541
 10
0.2414968863795224
 20
0.1224863204487887
 10
0.2414233218851551
 20
0.1226588302255953
 10
0.2409792237715047
 20
0.1222653936285072
 10
0.2406937797220809
 20
0.1224086480984212
  0
LWPOLYLINE
  5
86A
330
2
100
AcDbEntity
  8
Profilo
  6
Continuous
370
     0
100
AcDbPolyline
 90
       66
 70
   128
 43
0.0
 10
0.2574681164271499
 20
0.1401477546756951
 10
0.2563819521220525
 20
0.1392905944900926
 10
0.2561906344742075
 20
0.1382844283190288
 10
0.2567813010581021
 20
0.1366644203351548
 10
0.2580239800896287
 20
0.1349240463714132
 10
0.2587255443166381
 20
0.1332619827783716
 10
0.2593582892575865
 20
0.1317529263034824
 10
0.2593657601142771
 20
0.1301002781543383
 10
0.2588014425931728
 20
0.1277761196171445
 10
0.2572180101778461
 20
0.1257750055160889
 10
0.2553001154682599
 20
0.1252332790659327
 10
0.2531203147185579
 20
0.1251716073303806
 10
0.2510934884310725
 20
0.1251788274394006
 10
0.2508219474823656
 20
0.1249645396638765
 10
0.2506746740016537
 20
0.1245762114100533
 10
0.2514108436772338
 20
0.1246777459340258
 10
0.2519576615150481
 20
0.1242800006951894
 10
0.2513935409529484
 20
0.1237959468755188
 10
0.2505598444832451
 20
0.1236044896609565
 10
0.2496669638912072
 20
0.1242603865964265
 10
0.2499060616465867
 20
0.1250580698948465
 10
0.2504090315072958
 20
0.125882589428671
 10
0.2493191307479572
 20
0.1258517525470832
 10
0.2482292307575937
 20
0.1258209176931189
 10
0.2465962478457069
 20
0.1253615007187303
 10
0.2458925208496137
 20
0.1246765731859929
 10
0.2458484771963212
 20
0.1240587327546221
 10
0.2463665882950492
 20
0.123418059734667
 10
0.2460453011735941
 20
0.1229053638817792
 10
0.2453301706765405
 20
0.122859305112299
 10
0.2443952104446332
 20
0.1234042510252928
 10
0.2438713983644005
 20
0.1243643604544991
 10
0.2440894569412526
 20
0.1251065679984258
 10
0.2447454033159708
 20
0.1259999809179382
 10
0.2461642595263003
 20
0.1267309677066626
 10
0.2474568814344451
 20
0.127129101996057
 10
0.248602229861878
 20
0.1271389080316263
 10
0.2497743212701087
 20
0.1268847569811751
 10
0.2507800653153405
 20
0.1266936908447933
 10
0.2502619549855884
 20
0.1273343658923709
 10
0.2495564581143093
 20
0.1279826500995265
 10
0.2492811819941778
 20
0.1285946851415085
 10
0.2493118547984787
 20
0.1293445038726366
 10
0.2493979780916415
 20
0.1300732953264836
 10
0.2497556418196698
 20
0.1310163770699848
 10
0.2503905469640699
 20
0.13185431269389
 10
0.251579941096586
 20
0.132481960701945
 10
0.2527807392439048
 20
0.1324707374326124
 10
0.2538342633966701
 20
0.1320711884235859
 10
0.2545818378560263
 20
0.1315338536977935
 10
0.2548571147451346
 20
0.130921820683433
 10
0.2545281585251677
 20
0.130221668748673
 10
0.2539315940007647
 20
0.130321008424275
 10
0.2532815468493714
 20
0.1309482633265278
 10
0.2528723680975187
 20
0.1310399918149301
 10
0.2517901343848994
 20
0.1311966094740997
 10
0.2510118871212414
 20
0.1309841254687649
 10
0.2506485224117076
 20
0.1303604801345148
 10
0.2504227947363447
 20
0.1294308165087159
 10
0.2506426237022232
 20
0.1288398097986203
 10
0.2509523098498736
 20
0.1281512722113733
 10
0.2515258706684866
 20
0.1274895698865155
 10
0.2524952381071452
 20
0.1268681178595195
 10
0.2534301970562369
 20
0.1263231724330343
 10
0.2545965859450119
 20
0.1263884537365891
 10
0.2554991009318002
 20
0.1264269018053765
  0
LWPOLYLINE
  5
86B
330
2
100
AcDbEntity
  8
Profilo
  6
Continuous
370
     0
100
AcDbPolyline
 90
        8
 70
   128
 43
0.0
 10
0.2563921777138667
 20
0.1276111075598072
 10
0.2553213508368151
 20
0.1271288575103266
 10
0.2542735284345294
 20
0.1272089721377236
 10
0.2531091061248096
 20
0.1276505792700471
 10
0.2523692007639644
 20
0.1283753700777126
 10
0.25189886977277
 20
0.1288075602250229
 10
0.251233485962306
 20
0.1290599070187772
 10
0.2507898971829352
 20
0.1292281380524436
  0
LWPOLYLINE
  5
86C
330
2
100
AcDbEntity
  8
Profilo
  6
Continuous
370
     0
100
AcDbPolyline
 90
       14
 70
   128
 43
0.0
 10
0.2508683500947706
 20
0.129769473910927
 10
0.2515337339052346
 20
0.1295171271171727
 10
0.2519505817555983
 20
0.1296128547106425
 10
0.2524439185043743
 20
0.129743028753702
 10
0.2524419519253191
 20
0.1292361403178246
 10
0.2530709604120256
 20
0.1285534071469492
 10
0.2536808957854211
 20
0.1283220891715899
 10
0.2541952704299071
 20
0.1285077394556486
 10
0.2548396150618446
 20
0.1281999169074028
 10
0.2554495504352392
 20
0.1279685989320436
 10
0.256122603344215
 20
0.1279037082201615
 10
0.2566369792715175
 20
0.1280893580177134
 10
0.257137983067012
 20
0.1284069866015294
 10
0.257277587449213
 20
0.1286078587734813
  0
LWPOLYLINE
  5
86D
330
2
100
AcDbEntity
  8
Profilo
  6
Continuous
370
     0
100
AcDbPolyline
 90
       61
 70
   128
 43
0.0
 10
0.2530100051316886
 20
0.1307339735233812
 10
0.2532986541526041
 20
0.1299899617227567
 10
0.2539085895259987
 20
0.1297586437473974
 10
0.2543675149644402
 20
0.1299653208222287
 10
0.2548531833836805
 20
0.1299080408110385
 10
0.2554841579356024
 20
0.1297321985901725
 10
0.2561782492541287
 20
0.1297227816051594
 10
0.2564631597690106
 20
0.1298050915674347
 10
0.2567921159889774
 20
0.1305052435021947
 10
0.2562700722459796
 20
0.1301321371362629
 10
0.2556735090043922
 20
0.1302314763253571
 10
0.2553771916539409
 20
0.1307880340717329
 10
0.2556831433991418
 20
0.1309258213296154
 10
0.2559757222435595
 20
0.1311955853461395
 10
0.2563447907553655
 20
0.1314997978398757
 10
0.2567903461137906
 20
0.1318384552420868
 10
0.2568955412374487
 20
0.1321158319869262
 10
0.2570428147181607
 20
0.1325041602407495
 10
0.2566336351973328
 20
0.1325958867015293
 10
0.2564022057714892
 20
0.131985657457359
 10
0.2554289044057452
 20
0.1315933305849759
 10
0.254840008210877
 20
0.1318801243148266
 10
0.2543830485825147
 20
0.1321803336482503
 10
0.2541632196166361
 20
0.1327713403583459
 10
0.2543449028697315
 20
0.1330831615251524
 10
0.2551862676689698
 20
0.1334620727939635
 10
0.2559358074245654
 20
0.1334316269905562
 10
0.2559645157016028
 20
0.1336745588269199
 10
0.2560008902563853
 20
0.1341049431764194
 10
0.2558097700813846
 20
0.1349388792087485
 10
0.2554961500066479
 20
0.1346136378966172
 10
0.2547943903585867
 20
0.1344356008273806
 10
0.2543852108377589
 20
0.1345273272881595
 10
0.2537752754643634
 20
0.1347586452635197
 10
0.2532972761436341
 20
0.1350033813565812
 10
0.2532227551070925
 20
0.1354758228563613
 10
0.2532801688404014
 20
0.1359616829603523
 10
0.253511598266245
 20
0.1365719122045226
 10
0.2536799109254835
 20
0.1370157162128383
 10
0.2541732476742595
 20
0.1371458902558977
 10
0.2541425728181661
 20
0.1363960699836557
 10
0.2546339429878879
 20
0.1360193555908369
 10
0.2549111864560505
 20
0.1359142110123548
 10
0.2551770251404362
 20
0.1364479356836377
 10
0.2552898885936301
 20
0.1369127664827268
 10
0.2550910993201185
 20
0.1375592464331836
 10
0.2548769733875362
 20
0.1378308182751429
 10
0.2548502324585291
 20
0.1380947769022791
 10
0.2549076461918371
 20
0.1385806370062701
 10
0.2551046663591387
 20
0.1392673708233278
 10
0.2552729782494012
 20
0.139711172804021
 10
0.2557816511434074
 20
0.1402162574697092
 10
0.256206168092282
 20
0.1404994411450513
 10
0.2567626203248468
 20
0.1407960409104723
 10
0.2572081756832727
 20
0.1411346983126833
 10
0.257271293218853
 20
0.1413011255761605
 10
0.2569328995631404
 20
0.1417467333546662
 10
0.2567952604771788
 20
0.1420527501051003
 10
0.2566499530616815
 20
0.1421713128012847
 10
0.2564395628143652
 20
0.1416165593116068
 10
0.2561202409891488
 20
0.1416107523811041
  0
LWPOLYLINE
  5
86E
330
2
100
AcDbEntity
  8
Profilo
  6
Continuous
370
     0
100
AcDbPolyline
 90
       66
 70
   128
 43
0.0
 10
0.2627294046231743
 20
0.165113374152166
 10
0.2621659960947786
 20
0.1638496307796489
 10
0.2624641814653001
 20
0.1628698051364976
 10
0.263740046000164
 20
0.161709855754057
 10
0.2656491757455548
 20
0.1607463328823364
 10
0.2670427794828392
 20
0.1596006818118267
 10
0.2683043408153072
 20
0.1585585298991372
 10
0.2690789798205238
 20
0.1570986545174122
 10
0.2696593917988173
 20
0.1547784629076334
 10
0.2691872961181154
 20
0.1522707066340656
 10
0.267740837525241
 20
0.1508997415714353
 10
0.2658393801012648
 20
0.1498321300427534
 10
0.2640413592000925
 20
0.1488966099902891
 10
0.2639005061256201
 20
0.1485806762172048
 10
0.2639505670726159
 20
0.1481683872258106
 10
0.2645552275017096
 20
0.1486004066886712
 10
0.265224252080194
 20
0.1485023396903884
 10
0.2649496991558049
 20
0.1478115714219861
 10
0.2643004721972026
 20
0.1472546064097759
 10
0.2632050551924081
 20
0.147420432002507
 10
0.2630460638279004
 20
0.1482378597529639
 10
0.2631082481886171
 20
0.1492016772915692
 10
0.2621575196073236
 20
0.1486678704508622
 10
0.2612067907646409
 20
0.1481340657628865
 10
0.25997435791915
 20
0.1469683872359218
 10
0.259669540305679
 20
0.1460348757830463
 10
0.2599176663525631
 20
0.1454673371439306
 10
0.2606741665449652
 20
0.1451408275912103
 10
0.2606279425703564
 20
0.1445375483887235
 10
0.2600161305400652
 20
0.1441644276607379
 10
0.2589350153756973
 20
0.1442124556183453
 10
0.2580250177134964
 20
0.1448191626862423
 10
0.2578731779501862
 20
0.1455776917018241
 10
0.2580387999342859
 20
0.1466736030347517
 10
0.2589554282160797
 20
0.1479802350502393
 10
0.259914965843671
 20
0.1489334768092085
 10
0.2609245644182581
 20
0.1494744295767836
 10
0.2620805097006373
 20
0.1497940880348931
 10
0.2630598446867216
 20
0.1500922999361007
 10
0.2623033442329294
 20
0.1504188116415523
 10
0.2613773850840415
 20
0.150664978055226
 10
0.2608492133186404
 20
0.1510789809793245
 10
0.2605279145988444
 20
0.1517571668558597
 10
0.2602654867115346
 20
0.1524425031300982
 10
0.260143910275338
 20
0.1534437751647806
 10
0.260316682760056
 20
0.1544807854447283
 10
0.2610781563883391
 20
0.1555892791695239
 10
0.2621466260567997
 20
0.1561373801820709
 10
0.2632651550488987
 20
0.1562731941905833
 10
0.2641768112567799
 20
0.1561448230939284
 10
0.2647049827607928
 20
0.1557308223225613
 10
0.2647390833216816
 20
0.1549579949950486
 10
0.2641646862197016
 20
0.1547687185512876
 10
0.2632975981646872
 20
0.1550220332099341
 10
0.262892660019193
 20
0.1549130999052197
 10
0.2618616058018217
 20
0.1545488388714338
 10
0.2612712483137356
 20
0.1539990240915543
 10
0.2612393272801325
 20
0.1532779495720486
 10
0.2614714915789404
 20
0.1523498724314418
 10
0.2619407949744055
 20
0.1519287215931158
 10
0.2625349878115202
 20
0.1514629701664738
 10
0.2633503590977968
 20
0.1511436088587255
 10
0.2644974944946874
 20
0.1510438279277375
 10
0.2655786082970861
 20
0.1509957998047566
 10
0.266581056632444
 20
0.1515956514725794
 10
0.2673623262572518
 20
0.1520491151742389
  0
LWPOLYLINE
  5
86F
330
2
100
AcDbEntity
  8
Profilo
  6
Continuous
370
     0
100
AcDbPolyline
 90
        8
 70
   128
 43
0.0
 10
0.267602778620752
 20
0.1535127107701539
 10
0.2668787212827484
 20
0.1525880614949564
 10
0.2659136894990599
 20
0.1521720521239995
 10
0.2646774196811821
 20
0.152021941790915
 10
0.2636854389378023
 20
0.1523198610125958
 10
0.2630681327514139
 20
0.1524839726726217
 10
0.2623616932446175
 20
0.15239819538668
 10
0.2618907340274097
 20
0.15234101058451
  0
LWPOLYLINE
  5
870
330
2
100
AcDbEntity
  8
Profilo
  6
Continuous
370
     0
100
AcDbPolyline
 90
       14
 70
   128
 43
0.0
 10
0.2617086293136293
 20
0.15285679856835
 10
0.2624150688204248
 20
0.1529425758542917
 10
0.2627396824304204
 20
0.153221057284032
 10
0.2631160155330923
 20
0.1535655856936193
 10
0.2633498370156113
 20
0.1531158443588803
 10
0.2642240782951815
 20
0.1528036289780008
 10
0.2648716480700726
 20
0.1528822581843423
 10
0.2652408282095777
 20
0.1532856851634321
 10
0.2659544193175716
 20
0.1533125637144987
 10
0.2666019890924627
 20
0.1533911929208411
 10
0.2672281040637605
 20
0.1536465183318079
 10
0.267597285565234
 20
0.1540499454762703
 10
0.2678932930318272
 20
0.1545640196927787
 10
0.26792355662033
 20
0.154806760559147
  0
LWPOLYLINE
  5
871
330
2
100
AcDbEntity
  8
Profilo
  6
Continuous
370
     0
100
AcDbPolyline
 90
       61
 70
   128
 43
0.0
 10
0.2631567453516039
 20
0.1547060972841177
 10
0.2637580908904971
 20
0.1541814494407045
 10
0.2644056606653873
 20
0.1542600786470469
 10
0.2647159713343772
 20
0.1546563553938052
 10
0.2651726287111575
 20
0.1548313378310979
 10
0.2658130468848512
 20
0.1549688657723154
 10
0.2664320105163398
 20
0.1552830877654259
 10
0.266646034901755
 20
0.1554883741357189
 10
0.2666119343408662
 20
0.1562612014632307
 10
0.2663230787368596
 20
0.1556882263591159
 10
0.2657486829968487
 20
0.1554989500807276
 10
0.265227661732065
 20
0.155854051951847
 10
0.2654345356168619
 20
0.156118239375119
 10
0.2655682357281677
 20
0.1564930717177058
 10
0.2657536550707604
 20
0.1569339531928708
 10
0.2659907928054483
 20
0.1574408793297799
 10
0.2659550350608484
 20
0.1577353708514231
 10
0.2659049741138526
 20
0.1581476598428173
 10
0.2655000362297475
 20
0.1580387243853716
 10
0.2655787033201458
 20
0.1573908426072093
 10
0.2648992111496833
 20
0.1565911387159886
 10
0.2642444897735947
 20
0.1565714082445213
 10
0.2637003578834749
 20
0.1566248706797699
 10
0.2632310544880099
 20
0.157046021518096
 10
0.2632470164974743
 20
0.1574065578668558
 10
0.263815919181968
 20
0.1581330688513605
 10
0.264493752545361
 20
0.1584544389240712
 10
0.264406276408665
 20
0.1586828857839722
 10
0.2642384748972804
 20
0.159080876298062
 10
0.2636816969884759
 20
0.1597304720089294
 10
0.2635551473777884
 20
0.1592967386133637
 10
0.2630165080204092
 20
0.1588129706479586
 10
0.2626115701363041
 20
0.1587040351905138
 10
0.261964000361413
 20
0.1586254059841714
 10
0.2614270184491341
 20
0.1586199716719037
 10
0.2611414788359072
 20
0.1590036661921674
 10
0.2609665257233242
 20
0.1594605554411324
 10
0.260887858632926
 20
0.1601084372192956
 10
0.2608306460847327
 20
0.160579624945564
 10
0.2612069791874036
 20
0.1609241533551513
 10
0.2615282768066196
 20
0.1602459651605121
 10
0.2621384313918105
 20
0.1601407522353613
 10
0.2624327814133034
 20
0.1601764927987324
 10
0.2624201356560079
 20
0.1607726239216198
 10
0.2623040536372985
 20
0.1612366614155576
 10
0.2618276002639934
 20
0.1617167090013991
 10
0.2615117954389063
 20
0.1618576646426533
 10
0.2613654498316942
 20
0.1620789612702227
 10
0.2611904967191112
 20
0.1625358505191885
 10
0.2610458082956111
 20
0.1632354829526266
 10
0.2609885960088061
 20
0.1637066685261637
 10
0.2612042789399007
 20
0.164390290867698
 10
0.2614485680143987
 20
0.1648383204224633
 10
0.2618034452128972
 20
0.165359542718571
 10
0.2620405829475851
 20
0.1658664688554792
 10
0.2620191281439919
 20
0.1660431650601044
 10
0.261512411182184
 20
0.1662804717795785
 10
0.261248324749193
 20
0.1664874720825757
 10
0.2610645625903123
 20
0.1665249264132784
 10
0.2611360780795122
 20
0.1659359433699912
 10
0.2608560312604151
 20
0.1657824053368699
  0
LWPOLYLINE
  5
872
330
2
100
AcDbEntity
  8
Profilo
  6
Continuous
370
     0
100
AcDbPolyline
 90
       66
 70
   128
 43
0.0
 10
0.2557859420838984
 20
0.1896643748912652
 10
0.2558743594362518
 20
0.1882835567087175
 10
0.2565937371502764
 20
0.1875545378401462
 10
0.258262514447007
 20
0.187120377483752
 10
0.2604007362890996
 20
0.1871544371822526
 10
0.2621671217151933
 20
0.1867876534879373
 10
0.2637684909413753
 20
0.1864511505813526
 10
0.2651328376344333
 20
0.185518487823594
 10
0.2667250137226214
 20
0.1837337910776897
 10
0.2674724062076237
 20
0.1812938893721467
 10
0.2668287499633717
 20
0.1794077572709698
 10
0.2656412368459096
 20
0.1775787828842645
 10
0.2644839262510077
 20
0.1759148390400966
 10
0.2645060287926677
 20
0.1755696358894507
 10
0.2647419558077138
 20
0.1752278365997943
 10
0.2650765865729632
 20
0.1758913705490013
 10
0.2657145524238071
 20
0.1761154477587423
 10
0.2657924639033853
 20
0.1753762117272402
 10
0.2654764365280666
 20
0.174581332889522
 10
0.2644294299451086
 20
0.1742190984946346
 10
0.2639087724662694
 20
0.1748690078505719
 10
0.2635159256393553
 20
0.1757513244111237
 10
0.2629221696965605
 20
0.1748368363254329
 10
0.2623284125218923
 20
0.1739223500244185
 10
0.2617788652552742
 20
0.1723174528474551
 10
0.2619427870662205
 20
0.1713492136982637
 10
0.2624262401261816
 20
0.1709619931140418
 10
0.2632478243349956
 20
0.1710244464322175
 10
0.2634872528627561
 20
0.1704687878751194
 10
0.2631189180622329
 20
0.1698540826508168
 10
0.2621393184207124
 20
0.1693941900267513
 10
0.2610516046742912
 20
0.1695085054556955
 10
0.2605646512307267
 20
0.1701095860867277
 10
0.2602020068236106
 20
0.1711569357538609
 10
0.2604064186840773
 20
0.1727398793479864
 10
0.2608130535243163
 20
0.1740298523773589
 10
0.261455615379603
 20
0.1749780261170759
 10
0.2623306014025868
 20
0.175798264183296
 10
0.2630591734864787
 20
0.1765174373693679
 10
0.2622375880457923
 20
0.1764549858358686
 10
0.261303292701287
 20
0.1762426406973141
 10
0.2606432230769098
 20
0.1763637684228945
 10
0.2600435584976539
 20
0.1768149572335487
 10
0.2594926984962544
 20
0.1772998360469487
 10
0.2589197335922115
 20
0.1781299190163006
 10
0.2585907933231324
 20
0.1791284373944846
 10
0.258749902015694
 20
0.1804638342824667
 10
0.2594412696807087
 20
0.1814456962402531
 10
0.2603685619997869
 20
0.18208575991369
 10
0.261235450505616
 20
0.1823957607173767
 10
0.2618955188981209
 20
0.1822746347764728
 10
0.2622848642123214
 20
0.1816061774833617
 10
0.2618642219865936
 20
0.1811716458724746
 10
0.260978732451818
 20
0.1809929889519912
 10
0.2606708013617807
 20
0.1807083491614829
 10
0.2599271287353071
 20
0.1799066572477601
 10
0.2596599048087338
 20
0.1791454676334192
 10
0.2599667401751695
 20
0.1784921534111881
 10
0.260603610405175
 20
0.1777782740441429
 10
0.2612148764780446
 20
0.1776234596592303
 10
0.2619574535864411
 20
0.1774871924321228
 10
0.2628278436049838
 20
0.1775833339683688
 10
0.263889952065159
 20
0.1780280827421867
 10
0.2648695505775684
 20
0.1784879745868828
 10
0.2654784095266915
 20
0.1794849778308727
 10
0.2659594543337951
 20
0.1802495740961847
  0
LWPOLYLINE
  5
873
330
2
100
AcDbEntity
  8
Profilo
  6
Continuous
370
     0
100
AcDbPolyline
 90
        8
 70
   128
 43
0.0
 10
0.2654921975400164
 20
0.1816572674207979
 10
0.2652807825513603
 20
0.1805020449255998
 10
0.264619618538017
 20
0.1796852142897194
 10
0.2635947157285914
 20
0.1789777749595105
 10
0.2625779104363222
 20
0.1787805728918359
 10
0.2619550464626945
 20
0.1786390100610253
 10
0.2613693880370542
 20
0.1782347592378688
 10
0.2609789494629986
 20
0.1779652589488876
  0
LWPOLYLINE
  5
874
330
2
100
AcDbEntity
  8
Profilo
  6
Continuous
370
     0
100
AcDbPolyline
 90
       14
 70
   128
 43
0.0
 10
0.260578005118929
 20
0.178337338246906
 10
0.2611636635445684
 20
0.1787415890700625
 10
0.2613216778481648
 20
0.1791390275965838
 10
0.2614947939262153
 20
0.1796189830660797
 10
0.2619108377865178
 20
0.1793294191522987
 10
0.2628300337175515
 20
0.1794592463425708
 10
0.2633668874625732
 20
0.1798298097270257
 10
0.2635062983762388
 20
0.1803585931420573
 10
0.2641256608371529
 20
0.1807140152403095
 10
0.2646625145821746
 20
0.1810845786247643
 10
0.2650982562213739
 20
0.181601628183933
 10
0.2652376682641497
 20
0.1821304123783349
 10
0.2652608676585215
 20
0.1827231640197988
 10
0.2651748574299155
 20
0.1829521645734431
  0
LWPOLYLINE
  5
875
330
2
100
AcDbEntity
  8
Profilo
  6
Continuous
370
     0
100
AcDbPolyline
 90
       61
 70
   128
 43
0.0
 10
0.2610008362253504
 20
0.1806477840166707
 10
0.2617771172662602
 20
0.180462690628703
 10
0.2623139710112809
 20
0.1808332540131578
 10
0.2624045784762021
 20
0.1813283482048122
 10
0.2627276101088203
 20
0.1816955067229724
 10
0.2632307598185681
 20
0.1821148988323315
 10
0.2636327986543652
 20
0.1826807753317299
 10
0.263726906502888
 20
0.1829620094765749
 10
0.2633375611886874
 20
0.1836304667696851
 10
0.2633480670614627
 20
0.1829888846186405
 10
0.2629274259648451
 20
0.1825543537871219
 10
0.2623010604785048
 20
0.182626650223753
 10
0.2623614641889915
 20
0.1829567156575473
 10
0.2623056564829458
 20
0.183350746753729
 10
0.2622649493194835
 20
0.1838272965775607
 10
0.2622393440332367
 20
0.1843863607803229
 10
0.2620708250887382
 20
0.1846305026201707
 10
0.2618348980736913
 20
0.184972301909827
 10
0.2615269682155281
 20
0.1846876603346432
 10
0.2618977101397979
 20
0.1841505479300434
 10
0.2616676906321018
 20
0.183126669543987
 10
0.2610971328518064
 20
0.1828049348844365
 10
0.260590482758456
 20
0.1825994028218876
 10
0.2599792166855863
 20
0.1827542172068002
 10
0.2598258007474152
 20
0.1830808742049479
 10
0.2599919125681662
 20
0.1839885499940026
 10
0.2604427560845819
 20
0.1845881139321017
 10
0.2602591352628671
 20
0.184749741393019
 10
0.2599255989893461
 20
0.1850241632412279
 10
0.2591307144557451
 20
0.1853406040817509
 10
0.259220226299826
 20
0.1848977416966209
 10
0.2589681030185966
 20
0.1842190682458859
 10
0.2586601731604325
 20
0.1839344266707021
 10
0.2581233194154109
 20
0.1835638632862464
 10
0.2576503709963509
 20
0.1833095035040992
 10
0.2572192264907045
 20
0.1835165512542742
 10
0.2568519861819096
 20
0.1838398018273883
 10
0.256481244257639
 20
0.1843769142319882
 10
0.2562116132073182
 20
0.1847675422465498
 10
0.2563847292853687
 20
0.1852474977160456
 10
0.2569843939673859
 20
0.1847963063413473
 10
0.2575735539057398
 20
0.1849866978970631
 10
0.2578175784379413
 20
0.1851551358699392
 10
0.2575293452295631
 20
0.1856771069883365
 10
0.2572109107304969
 20
0.1860340457795209
 10
0.256565942983336
 20
0.1862376878840308
 10
0.2562208063453113
 20
0.1862157360858685
 10
0.2559883820748512
 20
0.1863436743234086
 10
0.2556211417660554
 20
0.1866669248965218
 10
0.2551678911258932
 20
0.1872191785873252
 10
0.2548982613074449
 20
0.1876098048172112
 10
0.2547715439153757
 20
0.1883153551946872
 10
0.2547796414325303
 20
0.1888255924572215
 10
0.2548516455075207
 20
0.1894520315373871
 10
0.2548260402212739
 20
0.1900110957401493
 10
0.2547249281154515
 20
0.1901575819148631
 10
0.2541659705968966
 20
0.1901322234657297
 10
0.25383593583609
 20
0.1901927860464969
 10
0.2536558166298501
 20
0.1901405516759285
 10
0.2539928545188461
 20
0.1896522679962329
 10
0.2538162380571931
 20
0.1893861725735473
  0
LWPOLYLINE
  5
876
330
2
100
AcDbEntity
  8
Profilo
  6
Continuous
370
     0
100
AcDbPolyline
 90
       66
 70
   128
 43
0.0
 10
0.2382283923992761
 20
0.208176418495297
 10
0.2389483802824985
 20
0.2069948543076787
 10
0.2399241495751854
 20
0.2066836516508461
 10
0.2416035428660477
 20
0.2070747412259486
 10
0.243481015949186
 20
0.2080985808282083
 10
0.2452155254502228
 20
0.2085946902342322
 10
0.2467898481789916
 20
0.2090409250943512
 10
0.2484313471746722
 20
0.2088491367585572
 10
0.2506705390187518
 20
0.208008787393088
 10
0.2524662010582004
 20
0.2061956923323045
 10
0.2527728010512309
 20
0.2042264833266048
 10
0.2525712771844075
 20
0.2020551420723411
 10
0.2523198028059639
 20
0.2000439639184712
 10
0.2524997975378262
 20
0.1997485732719282
 10
0.2528675425850055
 20
0.1995555657821404
 10
0.2528554838108299
 20
0.2002986065863821
 10
0.2533162406459271
 20
0.2007934946158185
 10
0.2537287679484361
 20
0.2001751408872732
 10
0.2538183382195429
 20
0.1993244453864404
 10
0.2530595986487798
 20
0.1985171345384051
 10
0.2522965514094091
 20
0.1988506390986337
 10
0.2515386698685926
 20
0.1994493265901767
 10
0.2514379088952552
 20
0.1983636554591586
 10
0.2513371460017693
 20
0.197277985335913
 10
0.251596378970043
 20
0.1956015321110858
 10
0.2521914876939908
 20
0.1948203771861108
 10
0.2527995144972337
 20
0.1947021822261146
 10
0.2534979676813824
 20
0.1951392911126364
 10
0.2539681985212292
 20
0.1947585478799461
 10
0.2539277220143576
 20
0.194043079718214
 10
0.2532740523681012
 20
0.1931806223703409
 10
0.2522578046483934
 20
0.1927763578732131
 10
0.2515472926900699
 20
0.1930822897909321
 10
0.2507394593550707
 20
0.1938411426054634
 10
0.2501848265004076
 20
0.1953377644773502
 10
0.2499454034118766
 20
0.1966689515019579
 10
0.250073725370525
 20
0.1978071310367779
 10
0.2504673033809741
 20
0.1989400420550789
 10
0.2507782054784986
 20
0.1999154226160629
 10
0.2500797503742005
 20
0.1994783147373136
 10
0.2493511546380258
 20
0.1988561037587386
 10
0.248710401150916
 20
0.1986566073836169
 10
0.2479697466405657
 20
0.1987774372092836
 10
0.2472566499128153
 20
0.1989507786691176
 10
0.2463635558954653
 20
0.199419510568446
 10
0.2456082591240749
 20
0.2001507885178757
 10
0.2451285529969178
 20
0.2014071652352847
 10
0.2452844346583154
 20
0.2025978553965011
 10
0.2458080588091551
 20
0.2035955378608802
 10
0.2464315859033856
 20
0.2042728931167002
 10
0.2470723374703461
 20
0.2044723904995935
 10
0.2477277332184951
 20
0.2040614387509532
 10
0.2475572099336452
 20
0.20348119792832
 10
0.2468561739002197
 20
0.2029114975761415
 10
0.2467157931673958
 20
0.2025163588455614
 10
0.2464298685683177
 20
0.2014608940079023
 10
0.2465469959844375
 20
0.2006627089264157
 10
0.2471222954662293
 20
0.2002268214164813
 10
0.2480179723328559
 20
0.1998906809828105
 10
0.2486311673923902
 20
0.200037669161178
 10
0.2493520133055593
 20
0.200262103313138
 10
0.2500780261924573
 20
0.2007517228260545
 10
0.250811791467485
 20
0.2016391147204004
 10
0.2514654604761546
 20
0.2025015708534523
 10
0.2515412477913435
 20
0.2036673242456022
 10
0.2516118662126541
 20
0.2045678932845671
  0
LWPOLYLINE
  5
877
330
2
100
AcDbEntity
  8
Profilo
  6
Continuous
370
     0
100
AcDbPolyline
 90
        8
 70
   128
 43
0.0
 10
0.250543943161996
 20
0.2055971987617537
 10
0.2508936031487616
 20
0.2044760505982648
 10
0.2506877716133307
 20
0.2034455247522642
 10
0.2501090286945793
 20
0.2023428222499142
 10
0.2493003366920465
 20
0.2016956755100452
 10
0.2488146055612139
 20
0.2012808685269203
 10
0.2484838955040951
 20
0.2006507531583832
 10
0.2482634223452118
 20
0.2002306766509658
  0
LWPOLYLINE
  5
878
330
2
100
AcDbEntity
  8
Profilo
  6
Continuous
370
     0
100
AcDbPolyline
 90
       14
 70
   128
 43
0.0
 10
0.2477354898881767
 20
0.2003738083800277
 10
0.2480661999452955
 20
0.2010039237485648
 10
0.2480214157698164
 20
0.2014292709950949
 10
0.2479516560160393
 20
0.2019347015105293
 10
0.2484546116196018
 20
0.2018716506207294
 10
0.2492081854918116
 20
0.2024137785374487
 10
0.249511336483768
 20
0.2029913844944104
 10
0.2493890408113577
 20
0.2035243864375325
 10
0.2497722861495228
 20
0.2041269291635608
 10
0.2500754371414802
 20
0.2047045351205234
 10
0.2502209822902959
 20
0.2053648590050106
 10
0.2500986872554725
 20
0.2058978621629537
 10
0.2498437638759547
 20
0.2064334989717453
 10
0.2496611837370786
 20
0.2065962979455822
  0
LWPOLYLINE
  5
879
330
2
100
AcDbEntity
  8
Profilo
  6
Continuous
370
     0
100
AcDbPolyline
 90
       61
 70
   128
 43
0.0
 10
0.2470361705522315
 20
0.2026161059218259
 10
0.2478095504638853
 20
0.2028129696538707
 10
0.2481127014558417
 20
0.2033905756108325
 10
0.2479628486384184
 20
0.2038710671346076
 10
0.2480782518727951
 20
0.2043462901418627
 10
0.2483288675837052
 20
0.2049514687413341
 10
0.248421879371624
 20
0.2056393642605583
 10
0.2483745117092804
 20
0.2059321188266097
 10
0.2477191159611314
 20
0.2063430705752509
 10
0.2480265765418448
 20
0.205779860116178
 10
0.2478560538945818
 20
0.2051996205083659
 10
0.2472678369710808
 20
0.2049725492681427
 10
0.2471679327451284
 20
0.2052928786992965
 10
0.2469354020946319
 20
0.2056158407735271
 10
0.2466778939456882
 20
0.2060188871244337
 10
0.246395411501009
 20
0.206502014521651
 10
0.2461327370159232
 20
0.2066398767264213
 10
0.2457649919687439
 20
0.206832884216209
 10
0.2456246131560702
 20
0.2064377444778573
 10
0.2462024974072872
 20
0.206134447425808
 10
0.2464746452595348
 20
0.2051209527440898
 10
0.2461189589865311
 20
0.2045709194296368
 10
0.2457658581205404
 20
0.2041534777878891
 10
0.2451526630610061
 20
0.2040064896095215
 10
0.2448650149177727
 20
0.2042244340754236
 10
0.2445902816585113
 20
0.2051053370844356
 10
0.2447108525115924
 20
0.2058457420152333
 10
0.2444731523222421
 20
0.205903523173693
 10
0.2440502904273014
 20
0.2059915096177383
 10
0.2431993977361531
 20
0.205902302804879
 10
0.2434844649502592
 20
0.2055517658655468
 10
0.2435766161504942
 20
0.2048336628381442
 10
0.2434362373378196
 20
0.2044385230997925
 10
0.2431330863458632
 20
0.2038609171428298
 10
0.2428325182031834
 20
0.2034159026515256
 10
0.2423545388155057
 20
0.2033988714872423
 10
0.2418791416395178
 20
0.2035144305737964
 10
0.2413012573883
 20
0.2038177276258457
 10
0.2408809770600744
 20
0.2040383077581414
 10
0.2408112173062973
 20
0.2045437382735757
 10
0.2415518730992101
 20
0.2044229062253162
 10
0.2419850689489964
 20
0.2048652858509508
 10
0.2421228649123934
 20
0.2051278341236449
 10
0.2416250750073852
 20
0.2054560679447599
 10
0.2411772375341465
 20
0.2056241376577095
 10
0.2405115097513013
 20
0.2055047223288984
 10
0.2402161079447627
 20
0.2053248919837296
 10
0.2399508506104002
 20
0.2053301627228423
 10
0.2394754534344123
 20
0.2054457218093963
 10
0.2388174748369858
 20
0.20572408209238
 10
0.2383971964289095
 20
0.205944661216904
 10
0.2379571081410896
 20
0.2065105065416466
 10
0.2377271590573073
 20
0.2069660623041276
 10
0.237499794742952
 20
0.2075542085244946
 10
0.2372173122982728
 20
0.2080373359217127
 10
0.2370597064551321
 20
0.208120053849238
 10
0.236576558811163
 20
0.207837839546591
 10
0.2362561827088898
 20
0.2077380902477337
 10
0.2361209695947695
 20
0.2076081334406972
 10
0.2366463185649401
 20
0.2073324090311566
 10
0.2366135931636366
 20
0.2070147154734458
  0
LWPOLYLINE
  5
87A
330
2
100
AcDbEntity
  8
Profilo
  6
Continuous
370
     0
100
AcDbPolyline
 90
       45
 70
   128
 43
0.0
 10
0.2097683863855533
 20
0.2154482701321809
 10
0.2111518775659018
 20
0.2157043500491715
 10
0.2123816450944984
 20
0.216216507139209
 10
0.213047771521742
 20
0.2173944684462956
 10
0.2135601742972337
 20
0.2186236468343576
 10
0.2135601742972337
 20
0.22026255089445
 10
0.2129965310273389
 20
0.2212356493655214
 10
0.2123816450944984
 20
0.2217478064555589
 10
0.2114593183637794
 20
0.2216965907465545
 10
0.2107419536106754
 20
0.221184433656517
 10
0.2104345128127969
 20
0.2203137666034536
 10
0.2104345128127969
 20
0.2200064709774594
 10
0.2107931941050785
 20
0.2196991767234371
 10
0.2107931941050785
 20
0.2191870196333996
 10
0.2110493965770956
 20
0.21893094108838
 10
0.211408080037919
 20
0.2192382353424032
 10
0.2116642803413935
 20
0.2187772939613692
 10
0.2115105588581834
 20
0.2184699997073469
 10
0.2119717233078138
 20
0.217906626908305
 10
0.2116130398469895
 20
0.2171383899012769
 10
0.2106394726218683
 20
0.2174968998643036
 10
0.2106394726218683
 20
0.217906626908305
 10
0.2102807913295868
 20
0.2169335270652617
 10
0.2098708673743603
 20
0.2168823113562581
 10
0.2095121860820788
 20
0.2175481155733072
 10
0.2095634244079401
 20
0.2182651368713317
 10
0.2099733483631665
 20
0.2186236468343576
 10
0.2103320318239907
 20
0.2186236468343576
 10
0.2103320318239907
 20
0.21893094108838
 10
0.2098708673743603
 20
0.2195455295964255
 10
0.2092559836100616
 20
0.22026255089445
 10
0.2092559836100616
 20
0.2207747079844875
 10
0.2093584645988686
 20
0.2215941593285473
 10
0.2098196268799564
 20
0.2222087478365928
 10
0.2102807913295868
 20
0.222516043462587
 10
0.2109469155882886
 20
0.2226696905895977
 10
0.2116130398469895
 20
0.2230282005526245
 10
0.2128428095441288
 20
0.2228233377166093
 10
0.2140725792412672
 20
0.2219526692915741
 10
0.214687463005566
 20
0.2207234922754839
 10
0.2148924249831792
 20
0.2192894510514067
 10
0.2147899439943721
 20
0.2180602740353166
 10
0.2142775390503386
 20
0.2172920370282885
 10
0.214049531969926
 20
0.2169382699719327
 10
0.2140789786106438
 20
0.2164086188688898
  0
LWPOLYLINE
  5
87B
330
2
100
AcDbEntity
  8
Profilo
  6
Continuous
370
     0
100
AcDbPolyline
 90
       38
 70
   128
 43
0.0
 10
0.2151913932849023
 20
0.2161568181320854
 10
0.2161207070600568
 20
0.2173510770927285
 10
0.2163419721413531
 20
0.2181914811908179
 10
0.2169172626538494
 20
0.2186337994260166
 10
0.2173597928164428
 20
0.21920881340617
 10
0.2176695647976752
 20
0.2194299725237689
 10
0.2180678436788428
 20
0.2191645810338612
 10
0.2183776134915325
 20
0.2195184358964148
 10
0.2183776134915325
 20
0.2201376808769044
 10
0.2178908298789715
 20
0.2205799991121031
 10
0.2176695647976752
 20
0.2205799991121031
 10
0.2172270346350817
 20
0.2202261442495494
 10
0.2172270346350817
 20
0.2199165217593046
 10
0.217094274285178
 20
0.219474203524106
 10
0.2166959975725531
 20
0.219297276778815
 10
0.216209213959992
 20
0.2193857401514601
 10
0.2158994419787596
 20
0.2200492175042585
 10
0.2158994419787596
 20
0.2206242301124401
 10
0.2160322001601207
 20
0.2214646355825014
 10
0.2161649605100244
 20
0.222083880562991
 10
0.2167845044724892
 20
0.2224819664258808
 10
0.2176253113477067
 20
0.2224819664258808
 10
0.2182448553101715
 20
0.222083880562991
 10
0.2188643992726362
 20
0.2217742580727462
 10
0.2191741690853259
 20
0.2210665483476388
 10
0.2192626759852612
 20
0.2204473033671492
 10
0.2192184225352936
 20
0.2197838260143508
 10
0.2192184225352936
 20
0.219297276778815
 10
0.2187316389227325
 20
0.2190761176612153
 10
0.2185546272914038
 20
0.2189876542885702
 10
0.2183776134915325
 20
0.2186780317983255
 10
0.2180678436788428
 20
0.2184568726807257
 10
0.2177138182476428
 20
0.2178376277002361
 10
0.2174925531663465
 20
0.2174837728376824
 10
0.2170500230037531
 20
0.2170856869747926
 10
0.2165632372226494
 20
0.2164222096219941
 10
0.2162534674099605
 20
0.2162895138770402
 10
0.2159436954287281
 20
0.2160241237591034
  0
LWPOLYLINE
  5
87C
330
2
100
AcDbEntity
  8
Profilo
  6
Continuous
370
     0
100
AcDbPolyline
 90
       12
 70
   129
 43
0.0
 10
0.2202314507311147
 20
0.2221998505991722
 10
0.2198801012815519
 20
0.2221235058538413
 10
0.219559302260917
 20
0.2219708191071215
 10
0.2194676466370451
 20
0.2213753366790012
 10
0.2194981970659739
 20
0.220795124297525
 10
0.2198342713010728
 20
0.2204897494321143
 10
0.2201550703217077
 20
0.2204897494321143
 10
0.2205675249662136
 20
0.2206577048535054
 10
0.2209341517987839
 20
0.2210394244642471
 10
0.220995256993727
 20
0.221604368171052
 10
0.2209647043962555
 20
0.2221082371791692
 10
0.220460591959335
 20
0.2222151192738444
  0
LWPOLYLINE
  5
87D
330
2
100
AcDbEntity
  8
Profilo
  6
Continuous
370
     0
100
AcDbPolyline
 90
        9
 70
   129
 43
0.0
 10
0.2091403764325621
 20
0.2184191928459525
 10
0.2088670815073357
 20
0.2197459829149277
 10
0.2089061239493031
 20
0.2206435172926477
 10
0.2089061239493031
 20
0.2212288649647434
 10
0.2080862413421656
 20
0.2209557026263011
 10
0.2077348637015479
 20
0.2200191452533708
 10
0.2079691161848078
 20
0.2189264945276284
 10
0.2084376211513268
 20
0.2183411468555327
 10
0.2088670815073357
 20
0.2182630994931403
  0
LWPOLYLINE
  5
87E
330
2
100
AcDbEntity
  8
Profilo
  6
Continuous
370
     0
100
AcDbPolyline
 90
       24
 70
   129
 43
0.0
 10
0.2073054011769964
 20
0.2170143567865574
 10
0.2062903106971099
 20
0.2175216584682325
 10
0.205587553247331
 20
0.2179899371546972
 10
0.2054313856480059
 20
0.218731378179605
 10
0.2056265956892984
 20
0.2193167272236733
 10
0.2058218057305909
 20
0.2199801222581605
 10
0.2056656381312649
 20
0.2204093779494158
 10
0.2051580928913221
 20
0.2206435172926477
 10
0.2047286303667706
 20
0.2211898419695331
 10
0.2052752180486799
 20
0.2215410516703686
 10
0.20605605821385
 20
0.2211508189743236
 10
0.2062122258131751
 20
0.2211117959791133
 10
0.20605605821385
 20
0.2218922599992315
 10
0.2062512682551425
 20
0.2222044467048558
 10
0.2069930659783452
 20
0.2221263993424642
 10
0.2073444436189629
 20
0.2227507713817411
 10
0.2079691161848078
 20
0.2224385860480886
 10
0.2079300737428404
 20
0.2216971450231808
 10
0.2076958212595814
 20
0.2208776566358805
 10
0.2074225285028977
 20
0.2204093779494158
 10
0.2071101911357038
 20
0.2196289125573259
 10
0.2075006112182889
 20
0.2188484485372077
 10
0.2079300737428404
 20
0.2183021224883506
 10
0.2078910313008739
 20
0.2172875191249997
  0
LWPOLYLINE
  5
87F
330
2
100
AcDbEntity
  8
Profilo
  6
Continuous
370
     0
100
AcDbPolyline
 90
       13
 70
   128
 43
0.0
 10
0.2014491021067659
 20
0.2213459353223461
 10
0.2021518573880012
 20
0.2215020286751583
 10
0.2025422774705863
 20
0.2218142140088108
 10
0.2022689847139025
 20
0.2222824926952764
 10
0.2017614373054162
 20
0.2227507713817411
 10
0.2021128149460347
 20
0.2234141664162292
 10
0.2028155723958127
 20
0.2234141664162292
 10
0.2037135377183414
 20
0.2231019810825758
 10
0.203674495276374
 20
0.2224385860480886
 10
0.203674495276374
 20
0.2218532370040211
 10
0.2033621600777229
 20
0.2213849583175556
 10
0.2028936551112039
 20
0.2208776566358805
 10
0.2023470674292938
 20
0.220682540287858
  0
LWPOLYLINE
  5
880
330
2
100
AcDbEntity
  8
Profilo
  6
Continuous
370
     0
100
AcDbPolyline
 90
       45
 70
   128
 43
0.0
 10
0.1854994968363419
 20
0.2096214994473424
 10
0.186605511167099
 20
0.2104911873627167
 10
0.1874564049679801
 20
0.2115161814109365
 10
0.1874988047116561
 20
0.212868778734534
 10
0.1873812871572689
 20
0.2141952875880362
 10
0.1866196504637871
 20
0.2156464650635126
 10
0.1856683477259526
 20
0.2162461628799903
 10
0.1848858820041625
 20
0.2164139037202899
 10
0.1840930033695738
 20
0.2159399278581846
 10
0.1836958196938125
 20
0.2151530592531543
 10
0.1838282135414939
 20
0.2142392470018759
 10
0.1839710209395617
 20
0.2139671502381821
 10
0.1844314242115805
 20
0.2138617421972109
 10
0.1846694354790479
 20
0.2134082496157559
 10
0.1850152971354157
 20
0.2133005665505099
 10
0.1851900888066247
 20
0.2137393506150564
 10
0.1856311530498305
 20
0.2134502695094564
 10
0.1856378461967294
 20
0.2131067360252947
 10
0.1863079994316861
 20
0.2128222079915609
 10
0.1863474185387845
 20
0.2119752793888843
 10
0.1853187596856953
 20
0.2118402849468461
 10
0.1851283500341347
 20
0.2122030802268302
 10
0.1852629755683699
 20
0.2111747555993437
 10
0.184923807058901
 20
0.2109389051804289
 10
0.1842967958996544
 20
0.2113617580284179
 10
0.1840089487719911
 20
0.2120204604945997
 10
0.18420531052098
 20
0.212528406462388
 10
0.1845229089526681
 20
0.2126950949780619
 10
0.184380102192188
 20
0.2129671905269346
 10
0.1836861478304854
 20
0.2132970678188144
 10
0.1828084788842705
 20
0.2136462079142891
 10
0.1825704676168041
 20
0.2140997004957441
 10
0.1822803919979101
 20
0.2148729139162642
 10
0.1824031173975431
 20
0.2156314178121033
 10
0.1826686508402186
 20
0.2161178283816634
 10
0.1831870711986791
 20
0.2165634395345792
 10
0.1836102870501532
 20
0.2171904477200766
 10
0.1847943985456375
 20
0.2175805531620325
 10
0.1862879253264156
 20
0.217381117033276
 10
0.1874036049025101
 20
0.2165784855711674
 10
0.1882515219071132
 20
0.2154039557086582
 10
0.18873200653998
 20
0.2142679482229743
 10
0.1886353120334982
 20
0.2133495816850086
 10
0.1885978255388494
 20
0.2129303763396235
 10
0.1888700403849901
 20
0.2124750781152205
  0
LWPOLYLINE
  5
881
330
2
100
AcDbEntity
  8
Profilo
  6
Continuous
370
     0
100
AcDbPolyline
 90
       38
 70
   128
 43
0.0
 10
0.1899720522984687
 20
0.2127690845116028
 10
0.1902399189679693
 20
0.214258421949908
 10
0.1900452842092077
 20
0.2151053898329875
 10
0.1903491231266843
 20
0.2157643940114147
 10
0.1904737418048592
 20
0.2164791976258611
 10
0.1906452535055631
 20
0.2168189825168962
 10
0.1911212455158067
 20
0.2167690794480146
 10
0.1912310885088493
 20
0.217226359578226
 10
0.1909433110172438
 20
0.2177746737775559
 10
0.1903067300009979
 20
0.2179401074996408
 10
0.1901108095014976
 20
0.2178372804891984
 10
0.1898834130566653
 20
0.2173183035480584
 10
0.1900273018024681
 20
0.2170441464483934
 10
0.1901153038839922
 20
0.2165907962908511
 10
0.1898448693272119
 20
0.2162490470208915
 10
0.1893727328651353
 20
0.2161011578227221
 10
0.1887901100978029
 20
0.2165446796249135
 10
0.188522888414564
 20
0.217053828003654
 10
0.1882498840503546
 20
0.2178596658942684
 10
0.1880796600105396
 20
0.2184696769045269
 10
0.1884432392203123
 20
0.2191100808660078
 10
0.189187736734385
 20
0.2195008233041351
 10
0.1899213153940549
 20
0.2194362522135691
 10
0.1906137830745784
 20
0.2194500115493607
 10
0.1912169597301281
 20
0.2189673229188083
 10
0.1915831061895927
 20
0.2184601399267638
 10
0.1918522550056352
 20
0.2178520943032005
 10
0.1920783657097287
 20
0.2174212763508194
 10
0.191750117993454
 20
0.2169992300529842
 10
0.1916344929570295
 20
0.2168386382198264
 10
0.1916216437671121
 20
0.2164822187055888
 10
0.1914501339865575
 20
0.2161424348223262
 10
0.191424437526873
 20
0.2154295968016244
 10
0.1913929615815411
 20
0.2150134468709268
 10
0.1911861203074876
 20
0.2144553053240177
 10
0.1910634262043791
 20
0.2136416046717979
 10
0.1908508054446791
 20
0.2133801512148938
 10
0.1906998489147549
 20
0.2130012017180896
  0
LWPOLYLINE
  5
882
330
2
100
AcDbEntity
  8
Profilo
  6
Continuous
370
     0
100
AcDbPolyline
 90
       12
 70
   129
 43
0.0
 10
0.1916264643169869
 20
0.2204621555064889
 10
0.1913508390019807
 20
0.2202312753610123
 10
0.1911377426454006
 20
0.2199469952226343
 10
0.1913333201038512
 20
0.219377127226223
 10
0.1916300093036112
 20
0.2188775721691254
 10
0.1920695030362625
 20
0.218763357639042
 10
0.1923535564621073
 20
0.2189124403774993
 10
0.1926407141362025
 20
0.2192528347481311
 10
0.1927879521259328
 20
0.2197612106621607
 10
0.1925795156575409
 20
0.2202898404715272
 10
0.1923183030722644
 20
0.2207217958208938
 10
0.1918222630913142
 20
0.2205821624849058
  0
LWPOLYLINE
  5
883
330
2
100
AcDbEntity
  8
Profilo
  6
Continuous
370
     0
100
AcDbPolyline
 90
        9
 70
   129
 43
0.0
 10
0.183562765011855
 20
0.2119602700885723
 10
0.1827041842840424
 20
0.2130080778653687
 10
0.1823216496265054
 20
0.2138209490158269
 10
0.1820496249995811
 20
0.2143392486391855
 10
0.181450599873167
 20
0.2137163569547384
 10
0.1815747103371521
 20
0.2127237832537743
 10
0.182289910721181
 20
0.2118651516418106
 10
0.1829767758937581
 20
0.2115645771326102
 10
0.1833933145715862
 20
0.2116950498042049
  0
LWPOLYLINE
  5
884
330
2
100
AcDbEntity
  8
Profilo
  6
Continuous
370
     0
100
AcDbPolyline
 90
       24
 70
   129
 43
0.0
 10
0.1825908349846132
 20
0.2098635940133366
 10
0.1814562621559226
 20
0.2098410512764763
 10
0.1806163813808696
 20
0.209929103789853
 10
0.180133537014056
 20
0.210513042510895
 10
0.1800343616568751
 20
0.2111220619786795
 10
0.17989891651946
 20
0.2118001877389588
 10
0.1795611519111677
 20
0.2121077000751983
 10
0.1790029329418816
 20
0.2120791521336436
 10
0.1783687730249168
 20
0.2123633174240709
 10
0.1786895370951873
 20
0.2129283101312804
 10
0.1795622869008504
 20
0.2129456507575771
 10
0.179718701332801
 20
0.2129836723134586
 10
0.1792177220758715
 20
0.2136021641807488
 10
0.1792454915870936
 20
0.2139693104099773
 10
0.1799385912687406
 20
0.2142449334936023
 10
0.1799595605632769
 20
0.2149610808097631
 10
0.1806577604092849
 20
0.2149749542412476
 10
0.1809677548687674
 20
0.2143002968906016
 10
0.1811411698387397
 20
0.213465813403034
 10
0.1811168010771418
 20
0.2129241677416358
 10
0.1812029404260054
 20
0.2120879495453662
 10
0.1819113399557617
 20
0.2115783202351551
 10
0.1825455005103134
 20
0.2112941537299076
 10
0.1829824398382005
 20
0.2103776231407055
  0
LWPOLYLINE
  5
885
330
2
100
AcDbEntity
  8
Profilo
  6
Continuous
370
     0
100
AcDbPolyline
 90
       13
 70
   128
 43
0.0
 10
0.1753923547677418
 20
0.2109774584480863
 10
0.1759420734680175
 20
0.2114422589113651
 10
0.1761426935241577
 20
0.2119001225553774
 10
0.1756830848494104
 20
0.2121877572632096
 10
0.175016053981687
 20
0.2123665284061911
 10
0.1750188883861066
 20
0.2131172288686001
 10
0.1756411492045853
 20
0.2134438165398382
 10
0.1765813377687664
 20
0.2135846954481053
 10
0.1768550624480154
 20
0.2129791443899549
 10
0.1771270877125275
 20
0.2124608435517752
 10
0.1770681485854331
 20
0.2119010539629009
 10
0.1768890628864712
 20
0.2112341355178788
 10
0.176495758618147
 20
0.2108073566104815
  0
LWPOLYLINE
  5
886
330
2
100
AcDbEntity
  8
Profilo
  6
Continuous
370
     0
100
AcDbPolyline
 90
       45
 70
   128
 43
0.0
 10
0.1667182977045103
 20
0.1931838349010624
 10
0.1672934606314174
 20
0.1944678957942836
 10
0.1675705511891836
 20
0.1957709130167569
 10
0.1669795109789875
 20
0.1969882826105937
 10
0.1662589949501907
 20
0.1981082347373641
 10
0.1649102033509875
 20
0.1990392383571766
 10
0.163789173138011
 20
0.1991281519764483
 10
0.1630183810943988
 20
0.1989130491619937
 10
0.1625365894959003
 20
0.1981248953047654
 10
0.162550576891018
 20
0.1972435772993615
 10
0.1630924755492735
 20
0.1964959632240042
 10
0.1633453748915263
 20
0.1963213994120521
 10
0.1638020273021254
 20
0.1964420252960144
 10
0.1642235243240302
 20
0.1961510869083751
 10
0.1645798124273599
 20
0.1962164682154279
 10
0.1645306696435469
 20
0.196686221949232
 10
0.1650555553237663
 20
0.1966352261165536
 10
0.1652211297814814
 20
0.1963341527834474
 10
0.1659467477718568
 20
0.1963936514586146
 10
0.1663752390044939
 20
0.1956620523965666
 10
0.1655271418699966
 20
0.1950644791492753
 10
0.1651899431233623
 20
0.1952972306387552
 10
0.1657870343966339
 20
0.1944492580063279
 10
0.1655963207510194
 20
0.194082803366169
 10
0.1648446204250877
 20
0.1941658343535533
 10
0.1642836301519139
 20
0.1946153171911158
 10
0.1642214455843867
 20
0.1951563348638583
 10
0.1644252010137164
 20
0.1954515255650788
 10
0.1641723028005737
 20
0.1956260885976624
 10
0.1634045351080084
 20
0.1955956837612591
 10
0.1624651443583964
 20
0.1954969588659052
 10
0.1620436473364926
 20
0.1957878972535436
 10
0.161427467938398
 20
0.1963377388741145
 10
0.1611836415465211
 20
0.1970663940561748
 10
0.1611927134705491
 20
0.1976204887696964
 10
0.1614446660722884
 20
0.1982559798035801
 10
0.1615280198652664
 20
0.1990078461925186
 10
0.162395207485571
 20
0.1999035514569733
 10
0.1638103423634609
 20
0.2004210360381284
 10
0.1651712290058658
 20
0.2002288233252134
 10
0.16646785347021
 20
0.1995828754611537
 10
0.1674212304858287
 20
0.1988002831304714
 10
0.1677623979630383
 20
0.1979421737679008
 10
0.1679240197583161
 20
0.1975535650261415
 10
0.168376641669175
 20
0.1972769230166502
  0
LWPOLYLINE
  5
887
330
2
100
AcDbEntity
  8
Profilo
  6
Continuous
370
     0
100
AcDbPolyline
 90
       38
 70
   128
 43
0.0
 10
0.1692157931731772
 20
0.19804938322397
 10
0.1687608477111864
 20
0.1994926098812835
 10
0.1681949015899953
 20
0.2001521114144085
 10
0.168157683078114
 20
0.2008768316206479
 10
0.1679358416345194
 20
0.2015676719756358
 10
0.1679298017910025
 20
0.2019482420164218
 10
0.1683744628971011
 20
0.2021252595602503
 10
0.1682592153645421
 20
0.2025812075911109
 10
0.1677495867365639
 20
0.2029329788341174
 10
0.1671090413558218
 20
0.2027836291710514
 10
0.1669833484634546
 20
0.2026015315790586
 10
0.16702317952147
 20
0.2020363239221972
 10
0.1672779938354596
 20
0.2018604383006934
 10
0.1675665981320744
 20
0.2014999132784396
 10
0.1674859590290074
 20
0.2010716321230346
 10
0.167136630491016
 20
0.2007212699870919
 10
0.1664146287922135
 20
0.200843230738811
 10
0.1659414026929955
 20
0.2011698751304447
 10
0.1653251777929974
 20
0.2017565376922716
 10
0.1648909656395627
 20
0.2022175685612799
 10
0.1649152884812901
 20
0.2029535817914798
 10
0.1653929212259104
 20
0.203645552284117
 10
0.1660724805524358
 20
0.2039292884245567
 10
0.1666792359505518
 20
0.2042632774883737
 10
0.1674376389462413
 20
0.2041161881006062
 10
0.1679975452239155
 20
0.2038372566082671
 10
0.1685184375558064
 20
0.2034239386385535
 10
0.1689188597266149
 20
0.203147547170297
 10
0.1688243455026122
 20
0.2026212994128516
 10
0.1687965953635029
 20
0.2024253687728157
 10
0.1689508543781004
 20
0.2021038036499778
 10
0.1689568954534897
 20
0.2017232353938674
 10
0.1692654147145571
 20
0.2010801069328671
 10
0.1694309386649397
 20
0.2006969968679977
 10
0.1695071711226044
 20
0.2001066631391328
 10
0.1697766764378885
 20
0.1993291482007589
 10
0.1697099135848683
 20
0.1989988328680248
 10
0.1697523548280344
 20
0.1985931367552345
  0
LWPOLYLINE
  5
888
330
2
100
AcDbEntity
  8
Profilo
  6
Continuous
370
     0
100
AcDbPolyline
 90
       12
 70
   129
 43
0.0
 10
0.1671055539083861
 20
0.2056301028932834
 10
0.1669687951659595
 20
0.2052975792065812
 10
0.1669122192806371
 20
0.2049468308303002
 10
0.1673502253826422
 20
0.2045331271559219
 10
0.1678450854330613
 20
0.2042286714664927
 10
0.1682873159455882
 20
0.2043317824441448
 10
0.1684695505599967
 20
0.2045957948623212
 10
0.168565626901171
 20
0.2050306479340778
 10
0.1684597455990247
 20
0.2055492173560847
 10
0.1680295177502753
 20
0.2059204305493685
 10
0.1675974858325269
 20
0.2061815164750698
 10
0.1672231550892524
 20
0.2058273560229304
  0
LWPOLYLINE
  5
889
330
2
100
AcDbEntity
  8
Profilo
  6
Continuous
370
     0
100
AcDbPolyline
 90
        9
 70
   129
 43
0.0
 10
0.1639165259293689
 20
0.1943546693010871
 10
0.1626693498966922
 20
0.1948834546514924
 10
0.1619528722196515
 20
0.1954254435902785
 10
0.1614711405295788
 20
0.195757958967377
 10
0.1612302023213141
 20
0.194928034915173
 10
0.1618013686782946
 20
0.1941068315592558
 10
0.1628336731742115
 20
0.1936789212157395
 10
0.163581546019433
 20
0.1937319778671762
 10
0.1638897390278249
 20
0.1940410808560626
  0
LWPOLYLINE
  5
88A
330
2
100
AcDbEntity
  8
Profilo
  6
Continuous
370
     0
100
AcDbPolyline
 90
       24
 70
   129
 43
0.0
 10
0.164030298586666
 20
0.1920464764311624
 10
0.1630361603711403
 20
0.1914992535451105
 10
0.1622515628347152
 20
0.1911869081157329
 10
0.1615526555259468
 20
0.1914795712091433
 10
0.1611818146494288
 20
0.191972742080055
 10
0.1607467431819982
 20
0.192510248126748
 10
0.1603047593659932
 20
0.1926255697376637
 10
0.1598237479059588
 20
0.192340874500692
 10
0.1591301689911031
 20
0.1922977815611881
 10
0.1591516262668611
 20
0.1929471242544505
 10
0.1599163492503148
 20
0.1933680656745817
 10
0.1600371778535301
 20
0.1934744215013113
 10
0.159306155249304
 20
0.1937892521826123
 10
0.1591601225700945
 20
0.1941272491589201
 10
0.1596457434258758
 20
0.1946934007617225
 10
0.1593315005616596
 20
0.195337262635145
 10
0.1599432785173311
 20
0.195674016595806
 10
0.1605312938834338
 20
0.1952206987879519
 10
0.1610726490268952
 20
0.1945623903105034
 10
0.1613027868499888
 20
0.1940714621676607
 10
0.161767669428178
 20
0.1933710586784549
 10
0.162631762609978
 20
0.1932490140114211
 10
0.1633253426539447
 20
0.1932921061715573
 10
0.1641381662173558
 20
0.1926836144690984
  0
LWPOLYLINE
  5
88B
330
2
100
AcDbEntity
  8
Profilo
  6
Continuous
370
     0
100
AcDbPolyline
 90
       13
 70
   128
 43
0.0
 10
0.1571387222897478
 20
0.1896874538463935
 10
0.1574094704796591
 20
0.1903544812354543
 10
0.1573743308722264
 20
0.1908531321468372
 10
0.1568336970879152
 20
0.1908942292308469
 10
0.1561599914941567
 20
0.1907425385159129
 10
0.1558136333344837
 20
0.1914085679772261
 10
0.1562128450672056
 20
0.1919869260200304
 10
0.156979871003486
 20
0.1925485955101092
 10
0.1575036557786751
 20
0.1921396128780355
 10
0.1579853885978588
 20
0.1918070967215684
 10
0.1581933477860451
 20
0.1912840372789013
 10
0.1583447077300564
 20
0.1906102850490479
 10
0.1581947881433603
 20
0.1900496134867175
  0
LWPOLYLINE
  5
88C
330
2
100
AcDbEntity
  8
Profilo
  6
Continuous
370
     0
100
AcDbPolyline
 90
       45
 70
   128
 43
0.0
 10
0.1577273353731758
 20
0.1699009473455622
 10
0.1576398840011421
 20
0.1713052183406054
 10
0.1572796932083129
 20
0.1725877531947226
 10
0.1561906132335942
 20
0.1733910103557443
 10
0.1550321602694264
 20
0.1740478382204253
 10
0.1534052056651776
 20
0.1742453862750866
 10
0.1523712624889724
 20
0.1738031466585008
 10
0.1517887232916797
 20
0.1732544776518141
 10
0.1517283913782697
 20
0.1723327023498715
 10
0.152150345500611
 20
0.1715588342780974
 10
0.1529776065174211
 20
0.1711486877536004
 10
0.1532826616123168
 20
0.1711116473589858
 10
0.1536309495974857
 20
0.1714306732315647
 10
0.1541393724856981
 20
0.1713689395161619
 10
0.1544244657252545
 20
0.1715924071259982
 10
0.1541626465059576
 20
0.1719855156097916
 10
0.1546511086394098
 20
0.1721842875807349
 10
0.1549376332950674
 20
0.1719946466709716
 10
0.155552485703911
 20
0.172384541625596
 10
0.1562718868845687
 20
0.1719358726325675
 10
0.1557986403014979
 20
0.1710126174094393
 10
0.1553919006289597
 20
0.1710620045471343
 10
0.1563146712262906
 20
0.1705886442206763
 10
0.1563161026423918
 20
0.1701755357010768
 10
0.1556119186354739
 20
0.1698997234292792
 10
0.154906301327709
 20
0.1700370155369919
 10
0.1545998161786803
 20
0.1704871642858325
 10
0.1546430506923109
 20
0.1708432325403848
 10
0.1543379969593834
 20
0.1708802727696259
 10
0.1536723022617181
 20
0.1704965511865426
 10
0.1528863928085604
 20
0.1699725779841206
 10
0.152377969920348
 20
0.1700343116995233
 10
0.1515768460173881
 20
0.1702348194311813
 10
0.1510223255219545
 20
0.1707666997784996
 10
0.1507728576588683
 20
0.1712615422146806
 10
0.1507006231991861
 20
0.1719413297921664
 10
0.1504250195842181
 20
0.1726458108558129
 10
0.1507766210962753
 20
0.1738419206610988
 10
0.1517891737249766
 20
0.174957776470988
 10
0.1530835047043784
 20
0.1754200161233799
 10
0.1545317955897021
 20
0.1754506291289104
 10
0.155739657803232
 20
0.17520073442493
 10
0.1564405299066189
 20
0.1745994647513793
 10
0.1567642343862792
 20
0.1743304781927399
 10
0.1572935731367631
 20
0.1742958677486381
  0
LWPOLYLINE
  5
88D
330
2
100
AcDbEntity
  8
Profilo
  6
Continuous
370
     0
100
AcDbPolyline
 90
       38
 70
   128
 43
0.0
 10
0.1576776247345952
 20
0.175369820442552
 10
0.1566040896637659
 20
0.1764363104844495
 10
0.155796483616121
 20
0.1767572618142372
 10
0.1554267339874222
 20
0.1773816733828646
 10
0.1549092536233054
 20
0.1778902872785943
 10
0.1547270458909304
 20
0.1782244584591544
 10
0.1550385095922246
 20
0.1785878440296944
 10
0.1547245733548896
 20
0.1789380077621034
 10
0.1541098433675163
 20
0.1790126494963165
 10
0.1536120748495984
 20
0.178582730656049
 10
0.1535854042912428
 20
0.1783630788463171
 10
0.1538833380367306
 20
0.177881122736431
 10
0.1541907030304168
 20
0.1778438018693249
 10
0.1546137937758276
 20
0.1776586939201596
 10
0.1547414235731797
 20
0.1772419949306645
 10
0.1545949299174616
 20
0.1767694235999722
 10
0.1538989511753215
 20
0.1765418835627868
 10
0.1533281310564618
 20
0.1766111936736818
 10
0.1525098553189501
 20
0.1768442835838577
 10
0.151911127823424
 20
0.1770507176955487
 10
0.1515906222271877
 20
0.1777137284333499
 10
0.1516919702966621
 20
0.1785484048797823
 10
0.1521618314379145
 20
0.1791154477208448
 10
0.1525438742041079
 20
0.1796931536431705
 10
0.1532837625533725
 20
0.1799153599043066
 10
0.1539091608686434
 20
0.1799285797550789
 10
0.1545624665605798
 20
0.1798046756050553
 10
0.1550454683043823
 20
0.1797460285754227
 10
0.1552063396423495
 20
0.1792361363776242
 10
0.1552728216230008
 20
0.1790497522791234
 10
0.1555588499608911
 20
0.1788367082420468
 10
0.1557410579546552
 20
0.1785025392142181
 10
0.1563131148918249
 20
0.178076453292797
 10
0.1566377191956692
 20
0.177814148992641
 10
0.1569795614477014
 20
0.1773268614248096
 10
0.1575795257615375
 20
0.1767636515025925
 10
0.1576739153802436
 20
0.1764401455560272
 10
0.157900031619163
 20
0.1761006429175227
  0
LWPOLYLINE
  5
88E
330
2
100
AcDbEntity
  8
Profilo
  6
Continuous
370
     0
100
AcDbPolyline
 90
       12
 70
   129
 43
0.0
 10
0.1522861645709179
 20
0.1811015372676277
 10
0.1523196021808388
 20
0.18074354720898
 10
0.1524325076202881
 20
0.1804066828208253
 10
0.1530126004464245
 20
0.1802439179946118
 10
0.1535922648736614
 20
0.1802043088022103
 10
0.1539359224850987
 20
0.1805011238052385
 10
0.1539745905340757
 20
0.180819583839825
 10
0.1538575756104121
 20
0.1812492760145137
 10
0.1535228311467023
 20
0.1816592409393562
 10
0.1529693719329357
 20
0.1817879970475786
 10
0.1524654939885224
 20
0.1818184019104647
 10
0.1522986271450346
 20
0.1813308482336611
  0
LWPOLYLINE
  5
88F
330
2
100
AcDbEntity
  8
Profilo
  6
Continuous
370
     0
100
AcDbPolyline
 90
        9
 70
   129
 43
0.0
 10
0.1547023757960542
 20
0.1696356214534198
 10
0.1533523174574993
 20
0.169524246026211
 10
0.1524660331622725
 20
0.1696711896191241
 10
0.1518849533337505
 20
0.1697417454843135
 10
0.1520572980835286
 20
0.1688949146630438
 10
0.1529446730044226
 20
0.1684332094444407
 10
0.1540575930928307
 20
0.1685340494721927
 10
0.1546951449547
 20
0.168928582644825
 10
0.1548243889895611
 20
0.1693455041813436
  0
LWPOLYLINE
  5
890
330
2
100
AcDbEntity
  8
Profilo
  6
Continuous
370
     0
100
AcDbPolyline
 90
       24
 70
   129
 43
0.0
 10
0.1558757871932119
 20
0.167644690958566
 10
0.1552498286753643
 20
0.1666981500917677
 10
0.1547002562177377
 20
0.1660569612933349
 10
0.1539453972087061
 20
0.1659913031713858
 10
0.1533878459885445
 20
0.1662556459422522
 10
0.1527528178211064
 20
0.1665293961177108
 10
0.1523078679631542
 20
0.1664261082120193
 10
0.1520142579410502
 20
0.1659504859274712
 10
0.1514201505991632
 20
0.1655900068311498
 10
0.1511373854771207
 20
0.166174942924866
 10
0.1516188928187674
 20
0.1669030525323745
 10
0.1516764552163927
 20
0.1670533777917749
 10
0.1508828577337216
 20
0.1669924233721218
 10
0.1505964771910024
 20
0.167223840061542
 10
0.1507633693352242
 20
0.1679508216741858
 10
0.1501859035654114
 20
0.1683748971090448
 10
0.1505711086738248
 20
0.1689573853248216
 10
0.1513024377125278
 20
0.1688292567064673
 10
0.152087715090147
 20
0.1684979337778429
 10
0.1525196376961233
 20
0.1681701888747549
 10
0.1532567645074163
 20
0.1677660540912136
 10
0.1540785980067616
 20
0.168059553029777
 10
0.1546727067106168
 20
0.1684200319607267
 10
0.1556752064267606
 20
0.1682589772609253
  0
LWPOLYLINE
  5
891
330
2
100
AcDbEntity
  8
Profilo
  6
Continuous
370
     0
100
AcDbPolyline
 90
       13
 70
   128
 43
0.0
 10
0.1508698918933744
 20
0.1623532049991452
 10
0.150799644425482
 20
0.1630696513777057
 10
0.1505367952150607
 20
0.1634948546420567
 10
0.1500389890058278
 20
0.1632799992555709
 10
0.1495129465185316
 20
0.1628325971974416
 10
0.1488967422750793
 20
0.1632613763345976
 10
0.1489814503250999
 20
0.1639590098913315
 10
0.149399597235143
 20
0.1648127982518943
 10
0.1500534493265677
 20
0.1646940770381322
 10
0.150634530517058
 20
0.1646235210075702
 10
0.1510617470766906
 20
0.1642570183258751
 10
0.151508877924587
 20
0.1637307808274553
 10
0.1516366877901047
 20
0.1631646597082961
  0
LWPOLYLINE
  5
892
330
2
100
AcDbEntity
  8
Profilo
  6
Continuous
370
     0
100
AcDbPolyline
 90
       45
 70
   128
 43
0.0
 10
0.1605863309596041
 20
0.1451066657305953
 10
0.1598562993440611
 20
0.1463094452657954
 10
0.1589413425705022
 20
0.1472776844726988
 10
0.1576037179286329
 20
0.147482812665614
 10
0.1562727156423138
 20
0.1475260449200419
 10
0.1547403137259247
 20
0.1469448815309393
 10
0.1540303215077934
 20
0.1460728004450917
 10
0.153769487866561
 20
0.145316258703426
 10
0.1541444369525236
 20
0.1444720295698474
 10
0.1548776931977578
 20
0.1439828952808257
 10
0.155800801043747
 20
0.1440041759331487
 10
0.1560881274453578
 20
0.1441131444638932
 10
0.1562482624250192
 20
0.1445574853423599
 10
0.1567271376230108
 20
0.1447390987494206
 10
0.1568757245733572
 20
0.1450694589257031
 10
0.1564612085464532
 20
0.1452958657433196
 10
0.1568013463449711
 20
0.1456988692548036
 10
0.1571431818529563
 20
0.1456641052153893
 10
0.1575064134031781
 20
0.14629507621411
 10
0.1583519183910909
 20
0.1462321219493559
 10
0.1583619374483893
 20
0.1451946913955782
 10
0.1579788360071799
 20
0.1450494001834217
 10
0.1590158903053132
 20
0.1450590933091149
 10
0.159209138862952
 20
0.1446939690934181
 10
0.158713791244697
 20
0.1441224988300087
 10
0.1580251953239378
 20
0.1439161482405433
 10
0.1575446216475047
 20
0.1441723044120042
 10
0.1574174307393958
 20
0.1445076792738567
 10
0.1571301056205998
 20
0.1443987112296199
 10
0.1567189865505796
 20
0.1437495788901941
 10
0.1562666007783582
 20
0.1429203933268184
 10
0.1557877255803666
 20
0.1427387799197577
 10
0.1549851850041204
 20
0.1425440198575609
 10
0.1542470043679369
 20
0.1427572779924189
 10
0.153796146798757
 20
0.1430795057126284
 10
0.153416273321846
 20
0.1436478586920424
 10
0.1528448497657386
 20
0.1441435663086326
 10
0.1526003175003936
 20
0.145366066313044
 10
0.1529783242752529
 20
0.1468246642331428
 10
0.1539095839626494
 20
0.1478354627170706
 10
0.1551777552809224
 20
0.1485356235215507
 10
0.1563633960155624
 20
0.1488756743093962
 10
0.1572634113926652
 20
0.148668987960991
 10
0.1576750417614781
 20
0.1485812451644168
 10
0.1581598322230748
 20
0.1487965951213459
  0
LWPOLYLINE
  5
893
330
2
100
AcDbEntity
  8
Profilo
  6
Continuous
370
     0
100
AcDbPolyline
 90
       38
 70
   128
 43
0.0
 10
0.1580008023219968
 20
0.1499260106822113
 10
0.1565546115895575
 20
0.1503714440926931
 10
0.1556903584282647
 20
0.150280319137372
 10
0.1550727828667178
 20
0.1506613769029892
 10
0.1543782120971846
 20
0.1508712470254121
 10
0.1540615780715973
 20
0.1510824647554783
 10
0.1541684917876633
 20
0.1515489710977897
 10
0.1537277858541843
 20
0.1517131322405829
 10
0.1531487817392252
 20
0.1514935449442243
 10
0.1529078228528249
 20
0.1508815461519779
 10
0.1529862845319849
 20
0.1506746597070263
 10
0.1534740679343445
 20
0.1503863654806885
 10
0.1537635699918241
 20
0.1504961591288678
 10
0.1542242221950527
 20
0.150528874253153
 10
0.154530882444357
 20
0.1502192181462938
 10
0.154620783601997
 20
0.1497326980176119
 10
0.1541102681588908
 20
0.1492077838718862
 10
0.1535726220304925
 20
0.1490038815909145
 10
0.1527397525656378
 20
0.1488300007600554
 10
0.1521136709817972
 20
0.1487345465472414
 10
0.1515217609171833
 20
0.1491726670227598
 10
0.1512236066901726
 20
0.149958835108051
 10
0.1513761301211307
 20
0.1506792819684559
 10
0.1514459388617828
 20
0.1513683592845973
 10
0.1519978130604267
 20
0.1519089564180858
 10
0.1525454321961313
 20
0.1522112991034739
 10
0.1531814867872789
 20
0.1524051937207034
 10
0.1536364182253713
 20
0.1525777264574106
 10
0.154015821440491
 20
0.1522009999769081
 10
0.1541613053203292
 20
0.1520668607707361
 10
0.154513577336318
 20
0.1520111436408555
 10
0.1548302105929293
 20
0.1517999279384128
 10
0.1555347538559291
 20
0.1516884957062752
 10
0.1559440755791295
 20
0.151607087924889
 10
0.1564732156852351
 20
0.1513344782274295
 10
0.1572661944036771
 20
0.1511145979271333
 10
0.1575001129699824
 20
0.1508720126804262
 10
0.157858103699315
 20
0.1506764794792375
  0
LWPOLYLINE
  5
894
330
2
100
AcDbEntity
  8
Profilo
  6
Continuous
370
     0
100
AcDbPolyline
 90
       12
 70
   129
 43
0.0
 10
0.1505632398087933
 20
0.1524956574131018
 10
0.1507592136175964
 20
0.1521942121906958
 10
0.1510157351062977
 20
0.1519484033623382
 10
0.1516050223809735
 20
0.1520738648444446
 10
0.1521366970504623
 20
0.1523081761377076
 10
0.1523030539435535
 20
0.1527306984259278
 10
0.152189297043078
 20
0.1530306507208596
 10
0.1518859975634044
 20
0.1533567446996127
 10
0.1513990758606596
 20
0.1535641871036208
 10
0.1508491761178439
 20
0.1534209896540686
 10
0.1503888845114432
 20
0.1532137480664684
 10
0.1504677087506208
 20
0.1527044938366995
  0
LWPOLYLINE
  5
895
330
2
100
AcDbEntity
  8
Profilo
  6
Continuous
370
     0
100
AcDbPolyline
 90
        9
 70
   129
 43
0.0
 10
0.1580311653649069
 20
0.1434659625106516
 10
0.1568875068158704
 20
0.1427399410739829
 10
0.1560344529536097
 20
0.1424581763147481
 10
0.1554871433725831
 20
0.1422506091696043
 10
0.1560332889752081
 20
0.1415808703150034
 10
0.1570335855596658
 20
0.1415844343351464
 10
0.1579721646604515
 20
0.1421909234990615
 10
0.1583533400907475
 20
0.1428365503976803
 10
0.1582740269012506
 20
0.1432657787822631
  0
LWPOLYLINE
  5
896
330
2
100
AcDbEntity
  8
Profilo
  6
Continuous
370
     0
100
AcDbPolyline
 90
       24
 70
   129
 43
0.0
 10
0.1599954010919777
 20
0.1422483925739266
 10
0.1598810218246278
 20
0.1411193748319102
 10
0.159692374872777
 20
0.1402962312909812
 10
0.1590544932654128
 20
0.1398872934381439
 10
0.1584379599669274
 20
0.1398622503658364
 10
0.1577484523997228
 20
0.1398095318039108
 10
0.1574024691500524
 20
0.1395112963960505
 10
0.157363523083557
 20
0.1389537063974471
 10
0.1570049901468975
 20
0.1383584225610308
 10
0.1564827807088251
 20
0.1387449502453757
 10
0.1565707648794863
 20
0.1396134269038516
 10
0.156551874219927
 20
0.1397732838906105
 10
0.1558775054782036
 20
0.1393505082929654
 10
0.155516383403052
 20
0.1394223299208246
 10
0.1553263138567429
 20
0.1401435988169313
 10
0.1546179156299789
 20
0.1402507372417654
 10
0.1546883020430227
 20
0.140945518682166
 10
0.1553954060850291
 20
0.1411719319756592
 10
0.1562447081132117
 20
0.1412434966859335
 10
0.1567794672382732
 20
0.1411540174301438
 10
0.1576199714135438
 20
0.1411387337608234
 10
0.1582112730799023
 20
0.1417805392352047
 10
0.1585698072993784
 20
0.1423758235581296
 10
0.1595323225647176
 20
0.1426991015517904
  0
LWPOLYLINE
  5
897
330
2
100
AcDbEntity
  8
Profilo
  6
Continuous
370
     0
100
AcDbPolyline
 90
       13
 70
   128
 43
0.0
 10
0.1580219770748341
 20
0.1352366589038381
 10
0.1576268267974585
 20
0.1358383950406843
 10
0.1571964835704804
 20
0.1360927417143953
 10
0.1568555463396457
 20
0.13567115463717
 10
0.1565976769531518
 20
0.1350305356555834
 10
0.1558527915920287
 20
0.1351238363356089
 10
0.1556035903659314
 20
0.13578092596582
 10
0.1555770658318618
 20
0.1367312405727281
 10
0.1562111956051488
 20
0.136929978376604
 10
0.156758506468992
 20
0.1371375460082564
 10
0.1573071102347772
 20
0.1370115614350738
 10
0.1579475796978169
 20
0.1367533933371261
 10
0.1583238393156341
 20
0.1363115141870397
  0
LWPOLYLINE
  5
898
330
2
100
AcDbEntity
  8
Profilo
  6
Continuous
370
     0
100
AcDbPolyline
 90
       45
 70
   128
 43
0.0
 10
0.1746403230295783
 20
0.1244810611706644
 10
0.1734349526158097
 20
0.1252068069495715
 10
0.172174835431921
 20
0.1256389385755074
 10
0.1708950998082281
 20
0.1251989454033824
 10
0.1696964647832368
 20
0.1246186780590719
 10
0.1686096703663065
 20
0.1233919407548711
 10
0.1683862797670903
 20
0.1222898014668132
 10
0.1685069055257378
 20
0.1214987015858684
 10
0.1692312392941044
 20
0.1209254213410924
 10
0.1701078174931458
 20
0.1208330756057299
 10
0.1709152992854532
 20
0.1212809082938868
 10
0.1711190739778283
 20
0.121510922372809
 10
0.1710543709579779
 20
0.121978785116795
 10
0.1713939939289606
 20
0.1223621402034398
 10
0.1713720351104389
 20
0.1227237114110542
 10
0.1708997829022314
 20
0.1227315494890755
 10
0.1710136748952813
 20
0.1232464612933386
 10
0.1713325108602781
 20
0.1233745381467504
 10
0.1713609095811357
 20
0.1241020373377859
 10
0.1721388233730137
 20
0.1244392198646809
 10
0.1726298128253969
 20
0.1235252768177295
 10
0.1723581135388246
 20
0.1232185917214776
 10
0.1732718748959172
 20
0.1237091177210408
 10
0.1736126696794358
 20
0.123475623366839
 10
0.1734396366195989
 20
0.1227394120622014
 10
0.1729258111128127
 20
0.1222366912088111
 10
0.1723812425467051
 20
0.1222401725110265
 10
0.1721127641210867
 20
0.122478023641035
 10
0.1719089903384976
 20
0.1222480105890469
 10
0.171846629320541
 20
0.1214821758893478
 10
0.1718314033578325
 20
0.1205377343848184
 10
0.1714917803868499
 20
0.1201543792981736
 10
0.1708716755116733
 20
0.1196089686252577
 10
0.170118943022449
 20
0.119454749678999
 10
0.1695699817828506
 20
0.1195305441958014
 10
0.1689694937243003
 20
0.1198572597589571
 10
0.1682331564773571
 20
0.1200306332874543
 10
0.1674485098296659
 20
0.1209994634727032
 10
0.1671053739540387
 20
0.1224666562975258
 10
0.1674602219779437
 20
0.1237944518617642
 10
0.1682577509632708
 20
0.1250037620627404
 10
0.1691495542152337
 20
0.1258558568049723
 10
0.1700425301895185
 20
0.1260911031332919
 10
0.1704477868906746
 20
0.1262047049160619
 10
0.1707769694109906
 20
0.1266206811941393
  0
LWPOLYLINE
  5
899
330
2
100
AcDbEntity
  8
Profilo
  6
Continuous
370
     0
100
AcDbPolyline
 90
       38
 70
   128
 43
0.0
 10
0.1701112898448214
 20
0.1275468241278945
 10
0.1686237483190851
 20
0.1272691574806739
 10
0.1679008380280189
 20
0.1267868318693326
 10
0.1671769156521803
 20
0.1268372400900821
 10
0.1664643722700454
 20
0.1267002877233585
 10
0.1660858489906536
 20
0.1267401645664226
 10
0.1659637200775927
 20
0.1272029206994931
 10
0.1654972048662477
 20
0.1271434719132127
 10
0.1650865694886825
 20
0.1266799603895654
 10
0.1651576210108043
 20
0.1260260831932571
 10
0.1653232403023503
 20
0.1258793573043722
 10
0.1658891280625285
 20
0.1258507696945159
 10
0.1660944457513116
 20
0.12608252545634
 10
0.1664871295440582
 20
0.1263255690133613
 10
0.1669025680778562
 20
0.1261938942714584
 10
0.167208268777066
 20
0.1258048812430648
 10
0.1670001695686301
 20
0.1251028444936839
 10
0.1666188656793714
 20
0.1246724413761262
 10
0.1659622028444074
 20
0.124131423807091
 10
0.1654521949180099
 20
0.1237559486795803
 10
0.164724479847532
 20
0.123868810771798
 10
0.1640951268642956
 20
0.1244263688619602
 10
0.1638953713050339
 20
0.1251351740483155
 10
0.1636369536789468
 20
0.1257777634494257
 10
0.1638743859988656
 20
0.1265129071668865
 10
0.1642187730105418
 20
0.1270351096212918
 10
0.164691864059356
 20
0.1275023840856511
 10
0.16501450588179
 20
0.1278665714179636
 10
0.1655255242697819
 20
0.1277093141513932
 10
0.1657166814452085
 20
0.1276581495131319
 10
0.1660544958657688
 20
0.1277725234134399
 10
0.1664330175219826
 20
0.1277326480083856
 10
0.1671086447399261
 20
0.1279613972470113
 10
0.1675089132085601
 20
0.12807953552604
 10
0.1681041315472589
 20
0.1280840552953375
 10
0.1689084628023414
 20
0.1282578765439162
 10
0.1692283223917297
 20
0.1281517853536176
 10
0.1696361762496412
 20
0.1281450158897073
  0
LWPOLYLINE
  5
89A
330
2
100
AcDbEntity
  8
Profilo
  6
Continuous
370
     0
100
AcDbPolyline
 90
       12
 70
   129
 43
0.0
 10
0.1623314809215213
 20
0.1263657256661519
 10
0.1626450956913503
 20
0.1261898827476333
 10
0.1629864672476611
 20
0.1260914413193319
 10
0.1634499503579301
 20
0.126476387396182
 10
0.1638118350102644
 20
0.1269309412815813
 10
0.1637627808256203
 20
0.1273823760907069
 10
0.1635226593106722
 20
0.1275951051900321
 10
0.1631025575306282
 20
0.1277428967721752
 10
0.1625750064829035
 20
0.1277002941005438
 10
0.1621546416151069
 20
0.1273179479031921
 10
0.1618433836066311
 20
0.1269205364152945
 10
0.1621498412452125
 20
0.1265062456394199
  0
LWPOLYLINE
  5
89B
330
2
100
AcDbEntity
  8
Profilo
  6
Continuous
370
     0
100
AcDbPolyline
 90
        9
 70
   129
 43
0.0
 10
0.1731403090619654
 20
0.1218408459579914
 10
0.1724650486934518
 20
0.1206665012734964
 10
0.1718406496235891
 20
0.1200205770728218
 10
0.1714524923192737
 20
0.119582438048841
 10
0.1722473233989534
 20
0.1192432202612714
 10
0.1731313857543553
 20
0.1197112370460953
 10
0.1736806067066334
 20
0.1206844359877088
 10
0.1737180830079374
 20
0.1214332512704868
 10
0.1734483822899691
 20
0.1217764554529896
  0
LWPOLYLINE
  5
89C
330
2
100
AcDbEntity
  8
Profilo
  6
Continuous
370
     0
100
AcDbPolyline
 90
       24
 70
   129
 43
0.0
 10
0.1754453863854843
 20
0.1216755671785901
 10
0.1758687892803623
 20
0.1206227169199137
 10
0.176084284577513
 20
0.1198061909017598
 10
0.1757095113607585
 20
0.1191476560518847
 10
0.1751752363325991
 20
0.1188389642024665
 10
0.1745892072398076
 20
0.118471854090366
 10
0.1744214511913693
 20
0.1180469933181518
 10
0.1746460911549663
 20
0.1175351727544847
 10
0.1746052681985315
 20
0.116841456530949
 10
0.1739632463333862
 20
0.1169410269716016
 10
0.1736375512198869
 20
0.1177509131448682
 10
0.1735465351255918
 20
0.117883680549804
 10
0.1731458848765213
 20
0.1171959365685895
 10
0.1727927499843611
 20
0.1170917096654902
 10
0.1722892613899933
 20
0.1176420318331939
 10
0.1716122162029068
 20
0.1174076891260309
 10
0.1713516592416004
 20
0.1180555977360838
 10
0.1718725492724138
 20
0.1185846843844613
 10
0.1725913110917023
 20
0.1190427421209579
 10
0.1731063998648441
 20
0.1192120271316268
 10
0.1738577320267112
 20
0.11958909588098
 10
0.1740830417742769
 20
0.1204321779915931
 10
0.1741238656404977
 20
0.1211258952420646
 10
0.1748258958073094
 20
0.121859446836762
  0
LWPOLYLINE
  5
89D
330
2
100
AcDbEntity
  8
Profilo
  6
Continuous
370
     0
100
AcDbPolyline
 90
       13
 70
   128
 43
0.0
 10
0.1769565213110251
 20
0.1145498894811006
 10
0.1763269923906359
 20
0.1148990648789887
 10
0.1758277415942029
 20
0.1149242872043219
 10
0.1757217779526119
 20
0.1143925489550739
 10
0.1757911564357037
 20
0.1137054711384167
 10
0.1750882342163011
 20
0.1134419192999116
 10
0.174562212711785
 20
0.1139079336881075
 10
0.1740970931847032
 20
0.1147370689174512
 10
0.1745662291508836
 20
0.1152077373031464
 10
0.1749543873649841
 20
0.1156458773540629
 10
0.1754986998255728
 20
0.1157892724368299
 10
0.1761857840682666
 20
0.1158583169393319
 10
0.1767242968943607
 20
0.1156419089463805
  0
LWPOLYLINE
  5
89E
330
2
100
AcDbEntity
  8
Profilo
  6
Continuous
370
     0
100
AcDbPolyline
 90
       45
 70
   128
 43
0.0
 10
0.1966697113688305
 20
0.112749211104969
 10
0.1952651379923438
 20
0.1128316635158209
 10
0.193948538058895
 20
0.112628691413037
 10
0.1930198634622808
 20
0.1116443740091126
 10
0.1922281885377242
 20
0.1105735393216669
 10
0.1918359731238803
 20
0.108982258834974
 10
0.1921503602377097
 20
0.1079025481733815
 10
0.1926248114886295
 20
0.1072581216020936
 10
0.193532593802237
 20
0.1070871218414222
 10
0.1943516804535958
 20
0.1074127199548052
 10
0.1948585518448151
 20
0.1081845116069067
 10
0.1949320925016824
 20
0.1084828777804967
 10
0.1946573741644117
 20
0.1088670806737122
 10
0.1947799413786333
 20
0.1093643554095207
 10
0.194592467291935
 20
0.1096743060422076
 10
0.1941706661920692
 20
0.1094617797714186
 10
0.1940322210965881
 20
0.1099706397794637
 10
0.1942550160414074
 20
0.1102322166620784
 10
0.1939420761281942
 20
0.1108895827480776
 10
0.1944741880491945
 20
0.1115496576131996
 10
0.1953336681301856
 20
0.1109685754109249
 10
0.1952356140304738
 20
0.1105707542901726
 10
0.1958167507316339
 20
0.1114297395685844
 10
0.1962270197631506
 20
0.111381365818513
 10
0.1964159410504669
 20
0.1106490706102319
 10
0.1961945971889882
 20
0.1099651467819847
 10
0.1957107878289381
 20
0.109715155690572
 10
0.1953625270576058
 20
0.1098009942612679
 10
0.1952889867290723
 20
0.1095026294197821
 10
0.1955896699208619
 20
0.1087955358602031
 10
0.1960150918522307
 20
0.1079521985814527
 10
0.1958925246380083
 20
0.1074549238456441
 10
0.19559691401773
 20
0.106683809574263
 10
0.1950020716173357
 20
0.1061974432489361
 10
0.194480767111612
 20
0.1060094409519552
 10
0.19379722904897
 20
0.1060196725006817
 10
0.1930646641006399
 20
0.1058309941550846
 10
0.1919196561615726
 20
0.1063242072013999
 10
0.1909339859293295
 20
0.1074638787363709
 10
0.1906311308838484
 20
0.1088044894188238
 10
0.1907753132569567
 20
0.1102459106230196
 10
0.1911689776486129
 20
0.1114148446830478
 10
0.191850344185899
 20
0.1120381315892995
 10
0.1921563877930348
 20
0.1123270531520317
 10
0.192254550623745
 20
0.1128483605990072
  0
LWPOLYLINE
  5
89F
330
2
100
AcDbEntity
  8
Profilo
  6
Continuous
370
     0
100
AcDbPolyline
 90
       38
 70
   128
 43
0.0
 10
0.1912347205587848
 20
0.1133590627207619
 10
0.1900466060764803
 20
0.1124219060984704
 10
0.1896306486913097
 20
0.1116588748160137
 10
0.188966221393275
 20
0.1113670855760054
 10
0.1883989405003064
 20
0.1109146848568985
 10
0.1880452430887187
 20
0.1107740855087824
 10
0.1877220498086993
 20
0.1111270795793411
 10
0.1873365983322888
 20
0.1108576398644887
 10
0.1871884033084266
 20
0.1102563890177004
 10
0.1875551881916166
 20
0.1097104288029307
 10
0.1877700237117832
 20
0.1096574766030169
 10
0.1882843777636109
 20
0.1098951446865417
 10
0.1883584752755416
 20
0.1101957701099359
 10
0.1885932315332424
 20
0.1105934637497725
 10
0.1890222763900171
 20
0.1106699354693443
 10
0.1894737442847001
 20
0.1104675477379278
 10
0.1896157343317215
 20
0.1097492165437144
 10
0.1894781248074206
 20
0.1091909127568842
 10
0.189148102144193
 20
0.1084066990547701
 10
0.1888710045449127
 20
0.1078372198393103
 10
0.1881741952213014
 20
0.1075989682030363
 10
0.1873578206657722
 20
0.107800186458916
 10
0.1868515477076027
 20
0.1083349712450552
 10
0.1863241040786434
 20
0.1087838632433824
 10
0.1861927016367142
 20
0.1095451409785877
 10
0.1862549616102988
 20
0.1101675729129283
 10
0.1864567096588621
 20
0.1108011802758995
 10
0.1865731485123732
 20
0.1112735912749176
 10
0.1870987139189877
 20
0.1113718289668961
 10
0.1872917525848052
 20
0.1114153600985697
 10
0.1875377201972936
 20
0.11167362334686
 10
0.1878914155033513
 20
0.1118142232139423
 10
0.1883833486227981
 20
0.1123307502294883
 10
0.1886828671544594
 20
0.1126213705129269
 10
0.1892078063775138
 20
0.1129019843243046
 10
0.18983922757194
 20
0.1134296867684821
 10
0.1901717522072088
 20
0.1134843938477523
 10
0.1905360347900231
 20
0.1136679389237214
  0
LWPOLYLINE
  5
8A0
330
2
100
AcDbEntity
  8
Profilo
  6
Continuous
370
     0
100
AcDbPolyline
 90
       12
 70
   129
 43
0.0
 10
0.1848949256928565
 20
0.1086977944901912
 10
0.1852543360594101
 20
0.1086878373690547
 10
0.1856023535737528
 20
0.1087593150856856
 10
0.1858338541246294
 20
0.1093155592501782
 10
0.1859430453471429
 20
0.1098862229105348
 10
0.1856898178072983
 20
0.1102631519661754
 10
0.185378340623175
 20
0.1103399241969019
 10
0.1849376767977917
 20
0.1102755561120476
 10
0.1844903519924426
 20
0.1099926681234296
 10
0.1842958225249314
 20
0.1094587640843203
 10
0.1842049035730557
 20
0.1089622248786748
 10
0.1846687888592582
 20
0.1087378065807032
  0
LWPOLYLINE
  5
8A1
330
2
100
AcDbEntity
  8
Profilo
  6
Continuous
370
     0
100
AcDbPolyline
 90
        9
 70
   129
 43
0.0
 10
0.1965684841511557
 20
0.1097143253867481
 10
0.1965163159758214
 20
0.1083606856692576
 10
0.1962636140004363
 20
0.1074985754772859
 10
0.1961235311334493
 20
0.1069302369447156
 10
0.1969849614685817
 20
0.1069992509312909
 10
0.1975502615634124
 20
0.1078245034756069
 10
0.1975843044658454
 20
0.1089414640457136
 10
0.1972694962691666
 20
0.1096219231555686
 10
0.1968711932069675
 20
0.1098004791938383
  0
LWPOLYLINE
  5
8A2
330
2
100
AcDbEntity
  8
Profilo
  6
Continuous
370
     0
100
AcDbPolyline
 90
       24
 70
   129
 43
0.0
 10
0.1986863376354959
 20
0.1106392011412058
 10
0.1995505261919446
 20
0.109903713671911
 10
0.2001207963625191
 20
0.1092808614470861
 10
0.2000949875638254
 20
0.1085235919980745
 10
0.1997653667762318
 20
0.108001968954107
 10
0.1994170683605958
 20
0.107404567794358
 10
0.1994659704024064
 20
0.1069504121405771
 10
0.1999027340876411
 20
0.1066016129348748
 10
0.2001889731587809
 20
0.1059683863508454
 10
0.1995742183386646
 20
0.1057581891598067
 10
0.1989094567664562
 20
0.1063239496857538
 10
0.198767165927765
 20
0.1063992120964174
 10
0.1987320183150505
 20
0.1056040535895155
 10
0.1984677695539396
 20
0.1053476552828876
 10
0.1977662050807876
 20
0.1056009585456694
 10
0.1972756158264603
 20
0.1050788197965833
 10
0.1967438059505877
 20
0.1055314275218713
 10
0.1969591523415532
 20
0.106241980150175
 10
0.1973827142811686
 20
0.1069815954056565
 10
0.1977601320719557
 20
0.1073708635269446
 10
0.19825017107667
 20
0.1080539027886669
 10
0.1980578731575528
 20
0.1089051215842112
 10
0.1977716344147478
 20
0.1095383495003457
 10
0.198052352832196
 20
0.110514126865989
  0
LWPOLYLINE
  5
8A3
330
2
100
AcDbEntity
  8
Profilo
  6
Continuous
370
     0
100
AcDbPolyline
 90
       13
 70
   128
 43
0.0
 10
0.2033358487034302
 20
0.1050319863030849
 10
0.2026161586290422
 20
0.1050486090863778
 10
0.2021623726039943
 20
0.104838928932562
 10
0.2023156575449345
 20
0.1043188543360527
 10
0.2026963901232373
 20
0.1037427189319349
 10
0.2021964620548884
 20
0.1031826911249585
 10
0.2015141254593917
 20
0.1033508719908855
 10
0.2007169642176541
 20
0.1038688829537842
 10
0.2009136329805781
 20
0.1045036574663065
 10
0.2010537161758989
 20
0.1050719973309819
 10
0.2014690419062468
 20
0.1054519219843346
 10
0.2020453382088556
 20
0.1058323618238388
 10
0.2026227374445524
 20
0.1058910014512095
  0
LWPOLYLINE
  5
8A4
330
2
100
AcDbEntity
  8
Profilo
  6
Continuous
370
     0
100
AcDbPolyline
 90
       45
 70
   128
 43
0.0
 10
0.221627828591747
 20
0.1125987409994407
 10
0.2203458230861521
 20
0.1120190111885702
 10
0.2192743575811473
 20
0.1112274338197361
 10
0.2189094921699537
 20
0.1099242874389406
 10
0.2187061405303305
 20
0.1086082007302958
 10
0.2190983559441753
 20
0.1070169202436029
 10
0.2198784984720481
 20
0.1062069869091218
 10
0.2205980841514128
 20
0.1058568640087918
 10
0.2214813530221749
 20
0.1061273187166254
 10
0.2220553052450898
 20
0.1067962700748595
 10
0.2221454481079546
 20
0.107715212524508
 10
0.2220719074510873
 20
0.108013578698098
 10
0.2216501084567497
 20
0.1082261054878533
 10
0.2215275412425282
 20
0.1087233802236618
 10
0.2212174999416074
 20
0.1089107043267834
 10
0.2209427794988086
 20
0.1085265009146017
 10
0.220583713417728
 20
0.1089127354310131
 10
0.2206594277054803
 20
0.1092478882313683
 10
0.2200768399209796
 20
0.1096845265641484
 10
0.2202412495426449
 20
0.110516278570663
 10
0.2212723237235465
 20
0.1104011761428056
 10
0.2213703778232592
 20
0.1100033550220534
 10
0.2214857584537073
 20
0.1110340164039245
 10
0.2218715140423795
 20
0.1111818451011581
 10
0.2223791100866723
 20
0.1106212259963364
 10
0.2225009550816841
 20
0.1099127779001092
 10
0.2221887398215445
 20
0.1094665843613907
 10
0.2218404790502122
 20
0.1093807457906948
 10
0.2219140193787448
 20
0.109082380949209
 10
0.2225088638846673
 20
0.1085960151428482
 10
0.2232774746725257
 20
0.1080469804971234
 10
0.2234000418867481
 20
0.1075497057613148
 10
0.2234966463519798
 20
0.1067295408781073
 10
0.2231959652657176
 20
0.1060224478374945
 10
0.2228217420737293
 20
0.1056137177872953
 10
0.2222117443396208
 20
0.105305121397083
 10
0.2216507734912003
 20
0.104797615112548
 10
0.2204077117807559
 20
0.1047022218548799
 10
0.219005312363489
 20
0.1052532870858682
 10
0.2181141346897437
 20
0.1062995951352965
 10
0.2175719400065397
 20
0.1076429151158393
 10
0.2173772817699309
 20
0.1088608997876932
 10
0.217690946007882
 20
0.1097294397530772
 10
0.2178276656188292
 20
0.1101274926476314
 10
0.2176723208384086
 20
0.1106347060098374
  0
LWPOLYLINE
  5
8A5
330
2
100
AcDbEntity
  8
Profilo
  6
Continuous
370
     0
100
AcDbPolyline
 90
       38
 70
   128
 43
0.0
 10
0.2165319710522562
 20
0.1106129716181252
 10
0.2159154663229463
 20
0.1092310163089696
 10
0.2159017526677838
 20
0.1083620806266836
 10
0.2154490327343153
 20
0.1077949393243633
 10
0.2151569715466168
 20
0.1071307298055997
 10
0.2149091278173127
 20
0.1068418638825506
 10
0.2144589098558853
 20
0.1070042292030733
 10
0.2142428244024623
 20
0.1065865239512203
 10
0.2143910194263245
 20
0.1059852731044319
 10
0.2149695116740808
 20
0.1056723027768713
 10
0.2151843471942483
 20
0.1057252549767851
 10
0.2155293352230885
 20
0.1061747318599666
 10
0.2154552377111569
 20
0.1064753572833608
 10
0.2154782866042915
 20
0.1069365941858535
 10
0.2158226487779071
 20
0.1072036936175298
 10
0.2163164580141696
 20
0.1072342957733223
 10
0.21677600910804
 20
0.106664231154042
 10
0.2169136186323408
 20
0.1061059273672109
 10
0.2169858403557905
 20
0.1052581714403731
 10
0.2170051328042355
 20
0.1046251489622563
 10
0.216498859846066
 20
0.1040903641761171
 10
0.2156824852905377
 20
0.1038891459202373
 10
0.2149856759669255
 20
0.1041273975565113
 10
0.214310037314104
 20
0.1042797564049724
 10
0.2138399028262006
 20
0.104892768603178
 10
0.2136057727520599
 20
0.1054728383624148
 10
0.2134899597537743
 20
0.1061276268129383
 10
0.2133735209002632
 20
0.1066000378119565
 10
0.213793232624595
 20
0.1069312653911423
 10
0.213943929948833
 20
0.1070595198350928
 10
0.2140417025374584
 20
0.1074025074335916
 10
0.2142895441612334
 20
0.1076913728376736
 10
0.2144850872329549
 20
0.108377347515705
 10
0.2146152397416285
 20
0.1087738721989719
 10
0.2149496425992412
 20
0.1092662948100065
 10
0.2152635027468186
 20
0.1100269881793237
 10
0.2155325150413834
 20
0.1102299607955945
 10
0.215769773599459
 20
0.1105617724464967
  0
LWPOLYLINE
  5
8A6
330
2
100
AcDbEntity
  8
Profilo
  6
Continuous
370
     0
100
AcDbPolyline
 90
       12
 70
   129
 43
0.0
 10
0.2130845608446714
 20
0.1035393739959804
 10
0.2134074302243381
 20
0.1036975837286818
 10
0.2136823670782428
 20
0.1039226059067646
 10
0.2136288510834046
 20
0.1045227193242821
 10
0.2134603344829165
 20
0.1050787605922521
 10
0.2130609449655267
 20
0.1052948339902473
 10
0.2127494677814026
 20
0.1052180617595217
 10
0.2123891926825019
 20
0.1049562799601906
 10
0.2121245708415849
 20
0.1044979128836081
 10
0.2122004411310323
 20
0.1039347619838606
 10
0.2123506896719389
 20
0.1034528462085342
 10
0.212865732077117
 20
0.1034697119159968
  0
LWPOLYLINE
  5
8A7
330
2
100
AcDbEntity
  8
Profilo
  6
Continuous
370
     0
100
AcDbPolyline
 90
        9
 70
   129
 43
0.0
 10
0.2229485780596594
 20
0.1098644405193774
 10
0.2235314531777792
 20
0.1086416083150414
 10
0.2237083392740438
 20
0.1077608111872008
 10
0.2238484221410308
 20
0.1071924726546305
 10
0.2245791084231969
 20
0.1076539081427343
 10
0.2246961428183356
 20
0.1086473410340112
 10
0.2242072088522375
 20
0.109652181026834
 10
0.2236122349215854
 20
0.1101083989821197
 10
0.2231765759466331
 20
0.1100814018396221
  0
LWPOLYLINE
  5
8A8
330
2
100
AcDbEntity
  8
Profilo
  6
Continuous
370
     0
100
AcDbPolyline
 90
       24
 70
   129
 43
0.0
 10
0.2243940329944607
 20
0.1116675929183097
 10
0.2255010320287987
 20
0.1114179595540268
 10
0.2262954350492192
 20
0.1111314690610552
 10
0.2266245031533369
 20
0.1104489463175904
 10
0.2265750487563851
 20
0.1098338896322071
 10
0.2265442719874766
 20
0.1091430548310424
 10
0.2267986292510908
 20
0.1087636458828074
 10
0.2273474593612486
 20
0.1086577737296119
 10
0.2278951865383192
 20
0.1082301013642812
 10
0.2274485316839225
 20
0.1077582901848677
 10
0.2265969925179521
 20
0.1079503161451543
 10
0.2264360240512193
 20
0.107950831850272
 10
0.2267744309693578
 20
0.107230420048916
 10
0.2266596045459241
 20
0.1068805881008732
 10
0.2259206841600188
 20
0.1067788437338644
 10
0.2257289389243766
 20
0.1060885246378174
 10
0.2250477073674952
 20
0.1062421445029908
 10
0.2249081768556493
 20
0.1069713840671644
 10
0.224939505979699
 20
0.1078231198999306
 10
0.2250927909206402
 20
0.1083431944964399
 10
0.225209274737832
 20
0.1091757282071857
 10
0.2246434222878602
 20
0.1098400797199002
 10
0.2240956947824557
 20
0.1102677534173342
 10
0.2238907922441271
 20
0.1112622177188474
  0
LWPOLYLINE
  5
8A9
330
2
100
AcDbEntity
  8
Profilo
  6
Continuous
370
     0
100
AcDbPolyline
 90
       13
 70
   128
 43
0.0
 10
0.2311167732518076
 20
0.1088633862847068
 10
0.2304717943462577
 20
0.108543648374078
 10
0.2301674300022167
 20
0.1081471009374324
 10
0.2305448477930039
 20
0.1077578328161453
 10
0.2311497132211526
 20
0.1074246255024658
 10
0.2309673067995313
 20
0.1066964173485285
 10
0.2302849702040337
 20
0.1065282364826023
 10
0.2293383872812891
 20
0.1066164531101643
 10
0.2292175343974856
 20
0.1072699145585565
 10
0.2290774512021647
 20
0.1078382544232319
 10
0.2292686440826657
 20
0.1083676724876756
 10
0.2296021299073869
 20
0.1089723534817493
 10
0.2300861403462031
 20
0.1092926070974958
  0
LWPOLYLINE
  5
8AA
330
2
100
AcDbEntity
  8
Profilo
  6
Continuous
370
     0
100
AcDbPolyline
 90
       45
 70
   128
 43
0.0
 10
0.2437970708204773
 20
0.1240641217418936
 10
0.2429313251972633
 20
0.1229550188224699
 10
0.24235045395534
 20
0.1217561770232436
 10
0.2426329839981669
 20
0.1204327367968014
 10
0.2430645410534629
 20
0.1191728976713433
 10
0.2441513354703924
 20
0.1179461603671434
 10
0.2452185121609096
 20
0.1175915503259493
 10
0.2460183838615233
 20
0.1176159400336045
 10
0.2466747930356927
 20
0.1182658912957102
 10
0.2468721252927688
 20
0.1191249472043623
 10
0.2465248889837355
 20
0.119980521810799
 10
0.2463211142913604
 20
0.1202105358897221
 10
0.245848863706331
 20
0.1202026992497105
 10
0.2455092407353483
 20
0.1205860543363553
 10
0.2451476589458439
 20
0.1206078382153866
 10
0.2450829543028163
 20
0.1201399740333908
 10
0.2445855249480964
 20
0.1203151013850894
 10
0.2444968133479142
 20
0.1206470506356512
 10
0.243778041532611
 20
0.1207629326352357
 10
0.2435370845919689
 20
0.1215758174221477
 10
0.2445035462037275
 20
0.121953063347795
 10
0.2447752454902998
 20
0.1216463782515431
 10
0.244398437738087
 20
0.1226126036351038
 10
0.2446713079274092
 20
0.1229227690066352
 10
0.2453812945921268
 20
0.1226622570859952
 10
0.2458184152236633
 20
0.1220915816429073
 10
0.2457493188169302
 20
0.1215514032193887
 10
0.2454808403913127
 20
0.1213135520893811
 10
0.2456846141739026
 20
0.1210835390373939
 10
0.246437348286304
 20
0.120929321529144
 10
0.2473730684619184
 20
0.1208003667371962
 10
0.2477126914329011
 20
0.1204170116505505
 10
0.2481793800648679
 20
0.1197356860462024
 10
0.2482417427060017
 20
0.1189698527845122
 10
0.2481003308511545
 20
0.1184340301098645
 10
0.2477036165751931
 20
0.1178773014947225
 10
0.2474427514876263
 20
0.1171672308449212
 10
0.2463864064631496
 20
0.1165050847289892
 10
0.2448885506666096
 20
0.1163413012526311
 10
0.2436132084297986
 20
0.1168536101042887
 10
0.2425088469580512
 20
0.1177910904423971
 10
0.241770459949298
 20
0.1187791001160621
 10
0.2416445651910637
 20
0.1196939211015495
 10
0.2415806399906035
 20
0.1201099162068404
 10
0.2412073752161392
 20
0.1204868390155811
  0
LWPOLYLINE
  5
8AB
330
2
100
AcDbEntity
  8
Profilo
  6
Continuous
370
     0
100
AcDbPolyline
 90
       38
 70
   128
 43
0.0
 10
0.2402077461020964
 20
0.1199376471976148
 10
0.2403040849295799
 20
0.1184274825085545
 10
0.2406957566375558
 20
0.1176517051194423
 10
0.240558456749544
 20
0.1169391369923769
 10
0.2406085229654984
 20
0.1162152810701134
 10
0.2405233109300209
 20
0.1158443242738905
 10
0.2400492077964342
 20
0.1157788649061588
 10
0.2400519909392651
 20
0.1153085853566109
 10
0.2404626263168295
 20
0.1148450738329636
 10
0.241120300326779
 20
0.1148367911229551
 10
0.2412859196183241
 20
0.1149835170118401
 10
0.2413825090243273
 20
0.1155418329575237
 10
0.2411771913355443
 20
0.1157735887193478
 10
0.2409832526404649
 20
0.1161927050686433
 10
0.2411640429069601
 20
0.1165892429515241
 10
0.2415870677398209
 20
0.1168458244094292
 10
0.2422589022631261
 20
0.1165546212993345
 10
0.2426402061523847
 20
0.1161242181817776
 10
0.2430981271360357
 20
0.1154071306964877
 10
0.243409389964766
 20
0.1148555827767028
 10
0.2432096344055052
 20
0.1141467775903475
 10
0.2425802814222679
 20
0.1135892195001862
 10
0.241852566351791
 20
0.1134763574079685
 10
0.2411835133481395
 20
0.1132972795305056
 10
0.2404823489597065
 20
0.1136215924846997
 10
0.2400054652162531
 20
0.114026413077589
 10
0.2395986225333271
 20
0.1145523784727063
 10
0.2392759807108939
 20
0.1149165658050188
 10
0.2394936878549725
 20
0.1154049030247473
 10
0.239567520896748
 20
0.1155884992334979
 10
0.239494699939744
 20
0.1159376368568381
 10
0.2395799103520444
 20
0.1163085922150504
 10
0.2394342668148583
 20
0.1170068660237202
 10
0.2393652369293164
 20
0.1174184560805198
 10
0.239432495756799
 20
0.118009879405359
 10
0.2393568932801413
 20
0.1188292980162551
 10
0.2395007657592671
 20
0.1191340375892231
 10
0.2395566472162258
 20
0.1195381017646007
  0
LWPOLYLINE
  5
8AC
330
2
100
AcDbEntity
  8
Profilo
  6
Continuous
370
     0
100
AcDbPolyline
 90
       12
 70
   129
 43
0.0
 10
0.2404424806856165
 20
0.1120721961530355
 10
0.2406548435945117
 20
0.1123623287964479
 10
0.2407937150680972
 20
0.1126893455667952
 10
0.2404674423970245
 20
0.1131958494855345
 10
0.2400598230958613
 20
0.1136098860076506
 10
0.2396057669261955
 20
0.1136156039364859
 10
0.2393656454112474
 20
0.1134028748371616
 10
0.2391682937222006
 20
0.1130036503787686
 10
0.2391469965204314
 20
0.1124748105875444
 10
0.2394758855978605
 20
0.1120114239115866
 10
0.2398328815015196
 20
0.1116545326629916
 10
0.2402810910175805
 20
0.1119088186455626
  0
LWPOLYLINE
  5
8AD
330
2
100
AcDbEntity
  8
Profilo
  6
Continuous
370
     0
100
AcDbPolyline
 90
        9
 70
   129
 43
0.0
 10
0.246237229187634
 20
0.1222568017880787
 10
0.2473216179340527
 20
0.1214449132181841
 10
0.2478875696290217
 20
0.1207472091617063
 10
0.2482757269333371
 20
0.1203090701377256
 10
0.2487082777410183
 20
0.1210572178179357
 10
0.2483502352669546
 20
0.1219912475529457
 10
0.2474503333116669
 20
0.1226537702357628
 10
0.2467114950043401
 20
0.1227812330009463
 10
0.2463382843375355
 20
0.1225548673976773
  0
LWPOLYLINE
  5
8AE
330
2
100
AcDbEntity
  8
Profilo
  6
Continuous
370
     0
100
AcDbPolyline
 90
       24
 70
   129
 43
0.0
 10
0.2466791492669538
 20
0.1245251503472318
 10
0.2477753586411984
 20
0.1248185590833097
 10
0.2486119063530809
 20
0.1249340618415466
 10
0.2492204658230577
 20
0.1244826435388644
 10
0.2494625072230994
 20
0.1239150552864512
 10
0.2497563026877749
 20
0.1232890487713565
 10
0.2501578449894355
 20
0.1230713045463343
 10
0.2506930111603998
 20
0.1232326134800434
 10
0.2513767487479619
 20
0.1231084699182992
 10
0.2512005171036522
 20
0.1224831310057723
 10
0.2503572777046852
 20
0.1222574315670615
 10
0.250214507545758
 20
0.1221830824248062
 10
0.2508489440480508
 20
0.1217024549907828
 10
0.2509098453120941
 20
0.1213393316846893
 10
0.2503028467688892
 20
0.1209058480962195
 10
0.2504538720746368
 20
0.1202054924388696
 10
0.249779280776699
 20
0.1200249319841378
 10
0.2493168381207802
 20
0.1206057984883175
 10
0.2489487573045022
 20
0.1213745324836113
 10
0.2488427936629112
 20
0.1219062707328602
 10
0.2485590372538438
 20
0.1226975754526158
 10
0.2477492602500444
 20
0.1230228647572407
 10
0.2470655217526962
 20
0.1231470093459208
 10
0.2464219389607782
 20
0.1239323407964203
  0
LWPOLYLINE
  5
8AF
330
2
100
AcDbEntity
  8
Profilo
  6
Continuous
370
     0
100
AcDbPolyline
 90
       13
 70
   128
 43
0.0
 10
0.2539350199385568
 20
0.1251663618635517
 10
0.2535125090962689
 20
0.1245835113610676
 10
0.2534272926364682
 20
0.1240909408804125
 10
0.2539423814096091
 20
0.1239216558697445
 10
0.2546328123074337
 20
0.1239077104264838
 10
0.2548097146454973
 20
0.1231781456377936
 10
0.2542836931409811
 20
0.1227121312495978
 10
0.2534045392772679
 20
0.122350344175576
 10
0.2529938506859821
 20
0.1228727924170743
 10
0.2526056924718816
 20
0.1233109324679908
 10
0.2525289525177374
 20
0.1238685606451408
 10
0.2525432302810664
 20
0.1245589576652373
 10
0.2528229709644263
 20
0.1250674590254661
  0
LWPOLYLINE
  5
8B0
330
2
100
AcDbEntity
  8
Profilo
  6
Continuous
370
     0
100
AcDbPolyline
 90
       45
 70
   128
 43
0.0
 10
0.25809873182875
 20
0.1445187727770492
 10
0.2578475779768299
 20
0.1431343788617729
 10
0.2578903715992551
 20
0.1418029128407472
 10
0.2587555728681465
 20
0.1407623629753525
 10
0.259723174097819
 20
0.1398473853940176
 10
0.2612555760142081
 20
0.139266222004915
 10
0.2623653095484455
 20
0.1394481721439309
 10
0.2630622263031963
 20
0.1398414870714753
 10
0.2633414003495593
 20
0.1407220388864658
 10
0.2631169061988112
 20
0.1415743999896097
 10
0.2624118383716292
 20
0.1421706049212927
 10
0.2621245119700184
 20
0.1422795734520372
 10
0.2617099967120895
 20
0.1420531686620432
 10
0.2612311215140979
 20
0.1422347820691039
 10
0.2609008332664526
 20
0.1420860352998821
 10
0.261060967477138
 20
0.1416416923937929
 10
0.2605391299192714
 20
0.1415655930150184
 10
0.2603063151896663
 20
0.1418182931429062
 10
0.259616021304307
 20
0.1415868716397197
 10
0.2590248981326129
 20
0.1421946670986713
 10
0.2597053424670994
 20
0.1429778388825644
 10
0.2600884439083089
 20
0.1428325476704071
 10
0.2593057698884422
 20
0.143512986464561
 10
0.2594032434064823
 20
0.1439144333616706
 10
0.2601529713030048
 20
0.1440137087667219
 10
0.2608052285022548
 20
0.1437115408434009
 10
0.2609950801030099
 20
0.1432011259020554
 10
0.2608678891949001
 20
0.142865751040202
 10
0.2611552143136961
 20
0.1427567829959662
 10
0.2618933957188547
 20
0.1429700431584466
 10
0.2627818630666425
 20
0.1432907102090359
 10
0.2632607382646341
 20
0.1431090968019744
 10
0.2639905983219606
 20
0.1427226939615771
 10
0.2644017181609568
 20
0.142073563649773
 10
0.2645255133949993
 20
0.1415333988680745
 10
0.2644329650368835
 20
0.1408560778444237
 10
0.2645319667579642
 20
0.1401061114579489
 10
0.2639043343342253
 20
0.1390289021791853
 10
0.2626541628702812
 20
0.1381877908161098
 10
0.2612868216073183
 20
0.1380487366860734
 10
0.2598732892512059
 20
0.1383656119341499
 10
0.2587603290354856
 20
0.1388973055001967
 10
0.2582237162529815
 20
0.1396488330428003
 10
0.257973790734157
 20
0.1399874708934909
 10
0.2574681164271499
 20
0.1401477546756951
  0
LWPOLYLINE
  5
8B1
330
2
100
AcDbEntity
  8
Profilo
  6
Continuous
370
     0
100
AcDbPolyline
 90
       38
 70
   128
 43
0.0
 10
0.2568382109684082
 20
0.1391969186584925
 10
0.2576253232883161
 20
0.1379045051203338
 10
0.2583326530912897
 20
0.1373996072751096
 10
0.2585422269984354
 20
0.1367048530938328
 10
0.2589229510513311
 20
0.1360871774364503
 10
0.2590198917600901
 20
0.1357191114985543
 10
0.2586305147686883
 20
0.1354408233948448
 10
0.2588515289232909
 20
0.1350257049249208
 10
0.25943053303825
 20
0.1348061176285622
 10
0.2600167236205433
 20
0.1351044200051508
 10
0.2600951852997033
 20
0.1353113064501024
 10
0.2599212486139812
 20
0.13585055800357
 10
0.2596317465565017
 20
0.1359603516517494
 10
0.2592652492910359
 20
0.1362413329431229
 10
0.2592410507791163
 20
0.1366764672270397
 10
0.2594963813173683
 20
0.1371002482671928
 10
0.2602265900773029
 20
0.13715461778943
 10
0.2607642362057012
 20
0.1369507155084575
 10
0.2615029522707442
 20
0.136528572565755
 10
0.2620348789168219
 20
0.1361848521858526
 10
0.2621874023477808
 20
0.1354644053254468
 10
0.2618892481207693
 20
0.1346782372401556
 10
0.2612973380561554
 20
0.1342401167646372
 10
0.2607881426818484
 20
0.1337706267448544
 10
0.260016576704329
 20
0.1337319442656266
 10
0.2594061876101152
 20
0.1338687761729558
 10
0.2588015179982221
 20
0.1341454261792148
 10
0.2583465865601298
 20
0.134317958915922
 10
0.2583124150409031
 20
0.1348515336042544
 10
0.2582924695401294
 20
0.1350484118989552
 10
0.2580657374411581
 20
0.1353237163251935
 10
0.2579687959634223
 20
0.1356917802354669
 10
0.2575153309965037
 20
0.1362423870603209
 10
0.2572629326316225
 20
0.1365747521688378
 10
0.2570476392421561
 20
0.1371296882511839
 10
0.2565998937575582
 20
0.1378201131749686
 10
0.2565856669701283
 20
0.1381568075409767
 10
0.2564473695576241
 20
0.138540558007751
  0
LWPOLYLINE
  5
8B2
330
2
100
AcDbEntity
  8
Profilo
  6
Continuous
370
     0
100
AcDbPolyline
 90
       12
 70
   129
 43
0.0
 10
0.2607013154788076
 20
0.1323414942368313
 10
0.2607545221337544
 20
0.1326970838988251
 10
0.2607255144460039
 20
0.1330511796603302
 10
0.2602012302356274
 20
0.1333480401365428
 10
0.2596478889033404
 20
0.1335252211352671
 10
0.2592431848778984
 20
0.1333192736863564
 10
0.259129427977423
 20
0.1330193213914255
 10
0.2591402105918457
 20
0.1325741117862105
 10
0.2593671169614904
 20
0.1320959501033041
 10
0.259873680302805
 20
0.1318384839541835
 10
0.2603556401099558
 20
0.131688376716367
 10
0.2606343373382804
 20
0.1321218291199182
  0
LWPOLYLINE
  5
8B3
330
2
100
AcDbEntity
  8
Profilo
  6
Continuous
370
     0
100
AcDbPolyline
 90
        9
 70
   129
 43
0.0
 10
0.2610992882203309
 20
0.1440524685703348
 10
0.2624367702015462
 20
0.1438375175219271
 10
0.2632621347823596
 20
0.1434827421279055
 10
0.2638094443633863
 20
0.1432751749827616
 10
0.2638447675193447
 20
0.1441386432376976
 10
0.2630936713920091
 20
0.1447992948604284
 10
0.2619889581404919
 20
0.1449677242708702
 10
0.2612755144087329
 20
0.1447372316625408
 10
0.261050250116166
 20
0.1443633552302073
  0
LWPOLYLINE
  5
8B4
330
2
100
AcDbEntity
  8
Profilo
  6
Continuous
370
     0
100
AcDbPolyline
 90
       24
 70
   129
 43
0.0
 10
0.2604364348797121
 20
0.14626636197137
 10
0.2612707262369787
 20
0.1470355964023327
 10
0.2619577756410232
 20
0.1475266321218251
 10
0.2627064128362244
 20
0.14740973275289
 10
0.2631845012654255
 20
0.1470196405618935
 10
0.2637355639633458
 20
0.1466018728812806
 10
0.2641923028008533
 20
0.1465956759573217
 10
0.264591204912306
 20
0.1469872120452065
 10
0.2652543168689823
 20
0.1471950370809525
 10
0.2653888809806482
 20
0.1465594280440214
 10
0.2647471173328517
 20
0.1459677082277482
 10
0.2646552524045731
 20
0.1458355267306057
 10
0.2654403767341336
 20
0.1457047896168619
 10
0.2656630539400009
 20
0.1454115621260339
 10
0.265327033290621
 20
0.1447456451821774
 10
0.2657862310602637
 20
0.1441956960044228
 10
0.2652728207579198
 20
0.1437223194539747
 10
0.2645934059973616
 20
0.1440217433822539
 10
0.2639102381199097
 20
0.1445313678460014
 10
0.2635693008890749
 20
0.1449529549232276
 10
0.2629503094274295
 20
0.1455217522769541
 10
0.2620821180225032
 20
0.1454334595139617
 10
0.2614190047830123
 20
0.1452256349647243
 10
0.2604841787991194
 20
0.145621923593171
  0
LWPOLYLINE
  5
8B5
330
2
100
AcDbEntity
  8
Profilo
  6
Continuous
370
     0
100
AcDbPolyline
 90
       13
 70
   128
 43
0.0
 10
0.2665632034374283
 20
0.1502060978066604
 10
0.2664599528005622
 20
0.1494936587383293
 10
0.2666134062889718
 20
0.1490179071746658
 10
0.2671481654140333
 20
0.1491073864304555
 10
0.2677659923834366
 20
0.1494158975906039
 10
0.2682616772874384
 20
0.1488521106680407
 10
0.268012476061342
 20
0.1481950210378295
 10
0.2674021548118848
 20
0.1474661113208739
 10
0.2667957143200459
 20
0.1477378597595367
 10
0.2662484034562027
 20
0.1479454273911882
 10
0.2659213108660907
 20
0.1484035197858073
 10
0.265613109704514
 20
0.1490214711948088
 10
0.2656244954131024
 20
0.1496017287659974
  0
LWPOLYLINE
  5
8B6
330
2
100
AcDbEntity
  8
Profilo
  6
Continuous
370
     0
100
AcDbPolyline
 90
       45
 70
   128
 43
0.0
 10
0.2612564734332681
 20
0.1692767800580208
 10
0.2616774476733843
 20
0.1679342431091264
 10
0.2623341026569799
 20
0.1667751756858138
 10
0.2635837679680391
 20
0.1662558936156424
 10
0.2648657475912293
 20
0.1658953879156382
 10
0.2664927021954782
 20
0.1660929359702985
 10
0.2673907659944801
 20
0.1667697637054131
 10
0.2678250725736131
 20
0.1674419001429044
 10
0.2676630560825597
 20
0.1683513287017666
 10
0.2670681644284754
 20
0.1690017293427362
 10
0.2661667876253633
 20
0.1692019812348651
 10
0.2658617325304675
 20
0.1691649408402513
 10
0.2655999130497806
 20
0.1687718345091893
 10
0.2650914901615682
 20
0.1687101007937866
 10
0.2648681605129122
 20
0.1684248994685484
 10
0.2652164487594701
 20
0.1681058714432382
 10
0.26478974969414
 20
0.1677959787845706
 10
0.2644661668839419
 20
0.1679115392358508
 10
0.2639624889387191
 20
0.1673858301073414
 10
0.2631566187308012
 20
0.1676492976234174
 10
0.2633951641912278
 20
0.1686589800481082
 10
0.2638019038637669
 20
0.1687083671858032
 10
0.2627926647619532
 20
0.1689471390629862
 10
0.2626924116004119
 20
0.1693479008395053
 10
0.2633101271028471
 20
0.1697842207713487
 10
0.2640280966060144
 20
0.169819783397509
 10
0.2644334035004832
 20
0.1694560618502319
 10
0.2644766380141128
 20
0.1690999935956796
 10
0.2647816917470411
 20
0.1691370338249207
 10
0.2653362119810856
 20
0.1696689163249703
 10
0.2659738893388601
 20
0.1703657442612645
 10
0.2664823122270725
 20
0.1704274779766663
 10
0.2673081415663931
 20
0.170424518134296
 10
0.2679738360026693
 20
0.1700407987039432
 10
0.2683344783293755
 20
0.1696200370569905
 10
0.2685672976026208
 20
0.1689772897087467
 10
0.269003486031151
 20
0.1683592358466637
 10
0.2689483492326374
 20
0.1671137390690554
 10
0.268232261317479
 20
0.165787988296052
 10
0.2670861624334613
 20
0.1650294268097294
 10
0.2656872824208571
 20
0.1646531046671997
 10
0.2644547147709666
 20
0.1646066775372486
 10
0.2636303154857797
 20
0.1650227457338467
 10
0.2632516445730246
 20
0.1652064484793723
 10
0.2627294046231743
 20
0.165113374152166
  0
LWPOLYLINE
  5
8B7
330
2
100
AcDbEntity
  8
Profilo
  6
Continuous
370
     0
100
AcDbPolyline
 90
       38
 70
   128
 43
0.0
 10
0.2626135265691474
 20
0.1639787190084521
 10
0.2639110944347207
 20
0.1632001329875159
 10
0.2647720415990786
 20
0.1630817806978415
 10
0.2652804784448941
 20
0.1625640002725888
 10
0.2659046410424342
 20
0.1621940069293943
 10
0.2661615265473172
 20
0.1619131513205225
 10
0.2659460772743269
 20
0.1614857869316593
 10
0.2663346907613917
 20
0.1612209281800991
 10
0.2669494207487641
 20
0.1612955699143121
 10
0.2673298387053604
 20
0.1618321198979542
 10
0.2673031681470048
 20
0.1620517717076852
 10
0.2668985521680938
 20
0.1624484228367233
 10
0.2665911871744067
 20
0.1624111019696164
 10
0.2661360914453033
 20
0.162489578775407
 10
0.2659124477424246
 20
0.1628636254398508
 10
0.265941590836821
 20
0.1633575229330688
 10
0.2665628918064531
 20
0.1637450096853152
 10
0.2671337119253136
 20
0.1638143197962103
 10
0.2679839921237415
 20
0.1637838292568938
 10
0.2686147246029611
 20
0.1637266786136298
 10
0.2690845857442135
 20
0.1631596357725664
 10
0.2691859338136879
 20
0.1623249593261349
 10
0.2688654282174507
 20
0.1616619485883328
 10
0.2686327409962725
 20
0.1610096009317941
 10
0.2679675298967377
 20
0.160616784708961
 10
0.2673634682372636
 20
0.1604542813897627
 10
0.2666994942174279
 20
0.1604182388247244
 10
0.2662164924736263
 20
0.1603595917950917
 10
0.2659382705743374
 20
0.1608161684212028
 10
0.2658291158048724
 20
0.1609812263571788
 10
0.2655004141553894
 20
0.1611196286600425
 10
0.2652435289118964
 20
0.1614004821161838
 10
0.2645861258743212
 20
0.161677284569179
 10
0.2642081804537648
 20
0.161854283888486
 10
0.2637596559683093
 20
0.1622456035595787
 10
0.2630423405703732
 20
0.1626488667667338
 10
0.2628732737019375
 20
0.1629403833041376
 10
0.2625724796905109
 20
0.163215907455065
  0
LWPOLYLINE
  5
8B8
330
2
100
AcDbEntity
  8
Profilo
  6
Continuous
370
     0
100
AcDbPolyline
 90
       12
 70
   129
 43
0.0
 10
0.2692200103185494
 20
0.159703816327891
 10
0.2691018717161082
 20
0.1600434017022243
 10
0.2689116301787067
 20
0.1603434573832416
 10
0.2683094416233134
 20
0.1603626672593839
 10
0.2677371420906436
 20
0.1602624027031725
 10
0.2674745030244425
 20
0.1598919699551242
 10
0.2675131710734186
 20
0.1595735099205378
 10
0.2677296178242914
 20
0.1591843073236996
 10
0.2681527462505828
 20
0.1588663648281914
 10
0.2687209362990375
 20
0.1588738015978679
 10
0.2692174488261063
 20
0.1589648661300265
 10
0.2692627875903515
 20
0.1594781862325707
  0
LWPOLYLINE
  5
8B9
330
2
100
AcDbEntity
  8
Profilo
  6
Continuous
370
     0
100
AcDbPolyline
 90
        9
 70
   129
 43
0.0
 10
0.2641300365405881
 20
0.1702583162725899
 10
0.2654142107531072
 20
0.1706895454404185
 10
0.2663099071410215
 20
0.1707589734761168
 10
0.2668909869695435
 20
0.1708295293413062
 10
0.2665209903644392
 20
0.1716105079996826
 10
0.2655489076549129
 20
0.171846434185082
 10
0.2644924595998521
 20
0.1714821851750115
 10
0.2639678518046775
 20
0.1709465402719994
 10
0.2639421392210455
 20
0.1705108035955503
  0
LWPOLYLINE
  5
8BA
330
2
100
AcDbEntity
  8
Profilo
  6
Continuous
370
     0
100
AcDbPolyline
 90
       24
 70
   129
 43
0.0
 10
0.2625142614921163
 20
0.1719105782176378
 10
0.2628955087367562
 20
0.1729794160056306
 10
0.2632756650943397
 20
0.1737334943206656
 10
0.2639928762553998
 20
0.1739778941221095
 10
0.2645974874162205
 20
0.1738546634123681
 10
0.2652795755243185
 20
0.1737408401072189
 10
0.2656868775342991
 20
0.1739476101249204
 10
0.2658581319197992
 20
0.1744796771677688
 10
0.266348707287678
 20
0.1749718605898778
 10
0.2667632401390119
 20
0.1744715917989845
 10
0.2664699725600048
 20
0.17364940748406
 10
0.2664500580103519
 20
0.1734896748200674
 10
0.2672060076450515
 20
0.1737387783238073
 10
0.2675394481284306
 20
0.1735826215326197
 10
0.2675513836541592
 20
0.1728368247800454
 10
0.2682135572126052
 20
0.1725632688109027
 10
0.267978944018858
 20
0.1719055210276403
 10
0.2672382028874676
 20
0.1718549079664999
 10
0.2663964534765011
 20
0.1719886740756982
 10
0.2658986472672682
 20
0.172203529462184
 10
0.2650862242372529
 20
0.1724195148308931
 10
0.2643585106192265
 20
0.171937866808241
 10
0.2638679338893786
 20
0.1714456832207594
 10
0.2628560220805474
 20
0.1713621440781727
  0
LWPOLYLINE
  5
8BB
330
2
100
AcDbEntity
  8
Profilo
  6
Continuous
370
     0
100
AcDbPolyline
 90
       13
 70
   128
 43
0.0
 10
0.2661083590949387
 20
0.1782462923709973
 10
0.2663480221400949
 20
0.1775674759415535
 10
0.2667049912318351
 20
0.1772175322446881
 10
0.2671369138378115
 20
0.1775452771477752
 10
0.2675406001657254
 20
0.1781055687225059
 10
0.2682415121978101
 20
0.1778367164556602
 10
0.2683262202478307
 20
0.1771390828989263
 10
0.2681245488557122
 20
0.1762100349708771
 10
0.2674612846716
 20
0.1761688293143298
 10
0.2668802034811097
 20
0.1760982732837677
 10
0.2663776912255322
 20
0.1763518864488605
 10
0.2658176163109411
 20
0.1767558270260858
 10
0.265558038716132
 20
0.1772749107915361
  0
LWPOLYLINE
  5
8BC
330
2
100
AcDbEntity
  8
Profilo
  6
Continuous
370
     0
100
AcDbPolyline
 90
       45
 70
   128
 43
0.0
 10
0.2525468950873488
 20
0.1926663824830692
 10
0.2535435572943809
 20
0.1916732615362244
 10
0.2546636418959549
 20
0.1909521210890279
 10
0.2560114879865178
 20
0.1910730680783299
 10
0.2573141599210817
 20
0.1913496217709634
 10
0.258662951520285
 20
0.1922806253907767
 10
0.2591436099905433
 20
0.1932972776445325
 10
0.2592158119907397
 20
0.1940942572342648
 10
0.2586497209878598
 20
0.1948242234139643
 10
0.2578207143391697
 20
0.1951236646440915
 10
0.2569295231229516
 20
0.1948820882014761
 10
0.2566766237806988
 20
0.194707524389524
 10
0.2566274797650134
 20
0.1942377724403963
 10
0.2562059827431096
 20
0.193946834052757
 10
0.2561407738245354
 20
0.1935905143580658
 10
0.2565974274670077
 20
0.193469886689428
 10
0.2563636185078
 20
0.1929971934243566
 10
0.2560233965392307
 20
0.1929491406922965
 10
0.2558217210814169
 20
0.1922495775643247
 10
0.2549857189901203
 20
0.1921083599047186
 10
0.254727717686289
 20
0.1931132468947032
 10
0.2550649164329224
 20
0.1933459983841832
 10
0.2540603167647371
 20
0.1930884035848459
 10
0.2537853037147419
 20
0.193396670547477
 10
0.2541294956457598
 20
0.194070079367953
 10
0.2547486992921391
 20
0.1944352255745176
 10
0.2552766105552768
 20
0.1943015216444692
 10
0.2554803659846065
 20
0.1940063309432487
 10
0.2557332641977492
 20
0.1941808939758323
 10
0.2559770893577529
 20
0.194909550942568
 10
0.2562178925276948
 20
0.1958229048820481
 10
0.2566393895495986
 20
0.1961138432696874
 10
0.2573720006215963
 20
0.1964950044895604
 10
0.2581397670822891
 20
0.1964646014378326
 10
0.2586546376908227
 20
0.1962596343482152
 10
0.2591594885057047
 20
0.1957987063469151
 10
0.2598329381293478
 20
0.1954541537006706
 10
0.2603629281321291
 20
0.1943256977261045
 10
0.2603449708773242
 20
0.1928190210682397
 10
0.2596826718145904
 20
0.1916147295204897
 10
0.2586189106980514
 20
0.190631420855035
 10
0.2575491020085305
 20
0.1900175089250506
 10
0.2566257761618074
 20
0.1900028015659671
 10
0.2562051087977553
 20
0.1899894851211856
 10
0.2557859420838984
 20
0.1896643748912652
  0
LWPOLYLINE
  5
8BD
330
2
100
AcDbEntity
  8
Profilo
  6
Continuous
370
     0
100
AcDbPolyline
 90
       38
 70
   128
 43
0.0
 10
0.2562106377002822
 20
0.1886058364403871
 10
0.2577214039509066
 20
0.1885194426110912
 10
0.2585387358568321
 20
0.1888147489602323
 10
0.2592295588872693
 20
0.1885925595464979
 10
0.2599541719003326
 20
0.1885550095335153
 10
0.260312152827975
 20
0.1884257048889815
 10
0.2603199881053948
 20
0.1879471682461551
 10
0.2607871742583345
 20
0.1878932451610469
 10
0.2612968028863136
 20
0.1882450164040534
 10
0.2613842990478901
 20
0.1888968968596254
 10
0.2612586061555229
 20
0.1890789944516182
 10
0.2607160035280396
 20
0.1892421771627273
 10
0.26046118921405
 20
0.1890662915412235
 10
0.2600217519683472
 20
0.1889242857709723
 10
0.2596498971516414
 20
0.1891515552328702
 10
0.2594461764704681
 20
0.1896024232155664
 10
0.2598162370851442
 20
0.1902342586526053
 10
0.2602894631843631
 20
0.190560903044239
 10
0.2610565185697027
 20
0.1909290499234153
 10
0.2616415636722253
 20
0.191171561540421
 10
0.2623211229987508
 20
0.1908878253999813
 10
0.262798755743372
 20
0.1901958549073441
 10
0.2628230785850985
 20
0.1894598416771433
 10
0.2629202053552353
 20
0.1887740813703198
 10
0.2625137409799265
 20
0.1881171208665835
 10
0.2620543900016443
 20
0.1876925098729103
 10
0.2614832200200574
 20
0.1873520316538641
 10
0.2610827978492489
 20
0.1870756401856077
 10
0.2606242628540869
 20
0.1873506225468002
 10
0.2604509048581578
 20
0.1874460473400825
 10
0.2600955352447762
 20
0.1874158412199138
 10
0.2597375555490062
 20
0.1875451440797722
 10
0.2590268175541164
 20
0.1874847300547593
 10
0.2586099078189994
 20
0.1874658151738755
 10
0.258030903791866
 20
0.1876038718129811
 10
0.2572083467936723
 20
0.1876275905625961
 10
0.2569231710263127
 20
0.1878071463458308
 10
0.2565287886990202
 20
0.1879113249183613
  0
LWPOLYLINE
  5
8BE
330
2
100
AcDbEntity
  8
Profilo
  6
Continuous
370
     0
100
AcDbPolyline
 90
       12
 70
   129
 43
0.0
 10
0.2640470348784589
 20
0.1878907841868811
 10
0.2637846151487251
 20
0.1881365703567415
 10
0.2634767218052305
 20
0.1883138468168139
 10
0.2629345830457037
 20
0.1880510053417659
 10
0.2624744322386281
 20
0.1876962646321276
 10
0.2624140255765903
 20
0.1872462082633204
 10
0.2625962601909988
 20
0.1869821958451441
 10
0.2629687857361631
 20
0.1867381618812178
 10
0.2634912025958869
 20
0.186653275367207
 10
0.2639908538588145
 20
0.1869239113813696
 10
0.2643881740694747
 20
0.1872352858966319
 10
0.2641897678051421
 20
0.187710878248855
  0
LWPOLYLINE
  5
8BF
330
2
100
AcDbEntity
  8
Profilo
  6
Continuous
370
     0
100
AcDbPolyline
 90
        9
 70
   129
 43
0.0
 10
0.2546351662327098
 20
0.1948709010009573
 10
0.2555718438404222
 20
0.1958495209795474
 10
0.2563326787872784
 20
0.1963272473186857
 10
0.256814410477352
 20
0.1966597626957842
 10
0.2561238558744714
 20
0.1971793389587812
 10
0.2551534790166414
 20
0.1969364918609919
 10
0.2543873156758716
 20
0.1961230094889394
 10
0.2541717251409468
 20
0.1954049220833047
 10
0.2543514547092895
 20
0.1950071471841177
  0
LWPOLYLINE
  5
8C0
330
2
100
AcDbEntity
  8
Profilo
  6
Continuous
370
     0
100
AcDbPolyline
 90
       24
 70
   129
 43
0.0
 10
0.2524366240677907
 20
0.1955830181903231
 10
0.2522774880505842
 20
0.1967066014790095
 10
0.2522636621215648
 20
0.1975509721352404
 10
0.2527851428148171
 20
0.1981006820578903
 10
0.2533777675766675
 20
0.1982725434999137
 10
0.2540346229294306
 20
0.1984887401177184
 10
0.2542991801299177
 20
0.1988611085578746
 10
0.2542035544735866
 20
0.1994118164082721
 10
0.2544092083479628
 20
0.2000756049261927
 10
0.2550087454583858
 20
0.199825281932438
 10
0.255131158016261
 20
0.1989609856370169
 10
0.2551877560285627
 20
0.198810294634506
 10
0.2557413520172718
 20
0.1993821721450475
 10
0.2561091685818138
 20
0.1993988596924669
 10
0.2564663259975468
 20
0.198744036179364
 10
0.2571797793626116
 20
0.1988095417946578
 10
0.2572777103327528
 20
0.1981181048690068
 10
0.2566453376968338
 20
0.1977290496608006
 10
0.2558378413982254
 20
0.1974563132118874
 10
0.2552972076139133
 20
0.1974152161278777
 10
0.2544774693409462
 20
0.1972289098665039
 10
0.2540569439298101
 20
0.1964642463416943
 10
0.2538512889263238
 20
0.1958004570444052
 10
0.2529941080930964
 20
0.195256227941595
  0
LWPOLYLINE
  5
8C1
330
2
100
AcDbEntity
  8
Profilo
  6
Continuous
370
     0
100
AcDbPolyline
 90
       13
 70
   128
 43
0.0
 10
0.2526746862684828
 20
0.2028632749028505
 10
0.2532023590802703
 20
0.2023735897756529
 10
0.2536810664583671
 20
0.2022296218292601
 10
0.2539112042814606
 20
0.2027205499721019
 10
0.2540082702951079
 20
0.203404265913889
 10
0.2547538389556303
 20
0.2034919391170735
 10
0.2551530506883521
 20
0.2029135810742693
 10
0.2554062296391022
 20
0.2019972286192022
 10
0.2548380875940968
 20
0.2016525085867773
 10
0.254356354774913
 20
0.2013199924303102
 10
0.2537935423556936
 20
0.201311026646124
 10
0.2531099001013866
 20
0.2014084184733429
 10
0.2526388253019007
 20
0.2017474125980287
  0
LWPOLYLINE
  5
8C2
330
2
100
AcDbEntity
  8
Profilo
  6
Continuous
370
     0
100
AcDbPolyline
 90
       45
 70
   128
 43
0.0
 10
0.2339652562282453
 20
0.2093293040118818
 10
0.2353092831016434
 20
0.2089131111076039
 10
0.2366361994374584
 20
0.2087951022222922
 10
0.2377734510114831
 20
0.2095285707733874
 10
0.2387983888161109
 20
0.2103788287405095
 10
0.2395600255095918
 20
0.2118300062159859
 10
0.2395131655881322
 20
0.2129535802090361
 10
0.2392067224012759
 20
0.2136928245316456
 10
0.2383662415131935
 20
0.2140761018774606
 10
0.2374930353024984
 20
0.2139559853195809
 10
0.2368161908407922
 20
0.2133279227939129
 10
0.2366733834427253
 20
0.21305582603022
 10
0.2368481731937848
 20
0.2126170429734451
 10
0.2366101619263174
 20
0.212163550391991
 10
0.2367180123152188
 20
0.211817740875782
 10
0.2371784175073879
 20
0.2119231479089807
 10
0.2371910614691526
 20
0.2113959423679628
 10
0.2369121410950914
 20
0.2111952847543783
 10
0.2370586695416206
 20
0.2104821291089118
 10
0.2363840535711441
 20
0.209968577537583
 10
0.2356886104925087
 20
0.2107384615936576
 10
0.2358790201440692
 20
0.2111012568736426
 10
0.2351092015867557
 20
0.2104063072619589
 10
0.2347224308237932
 20
0.2105514591645834
 10
0.2347142489599605
 20
0.2113076870283761
 10
0.2350928346563794
 20
0.2119187662199096
 10
0.235622412179822
 20
0.2120457098661577
 10
0.2359400106115101
 20
0.2118790213504846
 10
0.2360828173719911
 20
0.2121511168993573
 10
0.2359600900522087
 20
0.2129096218029689
 10
0.2357488539300752
 20
0.2138302633652094
 10
0.2359868651975425
 20
0.2142837559466644
 10
0.2364584256345434
 20
0.2149617187867996
 10
0.2371523780760967
 20
0.2152915970864511
 10
0.237703526314907
 20
0.2153493800442785
 10
0.2383647534338475
 20
0.2151758644402353
 10
0.2391211850597754
 20
0.2151837458687753
 10
0.240114887541286
 20
0.2144308463616555
 10
0.2407991747375027
 20
0.2130884052838242
 10
0.2407724002297558
 20
0.2117142723549499
 10
0.2402874528613692
 20
0.2103492413316701
 10
0.2396254834103946
 20
0.2093084844263711
 10
0.2388147538263379
 20
0.2088663707903304
 10
0.2384484598345011
 20
0.2086590857922612
 10
0.2382283923992761
 20
0.208176418495297
  0
LWPOLYLINE
  5
8C3
330
2
100
AcDbEntity
  8
Profilo
  6
Continuous
370
     0
100
AcDbPolyline
 90
       38
 70
   128
 43
0.0
 10
0.239096369038494
 20
0.2074364951395813
 10
0.2404742353328579
 20
0.2080620852870592
 10
0.2410607110906211
 20
0.2087033991492531
 10
0.241775661074727
 20
0.2088277016640516
 10
0.2424347243945544
 20
0.2091311972367285
 10
0.2428117916285721
 20
0.2091830656923062
 10
0.2430411164887696
 20
0.2087629837733953
 10
0.2434798485901499
 20
0.2089323494836934
 10
0.2437676260817554
 20
0.2094806636830242
 10
0.243542156132138
 20
0.210098536654165
 10
0.2433462356326377
 20
0.2102013636646083
 10
0.2427899500794677
 20
0.2100936947652388
 10
0.2426460613336649
 20
0.2098195376655729
 10
0.2423229523485606
 20
0.2094895811298887
 10
0.2418880738751978
 20
0.2095180086944142
 10
0.2414981593714121
 20
0.2098225587453015
 10
0.2415322032040228
 20
0.2105539969829495
 10
0.2417994248872617
 20
0.21106314536169
 10
0.2423075323147525
 20
0.2117455916459905
 10
0.2427128632581477
 20
0.2122322090343918
 10
0.2434464419178175
 20
0.2122967801249587
 10
0.2441909394318902
 20
0.2119060376868314
 10
0.2445545186416629
 20
0.2112656337253504
 10
0.2449592088305819
 20
0.2107035601902281
 10
0.2449046072694552
 20
0.2099329571397623
 10
0.2446951987457098
 20
0.2093435117331461
 10
0.2443476809618081
 20
0.2087765973168691
 10
0.2441215702577146
 20
0.2083457793644872
 10
0.2435877670081261
 20
0.2083761723157096
 10
0.24338992001341
 20
0.2083801032961503
 10
0.2430892933318871
 20
0.2081882086110571
 10
0.2427122280180187
 20
0.2081363391477069
 10
0.2421109765751224
 20
0.207752548769748
 10
0.2417506115214527
 20
0.2075420528599361
 10
0.241173770797503
 20
0.2073952193547983
 10
0.2404344100944513
 20
0.2070339599671787
 10
0.2400984557597283
 20
0.2070604209301869
 10
0.2397008333549309
 20
0.2069693878688401
  0
LWPOLYLINE
  5
8C4
330
2
100
AcDbEntity
  8
Profilo
  6
Continuous
370
     0
100
AcDbPolyline
 90
       12
 70
   129
 43
0.0
 10
0.2463674554907484
 20
0.2104451031670944
 10
0.2460208718313037
 20
0.2105407834830109
 10
0.2456658613361942
 20
0.2105546688215485
 10
0.2453079698288603
 20
0.2100699898096598
 10
0.2450653827518625
 20
0.2095420397680838
 10
0.245221046932282
 20
0.209115462268846
 10
0.2455051003581268
 20
0.2089663795303878
 10
0.2459483635846036
 20
0.2089234194395813
 10
0.2464503894710042
 20
0.209091035384434
 10
0.2467670378655171
 20
0.2095628711937563
 10
0.2469741444877345
 20
0.2100232235431445
 10
0.2465774456789287
 20
0.2103521356686615
  0
LWPOLYLINE
  5
8C5
330
2
100
AcDbEntity
  8
Profilo
  6
Continuous
370
     0
100
AcDbPolyline
 90
        9
 70
   129
 43
0.0
 10
0.2347898376586395
 20
0.2122517762079701
 10
0.235164437109808
 20
0.2135535969538758
 10
0.2356161124983362
 20
0.2143301802493838
 10
0.2358881371252606
 20
0.2148484798727424
 10
0.2350352222620398
 20
0.2149876250800791
 10
0.2342888528997253
 20
0.2143216380425814
 10
0.2339884930613483
 20
0.2132452813164587
 10
0.2341313089800767
 20
0.2125092565789401
 10
0.2344753068222634
 20
0.2122405688927129
  0
LWPOLYLINE
  5
8C6
330
2
100
AcDbEntity
  8
Profilo
  6
Continuous
370
     0
100
AcDbPolyline
 90
       24
 70
   129
 43
0.0
 10
0.2325121878919507
 20
0.2118606111755117
 10
0.2318491247566428
 20
0.2127815405740989
 10
0.2314444838947383
 20
0.2135227684299537
 10
0.2316507691778824
 20
0.2142518565552534
 10
0.2320956443497248
 20
0.2146794387638291
 10
0.2325767893018007
 20
0.2151761272649004
 10
0.2326379948264243
 20
0.2156287890053967
 10
0.2322973958137116
 20
0.2160719771315671
 10
0.2321710153703629
 20
0.2167553047953614
 10
0.2328182100130824
 20
0.2168122735798965
 10
0.2333282594660631
 20
0.2161038651693596
 10
0.2334484041177811
 20
0.2159967373209826
 10
0.233672824291042
 20
0.2167603785925305
 10
0.2339907545944797
 20
0.2169460875625511
 10
0.2346113134404852
 20
0.2165322494642927
 10
0.2352126030442783
 20
0.216921810116987
 10
0.2356206433732453
 20
0.2163550839158956
 10
0.2352415081827708
 20
0.2157167144201999
 10
0.2346532526671456
 20
0.2150999560467923
 10
0.2341936439923975
 20
0.2148123213389592
 10
0.233554382635897
 20
0.2142664039667492
 10
0.2335373827354621
 20
0.2133939001381213
 10
0.2336637625412239
 20
0.2127105712595059
 10
0.2331576824823456
 20
0.2118303285252541
  0
LWPOLYLINE
  5
8C7
330
2
100
AcDbEntity
  8
Profilo
  6
Continuous
370
     0
100
AcDbPolyline
 90
       13
 70
   128
 43
0.0
 10
0.2293396775092962
 20
0.2184175913709705
 10
0.2300344766056801
 20
0.2182292185073162
 10
0.2305252561788613
 20
0.2183242076329108
 10
0.2305008874172625
 20
0.2188658532943091
 10
0.2302690964626883
 20
0.2195163625205589
 10
0.2308885209565989
 20
0.2199404763195014
 10
0.2315107817750777
 20
0.2196138886482633
 10
0.2321608108222177
 20
0.2189201569703885
 10
0.2318179454119758
 20
0.2183508937671883
 10
0.2315459201474646
 20
0.2178325929290086
 10
0.2310517411072208
 20
0.2175631021486515
 10
0.2304011457148771
 20
0.2173316339319466
 10
0.2298264912702113
 20
0.2174128789472238
  0
DIMENSION
  5
8CD
102
{ACAD_XDICTIONARY
360
8D7
102
}
102
{ACAD_REACTORS
330
8DE
102
}
330
2
100
AcDbEntity
  8
Text
  6
ACAD_ISO10W100
100
AcDbDimension
  2
*D12
 10
0.1582945547084763
 20
0.1232072469685548
 30
0.0
 11
0.2789032435526126
 21
0.2052503637905255
 31
0.0
 70
    35
  1
d 520 mm
 71
     5
 42
0.1299999999999999
  3
Bovelacci
100
AcDbDiametricDimension
 15
0.260613466468051
 25
0.2033997671704811
 35
0.0
 40
0.0
1001
ACAD
1000
DSTYLE
1002
{
1070
   288
1070
     1
1002
}
  0
ENDSEC
  0
SECTION
  2
OBJECTS
  0
DICTIONARY
  5
9
330
0
100
AcDbDictionary
281
     1
  3
ACAD_2007HEADERVARS_RT
350
208
  3
ACAD_COLOR
350
184
  3
ACAD_GROUP
350
17F
  3
ACAD_LAYOUT
350
164
  3
ACAD_MATERIAL
350
B
  3
ACAD_MLINESTYLE
350
180
  3
ACAD_PLOTSETTINGS
350
181
  3
ACAD_PLOTSTYLENAME
350
8
  3
ACAD_TABLESTYLE
350
185
  3
ACAD_VISUALSTYLE
350
17A
  3
ACDBHEADERROUNDTRIPXREC
350
8EE
  3
AcDbVariableDictionary
350
18B
  3
DWGPROPS
350
8ED
  0
DICTIONARY
  5
16E
330
16D
100
AcDbDictionary
280
     1
281
     1
  3
ACAD_LAYERSTATES
360
16F
  0
DICTIONARY
  5
3
330
2
100
AcDbDictionary
280
     1
281
     1
  3
ACAD_SORTENTS
360
18A
  0
DICTIONARY
  5
8EF
330
18
100
AcDbDictionary
280
     1
281
     1
  3
ACAD_MTEXT_RT
360
8F0
  0
DICTIONARY
  5
8D7
330
8CD
100
AcDbDictionary
280
     1
281
     1
  3
ACAD_DIMASSOC
360
8DE
  0
DICTIONARY
  5
208
102
{ACAD_REACTORS
330
9
102
}
330
9
100
AcDbDictionary
281
     1
  3
DIMFXL
350
209
  0
DICTIONARY
  5
184
102
{ACAD_REACTORS
330
9
102
}
330
9
100
AcDbDictionary
281
     1
  0
DICTIONARY
  5
17F
102
{ACAD_REACTORS
330
9
102
}
330
9
100
AcDbDictionary
281
     1
  0
DICTIONARY
  5
164
102
{ACAD_REACTORS
330
9
102
}
330
9
100
AcDbDictionary
281
     1
  3
Layout1
350
168
  3
Layout2
350
16C
  3
Model
350
163
  0
DICTIONARY
  5
B
102
{ACAD_REACTORS
330
9
102
}
330
9
100
AcDbDictionary
281
     1
  3
ByBlock
350
183
  3
ByLayer
350
182
  3
Global
350
A
  0
DICTIONARY
  5
180
102
{ACAD_REACTORS
330
9
102
}
330
9
100
AcDbDictionary
281
     1
  3
Standard
350
186
  0
DICTIONARY
  5
181
102
{ACAD_REACTORS
330
9
102
}
330
9
100
AcDbDictionary
281
     1
  0
ACDBDICTIONARYWDFLT
  5
8
102
{ACAD_REACTORS
330
9
102
}
330
9
100
AcDbDictionary
281
     1
  3
Normal
350
7
100
AcDbDictionaryWithDefault
340
7
  0
DICTIONARY
  5
185
102
{ACAD_REACTORS
330
9
102
}
330
9
100
AcDbDictionary
281
     1
  3
Standard
350
187
  0
DICTIONARY
  5
17A
102
{ACAD_REACTORS
330
9
102
}
330
9
100
AcDbDictionary
281
     1
  3
2dWireframe
350
179
  3
3D Hidden
350
1BD
  3
3dWireframe
350
189
  3
Basic
350
1BC
  3
Brighten
350
1C0
  3
ColorChange
350
1C4
  3
Conceptual
350
1BE
  3
Dim
350
1BF
  3
Facepattern
350
1C3
  3
Flat
350
1B8
  3
FlatWithEdges
350
1B9
  3
Gouraud
350
1BA
  3
GouraudWithEdges
350
1BB
  3
Linepattern
350
1C2
  3
Realistic
350
188
  3
Thicken
350
1C1
  0
DICTIONARY
  5
8EE
102
{ACAD_REACTORS
330
9
102
}
330
9
100
AcDbDictionary
281
     1
  0
DICTIONARY
  5
18B
102
{ACAD_REACTORS
330
9
102
}
330
9
100
AcDbDictionary
281
     1
  3
CTABLESTYLE
350
18C
  3
DIMASSOC
350
190
  3
HIDETEXT
350
18F
  3
INDEXCTL
350
18E
  3
PROJECTNAME
350
31D
  3
SORTENTS
350
18D
  0
XRECORD
  5
8ED
102
{ACAD_REACTORS
330
9
102
}
330
9
100
AcDbXrecord
280
     1
  1
DWGPROPS COOKIE
  2

  3

  4

  6

  7

  8
Mario
  9

300
=
301
=
302
=
303
=
304
=
305
=
306
=
307
=
308
=
309
=
 40
0.1147365162037037
 41
2454297.625402373
 42
2454318.615603658
  1

 90
        0
  0
DICTIONARY
  5
16F
102
{ACAD_REACTORS
330
16E
102
}
330
16E
100
AcDbDictionary
281
     1
  0
SORTENTSTABLE
  5
18A
102
{ACAD_REACTORS
330
3
102
}
330
3
100
AcDbSortentsTable
330
2
331
1E
  5
22
331
24
  5
1D
331
16
  5
14
331
12
  5
18
331
1D
  5
21
331
23
  5
23F
331
15
  5
13
331
11
  5
17
331
23F
  5
3BB
331
D
  5
15
331
1C
  5
1F
331
18
  5
1E
331
22
  5
25
331
14
  5
12
331
10
  5
16
331
1F
  5
23
331
25
  5
2AC
331
17
  5
1C
331
21
  5
24
331
13
  5
11
  0
XRECORD
  5
8F0
102
{ACAD_REACTORS
330
8EF
102
}
330
8EF
100
AcDbXrecord
280
     1
 40
7955300.0
  1
{\fTimes New Roman|b0|i0|c238|p18;\H1.6x;\C4;Bovelacci\P\pt0.09;\H0.4375x;\T0.95;via del Commercio, 5  47100 Forli - Italy  \fTimes New Roman|b0|i0|c0|p18;\P\fTimes New Roman|b0|i0|c238|p18;tel.+39-0543721386  fax +39-0543721127\fTimes New Roman|b0|i
  1
0|c0|p18; \fTimes New Roman|b0|i0|c238|p18;www.bovelacci.it\fTimes New Roman|b0|i0|c0|p18; \fTimes New Roman|b0|i0|c238|p18;e-mail: bovelacci@bovelacci\fTimes New Roman|b0|i0|c0|p18;.it}
  0
DIMASSOC
  5
8DE
102
{ACAD_REACTORS
330
8D7
102
}
330
8D7
100
AcDbDimAssoc
330
8CD
 90
        2
 70
     0
 71
     0
  1
AcDbOsnapPointRef
 72
     3
331
7F5
 73
     2
 91
        0
 40
0.0
 10
0.0
 20
0.0
 30
0.0
 75
     0
  0
XRECORD
  5
209
102
{ACAD_REACTORS
330
208
102
}
330
208
100
AcDbXrecord
280
     1
 40
0.18
  0
LAYOUT
  5
168
102
{ACAD_XDICTIONARY
360
8F3
102
}
102
{ACAD_REACTORS
330
164
102
}
330
164
100
AcDbPlotSettings
  1

  2
C:\Documents and Settings\All Users\Dati applicazioni\Autodesk\ADT 2006\enu\Plotters\Default Windows System Printer.pc3
  4

  6

 40
0.0
 41
0.0
 42
0.0
 43
0.0
 44
0.0
 45
0.0
 46
0.0
 47
0.0
 48
0.0
 49
0.0
140
0.0
141
0.0
142
1.0
143
1.0
 70
   688
 72
     0
 73
     0
 74
     5
  7

 75
    16
147
1.0
148
0.0
149
0.0
100
AcDbLayout
  1
Layout1
 70
     1
 71
     1
 10
0.0
 20
0.0
 11
420.0
 21
297.0
 12
0.0
 22
0.0
 32
0.0
 14
1.000000000000000E+20
 24
1.000000000000000E+20
 34
1.000000000000000E+20
 15
-1.000000000000000E+20
 25
-1.000000000000000E+20
 35
-1.000000000000000E+20
146
0.0
 13
0.0
 23
0.0
 33
0.0
 16
1.0
 26
0.0
 36
0.0
 17
0.0
 27
1.0
 37
0.0
 76
     0
330
165
  0
LAYOUT
  5
16C
102
{ACAD_XDICTIONARY
360
8F5
102
}
102
{ACAD_REACTORS
330
164
102
}
330
164
100
AcDbPlotSettings
  1

  2
C:\Documents and Settings\All Users\Dati applicazioni\Autodesk\ADT 2006\enu\Plotters\Default Windows System Printer.pc3
  4

  6

 40
0.0
 41
0.0
 42
0.0
 43
0.0
 44
0.0
 45
0.0
 46
0.0
 47
0.0
 48
0.0
 49
0.0
140
0.0
141
0.0
142
1.0
143
1.0
 70
   688
 72
     0
 73
     0
 74
     5
  7

 75
    16
147
1.0
148
0.0
149
0.0
100
AcDbLayout
  1
Layout2
 70
     1
 71
     2
 10
0.0
 20
0.0
 11
12.0
 21
9.0
 12
0.0
 22
0.0
 32
0.0
 14
0.0
 24
0.0
 34
0.0
 15
0.0
 25
0.0
 35
0.0
146
0.0
 13
0.0
 23
0.0
 33
0.0
 16
1.0
 26
0.0
 36
0.0
 17
0.0
 27
1.0
 37
0.0
 76
     0
330
169
  0
LAYOUT
  5
163
102
{ACAD_XDICTIONARY
360
8F1
102
}
102
{ACAD_REACTORS
330
164
102
}
330
164
100
AcDbPlotSettings
  1

  2
C:\Documents and Settings\All Users\Dati applicazioni\Autodesk\ADT 2006\enu\Plotters\Default Windows System Printer.pc3
  4

  6

 40
0.0
 41
0.0
 42
0.0
 43
0.0
 44
0.0
 45
0.0
 46
0.0
 47
0.0
 48
0.0
 49
0.0
140
0.0
141
0.0
142
1.0
143
1.0
 70
  1712
 72
     0
 73
     0
 74
     0
  7

 75
     0
147
1.0
148
0.0
149
0.0
100
AcDbLayout
  1
Model
 70
     1
 71
     0
 10
0.0
 20
0.0
 11
12.0
 21
9.0
 12
0.0
 22
0.0
 32
0.0
 14
0.0
 24
0.0
 34
0.0
 15
0.0
 25
0.0
 35
0.0
146
0.0
 13
0.0
 23
0.0
 33
0.0
 16
1.0
 26
0.0
 36
0.0
 17
0.0
 27
1.0
 37
0.0
 76
     0
330
2
  0
MATERIAL
  5
183
102
{ACAD_XDICTIONARY
360
1B0
102
}
102
{ACAD_REACTORS
330
B
102
}
330
B
100
AcDbMaterial
  1
ByBlock
  0
MATERIAL
  5
182
102
{ACAD_XDICTIONARY
360
1AE
102
}
102
{ACAD_REACTORS
330
B
102
}
330
B
100
AcDbMaterial
  1
ByLayer
  0
MATERIAL
  5
A
102
{ACAD_XDICTIONARY
360
193
102
}
102
{ACAD_REACTORS
330
B
102
}
330
B
100
AcDbMaterial
  1
Global
  0
MLINESTYLE
  5
186
102
{ACAD_REACTORS
330
180
102
}
330
180
100
AcDbMlineStyle
  2
STANDARD
 70
     0
  3

 62
   256
 51
90.0
 52
90.0
 71
     2
 49
0.5
 62
   256
  6
BYLAYER
 49
-0.5
 62
   256
  6
BYLAYER
  0
ACDBPLACEHOLDER
  5
7
102
{ACAD_REACTORS
330
8
102
}
330
8
  0
TABLESTYLE
  5
187
102
{ACAD_XDICTIONARY
360
21A
102
}
102
{ACAD_REACTORS
330
185
102
}
330
185
100
AcDbTableStyle
  3
Standard
 70
     0
 71
     0
 40
1.5
 41
1.5
280
     0
281
     0
  7
Standard
140
4.5
170
     2
 62
     0
 63
     7
283
     0
274
    -2
284
     1
 64
     0
275
    -2
285
     1
 65
     0
276
    -2
286
     1
 66
     0
277
    -2
287
     1
 67
     0
278
    -2
288
     1
 68
     0
279
    -2
289
     1
 69
     0
  7
Standard
140
6.0
170
     5
 62
     0
 63
     7
283
     0
274
    -2
284
     1
 64
     0
275
    -2
285
     1
 65
     0
276
    -2
286
     1
 66
     0
277
    -2
287
     1
 67
     0
278
    -2
288
     1
 68
     0
279
    -2
289
     1
 69
     0
  7
Standard
140
4.5
170
     5
 62
     0
 63
     7
283
     0
274
    -2
284
     1
 64
     0
275
    -2
285
     1
 65
     0
276
    -2
286
     1
 66
     0
277
    -2
287
     1
 67
     0
278
    -2
288
     1
 68
     0
279
    -2
289
     1
 69
     0
  0
VISUALSTYLE
  5
179
102
{ACAD_REACTORS
330
17A
102
}
330
17A
100
AcDbVisualStyle
  2
2dWireframe
 70
     4
 71
     0
 72
     2
 73
     0
 90
        0
 40
-0.6
 41
-30.0
 62
     5
 63
     7
 74
     1
 91
        4
 64
     7
 65
   257
 75
     1
175
     1
 42
1.0
 92
        0
 66
   257
 43
1.0
 76
     1
 77
     6
 78
     2
 67
     7
 79
     5
170
     0
171
     0
290
     0
174
     0
 93
        1
 44
0.0
173
     0
291
     0
 45
0.0
1001
ACAD
1000
AcDbSavedByObjectVersion
1070
     0
1000
AcDbSavedByObjectVersion
1070
     0
1000
AcDbSavedByObjectVersion
1070
     0
1001
ACAD
1000
AcRTDxfName
1000
VISUALSTYLE
  0
VISUALSTYLE
  5
1BD
102
{ACAD_REACTORS
330
17A
102
}
330
17A
100
AcDbVisualStyle
  2
3D Hidden
 70
     6
 71
     1
 72
     2
 73
     2
 90
        0
 40
-0.6
 41
-30.0
 62
     5
 63
     7
 74
     2
 91
        2
 64
     7
 65
   257
 75
     2
175
     1
 42
40.0
 92
        0
 66
   257
 43
1.0
 76
     1
 77
     6
 78
     2
 67
     7
 79
     3
170
     0
171
     0
290
     0
174
     0
 93
        1
 44
0.0
173
     0
291
     0
 45
0.0
1001
ACAD
1000
AcDbSavedByObjectVersion
1070
     0
1000
AcDbSavedByObjectVersion
1070
     0
1001
ACAD
1000
AcRTDxfName
1000
VISUALSTYLE
  0
VISUALSTYLE
  5
189
102
{ACAD_REACTORS
330
17A
102
}
330
17A
100
AcDbVisualStyle
  2
3dWireframe
 70
     5
 71
     0
 72
     2
 73
     0
 90
        0
 40
-0.6
 41
-30.0
 62
     5
 63
     7
 74
     1
 91
        4
 64
     7
 65
   257
 75
     1
175
     1
 42
1.0
 92
        0
 66
   257
 43
1.0
 76
     1
 77
     6
 78
     2
 67
     7
 79
     5
170
     0
171
     0
290
     0
174
     0
 93
        1
 44
0.0
173
     0
291
     0
 45
0.0
1001
ACAD
1000
AcDbSavedByObjectVersion
1070
     0
1000
AcDbSavedByObjectVersion
1070
     0
1000
AcDbSavedByObjectVersion
1070
     0
1001
ACAD
1000
AcRTDxfName
1000
VISUALSTYLE
  0
VISUALSTYLE
  5
1BC
102
{ACAD_REACTORS
330
17A
102
}
330
17A
100
AcDbVisualStyle
  2
Basic
 70
     7
 71
     1
 72
     0
 73
     1
 90
        0
 40
-0.6
 41
-30.0
 62
     5
 63
     7
 74
     0
 91
        4
 64
     7
 65
   257
 75
     1
175
     1
 42
1.0
 92
        8
 66
     7
 43
1.0
 76
     1
 77
     6
 78
     2
 67
     7
 79
     5
170
     0
171
     0
290
     0
174
     0
 93
        1
 44
0.0
173
     0
291
     1
 45
0.0
1001
ACAD
1000
AcDbSavedByObjectVersion
1070
     0
1000
AcDbSavedByObjectVersion
1070
     0
1001
ACAD
1000
AcRTDxfName
1000
VISUALSTYLE
  0
VISUALSTYLE
  5
1C0
102
{ACAD_REACTORS
330
17A
102
}
330
17A
100
AcDbVisualStyle
  2
Brighten
 70
    12
 71
     2
 72
     2
 73
     0
 90
        0
 40
-0.6
 41
-30.0
 62
     5
 63
     7
 74
     1
 91
        4
 64
     7
 65
   257
 75
     1
175
     1
 42
1.0
 92
        8
 66
     7
 43
1.0
 76
     1
 77
     6
 78
     2
 67
     7
 79
     5
170
     0
171
     0
290
     0
174
     0
 93
        1
 44
50.0
173
     0
291
     1
 45
0.0
1001
ACAD
1000
AcDbSavedByObjectVersion
1070
     0
1000
AcDbSavedByObjectVersion
1070
     0
1001
ACAD
1000
AcRTDxfName
1000
VISUALSTYLE
  0
VISUALSTYLE
  5
1C4
102
{ACAD_REACTORS
330
17A
102
}
330
17A
100
AcDbVisualStyle
  2
ColorChange
 70
    16
 71
     2
 72
     2
 73
     3
 90
        0
 40
-0.6
 41
-30.0
 62
     5
 63
     8
 74
     1
 91
        4
 64
     7
 65
   257
 75
     1
175
     1
 42
1.0
 92
        8
 66
     8
 43
1.0
 76
     1
 77
     6
 78
     2
 67
     7
 79
     5
170
     0
171
     0
290
     0
174
     0
 93
        1
 44
0.0
173
     0
291
     1
 45
0.0
1001
ACAD
1000
AcDbSavedByObjectVersion
1070
     0
1000
AcDbSavedByObjectVersion
1070
     0
1001
ACAD
1000
AcRTDxfName
1000
VISUALSTYLE
  0
VISUALSTYLE
  5
1BE
102
{ACAD_REACTORS
330
17A
102
}
330
17A
100
AcDbVisualStyle
  2
Conceptual
 70
     9
 71
     3
 72
     2
 73
     0
 90
        0
 40
-0.6
 41
-30.0
 62
     5
 63
     7
 74
     2
 91
        2
 64
     7
 65
   257
 75
     1
175
     1
 42
40.0
 92
        8
 66
     7
 43
1.0
 76
     1
 77
     6
 78
     2
 67
     7
 79
     3
170
     0
171
     0
290
     0
174
     0
 93
        1
 44
0.0
173
     0
291
     0
 45
0.0
1001
ACAD
1000
AcDbSavedByObjectVersion
1070
     0
1000
AcDbSavedByObjectVersion
1070
     0
1001
ACAD
1000
AcRTDxfName
1000
VISUALSTYLE
  0
VISUALSTYLE
  5
1BF
102
{ACAD_REACTORS
330
17A
102
}
330
17A
100
AcDbVisualStyle
  2
Dim
 70
    11
 71
     2
 72
     2
 73
     0
 90
        0
 40
-0.6
 41
-30.0
 62
     5
 63
     7
 74
     1
 91
        4
 64
     7
 65
   257
 75
     1
175
     1
 42
1.0
 92
        8
 66
     7
 43
1.0
 76
     1
 77
     6
 78
     2
 67
     7
 79
     5
170
     0
171
     0
290
     0
174
     0
 93
        1
 44
-50.0
173
     0
291
     1
 45
0.0
1001
ACAD
1000
AcDbSavedByObjectVersion
1070
     0
1000
AcDbSavedByObjectVersion
1070
     0
1001
ACAD
1000
AcRTDxfName
1000
VISUALSTYLE
  0
VISUALSTYLE
  5
1C3
102
{ACAD_REACTORS
330
17A
102
}
330
17A
100
AcDbVisualStyle
  2
Facepattern
 70
    15
 71
     2
 72
     2
 73
     0
 90
        0
 40
-0.6
 41
-30.0
 62
     5
 63
     7
 74
     1
 91
        4
 64
     7
 65
   257
 75
     1
175
     1
 42
1.0
 92
        8
 66
     7
 43
1.0
 76
     1
 77
     6
 78
     2
 67
     7
 79
     5
170
     0
171
     0
290
     0
174
     0
 93
        1
 44
0.0
173
     0
291
     1
 45
0.0
1001
ACAD
1000
AcDbSavedByObjectVersion
1070
     0
1000
AcDbSavedByObjectVersion
1070
     0
1001
ACAD
1000
AcRTDxfName
1000
VISUALSTYLE
  0
VISUALSTYLE
  5
1B8
102
{ACAD_REACTORS
330
17A
102
}
330
17A
100
AcDbVisualStyle
  2
Flat
 70
     0
 71
     2
 72
     1
 73
     1
 90
        2
 40
-0.6
 41
30.0
 62
     5
 63
     7
 74
     0
 91
        4
 64
     7
 65
   257
 75
     1
175
     1
 42
1.0
 92
        8
 66
     7
 43
1.0
 76
     1
 77
     6
 78
     2
 67
     7
 79
     5
170
     0
171
     0
290
     0
174
     0
 93
       13
 44
0.0
173
     0
291
     1
 45
0.0
1001
ACAD
1000
AcDbSavedByObjectVersion
1070
     0
1000
AcDbSavedByObjectVersion
1070
     0
1001
ACAD
1000
AcRTDxfName
1000
VISUALSTYLE
  0
VISUALSTYLE
  5
1B9
102
{ACAD_REACTORS
330
17A
102
}
330
17A
100
AcDbVisualStyle
  2
FlatWithEdges
 70
     1
 71
     2
 72
     1
 73
     1
 90
        2
 40
-0.6
 41
30.0
 62
     5
 63
     7
 74
     1
 91
        4
 64
     7
 65
   257
 75
     1
175
     1
 42
1.0
 92
        0
 66
   257
 43
1.0
 76
     1
 77
     6
 78
     2
 67
     7
 79
     5
170
     0
171
     0
290
     0
174
     0
 93
       13
 44
0.0
173
     0
291
     1
 45
0.0
1001
ACAD
1000
AcDbSavedByObjectVersion
1070
     0
1000
AcDbSavedByObjectVersion
1070
     0
1001
ACAD
1000
AcRTDxfName
1000
VISUALSTYLE
  0
VISUALSTYLE
  5
1BA
102
{ACAD_REACTORS
330
17A
102
}
330
17A
100
AcDbVisualStyle
  2
Gouraud
 70
     2
 71
     2
 72
     2
 73
     1
 90
        2
 40
-0.6
 41
30.0
 62
     5
 63
     7
 74
     0
 91
        4
 64
     7
 65
   257
 75
     1
175
     1
 42
1.0
 92
        0
 66
     7
 43
1.0
 76
     1
 77
     6
 78
     2
 67
     7
 79
     5
170
     0
171
     0
290
     0
174
     0
 93
       13
 44
0.0
173
     0
291
     1
 45
0.0
1001
ACAD
1000
AcDbSavedByObjectVersion
1070
     0
1000
AcDbSavedByObjectVersion
1070
     0
1001
ACAD
1000
AcRTDxfName
1000
VISUALSTYLE
  0
VISUALSTYLE
  5
1BB
102
{ACAD_REACTORS
330
17A
102
}
330
17A
100
AcDbVisualStyle
  2
GouraudWithEdges
 70
     3
 71
     2
 72
     2
 73
     1
 90
        2
 40
-0.6
 41
30.0
 62
     5
 63
     7
 74
     1
 91
        4
 64
     7
 65
   257
 75
     1
175
     1
 42
1.0
 92
        0
 66
   257
 43
1.0
 76
     1
 77
     6
 78
     2
 67
     7
 79
     5
170
     0
171
     0
290
     0
174
     0
 93
       13
 44
0.0
173
     0
291
     1
 45
0.0
1001
ACAD
1000
AcDbSavedByObjectVersion
1070
     0
1000
AcDbSavedByObjectVersion
1070
     0
1001
ACAD
1000
AcRTDxfName
1000
VISUALSTYLE
  0
VISUALSTYLE
  5
1C2
102
{ACAD_REACTORS
330
17A
102
}
330
17A
100
AcDbVisualStyle
  2
Linepattern
 70
    14
 71
     2
 72
     2
 73
     0
 90
        0
 40
-0.6
 41
-30.0
 62
     5
 63
     7
 74
     1
 91
        4
 64
     7
 65
   257
 75
     7
175
     7
 42
1.0
 92
        8
 66
     7
 43
1.0
 76
     1
 77
     6
 78
     2
 67
     7
 79
     5
170
     0
171
     0
290
     0
174
     0
 93
        1
 44
0.0
173
     0
291
     1
 45
0.0
1001
ACAD
1000
AcDbSavedByObjectVersion
1070
     0
1000
AcDbSavedByObjectVersion
1070
     0
1001
ACAD
1000
AcRTDxfName
1000
VISUALSTYLE
  0
VISUALSTYLE
  5
188
102
{ACAD_REACTORS
330
17A
102
}
330
17A
100
AcDbVisualStyle
  2
Realistic
 70
     8
 71
     2
 72
     2
 73
     0
 90
        0
 40
-0.6
 41
-30.0
 62
     5
 63
     7
 74
     1
 91
        0
 64
     7
 65
   257
 75
     1
175
     1
 42
1.0
 92
        8
 66
     8
 43
1.0
 76
     1
 77
     6
 78
     2
 67
     7
 79
     5
170
     0
171
     0
290
     0
174
     0
 93
       13
 44
0.0
173
     0
291
     0
 45
0.0
1001
ACAD
1000
AcDbSavedByObjectVersion
1070
     0
1000
AcDbSavedByObjectVersion
1070
     0
1000
AcDbSavedByObjectVersion
1070
     0
1001
ACAD
1000
AcRTDxfName
1000
VISUALSTYLE
  0
VISUALSTYLE
  5
1C1
102
{ACAD_REACTORS
330
17A
102
}
330
17A
100
AcDbVisualStyle
  2
Thicken
 70
    13
 71
     2
 72
     2
 73
     0
 90
        0
 40
-0.6
 41
-30.0
 62
     5
 63
     7
 74
     1
 91
        4
 64
     7
 65
   257
 75
     1
175
     1
 42
1.0
 92
       12
 66
     7
 43
1.0
 76
     1
 77
     6
 78
     2
 67
     7
 79
     5
170
     0
171
     0
290
     0
174
     0
 93
        1
 44
0.0
173
     0
291
     1
 45
0.0
1001
ACAD
1000
AcDbSavedByObjectVersion
1070
     0
1000
AcDbSavedByObjectVersion
1070
     0
1001
ACAD
1000
AcRTDxfName
1000
VISUALSTYLE
  0
DICTIONARYVAR
  5
18C
102
{ACAD_REACTORS
330
18B
102
}
330
18B
100
DictionaryVariables
280
     0
  1
STANDARD
  0
DICTIONARYVAR
  5
190
102
{ACAD_REACTORS
330
18B
102
}
330
18B
100
DictionaryVariables
280
     0
  1
2
  0
DICTIONARYVAR
  5
18F
102
{ACAD_REACTORS
330
18B
102
}
330
18B
100
DictionaryVariables
280
     0
  1
1
  0
DICTIONARYVAR
  5
18E
102
{ACAD_REACTORS
330
18B
102
}
330
18B
100
DictionaryVariables
280
     0
  1
0
  0
DICTIONARYVAR
  5
31D
102
{ACAD_REACTORS
330
18B
102
}
330
18B
100
DictionaryVariables
280
     0
  1

  0
DICTIONARYVAR
  5
18D
102
{ACAD_REACTORS
330
18B
102
}
330
18B
100
DictionaryVariables
280
     0
  1
127
  0
DICTIONARY
  5
8F3
330
168
100
AcDbDictionary
280
     1
281
     1
  3
ACAD_XREC_ROUNDTRIP
360
8F4
  0
DICTIONARY
  5
8F5
330
16C
100
AcDbDictionary
280
     1
281
     1
  3
ACAD_XREC_ROUNDTRIP
360
8F6
  0
DICTIONARY
  5
8F1
330
163
100
AcDbDictionary
280
     1
281
     1
  3
ACAD_XREC_ROUNDTRIP
360
8F2
  0
DICTIONARY
  5
1B0
330
183
100
AcDbDictionary
280
     1
281
     1
  3
ACAD_XREC_ROUNDTRIP
360
1B1
  0
DICTIONARY
  5
1AE
330
182
100
AcDbDictionary
280
     1
281
     1
  3
ACAD_XREC_ROUNDTRIP
360
1AF
  0
DICTIONARY
  5
193
330
A
100
AcDbDictionary
280
     1
281
     1
  3
ACAD_XREC_ROUNDTRIP
360
194
  0
DICTIONARY
  5
21A
330
187
100
AcDbDictionary
280
     1
281
     1
  3
ACAD_XREC_ROUNDTRIP
360
21B
  0
XRECORD
  5
8F4
102
{ACAD_REACTORS
330
8F3
102
}
330
8F3
100
AcDbXrecord
280
     1
102
SHADEPLOT
 70
     0
102
SHADEPLOTRESLEVEL
 70
     2
102
SHADEPLOTCUSTOMDPI
 70
   300
  0
XRECORD
  5
8F6
102
{ACAD_REACTORS
330
8F5
102
}
330
8F5
100
AcDbXrecord
280
     1
102
SHADEPLOT
 70
     0
102
SHADEPLOTRESLEVEL
 70
     2
102
SHADEPLOTCUSTOMDPI
 70
   300
  0
XRECORD
  5
8F2
102
{ACAD_REACTORS
330
8F1
102
}
330
8F1
100
AcDbXrecord
280
     1
102
SHADEPLOT
 70
     0
102
SHADEPLOTRESLEVEL
 70
     2
102
SHADEPLOTCUSTOMDPI
 70
   300
  0
XRECORD
  5
1B1
102
{ACAD_REACTORS
330
1B0
102
}
330
1B0
100
AcDbXrecord
280
     1
102
MATERIAL
148
0.0
149
0.0
149
0.0
 93
        0
 94
       63
282
     0
 72
     1
 77
     1
171
     1
175
     1
179
     1
273
     0
  0
XRECORD
  5
1AF
102
{ACAD_REACTORS
330
1AE
102
}
330
1AE
100
AcDbXrecord
280
     1
102
MATERIAL
148
0.0
149
0.0
149
0.0
 93
        0
 94
       63
282
     0
 72
     1
 77
     1
171
     1
175
     1
179
     1
273
     0
  0
XRECORD
  5
194
102
{ACAD_REACTORS
330
193
102
}
330
193
100
AcDbXrecord
280
     1
102
MATERIAL
148
0.0
149
0.0
149
0.0
 93
        0
 94
       63
282
     0
 72
     1
 77
     1
171
     1
175
     1
179
     1
273
     0
  0
XRECORD
  5
21B
102
{ACAD_REACTORS
330
21A
102
}
330
21A
100
AcDbXrecord
280
     1
102
ACAD_ROUNDTRIP_PRE2007_TABLESTYLE
 90
        4
 91
        0
  1

 92
        4
 93
        0
  2

 94
        4
 95
        0
  3

  0
ENDSEC
  0
EOF
