  0
SECTION
  2
HEADER
  9
$ACADVER
  1
AC1015
  9
$ACADMAINTVER
 70
    20
  9
$DWGCODEPAGE
  3
ANSI_1252
  9
$INSBASE
 10
0.0
 20
0.0
 30
0.0
  9
$EXTMIN
 10
0.0149999999999999
 20
0.015
 30
0.0
  9
$EXTMAX
 10
0.4050000000000001
 20
0.282
 30
0.0
  9
$LIMMIN
 10
0.0
 20
0.0
  9
$LIMMAX
 10
1.0
 20
0.5
  9
$ORTHOMODE
 70
     0
  9
$REGENMODE
 70
     1
  9
$FILLMODE
 70
     1
  9
$QTEXTMODE
 70
     0
  9
$MIRRTEXT
 70
     0
  9
$LTSCALE
 40
1.0
  9
$ATTMODE
 70
     1
  9
$TEXTSIZE
 40
0.005
  9
$TRACEWID
 40
1.0
  9
$TEXTSTYLE
  7
style1
  9
$CLAYER
  8
Dimensione
  9
$CELTYPE
  6
ByLayer
  9
$CECOLOR
 62
   256
  9
$CELTSCALE
 40
1.0
  9
$DISPSILH
 70
     0
  9
$DIMSCALE
 40
0.001
  9
$DIMASZ
 40
1.5
  9
$DIMEXO
 40
0.0625
  9
$DIMDLI
 40
0.38
  9
$DIMRND
 40
0.0
  9
$DIMDLE
 40
0.0
  9
$DIMEXE
 40
0.18
  9
$DIMTP
 40
0.0
  9
$DIMTM
 40
0.0
  9
$DIMTXT
 40
3.0
  9
$DIMCEN
 40
0.0
  9
$DIMTSZ
 40
0.0
  9
$DIMTOL
 70
     0
  9
$DIMLIM
 70
     0
  9
$DIMTIH
 70
     1
  9
$DIMTOH
 70
     1
  9
$DIMSE1
 70
     0
  9
$DIMSE2
 70
     0
  9
$DIMTAD
 70
     0
  9
$DIMZIN
 70
     0
  9
$DIMBLK
  1
ArchTick
  9
$DIMASO
 70
     1
  9
$DIMSHO
 70
     1
  9
$DIMPOST
  1

  9
$DIMAPOST
  1

  9
$DIMALT
 70
     0
  9
$DIMALTD
 70
     2
  9
$DIMALTF
 40
25.4
  9
$DIMLFAC
 40
1.0
  9
$DIMTOFL
 70
     0
  9
$DIMTVP
 40
0.0
  9
$DIMTIX
 70
     0
  9
$DIMSOXD
 70
     0
  9
$DIMSAH
 70
     0
  9
$DIMBLK1
  1

  9
$DIMBLK2
  1

  9
$DIMSTYLE
  2
Bovelacci
  9
$DIMCLRD
 70
     5
  9
$DIMCLRE
 70
     5
  9
$DIMCLRT
 70
     4
  9
$DIMTFAC
 40
1.0
  9
$DIMGAP
 40
2.0
  9
$DIMJUST
 70
     0
  9
$DIMSD1
 70
     0
  9
$DIMSD2
 70
     0
  9
$DIMTOLJ
 70
     1
  9
$DIMTZIN
 70
     0
  9
$DIMALTZ
 70
     0
  9
$DIMALTTZ
 70
     0
  9
$DIMUPT
 70
     0
  9
$DIMDEC
 70
     2
  9
$DIMTDEC
 70
     2
  9
$DIMALTU
 70
     2
  9
$DIMALTTD
 70
     2
  9
$DIMTXSTY
  7
ROMANS
  9
$DIMAUNIT
 70
     0
  9
$DIMADEC
 70
     0
  9
$DIMALTRND
 40
0.0
  9
$DIMAZIN
 70
     0
  9
$DIMDSEP
 70
    46
  9
$DIMATFIT
 70
     3
  9
$DIMFRAC
 70
     0
  9
$DIMLDRBLK
  1

  9
$DIMLUNIT
 70
     2
  9
$DIMLWD
 70
    -2
  9
$DIMLWE
 70
    -2
  9
$DIMTMOVE
 70
     2
  9
$LUNITS
 70
     2
  9
$LUPREC
 70
     2
  9
$SKETCHINC
 40
1.0
  9
$FILLETRAD
 40
0.0
  9
$AUNITS
 70
     0
  9
$AUPREC
 70
     0
  9
$MENU
  1
.
  9
$ELEVATION
 40
0.0
  9
$PELEVATION
 40
0.0
  9
$THICKNESS
 40
0.0
  9
$LIMCHECK
 70
     0
  9
$CHAMFERA
 40
0.0
  9
$CHAMFERB
 40
0.0
  9
$CHAMFERC
 40
0.0
  9
$CHAMFERD
 40
0.0
  9
$SKPOLY
 70
     0
  9
$TDCREATE
 40
2454297.625402373
  9
$TDUCREATE
 40
2454297.542069039
  9
$TDUPDATE
 40
2454336.489959664
  9
$TDUUPDATE
 40
2454336.406626331
  9
$TDINDWG
 40
0.2081789120
  9
$TDUSRTIMER
 40
0.2081783565
  9
$USRTIMER
 70
     1
  9
$ANGBASE
 50
0.0
  9
$ANGDIR
 70
     0
  9
$PDMODE
 70
     0
  9
$PDSIZE
 40
0.0
  9
$PLINEWID
 40
0.0
  9
$SPLFRAME
 70
     0
  9
$SPLINETYPE
 70
     6
  9
$SPLINESEGS
 70
     8
  9
$HANDSEED
  5
1EA9
  9
$SURFTAB1
 70
     6
  9
$SURFTAB2
 70
     6
  9
$SURFTYPE
 70
     6
  9
$SURFU
 70
     6
  9
$SURFV
 70
     6
  9
$UCSBASE
  2

  9
$UCSNAME
  2

  9
$UCSORG
 10
0.0
 20
0.0
 30
0.0
  9
$UCSXDIR
 10
1.0
 20
0.0
 30
0.0
  9
$UCSYDIR
 10
0.0
 20
1.0
 30
0.0
  9
$UCSORTHOREF
  2

  9
$UCSORTHOVIEW
 70
     0
  9
$UCSORGTOP
 10
0.0
 20
0.0
 30
0.0
  9
$UCSORGBOTTOM
 10
0.0
 20
0.0
 30
0.0
  9
$UCSORGLEFT
 10
0.0
 20
0.0
 30
0.0
  9
$UCSORGRIGHT
 10
0.0
 20
0.0
 30
0.0
  9
$UCSORGFRONT
 10
0.0
 20
0.0
 30
0.0
  9
$UCSORGBACK
 10
0.0
 20
0.0
 30
0.0
  9
$PUCSBASE
  2

  9
$PUCSNAME
  2

  9
$PUCSORG
 10
0.0
 20
0.0
 30
0.0
  9
$PUCSXDIR
 10
1.0
 20
0.0
 30
0.0
  9
$PUCSYDIR
 10
0.0
 20
1.0
 30
0.0
  9
$PUCSORTHOREF
  2

  9
$PUCSORTHOVIEW
 70
     0
  9
$PUCSORGTOP
 10
0.0
 20
0.0
 30
0.0
  9
$PUCSORGBOTTOM
 10
0.0
 20
0.0
 30
0.0
  9
$PUCSORGLEFT
 10
0.0
 20
0.0
 30
0.0
  9
$PUCSORGRIGHT
 10
0.0
 20
0.0
 30
0.0
  9
$PUCSORGFRONT
 10
0.0
 20
0.0
 30
0.0
  9
$PUCSORGBACK
 10
0.0
 20
0.0
 30
0.0
  9
$USERI1
 70
     0
  9
$USERI2
 70
     0
  9
$USERI3
 70
     0
  9
$USERI4
 70
     0
  9
$USERI5
 70
     0
  9
$USERR1
 40
0.0
  9
$USERR2
 40
0.0
  9
$USERR3
 40
0.0
  9
$USERR4
 40
0.0
  9
$USERR5
 40
0.0
  9
$WORLDVIEW
 70
     1
  9
$SHADEDGE
 70
     3
  9
$SHADEDIF
 70
    70
  9
$TILEMODE
 70
     1
  9
$MAXACTVP
 70
    64
  9
$PINSBASE
 10
0.0
 20
0.0
 30
0.0
  9
$PLIMCHECK
 70
     0
  9
$PEXTMIN
 10
29.06606628894805
 20
20.36233246326446
 30
0.0
  9
$PEXTMAX
 10
261.5945966005325
 20
183.2609921693802
 30
0.0
  9
$PLIMMIN
 10
-3.17498779296875
 20
-3.174999952316281
  9
$PLIMMAX
 10
293.8356628417969
 20
206.7983276844024
  9
$UNITMODE
 70
     0
  9
$VISRETAIN
 70
     1
  9
$PLINEGEN
 70
     0
  9
$PSLTSCALE
 70
     1
  9
$TREEDEPTH
 70
  3020
  9
$CMLSTYLE
  2
Standard
  9
$CMLJUST
 70
     0
  9
$CMLSCALE
 40
20.0
  9
$PROXYGRAPHICS
 70
     1
  9
$MEASUREMENT
 70
     1
  9
$CELWEIGHT
370
    -1
  9
$ENDCAPS
280
     0
  9
$JOINSTYLE
280
     0
  9
$LWDISPLAY
290
     0
  9
$INSUNITS
 70
     4
  9
$HYPERLINKBASE
  1

  9
$STYLESHEET
  1

  9
$XEDIT
290
     1
  9
$CEPSNTYPE
380
     0
  9
$PSTYLEMODE
290
     1
  9
$FINGERPRINTGUID
  2
{4F38C4E7-9F37-4C76-96D9-79C94F9B03D9}
  9
$VERSIONGUID
  2
{9E7D7049-982B-4AE1-A592-84F9AE50E89E}
  9
$EXTNAMES
290
     1
  9
$PSVPSCALE
 40
0.0
  9
$OLESTARTUP
290
     0
  0
ENDSEC
  0
SECTION
  2
CLASSES
  0
CLASS
  1
ACDBDICTIONARYWDFLT
  2
AcDbDictionaryWithDefault
  3
ObjectDBX Classes
 90
        0
280
     0
281
     0
  0
CLASS
  1
TABLESTYLE
  2
AcDbTableStyle
  3
ObjectDBX Classes
 90
     2047
280
     0
281
     0
  0
CLASS
  1
SORTENTSTABLE
  2
AcDbSortentsTable
  3
ObjectDBX Classes
 90
        0
280
     0
281
     0
  0
CLASS
  1
DICTIONARYVAR
  2
AcDbDictionaryVar
  3
ObjectDBX Classes
 90
        0
280
     0
281
     0
  0
CLASS
  1
DIMASSOC
  2
AcDbDimAssoc
  3
"AcDbDimAssoc|Product Desc:     AcDim ARX App For Dimension|Company:          Autodesk, Inc.|WEB Address:      www.autodesk.com"
 90
        0
280
     0
281
     0
  0
CLASS
  1
ACDBPLACEHOLDER
  2
AcDbPlaceHolder
  3
ObjectDBX Classes
 90
        0
280
     0
281
     0
  0
CLASS
  1
LAYOUT
  2
AcDbLayout
  3
ObjectDBX Classes
 90
        0
280
     0
281
     0
  0
CLASS
  1
MATERIAL
  2
AcDbMaterial
  3
ObjectDBX Classes
 90
        0
280
     0
281
     0
  0
CLASS
  1
VISUALSTYLE
  2
AcDbVisualStyle
  3
ObjectDBX Classes
 90
     4095
280
     0
281
     0
  0
ENDSEC
  0
SECTION
  2
TABLES
  0
TABLE
  2
VPORT
  5
96
330
0
100
AcDbSymbolTable
 70
    11
  0
VPORT
  5
1E9B
330
96
100
AcDbSymbolTableRecord
100
AcDbViewportTableRecord
  2
*Active
 70
     0
 10
0.0
 20
0.0
 11
1.0
 21
1.0
 12
0.2075712387695888
 22
0.1492351177436363
 13
0.0
 23
0.0
 14
10.0
 24
10.0
 15
10.0
 25
10.0
 16
0.0
 26
0.0
 36
1.0
 17
0.0
 27
0.0
 37
0.0
 40
0.2764726465842815
 41
1.546526867627784
 42
50.0
 43
0.0
 44
0.0
 50
0.0
 51
0.0
 71
     0
 72
  1000
 73
     1
 74
     3
 75
     0
 76
     0
 77
     0
 78
     0
281
     0
 65
     1
110
0.0
120
0.0
130
0.0
111
1.0
121
0.0
131
0.0
112
0.0
122
1.0
132
0.0
 79
     0
146
0.0
  0
ENDTAB
  0
TABLE
  2
LTYPE
  5
91
330
0
100
AcDbSymbolTable
 70
     5
  0
LTYPE
  5
92
330
91
100
AcDbSymbolTableRecord
100
AcDbLinetypeTableRecord
  2
ByBlock
 70
     0
  3

 72
    65
 73
     0
 40
0.0
  0
LTYPE
  5
93
330
91
100
AcDbSymbolTableRecord
100
AcDbLinetypeTableRecord
  2
ByLayer
 70
     0
  3

 72
    65
 73
     0
 40
0.0
  0
LTYPE
  5
C
330
91
100
AcDbSymbolTableRecord
100
AcDbLinetypeTableRecord
  2
Continuous
 70
     0
  3
Solid line
 72
    65
 73
     0
 40
0.0
  0
LTYPE
  5
105
330
91
100
AcDbSymbolTableRecord
100
AcDbLinetypeTableRecord
  2
ACAD_ISO10W100
 70
     0
  3
ISO dash dot __ . __ . __ . __ . __ . __ . __ .
 72
    65
 73
     4
 40
18.0
 49
12.0
 74
     0
 49
-3.0
 74
     0
 49
0.0
 74
     0
 49
-3.0
 74
     0
  0
LTYPE
  5
190
330
91
100
AcDbSymbolTableRecord
100
AcDbLinetypeTableRecord
  2
RAYITAX4
 70
     0
  3
RAYITAX4
 72
    65
 73
     2
 40
18.0
 49
12.0
 74
     0
 49
-6.0
 74
     0
  0
LTYPE
  5
73C
330
91
100
AcDbSymbolTableRecord
100
AcDbLinetypeTableRecord
  2
RAYITA
 70
     0
  3
rayita
 72
    65
 73
     2
 40
1.5
 49
1.0
 74
     0
 49
-0.5
 74
     0
  0
ENDTAB
  0
TABLE
  2
LAYER
  5
8A
102
{ACAD_XDICTIONARY
360
8B
102
}
330
0
100
AcDbSymbolTable
 70
    12
  0
LAYER
  5
6
330
8A
100
AcDbSymbolTableRecord
100
AcDbLayerTableRecord
  2
0
 70
     0
 62
     7
  6
Continuous
370
    -3
390
7
  0
LAYER
  5
3F
330
8A
100
AcDbSymbolTableRecord
100
AcDbLayerTableRecord
  2
Defpoints
 70
     0
 62
     7
  6
Continuous
290
     0
370
    -3
390
7
  0
LAYER
  5
2E
330
8A
100
AcDbSymbolTableRecord
100
AcDbLayerTableRecord
  2
Dimensione
 70
     0
 62
   150
  6
Continuous
370
    -3
390
7
1001
AcAecLayerStandard
1000

1000

  0
LAYER
  5
2A
330
8A
100
AcDbSymbolTableRecord
100
AcDbLayerTableRecord
  2
Profilo
 70
     0
 62
     1
  6
Continuous
370
    -3
390
7
1001
AcAecLayerStandard
1000

1000

  0
LAYER
  5
54
330
8A
100
AcDbSymbolTableRecord
100
AcDbLayerTableRecord
  2
Sezione
 70
     0
 62
     2
  6
Continuous
370
    -3
390
7
1001
AcAecLayerStandard
1000

1000

  0
LAYER
  5
E
330
8A
100
AcDbSymbolTableRecord
100
AcDbLayerTableRecord
  2
Table
 70
     0
 62
     3
  6
Continuous
370
    -3
390
7
1001
AcAecLayerStandard
1000

1000

  0
LAYER
  5
19
330
8A
100
AcDbSymbolTableRecord
100
AcDbLayerTableRecord
  2
Text
 70
     0
 62
     4
  6
Continuous
370
    -3
390
7
1001
AcAecLayerStandard
1000

1000

  0
LAYER
  5
5C
330
8A
100
AcDbSymbolTableRecord
100
AcDbLayerTableRecord
  2
Vista
 70
     0
 62
     2
  6
Continuous
370
    -3
390
7
1001
AcAecLayerStandard
1000

1000

  0
LAYER
  5
256
330
8A
100
AcDbSymbolTableRecord
100
AcDbLayerTableRecord
  2
CORTE
 70
     0
 62
     1
  6
Continuous
370
    -3
390
7
  0
LAYER
  5
40E
330
8A
100
AcDbSymbolTableRecord
100
AcDbLayerTableRecord
  2
COTAS
 70
     0
 62
     4
  6
Continuous
370
    -3
390
7
  0
LAYER
  5
594
330
8A
100
AcDbSymbolTableRecord
100
AcDbLayerTableRecord
  2
MARCO
 70
     0
 62
     4
  6
Continuous
370
    -3
390
7
  0
LAYER
  5
B5A
330
8A
100
AcDbSymbolTableRecord
100
AcDbLayerTableRecord
  2
TRAMA
 70
     0
 62
     4
  6
Continuous
370
    -3
390
7
  0
ENDTAB
  0
TABLE
  2
STYLE
  5
8F
330
0
100
AcDbSymbolTable
 70
     5
  0
STYLE
  5
1A
330
8F
100
AcDbSymbolTableRecord
100
AcDbTextStyleTableRecord
  2
Standard
 70
     0
 40
0.0
 41
1.0
 50
0.0
 71
     0
 42
2.5
  3
txt
  4

  0
STYLE
  5
20
330
8F
100
AcDbSymbolTableRecord
100
AcDbTextStyleTableRecord
  2
ROMANS
 70
     0
 40
0.0
 41
1.0
 50
0.0
 71
     0
 42
2.5
  3
romans
  4

  0
STYLE
  5
28
330
8F
100
AcDbSymbolTableRecord
100
AcDbTextStyleTableRecord
  2
Arial
 70
     0
 40
0.0
 41
1.0
 50
0.0
 71
     0
 42
0.25
  3
ARIAL.TTF
  4

1001
ACAD
1000
Arial
1071
       34
  0
STYLE
  5
26
330
8F
100
AcDbSymbolTableRecord
100
AcDbTextStyleTableRecord
  2
style1
 70
     0
 40
0.0
 41
1.0
 50
0.0
 71
     0
 42
0.005
  3
TIMES.TTF
  4

1001
ACAD
1000
Times New Roman
1071
       18
  0
STYLE
  5
595
330
8F
100
AcDbSymbolTableRecord
100
AcDbTextStyleTableRecord
  2
EUROROMANOBLIQUE
 70
     0
 40
0.0
 41
1.0
 50
0.0
 71
     0
 42
2.5
  3
euro____.pfb
  4

  0
ENDTAB
  0
TABLE
  2
VIEW
  5
94
330
0
100
AcDbSymbolTable
 70
     4
  0
ENDTAB
  0
TABLE
  2
UCS
  5
95
330
0
100
AcDbSymbolTable
 70
     0
  0
ENDTAB
  0
TABLE
  2
APPID
  5
98
330
0
100
AcDbSymbolTable
 70
     9
  0
APPID
  5
1B
330
98
100
AcDbSymbolTableRecord
100
AcDbRegAppTableRecord
  2
ACAD
 70
     0
  0
APPID
  5
34
330
98
100
AcDbSymbolTableRecord
100
AcDbRegAppTableRecord
  2
ACAD_DSTYLE_DIMJOGGED_JOGANGLE_SYMBOL
 70
     0
  0
APPID
  5
F
330
98
100
AcDbSymbolTableRecord
100
AcDbRegAppTableRecord
  2
AcAecLayerStandard
 70
     0
  0
APPID
  5
85
330
98
100
AcDbSymbolTableRecord
100
AcDbRegAppTableRecord
  2
ACAD_PSEXT
 70
     0
  0
APPID
  5
BA
330
98
100
AcDbSymbolTableRecord
100
AcDbRegAppTableRecord
  2
ACAD_DSTYLE_DIMEXT_LENGTH
 70
     0
  0
APPID
  5
101
330
98
100
AcDbSymbolTableRecord
100
AcDbRegAppTableRecord
  2
ACAD_EXEMPT_FROM_CAD_STANDARDS
 70
     0
  0
APPID
  5
102
330
98
100
AcDbSymbolTableRecord
100
AcDbRegAppTableRecord
  2
ACAD_DSTYLE_DIM_LINETYPE
 70
     0
  0
APPID
  5
103
330
98
100
AcDbSymbolTableRecord
100
AcDbRegAppTableRecord
  2
ACAD_DSTYLE_DIM_EXT1_LINETYPE
 70
     0
  0
APPID
  5
104
330
98
100
AcDbSymbolTableRecord
100
AcDbRegAppTableRecord
  2
ACAD_DSTYLE_DIM_EXT2_LINETYPE
 70
     0
  0
ENDTAB
  0
TABLE
  2
DIMSTYLE
  5
99
330
0
100
AcDbSymbolTable
 70
     8
100
AcDbDimStyleTable
 71
     2
340
2F
340
9A
  0
DIMSTYLE
105
9A
330
99
100
AcDbSymbolTableRecord
100
AcDbDimStyleTableRecord
  2
ISO-25
 70
     0
 41
2.5
 42
0.625
 43
3.75
 44
1.25
 73
     0
 74
     0
 77
     1
 78
     8
140
2.5
141
2.5
143
0.03937007874016
147
0.625
171
     3
172
     1
271
     2
272
     2
274
     3
278
    44
283
     0
284
     8
340
1A
  0
DIMSTYLE
105
2F
102
{ACAD_REACTORS
330
1E64
330
1E7E
102
}
330
99
100
AcDbSymbolTableRecord
100
AcDbDimStyleTableRecord
  2
Bovelacci
 70
     0
 40
0.001
 41
1.5
140
3.0
141
0.0
147
2.0
176
     5
177
     5
178
     4
271
     2
272
     2
279
     2
340
20
342
30
1001
ACAD_DSTYLE_DIMJOGGED_JOGANGLE_SYMBOL
1070
   384
1040
0.7853981633974483
1001
ACAD_DSTYLE_DIMEXT_LENGTH
1070
   378
1040
0.18
  0
DIMSTYLE
105
194
330
99
100
AcDbSymbolTableRecord
100
AcDbDimStyleTableRecord
  2
STANDARD
 70
     0
340
1A
  0
DIMSTYLE
105
4EB
330
99
100
AcDbSymbolTableRecord
100
AcDbDimStyleTableRecord
  2
Dim 1-100
 70
     0
 40
0.1
 41
1.5
 42
0.0
 43
5.0
 44
1.25
 45
0.005
 46
1.25
 73
     0
 74
     0
 77
     1
 78
     9
140
2.0
141
2.5
147
1.0
172
     1
174
     1
179
     2
279
     2
289
     2
340
20
342
30
  0
DIMSTYLE
105
4EC
330
99
100
AcDbSymbolTableRecord
100
AcDbDimStyleTableRecord
  2
Dim 1-50
 70
     0
 40
0.05
 41
1.5
 42
0.0
 43
5.0
 44
1.25
 45
0.005
 46
1.25
 73
     0
 74
     0
 77
     1
 78
     9
140
2.0
141
2.5
147
1.0
172
     1
174
     1
179
     2
279
     2
289
     2
340
20
342
30
  0
DIMSTYLE
105
4ED
330
99
100
AcDbSymbolTableRecord
100
AcDbDimStyleTableRecord
  2
Dim 1-200
 70
     0
 40
0.2
 41
1.5
 42
0.0
 43
5.0
 44
1.25
 45
0.005
 46
1.25
 73
     0
 74
     0
 77
     1
 78
     9
140
2.0
141
2.5
147
1.0
172
     1
174
     1
179
     2
271
     2
272
     2
279
     2
289
     2
340
20
342
30
  0
DIMSTYLE
105
4EE
330
99
100
AcDbSymbolTableRecord
100
AcDbDimStyleTableRecord
  2
AEC Scale - Italiano
 70
     0
 41
1.0
 42
10.0
 43
10.0
 44
10.0
 73
     0
 74
     0
 75
     1
 76
     1
 77
     1
140
10.0
141
1.0
147
10.0
173
     1
271
     0
272
     0
279
     2
340
1A
343
4E6
344
4E0
  0
ENDTAB
  0
TABLE
  2
BLOCK_RECORD
  5
1
330
0
100
AcDbSymbolTable
 70
    42
  0
BLOCK_RECORD
  5
2
102
{ACAD_XDICTIONARY
360
3
102
}
330
1
100
AcDbSymbolTableRecord
100
AcDbBlockTableRecord
  2
*Model_Space
340
77
  0
BLOCK_RECORD
  5
79
330
1
100
AcDbSymbolTableRecord
100
AcDbBlockTableRecord
  2
*Paper_Space
340
82
  0
BLOCK_RECORD
  5
86
330
1
100
AcDbSymbolTableRecord
100
AcDbBlockTableRecord
  2
*Paper_Space0
340
89
  0
BLOCK_RECORD
  5
30
330
1
100
AcDbSymbolTableRecord
100
AcDbBlockTableRecord
  2
_ArchTick
340
0
310
2800000020000000200000000100080000000000000400000000000000000000000000000000000000000000000080000080000000808000800000008000800080800000C0C0C000C0DCC000F0CAA6000020400000206000002080000020A0000020C0000020E00000400000004020000040400000406000004080000040A0
310
000040C0000040E00000600000006020000060400000606000006080000060A0000060C0000060E00000800000008020000080400000806000008080000080A0000080C0000080E00000A0000000A0200000A0400000A0600000A0800000A0A00000A0C00000A0E00000C0000000C0200000C0400000C0600000C0800000C0
310
A00000C0C00000C0E00000E0000000E0200000E0400000E0600000E0800000E0A00000E0C00000E0E00040000000400020004000400040006000400080004000A0004000C0004000E00040200000402020004020400040206000402080004020A0004020C0004020E000404000004040200040404000404060004040800040
310
40A0004040C0004040E00040600000406020004060400040606000406080004060A0004060C0004060E00040800000408020004080400040806000408080004080A0004080C0004080E00040A0000040A0200040A0400040A0600040A0800040A0A00040A0C00040A0E00040C0000040C0200040C0400040C0600040C08000
310
40C0A00040C0C00040C0E00040E0000040E0200040E0400040E0600040E0800040E0A00040E0C00040E0E00080000000800020008000400080006000800080008000A0008000C0008000E00080200000802020008020400080206000802080008020A0008020C0008020E00080400000804020008040400080406000804080
310
008040A0008040C0008040E00080600000806020008060400080606000806080008060A0008060C0008060E00080800000808020008080400080806000808080008080A0008080C0008080E00080A0000080A0200080A0400080A0600080A0800080A0A00080A0C00080A0E00080C0000080C0200080C0400080C0600080C0
310
800080C0A00080C0C00080C0E00080E0000080E0200080E0400080E0600080E0800080E0A00080E0C00080E0E000C0000000C0002000C0004000C0006000C0008000C000A000C000C000C000E000C0200000C0202000C0204000C0206000C0208000C020A000C020C000C020E000C0400000C0402000C0404000C0406000C0
310
408000C040A000C040C000C040E000C0600000C0602000C0604000C0606000C0608000C060A000C060C000C060E000C0800000C0802000C0804000C0806000C0808000C080A000C080C000C080E000C0A00000C0A02000C0A04000C0A06000C0A08000C0A0A000C0A0C000C0A0E000C0C00000C0C02000C0C04000C0C06000
310
C0C08000C0C0A000F0FBFF00A4A0A000808080000000FF0000FF000000FFFF00FF000000FF00FF00FFFF0000FFFFFF00000000FF000000000000000000000000000000000000000000000000000000000000FF00FF00000000000000000000000000000000000000000000000000000000FF000000FF000000000000000000
310
0000000000000000000000000000000000FF0000000000FF0000000000000000000000000000000000000000000000000000FF0000000000FF0000000000000000000000000000000000000000000000000000FF0000000000FF0000000000000000000000000000000000000000000000000000FF0000000000FF00000000
310
00000000000000000000000000000000000000000000FF0000000000FF0000000000000000000000000000000000000000000000000000FF0000000000FF0000000000000000000000000000000000000000000000000000FF0000000000FF0000000000000000000000000000000000000000000000000000FF0000000000
310
FF0000000000000000000000000000000000000000000000000000FF0000000000FF0000000000000000000000000000000000000000000000000000FF0000000000FF0000000000000000000000000000000000000000000000000000FF0000000000FF0000000000000000000000000000000000000000000000000000FF
310
0000000000FF0000000000000000000000000000000000000000000000000000FF0000000000FF0000000000000000000000000000000000000000000000000000FF0000000000FF0000000000000000000000000000000000000000000000000000FF0000000000FF00000000000000000000000000000000000000000000
310
00000000FF0000000000FF0000000000000000000000000000000000000000000000000000FF0000000000FF0000000000000000000000000000000000000000000000000000FF0000000000FF0000000000000000000000000000000000000000000000000000FF0000000000FF0000000000000000000000000000000000
310
000000000000000000FF0000000000FF0000000000000000000000000000000000000000000000000000FF0000000000FF0000000000000000000000000000000000000000000000000000FF0000000000FF0000000000000000000000000000000000000000000000000000FF0000000000FF000000000000000000000000
310
0000000000000000000000000000FF0000000000FF0000000000000000000000000000000000000000000000000000FF0000000000FF0000000000000000000000000000000000000000000000000000FF0000000000FF0000000000000000000000000000000000000000000000000000FF000000FF000000000000000000
310
00000000000000000000000000000000000000FF00FF000000000000000000000000000000000000000000000000000000000000FF000000
102
{BLKREFS
331
545
331
546
331
55F
331
560
331
71A
331
71B
331
724
331
725
331
B90
331
B91
331
BAA
331
BAB
331
BC4
331
BC5
331
BDE
331
BDF
331
F9F
331
FA0
331
FB9
331
FBA
331
FD4
331
FD5
331
1634
331
1635
331
1641
331
1642
331
1A21
331
1A22
331
1A2B
331
1A2C
331
1B4E
331
1B4F
331
1B68
331
1B69
331
1E77
331
1E78
331
1E90
331
1E91
102
}
  0
BLOCK_RECORD
  5
179
330
1
100
AcDbSymbolTableRecord
100
AcDbBlockTableRecord
  2
DOT
340
0
  0
BLOCK_RECORD
  5
213
330
1
100
AcDbSymbolTableRecord
100
AcDbBlockTableRecord
  2
ELEMENT
340
0
102
{BLKREFS
331
244
102
}
  0
BLOCK_RECORD
  5
235
330
1
100
AcDbSymbolTableRecord
100
AcDbBlockTableRecord
  2
NOM-J
340
0
  0
BLOCK_RECORD
  5
3FB
330
1
100
AcDbSymbolTableRecord
100
AcDbBlockTableRecord
  2
NOM-QR
340
0
  0
BLOCK_RECORD
  5
4E0
330
1
100
AcDbSymbolTableRecord
100
AcDbBlockTableRecord
  2
_Arrivo
340
0
310
2800000020000000200000000100080000000000000400000000000000000000000000000000000000000000000080000080000000808000800000008000800080800000C0C0C000C0DCC000F0CAA6000020400000206000002080000020A0000020C0000020E00000400000004020000040400000406000004080000040A0
310
000040C0000040E00000600000006020000060400000606000006080000060A0000060C0000060E00000800000008020000080400000806000008080000080A0000080C0000080E00000A0000000A0200000A0400000A0600000A0800000A0A00000A0C00000A0E00000C0000000C0200000C0400000C0600000C0800000C0
310
A00000C0C00000C0E00000E0000000E0200000E0400000E0600000E0800000E0A00000E0C00000E0E00040000000400020004000400040006000400080004000A0004000C0004000E00040200000402020004020400040206000402080004020A0004020C0004020E000404000004040200040404000404060004040800040
310
40A0004040C0004040E00040600000406020004060400040606000406080004060A0004060C0004060E00040800000408020004080400040806000408080004080A0004080C0004080E00040A0000040A0200040A0400040A0600040A0800040A0A00040A0C00040A0E00040C0000040C0200040C0400040C0600040C08000
310
40C0A00040C0C00040C0E00040E0000040E0200040E0400040E0600040E0800040E0A00040E0C00040E0E00080000000800020008000400080006000800080008000A0008000C0008000E00080200000802020008020400080206000802080008020A0008020C0008020E00080400000804020008040400080406000804080
310
008040A0008040C0008040E00080600000806020008060400080606000806080008060A0008060C0008060E00080800000808020008080400080806000808080008080A0008080C0008080E00080A0000080A0200080A0400080A0600080A0800080A0A00080A0C00080A0E00080C0000080C0200080C0400080C0600080C0
310
800080C0A00080C0C00080C0E00080E0000080E0200080E0400080E0600080E0800080E0A00080E0C00080E0E000C0000000C0002000C0004000C0006000C0008000C000A000C000C000C000E000C0200000C0202000C0204000C0206000C0208000C020A000C020C000C020E000C0400000C0402000C0404000C0406000C0
310
408000C040A000C040C000C040E000C0600000C0602000C0604000C0606000C0608000C060A000C060C000C060E000C0800000C0802000C0804000C0806000C0808000C080A000C080C000C080E000C0A00000C0A02000C0A04000C0A06000C0A08000C0A0A000C0A0C000C0A0E000C0C00000C0C02000C0C04000C0C06000
310
C0C08000C0C0A000F0FBFF00A4A0A000808080000000FF0000FF000000FFFF00FF000000FF00FF00FFFF0000FFFFFF00000000000000000000000000000000000000000000000000000000000000000000000000000000000000FF0000000000000000000000000000000000000000000000000000000000000000FF000000
310
00000000000000000000000000000000000000000000000000000000FF0000000000000000000000000000000000000000000000000000000000000000FF00000000000000000000000000000000000000000000000000000000000000FF0000000000000000000000000000000000000000000000000000000000000000FF
310
0000000000000000000000000000000000000000000000000000000000000000FF00000000000000000000000000000000000000000000000000000000000000FF0000000000000000000000000000000000000000000000000000000000000000FF0000000000000000000000000000000000000000000000000000000000
310
0000FF0000000000000000000000000000000000000000000000000000000000000000FF00000000000000000000000000000000000000000000000000000000000000FF0000000000000000000000000000000000000000000000000000000000000000FF0000FF0000000000000000000000000000000000000000000000
310
000000000000FFFF000000000000000000000000000000000000000000000000000000000000FFFF00000000000000000000000000000000000000000000000000000000FFFFFFFFFFFF00000000000000000000000000000000000000000000000000000000FFFF0000000000000000000000000000000000000000000000
310
000000000000FF0000FF000000000000000000000000000000000000000000000000000000FF00000000000000000000000000000000000000000000000000000000000000FF000000000000000000000000000000000000000000000000000000000000FF0000000000000000000000000000000000000000000000000000
310
0000000000FF000000000000000000000000000000000000000000000000000000000000FF00000000000000000000000000000000000000000000000000000000000000FF000000000000000000000000000000000000000000000000000000000000FF000000000000000000000000000000000000000000000000000000
310
000000FF00000000000000000000000000000000000000000000000000000000000000FF000000000000000000000000000000000000000000000000000000000000FF00000000000000000000000000000000000000000000000000000000000000FF00000000000000000000000000000000000000000000000000000000
310
0000FF0000000000000000000000000000000000000000000000000000000000000000000000000000000000000000000000000000000000
  0
BLOCK_RECORD
  5
4E6
330
1
100
AcDbSymbolTableRecord
100
AcDbBlockTableRecord
  2
_Partenza
340
0
310
2800000020000000200000000100080000000000000400000000000000000000000000000000000000000000000080000080000000808000800000008000800080800000C0C0C000C0DCC000F0CAA6000020400000206000002080000020A0000020C0000020E00000400000004020000040400000406000004080000040A0
310
000040C0000040E00000600000006020000060400000606000006080000060A0000060C0000060E00000800000008020000080400000806000008080000080A0000080C0000080E00000A0000000A0200000A0400000A0600000A0800000A0A00000A0C00000A0E00000C0000000C0200000C0400000C0600000C0800000C0
310
A00000C0C00000C0E00000E0000000E0200000E0400000E0600000E0800000E0A00000E0C00000E0E00040000000400020004000400040006000400080004000A0004000C0004000E00040200000402020004020400040206000402080004020A0004020C0004020E000404000004040200040404000404060004040800040
310
40A0004040C0004040E00040600000406020004060400040606000406080004060A0004060C0004060E00040800000408020004080400040806000408080004080A0004080C0004080E00040A0000040A0200040A0400040A0600040A0800040A0A00040A0C00040A0E00040C0000040C0200040C0400040C0600040C08000
310
40C0A00040C0C00040C0E00040E0000040E0200040E0400040E0600040E0800040E0A00040E0C00040E0E00080000000800020008000400080006000800080008000A0008000C0008000E00080200000802020008020400080206000802080008020A0008020C0008020E00080400000804020008040400080406000804080
310
008040A0008040C0008040E00080600000806020008060400080606000806080008060A0008060C0008060E00080800000808020008080400080806000808080008080A0008080C0008080E00080A0000080A0200080A0400080A0600080A0800080A0A00080A0C00080A0E00080C0000080C0200080C0400080C0600080C0
310
800080C0A00080C0C00080C0E00080E0000080E0200080E0400080E0600080E0800080E0A00080E0C00080E0E000C0000000C0002000C0004000C0006000C0008000C000A000C000C000C000E000C0200000C0202000C0204000C0206000C0208000C020A000C020C000C020E000C0400000C0402000C0404000C0406000C0
310
408000C040A000C040C000C040E000C0600000C0602000C0604000C0606000C0608000C060A000C060C000C060E000C0800000C0802000C0804000C0806000C0808000C080A000C080C000C080E000C0A00000C0A02000C0A04000C0A06000C0A08000C0A0A000C0A0C000C0A0E000C0C00000C0C02000C0C04000C0C06000
310
C0C08000C0C0A000F0FBFF00A4A0A000808080000000FF0000FF000000FFFF00FF000000FF00FF00FFFF0000FFFFFF0000000000000000000000000000000000000000000000000000000000000000000000000000000000000000000000000000000000000000000000000000000000000000000000000000000000000000
310
000000000000000000000000000000000000000000000000000000000000000000000000000000000000000000000000000000000000000000000000000000000000000000000000000000000000000000000000000000000000000000000000000000000000000000000000000000000000FFFFFFFFFFFFFFFFFFFFFFFFFF
310
FFFFFFFFFFFFFFFFFFFFFFFFFFFFFFFFFF0000000000000000000000000000000000000000000000000000000000000000000000000000000000000000000000000000000000000000000000000000000000000000000000000000000000000000000000000000000000000000000000000000000000000000000000000000
310
00000000000000000000000000000000000000000000000000000000000000000000000000000000000000000000000000000000000000000000000000000000000000000000000000000000000000000000000000000000000000000000000000000000000000000000000000000000000000000000000000000000000000
310
00000000000000000000000000000000000000000000000000000000000000000000000000000000000000000000000000000000000000000000000000000000000000000000000000000000000000000000000000000000000000000000000000000000000000000000000000000000000000000000000000000000000000
310
00000000000000000000000000000000000000000000000000000000000000000000000000000000000000000000000000000000000000000000000000000000000000000000000000000000000000000000000000000000000000000000000000000000000000000000000000000000000000000000000000000000000000
310
000000000000000000000000000000000000000000000000000000000000000000000000000000000000000000000000000000000000000000000000000000000000000000000000000000000000000000000000000000FFFFFFFFFFFFFFFFFFFFFFFFFFFFFFFFFFFFFFFFFFFFFFFFFFFFFFFFFFFF00000000000000000000
310
00000000000000000000000000000000000000000000000000000000000000000000000000000000000000000000000000000000000000000000000000000000000000000000000000000000000000000000000000000000000000000000000000000000000000000000000000000000000000000000000000000000000000
310
0000000000000000000000000000000000000000000000000000000000000000000000000000000000000000000000000000000000000000
  0
BLOCK_RECORD
  5
73D
330
1
100
AcDbSymbolTableRecord
100
AcDbBlockTableRecord
  2
A$C6CE44357
340
0
1001
ACAD
1000
DesignCenter Data
1002
{
1070
     1
1070
     0
1002
}
  0
BLOCK_RECORD
  5
B69
102
{ACAD_XDICTIONARY
360
B6D
102
}
330
1
100
AcDbSymbolTableRecord
100
AcDbBlockTableRecord
  2
A$C263D6B6A
340
0
1001
ACAD
1000
DesignCenter Data
1002
{
1070
     1
1070
     4
1002
}
  0
BLOCK_RECORD
  5
BFB
330
1
100
AcDbSymbolTableRecord
100
AcDbBlockTableRecord
  2
*X19
340
0
102
{BLKREFS
331
C22
102
}
  0
BLOCK_RECORD
  5
C1F
330
1
100
AcDbSymbolTableRecord
100
AcDbBlockTableRecord
  2
A$C6C65579B
340
0
1001
ACAD
1000
DesignCenter Data
1002
{
1070
     1
1070
     0
1002
}
  0
BLOCK_RECORD
  5
FA7
330
1
100
AcDbSymbolTableRecord
100
AcDbBlockTableRecord
  2
*D23
340
0
  0
BLOCK_RECORD
  5
FC2
330
1
100
AcDbSymbolTableRecord
100
AcDbBlockTableRecord
  2
*D24
340
0
  0
BLOCK_RECORD
  5
1622
330
1
100
AcDbSymbolTableRecord
100
AcDbBlockTableRecord
  2
*D27
340
0
  0
BLOCK_RECORD
  5
163C
330
1
100
AcDbSymbolTableRecord
100
AcDbBlockTableRecord
  2
*D28
340
0
  0
BLOCK_RECORD
  5
19EA
330
1
100
AcDbSymbolTableRecord
100
AcDbBlockTableRecord
  2
*D31
340
0
  0
BLOCK_RECORD
  5
1A04
330
1
100
AcDbSymbolTableRecord
100
AcDbBlockTableRecord
  2
*D32
340
0
  0
BLOCK_RECORD
  5
1B3C
330
1
100
AcDbSymbolTableRecord
100
AcDbBlockTableRecord
  2
*D35
340
0
  0
BLOCK_RECORD
  5
1B56
330
1
100
AcDbSymbolTableRecord
100
AcDbBlockTableRecord
  2
*D36
340
0
  0
BLOCK_RECORD
  5
1E65
330
1
100
AcDbSymbolTableRecord
100
AcDbBlockTableRecord
  2
*D40
340
0
  0
BLOCK_RECORD
  5
1E7F
330
1
100
AcDbSymbolTableRecord
100
AcDbBlockTableRecord
  2
*D41
340
0
  0
ENDTAB
  0
ENDSEC
  0
SECTION
  2
BLOCKS
  0
BLOCK
  5
5
330
2
100
AcDbEntity
  8
0
100
AcDbBlockBegin
  2
*Model_Space
 70
     0
 10
0.0
 20
0.0
 30
0.0
  3
*Model_Space
  1

  0
ENDBLK
  5
76
330
2
100
AcDbEntity
  8
0
100
AcDbBlockEnd
  0
BLOCK
  5
7A
330
79
100
AcDbEntity
 67
     1
  8
0
100
AcDbBlockBegin
  2
*Paper_Space
 70
     0
 10
0.0
 20
0.0
 30
0.0
  3
*Paper_Space
  1

  0
ENDBLK
  5
81
330
79
100
AcDbEntity
 67
     1
  8
0
100
AcDbBlockEnd
  0
BLOCK
  5
87
330
86
100
AcDbEntity
 67
     1
  8
0
100
AcDbBlockBegin
  2
*Paper_Space0
 70
     0
 10
0.0
 20
0.0
 30
0.0
  3
*Paper_Space0
  1

  0
ENDBLK
  5
88
330
86
100
AcDbEntity
 67
     1
  8
0
100
AcDbBlockEnd
  0
BLOCK
  5
31
330
30
100
AcDbEntity
  8
0
 62
     1
100
AcDbBlockBegin
  2
_ArchTick
 70
     0
 10
0.0
 20
0.0
 30
0.0
  3
_ArchTick
  1

  0
LWPOLYLINE
  5
32
330
30
100
AcDbEntity
  8
0
  6
ByBlock
 62
     0
100
AcDbPolyline
 90
        2
 70
     0
 43
0.15
 10
-0.5
 20
-0.5
 10
0.5
 20
0.5
  0
ENDBLK
  5
33
330
30
100
AcDbEntity
  8
0
 62
     1
100
AcDbBlockEnd
  0
BLOCK
  5
17A
330
179
100
AcDbEntity
  8
0
100
AcDbBlockBegin
  2
DOT
 70
     0
 10
0.0
 20
0.0
 30
0.0
  3
DOT
  1

  0
LWPOLYLINE
  5
17B
330
179
100
AcDbEntity
  8
0
  6
ByBlock
 62
     0
100
AcDbPolyline
 90
        2
 70
     1
 43
0.5
 10
-0.25
 20
0.0
 42
1.0
 10
0.25
 20
0.0
 42
1.0
  0
LINE
  5
17C
330
179
100
AcDbEntity
  8
0
  6
ByBlock
 62
     0
100
AcDbLine
 10
-0.5
 20
0.0
 30
0.0
 11
-1.0
 21
0.0
 31
0.0
  0
ENDBLK
  5
17D
330
179
100
AcDbEntity
  8
0
100
AcDbBlockEnd
  0
BLOCK
  5
214
330
213
100
AcDbEntity
  8
0
100
AcDbBlockBegin
  2
ELEMENT
 70
     0
 10
0.0
 20
0.0
 30
0.0
  3
ELEMENT
  1

  0
LINE
  5
215
330
213
100
AcDbEntity
  8
CORTE
 62
     1
100
AcDbLine
 10
0.0287752548522349
 20
0.037775254852221
 30
0.0
 11
0.0062928932188697
 21
0.015292893218799
 31
0.0
  0
ARC
  5
216
330
213
100
AcDbEntity
  8
CORTE
 62
     1
100
AcDbCircle
 10
0.0148333333333994
 20
0.0291666666666402
 30
0.0
 40
0.0191847740553366
100
AcDbArc
 50
270.4730994291238
 51
359.5269005707907
  0
LINE
  5
217
330
213
100
AcDbEntity
  8
CORTE
100
AcDbLine
 10
0.0130000000000337
 20
-0.0000000000000568
 30
0.0
 11
0.0099999999999909
 21
0.0000000000000284
 31
0.0
  0
LINE
  5
218
330
213
100
AcDbEntity
  8
CORTE
100
AcDbLine
 10
-0.0009999999999764
 20
0.0010000000000048
 30
0.0
 11
-0.0009999999999764
 21
0.0140000000000384
 31
0.0
  0
ARC
  5
219
330
213
100
AcDbEntity
  8
CORTE
100
AcDbCircle
 10
0.0
 20
0.0010000000000048
 30
0.0
 40
0.001
100
AcDbArc
 50
180.0
 51
269.9999999991858
  0
LINE
  5
21A
330
213
100
AcDbEntity
  8
CORTE
100
AcDbLine
 10
0.0040000000000191
 20
-0.0039999999999623
 30
0.0
 11
0.0040000000000191
 21
-0.0010000000000332
 31
0.0
  0
LINE
  5
21B
330
213
100
AcDbEntity
  8
CORTE
100
AcDbLine
 10
0.0090000000000146
 20
-0.0039999999999907
 30
0.0
 11
0.0090000000000146
 21
-0.0009999999999764
 31
0.0
  0
ARC
  5
21C
330
213
100
AcDbEntity
  8
CORTE
100
AcDbCircle
 10
0.0049999999999955
 20
-0.0039999999999623
 30
0.0
 40
0.001
100
AcDbArc
 50
180.0
 51
269.9999999996743
  0
LINE
  5
21D
330
213
100
AcDbEntity
  8
CORTE
100
AcDbLine
 10
0.0080000000000382
 20
-0.0049999999999955
 30
0.0
 11
0.0049999999999955
 21
-0.004999999999967
 31
0.0
  0
ARC
  5
21E
330
213
100
AcDbEntity
  8
CORTE
100
AcDbCircle
 10
0.0080000000000382
 20
-0.0039999999999907
 30
0.0
 40
0.001
100
AcDbArc
 50
269.9999999995929
 51
0.000000000000007
  0
LINE
  5
21F
330
213
100
AcDbEntity
  8
CORTE
100
AcDbLine
 10
0.0030000000000427
 20
-0.0000000000000284
 30
0.0
 11
0.0
 21
0.0
 31
0.0
  0
ARC
  5
220
330
213
100
AcDbEntity
  8
CORTE
100
AcDbCircle
 10
0.0030000000000427
 20
-0.0010000000000332
 30
0.0
 40
0.001
100
AcDbArc
 50
0.000000000000007
 51
89.99999999967434
  0
ARC
  5
221
330
213
100
AcDbEntity
  8
CORTE
100
AcDbCircle
 10
0.0099999999999909
 20
-0.0009999999999764
 30
0.0
 40
0.001
100
AcDbArc
 50
89.99999999967434
 51
180.0
  0
ARC
  5
222
330
213
100
AcDbEntity
  8
CORTE
100
AcDbCircle
 10
0.0
 20
0.0140000000000384
 30
0.0
 40
0.001
100
AcDbArc
 50
89.99999999975274
 51
180.0
  0
LINE
  5
223
330
213
100
AcDbEntity
  8
CORTE
100
AcDbLine
 10
0.0055857864376776
 20
0.0149999999999864
 30
0.0
 11
0.0
 21
0.0150000000000432
 31
0.0
  0
ARC
  5
224
330
213
100
AcDbEntity
  8
CORTE
 62
     1
100
AcDbCircle
 10
0.0055857864376776
 20
0.0159999999999911
 30
0.0
 40
0.001
100
AcDbArc
 50
269.9999999997674
 51
315.0000000000357
  0
LINE
  5
225
330
213
100
AcDbEntity
  8
CORTE
100
AcDbLine
 10
0.01400000000001
 20
0.0009999999999479
 30
0.0
 11
0.01400000000001
 21
0.0089825806863075
 31
0.0
  0
ARC
  5
226
330
213
100
AcDbEntity
  8
CORTE
100
AcDbCircle
 10
0.0130000000000337
 20
0.0009999999999479
 30
0.0
 40
0.001
100
AcDbArc
 50
269.9999999991858
 51
0.000000000000007
  0
ARC
  5
227
330
213
100
AcDbEntity
  8
CORTE
 62
     1
100
AcDbCircle
 10
0.0149999999999864
 20
0.0089825806862791
 30
0.0
 40
0.001
100
AcDbArc
 50
90.47309942941524
 51
179.9999999983715
  0
LINE
  5
228
330
213
100
AcDbEntity
  8
CORTE
100
AcDbLine
 10
0.0440000000000964
 20
0.0339999999999918
 30
0.0
 11
0.0440000000000396
 21
0.0310000000000059
 31
0.0
  0
ARC
  5
229
330
213
100
AcDbEntity
  8
CORTE
100
AcDbCircle
 10
0.0430000000000632
 20
0.0310000000000059
 30
0.0
 40
0.001
100
AcDbArc
 50
270.0
 51
0.000000000000007
  0
ARC
  5
22A
330
213
100
AcDbEntity
  8
CORTE
 62
     1
100
AcDbCircle
 10
0.0350174193137605
 20
0.0290000000000248
 30
0.0
 40
0.001
100
AcDbArc
 50
90.00000000325689
 51
179.5269005705982
  0
LINE
  5
22B
330
213
100
AcDbEntity
  8
CORTE
100
AcDbLine
 10
0.0430000000000632
 20
0.0300000000000011
 30
0.0
 11
0.0350174193137036
 21
0.0300000000000296
 31
0.0
  0
LINE
  5
22C
330
213
100
AcDbEntity
  8
CORTE
100
AcDbLine
 10
0.047999999999945
 20
0.0400000000000205
 30
0.0
 11
0.0300000000000296
 21
0.0400000000000205
 31
0.0
  0
ARC
  5
22D
330
213
100
AcDbEntity
  8
CORTE
 62
     1
100
AcDbCircle
 10
0.0300000000000296
 20
0.0390000000000157
 30
0.0
 40
0.001
100
AcDbArc
 50
90.0
 51
195.0000055997392
  0
ARC
  5
22E
330
213
100
AcDbEntity
  8
CORTE
 62
     1
100
AcDbCircle
 10
0.0280681480710428
 20
0.0384823616334131
 30
0.0
 40
0.001
100
AcDbArc
 50
315.0
 51
15.00000559812761
  0
LINE
  5
22F
330
213
100
AcDbEntity
  8
CORTE
100
AcDbLine
 10
0.0489999999998645
 20
0.0360000000000582
 30
0.0
 11
0.0489999999999213
 21
0.0389999999999873
 31
0.0
  0
LINE
  5
230
330
213
100
AcDbEntity
  8
CORTE
100
AcDbLine
 10
0.0480000000000018
 20
0.0350000000000534
 30
0.0
 11
0.0450000000000728
 21
0.0349999999999966
 31
0.0
  0
ARC
  5
231
330
213
100
AcDbEntity
  8
CORTE
100
AcDbCircle
 10
0.0480000000000018
 20
0.0360000000000582
 30
0.0
 40
0.001
100
AcDbArc
 50
270.0000000004071
 51
0.000000000000007
  0
ARC
  5
232
330
213
100
AcDbEntity
  8
CORTE
100
AcDbCircle
 10
0.0450000000000728
 20
0.0339999999999918
 30
0.0
 40
0.001
100
AcDbArc
 50
90.0
 51
180.0
  0
ARC
  5
233
330
213
100
AcDbEntity
  8
CORTE
100
AcDbCircle
 10
0.047999999999945
 20
0.0390000000000157
 30
0.0
 40
0.001
100
AcDbArc
 50
359.9999999991858
 51
90.0
  0
ENDBLK
  5
234
330
213
100
AcDbEntity
  8
0
100
AcDbBlockEnd
  0
BLOCK
  5
236
330
235
100
AcDbEntity
  8
0
 62
     4
100
AcDbBlockBegin
  2
NOM-J
 70
     0
 10
0.0
 20
0.0
 30
0.0
  3
NOM-J
  1

  0
LINE
  5
237
330
235
100
AcDbEntity
  8
Vista
 62
     4
100
AcDbLine
 10
0.0211489998446837
 20
0.0224999999999795
 30
0.0
 11
0.093805067538824
 21
0.0379594292031982
 31
0.0
  0
LINE
  5
238
330
235
100
AcDbEntity
  8
Vista
 62
     4
100
AcDbLine
 10
0.0197074998707194
 20
0.0224999999999795
 30
0.0
 11
0.0923635675646324
 21
0.0379594292032266
 31
0.0
  0
LINE
  5
239
330
235
100
AcDbEntity
  8
Vista
 62
     4
100
AcDbLine
 10
0.0182659998964141
 20
0.0224999999999795
 30
0.0
 11
0.0909220675904408
 21
0.0379594292031982
 31
0.0
  0
LINE
  5
23A
330
235
100
AcDbEntity
  8
Vista
 62
     4
100
AcDbLine
 10
0.0168244999223362
 20
0.0224999999999795
 30
0.0
 11
0.0894805676163628
 21
0.0379594292032266
 31
0.0
  0
LINE
  5
23B
330
235
100
AcDbEntity
  8
Vista
 62
     4
100
AcDbLine
 10
0.0153829999481445
 20
0.0224999999999795
 30
0.0
 11
0.0880390676422849
 21
0.0379594292032266
 31
0.0
  0
LINE
  5
23C
330
235
100
AcDbEntity
  8
Vista
 62
     4
100
AcDbLine
 10
0.0139414999740666
 20
0.0224999999999795
 30
0.0
 11
0.0865975676682069
 21
0.0379594292032266
 31
0.0
  0
LINE
  5
23D
330
235
100
AcDbEntity
  8
Vista
 62
     2
100
AcDbLine
 10
0.0125000000000455
 20
0.022500000000008
 30
0.0
 11
0.0851560676940153
 21
0.0379594292032266
 31
0.0
  0
LINE
  5
23E
330
235
100
AcDbEntity
  8
Vista
 62
     2
100
AcDbLine
 10
0.0218535533905424
 20
0.0223535533905874
 30
0.0
 11
0.0945096210847396
 21
0.0378129825938061
 31
0.0
  0
LINE
  5
23F
330
235
100
AcDbEntity
  8
Vista
 62
     2
100
AcDbLine
 10
0.02150000000006
 20
0.0200000000000387
 30
0.0
 11
0.094359627334427
 21
0.0355027417029987
 31
0.0
  0
LINE
  5
240
330
235
100
AcDbEntity
  8
Vista
 62
     2
100
AcDbLine
 10
0.0190000000000055
 20
0.0175000000000125
 30
0.0
 11
0.0918596273343724
 21
0.0330027417029726
 31
0.0
  0
LINE
  5
241
330
235
100
AcDbEntity
  8
Vista
 62
     2
100
AcDbLine
 10
0.0075428343679391
 20
0.0078574386832884
 30
0.0
 11
0.0801989020703786
 21
0.0233168678888376
 31
0.0
  0
LINE
  5
242
330
235
100
AcDbEntity
  8
Vista
 62
     2
100
AcDbLine
 10
0.0040000000000191
 20
0.0024999999999693
 30
0.0
 11
0.0746560676942068
 21
0.0175338782567849
 31
0.0
  0
LINE
  5
243
330
235
100
AcDbEntity
  8
Vista
 62
     3
100
AcDbLine
 10
0.0018535533906174
 20
0.0001464466094205
 30
0.0
 11
0.074509621085781
 21
0.0156058758136055
 31
0.0
  0
INSERT
  5
244
330
235
100
AcDbEntity
  8
CORTE
 62
     4
100
AcDbBlockReference
  2
ELEMENT
 10
-0.0024999999999977
 20
0.0024999999999977
 30
0.0
 41
0.5
 42
0.5
 43
0.5
  0
LINE
  5
245
330
235
100
AcDbEntity
  8
Vista
 62
     2
100
AcDbLine
 10
-0.0024999999999977
 20
0.0100000000000193
 30
0.0
 11
0.0013108568762163
 21
0.0108108568761622
 31
0.0
  0
ARC
  5
246
330
235
100
AcDbEntity
  8
CORTE
 62
     3
100
AcDbCircle
 10
0.0775727343608992
 20
0.0325427625365364
 30
0.0
 40
0.0095923870276683
100
AcDbArc
 50
278.1349003175446
 51
356.7599311023579
  0
LINE
  5
247
330
235
100
AcDbEntity
  8
CORTE
 62
     3
100
AcDbLine
 10
0.0771560676942045
 20
0.0184594292032045
 30
0.0
 11
0.0771560676942045
 21
0.0224507195463559
 31
0.0
  0
ARC
  5
248
330
235
100
AcDbEntity
  8
CORTE
 62
     3
100
AcDbCircle
 10
0.0751560676941949
 20
0.0174594292032282
 30
0.0
 40
0.0005
100
AcDbArc
 50
89.99999999967434
 51
180.0
  0
LINE
  5
249
330
235
100
AcDbEntity
  8
Vista
 62
     3
100
AcDbLine
 10
0.074509621085781
 20
0.0156058758135771
 30
0.0
 11
0.0746560676941499
 21
0.0156370360599851
 31
0.0
  0
ARC
  5
24A
330
235
100
AcDbEntity
  8
CORTE
100
AcDbCircle
 10
0.0741560676942186
 20
0.0159594292032068
 30
0.0
 40
0.0005
100
AcDbArc
 50
315.0000001496929
 51
0.000000000000007
  0
LINE
  5
24B
330
235
100
AcDbEntity
  8
CORTE
 62
     3
100
AcDbLine
 10
0.0746560676942068
 20
0.0159594292032068
 30
0.0
 11
0.0746560676942068
 21
0.0174594292032282
 31
0.0
  0
ARC
  5
24C
330
235
100
AcDbEntity
  8
CORTE
 62
     3
100
AcDbCircle
 10
0.0766560676942163
 20
0.0184594292032045
 30
0.0
 40
0.0005
100
AcDbArc
 50
269.9999999991858
 51
0.000000000000007
  0
LINE
  5
24D
330
235
100
AcDbEntity
  8
CORTE
 62
     3
100
AcDbLine
 10
0.0766560676942163
 20
0.017959429203188
 30
0.0
 11
0.0751560676941949
 21
0.0179594292032164
 31
0.0
  0
ARC
  5
24E
330
235
100
AcDbEntity
  8
CORTE
 62
     3
100
AcDbCircle
 10
0.0776560676941927
 20
0.0224507195463559
 30
0.0
 40
0.0005
100
AcDbArc
 50
152.521182623883
 51
179.9999999983715
  0
LINE
  5
24F
330
235
100
AcDbEntity
  8
CORTE
 62
     3
100
AcDbLine
 10
0.0946560676941317
 20
0.0359594292032455
 30
0.0
 11
0.0946560676941317
 21
0.03745942920321
 31
0.0
  0
ARC
  5
250
330
235
100
AcDbEntity
  8
CORTE
 62
     3
100
AcDbCircle
 10
0.0916560676942027
 20
0.0334594292032193
 30
0.0
 40
0.0005
100
AcDbArc
 50
270.0
 51
0.000000000000007
  0
ARC
  5
251
330
235
100
AcDbEntity
  8
CORTE
 62
     3
100
AcDbCircle
 10
0.0941560676942004
 20
0.0359594292032455
 30
0.0
 40
0.0005
100
AcDbArc
 50
294.0240004981589
 51
0.000000000000007
  0
LINE
  5
252
330
235
100
AcDbEntity
  8
CORTE
 62
     3
100
AcDbLine
 10
0.0921560676942477
 20
0.0349594292032123
 30
0.0
 11
0.0921560676941908
 21
0.0334594292032193
 31
0.0
  0
LINE
  5
253
330
235
100
AcDbEntity
  8
CORTE
 62
     3
100
AcDbLine
 10
0.0941560676941436
 20
0.0379594292032266
 30
0.0
 11
0.0851560676942427
 21
0.0379594292032266
 31
0.0
  0
ARC
  5
254
330
235
100
AcDbEntity
  8
CORTE
 62
     3
100
AcDbCircle
 10
0.0941560676941436
 20
0.03745942920321
 30
0.0
 40
0.0005
100
AcDbArc
 50
359.9999999991858
 51
90.0
  0
ENDBLK
  5
255
330
235
100
AcDbEntity
  8
0
 62
     4
100
AcDbBlockEnd
  0
BLOCK
  5
3FC
330
3FB
100
AcDbEntity
  8
0
 62
     1
100
AcDbBlockBegin
  2
NOM-QR
 70
     0
 10
0.0
 20
0.0
 30
0.0
  3
NOM-QR
  1

  0
LINE
  5
3FD
330
3FB
100
AcDbEntity
  8
CORTE
 62
     4
100
AcDbLine
 10
0.0184292030348843
 20
0.0200000000000102
 30
0.0
 11
0.0860297709413658
 21
0.0343689442811126
 31
0.0
  0
LINE
  5
3FE
330
3FB
100
AcDbEntity
  8
CORTE
 62
     4
100
AcDbLine
 10
0.0155433624279908
 20
0.0200000000000102
 30
0.0
 11
0.0831439303344155
 21
0.0343689442811126
 31
0.0
  0
LINE
  5
3FF
330
3FB
100
AcDbEntity
  8
CORTE
 62
     4
100
AcDbLine
 10
0.0126575218209837
 20
0.0200000000000102
 30
0.0
 11
0.0802580897274084
 21
0.034368944281141
 31
0.0
  0
LINE
  5
400
330
3FB
100
AcDbEntity
  8
CORTE
 62
     4
100
AcDbLine
 10
0.0097716812139765
 20
0.0200000000000102
 30
0.0
 11
0.077372249120458
 21
0.0343689442811126
 31
0.0
  0
LINE
  5
401
330
3FB
100
AcDbEntity
  8
CORTE
 62
     4
100
AcDbLine
 10
0.0068858406069694
 20
0.0200000000000102
 30
0.0
 11
0.0744864085134509
 21
0.0343689442811126
 31
0.0
  0
LINE
  5
402
330
3FB
100
AcDbEntity
  8
CORTE
 62
     3
100
AcDbLine
 10
0.0081347328614925
 20
0.0017290908471352
 30
0.0
 11
0.0757353007679171
 21
0.0160980351282376
 31
0.0
  0
LINE
  5
403
330
3FB
100
AcDbEntity
  8
CORTE
 62
     3
100
AcDbLine
 10
0.0040000000000191
 20
0.0200000000000102
 30
0.0
 11
0.0716005679065006
 21
0.034368944281141
 31
0.0
  0
LINE
  5
404
330
3FB
100
AcDbEntity
  8
CORTE
 62
     3
100
AcDbLine
 10
0.0200000000000387
 20
0.0200000000000102
 30
0.0
 11
0.0876005679064633
 21
0.0343689442811126
 31
0.0
  0
ARC
  5
405
330
3FB
100
AcDbEntity
  8
CORTE
 62
     1
100
AcDbCircle
 10
0.0
 20
0.0200000000000102
 30
0.0
 40
0.0200000000000102
100
AcDbArc
 50
270.0
 51
0.0
  0
LINE
  5
406
330
3FB
100
AcDbEntity
  8
CORTE
 62
     1
100
AcDbLine
 10
0.0
 20
0.0160000000000196
 30
0.0
 11
0.0
 21
0.0
 31
0.0
  0
LINE
  5
407
330
3FB
100
AcDbEntity
  8
COTAS
 62
     1
100
AcDbLine
 10
0.0200000000000387
 20
0.0200000000000102
 30
0.0
 11
0.0040000000000191
 21
0.0200000000000102
 31
0.0
  0
ARC
  5
408
330
3FB
100
AcDbEntity
  8
CORTE
 62
     1
100
AcDbCircle
 10
0.0
 20
0.0200000000000102
 30
0.0
 40
0.004
100
AcDbArc
 50
270.0
 51
0.0
  0
ARC
  5
409
330
3FB
100
AcDbEntity
  8
CORTE
 62
     1
100
AcDbCircle
 10
0.0676005679064247
 20
0.0343689442811126
 30
0.0
 40
0.0200000000000102
100
AcDbArc
 50
270.0
 51
0.0
  0
LINE
  5
40A
330
3FB
100
AcDbEntity
  8
COTAS
 62
     1
100
AcDbLine
 10
0.0876005679064633
 20
0.0343689442811126
 30
0.0
 11
0.0716005679064438
 21
0.0343689442811126
 31
0.0
  0
ENDBLK
  5
40B
330
3FB
100
AcDbEntity
  8
0
 62
     1
100
AcDbBlockEnd
  0
BLOCK
  5
4E1
330
4E0
100
AcDbEntity
  8
0
100
AcDbBlockBegin
  2
_Arrivo
 70
     0
 10
0.0
 20
0.0
 30
0.0
  3
_Arrivo
  1

  0
LINE
  5
4E2
330
4E0
100
AcDbEntity
  8
0
  6
ByBlock
 62
     0
370
    -2
100
AcDbLine
 10
0.025
 20
-0.0433012701891858
 30
0.0
 11
-0.15
 21
0.2598076211353328
 31
0.0
  0
LINE
  5
4E3
330
4E0
100
AcDbEntity
  8
0
  6
ByBlock
 62
     0
370
    -2
100
AcDbLine
 10
0.025
 20
0.0433012701892585
 30
0.0
 11
-0.15
 21
-0.2598076211353328
 31
0.0
  0
LINE
  5
4E4
330
4E0
100
AcDbEntity
  8
0
  6
ByBlock
 62
     0
370
    -2
100
AcDbLine
 10
-0.05
 20
0.0
 30
0.0
 11
0.05
 21
0.0
 31
0.0
  0
ENDBLK
  5
4E5
330
4E0
100
AcDbEntity
  8
0
100
AcDbBlockEnd
  0
BLOCK
  5
4E7
330
4E6
100
AcDbEntity
  8
0
100
AcDbBlockBegin
  2
_Partenza
 70
     0
 10
0.0
 20
0.0
 30
0.0
  3
_Partenza
  1

  0
LINE
  5
4E8
330
4E6
100
AcDbEntity
  8
0
  6
ByBlock
 62
     0
370
    -2
100
AcDbLine
 10
-0.05
 20
0.05
 30
0.0
 11
0.1
 21
0.05
 31
0.0
  0
LINE
  5
4E9
330
4E6
100
AcDbEntity
  8
0
  6
ByBlock
 62
     0
370
    -2
100
AcDbLine
 10
-0.05
 20
-0.05
 30
0.0
 11
0.1
 21
-0.05
 31
0.0
  0
ENDBLK
  5
4EA
330
4E6
100
AcDbEntity
  8
0
100
AcDbBlockEnd
  0
BLOCK
  5
807
330
73D
100
AcDbEntity
  8
0
 62
     3
100
AcDbBlockBegin
  2
A$C6CE44357
 70
     0
 10
0.0
 20
0.0
 30
0.0
  3
A$C6CE44357
  1

  0
LINE
  5
73E
330
73D
100
AcDbEntity
  8
Vista
 62
     3
100
AcDbLine
 10
-265.2371225605411
 20
-42.42864078547465
 30
0.0
 11
-265.1113419531143
 21
-42.4023863117474
 31
0.0
  0
LINE
  5
73F
330
73D
100
AcDbEntity
  8
Vista
 62
     4
100
AcDbLine
 10
-265.2590480951634
 20
-42.54823976658282
 30
0.0
 11
-265.2510480951634
 21
-42.54823976658282
 31
0.0
  0
LINE
  5
740
330
73D
100
AcDbEntity
  8
Vista
 62
     3
100
AcDbLine
 10
-265.2678775571128
 20
-42.55723976658283
 30
0.0
 11
-265.2164242716711
 21
-42.55723976658283
 31
0.0
  0
LINE
  5
741
330
73D
100
AcDbEntity
  8
Vista
 62
     2
100
AcDbLine
 10
-265.240902830533
 20
-42.52873976658283
 30
0.0
 11
-265.2164242716711
 21
-42.52873976658283
 31
0.0
  0
LINE
  5
742
330
73D
100
AcDbEntity
  8
Vista
 62
     2
100
AcDbLine
 10
-265.245902830533
 20
-42.53973976658282
 30
0.0
 11
-265.2164242716711
 21
-42.53973976658282
 31
0.0
  0
LINE
  5
743
330
73D
100
AcDbEntity
  8
Vista
 62
     2
100
AcDbLine
 10
-265.2411287103258
 20
-42.53147306509318
 30
0.0
 11
-265.2164242716712
 21
-42.53147306509318
 31
0.0
  0
LINE
  5
744
330
73D
100
AcDbEntity
  8
Vista
 62
     2
100
AcDbLine
 10
-265.2649809809004
 20
-42.55319036467706
 30
0.0
 11
-265.2164242716712
 21
-42.55319036467706
 31
0.0
  0
LWPOLYLINE
  5
745
330
73D
100
AcDbEntity
  8
CORTE
  6
Continuous
 62
     1
100
AcDbPolyline
 90
       30
 70
     1
 43
0.0
 10
-265.2651647001392
 20
-42.55337345319399
 42
0.2685636005234304
 10
-265.2649137067366
 20
-42.55293986846818
 10
-265.2649137067366
 20
-42.54823976658282
 10
-265.2624028305331
 20
-42.54823976658282
 42
0.4142135623730693
 10
-265.261402830533
 20
-42.54723976658282
 10
-265.261402830533
 20
-42.53973976658282
 10
-265.258902830533
 20
-42.53973976658282
 42
-0.2526773759784102
 10
-265.2565834054943
 20
-42.53823976658283
 10
-265.2512222555718
 20
-42.53823976658283
 42
-0.2526773759784102
 10
-265.2489028305331
 20
-42.53973976658282
 10
-265.245902830533
 20
-42.53973976658282
 42
0.414213562373069
 10
-265.244902830533
 20
-42.53873976658282
 10
-265.244902830533
 20
-42.53523036708408
 42
-0.3189892314182299
 10
-265.2417043063426
 20
-42.53182012245305
 42
0.356818340496206
 10
-265.240902830533
 20
-42.53084002646501
 10
-265.240902830533
 20
-42.52873976658283
 42
0.364269306410865
 10
-265.234652830533
 20
-42.52348976658284
 42
-0.3260576707120786
 10
-265.2292666879074
 20
-42.51829884552306
 42
0.3747567555282292
 10
-265.228402830533
 20
-42.51730815627538
 10
-265.228402830533
 20
-42.51473976658282
 10
-265.240902830533
 20
-42.51473976658282
 10
-265.240902830533
 20
-42.52073976658282
 10
-265.254402830533
 20
-42.53323976658283
 10
-265.264402830533
 20
-42.53323976658283
 42
0.4142135623730704
 10
-265.269402830533
 20
-42.53823976658283
 10
-265.269402830533
 20
-42.54351258119139
 10
-265.270902830533
 20
-42.54473976658282
 10
-265.270902830533
 20
-42.55723976658283
 10
-265.2678775571128
 20
-42.55723976658283
 42
0.3849291685644514
 10
-265.2673801055846
 20
-42.55679018460604
 42
-0.2416670294637286
  0
LINE
  5
746
330
73D
100
AcDbEntity
  8
CORTE
  6
RAYITA
 62
     4
100
AcDbLine
 10
-265.2649137067366
 20
-42.54823976658282
 30
0.0
 11
-265.2649137067366
 21
-42.53973976658282
 31
0.0
  0
LINE
  5
747
330
73D
100
AcDbEntity
  8
CORTE
  6
RAYITA
 62
     4
100
AcDbLine
 10
-265.2631769303866
 20
-42.5441333561959
 30
0.0
 11
-265.2631769303866
 21
-42.53973976658282
 31
0.0
  0
LINE
  5
748
330
73D
100
AcDbEntity
  8
CORTE
  6
RAYITA
 62
     4
100
AcDbLine
 10
-265.2631769303866
 20
-42.5441333561959
 30
0.0
 11
-265.2649137067366
 21
-42.5441333561959
 31
0.0
  0
LINE
  5
749
330
73D
100
AcDbEntity
  8
CORTE
  6
RAYITA
 62
     4
100
AcDbLine
 10
-265.261402830533
 20
-42.53973976658282
 30
0.0
 11
-265.2649137067366
 21
-42.53973976658282
 31
0.0
  0
LINE
  5
74A
330
73D
100
AcDbEntity
  8
Vista
 62
     3
100
AcDbLine
 10
-265.228402830533
 20
-42.51473976658282
 30
0.0
 11
-265.2164242716711
 21
-42.51473976658279
 31
0.0
  0
LINE
  5
74B
330
73D
100
AcDbEntity
  8
Vista
 62
     2
100
AcDbLine
 10
-265.2286491254761
 20
-42.51796536909266
 30
0.0
 11
-265.2164242716712
 21
-42.51796536909266
 31
0.0
  0
LINE
  5
74C
330
73D
100
AcDbEntity
  8
Vista
 62
     4
100
AcDbLine
 10
-265.2590480951634
 20
-42.53973976658282
 30
0.0
 11
-265.2590480951634
 21
-42.54823976658282
 31
0.0
  0
LINE
  5
74D
330
73D
100
AcDbEntity
  8
Vista
 62
     4
100
AcDbLine
 10
-265.2510480951634
 20
-42.53973976658282
 30
0.0
 11
-265.2510480951634
 21
-42.54823976658282
 31
0.0
  0
LINE
  5
74E
330
73D
100
AcDbEntity
  8
Vista
 62
     4
100
AcDbLine
 10
-265.2470480951634
 20
-42.53973976658282
 30
0.0
 11
-265.2470480951635
 21
-42.54823976658282
 31
0.0
  0
LINE
  5
74F
330
73D
100
AcDbEntity
  8
Vista
 62
     4
100
AcDbLine
 10
-265.2390480951634
 20
-42.53973976658282
 30
0.0
 11
-265.2390480951634
 21
-42.54823976658282
 31
0.0
  0
LINE
  5
750
330
73D
100
AcDbEntity
  8
Vista
 62
     4
100
AcDbLine
 10
-265.2350480951635
 20
-42.53973976658282
 30
0.0
 11
-265.2350480951635
 21
-42.54823976658282
 31
0.0
  0
LINE
  5
751
330
73D
100
AcDbEntity
  8
Vista
 62
     4
100
AcDbLine
 10
-265.2510480951634
 20
-42.5441333561959
 30
0.0
 11
-265.2470480951635
 21
-42.5441333561959
 31
0.0
  0
LINE
  5
752
330
73D
100
AcDbEntity
  8
Vista
 62
     4
100
AcDbLine
 10
-265.2390480951634
 20
-42.5441333561959
 30
0.0
 11
-265.2350480951635
 21
-42.5441333561959
 31
0.0
  0
LINE
  5
753
330
73D
100
AcDbEntity
  8
Vista
 62
     4
100
AcDbLine
 10
-265.2470480951635
 20
-42.54823976658282
 30
0.0
 11
-265.2390480951634
 21
-42.54823976658282
 31
0.0
  0
LINE
  5
754
330
73D
100
AcDbEntity
  8
Vista
 62
     4
100
AcDbLine
 10
-265.2350480951635
 20
-42.54823976658282
 30
0.0
 11
-265.2270480951634
 21
-42.54823976658282
 31
0.0
  0
LINE
  5
755
330
73D
100
AcDbEntity
  8
Vista
 62
     4
100
AcDbLine
 10
-265.2230480951634
 20
-42.53973976658282
 30
0.0
 11
-265.2230480951634
 21
-42.54823976658282
 31
0.0
  0
LINE
  5
756
330
73D
100
AcDbEntity
  8
Vista
 62
     4
100
AcDbLine
 10
-265.2270480951634
 20
-42.53973976658282
 30
0.0
 11
-265.2270480951634
 21
-42.54823976658282
 31
0.0
  0
LINE
  5
757
330
73D
100
AcDbEntity
  8
Vista
 62
     4
100
AcDbLine
 10
-265.2230480951634
 20
-42.54823976658282
 30
0.0
 11
-265.2164242716711
 21
-42.54823976658282
 31
0.0
  0
LINE
  5
758
330
73D
100
AcDbEntity
  8
Vista
 62
     4
100
AcDbLine
 10
-265.2270480951634
 20
-42.5441333561959
 30
0.0
 11
-265.2230480951634
 21
-42.5441333561959
 31
0.0
  0
LINE
  5
759
330
73D
100
AcDbEntity
  8
Vista
 62
     4
100
AcDbLine
 10
-265.2079942150913
 20
-42.54823976658282
 30
0.0
 11
-265.2030480951634
 21
-42.54823976658282
 31
0.0
  0
LINE
  5
75A
330
73D
100
AcDbEntity
  8
Vista
 62
     4
100
AcDbLine
 10
-265.1870480951635
 20
-42.53973976658282
 30
0.0
 11
-265.1870480951635
 21
-42.54823976658282
 31
0.0
  0
LINE
  5
75B
330
73D
100
AcDbEntity
  8
Vista
 62
     4
100
AcDbLine
 10
-265.1910480951634
 20
-42.53973976658282
 30
0.0
 11
-265.1910480951634
 21
-42.54823976658282
 31
0.0
  0
LINE
  5
75C
330
73D
100
AcDbEntity
  8
Vista
 62
     4
100
AcDbLine
 10
-265.1990480951635
 20
-42.53973976658282
 30
0.0
 11
-265.1990480951635
 21
-42.54823976658282
 31
0.0
  0
LINE
  5
75D
330
73D
100
AcDbEntity
  8
Vista
 62
     4
100
AcDbLine
 10
-265.2030480951634
 20
-42.53973976658282
 30
0.0
 11
-265.2030480951634
 21
-42.54823976658282
 31
0.0
  0
LINE
  5
75E
330
73D
100
AcDbEntity
  8
Vista
 62
     4
100
AcDbLine
 10
-265.1990480951635
 20
-42.54823976658282
 30
0.0
 11
-265.1910480951634
 21
-42.54823976658282
 31
0.0
  0
LINE
  5
75F
330
73D
100
AcDbEntity
  8
Vista
 62
     4
100
AcDbLine
 10
-265.2030480951634
 20
-42.5441333561959
 30
0.0
 11
-265.1990480951635
 21
-42.5441333561959
 31
0.0
  0
LINE
  5
760
330
73D
100
AcDbEntity
  8
Vista
 62
     4
100
AcDbLine
 10
-265.1910480951634
 20
-42.5441333561959
 30
0.0
 11
-265.1870480951635
 21
-42.5441333561959
 31
0.0
  0
LINE
  5
761
330
73D
100
AcDbEntity
  8
Vista
 62
     4
100
AcDbLine
 10
-265.1870480951635
 20
-42.54823976658282
 30
0.0
 11
-265.1790480951634
 21
-42.54823976658282
 31
0.0
  0
LINE
  5
762
330
73D
100
AcDbEntity
  8
Vista
 62
     4
100
AcDbLine
 10
-265.1630480951634
 20
-42.53973976658282
 30
0.0
 11
-265.1630480951634
 21
-42.54823976658282
 31
0.0
  0
LINE
  5
763
330
73D
100
AcDbEntity
  8
Vista
 62
     4
100
AcDbLine
 10
-265.1670480951634
 20
-42.53973976658282
 30
0.0
 11
-265.1670480951634
 21
-42.54823976658282
 31
0.0
  0
LINE
  5
764
330
73D
100
AcDbEntity
  8
Vista
 62
     4
100
AcDbLine
 10
-265.1750480951634
 20
-42.53973976658282
 30
0.0
 11
-265.1750480951634
 21
-42.54823976658282
 31
0.0
  0
LINE
  5
765
330
73D
100
AcDbEntity
  8
Vista
 62
     4
100
AcDbLine
 10
-265.1790480951634
 20
-42.53973976658282
 30
0.0
 11
-265.1790480951634
 21
-42.54823976658282
 31
0.0
  0
LINE
  5
766
330
73D
100
AcDbEntity
  8
Vista
 62
     4
100
AcDbLine
 10
-265.1750480951634
 20
-42.54823976658282
 30
0.0
 11
-265.1670480951634
 21
-42.54823976658282
 31
0.0
  0
LINE
  5
767
330
73D
100
AcDbEntity
  8
Vista
 62
     4
100
AcDbLine
 10
-265.1790480951634
 20
-42.5441333561959
 30
0.0
 11
-265.1750480951634
 21
-42.5441333561959
 31
0.0
  0
LINE
  5
768
330
73D
100
AcDbEntity
  8
Vista
 62
     4
100
AcDbLine
 10
-265.1670480951634
 20
-42.5441333561959
 30
0.0
 11
-265.1630480951634
 21
-42.5441333561959
 31
0.0
  0
LINE
  5
769
330
73D
100
AcDbEntity
  8
Vista
 62
     4
100
AcDbLine
 10
-265.1630480951634
 20
-42.54823976658282
 30
0.0
 11
-265.1550480951634
 21
-42.54823976658282
 31
0.0
  0
LINE
  5
76A
330
73D
100
AcDbEntity
  8
Vista
 62
     4
100
AcDbLine
 10
-265.1390480951635
 20
-42.53973976658282
 30
0.0
 11
-265.1390480951635
 21
-42.54823976658282
 31
0.0
  0
LINE
  5
76B
330
73D
100
AcDbEntity
  8
Vista
 62
     4
100
AcDbLine
 10
-265.1430480951634
 20
-42.53973976658282
 30
0.0
 11
-265.1430480951634
 21
-42.54823976658282
 31
0.0
  0
LINE
  5
76C
330
73D
100
AcDbEntity
  8
Vista
 62
     4
100
AcDbLine
 10
-265.1510480951634
 20
-42.53973976658282
 30
0.0
 11
-265.1510480951634
 21
-42.54823976658282
 31
0.0
  0
LINE
  5
76D
330
73D
100
AcDbEntity
  8
Vista
 62
     4
100
AcDbLine
 10
-265.1550480951634
 20
-42.53973976658282
 30
0.0
 11
-265.1550480951634
 21
-42.54823976658282
 31
0.0
  0
LINE
  5
76E
330
73D
100
AcDbEntity
  8
Vista
 62
     4
100
AcDbLine
 10
-265.1510480951634
 20
-42.54823976658282
 30
0.0
 11
-265.1430480951634
 21
-42.54823976658282
 31
0.0
  0
LINE
  5
76F
330
73D
100
AcDbEntity
  8
Vista
 62
     4
100
AcDbLine
 10
-265.1550480951634
 20
-42.5441333561959
 30
0.0
 11
-265.1510480951634
 21
-42.5441333561959
 31
0.0
  0
LINE
  5
770
330
73D
100
AcDbEntity
  8
Vista
 62
     4
100
AcDbLine
 10
-265.1430480951634
 20
-42.5441333561959
 30
0.0
 11
-265.1390480951635
 21
-42.5441333561959
 31
0.0
  0
LINE
  5
771
330
73D
100
AcDbEntity
  8
Vista
 62
     4
100
AcDbLine
 10
-265.1390480951635
 20
-42.54823976658282
 30
0.0
 11
-265.1310480951634
 21
-42.54823976658282
 31
0.0
  0
LINE
  5
772
330
73D
100
AcDbEntity
  8
Vista
 62
     4
100
AcDbLine
 10
-265.1150480951634
 20
-42.53973976658282
 30
0.0
 11
-265.1150480951634
 21
-42.54823976658282
 31
0.0
  0
LINE
  5
773
330
73D
100
AcDbEntity
  8
Vista
 62
     4
100
AcDbLine
 10
-265.1190480951634
 20
-42.53973976658282
 30
0.0
 11
-265.1190480951634
 21
-42.54823976658282
 31
0.0
  0
LINE
  5
774
330
73D
100
AcDbEntity
  8
Vista
 62
     4
100
AcDbLine
 10
-265.1270480951634
 20
-42.53973976658282
 30
0.0
 11
-265.1270480951634
 21
-42.54823976658282
 31
0.0
  0
LINE
  5
775
330
73D
100
AcDbEntity
  8
Vista
 62
     4
100
AcDbLine
 10
-265.1310480951634
 20
-42.53973976658282
 30
0.0
 11
-265.1310480951634
 21
-42.54823976658282
 31
0.0
  0
LINE
  5
776
330
73D
100
AcDbEntity
  8
Vista
 62
     4
100
AcDbLine
 10
-265.1270480951634
 20
-42.54823976658282
 30
0.0
 11
-265.1190480951634
 21
-42.54823976658282
 31
0.0
  0
LINE
  5
777
330
73D
100
AcDbEntity
  8
Vista
 62
     4
100
AcDbLine
 10
-265.1310480951634
 20
-42.5441333561959
 30
0.0
 11
-265.1270480951634
 21
-42.5441333561959
 31
0.0
  0
LINE
  5
778
330
73D
100
AcDbEntity
  8
Vista
 62
     4
100
AcDbLine
 10
-265.1190480951634
 20
-42.5441333561959
 30
0.0
 11
-265.1150480951634
 21
-42.5441333561959
 31
0.0
  0
LINE
  5
779
330
73D
100
AcDbEntity
  8
Vista
 62
     4
100
AcDbLine
 10
-265.1150480951634
 20
-42.54823976658282
 30
0.0
 11
-265.1070480951634
 21
-42.54823976658282
 31
0.0
  0
LINE
  5
77A
330
73D
100
AcDbEntity
  8
Vista
 62
     4
100
AcDbLine
 10
-265.1030480951634
 20
-42.53973976658282
 30
0.0
 11
-265.1030480951634
 21
-42.54823976658282
 31
0.0
  0
LINE
  5
77B
330
73D
100
AcDbEntity
  8
Vista
 62
     4
100
AcDbLine
 10
-265.1070480951634
 20
-42.53973976658282
 30
0.0
 11
-265.1070480951634
 21
-42.54823976658282
 31
0.0
  0
LINE
  5
77C
330
73D
100
AcDbEntity
  8
Vista
 62
     4
100
AcDbLine
 10
-265.1030480951634
 20
-42.54823976658282
 30
0.0
 11
-265.0999942150913
 21
-42.54823976658285
 31
0.0
  0
LINE
  5
77D
330
73D
100
AcDbEntity
  8
Vista
 62
     4
100
AcDbLine
 10
-265.1070480951634
 20
-42.5441333561959
 30
0.0
 11
-265.1030480951634
 21
-42.5441333561959
 31
0.0
  0
LINE
  5
77E
330
73D
100
AcDbEntity
  8
CORTE
  6
RAYITA
 62
     4
100
AcDbLine
 10
-265.2611334367446
 20
-42.46214078547466
 30
0.0
 11
-265.2611334367446
 21
-42.45803437508773
 31
0.0
  0
LINE
  5
77F
330
73D
100
AcDbEntity
  8
CORTE
  6
RAYITA
 62
     4
100
AcDbLine
 10
-265.2576225605411
 20
-42.45364078547466
 30
0.0
 11
-265.2593966603947
 21
-42.45364078547466
 31
0.0
  0
LINE
  5
780
330
73D
100
AcDbEntity
  8
CORTE
  6
RAYITA
 62
     4
100
AcDbLine
 10
-265.2593966603947
 20
-42.45803437508773
 30
0.0
 11
-265.2611334367446
 21
-42.45803437508773
 31
0.0
  0
LINE
  5
781
330
73D
100
AcDbEntity
  8
CORTE
  6
RAYITA
 62
     4
100
AcDbLine
 10
-265.2593966603947
 20
-42.45803437508773
 30
0.0
 11
-265.2593966603947
 21
-42.45364078547466
 31
0.0
  0
LINE
  5
782
330
73D
100
AcDbEntity
  8
Vista
 62
     2
100
AcDbLine
 10
-265.2246225605411
 20
-42.42864078547465
 30
0.0
 11
-265.0988419531143
 21
-42.4023863117474
 31
0.0
  0
LINE
  5
783
330
73D
100
AcDbEntity
  8
Vista
 62
     2
100
AcDbLine
 10
-265.2253196169622
 20
-42.43216218366036
 30
0.0
 11
-265.1005238724924
 21
-42.40611328262953
 31
0.0
  0
LINE
  5
784
330
73D
100
AcDbEntity
  8
Vista
 62
     2
100
AcDbLine
 10
-265.2357843481861
 20
-42.4424980657533
 30
0.0
 11
-265.1113419531143
 21
-42.41652292015008
 31
0.0
  0
LINE
  5
785
330
73D
100
AcDbEntity
  8
Vista
 62
     2
100
AcDbLine
 10
-265.2377407371607
 20
-42.44566528066572
 30
0.0
 11
-265.1119601297339
 21
-42.41941080693844
 31
0.0
  0
LINE
  5
786
330
73D
100
AcDbEntity
  8
Vista
 62
     2
100
AcDbLine
 10
-265.2616957494533
 20
-42.44725731687553
 30
0.0
 11
-265.2475622982738
 21
-42.44430720930124
 31
0.0
  0
LINE
  5
787
330
73D
100
AcDbEntity
  8
Vista
 62
     2
100
AcDbLine
 10
-265.2419054000998
 20
-42.45361692139899
 30
0.0
 11
-265.1318419531143
 21
-42.43064312650061
 31
0.0
  0
LINE
  5
788
330
73D
100
AcDbEntity
  8
Vista
 62
     4
100
AcDbLine
 10
-265.2551225605411
 20
-42.45364078547466
 30
0.0
 11
-265.2479363219937
 21
-42.45214078547464
 31
0.0
  0
LINE
  5
789
330
73D
100
AcDbEntity
  8
Vista
 62
     4
100
AcDbLine
 10
-265.2543974497464
 20
-42.4613609643679
 30
0.0
 11
-265.2463974497463
 21
-42.4596911060796
 31
0.0
  0
LINE
  5
78A
330
73D
100
AcDbEntity
  8
Vista
 62
     4
100
AcDbLine
 10
-265.2593966603947
 20
-42.45803437508773
 30
0.0
 11
-265.2558974497463
 21
-42.45730397684979
 31
0.0
  0
LINE
  5
78B
330
73D
100
AcDbEntity
  8
Vista
 62
     2
100
AcDbLine
 10
-265.2611968867646
 20
-42.46708465797961
 30
0.0
 11
-265.1354162793379
 21
-42.44083018425236
 31
0.0
  0
LINE
  5
78C
330
73D
100
AcDbEntity
  8
Vista
 62
     3
100
AcDbLine
 10
-265.264002248065
 20
-42.47113166995989
 30
0.0
 11
-265.1382216406382
 21
-42.44487719623264
 31
0.0
  0
ARC
  5
78D
330
73D
100
AcDbEntity
  8
CORTE
  6
Continuous
 62
     1
100
AcDbCircle
 10
-265.2616334367446
 20
-42.46684088735999
 30
0.0
 40
0.0004999999999999
100
AcDbArc
 50
299.8686408419573
 51
359.9999999999935
  0
LINE
  5
78E
330
73D
100
AcDbEntity
  8
CORTE
  6
Continuous
 62
     1
100
AcDbLine
 10
-265.2611334367446
 20
-42.46684088735999
 30
0.0
 11
-265.2611334367446
 21
-42.46214078547466
 31
0.0
  0
LINE
  5
78F
330
73D
100
AcDbEntity
  8
CORTE
  6
Continuous
 62
     1
100
AcDbLine
 10
-265.2576225605411
 20
-42.45364078547466
 30
0.0
 11
-265.2551225605411
 21
-42.45364078547466
 31
0.0
  0
ARC
  5
790
330
73D
100
AcDbEntity
  8
CORTE
  6
Continuous
 62
     1
100
AcDbCircle
 10
-265.2525734960763
 20
-42.45503911726784
 30
0.0
 40
0.0029074149083751
100
AcDbArc
 50
94.53017172282182
 51
151.2522954919238
  0
LINE
  5
791
330
73D
100
AcDbEntity
  8
CORTE
  6
Continuous
 62
     1
100
AcDbLine
 10
-265.2528031355024
 20
-42.45214078547464
 30
0.0
 11
-265.2474419855798
 21
-42.45214078547464
 31
0.0
  0
ARC
  5
792
330
73D
100
AcDbEntity
  8
CORTE
  6
Continuous
 62
     1
100
AcDbCircle
 10
-265.2476716250059
 20
-42.45503911726784
 30
0.0
 40
0.0029074149083745
100
AcDbArc
 50
28.74770450807759
 51
85.46982827718144
  0
LINE
  5
793
330
73D
100
AcDbEntity
  8
CORTE
  6
Continuous
 62
     1
100
AcDbLine
 10
-265.245122560541
 20
-42.45364078547466
 30
0.0
 11
-265.2421225605411
 21
-42.45364078547466
 31
0.0
  0
ARC
  5
794
330
73D
100
AcDbEntity
  8
CORTE
  6
Continuous
 62
     1
100
AcDbCircle
 10
-265.2421225605411
 20
-42.45264078547466
 30
0.0
 40
0.001
100
AcDbArc
 50
270.0
 51
359.9999999999951
  0
LINE
  5
795
330
73D
100
AcDbEntity
  8
CORTE
  6
Continuous
 62
     1
100
AcDbLine
 10
-265.2411225605411
 20
-42.45264078547466
 30
0.0
 11
-265.2411225605411
 21
-42.44913138597588
 31
0.0
  0
ARC
  5
796
330
73D
100
AcDbEntity
  8
CORTE
  6
Continuous
 62
     1
100
AcDbCircle
 10
-265.2371225605411
 20
-42.44967795498879
 30
0.0
 40
0.0040371695141331
100
AcDbArc
 50
101.4506709648844
 51
172.21916242068
  0
ARC
  5
797
330
73D
100
AcDbEntity
  8
CORTE
  6
Continuous
 62
     1
100
AcDbCircle
 10
-265.238122560541
 20
-42.44474104535682
 30
0.0
 40
0.0010000000000001
100
AcDbArc
 50
281.4506709648813
 51
359.9999999999935
  0
LINE
  5
798
330
73D
100
AcDbEntity
  8
CORTE
  6
Continuous
 62
     1
100
AcDbLine
 10
-265.2371225605411
 20
-42.44474104535682
 30
0.0
 11
-265.2371225605411
 21
-42.44264078547463
 31
0.0
  0
ARC
  5
799
330
73D
100
AcDbEntity
  8
CORTE
  6
Continuous
 62
     1
100
AcDbCircle
 10
-265.2371225605411
 20
-42.4362955473794
 30
0.0
 40
0.0063452380952395
100
AcDbArc
 50
270.0
 51
350.0605185437708
  0
ARC
  5
79A
330
73D
100
AcDbEntity
  8
CORTE
  6
Continuous
 62
     1
100
AcDbCircle
 10
-265.224622560541
 20
-42.43848602356989
 30
0.0
 40
0.0063452380952396
100
AcDbArc
 50
97.82469757354439
 51
170.060518543773
  0
ARC
  5
79B
330
73D
100
AcDbEntity
  8
CORTE
  6
Continuous
 62
     1
100
AcDbCircle
 10
-265.2256225605411
 20
-42.43120917516718
 30
0.0
 40
0.001
100
AcDbArc
 50
277.8246975735409
 51
359.9999999999984
  0
LINE
  5
79C
330
73D
100
AcDbEntity
  8
CORTE
  6
Continuous
 62
     1
100
AcDbLine
 10
-265.2246225605411
 20
-42.43120917516718
 30
0.0
 11
-265.2246225605411
 21
-42.42864078547465
 31
0.0
  0
LINE
  5
79D
330
73D
100
AcDbEntity
  8
CORTE
  6
Continuous
 62
     1
100
AcDbLine
 10
-265.2246225605411
 20
-42.42864078547465
 30
0.0
 11
-265.2371225605411
 21
-42.42864078547465
 31
0.0
  0
LINE
  5
79E
330
73D
100
AcDbEntity
  8
CORTE
  6
Continuous
 62
     1
100
AcDbLine
 10
-265.2371225605411
 20
-42.42864078547465
 30
0.0
 11
-265.2371225605411
 21
-42.43464078547465
 31
0.0
  0
LINE
  5
79F
330
73D
100
AcDbEntity
  8
CORTE
  6
Continuous
 62
     1
100
AcDbLine
 10
-265.2371225605411
 20
-42.43464078547465
 30
0.0
 11
-265.2506225605411
 21
-42.44714078547464
 31
0.0
  0
LINE
  5
7A0
330
73D
100
AcDbEntity
  8
CORTE
  6
Continuous
 62
     1
100
AcDbLine
 10
-265.2506225605411
 20
-42.44714078547464
 30
0.0
 11
-265.2606225605411
 21
-42.44714078547464
 31
0.0
  0
ARC
  5
7A1
330
73D
100
AcDbEntity
  8
CORTE
  6
Continuous
 62
     1
100
AcDbCircle
 10
-265.2606225605411
 20
-42.45214078547464
 30
0.0
 40
0.005
100
AcDbArc
 50
90.00000000000325
 51
179.9999999999967
  0
LINE
  5
7A2
330
73D
100
AcDbEntity
  8
CORTE
  6
Continuous
 62
     1
100
AcDbLine
 10
-265.2656225605411
 20
-42.45214078547464
 30
0.0
 11
-265.2656225605411
 21
-42.45741360008323
 31
0.0
  0
LINE
  5
7A3
330
73D
100
AcDbEntity
  8
CORTE
  6
Continuous
 62
     1
100
AcDbLine
 10
-265.2656225605411
 20
-42.45741360008323
 30
0.0
 11
-265.2671225605411
 21
-42.45864078547465
 31
0.0
  0
LINE
  5
7A4
330
73D
100
AcDbEntity
  8
CORTE
  6
Continuous
 62
     1
100
AcDbLine
 10
-265.2671225605411
 20
-42.45864078547465
 30
0.0
 11
-265.2671225605411
 21
-42.47114078547464
 31
0.0
  0
LINE
  5
7A5
330
73D
100
AcDbEntity
  8
CORTE
  6
Continuous
 62
     1
100
AcDbLine
 10
-265.2671225605411
 20
-42.47114078547464
 30
0.0
 11
-265.2640972871209
 21
-42.47114078547464
 31
0.0
  0
ARC
  5
7A6
330
73D
100
AcDbEntity
  8
CORTE
  6
Continuous
 62
     1
100
AcDbCircle
 10
-265.2640972871209
 20
-42.47064078547466
 30
0.0
 40
0.0005
100
AcDbArc
 50
270.0
 51
354.2126842324164
  0
ARC
  5
7A7
330
73D
100
AcDbEntity
  8
CORTE
  6
Continuous
 62
     1
100
AcDbCircle
 10
-265.2591640162722
 20
-42.47114078547464
 30
0.0
 40
0.004458544268822
100
AcDbArc
 50
119.8686408419609
 51
174.2126842324128
  0
LINE
  5
7A8
330
73D
100
AcDbEntity
  8
CORTE
  6
Continuous
 62
     4
100
AcDbLine
 10
-265.2573974497463
 20
-42.4613609643679
 30
0.0
 11
-265.2573974497463
 21
-42.45761707527883
 31
0.0
  0
LINE
  5
7A9
330
73D
100
AcDbEntity
  8
Vista
 62
     4
100
AcDbLine
 10
-265.2611334367446
 20
-42.46214078547466
 30
0.0
 11
-265.2573974497463
 21
-42.4613609643679
 31
0.0
  0
LINE
  5
7AA
330
73D
100
AcDbEntity
  8
CORTE
  6
Continuous
 62
     1
100
AcDbLine
 10
-265.2593974497464
 20
-42.45803437508773
 30
0.0
 11
-265.2593974497464
 21
-42.45359456852866
 31
0.0
  0
LINE
  5
7AB
330
73D
100
AcDbEntity
  8
Vista
 62
     4
100
AcDbLine
 10
-265.2573974497463
 20
-42.4613609643679
 30
0.0
 11
-265.2543974497464
 21
-42.4613609643679
 31
0.0
  0
LINE
  5
7AC
330
73D
100
AcDbEntity
  8
Vista
 62
     4
100
AcDbLine
 10
-265.2463974497463
 20
-42.45532102013244
 30
0.0
 11
-265.2438974497463
 21
-42.45479918941735
 31
0.0
  0
LINE
  5
7AD
330
73D
100
AcDbEntity
  8
CORTE
  6
Continuous
 62
     4
100
AcDbLine
 10
-265.2543974497464
 20
-42.4613609643679
 30
0.0
 11
-265.2543974497464
 21
-42.45348943144084
 31
0.0
  0
LINE
  5
7AE
330
73D
100
AcDbEntity
  8
CORTE
  6
Continuous
 62
     4
100
AcDbLine
 10
-265.2558974497463
 20
-42.45730397684979
 30
0.0
 11
-265.2558974497463
 21
-42.45364078547466
 31
0.0
  0
LINE
  5
7AF
330
73D
100
AcDbEntity
  8
CORTE
  6
Continuous
 62
     4
100
AcDbLine
 10
-265.2463974497463
 20
-42.4596911060796
 30
0.0
 11
-265.2463974497463
 21
-42.45242577862588
 31
0.0
  0
LINE
  5
7B0
330
73D
100
AcDbEntity
  8
Vista
 62
     4
100
AcDbLine
 10
-265.2463974497463
 20
-42.45906490922148
 30
0.0
 11
-265.2453974497464
 21
-42.45885617693547
 31
0.0
  0
LINE
  5
7B1
330
73D
100
AcDbEntity
  8
CORTE
  6
Continuous
 62
     4
100
AcDbLine
 10
-265.2423974497464
 20
-42.45885617693547
 30
0.0
 11
-265.2423974497464
 21
-42.45364078547466
 31
0.0
  0
LINE
  5
7B2
330
73D
100
AcDbEntity
  8
CORTE
  6
Continuous
 62
     4
100
AcDbLine
 10
-265.2453974497464
 20
-42.45885617693547
 30
0.0
 11
-265.2453974497464
 21
-42.4551122878464
 31
0.0
  0
LINE
  5
7B3
330
73D
100
AcDbEntity
  8
CORTE
  6
Continuous
 62
     4
100
AcDbLine
 10
-265.2343974497463
 20
-42.45718631864717
 30
0.0
 11
-265.2343974497463
 21
-42.45204976975823
 31
0.0
  0
LINE
  5
7B4
330
73D
100
AcDbEntity
  8
Vista
 62
     4
100
AcDbLine
 10
-265.2423974497464
 20
-42.45885617693547
 30
0.0
 11
-265.2453974497464
 21
-42.45885617693547
 31
0.0
  0
LINE
  5
7B5
330
73D
100
AcDbEntity
  8
CORTE
  6
Continuous
 62
     4
100
AcDbLine
 10
-265.2438974497463
 20
-42.45479918941735
 30
0.0
 11
-265.2438974497463
 21
-42.45364078547466
 31
0.0
  0
LINE
  5
7B6
330
73D
100
AcDbEntity
  8
Vista
 62
     4
100
AcDbLine
 10
-265.2423974497464
 20
-42.45885617693547
 30
0.0
 11
-265.2343974497463
 21
-42.45718631864717
 31
0.0
  0
LINE
  5
7B7
330
73D
100
AcDbEntity
  8
CORTE
  6
Continuous
 62
     4
100
AcDbLine
 10
-265.2333974497464
 20
-42.45635698981327
 30
0.0
 11
-265.2333974497464
 21
-42.45261310072421
 31
0.0
  0
LINE
  5
7B8
330
73D
100
AcDbEntity
  8
CORTE
  6
Continuous
 62
     4
100
AcDbLine
 10
-265.2303974497463
 20
-42.45635698981327
 30
0.0
 11
-265.2303974497463
 21
-42.45121484061409
 31
0.0
  0
LINE
  5
7B9
330
73D
100
AcDbEntity
  8
Vista
 62
     4
100
AcDbLine
 10
-265.2303974497463
 20
-42.45635698981327
 30
0.0
 11
-265.2223974497463
 21
-42.45468713152497
 31
0.0
  0
LINE
  5
7BA
330
73D
100
AcDbEntity
  8
Vista
 62
     4
100
AcDbLine
 10
-265.2303974497463
 20
-42.45635698981327
 30
0.0
 11
-265.2333974497464
 21
-42.45635698981327
 31
0.0
  0
LINE
  5
7BB
330
73D
100
AcDbEntity
  8
Vista
 62
     4
100
AcDbLine
 10
-265.2343974497463
 20
-42.45656572209931
 30
0.0
 11
-265.2333974497464
 21
-42.45635698981327
 31
0.0
  0
LINE
  5
7BC
330
73D
100
AcDbEntity
  8
Vista
 62
     4
100
AcDbLine
 10
-265.2343974497463
 20
-42.45282183301024
 30
0.0
 11
-265.2318974497463
 21
-42.45230000229516
 31
0.0
  0
LINE
  5
7BD
330
73D
100
AcDbEntity
  8
CORTE
  6
Continuous
 62
     4
100
AcDbLine
 10
-265.2318974497463
 20
-42.45230000229516
 30
0.0
 11
-265.2318974497463
 21
-42.45152793904314
 31
0.0
  0
LINE
  5
7BE
330
73D
100
AcDbEntity
  8
CORTE
  6
Continuous
 62
     4
100
AcDbLine
 10
-265.2223974497463
 20
-42.45468713152497
 30
0.0
 11
-265.2223974497463
 21
-42.44955058263606
 31
0.0
  0
LINE
  5
7BF
330
73D
100
AcDbEntity
  8
Vista
 62
     4
100
AcDbLine
 10
-265.2183974497464
 20
-42.45381967473214
 30
0.0
 11
-265.2103974497463
 21
-42.45214981644385
 31
0.0
  0
LINE
  5
7C0
330
73D
100
AcDbEntity
  8
Vista
 62
     4
100
AcDbLine
 10
-265.2183974497464
 20
-42.45381967473214
 30
0.0
 11
-265.2213974497463
 21
-42.45381967473214
 31
0.0
  0
LINE
  5
7C1
330
73D
100
AcDbEntity
  8
CORTE
  6
Continuous
 62
     4
100
AcDbLine
 10
-265.2198974497463
 20
-42.44976268721403
 30
0.0
 11
-265.2198974497463
 21
-42.44902315161072
 31
0.0
  0
LINE
  5
7C2
330
73D
100
AcDbEntity
  8
Vista
 62
     4
100
AcDbLine
 10
-265.2223974497463
 20
-42.45028451792911
 30
0.0
 11
-265.2198974497463
 21
-42.44976268721403
 31
0.0
  0
LINE
  5
7C3
330
73D
100
AcDbEntity
  8
Vista
 62
     4
100
AcDbLine
 10
-265.2223974497463
 20
-42.45402840701818
 30
0.0
 11
-265.2213974497463
 21
-42.45381967473214
 31
0.0
  0
LINE
  5
7C4
330
73D
100
AcDbEntity
  8
CORTE
  6
Continuous
 62
     4
100
AcDbLine
 10
-265.2213974497463
 20
-42.45381967473214
 30
0.0
 11
-265.2213974497463
 21
-42.45007578564307
 31
0.0
  0
LINE
  5
7C5
330
73D
100
AcDbEntity
  8
CORTE
  6
Continuous
 62
     4
100
AcDbLine
 10
-265.2183974497464
 20
-42.45381967473214
 30
0.0
 11
-265.2183974497464
 21
-42.44867752553297
 31
0.0
  0
LINE
  5
7C6
330
73D
100
AcDbEntity
  8
CORTE
  6
Continuous
 62
     4
100
AcDbLine
 10
-265.2103974497463
 20
-42.45214981644385
 30
0.0
 11
-265.2103974497463
 21
-42.44704019489337
 31
0.0
  0
LINE
  5
7C7
330
73D
100
AcDbEntity
  8
Vista
 62
     4
100
AcDbLine
 10
-265.2063974497464
 20
-42.45136478851414
 30
0.0
 11
-265.1983974497463
 21
-42.44969493022584
 31
0.0
  0
LINE
  5
7C8
330
73D
100
AcDbEntity
  8
Vista
 62
     4
100
AcDbLine
 10
-265.2063974497464
 20
-42.45136478851414
 30
0.0
 11
-265.2093974497463
 21
-42.45136478851414
 31
0.0
  0
LINE
  5
7C9
330
73D
100
AcDbEntity
  8
CORTE
  6
Continuous
 62
     4
100
AcDbLine
 10
-265.2078974497463
 20
-42.44730780099603
 30
0.0
 11
-265.2078974497463
 21
-42.44653573774401
 31
0.0
  0
LINE
  5
7CA
330
73D
100
AcDbEntity
  8
Vista
 62
     4
100
AcDbLine
 10
-265.2103974497463
 20
-42.44782963171111
 30
0.0
 11
-265.2078974497463
 21
-42.44730780099603
 31
0.0
  0
LINE
  5
7CB
330
73D
100
AcDbEntity
  8
Vista
 62
     4
100
AcDbLine
 10
-265.2103974497463
 20
-42.45157352080018
 30
0.0
 11
-265.2093974497463
 21
-42.45136478851414
 31
0.0
  0
LINE
  5
7CC
330
73D
100
AcDbEntity
  8
CORTE
  6
Continuous
 62
     4
100
AcDbLine
 10
-265.2093974497463
 20
-42.45136478851414
 30
0.0
 11
-265.2093974497463
 21
-42.44762089942507
 31
0.0
  0
LINE
  5
7CD
330
73D
100
AcDbEntity
  8
CORTE
  6
Continuous
 62
     4
100
AcDbLine
 10
-265.2063974497464
 20
-42.45136478851414
 30
0.0
 11
-265.2063974497464
 21
-42.44622263931496
 31
0.0
  0
LINE
  5
7CE
330
73D
100
AcDbEntity
  8
CORTE
  6
Continuous
 62
     4
100
AcDbLine
 10
-265.1983974497463
 20
-42.44969493022584
 30
0.0
 11
-265.1983974497463
 21
-42.44455838133693
 31
0.0
  0
LINE
  5
7CF
330
73D
100
AcDbEntity
  8
Vista
 62
     4
100
AcDbLine
 10
-265.1943974497464
 20
-42.44883783223379
 30
0.0
 11
-265.1863974497463
 21
-42.44716797394549
 31
0.0
  0
LINE
  5
7D0
330
73D
100
AcDbEntity
  8
Vista
 62
     4
100
AcDbLine
 10
-265.1943974497464
 20
-42.44883783223379
 30
0.0
 11
-265.1973974497463
 21
-42.44883783223379
 31
0.0
  0
LINE
  5
7D1
330
73D
100
AcDbEntity
  8
CORTE
  6
Continuous
 62
     4
100
AcDbLine
 10
-265.1958974497463
 20
-42.44478084471568
 30
0.0
 11
-265.1958974497463
 21
-42.44400878146369
 31
0.0
  0
LINE
  5
7D2
330
73D
100
AcDbEntity
  8
Vista
 62
     4
100
AcDbLine
 10
-265.1983974497463
 20
-42.44530267543076
 30
0.0
 11
-265.1958974497463
 21
-42.44478084471568
 31
0.0
  0
LINE
  5
7D3
330
73D
100
AcDbEntity
  8
Vista
 62
     4
100
AcDbLine
 10
-265.1983974497463
 20
-42.44904656451983
 30
0.0
 11
-265.1973974497463
 21
-42.44883783223379
 31
0.0
  0
LINE
  5
7D4
330
73D
100
AcDbEntity
  8
CORTE
  6
Continuous
 62
     4
100
AcDbLine
 10
-265.1973974497463
 20
-42.44883783223379
 30
0.0
 11
-265.1973974497463
 21
-42.44509394314476
 31
0.0
  0
LINE
  5
7D5
330
73D
100
AcDbEntity
  8
CORTE
  6
Continuous
 62
     4
100
AcDbLine
 10
-265.1943974497464
 20
-42.44883783223379
 30
0.0
 11
-265.1943974497464
 21
-42.44369568303464
 31
0.0
  0
LINE
  5
7D6
330
73D
100
AcDbEntity
  8
CORTE
  6
Continuous
 62
     4
100
AcDbLine
 10
-265.1838974497463
 20
-42.44224352963455
 30
0.0
 11
-265.1838974497463
 21
-42.44150399403126
 31
0.0
  0
LINE
  5
7D7
330
73D
100
AcDbEntity
  8
CORTE
  6
Continuous
 62
     4
100
AcDbLine
 10
-265.1823974497464
 20
-42.44630051715266
 30
0.0
 11
-265.1823974497464
 21
-42.44115836795351
 31
0.0
  0
LINE
  5
7D8
330
73D
100
AcDbEntity
  8
Vista
 62
     4
100
AcDbLine
 10
-265.1823974497464
 20
-42.44630051715266
 30
0.0
 11
-265.1853974497464
 21
-42.44630051715266
 31
0.0
  0
LINE
  5
7D9
330
73D
100
AcDbEntity
  8
CORTE
  6
Continuous
 62
     4
100
AcDbLine
 10
-265.1853974497464
 20
-42.44630051715266
 30
0.0
 11
-265.1853974497464
 21
-42.44255662806362
 31
0.0
  0
LINE
  5
7DA
330
73D
100
AcDbEntity
  8
Vista
 62
     4
100
AcDbLine
 10
-265.1863974497463
 20
-42.4465092494387
 30
0.0
 11
-265.1853974497464
 21
-42.44630051715266
 31
0.0
  0
LINE
  5
7DB
330
73D
100
AcDbEntity
  8
Vista
 62
     4
100
AcDbLine
 10
-265.1863974497463
 20
-42.44276536034966
 30
0.0
 11
-265.1838974497463
 21
-42.44224352963455
 31
0.0
  0
LINE
  5
7DC
330
73D
100
AcDbEntity
  8
CORTE
  6
Continuous
 62
     4
100
AcDbLine
 10
-265.1863974497463
 20
-42.44716797394549
 30
0.0
 11
-265.1863974497463
 21
-42.44203142505658
 31
0.0
  0
LINE
  5
7DD
330
73D
100
AcDbEntity
  8
Vista
 62
     4
100
AcDbLine
 10
-265.1703974497463
 20
-42.44384563093466
 30
0.0
 11
-265.1623974497463
 21
-42.44217577264636
 31
0.0
  0
LINE
  5
7DE
330
73D
100
AcDbEntity
  8
Vista
 62
     4
100
AcDbLine
 10
-265.1823974497464
 20
-42.44630051715266
 30
0.0
 11
-265.1743974497463
 21
-42.44463065886439
 31
0.0
  0
LINE
  5
7DF
330
73D
100
AcDbEntity
  8
CORTE
  6
Continuous
 62
     4
100
AcDbLine
 10
-265.1743974497463
 20
-42.44463065886439
 30
0.0
 11
-265.1743974497463
 21
-42.43952103731389
 31
0.0
  0
LINE
  5
7E0
330
73D
100
AcDbEntity
  8
CORTE
  6
Continuous
 62
     4
100
AcDbLine
 10
-265.1733974497464
 20
-42.44384563093466
 30
0.0
 11
-265.1733974497464
 21
-42.44010174184562
 31
0.0
  0
LINE
  5
7E1
330
73D
100
AcDbEntity
  8
CORTE
  6
Continuous
 62
     4
100
AcDbLine
 10
-265.1703974497463
 20
-42.44384563093466
 30
0.0
 11
-265.1703974497463
 21
-42.43870348173551
 31
0.0
  0
LINE
  5
7E2
330
73D
100
AcDbEntity
  8
Vista
 62
     4
100
AcDbLine
 10
-265.1703974497463
 20
-42.44384563093466
 30
0.0
 11
-265.1733974497464
 21
-42.44384563093466
 31
0.0
  0
LINE
  5
7E3
330
73D
100
AcDbEntity
  8
Vista
 62
     4
100
AcDbLine
 10
-265.1743974497463
 20
-42.4440543632207
 30
0.0
 11
-265.1733974497464
 21
-42.44384563093466
 31
0.0
  0
LINE
  5
7E4
330
73D
100
AcDbEntity
  8
CORTE
  6
Continuous
 62
     4
100
AcDbLine
 10
-265.1718974497463
 20
-42.43978864341655
 30
0.0
 11
-265.1718974497463
 21
-42.43901658016456
 31
0.0
  0
LINE
  5
7E5
330
73D
100
AcDbEntity
  8
Vista
 62
     4
100
AcDbLine
 10
-265.1743974497463
 20
-42.44031047413163
 30
0.0
 11
-265.1718974497463
 21
-42.43978864341655
 31
0.0
  0
LINE
  5
7E6
330
73D
100
AcDbEntity
  8
CORTE
  6
Continuous
 62
     4
100
AcDbLine
 10
-265.1623974497463
 20
-42.44217577264636
 30
0.0
 11
-265.1623974497463
 21
-42.43703922375745
 31
0.0
  0
LINE
  5
7E7
330
73D
100
AcDbEntity
  8
Vista
 62
     4
100
AcDbLine
 10
-265.1583974497464
 20
-42.44133239831891
 30
0.0
 11
-265.1503974497463
 21
-42.43966254003062
 31
0.0
  0
LINE
  5
7E8
330
73D
100
AcDbEntity
  8
Vista
 62
     4
100
AcDbLine
 10
-265.1583974497464
 20
-42.44133239831891
 30
0.0
 11
-265.1613974497463
 21
-42.44133239831891
 31
0.0
  0
LINE
  5
7E9
330
73D
100
AcDbEntity
  8
CORTE
  6
Continuous
 62
     4
100
AcDbLine
 10
-265.1598974497463
 20
-42.4372754108008
 30
0.0
 11
-265.1598974497463
 21
-42.43650334754879
 31
0.0
  0
LINE
  5
7EA
330
73D
100
AcDbEntity
  8
Vista
 62
     4
100
AcDbLine
 10
-265.1623974497463
 20
-42.43779724151589
 30
0.0
 11
-265.1598974497463
 21
-42.4372754108008
 31
0.0
  0
LINE
  5
7EB
330
73D
100
AcDbEntity
  8
Vista
 62
     4
100
AcDbLine
 10
-265.1623974497463
 20
-42.44154113060496
 30
0.0
 11
-265.1613974497463
 21
-42.44133239831891
 31
0.0
  0
LINE
  5
7EC
330
73D
100
AcDbEntity
  8
CORTE
  6
Continuous
 62
     4
100
AcDbLine
 10
-265.1613974497463
 20
-42.44133239831891
 30
0.0
 11
-265.1613974497463
 21
-42.43758850922985
 31
0.0
  0
LINE
  5
7ED
330
73D
100
AcDbEntity
  8
CORTE
  6
Continuous
 62
     4
100
AcDbLine
 10
-265.1583974497464
 20
-42.44133239831891
 30
0.0
 11
-265.1583974497464
 21
-42.43619024911974
 31
0.0
  0
LINE
  5
7EE
330
73D
100
AcDbEntity
  8
CORTE
  6
Continuous
 62
     4
100
AcDbLine
 10
-265.1478974497463
 20
-42.43473809571968
 30
0.0
 11
-265.1478974497463
 21
-42.43399856011636
 31
0.0
  0
LINE
  5
7EF
330
73D
100
AcDbEntity
  8
CORTE
  6
Continuous
 62
     4
100
AcDbLine
 10
-265.1463974497464
 20
-42.43879508323779
 30
0.0
 11
-265.1463974497464
 21
-42.43365293403861
 31
0.0
  0
LINE
  5
7F0
330
73D
100
AcDbEntity
  8
Vista
 62
     4
100
AcDbLine
 10
-265.1463974497464
 20
-42.43879508323779
 30
0.0
 11
-265.1493974497463
 21
-42.43879508323779
 31
0.0
  0
LINE
  5
7F1
330
73D
100
AcDbEntity
  8
CORTE
  6
Continuous
 62
     4
100
AcDbLine
 10
-265.1493974497463
 20
-42.43879508323779
 30
0.0
 11
-265.1493974497463
 21
-42.43505119414872
 31
0.0
  0
LINE
  5
7F2
330
73D
100
AcDbEntity
  8
Vista
 62
     4
100
AcDbLine
 10
-265.1503974497463
 20
-42.43900381552383
 30
0.0
 11
-265.1493974497463
 21
-42.43879508323779
 31
0.0
  0
LINE
  5
7F3
330
73D
100
AcDbEntity
  8
Vista
 62
     4
100
AcDbLine
 10
-265.1503974497463
 20
-42.43525992643476
 30
0.0
 11
-265.1478974497463
 21
-42.43473809571968
 31
0.0
  0
LINE
  5
7F4
330
73D
100
AcDbEntity
  8
CORTE
  6
Continuous
 62
     4
100
AcDbLine
 10
-265.1503974497463
 20
-42.43966254003062
 30
0.0
 11
-265.1503974497463
 21
-42.43452599114171
 31
0.0
  0
LINE
  5
7F5
330
73D
100
AcDbEntity
  8
Vista
 62
     4
100
AcDbLine
 10
-265.1463974497464
 20
-42.43879508323779
 30
0.0
 11
-265.1383974497463
 21
-42.43712522494949
 31
0.0
  0
LINE
  5
7F6
330
73D
100
AcDbEntity
  8
CORTE
  6
Continuous
 62
     4
100
AcDbLine
 10
-265.1383974497463
 20
-42.43712522494949
 30
0.0
 11
-265.1383974497463
 21
-42.43201560339902
 31
0.0
  0
LINE
  5
7F7
330
73D
100
AcDbEntity
  8
CORTE
  6
Continuous
 62
     4
100
AcDbLine
 10
-265.1373974497464
 20
-42.43634019701978
 30
0.0
 11
-265.1373974497464
 21
-42.43259630793072
 31
0.0
  0
LINE
  5
7F8
330
73D
100
AcDbEntity
  8
CORTE
  6
Continuous
 62
     4
100
AcDbLine
 10
-265.1343974497464
 20
-42.43634019701978
 30
0.0
 11
-265.1343974497464
 21
-42.43119804782061
 31
0.0
  0
LINE
  5
7F9
330
73D
100
AcDbEntity
  8
Vista
 62
     4
100
AcDbLine
 10
-265.1383974497463
 20
-42.43654892930583
 30
0.0
 11
-265.1373974497464
 21
-42.43634019701978
 31
0.0
  0
LINE
  5
7FA
330
73D
100
AcDbEntity
  8
CORTE
  6
Continuous
 62
     4
100
AcDbLine
 10
-265.1358974497463
 20
-42.43228320950167
 30
0.0
 11
-265.1358974497463
 21
-42.43151114624966
 31
0.0
  0
LINE
  5
7FB
330
73D
100
AcDbEntity
  8
Vista
 62
     4
100
AcDbLine
 10
-265.1383974497463
 20
-42.43280504021676
 30
0.0
 11
-265.1358974497463
 21
-42.43228320950167
 31
0.0
  0
LINE
  5
7FC
330
73D
100
AcDbEntity
  8
Vista
 62
     4
100
AcDbLine
 10
-265.1353528293179
 20
-42.43634019701978
 30
0.0
 11
-265.1373974497464
 21
-42.43634019701978
 31
0.0
  0
LWPOLYLINE
  5
7FD
330
73D
100
AcDbEntity
  8
Vista
  6
Continuous
 62
     3
100
AcDbPolyline
 90
       21
 70
     0
 43
0.0
 10
-265.1383166796941
 20
-42.44488631174739
 42
0.384929168564455
 10
-265.1378192281659
 20
-42.4444367297706
 42
-0.2416670294637282
 10
-265.1356038227205
 20
-42.44101999835858
 42
0.2685636005234456
 10
-265.1353528293179
 20
-42.44058641363274
 10
-265.1353528293179
 20
-42.43634019701978
 10
-265.1343974497464
 20
-42.43634019701978
 10
-265.1318419531143
 20
-42.43580678236582
 10
-265.1318419531143
 20
-42.43064312650061
 10
-265.1161247926731
 20
-42.42736244767171
 42
0.3514578094911731
 10
-265.1153419531143
 20
-42.42638631174741
 10
-265.1153419531143
 20
-42.42287691224864
 42
-0.3189892314182308
 10
-265.1121434289239
 20
-42.41946666761764
 42
0.3568183404962087
 10
-265.1113419531143
 20
-42.41848657162957
 10
-265.1113419531143
 20
-42.41652292015008
 10
-265.1100037407593
 20
-42.41624359202602
 42
0.3051840064494136
 10
-265.1050919531143
 20
-42.4111363117474
 42
-0.2900042141350497
 10
-265.1005238724924
 20
-42.40611328262953
 10
-265.0995390095354
 20
-42.40590770993311
 42
0.3266838343405565
 10
-265.0988419531143
 20
-42.40495470143993
 10
-265.0988419531143
 20
-42.4023863117474
 10
-265.1113419531143
 20
-42.4023863117474
  0
LINE
  5
7FE
330
73D
100
AcDbEntity
  8
Vista
 62
     6
100
AcDbLine
 10
-265.0999942150913
 20
-42.55723976658283
 30
0.0
 11
-265.0999942150913
 21
-42.51473976658282
 31
0.0
  0
LINE
  5
7FF
330
73D
100
AcDbEntity
  8
Vista
 62
     6
100
AcDbLine
 10
-265.2079942150913
 20
-42.55723976658283
 30
0.0
 11
-265.2079942150913
 21
-42.51473976658282
 31
0.0
  0
LINE
  5
800
330
73D
100
AcDbEntity
  8
Vista
 62
     2
100
AcDbLine
 10
-265.2079942150914
 20
-42.51796536909266
 30
0.0
 11
-265.0999942150913
 21
-42.51796536909266
 31
0.0
  0
LINE
  5
801
330
73D
100
AcDbEntity
  8
Vista
 62
     3
100
AcDbLine
 10
-265.2079942150913
 20
-42.51473976658279
 30
0.0
 11
-265.0999942150913
 21
-42.51473976658284
 31
0.0
  0
LINE
  5
802
330
73D
100
AcDbEntity
  8
Vista
 62
     2
100
AcDbLine
 10
-265.2079942150913
 20
-42.52873976658283
 30
0.0
 11
-265.0999942150913
 21
-42.52873976658283
 31
0.0
  0
LINE
  5
803
330
73D
100
AcDbEntity
  8
Vista
 62
     2
100
AcDbLine
 10
-265.2079942150914
 20
-42.53147306509318
 30
0.0
 11
-265.0999942150913
 21
-42.53147306509318
 31
0.0
  0
LINE
  5
804
330
73D
100
AcDbEntity
  8
Vista
 62
     2
100
AcDbLine
 10
-265.2079942150913
 20
-42.53973976658282
 30
0.0
 11
-265.0999942150913
 21
-42.53973976658282
 31
0.0
  0
LINE
  5
805
330
73D
100
AcDbEntity
  8
Vista
 62
     2
100
AcDbLine
 10
-265.2079942150913
 20
-42.55319036467706
 30
0.0
 11
-265.0999942150913
 21
-42.55319036467709
 31
0.0
  0
LINE
  5
806
330
73D
100
AcDbEntity
  8
Vista
 62
     3
100
AcDbLine
 10
-265.2079942150913
 20
-42.55723976658283
 30
0.0
 11
-265.0999942150913
 21
-42.55723976658283
 31
0.0
  0
ENDBLK
  5
808
330
73D
100
AcDbEntity
  8
0
 62
     3
100
AcDbBlockEnd
  0
BLOCK
  5
B6F
330
B69
100
AcDbEntity
  8
0
 62
     3
100
AcDbBlockBegin
  2
A$C263D6B6A
 70
     0
 10
0.0
 20
0.0
 30
0.0
  3
A$C263D6B6A
  1

  0
HATCH
  5
B6A
330
B69
100
AcDbEntity
  8
Sezione
100
AcDbHatch
 10
0.0
 20
0.0
 30
0.0
210
0.0
220
0.0
230
1.0
  2
ANSI31
 70
     0
 71
     0
 91
        1
 92
        7
 72
     0
 73
     1
 93
        6
 10
0.0922667539244952
 20
0.0862807646728965
 10
-0.0000000665657739
 20
0.0862807646728965
 10
-0.0000000665657739
 20
0.0003091066906239
 10
0.0191316019951639
 20
0.0003091066906239
 10
0.0191316019951639
 20
0.0668219886661159
 10
0.0922667539244952
 20
0.0668219886661158
 97
        0
 75
     0
 76
     1
 52
0.0
 41
0.002
 77
     0
 78
     1
 53
45.0
 43
-0.0858288002254417
 44
-0.1359207187670848
 45
-0.0044901280605346
 46
0.0044901280605346
 79
     0
 47
0.0003507291251325
 98
        1
 10
0.0287510465309501
 20
0.0740124973428604
1001
ACAD
1010
0.0
1020
0.0
1030
0.0
  0
LINE
  5
B6B
330
B69
100
AcDbEntity
  8
Sezione
100
AcDbLine
 10
0.0191316019951639
 20
0.0000000122728271
 30
0.0
 11
0.0191316019951639
 21
0.0668219886661159
 31
0.0
  0
LINE
  5
B6C
330
B69
100
AcDbEntity
  8
Sezione
100
AcDbLine
 10
0.0191316019951639
 20
0.0668219886661159
 30
0.0
 11
0.0923266054750259
 21
0.0668219886661159
 31
0.0
  0
ENDBLK
  5
B70
330
B69
100
AcDbEntity
  8
0
 62
     3
100
AcDbBlockEnd
  0
BLOCK
  5
BFC
330
BFB
100
AcDbEntity
  8
0
100
AcDbBlockBegin
  2
*X19
 70
     1
 10
0.0
 20
0.0
 30
0.0
  3
*X19
  1

  0
LINE
  5
BFD
330
BFB
100
AcDbEntity
  8
0
 62
     0
100
AcDbLine
 10
486.460053877036
 20
124.0678285189305
 30
0.0
 11
503.5693156116774
 21
141.1770902535719
 31
0.0
  0
LINE
  5
BFE
330
BFB
100
AcDbEntity
  8
0
 62
     0
100
AcDbLine
 10
615.6341149734076
 20
253.2418896153022
 30
0.0
 11
629.3545087289434
 21
266.9622833708378
 31
0.0
  0
LINE
  5
BFF
330
BFB
100
AcDbEntity
  8
0
 62
     0
100
AcDbLine
 10
486.460053877036
 20
132.9066632837623
 30
0.0
 11
503.5693156116774
 21
150.0159250184037
 31
0.0
  0
LINE
  5
C00
330
BFB
100
AcDbEntity
  8
0
 62
     0
100
AcDbLine
 10
606.7952802085758
 20
253.2418896153022
 30
0.0
 11
620.5156739641116
 21
266.9622833708378
 31
0.0
  0
LINE
  5
C01
330
BFB
100
AcDbEntity
  8
0
 62
     0
100
AcDbLine
 10
486.460053877036
 20
141.7454980485942
 30
0.0
 11
503.5693156116774
 21
158.8547597832356
 31
0.0
  0
LINE
  5
C02
330
BFB
100
AcDbEntity
  8
0
 62
     0
100
AcDbLine
 10
597.9564454437441
 20
253.2418896153022
 30
0.0
 11
611.6768391992796
 21
266.9622833708378
 31
0.0
  0
LINE
  5
C03
330
BFB
100
AcDbEntity
  8
0
 62
     0
100
AcDbLine
 10
486.460053877036
 20
150.584332813426
 30
0.0
 11
503.5693156116774
 21
167.6935945480674
 31
0.0
  0
LINE
  5
C04
330
BFB
100
AcDbEntity
  8
0
 62
     0
100
AcDbLine
 10
589.1176106789122
 20
253.2418896153022
 30
0.0
 11
602.8380044344478
 21
266.9622833708378
 31
0.0
  0
LINE
  5
C05
330
BFB
100
AcDbEntity
  8
0
 62
     0
100
AcDbLine
 10
486.460053877036
 20
159.4231675782578
 30
0.0
 11
503.5693156116774
 21
176.5324293128992
 31
0.0
  0
LINE
  5
C06
330
BFB
100
AcDbEntity
  8
0
 62
     0
100
AcDbLine
 10
580.2787759140803
 20
253.2418896153022
 30
0.0
 11
593.999169669616
 21
266.9622833708378
 31
0.0
  0
LINE
  5
C07
330
BFB
100
AcDbEntity
  8
0
 62
     0
100
AcDbLine
 10
486.460053877036
 20
168.2620023430897
 30
0.0
 11
503.5693156116774
 21
185.3712640777311
 31
0.0
  0
LINE
  5
C08
330
BFB
100
AcDbEntity
  8
0
 62
     0
100
AcDbLine
 10
571.4399411492485
 20
253.2418896153022
 30
0.0
 11
585.1603349047841
 21
266.9622833708378
 31
0.0
  0
LINE
  5
C09
330
BFB
100
AcDbEntity
  8
0
 62
     0
100
AcDbLine
 10
486.460053877036
 20
177.1008371079215
 30
0.0
 11
503.5693156116773
 21
194.2100988425629
 31
0.0
  0
LINE
  5
C0A
330
BFB
100
AcDbEntity
  8
0
 62
     0
100
AcDbLine
 10
562.6011063844166
 20
253.2418896153022
 30
0.0
 11
576.3215001399522
 21
266.9622833708378
 31
0.0
  0
LINE
  5
C0B
330
BFB
100
AcDbEntity
  8
0
 62
     0
100
AcDbLine
 10
486.460053877036
 20
185.9396718727533
 30
0.0
 11
503.5693156116773
 21
203.0489336073947
 31
0.0
  0
LINE
  5
C0C
330
BFB
100
AcDbEntity
  8
0
 62
     0
100
AcDbLine
 10
553.7622716195848
 20
253.2418896153022
 30
0.0
 11
567.4826653751203
 21
266.9622833708378
 31
0.0
  0
LINE
  5
C0D
330
BFB
100
AcDbEntity
  8
0
 62
     0
100
AcDbLine
 10
486.4600538770359
 20
194.7785066375852
 30
0.0
 11
503.5693156116773
 21
211.8877683722266
 31
0.0
  0
LINE
  5
C0E
330
BFB
100
AcDbEntity
  8
0
 62
     0
100
AcDbLine
 10
544.9234368547529
 20
253.2418896153022
 30
0.0
 11
558.6438306102885
 21
266.9622833708378
 31
0.0
  0
LINE
  5
C0F
330
BFB
100
AcDbEntity
  8
0
 62
     0
100
AcDbLine
 10
486.4600538770359
 20
203.617341402417
 30
0.0
 11
503.5693156116773
 21
220.7266031370584
 31
0.0
  0
LINE
  5
C10
330
BFB
100
AcDbEntity
  8
0
 62
     0
100
AcDbLine
 10
536.084602089921
 20
253.2418896153022
 30
0.0
 11
549.8049958454567
 21
266.9622833708378
 31
0.0
  0
LINE
  5
C11
330
BFB
100
AcDbEntity
  8
0
 62
     0
100
AcDbLine
 10
486.4600538770359
 20
212.4561761672488
 30
0.0
 11
503.5693156116773
 21
229.5654379018902
 31
0.0
  0
LINE
  5
C12
330
BFB
100
AcDbEntity
  8
0
 62
     0
100
AcDbLine
 10
527.2457673250892
 20
253.2418896153022
 30
0.0
 11
540.9661610806248
 21
266.9622833708378
 31
0.0
  0
LINE
  5
C13
330
BFB
100
AcDbEntity
  8
0
 62
     0
100
AcDbLine
 10
486.4600538770359
 20
221.2950109320807
 30
0.0
 11
503.5693156116773
 21
238.4042726667221
 31
0.0
  0
LINE
  5
C14
330
BFB
100
AcDbEntity
  8
0
 62
     0
100
AcDbLine
 10
518.4069325602573
 20
253.2418896153022
 30
0.0
 11
532.1273263157929
 21
266.9622833708378
 31
0.0
  0
LINE
  5
C15
330
BFB
100
AcDbEntity
  8
0
 62
     0
100
AcDbLine
 10
486.4600538770359
 20
230.1338456969125
 30
0.0
 11
503.5693156116773
 21
247.2431074315539
 31
0.0
  0
LINE
  5
C16
330
BFB
100
AcDbEntity
  8
0
 62
     0
100
AcDbLine
 10
509.5680977954256
 20
253.2418896153021
 30
0.0
 11
523.2884915509611
 21
266.9622833708377
 31
0.0
  0
LINE
  5
C17
330
BFB
100
AcDbEntity
  8
0
 62
     0
100
AcDbLine
 10
486.4600538770359
 20
238.9726804617443
 30
0.0
 11
514.4496567861292
 21
266.9622833708377
 31
0.0
  0
LINE
  5
C18
330
BFB
100
AcDbEntity
  8
0
 62
     0
100
AcDbLine
 10
486.4600538770359
 20
247.8115152265762
 30
0.0
 11
505.6108220212975
 21
266.9622833708377
 31
0.0
  0
LINE
  5
C19
330
BFB
100
AcDbEntity
  8
0
 62
     0
100
AcDbLine
 10
486.4600538770359
 20
256.6503499914079
 30
0.0
 11
496.7719872564656
 21
266.9622833708377
 31
0.0
  0
LINE
  5
C1A
330
BFB
100
AcDbEntity
  8
0
 62
     0
100
AcDbLine
 10
486.4600538770358
 20
265.4891847562398
 30
0.0
 11
487.9331524916337
 21
266.9622833708377
 31
0.0
  0
LINE
  5
C1B
330
BFB
100
AcDbEntity
  8
0
 62
     0
100
AcDbLine
 10
494.0552738068973
 20
122.8242136839599
 30
0.0
 11
503.5693156116774
 21
132.3382554887401
 31
0.0
  0
LINE
  5
C1C
330
BFB
100
AcDbEntity
  8
0
 62
     0
100
AcDbLine
 10
624.4729497382395
 20
253.2418896153022
 30
0.0
 11
629.496054025455
 21
258.2649939025177
 31
0.0
  0
LINE
  5
C1D
330
BFB
100
AcDbEntity
  8
0
 62
     0
100
AcDbLine
 10
502.8941085717291
 20
122.8242136839599
 30
0.0
 11
503.5693156116775
 21
123.4994207239083
 31
0.0
  0
ENDBLK
  5
C1E
330
BFB
100
AcDbEntity
  8
0
100
AcDbBlockEnd
  0
BLOCK
  5
C24
330
C1F
100
AcDbEntity
  8
0
100
AcDbBlockBegin
  2
A$C6C65579B
 70
     0
 10
0.0
 20
0.0
 30
0.0
  3
A$C6C65579B
  1

  0
LINE
  5
C20
330
C1F
100
AcDbEntity
  8
CORTE
  6
RAYITAX4
 62
     4
100
AcDbLine
 10
-265.2537935691752
 20
-42.42682209115611
 30
0.0
 11
-265.2537935691752
 21
-42.55723976708748
 31
0.0
  0
LINE
  5
C21
330
C1F
100
AcDbEntity
  8
CORTE
  6
RAYITAX4
 62
     4
100
AcDbLine
 10
-265.2537935691752
 20
-42.42682209115611
 30
0.0
 11
-265.1278668307615
 21
-42.42682209115611
 31
0.0
  0
INSERT
  5
C22
330
C1F
100
AcDbEntity
  8
TRAMA
100
AcDbBlockReference
  2
*X19
 10
-265.7573628847869
 20
-42.68006398077142
 30
0.0
 41
0.0009999999999764
 42
0.0010000000000048
 43
0.001
1001
ACAD
1000
HATCH
1002
{
1070
    16
1000
ANSI31
1040
50.0
1040
0.0
1002
}
  0
LWPOLYLINE
  5
C23
330
C1F
100
AcDbEntity
  8
CORTE
  6
Continuous
 62
     1
100
AcDbPolyline
 90
       27
 70
     0
 43
0.0
 10
-265.2434935691752
 20
-42.52048009449487
 42
-0.1309515943895288
 10
-265.2396188804983
 20
-42.50227169263183
 42
-0.0391865213385924
 10
-265.2318861974755
 20
-42.48961463308666
 42
0.148047983309989
 10
-265.2273603786659
 20
-42.46536751056521
 42
-0.477131438324366
 10
-265.226266012113
 20
-42.46426334617865
 42
0.3174254686240992
 10
-265.2222487718652
 20
-42.46199398787246
 10
-265.2204935691752
 20
-42.45828353660647
 42
0.3390955557305459
 10
-265.2133594019252
 20
-42.45748275993213
 42
0.1067380655143518
 10
-265.2064935691752
 20
-42.44728353660645
 10
-265.2014935691752
 20
-42.44428353660646
 42
0.6316956553984646
 10
-265.1944935691752
 20
-42.44228353660645
 42
-0.4142135623730849
 10
-265.1884935691752
 20
-42.43628353660648
 10
-265.1804935691752
 20
-42.43628353660648
 42
0.4142135623730847
 10
-265.1784935691752
 20
-42.43428353660647
 10
-265.1784935691752
 20
-42.42728353660647
 10
-265.1984935691753
 20
-42.42728353660647
 10
-265.2184935691752
 20
-42.43928353660646
 10
-265.2222940706685
 20
-42.43961583728498
 42
0.2192482621402799
 10
-265.2266538493824
 20
-42.4421056036295
 10
-265.2379730166141
 20
-42.45795243775387
 42
0.1840335527349514
 10
-265.239055826335
 20
-42.46208505147598
 10
-265.2384935691752
 20
-42.46728353660649
 10
-265.2534935691752
 20
-42.5122835366065
 10
-265.2534935691752
 20
-42.53228353660648
 10
-265.2454935691752
 20
-42.53228353660648
 42
0.4142135623730847
 10
-265.2434935691752
 20
-42.53028353660647
 10
-265.2434935691752
 20
-42.51681234902133
  0
ENDBLK
  5
C25
330
C1F
100
AcDbEntity
  8
0
100
AcDbBlockEnd
  0
BLOCK
  5
FB2
330
FA7
100
AcDbEntity
  8
0
100
AcDbBlockBegin
  2
*D23
 70
     1
 10
0.0
 20
0.0
 30
0.0
  3
*D23
  1

  0
LINE
  5
FB5
330
FA7
100
AcDbEntity
  8
Dimensione
 62
     5
370
    -2
100
AcDbLine
 10
0.0694784523268922
 20
0.1099592595066667
 30
0.0
 11
0.15183035539178
 21
0.1099592595066667
 31
0.0
  0
LINE
  5
FB6
330
FA7
100
AcDbEntity
  8
Dimensione
 62
     5
370
    -2
100
AcDbLine
 10
0.1364784523268995
 20
0.2149592595066849
 30
0.0
 11
0.1518303553917801
 21
0.2149592595066849
 31
0.0
  0
LINE
  5
FB7
330
FA7
100
AcDbEntity
  8
Dimensione
 62
     5
370
    -2
100
AcDbLine
 10
0.1516503553917801
 20
0.1099592595066667
 30
0.0
 11
0.1516503553917801
 21
0.1589592595066758
 31
0.0
  0
LINE
  5
FB8
330
FA7
100
AcDbEntity
  8
Dimensione
 62
     5
370
    -2
100
AcDbLine
 10
0.1516503553917801
 20
0.2149592595066849
 30
0.0
 11
0.1516503553917801
 21
0.1659592595066758
 31
0.0
  0
INSERT
  5
FB9
330
FA7
100
AcDbEntity
  8
Dimensione
 62
     5
370
    -2
100
AcDbBlockReference
  2
_ArchTick
 10
0.1516503553917801
 20
0.1099592595066667
 30
0.0
 41
0.0015
 42
0.0015
 43
0.0015
 50
270.0
  0
INSERT
  5
FBA
330
FA7
100
AcDbEntity
  8
Dimensione
 62
     5
370
    -2
100
AcDbBlockReference
  2
_ArchTick
 10
0.1516503553917801
 20
0.2149592595066849
 30
0.0
 41
0.0015
 42
0.0015
 43
0.0015
 50
90.0
  0
MTEXT
  5
FBB
330
FA7
100
AcDbEntity
  8
Dimensione
 62
     4
100
AcDbMText
 10
0.15165035539178
 20
0.1624592595066759
 30
0.0
 40
0.003
 41
0.0
 71
     5
 72
     1
  1
\A1;100 mm
  7
ROMANS
 73
     1
 44
1.0
1001
ACAD
1000
MTEXTBEGIN
1070
    73
1070
     1
1070
    44
1040
1.0
1070
    74
1070
     0
1000
MTEXTEND
  0
POINT
  5
FBC
330
FA7
100
AcDbEntity
  8
Defpoints
 62
     0
100
AcDbPoint
 10
0.0694159523268922
 20
0.1099592595066667
 30
0.0
  0
POINT
  5
FBD
330
FA7
100
AcDbEntity
  8
Defpoints
 62
     0
100
AcDbPoint
 10
0.1364159523268995
 20
0.2149592595066849
 30
0.0
  0
POINT
  5
FBE
330
FA7
100
AcDbEntity
  8
Defpoints
 62
     0
100
AcDbPoint
 10
0.1516503553917801
 20
0.2149592595066849
 30
0.0
  0
ENDBLK
  5
FB3
330
FA7
100
AcDbEntity
  8
0
100
AcDbBlockEnd
  0
BLOCK
  5
FCD
330
FC2
100
AcDbEntity
  8
0
100
AcDbBlockBegin
  2
*D24
 70
     1
 10
0.0
 20
0.0
 30
0.0
  3
*D24
  1

  0
LINE
  5
FD0
330
FC2
100
AcDbEntity
  8
Dimensione
 62
     5
370
    -2
100
AcDbLine
 10
0.0614159523269109
 20
0.1098967595066667
 30
0.0
 11
0.0614159523269109
 21
0.0930361236083289
 31
0.0
  0
LINE
  5
FD1
330
FC2
100
AcDbEntity
  8
Dimensione
 62
     5
370
    -2
100
AcDbLine
 10
0.1364159523268995
 20
0.2078967595066799
 30
0.0
 11
0.1364159523268995
 21
0.0930361236083289
 31
0.0
  0
LINE
  5
FD2
330
FC2
100
AcDbEntity
  8
Dimensione
 62
     5
370
    -2
100
AcDbLine
 10
0.0614159523269109
 20
0.0932161236083289
 30
0.0
 11
0.0887730951840481
 21
0.0932161236083289
 31
0.0
  0
LINE
  5
FD3
330
FC2
100
AcDbEntity
  8
Dimensione
 62
     5
370
    -2
100
AcDbLine
 10
0.1364159523268995
 20
0.0932161236083289
 30
0.0
 11
0.1090588094697623
 21
0.0932161236083289
 31
0.0
  0
INSERT
  5
FD4
330
FC2
100
AcDbEntity
  8
Dimensione
 62
     5
370
    -2
100
AcDbBlockReference
  2
_ArchTick
 10
0.0614159523269109
 20
0.0932161236083289
 30
0.0
 41
0.0015
 42
0.0015
 43
0.0015
 50
180.0
  0
INSERT
  5
FD5
330
FC2
100
AcDbEntity
  8
Dimensione
 62
     5
370
    -2
100
AcDbBlockReference
  2
_ArchTick
 10
0.1364159523268995
 20
0.0932161236083289
 30
0.0
 41
0.0015
 42
0.0015
 43
0.0015
  0
MTEXT
  5
FD6
330
FC2
100
AcDbEntity
  8
Dimensione
 62
     4
100
AcDbMText
 10
0.0989159523269052
 20
0.0932161236083289
 30
0.0
 40
0.003
 41
0.0
 71
     5
 72
     1
  1
\A1;80 mm
  7
ROMANS
 73
     1
 44
1.0
1001
ACAD
1000
MTEXTBEGIN
1070
    73
1070
     1
1070
    44
1040
1.0
1070
    74
1070
     0
1000
MTEXTEND
  0
POINT
  5
FD7
330
FC2
100
AcDbEntity
  8
Defpoints
 62
     0
100
AcDbPoint
 10
0.0614159523269109
 20
0.1099592595066667
 30
0.0
  0
POINT
  5
FD8
330
FC2
100
AcDbEntity
  8
Defpoints
 62
     0
100
AcDbPoint
 10
0.1364159523268995
 20
0.2079592595066799
 30
0.0
  0
POINT
  5
FD9
330
FC2
100
AcDbEntity
  8
Defpoints
 62
     0
100
AcDbPoint
 10
0.1364159523268995
 20
0.0932161236083289
 30
0.0
  0
ENDBLK
  5
FCE
330
FC2
100
AcDbEntity
  8
0
100
AcDbBlockEnd
  0
BLOCK
  5
162D
330
1622
100
AcDbEntity
  8
0
100
AcDbBlockBegin
  2
*D27
 70
     1
 10
0.0
 20
0.0
 30
0.0
  3
*D27
  1

  0
LINE
  5
1630
330
1622
100
AcDbEntity
  8
Dimensione
 62
     5
370
    -2
100
AcDbLine
 10
0.0808080636337409
 20
0.2090610869392151
 30
0.0
 11
0.1294493827173253
 21
0.2090610869392151
 31
0.0
  0
LINE
  5
1631
330
1622
100
AcDbEntity
  8
Dimensione
 62
     5
370
    -2
100
AcDbLine
 10
0.0808080636337409
 20
0.129061086939231
 30
0.0
 11
0.1294493827173252
 21
0.129061086939231
 31
0.0
  0
LINE
  5
1632
330
1622
100
AcDbEntity
  8
Dimensione
 62
     5
370
    -2
100
AcDbLine
 10
0.1292693827173253
 20
0.2090610869392151
 30
0.0
 11
0.1292693827173252
 21
0.1725610869392231
 31
0.0
  0
LINE
  5
1633
330
1622
100
AcDbEntity
  8
Dimensione
 62
     5
370
    -2
100
AcDbLine
 10
0.1292693827173252
 20
0.129061086939231
 30
0.0
 11
0.1292693827173252
 21
0.165561086939223
 31
0.0
  0
INSERT
  5
1634
330
1622
100
AcDbEntity
  8
Dimensione
 62
     5
370
    -2
100
AcDbBlockReference
  2
_ArchTick
 10
0.1292693827173253
 20
0.2090610869392151
 30
0.0
 41
0.0015
 42
0.0015
 43
0.0015
 50
90.0
  0
INSERT
  5
1635
330
1622
100
AcDbEntity
  8
Dimensione
 62
     5
370
    -2
100
AcDbBlockReference
  2
_ArchTick
 10
0.1292693827173252
 20
0.129061086939231
 30
0.0
 41
0.0015
 42
0.0015
 43
0.0015
 50
270.0
  0
MTEXT
  5
1636
330
1622
100
AcDbEntity
  8
Dimensione
 62
     4
100
AcDbMText
 10
0.1292693827173252
 20
0.1690610869392231
 30
0.0
 40
0.003
 41
0.0
 71
     5
 72
     1
  1
\A1;80 mm
  7
ROMANS
 73
     1
 44
1.0
1001
ACAD
1000
MTEXTBEGIN
1070
    73
1070
     1
1070
    44
1040
1.0
1070
    74
1070
     0
1000
MTEXTEND
  0
POINT
  5
1637
330
1622
100
AcDbEntity
  8
Defpoints
 62
     0
100
AcDbPoint
 10
0.0807455636337409
 20
0.2090610869392151
 30
0.0
  0
POINT
  5
1638
330
1622
100
AcDbEntity
  8
Defpoints
 62
     0
100
AcDbPoint
 10
0.0807455636337409
 20
0.129061086939231
 30
0.0
  0
POINT
  5
1639
330
1622
100
AcDbEntity
  8
Defpoints
 62
     0
100
AcDbPoint
 10
0.1292693827173252
 20
0.129061086939231
 30
0.0
  0
ENDBLK
  5
162E
330
1622
100
AcDbEntity
  8
0
100
AcDbBlockEnd
  0
BLOCK
  5
1647
330
163C
100
AcDbEntity
  8
0
100
AcDbBlockBegin
  2
*D28
 70
     1
 10
0.0
 20
0.0
 30
0.0
  3
*D28
  1

  0
LINE
  5
163D
330
163C
100
AcDbEntity
  8
Dimensione
 62
     5
370
    -2
100
AcDbLine
 10
0.0808080636337409
 20
0.128998586939231
 30
0.0
 11
0.0808080636337409
 21
0.1000800844928168
 31
0.0
  0
LINE
  5
163E
330
163C
100
AcDbEntity
  8
Dimensione
 62
     5
370
    -2
100
AcDbLine
 10
0.101665561844186
 20
0.1853313182011063
 30
0.0
 11
0.101665561844186
 21
0.1000800844928168
 31
0.0
  0
LINE
  5
163F
330
163C
100
AcDbEntity
  8
Dimensione
 62
     5
370
    -2
100
AcDbLine
 10
0.0808080636337409
 20
0.1002600844928168
 30
0.0
 11
0.0793080636337409
 21
0.1002600844928168
 31
0.0
  0
LINE
  5
1640
330
163C
100
AcDbEntity
  8
Dimensione
 62
     5
370
    -2
100
AcDbLine
 10
0.101665561844186
 20
0.1002600844928168
 30
0.0
 11
0.103165561844186
 21
0.1002600844928168
 31
0.0
  0
INSERT
  5
1641
330
163C
100
AcDbEntity
  8
Dimensione
 62
     5
370
    -2
100
AcDbBlockReference
  2
_ArchTick
 10
0.0808080636337409
 20
0.1002600844928168
 30
0.0
 41
0.0015
 42
0.0015
 43
0.0015
  0
INSERT
  5
1642
330
163C
100
AcDbEntity
  8
Dimensione
 62
     5
370
    -2
100
AcDbBlockReference
  2
_ArchTick
 10
0.101665561844186
 20
0.1002600844928168
 30
0.0
 41
0.0015
 42
0.0015
 43
0.0015
 50
180.0
  0
MTEXT
  5
1643
330
163C
100
AcDbEntity
  8
Dimensione
 62
     4
100
AcDbMText
 10
0.0912368127389634
 20
0.1002600844928168
 30
0.0
 40
0.003
 41
0.0
 71
     5
 72
     1
  1
\A1;22 mm
  7
ROMANS
 73
     1
 44
1.0
1001
ACAD
1000
MTEXTBEGIN
1070
    73
1070
     1
1070
    44
1040
1.0
1070
    74
1070
     0
1000
MTEXTEND
  0
POINT
  5
1644
330
163C
100
AcDbEntity
  8
Defpoints
 62
     0
100
AcDbPoint
 10
0.0808080636337409
 20
0.129061086939231
 30
0.0
  0
POINT
  5
1645
330
163C
100
AcDbEntity
  8
Defpoints
 62
     0
100
AcDbPoint
 10
0.101665561844186
 20
0.1853938182011063
 30
0.0
  0
POINT
  5
1646
330
163C
100
AcDbEntity
  8
Defpoints
 62
     0
100
AcDbPoint
 10
0.101665561844186
 20
0.1002600844928168
 30
0.0
  0
ENDBLK
  5
1648
330
163C
100
AcDbEntity
  8
0
100
AcDbBlockEnd
  0
BLOCK
  5
19F5
330
19EA
100
AcDbEntity
  8
0
100
AcDbBlockBegin
  2
*D31
 70
     1
 10
0.0
 20
0.0
 30
0.0
  3
*D31
  1

  0
LINE
  5
1A1D
330
19EA
100
AcDbEntity
  8
Dimensione
 62
     5
370
    -2
100
AcDbLine
 10
0.0912674923689437
 20
0.2112563075041862
 30
0.0
 11
0.1396977084689294
 21
0.2112563075041862
 31
0.0
  0
LINE
  5
1A1E
330
19EA
100
AcDbEntity
  8
Dimensione
 62
     5
370
    -2
100
AcDbLine
 10
0.0912700652520343
 20
0.1311784601045929
 30
0.0
 11
0.1396977084689294
 21
0.1311784601045929
 31
0.0
  0
LINE
  5
1A1F
330
19EA
100
AcDbEntity
  8
Dimensione
 62
     5
370
    -2
100
AcDbLine
 10
0.1395177084689294
 20
0.2112563075041862
 30
0.0
 11
0.1395177084689294
 21
0.1747173838043896
 31
0.0
  0
LINE
  5
1A20
330
19EA
100
AcDbEntity
  8
Dimensione
 62
     5
370
    -2
100
AcDbLine
 10
0.1395177084689294
 20
0.1311784601045929
 30
0.0
 11
0.1395177084689294
 21
0.1677173838043895
 31
0.0
  0
INSERT
  5
1A21
330
19EA
100
AcDbEntity
  8
Dimensione
 62
     5
370
    -2
100
AcDbBlockReference
  2
_ArchTick
 10
0.1395177084689294
 20
0.2112563075041862
 30
0.0
 41
0.0015
 42
0.0015
 43
0.0015
 50
90.0
  0
INSERT
  5
1A22
330
19EA
100
AcDbEntity
  8
Dimensione
 62
     5
370
    -2
100
AcDbBlockReference
  2
_ArchTick
 10
0.1395177084689294
 20
0.1311784601045929
 30
0.0
 41
0.0015
 42
0.0015
 43
0.0015
 50
270.0
  0
MTEXT
  5
1A23
330
19EA
100
AcDbEntity
  8
Dimensione
 62
     4
100
AcDbMText
 10
0.1395177084689294
 20
0.1712173838043896
 30
0.0
 40
0.003
 41
0.0
 71
     5
 72
     1
  1
\A1;80 mm
  7
ROMANS
 73
     1
 44
1.0
1001
ACAD
1000
MTEXTBEGIN
1070
    73
1070
     1
1070
    44
1040
1.0
1070
    74
1070
     0
1000
MTEXTEND
  0
POINT
  5
1A24
330
19EA
100
AcDbEntity
  8
Defpoints
 62
     0
100
AcDbPoint
 10
0.0912049923689438
 20
0.2112563075041862
 30
0.0
  0
POINT
  5
1A25
330
19EA
100
AcDbEntity
  8
Defpoints
 62
     0
100
AcDbPoint
 10
0.0912075652520343
 20
0.1311784601045929
 30
0.0
  0
POINT
  5
1A26
330
19EA
100
AcDbEntity
  8
Defpoints
 62
     0
100
AcDbPoint
 10
0.1395177084689294
 20
0.1311784601045929
 30
0.0
  0
ENDBLK
  5
19F6
330
19EA
100
AcDbEntity
  8
0
100
AcDbBlockEnd
  0
BLOCK
  5
1A0F
330
1A04
100
AcDbEntity
  8
0
100
AcDbBlockBegin
  2
*D32
 70
     1
 10
0.0
 20
0.0
 30
0.0
  3
*D32
  1

  0
LINE
  5
1A27
330
1A04
100
AcDbEntity
  8
Dimensione
 62
     5
370
    -2
100
AcDbLine
 10
0.0912700652520343
 20
0.1311159601045929
 30
0.0
 11
0.0912700652520343
 21
0.1033285116636196
 31
0.0
  0
LINE
  5
1A28
330
1A04
100
AcDbEntity
  8
Dimensione
 62
     5
370
    -2
100
AcDbLine
 10
0.113326262329565
 20
0.188844831591679
 30
0.0
 11
0.113326262329565
 21
0.1033285116636196
 31
0.0
  0
LINE
  5
1A29
330
1A04
100
AcDbEntity
  8
Dimensione
 62
     5
370
    -2
100
AcDbLine
 10
0.0912700652520343
 20
0.1035085116636196
 30
0.0
 11
0.0897700652520343
 21
0.1035085116636196
 31
0.0
  0
LINE
  5
1A2A
330
1A04
100
AcDbEntity
  8
Dimensione
 62
     5
370
    -2
100
AcDbLine
 10
0.113326262329565
 20
0.1035085116636196
 30
0.0
 11
0.114826262329565
 21
0.1035085116636196
 31
0.0
  0
INSERT
  5
1A2B
330
1A04
100
AcDbEntity
  8
Dimensione
 62
     5
370
    -2
100
AcDbBlockReference
  2
_ArchTick
 10
0.0912700652520343
 20
0.1035085116636196
 30
0.0
 41
0.0015
 42
0.0015
 43
0.0015
  0
INSERT
  5
1A2C
330
1A04
100
AcDbEntity
  8
Dimensione
 62
     5
370
    -2
100
AcDbBlockReference
  2
_ArchTick
 10
0.113326262329565
 20
0.1035085116636196
 30
0.0
 41
0.0015
 42
0.0015
 43
0.0015
 50
180.0
  0
MTEXT
  5
1A2D
330
1A04
100
AcDbEntity
  8
Dimensione
 62
     4
100
AcDbMText
 10
0.1022981637907997
 20
0.1035085116636196
 30
0.0
 40
0.003
 41
0.0
 71
     5
 72
     1
  1
\A1;22 mm
  7
ROMANS
 73
     1
 44
1.0
1001
ACAD
1000
MTEXTBEGIN
1070
    73
1070
     1
1070
    44
1040
1.0
1070
    74
1070
     0
1000
MTEXTEND
  0
POINT
  5
1A2E
330
1A04
100
AcDbEntity
  8
Defpoints
 62
     0
100
AcDbPoint
 10
0.0912700652520343
 20
0.1311784601045929
 30
0.0
  0
POINT
  5
1A2F
330
1A04
100
AcDbEntity
  8
Defpoints
 62
     0
100
AcDbPoint
 10
0.113326262329565
 20
0.188907331591679
 30
0.0
  0
POINT
  5
1A30
330
1A04
100
AcDbEntity
  8
Defpoints
 62
     0
100
AcDbPoint
 10
0.113326262329565
 20
0.1035085116636196
 30
0.0
  0
ENDBLK
  5
1A10
330
1A04
100
AcDbEntity
  8
0
100
AcDbBlockEnd
  0
BLOCK
  5
1B47
330
1B3C
100
AcDbEntity
  8
0
100
AcDbBlockBegin
  2
*D35
 70
     1
 10
0.0
 20
0.0
 30
0.0
  3
*D35
  1

  0
LINE
  5
1B4A
330
1B3C
100
AcDbEntity
  8
Dimensione
 62
     5
370
    -2
100
AcDbLine
 10
0.0912077729196753
 20
0.1324701947556832
 30
0.0
 11
0.1332320639694441
 21
0.1324701947556832
 31
0.0
  0
LINE
  5
1B4B
330
1B3C
100
AcDbEntity
  8
Dimensione
 62
     5
370
    -2
100
AcDbLine
 10
0.0912077729196753
 20
0.2124701947556957
 30
0.0
 11
0.1332320639694442
 21
0.2124701947556957
 31
0.0
  0
LINE
  5
1B4C
330
1B3C
100
AcDbEntity
  8
Dimensione
 62
     5
370
    -2
100
AcDbLine
 10
0.1330520639694441
 20
0.1324701947556832
 30
0.0
 11
0.1330520639694441
 21
0.1689701947556895
 31
0.0
  0
LINE
  5
1B4D
330
1B3C
100
AcDbEntity
  8
Dimensione
 62
     5
370
    -2
100
AcDbLine
 10
0.1330520639694441
 20
0.2124701947556957
 30
0.0
 11
0.1330520639694441
 21
0.1759701947556895
 31
0.0
  0
INSERT
  5
1B4E
330
1B3C
100
AcDbEntity
  8
Dimensione
 62
     5
370
    -2
100
AcDbBlockReference
  2
_ArchTick
 10
0.1330520639694441
 20
0.1324701947556832
 30
0.0
 41
0.0015
 42
0.0015
 43
0.0015
 50
270.0
  0
INSERT
  5
1B4F
330
1B3C
100
AcDbEntity
  8
Dimensione
 62
     5
370
    -2
100
AcDbBlockReference
  2
_ArchTick
 10
0.1330520639694441
 20
0.2124701947556957
 30
0.0
 41
0.0015
 42
0.0015
 43
0.0015
 50
90.0
  0
MTEXT
  5
1B50
330
1B3C
100
AcDbEntity
  8
Dimensione
 62
     4
100
AcDbMText
 10
0.1330520639694441
 20
0.1724701947556895
 30
0.0
 40
0.003
 41
0.0
 71
     5
 72
     1
  1
\A1;80 mm
  7
ROMANS
 73
     1
 44
1.0
1001
ACAD
1000
MTEXTBEGIN
1070
    73
1070
     1
1070
    44
1040
1.0
1070
    74
1070
     0
1000
MTEXTEND
  0
POINT
  5
1B51
330
1B3C
100
AcDbEntity
  8
Defpoints
 62
     0
100
AcDbPoint
 10
0.0911452729196754
 20
0.1324701947556832
 30
0.0
  0
POINT
  5
1B52
330
1B3C
100
AcDbEntity
  8
Defpoints
 62
     0
100
AcDbPoint
 10
0.0911452729196754
 20
0.2124701947556957
 30
0.0
  0
POINT
  5
1B53
330
1B3C
100
AcDbEntity
  8
Defpoints
 62
     0
100
AcDbPoint
 10
0.1330520639694441
 20
0.2124701947556957
 30
0.0
  0
ENDBLK
  5
1B48
330
1B3C
100
AcDbEntity
  8
0
100
AcDbBlockEnd
  0
BLOCK
  5
1B61
330
1B56
100
AcDbEntity
  8
0
100
AcDbBlockBegin
  2
*D36
 70
     1
 10
0.0
 20
0.0
 30
0.0
  3
*D36
  1

  0
LINE
  5
1B64
330
1B56
100
AcDbEntity
  8
Dimensione
 62
     5
370
    -2
100
AcDbLine
 10
0.0912077729196753
 20
0.1324076947556832
 30
0.0
 11
0.0912077729196753
 21
0.0994408619463062
 31
0.0
  0
LINE
  5
1B65
330
1B56
100
AcDbEntity
  8
Dimensione
 62
     5
370
    -2
100
AcDbLine
 10
0.1120001049827468
 20
0.1897352115606285
 30
0.0
 11
0.1120001049827468
 21
0.0994408619463062
 31
0.0
  0
LINE
  5
1B66
330
1B56
100
AcDbEntity
  8
Dimensione
 62
     5
370
    -2
100
AcDbLine
 10
0.0912077729196753
 20
0.0996208619463062
 30
0.0
 11
0.0897077729196753
 21
0.0996208619463062
 31
0.0
  0
LINE
  5
1B67
330
1B56
100
AcDbEntity
  8
Dimensione
 62
     5
370
    -2
100
AcDbLine
 10
0.1120001049827468
 20
0.0996208619463062
 30
0.0
 11
0.1135001049827468
 21
0.0996208619463062
 31
0.0
  0
INSERT
  5
1B68
330
1B56
100
AcDbEntity
  8
Dimensione
 62
     5
370
    -2
100
AcDbBlockReference
  2
_ArchTick
 10
0.0912077729196753
 20
0.0996208619463062
 30
0.0
 41
0.0015
 42
0.0015
 43
0.0015
  0
INSERT
  5
1B69
330
1B56
100
AcDbEntity
  8
Dimensione
 62
     5
370
    -2
100
AcDbBlockReference
  2
_ArchTick
 10
0.1120001049827468
 20
0.0996208619463062
 30
0.0
 41
0.0015
 42
0.0015
 43
0.0015
 50
180.0
  0
MTEXT
  5
1B6A
330
1B56
100
AcDbEntity
  8
Dimensione
 62
     4
100
AcDbMText
 10
0.1016039389512111
 20
0.0996208619463062
 30
0.0
 40
0.003
 41
0.0
 71
     5
 72
     1
  1
\A1;22 mm
  7
ROMANS
 73
     1
 44
1.0
1001
ACAD
1000
MTEXTBEGIN
1070
    73
1070
     1
1070
    44
1040
1.0
1070
    74
1070
     0
1000
MTEXTEND
  0
POINT
  5
1B6B
330
1B56
100
AcDbEntity
  8
Defpoints
 62
     0
100
AcDbPoint
 10
0.0912077729196753
 20
0.1324701947556832
 30
0.0
  0
POINT
  5
1B6C
330
1B56
100
AcDbEntity
  8
Defpoints
 62
     0
100
AcDbPoint
 10
0.1120001049827468
 20
0.1897977115606285
 30
0.0
  0
POINT
  5
1B6D
330
1B56
100
AcDbEntity
  8
Defpoints
 62
     0
100
AcDbPoint
 10
0.1120001049827468
 20
0.0996208619463062
 30
0.0
  0
ENDBLK
  5
1B62
330
1B56
100
AcDbEntity
  8
0
100
AcDbBlockEnd
  0
BLOCK
  5
1E70
330
1E65
100
AcDbEntity
  8
0
100
AcDbBlockBegin
  2
*D40
 70
     1
 10
0.0
 20
0.0
 30
0.0
  3
*D40
  1

  0
LINE
  5
1E73
330
1E65
100
AcDbEntity
  8
Dimensione
 62
     5
370
    -2
100
AcDbLine
 10
0.0732320465458984
 20
0.229531112544521
 30
0.0
 11
0.1029101389962645
 21
0.229531112544521
 31
0.0
  0
LINE
  5
1E74
330
1E65
100
AcDbEntity
  8
Dimensione
 62
     5
370
    -2
100
AcDbLine
 10
0.0732320465458699
 20
0.104531112544521
 30
0.0
 11
0.1029101389962645
 21
0.1045311125445209
 31
0.0
  0
LINE
  5
1E75
330
1E65
100
AcDbEntity
  8
Dimensione
 62
     5
370
    -2
100
AcDbLine
 10
0.1027301389962645
 20
0.229531112544521
 30
0.0
 11
0.1027301389962645
 21
0.170531112544521
 31
0.0
  0
LINE
  5
1E76
330
1E65
100
AcDbEntity
  8
Dimensione
 62
     5
370
    -2
100
AcDbLine
 10
0.1027301389962645
 20
0.1045311125445209
 30
0.0
 11
0.1027301389962645
 21
0.1635311125445209
 31
0.0
  0
INSERT
  5
1E77
330
1E65
100
AcDbEntity
  8
Dimensione
 62
     5
370
    -2
100
AcDbBlockReference
  2
_ArchTick
 10
0.1027301389962645
 20
0.229531112544521
 30
0.0
 41
0.0015
 42
0.0015
 43
0.0015
 50
90.0
  0
INSERT
  5
1E78
330
1E65
100
AcDbEntity
  8
Dimensione
 62
     5
370
    -2
100
AcDbBlockReference
  2
_ArchTick
 10
0.1027301389962645
 20
0.1045311125445209
 30
0.0
 41
0.0015
 42
0.0015
 43
0.0015
 50
270.0
  0
MTEXT
  5
1E79
330
1E65
100
AcDbEntity
  8
Dimensione
 62
     4
100
AcDbMText
 10
0.1027301389962645
 20
0.167031112544521
 30
0.0
 40
0.003
 41
0.0
 71
     5
 72
     1
  1
\A1;125 mm
  7
ROMANS
 73
     1
 44
1.0
1001
ACAD
1000
MTEXTBEGIN
1070
    73
1070
     1
1070
    44
1040
1.0
1070
    74
1070
     0
1000
MTEXTEND
  0
POINT
  5
1E7A
330
1E65
100
AcDbEntity
  8
Defpoints
 62
     0
100
AcDbPoint
 10
0.0731695465458984
 20
0.229531112544521
 30
0.0
  0
POINT
  5
1E7B
330
1E65
100
AcDbEntity
  8
Defpoints
 62
     0
100
AcDbPoint
 10
0.0731695465458699
 20
0.104531112544521
 30
0.0
  0
POINT
  5
1E7C
330
1E65
100
AcDbEntity
  8
Defpoints
 62
     0
100
AcDbPoint
 10
0.1027301389962645
 20
0.1045311125445209
 30
0.0
  0
ENDBLK
  5
1E71
330
1E65
100
AcDbEntity
  8
0
100
AcDbBlockEnd
  0
BLOCK
  5
1E89
330
1E7F
100
AcDbEntity
  8
0
100
AcDbBlockBegin
  2
*D41
 70
     1
 10
0.0
 20
0.0
 30
0.0
  3
*D41
  1

  0
LINE
  5
1E8C
330
1E7F
100
AcDbEntity
  8
Dimensione
 62
     5
370
    -2
100
AcDbLine
 10
0.0691695465458793
 20
0.104468612544521
 30
0.0
 11
0.0691695465458793
 21
0.087066647805955
 31
0.0
  0
LINE
  5
1E8D
330
1E7F
100
AcDbEntity
  8
Dimensione
 62
     5
370
    -2
100
AcDbLine
 10
0.0831215431520605
 20
0.1194669120482515
 30
0.0
 11
0.0831215431520605
 21
0.087066647805955
 31
0.0
  0
LINE
  5
1E8E
330
1E7F
100
AcDbEntity
  8
Dimensione
 62
     5
370
    -2
100
AcDbLine
 10
0.0691695465458793
 20
0.0872466478059551
 30
0.0
 11
0.0831215431520605
 21
0.0872466478059551
 31
0.0
  0
MTEXT
  5
1E8F
330
1E7F
100
AcDbEntity
  8
Dimensione
 62
     4
100
AcDbMText
 10
0.0761455448489699
 20
0.0800666478059551
 30
0.0
 40
0.003
 41
0.0
 71
     5
 72
     1
  1
\A1;18 mm
  7
ROMANS
 73
     1
 44
1.0
1001
ACAD
1000
MTEXTBEGIN
1070
    73
1070
     1
1070
    44
1040
1.0
1070
    74
1070
     0
1000
MTEXTEND
  0
INSERT
  5
1E90
330
1E7F
100
AcDbEntity
  8
Dimensione
 62
     5
370
    -2
100
AcDbBlockReference
  2
_ArchTick
 10
0.0691695465458793
 20
0.0872466478059551
 30
0.0
 41
0.0015
 42
0.0015
 43
0.0015
 50
180.0
  0
INSERT
  5
1E91
330
1E7F
100
AcDbEntity
  8
Dimensione
 62
     5
370
    -2
100
AcDbBlockReference
  2
_ArchTick
 10
0.0831215431520605
 20
0.0872466478059551
 30
0.0
 41
0.0015
 42
0.0015
 43
0.0015
  0
POINT
  5
1E92
330
1E7F
100
AcDbEntity
  8
Defpoints
 62
     0
100
AcDbPoint
 10
0.0691695465458793
 20
0.104531112544521
 30
0.0
  0
POINT
  5
1E93
330
1E7F
100
AcDbEntity
  8
Defpoints
 62
     0
100
AcDbPoint
 10
0.0831215431520605
 20
0.1195294120482515
 30
0.0
  0
POINT
  5
1E94
330
1E7F
100
AcDbEntity
  8
Defpoints
 62
     0
100
AcDbPoint
 10
0.0831215431520605
 20
0.0872466478059551
 30
0.0
  0
ENDBLK
  5
1E8A
330
1E7F
100
AcDbEntity
  8
0
100
AcDbBlockEnd
  0
ENDSEC
  0
SECTION
  2
ENTITIES
  0
LINE
  5
D
330
2
100
AcDbEntity
  8
Table
100
AcDbLine
 10
0.02
 20
0.02
 30
0.0
 11
0.4
 21
0.02
 31
0.0
  0
LINE
  5
10
330
2
100
AcDbEntity
  8
Table
100
AcDbLine
 10
0.4
 20
0.02
 30
0.0
 11
0.4
 21
0.2769999999999999
 31
0.0
  0
LINE
  5
11
330
2
100
AcDbEntity
  8
Table
100
AcDbLine
 10
0.4
 20
0.2769999999999999
 30
0.0
 11
0.02
 21
0.277
 31
0.0
  0
LINE
  5
12
330
2
100
AcDbEntity
  8
Table
100
AcDbLine
 10
0.02
 20
0.277
 30
0.0
 11
0.02
 21
0.02
 31
0.0
  0
LINE
  5
13
330
2
100
AcDbEntity
  8
Table
 62
     2
100
AcDbLine
 10
0.015
 20
0.015
 30
0.0
 11
0.4050000000000001
 21
0.015
 31
0.0
  0
LINE
  5
14
330
2
100
AcDbEntity
  8
Table
 62
     2
100
AcDbLine
 10
0.4050000000000001
 20
0.015
 30
0.0
 11
0.4050000000000001
 21
0.2819999999999998
 31
0.0
  0
LINE
  5
15
330
2
100
AcDbEntity
  8
Table
 62
     2
100
AcDbLine
 10
0.4050000000000001
 20
0.2819999999999998
 30
0.0
 11
0.0149999999999999
 21
0.282
 31
0.0
  0
LINE
  5
16
330
2
100
AcDbEntity
  8
Table
 62
     2
100
AcDbLine
 10
0.0149999999999999
 20
0.282
 30
0.0
 11
0.015
 21
0.015
 31
0.0
  0
LINE
  5
17
330
2
100
AcDbEntity
  8
Table
100
AcDbLine
 10
0.21
 20
0.2769999999999999
 30
0.0
 11
0.21
 21
0.2532994226089223
 31
0.0
  0
LINE
  5
1D
330
2
100
AcDbEntity
  8
Table
100
AcDbLine
 10
0.02
 20
0.0528099428524846
 30
0.0
 11
0.4
 21
0.0528099428524846
 31
0.0
  0
MTEXT
  5
1E
330
2
100
AcDbEntity
  8
Text
100
AcDbMText
 10
0.1133313047219695
 20
0.2610796890771976
 30
0.0
 40
0.003
 41
0.1685521855507659
 71
     2
 72
     5
  1
{\fTimes New Roman|b0|i0|c0|p18;Le cornici e gli angoli per pareti e soffitti \fTimes New Roman|b0|i1|c0|p18;      Panel mouldings and corners}
 73
     1
 44
1.0
1001
ACAD
1000
ACAD_MTEXT_DEFINED_HEIGHT_BEGIN
1070
    46
1040
0.0141952763113409
1000
ACAD_MTEXT_DEFINED_HEIGHT_END
1000
MTEXTBEGIN
1070
    73
1070
     1
1070
    44
1040
1.0
1070
    74
1070
     0
1000
MTEXTEND
  0
TEXT
  5
1F
330
2
100
AcDbEntity
  8
Text
100
AcDbText
 10
0.2180556919891047
 20
0.269976982173197
 30
0.0
 40
0.003
  1
Cornice - Moulding : H 125 x 18 mm
  7
ROMANS
100
AcDbText
  0
TEXT
  5
21
330
2
100
AcDbEntity
  8
Text
100
AcDbText
 10
0.2184542410678115
 20
0.2576348370183962
 30
0.0
 40
0.003
  1
File : E - W4L
  7
ROMANS
100
AcDbText
  0
LINE
  5
22
330
2
100
AcDbEntity
  8
Table
100
AcDbLine
 10
0.4
 20
0.2654452889427402
 30
0.0
 11
0.02
 21
0.2654452889427403
 31
0.0
  0
LINE
  5
23
330
2
100
AcDbEntity
  8
Table
100
AcDbLine
 10
0.4
 20
0.2532994226089223
 30
0.0
 11
0.02
 21
0.2532994226089225
 31
0.0
  0
LINE
  5
24
330
2
100
AcDbEntity
  8
Table
100
AcDbLine
 10
0.21
 20
0.0528099428524846
 30
0.0
 11
0.21
 21
0.02
 31
0.0
  0
TEXT
  5
25
330
2
100
AcDbEntity
  8
Text
100
AcDbText
 10
0.0947789320547719
 20
0.2687784133392506
 30
0.0
 40
0.005
  1
EUROSTYL
  7
style1
 72
     1
 11
0.1140561490699125
 21
0.2687784133392506
 31
0.0
100
AcDbText
  0
TEXT
  5
27
330
2
100
AcDbEntity
  8
Text
100
AcDbText
 10
0.348876191563227
 20
0.1483258282008927
 30
0.0
 40
0.005
  1
scala 1:2
  7
Arial
100
AcDbText
  0
MTEXT
  5
10F
102
{ACAD_XDICTIONARY
360
1EA7
102
}
330
2
100
AcDbEntity
  8
Text
100
AcDbMText
 10
0.305
 20
0.0471738284815141
 30
0.0
 40
0.005
 41
0.1900000000000001
 71
     2
 72
     5
  3
{\fTimes New Roman|b0|i0|c238|p18;\H1.6x;\C4;Bovelacci\P\H0.4375x;\T0.95;via del Commercio, 5  47100 Forli - Italy  \fTimes New Roman|b0|i0|c0|p18;\P\fTimes New Roman|b0|i0|c238|p18;tel.+39-0543721386  fax +39-0543721127\fTimes New Roman|b0|i0|c0|p18
  1
; \fTimes New Roman|b0|i0|c238|p18;www.bovelacci.it\fTimes New Roman|b0|i0|c0|p18; \fTimes New Roman|b0|i0|c238|p18;e-mail: bovelacci@bovelacci\fTimes New Roman|b0|i0|c0|p18;.it}
 73
     1
 44
1.0
1001
ACAD
1000
ACAD_MTEXT_DEFINED_HEIGHT_BEGIN
1070
    46
1040
0.0271738284815141
1000
ACAD_MTEXT_DEFINED_HEIGHT_END
1000
MTEXTBEGIN
1070
    73
1070
     1
1070
    44
1040
1.0
1070
    74
1070
     0
1000
MTEXTEND
  0
MTEXT
  5
110
330
2
100
AcDbEntity
  8
Text
100
AcDbMText
 10
0.0219676065851835
 20
0.0500313976452307
 30
0.0
 40
0.002
 41
0.1863544980601608
 71
     1
 72
     5
  3
{\fArial|b0|i0|c0|p34;\H1.25x;Le caratteristiche tecniche indicate vengono fornite a titolo indicativo e potranno essere modificate senza preavviso. Non devono quindi essere considerate a scopo di specifica.\P\fArial|b0|i1|c0|p34;The given values are
  3
 indicative and can be changed without notice. They cannot be considered like a state.\PThis lealfet and designs embodied within are protected by copyright law and international treaties. Unauthorized repro- duction of the leaflet or any portion of i
  1
t or reproduction of any of the designs embodied therein may result in severe civil penalties and will be prosecuted to the maximum.\PAll right reserved, Bovelacci Forlì Italy.}
 73
     1
 44
1.0
1001
ACAD
1000
MTEXTBEGIN
1070
    73
1070
     1
1070
    44
1040
1.0
1070
    74
1070
     0
1000
MTEXTEND
  0
TEXT
  5
1CA
330
2
100
AcDbEntity
  8
Text
100
AcDbText
 10
0.1039541783685241
 20
0.0824552401967808
 30
0.0
 40
0.005
  1
scala 1:1
  7
Arial
100
AcDbText
  0
LINE
  5
161A
330
2
100
AcDbEntity
  8
Sezione
100
AcDbLine
 10
0.067993814650265
 20
0.0939187643227797
 30
0.0
 11
0.067993814650265
 21
0.2373948982245793
 31
0.0
  0
LINE
  5
1CE9
330
2
100
AcDbEntity
  8
Vista
 62
     3
100
AcDbLine
 10
0.1794153496558692
 20
0.0755584760550221
 30
0.0
 11
0.2349204927674009
 21
0.0755584760550221
 31
0.0
  0
LINE
  5
1CEA
330
2
100
AcDbEntity
  8
Vista
 62
     2
100
AcDbLine
 10
0.182165349655861
 20
0.0780584760550198
 30
0.0
 11
0.2349204927674009
 21
0.0780584760550198
 31
0.0
  0
LINE
  5
1CEB
330
2
100
AcDbEntity
  8
Vista
100
AcDbLine
 10
0.1825025727182492
 20
0.085558476055013
 30
0.0
 11
0.2349204927674009
 21
0.085558476055013
 31
0.0
  0
LINE
  5
1CEC
330
2
100
AcDbEntity
  8
Vista
100
AcDbLine
 10
0.1824153496558551
 20
0.1280584760550312
 30
0.0
 11
0.2349204927674009
 21
0.1280584760550311
 31
0.0
  0
LINE
  5
1CED
330
2
100
AcDbEntity
  8
Vista
 62
     2
100
AcDbLine
 10
0.1824153496558551
 20
0.1330584760550266
 30
0.0
 11
0.2349204927674009
 21
0.1330584760550266
 31
0.0
  0
LINE
  5
1CEE
330
2
100
AcDbEntity
  8
Vista
 62
     2
100
AcDbLine
 10
0.182165349655861
 20
0.1355584760550244
 30
0.0
 11
0.2349204927674009
 21
0.1355584760549746
 31
0.0
  0
LINE
  5
1CEF
330
2
100
AcDbEntity
  8
Vista
 62
     3
100
AcDbLine
 10
0.1794153496558692
 20
0.1380584760550221
 30
0.0
 11
0.2349204927674009
 21
0.1380584760550221
 31
0.0
  0
ARC
  5
1CF0
330
2
100
AcDbEntity
  8
Vista
100
AcDbCircle
 10
0.288589772571072
 20
0.1088043964713563
 30
0.0
 40
0.0130464990716223
100
AcDbArc
 50
351.0012811888877
 51
33.49387642828643
  0
ARC
  5
1CF1
330
2
100
AcDbEntity
  8
Vista
100
AcDbCircle
 10
0.3025296133727124
 20
0.106596862114344
 30
0.0
 40
0.0010670536176274
100
AcDbArc
 50
171.0012811888877
 51
346.7818334566155
  0
ARC
  5
1CF2
330
2
100
AcDbEntity
  8
Vista
100
AcDbCircle
 10
0.2834633991639634
 20
0.097630612245581
 30
0.0
 40
0.0243678106858491
100
AcDbArc
 50
48.938560909003
 51
51.62642942052197
  0
ARC
  5
1CF3
330
2
100
AcDbEntity
  8
Vista
100
AcDbCircle
 10
0.29202149824755
 20
0.1034809515658992
 30
0.0
 40
0.0147922030979294
100
AcDbArc
 50
63.63472832844764
 51
132.5095275423689
  0
ARC
  5
1CF4
330
2
100
AcDbEntity
  8
Vista
100
AcDbCircle
 10
0.2828601389537084
 20
0.1096202151533987
 30
0.0
 40
0.0013981989251464
100
AcDbArc
 50
336.3218438270546
 51
49.00019200503606
  0
ARC
  5
1CF5
330
2
100
AcDbEntity
  8
Vista
100
AcDbCircle
 10
0.2789953703409083
 20
0.1065991418937244
 30
0.0
 40
0.004
100
AcDbArc
 50
100.330714538413
 51
114.8271783489307
  0
ARC
  5
1CF6
330
2
100
AcDbEntity
  8
Vista
100
AcDbCircle
 10
0.2956404916462247
 20
0.1102131748310455
 30
0.0
 40
0.0088178021665674
100
AcDbArc
 50
334.0373363210443
 51
23.26957274549461
  0
CIRCLE
  5
1CF7
330
2
100
AcDbEntity
  8
Vista
100
AcDbCircle
 10
0.2688267957933021
 20
0.09456177520795
 30
0.0
 40
0.0041756894946728
  0
CIRCLE
  5
1CF8
330
2
100
AcDbEntity
  8
Vista
100
AcDbCircle
 10
0.2764267408792307
 20
0.0933850163710588
 30
0.0
 40
0.003416894553709
  0
CIRCLE
  5
1CF9
330
2
100
AcDbEntity
  8
Vista
100
AcDbCircle
 10
0.2761478264008019
 20
0.1234824393509086
 30
0.0
 40
0.0035296846894999
  0
LINE
  5
1CFA
330
2
100
AcDbEntity
  8
Vista
100
AcDbLine
 10
0.2627819102626745
 20
0.0981266726495562
 30
0.0
 11
0.2655361911744762
 21
0.0971324373792015
 31
0.0
  0
LINE
  5
1CFB
330
2
100
AcDbEntity
  8
Vista
100
AcDbLine
 10
0.2627819102626745
 20
0.0981266726495562
 30
0.0
 11
0.2753666498353482
 21
0.108769018902791
 31
0.0
  0
LWPOLYLINE
  5
1CFC
330
2
100
AcDbEntity
  8
Vista
100
AcDbPolyline
 90
        9
 70
     0
 43
0.0
 10
0.2900997192917884
 20
0.1086469427703207
 42
0.0838576996371633
 10
0.2873018932911577
 20
0.1072796816090147
 42
0.1447269066925459
 10
0.2832718835060177
 20
0.1013538333744748
 42
0.1145864547094774
 10
0.2838653901096677
 20
0.0946626828517481
 42
0.695739197357105
 10
0.3124082282375298
 20
0.100977435941985
 42
0.4258838129803341
 10
0.2966261704196995
 20
0.1227300631728383
 42
0.238569677311537
 10
0.2792412733377887
 20
0.1185937658215437
 10
0.2761068439006067
 20
0.115943120316814
 10
0.2766895153914106
 20
0.119994567930604
  0
LWPOLYLINE
  5
1CFD
330
2
100
AcDbEntity
  8
Vista
100
AcDbPolyline
 90
       10
 70
     0
 43
0.0
 10
0.2934755031913028
 20
0.0968821773052753
 42
1.075008190300473
 10
0.2913332510366899
 20
0.094569268386266
 42
0.2199215303864874
 10
0.3013569364649697
 20
0.0934760949809572
 42
-0.3119589873728263
 10
0.2895040996049829
 20
0.0955988084253647
 42
-0.2864320200509066
 10
0.288132481205821
 20
0.1022557540147488
 42
-0.3385884000743986
 10
0.2917643101259273
 20
0.1046126556523461
 42
0.6043477904254769
 10
0.2901898762991095
 20
0.1027482783220819
 42
0.820283479408512
 10
0.298157678020857
 20
0.1042733452128175
 42
0.2785448054510586
 10
0.2955989464060735
 20
0.1085847451641655
 42
0.0445537622041257
 10
0.2939764883810198
 20
0.1089489269985222
  0
LWPOLYLINE
  5
1CFE
330
2
100
AcDbEntity
  8
Vista
100
AcDbPolyline
 90
        9
 70
     0
 43
0.0
 10
0.2934024751551192
 20
0.0969179512162271
 10
0.2962458320551491
 20
0.0955250889414572
 42
0.0026463454750967
 10
0.2963030151875046
 20
0.0954974512129923
 42
0.4851425111177625
 10
0.3076231773329141
 20
0.1028118227528409
 42
0.0884351988474506
 10
0.3072917479155421
 20
0.1075869419607613
 42
-0.1272283772889946
 10
0.3065254248101041
 20
0.1030387001873407
 42
-0.4705172385912094
 10
0.303647937173821
 20
0.1017370112195692
 42
-0.3719920330278715
 10
0.3025164085748315
 20
0.1034659846568218
 42
-0.0315111547833624
 10
0.3029421274360402
 20
0.1056127708734209
  0
LWPOLYLINE
  5
1CFF
330
2
100
AcDbEntity
  8
Vista
100
AcDbPolyline
 90
        3
 70
     0
 43
0.0
 10
0.2841468551138746
 20
0.1091339439531964
 42
-0.5357056097303693
 10
0.2830650824885197
 20
0.108464590187026
 42
0.1978118705293543
 10
0.275361445009537
 20
0.10876461741654
 42
0.1978118705293543
  0
LWPOLYLINE
  5
1D00
330
2
100
AcDbEntity
  8
Vista
100
AcDbPolyline
 90
        7
 70
     0
 43
0.0
 10
0.2793770092518457
 20
0.1121317950848777
 42
-0.061943593556335
 10
0.2802556078105454
 20
0.1125821771396716
 42
-0.140542164124805
 10
0.2910090213034664
 20
0.1133437510481769
 42
-0.4252015456182109
 10
0.293919604210032
 20
0.108682282782496
 42
-0.5828075809575618
 10
0.2910138098137054
 20
0.1078796090053231
 42
0.1428125463271143
 10
0.2876634887512637
 20
0.1097192448108615
 42
0.1342631498237824
 10
0.2782780518589902
 20
0.110534298078079
 42
0.1342631498237824
  0
LWPOLYLINE
  5
1D01
330
2
100
AcDbEntity
  8
Vista
100
AcDbPolyline
 90
        5
 70
     0
 43
0.0
 10
0.2927049238487598
 20
0.1125054515481167
 42
0.8799517686047964
 10
0.2938789656442964
 20
0.115240673212412
 42
0.2078031442565078
 10
0.2901845079844065
 20
0.1163774707430605
 42
0.0437252606224408
 10
0.2832382455893594
 20
0.114979080737811
 42
0.0974560123324606
 10
0.2818684224683352
 20
0.1142653205433532
  0
ARC
  5
1D02
330
2
100
AcDbEntity
  8
Vista
100
AcDbCircle
 10
0.3430281089308664
 20
0.1103729428109261
 30
0.0
 40
0.016406217899863
100
AcDbArc
 50
251.8225441085161
 51
261.8446422393923
  0
LWPOLYLINE
  5
1D03
330
2
100
AcDbEntity
  8
Vista
100
AcDbPolyline
 90
        5
 70
     0
 43
0.0
 10
0.3126964395761433
 20
0.1084760599720482
 42
0.1620749479228386
 10
0.3405543566892675
 20
0.0992108985271045
 42
0.0684052026466273
 10
0.3438617935289017
 20
0.0999771701820294
 42
0.6321972240443731
 10
0.3441470191233975
 20
0.1035792940736258
 42
0.1860416112337686
 10
0.3385412031574333
 20
0.1044518934047289
 42
0.1860416112337686
  0
LWPOLYLINE
  5
1D04
330
2
100
AcDbEntity
  8
Vista
100
AcDbPolyline
 90
        3
 70
     0
 43
0.0
 10
0.3394507377142872
 20
0.0986448585015012
 42
0.1165134888038066
 10
0.3440145235664431
 20
0.0992057065157894
 42
0.048232545497662
 10
0.3482458535797264
 20
0.1012530612548232
  0
LWPOLYLINE
  5
1D05
330
2
100
AcDbEntity
  8
Vista
100
AcDbPolyline
 90
        6
 70
     0
 43
0.0
 10
0.3126964395761433
 20
0.1075250766429292
 42
0.0435009374336088
 10
0.3291758716699178
 20
0.0946515187739294
 42
0.5945172122098969
 10
0.3776408133362565
 20
0.1123646950730688
 42
0.7192956199409761
 10
0.3489944756295245
 20
0.1196526831446079
 42
0.1145864547094774
 10
0.3484009690258745
 20
0.112961532621938
 42
0.2273133165503704
 10
0.355903349137634
 20
0.105017273071013
  0
LWPOLYLINE
  5
1D06
330
2
100
AcDbEntity
  8
Vista
100
AcDbPolyline
 90
        5
 70
     0
 43
0.0
 10
0.3449370886356178
 20
0.1259709549146066
 42
0.2404939709890353
 10
0.3384440748318411
 20
0.1256357247638391
 42
0.3389645277301017
 10
0.3374101449153386
 20
0.1218751233443811
 42
0.3884932501149181
 10
0.3461330632229647
 20
0.1192066055141652
 42
0.0430065991906913
 10
0.3508327708354386
 20
0.1219819840180492
 42
0.0430065991906913
  0
ARC
  5
1D07
330
2
100
AcDbEntity
  8
Vista
100
AcDbCircle
 10
0.3652111752446672
 20
0.1779327022968289
 30
0.0
 40
0.0875146529330694
100
AcDbArc
 50
233.1252378583847
 51
251.8225441085089
  0
ARC
  5
1D08
330
2
100
AcDbEntity
  8
Vista
100
AcDbCircle
 10
0.2868068123163994
 20
0.0908329927062539
 30
0.0
 40
0.0328408538547344
100
AcDbArc
 50
358.8174298403477
 51
23.02014513448099
  0
ARC
  5
1D09
330
2
100
AcDbEntity
  8
Vista
100
AcDbCircle
 10
0.2996878275918675
 20
0.0969000615559424
 30
0.0
 40
0.0180736819385107
100
AcDbArc
 50
347.3818319256917
 51
24.77519553450145
  0
LWPOLYLINE
  5
1D0A
330
2
100
AcDbEntity
  8
Vista
100
AcDbPolyline
 90
        5
 70
     0
 43
0.0
 10
0.3299024610824404
 20
0.106429085582505
 42
0.056958210074237
 10
0.3359786285103041
 20
0.1069886571521295
 42
-0.8766596362372133
 10
0.337395805266965
 20
0.1029423112718462
 42
-0.0860709015224749
 10
0.3190341219127504
 20
0.1060017944006688
 42
-0.0720342014785333
 10
0.3126964395761433
 20
0.109575637336178
  0
ARC
  5
1D0B
330
2
100
AcDbEntity
  8
Vista
100
AcDbCircle
 10
0.3170094984400862
 20
0.0902964080355844
 30
0.0
 40
0.0038461642029502
100
AcDbArc
 50
204.178608697454
 51
341.1291975529886
  0
ARC
  5
1D0C
330
2
100
AcDbEntity
  8
Vista
100
AcDbCircle
 10
0.3156787383049959
 20
0.0896989378040587
 30
0.0
 40
0.0023874342022938
100
AcDbArc
 50
0.1780884768932277
 51
204.178608697454
  0
ARC
  5
1D0D
330
2
100
AcDbEntity
  8
Vista
100
AcDbCircle
 10
0.3162649475052603
 20
0.0904154133911846
 30
0.0
 40
0.002774810141525
100
AcDbArc
 50
67.41345522809305
 51
174.4938985233191
  0
ARC
  5
1D0E
330
2
100
AcDbEntity
  8
Vista
100
AcDbCircle
 10
0.346669573044494
 20
0.1641840290152743
 30
0.0
 40
0.0659355325689722
100
AcDbArc
 50
252.1266642048088
 51
263.7144728690257
  0
CIRCLE
  5
1D0F
330
2
100
AcDbEntity
  8
Vista
100
AcDbCircle
 10
0.327973151005267
 20
0.0905415394308591
 30
0.0
 40
0.0012498936648689
  0
ARC
  5
1D10
330
2
100
AcDbEntity
  8
Vista
100
AcDbCircle
 10
0.2961513416177013
 20
0.0878058203008152
 30
0.0
 40
0.0271057446908471
100
AcDbArc
 50
6.522350108220867
 51
30.85763203689335
  0
ARC
  5
1D11
330
2
100
AcDbEntity
  8
Vista
100
AcDbCircle
 10
0.3213263660172174
 20
0.0906841002920089
 30
0.0
 40
0.0017667165085083
100
AcDbArc
 50
194.9123963481864
 51
6.522350108220867
  0
ARC
  5
1D12
330
2
100
AcDbEntity
  8
Vista
100
AcDbCircle
 10
0.3136540428167791
 20
0.0904061111840804
 30
0.0
 40
0.0044672631975259
100
AcDbArc
 50
350.9880690700927
 51
34.74032934213799
  0
CIRCLE
  5
1D13
330
2
100
AcDbEntity
  8
Vista
100
AcDbCircle
 10
0.3256399239642747
 20
0.0919401603037216
 30
0.0
 40
0.0012498936648689
  0
LINE
  5
1D14
330
2
100
AcDbEntity
  8
Vista
100
AcDbLine
 10
0.3225295591106487
 20
0.0940436915034013
 30
0.0
 11
0.3248773834432654
 21
0.0929304966745406
 31
0.0
  0
LINE
  5
1D15
330
2
100
AcDbEntity
  8
Vista
100
AcDbLine
 10
0.3228455537573609
 20
0.092511182506513
 30
0.0
 11
0.3243929422686733
 21
0.0920254294327663
 31
0.0
  0
LINE
  5
1D16
330
2
100
AcDbEntity
  8
Vista
100
AcDbLine
 10
0.3168415050828344
 20
0.1088284346505191
 30
0.0
 11
0.3100897615286158
 21
0.1137842293232154
 31
0.0
  0
LWPOLYLINE
  5
1D17
330
2
100
AcDbEntity
  8
Vista
100
AcDbPolyline
 90
        6
 70
     0
 43
0.0
 10
0.3271045022302701
 20
0.1063156840495765
 42
0.4383557839833782
 10
0.3365801105184687
 20
0.1142925137496888
 42
0.8495604511644771
 10
0.3317270982404352
 20
0.1142383587322513
 42
-0.3854353485454399
 10
0.3250336514533387
 20
0.1087827564886936
 42
-0.1078054664623584
 10
0.3191325015613415
 20
0.1103949819271577
 10
0.3126964395761433
 20
0.1153091019343435
  0
CIRCLE
  5
1D18
330
2
100
AcDbEntity
  8
Vista
100
AcDbCircle
 10
0.3242828659173824
 20
0.1165125113721785
 30
0.0
 40
0.0014172975209712
  0
CIRCLE
  5
1D19
330
2
100
AcDbEntity
  8
Vista
100
AcDbCircle
 10
0.327321208891874
 20
0.1158799501181704
 30
0.0
 40
0.0014172975209712
  0
ARC
  5
1D1A
330
2
100
AcDbEntity
  8
Vista
100
AcDbCircle
 10
0.3257783625089132
 20
0.1231145437622843
 30
0.0
 40
0.0168511226394021
100
AcDbArc
 50
237.9714373322218
 51
274.5136968009449
  0
LINE
  5
1D1B
330
2
100
AcDbEntity
  8
Vista
100
AcDbLine
 10
0.3190780318754491
 20
0.1105620191853234
 30
0.0
 11
0.3220960643846524
 21
0.1132417209385323
 31
0.0
  0
CIRCLE
  5
1D1C
330
2
100
AcDbEntity
  8
Vista
100
AcDbCircle
 10
0.3219408081038182
 20
0.1146148276101542
 30
0.0
 40
0.0014172975209712
  0
LINE
  5
1D1D
330
2
100
AcDbEntity
  8
Vista
100
AcDbLine
 10
0.3203236708301915
 20
0.1098404690411883
 30
0.0
 11
0.3238387887016643
 21
0.112961531353875
 31
0.0
  0
CIRCLE
  5
1D1E
330
2
100
AcDbEntity
  8
Vista
100
AcDbCircle
 10
0.3250342309552252
 20
0.1137228788969367
 30
0.0
 40
0.0014172975209712
  0
CIRCLE
  5
1D1F
330
2
100
AcDbEntity
  8
Vista
100
AcDbCircle
 10
0.3262500663404353
 20
0.1186685035345647
 30
0.0
 40
0.0014172975209712
  0
LWPOLYLINE
  5
1D20
330
2
100
AcDbEntity
  8
Vista
100
AcDbPolyline
 90
        5
 70
     0
 43
0.0
 10
0.3460388346599643
 20
0.0939775550381512
 42
0.3478954626279402
 10
0.3565033171546474
 20
0.095537781020397
 42
0.0621638238997163
 10
0.3624534702907454
 20
0.1010330013994292
 42
-0.7142882784289191
 10
0.3672216357849152
 20
0.0991799645525191
 42
-0.1694749501048991
 10
0.3557780362131666
 20
0.0922972588228106
  0
LWPOLYLINE
  5
1D21
330
2
100
AcDbEntity
  8
Vista
100
AcDbPolyline
 90
        2
 70
     0
 43
0.0
 10
0.3668896770936953
 20
0.1005911852361407
 42
0.0457821517646372
 10
0.3695128764262563
 20
0.1041896584344784
 42
0.0457821517646372
  0
ARC
  5
1D22
330
2
100
AcDbEntity
  8
Vista
100
AcDbCircle
 10
0.3437077549924652
 20
0.105687698876153
 30
0.0
 40
0.0119399079193395
100
AcDbArc
 50
255.4133412039237
 51
316.4985130809881
  0
ARC
  5
1D23
330
2
100
AcDbEntity
  8
Vista
100
AcDbCircle
 10
0.3509177318791785
 20
0.0988453306649433
 30
0.0
 40
0.002
100
AcDbArc
 50
316.4985130809881
 51
58.84626846802161
  0
ARC
  5
1D24
330
2
100
AcDbEntity
  8
Vista
100
AcDbCircle
 10
0.3464180289630576
 20
0.0914018792463765
 30
0.0
 40
0.0106978327963576
100
AcDbArc
 50
58.84626846802161
 51
70.85511325254966
  0
ARC
  5
1D25
330
2
100
AcDbEntity
  8
Vista
100
AcDbCircle
 10
0.3495231296733436
 20
0.0985003975427219
 30
0.0
 40
0.0030345661520307
100
AcDbArc
 50
82.3619138465577
 51
126.3701993910451
  0
ARC
  5
1D26
330
2
100
AcDbEntity
  8
Vista
100
AcDbCircle
 10
0.3674354407208398
 20
0.1176456515562734
 30
0.0
 40
0.0020505014855596
100
AcDbArc
 50
47.86710427181716
 51
201.6346860721419
  0
ARC
  5
1D27
330
2
100
AcDbEntity
  8
Vista
100
AcDbCircle
 10
0.3640386431505362
 20
0.1194067325418189
 30
0.0
 40
0.0017790046264617
100
AcDbArc
 50
188.8774265186029
 51
335.1600854357315
  0
ARC
  5
1D28
330
2
100
AcDbEntity
  8
Vista
100
AcDbCircle
 10
0.3650259133136728
 20
0.1196343857273803
 30
0.0
 40
0.0027905234915206
100
AcDbArc
 50
74.67260274543729
 51
195.6019647889502
  0
ARC
  5
1D29
330
2
100
AcDbEntity
  8
Vista
100
AcDbCircle
 10
0.3607796615175403
 20
0.1100406249845776
 30
0.0
 40
0.0137780563553446
100
AcDbArc
 50
49.41384349448898
 51
86.1034427773883
  0
ARC
  5
1D2A
330
2
100
AcDbEntity
  8
Vista
100
AcDbCircle
 10
0.3632526480506044
 20
0.1088520145981136
 30
0.0
 40
0.0034119048601348
100
AcDbArc
 50
248.1298890942794
 51
53.18194581258557
  0
ARC
  5
1D2B
330
2
100
AcDbEntity
  8
Vista
100
AcDbCircle
 10
0.3621184963822088
 20
0.1141161494432765
 30
0.0
 40
0.0034119048601348
100
AcDbArc
 50
338.1298890942816
 51
143.1819458125856
  0
ARC
  5
1D2C
330
2
100
AcDbEntity
  8
Vista
100
AcDbCircle
 10
0.3532020687213162
 20
0.1182167671798595
 30
0.0
 40
0.0014769524256218
100
AcDbArc
 50
174.8327885945007
 51
335.3236278726488
  0
ARC
  5
1D2D
330
2
100
AcDbEntity
  8
Vista
100
AcDbCircle
 10
0.3568543615370459
 20
0.1129819977748809
 30
0.0
 40
0.0034119048601348
100
AcDbArc
 50
68.12988909427942
 51
233.1819458125856
  0
ARC
  5
1D2E
330
2
100
AcDbEntity
  8
Vista
100
AcDbCircle
 10
0.363104519712806
 20
0.115029221613014
 30
0.0
 40
0.0118482234818219
100
AcDbArc
 50
163.7243742705225
 51
184.2172481888433
  0
ARC
  5
1D2F
330
2
100
AcDbEntity
  8
Vista
100
AcDbCircle
 10
0.3579497684886519
 20
0.1137255991839368
 30
0.0
 40
0.0066754059063176
100
AcDbArc
 50
176.2867249931155
 51
239.7335686216661
  0
CIRCLE
  5
1D30
330
2
100
AcDbEntity
  8
Vista
100
AcDbCircle
 10
0.3600535047938251
 20
0.1109170061864972
 30
0.0
 40
0.002105518730229
  0
LINE
  5
1D31
330
2
100
AcDbEntity
  8
Vista
100
AcDbLine
 10
0.3580197755250083
 20
0.1103718874980757
 30
0.0
 11
0.354822160744277
 21
0.1089888101616054
 31
0.0
  0
ARC
  5
1D32
330
2
100
AcDbEntity
  8
Vista
100
AcDbCircle
 10
0.3579885132054414
 20
0.107717862929718
 30
0.0
 40
0.0034119048601348
100
AcDbArc
 50
158.1298890942815
 51
323.1819458125856
  0
LINE
  5
1D33
330
2
100
AcDbEntity
  8
Vista
100
AcDbLine
 10
0.3602990539246775
 20
0.1088258546502345
 30
0.0
 11
0.3607198883107685
 21
0.1056731906311086
 31
0.0
  0
LINE
  5
1D34
330
2
100
AcDbEntity
  8
Vista
100
AcDbLine
 10
0.3605986234822467
 20
0.1088832769176804
 30
0.0
 11
0.3619817008187169
 21
0.1056856621369491
 31
0.0
  0
LINE
  5
1D35
330
2
100
AcDbEntity
  8
Vista
100
AcDbLine
 10
0.3595083861054036
 20
0.1129507354553141
 30
0.0
 11
0.3581253087689333
 21
0.1161483502360454
 31
0.0
  0
LINE
  5
1D36
330
2
100
AcDbEntity
  8
Vista
100
AcDbLine
 10
0.3579623532575624
 20
0.110671457055588
 30
0.0
 11
0.3548096892384365
 21
0.1102506226695539
 31
0.0
  0
LINE
  5
1D37
330
2
100
AcDbEntity
  8
Vista
100
AcDbLine
 10
0.362087234062642
 20
0.1114621248749188
 30
0.0
 11
0.3652848488433733
 21
0.112845202211389
 31
0.0
  0
LINE
  5
1D38
330
2
100
AcDbEntity
  8
Vista
100
AcDbLine
 10
0.3621446563300878
 20
0.1111625553173496
 30
0.0
 11
0.3652973203492138
 21
0.1115833897034406
 31
0.0
  0
LINE
  5
1D39
330
2
100
AcDbEntity
  8
Vista
100
AcDbLine
 10
0.3598079556629159
 20
0.11300815772276
 30
0.0
 11
0.3593871212768818
 21
0.1161608217418859
 31
0.0
  0
ARC
  5
1D3A
330
2
100
AcDbEntity
  8
Vista
100
AcDbCircle
 10
0.3606379589966195
 20
0.1152367218628854
 30
0.0
 40
0.0094351986079452
100
AcDbArc
 50
115.942097308194
 51
160.7347752620889
  0
ARC
  5
1D3B
330
2
100
AcDbEntity
  8
Vista
100
AcDbCircle
 10
0.3435004195824831
 20
0.1579905766699596
 30
0.0
 40
0.0349519700576257
100
AcDbArc
 50
275.9495992926533
 51
288.3232353089849
  0
ARC
  5
1D3C
330
2
100
AcDbEntity
  8
Vista
100
AcDbCircle
 10
0.3469138057104715
 20
0.1252372489816764
 30
0.0
 40
0.002021259778123
100
AcDbArc
 50
159.0893460353377
 51
275.9495992926533
  0
ARC
  5
1D3D
330
2
100
AcDbEntity
  8
Vista
100
AcDbCircle
 10
0.3620951694666701
 20
0.1112035999937859
 30
0.0
 40
0.0125889443229504
100
AcDbArc
 50
91.72617573713457
 51
106.0001177914579
  0
ARC
  5
1D3E
330
2
100
AcDbEntity
  8
Vista
100
AcDbCircle
 10
0.3713930352054149
 20
0.1098589443650724
 30
0.0
 40
0.0185421500474962
100
AcDbArc
 50
133.5183208767069
 51
155.3236278726503
  0
ARC
  5
1D3F
330
2
100
AcDbEntity
  8
Vista
100
AcDbCircle
 10
0.3621705517832652
 20
0.1092165166486154
 30
0.0
 40
0.0135926105867274
100
AcDbArc
 50
24.56574785079888
 51
74.67260274543374
  0
ARC
  5
1D40
330
2
100
AcDbEntity
  8
Vista
100
AcDbCircle
 10
0.3618041231822531
 20
0.1087464585195619
 30
0.0
 40
0.0089548480496446
100
AcDbArc
 50
328.5885630468563
 51
65.41734113141979
  0
ARC
  5
1D41
330
2
100
AcDbEntity
  8
Vista
100
AcDbCircle
 10
0.3630801749989132
 20
0.1114791368546832
 30
0.0
 40
0.0095882678098916
100
AcDbArc
 50
3.067842229225927
 51
53.29508220675887
  0
ARC
  5
1D42
330
2
100
AcDbEntity
  8
Vista
100
AcDbCircle
 10
0.295731095396718
 20
0.1033037303425033
 30
0.0
 40
0.0209240799936482
100
AcDbArc
 50
35.82536423601201
 51
109.9257030014133
  0
ARC
  5
1D43
330
2
100
AcDbEntity
  8
Vista
100
AcDbCircle
 10
0.3110429684481915
 20
0.1152585674433055
 30
0.0
 40
0.0016187615445732
100
AcDbArc
 50
202.0707813466958
 51
14.82423473172293
  0
ARC
  5
1D44
330
2
100
AcDbEntity
  8
Vista
100
AcDbCircle
 10
0.3148871203646877
 20
0.12330016717587
 30
0.0
 40
0.0067834883495672
100
AcDbArc
 50
229.6737059801498
 51
325.669948107284
  0
ARC
  5
1D45
330
2
100
AcDbEntity
  8
Vista
100
AcDbCircle
 10
0.3177206286962928
 20
0.1213651003028247
 30
0.0
 40
0.003352270888025
100
AcDbArc
 50
325.669948107284
 51
80.28246188748651
  0
ARC
  5
1D46
330
2
100
AcDbEntity
  8
Vista
100
AcDbCircle
 10
0.3161248731569231
 20
0.1120467211971174
 30
0.0
 40
0.0128062978024789
100
AcDbArc
 50
80.28246188748651
 51
103.7882557099583
  0
ARC
  5
1D47
330
2
100
AcDbEntity
  8
Vista
100
AcDbCircle
 10
0.3136112570927025
 20
0.1222893955604434
 30
0.0
 40
0.0022597038579028
100
AcDbArc
 50
103.7882557099583
 51
192.3801444184647
  0
ARC
  5
1D48
330
2
100
AcDbEntity
  8
Vista
100
AcDbCircle
 10
0.3156054231271241
 20
0.1492514526863999
 30
0.0
 40
0.029141416463329
100
AcDbArc
 50
246.018139235768
 51
259.3970602492981
  0
ARC
  5
1D49
330
2
100
AcDbEntity
  8
Vista
100
AcDbCircle
 10
0.3104273523177312
 20
0.1215905253111771
 30
0.0
 40
0.001
100
AcDbArc
 50
259.3970602492981
 51
12.38014441846309
  0
LINE
  5
1D4A
330
2
100
AcDbEntity
  8
Vista
100
AcDbLine
 10
0.2009840516304848
 20
0.2058577876966012
 30
0.0
 11
0.353831295820612
 21
0.2377619423907902
 31
0.0
  0
LINE
  5
1D4B
330
2
100
AcDbEntity
  8
Vista
100
AcDbLine
 10
0.2010389691090495
 20
0.204037705175125
 30
0.0
 11
0.3538862132991198
 21
0.2359418598693139
 31
0.0
  0
LINE
  5
1D4C
330
2
100
AcDbEntity
  8
Vista
100
AcDbLine
 10
0.2010389691090495
 20
0.2002877051751568
 30
0.0
 11
0.3538862132991198
 21
0.2321918598693458
 31
0.0
  0
LINE
  5
1D4D
330
2
100
AcDbEntity
  8
Vista
100
AcDbLine
 10
0.2010389691090495
 20
0.1684127051751432
 30
0.0
 11
0.3538862132991198
 21
0.2003168598693321
 31
0.0
  0
LINE
  5
1D4E
330
2
100
AcDbEntity
  8
Vista
 62
     2
100
AcDbLine
 10
0.2010389691090495
 20
0.164662705175175
 30
0.0
 11
0.3538862132991198
 21
0.1965668598693639
 31
0.0
  0
LINE
  5
1D4F
330
2
100
AcDbEntity
  8
Vista
 62
     2
100
AcDbLine
 10
0.2008514691090113
 20
0.1627877051751341
 30
0.0
 11
0.3520112132991358
 21
0.1943396241366315
 31
0.0
  0
CIRCLE
  5
1D50
330
2
100
AcDbEntity
  8
Vista
100
AcDbCircle
 10
0.2685539212968138
 20
0.2114047688585572
 30
0.0
 40
0.0026472635171249
  0
LWPOLYLINE
  5
1D51
330
2
100
AcDbEntity
  8
Vista
100
AcDbPolyline
 90
        3
 70
     0
 43
0.0
 10
0.2765671693340437
 20
0.2024361689727527
 42
-0.5357056097303693
 10
0.27587553304636
 20
0.2017789672236461
 42
0.1978118705293543
 10
0.2701737232092114
 20
0.2008186855588576
 42
0.1978118705293543
  0
LWPOLYLINE
  5
1D52
330
2
100
AcDbEntity
  8
Vista
100
AcDbPolyline
 90
        7
 70
     0
 43
0.0
 10
0.2726058493808523
 20
0.2039061599643048
 42
-0.061943593556335
 10
0.273181876612739
 20
0.2043714620740786
 42
-0.140542164124805
 10
0.2809600746284104
 20
0.2065785138288732
 42
-0.4252015456182109
 10
0.2838113102272928
 20
0.2036022084200511
 42
-0.5828075809575618
 10
0.2818009503237135
 20
0.2025676014498856
 42
0.1428125463271143
 10
0.279059304840473
 20
0.2034047947062447
 42
0.1342631498237824
 10
0.272043831043618
 20
0.2025649034974037
 42
0.1342631498237824
  0
CIRCLE
  5
1D53
330
2
100
AcDbEntity
  8
Vista
100
AcDbCircle
 10
0.2733127071505237
 20
0.1896905923665315
 30
0.0
 40
0.0025626709152817
  0
ARC
  5
1D54
330
2
100
AcDbEntity
  8
Vista
100
AcDbCircle
 10
0.2379355228511031
 20
0.1954230938044077
 30
0.0
 40
0.0094417082422128
100
AcDbArc
 50
103.5163703845647
 51
117.7903124388877
  0
ARC
  5
1D55
330
2
100
AcDbEntity
  8
Vista
100
AcDbCircle
 10
0.2354546878348174
 20
0.1922346163200075
 30
0.0
 40
0.0025589286451011
100
AcDbArc
 50
169.9200837417108
 51
334.9721404600138
  0
CIRCLE
  5
1D56
330
2
100
AcDbEntity
  8
Vista
100
AcDbCircle
 10
0.2364804995277723
 20
0.1948998055307527
 30
0.0
 40
0.0015791390476718
  0
ARC
  5
1D57
330
2
100
AcDbEntity
  8
Vista
100
AcDbCircle
 10
0.237506311220784
 20
0.1975649947414979
 30
0.0
 40
0.0025589286451011
100
AcDbArc
 50
349.9200837417108
 51
154.9721404600138
  0
LWPOLYLINE
  5
1D58
330
2
100
AcDbEntity
  8
Vista
100
AcDbPolyline
 90
        5
 70
     0
 43
0.0
 10
0.2287871640210142
 20
0.1803155561542837
 42
0.3478954626279402
 10
0.2362308450543082
 20
0.1830646820809818
 42
0.0621638238997163
 10
0.2397571865885197
 20
0.1880109848059703
 42
-0.7142882784289191
 10
0.2435418341900117
 20
0.1873812323673576
 42
-0.1694749501048991
 10
0.2361949589814571
 20
0.180574419242788
  0
LWPOLYLINE
  5
1D59
330
2
100
AcDbEntity
  8
Vista
100
AcDbPolyline
 90
        6
 70
     0
 43
0.0
 10
0.2020804933010254
 20
0.1852440503944024
 42
0.0439919475541132
 10
0.216303485666856
 20
0.1782261763527515
 42
0.5945172122098969
 10
0.2491708399452932
 20
0.1986578567653794
 42
0.7192956199409761
 10
0.2270225061037649
 20
0.1996185803188553
 42
0.1145864547094774
 10
0.2276121620488993
 20
0.1946151402365501
 42
0.2273133165503704
 10
0.2343376644637374
 20
0.1899323620770303
  0
ARC
  5
1D5A
330
2
100
AcDbEntity
  8
Vista
100
AcDbCircle
 10
0.1943094673882797
 20
0.1753580677305138
 30
0.0
 40
0.013555261453883
100
AcDbArc
 50
359.1720265731226
 51
36.56539018193189
  0
ARC
  5
1D5B
330
2
100
AcDbEntity
  8
Vista
100
AcDbCircle
 10
0.185782281536035
 20
0.1689297974847079
 30
0.0
 40
0.0246306403910508
100
AcDbArc
 50
10.60762448777748
 51
34.81033978191149
  0
ARC
  5
1D5C
330
2
100
AcDbEntity
  8
Vista
100
AcDbCircle
 10
0.2299972274126389
 20
0.2448915678081391
 30
0.0
 40
0.0656359896998021
100
AcDbArc
 50
244.8351377359127
 51
263.6127387559403
  0
LWPOLYLINE
  5
1D5D
330
2
100
AcDbEntity
  8
Vista
100
AcDbPolyline
 90
        5
 70
     0
 43
0.0
 10
0.2020861081722387
 20
0.1858504198728212
 42
0.1620749479228386
 10
0.2239585966187292
 20
0.1833172789264665
 42
0.0684052026466273
 10
0.2262694115714794
 20
0.1843867105613128
 42
0.6321972240443731
 10
0.2259268050705714
 20
0.1870750160696559
 42
0.1860416112337686
 10
0.2216774224614824
 20
0.1868565871346561
 42
0.1860416112337686
  0
ARC
  5
1D5E
330
2
100
AcDbEntity
  8
Vista
100
AcDbCircle
 10
0.2184913482934689
 20
0.2319561774160945
 30
0.0
 40
0.0494516494267291
100
AcDbArc
 50
263.9168588522398
 51
275.504667516458
  0
ARC
  5
1D5F
330
2
100
AcDbEntity
  8
Vista
100
AcDbCircle
 10
0.2080386219964225
 20
0.1731643023165645
 30
0.0
 40
0.0028846231522126
100
AcDbArc
 50
215.9688033448836
 51
352.9193922004176
  0
ARC
  5
1D60
330
2
100
AcDbEntity
  8
Vista
100
AcDbCircle
 10
0.2111485534847475
 20
0.1741104813720824
 30
0.0
 40
0.0013250373813812
100
AcDbArc
 50
206.7025909956162
 51
18.31254475564963
  0
ARC
  5
1D61
330
2
100
AcDbEntity
  8
Vista
100
AcDbCircle
 10
0.1931067212177595
 20
0.1681393332505934
 30
0.0
 40
0.0203293085181354
100
AcDbArc
 50
18.31254475564963
 51
42.64782668432574
  0
ARC
  5
1D62
330
2
100
AcDbEntity
  8
Vista
100
AcDbCircle
 10
0.2074737528478181
 20
0.1731375735368203
 30
0.0
 40
0.0020811076061438
100
AcDbArc
 50
79.20364987552213
 51
186.2840931707484
  0
ARC
  5
1D63
330
2
100
AcDbEntity
  8
Vista
100
AcDbCircle
 10
0.2071531689682615
 20
0.1725217193505557
 30
0.0
 40
0.0017905756517204
100
AcDbArc
 50
11.96828312432426
 51
215.9688033448836
  0
ARC
  5
1D64
330
2
100
AcDbEntity
  8
Vista
100
AcDbCircle
 10
0.2055583127850582
 20
0.1727306323352025
 30
0.0
 40
0.0033504473981444
100
AcDbArc
 50
2.7782637175232
 51
46.5305239895703
  0
CIRCLE
  5
1D65
330
2
100
AcDbEntity
  8
Vista
100
AcDbCircle
 10
0.2160503156113691
 20
0.1750244123512346
 30
0.0
 40
0.0009374202486517
  0
LINE
  5
1D66
330
2
100
AcDbEntity
  8
Vista
100
AcDbLine
 10
0.2119839120784945
 20
0.1756846927538902
 30
0.0
 11
0.2131944086989392
 21
0.175565195841699
 31
0.0
  0
LINE
  5
1D67
330
2
100
AcDbEntity
  8
Vista
100
AcDbLine
 10
0.2115170646642355
 20
0.1767614002306743
 30
0.0
 11
0.2134113758656895
 21
0.1763039140580815
 31
0.0
  0
CIRCLE
  5
1D68
330
2
100
AcDbEntity
  8
Vista
100
AcDbCircle
 10
0.2141229808895559
 20
0.1756936886796154
 30
0.0
 40
0.0009374202486517
  0
ARC
  5
1D69
330
2
100
AcDbEntity
  8
Vista
100
AcDbCircle
 10
0.2252812021061459
 20
0.1885556422692787
 30
0.0
 40
0.0089549309395046
100
AcDbArc
 50
267.2035358513532
 51
328.2887077284204
  0
LWPOLYLINE
  5
1D6A
330
2
100
AcDbEntity
  8
Vista
100
AcDbPolyline
 90
        3
 70
     0
 43
0.0
 10
0.2232350887899201
 20
0.182732579852285
 42
0.1165134888038066
 10
0.2264997664458406
 20
0.1838437251802531
 42
0.048232545497662
 10
0.2292925609449981
 20
0.1859952815667327
  0
ARC
  5
1D6B
330
2
100
AcDbEntity
  8
Vista
100
AcDbCircle
 10
0.2240642249968801
 20
0.1918912862562649
 30
0.0
 40
0.0123046634248973
100
AcDbArc
 50
263.6127387559468
 51
273.634836886821
  0
ARC
  5
1D6C
330
2
100
AcDbEntity
  8
Vista
100
AcDbCircle
 10
0.230652143189161
 20
0.1841700777506787
 30
0.0
 40
0.002275924614023
100
AcDbArc
 50
94.15210849398828
 51
138.1603940384756
  0
ARC
  5
1D6D
330
2
100
AcDbEntity
  8
Vista
100
AcDbCircle
 10
0.2294602727084793
 20
0.1784826649605122
 30
0.0
 40
0.0080233745972682
100
AcDbArc
 50
70.63646311545312
 51
82.64530789998087
  0
ARC
  5
1D6E
330
2
100
AcDbEntity
  8
Vista
100
AcDbCircle
 10
0.2316231679853331
 20
0.1846370374027231
 30
0.0
 40
0.0015
100
AcDbArc
 50
328.2887077284204
 51
70.63646311545312
  0
CIRCLE
  5
1D6F
330
2
100
AcDbEntity
  8
Vista
100
AcDbCircle
 10
0.2116886547003673
 20
0.1935273772955099
 30
0.0
 40
0.0010629731407284
  0
CIRCLE
  5
1D70
330
2
100
AcDbEntity
  8
Vista
100
AcDbCircle
 10
0.2093610361108631
 20
0.1935261739644431
 30
0.0
 40
0.0010629731407284
  0
LINE
  5
1D71
330
2
100
AcDbEntity
  8
Vista
100
AcDbLine
 10
0.2074767534670059
 20
0.1880209830383421
 30
0.0
 11
0.209579179825937
 21
0.1908510736615483
 31
0.0
  0
CIRCLE
  5
1D72
330
2
100
AcDbEntity
  8
Vista
100
AcDbCircle
 10
0.2079323648505351
 20
0.1917740266918315
 30
0.0
 40
0.0010629731407284
  0
ARC
  5
1D73
330
2
100
AcDbEntity
  8
Vista
100
AcDbCircle
 10
0.2094472573018606
 20
0.1986024122993228
 30
0.0
 40
0.0126383419795516
100
AcDbArc
 50
249.7616319796517
 51
286.3038914483733
  0
LINE
  5
1D74
330
2
100
AcDbEntity
  8
Vista
100
AcDbLine
 10
0.2050753188615886
 20
0.1867443415343644
 30
0.0
 11
0.2020804933010254
 21
0.1881084398712858
 31
0.0
  0
LINE
  5
1D75
330
2
100
AcDbEntity
  8
Vista
100
AcDbLine
 10
0.2064516593123358
 20
0.1883598387163658
 30
0.0
 11
0.2082567740571335
 21
0.1907897161251242
 31
0.0
  0
CIRCLE
  5
1D76
330
2
100
AcDbEntity
  8
Vista
100
AcDbCircle
 10
0.2103401720002012
 20
0.1915932345663975
 30
0.0
 40
0.0010629731407284
  0
CIRCLE
  5
1D77
330
2
100
AcDbEntity
  8
Vista
100
AcDbCircle
 10
0.2104749109482213
 20
0.1954105197217757
 30
0.0
 40
0.0010629731407284
  0
ARC
  5
1D78
330
2
100
AcDbEntity
  8
Vista
100
AcDbCircle
 10
0.2380903016324396
 20
0.198386455648432
 30
0.0
 40
0.0088861676113664
100
AcDbArc
 50
175.5145689179515
 51
196.0074428362741
  0
ARC
  5
1D79
330
2
100
AcDbEntity
  8
Vista
100
AcDbCircle
 10
0.2338153103170271
 20
0.1959256172237644
 30
0.0
 40
0.0025589286451011
100
AcDbArc
 50
79.92008374171081
 51
244.972140460016
  0
ARC
  5
1D7A
330
2
100
AcDbEntity
  8
Vista
100
AcDbCircle
 10
0.2303316721924489
 20
0.1992091626445642
 30
0.0
 40
0.0011077143192163
100
AcDbArc
 50
186.6229832419305
 51
347.1138225200805
  0
LINE
  5
1D7B
330
2
100
AcDbEntity
  8
Vista
100
AcDbLine
 10
0.2350709202004282
 20
0.1941879303648477
 30
0.0
 11
0.2329352573016195
 21
0.1926824841568475
 31
0.0
  0
ARC
  5
1D7C
330
2
100
AcDbEntity
  8
Vista
100
AcDbCircle
 10
0.234505578426706
 20
0.1966394192794212
 30
0.0
 40
0.0050065544297382
100
AcDbArc
 50
188.0769196405448
 51
251.5237632690944
  0
LINE
  5
1D7D
330
2
100
AcDbEntity
  8
Vista
100
AcDbLine
 10
0.2359797616188644
 20
0.1963974509088473
 30
0.0
 11
0.2351876603823939
 21
0.1986475722677312
 31
0.0
  0
LINE
  5
1D7E
330
2
100
AcDbEntity
  8
Vista
100
AcDbLine
 10
0.2349828541497345
 20
0.1943990676218448
 30
0.0
 11
0.2327327327907938
 21
0.1936069663853743
 31
0.0
  0
LINE
  5
1D7F
330
2
100
AcDbEntity
  8
Vista
100
AcDbLine
 10
0.2357686243618673
 20
0.1963093848580968
 30
0.0
 11
0.2342631781538671
 21
0.1984450477569055
 31
0.0
  0
ARC
  5
1D80
330
2
100
AcDbEntity
  8
Vista
100
AcDbCircle
 10
0.2171137536735728
 20
0.2269234271765015
 30
0.0
 40
0.0262139775432192
100
AcDbArc
 50
287.7397939400832
 51
300.1134299564156
  0
LWPOLYLINE
  5
1D81
330
2
100
AcDbEntity
  8
Vista
100
AcDbPolyline
 90
        5
 70
     0
 43
0.0
 10
0.2230754144066509
 20
0.2036355287918639
 42
0.2404939709890353
 10
0.2183597672639621
 20
0.2023943796268952
 42
0.3389645277301017
 10
0.2181769785480583
 20
0.1994749873577177
 42
0.3884932501149181
 10
0.2249900833516563
 20
0.1988525793388192
 42
0.0430065991906913
 10
0.2280151827884538
 20
0.2016104110471417
 42
0.0430065991906913
  0
ARC
  5
1D82
330
2
100
AcDbEntity
  8
Vista
100
AcDbCircle
 10
0.2246391119711006
 20
0.2033997837040431
 30
0.0
 40
0.0015159448335922
100
AcDbArc
 50
170.8795406827665
 51
287.7397939400832
  0
ARC
  5
1D83
330
2
100
AcDbEntity
  8
Vista
100
AcDbCircle
 10
0.236247611366764
 20
0.198160805969934
 30
0.0
 40
0.0070763989559589
100
AcDbArc
 50
127.7322919556216
 51
172.5249699095189
  0
ARC
  5
1D84
330
2
100
AcDbEntity
  8
Vista
100
AcDbCircle
 10
0.2449678635944679
 20
0.1958607432939345
 30
0.0
 40
0.0139066125356222
100
AcDbArc
 50
145.3085155241363
 51
167.1138225200805
  0
LINE
  5
1D85
330
2
100
AcDbEntity
  8
Vista
100
AcDbLine
 10
0.2625683476268819
 20
0.1910807851632228
 30
0.0
 11
0.2701768699595277
 21
0.2008227146486377
 31
0.0
  0
LWPOLYLINE
  5
1D86
330
2
100
AcDbEntity
  8
Vista
100
AcDbPolyline
 90
        2
 70
     0
 43
0.0
 10
0.243081853342062
 20
0.1883664463487378
 42
0.0457821517646372
 10
0.2444562923233775
 20
0.1914103576552009
 42
0.0457821517646372
  0
LWPOLYLINE
  5
1D87
330
2
100
AcDbEntity
  8
Vista
100
AcDbPolyline
 90
        5
 70
     0
 43
0.0
 10
0.2413449483357795
 20
0.1805092358107743
 42
0.2550069690220312
 10
0.2566586813942422
 20
0.1835415730431862
 42
0.0532721314780807
 10
0.2567695627266175
 20
0.183656038132284
 10
0.261433574014859
 20
0.1896278243875429
 10
0.2644264176438469
 20
0.189204102768457
  0
CIRCLE
  5
1D88
330
2
100
AcDbEntity
  8
Vista
100
AcDbCircle
 10
0.2675526699002262
 20
0.1893898771742499
 30
0.0
 40
0.0031317671210046
  0
LINE
  5
1D89
330
2
100
AcDbEntity
  8
Vista
100
AcDbLine
 10
0.2625683476268819
 20
0.1910807851632228
 30
0.0
 11
0.2647428396863347
 21
0.1907729243424399
 31
0.0
  0
ARC
  5
1D8A
330
2
100
AcDbEntity
  8
Vista
100
AcDbCircle
 10
0.2386164660081249
 20
0.1957763351183814
 30
0.0
 40
0.0071912008574187
100
AcDbArc
 50
14.85803687665614
 51
65.08527685418662
  0
ARC
  5
1D8B
330
2
100
AcDbEntity
  8
Vista
100
AcDbCircle
 10
0.2380983915062416
 20
0.1935745157986446
 30
0.0
 40
0.0067161360372334
100
AcDbArc
 50
340.3787576942857
 51
77.20753577885071
  0
ARC
  5
1D8C
330
2
100
AcDbEntity
  8
Vista
100
AcDbCircle
 10
0.238295380161162
 20
0.1939757754243771
 30
0.0
 40
0.0101944579400456
100
AcDbArc
 50
36.35594249822931
 51
86.46279739286461
  0
ARC
  5
1D8D
330
2
100
AcDbEntity
  8
Vista
100
AcDbCircle
 10
0.2408690048024482
 20
0.2009710757961045
 30
0.0
 40
0.0015378761141697
100
AcDbArc
 50
59.65729891924662
 51
213.4248807195721
  0
ARC
  5
1D8E
330
2
100
AcDbEntity
  8
Vista
100
AcDbCircle
 10
0.2391456887385175
 20
0.1938739938377409
 30
0.0
 40
0.0025589286451011
100
AcDbArc
 50
259.9200837417108
 51
64.97214046001596
  0
LINE
  5
1D8F
330
2
100
AcDbEntity
  8
Vista
100
AcDbLine
 10
0.2371923746936773
 20
0.1934902262034086
 30
0.0
 11
0.2386978209016775
 21
0.1913545633045999
 31
0.0
  0
LINE
  5
1D90
330
2
100
AcDbEntity
  8
Vista
100
AcDbLine
 10
0.2369812374366802
 20
0.1934021601526581
 30
0.0
 11
0.2377733386732075
 21
0.1911520387937742
 31
0.0
  0
LINE
  5
1D91
330
2
100
AcDbEntity
  8
Vista
100
AcDbLine
 10
0.2379781449058669
 20
0.1954005434396606
 30
0.0
 11
0.2402282662648076
 21
0.1961926446761311
 31
0.0
  0
LINE
  5
1D92
330
2
100
AcDbEntity
  8
Vista
100
AcDbLine
 10
0.2378900788551164
 20
0.1956116806966577
 30
0.0
 11
0.2400257417539251
 21
0.1971171269046579
 31
0.0
  0
ARC
  5
1D93
330
2
100
AcDbEntity
  8
Vista
100
AcDbCircle
 10
0.2371479291935543
 20
0.1943676677051655
 30
0.0
 40
0.0103335422665084
100
AcDbArc
 50
61.20403814191883
 51
97.89363742481882
  0
ARC
  5
1D94
330
2
100
AcDbEntity
  8
Vista
100
AcDbCircle
 10
0.2387952193867022
 20
0.2020619068483427
 30
0.0
 40
0.0020928926186405
100
AcDbArc
 50
86.46279739286786
 51
207.3921594363798
  0
ARC
  5
1D95
330
2
100
AcDbEntity
  8
Vista
100
AcDbCircle
 10
0.2381052755895894
 20
0.2017434735703603
 30
0.0
 40
0.0013342534698463
100
AcDbArc
 50
200.6676211660329
 51
346.9502800831631
  0
ARC
  5
1D96
330
2
100
AcDbEntity
  8
Vista
100
AcDbCircle
 10
0.2731735181236559
 20
0.1997857296811105
 30
0.0
 40
0.003
100
AcDbArc
 50
112.1209091858411
 51
126.6173729963594
  0
LWPOLYLINE
  5
1D97
330
2
100
AcDbEntity
  8
Vista
100
AcDbPolyline
 90
        6
 70
     0
 43
0.0
 10
0.3085375644719761
 20
0.2069501726525971
 42
0.4383557839833782
 10
0.314271915623749
 20
0.2142586786146978
 42
0.8495604511644771
 10
0.3107172457659431
 20
0.2134752126108594
 42
-0.3854353485454399
 10
0.3066391239572113
 20
0.2084440895268074
 42
-0.1078054664623584
 10
0.3020595690015284
 20
0.2087234180442863
 10
0.2965812905616758
 20
0.2113449475271807
  0
LWPOLYLINE
  5
1D98
330
2
100
AcDbEntity
  8
Vista
100
AcDbPolyline
 90
        5
 70
     0
 43
0.0
 10
0.3105743825113905
 20
0.2074622065385085
 42
0.056958210074237
 10
0.3149496112105794
 20
0.2088041817583246
 42
-0.8766596362372133
 10
0.3166101574042841
 20
0.2060506258085013
 42
-0.0860709015224749
 10
0.3026605811090235
 20
0.2054829654531147
 42
-0.0720342014785333
 10
0.2974599233552908
 20
0.2071355709602756
  0
ARC
  5
1D99
330
2
100
AcDbEntity
  8
Vista
100
AcDbCircle
 10
0.3140336697460953
 20
0.2524340443369226
 30
0.0
 40
0.0494516494267291
100
AcDbArc
 50
263.9168588522398
 51
275.504667516458
  0
LWPOLYLINE
  5
1D9A
330
2
100
AcDbEntity
  8
Vista
100
AcDbPolyline
 90
        5
 70
     0
 43
0.0
 10
0.297628429624865
 20
0.2063282867936493
 42
0.1620749479228386
 10
0.3195009180713555
 20
0.2037951458472946
 42
0.0684052026466273
 10
0.3218117330241057
 20
0.2048645774820841
 42
0.6321972240443731
 10
0.3214691265231977
 20
0.207552882990484
 42
0.1860416112337686
 10
0.3172197439141087
 20
0.2073344540554842
 42
0.1860416112337686
  0
ARC
  5
1D9B
330
2
100
AcDbEntity
  8
Vista
100
AcDbCircle
 10
0.3255395488652653
 20
0.2653694347289672
 30
0.0
 40
0.0656359896998021
100
AcDbArc
 50
244.915432505817
 51
263.6127387559403
  0
ARC
  5
1D9C
330
2
100
AcDbEntity
  8
Vista
100
AcDbCircle
 10
0.2813246029886613
 20
0.189407664405536
 30
0.0
 40
0.0246306403910508
100
AcDbArc
 50
10.60762448777748
 51
34.81033978191149
  0
ARC
  5
1D9D
330
2
100
AcDbEntity
  8
Vista
100
AcDbCircle
 10
0.2898517888409628
 20
0.1958359346513418
 30
0.0
 40
0.013555261453883
100
AcDbArc
 50
359.1720265731226
 51
36.56539018193189
  0
ARC
  5
1D9E
330
2
100
AcDbEntity
  8
Vista
100
AcDbCircle
 10
0.2886490426703858
 20
0.1886172001714215
 30
0.0
 40
0.0203293085181354
100
AcDbArc
 50
18.31254475564963
 51
42.64782668432574
  0
LWPOLYLINE
  5
1D9F
330
2
100
AcDbEntity
  8
Vista
100
AcDbPolyline
 90
        9
 70
     0
 43
0.0
 10
0.2852344875127528
 20
0.1948858612078936
 10
0.2875354652465489
 20
0.1942989882715835
 42
0.0026463454750967
 10
0.287581683156759
 20
0.1942874604021369
 42
0.4851425111177625
 10
0.2947717822431173
 20
0.2013922761995843
 42
0.0884351988474506
 10
0.293796684646054
 20
0.2048472674712514
 42
-0.1272283772889946
 10
0.2939310696831399
 20
0.2013906177242859
 42
-0.4705172385912094
 10
0.292017964225522
 20
0.1999939832981852
 42
-0.3719920330278715
 10
0.2909222632540036
 20
0.2010899527648178
 42
-0.0315111547833624
 10
0.2909058289025097
 20
0.2027313132346364
  0
LWPOLYLINE
  5
1DA0
330
2
100
AcDbEntity
  8
Vista
100
AcDbPolyline
 90
       10
 70
     0
 43
0.0
 10
0.2852935852240534
 20
0.1948707881166172
 42
1.075008190300473
 10
0.2840752383980316
 20
0.1928444116733487
 42
0.2199215303864874
 10
0.2916019203579481
 20
0.1935779228238914
 42
-0.3119589873728263
 10
0.2825745445911707
 20
0.193319965195343
 42
-0.2864320200509066
 10
0.2805473812854302
 20
0.1979971444830255
 42
-0.3385884000743986
 10
0.2828525990564117
 20
0.2002840916315165
 42
0.6043477904254769
 10
0.2819823954109211
 20
0.1986740327780296
 42
0.820283479408512
 10
0.2875984594020906
 20
0.201014738382554
 42
0.2785448054510586
 10
0.2850591915589575
 20
0.203787951707028
 42
0.0445537622041257
 10
0.2838122109992014
 20
0.2038066897058286
  0
ARC
  5
1DA1
330
2
100
AcDbEntity
  8
Vista
100
AcDbCircle
 10
0.3035809434490488
 20
0.1936421692373926
 30
0.0
 40
0.0028846231522126
100
AcDbArc
 50
215.9688033448836
 51
352.9193922004176
  0
ARC
  5
1DA2
330
2
100
AcDbEntity
  8
Vista
100
AcDbCircle
 10
0.3026954904208878
 20
0.1929995862713269
 30
0.0
 40
0.0017905756517204
100
AcDbArc
 50
11.96828312432426
 51
215.9688033448836
  0
ARC
  5
1DA3
330
2
100
AcDbEntity
  8
Vista
100
AcDbCircle
 10
0.3030160743004444
 20
0.1936154404575916
 30
0.0
 40
0.0020811076061438
100
AcDbArc
 50
79.20364987552213
 51
186.2840931707484
  0
LINE
  5
1DA4
330
2
100
AcDbEntity
  8
Vista
100
AcDbLine
 10
0.3070593861168618
 20
0.1972392671515024
 30
0.0
 11
0.3089536973183158
 21
0.1967817809789096
 31
0.0
  0
LINE
  5
1DA5
330
2
100
AcDbEntity
  8
Vista
100
AcDbLine
 10
0.3075262335311208
 20
0.1961625596747183
 30
0.0
 11
0.3087367301515655
 21
0.1960430627625271
 31
0.0
  0
ARC
  5
1DA6
330
2
100
AcDbEntity
  8
Vista
100
AcDbCircle
 10
0.3066908749374306
 20
0.1945883482929105
 30
0.0
 40
0.0013250373813812
100
AcDbArc
 50
206.7025909956162
 51
18.31254475564963
  0
ARC
  5
1DA7
330
2
100
AcDbEntity
  8
Vista
100
AcDbCircle
 10
0.3011006342376845
 20
0.1932084992560305
 30
0.0
 40
0.0033504473981444
100
AcDbArc
 50
2.7782637175232
 51
46.5305239895703
  0
CIRCLE
  5
1DA8
330
2
100
AcDbEntity
  8
Vista
100
AcDbCircle
 10
0.3096653023421823
 20
0.1961715556004435
 30
0.0
 40
0.0009374202486517
  0
CIRCLE
  5
1DA9
330
2
100
AcDbEntity
  8
Vista
100
AcDbCircle
 10
0.3115926370639954
 20
0.1955022792720626
 30
0.0
 40
0.0009374202486517
  0
ARC
  5
1DAA
330
2
100
AcDbEntity
  8
Vista
100
AcDbCircle
 10
0.2935154557652026
 20
0.2367104244974882
 30
0.0
 40
0.0218560623474968
100
AcDbArc
 50
257.8083338831993
 51
271.1872548967287
  0
ARC
  5
1DAB
330
2
100
AcDbEntity
  8
Vista
100
AcDbCircle
 10
0.2859655087746091
 20
0.1999310046161042
 30
0.0
 40
0.0156930599952361
100
AcDbArc
 50
47.61555888344363
 51
121.7158976488413
  0
ARC
  5
1DAC
330
2
100
AcDbEntity
  8
Vista
100
AcDbCircle
 10
0.2778282359875561
 20
0.1938859527984675
 30
0.0
 40
0.0182758580143868
100
AcDbArc
 50
60.72875555643278
 51
63.41662406795279
  0
LWPOLYLINE
  5
1DAD
330
2
100
AcDbEntity
  8
Vista
100
AcDbPolyline
 90
        5
 70
     0
 43
0.0
 10
0.282333633273538
 20
0.2062229447579114
 42
0.8799517686047964
 10
0.2827764246307538
 20
0.2084109986626288
 42
0.2078031442565078
 10
0.2798898294825562
 20
0.2086794466848971
 42
0.0437252606224408
 10
0.2750043431668132
 20
0.2065882915295276
 42
0.0974560123324606
 10
0.2741080320193419
 20
0.2058543449113301
  0
ARC
  5
1DAE
330
2
100
AcDbEntity
  8
Vista
100
AcDbCircle
 10
0.2832148501769893
 20
0.19949263392445
 30
0.0
 40
0.0110941523234471
100
AcDbArc
 50
75.42492297587817
 51
144.2997221897994
  0
ARC
  5
1DAF
330
2
100
AcDbEntity
  8
Vista
100
AcDbCircle
 10
0.2755479728995169
 20
0.2025959933800152
 30
0.0
 40
0.0010486491938598
100
AcDbArc
 50
348.1120384744849
 51
60.79038665246672
  0
ARC
  5
1DB0
330
2
100
AcDbEntity
  8
Vista
100
AcDbCircle
 10
0.2848401421298945
 20
0.2049898736118223
 30
0.0
 40
0.0066133516249255
100
AcDbArc
 50
345.8275309684747
 51
35.05976739292377
  0
ARC
  5
1DB1
330
2
100
AcDbEntity
  8
Vista
100
AcDbCircle
 10
0.2798795581231275
 20
0.2028750839579914
 30
0.0
 40
0.0097848743037167
100
AcDbArc
 50
2.79147583631591
 51
45.28407107571788
  0
ARC
  5
1DB2
330
2
100
AcDbEntity
  8
Vista
100
AcDbCircle
 10
0.2904521622192533
 20
0.2033905938773444
 30
0.0
 40
0.0008002902132205
100
AcDbArc
 50
182.7914758363175
 51
358.5720281040457
  0
ARC
  5
1DB3
330
2
100
AcDbEntity
  8
Vista
100
AcDbCircle
 10
0.2969650355665294
 20
0.2175475159994278
 30
0.0
 40
0.0050876162621754
100
AcDbArc
 50
241.4639006275807
 51
337.4601427547136
  0
CIRCLE
  5
1DB4
330
2
100
AcDbEntity
  8
Vista
100
AcDbCircle
 10
0.3049033575634894
 20
0.2140040408852712
 30
0.0
 40
0.0010629731407284
  0
CIRCLE
  5
1DB5
330
2
100
AcDbEntity
  8
Vista
100
AcDbCircle
 10
0.3072309761529937
 20
0.214005244216338
 30
0.0
 40
0.0010629731407284
  0
ARC
  5
1DB6
330
2
100
AcDbEntity
  8
Vista
100
AcDbCircle
 10
0.304989578754487
 20
0.2190802792201509
 30
0.0
 40
0.0126383419795516
100
AcDbArc
 50
249.7616319796517
 51
286.3038914483733
  0
LINE
  5
1DB7
330
2
100
AcDbEntity
  8
Vista
100
AcDbLine
 10
0.3006176403142149
 20
0.2072222084551925
 30
0.0
 11
0.2949012093047827
 21
0.2098259574466681
 31
0.0
  0
ARC
  5
1DB8
330
2
100
AcDbEntity
  8
Vista
100
AcDbCircle
 10
0.2953750946846867
 20
0.2110544577840017
 30
0.0
 40
0.0012140711584299
100
AcDbArc
 50
213.8609759941257
 51
26.61442937915435
  0
LINE
  5
1DB9
330
2
100
AcDbEntity
  8
Vista
100
AcDbLine
 10
0.3030190749196322
 20
0.2084988499591702
 30
0.0
 11
0.3051215012786201
 21
0.2113289405823764
 31
0.0
  0
LINE
  5
1DBA
330
2
100
AcDbEntity
  8
Vista
100
AcDbLine
 10
0.3019939807649621
 20
0.2088377056371939
 30
0.0
 11
0.3037990955097598
 21
0.2112675830458954
 31
0.0
  0
CIRCLE
  5
1DBB
330
2
100
AcDbEntity
  8
Vista
100
AcDbCircle
 10
0.3034746863031614
 20
0.2122518936126028
 30
0.0
 40
0.0010629731407284
  0
CIRCLE
  5
1DBC
330
2
100
AcDbEntity
  8
Vista
100
AcDbCircle
 10
0.3058824934528843
 20
0.2120711014872256
 30
0.0
 40
0.0010629731407284
  0
ARC
  5
1DBD
330
2
100
AcDbEntity
  8
Vista
100
AcDbCircle
 10
0.2995983149770041
 20
0.2094751784426592
 30
0.0
 40
0.0096047233518592
100
AcDbArc
 50
92.0726565349148
 51
115.5784503573885
  0
ARC
  5
1DBE
330
2
100
AcDbEntity
  8
Vista
100
AcDbCircle
 10
0.2961832234885264
 20
0.2166099095013862
 30
0.0
 40
0.0016947778934271
100
AcDbArc
 50
115.5784503573885
 51
204.1703390658939
  0
ARC
  5
1DBF
330
2
100
AcDbEntity
  8
Vista
100
AcDbCircle
 10
0.293952773886474
 20
0.2156088932573823
 30
0.0
 40
0.00075
100
AcDbArc
 50
271.1872548967287
 51
24.17033906589326
  0
ARC
  5
1DC0
330
2
100
AcDbEntity
  8
Vista
100
AcDbCircle
 10
0.299341873611354
 20
0.2165610597803322
 30
0.0
 40
0.0025142031660187
100
AcDbArc
 50
337.4601427547136
 51
92.0726565349148
  0
CIRCLE
  5
1DC1
330
2
100
AcDbEntity
  8
Vista
100
AcDbCircle
 10
0.3060172324008477
 20
0.2158883866426038
 30
0.0
 40
0.0010629731407284
  0
LWPOLYLINE
  5
1DC2
330
2
100
AcDbEntity
  8
Vista
100
AcDbPolyline
 90
        2
 70
     0
 43
0.0
 10
0.3386241747946883
 20
0.2088443132695659
 42
0.0457821517646372
 10
0.3399986137760038
 20
0.211888224576029
 42
0.0457821517646372
  0
ARC
  5
1DC3
330
2
100
AcDbEntity
  8
Vista
100
AcDbCircle
 10
0.3250025941611057
 20
0.1989605318813403
 30
0.0
 40
0.0080233745972682
100
AcDbArc
 50
70.63646311545312
 51
82.64530789998087
  0
ARC
  5
1DC4
330
2
100
AcDbEntity
  8
Vista
100
AcDbCircle
 10
0.3261944646417874
 20
0.2046479446715068
 30
0.0
 40
0.002275924614023
100
AcDbArc
 50
94.15210849398828
 51
138.1603940384756
  0
LWPOLYLINE
  5
1DC5
330
2
100
AcDbEntity
  8
Vista
100
AcDbPolyline
 90
        5
 70
     0
 43
0.0
 10
0.3243294854736973
 20
0.2007934230751118
 42
0.3478954626279402
 10
0.3317731665069346
 20
0.2035425490018099
 42
0.0621638238997163
 10
0.3352995080412029
 20
0.2084888517267984
 42
-0.7142882784289191
 10
0.339084155642638
 20
0.2078590992881288
 42
-0.1694749501048991
 10
0.3317372804340835
 20
0.2010522861636161
  0
LWPOLYLINE
  5
1DC6
330
2
100
AcDbEntity
  8
Vista
100
AcDbPolyline
 90
        3
 70
     0
 43
0.0
 10
0.3187774102425465
 20
0.2032104467731131
 42
0.1165134888038066
 10
0.3220420878984669
 20
0.2043215921010812
 42
0.048232545497662
 10
0.3248348823976244
 20
0.2064731484875608
  0
ARC
  5
1DC7
330
2
100
AcDbEntity
  8
Vista
100
AcDbCircle
 10
0.3208235235587153
 20
0.2090335091900499
 30
0.0
 40
0.0089549309395046
100
AcDbArc
 50
267.2035358513532
 51
328.2887077284204
  0
ARC
  5
1DC8
330
2
100
AcDbEntity
  8
Vista
100
AcDbCircle
 10
0.3196065464495064
 20
0.212369153177093
 30
0.0
 40
0.0123046634248973
100
AcDbArc
 50
263.6127387559468
 51
273.634836886821
  0
ARC
  5
1DC9
330
2
100
AcDbEntity
  8
Vista
100
AcDbCircle
 10
0.3271654894379594
 20
0.2051149043235512
 30
0.0
 40
0.0015
100
AcDbArc
 50
328.2887077284204
 51
70.63646311545312
  0
ARC
  5
1DCA
330
2
100
AcDbEntity
  8
Vista
100
AcDbCircle
 10
0.3405101850470942
 20
0.2163386102147626
 30
0.0
 40
0.0139066125356222
100
AcDbArc
 50
145.3085155241363
 51
167.1138225200805
  0
ARC
  5
1DCB
330
2
100
AcDbEntity
  8
Vista
100
AcDbCircle
 10
0.3317899328193903
 20
0.2186386728907621
 30
0.0
 40
0.0070763989559589
100
AcDbArc
 50
127.7322919556216
 51
172.5249699095189
  0
ARC
  5
1DCC
330
2
100
AcDbEntity
  8
Vista
100
AcDbCircle
 10
0.3293576317696534
 20
0.2164034841445357
 30
0.0
 40
0.0025589286451011
100
AcDbArc
 50
79.92008374171081
 51
244.972140460016
  0
ARC
  5
1DCD
330
2
100
AcDbEntity
  8
Vista
100
AcDbCircle
 10
0.3309970092874437
 20
0.2127124832408356
 30
0.0
 40
0.0025589286451011
100
AcDbArc
 50
169.9200837417108
 51
334.9721404600138
  0
ARC
  5
1DCE
330
2
100
AcDbEntity
  8
Vista
100
AcDbCircle
 10
0.3258739936450752
 20
0.2196870295653923
 30
0.0
 40
0.0011077143192163
100
AcDbArc
 50
186.6229832419305
 51
347.1138225200805
  0
ARC
  5
1DCF
330
2
100
AcDbEntity
  8
Vista
100
AcDbCircle
 10
0.3336326230850659
 20
0.2188643225692601
 30
0.0
 40
0.0088861676113664
100
AcDbArc
 50
175.5145689179515
 51
196.0074428362741
  0
ARC
  5
1DD0
330
2
100
AcDbEntity
  8
Vista
100
AcDbCircle
 10
0.3300478998793324
 20
0.2171172862002493
 30
0.0
 40
0.0050065544297382
100
AcDbArc
 50
188.0769196405448
 51
251.5237632690944
  0
LWPOLYLINE
  5
1DD1
330
2
100
AcDbEntity
  8
Vista
100
AcDbPolyline
 90
        5
 70
     0
 43
0.0
 10
0.3186177358592772
 20
0.2241133957126919
 42
0.2404939709890353
 10
0.3139020887165884
 20
0.2228722465477233
 42
0.3389645277301017
 10
0.3137193000006846
 20
0.2199528542785458
 42
0.3884932501149181
 10
0.3205324048042826
 20
0.2193304462596473
 42
0.0430065991906913
 10
0.3235575042410801
 20
0.2220882779679698
 42
0.0430065991906913
  0
ARC
  5
1DD2
330
2
100
AcDbEntity
  8
Vista
100
AcDbCircle
 10
0.320181433423727
 20
0.2238776506248712
 30
0.0
 40
0.0015159448335922
100
AcDbArc
 50
170.8795406827665
 51
287.7397939400832
  0
ARC
  5
1DD3
330
2
100
AcDbEntity
  8
Vista
100
AcDbCircle
 10
0.3126560751262559
 20
0.2474012940973296
 30
0.0
 40
0.0262139775432192
100
AcDbArc
 50
287.7397939400832
 51
300.1134299564156
  0
ARC
  5
1DD4
330
2
100
AcDbEntity
  8
Vista
100
AcDbCircle
 10
0.3338377016137883
 20
0.2144536423452052
 30
0.0
 40
0.0101944579400456
100
AcDbArc
 50
36.35594249822931
 51
86.46279739286461
  0
ARC
  5
1DD5
330
2
100
AcDbEntity
  8
Vista
100
AcDbCircle
 10
0.3336407129588679
 20
0.2140523827194727
 30
0.0
 40
0.0067161360372334
100
AcDbArc
 50
340.3787576942857
 51
77.20753577885071
  0
ARC
  5
1DD6
330
2
100
AcDbEntity
  8
Vista
100
AcDbCircle
 10
0.3341587874607512
 20
0.2162542020392095
 30
0.0
 40
0.0071912008574187
100
AcDbArc
 50
14.85803687665614
 51
65.08527685418662
  0
ARC
  5
1DD7
330
2
100
AcDbEntity
  8
Vista
100
AcDbCircle
 10
0.3330486326734103
 20
0.218042861662326
 30
0.0
 40
0.0025589286451011
100
AcDbArc
 50
349.9200837417108
 51
154.9721404600138
  0
ARC
  5
1DD8
330
2
100
AcDbEntity
  8
Vista
100
AcDbCircle
 10
0.3346880101911438
 20
0.214351860758569
 30
0.0
 40
0.0025589286451011
100
AcDbArc
 50
259.9200837417108
 51
64.97214046001596
  0
LINE
  5
1DD9
330
2
100
AcDbEntity
  8
Vista
100
AcDbLine
 10
0.3306132416531113
 20
0.2146657972856758
 30
0.0
 11
0.3284775787542458
 21
0.2131603510776756
 31
0.0
  0
CIRCLE
  5
1DDA
330
2
100
AcDbEntity
  8
Vista
100
AcDbCircle
 10
0.3320228209803986
 20
0.2153776724515808
 30
0.0
 40
0.0015791390476718
  0
LINE
  5
1DDB
330
2
100
AcDbEntity
  8
Vista
100
AcDbLine
 10
0.3327346961463604
 20
0.2139680931242367
 30
0.0
 11
0.3342401423543038
 21
0.211832430225428
 31
0.0
  0
LINE
  5
1DDC
330
2
100
AcDbEntity
  8
Vista
100
AcDbLine
 10
0.3325235588893065
 20
0.2138800270734862
 30
0.0
 11
0.3333156601258338
 21
0.2116299057145454
 31
0.0
  0
LINE
  5
1DDD
330
2
100
AcDbEntity
  8
Vista
100
AcDbLine
 10
0.3313109458144936
 20
0.2167872517789249
 30
0.0
 11
0.3298054996064934
 21
0.2189229146777336
 31
0.0
  0
LINE
  5
1DDE
330
2
100
AcDbEntity
  8
Vista
100
AcDbLine
 10
0.3305251756023608
 20
0.2148769345426729
 30
0.0
 11
0.3282750542434201
 21
0.2140848333061456
 31
0.0
  0
LINE
  5
1DDF
330
2
100
AcDbEntity
  8
Vista
100
AcDbLine
 10
0.3315220830714907
 20
0.2168753178296185
 30
0.0
 11
0.3307299818350202
 21
0.2191254391885593
 31
0.0
  0
LINE
  5
1DE0
330
2
100
AcDbEntity
  8
Vista
100
AcDbLine
 10
0.3334324003077427
 20
0.2160895476174858
 30
0.0
 11
0.3355680632065514
 21
0.217594993825486
 31
0.0
  0
LINE
  5
1DE1
330
2
100
AcDbEntity
  8
Vista
100
AcDbLine
 10
0.3335204663584932
 20
0.2158784103604887
 30
0.0
 11
0.3357705877174339
 21
0.2166705115969592
 31
0.0
  0
ARC
  5
1DE2
330
2
100
AcDbEntity
  8
Vista
100
AcDbCircle
 10
0.3364113262550745
 20
0.2214489427168758
 30
0.0
 40
0.0015378761141697
100
AcDbArc
 50
59.65729891924662
 51
213.4248807195721
  0
ARC
  5
1DE3
330
2
100
AcDbEntity
  8
Vista
100
AcDbCircle
 10
0.3326902506461806
 20
0.2148455346259936
 30
0.0
 40
0.0103335422665084
100
AcDbArc
 50
61.20403814191883
 51
97.89363742481882
  0
ARC
  5
1DE4
330
2
100
AcDbEntity
  8
Vista
100
AcDbCircle
 10
0.3334778443037294
 20
0.2159009607252358
 30
0.0
 40
0.0094417082422128
100
AcDbArc
 50
103.5163703845647
 51
117.7903124388877
  0
ARC
  5
1DE5
330
2
100
AcDbEntity
  8
Vista
100
AcDbCircle
 10
0.3336475970422157
 20
0.2222213404911884
 30
0.0
 40
0.0013342534698463
100
AcDbArc
 50
200.6676211660329
 51
346.9502800831631
  0
ARC
  5
1DE6
330
2
100
AcDbEntity
  8
Vista
100
AcDbCircle
 10
0.3343375408393285
 20
0.2225397737691708
 30
0.0
 40
0.0020928926186405
100
AcDbArc
 50
86.46279739286786
 51
207.3921594363798
  0
LWPOLYLINE
  5
1DE7
330
2
100
AcDbEntity
  8
Vista
100
AcDbPolyline
 90
        5
 70
     0
 43
0.0
 10
0.2150320610587642
 20
0.1869843396176804
 42
0.056958210074237
 10
0.2194072897579531
 20
0.1883263148374965
 42
-0.8766596362372133
 10
0.2210678359516578
 20
0.1855727588876732
 42
-0.0860709015224749
 10
0.2071182596563972
 20
0.1850050985322866
 42
-0.0696503383315374
 10
0.2020804933010254
 20
0.186579669721965
  0
LWPOLYLINE
  5
1DE8
330
2
100
AcDbEntity
  8
Vista
100
AcDbPolyline
 90
        6
 70
     0
 43
0.0
 10
0.2129952430193498
 20
0.186472305731769
 42
0.4383557839833782
 10
0.2187295941710658
 20
0.1937808116938697
 42
0.8495604511644771
 10
0.2151749243132599
 20
0.1929973456900882
 42
-0.3854353485454399
 10
0.211096802504585
 20
0.1879662226059793
 42
-0.1078054664623584
 10
0.2065172475488453
 20
0.1882455511234582
 10
0.2020804933010254
 20
0.1903686783424803
  0
LWPOLYLINE
  5
1DE9
330
2
100
AcDbEntity
  8
Vista
100
AcDbPolyline
 90
        9
 70
     0
 43
0.0
 10
0.2810122551542804
 20
0.2029908790020443
 42
0.0838576996371633
 10
0.2791676841221715
 20
0.2015583108527892
 42
0.1447269066925459
 10
0.2771170594145929
 20
0.1965901062070259
 42
0.1145864547094774
 10
0.2785781928919278
 20
0.1917685716222479
 42
0.695739197357105
 10
0.2985659686700046
 20
0.2007788038126534
 42
0.4258838129803341
 10
0.2836456365526487
 20
0.2143305340892709
 42
0.238569677311537
 10
0.2715159214899927
 20
0.2086295877811324
 10
0.2696208980582355
 20
0.2062032053853784
 10
0.2694500701184666
 20
0.2089138008903717
  0
LWPOLYLINE
  5
1DEA
330
2
100
AcDbEntity
  8
Vista
100
AcDbPolyline
 90
       13
 70
     0
 43
0.0
 10
0.2431828530043276
 20
0.1822413651673571
 42
0.1783253957250184
 10
0.2540077182617892
 20
0.1862121361645847
 10
0.2579909128680242
 20
0.1913122067543611
 42
0.1833677990027238
 10
0.2603819785296082
 20
0.1998585257794332
 42
0.2487210765940453
 10
0.2567656849218451
 20
0.2054089496925542
 42
0.3407344947923366
 10
0.2542026066689118
 20
0.2050189570731788
 42
-0.608103601325701
 10
0.2529244822720216
 20
0.2053933057052006
 42
-0.3350418216758164
 10
0.2556040630294092
 20
0.210892470667801
 42
-0.5657839426403278
 10
0.2643865828183607
 20
0.205399088796554
 42
-0.0158648090594299
 10
0.2643293373521374
 20
0.204246909559771
 42
-0.0700895642943869
 10
0.2632053076065972
 20
0.1979887023511821
 10
0.2682705236711627
 20
0.2044741900151337
 10
0.2679968434817965
 20
0.2088167834572516
  0
LWPOLYLINE
  5
1DEB
330
2
100
AcDbEntity
  8
Vista
100
AcDbPolyline
 90
        4
 70
     0
 43
0.0
 10
0.2977741643938998
 20
0.2056300969169058
 42
0.0435009374336088
 10
0.3118458071194823
 20
0.1987040432735796
 42
0.5945172122098969
 10
0.3447131613979195
 20
0.2191357236862075
 42
0.3569359278473128
 10
0.3325330862747364
 20
0.2275544354811529
 42
0.1145864547094774
  0
LWPOLYLINE
  5
1DEC
330
2
100
AcDbEntity
  8
Vista
100
AcDbPolyline
 90
        4
 70
     0
 43
0.0
 10
0.3296819127372146
 20
0.2269593035108244
 42
0.2218106873941239
 10
0.3225648275563913
 20
0.2200964472396834
 42
0.1145864547094774
 10
0.3231544835015256
 20
0.2150930071573782
 42
0.2273133165503704
 10
0.3298799859163637
 20
0.2104102289978584
  0
LWPOLYLINE
  5
1DED
330
2
100
AcDbEntity
  8
Vista
100
AcDbPolyline
 90
        4
 70
     0
 43
0.0
 10
0.3387251744569539
 20
0.2027192320881284
 42
0.1783253957250184
 10
0.3495500397144156
 20
0.2066900030854128
 10
0.3535332343206505
 20
0.2117900736751892
 42
0.0123031499577584
 10
0.3538862132991198
 20
0.2122941390457242
 42
0.2487210765940453
  0
LWPOLYLINE
  5
1DEE
330
2
100
AcDbEntity
  8
Vista
100
AcDbPolyline
 90
        4
 70
     0
 43
0.0
 10
0.3368872697884058
 20
0.2009871027316024
 42
0.2550069690220312
 10
0.3522010028468685
 20
0.2040194399640143
 42
0.0532721314780807
 10
0.3523118841793007
 20
0.2041339050531121
 10
0.3538862132991198
 20
0.2061496714006523
  0
LWPOLYLINE
  5
1DEF
330
2
100
AcDbEntity
  8
Profilo
100
AcDbPolyline
 90
       20
 70
     1
 43
0.0
 10
0.1824153496558551
 20
0.1330584760550266
 42
-0.7927310793404776
 10
0.1824153496558551
 20
0.1280584760550312
 10
0.1824153496558551
 20
0.085558476055013
 42
-0.7927310793404779
 10
0.1824153496558551
 20
0.0805584760550176
 10
0.1824153496558551
 20
0.0783084760550139
 42
-0.4142135623730818
 10
0.182165349655861
 20
0.0780584760550198
 10
0.1799153496558574
 20
0.0780584760550198
 10
0.1799153496558574
 20
0.0760584760550103
 42
-0.4142135623730834
 10
0.1794153496558692
 20
0.0755584760550221
 10
0.1774153496558597
 20
0.0755584760550221
 10
0.1774153496558597
 20
0.0880584760550107
 10
0.178415349655836
 20
0.088641141349541
 10
0.178415349655836
 20
0.1249758107605032
 10
0.1774153496558597
 20
0.1255584760550334
 10
0.1774153496558597
 20
0.1380584760550221
 10
0.1794153496558692
 20
0.1380584760550221
 42
-0.4142135623730831
 10
0.1799153496558574
 20
0.1375584760550339
 10
0.1799153496558574
 20
0.1355584760550244
 10
0.182165349655861
 20
0.1355584760550244
 42
-0.4142135623730816
 10
0.1824153496558551
 20
0.1353084760550303
  0
LINE
  5
1DF0
330
2
100
AcDbEntity
  8
Vista
 62
     2
100
AcDbLine
 10
0.1824153496558551
 20
0.0805584760550176
 30
0.0
 11
0.2349204927674009
 21
0.0805584760550672
 31
0.0
  0
LINE
  5
1DF1
330
2
100
AcDbEntity
  8
CORTE
100
AcDbLine
 10
0.2010389691090495
 20
0.1852439147289999
 30
0.0
 11
0.2010389691090495
 21
0.1852195682781428
 31
0.0
  0
LWPOLYLINE
  5
1DF2
330
2
100
AcDbEntity
  8
Profilo
100
AcDbPolyline
 90
       30
 70
     0
 43
0.0
 10
0.2020804933010254
 20
0.1852439147289999
 10
0.2010389691090495
 20
0.1852439147289999
 10
0.2010389691090495
 20
0.1684127051751432
 42
-0.7927310793404779
 10
0.2010389691090495
 20
0.164662705175175
 10
0.2010389691090495
 20
0.1629752051751723
 42
-0.4142135623730818
 10
0.2008514691090113
 20
0.1627877051751341
 10
0.1991639691090654
 20
0.1627877051751341
 10
0.1991639691090654
 20
0.1612877051751695
 42
-0.4142135623730834
 10
0.1987889691090459
 20
0.16091270517515
 10
0.1972889691090245
 20
0.16091270517515
 10
0.1972889691090245
 20
0.1702877051751273
 10
0.1980389691090636
 20
0.1707247041460107
 10
0.1980389691090636
 20
0.1979757062042893
 10
0.1972889691090245
 20
0.1984127051751727
 10
0.1972889691090245
 20
0.20778770517515
 10
0.1987889691090459
 20
0.20778770517515
 42
-0.4142135623730831
 10
0.1991639691090654
 20
0.2074127051751304
 10
0.1991639691090654
 20
0.2059127051751659
 10
0.2008514691090113
 20
0.2059127051751659
 42
-0.4142135623730816
 10
0.2010389691090495
 20
0.2057252051751277
 10
0.2010389691090495
 20
0.204037705175125
 42
-0.7927310793404776
 10
0.2010389691090495
 20
0.2002877051751568
 10
0.2010389691090495
 20
0.1908670806063526
 42
-0.2208797103651865
 10
0.2020804933010254
 20
0.1903686783424803
 42
0.2904953596028805
 10
0.2020804933010254
 20
0.1881084398712858
 42
0.3172554896830303
 10
0.2020804933010254
 20
0.186579669721965
 42
0.4465301293187111
 10
0.2020804933010254
 20
0.1858444146168665
 42
0.6180880973107489
 10
0.2020804933010254
 20
0.1854982733986787
 42
-0.5141608410676121
 10
0.2020804933010254
 20
0.1854721502513428
 42
0.4935452008218722
 10
0.2020866253348004
 20
0.1852403223348062
  0
LINE
  5
1DF3
330
2
100
AcDbEntity
  8
Vista
100
AcDbLine
 10
0.1991639691090654
 20
0.2059127051751659
 30
0.0
 11
0.3520112132991358
 21
0.2378168598693549
 31
0.0
  0
LINE
  5
1DF4
330
2
100
AcDbEntity
  8
Vista
100
AcDbLine
 10
0.1988146154810693
 20
0.2077868271654495
 30
0.0
 11
0.3516618596713101
 21
0.2396909818596384
 31
0.0
  0
LINE
  5
1DF5
330
2
100
AcDbEntity
  8
Vista
 62
     3
100
AcDbLine
 10
0.1972889691090245
 20
0.20778770517515
 30
0.0
 11
0.3501362132991517
 21
0.2396918598693389
 31
0.0
  0
LINE
  5
1DF6
330
2
100
AcDbEntity
  8
Vista
 62
     3
100
AcDbLine
 10
0.198858716014854
 20
0.1609192484353059
 30
0.0
 11
0.35171968600838
 21
0.1928262681478543
 31
0.0
  0
LWPOLYLINE
  5
1DF7
330
2
100
AcDbEntity
  8
Profilo
100
AcDbPolyline
 90
       19
 70
     0
 43
0.0
 10
0.3501362132991517
 20
0.2396918598693389
 10
0.3516362132991162
 20
0.2396918598693389
 42
-0.4142135623730951
 10
0.3520112132991358
 20
0.2393168598693194
 10
0.3520112132991358
 20
0.2378168598693549
 10
0.3536987132991385
 20
0.2378168598693549
 42
-0.414213562372984
 10
0.3538862132991198
 20
0.2376293598693167
 10
0.3538862132991198
 20
0.2359418598693139
 42
-0.7927310793404688
 10
0.3538862132991198
 20
0.2321918598693458
 10
0.3538862132991198
 20
0.2122582168106248
 42
-0.2208797103651853
 10
0.3549277374911526
 20
0.2117598145468094
 10
0.3549277374911526
 20
0.206635050933329
 42
-0.2574592102484603
 10
0.3538862132991198
 20
0.2061496714006523
 10
0.3538862132991198
 20
0.2003168598693321
 42
-0.7927310793404688
 10
0.3538862132991198
 20
0.1965668598693639
 10
0.3538862132991198
 20
0.1948793598693612
 42
-0.4142135623730397
 10
0.3536987132991385
 20
0.194691859869323
 10
0.3520112132991358
 20
0.1943396241366315
 10
0.3520112132991358
 20
0.1931918598693585
 42
-0.3498941360801691
 10
0.3517196860067884
 20
0.1928262681475132
  0
LINE
  5
1DF8
330
2
100
AcDbEntity
  8
Vista
 62
     6
100
AcDbLine
 10
0.3806388906214693
 20
0.1380584760549652
 30
0.0
 11
0.3806388906215261
 21
0.0755584760549653
 31
0.0
  0
LWPOLYLINE
  5
1DF9
330
2
100
AcDbEntity
  8
Vista
100
AcDbPolyline
 90
        5
 70
     0
 43
0.0
 10
0.215700557514765
 20
0.12596591882496
 42
0.2404939709890353
 10
0.2092075437109884
 20
0.1256306886741925
 42
0.3389645277301017
 10
0.2081736137944858
 20
0.1218700872547345
 42
0.3884932501149181
 10
0.2168965321021119
 20
0.1192015694245185
 42
0.0430065991906913
 10
0.2215962397145859
 20
0.1219769479284025
 42
0.0430065991906913
  0
LWPOLYLINE
  5
1DFA
330
2
100
AcDbEntity
  8
Vista
100
AcDbPolyline
 90
        3
 70
     0
 43
0.0
 10
0.2102142065934345
 20
0.0986398224118546
 42
0.1165134888038066
 10
0.2147779924455904
 20
0.0992006704261428
 42
0.048232545497662
 10
0.2190093224588736
 20
0.1012480251651766
  0
ARC
  5
1DFB
330
2
100
AcDbEntity
  8
Vista
100
AcDbCircle
 10
0.2176772745896187
 20
0.1252322128920298
 30
0.0
 40
0.002021259778123
100
AcDbArc
 50
159.0893460353377
 51
275.9495992926533
  0
ARC
  5
1DFC
330
2
100
AcDbEntity
  8
Vista
100
AcDbCircle
 10
0.2144712238716124
 20
0.1056826627865064
 30
0.0
 40
0.0119399079193395
100
AcDbArc
 50
255.4133412039237
 51
316.4985130809881
  0
LWPOLYLINE
  5
1DFD
330
2
100
AcDbEntity
  8
Vista
100
AcDbPolyline
 90
        6
 70
     0
 43
0.0
 10
0.1978679711094173
 20
0.1063106479599298
 42
0.4383557839833782
 10
0.2073435793976159
 20
0.1142874776600422
 42
0.8495604511644771
 10
0.2024905671195825
 20
0.1142333226426047
 42
-0.3854353485454399
 10
0.195797120332486
 20
0.108777720399047
 42
-0.1078054664623584
 10
0.1898959704404888
 20
0.110389945837511
 10
0.1834599084552906
 20
0.1153040658446969
  0
LINE
  5
1DFE
330
2
100
AcDbEntity
  8
Vista
100
AcDbLine
 10
0.1910871397093388
 20
0.1098354329515416
 30
0.0
 11
0.1946022575808115
 21
0.1129564952642283
 31
0.0
  0
LINE
  5
1DFF
330
2
100
AcDbEntity
  8
Vista
100
AcDbLine
 10
0.1898415007545964
 20
0.1105569830956767
 30
0.0
 11
0.1928595332637997
 21
0.1132366848488857
 31
0.0
  0
LWPOLYLINE
  5
1E00
330
2
100
AcDbEntity
  8
Vista
100
AcDbPolyline
 90
        5
 70
     0
 43
0.0
 10
0.2006659299615876
 20
0.1064240494928583
 42
0.056958210074237
 10
0.2067420973894514
 20
0.1069836210624828
 42
-0.8766596362372133
 10
0.2081592741461122
 20
0.1029372751821995
 42
-0.0860709015224749
 10
0.1897975907918976
 20
0.1059967583110222
 42
-0.0720342014785333
 10
0.1834599084552906
 20
0.1095706012465314
  0
LWPOLYLINE
  5
1E01
330
2
100
AcDbEntity
  8
Vista
100
AcDbPolyline
 90
        5
 70
     0
 43
0.0
 10
0.1834599084552906
 20
0.1084710238824016
 42
0.1620749479228386
 10
0.2113178255684147
 20
0.0992058624374579
 42
0.0684052026466273
 10
0.2146252624080489
 20
0.0999721340923827
 42
0.6321972240443731
 10
0.2149104880025447
 20
0.1035742579839791
 42
0.1860416112337686
 10
0.2093046720365805
 20
0.1044468573150823
 42
0.1860416112337686
  0
ARC
  5
1E02
330
2
100
AcDbEntity
  8
Vista
100
AcDbCircle
 10
0.1965418313880605
 20
0.1231095076726376
 30
0.0
 40
0.0168511226394021
100
AcDbArc
 50
237.9714373322218
 51
274.5136968009449
  0
LINE
  5
1E03
330
2
100
AcDbEntity
  8
Vista
100
AcDbLine
 10
0.193293027989796
 20
0.0940386554137547
 30
0.0
 11
0.1956408523224127
 21
0.0929254605848939
 31
0.0
  0
ARC
  5
1E04
330
2
100
AcDbEntity
  8
Vista
100
AcDbCircle
 10
0.1920898348963646
 20
0.0906790642023623
 30
0.0
 40
0.0017667165085083
100
AcDbArc
 50
194.9123963481864
 51
6.522350108220867
  0
ARC
  5
1E05
330
2
100
AcDbEntity
  8
Vista
100
AcDbCircle
 10
0.1669148104968485
 20
0.0878007842111686
 30
0.0
 40
0.0271057446908471
100
AcDbArc
 50
6.522350108220867
 51
30.85763203689335
  0
ARC
  5
1E06
330
2
100
AcDbEntity
  8
Vista
100
AcDbCircle
 10
0.2359746441238144
 20
0.1779276662071823
 30
0.0
 40
0.0875146529330694
100
AcDbArc
 50
233.1252378583847
 51
251.8225441085089
  0
ARC
  5
1E07
330
2
100
AcDbEntity
  8
Vista
100
AcDbCircle
 10
0.1704512964710148
 20
0.0968950254662957
 30
0.0
 40
0.0180736819385107
100
AcDbArc
 50
347.3818319256917
 51
24.77519553450145
  0
ARC
  5
1E08
330
2
100
AcDbEntity
  8
Vista
100
AcDbCircle
 10
0.1575702811955466
 20
0.0908279566166073
 30
0.0
 40
0.0328408538547344
100
AcDbArc
 50
358.8174298403477
 51
23.02014513448099
  0
ARC
  5
1E09
330
2
100
AcDbEntity
  8
Vista
100
AcDbCircle
 10
0.1844175116959263
 20
0.0904010750944338
 30
0.0
 40
0.0044672631975259
100
AcDbArc
 50
350.9880690700927
 51
34.74032934213799
  0
ARC
  5
1E0A
330
2
100
AcDbEntity
  8
Vista
100
AcDbCircle
 10
0.1864422071841432
 20
0.0896939017144121
 30
0.0
 40
0.0023874342022938
100
AcDbArc
 50
0.1780884768932277
 51
204.178608697454
  0
ARC
  5
1E0B
330
2
100
AcDbEntity
  8
Vista
100
AcDbCircle
 10
0.1877729673192334
 20
0.0902913719459377
 30
0.0
 40
0.0038461642029502
100
AcDbArc
 50
204.178608697454
 51
341.1291975529886
  0
ARC
  5
1E0C
330
2
100
AcDbEntity
  8
Vista
100
AcDbCircle
 10
0.1870284163844076
 20
0.0904103773015379
 30
0.0
 40
0.002774810141525
100
AcDbArc
 50
67.41345522809305
 51
174.4938985233191
  0
CIRCLE
  5
1E0D
330
2
100
AcDbEntity
  8
Vista
100
AcDbCircle
 10
0.1987366198844143
 20
0.0905365033412125
 30
0.0
 40
0.0012498936648689
  0
LINE
  5
1E0E
330
2
100
AcDbEntity
  8
Vista
100
AcDbLine
 10
0.1936090226365081
 20
0.0925061464168664
 30
0.0
 11
0.1951564111478205
 21
0.0920203933431196
 31
0.0
  0
CIRCLE
  5
1E0F
330
2
100
AcDbEntity
  8
Vista
100
AcDbCircle
 10
0.1964033928434219
 20
0.0919351242140749
 30
0.0
 40
0.0012498936648689
  0
ARC
  5
1E10
330
2
100
AcDbEntity
  8
Vista
100
AcDbCircle
 10
0.2137915778100137
 20
0.1103679067212795
 30
0.0
 40
0.016406217899863
100
AcDbArc
 50
251.8225441085161
 51
261.8446422393923
  0
ARC
  5
1E11
330
2
100
AcDbEntity
  8
Vista
100
AcDbCircle
 10
0.2174330419236412
 20
0.1641789929256276
 30
0.0
 40
0.0659355325689722
100
AcDbArc
 50
252.1266642048088
 51
263.7144728690257
  0
CIRCLE
  5
1E12
330
2
100
AcDbEntity
  8
Vista
100
AcDbCircle
 10
0.1927042769829654
 20
0.1146097915205075
 30
0.0
 40
0.0014172975209712
  0
ARC
  5
1E13
330
2
100
AcDbEntity
  8
Vista
100
AcDbCircle
 10
0.1868883420360703
 20
0.1120416851074708
 30
0.0
 40
0.0128062978024789
100
AcDbArc
 50
80.28246188748651
 51
103.7882557099583
  0
ARC
  5
1E14
330
2
100
AcDbEntity
  8
Vista
100
AcDbCircle
 10
0.18848409757544
 20
0.121360064213178
 30
0.0
 40
0.003352270888025
100
AcDbArc
 50
325.669948107284
 51
80.28246188748651
  0
CIRCLE
  5
1E15
330
2
100
AcDbEntity
  8
Vista
100
AcDbCircle
 10
0.1970135352195825
 20
0.1186634674449181
 30
0.0
 40
0.0014172975209712
  0
CIRCLE
  5
1E16
330
2
100
AcDbEntity
  8
Vista
100
AcDbCircle
 10
0.1950463347965296
 20
0.1165074752825319
 30
0.0
 40
0.0014172975209712
  0
CIRCLE
  5
1E17
330
2
100
AcDbEntity
  8
Vista
100
AcDbCircle
 10
0.1980846777710212
 20
0.1158749140285238
 30
0.0
 40
0.0014172975209712
  0
CIRCLE
  5
1E18
330
2
100
AcDbEntity
  8
Vista
100
AcDbCircle
 10
0.1957976998343724
 20
0.11371784280729
 30
0.0
 40
0.0014172975209712
  0
CIRCLE
  5
1E1A
330
2
100
AcDbEntity
  8
Vista
100
AcDbCircle
 10
0.2308169736729724
 20
0.1109119700968506
 30
0.0
 40
0.002105518730229
  0
ARC
  5
1E1B
330
2
100
AcDbEntity
  8
Vista
100
AcDbCircle
 10
0.2287132373677991
 20
0.1137205630942901
 30
0.0
 40
0.0066754059063176
100
AcDbArc
 50
176.2867249931155
 51
239.7335686216661
  0
ARC
  5
1E1C
330
2
100
AcDbEntity
  8
Vista
100
AcDbCircle
 10
0.2276178304161931
 20
0.1129769616852343
 30
0.0
 40
0.0034119048601348
100
AcDbArc
 50
68.12988909427942
 51
233.1819458125856
  0
ARC
  5
1E1D
330
2
100
AcDbEntity
  8
Vista
100
AcDbCircle
 10
0.2340161169297517
 20
0.1088469785084669
 30
0.0
 40
0.0034119048601348
100
AcDbArc
 50
248.1298890942794
 51
285.3708025320558
  0
LWPOLYLINE
  5
1E1F
330
2
100
AcDbEntity
  8
Vista
100
AcDbPolyline
 90
        4
 70
     0
 43
0.0
 10
0.2168023035391116
 20
0.0939725189485046
 42
0.34789546262794
 10
0.2272667860337947
 20
0.0955327449307504
 42
0.0621638238997163
 10
0.2332169391698926
 20
0.1010279653097825
 42
-0.1859065683547507
 10
0.2349204927674009
 20
0.1019635427186914
 42
-0.1859065683547507
  0
LINE
  5
1E20
330
2
100
AcDbEntity
  8
Vista
100
AcDbLine
 10
0.2287258221367097
 20
0.1106664209659414
 30
0.0
 11
0.2255731581175837
 21
0.1102455865799072
 31
0.0
  0
ARC
  5
1E21
330
2
100
AcDbEntity
  8
Vista
100
AcDbCircle
 10
0.2287519820845887
 20
0.1077128268400713
 30
0.0
 40
0.0034119048601348
100
AcDbArc
 50
158.1298890942815
 51
323.1819458125856
  0
LINE
  5
1E22
330
2
100
AcDbEntity
  8
Vista
100
AcDbLine
 10
0.2287832444041555
 20
0.1103668514084291
 30
0.0
 11
0.2255856296234242
 21
0.1089837740719588
 31
0.0
  0
ARC
  5
1E23
330
2
100
AcDbEntity
  8
Vista
100
AcDbCircle
 10
0.2171814978422049
 20
0.0913968431567298
 30
0.0
 40
0.0106978327963576
100
AcDbArc
 50
58.84626846802161
 51
70.85511325254966
  0
ARC
  5
1E24
330
2
100
AcDbEntity
  8
Vista
100
AcDbCircle
 10
0.2202865985524909
 20
0.0984953614530753
 30
0.0
 40
0.0030345661520307
100
AcDbArc
 50
82.3619138465577
 51
126.3701993910451
  0
ARC
  5
1E25
330
2
100
AcDbEntity
  8
Vista
100
AcDbCircle
 10
0.2216812007583258
 20
0.0988402945752967
 30
0.0
 40
0.002
100
AcDbArc
 50
316.4985130809881
 51
58.84626846802161
  0
LINE
  5
1E26
330
2
100
AcDbEntity
  8
Vista
100
AcDbLine
 10
0.2313620923613939
 20
0.1088782408280338
 30
0.0
 11
0.2327451696978642
 21
0.1056806260473024
 31
0.0
  0
LINE
  5
1E27
330
2
100
AcDbEntity
  8
Vista
100
AcDbLine
 10
0.2310625228038248
 20
0.1088208185605879
 30
0.0
 11
0.2314833571899157
 21
0.1056681545414619
 31
0.0
  0
ARC
  5
1E2A
330
2
100
AcDbEntity
  8
Vista
100
AcDbCircle
 10
0.2315431303966875
 20
0.1100355888949309
 30
0.0
 40
0.0137780563553446
100
AcDbArc
 50
75.81070909766501
 51
86.1034427773883
  0
ARC
  5
1E2B
330
2
100
AcDbEntity
  8
Vista
100
AcDbCircle
 10
0.2142638884616304
 20
0.157985540580313
 30
0.0
 40
0.0349519700576257
100
AcDbArc
 50
275.9495992926533
 51
288.3232353089849
  0
ARC
  5
1E2C
330
2
100
AcDbEntity
  8
Vista
100
AcDbCircle
 10
0.2421565040845621
 20
0.1098539082754257
 30
0.0
 40
0.0185421500474962
100
AcDbArc
 50
133.5183208767069
 51
155.3236278726503
  0
ARC
  5
1E2D
330
2
100
AcDbEntity
  8
Vista
100
AcDbCircle
 10
0.2338679885919532
 20
0.1150241855233673
 30
0.0
 40
0.0118482234818219
100
AcDbArc
 50
163.7243742705225
 51
184.2172481888433
  0
ARC
  5
1E2E
330
2
100
AcDbEntity
  8
Vista
100
AcDbCircle
 10
0.2239655376004634
 20
0.1182117310902129
 30
0.0
 40
0.0014769524256218
100
AcDbArc
 50
174.8327885945007
 51
335.3236278726488
  0
ARC
  5
1E2F
330
2
100
AcDbEntity
  8
Vista
100
AcDbCircle
 10
0.2314014278757668
 20
0.1152316857732387
 30
0.0
 40
0.0094351986079452
100
AcDbArc
 50
115.942097308194
 51
160.7347752620889
  0
ARC
  5
1E30
330
2
100
AcDbEntity
  8
Vista
100
AcDbCircle
 10
0.2328819652613561
 20
0.1141111133536299
 30
0.0
 40
0.0034119048601348
100
AcDbArc
 50
53.31073625635794
 51
143.1819458125856
  0
ARC
  5
1E31
330
2
100
AcDbEntity
  8
Vista
100
AcDbCircle
 10
0.2348021120296835
 20
0.1194016964521722
 30
0.0
 40
0.0017790046264617
100
AcDbArc
 50
188.8774265186029
 51
273.8154663540827
  0
LINE
  5
1E33
330
2
100
AcDbEntity
  8
Vista
100
AcDbLine
 10
0.2329081252092351
 20
0.111157519227703
 30
0.0
 11
0.2349204927674009
 21
0.1114261407683405
 31
0.0
  0
LINE
  5
1E34
330
2
100
AcDbEntity
  8
Vista
100
AcDbLine
 10
0.2328507029417892
 20
0.1114570887852722
 30
0.0
 11
0.2349204927674009
 21
0.1123523434032801
 31
0.0
  0
LINE
  5
1E35
330
2
100
AcDbEntity
  8
Vista
100
AcDbLine
 10
0.2305714245420631
 20
0.1130031216331133
 30
0.0
 11
0.230150590156029
 21
0.1161557856522393
 31
0.0
  0
LINE
  5
1E36
330
2
100
AcDbEntity
  8
Vista
100
AcDbLine
 10
0.2302718549845508
 20
0.1129456993656674
 30
0.0
 11
0.2288887776480806
 21
0.1161433141463988
 31
0.0
  0
ARC
  5
1E37
330
2
100
AcDbEntity
  8
Vista
100
AcDbCircle
 10
0.2357893821928201
 20
0.1196293496377336
 30
0.0
 40
0.0027905234915206
100
AcDbArc
 50
108.1419016020963
 51
195.6019647889502
  0
ARC
  5
1E38
330
2
100
AcDbEntity
  8
Vista
100
AcDbCircle
 10
0.2328586383458173
 20
0.1111985639041393
 30
0.0
 40
0.0125889443229504
100
AcDbArc
 50
91.72617573713457
 51
106.0001177914579
  0
ARC
  5
1E39
330
2
100
AcDbEntity
  8
Vista
100
AcDbCircle
 10
0.1664945642758653
 20
0.1032986942528566
 30
0.0
 40
0.0209240799936482
100
AcDbArc
 50
35.82536423601201
 51
40.45786044238758
  0
LINE
  5
1E3A
330
2
100
AcDbEntity
  8
Vista
100
AcDbLine
 10
0.1876049739619816
 20
0.1088233985608724
 30
0.0
 11
0.1824153496557983
 21
0.1126325942572919
 31
0.0
  0
ARC
  5
1E3B
330
2
100
AcDbEntity
  8
Vista
100
AcDbCircle
 10
0.1843747259718498
 20
0.1222843594707967
 30
0.0
 40
0.0022597038579028
100
AcDbArc
 50
103.7882557099583
 51
150.1227132320538
  0
ARC
  5
1E3C
330
2
100
AcDbEntity
  8
Vista
100
AcDbCircle
 10
0.1856505892438349
 20
0.1232951310862234
 30
0.0
 40
0.0067834883495672
100
AcDbArc
 50
241.5150047025299
 51
325.669948107284
  0
ARC
  5
1E3D
330
2
100
AcDbEntity
  8
Vista
100
AcDbCircle
 10
0.1818064373273387
 20
0.1152535313536589
 30
0.0
 40
0.0016187615445732
100
AcDbArc
 50
292.0959873345982
 51
14.82423473172293
  0
LWPOLYLINE
  5
1E3E
330
2
100
AcDbEntity
  8
Vista
100
AcDbPolyline
 90
        3
 70
     0
 43
0.0
 10
0.1824153496557983
 20
0.0978777188617244
 42
0.0512242237115895
 10
0.183171697116677
 20
0.1009723998523384
 42
0.1294075430585835
 10
0.1824153496557983
 20
0.1104305013962801
 42
0.238569677311537
  0
LINE
  5
1E3F
330
2
100
AcDbEntity
  8
Vista
 62
     6
100
AcDbLine
 10
0.2514023595005597
 20
0.1380584760550221
 30
0.0
 11
0.2514023595006165
 21
0.0755584760550221
 31
0.0
  0
LWPOLYLINE
  5
1E40
330
2
100
AcDbEntity
  8
Vista
100
AcDbPolyline
 90
        3
 70
     0
 43
0.0
 10
0.3643082382632201
 20
0.0918758159679953
 42
0.1783253957250184
 10
0.3795186756844941
 20
0.0941093737567656
 10
0.3806388906214693
 20
0.0950566889688673
 42
0.1833677990027238
  0
LWPOLYLINE
  5
1E41
330
2
100
AcDbEntity
  8
Vista
100
AcDbPolyline
 90
        2
 70
     0
 43
0.0
 10
0.361285381716641
 20
0.0902015766492639
 42
0.2353175081232721
 10
0.3806388906215261
 20
0.0891268508334804
 42
0.0532721314780807
  0
LINE
  5
1E42
330
2
100
AcDbEntity
  8
Vista
 62
     3
100
AcDbLine
 10
0.2514023595006165
 20
0.1380584760550221
 30
0.0
 11
0.3806388906214693
 21
0.1380584760549652
 31
0.0
  0
LINE
  5
1E43
330
2
100
AcDbEntity
  8
Vista
 62
     2
100
AcDbLine
 10
0.2514023595006165
 20
0.1355584760549675
 30
0.0
 11
0.3806388906214693
 21
0.1355584760549675
 31
0.0
  0
LINE
  5
1E44
330
2
100
AcDbEntity
  8
Vista
 62
     2
100
AcDbLine
 10
0.2514023595006165
 20
0.1330584760550266
 30
0.0
 11
0.3806388906215261
 21
0.1330584760550266
 31
0.0
  0
LINE
  5
1E45
330
2
100
AcDbEntity
  8
Vista
100
AcDbLine
 10
0.2514023595006165
 20
0.1280584760550312
 30
0.0
 11
0.3806388906215261
 21
0.1280584760550312
 31
0.0
  0
LWPOLYLINE
  5
1E46
330
2
100
AcDbEntity
  8
Vista
100
AcDbPolyline
 90
        3
 70
     0
 43
0.0
 10
0.1834599084552906
 20
0.1075200405532826
 42
0.0435009374336088
 10
0.199939340549065
 20
0.0946464826842828
 42
0.3316499234221128
 10
0.2349204927674009
 20
0.0917756331802245
 42
0.3316499234221128
  0
LWPOLYLINE
  5
1E47
330
2
100
AcDbEntity
  8
Vista
100
AcDbPolyline
 90
        4
 70
     0
 43
0.0
 10
0.2349204927674009
 20
0.1266505521725364
 42
0.2904373708809383
 10
0.2197579445086717
 20
0.1196476470549612
 42
0.1145864547094774
 10
0.2191644379050217
 20
0.1129564965322913
 42
0.2273133165503704
 10
0.2266668180167812
 20
0.1050122369813664
  0
LWPOLYLINE
  5
1E49
330
2
100
AcDbEntity
  8
Vista
100
AcDbPolyline
 90
       12
 70
     0
 43
0.0
 10
0.2514023595005597
 20
0.0950516528791639
 10
0.2568704759892171
 20
0.0996757921940628
 42
0.1833677990027238
 10
0.2623196448507201
 20
0.1101790575619645
 42
0.2487210765940453
 10
0.2591117936115097
 20
0.1184087043412489
 42
0.3407344947923366
 10
0.2556602069483347
 20
0.1185979647560487
 42
-0.608103601325701
 10
0.2540939817523053
 20
0.1194347754791636
 42
-0.3350418216758164
 10
0.2590895607497714
 20
0.125882283244465
 42
-0.5657839426403278
 10
0.2690559271550228
 20
0.1163196113856486
 42
-0.0158648090594299
 10
0.2686673127390122
 20
0.114831379245885
 42
-0.0700895642943869
 10
0.2654952518582831
 20
0.1069693758733194
 10
0.2738732814236755
 20
0.1140542973402887
 10
0.2747471876376153
 20
0.1201307663306181
  0
LWPOLYLINE
  5
1E4A
330
2
100
AcDbEntity
  8
Vista
100
AcDbPolyline
 90
        2
 70
     0
 43
0.0
 10
0.2320488505957883
 20
0.0901965405596173
 42
0.0366369910205161
 10
0.2349204927674009
 20
0.0888289525159472
 42
0.0366369910205161
  0
LWPOLYLINE
  5
1E4B
330
2
100
AcDbEntity
  8
Vista
100
AcDbPolyline
 90
        5
 70
     0
 43
0.0
 10
0.2514023595006165
 20
0.0891218147438338
 42
0.0205847721084718
 10
0.2530146270432283
 20
0.0898964870397379
 42
0.0532721314780807
 10
0.2531905343533367
 20
0.09001567894299
 10
0.2609049583715546
 20
0.0965394191501616
 10
0.2646957894502293
 20
0.095171011902238
  0
LINE
  5
1E4C
330
2
100
AcDbEntity
  8
Vista
100
AcDbLine
 10
0.2514023595006165
 20
0.085558476055013
 30
0.0
 11
0.3806388906214693
 21
0.085558476055013
 31
0.0
  0
LINE
  5
1E4D
330
2
100
AcDbEntity
  8
Vista
 62
     2
100
AcDbLine
 10
0.2514023595006165
 20
0.0805584760550744
 30
0.0
 11
0.3806388906215261
 21
0.0805584760550176
 31
0.0
  0
LINE
  5
1E4E
330
2
100
AcDbEntity
  8
Vista
 62
     2
100
AcDbLine
 10
0.2514023595006165
 20
0.0780584760550198
 30
0.0
 11
0.3806388906214693
 21
0.0780584760550198
 31
0.0
  0
LINE
  5
1E4F
330
2
100
AcDbEntity
  8
Vista
 62
     3
100
AcDbLine
 10
0.2514023595006165
 20
0.0755584760550221
 30
0.0
 11
0.3806388906215261
 21
0.0755584760549653
 31
0.0
  0
LWPOLYLINE
  5
1E55
102
{ACAD_REACTORS
330
1E7D
330
1E95
102
}
330
2
100
AcDbEntity
  8
Profilo
100
AcDbPolyline
 90
       20
 70
     1
 43
0.0
 10
0.079169546545927
 20
0.2195311125445301
 42
-0.7927310793404776
 10
0.079169546545927
 20
0.2095311125445391
 10
0.079169546545927
 20
0.1245311125445596
 42
-0.7927310793404779
 10
0.079169546545927
 20
0.1145311125445119
 10
0.079169546545927
 20
0.1100311125445614
 42
-0.4142135623730818
 10
0.078669546545882
 20
0.1095311125445164
 10
0.0741695465458747
 20
0.1095311125445164
 10
0.0741695465458747
 20
0.1055311125445542
 42
-0.4142135623730834
 10
0.0731695465458984
 20
0.104531112544521
 10
0.0691695465458793
 20
0.104531112544521
 10
0.0691695465458793
 20
0.1295311125445551
 10
0.0711695465458888
 20
0.1306964431335587
 10
0.0711695465458888
 20
0.2033657819555401
 10
0.0691695465458793
 20
0.2045311125445437
 10
0.0691695465458793
 20
0.229531112544521
 10
0.0731695465458984
 20
0.229531112544521
 42
-0.4142135623730831
 10
0.0741695465458747
 20
0.2285311125445446
 10
0.0741695465458747
 20
0.2245311125445255
 10
0.078669546545882
 20
0.2245311125445255
 42
-0.4142135623730816
 10
0.079169546545927
 20
0.2240311125445373
  0
HATCH
  5
1E63
330
2
100
AcDbEntity
  8
Sezione
100
AcDbHatch
 10
0.0
 20
0.0
 30
0.0
210
0.0
220
0.0
230
1.0
  2
ANSI31
 70
     0
 71
     0
 91
        1
 92
        7
 72
     0
 73
     1
 93
        4
 10
0.067993814650265
 20
0.2359230482387034
 10
0.03695817623327
 20
0.2359230482387033
 10
0.03695817623327
 20
0.0951996754162679
 10
0.067993814650265
 20
0.0951996754162678
 97
        0
 75
     0
 76
     1
 52
0.0
 41
0.003
 77
     0
 78
     1
 53
45.0
 43
-0.0222948280080573
 44
0.0063069723065894
 45
-0.0067351920908019
 46
0.0067351920908019
 79
     0
 47
0.0004204620691664
 98
        1
 10
0.0504193021208721
 20
0.143000980521947
1001
ACAD
1010
0.0
1020
0.0
1030
0.0
  0
DIMENSION
  5
1E64
102
{ACAD_XDICTIONARY
360
1E72
102
}
102
{ACAD_REACTORS
330
1E7D
102
}
330
2
100
AcDbEntity
  8
Dimensione
100
AcDbDimension
  2
*D40
 10
0.1027301389962645
 20
0.1045311125445209
 30
0.0
 11
0.1027301389962645
 21
0.167031112544521
 31
0.0
 70
    32
  1
125 mm
 71
     5
 42
0.125
  3
Bovelacci
100
AcDbAlignedDimension
 13
0.0731695465458984
 23
0.229531112544521
 33
0.0
 14
0.0731695465458699
 24
0.104531112544521
 34
0.0
 50
90.0
100
AcDbRotatedDimension
  0
DIMENSION
  5
1E7E
102
{ACAD_XDICTIONARY
360
1E8B
102
}
102
{ACAD_REACTORS
330
1E95
102
}
330
2
100
AcDbEntity
  8
Dimensione
100
AcDbDimension
  2
*D41
 10
0.0831215431520605
 20
0.0872466478059551
 30
0.0
 11
0.0761455448489699
 21
0.0800666478059551
 31
0.0
 70
    32
  1
18 mm
 71
     5
 42
0.0139519966061812
  3
Bovelacci
100
AcDbAlignedDimension
 13
0.0691695465458793
 23
0.104531112544521
 33
0.0
 14
0.0831215431520605
 24
0.1195294120482515
 34
0.0
100
AcDbRotatedDimension
  0
LWPOLYLINE
  5
1E98
330
2
100
AcDbEntity
  8
Vista
100
AcDbPolyline
 90
        2
 70
     0
 43
0.0
 10
0.2349204927674009
 20
0.0961939823099109
 42
-0.1155491111126271
 10
0.2265415050923138
 20
0.092292222733164
  0
VIEWPORT
  5
7B
102
{ACAD_XDICTIONARY
360
1EA0
102
}
330
79
100
AcDbEntity
 67
     1
  8
0
100
AcDbViewport
 10
145.330337524414
 20
101.8116638660431
 30
0.0
 40
351.1337450215151
 41
222.1517806396485
 68
     1
 69
     1
 12
145.330337524414
 22
101.8116638660431
 13
0.0
 23
0.0
 14
10.0
 24
10.0
 15
10.0
 25
10.0
 16
0.0
 26
0.0
 36
1.0
 17
0.0
 27
0.0
 37
0.0
 42
50.0
 43
0.0
 44
0.0
 45
222.1517806396485
 50
0.0
 51
0.0
 72
  1000
 90
    32800
  1

281
     0
 71
     1
 74
     0
110
0.0
120
0.0
130
0.0
111
1.0
121
0.0
131
0.0
112
0.0
122
1.0
132
0.0
 79
     0
146
0.0
  0
VIEWPORT
  5
80
102
{ACAD_XDICTIONARY
360
1EA2
102
}
330
79
100
AcDbEntity
 67
     1
  8
Sezione
100
AcDbViewport
 10
145.3303314447403
 20
101.8116623163223
 30
0.0
 40
232.5285303115845
 41
162.8986597061157
 68
     2
 69
     2
 12
0.2100067158578973
 22
0.1484909068076998
 13
0.0
 23
0.0
 14
10.0
 24
10.0
 15
10.0
 25
10.0
 16
0.0
 26
0.0
 36
1.0
 17
0.0
 27
0.0
 37
0.0
 42
50.0
 43
0.0
 44
0.0
 45
0.2752830087467564
 50
0.0
 51
0.0
 72
  1000
 90
    32864
  1

281
     0
 71
     1
 74
     0
110
0.0
120
0.0
130
0.0
111
1.0
121
0.0
131
0.0
112
0.0
122
1.0
132
0.0
 79
     0
146
0.0
  0
ENDSEC
  0
SECTION
  2
OBJECTS
  0
DICTIONARY
  5
9
330
0
100
AcDbDictionary
281
     1
  3
ACAD_2007HEADERVARS_RT
350
14A
  3
ACAD_COLOR
350
A1
  3
ACAD_GROUP
350
9C
  3
ACAD_LAYOUT
350
78
  3
ACAD_MATERIAL
350
B
  3
ACAD_MLINESTYLE
350
9D
  3
ACAD_PLOTSETTINGS
350
9E
  3
ACAD_PLOTSTYLENAME
350
8
  3
ACAD_TABLESTYLE
350
A2
  3
ACAD_VISUALSTYLE
350
7F
  3
ACDBHEADERROUNDTRIPXREC
350
1E9D
  3
AcDbVariableDictionary
350
A9
  3
AEC_PROPERTY_SET_DEFS
350
10D
  3
DWGPROPS
350
1E9C
  0
DICTIONARY
  5
8B
330
8A
100
AcDbDictionary
280
     1
281
     1
  3
ACAD_LAYERFILTERS
360
48D
  3
ACAD_LAYERSTATES
360
8D
  3
ACLYDICTIONARY
360
48C
  0
DICTIONARY
  5
3
330
2
100
AcDbDictionary
280
     1
281
     1
  3
ACAD_SORTENTS
360
A8
  0
DICTIONARY
  5
B6D
330
B69
100
AcDbDictionary
280
     1
281
     1
  3
ACAD_SORTENTS
360
B6E
  0
DICTIONARY
  5
1EA7
330
10F
100
AcDbDictionary
280
     1
281
     1
  3
ACAD_MTEXT_RT
360
1EA8
  0
DICTIONARY
  5
1E72
330
1E64
100
AcDbDictionary
280
     1
281
     1
  3
ACAD_DIMASSOC
360
1E7D
  0
DICTIONARY
  5
1E8B
330
1E7E
100
AcDbDictionary
280
     1
281
     1
  3
ACAD_DIMASSOC
360
1E95
  0
DICTIONARY
  5
1EA0
330
7B
100
AcDbDictionary
280
     1
281
     1
  3
ACAD_XREC_ROUNDTRIP
360
1EA1
  0
DICTIONARY
  5
1EA2
330
80
100
AcDbDictionary
280
     1
281
     1
  3
ACAD_XREC_ROUNDTRIP
360
1EA3
  0
DICTIONARY
  5
14A
102
{ACAD_REACTORS
330
9
102
}
330
9
100
AcDbDictionary
281
     1
  3
DIMFXL
350
14B
  0
DICTIONARY
  5
A1
102
{ACAD_REACTORS
330
9
102
}
330
9
100
AcDbDictionary
281
     1
  0
DICTIONARY
  5
9C
102
{ACAD_REACTORS
330
9
102
}
330
9
100
AcDbDictionary
281
     1
  0
DICTIONARY
  5
78
102
{ACAD_REACTORS
330
9
102
}
330
9
100
AcDbDictionary
281
     1
  3
Layout1
350
82
  3
Layout2
350
89
  3
Model
350
77
  0
DICTIONARY
  5
B
102
{ACAD_REACTORS
330
9
102
}
330
9
100
AcDbDictionary
281
     1
  3
ByBlock
350
A0
  3
ByLayer
350
9F
  3
Global
350
A
  0
DICTIONARY
  5
9D
102
{ACAD_REACTORS
330
9
102
}
330
9
100
AcDbDictionary
281
     1
  3
Standard
350
A3
  0
DICTIONARY
  5
9E
102
{ACAD_REACTORS
330
9
102
}
330
9
100
AcDbDictionary
281
     1
  0
ACDBDICTIONARYWDFLT
  5
8
102
{ACAD_REACTORS
330
9
102
}
330
9
100
AcDbDictionary
281
     1
  3
Normal
350
7
100
AcDbDictionaryWithDefault
340
7
  0
DICTIONARY
  5
A2
102
{ACAD_REACTORS
330
9
102
}
330
9
100
AcDbDictionary
281
     1
  3
Standard
350
A4
  0
DICTIONARY
  5
7F
102
{ACAD_REACTORS
330
9
102
}
330
9
100
AcDbDictionary
281
     1
  3
2dWireframe
350
7E
  3
3D Hidden
350
D8
  3
3dWireframe
350
A6
  3
Basic
350
D7
  3
Brighten
350
DB
  3
ColorChange
350
DF
  3
Conceptual
350
D9
  3
Dim
350
DA
  3
Facepattern
350
DE
  3
Flat
350
D3
  3
FlatWithEdges
350
D4
  3
Gouraud
350
D5
  3
GouraudWithEdges
350
D6
  3
Linepattern
350
DD
  3
Realistic
350
A5
  3
Thicken
350
DC
  0
DICTIONARY
  5
1E9D
102
{ACAD_REACTORS
330
9
102
}
330
9
100
AcDbDictionary
281
     1
  0
DICTIONARY
  5
A9
102
{ACAD_REACTORS
330
9
102
}
330
9
100
AcDbDictionary
281
     1
  3
CTABLESTYLE
350
AA
  3
DIMASSOC
350
AE
  3
HIDETEXT
350
AD
  3
INDEXCTL
350
AC
  3
PROJECTNAME
350
16A
  3
SORTENTS
350
AB
  0
DICTIONARY
  5
10D
102
{ACAD_REACTORS
330
9
102
}
330
9
100
AcDbDictionary
281
     1
  0
XRECORD
  5
1E9C
102
{ACAD_REACTORS
330
9
102
}
330
9
100
AcDbXrecord
280
     1
  1
DWGPROPS COOKIE
  2

  3

  4

  6

  7

  8
Mario
  9

300
=
301
=
302
=
303
=
304
=
305
=
306
=
307
=
308
=
309
=
 40
0.2081767361111111
 41
2454297.625402373
 42
2454336.489959664
  1

 90
        0
  0
DICTIONARY
  5
48D
102
{ACAD_REACTORS
330
8B
102
}
330
8B
100
AcDbDictionary
281
     1
  0
DICTIONARY
  5
8D
102
{ACAD_REACTORS
330
8B
102
}
330
8B
100
AcDbDictionary
281
     1
  0
DICTIONARY
  5
48C
102
{ACAD_REACTORS
330
8B
102
}
330
8B
100
AcDbDictionary
281
     1
1001
ACAD
1000
<All
  0
SORTENTSTABLE
  5
A8
102
{ACAD_REACTORS
330
3
102
}
330
3
100
AcDbSortentsTable
330
2
331
24
  5
18
331
1D3E
  5
1D40
331
1CFF
  5
1D01
331
1D46
  5
1D48
331
1D07
  5
1D09
331
1E2A
  5
1E2D
331
1DEB
  5
1DED
331
1DB4
  5
1DB6
331
1D75
  5
1D77
331
1D4E
  5
1D50
331
1D0F
  5
1D11
331
1DF3
  5
1DF5
331
1DBC
  5
1DBE
331
1D7D
  5
1D7F
331
1D56
  5
1D58
331
1D17
  5
1D19
331
1E3A
  5
1E3D
331
1DFB
  5
1DFD
331
1DC4
  5
1DC6
331
1D85
  5
1D87
331
1E42
  5
1E45
331
1E03
  5
1E05
331
1DCC
  5
1DCE
331
1D8D
  5
1D8F
331
D
  5
13
331
15
  5
11
331
1D
  5
1E
331
1D5E
  5
1D60
331
1D1F
  5
1D21
331
1D66
  5
1D68
331
1D27
  5
1D29
331
1CF0
  5
1CF2
331
1E4A
  5
1E4D
331
1E0B
  5
1E0D
331
1DD4
  5
1DD6
331
1D95
  5
1D97
331
1D6E
  5
1D70
331
1D2F
  5
1D31
331
1E13
  5
1E15
331
1DDC
  5
1DDE
331
1D9D
  5
1D9F
331
1D37
  5
1D39
331
1E1B
  5
1E1D
331
1DE4
  5
1DE6
331
1DA5
  5
1DA7
331
1E23
  5
1E26
331
1DAD
  5
1DAF
331
25
  5
25
331
1CF8
  5
1CFA
331
1D3F
  5
1D41
331
1D00
  5
1D02
331
1D47
  5
1D49
331
1D08
  5
1D0A
331
1E2B
  5
1E2E
331
1DEC
  5
1DEE
331
1DB5
  5
1DB7
331
1D76
  5
1D78
331
1D4F
  5
1D51
331
1D10
  5
1D12
331
1E33
  5
1E36
331
1DF4
  5
1DF6
331
1DBD
  5
1DBF
331
1D7E
  5
1D80
331
1D57
  5
1D59
331
1E3B
  5
1E3E
331
1DFC
  5
1DFE
331
1DC5
  5
1DC7
331
1D86
  5
1D88
331
1E43
  5
1E46
331
1E04
  5
1E06
331
1DCD
  5
1DCF
331
1D8E
  5
1D90
331
16
  5
12
331
1E
  5
1F
331
10F
  5
10F
331
1D18
  5
1D1A
331
1D5F
  5
1D61
331
1D20
  5
1D22
331
1CE9
  5
1CEB
331
1D67
  5
1D69
331
1D28
  5
1D2A
331
1CF1
  5
1CF3
331
1E4B
  5
1E4E
331
1E0C
  5
1E0E
331
1DD5
  5
1DD7
331
1D96
  5
1D98
331
1D6F
  5
1D71
331
1D30
  5
1D32
331
1E14
  5
1E16
331
1DDD
  5
1DDF
331
1D9E
  5
1DA0
331
1E1C
  5
1E1E
331
1DE5
  5
1DE7
331
1DA6
  5
1DA8
331
1E24
  5
1E27
331
1DAE
  5
1DB0
331
1D38
  5
1D3A
331
1CF9
  5
1CFB
331
1D40
  5
1D42
331
1D01
  5
1D03
331
1D48
  5
1D4A
331
1D09
  5
1D0B
331
1E2C
  5
1E2F
331
1E63
  5
1CE9
331
1DED
  5
1DEF
331
1DB6
  5
1DB8
331
1D77
  5
1D79
331
1D50
  5
1D52
331
1D11
  5
1D13
331
1E34
  5
1E37
331
1DF5
  5
1DF7
331
1DBE
  5
1DC0
331
1D7F
  5
1D81
331
1E3C
  5
1E3F
331
1DFD
  5
1DFF
331
1DC6
  5
1DC8
331
1D87
  5
1D89
331
1E44
  5
1E47
331
1E05
  5
1E07
331
1DCE
  5
1DD0
331
1D8F
  5
1D91
331
17
  5
17
331
1F
  5
21
331
110
  5
110
331
1D58
  5
1D5A
331
1D19
  5
1D1B
331
1D60
  5
1D62
331
1D21
  5
1D23
331
1CEA
  5
1CEC
331
1D68
  5
1D6A
331
1D29
  5
1D2B
331
1CF2
  5
1CF4
331
1E4C
  5
1E4F
331
1E0D
  5
1E0F
331
1DD6
  5
1DD8
331
1D97
  5
1D99
331
1D31
  5
1D33
331
1E15
  5
1E17
331
1DDE
  5
1DE0
331
1D9F
  5
1DA1
331
1E1D
  5
1E1F
331
1DE6
  5
1DE8
331
1DA7
  5
1DA9
331
1E25
  5
1E28
331
1DAF
  5
1DB1
331
27
  5
27
331
1D39
  5
1D3B
331
1CFA
  5
1CFC
331
1D41
  5
1D43
331
1D02
  5
1D04
331
1D70
  5
1D72
331
1D49
  5
1D4B
331
1D0A
  5
1D0C
331
1E64
  5
1E7E
331
1E2D
  5
1E30
331
1DEE
  5
1DF0
331
1DB7
  5
1DB9
331
1D78
  5
1D7A
331
1D51
  5
1D53
331
1D12
  5
1D14
331
1E35
  5
1E38
331
1DF6
  5
1DF8
331
1DBF
  5
1DC1
331
1D80
  5
1D82
331
1E3D
  5
1E40
331
1DFE
  5
1E00
331
1DC7
  5
1DC9
331
1D88
  5
1D8A
331
1E45
  5
1E48
331
1E06
  5
1E08
331
1DCF
  5
1DD1
331
10
  5
14
331
1D59
  5
1D5B
331
1D1A
  5
1D1C
331
1D61
  5
1D63
331
1D22
  5
1D24
331
1CEB
  5
1CED
331
1D90
  5
1D92
331
1D69
  5
1D6B
331
1D2A
  5
1D2C
331
1CF3
  5
1CF5
331
1E4D
  5
1E55
331
1E0E
  5
1E10
331
1DD7
  5
1DD9
331
1D98
  5
1D9A
331
1D32
  5
1D34
331
1E55
  5
1E64
331
1E16
  5
1E18
331
1DDF
  5
1DE1
331
1DA0
  5
1DA2
331
1DE7
  5
1DE9
331
1DA8
  5
1DAA
331
1E26
  5
1E29
331
161A
  5
1CEA
331
1D3A
  5
1D3C
331
1CFB
  5
1CFD
331
1D42
  5
1D44
331
1D03
  5
1D05
331
1DB0
  5
1DB2
331
1D71
  5
1D73
331
1D4A
  5
1D4C
331
1D0B
  5
1D0D
331
1E2E
  5
1E31
331
1DEF
  5
1DF1
331
1DB8
  5
1DBA
331
1D79
  5
1D7B
331
1D52
  5
1D54
331
1D13
  5
1D15
331
1E36
  5
1E39
331
1DF7
  5
1DF9
331
1DC0
  5
1DC2
331
1D81
  5
1D83
331
1E3E
  5
1E41
331
1DFF
  5
1E01
331
1DC8
  5
1DCA
331
1D89
  5
1D8B
331
1E46
  5
1E49
331
1E07
  5
1E09
331
11
  5
15
331
1D5A
  5
1D5C
331
1D1B
  5
1D1D
331
1D62
  5
1D64
331
1D23
  5
1D25
331
1CEC
  5
1CEE
331
1DD0
  5
1DD2
331
1D91
  5
1D93
331
1D6A
  5
1D6C
331
1D2B
  5
1D2D
331
1CF4
  5
1CF6
331
1E4E
  5
1E5D
331
1E0F
  5
1E11
331
1DD8
  5
1DDA
331
1D99
  5
1D9B
331
1D33
  5
1D35
331
1E17
  5
1E19
331
1DE0
  5
1DE2
331
1DA1
  5
1DA3
331
1E1F
  5
1E21
331
1DA9
  5
1DAB
331
1E27
  5
1E2A
331
21
  5
22
331
1D3B
  5
1D3D
331
1CFC
  5
1CFE
331
1D43
  5
1D45
331
1D04
  5
1D06
331
1DE8
  5
1DEA
331
1DB1
  5
1DB3
331
1D72
  5
1D74
331
1D4B
  5
1D4D
331
1D0C
  5
1D0E
331
1E2F
  5
1E32
331
1DF0
  5
1DF2
331
1DB9
  5
1DBB
331
1D7A
  5
1D7C
331
1D53
  5
1D55
331
1D14
  5
1D16
331
1E37
  5
1E3A
331
1DF8
  5
1DFA
331
1DC1
  5
1DC3
331
1D82
  5
1D84
331
1E3F
  5
1E42
331
1E00
  5
1E02
331
1DC9
  5
1DCB
331
1D8A
  5
1D8C
331
1E7E
  5
1E97
331
1E47
  5
1E4A
331
12
  5
16
331
1CA
  5
1CA
331
1D5B
  5
1D5D
331
1D1C
  5
1D1E
331
1D63
  5
1D65
331
1D24
  5
1D26
331
1CED
  5
1CEF
331
1E08
  5
1E0A
331
1DD1
  5
1DD3
331
1D92
  5
1D94
331
1D6B
  5
1D6D
331
1D2C
  5
1D2E
331
1CF5
  5
1CF7
331
1E4F
  5
1E5E
331
1E10
  5
1E12
331
1DD9
  5
1DDB
331
1D9A
  5
1D9C
331
1D34
  5
1D36
331
1E18
  5
1E1A
331
1DE1
  5
1DE3
331
1DA2
  5
1DA4
331
1E20
  5
1E23
331
1DAA
  5
1DAC
331
22
  5
23
331
1D3C
  5
1D3E
331
1CFD
  5
1CFF
331
1D44
  5
1D46
331
1D05
  5
1D07
331
1DE9
  5
1DEB
331
1DB2
  5
1DB4
331
1D73
  5
1D75
331
1D4C
  5
1D4E
331
1D0D
  5
1D0F
331
1E30
  5
1E33
331
1DF1
  5
1DF3
331
1DBA
  5
1DBC
331
1D7B
  5
1D7D
331
1D54
  5
1D56
331
1D15
  5
1D17
331
1E38
  5
1E3B
331
1DF9
  5
1DFB
331
1DC2
  5
1DC4
331
1D83
  5
1D85
331
1E40
  5
1E43
331
1E01
  5
1E03
331
1DCA
  5
1DCC
331
1D8B
  5
1D8D
331
13
  5
D
331
1D5C
  5
1D5E
331
1D1D
  5
1D1F
331
1D64
  5
1D66
331
1D25
  5
1D27
331
1CEE
  5
1CF0
331
1E09
  5
1E0B
331
1DD2
  5
1DD4
331
1D93
  5
1D95
331
1D6C
  5
1D6E
331
1D2D
  5
1D2F
331
1CF6
  5
1CF8
331
1E11
  5
1E13
331
1DDA
  5
1DDC
331
1D9B
  5
1D9D
331
1D35
  5
1D37
331
1DE2
  5
1DE4
331
1DA3
  5
1DA5
331
1E21
  5
1E24
331
1DAB
  5
1DAD
331
23
  5
24
331
1D3D
  5
1D3F
331
1CFE
  5
1D00
331
1D45
  5
1D47
331
1D06
  5
1D08
331
1DEA
  5
1DEC
331
1DB3
  5
1DB5
331
1D74
  5
1D76
331
1D4D
  5
1D4F
331
1D0E
  5
1D10
331
1E31
  5
1E34
331
1DF2
  5
1DF4
331
1DBB
  5
1DBD
331
1D7C
  5
1D7E
331
1D55
  5
1D57
331
1D16
  5
1D18
331
1E39
  5
1E3C
331
1DFA
  5
1DFC
331
1DC3
  5
1DC5
331
1D84
  5
1D86
331
1E41
  5
1E44
331
1E02
  5
1E04
331
1DCB
  5
1DCD
331
1D8C
  5
1D8E
331
14
  5
10
331
1D5D
  5
1D5F
331
1D1E
  5
1D20
331
1D65
  5
1D67
331
1D26
  5
1D28
331
1CEF
  5
1CF1
331
1E49
  5
1E4C
331
1E0A
  5
1E0C
331
1DD3
  5
1DD5
331
1D94
  5
1D96
331
1D6D
  5
1D6F
331
1D2E
  5
1D30
331
1CF7
  5
1CF9
331
1E12
  5
1E14
331
1DDB
  5
1DDD
331
1D9C
  5
1D9E
331
1D36
  5
1D38
331
1E1A
  5
1E1C
331
1DE3
  5
1DE5
331
1DA4
  5
1DA6
331
1E22
  5
1E25
331
1E98
  5
1E22
331
1DAC
  5
1DAE
  0
SORTENTSTABLE
  5
B6E
102
{ACAD_REACTORS
330
B6D
102
}
330
B6D
100
AcDbSortentsTable
330
B69
  0
XRECORD
  5
1EA8
102
{ACAD_REACTORS
330
1EA7
102
}
330
1EA7
100
AcDbXrecord
280
     1
 40
7955300.0
  1
\pt0.09;{\fTimes New Roman|b0|i0|c238|p18;\H1.6x;\C4;Bovelacci\P\H0.4375x;\T0.95;via del Commercio, 5  47100 Forli - Italy  \fTimes New Roman|b0|i0|c0|p18;\P\fTimes New Roman|b0|i0|c238|p18;tel.+39-0543721386  fax +39-0543721127\fTimes New Roman|b0|i
  1
0|c0|p18; \fTimes New Roman|b0|i0|c238|p18;www.bovelacci.it\fTimes New Roman|b0|i0|c0|p18; \fTimes New Roman|b0|i0|c238|p18;e-mail: bovelacci@bovelacci\fTimes New Roman|b0|i0|c0|p18;.it}
  0
DIMASSOC
  5
1E7D
102
{ACAD_REACTORS
330
1E72
102
}
330
1E72
100
AcDbDimAssoc
330
1E64
 90
        3
 70
     0
 71
     0
  1
AcDbOsnapPointRef
 72
     1
331
1E55
 73
     2
 91
       15
 40
1.0
 10
0.0
 20
0.0
 30
2.000000000000000E+50
 75
     0
  1
AcDbOsnapPointRef
 72
     6
331
1E55
 73
     2
 91
        9
 40
0.0
 10
0.0
 20
0.0
 30
0.0
332
1E55
 74
     2
 92
        8
 75
     0
  0
DIMASSOC
  5
1E95
102
{ACAD_REACTORS
330
1E8B
102
}
330
1E8B
100
AcDbDimAssoc
330
1E7E
 90
        1
 70
     0
 71
     0
  1
AcDbOsnapPointRef
 72
     1
331
1E55
 73
     2
 91
        9
 40
1.0
 10
0.0
 20
0.0
 30
2.000000000000000E+50
 75
     0
  0
XRECORD
  5
1EA1
102
{ACAD_REACTORS
330
1EA0
102
}
330
1EA0
100
AcDbXrecord
280
     1
102
SHADEPLOT
 70
     0
  0
XRECORD
  5
1EA3
102
{ACAD_REACTORS
330
1EA2
102
}
330
1EA2
100
AcDbXrecord
280
     1
102
SHADEPLOT
 70
     0
  0
XRECORD
  5
14B
102
{ACAD_REACTORS
330
14A
102
}
330
14A
100
AcDbXrecord
280
     1
 40
0.18
  0
LAYOUT
  5
82
102
{ACAD_XDICTIONARY
360
83
102
}
102
{ACAD_REACTORS
330
78
102
}
330
78
100
AcDbPlotSettings
  1

  2
C:\Documents and Settings\All Users\Dati applicazioni\Autodesk\ADT 2006\enu\Plotters\Default Windows System Printer.pc3
  4
A4
  6

 40
3.174999952316281
 41
3.174999952316281
 42
3.175003051757812
 43
3.17498779296875
 44
209.9733276367186
 45
297.0106506347656
 46
0.0
 47
0.0
 48
0.0
 49
0.0
140
0.0
141
0.0
142
1.0
143
1.0
 70
   688
 72
     1
 73
     1
 74
     5
  7

 75
    16
147
1.0
148
0.0
149
0.0
100
AcDbLayout
  1
Layout1
 70
     1
 71
     1
 10
-3.17498779296875
 20
-3.174999952316281
 11
293.8356628417969
 21
206.7983276844024
 12
0.0
 22
0.0
 32
0.0
 14
29.06606628894805
 24
20.36233246326446
 34
0.0
 15
261.5945966005325
 25
183.2609921693802
 35
0.0
146
0.0
 13
0.0
 23
0.0
 33
0.0
 16
1.0
 26
0.0
 36
0.0
 17
0.0
 27
1.0
 37
0.0
 76
     0
330
79
331
7B
1001
ACAD_PSEXT
1000
C:\Documents and Settings\All Users\Dati applicazioni\Autodesk\ADT 2006\enu\Plotters\Default Windows System Printer.pc3
1000
Microsoft Office Document Image Writer Driver
1000
Microsoft Document Imaging Writer Port:
1000

1070
     0
  0
LAYOUT
  5
89
102
{ACAD_XDICTIONARY
360
1EA5
102
}
102
{ACAD_REACTORS
330
78
102
}
330
78
100
AcDbPlotSettings
  1

  2
C:\Documents and Settings\All Users\Dati applicazioni\Autodesk\ADT 2006\enu\Plotters\Default Windows System Printer.pc3
  4

  6

 40
0.0
 41
0.0
 42
0.0
 43
0.0
 44
0.0
 45
0.0
 46
0.0
 47
0.0
 48
0.0
 49
0.0
140
0.0
141
0.0
142
1.0
143
1.0
 70
   688
 72
     0
 73
     0
 74
     5
  7

 75
    16
147
1.0
148
0.0
149
0.0
100
AcDbLayout
  1
Layout2
 70
     1
 71
     2
 10
0.0
 20
0.0
 11
12.0
 21
9.0
 12
0.0
 22
0.0
 32
0.0
 14
0.0
 24
0.0
 34
0.0
 15
0.0
 25
0.0
 35
0.0
146
0.0
 13
0.0
 23
0.0
 33
0.0
 16
1.0
 26
0.0
 36
0.0
 17
0.0
 27
1.0
 37
0.0
 76
     0
330
86
  0
LAYOUT
  5
77
102
{ACAD_XDICTIONARY
360
1E9E
102
}
102
{ACAD_REACTORS
330
78
102
}
330
78
100
AcDbPlotSettings
  1

  2
C:\Documents and Settings\All Users\Dati applicazioni\Autodesk\ADT 2006\enu\Plotters\Default Windows System Printer.pc3
  4

  6

 40
0.0
 41
0.0
 42
0.0
 43
0.0
 44
0.0
 45
0.0
 46
0.0
 47
0.0
 48
0.0
 49
0.0
140
0.0
141
0.0
142
1.0
143
1.0
 70
  1712
 72
     0
 73
     0
 74
     0
  7

 75
     0
147
1.0
148
0.0
149
0.0
100
AcDbLayout
  1
Model
 70
     1
 71
     0
 10
0.0
 20
0.0
 11
12.0
 21
9.0
 12
0.0
 22
0.0
 32
0.0
 14
0.0
 24
0.0
 34
0.0
 15
0.0
 25
0.0
 35
0.0
146
0.0
 13
0.0
 23
0.0
 33
0.0
 16
1.0
 26
0.0
 36
0.0
 17
0.0
 27
1.0
 37
0.0
 76
     0
330
2
  0
MATERIAL
  5
A0
102
{ACAD_XDICTIONARY
360
C7
102
}
102
{ACAD_REACTORS
330
B
102
}
330
B
100
AcDbMaterial
  1
ByBlock
  0
MATERIAL
  5
9F
102
{ACAD_XDICTIONARY
360
C5
102
}
102
{ACAD_REACTORS
330
B
102
}
330
B
100
AcDbMaterial
  1
ByLayer
  0
MATERIAL
  5
A
102
{ACAD_XDICTIONARY
360
B1
102
}
102
{ACAD_REACTORS
330
B
102
}
330
B
100
AcDbMaterial
  1
Global
  0
MLINESTYLE
  5
A3
102
{ACAD_REACTORS
330
9D
102
}
330
9D
100
AcDbMlineStyle
  2
STANDARD
 70
     0
  3

 62
   256
 51
90.0
 52
90.0
 71
     2
 49
0.5
 62
   256
  6
BYLAYER
 49
-0.5
 62
   256
  6
BYLAYER
  0
ACDBPLACEHOLDER
  5
7
102
{ACAD_REACTORS
330
8
102
}
330
8
  0
TABLESTYLE
  5
A4
102
{ACAD_XDICTIONARY
360
155
102
}
102
{ACAD_REACTORS
330
A2
102
}
330
A2
100
AcDbTableStyle
  3
Standard
 70
     0
 71
     0
 40
1.5
 41
1.5
280
     0
281
     0
  7
Standard
140
4.5
170
     2
 62
     0
 63
     7
283
     0
274
    -2
284
     1
 64
     0
275
    -2
285
     1
 65
     0
276
    -2
286
     1
 66
     0
277
    -2
287
     1
 67
     0
278
    -2
288
     1
 68
     0
279
    -2
289
     1
 69
     0
  7
Standard
140
6.0
170
     5
 62
     0
 63
     7
283
     0
274
    -2
284
     1
 64
     0
275
    -2
285
     1
 65
     0
276
    -2
286
     1
 66
     0
277
    -2
287
     1
 67
     0
278
    -2
288
     1
 68
     0
279
    -2
289
     1
 69
     0
  7
Standard
140
4.5
170
     5
 62
     0
 63
     7
283
     0
274
    -2
284
     1
 64
     0
275
    -2
285
     1
 65
     0
276
    -2
286
     1
 66
     0
277
    -2
287
     1
 67
     0
278
    -2
288
     1
 68
     0
279
    -2
289
     1
 69
     0
  0
VISUALSTYLE
  5
7E
102
{ACAD_REACTORS
330
7F
102
}
330
7F
100
AcDbVisualStyle
  2
2dWireframe
 70
     4
 71
     0
 72
     2
 73
     0
 90
        0
 40
-0.6
 41
-30.0
 62
     5
 63
     7
 74
     1
 91
        4
 64
     7
 65
   257
 75
     1
175
     1
 42
1.0
 92
        0
 66
   257
 43
1.0
 76
     1
 77
     6
 78
     2
 67
     7
 79
     5
170
     0
171
     0
290
     0
174
     0
 93
        1
 44
0.0
173
     0
291
     0
 45
0.0
1001
ACAD
1000
AcDbSavedByObjectVersion
1070
     0
1000
AcDbSavedByObjectVersion
1070
     0
1000
AcDbSavedByObjectVersion
1070
     0
1001
ACAD
1000
AcRTDxfName
1000
VISUALSTYLE
  0
VISUALSTYLE
  5
D8
102
{ACAD_REACTORS
330
7F
102
}
330
7F
100
AcDbVisualStyle
  2
3D Hidden
 70
     6
 71
     1
 72
     2
 73
     2
 90
        0
 40
-0.6
 41
-30.0
 62
     5
 63
     7
 74
     2
 91
        2
 64
     7
 65
   257
 75
     2
175
     1
 42
40.0
 92
        0
 66
   257
 43
1.0
 76
     1
 77
     6
 78
     2
 67
     7
 79
     3
170
     0
171
     0
290
     0
174
     0
 93
        1
 44
0.0
173
     0
291
     0
 45
0.0
1001
ACAD
1000
AcDbSavedByObjectVersion
1070
     0
1000
AcDbSavedByObjectVersion
1070
     0
1001
ACAD
1000
AcRTDxfName
1000
VISUALSTYLE
  0
VISUALSTYLE
  5
A6
102
{ACAD_REACTORS
330
7F
102
}
330
7F
100
AcDbVisualStyle
  2
3dWireframe
 70
     5
 71
     0
 72
     2
 73
     0
 90
        0
 40
-0.6
 41
-30.0
 62
     5
 63
     7
 74
     1
 91
        4
 64
     7
 65
   257
 75
     1
175
     1
 42
1.0
 92
        0
 66
   257
 43
1.0
 76
     1
 77
     6
 78
     2
 67
     7
 79
     5
170
     0
171
     0
290
     0
174
     0
 93
        1
 44
0.0
173
     0
291
     0
 45
0.0
1001
ACAD
1000
AcDbSavedByObjectVersion
1070
     0
1000
AcDbSavedByObjectVersion
1070
     0
1000
AcDbSavedByObjectVersion
1070
     0
1001
ACAD
1000
AcRTDxfName
1000
VISUALSTYLE
  0
VISUALSTYLE
  5
D7
102
{ACAD_REACTORS
330
7F
102
}
330
7F
100
AcDbVisualStyle
  2
Basic
 70
     7
 71
     1
 72
     0
 73
     1
 90
        0
 40
-0.6
 41
-30.0
 62
     5
 63
     7
 74
     0
 91
        4
 64
     7
 65
   257
 75
     1
175
     1
 42
1.0
 92
        8
 66
     7
 43
1.0
 76
     1
 77
     6
 78
     2
 67
     7
 79
     5
170
     0
171
     0
290
     0
174
     0
 93
        1
 44
0.0
173
     0
291
     1
 45
0.0
1001
ACAD
1000
AcDbSavedByObjectVersion
1070
     0
1000
AcDbSavedByObjectVersion
1070
     0
1001
ACAD
1000
AcRTDxfName
1000
VISUALSTYLE
  0
VISUALSTYLE
  5
DB
102
{ACAD_REACTORS
330
7F
102
}
330
7F
100
AcDbVisualStyle
  2
Brighten
 70
    12
 71
     2
 72
     2
 73
     0
 90
        0
 40
-0.6
 41
-30.0
 62
     5
 63
     7
 74
     1
 91
        4
 64
     7
 65
   257
 75
     1
175
     1
 42
1.0
 92
        8
 66
     7
 43
1.0
 76
     1
 77
     6
 78
     2
 67
     7
 79
     5
170
     0
171
     0
290
     0
174
     0
 93
        1
 44
50.0
173
     0
291
     1
 45
0.0
1001
ACAD
1000
AcDbSavedByObjectVersion
1070
     0
1000
AcDbSavedByObjectVersion
1070
     0
1001
ACAD
1000
AcRTDxfName
1000
VISUALSTYLE
  0
VISUALSTYLE
  5
DF
102
{ACAD_REACTORS
330
7F
102
}
330
7F
100
AcDbVisualStyle
  2
ColorChange
 70
    16
 71
     2
 72
     2
 73
     3
 90
        0
 40
-0.6
 41
-30.0
 62
     5
 63
     8
 74
     1
 91
        4
 64
     7
 65
   257
 75
     1
175
     1
 42
1.0
 92
        8
 66
     8
 43
1.0
 76
     1
 77
     6
 78
     2
 67
     7
 79
     5
170
     0
171
     0
290
     0
174
     0
 93
        1
 44
0.0
173
     0
291
     1
 45
0.0
1001
ACAD
1000
AcDbSavedByObjectVersion
1070
     0
1000
AcDbSavedByObjectVersion
1070
     0
1001
ACAD
1000
AcRTDxfName
1000
VISUALSTYLE
  0
VISUALSTYLE
  5
D9
102
{ACAD_REACTORS
330
7F
102
}
330
7F
100
AcDbVisualStyle
  2
Conceptual
 70
     9
 71
     3
 72
     2
 73
     0
 90
        0
 40
-0.6
 41
-30.0
 62
     5
 63
     7
 74
     2
 91
        2
 64
     7
 65
   257
 75
     1
175
     1
 42
40.0
 92
        8
 66
     7
 43
1.0
 76
     1
 77
     6
 78
     2
 67
     7
 79
     3
170
     0
171
     0
290
     0
174
     0
 93
        1
 44
0.0
173
     0
291
     0
 45
0.0
1001
ACAD
1000
AcDbSavedByObjectVersion
1070
     0
1000
AcDbSavedByObjectVersion
1070
     0
1001
ACAD
1000
AcRTDxfName
1000
VISUALSTYLE
  0
VISUALSTYLE
  5
DA
102
{ACAD_REACTORS
330
7F
102
}
330
7F
100
AcDbVisualStyle
  2
Dim
 70
    11
 71
     2
 72
     2
 73
     0
 90
        0
 40
-0.6
 41
-30.0
 62
     5
 63
     7
 74
     1
 91
        4
 64
     7
 65
   257
 75
     1
175
     1
 42
1.0
 92
        8
 66
     7
 43
1.0
 76
     1
 77
     6
 78
     2
 67
     7
 79
     5
170
     0
171
     0
290
     0
174
     0
 93
        1
 44
-50.0
173
     0
291
     1
 45
0.0
1001
ACAD
1000
AcDbSavedByObjectVersion
1070
     0
1000
AcDbSavedByObjectVersion
1070
     0
1001
ACAD
1000
AcRTDxfName
1000
VISUALSTYLE
  0
VISUALSTYLE
  5
DE
102
{ACAD_REACTORS
330
7F
102
}
330
7F
100
AcDbVisualStyle
  2
Facepattern
 70
    15
 71
     2
 72
     2
 73
     0
 90
        0
 40
-0.6
 41
-30.0
 62
     5
 63
     7
 74
     1
 91
        4
 64
     7
 65
   257
 75
     1
175
     1
 42
1.0
 92
        8
 66
     7
 43
1.0
 76
     1
 77
     6
 78
     2
 67
     7
 79
     5
170
     0
171
     0
290
     0
174
     0
 93
        1
 44
0.0
173
     0
291
     1
 45
0.0
1001
ACAD
1000
AcDbSavedByObjectVersion
1070
     0
1000
AcDbSavedByObjectVersion
1070
     0
1001
ACAD
1000
AcRTDxfName
1000
VISUALSTYLE
  0
VISUALSTYLE
  5
D3
102
{ACAD_REACTORS
330
7F
102
}
330
7F
100
AcDbVisualStyle
  2
Flat
 70
     0
 71
     2
 72
     1
 73
     1
 90
        2
 40
-0.6
 41
30.0
 62
     5
 63
     7
 74
     0
 91
        4
 64
     7
 65
   257
 75
     1
175
     1
 42
1.0
 92
        8
 66
     7
 43
1.0
 76
     1
 77
     6
 78
     2
 67
     7
 79
     5
170
     0
171
     0
290
     0
174
     0
 93
       13
 44
0.0
173
     0
291
     1
 45
0.0
1001
ACAD
1000
AcDbSavedByObjectVersion
1070
     0
1000
AcDbSavedByObjectVersion
1070
     0
1001
ACAD
1000
AcRTDxfName
1000
VISUALSTYLE
  0
VISUALSTYLE
  5
D4
102
{ACAD_REACTORS
330
7F
102
}
330
7F
100
AcDbVisualStyle
  2
FlatWithEdges
 70
     1
 71
     2
 72
     1
 73
     1
 90
        2
 40
-0.6
 41
30.0
 62
     5
 63
     7
 74
     1
 91
        4
 64
     7
 65
   257
 75
     1
175
     1
 42
1.0
 92
        0
 66
   257
 43
1.0
 76
     1
 77
     6
 78
     2
 67
     7
 79
     5
170
     0
171
     0
290
     0
174
     0
 93
       13
 44
0.0
173
     0
291
     1
 45
0.0
1001
ACAD
1000
AcDbSavedByObjectVersion
1070
     0
1000
AcDbSavedByObjectVersion
1070
     0
1001
ACAD
1000
AcRTDxfName
1000
VISUALSTYLE
  0
VISUALSTYLE
  5
D5
102
{ACAD_REACTORS
330
7F
102
}
330
7F
100
AcDbVisualStyle
  2
Gouraud
 70
     2
 71
     2
 72
     2
 73
     1
 90
        2
 40
-0.6
 41
30.0
 62
     5
 63
     7
 74
     0
 91
        4
 64
     7
 65
   257
 75
     1
175
     1
 42
1.0
 92
        0
 66
     7
 43
1.0
 76
     1
 77
     6
 78
     2
 67
     7
 79
     5
170
     0
171
     0
290
     0
174
     0
 93
       13
 44
0.0
173
     0
291
     1
 45
0.0
1001
ACAD
1000
AcDbSavedByObjectVersion
1070
     0
1000
AcDbSavedByObjectVersion
1070
     0
1001
ACAD
1000
AcRTDxfName
1000
VISUALSTYLE
  0
VISUALSTYLE
  5
D6
102
{ACAD_REACTORS
330
7F
102
}
330
7F
100
AcDbVisualStyle
  2
GouraudWithEdges
 70
     3
 71
     2
 72
     2
 73
     1
 90
        2
 40
-0.6
 41
30.0
 62
     5
 63
     7
 74
     1
 91
        4
 64
     7
 65
   257
 75
     1
175
     1
 42
1.0
 92
        0
 66
   257
 43
1.0
 76
     1
 77
     6
 78
     2
 67
     7
 79
     5
170
     0
171
     0
290
     0
174
     0
 93
       13
 44
0.0
173
     0
291
     1
 45
0.0
1001
ACAD
1000
AcDbSavedByObjectVersion
1070
     0
1000
AcDbSavedByObjectVersion
1070
     0
1001
ACAD
1000
AcRTDxfName
1000
VISUALSTYLE
  0
VISUALSTYLE
  5
DD
102
{ACAD_REACTORS
330
7F
102
}
330
7F
100
AcDbVisualStyle
  2
Linepattern
 70
    14
 71
     2
 72
     2
 73
     0
 90
        0
 40
-0.6
 41
-30.0
 62
     5
 63
     7
 74
     1
 91
        4
 64
     7
 65
   257
 75
     7
175
     7
 42
1.0
 92
        8
 66
     7
 43
1.0
 76
     1
 77
     6
 78
     2
 67
     7
 79
     5
170
     0
171
     0
290
     0
174
     0
 93
        1
 44
0.0
173
     0
291
     1
 45
0.0
1001
ACAD
1000
AcDbSavedByObjectVersion
1070
     0
1000
AcDbSavedByObjectVersion
1070
     0
1001
ACAD
1000
AcRTDxfName
1000
VISUALSTYLE
  0
VISUALSTYLE
  5
A5
102
{ACAD_REACTORS
330
7F
102
}
330
7F
100
AcDbVisualStyle
  2
Realistic
 70
     8
 71
     2
 72
     2
 73
     0
 90
        0
 40
-0.6
 41
-30.0
 62
     5
 63
     7
 74
     1
 91
        0
 64
     7
 65
   257
 75
     1
175
     1
 42
1.0
 92
        8
 66
     8
 43
1.0
 76
     1
 77
     6
 78
     2
 67
     7
 79
     5
170
     0
171
     0
290
     0
174
     0
 93
       13
 44
0.0
173
     0
291
     0
 45
0.0
1001
ACAD
1000
AcDbSavedByObjectVersion
1070
     0
1000
AcDbSavedByObjectVersion
1070
     0
1000
AcDbSavedByObjectVersion
1070
     0
1001
ACAD
1000
AcRTDxfName
1000
VISUALSTYLE
  0
VISUALSTYLE
  5
DC
102
{ACAD_REACTORS
330
7F
102
}
330
7F
100
AcDbVisualStyle
  2
Thicken
 70
    13
 71
     2
 72
     2
 73
     0
 90
        0
 40
-0.6
 41
-30.0
 62
     5
 63
     7
 74
     1
 91
        4
 64
     7
 65
   257
 75
     1
175
     1
 42
1.0
 92
       12
 66
     7
 43
1.0
 76
     1
 77
     6
 78
     2
 67
     7
 79
     5
170
     0
171
     0
290
     0
174
     0
 93
        1
 44
0.0
173
     0
291
     1
 45
0.0
1001
ACAD
1000
AcDbSavedByObjectVersion
1070
     0
1000
AcDbSavedByObjectVersion
1070
     0
1001
ACAD
1000
AcRTDxfName
1000
VISUALSTYLE
  0
DICTIONARYVAR
  5
AA
102
{ACAD_REACTORS
330
A9
102
}
330
A9
100
DictionaryVariables
280
     0
  1
STANDARD
  0
DICTIONARYVAR
  5
AE
102
{ACAD_REACTORS
330
A9
102
}
330
A9
100
DictionaryVariables
280
     0
  1
2
  0
DICTIONARYVAR
  5
AD
102
{ACAD_REACTORS
330
A9
102
}
330
A9
100
DictionaryVariables
280
     0
  1
1
  0
DICTIONARYVAR
  5
AC
102
{ACAD_REACTORS
330
A9
102
}
330
A9
100
DictionaryVariables
280
     0
  1
0
  0
DICTIONARYVAR
  5
16A
102
{ACAD_REACTORS
330
A9
102
}
330
A9
100
DictionaryVariables
280
     0
  1

  0
DICTIONARYVAR
  5
AB
102
{ACAD_REACTORS
330
A9
102
}
330
A9
100
DictionaryVariables
280
     0
  1
127
  0
DICTIONARY
  5
83
330
82
100
AcDbDictionary
280
     1
281
     1
  3
ACAD_XREC_ROUNDTRIP
360
1EA4
  3
ADSK_XREC_LAYOUTTHUMBNAIL
360
84
  0
DICTIONARY
  5
1EA5
330
89
100
AcDbDictionary
280
     1
281
     1
  3
ACAD_XREC_ROUNDTRIP
360
1EA6
  0
DICTIONARY
  5
1E9E
330
77
100
AcDbDictionary
280
     1
281
     1
  3
ACAD_XREC_ROUNDTRIP
360
1E9F
  0
DICTIONARY
  5
C7
330
A0
100
AcDbDictionary
280
     1
281
     1
  3
ACAD_XREC_ROUNDTRIP
360
C8
  0
DICTIONARY
  5
C5
330
9F
100
AcDbDictionary
280
     1
281
     1
  3
ACAD_XREC_ROUNDTRIP
360
C6
  0
DICTIONARY
  5
B1
330
A
100
AcDbDictionary
280
     1
281
     1
  3
ACAD_XREC_ROUNDTRIP
360
B2
  0
DICTIONARY
  5
155
330
A4
100
AcDbDictionary
280
     1
281
     1
  3
ACAD_XREC_ROUNDTRIP
360
156
  0
XRECORD
  5
1EA4
102
{ACAD_REACTORS
330
83
102
}
330
83
100
AcDbXrecord
280
     1
102
SHADEPLOT
 70
     0
102
SHADEPLOTRESLEVEL
 70
     2
102
SHADEPLOTCUSTOMDPI
 70
   300
  0
XRECORD
  5
84
102
{ACAD_REACTORS
330
83
102
}
330
83
100
AcDbXrecord
280
     1
310
28000000B40000007F00000001000800000000004C59000000000000000000000001000000000000FFFFFF0000000000FFFFFF000000000000000000000000000000000000000000000000000000000000000000330000006600000099000000CC000000FF00000000330000333300006633000099330000CC330000FF3300
310
0000660000336600006666000099660000CC660000FF66000000990000339900006699000099990000CC990000FF99000000CC000033CC000066CC000099CC0000CCCC0000FFCC000000FF000033FF000066FF000099FF0000CCFF0000FFFF000000003300330033006600330099003300CC003300FF003300003333003333
310
33006633330099333300CC333300FF33330000663300336633006666330099663300CC663300FF66330000993300339933006699330099993300CC993300FF99330000CC330033CC330066CC330099CC3300CCCC3300FFCC330000FF330033FF330066FF330099FF3300CCFF3300FFFF330000006600330066006600660099
310
006600CC006600FF00660000336600333366006633660099336600CC336600FF33660000666600336666006666660099666600CC666600FF66660000996600339966006699660099996600CC996600FF99660000CC660033CC660066CC660099CC6600CCCC6600FFCC660000FF660033FF660066FF660099FF6600CCFF6600
310
FFFF660000009900330099006600990099009900CC009900FF00990000339900333399006633990099339900CC339900FF33990000669900336699006666990099669900CC669900FF66990000999900339999006699990099999900CC999900FF99990000CC990033CC990066CC990099CC9900CCCC9900FFCC990000FF99
310
0033FF990066FF990099FF9900CCFF9900FFFF99000000CC003300CC006600CC009900CC00CC00CC00FF00CC000033CC003333CC006633CC009933CC00CC33CC00FF33CC000066CC003366CC006666CC009966CC00CC66CC00FF66CC000099CC003399CC006699CC009999CC00CC99CC00FF99CC0000CCCC0033CCCC0066CC
310
CC0099CCCC00CCCCCC00FFCCCC0000FFCC0033FFCC0066FFCC0099FFCC00CCFFCC00FFFFCC000000FF003300FF006600FF009900FF00CC00FF00FF00FF000033FF003333FF006633FF009933FF00CC33FF00FF33FF000066FF003366FF006666FF009966FF00CC66FF00FF66FF000099FF003399FF006699FF009999FF00CC
310
99FF00FF99FF0000CCFF0033CCFF0066CCFF0099CCFF00CCCCFF00FFCCFF0000FFFF0033FFFF0066FFFF0099FFFF00CCFFFF00FFFFFF00000000000D0D0D001A1A1A00282828003535350043434300505050005D5D5D006B6B6B00787878008686860093939300A1A1A100AEAEAE00BBBBBB00C9C9C900D6D6D600E4E4E400
310
F1F1F100FFFFFF0000000000000000000000000000000000000000000000000000000000000000000000000000000000E2E2E2E2E2E2E2E2E2E2E2E2E2E2E2E2E2E2E2E2E2E2E2E2E2E2E2E2E2E2E2E2E2E2E2E2E2E2E2E2E2E2E2E2E2E2E2E2E2E2E2E2E2E2E2E2E2E2E2E2E2E2E2E2E2E2E2E2E2E2E2E2E2E2E2E2E2E2E2
310
E2E2E2E2E2E2E2E2E2E2E2E2E2E2E2E2E2E2E2E2E2E2E2E2E2E2E2E2E2E2E2E2E2E2E2E2E2E2E2E2E2E2E2E2E2E2E2E2E2E2E2E2E2E2E2E2E2E2E2E2E2E2E2E2E2E2E2E2E2E2E2E2E2E2E2E2E2E2E2E2E2E2E2E2E2E2E2E2E2E2E2E2E2E2E2E2E2E2E2E2E2E2F5F5F5F5F5F5F5F5F5F5F5F5F5F5F5F5F5F5F5F5F5F5F5F5F5
310
F5F5F5F5F5F5F5F5F5F5F5F5F5F5F5F5F5F5F5F5F5F5F5F5F5F5F5F5F5F5F5F5F5F5F5F5F5F5F5F5F5F5F5F5F5F5F5F5F5F5F5F5F5F5F5F5F5F5F5F5F5F5F5F5F5F5F5F5F5F5F5F5F5F5F5F5F5F5F5F5F5F5F5F5F5F5F5F5F5F5F5F5F5F5F5F5F5F5F5F5F5F5F5F5F5F5F5F5F5F5F5F5F5F5F5F5F5F5F5F5F5F5F5F5F5F5F5
310
F5F5F5F5F5F5F5F5F5F5F5F5F5F5F5F5F5F5F5F5F5F5F5F5F5F5E2E2F5E2E2E2E2E2E2E2E2E2F5F5F5F5F5F5F5F5F5E2E2E2E2E2E2E2E2E2E2E2E2E2E2E2E2F5F5F5F5F5F5F5F5F5E2E2E2E2E2E2E2E2E2E2E2E2E2E2E2E2F5F5F5F5F5F5F5F5F5E2E2E2E2E2E2E2E2E2E2E2E2E2E2E2E2F5F5F5F5F5F5F5F5F5E2E2E2E2E2
310
E2E2E2E2E2E2E2E2E2E2E2F5F5F5F5F5F5F5F5F5E2E2E2E2E2E2E2E2E2E2E2E2E2E2E2E2F5F5F5F5F5F5F5F5F5E2E2E2E2E2E2E2E2E2E2E2E2E2E2E2E2F5F5F5F5F5F5F5F5F5E2E2E2E2E2E2E2E2F5E2E2F5E2F5F5F5F5F5F5F5F5F5F5F5F5F5F5F5F5F5F5F5F5F5F5F5F5F5F5F5F5F5F5F5F5F5F5F5F5F5F5F5F5F5F5F5F5
310
F5F5F5F5F5F5F5F5F5F5F5F5F5F5F5F5F5F5F5F5F5F5F5F5F5F5F5F5F5F5F5F5F5F5F5F5F5F5F5F5F5F5F5F5F5F5F5F5F5F5F5F5F5F5F5F5F5F5F5F5F5F5F5F5F5F5F5F5F5F5F5F5F5F5F5F5F5F5F5F5F5F5F5F5F5F5F5F5F5F5F5F5F5F5F5F5F5F5F5F5F5F5F5F5F5F5F5F5F5F5F5F5F5F5F5F5F5F5F5F5F5F5F5F5F5F5F5
310
F5F5F5E2F5E2E2F5E2F5F5F5F5F5F5F5F5F5F5F5F5F5F5F5F5F5F5F5F5F5F5F5F5F5F5F5F5F5F5F5F5F5F5F5F5F5F5F5F5F5F5F5F5F5F5F5F5F5F5F5F5F5F5F5F5F5F5F5F5F5F5F5F5F5F5F5F5F5F5F5F5F5F5F5F5F5F5F5F5F5F5F5F5F5F5F5F5F5F5F5F5F5F5F5F5F5F5F5F5F5F5F5F5F5F5F5F5F5F5F5F5F5F5F5F5F5F5
310
F5F5F5F5F5F5F5F5F5F5F5F5F5F5F5F5F5F5F5F5F5F5F5F5F5F5F5F5F5F5F5F5F5F5F5F5F5F5F5F5F5F5F5F5F5F5F5F5F5F5F5F5F5F5F5F5E2F5E2E2F5E2F5F5F5F5F5F5F5F5F5F5F5F5F5F5F5F5F5F5F5F5F5F5F5F5F5F5F5F5F5F5F5F5F5F5F5F5F5F5F5F5F5F5F5F5F5F5F5F5F5F5F5F5F5F5F5F5F5F5F5F5F5F5F5F5F5
310
F5F5F5F5F5F5F5F5F5F5F5F5F5F5F5F5F5F5F5F5F5F5F5F5F5F5F5F5F5F5F5F5F5F5F5F5F5F5F5F5F5F5F5F5F5F5F5F5F5F5F5F5F5F5F5F5F5F5F5F5F5F5F5F5F5F5F5F5F5F5F5F5F5F5F5F5F5F5F5F5F5F5F5F5F5F5F5F5F5F5F5F5F5F5F5F5F5F5F5F5F5F5F5F5F5F5F5F5F5E2F5E2E2F5E2F5F5F5F5F5F5F5F5F5F5F5F5
310
F5F5F5F5F5F5F5F5F5F5F5F5F5F5F5F5F5F5F5F5F5F5F5F5F5F5F5F5F5F5F5F5F5F5F5F5F5F5F5F5F5F5F5F5F5F5F5F5F5F5F5F5F5F5F5F5F5F5F5F5F5F5F5F5F5F5F5F5F5F5F5F5F5F5F5F5F5F5F5F5F5F5F5F5F5F5F5F5F5F5F5F5F5F5F5F5F5F5F5F5F5F5F5F5F5F5F5F5F5F5F5F5F5F5F5F5F5F5F5F5F5F5F5F5F5F5F5
310
F5F5F5F5F5F5F5F5F5F5F5F5F5F5F5F5F5F5F5F5F5F5F5F5F5F5F5F5F5F5F5F5F5F5F5E2F5E2E2F5E2F5F5F5F5F5F5F5F5F5F5F5F5F5F5F5F5F5F5F5F5F5F5F5F5F5F5F5F5F5F5F5F5F5F5F5F5F5F5F5F5F5F5F5F5F5F5F5F5F5F5F5F5F5F5F5F5F5F5F5F5F5F5F5F5F5F5F5F5F5F5F5F5F5F5F5F5F5F5F5F5F5F5F5F5F5F5
310
F5F5F5F5F5F5F5F5F5F5F5F5F5F5F5F5F5F5F5F5F5F5F5F5F5F5F5F5F5F5F5F5F5F5F5F5F5F5F5F5F5F5F5F5F5F5F5F5F5F5F5F5F5F5F5F5F5F5F5F5F5F5F5F5F5F5F5F5F5F5F5F5F5F5F5F5F5F5F5F5F5F5F5F5F5F5F5F5E2F5E2E2F5E2F5F5F5F5F5F5F5F5F5F5F5F5F5F5F5F5F5F5F5F5F5F5F5F5F5F5F5F5F5F5F5F5F5
310
F5F5F5F5F5F5F5F5F5F5F5F5F5F5F5F5F5F5F5F5F5F5F5F5F5F5F5F5F5F5F5F5F5F5F5F5F5F5F5F5F5F5F5F5F5F5F5F5F5F5F5F5F5F5F5F5F5F5F5F5F5F5F5F5F5F5F5F5F5F5F5F5F5F5F5F5F5F5F5F5F5F5F5F5F5F5F5F5F5F5F5F5F5F5F5F5F5F5F5F5F5F5F5F5F5F5F5F5F5F5F5F5F5F5F5F5F5F5F5F5F5F5F5F5F5F5F5
310
F5F5F5F5F5F5F5F5F5F5F5F5F5F5E2F5E2E2F5E2F5F5F5F5F5F5F5F5F5F5F5F5F5F5F5F5F5F5F5F5F5F5F5F5F5F5F5F5F5F5F5F5F5F5F5F5F5F5F5F5F5F5F5F5F5F5F5F5F5F5F5F5F5F5F5F5F5F5F5F5F5F5F5F5F5F5F5F5F5F5F5F5F5F5F5F5F5F5F5F5F5F5F5F5F5F5F5F5F5F5F5F5F5F5F5F5F5F5F5F5F5F5F5F5F5F5F5
310
F5F5F5F5F5F5F5F5F5F5F5F5F5F5F5F5F5F5F5F5F5F5F5F5F5F5F5F5F5F5F5F5F5F5F5F5F5F5F5F5F5F5F5F5F5F5F5F5F5F5F5F5F5F5F5F5F5F5F5F5F5F5F5F5F5F5F5E2F5E2E2F5F5F5F5F5F5F5F5F5F5F5F5F5F5F5F5F5F5F5F5F5F5F5F5F5F5F5F5F5F5F5F5F5F5F5F5F5F5F5F5F5F5F5F5F5F5F5F5F5F5F5F5F5F5F5F5
310
F5F5F5F5F5F5F5F5F5F5F5F5F5F5F5F5F5F5F5F5F5F5F5F5F5F5F5F5F5F5F5F5F5F5F5F5F5F5F5F5F5F5F5F5F5F5F5F5F5F5F5F5F5F5F5F5F5F5F5F5F5F5F5F5F5F5F5F5F5F5F5F5F5F5F5F5F5F5F5F5F5F5F5F5F5F5F5F5F5F5F5F5F5F5F5F5F5F5F5F5F5F5F5F5F5F5F5F5F5F5F5F5F5F5F5F5F5F5F5F5F5F5E2E2F5F5F5
310
F5F5F5F5F5F5F5F5F5F5F5F5F5F5F5F5F5F5F5F5F5F5F5F5F5F5F5F5F5F5F5F5F5F5F5F5F5F5F5F5F5F5F5F5F5F5F5F5F5F5F5F5F5F5F5F5F5F5F5F5F5F5F5F5F5F5F5F5F5F5F5F5F5F5F5F5F5F5F5F5F5F5F5F5F5F5F5F5F5F5F5F5F5F5F5F5F5F5F5F5F5F5F5F5F5F5F5F5F5F5F5F5F5F5F5F5F5F5F5F5F5F5F5F5F5F5F5
310
F5F5F5F5F5F5F5F5F5F5F5F5F5F5F5F5F5F5F5F5F5F5F5F5F5F5F5F5F5F5F5F5F5F5F5F5F5F5F5F5F5F5F5F5F5F5F5F5E2E2F5F5F5F5F5F5F5F5F5F5F5F5F5F5F5F5F5F5F5F5F5F5F5F5F5F5F5F5F5F5F5F5F5F5F5F5F5F5F5F5F5F5F5F5F5F5F5F5F5F5F5F5F5F5F5F5F5F5F5F5F5F5F5F5F5F5F5F5F5F5F5F5F5F5F5F5F5
310
F5F5F5F5F5F5F5F5F5F5F5F5F5F5F5F5F5F5F5F5F5F5F5F5F5F5F5F5F5F5F5F5F5F5F5F5F5F5F5F5F5F5F5F5F5F5F5F5F5F5F5F5F5F5F5F5F5F5F5F5F5F5F5F5F5F5F5F5F5F5F5F5F5F5F5F5F5F5F5F5F5F5F5F5F5F5F5F5F5F5F5F5F5F5F5F5F5F5F5F5F5E2E2F5F5F5F5F5F5F5F5F5F5F5F5F5F5F5F5F5F5F5F5F5F5F5F5
310
F5F5F5F5F5F5F5F5F5F5F5F5F5F5F5F5F5F5F5F5F5F5F5F5F5F5F5F5F5F5F5F5F5F5F5F5F5F5F5F5F5F5F5F5F5F5F5F5F5F5F5F5F5F5F5F5F5F5F5F5F5F5F5F5F5F5F5F5F5F5F5F5F5F5F5F5F5F5F5F5F5F5F5F5F5F5F5F5F5F5F5F5F5F5F5F5F5F5F5F5F5F5F5F5F5F5F5F5F5F5F5F5F5F5F5F5F5F5F5F5F5F5F5F5F5F5F5
310
F5F5F5F5F5F5F5F5F5F5F5F5F5F5F5F5F5F5F5F5F5F5F5F5F5F5F5E2E2F5F5F5F5F5F5F5F5F5F5F5F5F5F5F5F5F5F5F5DCDCDCDCDCDCDCDCDCDCDCDCDCDCDCDCDCDCDCDCDCDCDCDCDCDCDCDCDCDCDCDCDCDCDCDCDCDCDCDCDCDCDCDCDCDCDCDCDCDCDCDCDCDCDCDCDCDCDCDCDCDCDCDCDCDCDCDCDCDCDCDCDCDCDCDCDCDCDC
310
DCDCDCDCDCDCDCDCDCDCDCDCDCDCDCDCDCDCDCDCDCDCDCDCDCDCDCDCDCDCDCDCDCDCDCDCDCDCDCDCDCDCDCDCDCDCDCDCDCDCDCDCDCDCDCDCDCDCDCDCDCF5F5F5F5F5F5F5F5F5F5F5F5F5F5F5F5F5F5F5E2E2F5F5F5F5F5F5F5F5F5F5F5F5F5F5F5F5F5F5F5DCDCDCDCDCDCDCDCDCDCDCDCDCDCDCDCDCDCDCDCDCDCDCDCDCDC
310
DCDCDCDCDCDCDCDCDCDCDCDCDCDCDCDCDCDCDCDCDCDCDCDCDCDCDCDCDCDCDCDCDCDCDCDCDCDCDCDCDCDCDCDCDCDCDCDCDCDCDCDCDCDCDCDCDCDCDCDCDCDCDCDCDCDCDCDCDCDCDCDCDCDCDCDCDCDCDCDCDCDCDCDCDCDCDCDCDCDCDCDCDCDCDCDCDCDCDCDCDCDCDCDCDCDCDCDCDCDCDCDCDCDCF5F5F5F5F5F5F5F5F5F5F5F5F5
310
F5F5F5F5F5F5E2E2F5F5F5F5F5F5F5F5F5F5F5F5F5F5F5F5F5F5F5DCF5F5F5F5F5F5F5F5F5F5F5F5F5F5F5F5F5F5F5F5F5F5F5F5F5F5F5F5F5F5F5F5F5F5F5F5F5F5F5F5F5F5F5F5F5F5F5F5F5F5F5F5F5F5F5F5F5F5F5F5F5F5F5F5F5F5F5F5F5F5F5F5F5F5F5F5F5F5F5F5F5F5F5F5F5F5F5F5F5F5F5F5F5F5F5F5F5F5F5
310
F5F5F5F5F5F5F5F5F5F5F5F5F5F5F5F5F5F5F5F5F5F5F5F5F5F5F5F5F5F5F5F5F5F5F5F5F5F5F5DCF5F5F5F5F5F5F5F5F5F5F5F5F5F5F5F5F5F5F5E2E2F5F5F5F5F5F5F5F5F5F5F5F5F5F5F5F5F5F5F5DCF5282828282828282828282828282828282828282828282828282828282828282828282828282828282828282828
310
28282828282828282828282828282828282828282828282828282828282828282828282828282828282828282828282828282828282828282828282828282828282828282828282828282828282828282828282828282828282828F5DCF5F5F5F5F5F5F5F5F5F5F5F5F5F5F5F5F5F5F5E2E2F5F5F5F5F5F5F5F5F5F5F5F5F5
310
F5F5F5F5F5F5DCF5282D2D2D2D2D2D2D2D2D2D2D2D2D2D2D2D2D2D2D2D2DF5F5F5F5F5F5F5F5F5F5F5F5F5F5F5F5F5F5F5F5F5F5F5F5F5F5F5F5F5F5F5F5F5F5F5F5F5F5F5F5F5F5F5F5F528F5F5F5F5F5F5F5F5F5F5F5F5F5F5F5F5F5F5F5F5F5F5F5F5F5F5F5F5F5F5F5F5F5F5F5F5F5F5F5F5F5F5F5F5F5F5F5F5F5F5F5
310
F5F5F5F5F5F5F5F5F5F5F5F5F5F5F5F528F5DCF5F5F5F5F5F5F5F5F5F5F5F5F5F5F5F5F5F5F5E2E2F5E2F5F5F5F5F5F5F5F5F5F5F5F5F5F5F5F5F5DCF5282D2D2D2D2D2D2D2D2D2D2D2D2D2D2D2D2D2D2D2D2D2D2D2D2D2D2D2D2DF5F5F5F5F5F5F5F5F5F5F5F5F5F5F5F5F5F5F5F5F5F5F5F5F5F5F5F5F5F5F5F5F5F5F5F5
310
F528F5F5F5F5F5F5F5F5F5F5F5F5F5F5F5F5F5F5F5F5F5F5F5F5F5F5F5F5F5F5F5F5F5F5F5F5F5F5F5F5F5F5F5F5F5F5F5F5F5F5F5F5F5F5F5F5F5F5F5F5F5F5F5F5F5F5F528F5DCF5F5F5F5F5F5F5F5F5F5F5F5F5F5F5F5F5E2F5E2E2F5E2F5F5F5F5F5F5F5F5F5F5F5F5F5F5F5F5F5DCF5282D2D2D2D2D2D2D2D2D2D2D2D
310
2D2D2D2D2D2D2D2D2D2D2D2D2D2D2D2D2DF5F5F5F5F5F5F5F5F5F5F5F5F5F5F5F5F5F5F5F5F5F5F5F5F5F5F5F5F5F5F5F5F5F5F5F5F528F5F5F5F5F5F5F5F52D2D2D2D2D2D2D2D2D2D2D2D2D2D2D2D2D2D2D2D2D2D2D2D2D2D2D2D2D2D2D2D2D2D2D2D2D2D2D2D2D2D2D2D2D2D2D2D2D2D2DF5F5F5F5F5F5F5F528F5DCF5F5
310
F5F5F5F5F5F5F5F5F5F5F5F5F5F5F5E2F5E2E2F5E2F5F5F5F5F5F5F5F5F5F5F5F5F5F5F5F5F5DCF5282D2D2D2D2D2D2D2D2D2D2D2D2D2D2D2D2D2D2D2D2D2D2D2D2D2D2D2D2D2D2D2D2D2D2D2D2D2D2D2D2D2D2D2D2D2D2D2D2D2D2D2D2D2D2D2D2D2D2D2D2D2D2D2D2D2D28F5F5F5F5F5F5F5F52D2D2D2D2D2D2D2D2D2D2D
310
2D2D2D2D2D2D2D2D2D2D2D2D2D2D2D2D2D2D2D2D2D2D2D2D2D2D2D2D2D2D2D2D2D2D2D2D2D2D2D2DF5F5F5F5F5F5F5F528F5DCF5F5F5F5F5F5F5F5F5F5F5F5F5F5F5F5F5E2F5E2E2F5E2F5F5F5F5F5F5F5F5F5F5F5F5F5F5F5F5F5DCF5282D2D2D2D2D2D2D2D2D2D2D2D2D2D2D2D2D2D2D2D2D2D2D2D2D2D2D2D2D2D2D2D2D
310
2D2D2D2D2D2D2D2D2D2D2D2D2D2D2D2D2D2D2D2D2D2D2D2D2D2D2D2D2DF5F5F5F528F5F5F5F5F5F5F5F5F5F5F5F52D2D2D2D2D2D2D2D2D2D2D2D2D2D2D2D2D2D2D2D2D2D2D2D2D2D2D2D2D2D2D2D2D2D2D2D2D2D2D2D2D2DF5F5F5F5F5F5F5F5F5F5F5F5F528F5DCF5F5F5F5F5F5F5F5F5F5F5F5F5F5F5F5F5E2F5E2E2F5E2
310
F5F5F5F5F5F5F5F5F5F5F5F5F5F5F5F5F5DCF5282D2D2D2D2D2D2D2D2D2D2D2D2D2D2D2D2D2D2D2D2D2D2D2D2D2D2D2D2D2D2D2D2D2D2D2D2D2D2D2D2D2D2D2D2D2D2D2D2D2D2D2D2D2D2D2D2D2D2D2D2D2DF5F5F5F528F5F5F5F5F5F5F5F5F5F5F5F52D2D2D2D2D2D2D2D2D2D2D2D2D2D2D2D2D2D2D2D2D2D2D2D2D2D2D2D
310
2D2D2D2D2D2D2D2D2D2D2D2D2D2DF5F5F5F5F5F5F5F5F5F5F5F5F528F5DCF5F5F5F5F5F5F5F5F5F5F5F5F5F5F5F5F5E2F5E2E2F5E2F5F5F5F5F5F5F5F5F5F5F5F5F5F5F5F5F5DCF5282D2D2D2D2D2D2D2D2D2D2D2D2D2D2D2D2D2D2D2D2D2D2D2D2D2D2D2D2D2D2D2D2D2D2D2D2D2D2D2D2D2D2D2D2D2D2D2D2D2D2D2D2D2D
310
2D2D2D2D2DF5F5F5F5F5F5F528F5F5F5F5F5F5F5F5F5F5F5F5F5F5F5F5F5F5F5F5F5F5F5F5F5F5F5F52D2D2D2D2D2D2D2D2D2DF5F5F5F5F5F5F5F5F5F5F5F5F5F5F5F5F5F5F5F5F5F5F5F5F5F5F5F5F528F5DCF5F5F5F5F5F5F5F5F5F5F5F5F5F5F5F5F5E2F5E2E2F5E2F5F5F5F5F5F5F5F5F5F5F5F5F5F5F5F5F5DCF5282D
310
2D2D2D2D2D2D2D2D2D2D2D2D2D2D2D2D2D2D2D2D2D2D2D2D2D2D2D2D2D2D2DF5F5F5F5F5F5F5F5F5F5F5F5F5F5F5F5F5F5F5F5F5F5F5F5F5F5F5F5F5F5F5F5F5F528F5F5F5F5F5F5F5F5F5F5F5F5F5F5F5F5F5F5F5F5F5F5F5F5F5F5F5F52D2D2D2D2D2D2D2D2D2DF5F5F5F5F5F5F5F5F5F5F5F5F5F5F5F5F5F5F5F5F5F5F5
310
F5F5F5F5F5F528F5DCF5F5F5F5F5F5F5F5F5F5F5F5F5F5F5F5F5E2F5E2E2F5E2F5F5F5F5F5F5F5F5F5F5F5F5F5F5F5F5F5DCF5282D2D2D2D2D2D2D2D2D2D2D2D2D2D2D2D2D2D2D2D2D2D2D2D2D2D2D2D2D2D2D2DF5F5F5F5F5F5F5F5F5F5F5F5F5F5F5F5F5F5F5F5F5F5F5F5F5F5F5F5F5F5F5F5F5F528F5F5F5F5F5F5F5F5
310
F5F5F5F5F5F5F5F5F5F5F5F5F5F5F5F5F5F5F5F52D2D2D2D2D2D2D2D2D2DF5F5F5F5F5F5F5F5F5F5F5F5F5F5F5F5F5F5F5F5F5F5F5F5F5F5F5F5F528F5DCF5F5F5F5F5F5F5F5F5F5F5F5F5F5F5F5F5E2F5E2E2F5E2F5F5F5F5F5F5F5F5F5F5F5F5F5F5F5F5F5DCF5282D2D2D2D2D2D2D2D2D2D2D2D2D2D2D2D2D2D2D2D2D2D
310
2D2D2D2D2D2D2D2D2D2D2D2D2D2D2D2D2D2D2D2D2D2D2D2D2D2D2D2D2D2D2D2D2D2D2D2D2D2D2D2D2D2DF5F528F5F5F5F5F5F5F5F5F5F5F5F5F5F5F5F5F5F5F5F5F5F5F5F5F5F5F5F5F5F5F5F5F5F5F5F5F5F5F5F5F5F5F5F5F5F5F5F5F5F5F5F5F5F5F5F5F5F5F5F5F5F5F5F5F5F5F528F5DCF5F5F5F5F5F5F5F5F5F5F5F5
310
F5F5F5F5F5E2F5E2E2F5E2F5F5F5F5F5F5F5F5F5F5F5F5F5F5F5F5F5DCF528F5F5F5F5F5F5F5F5F5F5F5F5F5F5F5F5F5F5F5F5F5F5F5F5F5F5F5F5F5F5F5F5F5F5F5F5F5F5F5F5F5F5F5F5F5F5F5F5F5F5F5F5F5F5F5F5F5F5F5F5F5F5F5F5F5F528F5F5F5F5F5F5F5F5F5F5F5F5F5F5F5F5F5F5F5F5F5F5F5F5F5F5F5F5F5
310
F5F5F5F5F5F5F5F5F5F5F5F5F5F5F5F5F5F5F5F5F5F5F5F5F5F5F5F5F5F5F5F5F5F5F5F5F5F528F5DCF5F5F5F5F5F5F5F5F5F5F5F5F5F5F5F5F5E2F5E2E2F5E2F5F5F5F5F5F5F5F5F5F5F5F5F5F5F5F5F5DCF52828282828282828282828282828282828282828282828282828282828282828282828282828282828282828
310
2828282828282828282828282828282828282828282828282828282828282828282828282828282828282828282828282828282828282828282828282828282828282828282828282828282828282828282828282828282828282828F5DCF5F5F5F5F5F5F5F5F5F5F5F5F5F5F5F5F5E2F5E2E2F5E2F5F5F5F5F5F5F5F5F5F5
310
F5F5F5F5F5F5F5DCF528F5F5F5F5F5F5F5F5F5F5F5F5F5F5F5F5F5F5F5F5F5F5F5F5F5F5F5F5F5F5F5F5F5F5F5F5F5F5F5F5F5F5F5F5F5F5F5F5F5F5F5F5F5F5F5F5F5F5F5F5F5F5F5F5F5F5F5F5F5F5F5F5F5F5F5F5F5F5F5F5F5F5F5F5F5F5F5F5F5F5F5F5F5F5F5F5F5F5F5F5F5F5F5F5F5F5F5F5F5F5F5F5F5F5F5F5F5
310
F5F5F5F5F5F5F5F5F5F5F5F5F5F5F5F5F528F5DCF5F5F5F5F5F5F5F5F5F5F5F5F5F5F5F5F5E2F5E2E2F5E2F5F5F5F5F5F5F5F5F5F5F5F5F5F5F5F5F5DCF528F5F5F5F5F5F5F5F5F5F5F5F5F5F5F5F5F5F5F5F5F5F5F5F5F5F5F5F5F5F5F5F5F5F5F5F5F5F5F5F5F5F5F5F5F5F5F5F5F5F5F5F5F5F5F5F5F5F5F5F5F5F5F5F5
310
F5F5F5F5F5F5F5F5F5F5F5F5F5F5F5F5F5F5F5F5F5F5F5F5F5F5F5F5F5F5F5F5F5F5F5F5F5F5F5F5F5F5F5F5F5F5F5F5F5F5F5F5F5F5F5F5F5F5F5F5F5F5F5F5F5F5F5F5F5F528F5DCF5F5F5F5F5F5F5F5F5F5F5F5F5F5F5F5F5E2F5E2E2F5E2F5F5F5F5F5F5F5F5F5F5F5F5F5F5F5F5F5DCF528F5F5F5F5F5F5F5F5F5F5F5
310
F5F5F5F5F5F5F5F5F5F5F5F5F5F5F5F5F5F5F5F5F5F5F5F5F5F5F5F5F5F5F5F5F5F5F5F5F5F5F5F5F5F5F5F5F5F5F5F5F5F5F5F5F5F5F5F5F5F5F5F5F5F5F5F5F5F5F5F5F5F5F5F5F5F5F5F5F5F5F5F5F5F5F5F5F5F5F5F5F5F5F5F5F5F5F5F5F5F5F5F5F5F5F5F5F5F5F5F5F5F5F5F5F5F5F5F5F5F5F5F5F5F5F528F5DCF5
310
F5F5F5F5F5F5F5F5F5F5F5F5F5F5F5F5E2F5E2E2F5E2F5F5F5F5F5F5F5F5F5F5F5F5F5F5F5F5F5DCF528F5F5F5F5F5F5F5F5F5F5F5F5F5F5F5F5F5F5F5F5F5F5F5F5F5F5F5F5F5F5F5F5F5F5F5F5F5F5F5F5F5F5F5F5F5F5F5F5F5F5F5F5F5F5F5F5F5F5F5F5F5F5F5F5F5F5F5F5F5F5F5F5F5F5F5F5F5F5F5F5F5F5F5F5F5
310
F5F5F5F5F5F5F5F5F5F5F5F5F5F5F5F5F5F5F5F5F5F5F5F5F5F5F5F5F5F5F5F5F5F5F5F5F5F5F5F5F5F5F5F5F5F5F5F5F528F5DCF5F5F5F5F5F5F5F5F5F5F5F5F5F5F5F5F5E2F5E2E2F5E2F5F5F5F5F5F5F5F5F5F5F5F5F5F5F5F5F5DCF528F5F5F5F5F5F5F5F5F5F5F5F5F5F5F5F5F5F5F5F5F5F5F5F5F5F5F5F5F5F5F5F5
310
F5F5F5F5F5F5F5F5F5F5F5F5F5F5F5F5F5F5F5F5F5F5F5F5F5F5F5F5F5F5F5F5F5F5F5F5F5F5F5F5F5F5F5F5F5F5F5F5F5F5F5F5F5F5F5F5F5F5F5F5F5F5F5F5F5F5F5F5F5F5F5F5F5F5F5F5F5F5F5F5F5F5F5F5F5F5F5F5F5F5F5F5F5F5F5F5F5F5F5F5F5F528F5DCF5F5F5F5F5F5F5F5F5F5F5F5F5F5F5F5F5E2F5E2E2F5
310
F5F5F5F5F5F5F5F5F5F5F5F5F5F5F5F5F5F5DCF528F5F5F5F5F5F5F5F5F5F5F5F5F5F5F5F5F5F5F5F5F5F5F5F5F5F5F5F5F5F5F5F5F5F5F5F5F5F5F5F5F5F5F5F5F5F5F5F5F5F5F5F5F5F5F5F5F5F5F5F5F5F5F5F5F5F5F5F5F5F5F5F5F5F5F5F5F5F5F5F5F5F5F5F5F5F5F5F5F5F5F5F5F5F5F5F5F5F5F5F5F5F5F5F5F5F5
310
F5F5F5F5F5F5F5F5F5F5F5F5F5F5F5F5F5F5F5F5F5F5F5F5F5F5F5F528F5DCF5F5F5F5F5F5F5F5F5F5F5F5F5F5F5F5F5F5F5E2E2F5F5F5F5F5F5F5F5F5F5F5F5F5F5F5F5F5F5F5DCF528F5F5F5F5F5F5F5F5F5F5F5F5F5F5F5F5F5F5F5F5F5F5F5F5F5F5F5F5F5F5F5F5F5F5F5F5F5F5F5F5F5F5F5F5F5F5F5F5F5F5F5F5F5
310
F5F5F5F5F5F5F5F5F5F5F5F5F5F5F5F5F5F5F5F5F5F5F5F5F5F5F5F5F5F5F5F5F5F5F5F5F5F5F5F5F5F5F5F5F5F5F5F5F5F5F5F5F5F5F5F5F5F5F5F5F5F5F5F5F5F5F5F5F5F5F5F5F5F5F5F5F5F5F5F5F528F5DCF5F5F5F5F5F5F5F5F5F5F5F5F5F5F5F5F5F5F5E2E2F5F5F5F5F5F5F5F5F5F5F5F5F5F5F5F5F5F5F5DCF528
310
F5F5F5F5F5F5F5F5F5F5F5F5F5F5F5F5F5F5F5F5F5F5F5F5F5F5F5F5F5F5F5F5F5F5F5F5F5F5F5F5F5F5F5F5F5F5F5F5F5F5F5F5F5F5F5F5F5F5F5F5F5F5F5F5F5F5F5F5F5F5F5F5F5F5F5F5F5F5F5F5F5F5F5F5F5F5F5F5F5F5F5F5F5F5F5F5F5F5F5F5F5F5F5F5F5F5F5F5F5F5F5F5F5F5F5F5F5F5F5F5F5F5F5F5F5F5F5
310
F5F5F5F5F5F5F528F5DCF5F5F5F5F5F5F5F5F5F5F5F5F5F5F5F5F5F5F5E2E2F5F5F5F5F5F5F5F5F5F5F5F5F5F5F5F5F5F5F5DCF528F5F5F5F5F5F5F5F5F5F5F5F5F5F5F5F5F5F5F5F5F5F5F5F5F5F5F5F5F5F5F5F5F5F5F5F5F5F5F5F5F5F5F5F5F5F5F5F5F5F5F5F5F5F5F5F5F5F5F5F5F5F5F5F5F5F5F5F5F5F5F5F5F5F5
310
F5F5F5F5F5F5F5F5F5F5F5F5F5F5F5F5F5F5F5F5F5F5F5F5F5F5F5F5F5F5F5F5F5F5F5F5F5F5F5F5F5F5F5F5F5F5F5F5F5F5F5F5F5F5F5F5F5F5F5F528F5DCF5F5F5F5F5F5F5F5F5F5F5F5F5F5F5F5F5F5F5E2E2F5F5F5F5F5F5F5F5F5F5F5F5F5F5F5F5F5F5F5DCF528F5F5F5F5F5F5F5F5F5F5F5F5F5F5F5F5F5F5F5F5F5
310
F5F5F5F5F5F5F5F5F5F5F5F5F5F5F5F5F5F5F5F5F5F5F5F5F5F5F5F5F5F5F5F5F5F5F5F5F5F5F5F5F5F5F5F5F5F5F5F5F5F5F5F5F5F5F5F5F5F5F5F5F5F5F5F5F5F5F5F5F5F5F5F5F5F5F5F5F5F5F5F5F5F5F5F5F5F5F5F5F5F5F5F5F5F5F5F5F5F5F5F5F5F5F5F5F5F5F5F5F5F5F5F5F528F5DCF5F5F5F5F5F5F5F5F5F5F5
310
F5F5F5F5F5F5F5F5E2E2F5F5F5F5F5F5F5F5F5F5F5F5F5F5F5F5F5F5F5DCF528F5F5F5F5F5F5F5F5F5F5F5F5F5F5F5F5F5F5F5F5F5F5F5F5F5F5F5F5F5F5F5F5F5F5F5F5F5F5F5F5F5F5F5F5F5F5F5F5F5F5F5F5F5F5F5F5F5F5F5F5F5F5F5F5F5F5F5F5F5F5F5F5F5F5F5F5F5F5F5F5F5F5F5F5F5F5F5F5F5F5F5F5F5F5F5
310
F5F5F5F5F5F5F5F5F5F5F5F5F5F5F5F5F5F5F5F5F5F5F5F5F5F5F5F5F5F5F5F5F5F5F5F5F5F5F528F5DCF5F5F5F5F5F5F5F5F5F5F5F5F5F5F5F5F5F5F5E2E2F5F5F5F5F5F5F5F5F5F5F5F5F5F5F5F5F5F5F5DCF528F5F5F5F5F5F5F5F5F5F5F5F5F5F5F5F5F5F5F5F5F5F5F5F5F5F5F5F5F5F5F5F5F5F5F5F5F5F5F5F5F5F5
310
F5F5F5F5F5F5F5F5F5F5F5F5F5F5F5F5F5F5F5F5F5F5F5F5F5F5F5F5F5F5F5F5F5F5F5F5F5F5F5F5F5F5F5F5F5F5F5F5F5F5F5F5F5F5F5F5F5F5F5F5F5F5F5F5F5F5F5F5F5F5F5F5F5F5F5F5F5F5F5F5F5F5F5F5F5F5F5F5F5F5F5F528F5DCF5F5F5F5F5F5F5F5F5F5F5F5F5F5F5F5F5F5F5E2E2F5F5F5F5F5F5F5F5F5F5F5
310
F5F5F5F5F5F5F5F5DCF528F5F5F5F5F5F5F5F5F5F5F5F5F5F5F52D2D2D2D2D2D2D2D2D2DF5F5F5F5F5F5F5F5F5F5F5F5F5F5F5F5F5F5F5F5F5F5F5F5F5F5F5F5F5F5F5F5F5F5F5F5F5F5F5F5F5F5F5F5F5F5F5F5F5F5F5F5F5F5F5F5F5F5F5F5F5F5F5F5F5F5F5F5F5F5F5F5F5F5F5F5F5F5F5F5F5F5F5F5F5F5F5F5F5F5F5
310
F5F5F5F5F5F5F5F5F5F5F5F5F5F5F5F5F5F528F5DCF5F5F5F5F5F5F5F5F5F5F5F5F5F5F5F5F5F5F5E2E2F5E2F5F5F5F5F5F5F5F5F5F5F5F5F5F5F5F5F5DCF528F5F5F5F5F5F5F5F5F5F5F5F5F5F5F52D2D2D2D2D2D2D2D2D2DF5F5F5F5F5F5F5F5F5F5F5F5F5F5F5F5F5F5F5F5F5F5F5F5F5F5F5F5F5F5F5F5F5F5F5F5F5F5
310
F5F5F5F5F5F5F5F5F5F5F5F5F5F5F5F5F5F5F5F5F5F5F5F5F5F5F5F5F5F5F5F5F5F5F5F5F5F5F5F5F5F5F5F5F5F5F5F5F5F5F5F5F5F5F5F5F5F5F5F5F5F5F5F5F5F5F5F5F5F5F528F5DCF5F5F5F5F5F5F5F5F5F5F5F5F5F5F5F5F5E2F5E2E2F5E2F5F5F5F5F5F5F5F5F5F5F5F5F5F5F5F5F5DCF528F5F5F5F5F5F5F5F5F5F5
310
F5F5F5F5F5F5F5F5F5F5F5F5F5F5F5F5F5F5F5F5F5F5F5F5F5F5F5F5F5F5F5F5F5F5F5F5F5F5F5F5F5F5F5F5F5F5F5F5F5F5F5F5F5F5F5F5F5F5F5F5F5F5F5F5F5F5F5F5F5F5F5F5F5F5F5F5F5F5F5F5F5F5F5F5F5F5F5F5F5F5F5F5F5F5F5F5F5F5F5F5F5F5F5F5F5F5F5F5F5F5F5F5F5F5F5F5F5F5F5F5F5F5F5F528F5DC
310
F5F5F5F5F5F5F5F5F5F5F5F5F5F5F5F5F5E2F5E2E2F5E2F5F5F5F5F5F5F5F5F5F5F5F5F5F5F5F5F5DCF528F5F5F5F5F5F5F5F5F5F5F5F5F5F5F5F5F5F5F5F5F5F5F5F5F5F5F5F5F5F5F5F5F5F5F5F5F5F5F5F5F5F5F5F5F5F5F5F5F5F5F5F5F5F5F5F5F5F5F5F5F5F5F5F5F5F5F5F5F5F5F5F5F5F5F5F5F5F5F5F5F5F5F5F5
310
F5F5F5F5F5F5F5F5F5F5F5F5F5F5F5F5F5F5F5F5F5F5F5F5F5F5F5F5F5F5F5F5F5F5F5F5F5F5F5F5F5F5F5F5F5F5F5F5F5F528F5DCF5F5F5F5F5F5F5F5F5F5F5F5F5F5F5F5F5E2F5E2E2F5E2F5F5F5F5F5F5F5F5F5F5F5F5F5F5F5F5F5DCF528F5F5F5F5F5F5F5F5F5F5F5F5F5F5F5F5F5F5F5F5F5F5F5F5F5F5F5F5F5F5F5
310
F5F5F5F5F5F5F5F5F5F5F5F5F5F5F5F5F5F5F5F5F5F5F5F5F5F5F5F5F5F5F5F5F5F5F5F5F5F5F5F5F5F5F5F5F5F5F5F5F5F5F5F5F5F5F5F5F5F5F5F5F5F5F5F5F5F5F5F5F5F5F5F5F5F5F5F5F5F5F5F5F5F5F5F5F5F5F5F5F5F5F5F5F5F5F5F5F5F5F5F5F5F5F528F5DCF5F5F5F5F5F5F5F5F5F5F5F5F5F5F5F5F5E2F5E2E2
310
F5E2F5F5F5F5F5F5F5F5F5F5F5F5F5F5F5F5F5DCF528F5F5F5F5F5F5F5F5F5F5F5F5F5F5F5F5F5F5F5F5F5F5F5F5F5F5F5F5F5F5F5F5F5F5F5F5F5F5F5F5F5F5F5F5F5F5F5F5F5F5F5F5F5F5F5F5F5F5F5F5F5F5F5F5F5F5F5F5F5F5F5F5F5F5F5F5F5F5F5F5F5F5F5F5F5F5F5F5F5F5F5F5F5F5F5F5F5F5F5F5F5F5F5F5F5
310
F5F5F5F5F5F5F5F5F5F5F5F5F5F5F5F5F5F5F5F5F5F5F5F5F5F5F5F5F528F5DCF5F5F5F5F5F5F5F5F5F5F5F5F5F5F5F5F5E2F5E2E2F5E2F5F5F5F5F5F5F5F5F5F5F5F5F5F5F5F5F5DCF528F5F5F5F5F5F5F5F5F5F5F5F5F5F5F5F5F5F5F5F5F5F5F5F5F5F5F5F5F5F5F5F5F5F5F5F5F5F5F5F5F5F5F5F5F5F5F5F5F5F5F5F5
310
F5F5F5F5F5F5F5F5F5F5F5F5F5F5F5F5F5F5F5F5F5F5F5F5F5F5F5F5F5F5F5F5F5F5F5F5F5F5F5F5F5F5F5F5F5F5F5F5F5F5F5F5F5F5F5F5F5F5F5F5F5F5F5F5F5F5F5F5F5F5F5F5F5F5F5F5F5F5F5F5F5F528F5DCF5F5F5F5F5F5F5F5F5F5F5F5F5F5F5F5F5E2F5E2E2F5E2F5F5F5F5F5F5F5F5F5F5F5F5F5F5F5F5F5DCF5
310
28F5F5F5F5F5F5F5F5F5F5F5F5F5F5F5F5F5F5F5F5F5F5F5F5F5F5F5F5F5F5F5F5F5F5F5F5F5F5F5F5F5F5F5F5F5F5F5F5F5F5F5F5F5F5F5F5F5F5F5F5F5F5F5F5F5F5F5F5F5F5F5F5F5F5F5F5F5F5F5F5F5F5F5F5F5F5F5F5F5F5F5F5F5F5F5F5F5F5F5F5F5F5F5F5F5F5F5F5F5F5F5F5F5F5F5F5F5F5F5F5F5F5F5F5F5F5
310
F5F5F5F5F5F5F5F528F5DCF5F5F5F5F5F5F5F5F5F5F5F5F5F5F5F5F5E2F5E2E2F5E2F5F5F5F5F5F5F5F5F5F5F5F5F5F5F5F5F5DCF528F5F5F5F5F5F5F5F5F5F5F5F5F5F5F5F5F5F5F5F5F5F5F5F5F5F5F5F5F5F5F5F5F5F5F5F5F5F5F5F5F5F5F5F5F5F5F5F5F5F5F5F5F5F5F5F5F5F5F5F5F5F5F5F5F5F5F5F5F5F5F5F5F5
310
F5F5F5F5F5F5F5F5F5F5F5F5F5F5F5F5F5F5F5F5F5F5F5F5F5F5F5F5F5F5F5F5F5F5F5F5F5F5F5F5F5F5F5F5F5F5F5F5F5F5F5F5F5F5F5F5F5F5F5F5F528F5DCF5F5F5F5F5F5F5F5F5F5F5F5F5F5F5F5F5E2F5E2E2F5E2F5F5F5F5F5F5F5F5F5F5F5F5F5F5F5F5F5DCF528F5F5F5F5F5F5F5F5F5F5F5F5F5F5F5F5F5F5F5F5
310
F5F5F5F5F5F5F5F5F5F5F5F5F5F5F5F5F5F5F5F5F5F5F5F5F5F5F5F5F5F5F5F5F5F5F5F5F5F5F5F5F5F5F5F5F5F5F5F5F5F5F5F5F5F5F5F5F5F5F5F5F5F5F5F5F5F5F5F5F5F5F5F5F5F5F5F5F5F5F5F5F5F5F5F5F5F5F5F5F5F5F5F5F5F5F5F5F5F5F5F5F5F5F5F5F5F5F5F5F5F5F5F5F5F528F5DCF5F5F5F5F5F5F5F5F5F5
310
F5F5F5F5F5F5F5E2F5E2E2F5E2F5F5F5F5F5F5F5F5F5F5F5F5F5F5F5F5F5DCF528F5F5F5F5F5F5F5F5F5DCF5F5F5F5F5F5F5F5F5F5F5F5F5F5F5F5F5F5F5F5F5F5F5F5F5F5F5F5F5F5F5F5F5F5F5F5F5F5F5F5F5F5F5F5F5F5F5F5F5F5F5F5F5F5F5F5F5F5F5F5F5F5F5F5F5F5F5F5F5F5F5F5F5F5F5F5F5F5F5F5F5F5F5F5
310
F5F5F5F5F5F5F5F5F5F5F5F5F5F5F5F5F5F5F5F5F5F5F5F5F5F5F5F5F5F5F5F5F5F5F5F5F5F5F5F528F5DCF5F5F5F5F5F5F5F5F5F5F5F5F5F5F5F5F5E2F5E2E2F5E2F5F5F5F5F5F5F5F5F5F5F5F5F5F5F5F5F5DCF528F5F5F5F5F5F5F5F50FDCF5F5F5F5F52D2D2D2D2D2D2D2DF5F5F5F5F50FF5F5F5F5F5F5F5F5F5F5F5F5
310
F5F5F5F5F5F5F5F5F5F5F5F5F5F5F5F5F5F5F5F5F5F5F5F5F5F5F5F5F5F5F5F5F5F5F5F5F5F5F5F5F5F5F5F5F5F5F5F5F5F5F5F5F5F5F5F5F5F5F5F5F5F5F5F5F5F5F5F5F5F5F5F5F5F5F5F5F5F5F5F5F5F5F5F5F5F5F5F5F5F5F5F5F528F5DCF5F5F5F5F5F5F5F5F5F5F5F5F5F5F5F5F5E2F5E2E2F5E2F5F5F5F5F5F5F5F5
310
F5F5F5F5F5F5F5F5F5DCF528F5F5F5F5DCF5F5DC0FDC0F0F0F0F0F2D2D2D2D2D2D2D2D0F0F0F0F0F0F0FF5F5F5F5F5F5F5F5F5F5F5F5F5F5F5F5F5F5F5F5F5F5F5F5F5F5F5F5F5F5F5F5F5F5F5F5F5F5F5F5F5F5F5F5F5F5F5F5F5F5F5F5F5F5F5F5F5F5F5F5F5F5F5F5F5F5F5F5F5F5F5F5F5F5F5F5F5F5F5F5F5F5F5F5F5
310
F5F5F5F5F5F5F5F5F5F5F5F5F5F5F5F5F5F5F528F5DCF5F5F5F5F5F5F5F5F5F5F5F5F5F5F5F5F5E2F5E2E2F5E2F5F5F5F5F5F5F5F5F5F5F5F5F5F5F5F5F5DCF528F5F5F5DCF5F5DCF5F5DCF5F5F5F5F5F5F5F5F5F5F5F5F5F5F5F5F5F50FF5F5F5F5F5F5F5F5F5F5F5F5F5F5F5F5F5F5F5F5F5F5F5F5F5F5F5F5F5F5F5F5F5
310
F5F5F5F5F5F5F5F5F5F5F5F5F5F5F5F5F5F5F5F5F5F5F5F5F5F5F5F5F5F5F5F5F5F5F5F5F5F5F5F5F5F5F5F5F5F5F5F5F5F5F5F5F5F5F5F5F5F5F5F5F5F5F5F5F5F5F5F5F5F5F5F528F5DCF5F5F5F5F5F5F5F5F5F5F5F5F5F5F5F5F5E2F5E2E2F5E2F5F5F5F5F5F5F5F5F5F5F5F5F5F5F5F5F5DCF528F5F5F5F5F5DCF5F5DC
310
DCF5F5F5F5F5F5F5F5F5F5F5F5F5F5F5F5F5F50FF5F5F5F5F5F5F5F5F5F5F5F5F5F5F5F5F5F5F5F5F5F5F5F5F5F5F5F5F5F5F5F5F5F5F5F5F5F5F5F5F5F5F5F5F5F5F5F5F5F5F5F5F5F5F5F5F5F5F5F5F5F5F5F5F5F5F5F5F5F5F5F5F5F5F5F5F5F5F5F5F5F5F5F5F5F5F5F5F5F5F5F5F5F5F5F5F5F5F5F5F5F5F5F5F528F5
310
DCF5F5F5F5F5F5F5F5F5F5F5F5F5F5F5F5F5E2F5E2E2F5E2F5F5F5F5F5F5F5F5F5F5F5F5F5F5F5F5F5DCF528F5F5F5F5DCF5F5DCF5DCF5F5F5F5F5F5F5F5F5F5F5F5F5F5F5F5F5F50FF5F5F5F5F5F5F5F5F5F5F5F5F5F5F5F5F5F5F5F5F5F5F5F5F5F5F5F5F5F5F5F5F5F5F5F5F5F5F5F5F5F5F5F5F5F5F5F5F5F5F5F5F5F5
310
F5F5F5F5F5F5F5F5F5F5F5F5F5F5F5F5F5F5F5F5F5F5F5F5F5F5F5F5F5F5F5F5F5F5F5F5F5F5F5F5F5F5F5F5F5F5F5F5F5F5F528F5DCF5F5F5F5F5F5F5F5F5F5F5F5F5F5F5F5F5E2F5E2E2F5E2F5F5F5F5F5F5F5F5F5F5F5F5F5F5F5F5F5DCF528F5F5F5DCF5F5DCF5F5DCF5F5F5F5F5F5F5F5F5F5F5F5F5F5F5F5F5F50FF5
310
F5F5F5F5F5F5F5F5F5F5F5F5F5F5F5F5F5F5F5F5F5F5F5F5F5F5F5F5F5F5F5F5F5F5F5F5F5F5F5F5F5F5F5F5F5F5F5F5F5F5F5F5F5F5F5F5F5F5F5F5F5F5F5F5F5F5F5F5F5F5F5F5F5F5F5F5F5F5F5F5F5F5F5F5F5F5F5F5F5F5F5F5F5F5F5F5F5F5F5F5F5F5F5F528F5DCF5F5F5F5F5F5F5F5F5F5F5F5F5F5F5F5F5E2F5E2
310
E2F5F5F5F5F5F5F5F5F5F5F5F5F5F5F5F5F5F5F5DCF528F5F5F5F5F5DCF5F5F5DC1B0F0F0F0F0F0F0F0F0F0F0F0F0F0F0F0F0F0F0F0F0F0F0F0F0FF5F5F5F5F5F5F5F5F5F5F5F5F5F5F5F5F5F5F5F5F5F5F5F5F5F5F5F5F5F5F5F5F5F5F5F5F5F5F5F5F5F5F5F5F5F5F5F5F5F5F5F5F5F5F5F5F5F5F5F5F5F5F5F5F5F5F5F5
310
F5F5F5F5F5F5F5F5F5F5F5F5F5F5F5F5F5F5F5F5F5F5F5F5F5F5F5F5F5F528F5DCF5F5F5F5F5F5F5F5F5F5F5F5F5F5F5F5F5F5F5E2E2F5F5F5F5F5F5F5F5F5F5F5F5F5F5F5F5F5F5F5DCF528F5F5F5F5DCF5F5F5DCDCBEF5F5F5F5F5F5F5F5F5F5F5F5F5F5F5F5F50FF5F5F5F5F50FF5F5F5F5F5F5F5F5F5F5F5F5F5F5F5F5
310
F5F5F5F5F5F5F5F5F5F5F5F5F5F5F5F5F5F5F5F5F5F5F5F5F5F5F5F5F5F5F5F5F5F5F5F5F5F5F5F5F5F5F5F5F5F5F5F5F5F5F5F5F5F5F5F5F5F5F5F5F5F5F5F5F5F5F5F5F5F5F5F5F5F5F5F5F5F5F5F5F5F5F528F5DCF5F5F5F5F5F5F5F5F5F5F5F5F5F5F5F5F5F5F5E2E2F5F5F5F5F5F5F5F5F5F5F5F5F5F5F5F5F5F5F5DC
310
F528F5F5F5DCF5F5F5DCF5DCF5BEBEF5F5F5F5F5F5F5F5F5F5F5F5F5F5F50FF5F5F5F5F50FF5F5F5F5F5F5F5F5F5F5F5F5F5F5F5F5F5F5F5F5F5F5F5F5F5F5F5F5F5F5F5F5F5F5F5F5F5F5F5F5F5F5F5F5F5F5F5F5F5F5F5F5F5F5F5F5F5F5F5F5F5F5F5F5F5F5F5F5F5F5F5F5F5F5F5F5F5F5F5F5F5F5F5F5F5F5F5F5F5F5
310
F5F5F5F5F5F5F5F5F528F5DCF5F5F5F5F5F5F5F5F5F5F5F5F5F5F5F5F5F5F5E2E2F5F5F5F5F5F5F5F5F5F5F5F5F5F5F5F5F5F5F5DCF528F5F5F5F5F5DCDCF5F5DCF5F5BEBEF5F5F5F5F5F5F5F5F5F5F5F5F5F50FF5F5F5F5F50FF5F5F5F5F5F5F5F5F5F5F5F5F5F5F5F5F5F5F5F5F5F5F5F5F5F5F5F5F5F5F5F5F5F5F5F5F5
310
F5F5F5F5F5F5F5F5F5F5F5F5F5F5F5F5F5F5F5F5F5F5F5F5F5F5F5F5F5F5F5F5F5F5F5F5F5F5F5F5F5F5F5F5F5F5F5F5F5F5F5F5F5F5F5F5F5F5F5F5F5F528F5DCF5F5F5F5F5F5F5F5F5F5F5F5F5F5F5F5F5F5F5E2E2F5F5F5F5F5F5F5F5F5F5F5F5F5F5F5F5F5F5F5DCF528F5F5F5F5DCF5F5F5DCDCF5F5F5BEF5F5F5F5F5
310
F5F5F5F5F5F5F5F5F50FF5F5F5F5F50FF5F5F5F5F5F5F5F5F5F5F5F5F5F5F5F5F5F5F5F5F5F5F5F5F5F5F5F5F5F5F5F5F5F5F5F5F5F5F5F5F5F5F5F5F5F5F5F5F5F5F5F5F5F5F5F5F5F5F5F5F5F5F5F5F5F5F5F5F5F5F5F5F5F5F5F5F5F5F5F5F5F5F5F5F5F5F5F5F5F5F5F5F5F5F5F5F5F5F528F5DCF5F5F5F5F5F5F5F5F5
310
F5F5F5F5F5F5F5F5F5F5E2E2F5F5F5F5F5F5F5F5F5F5F5F5F5F5F5F5F5F5F5DCF528F5F5F5DCF5F5F5DCF5DCF5F5F5BEBEBEF5F5F5F5F5F5F5F5F5F5F5F50FF5F5F5F5F50FF5F5F5F5F5F5F5F5F5F5F5F5F5F5F5F5F5F5F5F5F5F5F5F5F5F5F5F5F5F5F5F5F5F5F5F5F5F5F5F5F5F5F5F5F5F5F5F5F5F5F5F5F5F5F5F5F5F5
310
F5F5F5F5F5F5F5F5F5F5F5F5F5F5F5F5F5F5F5F5F5F5F5F5F5F5F5F5F5F5F5F5F5F5F5F5F5F5F5F5F528F5DCF5F5F5F5F5F5F5F5F5F5F5F5F5F5F5F5F5F5F5E2E2F5F5F5F5F5F5F5F5F5F5F5F5F5F5F5F5F5F5F5DCF528F5F5F5F5F5DCDCF5F5DCF5F5F5F5BEBEF5F5F5F5F5F5F5F5F5F5F5F50FF5F5F5F5F50FF5F5F5F5F5
310
F5F5F5F5F5F5F5F5F5F5F5F5F5F5F5F5F5F5F5F5F5F5F5F5F5F5F5F5F5F5F5F5F5F5F5F5F5F5F5F5F5F5F5F5F5F5F5F5F5F5F5F5F5F5F5F5F5F5F5F5F5F5F5F5F5F5F5F5F5F5F5F5F5F5F5F5F5F5F5F5F5F5F5F5F5F5F5F5F5F5F5F5F5F528F5DCF5F5F5F5F5F5F5F5F5F5F5F5F5F5F5F5F5F5F5E2E2F5F5F5F5F5F5F5F5F5
310
F5F5F5F5F5F5F5F5F5F5DCF528F5F5F5F5DCF5F5F5DCDCF5F5F5F5BEF5F5F5F5F5F5F5F5F5F5F5F5F50FF5F5F5F5F50FF5F5F5F5F5F5F5F5F5F5F5F5F5F5F5F5F5F5F5F5F5F5F5F5F5F5F5F5F5F5F5F5F5F5F5F5F5F5F5F5F5F5F5F5F5F5F5F5F5F5F5F5F5F5F5F5F5F5F5F5F5F5F5F5F5F5F5F5F5F5F5F5F5F5F5F5F5F5F5
310
F5F5F5F5F5F5F5F5F5F5F5F5F5F5F5F5F5F5F5F528F5DCF5F5F5F5F5F5F5F5F5F5F5F5F5F5F5F5F5F5F5E2E2F5F5F5F5F5F5F5F5F5F5F5F5F5F5F5F5F5F5F5DCF528F5F5F5DCF5F5F5DCF5DCF5F5F5F5BEF5F5F5F5F5F5F5F5F5F5F5F5F50FF5F5F5F5F50FF5F5F5F5F5F5F5F5F5F5F5F5F5F5F5F5F5F5F5F5F5F5F5F5F5F5
310
F5F5F5F5F5F5F5F5F5F5F5F5F5F5F5F5F5F5F5F5F5F5F5F5F5F5F5F5F5F5F5F5F5F5F5F5F5F5F5F5F5F5F5F5F5F5F5F5F5F5F5F5F5F5F5F5F5F5F5F5F5F5F5F5F5F5F5F5F5F5F5F5F528F5DCF5F5F5F5F5F5F5F5F5F5F5F5F5F5F5F5F5F5F5E2E2F5E2F5F5F5F5F5F5F5F5F5F5F5F5F5F5F5F5F5DCF528F5F5F5F5F5F5DCF5
310
F5DCBEBEF5F5BEF5F5F5F5F5F5F5F5F5F5F5F5F50FF5F52D2D2D2D2D2D2D2DF5F5F5F5F5F5F5F5F5F5F5F5F5F5F5F5F5F5F5F5F5F5F5F5F5F5F5F5F5F5F5F5F5F5F5F5F5F5F5F5F5F5F5F5F5F5F5F5F5F5F5F5F5F5F5F5F5F5F5F5F5F5F5F5F5F5F5F5F5F5F5F5F5F5F5F5F5F5F5F5F5F5F5F5F5F5F5F5F5F5F5F5F5F5F528
310
F5DCF5F5F5F5F5F5F5F5F5F5F5F5F5F5F5F5F5E2F5E2E2F5E2F5F5F5F5F5F5F5F5F5F5F5F5F5F5F5F5F5DCF528F5F5F5F5F5DCF5F5DCDCF5BEF5F5BEF5F5F5F5F5F5F5F5F5F5F5F5F50FF5F52D2D2D2D2D2D2D2DF5F5F5F5F5F5F5F5F5F5F5F5F5F5F5F5F5F5F5F5F5F5F5F5F5F5F5F5F5F5F5F5F5F5F5F5F5F5F5F5F5F5F5
310
F5F5F5F5F5F5F5F5F5F5F5F5F5F5F5F5F5F5F5F5F5F5F5F5F5F5F5F5F5F5F5F5F5F5F5F5F5F5F5F5F5F5F5F5F5F5F5F5F5F5F5F528F5DCF5F5F5F5F5F5F5F5F5F5F5F5F5F5F5F5F5E2F5E2E2F5E2F5F5F5F5F5F5F5F5F5F5F5F5F5F5F5F5F5DCF528F5F5F5F5DCF5F5DCF5DCF5BEF5F5BEBEF5F5F5F5F5F5F5F5F5F5F5F50F
310
F5F5F5F5F50FF5F5F5F5F5F5F5F5F5F5F5F5F5F5F5F5F5F5F5F5F5F5F5F5F5F5F5F5F5F5F5F5F5F5F5F5F5F5F5F5F5F5F5F5F5F5F5F5F5F5F5F5F5F5F5F5F5F5F5F5F5F5F5F5F5F5F5F5F5F5F5F5F5F5F5F5F5F5F5F5F5F5F5F5F5F5F5F5F5F5F5F5F5F5F5F5F5F5F528F5DCF5F5F5F5F5F5F5F5F5F5F5F5F5F5F5F5F5E2F5
310
E2E2F5E2F5F5F5F5F5F5F5F5F5F5F5F5F5F5F5F5F5DCF528F5F5F5DCF5F5DCF5F5DCF5F5BEF5F5BEF5F5F5F5F5F5F5F5F5F5F5F50FF5F5F5F5F50FF5F5F5F5F5F5F5F5F5F5F5F5F5F5F5F5F5F5F5F5F5F5F5F5F5F5F5F5F5F5F5F5F5F5F5F5F5F5F5F5F5F5F5F5F5F5F5F5F5F5F5F5F5F5F5F5F5F5F5F5F5F5F5F5F5F5F5F5
310
F5F5F5F5F5F5F5F5F5F5F5F5F5F5F5F5F5F5F5F5F5F5F5F5F5F5F5F5F5F5F528F5DCF5F5F5F5F5F5F5F5F5F5F5F5F5F5F5F5F5E2F5E2E2F5E2F5F5F5F5F5F5F5F5F5F5F5F5F5F5F5F5F5DCF528F5F5F5F5F5DCF5F5DCDCF5F5BEF5F5F5BEBEF5F5F5F5BEBEF5F5F5F50FF5F5F5F5F50FF5F5F5F5F5F5F5F5F5F5F5F5F5F5F5
310
F5F5F5F5F5F5F5F5F5F5F5F5F5F5F5F5F5F5F5F5F5F5F5F5F5F5F5F5F5F5F5F5F5F5F5F5F5F5F5F5F5F5F5F5F5F5F5F5F5F5F5F5F5F5F5F5F5F5F5F5F5F5F5F5F5F5F5F5F5F5F5F5F5F5F5F5F5F5F5F5F5F5F5F528F5DCF5F5F5F5F5F5F5F5F5F5F5F5F5F5F5F5F5E2F5E2E2F5E2F5F5F5F5F5F5F5F5F5F5F5F5F5F5F5F5F5
310
DCF528F5F5F5F5DCF5F5DCF5DCF5F5F5BEF5F5F5BEBEBEBEBEF5BEF5F5F5F50FF5F5F5F5F50FF5F5F5F5F5F5F5F5F5F5F5F5F5F5F5F5F5F5F5F5F5F5F5F5F5F5F5F5F5F5F5F5F5F5F5F5F5F5F5F5F5F5F5F5F5F5F5F5F5F5F5F5F5F5F5F5F5F5F5F5F5F5F5F5F5F5F5F5F5F5F5F5F5F5F5F5F5F5F5F5F5F5F5F5F5F5F5F5F5
310
F5F5F5F5F5F5F5F5F5F528F5DCF5F5F5F5F5F5F5F5F5F5F5F5F5F5F5F5F5E2F5E2E2F5E2F5F5F5F5F5F5F5F5F5F5F5F5F5F5F5F5F5DCF528F5F5F5DCF5F5DCF5F5DCF5F5F5F5BEF5F5F5F5F5F5F5F5BEBEF5F5F50FF5F5F5F5F50FF5F5F5F5F5F5F5F5F5F5F5F5F5F5F5F5F5F5F5F5F5F5F5F5F5F5F5F5F5F5F5F5F5F5F5F5
310
F5F5F5F5F5F5F5F5F5F5F5F5F5F5F5F5F5F5F5F5F5F5F5F5F5F5F5F5F5F5F5F5F5F5F5F5F5F5F5F5F5F5F5F5F5F5F5F5F5F5F5F5F5F5F5F5F5F5F5F5F5F5F528F5DCF5F5F5F5F5F5F5F5F5F5F5F5F5F5F5F5F5E2F5E2E2F5E2F5F5F5F5F5F5F5F5F5F5F5F5F5F5F5F5F5DCF528F5F5F5F5F5DCF5F5F5DCF5F5F5F5F5BEBEBE
310
F5F5F5F5F5F5F5BEBEF50FF5F5F5F5F50FF5F5F5F5F5F5F5F5F5F5F5F5F5F5F5F5F5F5F5F5F5F5F5F5F5F5F5F5F5F5F5F5F5F5F5F5F5F5F5F5F5F5F5F5F5F5F5F5F5F5F5F5F5F5F5F5F5F5F5F5F5F5F5F5F5F5F5F5F5F5F5F5F5F5F5F5F5F5F5F5F5F5F5F5F5F5F5F5F5F5F5F5F5F5F5F5F5F5F528F5DCF5F5F5F5F5F5F5F5
310
F5F5F5F5F5F5F5F5F5E2F5E2E2F5E2F5F5F5F5F5F5F5F5F5F5F5F5F5F5F5F5F5DCF528F5F5F5F5DCF5F5F5DCDCF5F5F5F5F5F5F5F5BEBEF5F5F5F5F5F5BEF50FF5F5F5F5F50FF5F5F5F5F5F5F5F5F5F5F5F5F5F5F5F5F5F5F5F5F5F5F5F5F5F5F5F5F5F5F5F5F5F5F5F5F5F5F5F5F5F5F5F5F5F5F5F5F5F5F5F5F5F5F5F5F5
310
F5F5F5F5F5F5F5F5F5F5F5F5F5F5F5F5F5F5F5F5F5F5F5F5F5F5F5F5F5F5F5F5F5F5F5F5F5F5F5F5F5F528F5DCF5F5F5F5F5F5F5F5F5F5F5F5F5F5F5F5F5E2F5E2E2F5E2F5F5F5F5F5F5F5F5F5F5F5F5F5F5F5F5F5DCF528F5F5F5DCF5F5F5DCF5DCF5F5F5F5F5F5F5F5F5BEBEF5F5F5F5F5F5BE1BF5F5F5F5F50FF5F5F5F5
310
F5F5F5F5F5F5F5F5F5F5F5F5F5F5F5F5F5F5F5F5F5F5F5F5F5F5F5F5F5F5F5F5F5F5F5F5F5F5F5F5F5F5F5F5F5F5F5F5F5F5F5F5F5F5F5F5F5F5F5F5F5F5F5F5F5F5F5F5F5F5F5F5F5F5F5F5F5F5F5F5F5F5F5F5F5F5F5F5F5F5F5F5F5F5F528F5DCF5F5F5F5F5F5F5F5F5F5F5F5F5F5F5F5F5E2F5E2E2F5E2F5F5F5F5F5F5
310
F5F5F5F5F5F5F5F5F5F5F5DCF528F5F5F5F5F5DCDCF5F5DCF5F5F5F5F5F5F5F5F5F5BEF5F5F5F5F5F5F5BEF5F5F5F5F50F0FF5F5F5F5F5F5F5F5F5F5F5F5F5F5F5F5F5F5F5F5F5F5F5F5F5F5F5F5F5F5F5F5F5F5F5F5F5F5F5F5F5F5F5F5F5F5F5F5F5F5F5F5F5F5F5F5F5F5F5F5F5F5F5F5F5F5F5F5F5F5F5F5F5F5F5F5F5
310
F5F5F5F5F5F5F5F5F5F5F5F5F5F5F5F5F5F5F5F5F528F5DCF5F5F5F5F5F5F5F5F5F5F5F5F5F5F5F5F5E2F5E2E2F5E2F5F5F5F5F5F5F5F5F5F5F5F5F5F5F5F5F5DCF528F5F5F5F5DCF5F5F5DCDCDCDCDCDCDCDCDCDCDCDCDCDCDCDCDCDCDCDCDCDCDCDCDCDCDCDCDCF5F5F5F5F5F5F5F5F5F5F5F5F5F5F5F5F5F5F5F5F5F5F5
310
F5F5F5F5F5F5F5F5F5F5F5F5F5F5F5F5F5F5F5F5F5F5F5F5F5F5F5F5F5F5F5F5F5F5F5F5F5F5F5F5F5F5F5F5F5F5F5F5F5F5F5F5F5F5F5F5F5F5F5F5F5F5F5F5F5F5F5F5F5F5F5F5F5F528F5DCF5F5F5F5F5F5F5F5F5F5F5F5F5F5F5F5F5E2F5E2E2F5E2F5F5F5F5F5F5F5F5F5F5F5F5F5F5F5F5F5DCF528F5F5F5DCF5F5F5
310
DCF5F5DCF5F5DCF5F5F5DCF5F5DCF5F5DCF5F5DCF5F5DCF5F5DCF5F5F5F5F5F5F5F5F5F5F5F5F5F5F5F5F5F5F5F5F5F5F5F5F5F5F5F5F5F5F5F5F5F5F5F5F5F5F5F5F5F5F5F5F5F5F5F5F5F5F5F5F5F5F5F5F5F5F5F5F5F5F5F5F5F5F5F5F5F5F5F5F5F5F5F5F5F5F5F5F5F5F5F5F5F5F5F5F5F5F5F5F5F5F5F5F5F5F5F5F5
310
28F5DCF5F5F5F5F5F5F5F5F5F5F5F5F5F5F5F5F5E2F5E2E2F5E2F5F5F5F5F5F5F5F5F5F5F5F5F5F5F5F5F5DCF528F5F5F5F5F5DCDCF5F5DCF5F5DCF5F5F5DCF5F5DCF5F5DCF5F5DCF5F5DCF5F5DCF5F5F5F5F5F5F5F5F5F5F5F5F5F5F5F5F5F5F5F5F5F5F5F5F5F5F5F5F5F5F5F5F5F5F5F5F5F5F5F5F5F5F5F5F5F5F5F5F5
310
F5F5F5F5F5F5F5F5F5F5F5F5F5F5F5F5F5F5F5F5F5F5F5F5F5F5F5F5F5F5F5F5F5F5F5F5F5F5F5F5F5F5F5F5F5F5F5F5F5F5F5F5F528F5DCF5F5F5F5F5F5F5F5F5F5F5F5F5F5F5F5F5E2F5E2E2F5E2F5F5F5F5F5F5F5F5F5F5F5F5F5F5F5F5F5DCF528F5F5F5F5DCF5F5F5DCF5F5DCF5F5DCDCF5DCDCF5DCDCF5F5DCF5F5DC
310
F5F5DCF5F5F5F5F5F5F5F5F5F5F5F5F5F5F5F5F5F5F5F5F5F5F5F5F5F5F5F5F5F5F5F5F5F5F5F5F5F5F5F5F5F5F5F5F5F5F5F5F5F5F5F5F5F5F5F5F5F5F5F5F5F5F5F5F5F5F5F5F5F5F5F5F5F5F5F5F5F5F5F5F5F5F5F5F5F5F5F5F5F5F5F5F5F5F5F5F5F5F5F5F5F5F528F5DCF5F5F5F5F5F5F5F5F5F5F5F5F5F5F5F5F5E2
310
F5E2E2F5E2F5F5F5F5F5F5F5F5F5F5F5F5F5F5F5F5F5DCF528F5F5F5DCF5F5F5DCF5F5DCF5F5DCF5F5DCF5F5DCF5F5F5DCF5F5DCF5F5DCF5F5F5DCF5F5F5F5F5F5F5F5F5F5F5F5F5F5F5F5F5F5F5F5F5F5F5F5F5F5F5F5F5F5F5F5F5F5F5F5F5F5F5F5F5F5F5F5F5F5F5F5F5F5F5F5F5F5F5F5F5F5F5F5F5F5F5F5F5F5F5F5
310
F5F5F5F5F5F5F5F5F5F5F5F5F5F5F5F5F5F5F5F5F5F5F5F5F5F5F5F5F5F5F5F528F5DCF5F5F5F5F5F5F5F5F5F5F5F5F5F5F5F5F5E2F5E2E2F5F5F5F5F5F5F5F5F5F5F5F5F5F5F5F5F5F5F5DCF528F5F5F5F5F5F5DCF5F5DCF5F5DCF5F5DCF5F5DCF5F5F5DCF5F5DCF5F5DCF5F5DCDCF5F5F5F5F5F5F5F5F5F5F5F5F5F5F5F5
310
F5F5F5F5F5F5F5F5F5F5F5F5F5F5F5F5F5F5F5F5F5F5F5F5F5F5F5F5F5F5F5F5F5F5F5F5F5F5F5F5F5F5F5F5F5F5F5F5F5F5F5F5F5F5F5F5F5F5F5F5F5F5F5F5F5F5F5F5F5F5F5F5F5F5F5F5F5F5F5F5F5F5F5F5F528F5DCF5F5F5F5F5F5F5F5F5F5F5F5F5F5F5F5F5F5F5E2E2F5F5F5F5F5F5F5F5F5F5F5F5F5F5F5F5F5F5
310
F5DCF528F5F5F5F5F5F5F5F5F5F5F5F5F5F5F5F5F5F5F5F5F5F5F5F5F5F5F5F5F5F5F5F5F5F5F5F5F5F5F5F5F5F5F5F5F5F5F5F5F5F5F5F5F5F5F5F5F5F5F5F5F5F5F5F5F5F5F5F5F5F5F5F5F5F5F5F5F5F5F5F5F5F5F5F5F5F5F5F5F5F5F5F5F5F5F5F5F5F5F5F5F5F5F5F5F5F5F5F5F5F5F5F5F5F5F5F5F5F5F5F5F5F5F5
310
F5F5F5F5F5F5F5F5F5F5F528F5DCF5F5F5F5F5F5F5F5F5F5F5F5F5F5F5F5F5F5F5E2E2F5F5F5F5F5F5F5F5F5F5F5F5F5F5F5F5F5F5F5DCF528F5F5F5F5F5F5F5F5F5F5F5F5F5F5F5F5F5F5F5F5F5F5F5F5F5F5F5F5F5F5F5F5F5F5F5F5F5F5F5F5F5F5F5F5F5F5F5F5F5F5F5F5F5F5F5F5F5F5F5F5F5F5F5F5F5F5F5F5F5F5
310
F5F5F5F5F5F5F5F5F5F5F5F5F5F5F5F5F5F5F5F5F5F5F5F5F5F5F5F5F5F5F5F5F5F5F5F5F5F5F5F5F5F5F5F5F5F5F5F5F5F5F5F5F5F5F5F5F5F5F5F5F5F5F5F528F5DCF5F5F5F5F5F5F5F5F5F5F5F5F5F5F5F5F5F5F5E2E2F5F5F5F5F5F5F5F5F5F5F5F5F5F5F5F5F5F5F5DCF528F5F5F5F5F5F5F5F5F5F5F5F5F5F5F5F5F5
310
F5F5F5F5F5F5F5F5F5F5F5F5F5F5F5F5F5F5F5F5F5F5F5F5F5F5F5F5F5F5F5F5F5F5F5F5F5F5F5F5F5F5F5F5F5F5F5F5F5F5F5F5F5F5F5F5F5F5F5F5F5F5F5F5F5F5F5F5F5F5F5F5F5F5F5F5F5F5F5F5F5F5F5F5F5F5F5F5F5F5F5F5F5F5F5F5F5F5F5F5F5F5F5F5F5F5F5F5F5F5F5F5F5F5F5F5F528F5DCF5F5F5F5F5F5F5
310
F5F5F5F5F5F5F5F5F5F5F5F5E2E2F5F5F5F5F5F5F5F5F5F5F5F5F5F5F5F5F5F5F5DCF528F5F5F5F5F5F5F5F5F5F5F5F5F5F5F5F5F5F5F5F5F5F5F5F5F5F5F5F5F5F5F5F5F5F5F5F5F5F5F5F5F5F5F5F5F5F5F5F5F5F5F5F5F5F5F5F5F5F5F5F5F5F5F5F5F5F5F5F5F5F5F5F5F5F5F5F5F5F5F5F5F5F5F5F5F5F5F5F5F5F5F5
310
F5F5F5F5F5F5F5F5F5F5F5F5F5F5F5F5F5F5F5F5F5F5F5F5F5F5F5F5F5F5F5F5F5F5F5F5F5F5F5F5F5F5F528F5DCF5F5F5F5F5F5F5F5F5F5F5F5F5F5F5F5F5F5F5E2E2F5F5F5F5F5F5F5F5F5F5F5F5F5F5F5F5F5F5F5DCF528F5F5F5F5F5F5F5F5F5F5F5F5F5F5F5F5F5F5F5F5F5F5F5F5F5F5F5F5F5F5F5F5F5F5F5F5F5F5
310
F5F5F5F5F5F5F5F5F5F5F5F5F5F5F5F5F5F5F5F5F5F5F5F5F5F5F5F5F5F5F5F5F5F5F5F5F5F5F5F5F5F5F5F5F5F5F5F5F5F5F5F5F5F5F5F5F5F5F5F5F5F5F5F5F5F5F5F5F5F5F5F5F5F5F5F5F5F5F5F5F5F5F5F5F5F5F5F5F5F5F5F5F5F5F5F528F5DCF5F5F5F5F5F5F5F5F5F5F5F5F5F5F5F5F5F5F5E2E2F5F5F5F5F5F5F5
310
F5F5F5F5F5F5F5F5F5F5F5F5DCF528F5F5F5F5F5F5F5F5F5F5F5F5F5F5F5F5F5F5F5F5F5F5F5F5F5F5F5F5F5F5F5F5F5F5F5F5F5F5F5F5F5F5F5F5F5F5F5F5F5F5F5F5F5F5F5F5F5F5F5F5F5F5F5F5F5F5F5F5F5F5F5F5F5F5F5F5F5F5F5F5F5F5F5F5F5F5F5F5F5F5F5F5F5F5F5F5F5F5F5F5F5F5F5F5F5F5F5F5F5F5F5F5
310
F5F5F5F5F5F5F5F5F5F5F5F5F5F5F5F5F5F5F5F5F5F528F5DCF5F5F5F5F5F5F5F5F5F5F5F5F5F5F5F5F5F5F5E2E2F5F5F5F5F5F5F5F5F5F5F5F5F5F5F5F5F5F5F5DCF528F5F5F5F5F5F5F5F5F5F5F5F5F5F5F5F5F5F5F5F5F5F5F5F5F5F5F5F5F5F5F5F5F5F5F5F5F5F5F5F5F5F5F5F5F5F5F5F5F5F5F5F5F5F5F5F5F5F5F5
310
F5F5F5F5F5F5F5F5F5F5F5F5F5F5F5F5F5F5F5F5F5F5F5F5F5F5F5F5F5F5F5F5F5F5F5F5F5F5F5F5F5F5F5F5F5F5F5F5F5F5F5F5F5F5F5F5F5F5F5F5F5F5F5F5F5F5F5F5F5F5F5F5F5F5F528F5DCF5F5F5F5F5F5F5F5F5F5F5F5F5F5F5F5F5F5F5E2E2F5E2F5F5F5F5F5F5F5F5F5F5F5F5F5F5F5F5F5DCF528F5F5F5F5F5F5
310
F5F5F5F5F5F5F5F5F5F5F5F5F5F5F5F5F5F5F5F5F5F5F5F5F5F5F5F5F5F5F5F5F5F5F5F5F5F5F5F5F5F5F5F5F5F5F5F5F5F5F5F5F5F5F5F5F5F5F5F5F5F5F5F5F5F5F5F5F5F5F5F5F5F5F5F5F5F5F5F5F5F5F5F5F5F5F5F5F5F5F5F5F5F5F5F5F5F5F5F5F5F5F5F5F5F5F5F5F5F5F5F5F5F5F5F5F5F5F5F5F5F5F5F5F5F5F5
310
F528F5DCF5F5F5F5F5F5F5F5F5F5F5F5F5F5F5F5F5E2F5E2E2F5E2F5F5F5F5F5F5F5F5F5F5F5F5F5F5F5F5F5DCF528F5F5F5F5F5F5F5F5F5F5F5F5F5F5F5F5F5F5F5F5F5F5F5F5F5F5F5F5F5F5F5F5F5F5F5F5F5F5F5F5F5F5F5F5F5F5F5F5F5F5F5F5F5F5F5F5F5F5F5F5F5F5F5F5F5F5F5F5F5F5F5F5F5F5F5F5F5F5F5F5
310
F5F5F5F5F5F5F5F5F5F5F5F5F5F5F5F5F5F5F5F5F5F5F5F5F5F5F5F5F5F5F5F5F5F5F5F5F5F5F5F5F5F5F5F5F5F5F5F5F5F5F5F5F5F528F5DCF5F5F5F5F5F5F5F5F5F5F5F5F5F5F5F5F5E2F5E2E2F5E2F5F5F5F5F5F5F5F5F5F5F5F5F5F5F5F5F5DCF528F5F5F5F5F5F5F5F5F5F5F5F5F5F5F5F5F5F5F5F5F5F5F5F5F5F5F5
310
F5F5F5F5F5F5F5F5F5F5F5F5F5F5F5F5F5F5F5F5F5F5F5F5F5F5F5F5F5F5F5F5F5F5F5F5F5F5F5F5F5F5F5F5F5F5F5F5F5F5F5F5F5F5F5F5F5F5F5F5F5F5F5F5F5F5F5F5F5F5F5F5F5F5F5F5F5F5F5F5F5F5F5F5F5F5F5F5F5F5F5F5F5F5F5F5F5F5F5F5F5F5F5F5F5F5F528F5DCF5F5F5F5F5F5F5F5F5F5F5F5F5F5F5F5F5
310
E2F5E2E2F5E2F5F5F5F5F5F5F5F5F5F5F5F5F5F5F5F5F5DCF528F5F5F5F5F5F5F5F5F5F5F5F5F5F5F5F5F5F5F5F5F5F5F5F5F5F5F5F5F5F5F5F5F5F5F5F5F5F5F5F5F5F5F5F5F5F5F5F5F5F5F5F5F5F5F5F5F5F5F5F5F5F5F5F5F5F5F5F5F5F5F5F5F5F5F5F5F5F5F5F5F5F5F5F5F5F5F5F5F5F5F5F5F5F5F5F5F5F5F5F5F5
310
F5F5F5F5F5F5F5F5F5F5F5F5F5F5F5F5F5F5F5F5F5F5F5F5F5F5F5F5F5F5F5F5F528F5DCF5F5F5F5F5F5F5F5F5F5F5F5F5F5F5F5F5E2F5E2E2F5E2F5F5F5F5F5F5F5F5F5F5F5F5F5F5F5F5F5DCF528F5F5F5F5F5F5F5F5F5F5F5F5F5F5F5F5F5F5F5F5F5F5F5F5F5F5F5F5F5F5F5F5F5F5F5F5F5F5F5F5F5F5F5F5F5F5F5F5
310
F5F5F5F5F5F5F5F5F5F5F5F5F5F5F5F5F5F5F5F5F5F5F5F5F5F5F5F5F5F5F5F5F5F5F5F5F5F5F5F5F5F5F5F5F5F5F5F5F5F5F5F5F5F5F5F5F5F5F5F5F5F5F5F5F5F5F5F5F5F5F5F5F5F5F5F5F5F5F5F5F5F5F5F5F5F528F5DCF5F5F5F5F5F5F5F5F5F5F5F5F5F5F5F5F5E2F5E2E2F5E2F5F5F5F5F5F5F5F5F5F5F5F5F5F5F5
310
F5F5DCF528F5F5F5F5F5F5F5F5F5F5F5F5F5F5F5F5F5F5F5F5F5F5F5F5F5F5F5F5F5F5F5F5F5F5F5F5F5F5F5F5F5F5F5F5F5F5F5F5F5F5F5F5F5F5F5F5F5F5F5F5F5F5F5F5F5F5F5F5F5F5F5F5F5F5F5F5F5F5F5F5F5F5F5F5F5F5F5F5F5F5F5F5F5F5F5F5F5F5F5F5F5F5F5F5F5F5F5F5F5F5F5F5F5F5F5F5F5F5F5F5F5F5
310
F5F5F5F5F5F5F5F5F5F5F5F528F5DCF5F5F5F5F5F5F5F5F5F5F5F5F5F5F5F5F5E2F5E2E2F5E2F5F5F5F5F5F5F5F5F5F5F5F5F5F5F5F5F5DCF528F5F5F5F5F5F5F5F5F5F5F5F5F5F5F5F5F5F5F5F5F5F5F5F5F5F5F5F5F5F5F5F5F5F5F5F5F5F5F5F5F5F5F5F5F5F5F5F5F5F5F5F5F5F5F5F5F5F5F5F5F5F5F5F5F5F5F5F5F5
310
F5F5F5F5F5F5F5F5F5F5F5F5F5F5F5F5F5F5F5F5F5F5F5F5F5F5F5F5F5F5F5F5F5F5F5F5F5F5F5F5F5F5F5F5F5F5F5F5F5F5F5F5F5F5F5F5F5F5F5F5F5F5F5F5F528F5DCF5F5F5F5F5F5F5F5F5F5F5F5F5F5F5F5F5E2F5E2E2F5E2F5F5F5F5F5F5F5F5F5F5F5F5F5F5F5F5F5DCF528F5F5F5F5F5F5F5F5F5F5F5F5F5F5F5F5
310
F5F5F5F5F5F5F5F5F5F5F5F5F5F5F5F5F5F5F5F5F5F5F5F5F5F5F5F5F5F5F5F5F5F5F5F5F5F5F5F5F5F5F5F5F5F5F5F5F5F5F5F5F5F5F5F5F5F5F5F5F5F5F5F5F5F5F5F5F5F5F5F5F5F5F5F5F5F5F5F5F5F5F5F5F5F5F5F5F5F5F5F5F5F5F5F5F5F5F5F5F5F5F5F5F5F5F5F5F5F5F5F5F5F5F5F5F5F528F5DCF5F5F5F5F5F5
310
F5F5F5F5F5F5F5F5F5F5F5E2F5E2E2F5E2F5F5F5F5F5F5F5F5F5F5F5F5F5F5F5F5F5DCF528282828282828282828282828282828282828282828282828282828282828282828282828282828282828282828282828282828282828282828282828282828282828282828282828282828282828282828282828282828282828
310
282828282828282828282828282828282828282828282828282828282828282828282828282828282828282828F5DCF5F5F5F5F5F5F5F5F5F5F5F5F5F5F5F5F5E2F5E2E2F5E2F5F5F5F5F5F5F5F5F5F5F5F5F5F5F5F5F5DCF528F5F5F5F5F5F5F5F5F5F5F5F5F5F5F5F5F5F5F5F5F5F5F5F5F5F5F5F5F5F5F5F5F5F5F5F5F5
310
F5F5F5F5F5F5F5F5F5F5F5F5F5F5F5F5F5F5F5F5F5F5F5F5F5F5F5F5F528F5F5F5F5F5F5F5F5F5F5F5F5F5F5F5F5F5F5F5F5F5F5F5F5F5F5F5F5F5F5F5F5F5F5F5F5F5F5F5F5F5F5F5F5F5F5F5F5F5F5F5F5F5F5F5F5F5F5F5F5F5F5F5F5F5F5F528F5DCF5F5F5F5F5F5F5F5F5F5F5F5F5F5F5F5F5E2F5E2E2F5E2F5F5F5F5
310
F5F5F5F5F5F5F5F5F5F5F5F5F5DCF528F5F5F5F5F5F5F5F5F5F5F5F5F52D2D2D2D2D2D2D2D2D2D2D2D2D2D2D2D2D2D2D2D2D2D2D2D2D2D2D2D2D2D2D2D2D2D2D2D2D2DF5F5F5F5F5F5F5F5F5F5F5F5F5F5F528F5F5F52D2D2D2DF52D2D2D2D2D2DF5F5F5F5F5F5F5F5F5F5F5F5F5F5F5F5F5F5F5F5F5F5F5F5F5F5F5F5F5F5
310
F5F5F5F5F5F5F5F5F5F5F5F5F5F5F5F5F5F5F5F5F5F5F528F5DCF5F5F5F5F5F5F5F5F5F5F5F5F5F5F5F5F5E2F5E2E2F5E2F5F5F5F5F5F5F5F5F5F5F5F5F5F5F5F5F5DCF528F5F5F5F5F5F5F5F5F5F5F5F5F52D2D2D2D2D2D2D2D2D2D2D2D2D2D2D2D2D2D2D2D2D2D2D2D2D2D2D2D2D2D2D2D2D2D2D2D2D2DF5F5F5F5F5F5F5
310
F5F5F5F5F5F5F5F528F5F5F52D2D2D2DF52D2D2D2DF52DF5F5F5F5F5F5F5F5F5F5F5F5F5F5F5F5F5F5F5F5F5F5F5F5F5F5F5F5F5F5F5F5F5F5F5F5F5F5F5F5F5F5F5F5F5F5F5F5F5F5F5F5F528F5DCF5F5F5F5F5F5F5F5F5F5F5F5F5F5F5F5F5E2F5E2E2F5E2F5F5F5F5F5F5F5F5F5F5F5F5F5F5F5F5F5DCF528F5F5F5F5F5
310
F5F5F5F5F5F5F5F5F5F5F5F5F5F5F5F5F5F5F5F5F5F5F5F5F5F5F5F5F5F5F5F5F5F5F5F5F5F5F5F5F5F5F5F5F5F5F5F5F5F5F5F5F5F5F5F5F5F5F5F5F528F5F5F5F5F5F5F5F5F5F5F5F5F5F5F5F5F5F5F5F5F5F5F5F5F5F5F5F5F5F5F5F5F5F5F5F5F5F5F5F5F5F5F5F5F5F5F5F5F5F5F5F5F5F5F5F5F5F5F5F5F5F5F5F5F5
310
F5F528F5DCF5F5F5F5F5F5F5F5F5F5F5F5F5F5F5F5F5E2F5E2E2F5E2F5F5F5F5F5F5F5F5F5F5F5F5F5F5F5F5F5DCF52828282828282828282828282828282828282828282828282828282D2D2D2D2D2D2D2D2D2D2D2D2D28282828282828282828282828282828282828282828282828282828282828282828282828282828
310
2828282828282828282828282828282828282828282828282828282828282828282828282828282828282828282828282828282828282828F5DCF5F5F5F5F5F5F5F5F5F5F5F5F5F5F5F5F5E2F5E2E2F5E2F5F5F5F5F5F5F5F5F5F5F5F5F5F5F5F5F5DCF528F5F5F5F5F5F5F5F5F5F5F5F5F5F5F5F5F5F5F5F5F5F5F5F5F5F5
310
2D2D2D2D2D2D2D2D2D2D2D2D2DF5F5F5F5F5F5F5F5F5F5F5F5F5F5F5F5F5F5F5F5F5F5F5F5F5F5F528F5F5F52D2D2D2D2D2D2D2D2D2D2DF5F52D2D2D2D2D2D2D2D2D2DF5F5F5F5F5F5F5F5F5F5F5F5F5F5F5F5F5F5F5F5F5F5F5F5F5F5F5F5F5F5F5F5F5F5F5F5F5F5F5F5F528F5DCF5F5F5F5F5F5F5F5F5F5F5F5F5F5F5F5
310
F5E2F5E2E2F5E2F5F5F5F5F5F5F5F5F5F5F5F5F5F5F5F5F5DCF528F5F5F5F5F5F5F5F5F5F5F5F5F5F5F5F5F5F5F5F5F5F5F5F5F5F52D2D2D2D2D2D2D2D2D2D2D2D2DF5F5F5F5F5F5F5F5F5F5F5F5F5F5F5F5F5F5F5F5F5F5F5F5F5F5F528F5F5F52D2D2D2D2D2D2D2D2D2D2DF52D2D2D2D2D2D2D2D2D2D2DF5F5F5F5F5F5F5
310
F5F5F5F5F5F5F5F5F5F5F5F5F5F5F5F5F5F5F5F5F5F5F5F5F5F5F5F5F5F5F5F5F5F528F5DCF5F5F5F5F5F5F5F5F5F5F5F5F5F5F5F5F5E2F5E2E2F5F5F5F5F5F5F5F5F5F5F5F5F5F5F5F5F5F5F5DCF528F5F5F5F5F5F5F5F5F5F5F5F5F5F5F5F5F5F5F5F5F5F5F5F5F5F5F5F5F5F5F5F5F5F5F5F5F5F5F5F5F5F5F5F5F5F5F5
310
F5F5F5F5F5F5F5F5F5F5F5F5F5F5F5F5F5F5F528F5F5F5F5F5F5F5F5F5F5F5F5F5F5F5F5F5F5F5F5F5F5F5F5F5F5F5F5F5F5F5F5F5F5F5F5F5F5F5F5F5F5F5F5F5F5F5F5F5F5F5F5F5F5F5F5F5F5F5F5F5F5F5F5F5F5F528F5DCF5F5F5F5F5F5F5F5F5F5F5F5F5F5F5F5F5F5F5E2E2F5F5F5F5F5F5F5F5F5F5F5F5F5F5F5F5
310
F5F5F5DCF52828282828282828282828282828282828282828282828282828282828282828282828282828282828282828282828282828282828282828282828282828282828282828282828282828282828282828282828282828282828282828282828282828282828282828282828282828282828282828282828282828
310
2828282828282828282828282828F5DCF5F5F5F5F5F5F5F5F5F5F5F5F5F5F5F5F5F5F5E2E2F5F5F5F5F5F5F5F5F5F5F5F5F5F5F5F5F5F5F5DCF5F5F5F5F5F5F5F5F5F5F5F5F5F5F5F5F5F5F5F5F5F5F5F5F5F5F5F5F5F5F5F5F5F5F5F5F5F5F5F5F5F5F5F5F5F5F5F5F5F5F5F5F5F5F5F5F5F5F5F5F5F5F5F5F5F5F5F5F5F5
310
F5F5F5F5F5F5F5F5F5F5F5F5F5F5F5F5F5F5F5F5F5F5F5F5F5F5F5F5F5F5F5F5F5F5F5F5F5F5F5F5F5F5F5F5F5F5F5F5F5F5F5F5F5F5F5F5F5F5F5F5F5F5F5F5F5F5F5F5DCF5F5F5F5F5F5F5F5F5F5F5F5F5F5F5F5F5F5F5E2E2F5F5F5F5F5F5F5F5F5F5F5F5F5F5F5F5F5F5F5DCDCDCDCDCDCDCDCDCDCDCDCDCDCDCDCDCDC
310
DCDCDCDCDCDCDCDCDCDCDCDCDCDCDCDCDCDCDCDCDCDCDCDCDCDCDCDCDCDCDCDCDCDCDCDCDCDCDCDCDCDCDCDCDCDCDCDCDCDCDCDCDCDCDCDCDCDCDCDCDCDCDCDCDCDCDCDCDCDCDCDCDCDCDCDCDCDCDCDCDCDCDCDCDCDCDCDCDCDCDCDCDCDCDCDCDCDCDCDCDCDCDCDCDCDCDCDCDCDCDCDCDCDCDCDCDCDCDCDCDCDCF5F5F5F5F5
310
F5F5F5F5F5F5F5F5F5F5F5F5F5F5E2E2F5F5F5F5F5F5F5F5F5F5F5F5F5F5F5F5F5F5F5DCDCDCDCDCDCDCDCDCDCDCDCDCDCDCDCDCDCDCDCDCDCDCDCDCDCDCDCDCDCDCDCDCDCDCDCDCDCDCDCDCDCDCDCDCDCDCDCDCDCDCDCDCDCDCDCDCDCDCDCDCDCDCDCDCDCDCDCDCDCDCDCDCDCDCDCDCDCDCDCDCDCDCDCDCDCDCDCDCDCDCDC
310
DCDCDCDCDCDCDCDCDCDCDCDCDCDCDCDCDCDCDCDCDCDCDCDCDCDCDCDCDCDCDCDCDCDCDCDCDCDCDCDCDCDCDCDCDCDCDCDCF5F5F5F5F5F5F5F5F5F5F5F5F5F5F5F5F5F5F5E2E2F5F5F5F5F5F5F5F5F5F5F5F5F5F5F5F5F5F5F5F5F5F5F5F5F5F5F5F5F5F5F5F5F5F5F5F5F5F5F5F5F5F5F5F5F5F5F5F5F5F5F5F5F5F5F5F5F5F5
310
F5F5F5F5F5F5F5F5F5F5F5F5F5F5F5F5F5F5F5F5F5F5F5F5F5F5F5F5F5F5F5F5F5F5F5F5F5F5F5F5F5F5F5F5F5F5F5F5F5F5F5F5F5F5F5F5F5F5F5F5F5F5F5F5F5F5F5F5F5F5F5F5F5F5F5F5F5F5F5F5F5F5F5F5F5F5F5F5F5F5F5F5F5F5F5F5F5F5F5F5F5F5F5F5F5F5F5F5F5F5F5F5F5F5F5F5F5F5F5F5E2E2F5F5F5F5F5
310
F5F5F5F5F5F5F5F5F5F5F5F5F5F5F5F5F5F5F5F5F5F5F5F5F5F5F5F5F5F5F5F5F5F5F5F5F5F5F5F5F5F5F5F5F5F5F5F5F5F5F5F5F5F5F5F5F5F5F5F5F5F5F5F5F5F5F5F5F5F5F5F5F5F5F5F5F5F5F5F5F5F5F5F5F5F5F5F5F5F5F5F5F5F5F5F5F5F5F5F5F5F5F5F5F5F5F5F5F5F5F5F5F5F5F5F5F5F5F5F5F5F5F5F5F5F5F5
310
F5F5F5F5F5F5F5F5F5F5F5F5F5F5F5F5F5F5F5F5F5F5F5F5F5F5F5F5F5F5F5F5F5F5F5F5F5F5F5F5F5F5F5F5F5F5E2E2F5F5F5F5F5F5F5F5F5F5F5F5F5F5F5F5F5F5F5F5F5F5F5F5F5F5F5F5F5F5F5F5F5F5F5F5F5F5F5F5F5F5F5F5F5F5F5F5F5F5F5F5F5F5F5F5F5F5F5F5F5F5F5F5F5F5F5F5F5F5F5F5F5F5F5F5F5F5F5
310
F5F5F5F5F5F5F5F5F5F5F5F5F5F5F5F5F5F5F5F5F5F5F5F5F5F5F5F5F5F5F5F5F5F5F5F5F5F5F5F5F5F5F5F5F5F5F5F5F5F5F5F5F5F5F5F5F5F5F5F5F5F5F5F5F5F5F5F5F5F5F5F5F5F5F5F5F5F5F5F5F5F5F5F5F5F5F5F5F5F5F5F5F5F5F5F5F5F5F5E2E2F5F5F5F5F5F5F5F5F5F5F5F5F5F5F5F5F5F5F5F5F5F5F5F5F5F5
310
F5F5F5F5F5F5F5F5F5F5F5F5F5F5F5F5F5F5F5F5F5F5F5F5F5F5F5F5F5F5F5F5F5F5F5F5F5F5F5F5F5F5F5F5F5F5F5F5F5F5F5F5F5F5F5F5F5F5F5F5F5F5F5F5F5F5F5F5F5F5F5F5F5F5F5F5F5F5F5F5F5F5F5F5F5F5F5F5F5F5F5F5F5F5F5F5F5F5F5F5F5F5F5F5F5F5F5F5F5F5F5F5F5F5F5F5F5F5F5F5F5F5F5F5F5F5F5
310
F5F5F5F5F5F5F5F5F5F5F5F5F5F5F5F5F5F5F5F5F5F5F5F5F5E2E2F5E2F5F5F5F5F5F5F5F5F5F5F5F5F5F5F5F5F5F5F5F5F5F5F5F5F5F5F5F5F5F5F5F5F5F5F5F5F5F5F5F5F5F5F5F5F5F5F5F5F5F5F5F5F5F5F5F5F5F5F5F5F5F5F5F5F5F5F5F5F5F5F5F5F5F5F5F5F5F5F5F5F5F5F5F5F5F5F5F5F5F5F5F5F5F5F5F5F5F5
310
F5F5F5F5F5F5F5F5F5F5F5F5F5F5F5F5F5F5F5F5F5F5F5F5F5F5F5F5F5F5F5F5F5F5F5F5F5F5F5F5F5F5F5F5F5F5F5F5F5F5F5F5F5F5F5F5F5F5F5F5F5F5F5F5F5F5F5F5F5F5F5F5F5F5F5F5E2F5E2E2F5E2F5F5F5F5F5F5F5F5F5F5F5F5F5F5F5F5F5F5F5F5F5F5F5F5F5F5F5F5F5F5F5F5F5F5F5F5F5F5F5F5F5F5F5F5F5
310
F5F5F5F5F5F5F5F5F5F5F5F5F5F5F5F5F5F5F5F5F5F5F5F5F5F5F5F5F5F5F5F5F5F5F5F5F5F5F5F5F5F5F5F5F5F5F5F5F5F5F5F5F5F5F5F5F5F5F5F5F5F5F5F5F5F5F5F5F5F5F5F5F5F5F5F5F5F5F5F5F5F5F5F5F5F5F5F5F5F5F5F5F5F5F5F5F5F5F5F5F5F5F5F5F5F5F5F5F5F5F5F5F5F5F5F5F5F5F5F5F5F5F5F5F5F5F5
310
F5F5E2F5E2E2F5E2F5F5F5F5F5F5F5F5F5F5F5F5F5F5F5F5F5F5F5F5F5F5F5F5F5F5F5F5F5F5F5F5F5F5F5F5F5F5F5F5F5F5F5F5F5F5F5F5F5F5F5F5F5F5F5F5F5F5F5F5F5F5F5F5F5F5F5F5F5F5F5F5F5F5F5F5F5F5F5F5F5F5F5F5F5F5F5F5F5F5F5F5F5F5F5F5F5F5F5F5F5F5F5F5F5F5F5F5F5F5F5F5F5F5F5F5F5F5F5
310
F5F5F5F5F5F5F5F5F5F5F5F5F5F5F5F5F5F5F5F5F5F5F5F5F5F5F5F5F5F5F5F5F5F5F5F5F5F5F5F5F5F5F5F5F5F5F5F5F5F5F5F5F5F5F5E2F5E2E2F5E2F5F5F5F5F5F5F5F5F5F5F5F5F5F5F5F5F5F5F5F5F5F5F5F5F5F5F5F5F5F5F5F5F5F5F5F5F5F5F5F5F5F5F5F5F5F5F5F5F5F5F5F5F5F5F5F5F5F5F5F5F5F5F5F5F5F5
310
F5F5F5F5F5F5F5F5F5F5F5F5F5F5F5F5F5F5F5F5F5F5F5F5F5F5F5F5F5F5F5F5F5F5F5F5F5F5F5F5F5F5F5F5F5F5F5F5F5F5F5F5F5F5F5F5F5F5F5F5F5F5F5F5F5F5F5F5F5F5F5F5F5F5F5F5F5F5F5F5F5F5F5F5F5F5F5F5F5F5F5F5F5F5F5F5F5F5F5F5F5F5F5F5F5F5F5F5E2F5E2E2F5E2F5F5F5F5F5F5F5F5F5F5F5F5F5
310
F5F5F5F5F5F5F5F5F5F5F5F5F5F5F5F5F5F5F5F5F5F5F5F5F5F5F5F5F5F5F5F5F5F5F5F5F5F5F5F5F5F5F5F5F5F5F5F5F5F5F5F5F5F5F5F5F5F5F5F5F5F5F5F5F5F5F5F5F5F5F5F5F5F5F5F5F5F5F5F5F5F5F5F5F5F5F5F5F5F5F5F5F5F5F5F5F5F5F5F5F5F5F5F5F5F5F5F5F5F5F5F5F5F5F5F5F5F5F5F5F5F5F5F5F5F5F5
310
F5F5F5F5F5F5F5F5F5F5F5F5F5F5F5F5F5F5F5F5F5F5F5F5F5F5F5F5F5F5F5F5F5F5E2F5E2E2F5E2F5F5F5F5F5F5F5F5F5F5F5F5F5F5F5F5F5F5F5F5F5F5F5F5F5F5F5F5F5F5F5F5F5F5F5F5F5F5F5F5F5F5F5F5F5F5F5F5F5F5F5F5F5F5F5F5F5F5F5F5F5F5F5F5F5F5F5F5F5F5F5F5F5F5F5F5F5F5F5F5F5F5F5F5F5F5F5
310
F5F5F5F5F5F5F5F5F5F5F5F5F5F5F5F5F5F5F5F5F5F5F5F5F5F5F5F5F5F5F5F5F5F5F5F5F5F5F5F5F5F5F5F5F5F5F5F5F5F5F5F5F5F5F5F5F5F5F5F5F5F5F5F5F5F5F5F5F5F5F5F5F5F5F5F5F5F5F5F5F5F5F5F5F5F5F5E2F5E2E2F5E2F5F5F5F5F5F5F5F5F5F5F5F5F5F5F5F5F5F5F5F5F5F5F5F5F5F5F5F5F5F5F5F5F5F5
310
F5F5F5F5F5F5F5F5F5F5F5F5F5F5F5F5F5F5F5F5F5F5F5F5F5F5F5F5F5F5F5F5F5F5F5F5F5F5F5F5F5F5F5F5F5F5F5F5F5F5F5F5F5F5F5F5F5F5F5F5F5F5F5F5F5F5F5F5F5F5F5F5F5F5F5F5F5F5F5F5F5F5F5F5F5F5F5F5F5F5F5F5F5F5F5F5F5F5F5F5F5F5F5F5F5F5F5F5F5F5F5F5F5F5F5F5F5F5F5F5F5F5F5F5F5F5F5
310
F5F5F5F5F5F5F5F5F5F5F5F5F5E2F5E2E2F5E2E2E2E2E2E2E2E2E2F5F5F5F5F5F5F5F5F5E2E2E2E2E2E2E2E2E2E2E2E2E2E2E2E2F5F5F5F5F5F5F5F5F5E2E2E2E2E2E2E2E2E2E2E2E2E2E2E2E2F5F5F5F5F5F5F5F5F5E2E2E2E2E2E2E2E2E2E2E2E2E2E2E2E2F5F5F5F5F5F5F5F5F5E2E2E2E2E2E2E2E2E2E2E2E2E2E2E2E2
310
F5F5F5F5F5F5F5F5F5E2E2E2E2E2E2E2E2E2E2E2E2E2E2E2E2F5F5F5F5F5F5F5F5F5E2E2E2E2E2E2E2E2E2E2E2E2E2E2E2E2F5F5F5F5F5F5F5F5F5E2E2E2E2E2E2E2E2F5E2E2F5F5F5F5F5F5F5F5F5F5F5F5F5F5F5F5F5F5F5F5F5F5F5F5F5F5F5F5F5F5F5F5F5F5F5F5F5F5F5F5F5F5F5F5F5F5F5F5F5F5F5F5F5F5F5F5F5
310
F5F5F5F5F5F5F5F5F5F5F5F5F5F5F5F5F5F5F5F5F5F5F5F5F5F5F5F5F5F5F5F5F5F5F5F5F5F5F5F5F5F5F5F5F5F5F5F5F5F5F5F5F5F5F5F5F5F5F5F5F5F5F5F5F5F5F5F5F5F5F5F5F5F5F5F5F5F5F5F5F5F5F5F5F5F5F5F5F5F5F5F5F5F5F5F5F5F5F5F5F5F5F5F5F5F5F5F5F5F5F5F5F5F5F5F5F5F5F5F5F5E2E2E2E2E2E2
310
E2E2E2E2E2E2E2E2E2E2E2E2E2E2E2E2E2E2E2E2E2E2E2E2E2E2E2E2E2E2E2E2E2E2E2E2E2E2E2E2E2E2E2E2E2E2E2E2E2E2E2E2E2E2E2E2E2E2E2E2E2E2E2E2E2E2E2E2E2E2E2E2E2E2E2E2E2E2E2E2E2E2E2E2E2E2E2E2E2E2E2E2E2E2E2E2E2E2E2E2E2E2E2E2E2E2E2E2E2E2E2E2E2E2E2E2E2E2E2E2E2E2E2E2E2E2E2
310
E2E2E2E2E2E2E2E2E2E2E2E2E2E2E2E2E2E2E2E2E2E2E2E2E2E2E2E2E2E2E2E2E2E2E2E2E2E2E2E2E2E2E2E2E2E2E2E2
  0
XRECORD
  5
1EA6
102
{ACAD_REACTORS
330
1EA5
102
}
330
1EA5
100
AcDbXrecord
280
     1
102
SHADEPLOT
 70
     0
102
SHADEPLOTRESLEVEL
 70
     2
102
SHADEPLOTCUSTOMDPI
 70
   300
  0
XRECORD
  5
1E9F
102
{ACAD_REACTORS
330
1E9E
102
}
330
1E9E
100
AcDbXrecord
280
     1
102
SHADEPLOT
 70
     0
102
SHADEPLOTRESLEVEL
 70
     2
102
SHADEPLOTCUSTOMDPI
 70
   300
  0
XRECORD
  5
C8
102
{ACAD_REACTORS
330
C7
102
}
330
C7
100
AcDbXrecord
280
     1
102
MATERIAL
148
0.0
149
0.0
149
0.0
 93
        0
 94
       63
282
     0
 72
     1
 77
     1
171
     1
175
     1
179
     1
273
     0
  0
XRECORD
  5
C6
102
{ACAD_REACTORS
330
C5
102
}
330
C5
100
AcDbXrecord
280
     1
102
MATERIAL
148
0.0
149
0.0
149
0.0
 93
        0
 94
       63
282
     0
 72
     1
 77
     1
171
     1
175
     1
179
     1
273
     0
  0
XRECORD
  5
B2
102
{ACAD_REACTORS
330
B1
102
}
330
B1
100
AcDbXrecord
280
     1
102
MATERIAL
148
0.0
149
0.0
149
0.0
 93
        0
 94
       63
282
     0
 72
     1
 77
     1
171
     1
175
     1
179
     1
273
     0
  0
XRECORD
  5
156
102
{ACAD_REACTORS
330
155
102
}
330
155
100
AcDbXrecord
280
     1
102
ACAD_ROUNDTRIP_PRE2007_TABLESTYLE
 90
        4
 91
        0
  1

 92
        4
 93
        0
  2

 94
        4
 95
        0
  3

  0
ENDSEC
  0
EOF
